  0
SECTION
  2
HEADER
  9
$ACADVER
  1
AC1015
  9
$ACADMAINTVER
 70
    20
  9
$DWGCODEPAGE
  3
ANSI_1252
  9
$INSBASE
 10
0.0
 20
0.0
 30
0.0
  9
$EXTMIN
 10
1424.612486660163
 20
671.9994553982164
 30
0.0
  9
$EXTMAX
 10
1734.610512058024
 20
1125.079913395786
 30
0.0
  9
$LIMMIN
 10
0.0
 20
0.0
  9
$LIMMAX
 10
420.0
 20
297.0
  9
$ORTHOMODE
 70
     0
  9
$REGENMODE
 70
     1
  9
$FILLMODE
 70
     1
  9
$QTEXTMODE
 70
     0
  9
$MIRRTEXT
 70
     1
  9
$LTSCALE
 40
1.0
  9
$ATTMODE
 70
     1
  9
$TEXTSIZE
 40
2.5
  9
$TRACEWID
 40
1.0
  9
$TEXTSTYLE
  7
STANDARD
  9
$CLAYER
  8
0
  9
$CELTYPE
  6
ByLayer
  9
$CECOLOR
 62
   256
  9
$CELTSCALE
 40
1.0
  9
$DISPSILH
 70
     0
  9
$DIMSCALE
 40
1.0
  9
$DIMASZ
 40
2.5
  9
$DIMEXO
 40
1.0
  9
$DIMDLI
 40
10.0
  9
$DIMRND
 40
0.0
  9
$DIMDLE
 40
0.0
  9
$DIMEXE
 40
1.0
  9
$DIMTP
 40
0.1
  9
$DIMTM
 40
0.1
  9
$DIMTXT
 40
3.5
  9
$DIMCEN
 40
0.0
  9
$DIMTSZ
 40
0.0
  9
$DIMTOL
 70
     0
  9
$DIMLIM
 70
     0
  9
$DIMTIH
 70
     0
  9
$DIMTOH
 70
     0
  9
$DIMSE1
 70
     0
  9
$DIMSE2
 70
     0
  9
$DIMTAD
 70
     1
  9
$DIMZIN
 70
     8
  9
$DIMBLK
  1

  9
$DIMASO
 70
     1
  9
$DIMSHO
 70
     1
  9
$DIMPOST
  1

  9
$DIMAPOST
  1
"
  9
$DIMALT
 70
     0
  9
$DIMALTD
 70
     2
  9
$DIMALTF
 40
0.0393701
  9
$DIMLFAC
 40
1.0
  9
$DIMTOFL
 70
     1
  9
$DIMTVP
 40
0.0
  9
$DIMTIX
 70
     0
  9
$DIMSOXD
 70
     0
  9
$DIMSAH
 70
     0
  9
$DIMBLK1
  1

  9
$DIMBLK2
  1

  9
$DIMSTYLE
  2
AM_DIN
  9
$DIMCLRD
 70
   256
  9
$DIMCLRE
 70
   256
  9
$DIMCLRT
 70
     2
  9
$DIMTFAC
 40
0.71
  9
$DIMGAP
 40
1.5
  9
$DIMJUST
 70
     0
  9
$DIMSD1
 70
     0
  9
$DIMSD2
 70
     0
  9
$DIMTOLJ
 70
     0
  9
$DIMTZIN
 70
     8
  9
$DIMALTZ
 70
     0
  9
$DIMALTTZ
 70
     0
  9
$DIMUPT
 70
     0
  9
$DIMDEC
 70
     2
  9
$DIMTDEC
 70
     3
  9
$DIMALTU
 70
     2
  9
$DIMALTTD
 70
     4
  9
$DIMTXSTY
  7
STANDARD
  9
$DIMAUNIT
 70
     0
  9
$DIMADEC
 70
     0
  9
$DIMALTRND
 40
0.0
  9
$DIMAZIN
 70
     2
  9
$DIMDSEP
 70
    46
  9
$DIMATFIT
 70
     3
  9
$DIMFRAC
 70
     0
  9
$DIMLDRBLK
  1

  9
$DIMLUNIT
 70
     2
  9
$DIMLWD
 70
    -1
  9
$DIMLWE
 70
    -1
  9
$DIMTMOVE
 70
     0
  9
$LUNITS
 70
     2
  9
$LUPREC
 70
     2
  9
$SKETCHINC
 40
1.0
  9
$FILLETRAD
 40
2.5
  9
$AUNITS
 70
     0
  9
$AUPREC
 70
     0
  9
$MENU
  1
.
  9
$ELEVATION
 40
0.0
  9
$PELEVATION
 40
0.0
  9
$THICKNESS
 40
0.0
  9
$LIMCHECK
 70
     0
  9
$CHAMFERA
 40
2.5
  9
$CHAMFERB
 40
2.5
  9
$CHAMFERC
 40
20.0
  9
$CHAMFERD
 40
0.0
  9
$SKPOLY
 70
     0
  9
$TDCREATE
 40
2454053.369449144
  9
$TDUCREATE
 40
2454053.327782477
  9
$TDUPDATE
 40
2454053.369723843
  9
$TDUUPDATE
 40
2454053.328057176
  9
$TDINDWG
 40
0.0002750579
  9
$TDUSRTIMER
 40
0.0002750579
  9
$USRTIMER
 70
     1
  9
$ANGBASE
 50
0.0
  9
$ANGDIR
 70
     0
  9
$PDMODE
 70
     0
  9
$PDSIZE
 40
0.0
  9
$PLINEWID
 40
0.0
  9
$SPLFRAME
 70
     0
  9
$SPLINETYPE
 70
     6
  9
$SPLINESEGS
 70
     8
  9
$HANDSEED
  5
472
  9
$SURFTAB1
 70
     6
  9
$SURFTAB2
 70
     6
  9
$SURFTYPE
 70
     6
  9
$SURFU
 70
     6
  9
$SURFV
 70
     6
  9
$UCSBASE
  2

  9
$UCSNAME
  2

  9
$UCSORG
 10
0.0
 20
0.0
 30
0.0
  9
$UCSXDIR
 10
1.0
 20
0.0
 30
0.0
  9
$UCSYDIR
 10
0.0
 20
1.0
 30
0.0
  9
$UCSORTHOREF
  2

  9
$UCSORTHOVIEW
 70
     0
  9
$UCSORGTOP
 10
0.0
 20
0.0
 30
0.0
  9
$UCSORGBOTTOM
 10
0.0
 20
0.0
 30
0.0
  9
$UCSORGLEFT
 10
0.0
 20
0.0
 30
0.0
  9
$UCSORGRIGHT
 10
0.0
 20
0.0
 30
0.0
  9
$UCSORGFRONT
 10
0.0
 20
0.0
 30
0.0
  9
$UCSORGBACK
 10
0.0
 20
0.0
 30
0.0
  9
$PUCSBASE
  2

  9
$PUCSNAME
  2

  9
$PUCSORG
 10
0.0
 20
0.0
 30
0.0
  9
$PUCSXDIR
 10
1.0
 20
0.0
 30
0.0
  9
$PUCSYDIR
 10
0.0
 20
1.0
 30
0.0
  9
$PUCSORTHOREF
  2

  9
$PUCSORTHOVIEW
 70
     0
  9
$PUCSORGTOP
 10
0.0
 20
0.0
 30
0.0
  9
$PUCSORGBOTTOM
 10
0.0
 20
0.0
 30
0.0
  9
$PUCSORGLEFT
 10
0.0
 20
0.0
 30
0.0
  9
$PUCSORGRIGHT
 10
0.0
 20
0.0
 30
0.0
  9
$PUCSORGFRONT
 10
0.0
 20
0.0
 30
0.0
  9
$PUCSORGBACK
 10
0.0
 20
0.0
 30
0.0
  9
$USERI1
 70
     0
  9
$USERI2
 70
     0
  9
$USERI3
 70
     0
  9
$USERI4
 70
     0
  9
$USERI5
 70
     0
  9
$USERR1
 40
0.0
  9
$USERR2
 40
0.0
  9
$USERR3
 40
0.0
  9
$USERR4
 40
0.0
  9
$USERR5
 40
0.0
  9
$WORLDVIEW
 70
     1
  9
$SHADEDGE
 70
     3
  9
$SHADEDIF
 70
    70
  9
$TILEMODE
 70
     1
  9
$MAXACTVP
 70
    64
  9
$PINSBASE
 10
0.0
 20
0.0
 30
0.0
  9
$PLIMCHECK
 70
     0
  9
$PEXTMIN
 10
1.000000000000000E+20
 20
1.000000000000000E+20
 30
1.000000000000000E+20
  9
$PEXTMAX
 10
-1.000000000000000E+20
 20
-1.000000000000000E+20
 30
-1.000000000000000E+20
  9
$PLIMMIN
 10
0.0
 20
0.0
  9
$PLIMMAX
 10
420.0
 20
297.0
  9
$UNITMODE
 70
     0
  9
$VISRETAIN
 70
     1
  9
$PLINEGEN
 70
     0
  9
$PSLTSCALE
 70
     1
  9
$TREEDEPTH
 70
  3020
  9
$CMLSTYLE
  2
Standard
  9
$CMLJUST
 70
     0
  9
$CMLSCALE
 40
20.0
  9
$PROXYGRAPHICS
 70
     1
  9
$MEASUREMENT
 70
     1
  9
$CELWEIGHT
370
    -1
  9
$ENDCAPS
280
     0
  9
$JOINSTYLE
280
     0
  9
$LWDISPLAY
290
     0
  9
$INSUNITS
 70
     4
  9
$HYPERLINKBASE
  1

  9
$STYLESHEET
  1

  9
$XEDIT
290
     1
  9
$CEPSNTYPE
380
     0
  9
$PSTYLEMODE
290
     1
  9
$FINGERPRINTGUID
  2
{34801C83-1167-48A2-A094-68DB9DB47FEB}
  9
$VERSIONGUID
  2
{7C25B8D7-6444-4B4C-B038-4408A7C3EF28}
  9
$EXTNAMES
290
     1
  9
$PSVPSCALE
 40
0.0
  9
$OLESTARTUP
290
     0
  0
ENDSEC
  0
SECTION
  2
CLASSES
  0
CLASS
  1
ACDBDICTIONARYWDFLT
  2
AcDbDictionaryWithDefault
  3
ObjectDBX Classes
 90
        0
280
     0
281
     0
  0
CLASS
  1
ACDBPLACEHOLDER
  2
AcDbPlaceHolder
  3
ObjectDBX Classes
 90
        0
280
     0
281
     0
  0
CLASS
  1
LAYOUT
  2
AcDbLayout
  3
ObjectDBX Classes
 90
        0
280
     0
281
     0
  0
CLASS
  1
AMGSETTINGSOBJ
  2
AmgSettingsObj
  3
"AcadM|Product Description: AutoCAD Mechanical 2000|Company: Autodesk"
 90
        0
280
     0
281
     0
  0
CLASS
  1
ACME_DOCUMENT
  2
AcMeDbDoc
  3
AcMeServices
 90
        0
280
     0
281
     0
  0
CLASS
  1
ACMESCOPE
  2
AcMeScope
  3
AcMeServices
 90
        0
280
     0
281
     0
  0
CLASS
  1
ACMECOMMANDHISTORY
  2
AcMeCommandHistory
  3
AcMeServices
 90
        0
280
     0
281
     0
  0
CLASS
  1
DICTIONARYVAR
  2
AcDbDictionaryVar
  3
ObjectDBX Classes
 90
        0
280
     0
281
     0
  0
CLASS
  1
ACIMSYSVARMAN
  2
AcImSysVarManager
  3
AcMeServices
 90
        0
280
     0
281
     0
  0
CLASS
  1
ACIMREALSYSVAR
  2
AcImRealSysVar
  3
AcMeServices
 90
        0
280
     0
281
     0
  0
CLASS
  1
ACIMINTSYSVAR
  2
AcImIntSysVar
  3
AcMeServices
 90
        0
280
     0
281
     0
  0
CLASS
  1
ACMEDRAWINGMAN
  2
AcMeDrawingMan
  3
AcMeServices
 90
        0
280
     0
281
     0
  0
CLASS
  1
ACMEVIEW
  2
AcMeView
  3
AcMeServices
 90
        0
280
     0
281
     0
  0
CLASS
  1
ACDBENTITYCACHE
  2
AcMeEntityCache
  3
AcMeServices
 90
        0
280
     0
281
     0
  0
CLASS
  1
GSMANAGER
  2
AcMeGSManager
  3
AcMeServices
 90
        0
280
     0
281
     0
  0
CLASS
  1
AMDTINTERNALREACTOR
  2
AmdtInternalReactor
  3
AcMeServices
 90
        0
280
     0
281
     0
  0
CLASS
  1
ACMESTATEMGR
  2
AcMeStateMgr
  3
AcMeServices
 90
        0
280
     0
281
     0
  0
CLASS
  1
ACGREFMASTER
  2
AcGrefMaster
  3
AcAttribServices
 90
        0
280
     0
281
     0
  0
CLASS
  1
ACME_DATABASE
  2
AcMeDbDatabase
  3
AcMeServices
 90
        0
280
     0
281
     0
  0
CLASS
  1
ACRFINSADJUSTERMGR
  2
AcRfInsAdjusterMgr
  3
AcMeServices
 90
        0
280
     0
281
     0
  0
CLASS
  1
ACGREFACADMASTER
  2
AcGrefacadMaster
  3
AcGrefServices
 90
        0
280
     0
281
     0
  0
CLASS
  1
AMIMASTER
  2
AmiMaster
  3
AmiServices
 90
        0
280
     0
281
     0
  0
CLASS
  1
ACIMSTRSYSVAR
  2
AcImStrSysVar
  3
AcMeServices
 90
        0
280
     0
281
     0
  0
CLASS
  1
ACMSTANDARDDIN
  2
AcmStandardDIN
  3
"Amdt_StdImp|Product Description: AutoCAD Mechanical 2004 DX|Company: Autodesk"
 90
        0
280
     0
281
     0
  0
CLASS
  1
AMGOBJPROPCFG
  2
AmgObjPropCfg
  3
"AmgLay|Product Description: AutoCAD Mechanical 2000|Company: Autodesk"
 90
        1
280
     0
281
     0
  0
CLASS
  1
AMDTEDGESTANDARDDIN
  2
AmdtEdgeStdDIN
  3
"Amdt_StdImp|Product Description: AutoCAD Mechanical 2004 DX|Company: Autodesk"
 90
        0
280
     0
281
     0
  0
CLASS
  1
ACMSURFSTANDARDDIN
  2
AcmSurfTextStdDIN
  3
"Amdt_StdImp|Product Description: AutoCAD Mechanical 2004 DX|Company: Autodesk"
 90
        0
280
     0
281
     0
  0
CLASS
  1
ACMFCFSTANDARDDIN
  2
AcmFCFStdDIN
  3
"Amdt_StdImp|Product Description: AutoCAD Mechanical 2004 DX|Company: Autodesk"
 90
        0
280
     0
281
     0
  0
CLASS
  1
ACMWELDSTANDARDDIN
  2
AcmWeldingStdDIN
  3
"Amdt_StdImp|Product Description: AutoCAD Mechanical 2004 DX|Company: Autodesk"
 90
        0
280
     0
281
     0
  0
CLASS
  1
ACMIDSTANDARDDIN
  2
AcmIdStdDIN
  3
"Amdt_StdImp|Product Description: AutoCAD Mechanical 2004 DX|Company: Autodesk"
 90
        0
280
     0
281
     0
  0
CLASS
  1
ACMDATUMSTANDARDDIN
  2
AcmDatumStdDIN
  3
"Amdt_StdImp|Product Description: AutoCAD Mechanical 2004 DX|Company: Autodesk"
 90
        0
280
     0
281
     0
  0
CLASS
  1
ACMBOMSTANDARDDIN
  2
AcmBOMStdDIN
  3
"Amdt_StdImp|Product Description: AutoCAD Mechanical 2004 DX|Company: Autodesk"
 90
        0
280
     0
281
     0
  0
CLASS
  1
ACMDETAILSTANDARDDIN
  2
AmdtDetailSymStdDIN
  3
"Amdt_StdImp|Product Description: AutoCAD Mechanical 2004 DX|Company: Autodesk"
 90
        0
280
     0
281
     0
  0
CLASS
  1
ACMSECTIONSTANDARDDIN
  2
AmdtSectionSymStdDIN
  3
"Amdt_StdImp|Product Description: AutoCAD Mechanical 2004 DX|Company: Autodesk"
 90
        0
280
     0
281
     0
  0
CLASS
  1
ACMCENTERLINESTANDARDDIN
  2
AmdtCenterLineStdDIN
  3
"Amdt_StdImp|Product Description: AutoCAD Mechanical 2004 DX|Company: Autodesk"
 90
        0
280
     0
281
     0
  0
CLASS
  1
ACMTHREADLINESTANDARDDIN
  2
AmdtThreadLineStdDIN
  3
"Amdt_StdImp|Product Description: AutoCAD Mechanical 2004 DX|Company: Autodesk"
 90
        0
280
     0
281
     0
  0
CLASS
  1
ACAMGLAYSTD
  2
AcAmgLayStd
  3
"AcAmgLayStd|Product Description: AutoCAD Mechanical 2000|Company: Autodesk"
 90
        0
280
     0
281
     0
  0
CLASS
  1
ACAMGDIMSTD
  2
AcAmgDimStd
  3
"AcAmgDimStd|Product Description: AutoCAD Mechanical 2000|Company: Autodesk"
 90
        0
280
     0
281
     0
  0
CLASS
  1
ACAMGTITLESTD
  2
AcAmgTitleStd
  3
"TITLEAPP"
 90
        0
280
     0
281
     0
  0
CLASS
  1
ACMDATADICTIONARY
  2
AcmDataDictionary
  3
"AcmSymBB|Product Description: AutoCAD Mechanical 2004 DX|Company: Autodesk"
 90
        0
280
     0
281
     0
  0
CLASS
  1
ACMDATAENTRYBLOCK
  2
AcmDataEntryBlock
  3
"AcmSymBB|Product Description: AutoCAD Mechanical 2004 DX|Company: Autodesk"
 90
        0
280
     0
281
     0
  0
CLASS
  1
LAYER_INDEX
  2
AcDbLayerIndex
  3
ObjectDBX Classes
 90
    32768
280
     0
281
     0
  0
CLASS
  1
IDBUFFER
  2
AcDbIdBuffer
  3
ObjectDBX Classes
 90
    32768
280
     0
281
     0
  0
CLASS
  1
ACMNOTESTANDARDDIN
  2
AmdtNoteStdDIN
  3
"Amdt_StdImp|Product Description: AutoCAD Mechanical 2004 DX|Company: Autodesk"
 90
        0
280
     0
281
     0
  0
CLASS
  1
ACAMGHOLECHARTSTDDIN
  2
AcAmgHoleChartStdDIN
  3
ACMSYMBB_MODULE_NAME
 90
        0
280
     0
281
     0
  0
CLASS
  1
AM_DRAWING_MGR
  2
AcDmDwgMgr
  3
AcMechDwgViewMgmt
 90
        0
280
     0
281
     0
  0
CLASS
  1
AM_DWG_DOCUMENT
  2
AcDmDwgDocument
  3
AcMechDwgViewMgmt
 90
        0
280
     0
281
     0
  0
CLASS
  1
AM_DWG_SHEET
  2
AcDmSheet
  3
AcMechDwgViewMgmt
 90
        0
280
     0
281
     0
  0
CLASS
  1
AM_VIEWDIMPARMAP
  2
AcDmViewDimParMap
  3
AcMechDwgViewMgmt
 90
        0
280
     0
281
     0
  0
CLASS
  1
AM_DWGMGR_NAME
  2
AcDmDwgMgrName
  3
AcMechDwgViewMgmt
 90
        0
280
     0
281
     0
  0
CLASS
  1
AMDTMENUSTATEMGR
  2
AmdtMenuStateMgr
  3
McadcomServices
 90
        0
280
     0
281
     0
  0
CLASS
  1
AMDTMCOMMENUSTATE
  2
AmdtMcomMenuState
  3
McadcomServices
 90
        0
280
     0
281
     0
  0
CLASS
  1
MAPIAMMOUDLE
  2
MApiAmModule
  3
MApiAmServices
 90
        0
280
     0
281
     0
  0
CLASS
  1
AMDTADMENUSTATE
  2
AmdtAdMenuState
  3
DesignerServices
 90
        0
280
     0
281
     0
  0
CLASS
  1
ADAPPL
  2
AcAdAppl
  3
DesignerServices
 90
        0
280
     0
281
     0
  0
CLASS
  1
DEPMGR
  2
AcAdDepMgr
  3
DesignerServices
 90
        0
280
     0
281
     0
  0
CLASS
  1
PARAMMGR
  2
AcAdParamMgr
  3
DesignerServices
 90
        0
280
     0
281
     0
  0
CLASS
  1
PARAMSCOPE
  2
AcAdParamScope
  3
DesignerServices
 90
        0
280
     0
281
     0
  0
CLASS
  1
NAMEDAPPL
  2
AcAdNamedAppl
  3
DesignerServices
 90
        0
280
     0
281
     0
  0
CLASS
  1
AMDTDMMENUSTATE
  2
AmdtDmMenuState
  3
AcMechDwgViewMgmt
 90
        0
280
     0
281
     0
  0
CLASS
  1
AMDTAMMENUSTATE
  2
AmdtAmMenuState
  3
DesignerAssemblies
 90
        0
280
     0
281
     0
  0
CLASS
  1
ACAMPROJECT
  2
AcAmProject
  3
DesignerAssemblies
 90
        0
280
     0
281
     0
  0
CLASS
  1
ACAMGRCOMPDEF
  2
AcAmGrCompDef
  3
DesignerAssemblies
 90
        0
280
     0
281
     0
  0
CLASS
  1
ACCMCONTEXT
  2
AcCmContext
  3
DesignerAssemblies
 90
        0
280
     0
281
     0
  0
CLASS
  1
ACAMCOMPDEF
  2
AcAmCompDef
  3
DesignerAssemblies
 90
        0
280
     0
281
     0
  0
CLASS
  1
ACAMCOMPDEFMGR
  2
AcAmCompDefMgr
  3
DesignerAssemblies
 90
        0
280
     0
281
     0
  0
CLASS
  1
AMCONTEXTMGR
  2
AcAmContextMgr
  3
DesignerAssemblies
 90
        0
280
     0
281
     0
  0
CLASS
  1
ACAMCONTEXTMODELER
  2
AcAmContextModeler
  3
DesignerAssemblies
 90
        0
280
     0
281
     0
  0
CLASS
  1
CATALOGSTATE
  2
AcAmCatalogState
  3
DesignerAssemblies
 90
        0
280
     0
281
     0
  0
CLASS
  1
ACAMGRCOMPDEFSET
  2
AcAmGrCompDefSet
  3
DesignerAssemblies
 90
        0
280
     0
281
     0
  0
CLASS
  1
AMDTBROWSERDBTAB
  2
AmdtBrowserDbTab
  3
McadcomServices
 90
        0
280
     0
281
     0
  0
CLASS
  1
CBROWSERAPPOBJECT
  2
CBrowserAppObject
  3
McadcomServices
 90
        0
280
     0
281
     0
  0
CLASS
  1
DM_PLACEHOLDER
  2
AcDmSelsetPlaceholder
  3
AcMechDwgViewMgmt
 90
        0
280
     0
281
     0
  0
CLASS
  1
TABLESTYLE
  2
AcDbTableStyle
  3
ObjectDBX Classes
 90
     2047
280
     0
281
     0
  0
CLASS
  1
VAACXREFPANELOBJECT
  2
VaAcXREFPanelObject
  3
VAAC_ADDIN
 90
    32768
280
     0
281
     0
  0
CLASS
  1
VAACIMAGEINVENTORY
  2
VaAcImageInventory
  3
VAAC_ADDIN
 90
    32768
280
     0
281
     0
  0
CLASS
  1
AMDTNOTETEMPLATEDB
  2
AmdtNoteTemplateDB
  3
AMDT_STDIMP_MODULE_NAME
 90
        0
280
     0
281
     0
  0
CLASS
  1
ACAMGFILTERDAT
  2
AcAmgFilterDat
  3
"AcadM|Product Description: AutoCAD Mechanical 2000|Company: Autodesk"
 90
        0
280
     0
281
     0
  0
CLASS
  1
ACMBOM
  2
AcmBom
  3
"AcmSymBB|Product Description: AutoCAD Mechanical 2004 DX|Company: Autodesk"
 90
    32768
280
     0
281
     0
  0
CLASS
  1
AMDTFORMULAUPDATEDISPATCHER
  2
AmdtFormulaUpdateDispatcher
  3
AcMeServices
 90
    32768
280
     0
281
     0
  0
CLASS
  1
SORTENTSTABLE
  2
AcDbSortentsTable
  3
ObjectDBX Classes
 90
        0
280
     0
281
     0
  0
CLASS
  1
ACRFATTGENMGR
  2
AcRfAttGeneralMgr
  3
AcAttribServices
 90
        0
280
     0
281
     0
  0
ENDSEC
  0
SECTION
  2
TABLES
  0
TABLE
  2
VPORT
  5
8
330
0
100
AcDbSymbolTable
 70
     3
  0
VPORT
  5
469
330
8
100
AcDbSymbolTableRecord
100
AcDbViewportTableRecord
  2
*Active
 70
     0
 10
0.0
 20
0.0
 11
1.0
 21
1.0
 12
1579.611499359093
 22
898.5396843970015
 13
0.0
 23
0.0
 14
2.5
 24
2.5
 15
10.0
 25
10.0
 16
0.0
 26
0.0
 36
1.0
 17
0.0
 27
0.0
 37
0.0
 40
456.1418124434998
 41
1.378804960541149
 42
50.0
 43
0.0
 44
0.0
 50
0.0
 51
0.0
 71
     0
 72
   100
 73
     1
 74
     3
 75
     0
 76
     0
 77
     0
 78
     0
281
     0
 65
     1
110
0.0
120
0.0
130
0.0
111
1.0
121
0.0
131
0.0
112
0.0
122
1.0
132
0.0
 79
     0
146
0.0
  0
ENDTAB
  0
TABLE
  2
LTYPE
  5
5
330
0
100
AcDbSymbolTable
 70
    20
  0
LTYPE
  5
14
330
5
100
AcDbSymbolTableRecord
100
AcDbLinetypeTableRecord
  2
ByBlock
 70
     0
  3

 72
    65
 73
     0
 40
0.0
  0
LTYPE
  5
15
330
5
100
AcDbSymbolTableRecord
100
AcDbLinetypeTableRecord
  2
ByLayer
 70
     0
  3

 72
    65
 73
     0
 40
0.0
  0
LTYPE
  5
16
330
5
100
AcDbSymbolTableRecord
100
AcDbLinetypeTableRecord
  2
Continuous
 70
     0
  3
Solid line
 72
    65
 73
     0
 40
0.0
  0
LTYPE
  5
50
330
5
100
AcDbSymbolTableRecord
100
AcDbLinetypeTableRecord
  2
Amconstr
 70
     0
  3
_______________________
 72
    65
 73
     2
 40
9999.0
 49
9999.0
 74
     0
 49
0.0
 74
     0
  0
LTYPE
  5
55
330
5
100
AcDbSymbolTableRecord
100
AcDbLinetypeTableRecord
  2
Amzigzag
 70
     0
  3
/\/-/\/-/\/-/\/-/\/-/\/
 72
    65
 73
     2
 40
11.0001
 49
0.0001
 74
     4
 75
   136
340
285
 46
0.04
 50
0.0
 44
0.0
 45
0.0
 49
-11.0
 74
     0
  0
LTYPE
  5
56
330
5
100
AcDbSymbolTableRecord
100
AcDbLinetypeTableRecord
  2
AM_DIN_F_W050
 70
     0
  3
__ __ __ __ __ __ __ __ __ __ __ __ __ __ __
 72
    65
 73
     2
 40
6.25
 49
4.75
 74
     0
 49
-1.5
 74
     0
  0
LTYPE
  5
57
330
5
100
AcDbSymbolTableRecord
100
AcDbLinetypeTableRecord
  2
AM_DIN_G_W050
 70
     0
  3
____ . ____ . ____ . ____ . ____ . ____ . ____
 72
    65
 73
     4
 40
13.75
 49
9.75
 74
     0
 49
-1.5
 74
     0
 49
1.0
 74
     0
 49
-1.5
 74
     0
  0
LTYPE
  5
58
330
5
100
AcDbSymbolTableRecord
100
AcDbLinetypeTableRecord
  2
AM_DIN_K_W050
 70
     0
  3
_____ . . _____ . . _____ . . ____ .. ____
 72
    65
 73
     6
 40
16.25
 49
9.75
 74
     0
 49
-1.5
 74
     0
 49
1.0
 74
     0
 49
-1.5
 74
     0
 49
1.0
 74
     0
 49
-1.5
 74
     0
  0
LTYPE
  5
59
330
5
100
AcDbSymbolTableRecord
100
AcDbLinetypeTableRecord
  2
AM_DIN_G_W050x2
 70
     0
  3
__ . __ . __ . __ . __ . __
 72
    65
 73
     4
 40
6.875
 49
4.75
 74
     0
 49
-0.875
 74
     0
 49
0.375
 74
     0
 49
-0.875
 74
     0
  0
LTYPE
  5
5A
330
5
100
AcDbSymbolTableRecord
100
AcDbLinetypeTableRecord
  2
AM_DIN_F_W050x2
 70
     0
  3
 _ _ _ _ _ _ _ _ _ _ _ _
 72
    65
 73
     2
 40
3.125
 49
2.25
 74
     0
 49
-0.875
 74
     0
  0
LTYPE
  5
68
330
5
100
AcDbSymbolTableRecord
100
AcDbLinetypeTableRecord
  2
ACDINWELD
 70
     0
  3
_ _ _ _ _
 72
    65
 73
     2
 40
2.0
 49
2.0
 74
     0
 49
-1.0
 74
     0
  0
LTYPE
  5
69
330
5
100
AcDbSymbolTableRecord
100
AcDbLinetypeTableRecord
  2
ACDINTGB
 70
     0
  3
__ . . __ . .
 72
    65
 73
     6
 40
9.0
 49
4.0
 74
     0
 49
-1.0
 74
     0
 49
1.0
 74
     0
 49
-1.0
 74
     0
 49
1.0
 74
     0
 49
-1.0
 74
     0
  0
LTYPE
  5
6A
330
5
100
AcDbSymbolTableRecord
100
AcDbLinetypeTableRecord
  2
ACDINTGL
 70
     0
  3
_ _ _ _ _
 72
    65
 73
     2
 40
3.0
 49
2.0
 74
     0
 49
-1.0
 74
     0
  0
LTYPE
  5
6C
330
5
100
AcDbSymbolTableRecord
100
AcDbLinetypeTableRecord
  2
CENTER
 70
     0
  3
__ . __
 72
    65
 73
     4
 40
7.0
 49
4.0
 74
     0
 49
-1.0
 74
     0
 49
1.0
 74
     0
 49
-1.0
 74
     0
  0
LTYPE
  5
F2
330
5
100
AcDbSymbolTableRecord
100
AcDbLinetypeTableRecord
  2
HIDDEN
 70
     0
  3
Hidden __ __ __ __ __ __ __ __ __ __ __ __ __ _
 72
    65
 73
     2
 40
9.524999999999998
 49
6.349999999999999
 74
     0
 49
-3.174999999999999
 74
     0
  0
LTYPE
  5
F3
330
5
100
AcDbSymbolTableRecord
100
AcDbLinetypeTableRecord
  2
PHANTOM2
 70
     0
  3
Phantom (.5x) ___ _ _ ___ _ _ ___ _ _ ___ _ _
 72
    65
 73
     6
 40
31.75
 49
15.875
 74
     0
 49
-3.174999999999999
 74
     0
 49
3.174999999999999
 74
     0
 49
-3.174999999999999
 74
     0
 49
3.174999999999999
 74
     0
 49
-3.174999999999999
 74
     0
  0
ENDTAB
  0
TABLE
  2
LAYER
  5
2
102
{ACAD_XDICTIONARY
360
C0
102
}
330
0
100
AcDbSymbolTable
 70
     6
  0
LAYER
  5
10
330
2
100
AcDbSymbolTableRecord
100
AcDbLayerTableRecord
  2
0
 70
     0
 62
     7
  6
Continuous
370
    -3
390
F
  0
LAYER
  5
328
330
2
100
AcDbSymbolTableRecord
100
AcDbLayerTableRecord
  2
AM_7
 70
     0
 62
     4
  6
AM_DIN_G_W050
370
    25
390
F
  0
LAYER
  5
329
330
2
100
AcDbSymbolTableRecord
100
AcDbLayerTableRecord
  2
DEFPOINTS
 70
     0
 62
     7
  6
Continuous
290
     0
370
    -3
390
F
  0
LAYER
  5
32A
330
2
100
AcDbSymbolTableRecord
100
AcDbLayerTableRecord
  2
AM_5
 70
     0
 62
     3
  6
Continuous
370
    25
390
F
  0
LAYER
  5
32B
330
2
100
AcDbSymbolTableRecord
100
AcDbLayerTableRecord
  2
AM_4
 70
     0
 62
     3
  6
Continuous
370
    25
390
F
  0
ENDTAB
  0
TABLE
  2
STYLE
  5
3
330
0
100
AcDbSymbolTable
 70
     8
  0
STYLE
  5
11
330
3
100
AcDbSymbolTableRecord
100
AcDbTextStyleTableRecord
  2
STANDARD
 70
     0
 40
0.0
 41
1.0
 50
0.0
 71
     0
 42
2.5
  3
ISOCP.SHX
  4
bigfont.shx
  0
STYLE
  5
5B
330
3
100
AcDbSymbolTableRecord
100
AcDbTextStyleTableRecord
  2
ACDINTS
 70
     0
 40
1.0
 41
1.0
 50
0.0
 71
     0
 42
2.5
  3
isocp.shx
  4
bigfont.shx
  0
STYLE
  5
67
330
3
100
AcDbSymbolTableRecord
100
AcDbTextStyleTableRecord
  2
ACDINGDT
 70
     0
 40
0.0
 41
1.0
 50
0.0
 71
     0
 42
2.5
  3
AMGDT
  4
bigfont.shx
  0
STYLE
  5
285
330
3
100
AcDbSymbolTableRecord
100
AcDbTextStyleTableRecord
  2

 70
     1
 40
0.0
 41
1.0
 50
0.0
 71
     0
 42
2.5
  3
genltshp.shx
  4

  0
ENDTAB
  0
TABLE
  2
VIEW
  5
6
330
0
100
AcDbSymbolTable
 70
     0
  0
ENDTAB
  0
TABLE
  2
UCS
  5
7
330
0
100
AcDbSymbolTable
 70
     0
  0
ENDTAB
  0
TABLE
  2
APPID
  5
9
330
0
100
AcDbSymbolTable
 70
    17
  0
APPID
  5
12
330
9
100
AcDbSymbolTableRecord
100
AcDbRegAppTableRecord
  2
ACAD
 70
     0
  0
APPID
  5
30
330
9
100
AcDbSymbolTableRecord
100
AcDbRegAppTableRecord
  2
MCAD_NO_VIS
 70
     0
  0
APPID
  5
31
330
9
100
AcDbSymbolTableRecord
100
AcDbRegAppTableRecord
  2
ACAD_TEMP_GRAPHIC
 70
     0
  0
APPID
  5
44
330
9
100
AcDbSymbolTableRecord
100
AcDbRegAppTableRecord
  2
ACATTRIBSERVICES
 70
     0
  0
APPID
  5
108
330
9
100
AcDbSymbolTableRecord
100
AcDbRegAppTableRecord
  2
AD_DRAW
 70
     0
  0
APPID
  5
126
330
9
100
AcDbSymbolTableRecord
100
AcDbRegAppTableRecord
  2
DESIGNERASSEMBLIES
 70
     0
  0
APPID
  5
12A
330
9
100
AcDbSymbolTableRecord
100
AcDbRegAppTableRecord
  2
ACADM_DIM_EDIT
 70
     0
  0
APPID
  5
12B
330
9
100
AcDbSymbolTableRecord
100
AcDbRegAppTableRecord
  2
AMDT_DM_ADJ
 70
     0
  0
APPID
  5
1A4
330
9
100
AcDbSymbolTableRecord
100
AcDbRegAppTableRecord
  2
ACAD_DSTYLE_DIMARC_LENGTH_SYMBOL
 70
     0
  0
APPID
  5
1A5
330
9
100
AcDbSymbolTableRecord
100
AcDbRegAppTableRecord
  2
ACAD_DSTYLE_DIMJOGGED_JOGANGLE_SYMBOL
 70
     0
  0
APPID
  5
22C
330
9
100
AcDbSymbolTableRecord
100
AcDbRegAppTableRecord
  2
AcAecLayerStandard
 70
     0
  0
APPID
  5
32F
330
9
100
AcDbSymbolTableRecord
100
AcDbRegAppTableRecord
  2
GENIUS_GENOENT_13
 70
     0
  0
APPID
  5
330
330
9
100
AcDbSymbolTableRecord
100
AcDbRegAppTableRecord
  2
GENIUS_GENODEF_13
 70
     0
  0
APPID
  5
331
330
9
100
AcDbSymbolTableRecord
100
AcDbRegAppTableRecord
  2
GENIUS_GENOLIS_13
 70
     0
  0
APPID
  5
332
330
9
100
AcDbSymbolTableRecord
100
AcDbRegAppTableRecord
  2
GENIUS_GENOREF_13
 70
     0
  0
APPID
  5
333
330
9
100
AcDbSymbolTableRecord
100
AcDbRegAppTableRecord
  2
ACAD_PSEXT
 70
     0
  0
APPID
  5
334
330
9
100
AcDbSymbolTableRecord
100
AcDbRegAppTableRecord
  2
GENIUS_GENOBJ-N-CRS_13
 70
     0
  0
ENDTAB
  0
TABLE
  2
DIMSTYLE
  5
A
330
0
100
AcDbSymbolTable
 70
    11
100
AcDbDimStyleTable
 71
     1
340
6F
  0
DIMSTYLE
105
6F
102
{ACAD_REACTORS
330
4B
102
}
330
A
100
AcDbSymbolTableRecord
100
AcDbDimStyleTableRecord
  2
AM_DIN
 70
     0
  4
"
 41
2.5
 42
1.0
 43
10.0
 44
1.0
 47
0.1
 48
0.1
 73
     0
 74
     0
 77
     1
 78
     8
 79
     2
140
3.5
141
0.0
143
0.0393701
146
0.71
147
1.5
172
     1
176
   256
177
   256
178
     2
271
     2
272
     3
274
     4
283
     0
284
     8
340
11
371
    -1
372
    -1
1001
ACAD_DSTYLE_DIMARC_LENGTH_SYMBOL
1070
   379
1070
     0
1001
ACAD_DSTYLE_DIMJOGGED_JOGANGLE_SYMBOL
1070
   384
1040
1.570796326794896
  0
DIMSTYLE
105
70
330
A
100
AcDbSymbolTableRecord
100
AcDbDimStyleTableRecord
  2
AM_DIN$3
 70
     0
  4
"
 41
2.5
 42
1.0
 43
10.0
 44
1.0
 47
0.1
 48
0.1
 73
     0
 77
     1
 78
     8
 79
     2
140
3.5
141
0.0
143
0.0393701
146
0.71
147
1.5
176
   256
177
   256
178
     2
271
     2
272
     3
274
     4
283
     0
284
     8
288
     1
289
     0
340
11
371
    -1
372
    -1
1001
ACAD_DSTYLE_DIMARC_LENGTH_SYMBOL
1070
   379
1070
     0
1001
ACAD_DSTYLE_DIMJOGGED_JOGANGLE_SYMBOL
1070
   384
1040
1.570796326794896
  0
DIMSTYLE
105
71
330
A
100
AcDbSymbolTableRecord
100
AcDbDimStyleTableRecord
  2
AM_DIN$4
 70
     0
  4
"
 41
2.5
 42
1.0
 43
10.0
 44
1.0
 47
0.1
 48
0.1
 73
     0
 77
     1
 78
     8
 79
     2
140
3.5
141
0.0
143
0.0393701
146
0.71
147
1.5
176
   256
177
   256
178
     2
271
     2
272
     3
274
     4
283
     0
284
     8
288
     1
289
     0
340
11
371
    -1
372
    -1
1001
ACAD_DSTYLE_DIMARC_LENGTH_SYMBOL
1070
   379
1070
     0
1001
ACAD_DSTYLE_DIMJOGGED_JOGANGLE_SYMBOL
1070
   384
1040
1.570796326794896
  0
DIMSTYLE
105
72
330
A
100
AcDbSymbolTableRecord
100
AcDbDimStyleTableRecord
  2
AM_DIN$6
 70
     0
  4
"
 41
2.5
 42
1.0
 43
10.0
 44
1.0
 47
0.1
 48
0.1
 73
     0
 74
     0
 78
     8
 79
     2
140
3.5
141
0.0
143
0.0393701
146
0.71
147
1.5
172
     1
176
   256
177
   256
178
     2
271
     2
272
     3
274
     4
283
     0
284
     8
340
11
371
    -1
372
    -1
1001
ACAD_DSTYLE_DIMARC_LENGTH_SYMBOL
1070
   379
1070
     0
1001
ACAD_DSTYLE_DIMJOGGED_JOGANGLE_SYMBOL
1070
   384
1040
1.570796326794896
  0
DIMSTYLE
105
73
330
A
100
AcDbSymbolTableRecord
100
AcDbDimStyleTableRecord
  2
AM_DIN$7
 70
     0
  4
"
 41
2.5
 42
1.0
 43
10.0
 44
1.0
 47
0.1
 48
0.1
 73
     0
 74
     0
 77
     1
 78
     8
 79
     2
140
5.0
141
0.0
143
0.0393701
146
0.71
147
1.5
172
     1
176
   256
177
   256
178
     2
271
     2
272
     3
274
     4
283
     0
284
     8
340
11
371
    -1
372
    -1
1001
ACAD_DSTYLE_DIMARC_LENGTH_SYMBOL
1070
   379
1070
     0
1001
ACAD_DSTYLE_DIMJOGGED_JOGANGLE_SYMBOL
1070
   384
1040
1.570796326794896
  0
DIMSTYLE
105
74
330
A
100
AcDbSymbolTableRecord
100
AcDbDimStyleTableRecord
  2
AM_DIN$SF
 70
     0
  4
"
 41
2.5
 42
1.0
 43
10.0
 44
1.0
 47
0.1
 48
0.1
 73
     0
 74
     0
 75
     1
 76
     1
 77
     1
 78
     8
 79
     2
140
3.5
141
0.0
143
0.0393701
146
0.71
147
1.5
172
     1
176
   256
177
   256
178
     2
271
     2
272
     3
274
     4
283
     0
284
     8
340
11
371
    -1
372
    -1
1001
ACAD_DSTYLE_DIMARC_LENGTH_SYMBOL
1070
   379
1070
     0
1001
ACAD_DSTYLE_DIMJOGGED_JOGANGLE_SYMBOL
1070
   384
1040
1.570796326794896
  0
DIMSTYLE
105
79
330
A
100
AcDbSymbolTableRecord
100
AcDbDimStyleTableRecord
  2
AM_DIN$SH
 70
     0
  4
"
 41
2.5
 42
1.0
 43
10.0
 44
1.0
 47
0.1
 48
0.1
 73
     0
 74
     0
 75
     1
 76
     1
 77
     1
 78
     8
 79
     2
140
3.5
141
0.0
143
0.0393701
144
2.0
146
0.71
147
1.5
172
     1
173
     1
176
   256
177
   256
178
     2
271
     2
272
     3
274
     4
283
     0
284
     8
340
11
343
75
371
    -1
372
    -1
1001
ACAD_DSTYLE_DIMARC_LENGTH_SYMBOL
1070
   379
1070
     0
1001
ACAD_DSTYLE_DIMJOGGED_JOGANGLE_SYMBOL
1070
   384
1040
1.570796326794896
  0
DIMSTYLE
105
32D
330
A
100
AcDbSymbolTableRecord
100
AcDbDimStyleTableRecord
  2
GEN-ISO
 70
     0
  4
"
 40
10.0
 41
2.5
 42
1.0
 43
7.0
 44
1.0
 47
0.1
 48
0.1
 73
     0
 74
     0
 77
     1
 78
     8
140
3.5
141
0.0
143
0.0393701
146
0.71
147
0.6
172
     1
176
     3
177
     3
178
     2
271
     2
272
     2
283
     0
340
11
  0
DIMSTYLE
105
32E
102
{ACAD_REACTORS
330
3B4
330
3B5
330
43A
330
43B
102
}
330
A
100
AcDbSymbolTableRecord
100
AcDbDimStyleTableRecord
  2
GEN-ISO$0
 70
     0
  4
"
 40
10.0
 41
2.5
 42
1.0
 43
7.0
 44
1.0
 47
0.1
 48
0.1
 73
     0
 74
     0
 77
     1
 78
     8
140
3.5
141
0.0
143
0.0393701
146
0.71
147
0.6
172
     1
176
     3
177
     3
178
     2
271
     2
272
     2
283
     0
340
11
  0
ENDTAB
  0
TABLE
  2
BLOCK_RECORD
  5
1
330
0
100
AcDbSymbolTable
 70
     8
  0
BLOCK_RECORD
  5
1F
102
{ACAD_XDICTIONARY
360
83
102
}
330
1
100
AcDbSymbolTableRecord
100
AcDbBlockTableRecord
  2
*Model_Space
340
22
  0
BLOCK_RECORD
  5
1B
330
1
100
AcDbSymbolTableRecord
100
AcDbBlockTableRecord
  2
*Paper_Space
340
1E
  0
BLOCK_RECORD
  5
23
330
1
100
AcDbSymbolTableRecord
100
AcDbBlockTableRecord
  2
*Paper_Space0
340
26
  0
BLOCK_RECORD
  5
75
330
1
100
AcDbSymbolTableRecord
100
AcDbBlockTableRecord
  2
GENAXEH
340
0
  0
BLOCK_RECORD
  5
43D
330
1
100
AcDbSymbolTableRecord
100
AcDbBlockTableRecord
  2
*D6
340
0
  0
BLOCK_RECORD
  5
449
330
1
100
AcDbSymbolTableRecord
100
AcDbBlockTableRecord
  2
*D7
340
0
  0
ENDTAB
  0
ENDSEC
  0
SECTION
  2
BLOCKS
  0
BLOCK
  5
20
330
1F
100
AcDbEntity
  8
0
100
AcDbBlockBegin
  2
*Model_Space
 70
     0
 10
0.0
 20
0.0
 30
0.0
  3
*Model_Space
  1

  0
ENDBLK
  5
21
330
1F
100
AcDbEntity
  8
0
100
AcDbBlockEnd
  0
BLOCK
  5
1C
330
1B
100
AcDbEntity
 67
     1
  8
0
100
AcDbBlockBegin
  2
*Paper_Space
 70
     0
 10
0.0
 20
0.0
 30
0.0
  3
*Paper_Space
  1

  0
ENDBLK
  5
1D
330
1B
100
AcDbEntity
 67
     1
  8
0
100
AcDbBlockEnd
  0
BLOCK
  5
24
330
23
100
AcDbEntity
 67
     1
  8
0
100
AcDbBlockBegin
  2
*Paper_Space0
 70
     0
 10
0.0
 20
0.0
 30
0.0
  3
*Paper_Space0
  1

  0
ENDBLK
  5
25
330
23
100
AcDbEntity
 67
     1
  8
0
100
AcDbBlockEnd
  0
BLOCK
  5
77
330
75
100
AcDbEntity
  8
0
100
AcDbBlockBegin
  2
GENAXEH
 70
     0
 10
0.0
 20
0.0
 30
0.0
  3
GENAXEH
  1

  0
LINE
  5
76
330
75
100
AcDbEntity
  8
0
100
AcDbLine
 10
-1.0
 20
0.0
 30
0.0
 11
1.0
 21
0.0
 31
0.0
  0
ENDBLK
  5
78
330
75
100
AcDbEntity
  8
0
100
AcDbBlockEnd
  0
BLOCK
  5
447
330
43D
100
AcDbEntity
  8
0
100
AcDbBlockBegin
  2
*D6
 70
     1
 10
0.0
 20
0.0
 30
0.0
  3
*D6
  1

  0
LINE
  5
455
330
43D
100
AcDbEntity
  8
AM_5
 62
     3
370
    -2
100
AcDbLine
 10
1454.612486660163
 20
960.080900696856
 30
0.0
 11
1454.612486660163
 21
671.9994553982164
 31
0.0
  0
LINE
  5
456
330
43D
100
AcDbEntity
  8
AM_5
 62
     3
370
    -2
100
AcDbLine
 10
1704.611499359093
 20
959.5840865540145
 30
0.0
 11
1704.611499359093
 21
671.9994553982164
 31
0.0
  0
LINE
  5
457
330
43D
100
AcDbEntity
  8
AM_5
 62
     3
370
    -2
100
AcDbLine
 10
1479.612486660163
 20
681.9994553982164
 30
0.0
 11
1679.611499359094
 21
681.9994553982164
 31
0.0
  0
SOLID
  5
458
330
43D
100
AcDbEntity
  8
AM_5
 62
     3
100
AcDbTrace
 10
1479.612486660163
 20
686.1661220648831
 30
0.0
 11
1479.612486660163
 21
677.8327887315498
 31
0.0
 12
1454.612486660163
 22
681.9994553982164
 32
0.0
 13
1454.612486660163
 23
681.9994553982164
 33
0.0
  0
SOLID
  5
459
330
43D
100
AcDbEntity
  8
AM_5
 62
     3
100
AcDbTrace
 10
1679.611499359094
 20
686.1661220648831
 30
0.0
 11
1679.611499359094
 21
677.8327887315498
 31
0.0
 12
1704.611499359093
 22
681.9994553982164
 32
0.0
 13
1704.611499359093
 23
681.9994553982164
 33
0.0
  0
MTEXT
  5
45A
330
43D
100
AcDbEntity
  8
AM_5
 62
     2
100
AcDbMText
 10
1559.611499359093
 20
705.5029002801062
 30
0.0
 40
35.0
 41
0.0
 71
     5
 72
     1
  1
250
 73
     1
 44
1.0
1001
ACAD
1000
MTEXTBEGIN
1070
    73
1070
     1
1070
    44
1040
1.0
1070
    74
1070
     0
1000
MTEXTEND
  0
POINT
  5
45B
330
43D
100
AcDbEntity
  8
DEFPOINTS
 62
     0
100
AcDbPoint
 10
1454.612486660163
 20
970.0809006968562
 30
0.0
  0
POINT
  5
45C
330
43D
100
AcDbEntity
  8
DEFPOINTS
 62
     0
100
AcDbPoint
 10
1704.611499359093
 20
969.5840865540144
 30
0.0
  0
POINT
  5
45D
330
43D
100
AcDbEntity
  8
DEFPOINTS
 62
     0
100
AcDbPoint
 10
1704.611499359093
 20
681.9994553982164
 30
0.0
  0
ENDBLK
  5
448
330
43D
100
AcDbEntity
  8
0
100
AcDbBlockEnd
  0
BLOCK
  5
453
330
449
100
AcDbEntity
  8
0
100
AcDbBlockBegin
  2
*D7
 70
     1
 10
0.0
 20
0.0
 30
0.0
  3
*D7
  1

  0
LINE
  5
45E
330
449
100
AcDbEntity
  8
AM_5
 62
     3
370
    -2
100
AcDbLine
 10
1492.11290979499
 20
960.080900696856
 30
0.0
 11
1492.11290979499
 21
733.1023628948628
 31
0.0
  0
LINE
  5
45F
330
449
100
AcDbEntity
  8
AM_5
 62
     3
370
    -2
100
AcDbLine
 10
1667.110160100727
 20
959.5840865540145
 30
0.0
 11
1667.110160100727
 21
733.1023628948628
 31
0.0
  0
LINE
  5
460
330
449
100
AcDbEntity
  8
AM_5
 62
     3
370
    -2
100
AcDbLine
 10
1517.11290979499
 20
743.1023628948628
 30
0.0
 11
1642.110160100727
 21
743.1023628948628
 31
0.0
  0
SOLID
  5
461
330
449
100
AcDbEntity
  8
AM_5
 62
     3
100
AcDbTrace
 10
1517.11290979499
 20
747.2690295615294
 30
0.0
 11
1517.11290979499
 21
738.9356962281961
 31
0.0
 12
1492.11290979499
 22
743.1023628948628
 32
0.0
 13
1492.11290979499
 23
743.1023628948628
 33
0.0
  0
SOLID
  5
462
330
449
100
AcDbEntity
  8
AM_5
 62
     3
100
AcDbTrace
 10
1642.110160100727
 20
747.2690295615294
 30
0.0
 11
1642.110160100727
 21
738.9356962281961
 31
0.0
 12
1667.110160100727
 22
743.1023628948628
 32
0.0
 13
1667.110160100727
 23
743.1023628948628
 33
0.0
  0
MTEXT
  5
463
330
449
100
AcDbEntity
  8
AM_5
 62
     2
100
AcDbMText
 10
1560.090595092178
 20
766.6023628948628
 30
0.0
 40
35.0
 41
0.0
 71
     5
 72
     1
  1
175
 73
     1
 44
1.0
1001
ACAD
1000
MTEXTBEGIN
1070
    73
1070
     1
1070
    44
1040
1.0
1070
    74
1070
     0
1000
MTEXTEND
  0
POINT
  5
464
330
449
100
AcDbEntity
  8
DEFPOINTS
 62
     0
100
AcDbPoint
 10
1492.11290979499
 20
970.0809006968562
 30
0.0
  0
POINT
  5
465
330
449
100
AcDbEntity
  8
DEFPOINTS
 62
     0
100
AcDbPoint
 10
1667.110160100727
 20
969.5840865540144
 30
0.0
  0
POINT
  5
466
330
449
100
AcDbEntity
  8
DEFPOINTS
 62
     0
100
AcDbPoint
 10
1667.110160100727
 20
743.1023628948628
 30
0.0
  0
ENDBLK
  5
454
330
449
100
AcDbEntity
  8
0
100
AcDbBlockEnd
  0
ENDSEC
  0
SECTION
  2
ENTITIES
  0
CIRCLE
  5
3BD
330
1F
100
AcDbEntity
  8
0
100
AcDbCircle
 10
1579.611499359093
 20
969.5840865540144
 30
0.0
 40
87.5
  0
ARC
  5
3BE
330
1F
100
AcDbEntity
  8
0
100
AcDbCircle
 10
1579.611499359093
 20
970.0809006968562
 30
0.0
 40
8.216206466806397
100
AcDbArc
 50
283.4271021050845
 51
346.5728978947827
  0
LINE
  5
3BF
330
1F
100
AcDbEntity
  8
0
100
AcDbLine
 10
1577.703630315807
 20
978.0725265901805
 30
0.0
 11
1594.094409404924
 21
994.4633056792977
 31
0.0
  0
CIRCLE
  5
3C0
330
1F
100
AcDbEntity
  8
0
100
AcDbCircle
 10
1579.611499359093
 20
969.5840865540144
 30
0.0
 40
125.0
  0
CIRCLE
  5
3C1
330
1F
100
AcDbEntity
  8
0
100
AcDbCircle
 10
1579.611499359093
 20
969.5840865540144
 30
0.0
 40
87.5
  0
LINE
  5
3C2
330
1F
100
AcDbEntity
  8
0
100
AcDbLine
 10
1514.305219950133
 20
911.845689099759
 30
0.0
 11
1521.376287761996
 21
904.7746212878923
 31
0.0
  0
LINE
  5
3C3
330
1F
100
AcDbEntity
  8
0
100
AcDbLine
 10
1521.376287761996
 20
904.7746212878923
 30
0.0
 11
1556.062397071801
 21
939.4607305976974
 31
0.0
  0
LINE
  5
3C4
330
1F
100
AcDbEntity
  8
0
100
AcDbLine
 10
1514.305219950133
 20
911.845689099759
 30
0.0
 11
1548.991329259935
 21
946.5317984095603
 31
0.0
  0
LINE
  5
3C5
330
1F
100
AcDbEntity
  8
0
100
AcDbLine
 10
1555.229094376653
 20
955.5979906510279
 30
0.0
 11
1571.619873465771
 21
971.9887697401432
 31
0.0
  0
ARC
  5
3C6
330
1F
100
AcDbEntity
  8
0
100
AcDbCircle
 10
1579.611499359093
 20
970.0809006968562
 30
0.0
 40
8.216206466806397
100
AcDbArc
 50
103.4271021050845
 51
166.5728978947828
  0
LINE
  5
3C7
330
1F
100
AcDbEntity
  8
0
100
AcDbLine
 10
1565.128589313263
 20
945.6984957144127
 30
0.0
 11
1581.51936840238
 21
962.0892748035299
 31
0.0
  0
LINE
  5
3C8
330
1F
100
AcDbEntity
  8
0
100
AcDbLine
 10
1637.84671095619
 20
1035.387180105816
 30
0.0
 11
1644.917778768057
 21
1028.316112293951
 31
0.0
  0
LINE
  5
3C9
330
1F
100
AcDbEntity
  8
0
100
AcDbLine
 10
1610.231669458252
 20
993.63000298415
 30
0.0
 11
1644.917778768057
 21
1028.316112293951
 31
0.0
  0
LINE
  5
3CA
330
1F
100
AcDbEntity
  8
0
100
AcDbLine
 10
1603.160601646386
 20
1000.701070796013
 30
0.0
 11
1637.84671095619
 21
1035.387180105816
 31
0.0
  0
LINE
  5
3CB
330
1F
100
AcDbEntity
  8
0
100
AcDbLine
 10
1587.60312525242
 20
968.173031653569
 30
0.0
 11
1603.993904341533
 21
984.5638107426825
 31
0.0
  0
ARC
  5
3CC
330
1F
100
AcDbEntity
  8
0
100
AcDbCircle
 10
1602.08603529825
 20
992.5554366360088
 30
0.0
 40
8.216206466806454
100
AcDbArc
 50
283.4271021050845
 51
166.5728978947828
  0
ARC
  5
3CD
330
1F
100
AcDbEntity
  8
0
100
AcDbCircle
 10
1557.136963419955
 20
947.6063647577143
 30
0.0
 40
8.216206466806454
100
AcDbArc
 50
103.4271021052978
 51
346.5728978949439
  0
POINT
  5
3CE
330
1F
100
AcDbEntity
  8
AM_4
 48
0.1
100
AcDbPoint
 10
1618.110935964266
 20
1060.312919596822
 30
0.0
 50
104.9999999999944
  0
LINE
  5
3CF
330
1F
100
AcDbEntity
  8
AM_4
 48
0.1
100
AcDbLine
 10
1621.739212186852
 20
1059.341761189242
 30
0.0
 11
1627.045172042163
 21
1064.647258151245
 31
0.0
  0
LINE
  5
3D0
330
1F
100
AcDbEntity
  8
AM_4
 48
0.1
100
AcDbLine
 10
1614.485816338202
 20
1061.284267473089
 30
0.0
 11
1621.737987441979
 21
1059.341054082461
 31
0.0
  0
LINE
  5
3D1
330
1F
100
AcDbEntity
  8
AM_4
 48
0.1
100
AcDbLine
 10
1612.542761686259
 20
1068.533167294412
 30
0.0
 11
1614.484143305593
 21
1061.285751037007
 31
0.0
  0
LINE
  5
3D2
330
1F
100
AcDbEntity
  8
AM_4
 48
0.1
100
AcDbLine
 10
1612.543020505306
 20
1068.534133220239
 30
0.0
 11
1617.849239179661
 21
1073.840596108066
 31
0.0
  0
LINE
  5
3D3
330
1F
100
AcDbEntity
  8
AM_4
 48
0.1
100
AcDbLine
 10
1617.85046392453
 20
1073.841303214848
 30
0.0
 11
1625.101669102486
 21
1071.898348643265
 31
0.0
  0
LINE
  5
3D4
330
1F
100
AcDbEntity
  8
AM_4
 48
0.1
100
AcDbLine
 10
1625.102376209267
 20
1071.897123898392
 30
0.0
 11
1627.04543086121
 21
1064.648224077071
 31
0.0
  0
CIRCLE
  5
3D5
330
1F
100
AcDbEntity
  8
AM_4
 48
0.1
100
AcDbCircle
 10
1619.79325975743
 20
1066.5914374677
 30
0.0
 40
6.5
  0
CIRCLE
  5
3D6
330
1F
100
AcDbEntity
  8
AM_4
 48
0.1
100
AcDbCircle
 10
1619.79325975743
 20
1066.5914374677
 30
0.0
 40
4.0
  0
ARC
  5
3D7
330
1F
100
AcDbEntity
  8
AM_4
 48
0.1
100
AcDbCircle
 10
1619.79325975743
 20
1066.5914374677
 30
0.0
 40
3.2
100
AcDbArc
 50
157.0199999999402
 51
66.97400000009242
  0
POINT
  5
3D8
330
1F
100
AcDbEntity
  8
AM_4
 48
0.1
100
AcDbPoint
 10
1542.679738960761
 20
1060.962272343108
 30
0.0
 50
149.9999999999944
  0
LINE
  5
3D9
330
1F
100
AcDbEntity
  8
AM_4
 48
0.1
100
AcDbLine
 10
1545.932030377372
 20
1062.841138368507
 30
0.0
 11
1545.932357692372
 21
1070.344571442298
 31
0.0
  0
LINE
  5
3DA
330
1F
100
AcDbEntity
  8
AM_4
 48
0.1
100
AcDbLine
 10
1539.429545620355
 20
1059.085772343102
 30
0.0
 11
1545.931664351971
 21
1062.839772343103
 31
0.0
  0
LINE
  5
3DB
330
1F
100
AcDbEntity
  8
AM_4
 48
0.1
100
AcDbLine
 10
1532.929852279952
 20
1062.837571442297
 30
0.0
 11
1539.427313569548
 21
1059.085638368508
 31
0.0
  0
LINE
  5
3DC
330
1F
100
AcDbEntity
  8
AM_4
 48
0.1
100
AcDbLine
 10
1532.929352279957
 20
1062.838437467703
 30
0.0
 11
1532.929179594955
 21
1070.342736566896
 31
0.0
  0
LINE
  5
3DD
330
1F
100
AcDbEntity
  8
AM_4
 48
0.1
100
AcDbLine
 10
1532.929545620355
 20
1070.344102592301
 30
0.0
 11
1539.430798326565
 21
1074.097602592299
 31
0.0
  0
LINE
  5
3DE
330
1F
100
AcDbEntity
  8
AM_4
 48
0.1
100
AcDbLine
 10
1539.43216435197
 20
1074.097236566899
 30
0.0
 11
1545.931857692373
 21
1070.345437467704
 31
0.0
  0
CIRCLE
  5
3DF
330
1F
100
AcDbEntity
  8
AM_4
 48
0.1
100
AcDbCircle
 10
1539.429738960757
 20
1066.591437467703
 30
0.0
 40
6.5
  0
CIRCLE
  5
3E0
330
1F
100
AcDbEntity
  8
AM_4
 48
0.1
100
AcDbCircle
 10
1539.429738960757
 20
1066.591437467703
 30
0.0
 40
4.0
  0
ARC
  5
3E1
330
1F
100
AcDbEntity
  8
AM_4
 48
0.1
100
AcDbCircle
 10
1539.429738960757
 20
1066.591437467703
 30
0.0
 40
3.2
100
AcDbArc
 50
202.0199999999839
 51
111.9739999998971
  0
POINT
  5
3E2
330
1F
100
AcDbEntity
  8
AM_4
 48
0.1
100
AcDbPoint
 10
1488.882666316284
 20
1008.08352315919
 30
0.0
 50
194.9999999999944
  0
LINE
  5
3E3
330
1F
100
AcDbEntity
  8
AM_4
 48
0.1
100
AcDbLine
 10
1489.853824723862
 20
1011.711799381776
 30
0.0
 11
1484.548327761859
 21
1017.017759237088
 31
0.0
  0
LINE
  5
3E4
330
1F
100
AcDbEntity
  8
AM_4
 48
0.1
100
AcDbLine
 10
1487.911318440013
 20
1004.458403533126
 30
0.0
 11
1489.854531830643
 21
1011.710574636904
 31
0.0
  0
LINE
  5
3E5
330
1F
100
AcDbEntity
  8
AM_4
 48
0.1
100
AcDbLine
 10
1480.66241861869
 20
1002.515348881183
 30
0.0
 11
1487.909834876097
 21
1004.456730500517
 31
0.0
  0
LINE
  5
3E6
330
1F
100
AcDbEntity
  8
AM_4
 48
0.1
100
AcDbLine
 10
1480.661452692865
 20
1002.515607700231
 30
0.0
 11
1475.354989805038
 21
1007.821826374586
 31
0.0
  0
LINE
  5
3E7
330
1F
100
AcDbEntity
  8
AM_4
 48
0.1
100
AcDbLine
 10
1475.354282698257
 20
1007.823051119455
 30
0.0
 11
1477.297237269839
 21
1015.07425629741
 31
0.0
  0
LINE
  5
3E8
330
1F
100
AcDbEntity
  8
AM_4
 48
0.1
100
AcDbLine
 10
1477.298462014712
 20
1015.074963404192
 30
0.0
 11
1484.547361836035
 21
1017.018018056135
 31
0.0
  0
CIRCLE
  5
3E9
330
1F
100
AcDbEntity
  8
AM_4
 48
0.1
100
AcDbCircle
 10
1482.604148445404
 20
1009.765846952354
 30
0.0
 40
6.5
  0
CIRCLE
  5
3EA
330
1F
100
AcDbEntity
  8
AM_4
 48
0.1
100
AcDbCircle
 10
1482.604148445404
 20
1009.765846952354
 30
0.0
 40
4.0
  0
ARC
  5
3EB
330
1F
100
AcDbEntity
  8
AM_4
 48
0.1
100
AcDbCircle
 10
1482.604148445404
 20
1009.765846952354
 30
0.0
 40
3.2
100
AcDbArc
 50
247.0199999998531
 51
156.973999999923
  0
POINT
  5
3EC
330
1F
100
AcDbEntity
  8
AM_4
 48
0.1
100
AcDbPoint
 10
1488.233313569996
 20
932.6523261556854
 30
0.0
 50
239.9999999999944
  0
LINE
  5
3ED
330
1F
100
AcDbEntity
  8
AM_4
 48
0.1
100
AcDbLine
 10
1486.354447544593
 20
935.9046175723001
 30
0.0
 11
1478.851014470802
 21
935.9049448872978
 31
0.0
  0
LINE
  5
3EE
330
1F
100
AcDbEntity
  8
AM_4
 48
0.1
100
AcDbLine
 10
1490.109813569998
 20
929.4021328152835
 30
0.0
 11
1486.355813569997
 21
935.9042515468958
 31
0.0
  0
LINE
  5
3EF
330
1F
100
AcDbEntity
  8
AM_4
 48
0.1
100
AcDbLine
 10
1486.358014470804
 20
922.9024394748799
 30
0.0
 11
1490.109947544596
 21
929.3999007644728
 31
0.0
  0
LINE
  5
3F0
330
1F
100
AcDbEntity
  8
AM_4
 48
0.1
100
AcDbLine
 10
1486.357148445398
 20
922.9019394748798
 30
0.0
 11
1478.852849346208
 21
922.9017667898775
 31
0.0
  0
LINE
  5
3F1
330
1F
100
AcDbEntity
  8
AM_4
 48
0.1
100
AcDbLine
 10
1478.851483320803
 20
922.9021328152798
 30
0.0
 11
1475.097983320798
 21
929.4033855214916
 31
0.0
  0
LINE
  5
3F2
330
1F
100
AcDbEntity
  8
AM_4
 48
0.1
100
AcDbLine
 10
1475.098349346205
 20
929.404751546896
 30
0.0
 11
1478.850148445396
 21
935.9044448872996
 31
0.0
  0
CIRCLE
  5
3F3
330
1F
100
AcDbEntity
  8
AM_4
 48
0.1
100
AcDbCircle
 10
1482.604148445401
 20
929.4023261556835
 30
0.0
 40
6.5
  0
CIRCLE
  5
3F4
330
1F
100
AcDbEntity
  8
AM_4
 48
0.1
100
AcDbCircle
 10
1482.604148445401
 20
929.4023261556835
 30
0.0
 40
4.0
  0
ARC
  5
3F5
330
1F
100
AcDbEntity
  8
AM_4
 48
0.1
100
AcDbCircle
 10
1482.604148445401
 20
929.4023261556835
 30
0.0
 40
3.2
100
AcDbArc
 50
292.0200000000214
 51
201.9740000000399
  0
POINT
  5
3F6
330
1F
100
AcDbEntity
  8
AM_4
 48
0.1
100
AcDbPoint
 10
1541.112062753914
 20
878.8552535112071
 30
0.0
 50
284.9999999999944
  0
LINE
  5
3F7
330
1F
100
AcDbEntity
  8
AM_4
 48
0.1
100
AcDbLine
 10
1537.483786531328
 20
879.8264119187866
 30
0.0
 11
1532.177826676016
 21
874.5209149567839
 31
0.0
  0
LINE
  5
3F8
330
1F
100
AcDbEntity
  8
AM_4
 48
0.1
100
AcDbLine
 10
1544.737182379978
 20
877.8839056349394
 30
0.0
 11
1537.4850112762
 21
879.8271190255677
 31
0.0
  0
LINE
  5
3F9
330
1F
100
AcDbEntity
  8
AM_4
 48
0.1
100
AcDbLine
 10
1546.680237031921
 20
870.6350058136163
 30
0.0
 11
1544.738855412587
 21
877.8824220710216
 31
0.0
  0
LINE
  5
3FA
330
1F
100
AcDbEntity
  8
AM_4
 48
0.1
100
AcDbLine
 10
1546.679978212873
 20
870.6340398877896
 30
0.0
 11
1541.373759538518
 21
865.3275769999622
 31
0.0
  0
LINE
  5
3FB
330
1F
100
AcDbEntity
  8
AM_4
 48
0.1
100
AcDbLine
 10
1541.37253479365
 20
865.326869893181
 30
0.0
 11
1534.121329615694
 21
867.2698244647641
 31
0.0
  0
LINE
  5
3FC
330
1F
100
AcDbEntity
  8
AM_4
 48
0.1
100
AcDbLine
 10
1534.120622508913
 20
867.2710492096362
 30
0.0
 11
1532.177567856969
 21
874.5199490309573
 31
0.0
  0
CIRCLE
  5
3FD
330
1F
100
AcDbEntity
  8
AM_4
 48
0.1
100
AcDbCircle
 10
1539.42973896075
 20
872.576735640329
 30
0.0
 40
6.5
  0
CIRCLE
  5
3FE
330
1F
100
AcDbEntity
  8
AM_4
 48
0.1
100
AcDbCircle
 10
1539.42973896075
 20
872.576735640329
 30
0.0
 40
4.0
  0
ARC
  5
3FF
330
1F
100
AcDbEntity
  8
AM_4
 48
0.1
100
AcDbCircle
 10
1539.42973896075
 20
872.576735640329
 30
0.0
 40
3.2
100
AcDbArc
 50
337.0199999998881
 51
246.9740000000924
  0
POINT
  5
400
330
1F
100
AcDbEntity
  8
AM_4
 48
0.1
100
AcDbPoint
 10
1616.543259757419
 20
878.2059007649191
 30
0.0
 50
329.9999999999944
  0
LINE
  5
401
330
1F
100
AcDbEntity
  8
AM_4
 48
0.1
100
AcDbLine
 10
1613.290968340808
 20
876.327034739516
 30
0.0
 11
1613.290641025808
 21
868.8236016657251
 31
0.0
  0
LINE
  5
402
330
1F
100
AcDbEntity
  8
AM_4
 48
0.1
100
AcDbLine
 10
1619.793453097824
 20
880.0824007649211
 30
0.0
 11
1613.291334366208
 21
876.3284007649204
 31
0.0
  0
LINE
  5
403
330
1F
100
AcDbEntity
  8
AM_4
 48
0.1
100
AcDbLine
 10
1626.293146438228
 20
876.3306016657265
 30
0.0
 11
1619.795685148631
 21
880.0825347395189
 31
0.0
  0
LINE
  5
404
330
1F
100
AcDbEntity
  8
AM_4
 48
0.1
100
AcDbLine
 10
1626.293646438226
 20
876.3297356403205
 30
0.0
 11
1626.293819123229
 21
868.8254365411308
 31
0.0
  0
LINE
  5
405
330
1F
100
AcDbEntity
  8
AM_4
 48
0.1
100
AcDbLine
 10
1626.293453097824
 20
868.8240705157264
 30
0.0
 11
1619.792200391614
 21
865.0705705157202
 31
0.0
  0
LINE
  5
406
330
1F
100
AcDbEntity
  8
AM_4
 48
0.1
100
AcDbLine
 10
1619.79083436621
 20
865.070936541128
 30
0.0
 11
1613.291141025807
 21
868.822735640319
 31
0.0
  0
CIRCLE
  5
407
330
1F
100
AcDbEntity
  8
AM_4
 48
0.1
100
AcDbCircle
 10
1619.793259757422
 20
872.5767356403235
 30
0.0
 40
6.5
  0
CIRCLE
  5
408
330
1F
100
AcDbEntity
  8
AM_4
 48
0.1
100
AcDbCircle
 10
1619.793259757422
 20
872.5767356403235
 30
0.0
 40
4.0
  0
ARC
  5
409
330
1F
100
AcDbEntity
  8
AM_4
 48
0.1
100
AcDbCircle
 10
1619.793259757422
 20
872.5767356403235
 30
0.0
 40
3.2
100
AcDbArc
 50
22.0199999999839
 51
291.9740000001222
  0
POINT
  5
40A
330
1F
100
AcDbEntity
  8
AM_4
 48
0.1
100
AcDbPoint
 10
1670.340332401895
 20
931.0846499488402
 30
0.0
 50
14.99999999999436
  0
LINE
  5
40B
330
1F
100
AcDbEntity
  8
AM_4
 48
0.1
100
AcDbLine
 10
1669.369173994318
 20
927.4563737262546
 30
0.0
 11
1674.67467095632
 21
922.1504138709429
 31
0.0
  0
LINE
  5
40C
330
1F
100
AcDbEntity
  8
AM_4
 48
0.1
100
AcDbLine
 10
1671.311680278167
 20
934.709769574904
 30
0.0
 11
1669.368466887537
 21
927.4575984711269
 31
0.0
  0
LINE
  5
40D
330
1F
100
AcDbEntity
  8
AM_4
 48
0.1
100
AcDbLine
 10
1678.56058009949
 20
936.6528242268472
 30
0.0
 11
1671.313163842082
 21
934.7114426075135
 31
0.0
  0
LINE
  5
40E
330
1F
100
AcDbEntity
  8
AM_4
 48
0.1
100
AcDbLine
 10
1678.561546025315
 20
936.6525654077999
 30
0.0
 11
1683.868008913142
 21
931.3463467334445
 31
0.0
  0
LINE
  5
40F
330
1F
100
AcDbEntity
  8
AM_4
 48
0.1
100
AcDbLine
 10
1683.868716019923
 20
931.3451219885759
 30
0.0
 11
1681.92576144834
 21
924.0939168106201
 31
0.0
  0
LINE
  5
410
330
1F
100
AcDbEntity
  8
AM_4
 48
0.1
100
AcDbLine
 10
1681.924536703468
 20
924.093209703839
 30
0.0
 11
1674.675636882145
 21
922.1501550518956
 31
0.0
  0
CIRCLE
  5
411
330
1F
100
AcDbEntity
  8
AM_4
 48
0.1
100
AcDbCircle
 10
1676.618850272775
 20
929.4023261556763
 30
0.0
 40
6.5
  0
CIRCLE
  5
412
330
1F
100
AcDbEntity
  8
AM_4
 48
0.1
100
AcDbCircle
 10
1676.618850272775
 20
929.4023261556763
 30
0.0
 40
4.0
  0
ARC
  5
413
330
1F
100
AcDbEntity
  8
AM_4
 48
0.1
100
AcDbCircle
 10
1676.618850272775
 20
929.4023261556763
 30
0.0
 40
3.2
100
AcDbArc
 50
67.01999999985301
 51
336.9740000000112
  0
POINT
  5
414
330
1F
100
AcDbEntity
  8
AM_4
 48
0.1
100
AcDbPoint
 10
1670.989685148184
 20
1006.515846952343
 30
0.0
 50
59.99999999999437
  0
LINE
  5
415
330
1F
100
AcDbEntity
  8
AM_4
 48
0.1
100
AcDbLine
 10
1672.868551173587
 20
1003.26355553573
 30
0.0
 11
1680.371984247381
 21
1003.263228220731
 31
0.0
  0
LINE
  5
416
330
1F
100
AcDbEntity
  8
AM_4
 48
0.1
100
AcDbLine
 10
1669.113185148181
 20
1009.766040292747
 30
0.0
 11
1672.867185148182
 21
1003.263921561135
 31
0.0
  0
LINE
  5
417
330
1F
100
AcDbEntity
  8
AM_4
 48
0.1
100
AcDbLine
 10
1672.864984247376
 20
1016.265733633151
 30
0.0
 11
1669.113051173587
 21
1009.768272343556
 31
0.0
  0
LINE
  5
418
330
1F
100
AcDbEntity
  8
AM_4
 48
0.1
100
AcDbLine
 10
1672.865850272782
 20
1016.266233633149
 30
0.0
 11
1680.370149371975
 21
1016.266406318151
 31
0.0
  0
LINE
  5
419
330
1F
100
AcDbEntity
  8
AM_4
 48
0.1
100
AcDbLine
 10
1680.371515397376
 20
1016.266040292751
 30
0.0
 11
1684.125015397382
 21
1009.764787586539
 31
0.0
  0
LINE
  5
41A
330
1F
100
AcDbEntity
  8
AM_4
 48
0.1
100
AcDbLine
 10
1684.124649371974
 20
1009.763421561134
 30
0.0
 11
1680.372850272783
 21
1003.263728220729
 31
0.0
  0
CIRCLE
  5
41B
330
1F
100
AcDbEntity
  8
AM_4
 48
0.1
100
AcDbCircle
 10
1676.618850272783
 20
1009.765846952345
 30
0.0
 40
6.5
  0
CIRCLE
  5
41C
330
1F
100
AcDbEntity
  8
AM_4
 48
0.1
100
AcDbCircle
 10
1676.618850272783
 20
1009.765846952345
 30
0.0
 40
4.0
  0
ARC
  5
41D
330
1F
100
AcDbEntity
  8
AM_4
 48
0.1
100
AcDbCircle
 10
1676.618850272783
 20
1009.765846952345
 30
0.0
 40
3.2
100
AcDbArc
 50
112.0200000000214
 51
21.97400000018019
  0
CIRCLE
  5
41E
330
1F
100
AcDbEntity
  8
AM_4
 48
0.1
100
AcDbCircle
 10
1482.603686859093
 20
929.4024459340166
 30
0.0
 40
5.0
  0
CIRCLE
  5
41F
330
1F
100
AcDbEntity
  8
AM_4
 48
0.1
100
AcDbCircle
 10
1482.604663419098
 20
1009.766215464015
 30
0.0
 40
5.0
  0
CIRCLE
  5
420
330
1F
100
AcDbEntity
  8
AM_4
 48
0.1
100
AcDbCircle
 10
1539.429858729095
 20
1066.591410774016
 30
0.0
 40
5.0
  0
CIRCLE
  5
421
330
1F
100
AcDbEntity
  8
AM_4
 48
0.1
100
AcDbCircle
 10
1619.793139979095
 20
1066.591410774016
 30
0.0
 40
5.0
  0
CIRCLE
  5
422
330
1F
100
AcDbEntity
  8
AM_4
 48
0.1
100
AcDbCircle
 10
1676.619311859093
 20
1009.765727184013
 30
0.0
 40
5.0
  0
CIRCLE
  5
423
330
1F
100
AcDbEntity
  8
AM_4
 48
0.1
100
AcDbCircle
 10
1539.429858729095
 20
872.5767623340166
 30
0.0
 40
5.0
  0
CIRCLE
  5
424
330
1F
100
AcDbEntity
  8
AM_4
 48
0.1
100
AcDbCircle
 10
1619.793139979095
 20
872.5767623340166
 30
0.0
 40
5.0
  0
CIRCLE
  5
425
330
1F
100
AcDbEntity
  8
AM_4
 48
0.1
100
AcDbCircle
 10
1676.618335299096
 20
929.4019576540181
 30
0.0
 40
5.0
  0
CIRCLE
  5
426
330
1F
100
AcDbEntity
  8
AM_4
 48
0.1
100
AcDbCircle
 10
1539.429738960761
 20
872.5767356403325
 30
0.0
 40
5.0
  0
CIRCLE
  5
427
330
1F
100
AcDbEntity
  8
AM_4
 48
0.1
100
AcDbCircle
 10
1539.429738960761
 20
1066.5914374677
 30
0.0
 40
5.0
  0
CIRCLE
  5
428
330
1F
100
AcDbEntity
  8
AM_4
 48
0.1
100
AcDbCircle
 10
1619.79325975743
 20
872.5767356403325
 30
0.0
 40
5.0
  0
CIRCLE
  5
429
330
1F
100
AcDbEntity
  8
AM_4
 48
0.1
100
AcDbCircle
 10
1619.79325975743
 20
1066.5914374677
 30
0.0
 40
5.0
  0
CIRCLE
  5
42A
330
1F
100
AcDbEntity
  8
AM_4
 48
0.1
100
AcDbCircle
 10
1676.618850272779
 20
1009.76584695235
 30
0.0
 40
5.0
  0
CIRCLE
  5
42B
330
1F
100
AcDbEntity
  8
AM_4
 48
0.1
100
AcDbCircle
 10
1676.618850272779
 20
929.4023261556818
 30
0.0
 40
5.0
  0
CIRCLE
  5
42C
330
1F
100
AcDbEntity
  8
AM_4
 48
0.1
100
AcDbCircle
 10
1482.604148445408
 20
1009.76584695235
 30
0.0
 40
5.0
  0
CIRCLE
  5
42D
330
1F
100
AcDbEntity
  8
AM_4
 48
0.1
100
AcDbCircle
 10
1482.604148445408
 20
929.4023261556818
 30
0.0
 40
5.0
  0
CIRCLE
  5
42E
330
1F
100
AcDbEntity
  8
AM_4
 48
0.1
100
AcDbCircle
 10
1482.603684093065
 20
929.4024517403654
 30
0.0
 40
5.0
  0
CIRCLE
  5
42F
330
1F
100
AcDbEntity
  8
AM_4
 48
0.1
100
AcDbCircle
 10
1482.60466065307
 20
1009.766221270367
 30
0.0
 40
5.0
  0
CIRCLE
  5
430
330
1F
100
AcDbEntity
  8
AM_4
 48
0.1
100
AcDbCircle
 10
1539.429855963067
 20
1066.591416580368
 30
0.0
 40
5.0
  0
CIRCLE
  5
431
330
1F
100
AcDbEntity
  8
AM_4
 48
0.1
100
AcDbCircle
 10
1619.793137213067
 20
1066.591416580368
 30
0.0
 40
5.0
  0
CIRCLE
  5
432
330
1F
100
AcDbEntity
  8
AM_4
 48
0.1
100
AcDbCircle
 10
1676.619309093065
 20
1009.765732990365
 30
0.0
 40
5.0
  0
CIRCLE
  5
433
330
1F
100
AcDbEntity
  8
AM_4
 48
0.1
100
AcDbCircle
 10
1539.429855963067
 20
872.5767681403654
 30
0.0
 40
5.0
  0
CIRCLE
  5
434
330
1F
100
AcDbEntity
  8
AM_4
 48
0.1
100
AcDbCircle
 10
1619.793137213067
 20
872.5767681403654
 30
0.0
 40
5.0
  0
CIRCLE
  5
435
330
1F
100
AcDbEntity
  8
AM_4
 48
0.1
100
AcDbCircle
 10
1676.618332533069
 20
929.4019634603669
 30
0.0
 40
5.0
  0
LINE
  5
436
330
1F
100
AcDbEntity
  8
AM_7
100
AcDbLine
 10
1579.611499359093
 20
970.0809006968562
 30
0.0
 11
1734.610512058024
 21
970.0809006968562
 31
0.0
1001
GENIUS_GENOREF_13
1005
43C
  0
LINE
  5
437
330
1F
100
AcDbEntity
  8
AM_7
100
AcDbLine
 10
1579.611499359093
 20
970.0809006968562
 30
0.0
 11
1579.611499359093
 21
1125.079913395786
 31
0.0
1001
GENIUS_GENOREF_13
1005
43C
  0
LINE
  5
438
330
1F
100
AcDbEntity
  8
AM_7
100
AcDbLine
 10
1579.611499359093
 20
970.0809006968562
 30
0.0
 11
1424.612486660163
 21
970.0809006968562
 31
0.0
1001
GENIUS_GENOREF_13
1005
43C
  0
LINE
  5
439
330
1F
100
AcDbEntity
  8
AM_7
100
AcDbLine
 10
1579.611499359093
 20
970.0809006968562
 30
0.0
 11
1579.611499359093
 21
815.0818879979256
 31
0.0
1001
GENIUS_GENOREF_13
1005
43C
  0
DIMENSION
  5
43A
330
1F
100
AcDbEntity
  8
AM_5
100
AcDbDimension
  2
*D6
 10
1704.611499359093
 20
681.9994553982164
 30
0.0
 11
1559.611499359093
 21
681.9994553982164
 31
0.0
 70
   160
 71
     5
 42
249.9990126989305
  3
GEN-ISO$0
100
AcDbAlignedDimension
 13
1454.612486660163
 23
970.0809006968562
 33
0.0
 14
1704.611499359093
 24
969.5840865540144
 34
0.0
100
AcDbRotatedDimension
1001
ACAD
1000
DSTYLE
1002
{
1070
   271
1070
     0
1002
}
  0
DIMENSION
  5
43B
330
1F
100
AcDbEntity
  8
AM_5
100
AcDbDimension
  2
*D7
 10
1667.110160100727
 20
743.1023628948628
 30
0.0
 11
1560.090595092178
 21
743.1023628948628
 31
0.0
 70
   160
 71
     5
 42
174.9972503057379
  3
GEN-ISO$0
100
AcDbAlignedDimension
 13
1492.11290979499
 23
970.0809006968562
 33
0.0
 14
1667.110160100727
 24
969.5840865540144
 34
0.0
100
AcDbRotatedDimension
1001
ACAD
1000
DSTYLE
1002
{
1070
   271
1070
     0
1002
}
  0
POINT
  5
43C
330
1F
100
AcDbEntity
  8
0
 60
     1
100
AcDbPoint
 10
-2137.135081578195
 20
-988.1793086332864
 30
0.0
1001
GENIUS_GENOBJ-N-CRS_13
1002
{
1000
OWNER
1000
GEN
1002
}
1001
GENIUS_GENODEF_13
1002
{
1000
HIER
1070
    10
1002
}
1002
{
1000
MANEDIT
1070
     0
1002
}
1002
{
1000
NOSEL
1070
     0
1002
}
1002
{
1000
BEHIND
1070
     0
1002
}
1002
{
1000
OTHER
1070
     0
1002
}
1002
{
1000
REACTOR
1002
}
1001
GENIUS_GENOLIS_13
1002
{
1000
ENT
1005
439
1005
438
1005
437
1005
436
1002
}
1001
GENIUS_GENOENT_13
1002
{
1000
MYREF
1005
43C
1002
}
1002
{
1000
GRP
1005
0
1002
}
  0
ENDSEC
  0
SECTION
  2
OBJECTS
  0
DICTIONARY
  5
C
330
0
100
AcDbDictionary
281
     1
  3
ACAD_COLOR
350
D7
  3
ACAD_GROUP
350
D
  3
ACAD_LAYOUT
350
1A
  3
ACAD_MATERIAL
350
D6
  3
ACAD_MLINESTYLE
350
17
  3
ACAD_PLOTSETTINGS
350
19
  3
ACAD_PLOTSTYLENAME
350
E
  3
ACAD_TABLESTYLE
350
133
  3
ACDBHEADERROUNDTRIPXREC
350
46B
  3
AcDbVariableDictionary
350
34
  3
AcmDictionary
350
49
  3
AMG
350
2B
  3
AMGSNAPSETTINGS
350
2C4
  3
DWGPROPS
350
46A
  0
DICTIONARY
  5
C0
330
2
100
AcDbDictionary
280
     1
281
     1
  3
ACAD_LAYERSTATES
360
335
  3
AMLAYER_GROUPCOLORS
360
C1
  0
DICTIONARY
  5
83
330
1F
100
AcDbDictionary
280
     1
281
     1
  0
DICTIONARY
  5
D7
102
{ACAD_REACTORS
330
C
102
}
330
C
100
AcDbDictionary
281
     1
  0
DICTIONARY
  5
D
102
{ACAD_REACTORS
330
C
102
}
330
C
100
AcDbDictionary
281
     1
  0
DICTIONARY
  5
1A
102
{ACAD_REACTORS
330
C
102
}
330
C
100
AcDbDictionary
281
     1
  3
Layout1
350
1E
  3
Layout2
350
26
  3
Model
350
22
  0
DICTIONARY
  5
D6
102
{ACAD_REACTORS
330
C
102
}
330
C
100
AcDbDictionary
281
     1
  0
DICTIONARY
  5
17
102
{ACAD_REACTORS
330
C
102
}
330
C
100
AcDbDictionary
281
     1
  3
Standard
350
18
  0
DICTIONARY
  5
19
102
{ACAD_REACTORS
330
C
102
}
330
C
100
AcDbDictionary
281
     1
  0
ACDBDICTIONARYWDFLT
  5
E
102
{ACAD_REACTORS
330
C
102
}
330
C
100
AcDbDictionary
281
     1
  3
Normal
350
F
100
AcDbDictionaryWithDefault
340
F
  0
DICTIONARY
  5
133
102
{ACAD_REACTORS
330
C
102
}
330
C
100
AcDbDictionary
281
     1
  3
Standard
350
134
  0
DICTIONARY
  5
46B
102
{ACAD_REACTORS
330
C
102
}
330
C
100
AcDbDictionary
281
     1
  0
DICTIONARY
  5
34
102
{ACAD_REACTORS
330
C
102
}
330
C
100
AcDbDictionary
281
     1
  3
CTABLESTYLE
350
152
  3
DIMASSOC
350
AD
  3
INDEXCTL
350
35
  3
PROJECTNAME
350
468
  0
DICTIONARY
  5
49
102
{ACAD_REACTORS
330
C
102
}
330
C
100
AcDbDictionary
281
     1
  3
AcmBOM
350
2CB
  3
AcmStdDictionary
350
4A
  3
AMDTSECTSYM_ARROWCOLOR
350
13D
  0
DICTIONARY
  5
2B
102
{ACAD_REACTORS
330
C
102
}
330
C
100
AcDbDictionary
281
     1
  0
DICTIONARY
  5
2C4
102
{ACAD_REACTORS
330
C
102
}
330
C
100
AcDbDictionary
281
     1
  0
XRECORD
  5
46A
102
{ACAD_REACTORS
330
C
102
}
330
C
100
AcDbXrecord
280
     1
  1
DWGPROPS COOKIE
  2

  3

  4

  6

  7

  8

  9

300
AmdtFileType=84
301
=
302
=
303
=
304
=
305
=
306
=
307
=
308
=
309
=
 40
0.0002750578703704
 41
2454053.369449144
 42
2454053.369723843
  1

 90
        1
  0
DICTIONARY
  5
335
102
{ACAD_REACTORS
330
C0
102
}
330
C0
100
AcDbDictionary
281
     1
  0
DICTIONARY
  5
C1
102
{ACAD_REACTORS
330
C0
102
}
330
C0
100
AcDbDictionary
280
     1
281
     1
  0
LAYOUT
  5
1E
102
{ACAD_XDICTIONARY
360
46C
102
}
102
{ACAD_REACTORS
330
1A
102
}
330
1A
100
AcDbPlotSettings
  1

  2
none_device
  4
Letter_(8.50_x_11.00_Inches)
  6

 40
6.349999904632568
 41
6.349999904632568
 42
6.350006103515625
 43
6.350006103515625
 44
215.8999938964844
 45
279.3999938964844
 46
0.0
 47
0.0
 48
0.0
 49
0.0
140
0.0
141
0.0
142
1.0
143
1.0
 70
 15024
 72
     1
 73
     1
 74
     5
  7

 75
    16
147
1.0
148
0.0
149
0.0
100
AcDbLayout
  1
Layout1
 70
     1
 71
     1
 10
0.0
 20
0.0
 11
420.0
 21
297.0
 12
0.0
 22
0.0
 32
0.0
 14
1.000000000000000E+20
 24
1.000000000000000E+20
 34
1.000000000000000E+20
 15
-1.000000000000000E+20
 25
-1.000000000000000E+20
 35
-1.000000000000000E+20
146
0.0
 13
0.0
 23
0.0
 33
0.0
 16
1.0
 26
0.0
 36
0.0
 17
0.0
 27
1.0
 37
0.0
 76
     0
330
1B
  0
LAYOUT
  5
26
102
{ACAD_XDICTIONARY
360
470
102
}
102
{ACAD_REACTORS
330
1A
102
}
330
1A
100
AcDbPlotSettings
  1

  2
none_device
  4
Letter_(8.50_x_11.00_Inches)
  6

 40
6.349999904632568
 41
6.349999904632568
 42
6.350006103515625
 43
6.350006103515625
 44
215.8999938964844
 45
279.3999938964844
 46
0.0
 47
0.0
 48
0.0
 49
0.0
140
0.0
141
0.0
142
1.0
143
1.0
 70
 15024
 72
     1
 73
     1
 74
     5
  7

 75
    16
147
1.0
148
0.0
149
0.0
100
AcDbLayout
  1
Layout2
 70
     1
 71
     2
 10
0.0
 20
0.0
 11
12.0
 21
9.0
 12
0.0
 22
0.0
 32
0.0
 14
0.0
 24
0.0
 34
0.0
 15
0.0
 25
0.0
 35
0.0
146
0.0
 13
0.0
 23
0.0
 33
0.0
 16
1.0
 26
0.0
 36
0.0
 17
0.0
 27
1.0
 37
0.0
 76
     0
330
23
  0
LAYOUT
  5
22
102
{ACAD_XDICTIONARY
360
46E
102
}
102
{ACAD_REACTORS
330
1A
102
}
330
1A
100
AcDbPlotSettings
  1

  2
none_device
  4
Letter_(8.50_x_11.00_Inches)
  6

 40
6.349999904632568
 41
6.349999904632568
 42
6.350006103515625
 43
6.350006103515625
 44
215.8999938964844
 45
279.3999938964844
 46
0.0
 47
0.0
 48
0.0
 49
0.0
140
0.0
141
0.0
142
1.0
143
1.0
 70
 11952
 72
     1
 73
     1
 74
     0
  7

 75
     0
147
1.0
148
-131.3052631578947
149
0.0
100
AcDbLayout
  1
Model
 70
     1
 71
     0
 10
0.0
 20
0.0
 11
12.0
 21
9.0
 12
0.0
 22
0.0
 32
0.0
 14
0.0
 24
0.0
 34
0.0
 15
0.0
 25
0.0
 35
0.0
146
0.0
 13
0.0
 23
0.0
 33
0.0
 16
1.0
 26
0.0
 36
0.0
 17
0.0
 27
1.0
 37
0.0
 76
     0
330
1F
  0
MLINESTYLE
  5
18
102
{ACAD_REACTORS
330
17
102
}
330
17
100
AcDbMlineStyle
  2
STANDARD
 70
     0
  3

 62
   256
 51
90.0
 52
90.0
 71
     2
 49
0.5
 62
   256
  6
BYLAYER
 49
-0.5
 62
   256
  6
BYLAYER
  0
ACDBPLACEHOLDER
  5
F
102
{ACAD_REACTORS
330
E
102
}
330
E
  0
TABLESTYLE
  5
134
102
{ACAD_REACTORS
330
133
102
}
330
133
100
AcDbTableStyle
  3
Standard
 70
     0
 71
     0
 40
1.5
 41
1.5
280
     0
281
     0
  7
STANDARD
140
4.5
170
     2
 62
     0
 63
     7
283
     0
274
    -2
284
     1
 64
     0
275
    -2
285
     1
 65
     0
276
    -2
286
     1
 66
     0
277
    -2
287
     1
 67
     0
278
    -2
288
     1
 68
     0
279
    -2
289
     1
 69
     0
  7
STANDARD
140
6.0
170
     5
 62
     0
 63
     7
283
     0
274
    -2
284
     1
 64
     0
275
    -2
285
     1
 65
     0
276
    -2
286
     1
 66
     0
277
    -2
287
     1
 67
     0
278
    -2
288
     1
 68
     0
279
    -2
289
     1
 69
     0
  7
STANDARD
140
4.5
170
     5
 62
     0
 63
     7
283
     0
274
    -2
284
     1
 64
     0
275
    -2
285
     1
 65
     0
276
    -2
286
     1
 66
     0
277
    -2
287
     1
 67
     0
278
    -2
288
     1
 68
     0
279
    -2
289
     1
 69
     0
  0
DICTIONARYVAR
  5
152
102
{ACAD_REACTORS
330
34
102
}
330
34
100
DictionaryVariables
280
     0
  1
STANDARD
  0
DICTIONARYVAR
  5
AD
102
{ACAD_REACTORS
330
34
102
}
330
34
100
DictionaryVariables
280
     0
  1
2
  0
DICTIONARYVAR
  5
35
102
{ACAD_REACTORS
330
34
102
}
330
34
100
DictionaryVariables
280
     0
  1
0
  0
DICTIONARYVAR
  5
468
102
{ACAD_REACTORS
330
34
102
}
330
34
100
DictionaryVariables
280
     0
  1

  0
DICTIONARY
  5
2CB
102
{ACAD_REACTORS
330
49
102
}
330
49
100
AcDbDictionary
281
     1
  0
DICTIONARY
  5
4A
102
{ACAD_REACTORS
330
49
102
}
330
49
100
AcDbDictionary
281
     1
  0
XRECORD
  5
13D
102
{ACAD_REACTORS
330
49
102
}
330
49
100
AcDbXrecord
280
     1
 90
-1023410169
  0
DICTIONARY
  5
46C
330
1E
100
AcDbDictionary
280
     1
281
     1
  3
ACAD_XREC_ROUNDTRIP
360
46D
  0
DICTIONARY
  5
470
330
26
100
AcDbDictionary
280
     1
281
     1
  3
ACAD_XREC_ROUNDTRIP
360
471
  0
DICTIONARY
  5
46E
330
22
100
AcDbDictionary
280
     1
281
     1
  3
ACAD_XREC_ROUNDTRIP
360
46F
  0
XRECORD
  5
46D
102
{ACAD_REACTORS
330
46C
102
}
330
46C
100
AcDbXrecord
280
     1
102
SHADEPLOT
 70
     0
102
SHADEPLOTRESLEVEL
 70
     2
102
SHADEPLOTCUSTOMDPI
 70
   300
  0
XRECORD
  5
471
102
{ACAD_REACTORS
330
470
102
}
330
470
100
AcDbXrecord
280
     1
102
SHADEPLOT
 70
     0
102
SHADEPLOTRESLEVEL
 70
     2
102
SHADEPLOTCUSTOMDPI
 70
   300
  0
XRECORD
  5
46F
102
{ACAD_REACTORS
330
46E
102
}
330
46E
100
AcDbXrecord
280
     1
102
SHADEPLOT
 70
     0
102
SHADEPLOTRESLEVEL
 70
     2
102
SHADEPLOTCUSTOMDPI
 70
   300
  0
ENDSEC
  0
EOF
