  0
SECTION
  2
HEADER
  9
$ACADVER
  1
AC1015
  9
$ACADMAINTVER
 70
    20
  9
$DWGCODEPAGE
  3
ANSI_1252
  9
$INSBASE
 10
0.0
 20
0.0
 30
0.0
  9
$EXTMIN
 10
18846.19913183628
 20
1591.247071213013
 30
0.0
  9
$EXTMAX
 10
19593.37757566273
 20
2177.750686321622
 30
0.0
  9
$LIMMIN
 10
0.0
 20
0.0
  9
$LIMMAX
 10
420.0
 20
297.0
  9
$ORTHOMODE
 70
     0
  9
$REGENMODE
 70
     1
  9
$FILLMODE
 70
     1
  9
$QTEXTMODE
 70
     0
  9
$MIRRTEXT
 70
     0
  9
$LTSCALE
 40
8.0
  9
$ATTMODE
 70
     1
  9
$TEXTSIZE
 40
2.5
  9
$TRACEWID
 40
1.0
  9
$TEXTSTYLE
  7
STANDARD
  9
$CLAYER
  8
0
  9
$CELTYPE
  6
ByLayer
  9
$CECOLOR
 62
   256
  9
$CELTSCALE
 40
1.0
  9
$DISPSILH
 70
     0
  9
$DIMSCALE
 40
1.0
  9
$DIMASZ
 40
65.0
  9
$DIMEXO
 40
1.0
  9
$DIMDLI
 40
10.0
  9
$DIMRND
 40
0.0
  9
$DIMDLE
 40
0.0
  9
$DIMEXE
 40
25.0
  9
$DIMTP
 40
0.1
  9
$DIMTM
 40
0.1
  9
$DIMTXT
 40
50.0
  9
$DIMCEN
 40
0.0
  9
$DIMTSZ
 40
0.0
  9
$DIMTOL
 70
     0
  9
$DIMLIM
 70
     0
  9
$DIMTIH
 70
     0
  9
$DIMTOH
 70
     0
  9
$DIMSE1
 70
     0
  9
$DIMSE2
 70
     0
  9
$DIMTAD
 70
     1
  9
$DIMZIN
 70
     8
  9
$DIMBLK
  1

  9
$DIMASO
 70
     1
  9
$DIMSHO
 70
     1
  9
$DIMPOST
  1

  9
$DIMAPOST
  1
"
  9
$DIMALT
 70
     0
  9
$DIMALTD
 70
     2
  9
$DIMALTF
 40
0.0393701
  9
$DIMLFAC
 40
1.0
  9
$DIMTOFL
 70
     1
  9
$DIMTVP
 40
0.0
  9
$DIMTIX
 70
     0
  9
$DIMSOXD
 70
     0
  9
$DIMSAH
 70
     0
  9
$DIMBLK1
  1

  9
$DIMBLK2
  1

  9
$DIMSTYLE
  2
AM_DIN
  9
$DIMCLRD
 70
   256
  9
$DIMCLRE
 70
   256
  9
$DIMCLRT
 70
     2
  9
$DIMTFAC
 40
0.71
  9
$DIMGAP
 40
15.0
  9
$DIMJUST
 70
     0
  9
$DIMSD1
 70
     0
  9
$DIMSD2
 70
     0
  9
$DIMTOLJ
 70
     0
  9
$DIMTZIN
 70
     8
  9
$DIMALTZ
 70
     0
  9
$DIMALTTZ
 70
     0
  9
$DIMUPT
 70
     0
  9
$DIMDEC
 70
     0
  9
$DIMTDEC
 70
     0
  9
$DIMALTU
 70
     2
  9
$DIMALTTD
 70
     2
  9
$DIMTXSTY
  7
STANDARD
  9
$DIMAUNIT
 70
     0
  9
$DIMADEC
 70
     0
  9
$DIMALTRND
 40
0.0
  9
$DIMAZIN
 70
     2
  9
$DIMDSEP
 70
    46
  9
$DIMATFIT
 70
     3
  9
$DIMFRAC
 70
     0
  9
$DIMLDRBLK
  1

  9
$DIMLUNIT
 70
     2
  9
$DIMLWD
 70
    -1
  9
$DIMLWE
 70
    -1
  9
$DIMTMOVE
 70
     0
  9
$LUNITS
 70
     2
  9
$LUPREC
 70
     2
  9
$SKETCHINC
 40
1.0
  9
$FILLETRAD
 40
2.5
  9
$AUNITS
 70
     0
  9
$AUPREC
 70
     0
  9
$MENU
  1
.
  9
$ELEVATION
 40
0.0
  9
$PELEVATION
 40
0.0
  9
$THICKNESS
 40
0.0
  9
$LIMCHECK
 70
     0
  9
$CHAMFERA
 40
2.5
  9
$CHAMFERB
 40
2.5
  9
$CHAMFERC
 40
20.0
  9
$CHAMFERD
 40
0.0
  9
$SKPOLY
 70
     0
  9
$TDCREATE
 40
2454167.376978160
  9
$TDUCREATE
 40
2454167.335311493
  9
$TDUPDATE
 40
2455138.378046505
  9
$TDUUPDATE
 40
2455138.336379838
  9
$TDINDWG
 40
0.8030901852
  9
$TDUSRTIMER
 40
0.8029298611
  9
$USRTIMER
 70
     1
  9
$ANGBASE
 50
0.0
  9
$ANGDIR
 70
     0
  9
$PDMODE
 70
     0
  9
$PDSIZE
 40
0.0
  9
$PLINEWID
 40
0.0
  9
$SPLFRAME
 70
     0
  9
$SPLINETYPE
 70
     6
  9
$SPLINESEGS
 70
     8
  9
$HANDSEED
  5
1D95D
  9
$SURFTAB1
 70
     6
  9
$SURFTAB2
 70
     6
  9
$SURFTYPE
 70
     6
  9
$SURFU
 70
     6
  9
$SURFV
 70
     6
  9
$UCSBASE
  2

  9
$UCSNAME
  2

  9
$UCSORG
 10
0.0
 20
0.0
 30
0.0
  9
$UCSXDIR
 10
1.0
 20
0.0
 30
0.0
  9
$UCSYDIR
 10
0.0
 20
1.0
 30
0.0
  9
$UCSORTHOREF
  2

  9
$UCSORTHOVIEW
 70
     0
  9
$UCSORGTOP
 10
0.0
 20
0.0
 30
0.0
  9
$UCSORGBOTTOM
 10
0.0
 20
0.0
 30
0.0
  9
$UCSORGLEFT
 10
0.0
 20
0.0
 30
0.0
  9
$UCSORGRIGHT
 10
0.0
 20
0.0
 30
0.0
  9
$UCSORGFRONT
 10
0.0
 20
0.0
 30
0.0
  9
$UCSORGBACK
 10
0.0
 20
0.0
 30
0.0
  9
$PUCSBASE
  2

  9
$PUCSNAME
  2

  9
$PUCSORG
 10
0.0
 20
0.0
 30
0.0
  9
$PUCSXDIR
 10
1.0
 20
0.0
 30
0.0
  9
$PUCSYDIR
 10
0.0
 20
1.0
 30
0.0
  9
$PUCSORTHOREF
  2

  9
$PUCSORTHOVIEW
 70
     0
  9
$PUCSORGTOP
 10
0.0
 20
0.0
 30
0.0
  9
$PUCSORGBOTTOM
 10
0.0
 20
0.0
 30
0.0
  9
$PUCSORGLEFT
 10
0.0
 20
0.0
 30
0.0
  9
$PUCSORGRIGHT
 10
0.0
 20
0.0
 30
0.0
  9
$PUCSORGFRONT
 10
0.0
 20
0.0
 30
0.0
  9
$PUCSORGBACK
 10
0.0
 20
0.0
 30
0.0
  9
$USERI1
 70
     0
  9
$USERI2
 70
     0
  9
$USERI3
 70
     0
  9
$USERI4
 70
     0
  9
$USERI5
 70
     0
  9
$USERR1
 40
0.0
  9
$USERR2
 40
0.0
  9
$USERR3
 40
0.0
  9
$USERR4
 40
0.0
  9
$USERR5
 40
0.0
  9
$WORLDVIEW
 70
     1
  9
$SHADEDGE
 70
     3
  9
$SHADEDIF
 70
    70
  9
$TILEMODE
 70
     1
  9
$MAXACTVP
 70
    64
  9
$PINSBASE
 10
0.0
 20
0.0
 30
0.0
  9
$PLIMCHECK
 70
     0
  9
$PEXTMIN
 10
1.000000000000000E+20
 20
1.000000000000000E+20
 30
1.000000000000000E+20
  9
$PEXTMAX
 10
-1.000000000000000E+20
 20
-1.000000000000000E+20
 30
-1.000000000000000E+20
  9
$PLIMMIN
 10
0.0
 20
0.0
  9
$PLIMMAX
 10
420.0
 20
297.0
  9
$UNITMODE
 70
     0
  9
$VISRETAIN
 70
     1
  9
$PLINEGEN
 70
     0
  9
$PSLTSCALE
 70
     1
  9
$TREEDEPTH
 70
  3020
  9
$CMLSTYLE
  2
Standard
  9
$CMLJUST
 70
     0
  9
$CMLSCALE
 40
20.0
  9
$PROXYGRAPHICS
 70
     1
  9
$MEASUREMENT
 70
     1
  9
$CELWEIGHT
370
    -1
  9
$ENDCAPS
280
     0
  9
$JOINSTYLE
280
     0
  9
$LWDISPLAY
290
     0
  9
$INSUNITS
 70
     4
  9
$HYPERLINKBASE
  1

  9
$STYLESHEET
  1
MONOCHROME UW.CTB
  9
$XEDIT
290
     1
  9
$CEPSNTYPE
380
     0
  9
$PSTYLEMODE
290
     1
  9
$FINGERPRINTGUID
  2
{1344C3A2-CD10-4B1D-A761-DD320F23370E}
  9
$VERSIONGUID
  2
{3054FFE3-71FF-4027-854D-C9B59F69B88D}
  9
$EXTNAMES
290
     1
  9
$PSVPSCALE
 40
0.0
  9
$OLESTARTUP
290
     0
  0
ENDSEC
  0
SECTION
  2
CLASSES
  0
CLASS
  1
ACDBDICTIONARYWDFLT
  2
AcDbDictionaryWithDefault
  3
ObjectDBX Classes
 90
        0
280
     0
281
     0
  0
CLASS
  1
ACDBPLACEHOLDER
  2
AcDbPlaceHolder
  3
ObjectDBX Classes
 90
        0
280
     0
281
     0
  0
CLASS
  1
LAYOUT
  2
AcDbLayout
  3
ObjectDBX Classes
 90
        0
280
     0
281
     0
  0
CLASS
  1
ACME_DOCUMENT
  2
AcMeDbDoc
  3
AcMeServices
 90
     1024
280
     0
281
     0
  0
CLASS
  1
AMGSETTINGSOBJ
  2
AmgSettingsObj
  3
"AcadM|Product Description: AutoCAD Mechanical|Company: Autodesk, Inc."
 90
     1024
280
     0
281
     0
  0
CLASS
  1
ACMESCOPE
  2
AcMeScope
  3
AcMeServices
 90
     1024
280
     0
281
     0
  0
CLASS
  1
ACMECOMMANDHISTORY
  2
AcMeCommandHistory
  3
AcMeServices
 90
     1024
280
     0
281
     0
  0
CLASS
  1
ACIMSYSVARMAN
  2
AcImSysVarManager
  3
AcMeServices
 90
     1024
280
     0
281
     0
  0
CLASS
  1
ACIMREALSYSVAR
  2
AcImRealSysVar
  3
AcMeServices
 90
     1024
280
     0
281
     0
  0
CLASS
  1
ACIMINTSYSVAR
  2
AcImIntSysVar
  3
AcMeServices
 90
     1024
280
     0
281
     0
  0
CLASS
  1
ACMEDRAWINGMAN
  2
AcMeDrawingMan
  3
AcMeServices
 90
     1024
280
     0
281
     0
  0
CLASS
  1
ACMEVIEW
  2
AcMeView
  3
AcMeServices
 90
     1024
280
     0
281
     0
  0
CLASS
  1
ACDBENTITYCACHE
  2
AcMeEntityCache
  3
AcMeServices
 90
     1024
280
     0
281
     0
  0
CLASS
  1
GSMANAGER
  2
AcMeGSManager
  3
AcMeServices
 90
    32768
280
     0
281
     0
  0
CLASS
  1
AMDTINTERNALREACTOR
  2
AmdtInternalReactor
  3
AcMeServices
 90
     1024
280
     0
281
     0
  0
CLASS
  1
ACMESTATEMGR
  2
AcMeStateMgr
  3
AcMeServices
 90
     1024
280
     0
281
     0
  0
CLASS
  1
ACGREFMASTER
  2
AcGrefMaster
  3
AcAttribServices
 90
     1024
280
     0
281
     0
  0
CLASS
  1
ACME_DATABASE
  2
AcMeDbDatabase
  3
AcMeServices
 90
     1024
280
     0
281
     0
  0
CLASS
  1
ACRFINSADJUSTERMGR
  2
AcRfInsAdjusterMgr
  3
AcMeServices
 90
     1024
280
     0
281
     0
  0
CLASS
  1
ACGREFACADMASTER
  2
AcGrefacadMaster
  3
AcGrefServices
 90
     1024
280
     0
281
     0
  0
CLASS
  1
AMIMASTER
  2
AmiMaster
  3
AmiServices
 90
     1024
280
     0
281
     0
  0
CLASS
  1
ACMDATADICTIONARY
  2
AcmDataDictionary
  3
"AcmSymBB|Product Description: AutoCAD Mechanical|Company: Autodesk, Inc."
 90
     1024
280
     0
281
     0
  0
CLASS
  1
ACMDATAENTRYBLOCK
  2
AcmDataEntryBlock
  3
AcmSymBB|Product Description: AutoCAD Mechanical|Company: Autodesk, Inc.
 90
    33792
280
     0
281
     0
  0
CLASS
  1
ACIMSTRSYSVAR
  2
AcImStrSysVar
  3
AcMeServices
 90
     1024
280
     0
281
     0
  0
CLASS
  1
ACMSTANDARDISO
  2
AcmStandardISO
  3
"Amdt_StdImp|Product Description: AutoCAD Mechanical|Company: Autodesk, Inc."
 90
    33792
280
     0
281
     0
  0
CLASS
  1
AMGOBJPROPCFG
  2
AmgObjPropCfg
  3
"AmgLay|Product Description: AutoCAD Mechanical|Company: Autodesk, Inc."
 90
     1025
280
     0
281
     0
  0
CLASS
  1
AMDTEDGESTANDARDISO
  2
AmdtEdgeStdISO
  3
"Amdt_StdImp|Product Description: AutoCAD Mechanical|Company: Autodesk, Inc."
 90
    33792
280
     0
281
     0
  0
CLASS
  1
ACMSURFSTANDARDISO
  2
AcmSurfTextStdISO
  3
"Amdt_StdImp|Product Description: AutoCAD Mechanical|Company: Autodesk, Inc."
 90
    33792
280
     0
281
     0
  0
CLASS
  1
ACMFCFSTANDARDISO
  2
AcmFCFStdISO
  3
"Amdt_StdImp|Product Description: AutoCAD Mechanical|Company: Autodesk, Inc."
 90
    33792
280
     0
281
     0
  0
CLASS
  1
ACMWELDSTANDARDISO
  2
AcmWeldingStdISO
  3
"Amdt_StdImp|Product Description: AutoCAD Mechanical|Company: Autodesk, Inc."
 90
    33792
280
     0
281
     0
  0
CLASS
  1
ACMIDSTANDARDISO
  2
AcmIdStdISO
  3
"Amdt_StdImp|Product Description: AutoCAD Mechanical|Company: Autodesk, Inc."
 90
    33792
280
     0
281
     0
  0
CLASS
  1
ACMDATUMSTANDARDISO
  2
AcmDatumStdISO
  3
"Amdt_StdImp|Product Description: AutoCAD Mechanical|Company: Autodesk, Inc."
 90
    33792
280
     0
281
     0
  0
CLASS
  1
ACMBOMSTANDARDISO
  2
AcmBOMStdISO
  3
"Amdt_StdImp|Product Description: AutoCAD Mechanical|Company: Autodesk, Inc."
 90
    33792
280
     0
281
     0
  0
CLASS
  1
ACMDETAILSTANDARDISO
  2
AmdtDetailSymStdISO
  3
"Amdt_StdImp|Product Description: AutoCAD Mechanical|Company: Autodesk, Inc."
 90
    33792
280
     0
281
     0
  0
CLASS
  1
ACMSECTIONSTANDARDISO
  2
AmdtSectionSymStdISO
  3
"Amdt_StdImp|Product Description: AutoCAD Mechanical|Company: Autodesk, Inc."
 90
    33792
280
     0
281
     0
  0
CLASS
  1
ACMCENTERLINESTANDARDISO
  2
AmdtCenterLineStdISO
  3
"Amdt_StdImp|Product Description: AutoCAD Mechanical|Company: Autodesk, Inc."
 90
    33792
280
     0
281
     0
  0
CLASS
  1
ACMNOTESTANDARDISO
  2
AmdtNoteStdISO
  3
"Amdt_StdImp|Product Description: AutoCAD Mechanical|Company: Autodesk, Inc."
 90
    33792
280
     0
281
     0
  0
CLASS
  1
ACAMGLAYSTD
  2
AcAmgLayStd
  3
"AmgLay|Product Description: AutoCAD Mechanical|Company: Autodesk, Inc."
 90
     1024
280
     0
281
     0
  0
CLASS
  1
ACAMGDIMSTD
  2
AcAmgDimStd
  3
"AmgDim|Product Description: AutoCAD Mechanical|Company: Autodesk, Inc."
 90
     1024
280
     0
281
     0
  0
CLASS
  1
ACAMGHOLECHARTSTDISO
  2
AcAmgHoleChartStdISO
  3
AmgDim|Product Description: AutoCAD Mechanical|Company: Autodesk, Inc.
 90
    33792
280
     0
281
     0
  0
CLASS
  1
ACAMGTITLESTD
  2
AcAmgTitleStd
  3
"AmgTitle|Product Description: AutoCAD Mechanical|Company: Autodesk, Inc."
 90
     4095
280
     0
281
     0
  0
CLASS
  1
LAYER_INDEX
  2
AcDbLayerIndex
  3
ObjectDBX Classes
 90
    32768
280
     0
281
     0
  0
CLASS
  1
IDBUFFER
  2
AcDbIdBuffer
  3
ObjectDBX Classes
 90
    32768
280
     0
281
     0
  0
CLASS
  1
DICTIONARYVAR
  2
AcDbDictionaryVar
  3
ObjectDBX Classes
 90
        0
280
     0
281
     0
  0
CLASS
  1
AM_DRAWING_MGR
  2
AcDmDwgMgr
  3
AcMechDwgViewMgmt
 90
     1024
280
     0
281
     0
  0
CLASS
  1
AM_DWG_DOCUMENT
  2
AcDmDwgDocument
  3
AcMechDwgViewMgmt
 90
     1024
280
     0
281
     0
  0
CLASS
  1
AM_DWG_SHEET
  2
AcDmSheet
  3
AcMechDwgViewMgmt
 90
     1024
280
     0
281
     0
  0
CLASS
  1
AM_VIEWDIMPARMAP
  2
AcDmViewDimParMap
  3
AcMechDwgViewMgmt
 90
     1024
280
     0
281
     0
  0
CLASS
  1
AM_DWGMGR_NAME
  2
AcDmDwgMgrName
  3
AcMechDwgViewMgmt
 90
     1024
280
     0
281
     0
  0
CLASS
  1
AMDTMENUSTATEMGR
  2
AmdtMenuStateMgr
  3
McadcomServices
 90
     1024
280
     0
281
     0
  0
CLASS
  1
AMDTMCOMMENUSTATE
  2
AmdtMcomMenuState
  3
McadcomServices
 90
     1024
280
     0
281
     0
  0
CLASS
  1
MAPIAMMOUDLE
  2
MApiAmModule
  3
MApiAmServices
 90
     1024
280
     0
281
     0
  0
CLASS
  1
AMDTADMENUSTATE
  2
AmdtAdMenuState
  3
DesignerServices
 90
     1024
280
     0
281
     0
  0
CLASS
  1
ADAPPL
  2
AcAdAppl
  3
DesignerServices
 90
     1024
280
     0
281
     0
  0
CLASS
  1
DEPMGR
  2
AcAdDepMgr
  3
DesignerServices
 90
     1024
280
     0
281
     0
  0
CLASS
  1
PARAMMGR
  2
AcAdParamMgr
  3
DesignerServices
 90
     1024
280
     0
281
     0
  0
CLASS
  1
PARAMSCOPE
  2
AcAdParamScope
  3
DesignerServices
 90
     1024
280
     0
281
     0
  0
CLASS
  1
NAMEDAPPL
  2
AcAdNamedAppl
  3
DesignerServices
 90
     1024
280
     0
281
     0
  0
CLASS
  1
AMDTDMMENUSTATE
  2
AmdtDmMenuState
  3
AcMechDwgViewMgmt
 90
     1024
280
     0
281
     0
  0
CLASS
  1
AMDTAMMENUSTATE
  2
AmdtAmMenuState
  3
DesignerAssemblies
 90
     1024
280
     0
281
     0
  0
CLASS
  1
ACAMPROJECT
  2
AcAmProject
  3
DesignerAssemblies
 90
     1024
280
     0
281
     0
  0
CLASS
  1
ACAMGRCOMPDEF
  2
AcAmGrCompDef
  3
DesignerAssemblies
 90
     1024
280
     0
281
     0
  0
CLASS
  1
ACCMCONTEXT
  2
AcCmContext
  3
DesignerAssemblies
 90
    33792
280
     0
281
     0
  0
CLASS
  1
ACAMCOMPDEF
  2
AcAmCompDef
  3
DesignerAssemblies
 90
     1024
280
     0
281
     0
  0
CLASS
  1
ACAMCOMPDEFMGR
  2
AcAmCompDefMgr
  3
DesignerAssemblies
 90
     1024
280
     0
281
     0
  0
CLASS
  1
AMCONTEXTMGR
  2
AcAmContextMgr
  3
DesignerAssemblies
 90
     1024
280
     0
281
     0
  0
CLASS
  1
ACAMCONTEXTMODELER
  2
AcAmContextModeler
  3
DesignerAssemblies
 90
     1024
280
     0
281
     0
  0
CLASS
  1
ACMTHREADLINESTANDARDISO
  2
AmdtThreadLineStdISO
  3
"Amdt_StdImp|Product Description: AutoCAD Mechanical|Company: Autodesk, Inc."
 90
    33792
280
     0
281
     0
  0
CLASS
  1
CATALOGSTATE
  2
AcAmCatalogState
  3
DesignerAssemblies
 90
     1024
280
     0
281
     0
  0
CLASS
  1
ACAMGRCOMPDEFSET
  2
AcAmGrCompDefSet
  3
DesignerAssemblies
 90
     1024
280
     0
281
     0
  0
CLASS
  1
AMDTBROWSERDBTAB
  2
AmdtBrowserDbTab
  3
McadcomServices
 90
     1024
280
     0
281
     0
  0
CLASS
  1
CBROWSERAPPOBJECT
  2
CBrowserAppObject
  3
McadcomServices
 90
     1024
280
     0
281
     0
  0
CLASS
  1
DM_PLACEHOLDER
  2
AcDmSelsetPlaceholder
  3
AcMechDwgViewMgmt
 90
     1024
280
     0
281
     0
  0
CLASS
  1
TABLESTYLE
  2
AcDbTableStyle
  3
ObjectDBX Classes
 90
     4095
280
     0
281
     0
  0
CLASS
  1
VAACXREFPANELOBJECT
  2
VaAcXREFPanelObject
  3
VAAC_ADDIN
 90
    32768
280
     0
281
     0
  0
CLASS
  1
VAACIMAGEINVENTORY
  2
VaAcImageInventory
  3
VAAC_ADDIN
 90
    32768
280
     0
281
     0
  0
CLASS
  1
AMDTNOTETEMPLATEDB
  2
AmdtNoteTemplateDB
  3
AcmSymBB|Product Description: AutoCAD Mechanical|Company: Autodesk, Inc.
 90
     1024
280
     0
281
     0
  0
CLASS
  1
ACAMGFILTERDAT
  2
AcAmgFilterDat
  3
"AcadM|Product Description: AutoCAD Mechanical|Company: Autodesk, Inc."
 90
    33792
280
     0
281
     0
  0
CLASS
  1
ACMBOM
  2
AcmBom
  3
"AcmSymBB|Product Description: AutoCAD Mechanical|Company: Autodesk, Inc."
 90
    33792
280
     0
281
     0
  0
CLASS
  1
AMDTFORMULAUPDATEDISPATCHER
  2
AmdtFormulaUpdateDispatcher
  3
AcMeServices
 90
    33792
280
     0
281
     0
  0
CLASS
  1
ACMSTANDARDDIN
  2
AcmStandardDIN
  3
"Amdt_StdImp|Product Description: AutoCAD Mechanical|Company: Autodesk, Inc."
 90
     1024
280
     0
281
     0
  0
CLASS
  1
AMDTEDGESTANDARDDIN13715
  2
AmdtEdgeStdDIN13715
  3
"Amdt_StdImp|Product Description: AutoCAD Mechanical|Company: Autodesk, Inc."
 90
     1024
280
     0
281
     0
  0
CLASS
  1
ACMSURFSTANDARDDIN
  2
AcmSurfTextStdDIN
  3
"Amdt_StdImp|Product Description: AutoCAD Mechanical|Company: Autodesk, Inc."
 90
    33792
280
     0
281
     0
  0
CLASS
  1
ACMFCFSTANDARDDIN
  2
AcmFCFStdDIN
  3
"Amdt_StdImp|Product Description: AutoCAD Mechanical|Company: Autodesk, Inc."
 90
     1024
280
     0
281
     0
  0
CLASS
  1
ACMWELDSTANDARDDIN
  2
AcmWeldingStdDIN
  3
"Amdt_StdImp|Product Description: AutoCAD Mechanical|Company: Autodesk, Inc."
 90
     1024
280
     0
281
     0
  0
CLASS
  1
ACMIDSTANDARDDIN
  2
AcmIdStdDIN
  3
"Amdt_StdImp|Product Description: AutoCAD Mechanical|Company: Autodesk, Inc."
 90
     1024
280
     0
281
     0
  0
CLASS
  1
ACMDATUMSTANDARDDIN
  2
AcmDatumStdDIN
  3
"Amdt_StdImp|Product Description: AutoCAD Mechanical|Company: Autodesk, Inc."
 90
     1024
280
     0
281
     0
  0
CLASS
  1
ACMBOMSTANDARDDIN
  2
AcmBOMStdDIN
  3
"Amdt_StdImp|Product Description: AutoCAD Mechanical|Company: Autodesk, Inc."
 90
     1024
280
     0
281
     0
  0
CLASS
  1
ACMDETAILSTANDARDDIN
  2
AmdtDetailSymStdDIN
  3
"Amdt_StdImp|Product Description: AutoCAD Mechanical|Company: Autodesk, Inc."
 90
     1024
280
     0
281
     0
  0
CLASS
  1
ACMSECTIONSTANDARDDIN
  2
AmdtSectionSymStdDIN
  3
"Amdt_StdImp|Product Description: AutoCAD Mechanical|Company: Autodesk, Inc."
 90
     1024
280
     0
281
     0
  0
CLASS
  1
ACMCENTERLINESTANDARDDIN
  2
AmdtCenterLineStdDIN
  3
"Amdt_StdImp|Product Description: AutoCAD Mechanical|Company: Autodesk, Inc."
 90
     1024
280
     0
281
     0
  0
CLASS
  1
ACMTHREADLINESTANDARDDIN
  2
AmdtThreadLineStdDIN
  3
"Amdt_StdImp|Product Description: AutoCAD Mechanical|Company: Autodesk, Inc."
 90
     1024
280
     0
281
     0
  0
CLASS
  1
ACMNOTESTANDARDDIN
  2
AmdtNoteStdDIN
  3
"Amdt_StdImp|Product Description: AutoCAD Mechanical|Company: Autodesk, Inc."
 90
     1024
280
     0
281
     0
  0
CLASS
  1
ACAMGHOLECHARTSTDDIN
  2
AcAmgHoleChartStdDIN
  3
AmgDim|Product Description: AutoCAD Mechanical|Company: Autodesk, Inc.
 90
     1024
280
     0
281
     0
  0
CLASS
  1
ACRFATTGENMGR
  2
AcRfAttGeneralMgr
  3
AcAttribServices
 90
    33792
280
     0
281
     0
  0
CLASS
  1
SORTENTSTABLE
  2
AcDbSortentsTable
  3
ObjectDBX Classes
 90
        0
280
     0
281
     0
  0
CLASS
  1
DIMASSOC
  2
AcDbDimAssoc
  3
"AcDbDimAssoc|Product Desc:     AcDim ARX App For Dimension|Company:          Autodesk, Inc.|WEB Address:      www.autodesk.com"
 90
    32768
280
     0
281
     0
  0
CLASS
  1
AC_AM_MVD_DEP_MGR
  2
AcAmMVDdepMgr
  3
DesignerAssemblies
 90
    33792
280
     0
281
     0
  0
CLASS
  1
AC_AM_MASTER_VIEW_DEF
  2
AcAmMasterViewDef
  3
DesignerAssemblies
 90
    33792
280
     0
281
     0
  0
CLASS
  1
AC_AM_DIRTY_NODES
  2
AcAmDirtyNodes
  3
DesignerAssemblies
 90
    33792
280
     0
281
     0
  0
CLASS
  1
AC_AM_MAPPER_CACHE
  2
AcAmMapperCache
  3
DesignerAssemblies
 90
    33792
280
     0
281
     0
  0
CLASS
  1
ACAMMVDBACKUPOBJECT
  2
AcAmMVDBackupObject
  3
DesignerAssemblies
 90
    33792
280
     0
281
     0
  0
CLASS
  1
AC_AM_2D_XREF_MGR
  2
AcAmXrefMgr2d
  3
DesignerAssemblies
 90
    33792
280
     0
281
     0
  0
CLASS
  1
AC_AM_HIDE_SITUATION
  2
AcAmHideSituation
  3
DesignerAssemblies
 90
    33792
280
     0
281
     0
  0
CLASS
  1
ACAMWBLOCKTEMPENTS
  2
AcAmStructInOutTempObjsHolder
  3
DesignerAssemblies
 90
    33792
280
     0
281
     0
  0
CLASS
  1
STDPART2D
  2
AmgStdPart
  3
AmgStdPart|Product Description: AutoCAD Mechanical|Company: Autodesk, Inc.
 90
    36863
280
     0
281
     1
  0
CLASS
  1
ACMDATAENTRYPART
  2
AcmDataEntryPart
  3
AcmSymBB|Product Description: AutoCAD Mechanical|Company: Autodesk, Inc.
 90
    33792
280
     0
281
     0
  0
CLASS
  1
ACMPARTREF
  2
AcmPartRef
  3
"AcmSymBB|Product Description: AutoCAD Mechanical|Company: Autodesk, Inc."
 90
    36863
280
     0
281
     1
  0
CLASS
  1
ACDBSTDPARTRES_LINE
  2
AcDbStdPartRes_Line
  3
AmgStdPart|Product Description: AutoCAD Mechanical|Company: Autodesk, Inc.
 90
    33792
280
     0
281
     0
  0
CLASS
  1
ACAD_EVALUATION_GRAPH
  2
AcDbEvalGraph
  3
ObjectDBX Classes
 90
    33921
280
     0
281
     0
  0
CLASS
  1
ACAECUSTOBJ
  2
AcAeEditorObj
  3
AcAeEditorObj
 90
    33792
280
     0
281
     0
  0
CLASS
  1
ACDB_DYNAMICBLOCKPURGEPREVENTER_VERSION
  2
AcDbDynamicBlockPurgePreventer
  3
ObjectDBX Classes
 90
    33921
280
     0
281
     0
  0
CLASS
  1
ACMSTANDARDANSI
  2
AcmStandardANSI
  3
"Amdt_StdImp|Product Description: AutoCAD Mechanical|Company: Autodesk, Inc."
 90
    33792
280
     0
281
     0
  0
CLASS
  1
ACMSURFSTANDARDANSI
  2
AcmSurfTextStdANSI
  3
"Amdt_StdImp|Product Description: AutoCAD Mechanical|Company: Autodesk, Inc."
 90
    33792
280
     0
281
     0
  0
CLASS
  1
ACMFCFSTANDARDANSI
  2
AcmFCFStdANSI
  3
"Amdt_StdImp|Product Description: AutoCAD Mechanical|Company: Autodesk, Inc."
 90
    33792
280
     0
281
     0
  0
CLASS
  1
ACMWELDSTANDARDANSI
  2
AcmWeldingStdANSI
  3
"Amdt_StdImp|Product Description: AutoCAD Mechanical|Company: Autodesk, Inc."
 90
    33792
280
     0
281
     0
  0
CLASS
  1
ACMIDSTANDARDANSI
  2
AcmIdStdANSI
  3
"Amdt_StdImp|Product Description: AutoCAD Mechanical|Company: Autodesk, Inc."
 90
    33792
280
     0
281
     0
  0
CLASS
  1
ACMDATUMSTANDARDANSI
  2
AcmDatumStdANSI
  3
"Amdt_StdImp|Product Description: AutoCAD Mechanical|Company: Autodesk, Inc."
 90
    33792
280
     0
281
     0
  0
CLASS
  1
ACMBOMSTANDARDANSI
  2
AcmBOMStdANSI
  3
"Amdt_StdImp|Product Description: AutoCAD Mechanical|Company: Autodesk, Inc."
 90
    33792
280
     0
281
     0
  0
CLASS
  1
ACMDETAILSTANDARDANSI
  2
AmdtDetailSymStdANSI
  3
"Amdt_StdImp|Product Description: AutoCAD Mechanical|Company: Autodesk, Inc."
 90
    33792
280
     0
281
     0
  0
CLASS
  1
ACMSECTIONSTANDARDANSI
  2
AmdtSectionSymStdANSI
  3
"Amdt_StdImp|Product Description: AutoCAD Mechanical|Company: Autodesk, Inc."
 90
    33792
280
     0
281
     0
  0
CLASS
  1
ACMCENTERLINESTANDARDANSI
  2
AmdtCenterLineStdANSI
  3
"Amdt_StdImp|Product Description: AutoCAD Mechanical|Company: Autodesk, Inc."
 90
    33792
280
     0
281
     0
  0
CLASS
  1
ACMTHREADLINESTANDARDANSI
  2
AmdtThreadLineStdANSI
  3
"Amdt_StdImp|Product Description: AutoCAD Mechanical|Company: Autodesk, Inc."
 90
    33792
280
     0
281
     0
  0
CLASS
  1
ACMNOTESTANDARDANSI
  2
AmdtNoteStdANSI
  3
"Amdt_StdImp|Product Description: AutoCAD Mechanical|Company: Autodesk, Inc."
 90
    33792
280
     0
281
     0
  0
CLASS
  1
ACAMGHOLECHARTSTDANSI
  2
AcAmgHoleChartStdANSI
  3
AmgDim|Product Description: AutoCAD Mechanical|Company: Autodesk, Inc.
 90
    33792
280
     0
281
     0
  0
CLASS
  1
MATERIAL
  2
AcDbMaterial
  3
ObjectDBX Classes
 90
     1153
280
     0
281
     0
  0
CLASS
  1
VISUALSTYLE
  2
AcDbVisualStyle
  3
ObjectDBX Classes
 90
     4095
280
     0
281
     0
  0
CLASS
  1
SCALE
  2
AcDbScale
  3
ObjectDBX Classes
 90
     1153
280
     0
281
     0
  0
CLASS
  1
MLEADERSTYLE
  2
AcDbMLeaderStyle
  3
ACDB_MLEADERSTYLE_CLASS
 90
     4095
280
     0
281
     0
  0
CLASS
  1
ACMSURFSTANDARDDIN2002
  2
AcmSurfTextStdDIN2002
  3
"Amdt_StdImp|Product Description: AutoCAD Mechanical|Company: Autodesk, Inc."
 90
     1024
280
     0
281
     0
  0
CLASS
  1
ACMTAPERSTANDARDDIN
  2
AcmTaperStdDIN
  3
"Amdt_StdImp|Product Description: AutoCAD Mechanical|Company: Autodesk, Inc."
 90
     1024
280
     0
281
     0
  0
CLASS
  1
ACMANOOTATIONVIEWSTANDARDDIN
  2
AmdtAnViewStdDIN
  3
"Amdt_StdImp|Product Description: AutoCAD Mechanical|Company: Autodesk, Inc."
 90
     1024
280
     0
281
     0
  0
CLASS
  1
CELLSTYLEMAP
  2
AcDbCellStyleMap
  3
ObjectDBX Classes
 90
     1152
280
     0
281
     0
  0
ENDSEC
  0
SECTION
  2
TABLES
  0
TABLE
  2
VPORT
  5
8
330
0
100
AcDbSymbolTable
 70
     1
  0
VPORT
  5
1D79E
330
8
100
AcDbSymbolTableRecord
100
AcDbViewportTableRecord
  2
*Active
 70
     0
 10
0.0
 20
0.0
 11
1.0
 21
1.0
 12
19256.20966193952
 22
1884.480753931283
 13
0.0
 23
0.0
 14
2.5
 24
2.5
 15
10.0
 25
10.0
 16
0.0
 26
0.0
 36
1.0
 17
0.0
 27
0.0
 37
0.0
 40
590.6728360543347
 41
1.513838748495788
 42
50.0
 43
0.0
 44
0.0
 50
0.0
 51
0.0
 71
     0
 72
   100
 73
     1
 74
     3
 75
     0
 76
     0
 77
     0
 78
     0
281
     0
 65
     0
110
0.0
120
0.0
130
0.0
111
1.0
121
0.0
131
0.0
112
0.0
122
1.0
132
0.0
 79
     0
146
0.0
  0
ENDTAB
  0
TABLE
  2
LTYPE
  5
5
330
0
100
AcDbSymbolTable
 70
    22
  0
LTYPE
  5
14
330
5
100
AcDbSymbolTableRecord
100
AcDbLinetypeTableRecord
  2
ByBlock
 70
     0
  3

 72
    65
 73
     0
 40
0.0
  0
LTYPE
  5
15
330
5
100
AcDbSymbolTableRecord
100
AcDbLinetypeTableRecord
  2
ByLayer
 70
     0
  3

 72
    65
 73
     0
 40
0.0
  0
LTYPE
  5
16
330
5
100
AcDbSymbolTableRecord
100
AcDbLinetypeTableRecord
  2
Continuous
 70
     0
  3
Solid line
 72
    65
 73
     0
 40
0.0
  0
LTYPE
  5
67
330
5
100
AcDbSymbolTableRecord
100
AcDbLinetypeTableRecord
  2
Amconstr
 70
     0
  3
_______________________
 72
    65
 73
     2
 40
9999.0
 49
9999.0
 74
     0
 49
0.0
 74
     0
  0
LTYPE
  5
6C
330
5
100
AcDbSymbolTableRecord
100
AcDbLinetypeTableRecord
  2
Amzigzag
 70
     0
  3
/\/-/\/-/\/-/\/-/\/-/\/
 72
    65
 73
     2
 40
11.0001
 49
0.0001
 74
     4
 75
   136
340
22C
 46
0.04
 50
0.0
 44
0.0
 45
0.0
 49
-11.0
 74
     0
  0
LTYPE
  5
7E
330
5
100
AcDbSymbolTableRecord
100
AcDbLinetypeTableRecord
  2
CENTER
 70
     0
  3
__ . __
 72
    65
 73
     4
 40
7.0
 49
4.0
 74
     0
 49
-1.0
 74
     0
 49
1.0
 74
     0
 49
-1.0
 74
     0
  0
LTYPE
  5
D8
330
5
100
AcDbSymbolTableRecord
100
AcDbLinetypeTableRecord
  2
HIDDEN
 70
     0
  3
Hidden __ __ __ __ __ __ __ __ __ __ __ __ __ _
 72
    65
 73
     2
 40
9.524999999999996
 49
6.349999999999997
 74
     0
 49
-3.174999999999998
 74
     0
  0
LTYPE
  5
D9
330
5
100
AcDbSymbolTableRecord
100
AcDbLinetypeTableRecord
  2
PHANTOM2
 70
     0
  3
Phantom (.5x) ___ _ _ ___ _ _ ___ _ _ ___ _ _
 72
    65
 73
     6
 40
31.75
 49
15.875
 74
     0
 49
-3.174999999999998
 74
     0
 49
3.174999999999998
 74
     0
 49
-3.174999999999998
 74
     0
 49
3.174999999999998
 74
     0
 49
-3.174999999999998
 74
     0
  0
LTYPE
  5
2E3
330
5
100
AcDbSymbolTableRecord
100
AcDbLinetypeTableRecord
  2
ACDINWELD
 70
     0
  3
_ _ _ _ _
 72
    65
 73
     2
 40
2.0
 49
2.0
 74
     0
 49
-1.0
 74
     0
  0
LTYPE
  5
2E4
330
5
100
AcDbSymbolTableRecord
100
AcDbLinetypeTableRecord
  2
ACDINTGB
 70
     0
  3
__ . . __ . .
 72
    65
 73
     6
 40
9.0
 49
4.0
 74
     0
 49
-1.0
 74
     0
 49
1.0
 74
     0
 49
-1.0
 74
     0
 49
1.0
 74
     0
 49
-1.0
 74
     0
  0
LTYPE
  5
2E5
330
5
100
AcDbSymbolTableRecord
100
AcDbLinetypeTableRecord
  2
ACDINTGL
 70
     0
  3
_ _ _ _ _
 72
    65
 73
     2
 40
3.0
 49
2.0
 74
     0
 49
-1.0
 74
     0
  0
LTYPE
  5
31F
330
5
100
AcDbSymbolTableRecord
100
AcDbLinetypeTableRecord
  2
AM_DIN_F_W050
 70
     0
  3
__ __ __ __ __ __ __ __ __ __ __ __ __ __ __
 72
    65
 73
     2
 40
6.25
 49
4.75
 74
     0
 49
-1.5
 74
     0
  0
LTYPE
  5
320
330
5
100
AcDbSymbolTableRecord
100
AcDbLinetypeTableRecord
  2
AM_DIN_G_W050
 70
     0
  3
____ . ____ . ____ . ____ . ____ . ____ . ____
 72
    65
 73
     4
 40
13.75
 49
9.75
 74
     0
 49
-1.5
 74
     0
 49
1.0
 74
     0
 49
-1.5
 74
     0
  0
LTYPE
  5
321
330
5
100
AcDbSymbolTableRecord
100
AcDbLinetypeTableRecord
  2
AM_DIN_K_W050
 70
     0
  3
_____ . . _____ . . _____ . . ____ .. ____
 72
    65
 73
     6
 40
16.25
 49
9.75
 74
     0
 49
-1.5
 74
     0
 49
1.0
 74
     0
 49
-1.5
 74
     0
 49
1.0
 74
     0
 49
-1.5
 74
     0
  0
LTYPE
  5
322
330
5
100
AcDbSymbolTableRecord
100
AcDbLinetypeTableRecord
  2
AM_DIN_G_W050x2
 70
     0
  3
__ . __ . __ . __ . __ . __
 72
    65
 73
     4
 40
6.875
 49
4.75
 74
     0
 49
-0.875
 74
     0
 49
0.375
 74
     0
 49
-0.875
 74
     0
  0
LTYPE
  5
323
330
5
100
AcDbSymbolTableRecord
100
AcDbLinetypeTableRecord
  2
AM_DIN_F_W050x2
 70
     0
  3
 _ _ _ _ _ _ _ _ _ _ _ _
 72
    65
 73
     2
 40
3.125
 49
2.25
 74
     0
 49
-0.875
 74
     0
  0
LTYPE
  5
1C7E5
330
5
100
AcDbSymbolTableRecord
100
AcDbLinetypeTableRecord
  2
ACANSTGB
 70
     0
  3
__ . . __ . .
 72
    65
 73
     6
 40
0.35433070866
 49
0.15748031496
 74
     0
 49
-0.03937007874
 74
     0
 49
0.03937007874
 74
     0
 49
-0.03937007874
 74
     0
 49
0.03937007874
 74
     0
 49
-0.03937007874
 74
     0
  0
LTYPE
  5
1C7E6
330
5
100
AcDbSymbolTableRecord
100
AcDbLinetypeTableRecord
  2
ACANSTGL
 70
     0
  3
_ _ _ _ _
 72
    65
 73
     2
 40
0.11811023622
 49
0.07874015748
 74
     0
 49
-0.03937007874
 74
     0
  0
LTYPE
  5
1CDE5
330
5
100
AcDbSymbolTableRecord
100
AcDbLinetypeTableRecord
  2
AUSGEZOGEN
 70
     0
  3
_______________________________________________
 72
    65
 73
     0
 40
0.0
  0
LTYPE
  5
1D771
330
5
100
AcDbSymbolTableRecord
100
AcDbLinetypeTableRecord
  2
AM_ISO02W050
 70
     0
  3
__ __ __ __ __ __ __ __ __ __ __ __ __ __ __
 72
    65
 73
     2
 40
7.5
 49
6.0
 74
     0
 49
-1.5
 74
     0
  0
LTYPE
  5
1D772
330
5
100
AcDbSymbolTableRecord
100
AcDbLinetypeTableRecord
  2
AM_ISO08W050
 70
     0
  3
____ . ____ . ____ . ____ . ____ . ____ . ____
 72
    65
 73
     4
 40
18.0
 49
12.0
 74
     0
 49
-1.5
 74
     0
 49
3.0
 74
     0
 49
-1.5
 74
     0
  0
LTYPE
  5
1D773
330
5
100
AcDbSymbolTableRecord
100
AcDbLinetypeTableRecord
  2
AM_ISO09W050
 70
     0
  3
_____ . . _____ . . _____ . . ____ .. ____
 72
    65
 73
     6
 40
22.5
 49
12.0
 74
     0
 49
-1.5
 74
     0
 49
3.0
 74
     0
 49
-1.5
 74
     0
 49
3.0
 74
     0
 49
-1.5
 74
     0
  0
LTYPE
  5
1D774
330
5
100
AcDbSymbolTableRecord
100
AcDbLinetypeTableRecord
  2
AM_ISO08W050x2
 70
     0
  3
__ . __ . __ . __ . __ . __
 72
    65
 73
     4
 40
9.0
 49
6.0
 74
     0
 49
-0.75
 74
     0
 49
1.5
 74
     0
 49
-0.75
 74
     0
  0
LTYPE
  5
1D775
330
5
100
AcDbSymbolTableRecord
100
AcDbLinetypeTableRecord
  2
AM_ISO02W050x2
 70
     0
  3
 _ _ _ _ _ _ _ _ _ _ _ _
 72
    65
 73
     2
 40
3.75
 49
3.0
 74
     0
 49
-0.75
 74
     0
  0
ENDTAB
  0
TABLE
  2
LAYER
  5
2
102
{ACAD_XDICTIONARY
360
5E1
102
}
330
0
100
AcDbSymbolTable
 70
     7
  0
LAYER
  5
10
102
{ACAD_XDICTIONARY
360
1D864
102
}
330
2
100
AcDbSymbolTableRecord
100
AcDbLayerTableRecord
  2
0
 70
     0
 62
     7
  6
Continuous
370
    -3
390
F
  0
LAYER
  5
2FB5
102
{ACAD_XDICTIONARY
360
1D866
102
}
330
2
100
AcDbSymbolTableRecord
100
AcDbLayerTableRecord
  2
AM_0
 70
     0
 62
     7
  6
Continuous
370
    50
390
F
1001
AcAecLayerStandard
1000

1000

  0
LAYER
  5
1080A
102
{ACAD_XDICTIONARY
360
1D868
102
}
330
2
100
AcDbSymbolTableRecord
100
AcDbLayerTableRecord
  2
AM_5
 70
     0
 62
     3
  6
Continuous
370
    25
390
F
1001
AcAecLayerStandard
1000

1000

  0
LAYER
  5
1081A
330
2
100
AcDbSymbolTableRecord
100
AcDbLayerTableRecord
  2
Defpoints
 70
     0
 62
     7
  6
Continuous
290
     0
370
    -3
390
F
  0
LAYER
  5
10B76
102
{ACAD_XDICTIONARY
360
1D86A
102
}
330
2
100
AcDbSymbolTableRecord
100
AcDbLayerTableRecord
  2
Beschriftung
 70
     0
 62
     2
  6
Continuous
370
    50
390
F
1001
AcAecLayerStandard
1000

1000

  0
LAYER
  5
1CDE6
102
{ACAD_XDICTIONARY
360
1D86C
102
}
330
2
100
AcDbSymbolTableRecord
100
AcDbLayerTableRecord
  2
anbauteile dünn
 70
     0
 62
     3
  6
Continuous
370
    25
390
F
1001
AcAecLayerStandard
1000

1000

  0
LAYER
  5
1CDE7
102
{ACAD_XDICTIONARY
360
1D86E
102
}
330
2
100
AcDbSymbolTableRecord
100
AcDbLayerTableRecord
  2
bezugslinien
 70
     0
 62
     3
  6
Continuous
370
    25
390
F
1001
AcAecLayerStandard
1000

1000

  0
ENDTAB
  0
TABLE
  2
STYLE
  5
3
330
0
100
AcDbSymbolTable
 70
     6
  0
STYLE
  5
11
330
3
100
AcDbSymbolTableRecord
100
AcDbTextStyleTableRecord
  2
STANDARD
 70
     0
 40
0.0
 41
1.0
 50
0.0
 71
     0
 42
2.5
  3
ARIAL.TTF
  4

1001
ACAD
1000
Arial
1071
       34
  0
STYLE
  5
22C
330
3
100
AcDbSymbolTableRecord
100
AcDbTextStyleTableRecord
  2

 70
     1
 40
0.0
 41
1.0
 50
0.0
 71
     0
 42
2.5
  3
genltshp.shx
  4

  0
STYLE
  5
2D5
330
3
100
AcDbSymbolTableRecord
100
AcDbTextStyleTableRecord
  2
ACDINTS
 70
     0
 40
1.0
 41
1.0
 50
0.0
 71
     0
 42
2.5
  3
isocp.shx
  4

  0
STYLE
  5
2E2
330
3
100
AcDbSymbolTableRecord
100
AcDbTextStyleTableRecord
  2
ACDINGDT
 70
     0
 40
0.0
 41
1.0
 50
0.0
 71
     0
 42
2.5
  3
amgdt.shx
  4

  0
STYLE
  5
1C7E8
330
3
100
AcDbSymbolTableRecord
100
AcDbTextStyleTableRecord
  2
ACANSTS
 70
     0
 40
1.0
 41
1.0
 50
0.0
 71
     0
 42
0.2
  3
romans.shx
  4

  0
STYLE
  5
1C7E9
330
3
100
AcDbSymbolTableRecord
100
AcDbTextStyleTableRecord
  2
ACANSGDT
 70
     0
 40
0.0
 41
1.0
 50
0.0
 71
     0
 42
0.2
  3
AMGDT
  4

  0
ENDTAB
  0
TABLE
  2
VIEW
  5
6
330
0
100
AcDbSymbolTable
 70
     0
  0
ENDTAB
  0
TABLE
  2
UCS
  5
7
330
0
100
AcDbSymbolTable
 70
     0
  0
ENDTAB
  0
TABLE
  2
APPID
  5
9
330
0
100
AcDbSymbolTable
 70
    78
  0
APPID
  5
12
330
9
100
AcDbSymbolTableRecord
100
AcDbRegAppTableRecord
  2
ACAD
 70
     0
  0
APPID
  5
46
330
9
100
AcDbSymbolTableRecord
100
AcDbRegAppTableRecord
  2
MCAD_NO_VIS
 70
     0
  0
APPID
  5
47
330
9
100
AcDbSymbolTableRecord
100
AcDbRegAppTableRecord
  2
ACAD_TEMP_GRAPHIC
 70
     0
  0
APPID
  5
58
330
9
100
AcDbSymbolTableRecord
100
AcDbRegAppTableRecord
  2
ACATTRIBSERVICES
 70
     0
  0
APPID
  5
EE
330
9
100
AcDbSymbolTableRecord
100
AcDbRegAppTableRecord
  2
AD_DRAW
 70
     0
  0
APPID
  5
10C
330
9
100
AcDbSymbolTableRecord
100
AcDbRegAppTableRecord
  2
DESIGNERASSEMBLIES
 70
     0
  0
APPID
  5
111
330
9
100
AcDbSymbolTableRecord
100
AcDbRegAppTableRecord
  2
ACADM_DIM_EDIT
 70
     0
  0
APPID
  5
112
330
9
100
AcDbSymbolTableRecord
100
AcDbRegAppTableRecord
  2
AMDT_DM_ADJ
 70
     0
  0
APPID
  5
1A3
330
9
100
AcDbSymbolTableRecord
100
AcDbRegAppTableRecord
  2
ACAD_DSTYLE_DIMARC_LENGTH_SYMBOL
 70
     0
  0
APPID
  5
1A4
330
9
100
AcDbSymbolTableRecord
100
AcDbRegAppTableRecord
  2
ACAD_DSTYLE_DIMJOGGED_JOGANGLE_SYMBOL
 70
     0
  0
APPID
  5
5D4
330
9
100
AcDbSymbolTableRecord
100
AcDbRegAppTableRecord
  2
ACAD_PSEXT
 70
     0
  0
APPID
  5
5D5
330
9
100
AcDbSymbolTableRecord
100
AcDbRegAppTableRecord
  2
GENIUS_GENOENT_13
 70
     0
  0
APPID
  5
5D6
330
9
100
AcDbSymbolTableRecord
100
AcDbRegAppTableRecord
  2
GENIUS_VERSION2
 70
     0
  0
APPID
  5
5D7
330
9
100
AcDbSymbolTableRecord
100
AcDbRegAppTableRecord
  2
GENIUS_GENREC_14
 70
     0
  0
APPID
  5
5D8
330
9
100
AcDbSymbolTableRecord
100
AcDbRegAppTableRecord
  2
GENIUS_GENODEF_13
 70
     0
  0
APPID
  5
5D9
330
9
100
AcDbSymbolTableRecord
100
AcDbRegAppTableRecord
  2
GENIUS_GENOBJ-N-REC_13
 70
     0
  0
APPID
  5
5DA
330
9
100
AcDbSymbolTableRecord
100
AcDbRegAppTableRecord
  2
GENIUS_GENTRA_14
 70
     0
  0
APPID
  5
5DB
330
9
100
AcDbSymbolTableRecord
100
AcDbRegAppTableRecord
  2
GENIUS_GENOBJ-N-TIT_13
 70
     0
  0
APPID
  5
5DC
330
9
100
AcDbSymbolTableRecord
100
AcDbRegAppTableRecord
  2
GENIUS_GENTITLE_13
 70
     0
  0
APPID
  5
5DD
330
9
100
AcDbSymbolTableRecord
100
AcDbRegAppTableRecord
  2
GENIUS_GENOREF_13
 70
     0
  0
APPID
  5
5DE
330
9
100
AcDbSymbolTableRecord
100
AcDbRegAppTableRecord
  2
GENIUS_GENOLIS_13
 70
     0
  0
APPID
  5
5DF
330
9
100
AcDbSymbolTableRecord
100
AcDbRegAppTableRecord
  2
GENIUS_GENOBJ-N-SDF_13
 70
     0
  0
APPID
  5
5E0
330
9
100
AcDbSymbolTableRecord
100
AcDbRegAppTableRecord
  2
GENIUS_GENSCREG_15
 70
     0
  0
APPID
  5
2FBB
330
9
100
AcDbSymbolTableRecord
100
AcDbRegAppTableRecord
  2
GENIUS_GENOBJ-N-CRS_13
 70
     0
  0
APPID
  5
2FBC
330
9
100
AcDbSymbolTableRecord
100
AcDbRegAppTableRecord
  2
GENIUS_GENOBJ-N-CEN_13
 70
     0
  0
APPID
  5
2FBD
330
9
100
AcDbSymbolTableRecord
100
AcDbRegAppTableRecord
  2
GENIUS_GENOBJ-N-HTC_13
 70
     0
  0
APPID
  5
2FBE
330
9
100
AcDbSymbolTableRecord
100
AcDbRegAppTableRecord
  2
GENIUS_GENHATCH_13
 70
     0
  0
APPID
  5
2FBF
330
9
100
AcDbSymbolTableRecord
100
AcDbRegAppTableRecord
  2
GENIUS_GENBH_13
 70
     0
  0
APPID
  5
2FC0
330
9
100
AcDbSymbolTableRecord
100
AcDbRegAppTableRecord
  2
GENIUS_GENOBJ-NBEHI-BHF_13
 70
     0
  0
APPID
  5
2FC1
330
9
100
AcDbSymbolTableRecord
100
AcDbRegAppTableRecord
  2
GENIUS_GENOBJ-F-PART_13
 70
     0
  0
APPID
  5
2FC2
330
9
100
AcDbSymbolTableRecord
100
AcDbRegAppTableRecord
  2
GENIUS_GEFSTDP_13
 70
     0
  0
APPID
  5
2FC3
330
9
100
AcDbSymbolTableRecord
100
AcDbRegAppTableRecord
  2
GEVPT
 70
     0
  0
APPID
  5
2FC4
330
9
100
AcDbSymbolTableRecord
100
AcDbRegAppTableRecord
  2
GEVIT
 70
     0
  0
APPID
  5
2FC5
330
9
100
AcDbSymbolTableRecord
100
AcDbRegAppTableRecord
  2
VCC
 70
     0
  0
APPID
  5
2FC6
330
9
100
AcDbSymbolTableRecord
100
AcDbRegAppTableRecord
  2
GENBH
 70
     0
  0
APPID
  5
2FC7
330
9
100
AcDbSymbolTableRecord
100
AcDbRegAppTableRecord
  2
GEVMK
 70
     0
  0
APPID
  5
2FC8
330
9
100
AcDbSymbolTableRecord
100
AcDbRegAppTableRecord
  2
GENIUS_GEFPARTINS_13
 70
     0
  0
APPID
  5
2FC9
330
9
100
AcDbSymbolTableRecord
100
AcDbRegAppTableRecord
  2
GENIUS_GENOBJ-N-CRC_13
 70
     0
  0
APPID
  5
2FCA
330
9
100
AcDbSymbolTableRecord
100
AcDbRegAppTableRecord
  2
GENIUS_GENCRC_14
 70
     0
  0
APPID
  5
2FCB
330
9
100
AcDbSymbolTableRecord
100
AcDbRegAppTableRecord
  2
GEVID978597865
 70
     0
  0
APPID
  5
2FCC
330
9
100
AcDbSymbolTableRecord
100
AcDbRegAppTableRecord
  2
GEVID978597866
 70
     0
  0
APPID
  5
2FCD
330
9
100
AcDbSymbolTableRecord
100
AcDbRegAppTableRecord
  2
GEVID978597868
 70
     0
  0
APPID
  5
2FCE
330
9
100
AcDbSymbolTableRecord
100
AcDbRegAppTableRecord
  2
GENIUS_GENCEN_19
 70
     0
  0
APPID
  5
2FCF
330
9
100
AcDbSymbolTableRecord
100
AcDbRegAppTableRecord
  2
AcAecLayerStandard
 70
     0
  0
APPID
  5
5580
330
9
100
AcDbSymbolTableRecord
100
AcDbRegAppTableRecord
  2
GENIUS_FIRSTVISTXT_14
 70
     0
  0
APPID
  5
5581
330
9
100
AcDbSymbolTableRecord
100
AcDbRegAppTableRecord
  2
GENIUS_SECONDVISTXT_14
 70
     0
  0
APPID
  5
5582
330
9
100
AcDbSymbolTableRecord
100
AcDbRegAppTableRecord
  2
GENIUS_GENOBJ-N-FIL_13
 70
     0
  0
APPID
  5
5583
330
9
100
AcDbSymbolTableRecord
100
AcDbRegAppTableRecord
  2
GENIUS_GEFWELD_13
 70
     0
  0
APPID
  5
5584
330
9
100
AcDbSymbolTableRecord
100
AcDbRegAppTableRecord
  2
GENIUS_GENOBJ-NBEHI-BHB_13
 70
     0
  0
APPID
  5
5585
330
9
100
AcDbSymbolTableRecord
100
AcDbRegAppTableRecord
  2
GENIUS_GENOBJ-F-WELS_13
 70
     0
  0
APPID
  5
5586
330
9
100
AcDbSymbolTableRecord
100
AcDbRegAppTableRecord
  2
AMG_2DHIDE
 70
     0
  0
APPID
  5
5587
330
9
100
AcDbSymbolTableRecord
100
AcDbRegAppTableRecord
  2
GEVID992928022
 70
     0
  0
APPID
  5
5588
330
9
100
AcDbSymbolTableRecord
100
AcDbRegAppTableRecord
  2
GENIUS_GENOBJ-F-DESC_13
 70
     0
  0
APPID
  5
5589
330
9
100
AcDbSymbolTableRecord
100
AcDbRegAppTableRecord
  2
GENIUS_GEFDESC_14
 70
     0
  0
APPID
  5
558A
330
9
100
AcDbSymbolTableRecord
100
AcDbRegAppTableRecord
  2
GEVID992928023
 70
     0
  0
APPID
  5
558B
330
9
100
AcDbSymbolTableRecord
100
AcDbRegAppTableRecord
  2
GENIUS_GENOBJ-F-FEAT_13
 70
     0
  0
APPID
  5
558C
330
9
100
AcDbSymbolTableRecord
100
AcDbRegAppTableRecord
  2
GENIUS_GEFFEAT_14
 70
     0
  0
APPID
  5
7580
330
9
100
AcDbSymbolTableRecord
100
AcDbRegAppTableRecord
  2
ACAD_EXEMPT_FROM_CAD_STANDARDS
 70
     0
  0
APPID
  5
9403
330
9
100
AcDbSymbolTableRecord
100
AcDbRegAppTableRecord
  2
AMG_2DSTRUCT_BTR
 70
     0
  0
APPID
  5
B4E8
330
9
100
AcDbSymbolTableRecord
100
AcDbRegAppTableRecord
  2
ACAD_DSTYLE_DIMEXT_LENGTH
 70
     0
  0
APPID
  5
B4E9
330
9
100
AcDbSymbolTableRecord
100
AcDbRegAppTableRecord
  2
ACAD_DSTYLE_DIMEXT_ENABLED
 70
     0
  0
APPID
  5
DE63
330
9
100
AcDbSymbolTableRecord
100
AcDbRegAppTableRecord
  2
GENIUS_GENDIMSH_14
 70
     0
  0
APPID
  5
E2FA
330
9
100
AcDbSymbolTableRecord
100
AcDbRegAppTableRecord
  2
GEVID1210230727
 70
     0
  0
APPID
  5
E2FB
330
9
100
AcDbSymbolTableRecord
100
AcDbRegAppTableRecord
  2
GEVDC
 70
     0
  0
APPID
  5
10068
330
9
100
AcDbSymbolTableRecord
100
AcDbRegAppTableRecord
  2
ACAUTHENVIRON
 70
     0
  0
APPID
  5
1011A
330
9
100
AcDbSymbolTableRecord
100
AcDbRegAppTableRecord
  2
AcDbDynamicBlockTrueName
 70
     0
  0
APPID
  5
1011B
330
9
100
AcDbSymbolTableRecord
100
AcDbRegAppTableRecord
  2
AcDbDynamicBlockGUID
 70
     0
  0
APPID
  5
1011D
330
9
100
AcDbSymbolTableRecord
100
AcDbRegAppTableRecord
  2
ACDBBLOCKREPETAG
 70
     0
  0
APPID
  5
107E4
330
9
100
AcDbSymbolTableRecord
100
AcDbRegAppTableRecord
  2
ACAD_DSTYLE_DIMTEXT_FILL
 70
     0
  0
APPID
  5
107E7
330
9
100
AcDbSymbolTableRecord
100
AcDbRegAppTableRecord
  2
ACAD_DSTYLE_DIM_LINETYPE
 70
     0
  0
APPID
  5
107E8
330
9
100
AcDbSymbolTableRecord
100
AcDbRegAppTableRecord
  2
ACAD_DSTYLE_DIM_EXT1_LINETYPE
 70
     0
  0
APPID
  5
107E9
330
9
100
AcDbSymbolTableRecord
100
AcDbRegAppTableRecord
  2
ACAD_DSTYLE_DIM_EXT2_LINETYPE
 70
     0
  0
APPID
  5
10B47
330
9
100
AcDbSymbolTableRecord
100
AcDbRegAppTableRecord
  2
GEVID1210230728
 70
     0
  0
APPID
  5
11657
330
9
100
AcDbSymbolTableRecord
100
AcDbRegAppTableRecord
  2
GENIUS_GENDTOL_13
 70
     0
  0
APPID
  5
1D859
330
9
100
AcDbSymbolTableRecord
100
AcDbRegAppTableRecord
  2
ACAD_DSTYLE_DIMBREAK
 70
     0
  0
APPID
  5
1D85A
330
9
100
AcDbSymbolTableRecord
100
AcDbRegAppTableRecord
  2
ACAD_DSTYLE_DIMJAG
 70
     0
  0
APPID
  5
1D8AA
330
9
100
AcDbSymbolTableRecord
100
AcDbRegAppTableRecord
  2
ACAD_MLEADERVER
 70
     0
  0
APPID
  5
1D928
330
9
100
AcDbSymbolTableRecord
100
AcDbRegAppTableRecord
  2
DCO15
 70
     0
  0
ENDTAB
  0
TABLE
  2
DIMSTYLE
  5
A
330
0
100
AcDbSymbolTable
 70
    18
100
AcDbDimStyleTable
 71
     1
340
2EE
  0
DIMSTYLE
105
2EE
102
{ACAD_REACTORS
330
1D90C
102
}
330
A
100
AcDbSymbolTableRecord
100
AcDbDimStyleTableRecord
  2
AM_DIN
 70
     0
  4
"
 41
65.0
 42
1.0
 43
10.0
 44
25.0
 47
0.1
 48
0.1
 73
     0
 74
     0
 77
     1
 78
     8
 79
     2
140
50.0
141
0.0
143
0.0393701
146
0.71
147
15.0
172
     1
176
   256
177
   256
178
     2
271
     0
272
     0
283
     0
284
     8
340
11
371
    -1
372
    -1
1001
ACAD_DSTYLE_DIMJOGGED_JOGANGLE_SYMBOL
1070
   384
1040
1.570796326794896
  0
DIMSTYLE
105
2FF
330
A
100
AcDbSymbolTableRecord
100
AcDbDimStyleTableRecord
  2
AM_DIN$3
 70
     0
  4
"
 41
65.0
 42
1.0
 43
10.0
 44
25.0
 47
0.1
 48
0.1
 73
     0
 77
     1
 78
     8
 79
     2
140
50.0
141
0.0
143
0.0393701
146
0.71
147
15.0
176
   256
177
   256
178
     2
271
     0
272
     0
283
     0
284
     8
288
     1
289
     0
340
11
371
    -1
372
    -1
1001
ACAD_DSTYLE_DIMJOGGED_JOGANGLE_SYMBOL
1070
   384
1040
1.570796326794896
  0
DIMSTYLE
105
304
330
A
100
AcDbSymbolTableRecord
100
AcDbDimStyleTableRecord
  2
AM_DIN$4
 70
     0
  4
"
 41
65.0
 42
1.0
 43
10.0
 44
25.0
 47
0.1
 48
0.1
 73
     0
 77
     1
 78
     8
 79
     2
140
50.0
141
0.0
143
0.0393701
146
0.71
147
15.0
176
   256
177
   256
178
     2
271
     0
272
     0
283
     0
284
     8
288
     1
289
     0
340
11
371
    -1
372
    -1
1001
ACAD_DSTYLE_DIMJOGGED_JOGANGLE_SYMBOL
1070
   384
1040
1.570796326794896
  0
DIMSTYLE
105
309
330
A
100
AcDbSymbolTableRecord
100
AcDbDimStyleTableRecord
  2
AM_DIN$6
 70
     0
  4
"
 41
65.0
 42
1.0
 43
10.0
 44
25.0
 47
0.1
 48
0.1
 73
     0
 74
     0
 78
     8
 79
     2
140
50.0
141
0.0
143
0.0393701
146
0.71
147
15.0
172
     1
176
   256
177
   256
178
     2
271
     0
272
     0
283
     0
284
     8
340
11
371
    -1
372
    -1
1001
ACAD_DSTYLE_DIMJOGGED_JOGANGLE_SYMBOL
1070
   384
1040
1.570796326794896
  0
DIMSTYLE
105
30E
330
A
100
AcDbSymbolTableRecord
100
AcDbDimStyleTableRecord
  2
AM_DIN$7
 70
     0
  4
"
 41
65.0
 42
1.0
 43
10.0
 44
25.0
 47
0.1
 48
0.1
 73
     0
 74
     0
 77
     1
 78
     8
 79
     2
140
5.0
141
0.0
143
0.0393701
146
0.71
147
15.0
172
     1
176
   256
177
   256
178
     2
271
     0
272
     0
283
     0
284
     8
340
11
371
    -1
372
    -1
1001
ACAD_DSTYLE_DIMJOGGED_JOGANGLE_SYMBOL
1070
   384
1040
1.570796326794896
  0
DIMSTYLE
105
313
330
A
100
AcDbSymbolTableRecord
100
AcDbDimStyleTableRecord
  2
AM_DIN$SF
 70
     0
  4
"
 41
2.5
 42
1.0
 43
10.0
 44
1.0
 47
0.1
 48
0.1
 73
     0
 74
     0
 75
     1
 76
     1
 77
     1
 78
     8
 79
     2
140
3.5
141
0.0
143
0.0393701
146
0.71
147
1.5
172
     1
176
   256
177
   256
178
     2
271
     2
272
     3
274
     4
283
     0
284
     8
340
11
371
    -1
372
    -1
1001
ACAD_DSTYLE_DIMJOGGED_JOGANGLE_SYMBOL
1070
   384
1040
1.570796326794896
  0
DIMSTYLE
105
318
330
A
100
AcDbSymbolTableRecord
100
AcDbDimStyleTableRecord
  2
AM_DIN$SH
 70
     0
  4
"
 41
2.5
 42
1.0
 43
10.0
 44
1.0
 47
0.1
 48
0.1
 73
     0
 74
     0
 75
     1
 76
     1
 77
     1
 78
     8
 79
     2
140
3.5
141
0.0
143
0.0393701
144
2.0
146
0.71
147
1.5
172
     1
173
     1
176
   256
177
   256
178
     2
271
     2
272
     3
274
     4
283
     0
284
     8
340
11
343
87
371
    -1
372
    -1
1001
ACAD_DSTYLE_DIMJOGGED_JOGANGLE_SYMBOL
1070
   384
1040
1.570796326794896
  0
DIMSTYLE
105
7C7E
330
A
100
AcDbSymbolTableRecord
100
AcDbDimStyleTableRecord
  2
AM_DIN$0
 70
     0
  4
"
 41
65.0
 42
1.0
 43
10.0
 44
25.0
 47
0.1
 48
0.1
 73
     0
 74
     0
 77
     1
 78
     8
 79
     2
140
50.0
141
0.0
143
0.0393701
146
0.71
147
15.0
172
     1
176
   256
177
   256
178
     2
271
     0
272
     0
283
     0
284
     8
340
11
371
    -1
372
    -1
1001
ACAD_DSTYLE_DIMJOGGED_JOGANGLE_SYMBOL
1070
   384
1040
1.570796326794896
  0
DIMSTYLE
105
1C7EA
330
A
100
AcDbSymbolTableRecord
100
AcDbDimStyleTableRecord
  2
Standard
 70
     0
340
11
  0
DIMSTYLE
105
1C7EB
330
A
100
AcDbSymbolTableRecord
100
AcDbDimStyleTableRecord
  2
AM_ANSI
 70
     0
  4
mm
 41
0.1
 42
0.05
 43
0.5
 44
0.1
 47
0.1
 48
0.1
 78
     7
 79
     2
140
0.12
141
0.0
146
0.71
147
0.06
176
   256
177
   256
178
     2
274
     4
284
     7
340
11
371
    -1
372
    -1
1001
ACAD_DSTYLE_DIMJOGGED_JOGANGLE_SYMBOL
1070
   384
1040
0.7853981633974483
1001
ACAD_DSTYLE_DIMARC_LENGTH_SYMBOL
1070
   379
1070
     1
  0
DIMSTYLE
105
1C7EC
330
A
100
AcDbSymbolTableRecord
100
AcDbDimStyleTableRecord
  2
AM_ANSI$3
 70
     0
  4
mm
 41
0.1
 42
0.05
 43
0.5
 44
0.1
 47
0.1
 48
0.1
 78
     7
 79
     2
140
0.12
141
0.0
146
0.71
147
0.06
176
   256
177
   256
178
     2
274
     4
284
     7
288
     1
289
     0
340
11
371
    -1
372
    -1
1001
ACAD_DSTYLE_DIMJOGGED_JOGANGLE_SYMBOL
1070
   384
1040
0.7853981633974483
1001
ACAD_DSTYLE_DIMARC_LENGTH_SYMBOL
1070
   379
1070
     1
  0
DIMSTYLE
105
1C7ED
330
A
100
AcDbSymbolTableRecord
100
AcDbDimStyleTableRecord
  2
AM_ANSI$4
 70
     0
  4
mm
 41
0.1
 42
0.05
 43
0.5
 44
0.1
 47
0.1
 48
0.1
 78
     7
 79
     2
140
0.12
141
0.0
146
0.71
147
0.06
176
   256
177
   256
178
     2
274
     4
284
     7
288
     1
289
     0
340
11
371
    -1
372
    -1
1001
ACAD_DSTYLE_DIMJOGGED_JOGANGLE_SYMBOL
1070
   384
1040
0.7853981633974483
1001
ACAD_DSTYLE_DIMARC_LENGTH_SYMBOL
1070
   379
1070
     1
  0
DIMSTYLE
105
1C7EE
330
A
100
AcDbSymbolTableRecord
100
AcDbDimStyleTableRecord
  2
AM_ANSI$7
 70
     0
  4
mm
 41
0.1
 42
0.05
 43
0.5
 44
0.1
 47
0.1
 48
0.1
 78
     7
 79
     2
140
0.24
141
0.0
146
0.71
147
0.06
176
   256
177
   256
178
     2
274
     4
284
     7
340
11
371
    -1
372
    -1
1001
ACAD_DSTYLE_DIMJOGGED_JOGANGLE_SYMBOL
1070
   384
1040
0.7853981633974483
1001
ACAD_DSTYLE_DIMARC_LENGTH_SYMBOL
1070
   379
1070
     1
  0
DIMSTYLE
105
1C7EF
330
A
100
AcDbSymbolTableRecord
100
AcDbDimStyleTableRecord
  2
AM_ANSI$SF
 70
     0
  4
mm
 41
0.1
 42
0.05
 43
0.5
 44
0.1
 47
0.1
 48
0.1
 75
     1
 76
     1
 78
     7
 79
     2
140
0.12
141
0.0
146
0.71
147
0.06
176
   256
177
   256
178
     2
274
     4
284
     7
340
11
371
    -1
372
    -1
1001
ACAD_DSTYLE_DIMJOGGED_JOGANGLE_SYMBOL
1070
   384
1040
0.7853981633974483
1001
ACAD_DSTYLE_DIMARC_LENGTH_SYMBOL
1070
   379
1070
     1
  0
DIMSTYLE
105
1C7F0
330
A
100
AcDbSymbolTableRecord
100
AcDbDimStyleTableRecord
  2
AM_ANSI$SH
 70
     0
  4
mm
 41
0.1
 42
0.05
 43
0.5
 44
0.1
 47
0.1
 48
0.1
 75
     1
 76
     1
 78
     7
 79
     2
140
0.12
141
0.0
146
0.71
147
0.06
173
     1
176
   256
177
   256
178
     2
274
     4
284
     7
340
11
343
87
371
    -1
372
    -1
1001
ACAD_DSTYLE_DIMJOGGED_JOGANGLE_SYMBOL
1070
   384
1040
0.7853981633974483
1001
ACAD_DSTYLE_DIMARC_LENGTH_SYMBOL
1070
   379
1070
     1
  0
DIMSTYLE
105
1C7F1
330
A
100
AcDbSymbolTableRecord
100
AcDbDimStyleTableRecord
  2
Standard$0
 70
     0
340
11
  0
DIMSTYLE
105
1CDE8
102
{ACAD_REACTORS
330
1D225
102
}
330
A
100
AcDbSymbolTableRecord
100
AcDbDimStyleTableRecord
  2
GEN-ISO
 70
     0
  4
"
 40
2.0
 41
2.5
 42
1.0
 43
7.0
 44
1.0
 47
0.1
 48
0.1
 73
     0
 74
     0
 77
     1
 78
     8
140
3.5
141
0.0
143
0.0393701
146
0.71
147
0.6
172
     1
176
   256
177
   256
178
     2
271
     2
272
     3
274
     4
283
     0
340
11
  0
DIMSTYLE
105
1CDE9
102
{ACAD_REACTORS
330
1D20B
330
1D20C
102
}
330
A
100
AcDbSymbolTableRecord
100
AcDbDimStyleTableRecord
  2
GEN-ISO$0
 70
     0
  4
"
 40
2.0
 41
2.5
 42
1.0
 43
7.0
 44
1.0
 47
0.1
 48
0.1
 73
     0
 74
     0
 77
     1
 78
     8
140
3.5
141
0.0
143
0.0393701
146
0.71
147
0.6
172
     1
176
   256
177
   256
178
     2
271
     2
272
     3
274
     4
283
     0
340
11
  0
ENDTAB
  0
TABLE
  2
BLOCK_RECORD
  5
1
330
0
100
AcDbSymbolTable
 70
     9
  0
BLOCK_RECORD
  5
1F
102
{ACAD_XDICTIONARY
360
8F
102
}
330
1
100
AcDbSymbolTableRecord
100
AcDbBlockTableRecord
  2
*Model_Space
340
22
  0
BLOCK_RECORD
  5
1B
330
1
100
AcDbSymbolTableRecord
100
AcDbBlockTableRecord
  2
*Paper_Space
340
1E
  0
BLOCK_RECORD
  5
23
330
1
100
AcDbSymbolTableRecord
100
AcDbBlockTableRecord
  2
*Paper_Space0
340
26
  0
BLOCK_RECORD
  5
87
102
{ACAD_XDICTIONARY
360
10117
102
}
330
1
100
AcDbSymbolTableRecord
100
AcDbBlockTableRecord
  2
GENAXEH
340
0
1001
AcDbDynamicBlockGUID
1000
{D68C792B-0B99-4E0B-8B7B-1EAC83B216F4}
1001
ACDBBLOCKREPETAG
1070
     1
1071
        0
  0
BLOCK_RECORD
  5
1D621
330
1
100
AcDbSymbolTableRecord
100
AcDbBlockTableRecord
  2
*D2
340
0
  0
BLOCK_RECORD
  5
1D62D
330
1
100
AcDbSymbolTableRecord
100
AcDbBlockTableRecord
  2
*D3
340
0
  0
BLOCK_RECORD
  5
1D639
330
1
100
AcDbSymbolTableRecord
100
AcDbBlockTableRecord
  2
*D4
340
0
  0
BLOCK_RECORD
  5
1D645
330
1
100
AcDbSymbolTableRecord
100
AcDbBlockTableRecord
  2
*D5
340
0
  0
BLOCK_RECORD
  5
1D651
330
1
100
AcDbSymbolTableRecord
100
AcDbBlockTableRecord
  2
*D6
340
0
  0
BLOCK_RECORD
  5
1D65D
330
1
100
AcDbSymbolTableRecord
100
AcDbBlockTableRecord
  2
*D7
340
0
  0
ENDTAB
  0
ENDSEC
  0
SECTION
  2
BLOCKS
  0
BLOCK
  5
20
330
1F
100
AcDbEntity
  8
0
100
AcDbBlockBegin
  2
*Model_Space
 70
     0
 10
0.0
 20
0.0
 30
0.0
  3
*Model_Space
  1

  0
ENDBLK
  5
21
330
1F
100
AcDbEntity
  8
0
100
AcDbBlockEnd
  0
BLOCK
  5
1C
330
1B
100
AcDbEntity
 67
     1
  8
0
100
AcDbBlockBegin
  2
*Paper_Space
 70
     0
 10
0.0
 20
0.0
 30
0.0
  3
*Paper_Space
  1

  0
ENDBLK
  5
1D
330
1B
100
AcDbEntity
 67
     1
  8
0
100
AcDbBlockEnd
  0
BLOCK
  5
24
330
23
100
AcDbEntity
 67
     1
  8
0
100
AcDbBlockBegin
  2
*Paper_Space0
 70
     0
 10
0.0
 20
0.0
 30
0.0
  3
*Paper_Space0
  1

  0
ENDBLK
  5
25
330
23
100
AcDbEntity
 67
     1
  8
0
100
AcDbBlockEnd
  0
BLOCK
  5
2ADE
330
87
100
AcDbEntity
  8
0
100
AcDbBlockBegin
  2
GENAXEH
 70
     0
 10
0.0
 20
0.0
 30
0.0
  3
GENAXEH
  1

  0
ENDBLK
  5
2AE0
330
87
100
AcDbEntity
  8
0
100
AcDbBlockEnd
  0
BLOCK
  5
1D62B
330
1D621
100
AcDbEntity
  8
0
100
AcDbBlockBegin
  2
*D2
 70
     1
 10
0.0
 20
0.0
 30
0.0
  3
*D2
  1

  0
LINE
  5
1D669
330
1D621
100
AcDbEntity
  8
AM_5
370
    -2
100
AcDbLine
 10
18920.71511716746
 20
1706.240399948244
 30
0.0
 11
18866.62921369167
 21
1706.240399948244
 31
0.0
  0
LINE
  5
1D66A
330
1D621
100
AcDbEntity
  8
AM_5
370
    -2
100
AcDbLine
 10
19097.86625468795
 20
2095.09273275438
 30
0.0
 11
18866.62921369167
 21
2095.09273275438
 31
0.0
  0
LINE
  5
1D66B
330
1D621
100
AcDbEntity
  8
AM_5
370
    -2
100
AcDbLine
 10
18871.62921369166
 20
1718.740399948243
 30
0.0
 11
18871.62921369166
 21
2082.592732754381
 31
0.0
  0
SOLID
  5
1D66C
330
1D621
100
AcDbEntity
  8
AM_5
100
AcDbTrace
 10
18869.54588035833
 20
1718.740399948243
 30
0.0
 11
18873.712547025
 21
1718.740399948243
 31
0.0
 12
18871.62921369166
 22
1706.240399948244
 32
0.0
 13
18871.62921369166
 23
1706.240399948244
 33
0.0
  0
SOLID
  5
1D66D
330
1D621
100
AcDbEntity
  8
AM_5
100
AcDbTrace
 10
18869.54588035833
 20
2082.592732754381
 30
0.0
 11
18873.712547025
 21
2082.592732754381
 31
0.0
 12
18871.62921369166
 22
2095.09273275438
 32
0.0
 13
18871.62921369166
 23
2095.09273275438
 33
0.0
  0
MTEXT
  5
1D66E
330
1D621
100
AcDbEntity
  8
AM_5
 62
     2
100
AcDbMText
 10
18859.69418640654
 20
1900.666566351312
 30
0.0
 40
17.5
 41
0.0
 71
     5
 72
     1
  1
ca.400
 11
0.0000000000000001
 21
1.0
 31
0.0
 73
     1
 44
1.0
1001
ACAD
1000
MTEXTBEGIN
1070
    73
1070
     1
1070
    44
1040
1.0
1070
    74
1070
     0
1000
MTEXTEND
  0
POINT
  5
1D66F
330
1D621
100
AcDbEntity
  8
Defpoints
 62
     0
100
AcDbPoint
 10
18925.71511716746
 20
1706.240399948244
 30
0.0
  0
POINT
  5
1D670
330
1D621
100
AcDbEntity
  8
Defpoints
 62
     0
100
AcDbPoint
 10
19102.86625468795
 20
2095.09273275438
 30
0.0
  0
POINT
  5
1D671
330
1D621
100
AcDbEntity
  8
Defpoints
 62
     0
100
AcDbPoint
 10
18871.62921369166
 20
2095.09273275438
 30
0.0
  0
ENDBLK
  5
1D62C
330
1D621
100
AcDbEntity
  8
0
100
AcDbBlockEnd
  0
BLOCK
  5
1D637
330
1D62D
100
AcDbEntity
  8
0
100
AcDbBlockBegin
  2
*D3
 70
     1
 10
0.0
 20
0.0
 30
0.0
  3
*D3
  1

  0
LINE
  5
1D795
330
1D62D
100
AcDbEntity
  8
AM_5
370
    -2
100
AcDbLine
 10
18963.76511716746
 20
1625.764996120517
 30
0.0
 11
18963.76511716746
 21
1591.247071213013
 31
0.0
  0
LINE
  5
1D796
330
1D62D
100
AcDbEntity
  8
AM_5
370
    -2
100
AcDbLine
 10
19286.61054650071
 20
2027.303015557886
 30
0.0
 11
19286.61054650071
 21
1591.247071213013
 31
0.0
  0
LINE
  5
1D797
330
1D62D
100
AcDbEntity
  8
AM_5
370
    -2
100
AcDbLine
 10
18976.26511716746
 20
1596.247071213013
 30
0.0
 11
19274.11054650072
 21
1596.247071213013
 31
0.0
  0
SOLID
  5
1D798
330
1D62D
100
AcDbEntity
  8
AM_5
100
AcDbTrace
 10
18976.26511716746
 20
1598.330404546346
 30
0.0
 11
18976.26511716746
 21
1594.16373787968
 31
0.0
 12
18963.76511716746
 22
1596.247071213013
 32
0.0
 13
18963.76511716746
 23
1596.247071213013
 33
0.0
  0
SOLID
  5
1D799
330
1D62D
100
AcDbEntity
  8
AM_5
100
AcDbTrace
 10
19274.11054650072
 20
1598.330404546346
 30
0.0
 11
19274.11054650072
 21
1594.16373787968
 31
0.0
 12
19286.61054650071
 22
1596.247071213013
 32
0.0
 13
19286.61054650071
 23
1596.247071213013
 33
0.0
  0
MTEXT
  5
1D79A
330
1D62D
100
AcDbEntity
  8
AM_5
 62
     2
100
AcDbMText
 10
19125.18783183409
 20
1608.188067120243
 30
0.0
 40
17.5
 41
0.0
 71
     5
 72
     1
  1
ca.350
 73
     1
 44
1.0
1001
ACAD
1000
MTEXTBEGIN
1070
    73
1070
     1
1070
    44
1040
1.0
1070
    74
1070
     0
1000
MTEXTEND
  0
POINT
  5
1D79B
330
1D62D
100
AcDbEntity
  8
Defpoints
 62
     0
100
AcDbPoint
 10
18963.76511716746
 20
1630.764996120517
 30
0.0
  0
POINT
  5
1D79C
330
1D62D
100
AcDbEntity
  8
Defpoints
 62
     0
100
AcDbPoint
 10
19286.61054650071
 20
2032.303015557886
 30
0.0
  0
POINT
  5
1D79D
330
1D62D
100
AcDbEntity
  8
Defpoints
 62
     0
100
AcDbPoint
 10
19286.61054650071
 20
1596.247071213013
 30
0.0
  0
ENDBLK
  5
1D638
330
1D62D
100
AcDbEntity
  8
0
100
AcDbBlockEnd
  0
BLOCK
  5
1D643
330
1D639
100
AcDbEntity
  8
0
100
AcDbBlockBegin
  2
*D4
 70
     1
 10
0.0
 20
0.0
 30
0.0
  3
*D4
  1

  0
LINE
  5
1D67B
330
1D639
100
AcDbEntity
  8
AM_5
370
    -2
100
AcDbLine
 10
18925.71511716746
 20
1701.240399948243
 30
0.0
 11
18925.71511716746
 21
1651.240398948243
 31
0.0
  0
LINE
  5
1D67C
330
1D639
100
AcDbEntity
  8
AM_5
370
    -2
100
AcDbLine
 10
19001.81511716746
 20
1701.240399948243
 30
0.0
 11
19001.81511716746
 21
1651.240398948243
 31
0.0
  0
LINE
  5
1D67D
330
1D639
100
AcDbEntity
  8
AM_5
370
    -2
100
AcDbLine
 10
18938.21511716746
 20
1656.240398948243
 30
0.0
 11
18989.31511716746
 21
1656.240398948243
 31
0.0
  0
SOLID
  5
1D67E
330
1D639
100
AcDbEntity
  8
AM_5
100
AcDbTrace
 10
18938.21511716746
 20
1658.323732281576
 30
0.0
 11
18938.21511716746
 21
1654.15706561491
 31
0.0
 12
18925.71511716746
 22
1656.240398948243
 32
0.0
 13
18925.71511716746
 23
1656.240398948243
 33
0.0
  0
SOLID
  5
1D67F
330
1D639
100
AcDbEntity
  8
AM_5
100
AcDbTrace
 10
18989.31511716746
 20
1658.323732281576
 30
0.0
 11
18989.31511716746
 21
1654.15706561491
 31
0.0
 12
19001.81511716746
 22
1656.240398948243
 32
0.0
 13
19001.81511716746
 23
1656.240398948243
 33
0.0
  0
MTEXT
  5
1D680
330
1D639
100
AcDbEntity
  8
AM_5
 62
     2
100
AcDbMText
 10
18963.76511716746
 20
1668.664853245651
 30
0.0
 40
17.5
 41
0.0
 71
     5
 72
     1
  1
%%c76.1
 73
     1
 44
1.0
1001
ACAD
1000
MTEXTBEGIN
1070
    73
1070
     1
1070
    44
1040
1.0
1070
    74
1070
     0
1000
MTEXTEND
  0
POINT
  5
1D681
330
1D639
100
AcDbEntity
  8
Defpoints
 62
     0
100
AcDbPoint
 10
18925.71511716746
 20
1706.240399948244
 30
0.0
  0
POINT
  5
1D682
330
1D639
100
AcDbEntity
  8
Defpoints
 62
     0
100
AcDbPoint
 10
19001.81511716746
 20
1706.240399948244
 30
0.0
  0
POINT
  5
1D683
330
1D639
100
AcDbEntity
  8
Defpoints
 62
     0
100
AcDbPoint
 10
19001.81511716746
 20
1656.240398948243
 30
0.0
  0
ENDBLK
  5
1D644
330
1D639
100
AcDbEntity
  8
0
100
AcDbBlockEnd
  0
BLOCK
  5
1D64F
330
1D645
100
AcDbEntity
  8
0
100
AcDbBlockBegin
  2
*D5
 70
     1
 10
0.0
 20
0.0
 30
0.0
  3
*D5
  1

  0
LINE
  5
1D684
330
1D645
100
AcDbEntity
  8
AM_5
370
    -2
100
AcDbLine
 10
19920.71511716746
 20
1786.240399948244
 30
0.0
 11
19866.62921369167
 21
1786.240399948244
 31
0.0
  0
LINE
  5
1D685
330
1D645
100
AcDbEntity
  8
AM_5
370
    -2
100
AcDbLine
 10
20097.86619297585
 20
2095.092825327583
 30
0.0
 11
19866.62921369167
 21
2095.092825327583
 31
0.0
  0
LINE
  5
1D686
330
1D645
100
AcDbEntity
  8
AM_5
370
    -2
100
AcDbLine
 10
19871.62921369167
 20
1798.740399948244
 30
0.0
 11
19871.62921369167
 21
2082.592825327583
 31
0.0
  0
SOLID
  5
1D687
330
1D645
100
AcDbEntity
  8
AM_5
100
AcDbTrace
 10
19869.54588035833
 20
1798.740399948244
 30
0.0
 11
19873.712547025
 21
1798.740399948244
 31
0.0
 12
19871.62921369167
 22
1786.240399948244
 32
0.0
 13
19871.62921369167
 23
1786.240399948244
 33
0.0
  0
SOLID
  5
1D688
330
1D645
100
AcDbEntity
  8
AM_5
100
AcDbTrace
 10
19869.54588035833
 20
2082.592825327583
 30
0.0
 11
19873.712547025
 21
2082.592825327583
 31
0.0
 12
19871.62921369167
 22
2095.092825327583
 32
0.0
 13
19871.62921369167
 23
2095.092825327583
 33
0.0
  0
MTEXT
  5
1D689
330
1D645
100
AcDbEntity
  8
AM_5
 62
     2
100
AcDbMText
 10
19859.68821778444
 20
1919.365881940564
 30
0.0
 40
17.5
 41
0.0
 71
     5
 72
     1
  1
ca.325
 11
0.0000000000000001
 21
1.0
 31
0.0
 73
     1
 44
1.0
1001
ACAD
1000
MTEXTBEGIN
1070
    73
1070
     1
1070
    44
1040
1.0
1070
    74
1070
     0
1000
MTEXTEND
  0
POINT
  5
1D68A
330
1D645
100
AcDbEntity
  8
Defpoints
 62
     0
100
AcDbPoint
 10
19925.71511716746
 20
1786.240399948244
 30
0.0
  0
POINT
  5
1D68B
330
1D645
100
AcDbEntity
  8
Defpoints
 62
     0
100
AcDbPoint
 10
20102.86619297585
 20
2095.092825327583
 30
0.0
  0
POINT
  5
1D68C
330
1D645
100
AcDbEntity
  8
Defpoints
 62
     0
100
AcDbPoint
 10
19871.62921369167
 20
2095.092825327583
 30
0.0
  0
ENDBLK
  5
1D650
330
1D645
100
AcDbEntity
  8
0
100
AcDbBlockEnd
  0
BLOCK
  5
1D65B
330
1D651
100
AcDbEntity
  8
0
100
AcDbBlockBegin
  2
*D6
 70
     1
 10
0.0
 20
0.0
 30
0.0
  3
*D6
  1

  0
LINE
  5
1D68D
330
1D651
100
AcDbEntity
  8
AM_5
370
    -2
100
AcDbLine
 10
19963.76511716746
 20
1705.764996120517
 30
0.0
 11
19963.76511716746
 21
1671.247071213013
 31
0.0
  0
LINE
  5
1D68E
330
1D651
100
AcDbEntity
  8
AM_5
370
    -2
100
AcDbLine
 10
20286.61054650072
 20
2027.303015557886
 30
0.0
 11
20286.61054650072
 21
1671.247071213013
 31
0.0
  0
LINE
  5
1D68F
330
1D651
100
AcDbEntity
  8
AM_5
370
    -2
100
AcDbLine
 10
19976.26511716746
 20
1676.247071213013
 30
0.0
 11
20274.11054650072
 21
1676.247071213013
 31
0.0
  0
SOLID
  5
1D690
330
1D651
100
AcDbEntity
  8
AM_5
100
AcDbTrace
 10
19976.26511716746
 20
1678.330404546346
 30
0.0
 11
19976.26511716746
 21
1674.16373787968
 31
0.0
 12
19963.76511716746
 22
1676.247071213013
 32
0.0
 13
19963.76511716746
 23
1676.247071213013
 33
0.0
  0
SOLID
  5
1D691
330
1D651
100
AcDbEntity
  8
AM_5
100
AcDbTrace
 10
20274.11054650072
 20
1678.330404546346
 30
0.0
 11
20274.11054650072
 21
1674.16373787968
 31
0.0
 12
20286.61054650072
 22
1676.247071213013
 32
0.0
 13
20286.61054650072
 23
1676.247071213013
 33
0.0
  0
MTEXT
  5
1D692
330
1D651
100
AcDbEntity
  8
AM_5
 62
     2
100
AcDbMText
 10
20125.18783183409
 20
1688.188067120244
 30
0.0
 40
17.5
 41
0.0
 71
     5
 72
     1
  1
ca.350
 73
     1
 44
1.0
1001
ACAD
1000
MTEXTBEGIN
1070
    73
1070
     1
1070
    44
1040
1.0
1070
    74
1070
     0
1000
MTEXTEND
  0
POINT
  5
1D693
330
1D651
100
AcDbEntity
  8
Defpoints
 62
     0
100
AcDbPoint
 10
19963.76511716746
 20
1710.764996120517
 30
0.0
  0
POINT
  5
1D694
330
1D651
100
AcDbEntity
  8
Defpoints
 62
     0
100
AcDbPoint
 10
20286.61054650072
 20
2032.303015557886
 30
0.0
  0
POINT
  5
1D695
330
1D651
100
AcDbEntity
  8
Defpoints
 62
     0
100
AcDbPoint
 10
20286.61054650072
 20
1676.247071213013
 30
0.0
  0
ENDBLK
  5
1D65C
330
1D651
100
AcDbEntity
  8
0
100
AcDbBlockEnd
  0
BLOCK
  5
1D667
330
1D65D
100
AcDbEntity
  8
0
100
AcDbBlockBegin
  2
*D7
 70
     1
 10
0.0
 20
0.0
 30
0.0
  3
*D7
  1

  0
LINE
  5
1D696
330
1D65D
100
AcDbEntity
  8
AM_5
370
    -2
100
AcDbLine
 10
19925.71511716746
 20
1781.240399948243
 30
0.0
 11
19925.71511716746
 21
1731.240398948243
 31
0.0
  0
LINE
  5
1D697
330
1D65D
100
AcDbEntity
  8
AM_5
370
    -2
100
AcDbLine
 10
20001.81511716746
 20
1781.240399948243
 30
0.0
 11
20001.81511716746
 21
1731.240398948243
 31
0.0
  0
LINE
  5
1D698
330
1D65D
100
AcDbEntity
  8
AM_5
370
    -2
100
AcDbLine
 10
19938.21511716746
 20
1736.240398948243
 30
0.0
 11
19989.31511716746
 21
1736.240398948243
 31
0.0
  0
SOLID
  5
1D699
330
1D65D
100
AcDbEntity
  8
AM_5
100
AcDbTrace
 10
19938.21511716746
 20
1738.323732281576
 30
0.0
 11
19938.21511716746
 21
1734.15706561491
 31
0.0
 12
19925.71511716746
 22
1736.240398948243
 32
0.0
 13
19925.71511716746
 23
1736.240398948243
 33
0.0
  0
SOLID
  5
1D69A
330
1D65D
100
AcDbEntity
  8
AM_5
100
AcDbTrace
 10
19989.31511716746
 20
1738.323732281576
 30
0.0
 11
19989.31511716746
 21
1734.15706561491
 31
0.0
 12
20001.81511716746
 22
1736.240398948243
 32
0.0
 13
20001.81511716746
 23
1736.240398948243
 33
0.0
  0
MTEXT
  5
1D69B
330
1D65D
100
AcDbEntity
  8
AM_5
 62
     2
100
AcDbMText
 10
19963.76511716746
 20
1748.664853245651
 30
0.0
 40
17.5
 41
0.0
 71
     5
 72
     1
  1
%%c76.1
 73
     1
 44
1.0
1001
ACAD
1000
MTEXTBEGIN
1070
    73
1070
     1
1070
    44
1040
1.0
1070
    74
1070
     0
1000
MTEXTEND
  0
POINT
  5
1D69C
330
1D65D
100
AcDbEntity
  8
Defpoints
 62
     0
100
AcDbPoint
 10
19925.71511716746
 20
1786.240399948244
 30
0.0
  0
POINT
  5
1D69D
330
1D65D
100
AcDbEntity
  8
Defpoints
 62
     0
100
AcDbPoint
 10
20001.81511716746
 20
1786.240399948244
 30
0.0
  0
POINT
  5
1D69E
330
1D65D
100
AcDbEntity
  8
Defpoints
 62
     0
100
AcDbPoint
 10
20001.81511716746
 20
1736.240398948243
 30
0.0
  0
ENDBLK
  5
1D668
330
1D65D
100
AcDbEntity
  8
0
100
AcDbBlockEnd
  0
ENDSEC
  0
SECTION
  2
ENTITIES
  0
MTEXT
  5
1D209
330
1F
100
AcDbEntity
  8
Beschriftung
100
AcDbMText
 10
19172.58971754542
 20
2173.780699964187
 30
0.0
 40
15.0
 41
1190.293354815057
 71
     1
 72
     5
  1
Kugelhahn
 73
     1
 44
1.0
1001
ACAD
1000
MTEXTBEGIN
1070
    73
1070
     1
1070
    44
1040
1.0
1070
    74
1070
     0
1000
MTEXTEND
  0
LINE
  5
1D20A
330
1F
100
AcDbEntity
  8
bezugslinien
100
AcDbLine
 10
19245.70924232843
 20
2047.971848606568
 30
0.0
 11
19264.20979340383
 21
2114.827939387813
 31
0.0
  0
DIMENSION
  5
1D20B
330
1F
100
AcDbEntity
  8
AM_5
100
AcDbDimension
  2
*D2
 10
18871.62921369166
 20
2095.09273275438
 30
0.0
 11
18871.62921369166
 21
1900.666566351312
 31
0.0
 70
   160
  1
ca.400
 71
     5
 42
388.8523328061367
  3
GEN-ISO$0
100
AcDbAlignedDimension
 13
18925.71511716746
 23
1706.240399948244
 33
0.0
 14
19102.86625468795
 24
2095.09273275438
 34
0.0
 50
90.0
100
AcDbRotatedDimension
1001
ACAD
1000
DSTYLE
1002
{
1070
    40
1040
5.0
1002
}
  0
DIMENSION
  5
1D20C
330
1F
100
AcDbEntity
  8
AM_5
100
AcDbDimension
  2
*D3
 10
19286.61054650071
 20
1596.247071213013
 30
0.0
 11
19125.18783183409
 21
1608.188067120243
 31
0.0
 70
    32
  1
ca.350
 71
     5
 42
322.8454293332579
  3
GEN-ISO$0
100
AcDbAlignedDimension
 13
18963.76511716746
 23
1630.764996120517
 33
0.0
 14
19286.61054650071
 24
2032.303015557886
 34
0.0
100
AcDbRotatedDimension
1001
ACAD
1000
DSTYLE
1002
{
1070
    40
1040
5.0
1002
}
  0
LINE
  5
1D20D
330
1F
100
AcDbEntity
  8
AM_0
100
AcDbLine
 10
18925.71511716746
 20
1936.240399948244
 30
0.0
 11
18925.71511716746
 21
1706.240399948244
 31
0.0
  0
LINE
  5
1D20E
330
1F
100
AcDbEntity
  8
AM_0
100
AcDbLine
 10
18925.71511716746
 20
1706.240399948244
 30
0.0
 11
19001.81511716746
 21
1706.240399948244
 31
0.0
  0
LINE
  5
1D20F
330
1F
100
AcDbEntity
  8
AM_0
100
AcDbLine
 10
19001.81511716746
 20
1706.240399948244
 30
0.0
 11
19001.81511716746
 21
1936.240399948244
 31
0.0
  0
LINE
  5
1D210
330
1F
100
AcDbEntity
  8
AM_0
100
AcDbLine
 10
19001.81511716746
 20
1936.240399948244
 30
0.0
 11
18925.71511716746
 21
1936.240399948244
 31
0.0
  0
LINE
  5
1D211
330
1F
100
AcDbEntity
  8
AM_0
100
AcDbLine
 10
18925.71511716746
 20
1936.240399948244
 30
0.0
 11
18925.71511716746
 21
1992.240399948244
 31
0.0
  0
LINE
  5
1D212
330
1F
100
AcDbEntity
  8
AM_0
100
AcDbLine
 10
18929.71511716746
 20
1996.240399948243
 30
0.0
 11
18997.81511716746
 21
1996.240399948243
 31
0.0
  0
LINE
  5
1D213
330
1F
100
AcDbEntity
  8
AM_0
100
AcDbLine
 10
19001.81511716746
 20
1936.240399948244
 30
0.0
 11
19001.81511716746
 21
1992.240399948244
 31
0.0
  0
LINE
  5
1D214
330
1F
100
AcDbEntity
  8
AM_0
100
AcDbLine
 10
18927.71511716746
 20
1936.240399948244
 30
0.0
 11
18927.71511716746
 21
1992.240399948244
 31
0.0
  0
LINE
  5
1D215
330
1F
100
AcDbEntity
  8
AM_0
100
AcDbLine
 10
18999.81511716746
 20
1936.240399948244
 30
0.0
 11
18999.81511716746
 21
1992.240399948244
 31
0.0
  0
LINE
  5
1D216
330
1F
100
AcDbEntity
  8
AM_0
100
AcDbLine
 10
18929.71511716746
 20
1994.240399948244
 30
0.0
 11
18997.81511716746
 21
1994.240399948244
 31
0.0
  0
ARC
  5
1D217
330
1F
100
AcDbEntity
  8
AM_0
100
AcDbCircle
 10
18929.71511716746
 20
1992.240399948244
 30
0.0
 40
2.0
100
AcDbArc
 50
90.0
 51
180.0
1001
GENIUS_GENODEF_13
1002
{
1000
HIER
1070
     0
1002
}
1002
{
1000
MANEDIT
1070
     0
1002
}
1002
{
1000
NOSEL
1070
     0
1002
}
1002
{
1000
BEHIND
1070
     0
1002
}
1002
{
1000
REACTOR
1002
}
1001
GENIUS_GENOBJ-N-FIL_13
1002
{
1000
OWNER
1000
GEN
1002
}
  0
ARC
  5
1D218
330
1F
100
AcDbEntity
  8
AM_0
100
AcDbCircle
 10
18997.81511716746
 20
1992.240399948244
 30
0.0
 40
2.0
100
AcDbArc
 50
0.0
 51
90.0
1001
GENIUS_GENODEF_13
1002
{
1000
HIER
1070
     0
1002
}
1002
{
1000
MANEDIT
1070
     0
1002
}
1002
{
1000
NOSEL
1070
     0
1002
}
1002
{
1000
BEHIND
1070
     0
1002
}
1002
{
1000
REACTOR
1002
}
1001
GENIUS_GENOBJ-N-FIL_13
1002
{
1000
OWNER
1000
GEN
1002
}
  0
ARC
  5
1D219
330
1F
100
AcDbEntity
  8
AM_0
100
AcDbCircle
 10
18997.81511716746
 20
1992.240399948244
 30
0.0
 40
4.0
100
AcDbArc
 50
0.0
 51
90.0
1001
GENIUS_GENODEF_13
1002
{
1000
HIER
1070
     0
1002
}
1002
{
1000
MANEDIT
1070
     0
1002
}
1002
{
1000
NOSEL
1070
     0
1002
}
1002
{
1000
BEHIND
1070
     0
1002
}
1002
{
1000
REACTOR
1002
}
1001
GENIUS_GENOBJ-N-FIL_13
1002
{
1000
OWNER
1000
GEN
1002
}
  0
ARC
  5
1D21A
330
1F
100
AcDbEntity
  8
AM_0
100
AcDbCircle
 10
18929.71511716746
 20
1992.240399948244
 30
0.0
 40
4.0
100
AcDbArc
 50
90.0
 51
180.0
1001
GENIUS_GENODEF_13
1002
{
1000
HIER
1070
     0
1002
}
1002
{
1000
MANEDIT
1070
     0
1002
}
1002
{
1000
NOSEL
1070
     0
1002
}
1002
{
1000
BEHIND
1070
     0
1002
}
1002
{
1000
REACTOR
1002
}
1001
GENIUS_GENOBJ-N-FIL_13
1002
{
1000
OWNER
1000
GEN
1002
}
  0
LINE
  5
1D21B
330
1F
100
AcDbEntity
  8
anbauteile dünn
100
AcDbLine
 10
18951.70617216745
 20
2012.306386077158
 30
0.0
 11
18951.70617216746
 21
2001.240399948244
 31
0.0
  0
LINE
  5
1D21C
330
1F
100
AcDbEntity
  8
anbauteile dünn
100
AcDbLine
 10
18975.82406216746
 20
2012.306386077158
 30
0.0
 11
18975.82406216746
 21
2001.240399948244
 31
0.0
  0
LINE
  5
1D21D
330
1F
100
AcDbEntity
  8
AM_0
100
AcDbLine
 10
18950.54461716746
 20
2001.240399948244
 30
0.0
 11
18950.54461716746
 21
2012.305656679512
 31
0.0
  0
LINE
  5
1D21E
330
1F
100
AcDbEntity
  8
AM_0
100
AcDbLine
 10
18976.98561716746
 20
2012.305954912892
 30
0.0
 11
18976.98561716746
 21
2001.240399948244
 31
0.0
  0
LINE
  5
1D21F
330
1F
100
AcDbEntity
  8
AM_0
100
AcDbLine
 10
18950.31511716746
 20
1976.240399948244
 30
0.0
 11
18950.31511716746
 21
1994.240399948244
 31
0.0
1001
GENIUS_GENODEF_13
1002
{
1000
HIER
1070
     0
1002
}
1002
{
1000
MANEDIT
1070
     0
1002
}
1002
{
1000
NOSEL
1070
     0
1002
}
1002
{
1000
BEHIND
1070
     0
1002
}
1002
{
1000
REACTOR
1002
}
1001
GENIUS_GENOBJ-N-CEN_13
1002
{
1000
OWNER
1000
GEN
1002
}
  0
LINE
  5
1D220
330
1F
100
AcDbEntity
  8
AM_0
100
AcDbLine
 10
18950.31511716746
 20
1996.240399948243
 30
0.0
 11
18950.31511716746
 21
2001.240399948244
 31
0.0
1001
GENIUS_GENODEF_13
1002
{
1000
HIER
1070
     0
1002
}
1002
{
1000
MANEDIT
1070
     0
1002
}
1002
{
1000
NOSEL
1070
     0
1002
}
1002
{
1000
BEHIND
1070
     0
1002
}
1002
{
1000
REACTOR
1002
}
1001
GENIUS_GENOBJ-N-CEN_13
1002
{
1000
OWNER
1000
GEN
1002
}
  0
LINE
  5
1D221
330
1F
100
AcDbEntity
  8
AM_0
100
AcDbLine
 10
18977.21511716746
 20
1976.240399948244
 30
0.0
 11
18977.21511716745
 21
1994.240399948244
 31
0.0
1001
GENIUS_GENODEF_13
1002
{
1000
HIER
1070
     0
1002
}
1002
{
1000
MANEDIT
1070
     0
1002
}
1002
{
1000
NOSEL
1070
     0
1002
}
1002
{
1000
BEHIND
1070
     0
1002
}
1002
{
1000
REACTOR
1002
}
1001
GENIUS_GENOBJ-N-CEN_13
1002
{
1000
OWNER
1000
GEN
1002
}
  0
LINE
  5
1D222
330
1F
100
AcDbEntity
  8
AM_0
100
AcDbLine
 10
18977.21511716745
 20
1996.240399948243
 30
0.0
 11
18977.21511716746
 21
2001.240399948244
 31
0.0
1001
GENIUS_GENODEF_13
1002
{
1000
HIER
1070
     0
1002
}
1002
{
1000
MANEDIT
1070
     0
1002
}
1002
{
1000
NOSEL
1070
     0
1002
}
1002
{
1000
BEHIND
1070
     0
1002
}
1002
{
1000
REACTOR
1002
}
1001
GENIUS_GENOBJ-N-CEN_13
1002
{
1000
OWNER
1000
GEN
1002
}
  0
LINE
  5
1D223
330
1F
100
AcDbEntity
  8
AM_0
100
AcDbLine
 10
18950.31511716746
 20
1976.240399948244
 30
0.0
 11
18977.21511716746
 21
1976.240399948244
 31
0.0
1001
GENIUS_GENOREF_13
1005
0
  0
LINE
  5
1D224
330
1F
100
AcDbEntity
  8
AM_0
100
AcDbLine
 10
18950.31511716746
 20
2001.240399948244
 30
0.0
 11
18977.21511716746
 21
2001.240399948244
 31
0.0
  0
DIMENSION
  5
1D225
330
1F
100
AcDbEntity
  8
AM_5
100
AcDbDimension
  2
*D4
 10
19001.81511716746
 20
1656.240398948243
 30
0.0
 11
18963.76511716746
 21
1668.664853245651
 31
0.0
 70
    32
  1
%%c<>
 71
     5
 42
76.10000000000218
  3
GEN-ISO
100
AcDbAlignedDimension
 13
18925.71511716746
 23
1706.240399948244
 33
0.0
 14
19001.81511716746
 24
1706.240399948244
 34
0.0
100
AcDbRotatedDimension
1001
GENIUS_GENDTOL_13
1000

1000
h6
1000

1040
0.0
1000
%%c<>x2
1001
ACAD
1000
DSTYLE
1002
{
1070
    40
1040
5.0
1002
}
  0
LINE
  5
1D226
330
1F
100
AcDbEntity
  8
AM_0
100
AcDbLine
 10
19024.25240963249
 20
2035.619423172192
 30
0.0
 11
19024.25240963249
 21
2061.985878252194
 31
0.0
  0
LINE
  5
1D227
330
1F
100
AcDbEntity
  8
AM_0
100
AcDbLine
 10
19009.25717037249
 20
2032.347938792193
 30
0.0
 11
19009.25717037249
 21
2063.801796222193
 31
0.0
  0
LINE
  5
1D228
330
1F
100
AcDbEntity
  8
AM_0
100
AcDbLine
 10
19015.25326412249
 20
2032.347938792193
 30
0.0
 11
19015.25326412249
 21
2063.801796222193
 31
0.0
  0
LINE
  5
1D229
330
1F
100
AcDbEntity
  8
AM_0
100
AcDbLine
 10
19024.25717037249
 20
2062.255165362193
 30
0.0
 11
19015.25692623249
 21
2062.255165362193
 31
0.0
  0
LINE
  5
1D22A
330
1F
100
AcDbEntity
  8
anbauteile dünn
100
AcDbLine
 10
19024.25717037249
 20
2060.756141922193
 30
0.0
 11
19015.25204342249
 21
2060.756141922193
 31
0.0
  0
LINE
  5
1D22B
330
1F
100
AcDbEntity
  8
anbauteile dünn
100
AcDbLine
 10
19024.25717037249
 20
2036.849891922193
 30
0.0
 11
19015.25204342249
 21
2036.849891922193
 31
0.0
  0
LINE
  5
1D22C
330
1F
100
AcDbEntity
  8
AM_0
100
AcDbLine
 10
19000.25326412249
 20
2062.255165362193
 30
0.0
 11
19009.25350826249
 21
2062.255165362193
 31
0.0
  0
LINE
  5
1D22D
330
1F
100
AcDbEntity
  8
anbauteile dünn
100
AcDbLine
 10
19000.25326412249
 20
2060.756141922193
 30
0.0
 11
19009.25839107249
 21
2060.756141922193
 31
0.0
  0
LINE
  5
1D22E
330
1F
100
AcDbEntity
  8
AM_0
  6
AUSGEZOGEN
 62
     7
100
AcDbLine
 10
19009.25717037249
 20
2059.553016922193
 30
0.0
 11
19015.25692623249
 21
2059.553016922193
 31
0.0
  0
LINE
  5
1D22F
330
1F
100
AcDbEntity
  8
AM_0
100
AcDbLine
 10
19009.25717037249
 20
2063.803016922193
 30
0.0
 11
19015.25692623249
 21
2063.803016922193
 31
0.0
  0
LINE
  5
1D230
330
1F
100
AcDbEntity
  8
anbauteile dünn
100
AcDbLine
 10
19000.25326412249
 20
2036.849891922193
 30
0.0
 11
19009.25839107249
 21
2036.849891922193
 31
0.0
  0
LINE
  5
1D231
330
1F
100
AcDbEntity
  8
AM_0
  6
AUSGEZOGEN
 62
     7
100
AcDbLine
 10
19015.25326412249
 20
2048.803016922193
 30
0.0
 11
19009.25350826249
 21
2048.803016922193
 31
0.0
  0
LINE
  5
1D232
330
1F
100
AcDbEntity
  8
AM_0
  6
AUSGEZOGEN
 62
     7
100
AcDbLine
 10
19009.25717037249
 20
2038.052772782193
 30
0.0
 11
19015.25692623249
 21
2038.052772782193
 31
0.0
  0
LINE
  5
1D233
330
1F
100
AcDbEntity
  8
AM_0
  6
AUSGEZOGEN
 62
     7
100
AcDbLine
 10
19024.25717037249
 20
2035.350868482193
 30
0.0
 11
19015.25692623249
 21
2035.350868482193
 31
0.0
  0
LINE
  5
1D234
330
1F
100
AcDbEntity
  8
AM_0
  6
AUSGEZOGEN
 62
     7
100
AcDbLine
 10
19000.25326412249
 20
2035.350868482193
 30
0.0
 11
19009.25350826249
 21
2035.350868482193
 31
0.0
  0
LINE
  5
1D235
330
1F
100
AcDbEntity
  8
AM_0
  6
AUSGEZOGEN
 62
     7
100
AcDbLine
 10
19009.25717037249
 20
2032.347938792193
 30
0.0
 11
19015.25692623249
 21
2032.347938792193
 31
0.0
  0
LINE
  5
1D236
330
1F
100
AcDbEntity
  8
AM_0
100
AcDbLine
 10
19000.2616869725
 20
2035.619423172192
 30
0.0
 11
19000.2616869725
 21
2061.985878252194
 31
0.0
  0
POLYLINE
  5
1D237
330
1F
100
AcDbEntity
  8
AM_0
  6
AUSGEZOGEN
 62
     7
100
AcDb2dPolyline
 66
     1
 10
0.0
 20
0.0
 30
0.0
  0
VERTEX
  5
1D238
330
1D237
100
AcDbEntity
  8
AM_0
  6
AUSGEZOGEN
 62
     7
100
AcDbVertex
100
AcDb2dVertex
 10
19000.2616869725
 20
2035.710100327757
 30
0.0
 42
-0.0035128718031917
 70
     2
 50
67.5
  0
VERTEX
  5
1D239
330
1D237
100
AcDbEntity
  8
AM_0
  6
AUSGEZOGEN
 62
     7
100
AcDbVertex
100
AcDb2dVertex
 10
19000.26266353249
 20
2035.619423172192
 30
0.0
 42
-0.11611241
 70
     2
 50
90.0
  0
VERTEX
  5
1D23A
330
1D237
100
AcDbEntity
  8
AM_0
  6
AUSGEZOGEN
 62
     7
100
AcDbVertex
100
AcDb2dVertex
 10
18999.57421749249
 20
2032.743141432193
 30
0.0
 42
-0.09388726
 70
     2
 50
112.5
  0
VERTEX
  5
1D23B
330
1D237
100
AcDbEntity
  8
AM_0
  6
AUSGEZOGEN
 62
     7
100
AcDbVertex
100
AcDb2dVertex
 10
18997.87023800249
 20
2030.526832842193
 30
0.0
 50
22.5
  0
SEQEND
  5
1D23C
330
1D237
100
AcDbEntity
  8
AM_0
  6
AUSGEZOGEN
 62
     7
  0
POLYLINE
  5
1D23D
330
1F
100
AcDbEntity
  8
AM_0
100
AcDb2dPolyline
 66
     1
 10
0.0
 20
0.0
 30
0.0
  0
VERTEX
  5
1D23E
330
1D23D
100
AcDbEntity
  8
AM_0
100
AcDbVertex
100
AcDb2dVertex
 10
18997.86981075249
 20
2067.079201002194
 30
0.0
 42
-0.09389479
 70
     2
 50
52.55963135
  0
VERTEX
  5
1D23F
330
1D23D
100
AcDbEntity
  8
AM_0
100
AcDbVertex
100
AcDb2dVertex
 10
18999.57394283249
 20
2064.862770342193
 30
0.0
 42
-0.11611234
 70
     2
 50
67.50003052000005
  0
VERTEX
  5
1D240
330
1D23D
100
AcDbEntity
  8
AM_0
100
AcDbVertex
100
AcDb2dVertex
 10
19000.26235836249
 20
2061.986610672193
 30
0.0
 42
-0.0027903543324582
 70
     2
 50
90.0
  0
VERTEX
  5
1D241
330
1D23D
100
AcDbEntity
  8
AM_0
100
AcDbVertex
100
AcDb2dVertex
 10
19000.2616869725
 20
2061.914584743701
 30
0.0
 42
-0.07837996
 70
     2
 50
112.5
  0
SEQEND
  5
1D242
330
1D23D
100
AcDbEntity
  8
AM_0
  0
LINE
  5
1D243
330
1F
100
AcDbEntity
  8
AM_0
  6
AUSGEZOGEN
 62
     7
100
AcDbLine
 10
18950.58188962746
 20
2012.306386077158
 30
0.0
 11
18976.94834470746
 21
2012.306386077158
 31
0.0
  0
POLYLINE
  5
1D244
330
1F
100
AcDbEntity
  8
AM_0
  6
AUSGEZOGEN
 62
     7
100
AcDb2dPolyline
 66
     1
 10
0.0
 20
0.0
 30
0.0
  0
VERTEX
  5
1D245
330
1D244
100
AcDbEntity
  8
AM_0
  6
AUSGEZOGEN
 62
     7
100
AcDbVertex
100
AcDb2dVertex
 10
18950.67256678301
 20
2012.306386077158
 30
0.0
 42
-0.0035128718031917
 70
     2
 50
337.5
  0
VERTEX
  5
1D246
330
1D244
100
AcDbEntity
  8
AM_0
  6
AUSGEZOGEN
 62
     7
100
AcDbVertex
100
AcDb2dVertex
 10
18950.58188962746
 20
2012.305409517158
 30
0.0
 42
-0.11611241
 70
     2
  0
VERTEX
  5
1D247
330
1D244
100
AcDbEntity
  8
AM_0
  6
AUSGEZOGEN
 62
     7
100
AcDbVertex
100
AcDb2dVertex
 10
18947.70560788746
 20
2012.993855557158
 30
0.0
 42
-0.09388726
 70
     2
 50
22.49999999999999
  0
VERTEX
  5
1D248
330
1D244
100
AcDbEntity
  8
AM_0
  6
AUSGEZOGEN
 62
     7
100
AcDbVertex
100
AcDb2dVertex
 10
18945.48929929746
 20
2014.697835047158
 30
0.0
 50
22.5
  0
SEQEND
  5
1D249
330
1D244
100
AcDbEntity
  8
AM_0
  6
AUSGEZOGEN
 62
     7
  0
POLYLINE
  5
1D24A
330
1F
100
AcDbEntity
  8
AM_0
  6
AUSGEZOGEN
 62
     7
100
AcDb2dPolyline
 66
     1
 10
0.0
 20
0.0
 30
0.0
  0
VERTEX
  5
1D24B
330
1D24A
100
AcDbEntity
  8
AM_0
  6
AUSGEZOGEN
 62
     7
100
AcDbVertex
100
AcDb2dVertex
 10
18982.04166745746
 20
2014.698262297158
 30
0.0
 42
-0.09389479
 70
     2
 50
322.55963135
  0
VERTEX
  5
1D24C
330
1D24A
100
AcDbEntity
  8
AM_0
  6
AUSGEZOGEN
 62
     7
100
AcDbVertex
100
AcDb2dVertex
 10
18979.82523679746
 20
2012.994130217158
 30
0.0
 42
-0.11611234
 70
     2
 50
337.50003052
  0
VERTEX
  5
1D24D
330
1D24A
100
AcDbEntity
  8
AM_0
  6
AUSGEZOGEN
 62
     7
100
AcDbVertex
100
AcDb2dVertex
 10
18976.94907712746
 20
2012.305714687158
 30
0.0
 42
-0.0027903543324582
 70
     2
  0
VERTEX
  5
1D24E
330
1D24A
100
AcDbEntity
  8
AM_0
  6
AUSGEZOGEN
 62
     7
100
AcDbVertex
100
AcDb2dVertex
 10
18976.87705119897
 20
2012.306386077158
 30
0.0
 42
-0.07837996
 70
     2
 50
22.49999999999999
  0
SEQEND
  5
1D24F
330
1D24A
100
AcDbEntity
  8
AM_0
  6
AUSGEZOGEN
 62
     7
  0
LINE
  5
1D250
330
1F
100
AcDbEntity
  8
AM_0
100
AcDbLine
 10
18997.87023800249
 20
2030.526832842193
 30
0.0
 11
18987.87023800249
 21
2030.526832842193
 31
0.0
  0
LINE
  5
1D251
330
1F
100
AcDbEntity
  8
AM_0
100
AcDbLine
 10
18982.04166745746
 20
2014.698262297158
 30
0.0
 11
18982.04166745746
 21
2024.698262297158
 31
0.0
  0
ARC
  5
1D252
330
1F
100
AcDbEntity
  8
AM_0
100
AcDbCircle
 10
18987.87023800249
 20
2024.698262297158
 30
0.0
 40
5.828570545034835
100
AcDbArc
 50
90.0
 51
180.0
  0
ARC
  5
1D253
330
1F
100
AcDbEntity
  8
AM_0
100
AcDbCircle
 10
18987.87023800249
 20
2024.698262297158
 30
0.0
 40
42.38093870503417
100
AcDbArc
 50
90.0
 51
180.0
  0
LINE
  5
1D254
330
1F
100
AcDbEntity
  8
AM_0
100
AcDbLine
 10
18945.48856687746
 20
2014.698262297158
 30
0.0
 11
18945.48856687746
 21
2024.698262297158
 31
0.0
  0
LINE
  5
1D255
330
1F
100
AcDbEntity
  8
AM_0
100
AcDbLine
 10
18997.87023800249
 20
2067.079201002194
 30
0.0
 11
18987.87023800249
 21
2067.079201002194
 31
0.0
  0
LINE
  5
1D256
330
1F
100
AcDbEntity
  8
AM_0
  6
AUSGEZOGEN
 62
     7
100
AcDbLine
 10
19102.86650155656
 20
2088.780532991018
 30
0.0
 11
19187.7247190467
 21
2088.780532991018
 31
0.0
  0
LINE
  5
1D257
330
1F
100
AcDbEntity
  8
AM_0
  6
AUSGEZOGEN
 62
     7
100
AcDbLine
 10
19187.72478075879
 20
2095.09273275438
 30
0.0
 11
19102.86625468795
 21
2095.09273275438
 31
0.0
  0
LINE
  5
1D258
330
1F
100
AcDbEntity
  8
AM_0
  6
AUSGEZOGEN
 62
     7
100
AcDbLine
 10
19071.35716017422
 20
2075.474527501685
 30
0.0
 11
19072.68247772672
 21
2067.024316635199
 31
0.0
  0
LINE
  5
1D259
330
1F
100
AcDbEntity
  8
AM_0
  6
AUSGEZOGEN
 62
     7
100
AcDbLine
 10
19053.99694448458
 20
2075.474527501685
 30
0.0
 11
19052.67162694219
 21
2067.024316635199
 31
0.0
  0
LINE
  5
1D25A
330
1F
100
AcDbEntity
  8
AM_0
  6
AUSGEZOGEN
 62
     7
100
AcDbLine
 10
19053.99694448458
 20
2075.474527501685
 30
0.0
 11
19071.35716017422
 21
2075.474527501685
 31
0.0
  0
LINE
  5
1D25B
330
1F
100
AcDbEntity
  8
AM_0
  6
AUSGEZOGEN
 62
     7
100
AcDbLine
 10
19063.09623631814
 20
2080.735064269019
 30
0.0
 11
19051.11986858206
 21
2080.735064269019
 31
0.0
  0
LINE
  5
1D25C
330
1F
100
AcDbEntity
  8
AM_0
  6
AUSGEZOGEN
 62
     7
100
AcDbLine
 10
19051.11962170333
 20
2083.89091727703
 30
0.0
 11
19062.6770523294
 21
2083.89091727703
 31
0.0
  0
LINE
  5
1D25D
330
1F
100
AcDbEntity
  8
AM_0
  6
AUSGEZOGEN
 62
     7
100
AcDbLine
 10
19069.13873141275
 20
2080.734940834712
 30
0.0
 11
19055.37694357667
 21
2080.734940834712
 31
0.0
  0
LINE
  5
1D25E
330
1F
100
AcDbEntity
  8
AM_0
  6
AUSGEZOGEN
 62
     7
100
AcDbLine
 10
19069.13873141275
 20
2075.474527501685
 30
0.0
 11
19055.37694357667
 21
2075.474527501685
 31
0.0
  0
POLYLINE
  5
1D25F
330
1F
100
AcDbEntity
  8
AM_0
  6
AUSGEZOGEN
 62
     7
100
AcDb2dPolyline
 66
     1
 10
0.0
 20
0.0
 30
0.0
  0
VERTEX
  5
1D260
330
1D25F
100
AcDbEntity
  8
AM_0
  6
AUSGEZOGEN
 62
     7
100
AcDbVertex
100
AcDb2dVertex
 10
19066.89956563714
 20
2080.057269319153
 30
0.0
 42
0.07317886
 70
     2
 50
157.43267822
  0
VERTEX
  5
1D261
330
1D25F
100
AcDbEntity
  8
AM_0
  6
AUSGEZOGEN
 62
     7
100
AcDbVertex
100
AcDb2dVertex
 10
19062.25749804784
 20
2080.734894543055
 30
0.0
 42
0.07317256
 70
     2
 50
180.0
  0
VERTEX
  5
1D262
330
1D25F
100
AcDbEntity
  8
AM_0
  6
AUSGEZOGEN
 62
     7
100
AcDbVertex
100
AcDb2dVertex
 10
19057.61580077157
 20
2080.057377322908
 30
0.0
 50
270.0
  0
SEQEND
  5
1D263
330
1D25F
100
AcDbEntity
  8
AM_0
 62
     7
  0
POLYLINE
  5
1D264
330
1F
100
AcDbEntity
  8
AM_0
  6
AUSGEZOGEN
 62
     7
100
AcDb2dPolyline
 66
     1
 10
0.0
 20
0.0
 30
0.0
  0
VERTEX
  5
1D265
330
1D264
100
AcDbEntity
  8
AM_0
  6
AUSGEZOGEN
 62
     7
100
AcDbVertex
100
AcDb2dVertex
 10
19057.61580077157
 20
2076.152461306298
 30
0.0
 42
0.07317273
 70
     2
 50
337.43447876
  0
VERTEX
  5
1D266
330
1D264
100
AcDbEntity
  8
AM_0
  6
AUSGEZOGEN
 62
     7
100
AcDbVertex
100
AcDb2dVertex
 10
19062.25749804784
 20
2075.474944096264
 30
0.0
 42
0.07317872
 70
     2
  0
VERTEX
  5
1D267
330
1D264
100
AcDbEntity
  8
AM_0
  6
AUSGEZOGEN
 62
     7
100
AcDbVertex
100
AcDb2dVertex
 10
19066.89956563714
 20
2076.152569310053
 30
0.0
 50
90.0
  0
SEQEND
  5
1D268
330
1D264
100
AcDbEntity
  8
AM_0
 62
     7
  0
LINE
  5
1D269
330
1F
100
AcDbEntity
  8
AM_0
  6
AUSGEZOGEN
 62
     7
100
AcDbLine
 10
19069.5579771136
 20
2083.89091727703
 30
0.0
 11
19055.79612755531
 21
2083.89091727703
 31
0.0
  0
POLYLINE
  5
1D26A
330
1F
100
AcDbEntity
  8
AM_0
  6
AUSGEZOGEN
 62
     7
100
AcDb2dPolyline
 66
     1
 10
0.0
 20
0.0
 30
0.0
  0
VERTEX
  5
1D26B
330
1D26A
100
AcDbEntity
  8
AM_0
  6
AUSGEZOGEN
 62
     7
100
AcDbVertex
100
AcDb2dVertex
 10
19058.03504646231
 20
2084.568604213029
 30
0.0
 42
0.07317273
 70
     2
 50
337.43447876
  0
VERTEX
  5
1D26C
330
1D26A
100
AcDbEntity
  8
AM_0
  6
AUSGEZOGEN
 62
     7
100
AcDbVertex
100
AcDb2dVertex
 10
19062.67674374868
 20
2083.891086992883
 30
0.0
 42
0.07317872
 70
     2
  0
VERTEX
  5
1D26D
330
1D26A
100
AcDbEntity
  8
AM_0
  6
AUSGEZOGEN
 62
     7
100
AcDbVertex
100
AcDb2dVertex
 10
19067.31881133798
 20
2084.568712216784
 30
0.0
 50
90.0
  0
SEQEND
  5
1D26E
330
1D26A
100
AcDbEntity
  8
AM_0
 62
     7
  0
LINE
  5
1D26F
330
1F
100
AcDbEntity
  8
AM_0
  6
AUSGEZOGEN
 62
     7
100
AcDbLine
 10
19069.5579771136
 20
2089.151330599945
 30
0.0
 11
19055.79612755531
 21
2089.151330599945
 31
0.0
  0
POLYLINE
  5
1D270
330
1F
100
AcDbEntity
  8
AM_0
  6
AUSGEZOGEN
 62
     7
100
AcDb2dPolyline
 66
     1
 10
0.0
 20
0.0
 30
0.0
  0
VERTEX
  5
1D271
330
1D270
100
AcDbEntity
  8
AM_0
  6
AUSGEZOGEN
 62
     7
100
AcDbVertex
100
AcDb2dVertex
 10
19067.31881133798
 20
2088.473659094499
 30
0.0
 42
0.07317886
 70
     2
 50
157.43267822
  0
VERTEX
  5
1D272
330
1D270
100
AcDbEntity
  8
AM_0
  6
AUSGEZOGEN
 62
     7
100
AcDbVertex
100
AcDb2dVertex
 10
19062.67674374868
 20
2089.151284318399
 30
0.0
 42
0.07317256
 70
     2
 50
180.0
  0
VERTEX
  5
1D273
330
1D270
100
AcDbEntity
  8
AM_0
  6
AUSGEZOGEN
 62
     7
100
AcDbVertex
100
AcDb2dVertex
 10
19058.03504646231
 20
2088.473767098253
 30
0.0
 50
270.0
  0
SEQEND
  5
1D274
330
1D270
100
AcDbEntity
  8
AM_0
 62
     7
  0
LINE
  5
1D275
330
1F
100
AcDbEntity
  8
AM_0
  6
AUSGEZOGEN
 62
     7
100
AcDbLine
 10
19101.01158775968
 20
2090.358521217233
 30
0.0
 11
19101.01158775968
 21
2093.514497659551
 31
0.0
  0
POLYLINE
  5
1D276
330
1F
100
AcDbEntity
  8
AM_0
  6
AUSGEZOGEN
 62
     7
100
AcDb2dPolyline
 66
     1
 10
0.0
 20
0.0
 30
0.0
  0
VERTEX
  5
1D277
330
1D276
100
AcDbEntity
  8
AM_0
  6
AUSGEZOGEN
 62
     7
100
AcDbVertex
100
AcDb2dVertex
 10
19102.86619297585
 20
2095.092825327583
 30
0.0
 42
0.08490565
 70
     2
 50
180.0
  0
VERTEX
  5
1D278
330
1D276
100
AcDbEntity
  8
AM_0
  6
AUSGEZOGEN
 62
     7
100
AcDbVertex
100
AcDb2dVertex
 10
19102.15638216791
 20
2094.972692582352
 30
0.0
 42
0.0917884
 70
     2
 50
202.5000000000001
  0
VERTEX
  5
1D279
330
1D276
100
AcDbEntity
  8
AM_0
  6
AUSGEZOGEN
 62
     7
100
AcDbVertex
100
AcDb2dVertex
 10
19101.55457667188
 20
2094.630608946097
 30
0.0
 42
0.10355989
 70
     2
 50
225.0
  0
VERTEX
  5
1D27A
330
1D276
100
AcDbEntity
  8
AM_0
  6
AUSGEZOGEN
 62
     7
100
AcDbVertex
100
AcDb2dVertex
 10
19101.15248838016
 20
2094.118648417522
 30
0.0
 42
0.11375958
 70
     2
 50
247.5
  0
VERTEX
  5
1D27B
330
1D276
100
AcDbEntity
  8
AM_0
  6
AUSGEZOGEN
 62
     7
100
AcDbVertex
100
AcDb2dVertex
 10
19101.01127917897
 20
2093.514744528166
 30
0.0
 50
337.5
  0
SEQEND
  5
1D27C
330
1D276
100
AcDbEntity
  8
AM_0
 62
     7
  0
POLYLINE
  5
1D27D
330
1F
100
AcDbEntity
  8
AM_0
  6
AUSGEZOGEN
 62
     7
100
AcDb2dPolyline
 66
     1
 10
0.0
 20
0.0
 30
0.0
  0
VERTEX
  5
1D27E
330
1D27D
100
AcDbEntity
  8
AM_0
  6
AUSGEZOGEN
 62
     7
100
AcDbVertex
100
AcDb2dVertex
 10
19101.01127917897
 20
2090.358521217233
 30
0.0
 42
0.11375958
 70
     2
 50
270.0
  0
VERTEX
  5
1D27F
330
1D27D
100
AcDbEntity
  8
AM_0
  6
AUSGEZOGEN
 62
     7
100
AcDbVertex
100
AcDb2dVertex
 10
19101.15248838016
 20
2089.754617327877
 30
0.0
 42
0.10355993
 70
     2
 50
292.5
  0
VERTEX
  5
1D280
330
1D27D
100
AcDbEntity
  8
AM_0
  6
AUSGEZOGEN
 62
     7
100
AcDbVertex
100
AcDb2dVertex
 10
19101.55457667188
 20
2089.242656799302
 30
0.0
 42
0.09178846
 70
     2
 50
315.0
  0
VERTEX
  5
1D281
330
1D27D
100
AcDbEntity
  8
AM_0
  6
AUSGEZOGEN
 62
     7
100
AcDbVertex
100
AcDb2dVertex
 10
19102.15638216791
 20
2088.900573163047
 30
0.0
 42
0.08490552
 70
     2
 50
337.5
  0
VERTEX
  5
1D282
330
1D27D
100
AcDbEntity
  8
AM_0
  6
AUSGEZOGEN
 62
     7
100
AcDbVertex
100
AcDb2dVertex
 10
19102.86619297585
 20
2088.780440417816
 30
0.0
 50
67.5
  0
SEQEND
  5
1D283
330
1D27D
100
AcDbEntity
  8
AM_0
 62
     7
  0
LINE
  5
1D284
330
1F
100
AcDbEntity
  8
AM_0
  6
AUSGEZOGEN
 62
     7
100
AcDbLine
 10
19101.01158775968
 20
2093.514744528166
 30
0.0
 11
19090.9119817535
 21
2093.514744528166
 31
0.0
  0
LINE
  5
1D285
330
1F
100
AcDbEntity
  8
AM_0
  6
AUSGEZOGEN
 62
     7
100
AcDbLine
 10
19101.01158775968
 20
2090.358521217233
 30
0.0
 11
19090.9119817535
 21
2090.358521217233
 31
0.0
  0
POLYLINE
  5
1D286
330
1F
100
AcDbEntity
  8
AM_0
  6
AUSGEZOGEN
 62
     7
100
AcDb2dPolyline
 66
     1
 10
0.0
 20
0.0
 30
0.0
  0
VERTEX
  5
1D287
330
1D286
100
AcDbEntity
  8
AM_0
  6
AUSGEZOGEN
 62
     7
100
AcDbVertex
100
AcDb2dVertex
 10
19090.9119817535
 20
2090.358721794189
 30
0.0
 42
0.08490539
 70
     2
 50
180.0
  0
VERTEX
  5
1D288
330
1D286
100
AcDbEntity
  8
AM_0
  6
AUSGEZOGEN
 62
     7
100
AcDbVertex
100
AcDb2dVertex
 10
19090.67535758015
 20
2090.318682696039
 30
0.0
 42
0.09178853
 70
     2
 50
202.5000000000001
  0
VERTEX
  5
1D289
330
1D286
100
AcDbEntity
  8
AM_0
  6
AUSGEZOGEN
 62
     7
100
AcDbVertex
100
AcDb2dVertex
 10
19090.47477631547
 20
2090.204644533623
 30
0.0
 42
0.04560439
 70
     2
 50
225.0
  0
VERTEX
  5
1D28A
330
1D286
100
AcDbEntity
  8
AM_0
  6
AUSGEZOGEN
 62
     7
100
AcDbVertex
100
AcDb2dVertex
 10
19090.4038014069
 20
2090.132311837558
 30
0.0
 50
315.0
  0
SEQEND
  5
1D28B
330
1D286
100
AcDbEntity
  8
AM_0
 62
     7
  0
POLYLINE
  5
1D28C
330
1F
100
AcDbEntity
  8
AM_0
  6
AUSGEZOGEN
 62
     7
100
AcDb2dPolyline
 66
     1
 10
0.0
 20
0.0
 30
0.0
  0
VERTEX
  5
1D28D
330
1D28C
100
AcDbEntity
  8
AM_0
  6
AUSGEZOGEN
 62
     7
100
AcDbVertex
100
AcDb2dVertex
 10
19080.48249670725
 20
2083.891086992883
 30
0.0
 42
0.08490556
 70
     2
  0
VERTEX
  5
1D28E
330
1D28C
100
AcDbEntity
  8
AM_0
  6
AUSGEZOGEN
 62
     7
100
AcDbVertex
100
AcDb2dVertex
 10
19080.71912088059
 20
2083.931141531699
 30
0.0
 42
0.09178843
 70
     2
 50
22.49999999999999
  0
VERTEX
  5
1D28F
330
1D28C
100
AcDbEntity
  8
AM_0
  6
AUSGEZOGEN
 62
     7
100
AcDbVertex
100
AcDb2dVertex
 10
19080.91970214527
 20
2084.045164263562
 30
0.0
 42
0.04561086
 70
     2
 50
44.99999999999999
  0
VERTEX
  5
1D290
330
1D28C
100
AcDbEntity
  8
AM_0
  6
AUSGEZOGEN
 62
     7
100
AcDbVertex
100
AcDb2dVertex
 10
19080.99070791495
 20
2084.117496949513
 30
0.0
 50
135.0
  0
SEQEND
  5
1D291
330
1D28C
100
AcDbEntity
  8
AM_0
 62
     7
  0
POLYLINE
  5
1D292
330
1F
100
AcDbEntity
  8
AM_0
  6
AUSGEZOGEN
 62
     7
100
AcDb2dPolyline
 66
     1
 10
0.0
 20
0.0
 30
0.0
  0
VERTEX
  5
1D293
330
1D292
100
AcDbEntity
  8
AM_0
  6
AUSGEZOGEN
 62
     7
100
AcDbVertex
100
AcDb2dVertex
 10
19080.48249670725
 20
2080.734940834712
 30
0.0
 42
0.08490556
 70
     2
  0
VERTEX
  5
1D294
330
1D292
100
AcDbEntity
  8
AM_0
  6
AUSGEZOGEN
 62
     7
100
AcDbVertex
100
AcDb2dVertex
 10
19082.13877333736
 20
2081.015230002885
 30
0.0
 42
0.09178843
 70
     2
 50
22.49999999999999
  0
VERTEX
  5
1D295
330
1D292
100
AcDbEntity
  8
AM_0
  6
AUSGEZOGEN
 62
     7
100
AcDbVertex
100
AcDb2dVertex
 10
19083.54290389211
 20
2081.813419987037
 30
0.0
 42
0.04560899
 70
     2
 50
44.99999999999999
  0
VERTEX
  5
1D296
330
1D292
100
AcDbEntity
  8
AM_0
  6
AUSGEZOGEN
 62
     7
100
AcDbVertex
100
AcDb2dVertex
 10
19084.03988254754
 20
2082.319795100578
 30
0.0
 50
135.0
  0
SEQEND
  5
1D297
330
1D292
100
AcDbEntity
  8
AM_0
 62
     7
  0
LINE
  5
1D298
330
1F
100
AcDbEntity
  8
AM_0
  6
AUSGEZOGEN
 62
     7
100
AcDbLine
 10
19071.54138635782
 20
2076.272902642353
 30
0.0
 11
19071.54138635782
 21
2079.936689118239
 31
0.0
  0
LINE
  5
1D299
330
1F
100
AcDbEntity
  8
AM_0
  6
AUSGEZOGEN
 62
     7
100
AcDbLine
 10
19066.89956563714
 20
2076.15218357658
 30
0.0
 11
19066.89956563714
 21
2080.057284749706
 31
0.0
  0
POLYLINE
  5
1D29A
330
1F
100
AcDbEntity
  8
AM_0
  6
AUSGEZOGEN
 62
     7
100
AcDb2dPolyline
 66
     1
 10
0.0
 20
0.0
 30
0.0
  0
VERTEX
  5
1D29B
330
1D29A
100
AcDbEntity
  8
AM_0
  6
AUSGEZOGEN
 62
     7
100
AcDbVertex
100
AcDb2dVertex
 10
19071.54104690589
 20
2079.936550263493
 30
0.0
 42
0.08167321
 70
     2
 50
132.7212524399999
  0
VERTEX
  5
1D29C
330
1D29A
100
AcDbEntity
  8
AM_0
  6
AUSGEZOGEN
 62
     7
100
AcDbVertex
100
AcDb2dVertex
 10
19070.49540136014
 20
2080.504966693505
 30
0.0
 42
0.08490545
 70
     2
 50
157.5
  0
VERTEX
  5
1D29D
330
1D29A
100
AcDbEntity
  8
AM_0
  6
AUSGEZOGEN
 62
     7
100
AcDbVertex
100
AcDb2dVertex
 10
19069.13842283204
 20
2080.734601382784
 30
0.0
 42
0.08490552
 70
     2
 50
180.0
  0
VERTEX
  5
1D29E
330
1D29A
100
AcDbEntity
  8
AM_0
  6
AUSGEZOGEN
 62
     7
100
AcDbVertex
100
AcDb2dVertex
 10
19067.78144430393
 20
2080.504966693505
 30
0.0
 42
0.06685252
 70
     2
 50
202.5000000000001
  0
VERTEX
  5
1D29F
330
1D29A
100
AcDbEntity
  8
AM_0
  6
AUSGEZOGEN
 62
     7
100
AcDbVertex
100
AcDb2dVertex
 10
19066.89950391492
 20
2080.057207607056
 30
0.0
 50
292.5
  0
SEQEND
  5
1D2A0
330
1D29A
100
AcDbEntity
  8
AM_0
 62
     7
  0
POLYLINE
  5
1D2A1
330
1F
100
AcDbEntity
  8
AM_0
  6
AUSGEZOGEN
 62
     7
100
AcDb2dPolyline
 66
     1
 10
0.0
 20
0.0
 30
0.0
  0
VERTEX
  5
1D2A2
330
1D2A1
100
AcDbEntity
  8
AM_0
  6
AUSGEZOGEN
 62
     7
100
AcDbVertex
100
AcDb2dVertex
 10
19067.31902734549
 20
2084.56838820552
 30
0.0
 42
0.06685811
 70
     2
 50
316.25561523
  0
VERTEX
  5
1D2A3
330
1D2A1
100
AcDbEntity
  8
AM_0
  6
AUSGEZOGEN
 62
     7
100
AcDbVertex
100
AcDb2dVertex
 10
19068.20124545411
 20
2084.120474813547
 30
0.0
 42
0.08490556
 70
     2
 50
337.5
  0
VERTEX
  5
1D2A4
330
1D2A1
100
AcDbEntity
  8
AM_0
  6
AUSGEZOGEN
 62
     7
100
AcDbVertex
100
AcDb2dVertex
 10
19069.55853257303
 20
2083.890778412171
 30
0.0
 42
0.08490556
 70
     2
  0
VERTEX
  5
1D2A5
330
1D2A1
100
AcDbEntity
  8
AM_0
  6
AUSGEZOGEN
 62
     7
100
AcDbVertex
100
AcDb2dVertex
 10
19070.91585054295
 20
2084.120474813547
 30
0.0
 42
0.08161413
 70
     2
 50
22.49999999999999
  0
VERTEX
  5
1D2A6
330
1D2A1
100
AcDbEntity
  8
AM_0
  6
AUSGEZOGEN
 62
     7
100
AcDbVertex
100
AcDb2dVertex
 10
19071.96109493479
 20
2084.688536381303
 30
0.0
 50
112.5
  0
SEQEND
  5
1D2A7
330
1D2A1
100
AcDbEntity
  8
AM_0
 62
     7
  0
POLYLINE
  5
1D2A8
330
1F
100
AcDbEntity
  8
AM_0
  6
AUSGEZOGEN
 62
     7
100
AcDb2dPolyline
 66
     1
 10
0.0
 20
0.0
 30
0.0
  0
VERTEX
  5
1D2A9
330
1D2A8
100
AcDbEntity
  8
AM_0
  6
AUSGEZOGEN
 62
     7
100
AcDbVertex
100
AcDb2dVertex
 10
19066.89947306393
 20
2076.152121864482
 30
0.0
 42
0.06685811
 70
     2
 50
316.25561523
  0
VERTEX
  5
1D2AA
330
1D2A8
100
AcDbEntity
  8
AM_0
  6
AUSGEZOGEN
 62
     7
100
AcDbVertex
100
AcDb2dVertex
 10
19067.78169117255
 20
2075.70420847251
 30
0.0
 42
0.08490556
 70
     2
 50
337.5
  0
VERTEX
  5
1D2AB
330
1D2A8
100
AcDbEntity
  8
AM_0
  6
AUSGEZOGEN
 62
     7
100
AcDbVertex
100
AcDb2dVertex
 10
19069.13897828136
 20
2075.474512071133
 30
0.0
 42
0.08490556
 70
     2
  0
VERTEX
  5
1D2AC
330
1D2A8
100
AcDbEntity
  8
AM_0
  6
AUSGEZOGEN
 62
     7
100
AcDbVertex
100
AcDb2dVertex
 10
19070.49629626139
 20
2075.70420847251
 30
0.0
 42
0.08161413
 70
     2
 50
22.49999999999999
  0
VERTEX
  5
1D2AD
330
1D2A8
100
AcDbEntity
  8
AM_0
  6
AUSGEZOGEN
 62
     7
100
AcDbVertex
100
AcDb2dVertex
 10
19071.54154064311
 20
2076.272270040266
 30
0.0
 50
112.5
  0
SEQEND
  5
1D2AE
330
1D2A8
100
AcDbEntity
  8
AM_0
 62
     7
  0
LINE
  5
1D2AF
330
1F
100
AcDbEntity
  8
AM_0
  6
AUSGEZOGEN
 62
     7
100
AcDbLine
 10
19062.25780663866
 20
2080.735064269019
 30
0.0
 11
19080.48305216668
 21
2080.735064269019
 31
0.0
  0
LINE
  5
1D2B0
330
1F
100
AcDbEntity
  8
AM_0
  6
AUSGEZOGEN
 62
     7
100
AcDbLine
 10
19080.48280529807
 20
2083.89091727703
 30
0.0
 11
19062.6770523294
 21
2083.89091727703
 31
0.0
  0
POLYLINE
  5
1D2B1
330
1F
100
AcDbEntity
  8
AM_0
  6
AUSGEZOGEN
 62
     7
100
AcDb2dPolyline
 66
     1
 10
0.0
 20
0.0
 30
0.0
  0
VERTEX
  5
1D2B2
330
1D2B1
100
AcDbEntity
  8
AM_0
  6
AUSGEZOGEN
 62
     7
100
AcDbVertex
100
AcDb2dVertex
 10
19071.96029260674
 20
2088.352940028725
 30
0.0
 42
0.08167321
 70
     2
 50
132.7212524399999
  0
VERTEX
  5
1D2B3
330
1D2B1
100
AcDbEntity
  8
AM_0
  6
AUSGEZOGEN
 62
     7
100
AcDbVertex
100
AcDb2dVertex
 10
19070.91464705087
 20
2088.921356468849
 30
0.0
 42
0.08490545
 70
     2
 50
157.5
  0
VERTEX
  5
1D2B4
330
1D2B1
100
AcDbEntity
  8
AM_0
  6
AUSGEZOGEN
 62
     7
100
AcDbVertex
100
AcDb2dVertex
 10
19069.55766852277
 20
2089.150991158128
 30
0.0
 42
0.08490552
 70
     2
 50
180.0
  0
VERTEX
  5
1D2B5
330
1D2B1
100
AcDbEntity
  8
AM_0
  6
AUSGEZOGEN
 62
     7
100
AcDbVertex
100
AcDb2dVertex
 10
19068.20068999467
 20
2088.921356468849
 30
0.0
 42
0.06685252
 70
     2
 50
202.5000000000001
  0
VERTEX
  5
1D2B6
330
1D2B1
100
AcDbEntity
  8
AM_0
  6
AUSGEZOGEN
 62
     7
100
AcDbVertex
100
AcDb2dVertex
 10
19067.31874961577
 20
2088.473597372288
 30
0.0
 50
292.5
  0
SEQEND
  5
1D2B7
330
1D2B1
100
AcDbEntity
  8
AM_0
 62
     7
  0
LINE
  5
1D2B8
330
1F
100
AcDbEntity
  8
AM_0
  6
AUSGEZOGEN
 62
     7
100
AcDbLine
 10
19080.99135594759
 20
2084.117419806863
 30
0.0
 11
19087.35478106972
 21
2091.929473667721
 31
0.0
  0
LINE
  5
1D2B9
330
1F
100
AcDbEntity
  8
AM_0
  6
AUSGEZOGEN
 62
     7
100
AcDbLine
 10
19071.96063204855
 20
2084.689292417698
 30
0.0
 11
19071.96063204855
 21
2088.352955459277
 31
0.0
  0
LINE
  5
1D2BA
330
1F
100
AcDbEntity
  8
AM_0
  6
AUSGEZOGEN
 62
     7
100
AcDbLine
 10
19067.31911991869
 20
2084.568573351924
 30
0.0
 11
19067.31911991869
 21
2088.47367452505
 31
0.0
  0
POLYLINE
  5
1D2BB
330
1F
100
AcDbEntity
  8
AM_0
  6
AUSGEZOGEN
 62
     7
100
AcDb2dPolyline
 66
     1
 10
0.0
 20
0.0
 30
0.0
  0
VERTEX
  5
1D2BC
330
1D2BB
100
AcDbEntity
  8
AM_0
  6
AUSGEZOGEN
 62
     7
100
AcDbVertex
100
AcDb2dVertex
 10
19090.9119817535
 20
2093.514867962473
 30
0.0
 42
0.08490539
 70
     2
 50
180.0
  0
VERTEX
  5
1D2BD
330
1D2BB
100
AcDbEntity
  8
AM_0
  6
AUSGEZOGEN
 62
     7
100
AcDbVertex
100
AcDb2dVertex
 10
19089.25567426227
 20
2093.234578794298
 30
0.0
 42
0.09178853
 70
     2
 50
202.5000000000001
  0
VERTEX
  5
1D2BE
330
1D2BB
100
AcDbEntity
  8
AM_0
  6
AUSGEZOGEN
 62
     7
100
AcDbVertex
100
AcDb2dVertex
 10
19087.85154370753
 20
2092.436388800036
 30
0.0
 42
0.04561013
 70
     2
 50
225.0
  0
VERTEX
  5
1D2BF
330
1D2BB
100
AcDbEntity
  8
AM_0
  6
AUSGEZOGEN
 62
     7
100
AcDbVertex
100
AcDb2dVertex
 10
19087.35459591321
 20
2091.929998266055
 30
0.0
 50
315.0
  0
SEQEND
  5
1D2C0
330
1D2BB
100
AcDbEntity
  8
AM_0
 62
     7
  0
LINE
  5
1D2C1
330
1F
100
AcDbEntity
  8
AM_0
  6
AUSGEZOGEN
 62
     7
100
AcDbLine
 10
19090.4037396948
 20
2090.132018687399
 30
0.0
 11
19084.04031456256
 21
2082.319964826541
 31
0.0
  0
LINE
  5
1D2C2
330
1F
100
AcDbEntity
  8
AM_0
  6
AUSGEZOGEN
 62
     7
100
AcDbLine
 10
19050.50102909099
 20
2080.208739028721
 30
0.0
 11
19050.50102909099
 21
2076.780465807306
 31
0.0
  0
LINE
  5
1D2C3
330
1F
100
AcDbEntity
  8
AM_0
  6
AUSGEZOGEN
 62
     7
100
AcDbLine
 10
19046.79144836585
 20
2076.780712675921
 30
0.0
 11
19046.79144836585
 21
2080.208985897334
 31
0.0
  0
POLYLINE
  5
1D2C4
330
1F
100
AcDbEntity
  8
AM_0
  6
AUSGEZOGEN
 62
     7
100
AcDb2dPolyline
 66
     1
 10
0.0
 20
0.0
 30
0.0
  0
VERTEX
  5
1D2C5
330
1D2C4
100
AcDbEntity
  8
AM_0
  6
AUSGEZOGEN
 62
     7
100
AcDbVertex
100
AcDb2dVertex
 10
19051.11931312262
 20
2083.89091727703
 30
0.0
 42
0.08490552
 70
     2
 50
180.0
  0
VERTEX
  5
1D2C6
330
1D2C4
100
AcDbEntity
  8
AM_0
  6
AUSGEZOGEN
 62
     7
100
AcDbVertex
100
AcDb2dVertex
 10
19049.4630364925
 20
2083.610628098745
 30
0.0
 42
0.09178853
 70
     2
 50
202.5000000000001
  0
VERTEX
  5
1D2C7
330
1D2C4
100
AcDbEntity
  8
AM_0
  6
AUSGEZOGEN
 62
     7
100
AcDbVertex
100
AcDb2dVertex
 10
19048.05890593776
 20
2082.812438114593
 30
0.0
 42
0.10355989
 70
     2
 50
225.0
  0
VERTEX
  5
1D2C8
330
1D2C4
100
AcDbEntity
  8
AM_0
  6
AUSGEZOGEN
 62
     7
100
AcDbVertex
100
AcDb2dVertex
 10
19047.12067936316
 20
2081.617853257514
 30
0.0
 42
0.11375958
 70
     2
 50
247.5
  0
VERTEX
  5
1D2C9
330
1D2C4
100
AcDbEntity
  8
AM_0
  6
AUSGEZOGEN
 62
     7
100
AcDbVertex
100
AcDb2dVertex
 10
19046.79123235833
 20
2080.208739028721
 30
0.0
 50
337.5
  0
SEQEND
  5
1D2CA
330
1D2C4
100
AcDbEntity
  8
AM_0
 62
     7
  0
POLYLINE
  5
1D2CB
330
1F
100
AcDbEntity
  8
AM_0
  6
AUSGEZOGEN
 62
     7
100
AcDb2dPolyline
 66
     1
 10
0.0
 20
0.0
 30
0.0
  0
VERTEX
  5
1D2CC
330
1D2CB
100
AcDbEntity
  8
AM_0
  6
AUSGEZOGEN
 62
     7
100
AcDbVertex
100
AcDb2dVertex
 10
19051.11931312262
 20
2080.734771108748
 30
0.0
 42
0.08490539
 70
     2
 50
180.0
  0
VERTEX
  5
1D2CD
330
1D2CB
100
AcDbEntity
  8
AM_0
  6
AUSGEZOGEN
 62
     7
100
AcDbVertex
100
AcDb2dVertex
 10
19050.88268894926
 20
2080.694716569932
 30
0.0
 42
0.09178853
 70
     2
 50
202.5000000000001
  0
VERTEX
  5
1D2CE
330
1D2CB
100
AcDbEntity
  8
AM_0
  6
AUSGEZOGEN
 62
     7
100
AcDbVertex
100
AcDb2dVertex
 10
19050.6821076846
 20
2080.580693838069
 30
0.0
 42
0.10355989
 70
     2
 50
225.0
  0
VERTEX
  5
1D2CF
330
1D2CB
100
AcDbEntity
  8
AM_0
  6
AUSGEZOGEN
 62
     7
100
AcDbVertex
100
AcDb2dVertex
 10
19050.54808854443
 20
2080.41004546869
 30
0.0
 42
0.11375958
 70
     2
 50
247.5
  0
VERTEX
  5
1D2D0
330
1D2CB
100
AcDbEntity
  8
AM_0
  6
AUSGEZOGEN
 62
     7
100
AcDbVertex
100
AcDb2dVertex
 10
19050.50102909099
 20
2080.208739028721
 30
0.0
 50
337.5
  0
SEQEND
  5
1D2D1
330
1D2CB
100
AcDbEntity
  8
AM_0
 62
     7
  0
LINE
  5
1D2D2
330
1F
100
AcDbEntity
  8
AM_0
  6
AUSGEZOGEN
 62
     7
100
AcDbLine
 10
19046.79144836585
 20
2076.780712675921
 30
0.0
 11
19050.50102909099
 21
2076.780712675921
 31
0.0
  0
LINE
  5
1D2D3
330
1F
100
AcDbEntity
  8
AM_0
  6
AUSGEZOGEN
 62
     7
100
AcDbLine
 10
19052.9741651973
 20
2076.272655773739
 30
0.0
 11
19052.9741651973
 21
2079.936318815319
 31
0.0
  0
LINE
  5
1D2D4
330
1F
100
AcDbEntity
  8
AM_0
  6
AUSGEZOGEN
 62
     7
100
AcDbLine
 10
19057.61604764019
 20
2076.151936707965
 30
0.0
 11
19057.61604764019
 21
2080.057284749706
 31
0.0
  0
POLYLINE
  5
1D2D5
330
1F
100
AcDbEntity
  8
AM_0
  6
AUSGEZOGEN
 62
     7
100
AcDb2dPolyline
 66
     1
 10
0.0
 20
0.0
 30
0.0
  0
VERTEX
  5
1D2D6
330
1D2D5
100
AcDbEntity
  8
AM_0
  6
AUSGEZOGEN
 62
     7
100
AcDbVertex
100
AcDb2dVertex
 10
19057.61549218075
 20
2080.057577909976
 30
0.0
 42
0.06685259
 70
     2
 50
136.2569580099999
  0
VERTEX
  5
1D2D7
330
1D2D5
100
AcDbEntity
  8
AM_0
  6
AUSGEZOGEN
 62
     7
100
AcDbVertex
100
AcDb2dVertex
 10
19056.73355180185
 20
2080.505337006538
 30
0.0
 42
0.08490545
 70
     2
 50
157.5
  0
VERTEX
  5
1D2D8
330
1D2D5
100
AcDbEntity
  8
AM_0
  6
AUSGEZOGEN
 62
     7
100
AcDbVertex
100
AcDb2dVertex
 10
19055.37657327375
 20
2080.734971685704
 30
0.0
 42
0.08490552
 70
     2
 50
180.0
  0
VERTEX
  5
1D2D9
330
1D2D5
100
AcDbEntity
  8
AM_0
  6
AUSGEZOGEN
 62
     7
100
AcDbVertex
100
AcDb2dVertex
 10
19054.01959474565
 20
2080.505337006538
 30
0.0
 42
0.08167321
 70
     2
 50
202.5000000000001
  0
VERTEX
  5
1D2DA
330
1D2D5
100
AcDbEntity
  8
AM_0
  6
AUSGEZOGEN
 62
     7
100
AcDbVertex
100
AcDb2dVertex
 10
19052.97394918979
 20
2079.936920566414
 30
0.0
 50
292.5
  0
SEQEND
  5
1D2DB
330
1D2D5
100
AcDbEntity
  8
AM_0
 62
     7
  0
POLYLINE
  5
1D2DC
330
1F
100
AcDbEntity
  8
AM_0
  6
AUSGEZOGEN
 62
     7
100
AcDb2dPolyline
 66
     1
 10
0.0
 20
0.0
 30
0.0
  0
VERTEX
  5
1D2DD
330
1D2DC
100
AcDbEntity
  8
AM_0
  6
AUSGEZOGEN
 62
     7
100
AcDbVertex
100
AcDb2dVertex
 10
19053.39239256258
 20
2084.688536381303
 30
0.0
 42
0.08161401
 70
     2
 50
312.7350768999999
  0
VERTEX
  5
1D2DE
330
1D2DC
100
AcDbEntity
  8
AM_0
  6
AUSGEZOGEN
 62
     7
100
AcDbVertex
100
AcDb2dVertex
 10
19054.43766780541
 20
2084.120474813547
 30
0.0
 42
0.08490556
 70
     2
 50
337.5
  0
VERTEX
  5
1D2DF
330
1D2DC
100
AcDbEntity
  8
AM_0
  6
AUSGEZOGEN
 62
     7
100
AcDbVertex
100
AcDb2dVertex
 10
19055.79495492434
 20
2083.890778412171
 30
0.0
 42
0.08490556
 70
     2
  0
VERTEX
  5
1D2E0
330
1D2DC
100
AcDbEntity
  8
AM_0
  6
AUSGEZOGEN
 62
     7
100
AcDbVertex
100
AcDb2dVertex
 10
19057.15227289425
 20
2084.120474813547
 30
0.0
 42
0.06685821
 70
     2
 50
22.49999999999999
  0
VERTEX
  5
1D2E1
330
1D2DC
100
AcDbEntity
  8
AM_0
  6
AUSGEZOGEN
 62
     7
100
AcDbVertex
100
AcDb2dVertex
 10
19058.03446015188
 20
2084.56838820552
 30
0.0
 50
112.5
  0
SEQEND
  5
1D2E2
330
1D2DC
100
AcDbEntity
  8
AM_0
 62
     7
  0
POLYLINE
  5
1D2E3
330
1F
100
AcDbEntity
  8
AM_0
  6
AUSGEZOGEN
 62
     7
100
AcDb2dPolyline
 66
     1
 10
0.0
 20
0.0
 30
0.0
  0
VERTEX
  5
1D2E4
330
1D2E3
100
AcDbEntity
  8
AM_0
  6
AUSGEZOGEN
 62
     7
100
AcDbVertex
100
AcDb2dVertex
 10
19052.97345545256
 20
2076.272516908879
 30
0.0
 42
0.08161401
 70
     2
 50
312.7350768999999
  0
VERTEX
  5
1D2E5
330
1D2E3
100
AcDbEntity
  8
AM_0
  6
AUSGEZOGEN
 62
     7
100
AcDbVertex
100
AcDb2dVertex
 10
19054.01873069539
 20
2075.704455341123
 30
0.0
 42
0.08490556
 70
     2
 50
337.5
  0
VERTEX
  5
1D2E6
330
1D2E3
100
AcDbEntity
  8
AM_0
  6
AUSGEZOGEN
 62
     7
100
AcDbVertex
100
AcDb2dVertex
 10
19055.37601781431
 20
2075.474758939747
 30
0.0
 42
0.08490556
 70
     2
  0
VERTEX
  5
1D2E7
330
1D2E3
100
AcDbEntity
  8
AM_0
  6
AUSGEZOGEN
 62
     7
100
AcDbVertex
100
AcDb2dVertex
 10
19056.73333578423
 20
2075.704455341123
 30
0.0
 42
0.06685821
 70
     2
 50
22.49999999999999
  0
VERTEX
  5
1D2E8
330
1D2E3
100
AcDbEntity
  8
AM_0
  6
AUSGEZOGEN
 62
     7
100
AcDbVertex
100
AcDb2dVertex
 10
19057.61552304185
 20
2076.152368733096
 30
0.0
 50
112.5
  0
SEQEND
  5
1D2E9
330
1D2E3
100
AcDbEntity
  8
AM_0
 62
     7
  0
POLYLINE
  5
1D2EA
330
1F
100
AcDbEntity
  8
AM_0
  6
AUSGEZOGEN
 62
     7
100
AcDb2dPolyline
 66
     1
 10
0.0
 20
0.0
 30
0.0
  0
VERTEX
  5
1D2EB
330
1D2EA
100
AcDbEntity
  8
AM_0
  6
AUSGEZOGEN
 62
     7
100
AcDbVertex
100
AcDb2dVertex
 10
19058.03473788159
 20
2088.473597372288
 30
0.0
 42
0.06685259
 70
     2
 50
136.2569580099999
  0
VERTEX
  5
1D2EC
330
1D2EA
100
AcDbEntity
  8
AM_0
  6
AUSGEZOGEN
 62
     7
100
AcDbVertex
100
AcDb2dVertex
 10
19057.15279749259
 20
2088.921356468849
 30
0.0
 42
0.08490545
 70
     2
 50
157.5
  0
VERTEX
  5
1D2ED
330
1D2EA
100
AcDbEntity
  8
AM_0
  6
AUSGEZOGEN
 62
     7
100
AcDbVertex
100
AcDb2dVertex
 10
19055.79581896449
 20
2089.150991158128
 30
0.0
 42
0.08490552
 70
     2
 50
180.0
  0
VERTEX
  5
1D2EE
330
1D2EA
100
AcDbEntity
  8
AM_0
  6
AUSGEZOGEN
 62
     7
100
AcDbVertex
100
AcDb2dVertex
 10
19054.43884043639
 20
2088.921356468849
 30
0.0
 42
0.08167321
 70
     2
 50
202.5000000000001
  0
VERTEX
  5
1D2EF
330
1D2EA
100
AcDbEntity
  8
AM_0
  6
AUSGEZOGEN
 62
     7
100
AcDbVertex
100
AcDb2dVertex
 10
19053.39319489063
 20
2088.352940028725
 30
0.0
 50
292.5
  0
SEQEND
  5
1D2F0
330
1D2EA
100
AcDbEntity
  8
AM_0
 62
     7
  0
LINE
  5
1D2F1
330
1F
100
AcDbEntity
  8
AM_0
  6
AUSGEZOGEN
 62
     7
100
AcDbLine
 10
19053.39347262034
 20
2084.688922114777
 30
0.0
 11
19053.39347262034
 21
2088.352708590663
 31
0.0
  0
LINE
  5
1D2F2
330
1F
100
AcDbEntity
  8
AM_0
  6
AUSGEZOGEN
 62
     7
100
AcDbLine
 10
19058.03498475021
 20
2084.568326483311
 30
0.0
 11
19058.03498475021
 21
2088.473427656437
 31
0.0
  0
ARC
  5
1D2F3
330
1F
100
AcDbEntity
  8
AM_0
  6
AUSGEZOGEN
 62
     7
100
AcDbCircle
 10
19096.70921225304
 20
2048.802527277886
 30
0.0
 40
17.85372274380553
100
AcDbArc
 50
150.7584991499574
 51
209.2415161099031
  0
ARC
  5
1D2F4
330
1F
100
AcDbEntity
  8
AM_0
  6
AUSGEZOGEN
 62
     7
100
AcDbCircle
 10
19028.64446039074
 20
2048.802527277886
 30
0.0
 40
17.85372274380553
100
AcDbArc
 50
330.7584838900969
 51
29.24150085004262
  0
LINE
  5
1D2F5
330
1F
100
AcDbEntity
  8
AM_0
  6
AUSGEZOGEN
 62
     7
100
AcDbLine
 10
19101.10181847072
 20
2057.52194905568
 30
0.0
 11
19081.12836837224
 21
2057.52194905568
 31
0.0
  0
LINE
  5
1D2F6
330
1F
100
AcDbEntity
  8
AM_0
100
AcDbLine
 10
19024.25240963249
 20
2057.52194905568
 30
0.0
 11
19044.22585973098
 21
2057.52194905568
 31
0.0
  0
LINE
  5
1D2F7
330
1F
100
AcDbEntity
  8
AM_0
  6
AUSGEZOGEN
 62
     7
100
AcDbLine
 10
19054.99713524311
 20
2029.65534855436
 30
0.0
 11
19070.35684599149
 21
2029.654854817131
 31
0.0
  0
POLYLINE
  5
1D2F8
330
1F
100
AcDbEntity
  8
AM_0
  6
AUSGEZOGEN
 62
     7
100
AcDb2dPolyline
 66
     1
 10
0.0
 20
0.0
 30
0.0
  0
VERTEX
  5
1D2F9
330
1D2F8
100
AcDbEntity
  8
AM_0
  6
AUSGEZOGEN
 62
     7
100
AcDbVertex
100
AcDb2dVertex
 10
19078.94659969097
 20
2035.154175853131
 30
0.0
 42
0.04600096
 70
     2
 50
128.59729004
  0
VERTEX
  5
1D2FA
330
1D2F8
100
AcDbEntity
  8
AM_0
  6
AUSGEZOGEN
 62
     7
100
AcDbVertex
100
AcDb2dVertex
 10
19078.76200321456
 20
2035.419498578709
 30
0.0
 42
0.10375087
 70
     2
 50
135.0
  0
VERTEX
  5
1D2FB
330
1D2F8
100
AcDbEntity
  8
AM_0
  6
AUSGEZOGEN
 62
     7
100
AcDbVertex
100
AcDb2dVertex
 10
19078.27175175414
 20
2035.80748445787
 30
0.0
 42
0.1145247
 70
     2
 50
157.5
  0
VERTEX
  5
1D2FC
330
1D2F8
100
AcDbEntity
  8
AM_0
  6
AUSGEZOGEN
 62
     7
100
AcDbVertex
100
AcDb2dVertex
 10
19077.69349140022
 20
2035.943725425676
 30
0.0
 42
0.1145247
 70
     2
 50
180.0
  0
VERTEX
  5
1D2FD
330
1D2F8
100
AcDbEntity
  8
AM_0
  6
AUSGEZOGEN
 62
     7
100
AcDbVertex
100
AcDb2dVertex
 10
19077.11523105642
 20
2035.80748445787
 30
0.0
 42
0.05736804
 70
     2
 50
202.5000000000001
  0
VERTEX
  5
1D2FE
330
1D2F8
100
AcDbEntity
  8
AM_0
  6
AUSGEZOGEN
 62
     7
100
AcDbVertex
100
AcDb2dVertex
 10
19076.83512703465
 20
2035.626930462599
 30
0.0
 50
292.5
  0
SEQEND
  5
1D2FF
330
1D2F8
100
AcDbEntity
  8
AM_0
 62
     7
  0
POLYLINE
  5
1D300
330
1F
100
AcDbEntity
  8
AM_0
  6
AUSGEZOGEN
 62
     7
100
AcDb2dPolyline
 66
     1
 10
0.0
 20
0.0
 30
0.0
  0
VERTEX
  5
1D301
330
1D300
100
AcDbEntity
  8
AM_0
  6
AUSGEZOGEN
 62
     7
100
AcDbVertex
100
AcDb2dVertex
 10
19081.13089878058
 20
2040.080883682565
 30
0.0
 42
0.08801575
 70
     2
 50
203.2982177700001
  0
VERTEX
  5
1D302
330
1D300
100
AcDbEntity
  8
AM_0
  6
AUSGEZOGEN
 62
     7
100
AcDbVertex
100
AcDb2dVertex
 10
19080.02412224005
 20
2039.217427639183
 30
0.0
 42
0.09450921
 70
     2
 50
225.0
  0
VERTEX
  5
1D303
330
1D300
100
AcDbEntity
  8
AM_0
  6
AUSGEZOGEN
 62
     7
100
AcDbVertex
100
AcDb2dVertex
 10
19079.15933927029
 20
2037.787314097077
 30
0.0
 42
0.08990245
 70
     2
 50
247.5
  0
VERTEX
  5
1D304
330
1D300
100
AcDbEntity
  8
AM_0
  6
AUSGEZOGEN
 62
     7
100
AcDbVertex
100
AcDb2dVertex
 10
19078.8556900963
 20
2036.100363955699
 30
0.0
 42
0.08990249
 70
     2
 50
270.0
  0
VERTEX
  5
1D305
330
1D300
100
AcDbEntity
  8
AM_0
  6
AUSGEZOGEN
 62
     7
100
AcDbVertex
100
AcDb2dVertex
 10
19079.15933927029
 20
2034.413413824433
 30
0.0
 42
0.09450918
 70
     2
 50
292.5
  0
VERTEX
  5
1D306
330
1D300
100
AcDbEntity
  8
AM_0
  6
AUSGEZOGEN
 62
     7
100
AcDbVertex
100
AcDb2dVertex
 10
19080.02412224005
 20
2032.983300282328
 30
0.0
 42
0.08801594
 70
     2
 50
315.0
  0
VERTEX
  5
1D307
330
1D300
100
AcDbEntity
  8
AM_0
  6
AUSGEZOGEN
 62
     7
100
AcDbVertex
100
AcDb2dVertex
 10
19081.13089878058
 20
2032.119844238945
 30
0.0
 50
45.0
  0
SEQEND
  5
1D308
330
1D300
100
AcDbEntity
  8
AM_0
 62
     7
  0
POLYLINE
  5
1D309
330
1F
100
AcDbEntity
  8
AM_0
  6
AUSGEZOGEN
 62
     7
100
AcDb2dPolyline
 66
     1
 10
0.0
 20
0.0
 30
0.0
  0
VERTEX
  5
1D30A
330
1D309
100
AcDbEntity
  8
AM_0
  6
AUSGEZOGEN
 62
     7
100
AcDbVertex
100
AcDb2dVertex
 10
19070.35659912288
 20
2029.655255971047
 30
0.0
 42
0.08490559
 70
     2
  0
VERTEX
  5
1D30B
330
1D309
100
AcDbEntity
  8
AM_0
  6
AUSGEZOGEN
 62
     7
100
AcDbVertex
100
AcDb2dVertex
 10
19071.06644078182
 20
2029.775388726388
 30
0.0
 42
0.05263417
 70
     2
 50
22.49999999999999
  0
VERTEX
  5
1D30C
330
1D309
100
AcDbEntity
  8
AM_0
  6
AUSGEZOGEN
 62
     7
100
AcDbVertex
100
AcDb2dVertex
 10
19071.43970708699
 20
2029.952239682337
 30
0.0
 50
112.5
  0
SEQEND
  5
1D30D
330
1D309
100
AcDbEntity
  8
AM_0
 62
     7
  0
LINE
  5
1D30E
330
1F
100
AcDbEntity
  8
AM_0
  6
AUSGEZOGEN
 62
     7
100
AcDbLine
 10
19076.83537390326
 20
2035.626868750501
 30
0.0
 11
19071.44004652881
 21
2029.951715084003
 31
0.0
  0
LINE
  5
1D30F
330
1F
100
AcDbEntity
  8
AM_0
  6
AUSGEZOGEN
 62
     7
100
AcDbLine
 10
19101.10181847072
 20
2032.118363017149
 30
0.0
 11
19081.12836837224
 21
2032.118363017149
 31
0.0
  0
LINE
  5
1D310
330
1F
100
AcDbEntity
  8
AM_0
  6
AUSGEZOGEN
 62
     7
100
AcDbLine
 10
19101.10181847072
 20
2040.083105510204
 30
0.0
 11
19081.12836837224
 21
2040.083105510204
 31
0.0
  0
POLYLINE
  5
1D311
330
1F
100
AcDbEntity
  8
AM_0
  6
AUSGEZOGEN
 62
     7
100
AcDb2dPolyline
 66
     1
 10
0.0
 20
0.0
 30
0.0
  0
VERTEX
  5
1D312
330
1D311
100
AcDbEntity
  8
AM_0
  6
AUSGEZOGEN
 62
     7
100
AcDbVertex
100
AcDb2dVertex
 10
19053.91378041037
 20
2029.952239682337
 30
0.0
 42
0.05263424
 70
     2
 50
319.78701782
  0
VERTEX
  5
1D313
330
1D311
100
AcDbEntity
  8
AM_0
  6
AUSGEZOGEN
 62
     7
100
AcDbVertex
100
AcDb2dVertex
 10
19054.28704671555
 20
2029.775388726388
 30
0.0
 42
0.08490552
 70
     2
 50
337.5
  0
VERTEX
  5
1D314
330
1D311
100
AcDbEntity
  8
AM_0
  6
AUSGEZOGEN
 62
     7
100
AcDbVertex
100
AcDb2dVertex
 10
19054.99688837449
 20
2029.655255971047
 30
0.0
 70
     2
  0
SEQEND
  5
1D315
330
1D311
100
AcDbEntity
  8
AM_0
 62
     7
  0
POLYLINE
  5
1D316
330
1F
100
AcDbEntity
  8
AM_0
  6
AUSGEZOGEN
 62
     7
100
AcDb2dPolyline
 66
     1
 10
0.0
 20
0.0
 30
0.0
  0
VERTEX
  5
1D317
330
1D316
100
AcDbEntity
  8
AM_0
  6
AUSGEZOGEN
 62
     7
100
AcDbVertex
100
AcDb2dVertex
 10
19048.51848389703
 20
2035.626930462599
 30
0.0
 42
0.05736805
 70
     2
 50
149.76953125
  0
VERTEX
  5
1D318
330
1D316
100
AcDbEntity
  8
AM_0
  6
AUSGEZOGEN
 62
     7
100
AcDbVertex
100
AcDb2dVertex
 10
19048.23837987526
 20
2035.80748445787
 30
0.0
 42
0.1145247
 70
     2
 50
157.5
  0
VERTEX
  5
1D319
330
1D316
100
AcDbEntity
  8
AM_0
  6
AUSGEZOGEN
 62
     7
100
AcDbVertex
100
AcDb2dVertex
 10
19047.66011953145
 20
2035.943725425676
 30
0.0
 42
0.1145247
 70
     2
 50
180.0
  0
VERTEX
  5
1D31A
330
1D316
100
AcDbEntity
  8
AM_0
  6
AUSGEZOGEN
 62
     7
100
AcDbVertex
100
AcDb2dVertex
 10
19047.08185917753
 20
2035.80748445787
 30
0.0
 42
0.10375096
 70
     2
 50
202.5000000000001
  0
VERTEX
  5
1D31B
330
1D316
100
AcDbEntity
  8
AM_0
  6
AUSGEZOGEN
 62
     7
100
AcDbVertex
100
AcDb2dVertex
 10
19046.59160771712
 20
2035.419498578709
 30
0.0
 42
0.0460009
 70
     2
 50
225.0
  0
VERTEX
  5
1D31C
330
1D316
100
AcDbEntity
  8
AM_0
  6
AUSGEZOGEN
 62
     7
100
AcDbVertex
100
AcDb2dVertex
 10
19046.40701123059
 20
2035.154175853131
 30
0.0
 50
315.0
  0
SEQEND
  5
1D31D
330
1D316
100
AcDbEntity
  8
AM_0
 62
     7
  0
LINE
  5
1D31E
330
1F
100
AcDbEntity
  8
AM_0
  6
AUSGEZOGEN
 62
     7
100
AcDbLine
 10
19048.51873076563
 20
2035.626868750501
 30
0.0
 11
19053.91405814009
 21
2029.951715084003
 31
0.0
  0
POLYLINE
  5
1D31F
330
1F
100
AcDbEntity
  8
AM_0
  6
AUSGEZOGEN
 62
     7
100
AcDb2dPolyline
 66
     1
 10
0.0
 20
0.0
 30
0.0
  0
VERTEX
  5
1D320
330
1D31F
100
AcDbEntity
  8
AM_0
  6
AUSGEZOGEN
 62
     7
100
AcDbVertex
100
AcDb2dVertex
 10
19044.22277386319
 20
2032.119844238945
 30
0.0
 42
0.08801587
 70
     2
 50
23.29821777
  0
VERTEX
  5
1D321
330
1D31F
100
AcDbEntity
  8
AM_0
  6
AUSGEZOGEN
 62
     7
100
AcDbVertex
100
AcDb2dVertex
 10
19045.32955041383
 20
2032.983300282328
 30
0.0
 42
0.09450925
 70
     2
 50
44.99999999999999
  0
VERTEX
  5
1D322
330
1D31F
100
AcDbEntity
  8
AM_0
  6
AUSGEZOGEN
 62
     7
100
AcDbVertex
100
AcDb2dVertex
 10
19046.1943333836
 20
2034.413413824433
 30
0.0
 42
0.08990236
 70
     2
 50
67.49999999999999
  0
VERTEX
  5
1D323
330
1D31F
100
AcDbEntity
  8
AM_0
  6
AUSGEZOGEN
 62
     7
100
AcDbVertex
100
AcDb2dVertex
 10
19046.49798254747
 20
2036.100363955699
 30
0.0
 42
0.08990249
 70
     2
 50
89.99999999999998
  0
VERTEX
  5
1D324
330
1D31F
100
AcDbEntity
  8
AM_0
  6
AUSGEZOGEN
 62
     7
100
AcDbVertex
100
AcDb2dVertex
 10
19046.1943333836
 20
2037.787314097077
 30
0.0
 42
0.09450918
 70
     2
 50
112.5
  0
VERTEX
  5
1D325
330
1D31F
100
AcDbEntity
  8
AM_0
  6
AUSGEZOGEN
 62
     7
100
AcDbVertex
100
AcDb2dVertex
 10
19045.32955041383
 20
2039.217427639183
 30
0.0
 42
0.088016
 70
     2
 50
135.0
  0
VERTEX
  5
1D326
330
1D31F
100
AcDbEntity
  8
AM_0
  6
AUSGEZOGEN
 62
     7
100
AcDbVertex
100
AcDb2dVertex
 10
19044.22277386319
 20
2040.080883682565
 30
0.0
 50
225.0
  0
SEQEND
  5
1D327
330
1D31F
100
AcDbEntity
  8
AM_0
 62
     7
  0
LINE
  5
1D328
330
1F
100
AcDbEntity
  8
AM_0
100
AcDbLine
 10
19024.25240963249
 20
2040.083105510204
 30
0.0
 11
19044.22585973098
 21
2040.083105510204
 31
0.0
  0
LINE
  5
1D329
330
1F
100
AcDbEntity
  8
AM_0
100
AcDbLine
 10
19024.25240963249
 20
2032.118363017149
 30
0.0
 11
19044.22585973098
 21
2032.118363017149
 31
0.0
  0
POLYLINE
  5
1D32A
330
1F
100
AcDbEntity
  8
AM_0
  6
AUSGEZOGEN
 62
     7
100
AcDb2dPolyline
 66
     1
 10
0.0
 20
0.0
 30
0.0
  0
VERTEX
  5
1D32B
330
1D32A
100
AcDbEntity
  8
AM_0
  6
AUSGEZOGEN
 62
     7
100
AcDbVertex
100
AcDb2dVertex
 10
19076.83509617354
 20
2061.978077811629
 30
0.0
 42
0.05749289
 70
     2
 50
329.9010009799999
  0
VERTEX
  5
1D32C
330
1D32A
100
AcDbEntity
  8
AM_0
  6
AUSGEZOGEN
 62
     7
100
AcDbVertex
100
AcDb2dVertex
 10
19077.11640367728
 20
2061.795780305506
 30
0.0
 42
0.11505464
 70
     2
 50
337.5
  0
VERTEX
  5
1D32D
330
1D32A
100
AcDbEntity
  8
AM_0
  6
AUSGEZOGEN
 62
     7
100
AcDbVertex
100
AcDb2dVertex
 10
19077.69719443955
 20
2061.658227841867
 30
0.0
 42
0.1150547
 70
     2
  0
VERTEX
  5
1D32E
330
1D32A
100
AcDbEntity
  8
AM_0
  6
AUSGEZOGEN
 62
     7
100
AcDbVertex
100
AcDb2dVertex
 10
19078.27798520182
 20
2061.795780305506
 30
0.0
 42
0.10388001
 70
     2
 50
22.49999999999999
  0
VERTEX
  5
1D32F
330
1D32A
100
AcDbEntity
  8
AM_0
  6
AUSGEZOGEN
 62
     7
100
AcDbVertex
100
AcDb2dVertex
 10
19078.77033505556
 20
2062.187515505535
 30
0.0
 42
0.04591703
 70
     2
 50
44.99999999999999
  0
VERTEX
  5
1D330
330
1D32A
100
AcDbEntity
  8
AM_0
  6
AUSGEZOGEN
 62
     7
100
AcDbVertex
100
AcDb2dVertex
 10
19078.95573386003
 20
2062.455430351562
 30
0.0
 50
135.0
  0
SEQEND
  5
1D331
330
1D32A
100
AcDbEntity
  8
AM_0
 62
     7
  0
LINE
  5
1D332
330
1F
100
AcDbEntity
  8
AM_0
  6
AUSGEZOGEN
 62
     7
100
AcDbLine
 10
19101.10181847072
 20
2065.486938407238
 30
0.0
 11
19081.12836837224
 21
2065.486938407238
 31
0.0
  0
LINE
  5
1D333
330
1F
100
AcDbEntity
  8
AM_0
  6
AUSGEZOGEN
 62
     7
100
AcDbLine
 10
19076.83537390326
 20
2061.978185815383
 30
0.0
 11
19072.68247772672
 21
2067.024316635199
 31
0.0
  0
POLYLINE
  5
1D334
330
1F
100
AcDbEntity
  8
AM_0
  6
AUSGEZOGEN
 62
     7
100
AcDb2dPolyline
 66
     1
 10
0.0
 20
0.0
 30
0.0
  0
VERTEX
  5
1D335
330
1D334
100
AcDbEntity
  8
AM_0
  6
AUSGEZOGEN
 62
     7
100
AcDbVertex
100
AcDb2dVertex
 10
19046.39787707165
 20
2062.455430351562
 30
0.0
 42
0.04591683
 70
     2
 50
308.74493408
  0
VERTEX
  5
1D336
330
1D334
100
AcDbEntity
  8
AM_0
  6
AUSGEZOGEN
 62
     7
100
AcDbVertex
100
AcDb2dVertex
 10
19046.58327587611
 20
2062.187515505535
 30
0.0
 42
0.10388008
 70
     2
 50
315.0
  0
VERTEX
  5
1D337
330
1D334
100
AcDbEntity
  8
AM_0
  6
AUSGEZOGEN
 62
     7
100
AcDbVertex
100
AcDb2dVertex
 10
19047.07562572986
 20
2061.795780305506
 30
0.0
 42
0.11505464
 70
     2
 50
337.5
  0
VERTEX
  5
1D338
330
1D334
100
AcDbEntity
  8
AM_0
  6
AUSGEZOGEN
 62
     7
100
AcDbVertex
100
AcDb2dVertex
 10
19047.65641649213
 20
2061.658227841867
 30
0.0
 42
0.1150547
 70
     2
  0
VERTEX
  5
1D339
330
1D334
100
AcDbEntity
  8
AM_0
  6
AUSGEZOGEN
 62
     7
100
AcDbVertex
100
AcDb2dVertex
 10
19048.23720724429
 20
2061.795780305506
 30
0.0
 42
0.05749289
 70
     2
 50
22.49999999999999
  0
VERTEX
  5
1D33A
330
1D334
100
AcDbEntity
  8
AM_0
  6
AUSGEZOGEN
 62
     7
100
AcDbVertex
100
AcDb2dVertex
 10
19048.51851475813
 20
2061.978077811629
 30
0.0
 50
112.5
  0
SEQEND
  5
1D33B
330
1D334
100
AcDbEntity
  8
AM_0
 62
     7
  0
LINE
  5
1D33C
330
1F
100
AcDbEntity
  8
AM_0
100
AcDbLine
 10
19024.25240963249
 20
2065.486938407238
 30
0.0
 11
19044.22585973098
 21
2065.486938407238
 31
0.0
  0
LINE
  5
1D33D
330
1F
100
AcDbEntity
  8
AM_0
  6
AUSGEZOGEN
 62
     7
100
AcDbLine
 10
19048.51873076563
 20
2061.978185815383
 30
0.0
 11
19052.67162694219
 21
2067.024316635199
 31
0.0
  0
ARC
  5
1D33E
330
1F
100
AcDbEntity
  8
anbauteile dünn
100
AcDbCircle
 10
19062.67680546078
 20
2100.13997448296
 30
0.0
 40
34.59409218478484
100
AcDbArc
 50
254.4724121100554
 51
285.6345214799642
  0
LINE
  5
1D33F
330
1F
100
AcDbEntity
  8
AM_0
100
AcDbLine
 10
19024.25240963249
 20
2032.118363017149
 30
0.0
 11
19024.25240963249
 21
2065.486938407238
 31
0.0
  0
LINE
  5
1D340
330
1F
100
AcDbEntity
  8
AM_0
  6
AUSGEZOGEN
 62
     7
100
AcDbLine
 10
19078.85593696491
 20
2036.478814511887
 30
0.0
 11
19078.85593696491
 21
2061.126240043885
 31
0.0
  0
LINE
  5
1D341
330
1F
100
AcDbEntity
  8
AM_0
  6
AUSGEZOGEN
 62
     7
100
AcDbLine
 10
19101.10181847072
 20
2032.118363017149
 30
0.0
 11
19101.10181847072
 21
2065.486938407238
 31
0.0
  0
LINE
  5
1D342
330
1F
100
AcDbEntity
  8
AM_0
  6
AUSGEZOGEN
 62
     7
100
AcDbLine
 10
19046.4982911383
 20
2036.478814511887
 30
0.0
 11
19046.4982911383
 21
2061.126240043885
 31
0.0
  0
POLYLINE
  5
1D343
330
1F
100
AcDbEntity
  8
AM_0
  6
AUSGEZOGEN
 62
     7
100
AcDb2dPolyline
 66
     1
 10
0.0
 20
0.0
 30
0.0
  0
VERTEX
  5
1D344
330
1D343
100
AcDbEntity
  8
AM_0
  6
AUSGEZOGEN
 62
     7
100
AcDbVertex
100
AcDb2dVertex
 10
19044.22277386319
 20
2057.523924004592
 30
0.0
 42
0.08801567
 70
     2
 50
23.29824828999999
  0
VERTEX
  5
1D345
330
1D343
100
AcDbEntity
  8
AM_0
  6
AUSGEZOGEN
 62
     7
100
AcDbVertex
100
AcDb2dVertex
 10
19045.32955041383
 20
2058.387380058088
 30
0.0
 42
0.09450925
 70
     2
 50
44.99999999999999
  0
VERTEX
  5
1D346
330
1D343
100
AcDbEntity
  8
AM_0
  6
AUSGEZOGEN
 62
     7
100
AcDbVertex
100
AcDb2dVertex
 10
19046.1943333836
 20
2059.817509030745
 30
0.0
 42
0.08990236
 70
     2
 50
67.49999999999999
  0
VERTEX
  5
1D347
330
1D343
100
AcDbEntity
  8
AM_0
  6
AUSGEZOGEN
 62
     7
100
AcDbVertex
100
AcDb2dVertex
 10
19046.49798254747
 20
2061.504443731458
 30
0.0
 42
0.08990249
 70
     2
 50
89.99999999999998
  0
VERTEX
  5
1D348
330
1D343
100
AcDbEntity
  8
AM_0
  6
AUSGEZOGEN
 62
     7
100
AcDbVertex
100
AcDb2dVertex
 10
19046.1943333836
 20
2063.191393862724
 30
0.0
 42
0.09450918
 70
     2
 50
112.5
  0
VERTEX
  5
1D349
330
1D343
100
AcDbEntity
  8
AM_0
  6
AUSGEZOGEN
 62
     7
100
AcDbVertex
100
AcDb2dVertex
 10
19045.32955041383
 20
2064.621507404829
 30
0.0
 42
0.088016
 70
     2
 50
135.0
  0
VERTEX
  5
1D34A
330
1D343
100
AcDbEntity
  8
AM_0
  6
AUSGEZOGEN
 62
     7
100
AcDbVertex
100
AcDb2dVertex
 10
19044.22277386319
 20
2065.484963458324
 30
0.0
 50
225.0
  0
SEQEND
  5
1D34B
330
1D343
100
AcDbEntity
  8
AM_0
 62
     7
  0
POLYLINE
  5
1D34C
330
1F
100
AcDbEntity
  8
AM_0
  6
AUSGEZOGEN
 62
     7
100
AcDb2dPolyline
 66
     1
 10
0.0
 20
0.0
 30
0.0
  0
VERTEX
  5
1D34D
330
1D34C
100
AcDbEntity
  8
AM_0
  6
AUSGEZOGEN
 62
     7
100
AcDbVertex
100
AcDb2dVertex
 10
19081.13089878058
 20
2065.484963458324
 30
0.0
 42
0.08801594
 70
     2
 50
203.29818726
  0
VERTEX
  5
1D34E
330
1D34C
100
AcDbEntity
  8
AM_0
  6
AUSGEZOGEN
 62
     7
100
AcDbVertex
100
AcDb2dVertex
 10
19080.02412224005
 20
2064.621507404829
 30
0.0
 42
0.09450921
 70
     2
 50
225.0
  0
VERTEX
  5
1D34F
330
1D34C
100
AcDbEntity
  8
AM_0
  6
AUSGEZOGEN
 62
     7
100
AcDbVertex
100
AcDb2dVertex
 10
19079.15933927029
 20
2063.191393862724
 30
0.0
 42
0.08990245
 70
     2
 50
247.5
  0
VERTEX
  5
1D350
330
1D34C
100
AcDbEntity
  8
AM_0
  6
AUSGEZOGEN
 62
     7
100
AcDbVertex
100
AcDb2dVertex
 10
19078.8556900963
 20
2061.504443731458
 30
0.0
 42
0.08990249
 70
     2
 50
270.0
  0
VERTEX
  5
1D351
330
1D34C
100
AcDbEntity
  8
AM_0
  6
AUSGEZOGEN
 62
     7
100
AcDbVertex
100
AcDb2dVertex
 10
19079.15933927029
 20
2059.817493600193
 30
0.0
 42
0.09450918
 70
     2
 50
292.5
  0
VERTEX
  5
1D352
330
1D34C
100
AcDbEntity
  8
AM_0
  6
AUSGEZOGEN
 62
     7
100
AcDbVertex
100
AcDb2dVertex
 10
19080.02412224005
 20
2058.387380058088
 30
0.0
 42
0.08801567
 70
     2
 50
315.0
  0
VERTEX
  5
1D353
330
1D34C
100
AcDbEntity
  8
AM_0
  6
AUSGEZOGEN
 62
     7
100
AcDbVertex
100
AcDb2dVertex
 10
19081.13089878058
 20
2057.523924004592
 30
0.0
 50
45.0
  0
SEQEND
  5
1D354
330
1D34C
100
AcDbEntity
  8
AM_0
 62
     7
  0
LINE
  5
1D355
330
1F
100
AcDbEntity
  8
anbauteile dünn
100
AcDbLine
 10
19054.47673486977
 20
2031.425771350652
 30
0.0
 11
19054.47673486977
 21
2061.900298565391
 31
0.0
  0
LINE
  5
1D356
330
1F
100
AcDbEntity
  8
anbauteile dünn
100
AcDbLine
 10
19070.87749323343
 20
2031.425771350652
 30
0.0
 11
19070.87749323343
 21
2061.900298565391
 31
0.0
  0
POLYLINE
  5
1D357
330
1F
100
AcDbEntity
  8
AM_0
  6
AUSGEZOGEN
 62
     7
100
AcDb2dPolyline
 66
     1
 10
0.0
 20
0.0
 30
0.0
  0
VERTEX
  5
1D358
330
1D357
100
AcDbEntity
  8
AM_0
  6
AUSGEZOGEN
 62
     7
100
AcDbVertex
100
AcDb2dVertex
 10
19187.72447217808
 20
2088.780440417816
 30
0.0
 42
0.08490559
 70
     2
  0
VERTEX
  5
1D359
330
1D357
100
AcDbEntity
  8
AM_0
  6
AUSGEZOGEN
 62
     7
100
AcDbVertex
100
AcDb2dVertex
 10
19188.43428297592
 20
2088.900573163047
 30
0.0
 42
0.09178846
 70
     2
 50
22.49999999999999
  0
VERTEX
  5
1D35A
330
1D357
100
AcDbEntity
  8
AM_0
  6
AUSGEZOGEN
 62
     7
100
AcDbVertex
100
AcDb2dVertex
 10
19189.03608848205
 20
2089.242656799302
 30
0.0
 42
0.10355996
 70
     2
 50
44.99999999999999
  0
VERTEX
  5
1D35B
330
1D357
100
AcDbEntity
  8
AM_0
  6
AUSGEZOGEN
 62
     7
100
AcDbVertex
100
AcDb2dVertex
 10
19189.43817676366
 20
2089.754617327877
 30
0.0
 42
0.11375952
 70
     2
 50
67.49999999999999
  0
VERTEX
  5
1D35C
330
1D357
100
AcDbEntity
  8
AM_0
  6
AUSGEZOGEN
 62
     7
100
AcDbVertex
100
AcDb2dVertex
 10
19189.57938597495
 20
2090.358521217233
 30
0.0
 50
157.5
  0
SEQEND
  5
1D35D
330
1D357
100
AcDbEntity
  8
AM_0
 62
     7
  0
POLYLINE
  5
1D35E
330
1F
100
AcDbEntity
  8
AM_0
  6
AUSGEZOGEN
 62
     7
100
AcDb2dPolyline
 66
     1
 10
0.0
 20
0.0
 30
0.0
  0
VERTEX
  5
1D35F
330
1D35E
100
AcDbEntity
  8
AM_0
  6
AUSGEZOGEN
 62
     7
100
AcDbVertex
100
AcDb2dVertex
 10
19189.57938597495
 20
2093.514744528166
 30
0.0
 42
0.11375958
 70
     2
 50
89.99999999999998
  0
VERTEX
  5
1D360
330
1D35E
100
AcDbEntity
  8
AM_0
  6
AUSGEZOGEN
 62
     7
100
AcDbVertex
100
AcDb2dVertex
 10
19189.43817676366
 20
2094.118648417522
 30
0.0
 42
0.10355996
 70
     2
 50
112.5
  0
VERTEX
  5
1D361
330
1D35E
100
AcDbEntity
  8
AM_0
  6
AUSGEZOGEN
 62
     7
100
AcDbVertex
100
AcDb2dVertex
 10
19189.03608848205
 20
2094.630608946097
 30
0.0
 42
0.09178846
 70
     2
 50
135.0
  0
VERTEX
  5
1D362
330
1D35E
100
AcDbEntity
  8
AM_0
  6
AUSGEZOGEN
 62
     7
100
AcDbVertex
100
AcDb2dVertex
 10
19188.43428297592
 20
2094.972692582352
 30
0.0
 42
0.08490552
 70
     2
 50
157.5
  0
VERTEX
  5
1D363
330
1D35E
100
AcDbEntity
  8
AM_0
  6
AUSGEZOGEN
 62
     7
100
AcDbVertex
100
AcDb2dVertex
 10
19187.72447217808
 20
2095.092825327583
 30
0.0
 50
247.5
  0
SEQEND
  5
1D364
330
1D35E
100
AcDbEntity
  8
AM_0
 62
     7
  0
LINE
  5
1D365
330
1F
100
AcDbEntity
  8
AM_0
  6
AUSGEZOGEN
 62
     7
100
AcDbLine
 10
19189.57969455567
 20
2093.514744528166
 30
0.0
 11
19189.57969455567
 21
2090.358768085847
 31
0.0
  0
LINE
  5
1D366
330
1F
100
AcDbEntity
  8
AM_0
  6
AUSGEZOGEN
 62
     7
100
AcDbLine
 10
19125.10572472072
 20
2057.425696217886
 30
0.0
 11
19139.10352745072
 21
2057.425696217886
 31
0.0
  0
LINE
  5
1D367
330
1F
100
AcDbEntity
  8
AM_0
  6
AUSGEZOGEN
 62
     7
100
AcDbLine
 10
19125.10572472072
 20
2040.179602467886
 30
0.0
 11
19139.10352745072
 21
2040.179602467886
 31
0.0
  0
LINE
  5
1D368
330
1F
100
AcDbEntity
  8
AM_0
  6
AUSGEZOGEN
 62
     7
100
AcDbLine
 10
19125.10572472072
 20
2065.302649347886
 30
0.0
 11
19139.10352745072
 21
2065.302649347886
 31
0.0
  0
LINE
  5
1D369
330
1F
100
AcDbEntity
  8
AM_0
  6
AUSGEZOGEN
 62
     7
100
AcDbLine
 10
19125.10572472072
 20
2032.302893487886
 30
0.0
 11
19125.10572472072
 21
2065.302649347886
 31
0.0
  0
LINE
  5
1D36A
330
1F
100
AcDbEntity
  8
AM_0
  6
AUSGEZOGEN
 62
     7
100
AcDbLine
 10
19116.10181847072
 20
2032.347571217886
 30
0.0
 11
19116.10181847072
 21
2063.801428647886
 31
0.0
  0
LINE
  5
1D36B
330
1F
100
AcDbEntity
  8
AM_0
  6
AUSGEZOGEN
 62
     7
100
AcDbLine
 10
19110.10572472072
 20
2032.347571217886
 30
0.0
 11
19110.10572472072
 21
2063.801428647886
 31
0.0
  0
LINE
  5
1D36C
330
1F
100
AcDbEntity
  8
AM_0
  6
AUSGEZOGEN
 62
     7
100
AcDbLine
 10
19101.10181847072
 20
2061.986731377886
 30
0.0
 11
19101.10181847072
 21
2035.618323177886
 31
0.0
  0
LINE
  5
1D36D
330
1F
100
AcDbEntity
  8
AM_0
  6
AUSGEZOGEN
 62
     7
100
AcDbLine
 10
19101.10181847072
 20
2062.254797787886
 30
0.0
 11
19110.10206261071
 21
2062.254797787886
 31
0.0
  0
LINE
  5
1D36E
330
1F
100
AcDbEntity
  8
anbauteile dünn
100
AcDbLine
 10
19101.10181847072
 20
2060.755774347886
 30
0.0
 11
19110.10694542071
 21
2060.755774347886
 31
0.0
  0
LINE
  5
1D36F
330
1F
100
AcDbEntity
  8
anbauteile dünn
100
AcDbLine
 10
19101.10181847072
 20
2036.849524347886
 30
0.0
 11
19110.10694542071
 21
2036.849524347886
 31
0.0
  0
LINE
  5
1D370
330
1F
100
AcDbEntity
  8
AM_0
  6
AUSGEZOGEN
 62
     7
100
AcDbLine
 10
19125.10572472072
 20
2062.254797787886
 30
0.0
 11
19116.10548058072
 21
2062.254797787886
 31
0.0
  0
LINE
  5
1D371
330
1F
100
AcDbEntity
  8
anbauteile dünn
100
AcDbLine
 10
19125.10572472072
 20
2060.755774347886
 30
0.0
 11
19116.10059777071
 21
2060.755774347886
 31
0.0
  0
LINE
  5
1D372
330
1F
100
AcDbEntity
  8
AM_0
  6
AUSGEZOGEN
 62
     7
100
AcDbLine
 10
19116.10181847072
 20
2059.552649347886
 30
0.0
 11
19110.10206261071
 21
2059.552649347886
 31
0.0
  0
LINE
  5
1D373
330
1F
100
AcDbEntity
  8
AM_0
  6
AUSGEZOGEN
 62
     7
100
AcDbLine
 10
19116.10181847072
 20
2063.802649347886
 30
0.0
 11
19110.10206261071
 21
2063.802649347886
 31
0.0
  0
LINE
  5
1D374
330
1F
100
AcDbEntity
  8
anbauteile dünn
100
AcDbLine
 10
19125.10572472072
 20
2036.849524347886
 30
0.0
 11
19116.10059777071
 21
2036.849524347886
 31
0.0
  0
LINE
  5
1D375
330
1F
100
AcDbEntity
  8
AM_0
  6
AUSGEZOGEN
 62
     7
100
AcDbLine
 10
19110.10572472072
 20
2048.802649347885
 30
0.0
 11
19116.10548058072
 21
2048.802649347885
 31
0.0
  0
LINE
  5
1D376
330
1F
100
AcDbEntity
  8
AM_0
  6
AUSGEZOGEN
 62
     7
100
AcDbLine
 10
19116.10181847072
 20
2038.052405207886
 30
0.0
 11
19110.10206261071
 21
2038.052405207886
 31
0.0
  0
LINE
  5
1D377
330
1F
100
AcDbEntity
  8
AM_0
  6
AUSGEZOGEN
 62
     7
100
AcDbLine
 10
19101.10181847072
 20
2035.350500907886
 30
0.0
 11
19110.10206261071
 21
2035.350500907886
 31
0.0
  0
LINE
  5
1D378
330
1F
100
AcDbEntity
  8
AM_0
  6
AUSGEZOGEN
 62
     7
100
AcDbLine
 10
19125.10572472072
 20
2035.350500907886
 30
0.0
 11
19116.10548058072
 21
2035.350500907886
 31
0.0
  0
LINE
  5
1D379
330
1F
100
AcDbEntity
  8
AM_0
  6
AUSGEZOGEN
 62
     7
100
AcDbLine
 10
19116.10181847072
 20
2032.347571217886
 30
0.0
 11
19110.10206261071
 21
2032.347571217886
 31
0.0
  0
POLYLINE
  5
1D37A
330
1F
100
AcDbEntity
  8
AM_0
  6
AUSGEZOGEN
 62
     7
100
AcDb2dPolyline
 66
     1
 10
0.0
 20
0.0
 30
0.0
  0
VERTEX
  5
1D37B
330
1D37A
100
AcDbEntity
  8
AM_0
  6
AUSGEZOGEN
 62
     7
100
AcDbVertex
100
AcDb2dVertex
 10
19179.85584679072
 20
2040.177405207886
 30
0.0
 42
0.08801575
 70
     2
 50
203.2982177700001
  0
VERTEX
  5
1D37C
330
1D37A
100
AcDbEntity
  8
AM_0
  6
AUSGEZOGEN
 62
     7
100
AcDbVertex
100
AcDb2dVertex
 10
19178.76130333072
 20
2039.323492857886
 30
0.0
 42
0.09450921
 70
     2
 50
225.0
  0
VERTEX
  5
1D37D
330
1D37A
100
AcDbEntity
  8
AM_0
  6
AUSGEZOGEN
 62
     7
100
AcDbVertex
100
AcDb2dVertex
 10
19177.90607872071
 20
2037.909186217886
 30
0.0
 42
0.08990245
 70
     2
 50
247.5
  0
VERTEX
  5
1D37E
330
1D37A
100
AcDbEntity
  8
AM_0
  6
AUSGEZOGEN
 62
     7
100
AcDbVertex
100
AcDb2dVertex
 10
19177.60578575072
 20
2036.240881767886
 30
0.0
 42
0.08990249
 70
     2
 50
270.0
  0
VERTEX
  5
1D37F
330
1D37A
100
AcDbEntity
  8
AM_0
  6
AUSGEZOGEN
 62
     7
100
AcDbVertex
100
AcDb2dVertex
 10
19177.90607872071
 20
2034.572577327886
 30
0.0
 42
0.09450918
 70
     2
 50
292.5
  0
VERTEX
  5
1D380
330
1D37A
100
AcDbEntity
  8
AM_0
  6
AUSGEZOGEN
 62
     7
100
AcDbVertex
100
AcDb2dVertex
 10
19178.76130333072
 20
2033.158270687886
 30
0.0
 42
0.08801594
 70
     2
 50
315.0
  0
VERTEX
  5
1D381
330
1D37A
100
AcDbEntity
  8
AM_0
  6
AUSGEZOGEN
 62
     7
100
AcDbVertex
100
AcDb2dVertex
 10
19179.85584679072
 20
2032.304358327886
 30
0.0
 50
45.0
  0
SEQEND
  5
1D382
330
1D37A
100
AcDbEntity
  8
AM_0
 62
     7
  0
LINE
  5
1D383
330
1F
100
AcDbEntity
  8
AM_0
  6
AUSGEZOGEN
 62
     7
100
AcDbLine
 10
19193.85572472071
 20
2032.302893487886
 30
0.0
 11
19193.85572472071
 21
2065.302649347886
 31
0.0
  0
LINE
  5
1D384
330
1F
100
AcDbEntity
  8
AM_0
  6
AUSGEZOGEN
 62
     7
100
AcDbLine
 10
19177.60572472072
 20
2061.551672787886
 30
0.0
 11
19170.02159837126
 21
2061.551672787886
 31
0.0
  0
LINE
  5
1D385
330
1F
100
AcDbEntity
  8
AM_0
  6
AUSGEZOGEN
 62
     7
100
AcDbLine
 10
19141.35572472072
 20
2036.053625907886
 30
0.0
 11
19141.35572472072
 21
2060.990149347885
 31
0.0
  0
ARC
  5
1D386
330
1F
100
AcDbEntity
  8
AM_0
  6
AUSGEZOGEN
 62
     7
100
AcDbCircle
 10
19123.69947472072
 20
2048.802649347885
 30
0.0
 40
17.65638733
100
AcDbArc
 50
330.7585143999166
 51
29.24150085004262
  0
LINE
  5
1D387
330
1F
100
AcDbEntity
  8
AM_0
  6
AUSGEZOGEN
 62
     7
100
AcDbLine
 10
19141.34595909072
 20
2061.551672787886
 30
0.0
 11
19149.41175499071
 21
2061.551672787886
 31
0.0
  0
POLYLINE
  5
1D388
330
1F
100
AcDbEntity
  8
AM_0
  6
AUSGEZOGEN
 62
     7
100
AcDb2dPolyline
 66
     1
 10
0.0
 20
0.0
 30
0.0
  0
VERTEX
  5
1D389
330
1D388
100
AcDbEntity
  8
AM_0
  6
AUSGEZOGEN
 62
     7
100
AcDbVertex
100
AcDb2dVertex
 10
19139.10560265072
 20
2057.427649347886
 30
0.0
 42
0.08801567
 70
     2
 50
23.29824828999999
  0
VERTEX
  5
1D38A
330
1D388
100
AcDbEntity
  8
AM_0
  6
AUSGEZOGEN
 62
     7
100
AcDbVertex
100
AcDb2dVertex
 10
19140.20014611072
 20
2058.281561697886
 30
0.0
 42
0.09450925
 70
     2
 50
44.99999999999999
  0
VERTEX
  5
1D38B
330
1D388
100
AcDbEntity
  8
AM_0
  6
AUSGEZOGEN
 62
     7
100
AcDbVertex
100
AcDb2dVertex
 10
19141.05537071072
 20
2059.695868337886
 30
0.0
 42
0.08990236
 70
     2
 50
67.49999999999999
  0
VERTEX
  5
1D38C
330
1D388
100
AcDbEntity
  8
AM_0
  6
AUSGEZOGEN
 62
     7
100
AcDbVertex
100
AcDb2dVertex
 10
19141.35566368072
 20
2061.364172787886
 30
0.0
 42
0.08990249
 70
     2
 50
89.99999999999998
  0
VERTEX
  5
1D38D
330
1D388
100
AcDbEntity
  8
AM_0
  6
AUSGEZOGEN
 62
     7
100
AcDbVertex
100
AcDb2dVertex
 10
19141.05537071072
 20
2063.032477227887
 30
0.0
 42
0.09450918
 70
     2
 50
112.5
  0
VERTEX
  5
1D38E
330
1D388
100
AcDbEntity
  8
AM_0
  6
AUSGEZOGEN
 62
     7
100
AcDbVertex
100
AcDb2dVertex
 10
19140.20014611072
 20
2064.446783867886
 30
0.0
 42
0.088016
 70
     2
 50
135.0
  0
VERTEX
  5
1D38F
330
1D388
100
AcDbEntity
  8
AM_0
  6
AUSGEZOGEN
 62
     7
100
AcDbVertex
100
AcDb2dVertex
 10
19139.10560265072
 20
2065.300696217886
 30
0.0
 50
225.0
  0
SEQEND
  5
1D390
330
1D388
100
AcDbEntity
  8
AM_0
 62
     7
  0
LINE
  5
1D391
330
1F
100
AcDbEntity
  8
AM_0
  6
AUSGEZOGEN
 62
     7
100
AcDbLine
 10
19177.60572472072
 20
2036.615149347886
 30
0.0
 11
19177.60572472072
 21
2060.990149347885
 31
0.0
  0
ARC
  5
1D392
330
1F
100
AcDbEntity
  8
AM_0
  6
AUSGEZOGEN
 62
     7
100
AcDbCircle
 10
19195.26197472072
 20
2048.802649347885
 30
0.0
 40
17.65638733
100
AcDbArc
 50
150.7584991499574
 51
209.2415161099031
  0
POLYLINE
  5
1D393
330
1F
100
AcDbEntity
  8
AM_0
  6
AUSGEZOGEN
 62
     7
100
AcDb2dPolyline
 66
     1
 10
0.0
 20
0.0
 30
0.0
  0
VERTEX
  5
1D394
330
1D393
100
AcDbEntity
  8
AM_0
  6
AUSGEZOGEN
 62
     7
100
AcDbVertex
100
AcDb2dVertex
 10
19179.85584679072
 20
2065.300696217886
 30
0.0
 42
0.08801594
 70
     2
 50
203.29818726
  0
VERTEX
  5
1D395
330
1D393
100
AcDbEntity
  8
AM_0
  6
AUSGEZOGEN
 62
     7
100
AcDbVertex
100
AcDb2dVertex
 10
19178.76130333072
 20
2064.446783867886
 30
0.0
 42
0.09450921
 70
     2
 50
225.0
  0
VERTEX
  5
1D396
330
1D393
100
AcDbEntity
  8
AM_0
  6
AUSGEZOGEN
 62
     7
100
AcDbVertex
100
AcDb2dVertex
 10
19177.90607872071
 20
2063.032477227887
 30
0.0
 42
0.08990245
 70
     2
 50
247.5
  0
VERTEX
  5
1D397
330
1D393
100
AcDbEntity
  8
AM_0
  6
AUSGEZOGEN
 62
     7
100
AcDbVertex
100
AcDb2dVertex
 10
19177.60578575072
 20
2061.364172787886
 30
0.0
 42
0.08990249
 70
     2
 50
270.0
  0
VERTEX
  5
1D398
330
1D393
100
AcDbEntity
  8
AM_0
  6
AUSGEZOGEN
 62
     7
100
AcDbVertex
100
AcDb2dVertex
 10
19177.90607872071
 20
2059.695868337886
 30
0.0
 42
0.09450918
 70
     2
 50
292.5
  0
VERTEX
  5
1D399
330
1D393
100
AcDbEntity
  8
AM_0
  6
AUSGEZOGEN
 62
     7
100
AcDbVertex
100
AcDb2dVertex
 10
19178.76130333072
 20
2058.281561697886
 30
0.0
 42
0.08801567
 70
     2
 50
315.0
  0
VERTEX
  5
1D39A
330
1D393
100
AcDbEntity
  8
AM_0
  6
AUSGEZOGEN
 62
     7
100
AcDbVertex
100
AcDb2dVertex
 10
19179.85584679072
 20
2057.427649347886
 30
0.0
 50
45.0
  0
SEQEND
  5
1D39B
330
1D393
100
AcDbEntity
  8
AM_0
 62
     7
  0
LINE
  5
1D39C
330
1F
100
AcDbEntity
  8
AM_0
  6
AUSGEZOGEN
 62
     7
100
AcDbLine
 10
19193.85572472071
 20
2065.302649347886
 30
0.0
 11
19179.85303917071
 21
2065.302649347886
 31
0.0
  0
LINE
  5
1D39D
330
1F
100
AcDbEntity
  8
AM_0
  6
AUSGEZOGEN
 62
     7
100
AcDbLine
 10
19193.85572472071
 20
2057.425696217886
 30
0.0
 11
19179.85303917071
 21
2057.425696217886
 31
0.0
  0
LINE
  5
1D39E
330
1F
100
AcDbEntity
  8
AM_0
  6
AUSGEZOGEN
 62
     7
100
AcDbLine
 10
19193.85572472071
 20
2040.179602467886
 30
0.0
 11
19179.85303917071
 21
2040.179602467886
 31
0.0
  0
LINE
  5
1D39F
330
1F
100
AcDbEntity
  8
AM_0
  6
AUSGEZOGEN
 62
     7
100
AcDbLine
 10
19193.85572472071
 20
2032.302893487886
 30
0.0
 11
19179.85303917071
 21
2032.302893487886
 31
0.0
  0
LINE
  5
1D3A0
330
1F
100
AcDbEntity
  8
AM_0
  6
AUSGEZOGEN
 62
     7
100
AcDbLine
 10
19217.86054650072
 20
2057.425818287886
 30
0.0
 11
19231.85834923072
 21
2057.425818287886
 31
0.0
  0
LINE
  5
1D3A1
330
1F
100
AcDbEntity
  8
AM_0
  6
AUSGEZOGEN
 62
     7
100
AcDbLine
 10
19217.86054650072
 20
2040.179724537886
 30
0.0
 11
19231.85834923072
 21
2040.179724537886
 31
0.0
  0
LINE
  5
1D3A2
330
1F
100
AcDbEntity
  8
AM_0
  6
AUSGEZOGEN
 62
     7
100
AcDbLine
 10
19217.86054650072
 20
2065.302771417886
 30
0.0
 11
19231.85834923072
 21
2065.302771417886
 31
0.0
  0
ARC
  5
1D3A3
330
1F
100
AcDbEntity
  8
AM_0
  6
AUSGEZOGEN
 62
     7
100
AcDbCircle
 10
19233.94453087072
 20
2031.952185477885
 30
0.0
 40
15.37492561
100
AcDbArc
 50
227.3192748999504
 51
252.6806030300693
  0
ARC
  5
1D3A4
330
1F
100
AcDbEntity
  8
AM_0
  6
AUSGEZOGEN
 62
     7
100
AcDbCircle
 10
19250.21406212072
 20
2039.886755787886
 30
0.0
 40
30.75504303
100
AcDbArc
 50
227.3215331999052
 51
252.678283690061
  0
ARC
  5
1D3A5
330
1F
100
AcDbEntity
  8
AM_0
  6
AUSGEZOGEN
 62
     7
100
AcDbCircle
 10
19265.21406212072
 20
2065.863318287886
 30
0.0
 40
61.49993134
100
AcDbArc
 50
227.3193969699964
 51
252.6802368200678
  0
LINE
  5
1D3A6
330
1F
100
AcDbEntity
  8
AM_0
  6
AUSGEZOGEN
 62
     7
100
AcDbLine
 10
19222.24531212071
 20
2027.445319027886
 30
0.0
 11
19253.42329064071
 21
2009.445319027886
 31
0.0
  0
LINE
  5
1D3A7
330
1F
100
AcDbEntity
  8
AM_0
  6
AUSGEZOGEN
 62
     7
100
AcDbLine
 10
19224.82343712072
 20
2031.156287037886
 30
0.0
 11
19236.76435509071
 21
2044.535193287886
 31
0.0
  0
LINE
  5
1D3A8
330
1F
100
AcDbEntity
  8
AM_0
  6
AUSGEZOGEN
 62
     7
100
AcDbLine
 10
19222.06953087072
 20
2030.145544857886
 30
0.0
 11
19255.84516564071
 21
2010.645270197886
 31
0.0
  0
LINE
  5
1D3A9
330
1F
100
AcDbEntity
  8
AM_0
  6
AUSGEZOGEN
 62
     7
100
AcDbLine
 10
19223.20234337072
 20
2032.093787037887
 30
0.0
 11
19256.97797814071
 21
2012.593512387886
 31
0.0
  0
LINE
  5
1D3AA
330
1F
100
AcDbEntity
  8
AM_0
  6
AUSGEZOGEN
 62
     7
100
AcDbLine
 10
19217.86054650072
 20
2032.303015557886
 30
0.0
 11
19217.86054650072
 21
2065.302771417886
 31
0.0
  0
LINE
  5
1D3AB
330
1F
100
AcDbEntity
  8
AM_0
  6
AUSGEZOGEN
 62
     7
100
AcDbLine
 10
19208.85664025071
 20
2032.347693287886
 30
0.0
 11
19208.85664025071
 21
2063.801550717886
 31
0.0
  0
LINE
  5
1D3AC
330
1F
100
AcDbEntity
  8
AM_0
  6
AUSGEZOGEN
 62
     7
100
AcDbLine
 10
19202.86054650071
 20
2032.347693287886
 30
0.0
 11
19202.86054650071
 21
2063.801550717886
 31
0.0
  0
LINE
  5
1D3AD
330
1F
100
AcDbEntity
  8
AM_0
  6
AUSGEZOGEN
 62
     7
100
AcDbLine
 10
19193.85664025071
 20
2062.254919857887
 30
0.0
 11
19202.85688439071
 21
2062.254919857887
 31
0.0
  0
LINE
  5
1D3AE
330
1F
100
AcDbEntity
  8
anbauteile dünn
100
AcDbLine
 10
19193.85664025071
 20
2060.755896417886
 30
0.0
 11
19202.86176720072
 21
2060.755896417886
 31
0.0
  0
LINE
  5
1D3AF
330
1F
100
AcDbEntity
  8
anbauteile dünn
100
AcDbLine
 10
19193.85664025071
 20
2036.849646417886
 30
0.0
 11
19202.86176720072
 21
2036.849646417886
 31
0.0
  0
LINE
  5
1D3B0
330
1F
100
AcDbEntity
  8
AM_0
  6
AUSGEZOGEN
 62
     7
100
AcDbLine
 10
19217.86054650072
 20
2062.254919857887
 30
0.0
 11
19208.86030236071
 21
2062.254919857887
 31
0.0
  0
LINE
  5
1D3B1
330
1F
100
AcDbEntity
  8
anbauteile dünn
100
AcDbLine
 10
19217.86054650072
 20
2060.755896417886
 30
0.0
 11
19208.85541955071
 21
2060.755896417886
 31
0.0
  0
LINE
  5
1D3B2
330
1F
100
AcDbEntity
  8
AM_0
  6
AUSGEZOGEN
 62
     7
100
AcDbLine
 10
19208.85664025071
 20
2059.552771417886
 30
0.0
 11
19202.85688439071
 21
2059.552771417886
 31
0.0
  0
LINE
  5
1D3B3
330
1F
100
AcDbEntity
  8
AM_0
  6
AUSGEZOGEN
 62
     7
100
AcDbLine
 10
19208.85664025071
 20
2063.802771417886
 30
0.0
 11
19202.85688439071
 21
2063.802771417886
 31
0.0
  0
LINE
  5
1D3B4
330
1F
100
AcDbEntity
  8
anbauteile dünn
100
AcDbLine
 10
19217.86054650072
 20
2036.849646417886
 30
0.0
 11
19208.85541955071
 21
2036.849646417886
 31
0.0
  0
LINE
  5
1D3B5
330
1F
100
AcDbEntity
  8
AM_0
  6
AUSGEZOGEN
 62
     7
100
AcDbLine
 10
19202.86054650071
 20
2048.802771417886
 30
0.0
 11
19208.86030236071
 21
2048.802771417886
 31
0.0
  0
LINE
  5
1D3B6
330
1F
100
AcDbEntity
  8
AM_0
  6
AUSGEZOGEN
 62
     7
100
AcDbLine
 10
19208.85664025071
 20
2038.052527277886
 30
0.0
 11
19202.85688439071
 21
2038.052527277886
 31
0.0
  0
LINE
  5
1D3B7
330
1F
100
AcDbEntity
  8
AM_0
  6
AUSGEZOGEN
 62
     7
100
AcDbLine
 10
19193.85664025071
 20
2035.350622977886
 30
0.0
 11
19202.85688439071
 21
2035.350622977886
 31
0.0
  0
LINE
  5
1D3B8
330
1F
100
AcDbEntity
  8
AM_0
  6
AUSGEZOGEN
 62
     7
100
AcDbLine
 10
19217.86054650072
 20
2035.350622977886
 30
0.0
 11
19208.86030236071
 21
2035.350622977886
 31
0.0
  0
LINE
  5
1D3B9
330
1F
100
AcDbEntity
  8
AM_0
  6
AUSGEZOGEN
 62
     7
100
AcDbLine
 10
19208.85664025071
 20
2032.347693287886
 30
0.0
 11
19202.85688439071
 21
2032.347693287886
 31
0.0
  0
LINE
  5
1D3BA
330
1F
100
AcDbEntity
  8
AM_0
  6
AUSGEZOGEN
 62
     7
100
AcDbLine
 10
19217.86054650072
 20
2032.303015557886
 30
0.0
 11
19223.20112267072
 21
2032.303015557886
 31
0.0
  0
LINE
  5
1D3BB
330
1F
100
AcDbEntity
  8
AM_0
  6
AUSGEZOGEN
 62
     7
100
AcDbLine
 10
19223.36835900072
 20
2029.393591727886
 30
0.0
 11
19222.24287072072
 21
2027.445319027886
 31
0.0
  0
LINE
  5
1D3BC
330
1F
100
AcDbEntity
  8
AM_0
  6
AUSGEZOGEN
 62
     7
100
AcDbLine
 10
19223.20234337072
 20
2032.093787037887
 30
0.0
 11
19222.07685509071
 21
2030.145544857886
 31
0.0
  0
LINE
  5
1D3BD
330
1F
100
AcDbEntity
  8
AM_0
  6
AUSGEZOGEN
 62
     7
100
AcDbLine
 10
19223.20234337072
 20
2032.093787037887
 30
0.0
 11
19223.20234337072
 21
2032.302527277886
 31
0.0
  0
LINE
  5
1D3BE
330
1F
100
AcDbEntity
  8
AM_0
  6
AUSGEZOGEN
 62
     7
100
AcDbLine
 10
19226.14179650071
 20
2025.199225277886
 30
0.0
 11
19223.51728478072
 21
2020.653326837886
 31
0.0
  0
POLYLINE
  5
1D3BF
330
1F
100
AcDbEntity
  8
AM_0
  6
AUSGEZOGEN
 62
     7
100
AcDb2dPolyline
 66
     1
 10
0.0
 20
0.0
 30
0.0
  0
VERTEX
  5
1D3C0
330
1D3BF
100
AcDbEntity
  8
AM_0
  6
AUSGEZOGEN
 62
     7
100
AcDbVertex
100
AcDb2dVertex
 10
19272.61066857072
 20
2040.177527277887
 30
0.0
 42
0.08801575
 70
     2
 50
203.2982177700001
  0
VERTEX
  5
1D3C1
330
1D3BF
100
AcDbEntity
  8
AM_0
  6
AUSGEZOGEN
 62
     7
100
AcDbVertex
100
AcDb2dVertex
 10
19271.51612511071
 20
2039.323614927886
 30
0.0
 42
0.09450921
 70
     2
 50
225.0
  0
VERTEX
  5
1D3C2
330
1D3BF
100
AcDbEntity
  8
AM_0
  6
AUSGEZOGEN
 62
     7
100
AcDbVertex
100
AcDb2dVertex
 10
19270.66090050072
 20
2037.909308287886
 30
0.0
 42
0.08990245
 70
     2
 50
247.5
  0
VERTEX
  5
1D3C3
330
1D3BF
100
AcDbEntity
  8
AM_0
  6
AUSGEZOGEN
 62
     7
100
AcDbVertex
100
AcDb2dVertex
 10
19270.36060753072
 20
2036.241003837886
 30
0.0
 42
0.08990249
 70
     2
 50
270.0
  0
VERTEX
  5
1D3C4
330
1D3BF
100
AcDbEntity
  8
AM_0
  6
AUSGEZOGEN
 62
     7
100
AcDbVertex
100
AcDb2dVertex
 10
19270.66090050072
 20
2034.572699397886
 30
0.0
 42
0.09450918
 70
     2
 50
292.5
  0
VERTEX
  5
1D3C5
330
1D3BF
100
AcDbEntity
  8
AM_0
  6
AUSGEZOGEN
 62
     7
100
AcDbVertex
100
AcDb2dVertex
 10
19271.51612511071
 20
2033.158392757886
 30
0.0
 42
0.08801594
 70
     2
 50
315.0
  0
VERTEX
  5
1D3C6
330
1D3BF
100
AcDbEntity
  8
AM_0
  6
AUSGEZOGEN
 62
     7
100
AcDbVertex
100
AcDb2dVertex
 10
19272.61066857072
 20
2032.304480397886
 30
0.0
 50
45.0
  0
SEQEND
  5
1D3C7
330
1D3BF
100
AcDbEntity
  8
AM_0
 62
     7
  0
LINE
  5
1D3C8
330
1F
100
AcDbEntity
  8
AM_0
  6
AUSGEZOGEN
 62
     7
100
AcDbLine
 10
19286.61054650071
 20
2032.303015557886
 30
0.0
 11
19286.61054650071
 21
2065.302771417886
 31
0.0
  0
ARC
  5
1D3C9
330
1F
100
AcDbEntity
  8
AM_0
  6
AUSGEZOGEN
 62
     7
100
AcDbCircle
 10
19269.25703087072
 20
2034.476599537886
 30
0.0
 40
1.57500005
100
AcDbArc
 50
33.9763946499703
 51
150.0022888200753
  0
ARC
  5
1D3CA
330
1F
100
AcDbEntity
  8
AM_0
  6
AUSGEZOGEN
 62
     7
100
AcDbCircle
 10
19263.93476525072
 20
2050.301794857887
 30
0.0
 40
11.25000286
100
AcDbArc
 50
90.0
 51
136.0375366201117
  0
LINE
  5
1D3CB
330
1F
100
AcDbEntity
  8
AM_0
  6
AUSGEZOGEN
 62
     7
100
AcDbLine
 10
19270.36054650072
 20
2061.551794857886
 30
0.0
 11
19250.23359337071
 21
2061.551794857886
 31
0.0
  0
LINE
  5
1D3CC
330
1F
100
AcDbEntity
  8
AM_0
  6
AUSGEZOGEN
 62
     7
100
AcDbLine
 10
19267.74335900072
 20
2036.298376887886
 30
0.0
 11
19250.02241173072
 21
2047.600134697886
 31
0.0
  0
LINE
  5
1D3CD
330
1F
100
AcDbEntity
  8
AM_0
  6
AUSGEZOGEN
 62
     7
100
AcDbLine
 10
19234.11054650071
 20
2041.563269467886
 30
0.0
 11
19234.11054650071
 21
2060.990271417886
 31
0.0
  0
ARC
  5
1D3CE
330
1F
100
AcDbEntity
  8
AM_0
  6
AUSGEZOGEN
 62
     7
100
AcDbCircle
 10
19216.45429650071
 20
2048.802771417886
 30
0.0
 40
17.65638733
100
AcDbArc
 50
330.7585143999166
 51
29.24150085004262
  0
LINE
  5
1D3CF
330
1F
100
AcDbEntity
  8
AM_0
  6
AUSGEZOGEN
 62
     7
100
AcDbLine
 10
19240.57539025072
 20
2058.436560477886
 30
0.0
 11
19240.57539025072
 21
2054.523474537885
 31
0.0
  0
ARC
  5
1D3D0
330
1F
100
AcDbEntity
  8
AM_0
  6
AUSGEZOGEN
 62
     7
100
AcDbCircle
 10
19240.53632775071
 20
2050.301794857887
 30
0.0
 40
11.25000286
100
AcDbArc
 50
43.96247863999224
 51
90.00001525995328
  0
LINE
  5
1D3D1
330
1F
100
AcDbEntity
  8
AM_0
  6
AUSGEZOGEN
 62
     7
100
AcDbLine
 10
19234.10078087072
 20
2061.551794857886
 30
0.0
 11
19250.23237267072
 21
2061.551794857886
 31
0.0
  0
POLYLINE
  5
1D3D2
330
1F
100
AcDbEntity
  8
AM_0
  6
AUSGEZOGEN
 62
     7
100
AcDb2dPolyline
 66
     1
 10
0.0
 20
0.0
 30
0.0
  0
VERTEX
  5
1D3D3
330
1D3D2
100
AcDbEntity
  8
AM_0
  6
AUSGEZOGEN
 62
     7
100
AcDbVertex
100
AcDb2dVertex
 10
19231.86042443072
 20
2057.427771417886
 30
0.0
 42
0.08801567
 70
     2
 50
23.29824828999999
  0
VERTEX
  5
1D3D4
330
1D3D2
100
AcDbEntity
  8
AM_0
  6
AUSGEZOGEN
 62
     7
100
AcDbVertex
100
AcDb2dVertex
 10
19232.95496789071
 20
2058.281683767885
 30
0.0
 42
0.09450925
 70
     2
 50
44.99999999999999
  0
VERTEX
  5
1D3D5
330
1D3D2
100
AcDbEntity
  8
AM_0
  6
AUSGEZOGEN
 62
     7
100
AcDbVertex
100
AcDb2dVertex
 10
19233.81019249071
 20
2059.695990407886
 30
0.0
 42
0.08990236
 70
     2
 50
67.49999999999999
  0
VERTEX
  5
1D3D6
330
1D3D2
100
AcDbEntity
  8
AM_0
  6
AUSGEZOGEN
 62
     7
100
AcDbVertex
100
AcDb2dVertex
 10
19234.11048546072
 20
2061.364294857886
 30
0.0
 42
0.08990249
 70
     2
 50
89.99999999999998
  0
VERTEX
  5
1D3D7
330
1D3D2
100
AcDbEntity
  8
AM_0
  6
AUSGEZOGEN
 62
     7
100
AcDbVertex
100
AcDb2dVertex
 10
19233.81019249071
 20
2063.032599297886
 30
0.0
 42
0.09450918
 70
     2
 50
112.5
  0
VERTEX
  5
1D3D8
330
1D3D2
100
AcDbEntity
  8
AM_0
  6
AUSGEZOGEN
 62
     7
100
AcDbVertex
100
AcDb2dVertex
 10
19232.95496789071
 20
2064.446905937886
 30
0.0
 42
0.088016
 70
     2
 50
135.0
  0
VERTEX
  5
1D3D9
330
1D3D2
100
AcDbEntity
  8
AM_0
  6
AUSGEZOGEN
 62
     7
100
AcDbVertex
100
AcDb2dVertex
 10
19231.86042443072
 20
2065.300818287886
 30
0.0
 50
225.0
  0
SEQEND
  5
1D3DA
330
1D3D2
100
AcDbEntity
  8
AM_0
 62
     7
  0
ARC
  5
1D3DB
330
1F
100
AcDbEntity
  8
AM_0
  6
AUSGEZOGEN
 62
     7
100
AcDbCircle
 10
19252.23554650072
 20
2061.581580007886
 30
0.0
 40
4.99999952
100
AcDbArc
 50
223.9555053698636
 51
316.0444946301364
  0
ARC
  5
1D3DC
330
1F
100
AcDbEntity
  8
AM_0
  6
AUSGEZOGEN
 62
     7
100
AcDbCircle
 10
19225.57539025071
 20
2054.525427667886
 30
0.0
 40
15.00000286
100
AcDbArc
 50
318.2495117199035
 51
359.9999694800022
  0
ARC
  5
1D3DD
330
1F
100
AcDbEntity
  8
AM_0
  6
AUSGEZOGEN
 62
     7
100
AcDbCircle
 10
19230.16523400072
 20
2036.615271417886
 30
0.0
 40
3.94526052
100
AcDbArc
 50
53.35845947012202
 51
64.55288696006992
  0
LINE
  5
1D3DE
330
1F
100
AcDbEntity
  8
AM_0
  6
AUSGEZOGEN
 62
     7
100
AcDbLine
 10
19270.36054650072
 20
2036.615271417886
 30
0.0
 11
19270.36054650072
 21
2060.990271417886
 31
0.0
  0
ARC
  5
1D3DF
330
1F
100
AcDbEntity
  8
AM_0
  6
AUSGEZOGEN
 62
     7
100
AcDbCircle
 10
19288.01679650072
 20
2048.802771417886
 30
0.0
 40
17.65638733
100
AcDbArc
 50
150.7584991499574
 51
209.2415161099031
  0
POLYLINE
  5
1D3E0
330
1F
100
AcDbEntity
  8
AM_0
  6
AUSGEZOGEN
 62
     7
100
AcDb2dPolyline
 66
     1
 10
0.0
 20
0.0
 30
0.0
  0
VERTEX
  5
1D3E1
330
1D3E0
100
AcDbEntity
  8
AM_0
  6
AUSGEZOGEN
 62
     7
100
AcDbVertex
100
AcDb2dVertex
 10
19272.61066857072
 20
2065.300818287886
 30
0.0
 42
0.08801594
 70
     2
 50
203.29818726
  0
VERTEX
  5
1D3E2
330
1D3E0
100
AcDbEntity
  8
AM_0
  6
AUSGEZOGEN
 62
     7
100
AcDbVertex
100
AcDb2dVertex
 10
19271.51612511071
 20
2064.446905937886
 30
0.0
 42
0.09450921
 70
     2
 50
225.0
  0
VERTEX
  5
1D3E3
330
1D3E0
100
AcDbEntity
  8
AM_0
  6
AUSGEZOGEN
 62
     7
100
AcDbVertex
100
AcDb2dVertex
 10
19270.66090050072
 20
2063.032599297886
 30
0.0
 42
0.08990245
 70
     2
 50
247.5
  0
VERTEX
  5
1D3E4
330
1D3E0
100
AcDbEntity
  8
AM_0
  6
AUSGEZOGEN
 62
     7
100
AcDbVertex
100
AcDb2dVertex
 10
19270.36060753072
 20
2061.364294857886
 30
0.0
 42
0.08990249
 70
     2
 50
270.0
  0
VERTEX
  5
1D3E5
330
1D3E0
100
AcDbEntity
  8
AM_0
  6
AUSGEZOGEN
 62
     7
100
AcDbVertex
100
AcDb2dVertex
 10
19270.66090050072
 20
2059.695990407886
 30
0.0
 42
0.09450918
 70
     2
 50
292.5
  0
VERTEX
  5
1D3E6
330
1D3E0
100
AcDbEntity
  8
AM_0
  6
AUSGEZOGEN
 62
     7
100
AcDbVertex
100
AcDb2dVertex
 10
19271.51612511071
 20
2058.281683767885
 30
0.0
 42
0.08801567
 70
     2
 50
315.0
  0
VERTEX
  5
1D3E7
330
1D3E0
100
AcDbEntity
  8
AM_0
  6
AUSGEZOGEN
 62
     7
100
AcDbVertex
100
AcDb2dVertex
 10
19272.61066857072
 20
2057.427771417886
 30
0.0
 50
45.0
  0
SEQEND
  5
1D3E8
330
1D3E0
100
AcDbEntity
  8
AM_0
 62
     7
  0
LINE
  5
1D3E9
330
1F
100
AcDbEntity
  8
AM_0
  6
AUSGEZOGEN
 62
     7
100
AcDbLine
 10
19286.61054650071
 20
2065.302771417886
 30
0.0
 11
19272.60786095071
 21
2065.302771417886
 31
0.0
  0
LINE
  5
1D3EA
330
1F
100
AcDbEntity
  8
AM_0
  6
AUSGEZOGEN
 62
     7
100
AcDbLine
 10
19286.61054650071
 20
2057.425818287886
 30
0.0
 11
19272.60786095071
 21
2057.425818287886
 31
0.0
  0
LINE
  5
1D3EB
330
1F
100
AcDbEntity
  8
AM_0
  6
AUSGEZOGEN
 62
     7
100
AcDbLine
 10
19286.61054650071
 20
2040.179724537886
 30
0.0
 11
19272.60786095071
 21
2040.179724537886
 31
0.0
  0
LINE
  5
1D3EC
330
1F
100
AcDbEntity
  8
AM_0
  6
AUSGEZOGEN
 62
     7
100
AcDbLine
 10
19267.89960900071
 20
2035.267615167886
 30
0.0
 11
19255.35200158072
 21
2013.534186207886
 31
0.0
  0
LINE
  5
1D3ED
330
1F
100
AcDbEntity
  8
AM_0
  6
AUSGEZOGEN
 62
     7
100
AcDbLine
 10
19231.99140587072
 20
2021.820319027886
 30
0.0
 11
19229.36689415071
 21
2017.274420587886
 31
0.0
  0
ARC
  5
1D3EE
330
1F
100
AcDbEntity
  8
AM_0
  6
AUSGEZOGEN
 62
     7
100
AcDbCircle
 10
19251.47382775072
 20
2021.830084647886
 30
0.0
 40
15.37492657
100
AcDbArc
 50
227.319519040072
 51
252.6808471700282
  0
LINE
  5
1D3EF
330
1F
100
AcDbEntity
  8
AM_0
  6
AUSGEZOGEN
 62
     7
100
AcDbLine
 10
19243.68085900072
 20
2015.072272147886
 30
0.0
 11
19241.05634728072
 21
2010.525153007886
 31
0.0
  0
LINE
  5
1D3F0
330
1F
100
AcDbEntity
  8
AM_0
  6
AUSGEZOGEN
 62
     7
100
AcDbLine
 10
19254.54999962072
 20
2011.395514337886
 30
0.0
 11
19253.42451134071
 21
2009.447272147886
 31
0.0
  0
LINE
  5
1D3F1
330
1F
100
AcDbEntity
  8
AM_0
  6
AUSGEZOGEN
 62
     7
100
AcDbLine
 10
19249.53046837072
 20
2011.698248707886
 30
0.0
 11
19246.90595665071
 21
2007.152350277886
 31
0.0
  0
LINE
  5
1D3F2
330
1F
100
AcDbEntity
  8
AM_0
  6
AUSGEZOGEN
 62
     7
100
AcDbLine
 10
19256.97187462072
 20
2012.591803397886
 30
0.0
 11
19255.84638634071
 21
2010.643561207886
 31
0.0
  0
LINE
  5
1D3F3
330
1F
100
AcDbEntity
  8
AM_0
  6
AUSGEZOGEN
 62
     7
100
AcDbLine
 10
19286.61054650071
 20
2032.303015557886
 30
0.0
 11
19272.60786095071
 21
2032.303015557886
 31
0.0
  0
LWPOLYLINE
  5
1D3F4
330
1F
100
AcDbEntity
  8
AM_0
100
AcDbPolyline
 90
        4
 70
     0
 43
0.0
 10
19149.49470141711
 20
2036.053625907886
 10
19149.49470141711
 20
2021.663842685702
 10
19170.02159837126
 20
2021.663842685702
 10
19170.02159837126
 20
2036.053625907886
  0
LWPOLYLINE
  5
1D3F5
330
1F
100
AcDbEntity
  8
AM_0
100
AcDbPolyline
 90
        4
 70
     0
 43
0.0
 10
19170.02159837126
 20
2061.551672787886
 10
19170.02159837126
 20
2074.464238643544
 10
19149.49470141711
 20
2074.464238643544
 10
19149.49470141711
 20
2061.449053285659
  0
LINE
  5
1D3F6
330
1F
100
AcDbEntity
  8
AM_0
  6
AUSGEZOGEN
 62
     7
100
AcDbLine
 10
19125.10572472072
 20
2032.302649347885
 30
0.0
 11
19139.10352745072
 21
2032.302649347885
 31
0.0
  0
LINE
  5
1D3F7
330
1F
100
AcDbEntity
  8
AM_0
  6
AUSGEZOGEN
 62
     7
100
AcDbLine
 10
19177.60572472072
 20
2036.053625907886
 30
0.0
 11
19170.02159837126
 21
2036.053625907886
 31
0.0
  0
LINE
  5
1D3F8
330
1F
100
AcDbEntity
  8
AM_0
  6
AUSGEZOGEN
 62
     7
100
AcDbLine
 10
19141.34595909072
 20
2036.053625907886
 30
0.0
 11
19149.49470141711
 21
2036.053625907886
 31
0.0
  0
POLYLINE
  5
1D3F9
330
1F
100
AcDbEntity
  8
AM_0
  6
AUSGEZOGEN
 62
     7
100
AcDb2dPolyline
 66
     1
 10
0.0
 20
0.0
 30
0.0
  0
VERTEX
  5
1D3FA
330
1D3F9
100
AcDbEntity
  8
AM_0
  6
AUSGEZOGEN
 62
     7
100
AcDbVertex
100
AcDb2dVertex
 10
19139.10560265072
 20
2040.177649347885
 30
0.0
 42
-0.08801567
 70
     2
 50
23.29824828999999
  0
VERTEX
  5
1D3FB
330
1D3F9
100
AcDbEntity
  8
AM_0
  6
AUSGEZOGEN
 62
     7
100
AcDbVertex
100
AcDb2dVertex
 10
19140.20014611072
 20
2039.323736997886
 30
0.0
 42
-0.09450925
 70
     2
 50
44.99999999999999
  0
VERTEX
  5
1D3FC
330
1D3F9
100
AcDbEntity
  8
AM_0
  6
AUSGEZOGEN
 62
     7
100
AcDbVertex
100
AcDb2dVertex
 10
19141.05537071072
 20
2037.909430357886
 30
0.0
 42
-0.08990236
 70
     2
 50
67.49999999999999
  0
VERTEX
  5
1D3FD
330
1D3F9
100
AcDbEntity
  8
AM_0
  6
AUSGEZOGEN
 62
     7
100
AcDbVertex
100
AcDb2dVertex
 10
19141.35566368072
 20
2036.241125907886
 30
0.0
 42
-0.08990249
 70
     2
 50
89.99999999999998
  0
VERTEX
  5
1D3FE
330
1D3F9
100
AcDbEntity
  8
AM_0
  6
AUSGEZOGEN
 62
     7
100
AcDbVertex
100
AcDb2dVertex
 10
19141.05537071072
 20
2034.572821467885
 30
0.0
 42
-0.09450918
 70
     2
 50
112.5
  0
VERTEX
  5
1D3FF
330
1D3F9
100
AcDbEntity
  8
AM_0
  6
AUSGEZOGEN
 62
     7
100
AcDbVertex
100
AcDb2dVertex
 10
19140.20014611072
 20
2033.158514827885
 30
0.0
 42
-0.088016
 70
     2
 50
135.0
  0
VERTEX
  5
1D400
330
1D3F9
100
AcDbEntity
  8
AM_0
  6
AUSGEZOGEN
 62
     7
100
AcDbVertex
100
AcDb2dVertex
 10
19139.10560265072
 20
2032.304602477886
 30
0.0
 50
225.0
  0
SEQEND
  5
1D401
330
1D3F9
100
AcDbEntity
  8
AM_0
 62
     7
  0
LINE
  5
1D402
330
1F
100
AcDbEntity
  8
AM_0
100
AcDbLine
 10
19149.49470141711
 20
2036.053625907886
 30
0.0
 11
19170.02159837126
 21
2061.551672787886
 31
0.0
  0
LINE
  5
1D403
330
1F
100
AcDbEntity
  8
AM_0
100
AcDbLine
 10
19170.02159837126
 20
2036.053625907886
 30
0.0
 11
19149.41175499071
 21
2061.551672787886
 31
0.0
  0
LINE
  5
1D404
330
1F
100
AcDbEntity
  8
bezugslinien
100
AcDbLine
 10
19346.2565639333
 20
2051.670050467887
 30
0.0
 11
19339.4043300433
 21
2051.670050467887
 31
0.0
  0
LINE
  5
1D405
330
1F
100
AcDbEntity
  8
bezugslinien
100
AcDbLine
 10
19346.2565639333
 20
2050.236487237886
 30
0.0
 11
19335.4654262333
 21
2050.236487237886
 31
0.0
  0
LINE
  5
1D406
330
1F
100
AcDbEntity
  8
bezugslinien
100
AcDbLine
 10
19346.2565639333
 20
2045.935736507886
 30
0.0
 11
19339.4043300433
 21
2045.935736507886
 31
0.0
  0
LINE
  5
1D407
330
1F
100
AcDbEntity
  8
bezugslinien
100
AcDbLine
 10
19346.2565639333
 20
2047.369299737886
 30
0.0
 11
19335.4654262333
 21
2047.369299737886
 31
0.0
  0
LINE
  5
1D408
330
1F
100
AcDbEntity
  8
bezugslinien
100
AcDbLine
 10
19362.0142543633
 20
2048.802893487886
 30
0.0
 11
19329.9548671533
 21
2048.802893487886
 31
0.0
  0
LINE
  5
1D409
330
1F
100
AcDbEntity
  8
bezugslinien
100
AcDbLine
 10
19329.9548061233
 20
2048.802893487886
 30
0.0
 11
19346.79410055331
 21
2042.673865167886
 31
0.0
  0
LINE
  5
1D40A
330
1F
100
AcDbEntity
  8
bezugslinien
100
AcDbLine
 10
19329.9548061233
 20
2048.802893487886
 30
0.0
 11
19346.79410055331
 21
2054.931921807886
 31
0.0
  0
LINE
  5
1D40B
330
1F
100
AcDbEntity
  8
bezugslinien
100
AcDbLine
 10
19346.7941615933
 20
2054.931921807886
 30
0.0
 11
19346.7941615933
 21
2042.673895687886
 31
0.0
  0
LINE
  5
1D40C
330
1F
100
AcDbEntity
  8
bezugslinien
100
AcDbLine
 10
19346.2565639333
 20
2053.103644217887
 30
0.0
 11
19343.3431117833
 21
2053.103644217887
 31
0.0
  0
LINE
  5
1D40D
330
1F
100
AcDbEntity
  8
bezugslinien
100
AcDbLine
 10
19346.2565639333
 20
2044.502142757886
 30
0.0
 11
19343.3431117833
 21
2044.502142757886
 31
0.0
  0
MTEXT
  5
1D40E
330
1F
100
AcDbEntity
  8
Beschriftung
100
AcDbMText
 10
19222.58971754541
 20
2148.780699964187
 30
0.0
 40
15.0
 41
1190.293354815057
 71
     1
 72
     5
  1
Druckminderer
 73
     1
 44
1.0
1001
ACAD
1000
MTEXTBEGIN
1070
    73
1070
     1
1070
    44
1040
1.0
1070
    74
1070
     0
1000
MTEXTEND
  0
MTEXT
  5
1D40F
330
1F
100
AcDbEntity
  8
Beschriftung
100
AcDbMText
 10
19273.09192536161
 20
2123.780699964187
 30
0.0
 40
15.0
 41
1190.293354815057
 71
     1
 72
     5
  1
Schmutzfänger
 73
     1
 44
1.0
1001
ACAD
1000
MTEXTBEGIN
1070
    73
1070
     1
1070
    44
1040
1.0
1070
    74
1070
     0
1000
MTEXTEND
  0
MTEXT
  5
1D410
330
1F
100
AcDbEntity
  8
Beschriftung
100
AcDbMText
 10
19322.58971754541
 20
2080.849544914316
 30
0.0
 40
15.0
 41
1190.293354815057
 71
     1
 72
     5
  1
Frischwasseranschluss R 3/4
 73
     1
 44
1.0
1001
ACAD
1000
MTEXTBEGIN
1070
    73
1070
     1
1070
    44
1040
1.0
1070
    74
1070
     0
1000
MTEXTEND
  0
LINE
  5
1D411
330
1F
100
AcDbEntity
  8
bezugslinien
100
AcDbLine
 10
19159.71667668099
 20
2061.537836177207
 30
0.0
 11
19213.70758558763
 21
2139.827939387812
 31
0.0
  0
LINE
  5
1D412
330
1F
100
AcDbEntity
  8
bezugslinien
100
AcDbLine
 10
19062.25729536379
 20
2046.701315458676
 30
0.0
 11
19163.70758558764
 21
2164.827939387812
 31
0.0
  0
LINE
  5
1D413
330
1F
100
AcDbEntity
  8
bezugslinien
100
AcDbLine
 10
18980.46621600735
 20
1828.286960524981
 30
0.0
 11
19020.45456299765
 21
1855.209294391798
 31
0.0
  0
MTEXT
  5
1D414
330
1F
100
AcDbEntity
  8
Beschriftung
100
AcDbMText
 10
19029.33669495543
 20
1864.162054968172
 30
0.0
 40
15.0
 41
1190.293354815057
 71
     1
 72
     5
  1
Rohranschluss
 73
     1
 44
1.0
1001
ACAD
1000
MTEXTBEGIN
1070
    73
1070
     1
1070
    44
1040
1.0
1070
    74
1070
     0
1000
MTEXTEND
  0
ENDSEC
  0
SECTION
  2
OBJECTS
  0
DICTIONARY
  5
C
330
0
100
AcDbDictionary
281
     1
  3
ACAD_2007HEADERVARS_RT
350
1D92E
  3
ACAD_COLOR
350
BE
  3
ACAD_GROUP
350
D
  3
ACAD_LAYOUT
350
1A
  3
ACAD_MATERIAL
350
BD
  3
ACAD_MLEADERSTYLE
350
1D7E7
  3
ACAD_MLINESTYLE
350
17
  3
ACAD_PLOTSETTINGS
350
19
  3
ACAD_PLOTSTYLENAME
350
E
  3
ACAD_SCALELIST
350
1D7D5
  3
ACAD_TABLESTYLE
350
11A
  3
ACAD_VISUALSTYLE
350
1D7C1
  3
ACDB_RECOMPOSE_DATA
350
1D92C
  3
AcDbVariableDictionary
350
94
  3
AcmDictionary
350
5B
  3
AMG
350
41
  3
AMGSNAPSETTINGS
350
26B
  3
ASE_INDEX_DICTIONARY
350
1D927
  3
DWGPROPS
350
1D92D
  0
DICTIONARY
  5
5E1
330
2
100
AcDbDictionary
280
     1
281
     1
  3
ACAD_LAYERFILTERS
360
1AE08
  3
ACAD_LAYERSTATES
360
5E2
  3
ACLYDICTIONARY
360
1AE07
  0
DICTIONARY
  5
1D864
330
10
100
AcDbDictionary
280
     1
281
     1
  3
ADSK_XREC_LAYER_RECONCILED
360
1D865
  0
DICTIONARY
  5
1D866
330
2FB5
100
AcDbDictionary
280
     1
281
     1
  3
ADSK_XREC_LAYER_RECONCILED
360
1D867
  0
DICTIONARY
  5
1D868
330
1080A
100
AcDbDictionary
280
     1
281
     1
  3
ADSK_XREC_LAYER_RECONCILED
360
1D869
  0
DICTIONARY
  5
1D86A
330
10B76
100
AcDbDictionary
280
     1
281
     1
  3
ADSK_XREC_LAYER_RECONCILED
360
1D86B
  0
DICTIONARY
  5
1D86C
330
1CDE6
100
AcDbDictionary
280
     1
281
     1
  3
ADSK_XREC_LAYER_RECONCILED
360
1D86D
  0
DICTIONARY
  5
1D86E
330
1CDE7
100
AcDbDictionary
280
     1
281
     1
  3
ADSK_XREC_LAYER_RECONCILED
360
1D86F
  0
DICTIONARY
  5
8F
330
1F
100
AcDbDictionary
280
     1
281
     1
  3
ACAD_SORTENTS
360
9429
  0
DICTIONARY
  5
10117
330
87
100
AcDbDictionary
280
     1
281
     1
  0
DICTIONARY
  5
1D92E
102
{ACAD_REACTORS
330
C
102
}
330
C
100
AcDbDictionary
281
     1
  3
DIMARCSYM
350
1D92F
  0
DICTIONARY
  5
BE
102
{ACAD_REACTORS
330
C
102
}
330
C
100
AcDbDictionary
281
     1
  0
DICTIONARY
  5
D
102
{ACAD_REACTORS
330
C
102
}
330
C
100
AcDbDictionary
281
     1
  0
DICTIONARY
  5
1A
102
{ACAD_REACTORS
330
C
102
}
330
C
100
AcDbDictionary
281
     1
  3
Layout1
350
1E
  3
Layout2
350
26
  3
Model
350
22
  0
DICTIONARY
  5
BD
102
{ACAD_REACTORS
330
C
102
}
330
C
100
AcDbDictionary
281
     1
  3
ByBlock
350
1D7B1
  3
ByLayer
350
1D7A9
  3
Global
350
1D7B9
  0
DICTIONARY
  5
1D7E7
102
{ACAD_REACTORS
330
C
102
}
330
C
100
AcDbDictionary
281
     1
  3
Standard
350
1D7E8
  0
DICTIONARY
  5
17
102
{ACAD_REACTORS
330
C
102
}
330
C
100
AcDbDictionary
281
     1
  3
Standard
350
18
  0
DICTIONARY
  5
19
102
{ACAD_REACTORS
330
C
102
}
330
C
100
AcDbDictionary
281
     1
  0
ACDBDICTIONARYWDFLT
  5
E
102
{ACAD_REACTORS
330
C
102
}
330
C
100
AcDbDictionary
281
     1
  3
Normal
350
F
100
AcDbDictionaryWithDefault
340
F
  0
DICTIONARY
  5
1D7D5
102
{ACAD_REACTORS
330
C
102
}
330
C
100
AcDbDictionary
281
     1
  3
A0
350
1D7D6
  3
A1
350
1D7D7
  3
A2
350
1D7D8
  3
A3
350
1D7D9
  3
A4
350
1D7DA
  3
A5
350
1D7DB
  3
A6
350
1D7DC
  3
A7
350
1D7DD
  3
A8
350
1D7DE
  3
A9
350
1D7DF
  3
B0
350
1D7E0
  3
B1
350
1D7E1
  3
B2
350
1D7E2
  3
B3
350
1D7E3
  3
B4
350
1D7E4
  3
B5
350
1D7E5
  3
B6
350
1D7E6
  0
DICTIONARY
  5
11A
102
{ACAD_REACTORS
330
C
102
}
330
C
100
AcDbDictionary
281
     1
  3
Standard
350
11B
  0
DICTIONARY
  5
1D7C1
102
{ACAD_REACTORS
330
C
102
}
330
C
100
AcDbDictionary
281
     1
  3
2dWireframe
350
1D7C7
  3
3D Hidden
350
1D7C9
  3
3dWireframe
350
1D7C8
  3
Basic
350
1D7C6
  3
Brighten
350
1D7CD
  3
ColorChange
350
1D7D1
  3
Conceptual
350
1D7CA
  3
Dim
350
1D7CC
  3
EdgeColorOff
350
1D7D4
  3
Facepattern
350
1D7D0
  3
Flat
350
1D7C2
  3
FlatWithEdges
350
1D7C3
  3
Gouraud
350
1D7C4
  3
GouraudWithEdges
350
1D7C5
  3
JitterOff
350
1D7D2
  3
Linepattern
350
1D7CF
  3
OverhangOff
350
1D7D3
  3
Realistic
350
1D7CB
  3
Thicken
350
1D7CE
  0
XRECORD
  5
1D92C
102
{ACAD_REACTORS
330
C
102
}
330
C
100
AcDbXrecord
280
     1
 90
        1
330
11B
  0
DICTIONARY
  5
94
102
{ACAD_REACTORS
330
C
102
}
330
C
100
AcDbDictionary
281
     1
  3
CANNOSCALE
350
1D871
  3
CMLEADERSTYLE
350
1D870
  3
CTABLESTYLE
350
138
  3
DIMASSOC
350
96
  3
INDEXCTL
350
95
  3
PROJECTNAME
350
B168
  3
SORTENTS
350
1D872
  3
XCLIPFRAME
350
1D92A
  0
DICTIONARY
  5
5B
102
{ACAD_REACTORS
330
C
102
}
330
C
100
AcDbDictionary
281
     1
  3
AcmBOM
350
272
  3
AcmStdDictionary
350
61
  3
AMDTSECTSYM_ARROWCOLOR
350
123
  0
DICTIONARY
  5
41
102
{ACAD_REACTORS
330
C
102
}
330
C
100
AcDbDictionary
281
     1
  0
DICTIONARY
  5
26B
102
{ACAD_REACTORS
330
C
102
}
330
C
100
AcDbDictionary
281
     1
  0
DICTIONARY
  5
1D927
102
{ACAD_REACTORS
330
C
102
}
330
C
100
AcDbDictionary
281
     1
  3
ASEBlockHierarchyIndexRecord
350
1D929
1001
DCO15
1040
1670558359.218
  0
XRECORD
  5
1D92D
102
{ACAD_REACTORS
330
C
102
}
330
C
100
AcDbXrecord
280
     1
  1
DWGPROPS COOKIE
  2

  3

  4

  6

  7

  8
Administrator
  9

300
AmdtFileType=84
301
=
302
=
303
=
304
=
305
=
306
=
307
=
308
=
309
=
 40
0.8030901851851851
 41
2454167.37697816
 42
2455138.378046505
  1

 90
        1
  0
DICTIONARY
  5
1AE08
102
{ACAD_REACTORS
330
5E1
102
}
330
5E1
100
AcDbDictionary
281
     1
  0
DICTIONARY
  5
5E2
102
{ACAD_REACTORS
330
5E1
102
}
330
5E1
100
AcDbDictionary
281
     1
  0
DICTIONARY
  5
1AE07
102
{ACAD_REACTORS
330
5E1
102
}
330
5E1
100
AcDbDictionary
281
     1
1001
ACAD
1000
<All
  0
XRECORD
  5
1D865
102
{ACAD_REACTORS
330
1D864
102
}
330
1D864
100
AcDbXrecord
280
     1
290
     1
  0
XRECORD
  5
1D867
102
{ACAD_REACTORS
330
1D866
102
}
330
1D866
100
AcDbXrecord
280
     1
290
     1
  0
XRECORD
  5
1D869
102
{ACAD_REACTORS
330
1D868
102
}
330
1D868
100
AcDbXrecord
280
     1
290
     1
  0
XRECORD
  5
1D86B
102
{ACAD_REACTORS
330
1D86A
102
}
330
1D86A
100
AcDbXrecord
280
     1
290
     1
  0
XRECORD
  5
1D86D
102
{ACAD_REACTORS
330
1D86C
102
}
330
1D86C
100
AcDbXrecord
280
     1
290
     1
  0
XRECORD
  5
1D86F
102
{ACAD_REACTORS
330
1D86E
102
}
330
1D86E
100
AcDbXrecord
280
     1
290
     1
  0
SORTENTSTABLE
  5
9429
102
{ACAD_REACTORS
330
8F
102
}
330
8F
100
AcDbSortentsTable
330
1F
  0
XRECORD
  5
1D92F
102
{ACAD_REACTORS
330
1D92E
102
}
330
1D92E
100
AcDbXrecord
280
     1
 70
     1
  0
LAYOUT
  5
1E
102
{ACAD_XDICTIONARY
360
1D930
102
}
102
{ACAD_REACTORS
330
1A
102
}
330
1A
100
AcDbPlotSettings
  1

  2

  4

  6

 40
0.0
 41
0.0
 42
0.0
 43
0.0
 44
0.0
 45
0.0
 46
0.0
 47
0.0
 48
0.0
 49
0.0
140
0.0
141
0.0
142
1.0
143
1.0
 70
   688
 72
     0
 73
     0
 74
     5
  7
monochrome uw.ctb
 75
    16
147
1.0
148
0.0
149
0.0
100
AcDbLayout
  1
Layout1
 70
     1
 71
     1
 10
0.0
 20
0.0
 11
420.0
 21
297.0
 12
0.0
 22
0.0
 32
0.0
 14
1.000000000000000E+20
 24
1.000000000000000E+20
 34
1.000000000000000E+20
 15
-1.000000000000000E+20
 25
-1.000000000000000E+20
 35
-1.000000000000000E+20
146
0.0
 13
0.0
 23
0.0
 33
0.0
 16
1.0
 26
0.0
 36
0.0
 17
0.0
 27
1.0
 37
0.0
 76
     0
330
1B
  0
LAYOUT
  5
26
102
{ACAD_XDICTIONARY
360
1D934
102
}
102
{ACAD_REACTORS
330
1A
102
}
330
1A
100
AcDbPlotSettings
  1

  2

  4

  6

 40
0.0
 41
0.0
 42
0.0
 43
0.0
 44
0.0
 45
0.0
 46
0.0
 47
0.0
 48
0.0
 49
0.0
140
0.0
141
0.0
142
1.0
143
1.0
 70
   688
 72
     0
 73
     0
 74
     5
  7
monochrome uw.ctb
 75
    16
147
1.0
148
0.0
149
0.0
100
AcDbLayout
  1
Layout2
 70
     1
 71
     2
 10
0.0
 20
0.0
 11
12.0
 21
9.0
 12
0.0
 22
0.0
 32
0.0
 14
0.0
 24
0.0
 34
0.0
 15
0.0
 25
0.0
 35
0.0
146
0.0
 13
0.0
 23
0.0
 33
0.0
 16
1.0
 26
0.0
 36
0.0
 17
0.0
 27
1.0
 37
0.0
 76
     0
330
23
  0
LAYOUT
  5
22
102
{ACAD_XDICTIONARY
360
1D932
102
}
102
{ACAD_REACTORS
330
1A
102
}
330
1A
100
AcDbPlotSettings
  1

  2
hp LaserJet 3030 PCL 6
  4
A4
  6

 40
5.027083396911621
 41
5.069413185119628
 42
5.027084350585936
 43
5.027069091796875
 44
209.9733276367186
 45
296.9683227539062
 46
0.0
 47
22.44091883456878
 48
386.441488024062
 49
270.3185561904811
140
5391.603947773525
141
3967.108854977561
142
1.0
143
15.50111438232373
 70
 11956
 72
     1
 73
     0
 74
     1
  7
monochrome uw.ctb
 75
     0
147
0.0645114909377304
148
-13789.57802015809
149
248.2306738995121
100
AcDbLayout
  1
Model
 70
     1
 71
     0
 10
0.0
 20
0.0
 11
12.0
 21
9.0
 12
0.0
 22
0.0
 32
0.0
 14
0.0
 24
0.0
 34
0.0
 15
0.0
 25
0.0
 35
0.0
146
0.0
 13
0.0
 23
0.0
 33
0.0
 16
1.0
 26
0.0
 36
0.0
 17
0.0
 27
1.0
 37
0.0
 76
     0
330
1F
331
1D79E
1001
ACAD_PSEXT
1000
hp LaserJet 3030 PCL 6
1000
hp LaserJet 3030 PCL 6
1000
DOT4_001
1000

1070
     0
  0
MATERIAL
  5
1D7B1
102
{ACAD_XDICTIONARY
360
1D7B2
102
}
102
{ACAD_REACTORS
330
BD
102
}
330
BD
100
AcDbMaterial
  1
ByBlock
 72
     0
 43
0.0008202099737533
 43
0.0
 43
0.0
 43
0.0
 43
0.0
 43
0.0008202099737533
 43
0.0
 43
0.0
 43
0.0
 43
0.0
 43
1.0
 43
0.0
 43
0.0
 43
0.0
 43
0.0
 43
1.0
 77
     0
 47
0.0008202099737533
 47
0.0
 47
0.0
 47
0.0
 47
0.0
 47
0.0008202099737533
 47
0.0
 47
0.0
 47
0.0
 47
0.0
 47
1.0
 47
0.0
 47
0.0
 47
0.0
 47
0.0
 47
1.0
171
     0
 49
0.0008202099737533
 49
0.0
 49
0.0
 49
0.0
 49
0.0
 49
0.0008202099737533
 49
0.0
 49
0.0
 49
0.0
 49
0.0
 49
1.0
 49
0.0
 49
0.0
 49
0.0
 49
0.0
 49
1.0
175
     0
142
0.0008202099737533
142
0.0
142
0.0
142
0.0
142
0.0
142
0.0008202099737533
142
0.0
142
0.0
142
0.0
142
0.0
142
1.0
142
0.0
142
0.0
142
0.0
142
0.0
142
1.0
179
     0
144
0.0008202099737533
144
0.0
144
0.0
144
0.0
144
0.0
144
0.0008202099737533
144
0.0
144
0.0
144
0.0
144
0.0
144
1.0
144
0.0
144
0.0
144
0.0
144
0.0
144
1.0
147
0.0008202099737533
147
0.0
147
0.0
147
0.0
147
0.0
147
0.0008202099737533
147
0.0
147
0.0
147
0.0
147
0.0
147
1.0
147
0.0
147
0.0
147
0.0
147
0.0
147
1.0
  0
MATERIAL
  5
1D7A9
102
{ACAD_XDICTIONARY
360
1D7AA
102
}
102
{ACAD_REACTORS
330
BD
102
}
330
BD
100
AcDbMaterial
  1
ByLayer
 72
     0
 43
0.0008202099737533
 43
0.0
 43
0.0
 43
0.0
 43
0.0
 43
0.0008202099737533
 43
0.0
 43
0.0
 43
0.0
 43
0.0
 43
1.0
 43
0.0
 43
0.0
 43
0.0
 43
0.0
 43
1.0
 77
     0
 47
0.0008202099737533
 47
0.0
 47
0.0
 47
0.0
 47
0.0
 47
0.0008202099737533
 47
0.0
 47
0.0
 47
0.0
 47
0.0
 47
1.0
 47
0.0
 47
0.0
 47
0.0
 47
0.0
 47
1.0
171
     0
 49
0.0008202099737533
 49
0.0
 49
0.0
 49
0.0
 49
0.0
 49
0.0008202099737533
 49
0.0
 49
0.0
 49
0.0
 49
0.0
 49
1.0
 49
0.0
 49
0.0
 49
0.0
 49
0.0
 49
1.0
175
     0
142
0.0008202099737533
142
0.0
142
0.0
142
0.0
142
0.0
142
0.0008202099737533
142
0.0
142
0.0
142
0.0
142
0.0
142
1.0
142
0.0
142
0.0
142
0.0
142
0.0
142
1.0
179
     0
144
0.0008202099737533
144
0.0
144
0.0
144
0.0
144
0.0
144
0.0008202099737533
144
0.0
144
0.0
144
0.0
144
0.0
144
1.0
144
0.0
144
0.0
144
0.0
144
0.0
144
1.0
147
0.0008202099737533
147
0.0
147
0.0
147
0.0
147
0.0
147
0.0008202099737533
147
0.0
147
0.0
147
0.0
147
0.0
147
1.0
147
0.0
147
0.0
147
0.0
147
0.0
147
1.0
  0
MATERIAL
  5
1D7B9
102
{ACAD_XDICTIONARY
360
1D7BA
102
}
102
{ACAD_REACTORS
330
BD
102
}
330
BD
100
AcDbMaterial
  1
Global
 72
     0
 43
0.0008202099737533
 43
0.0
 43
0.0
 43
0.0
 43
0.0
 43
0.0008202099737533
 43
0.0
 43
0.0
 43
0.0
 43
0.0
 43
1.0
 43
0.0
 43
0.0
 43
0.0
 43
0.0
 43
1.0
 77
     0
 47
0.0008202099737533
 47
0.0
 47
0.0
 47
0.0
 47
0.0
 47
0.0008202099737533
 47
0.0
 47
0.0
 47
0.0
 47
0.0
 47
1.0
 47
0.0
 47
0.0
 47
0.0
 47
0.0
 47
1.0
171
     0
 49
0.0008202099737533
 49
0.0
 49
0.0
 49
0.0
 49
0.0
 49
0.0008202099737533
 49
0.0
 49
0.0
 49
0.0
 49
0.0
 49
1.0
 49
0.0
 49
0.0
 49
0.0
 49
0.0
 49
1.0
175
     0
142
0.0008202099737533
142
0.0
142
0.0
142
0.0
142
0.0
142
0.0008202099737533
142
0.0
142
0.0
142
0.0
142
0.0
142
1.0
142
0.0
142
0.0
142
0.0
142
0.0
142
1.0
179
     0
144
0.0008202099737533
144
0.0
144
0.0
144
0.0
144
0.0
144
0.0008202099737533
144
0.0
144
0.0
144
0.0
144
0.0
144
1.0
144
0.0
144
0.0
144
0.0
144
0.0
144
1.0
147
0.0008202099737533
147
0.0
147
0.0
147
0.0
147
0.0
147
0.0008202099737533
147
0.0
147
0.0
147
0.0
147
0.0
147
1.0
147
0.0
147
0.0
147
0.0
147
0.0
147
1.0
  0
MLEADERSTYLE
  5
1D7E8
102
{ACAD_REACTORS
330
1D7E7
102
}
330
1D7E7
100
AcDbMLeaderStyle
170
     2
171
     1
172
     0
 90
        2
 40
0.0
 41
0.0
173
     1
 91
-1056964608
340
14
 92
       -2
290
     1
 42
2.0
291
     1
 43
0.36
  3
Standard
 44
4.0
300

342
11
174
     1
178
     6
175
     1
176
     0
 93
-1056964608
 45
4.0
292
     0
297
     0
 46
4.0
 94
-1056964608
 47
1.0
 49
1.0
140
1.0
293
     1
141
0.0
294
     1
177
     0
142
1.0
295
     0
296
     0
143
0.125
1001
ACAD_MLEADERVER
1070
     2
  0
MLINESTYLE
  5
18
102
{ACAD_REACTORS
330
17
102
}
330
17
100
AcDbMlineStyle
  2
STANDARD
 70
     0
  3

 62
   256
 51
90.0
 52
90.0
 71
     2
 49
0.5
 62
   256
  6
BYLAYER
 49
-0.5
 62
   256
  6
BYLAYER
  0
ACDBPLACEHOLDER
  5
F
102
{ACAD_REACTORS
330
E
102
}
330
E
  0
SCALE
  5
1D7D6
102
{ACAD_REACTORS
330
1D7D5
102
}
330
1D7D5
100
AcDbScale
 70
     0
300
1:1
140
1.0
141
1.0
290
     1
  0
SCALE
  5
1D7D7
102
{ACAD_REACTORS
330
1D7D5
102
}
330
1D7D5
100
AcDbScale
 70
     0
300
1:2
140
1.0
141
2.0
290
     0
  0
SCALE
  5
1D7D8
102
{ACAD_REACTORS
330
1D7D5
102
}
330
1D7D5
100
AcDbScale
 70
     0
300
1:4
140
1.0
141
4.0
290
     0
  0
SCALE
  5
1D7D9
102
{ACAD_REACTORS
330
1D7D5
102
}
330
1D7D5
100
AcDbScale
 70
     0
300
1:5
140
1.0
141
5.0
290
     0
  0
SCALE
  5
1D7DA
102
{ACAD_REACTORS
330
1D7D5
102
}
330
1D7D5
100
AcDbScale
 70
     0
300
1:8
140
1.0
141
8.0
290
     0
  0
SCALE
  5
1D7DB
102
{ACAD_REACTORS
330
1D7D5
102
}
330
1D7D5
100
AcDbScale
 70
     0
300
1:10
140
1.0
141
10.0
290
     0
  0
SCALE
  5
1D7DC
102
{ACAD_REACTORS
330
1D7D5
102
}
330
1D7D5
100
AcDbScale
 70
     0
300
1:16
140
1.0
141
16.0
290
     0
  0
SCALE
  5
1D7DD
102
{ACAD_REACTORS
330
1D7D5
102
}
330
1D7D5
100
AcDbScale
 70
     0
300
1:20
140
1.0
141
20.0
290
     0
  0
SCALE
  5
1D7DE
102
{ACAD_REACTORS
330
1D7D5
102
}
330
1D7D5
100
AcDbScale
 70
     0
300
1:30
140
1.0
141
30.0
290
     0
  0
SCALE
  5
1D7DF
102
{ACAD_REACTORS
330
1D7D5
102
}
330
1D7D5
100
AcDbScale
 70
     0
300
1:40
140
1.0
141
40.0
290
     0
  0
SCALE
  5
1D7E0
102
{ACAD_REACTORS
330
1D7D5
102
}
330
1D7D5
100
AcDbScale
 70
     0
300
1:50
140
1.0
141
50.0
290
     0
  0
SCALE
  5
1D7E1
102
{ACAD_REACTORS
330
1D7D5
102
}
330
1D7D5
100
AcDbScale
 70
     0
300
1:100
140
1.0
141
100.0
290
     0
  0
SCALE
  5
1D7E2
102
{ACAD_REACTORS
330
1D7D5
102
}
330
1D7D5
100
AcDbScale
 70
     0
300
2:1
140
2.0
141
1.0
290
     0
  0
SCALE
  5
1D7E3
102
{ACAD_REACTORS
330
1D7D5
102
}
330
1D7D5
100
AcDbScale
 70
     0
300
4:1
140
4.0
141
1.0
290
     0
  0
SCALE
  5
1D7E4
102
{ACAD_REACTORS
330
1D7D5
102
}
330
1D7D5
100
AcDbScale
 70
     0
300
8:1
140
8.0
141
1.0
290
     0
  0
SCALE
  5
1D7E5
102
{ACAD_REACTORS
330
1D7D5
102
}
330
1D7D5
100
AcDbScale
 70
     0
300
10:1
140
10.0
141
1.0
290
     0
  0
SCALE
  5
1D7E6
102
{ACAD_REACTORS
330
1D7D5
102
}
330
1D7D5
100
AcDbScale
 70
     0
300
100:1
140
100.0
141
1.0
290
     0
  0
TABLESTYLE
  5
11B
102
{ACAD_XDICTIONARY
360
1D874
102
}
102
{ACAD_REACTORS
330
11A
102
}
330
11A
100
AcDbTableStyle
  3
Standard
 70
     0
 71
     0
 40
1.5
 41
1.5
280
     0
281
     0
  7
STANDARD
140
4.5
170
     2
 62
     0
 63
     7
283
     0
274
    -2
284
     1
 64
     0
275
    -2
285
     1
 65
     0
276
    -2
286
     1
 66
     0
277
    -2
287
     1
 67
     0
278
    -2
288
     1
 68
     0
279
    -2
289
     1
 69
     0
  7
STANDARD
140
6.0
170
     5
 62
     0
 63
     7
283
     0
274
    -2
284
     1
 64
     0
275
    -2
285
     1
 65
     0
276
    -2
286
     1
 66
     0
277
    -2
287
     1
 67
     0
278
    -2
288
     1
 68
     0
279
    -2
289
     1
 69
     0
  7
STANDARD
140
4.5
170
     5
 62
     0
 63
     7
283
     0
274
    -2
284
     1
 64
     0
275
    -2
285
     1
 65
     0
276
    -2
286
     1
 66
     0
277
    -2
287
     1
 67
     0
278
    -2
288
     1
 68
     0
279
    -2
289
     1
 69
     0
  0
VISUALSTYLE
  5
1D7C7
102
{ACAD_XDICTIONARY
360
1D941
102
}
102
{ACAD_REACTORS
330
1D7C1
102
}
330
1D7C1
100
AcDbVisualStyle
  2

 70
     4
 71
     0
 72
     2
 73
     0
 90
        0
 40
-0.6
 41
-30.0
 62
     5
 63
     7
 74
     1
 91
        4
 64
     7
 65
   257
 75
     1
175
     1
 42
1.0
 92
        0
 66
   257
 43
1.0
 76
     1
 77
     6
 78
     2
 67
     7
 79
     5
170
     0
171
     0
290
     0
174
     0
 93
        1
 44
0.0
173
     0
291
     0
 45
0.0
1001
ACAD
1000
AcDbSavedByObjectVersion
1070
     0
  0
VISUALSTYLE
  5
1D7C9
102
{ACAD_XDICTIONARY
360
1D945
102
}
102
{ACAD_REACTORS
330
1D7C1
102
}
330
1D7C1
100
AcDbVisualStyle
  2

 70
     6
 71
     1
 72
     2
 73
     2
 90
        0
 40
-0.6
 41
-30.0
 62
     5
 63
     7
 74
     2
 91
        2
 64
     7
 65
   257
 75
     2
175
     1
 42
179.0
 92
        0
 66
   257
 43
1.0
 76
     1
 77
     6
 78
     2
 67
     7
 79
     3
170
     0
171
     0
290
     0
174
     0
 93
        1
 44
0.0
173
     0
291
     0
 45
0.0
1001
ACAD
1000
AcDbSavedByObjectVersion
1070
     0
  0
VISUALSTYLE
  5
1D7C8
102
{ACAD_XDICTIONARY
360
1D943
102
}
102
{ACAD_REACTORS
330
1D7C1
102
}
330
1D7C1
100
AcDbVisualStyle
  2

 70
     5
 71
     0
 72
     2
 73
     0
 90
        0
 40
-0.6
 41
-30.0
 62
     5
 63
     7
 74
     1
 91
        4
 64
     7
 65
   257
 75
     1
175
     1
 42
1.0
 92
        0
 66
   257
 43
1.0
 76
     1
 77
     6
 78
     2
 67
     7
 79
     5
170
     0
171
     0
290
     0
174
     0
 93
        1
 44
0.0
173
     0
291
     0
 45
0.0
1001
ACAD
1000
AcDbSavedByObjectVersion
1070
     0
  0
VISUALSTYLE
  5
1D7C6
102
{ACAD_XDICTIONARY
360
1D93F
102
}
102
{ACAD_REACTORS
330
1D7C1
102
}
330
1D7C1
100
AcDbVisualStyle
  2

 70
     7
 71
     1
 72
     0
 73
     1
 90
        0
 40
-0.6
 41
-30.0
 62
     5
 63
     7
 74
     0
 91
        4
 64
     7
 65
   257
 75
     1
175
     1
 42
1.0
 92
        8
 66
     7
 43
1.0
 76
     1
 77
     6
 78
     2
 67
     7
 79
     5
170
     0
171
     0
290
     0
174
     0
 93
        1
 44
0.0
173
     0
291
     1
 45
0.0
1001
ACAD
1000
AcDbSavedByObjectVersion
1070
     0
  0
VISUALSTYLE
  5
1D7CD
102
{ACAD_XDICTIONARY
360
1D94D
102
}
102
{ACAD_REACTORS
330
1D7C1
102
}
330
1D7C1
100
AcDbVisualStyle
  2

 70
    12
 71
     2
 72
     2
 73
     0
 90
        0
 40
-0.6
 41
-30.0
 62
     5
 63
     7
 74
     1
 91
        4
 64
     7
 65
   257
 75
     1
175
     1
 42
1.0
 92
        8
 66
     7
 43
1.0
 76
     1
 77
     6
 78
     2
 67
     7
 79
     5
170
     0
171
     0
290
     0
174
     0
 93
        1
 44
50.0
173
     0
291
     1
 45
0.0
1001
ACAD
1000
AcDbSavedByObjectVersion
1070
     0
  0
VISUALSTYLE
  5
1D7D1
102
{ACAD_XDICTIONARY
360
1D955
102
}
102
{ACAD_REACTORS
330
1D7C1
102
}
330
1D7C1
100
AcDbVisualStyle
  2

 70
    16
 71
     2
 72
     2
 73
     3
 90
        0
 40
-0.6
 41
-30.0
 62
     5
 63
     8
 74
     1
 91
        4
 64
     7
 65
   257
 75
     1
175
     1
 42
1.0
 92
        8
 66
     8
 43
1.0
 76
     1
 77
     6
 78
     2
 67
     7
 79
     5
170
     0
171
     0
290
     0
174
     0
 93
        1
 44
0.0
173
     0
291
     1
 45
0.0
1001
ACAD
1000
AcDbSavedByObjectVersion
1070
     0
  0
VISUALSTYLE
  5
1D7CA
102
{ACAD_XDICTIONARY
360
1D947
102
}
102
{ACAD_REACTORS
330
1D7C1
102
}
330
1D7C1
100
AcDbVisualStyle
  2

 70
     9
 71
     3
 72
     2
 73
     0
 90
        0
 40
-0.6
 41
-30.0
 62
     5
 63
     7
 74
     2
 91
        2
 64
     7
 65
   257
 75
     1
175
     1
 42
179.0
 92
        8
 66
     7
 43
1.0
 76
     1
 77
     6
 78
     2
 67
     7
 79
     3
170
     0
171
     0
290
     0
174
     0
 93
        1
 44
0.0
173
     0
291
     0
 45
0.0
1001
ACAD
1000
AcDbSavedByObjectVersion
1070
     0
  0
VISUALSTYLE
  5
1D7CC
102
{ACAD_XDICTIONARY
360
1D94B
102
}
102
{ACAD_REACTORS
330
1D7C1
102
}
330
1D7C1
100
AcDbVisualStyle
  2

 70
    11
 71
     2
 72
     2
 73
     0
 90
        0
 40
-0.6
 41
-30.0
 62
     5
 63
     7
 74
     1
 91
        4
 64
     7
 65
   257
 75
     1
175
     1
 42
1.0
 92
        8
 66
     7
 43
1.0
 76
     1
 77
     6
 78
     2
 67
     7
 79
     5
170
     0
171
     0
290
     0
174
     0
 93
        1
 44
-50.0
173
     0
291
     1
 45
0.0
1001
ACAD
1000
AcDbSavedByObjectVersion
1070
     0
  0
VISUALSTYLE
  5
1D7D4
102
{ACAD_XDICTIONARY
360
1D95B
102
}
102
{ACAD_REACTORS
330
1D7C1
102
}
330
1D7C1
100
AcDbVisualStyle
  2

 70
    22
 71
     2
 72
     2
 73
     0
 90
        0
 40
-0.6
 41
-30.0
 62
     5
 63
     7
 74
     1
 91
        4
 64
     7
 65
   257
 75
     1
175
     1
 42
1.0
 92
        8
 66
     7
 43
1.0
 76
     1
 77
     6
 78
     2
 67
     7
 79
     5
170
     0
171
     0
290
     0
174
     0
 93
        1
 44
0.0
173
     0
291
     1
 45
0.0
1001
ACAD
1000
AcDbSavedByObjectVersion
1070
     0
  0
VISUALSTYLE
  5
1D7D0
102
{ACAD_XDICTIONARY
360
1D953
102
}
102
{ACAD_REACTORS
330
1D7C1
102
}
330
1D7C1
100
AcDbVisualStyle
  2

 70
    15
 71
     2
 72
     2
 73
     0
 90
        0
 40
-0.6
 41
-30.0
 62
     5
 63
     7
 74
     1
 91
        4
 64
     7
 65
   257
 75
     1
175
     1
 42
1.0
 92
        8
 66
     7
 43
1.0
 76
     1
 77
     6
 78
     2
 67
     7
 79
     5
170
     0
171
     0
290
     0
174
     0
 93
        1
 44
0.0
173
     0
291
     1
 45
0.0
1001
ACAD
1000
AcDbSavedByObjectVersion
1070
     0
  0
VISUALSTYLE
  5
1D7C2
102
{ACAD_XDICTIONARY
360
1D937
102
}
102
{ACAD_REACTORS
330
1D7C1
102
}
330
1D7C1
100
AcDbVisualStyle
  2

 70
     0
 71
     2
 72
     1
 73
     1
 90
        2
 40
-0.6
 41
30.0
 62
     5
 63
     7
 74
     0
 91
        4
 64
     7
 65
   257
 75
     1
175
     1
 42
1.0
 92
        8
 66
     7
 43
1.0
 76
     1
 77
     6
 78
     2
 67
     7
 79
     5
170
     0
171
     0
290
     0
174
     0
 93
       13
 44
0.0
173
     0
291
     1
 45
0.0
1001
ACAD
1000
AcDbSavedByObjectVersion
1070
     0
  0
VISUALSTYLE
  5
1D7C3
102
{ACAD_XDICTIONARY
360
1D939
102
}
102
{ACAD_REACTORS
330
1D7C1
102
}
330
1D7C1
100
AcDbVisualStyle
  2

 70
     1
 71
     2
 72
     1
 73
     1
 90
        2
 40
-0.6
 41
30.0
 62
     5
 63
     7
 74
     1
 91
        4
 64
     7
 65
   257
 75
     1
175
     1
 42
1.0
 92
        0
 66
   257
 43
1.0
 76
     1
 77
     6
 78
     2
 67
     7
 79
     5
170
     0
171
     0
290
     0
174
     0
 93
       13
 44
0.0
173
     0
291
     1
 45
0.0
1001
ACAD
1000
AcDbSavedByObjectVersion
1070
     0
  0
VISUALSTYLE
  5
1D7C4
102
{ACAD_XDICTIONARY
360
1D93B
102
}
102
{ACAD_REACTORS
330
1D7C1
102
}
330
1D7C1
100
AcDbVisualStyle
  2

 70
     2
 71
     2
 72
     2
 73
     1
 90
        2
 40
-0.6
 41
30.0
 62
     5
 63
     7
 74
     0
 91
        4
 64
     7
 65
   257
 75
     1
175
     1
 42
1.0
 92
        0
 66
     7
 43
1.0
 76
     1
 77
     6
 78
     2
 67
     7
 79
     5
170
     0
171
     0
290
     0
174
     0
 93
       13
 44
0.0
173
     0
291
     1
 45
0.0
1001
ACAD
1000
AcDbSavedByObjectVersion
1070
     0
  0
VISUALSTYLE
  5
1D7C5
102
{ACAD_XDICTIONARY
360
1D93D
102
}
102
{ACAD_REACTORS
330
1D7C1
102
}
330
1D7C1
100
AcDbVisualStyle
  2

 70
     3
 71
     2
 72
     2
 73
     1
 90
        2
 40
-0.6
 41
30.0
 62
     5
 63
     7
 74
     1
 91
        4
 64
     7
 65
   257
 75
     1
175
     1
 42
1.0
 92
        0
 66
   257
 43
1.0
 76
     1
 77
     6
 78
     2
 67
     7
 79
     5
170
     0
171
     0
290
     0
174
     0
 93
       13
 44
0.0
173
     0
291
     1
 45
0.0
1001
ACAD
1000
AcDbSavedByObjectVersion
1070
     0
  0
VISUALSTYLE
  5
1D7D2
102
{ACAD_XDICTIONARY
360
1D957
102
}
102
{ACAD_REACTORS
330
1D7C1
102
}
330
1D7C1
100
AcDbVisualStyle
  2

 70
    20
 71
     2
 72
     2
 73
     0
 90
        0
 40
-0.6
 41
-30.0
 62
     5
 63
     7
 74
     1
 91
        4
 64
     7
 65
   257
 75
     1
175
     1
 42
1.0
 92
       10
 66
     7
 43
1.0
 76
     1
 77
     6
 78
     2
 67
     7
 79
     5
170
     0
171
     0
290
     0
174
     0
 93
        1
 44
0.0
173
     0
291
     1
 45
0.0
1001
ACAD
1000
AcDbSavedByObjectVersion
1070
     0
  0
VISUALSTYLE
  5
1D7CF
102
{ACAD_XDICTIONARY
360
1D951
102
}
102
{ACAD_REACTORS
330
1D7C1
102
}
330
1D7C1
100
AcDbVisualStyle
  2

 70
    14
 71
     2
 72
     2
 73
     0
 90
        0
 40
-0.6
 41
-30.0
 62
     5
 63
     7
 74
     1
 91
        4
 64
     7
 65
   257
 75
     7
175
     7
 42
1.0
 92
        8
 66
     7
 43
1.0
 76
     1
 77
     6
 78
     2
 67
     7
 79
     5
170
     0
171
     0
290
     0
174
     0
 93
        1
 44
0.0
173
     0
291
     1
 45
0.0
1001
ACAD
1000
AcDbSavedByObjectVersion
1070
     0
  0
VISUALSTYLE
  5
1D7D3
102
{ACAD_XDICTIONARY
360
1D959
102
}
102
{ACAD_REACTORS
330
1D7C1
102
}
330
1D7C1
100
AcDbVisualStyle
  2

 70
    21
 71
     2
 72
     2
 73
     0
 90
        0
 40
-0.6
 41
-30.0
 62
     5
 63
     7
 74
     1
 91
        4
 64
     7
 65
   257
 75
     1
175
     1
 42
1.0
 92
        9
 66
     7
 43
1.0
 76
     1
 77
     6
 78
     2
 67
     7
 79
     5
170
     0
171
     0
290
     0
174
     0
 93
        1
 44
0.0
173
     0
291
     1
 45
0.0
1001
ACAD
1000
AcDbSavedByObjectVersion
1070
     0
  0
VISUALSTYLE
  5
1D7CB
102
{ACAD_XDICTIONARY
360
1D949
102
}
102
{ACAD_REACTORS
330
1D7C1
102
}
330
1D7C1
100
AcDbVisualStyle
  2

 70
     8
 71
     2
 72
     2
 73
     0
 90
        0
 40
-0.6
 41
-30.0
 62
     5
 63
     7
 74
     1
 91
        0
 64
     7
 65
   257
 75
     1
175
     1
 42
1.0
 92
        8
 66
     8
 43
1.0
 76
     1
 77
     6
 78
     2
 67
     7
 79
     5
170
     0
171
     0
290
     0
174
     0
 93
       13
 44
0.0
173
     0
291
     0
 45
0.0
1001
ACAD
1000
AcDbSavedByObjectVersion
1070
     0
  0
VISUALSTYLE
  5
1D7CE
102
{ACAD_XDICTIONARY
360
1D94F
102
}
102
{ACAD_REACTORS
330
1D7C1
102
}
330
1D7C1
100
AcDbVisualStyle
  2

 70
    13
 71
     2
 72
     2
 73
     0
 90
        0
 40
-0.6
 41
-30.0
 62
     5
 63
     7
 74
     1
 91
        4
 64
     7
 65
   257
 75
     1
175
     1
 42
1.0
 92
       12
 66
     7
 43
1.0
 76
     1
 77
     6
 78
     2
 67
     7
 79
     5
170
     0
171
     0
290
     0
174
     0
 93
        1
 44
0.0
173
     0
291
     1
 45
0.0
1001
ACAD
1000
AcDbSavedByObjectVersion
1070
     0
  0
DICTIONARYVAR
  5
1D871
102
{ACAD_REACTORS
330
94
102
}
330
94
100
DictionaryVariables
280
     0
  1
1:1
  0
DICTIONARYVAR
  5
1D870
102
{ACAD_REACTORS
330
94
102
}
330
94
100
DictionaryVariables
280
     0
  1
STANDARD
  0
DICTIONARYVAR
  5
138
102
{ACAD_REACTORS
330
94
102
}
330
94
100
DictionaryVariables
280
     0
  1
STANDARD
  0
DICTIONARYVAR
  5
96
102
{ACAD_REACTORS
330
94
102
}
330
94
100
DictionaryVariables
280
     0
  1
2
  0
DICTIONARYVAR
  5
95
102
{ACAD_REACTORS
330
94
102
}
330
94
100
DictionaryVariables
280
     0
  1
0
  0
DICTIONARYVAR
  5
B168
102
{ACAD_REACTORS
330
94
102
}
330
94
100
DictionaryVariables
280
     0
  1

  0
DICTIONARYVAR
  5
1D872
102
{ACAD_REACTORS
330
94
102
}
330
94
100
DictionaryVariables
280
     0
  1
127
  0
DICTIONARYVAR
  5
1D92A
102
{ACAD_REACTORS
330
94
102
}
330
94
100
DictionaryVariables
280
     0
  1
2
  0
DICTIONARY
  5
272
102
{ACAD_REACTORS
330
5B
102
}
330
5B
100
AcDbDictionary
281
     1
  0
DICTIONARY
  5
61
102
{ACAD_REACTORS
330
5B
102
}
330
5B
100
AcDbDictionary
281
     1
  0
XRECORD
  5
123
102
{ACAD_REACTORS
330
5B
102
}
330
5B
100
AcDbXrecord
280
     1
 90
-1023410169
  0
XRECORD
  5
1D929
102
{ACAD_REACTORS
330
1D927
102
}
330
1D927
100
AcDbXrecord
280
     1
  0
DICTIONARY
  5
1D930
330
1E
100
AcDbDictionary
280
     1
281
     1
  3
ACAD_XREC_ROUNDTRIP
360
1D931
  0
DICTIONARY
  5
1D934
330
26
100
AcDbDictionary
280
     1
281
     1
  3
ACAD_XREC_ROUNDTRIP
360
1D935
  0
DICTIONARY
  5
1D932
330
22
100
AcDbDictionary
280
     1
281
     1
  3
ACAD_XREC_ROUNDTRIP
360
1D933
  0
DICTIONARY
  5
1D7B2
330
1D7B1
100
AcDbDictionary
280
     1
281
     1
  3
ACAD_XREC_ROUNDTRIP
360
1D882
  3
BUMPTILE
360
1D7B4
  3
DIFFUSETILE
360
1D7B3
  3
OPACITYTILE
360
1D7B7
  3
REFLECTIONTILE
360
1D7B6
  3
REFRACTIONTILE
360
1D7B8
  3
SPECULARTILE
360
1D7B5
  0
DICTIONARY
  5
1D7AA
330
1D7A9
100
AcDbDictionary
280
     1
281
     1
  3
ACAD_XREC_ROUNDTRIP
360
1D881
  3
BUMPTILE
360
1D7AC
  3
DIFFUSETILE
360
1D7AB
  3
OPACITYTILE
360
1D7AF
  3
REFLECTIONTILE
360
1D7AE
  3
REFRACTIONTILE
360
1D7B0
  3
SPECULARTILE
360
1D7AD
  0
DICTIONARY
  5
1D7BA
330
1D7B9
100
AcDbDictionary
280
     1
281
     1
  3
ACAD_XREC_ROUNDTRIP
360
1D883
  3
BUMPTILE
360
1D7BC
  3
DIFFUSETILE
360
1D7BB
  3
OPACITYTILE
360
1D7BF
  3
REFLECTIONTILE
360
1D7BE
  3
REFRACTIONTILE
360
1D7C0
  3
SPECULARTILE
360
1D7BD
  0
DICTIONARY
  5
1D874
330
11B
100
AcDbDictionary
280
     1
281
     1
  3
ACAD_ROUNDTRIP_2008_TABLESTYLE_CELLSTYLEMAP
360
1D92B
  3
ACAD_XREC_ROUNDTRIP
360
1D936
  0
DICTIONARY
  5
1D941
330
1D7C7
100
AcDbDictionary
280
     1
281
     1
  3
ACAD_XREC_ROUNDTRIP
360
1D942
  0
DICTIONARY
  5
1D945
330
1D7C9
100
AcDbDictionary
280
     1
281
     1
  3
ACAD_XREC_ROUNDTRIP
360
1D946
  0
DICTIONARY
  5
1D943
330
1D7C8
100
AcDbDictionary
280
     1
281
     1
  3
ACAD_XREC_ROUNDTRIP
360
1D944
  0
DICTIONARY
  5
1D93F
330
1D7C6
100
AcDbDictionary
280
     1
281
     1
  3
ACAD_XREC_ROUNDTRIP
360
1D940
  0
DICTIONARY
  5
1D94D
330
1D7CD
100
AcDbDictionary
280
     1
281
     1
  3
ACAD_XREC_ROUNDTRIP
360
1D94E
  0
DICTIONARY
  5
1D955
330
1D7D1
100
AcDbDictionary
280
     1
281
     1
  3
ACAD_XREC_ROUNDTRIP
360
1D956
  0
DICTIONARY
  5
1D947
330
1D7CA
100
AcDbDictionary
280
     1
281
     1
  3
ACAD_XREC_ROUNDTRIP
360
1D948
  0
DICTIONARY
  5
1D94B
330
1D7CC
100
AcDbDictionary
280
     1
281
     1
  3
ACAD_XREC_ROUNDTRIP
360
1D94C
  0
DICTIONARY
  5
1D95B
330
1D7D4
100
AcDbDictionary
280
     1
281
     1
  3
ACAD_XREC_ROUNDTRIP
360
1D95C
  0
DICTIONARY
  5
1D953
330
1D7D0
100
AcDbDictionary
280
     1
281
     1
  3
ACAD_XREC_ROUNDTRIP
360
1D954
  0
DICTIONARY
  5
1D937
330
1D7C2
100
AcDbDictionary
280
     1
281
     1
  3
ACAD_XREC_ROUNDTRIP
360
1D938
  0
DICTIONARY
  5
1D939
330
1D7C3
100
AcDbDictionary
280
     1
281
     1
  3
ACAD_XREC_ROUNDTRIP
360
1D93A
  0
DICTIONARY
  5
1D93B
330
1D7C4
100
AcDbDictionary
280
     1
281
     1
  3
ACAD_XREC_ROUNDTRIP
360
1D93C
  0
DICTIONARY
  5
1D93D
330
1D7C5
100
AcDbDictionary
280
     1
281
     1
  3
ACAD_XREC_ROUNDTRIP
360
1D93E
  0
DICTIONARY
  5
1D957
330
1D7D2
100
AcDbDictionary
280
     1
281
     1
  3
ACAD_XREC_ROUNDTRIP
360
1D958
  0
DICTIONARY
  5
1D951
330
1D7CF
100
AcDbDictionary
280
     1
281
     1
  3
ACAD_XREC_ROUNDTRIP
360
1D952
  0
DICTIONARY
  5
1D959
330
1D7D3
100
AcDbDictionary
280
     1
281
     1
  3
ACAD_XREC_ROUNDTRIP
360
1D95A
  0
DICTIONARY
  5
1D949
330
1D7CB
100
AcDbDictionary
280
     1
281
     1
  3
ACAD_XREC_ROUNDTRIP
360
1D94A
  0
DICTIONARY
  5
1D94F
330
1D7CE
100
AcDbDictionary
280
     1
281
     1
  3
ACAD_XREC_ROUNDTRIP
360
1D950
  0
XRECORD
  5
1D931
102
{ACAD_REACTORS
330
1D930
102
}
330
1D930
100
AcDbXrecord
280
     1
102
SHADEPLOT
 70
     0
102
SHADEPLOTRESLEVEL
 70
     2
102
SHADEPLOTCUSTOMDPI
 70
   300
  0
XRECORD
  5
1D935
102
{ACAD_REACTORS
330
1D934
102
}
330
1D934
100
AcDbXrecord
280
     1
102
SHADEPLOT
 70
     0
102
SHADEPLOTRESLEVEL
 70
     2
102
SHADEPLOTCUSTOMDPI
 70
   300
  0
XRECORD
  5
1D933
102
{ACAD_REACTORS
330
1D932
102
}
330
1D932
100
AcDbXrecord
280
     1
102
SHADEPLOT
 70
     0
102
SHADEPLOTRESLEVEL
 70
     2
102
SHADEPLOTCUSTOMDPI
 70
   300
  0
XRECORD
  5
1D882
102
{ACAD_REACTORS
330
1D7B2
102
}
330
1D7B2
100
AcDbXrecord
280
     1
102
MATERIAL
148
0.0
149
0.0
149
0.0
 93
        0
 94
      127
282
     0
 72
     0
 77
     0
171
     0
175
     0
179
     0
273
     0
  0
XRECORD
  5
1D7B4
102
{ACAD_REACTORS
330
1D7B2
102
}
330
1D7B2
100
AcDbXrecord
280
     1
270
     1
271
     1
  0
XRECORD
  5
1D7B3
102
{ACAD_REACTORS
330
1D7B2
102
}
330
1D7B2
100
AcDbXrecord
280
     1
270
     1
271
     1
  0
XRECORD
  5
1D7B7
102
{ACAD_REACTORS
330
1D7B2
102
}
330
1D7B2
100
AcDbXrecord
280
     1
270
     1
271
     1
  0
XRECORD
  5
1D7B6
102
{ACAD_REACTORS
330
1D7B2
102
}
330
1D7B2
100
AcDbXrecord
280
     1
270
     1
271
     1
  0
XRECORD
  5
1D7B8
102
{ACAD_REACTORS
330
1D7B2
102
}
330
1D7B2
100
AcDbXrecord
280
     1
270
     1
271
     1
  0
XRECORD
  5
1D7B5
102
{ACAD_REACTORS
330
1D7B2
102
}
330
1D7B2
100
AcDbXrecord
280
     1
270
     1
271
     1
  0
XRECORD
  5
1D881
102
{ACAD_REACTORS
330
1D7AA
102
}
330
1D7AA
100
AcDbXrecord
280
     1
102
MATERIAL
148
0.0
149
0.0
149
0.0
 93
        0
 94
      127
282
     0
 72
     0
 77
     0
171
     0
175
     0
179
     0
273
     0
  0
XRECORD
  5
1D7AC
102
{ACAD_REACTORS
330
1D7AA
102
}
330
1D7AA
100
AcDbXrecord
280
     1
270
     1
271
     1
  0
XRECORD
  5
1D7AB
102
{ACAD_REACTORS
330
1D7AA
102
}
330
1D7AA
100
AcDbXrecord
280
     1
270
     1
271
     1
  0
XRECORD
  5
1D7AF
102
{ACAD_REACTORS
330
1D7AA
102
}
330
1D7AA
100
AcDbXrecord
280
     1
270
     1
271
     1
  0
XRECORD
  5
1D7AE
102
{ACAD_REACTORS
330
1D7AA
102
}
330
1D7AA
100
AcDbXrecord
280
     1
270
     1
271
     1
  0
XRECORD
  5
1D7B0
102
{ACAD_REACTORS
330
1D7AA
102
}
330
1D7AA
100
AcDbXrecord
280
     1
270
     1
271
     1
  0
XRECORD
  5
1D7AD
102
{ACAD_REACTORS
330
1D7AA
102
}
330
1D7AA
100
AcDbXrecord
280
     1
270
     1
271
     1
  0
XRECORD
  5
1D883
102
{ACAD_REACTORS
330
1D7BA
102
}
330
1D7BA
100
AcDbXrecord
280
     1
102
MATERIAL
148
0.0
149
0.0
149
0.0
 93
        0
 94
      127
282
     0
 72
     0
 77
     0
171
     0
175
     0
179
     0
273
     0
  0
XRECORD
  5
1D7BC
102
{ACAD_REACTORS
330
1D7BA
102
}
330
1D7BA
100
AcDbXrecord
280
     1
270
     1
271
     1
  0
XRECORD
  5
1D7BB
102
{ACAD_REACTORS
330
1D7BA
102
}
330
1D7BA
100
AcDbXrecord
280
     1
270
     1
271
     1
  0
XRECORD
  5
1D7BF
102
{ACAD_REACTORS
330
1D7BA
102
}
330
1D7BA
100
AcDbXrecord
280
     1
270
     1
271
     1
  0
XRECORD
  5
1D7BE
102
{ACAD_REACTORS
330
1D7BA
102
}
330
1D7BA
100
AcDbXrecord
280
     1
270
     1
271
     1
  0
XRECORD
  5
1D7C0
102
{ACAD_REACTORS
330
1D7BA
102
}
330
1D7BA
100
AcDbXrecord
280
     1
270
     1
271
     1
  0
XRECORD
  5
1D7BD
102
{ACAD_REACTORS
330
1D7BA
102
}
330
1D7BA
100
AcDbXrecord
280
     1
270
     1
271
     1
  0
CELLSTYLEMAP
  5
1D92B
102
{ACAD_REACTORS
330
1D874
102
}
330
1D874
100
AcDbCellStyleMap
 90
        3
300
CELLSTYLE
  1
TABLEFORMAT_BEGIN
 90
        5
170
     1
 91
        0
 92
    32768
 62
   257
 93
        1
300
CONTENTFORMAT
  1
CONTENTFORMAT_BEGIN
 90
        0
 91
        0
 92
        4
 93
        0
300

 40
0.0
140
1.0
 94
        5
 62
     0
340
11
144
6.0
309
CONTENTFORMAT_END
171
     1
301
MARGIN
  1
CELLMARGIN_BEGIN
 40
1.5
 40
1.5
 40
1.5
 40
1.5
 40
0.18
 40
0.18
309
CELLMARGIN_END
 94
        6
 95
        1
302
GRIDFORMAT
  1
GRIDFORMAT_BEGIN
 90
        0
 91
        1
 62
     0
 92
       -2
340
0
 93
        0
 40
0.045
309
GRIDFORMAT_END
 95
        2
302
GRIDFORMAT
  1
GRIDFORMAT_BEGIN
 90
        0
 91
        1
 62
     0
 92
       -2
340
0
 93
        0
 40
0.045
309
GRIDFORMAT_END
 95
        4
302
GRIDFORMAT
  1
GRIDFORMAT_BEGIN
 90
        0
 91
        1
 62
     0
 92
       -2
340
0
 93
        0
 40
0.045
309
GRIDFORMAT_END
 95
        8
302
GRIDFORMAT
  1
GRIDFORMAT_BEGIN
 90
        0
 91
        1
 62
     0
 92
       -2
340
0
 93
        0
 40
0.045
309
GRIDFORMAT_END
 95
       16
302
GRIDFORMAT
  1
GRIDFORMAT_BEGIN
 90
        0
 91
        1
 62
     0
 92
       -2
340
0
 93
        0
 40
0.045
309
GRIDFORMAT_END
 95
       32
302
GRIDFORMAT
  1
GRIDFORMAT_BEGIN
 90
        0
 91
        1
 62
     0
 92
       -2
340
0
 93
        0
 40
0.045
309
GRIDFORMAT_END
309
TABLEFORMAT_END
  1
CELLSTYLE_BEGIN
 90
        1
 91
        1
300
_TITLE
309
CELLSTYLE_END
300
CELLSTYLE
  1
TABLEFORMAT_BEGIN
 90
        5
170
     1
 91
        0
 92
        0
 62
   257
 93
        1
300
CONTENTFORMAT
  1
CONTENTFORMAT_BEGIN
 90
        0
 91
        0
 92
        4
 93
        0
300

 40
0.0
140
1.0
 94
        5
 62
     0
340
11
144
4.5
309
CONTENTFORMAT_END
171
     1
301
MARGIN
  1
CELLMARGIN_BEGIN
 40
1.5
 40
1.5
 40
1.5
 40
1.5
 40
0.18
 40
0.18
309
CELLMARGIN_END
 94
        6
 95
        1
302
GRIDFORMAT
  1
GRIDFORMAT_BEGIN
 90
        0
 91
        1
 62
     0
 92
       -2
340
0
 93
        0
 40
0.045
309
GRIDFORMAT_END
 95
        2
302
GRIDFORMAT
  1
GRIDFORMAT_BEGIN
 90
        0
 91
        1
 62
     0
 92
       -2
340
0
 93
        0
 40
0.045
309
GRIDFORMAT_END
 95
        4
302
GRIDFORMAT
  1
GRIDFORMAT_BEGIN
 90
        0
 91
        1
 62
     0
 92
       -2
340
0
 93
        0
 40
0.045
309
GRIDFORMAT_END
 95
        8
302
GRIDFORMAT
  1
GRIDFORMAT_BEGIN
 90
        0
 91
        1
 62
     0
 92
       -2
340
0
 93
        0
 40
0.045
309
GRIDFORMAT_END
 95
       16
302
GRIDFORMAT
  1
GRIDFORMAT_BEGIN
 90
        0
 91
        1
 62
     0
 92
       -2
340
0
 93
        0
 40
0.045
309
GRIDFORMAT_END
 95
       32
302
GRIDFORMAT
  1
GRIDFORMAT_BEGIN
 90
        0
 91
        1
 62
     0
 92
       -2
340
0
 93
        0
 40
0.045
309
GRIDFORMAT_END
309
TABLEFORMAT_END
  1
CELLSTYLE_BEGIN
 90
        2
 91
        1
300
_HEADER
309
CELLSTYLE_END
300
CELLSTYLE
  1
TABLEFORMAT_BEGIN
 90
        5
170
     1
 91
        0
 92
        0
 62
   257
 93
        1
300
CONTENTFORMAT
  1
CONTENTFORMAT_BEGIN
 90
        0
 91
        0
 92
        4
 93
        0
300

 40
0.0
140
1.0
 94
        2
 62
     0
340
11
144
4.5
309
CONTENTFORMAT_END
171
     1
301
MARGIN
  1
CELLMARGIN_BEGIN
 40
1.5
 40
1.5
 40
1.5
 40
1.5
 40
0.18
 40
0.18
309
CELLMARGIN_END
 94
        6
 95
        1
302
GRIDFORMAT
  1
GRIDFORMAT_BEGIN
 90
        0
 91
        1
 62
     0
 92
       -2
340
0
 93
        0
 40
0.045
309
GRIDFORMAT_END
 95
        2
302
GRIDFORMAT
  1
GRIDFORMAT_BEGIN
 90
        0
 91
        1
 62
     0
 92
       -2
340
0
 93
        0
 40
0.045
309
GRIDFORMAT_END
 95
        4
302
GRIDFORMAT
  1
GRIDFORMAT_BEGIN
 90
        0
 91
        1
 62
     0
 92
       -2
340
0
 93
        0
 40
0.045
309
GRIDFORMAT_END
 95
        8
302
GRIDFORMAT
  1
GRIDFORMAT_BEGIN
 90
        0
 91
        1
 62
     0
 92
       -2
340
0
 93
        0
 40
0.045
309
GRIDFORMAT_END
 95
       16
302
GRIDFORMAT
  1
GRIDFORMAT_BEGIN
 90
        0
 91
        1
 62
     0
 92
       -2
340
0
 93
        0
 40
0.045
309
GRIDFORMAT_END
 95
       32
302
GRIDFORMAT
  1
GRIDFORMAT_BEGIN
 90
        0
 91
        1
 62
     0
 92
       -2
340
0
 93
        0
 40
0.045
309
GRIDFORMAT_END
309
TABLEFORMAT_END
  1
CELLSTYLE_BEGIN
 90
        3
 91
        2
300
_DATA
309
CELLSTYLE_END
  0
XRECORD
  5
1D936
102
{ACAD_REACTORS
330
1D874
102
}
330
1D874
100
AcDbXrecord
280
     1
102
ACAD_ROUNDTRIP_PRE2007_TABLESTYLE
 90
        4
 91
        0
  1

 92
        4
 93
        0
  2

 94
        4
 95
        0
  3

  0
XRECORD
  5
1D942
102
{ACAD_REACTORS
330
1D941
102
}
330
1D941
100
AcDbXrecord
280
     1
102
RTVSPropertyOp0
 70
     1
102
RTVSPropertyOp1
 70
     1
102
RTVSPropertyOp2
 70
     1
102
RTVSPropertyOp3
 70
     1
102
RTVSPropertyOp4
 70
     1
102
RTVSPropertyOp5
 70
     1
102
RTVSPropertyOp6
 70
     1
102
RTVSPropertyOp7
 70
     1
102
RTVSPropertyOp8
 70
     1
102
RTVSPropertyOp9
 70
     1
102
RTVSPropertyOp10
 70
     1
102
RTVSPropertyOp11
 70
     1
102
RTVSPropertyOp12
 70
     1
102
RTVSPropertyOp13
 70
     1
102
RTVSPropertyOp14
 70
     1
102
RTVSPropertyOp15
 70
     1
102
RTVSPropertyOp16
 70
     1
102
RTVSPropertyOp17
 70
     1
102
RTVSPropertyOp18
 70
     1
102
RTVSPropertyOp19
 70
     1
102
RTVSPropertyOp20
 70
     1
102
RTVSPropertyOp21
 70
     1
102
RTVSPropertyOp22
 70
     1
102
RTVSPropertyOp23
 70
     1
102
RTVSPropertyOp24
 70
     1
102
RTVSPropertyOp25
 70
     1
102
RTVSPropertyOp26
 70
     1
102
RTVSPropertyOp27
 70
     1
  0
XRECORD
  5
1D946
102
{ACAD_REACTORS
330
1D945
102
}
330
1D945
100
AcDbXrecord
280
     1
102
RTVSPropertyOp0
 70
     1
102
RTVSPropertyOp1
 70
     1
102
RTVSPropertyOp2
 70
     1
102
RTVSPropertyOp3
 70
     1
102
RTVSPropertyOp4
 70
     1
102
RTVSPropertyOp5
 70
     1
102
RTVSPropertyOp6
 70
     1
102
RTVSPropertyOp7
 70
     1
102
RTVSPropertyOp8
 70
     1
102
RTVSPropertyOp9
 70
     1
102
RTVSPropertyOp10
 70
     1
102
RTVSPropertyOp11
 70
     1
102
RTVSPropertyOp12
 70
     1
102
RTVSPropertyOp13
 70
     1
102
RTVSPropertyOp14
 70
     1
102
RTVSPropertyOp15
 70
     1
102
RTVSPropertyOp16
 70
     1
102
RTVSPropertyOp17
 70
     1
102
RTVSPropertyOp18
 70
     1
102
RTVSPropertyOp19
 70
     1
102
RTVSPropertyOp20
 70
     1
102
RTVSPropertyOp21
 70
     1
102
RTVSPropertyOp22
 70
     1
102
RTVSPropertyOp23
 70
     1
102
RTVSPropertyOp24
 70
     1
102
RTVSPropertyOp25
 70
     1
102
RTVSPropertyOp26
 70
     1
102
RTVSPropertyOp27
 70
     1
  0
XRECORD
  5
1D944
102
{ACAD_REACTORS
330
1D943
102
}
330
1D943
100
AcDbXrecord
280
     1
102
RTVSPropertyOp0
 70
     1
102
RTVSPropertyOp1
 70
     1
102
RTVSPropertyOp2
 70
     1
102
RTVSPropertyOp3
 70
     1
102
RTVSPropertyOp4
 70
     1
102
RTVSPropertyOp5
 70
     1
102
RTVSPropertyOp6
 70
     1
102
RTVSPropertyOp7
 70
     1
102
RTVSPropertyOp8
 70
     1
102
RTVSPropertyOp9
 70
     1
102
RTVSPropertyOp10
 70
     1
102
RTVSPropertyOp11
 70
     1
102
RTVSPropertyOp12
 70
     1
102
RTVSPropertyOp13
 70
     1
102
RTVSPropertyOp14
 70
     1
102
RTVSPropertyOp15
 70
     1
102
RTVSPropertyOp16
 70
     1
102
RTVSPropertyOp17
 70
     1
102
RTVSPropertyOp18
 70
     1
102
RTVSPropertyOp19
 70
     1
102
RTVSPropertyOp20
 70
     1
102
RTVSPropertyOp21
 70
     1
102
RTVSPropertyOp22
 70
     1
102
RTVSPropertyOp23
 70
     1
102
RTVSPropertyOp24
 70
     1
102
RTVSPropertyOp25
 70
     1
102
RTVSPropertyOp26
 70
     1
102
RTVSPropertyOp27
 70
     1
  0
XRECORD
  5
1D940
102
{ACAD_REACTORS
330
1D93F
102
}
330
1D93F
100
AcDbXrecord
280
     1
102
RTVSPropertyOp0
 70
     1
102
RTVSPropertyOp1
 70
     1
102
RTVSPropertyOp2
 70
     1
102
RTVSPropertyOp3
 70
     1
102
RTVSPropertyOp4
 70
     1
102
RTVSPropertyOp5
 70
     1
102
RTVSPropertyOp6
 70
     1
102
RTVSPropertyOp7
 70
     1
102
RTVSPropertyOp8
 70
     1
102
RTVSPropertyOp9
 70
     1
102
RTVSPropertyOp10
 70
     1
102
RTVSPropertyOp11
 70
     1
102
RTVSPropertyOp12
 70
     1
102
RTVSPropertyOp13
 70
     1
102
RTVSPropertyOp14
 70
     1
102
RTVSPropertyOp15
 70
     1
102
RTVSPropertyOp16
 70
     1
102
RTVSPropertyOp17
 70
     1
102
RTVSPropertyOp18
 70
     1
102
RTVSPropertyOp19
 70
     1
102
RTVSPropertyOp20
 70
     1
102
RTVSPropertyOp21
 70
     1
102
RTVSPropertyOp22
 70
     1
102
RTVSPropertyOp23
 70
     1
102
RTVSPropertyOp24
 70
     1
102
RTVSPropertyOp25
 70
     1
102
RTVSPropertyOp26
 70
     1
102
RTVSPropertyOp27
 70
     1
  0
XRECORD
  5
1D94E
102
{ACAD_REACTORS
330
1D94D
102
}
330
1D94D
100
AcDbXrecord
280
     1
102
RTVSPropertyOp0
 70
     1
102
RTVSPropertyOp1
 70
     1
102
RTVSPropertyOp2
 70
     1
102
RTVSPropertyOp3
 70
     1
102
RTVSPropertyOp4
 70
     1
102
RTVSPropertyOp5
 70
     1
102
RTVSPropertyOp6
 70
     1
102
RTVSPropertyOp7
 70
     1
102
RTVSPropertyOp8
 70
     1
102
RTVSPropertyOp9
 70
     1
102
RTVSPropertyOp10
 70
     1
102
RTVSPropertyOp11
 70
     1
102
RTVSPropertyOp12
 70
     1
102
RTVSPropertyOp13
 70
     1
102
RTVSPropertyOp14
 70
     1
102
RTVSPropertyOp15
 70
     1
102
RTVSPropertyOp16
 70
     1
102
RTVSPropertyOp17
 70
     1
102
RTVSPropertyOp18
 70
     1
102
RTVSPropertyOp19
 70
     1
102
RTVSPropertyOp20
 70
     1
102
RTVSPropertyOp21
 70
     1
102
RTVSPropertyOp22
 70
     1
102
RTVSPropertyOp23
 70
     1
102
RTVSPropertyOp24
 70
     1
102
RTVSPropertyOp25
 70
     1
102
RTVSPropertyOp26
 70
     1
102
RTVSPropertyOp27
 70
     1
  0
XRECORD
  5
1D956
102
{ACAD_REACTORS
330
1D955
102
}
330
1D955
100
AcDbXrecord
280
     1
102
RTVSPropertyOp0
 70
     1
102
RTVSPropertyOp1
 70
     1
102
RTVSPropertyOp2
 70
     1
102
RTVSPropertyOp3
 70
     1
102
RTVSPropertyOp4
 70
     1
102
RTVSPropertyOp5
 70
     1
102
RTVSPropertyOp6
 70
     1
102
RTVSPropertyOp7
 70
     1
102
RTVSPropertyOp8
 70
     1
102
RTVSPropertyOp9
 70
     1
102
RTVSPropertyOp10
 70
     1
102
RTVSPropertyOp11
 70
     1
102
RTVSPropertyOp12
 70
     1
102
RTVSPropertyOp13
 70
     1
102
RTVSPropertyOp14
 70
     1
102
RTVSPropertyOp15
 70
     1
102
RTVSPropertyOp16
 70
     1
102
RTVSPropertyOp17
 70
     1
102
RTVSPropertyOp18
 70
     1
102
RTVSPropertyOp19
 70
     1
102
RTVSPropertyOp20
 70
     1
102
RTVSPropertyOp21
 70
     1
102
RTVSPropertyOp22
 70
     1
102
RTVSPropertyOp23
 70
     1
102
RTVSPropertyOp24
 70
     1
102
RTVSPropertyOp25
 70
     1
102
RTVSPropertyOp26
 70
     1
102
RTVSPropertyOp27
 70
     1
  0
XRECORD
  5
1D948
102
{ACAD_REACTORS
330
1D947
102
}
330
1D947
100
AcDbXrecord
280
     1
102
RTVSPropertyOp0
 70
     1
102
RTVSPropertyOp1
 70
     1
102
RTVSPropertyOp2
 70
     1
102
RTVSPropertyOp3
 70
     1
102
RTVSPropertyOp4
 70
     1
102
RTVSPropertyOp5
 70
     1
102
RTVSPropertyOp6
 70
     1
102
RTVSPropertyOp7
 70
     1
102
RTVSPropertyOp8
 70
     1
102
RTVSPropertyOp9
 70
     1
102
RTVSPropertyOp10
 70
     1
102
RTVSPropertyOp11
 70
     1
102
RTVSPropertyOp12
 70
     1
102
RTVSPropertyOp13
 70
     1
102
RTVSPropertyOp14
 70
     1
102
RTVSPropertyOp15
 70
     1
102
RTVSPropertyOp16
 70
     1
102
RTVSPropertyOp17
 70
     1
102
RTVSPropertyOp18
 70
     1
102
RTVSPropertyOp19
 70
     1
102
RTVSPropertyOp20
 70
     1
102
RTVSPropertyOp21
 70
     1
102
RTVSPropertyOp22
 70
     1
102
RTVSPropertyOp23
 70
     1
102
RTVSPropertyOp24
 70
     1
102
RTVSPropertyOp25
 70
     1
102
RTVSPropertyOp26
 70
     1
102
RTVSPropertyOp27
 70
     1
  0
XRECORD
  5
1D94C
102
{ACAD_REACTORS
330
1D94B
102
}
330
1D94B
100
AcDbXrecord
280
     1
102
RTVSPropertyOp0
 70
     1
102
RTVSPropertyOp1
 70
     1
102
RTVSPropertyOp2
 70
     1
102
RTVSPropertyOp3
 70
     1
102
RTVSPropertyOp4
 70
     1
102
RTVSPropertyOp5
 70
     1
102
RTVSPropertyOp6
 70
     1
102
RTVSPropertyOp7
 70
     1
102
RTVSPropertyOp8
 70
     1
102
RTVSPropertyOp9
 70
     1
102
RTVSPropertyOp10
 70
     1
102
RTVSPropertyOp11
 70
     1
102
RTVSPropertyOp12
 70
     1
102
RTVSPropertyOp13
 70
     1
102
RTVSPropertyOp14
 70
     1
102
RTVSPropertyOp15
 70
     1
102
RTVSPropertyOp16
 70
     1
102
RTVSPropertyOp17
 70
     1
102
RTVSPropertyOp18
 70
     1
102
RTVSPropertyOp19
 70
     1
102
RTVSPropertyOp20
 70
     1
102
RTVSPropertyOp21
 70
     1
102
RTVSPropertyOp22
 70
     1
102
RTVSPropertyOp23
 70
     1
102
RTVSPropertyOp24
 70
     1
102
RTVSPropertyOp25
 70
     1
102
RTVSPropertyOp26
 70
     1
102
RTVSPropertyOp27
 70
     1
  0
XRECORD
  5
1D95C
102
{ACAD_REACTORS
330
1D95B
102
}
330
1D95B
100
AcDbXrecord
280
     1
102
RTVSPropertyOp0
 70
     0
102
RTVSPropertyOp1
 70
     0
102
RTVSPropertyOp2
 70
     0
102
RTVSPropertyOp3
 70
     0
102
RTVSPropertyOp4
 70
     0
102
RTVSPropertyOp5
 70
     0
102
RTVSPropertyOp6
 70
     0
102
RTVSPropertyOp7
 70
     0
102
RTVSPropertyOp8
 70
     0
102
RTVSPropertyOp9
 70
     0
102
RTVSPropertyOp10
 70
     0
102
RTVSPropertyOp11
 70
     0
102
RTVSPropertyOp12
 70
     0
102
RTVSPropertyOp13
 70
     0
102
RTVSPropertyOp14
 70
     2
102
RTVSPropertyOp15
 70
     0
102
RTVSPropertyOp16
 70
     0
102
RTVSPropertyOp17
 70
     0
102
RTVSPropertyOp18
 70
     0
102
RTVSPropertyOp19
 70
     0
102
RTVSPropertyOp20
 70
     0
102
RTVSPropertyOp21
 70
     0
102
RTVSPropertyOp22
 70
     0
102
RTVSPropertyOp23
 70
     0
102
RTVSPropertyOp24
 70
     0
102
RTVSPropertyOp25
 70
     0
102
RTVSPropertyOp26
 70
     0
102
RTVSPropertyOp27
 70
     0
  0
XRECORD
  5
1D954
102
{ACAD_REACTORS
330
1D953
102
}
330
1D953
100
AcDbXrecord
280
     1
102
RTVSPropertyOp0
 70
     1
102
RTVSPropertyOp1
 70
     1
102
RTVSPropertyOp2
 70
     1
102
RTVSPropertyOp3
 70
     1
102
RTVSPropertyOp4
 70
     1
102
RTVSPropertyOp5
 70
     1
102
RTVSPropertyOp6
 70
     1
102
RTVSPropertyOp7
 70
     1
102
RTVSPropertyOp8
 70
     1
102
RTVSPropertyOp9
 70
     1
102
RTVSPropertyOp10
 70
     1
102
RTVSPropertyOp11
 70
     1
102
RTVSPropertyOp12
 70
     1
102
RTVSPropertyOp13
 70
     1
102
RTVSPropertyOp14
 70
     1
102
RTVSPropertyOp15
 70
     1
102
RTVSPropertyOp16
 70
     1
102
RTVSPropertyOp17
 70
     1
102
RTVSPropertyOp18
 70
     1
102
RTVSPropertyOp19
 70
     1
102
RTVSPropertyOp20
 70
     1
102
RTVSPropertyOp21
 70
     1
102
RTVSPropertyOp22
 70
     1
102
RTVSPropertyOp23
 70
     1
102
RTVSPropertyOp24
 70
     1
102
RTVSPropertyOp25
 70
     1
102
RTVSPropertyOp26
 70
     1
102
RTVSPropertyOp27
 70
     1
  0
XRECORD
  5
1D938
102
{ACAD_REACTORS
330
1D937
102
}
330
1D937
100
AcDbXrecord
280
     1
102
RTVSPropertyOp0
 70
     1
102
RTVSPropertyOp1
 70
     1
102
RTVSPropertyOp2
 70
     1
102
RTVSPropertyOp3
 70
     1
102
RTVSPropertyOp4
 70
     1
102
RTVSPropertyOp5
 70
     1
102
RTVSPropertyOp6
 70
     1
102
RTVSPropertyOp7
 70
     1
102
RTVSPropertyOp8
 70
     1
102
RTVSPropertyOp9
 70
     1
102
RTVSPropertyOp10
 70
     1
102
RTVSPropertyOp11
 70
     1
102
RTVSPropertyOp12
 70
     1
102
RTVSPropertyOp13
 70
     1
102
RTVSPropertyOp14
 70
     1
102
RTVSPropertyOp15
 70
     1
102
RTVSPropertyOp16
 70
     1
102
RTVSPropertyOp17
 70
     1
102
RTVSPropertyOp18
 70
     1
102
RTVSPropertyOp19
 70
     1
102
RTVSPropertyOp20
 70
     1
102
RTVSPropertyOp21
 70
     1
102
RTVSPropertyOp22
 70
     1
102
RTVSPropertyOp23
 70
     1
102
RTVSPropertyOp24
 70
     1
102
RTVSPropertyOp25
 70
     1
102
RTVSPropertyOp26
 70
     1
102
RTVSPropertyOp27
 70
     1
  0
XRECORD
  5
1D93A
102
{ACAD_REACTORS
330
1D939
102
}
330
1D939
100
AcDbXrecord
280
     1
102
RTVSPropertyOp0
 70
     1
102
RTVSPropertyOp1
 70
     1
102
RTVSPropertyOp2
 70
     1
102
RTVSPropertyOp3
 70
     1
102
RTVSPropertyOp4
 70
     1
102
RTVSPropertyOp5
 70
     1
102
RTVSPropertyOp6
 70
     1
102
RTVSPropertyOp7
 70
     1
102
RTVSPropertyOp8
 70
     1
102
RTVSPropertyOp9
 70
     1
102
RTVSPropertyOp10
 70
     1
102
RTVSPropertyOp11
 70
     1
102
RTVSPropertyOp12
 70
     1
102
RTVSPropertyOp13
 70
     1
102
RTVSPropertyOp14
 70
     1
102
RTVSPropertyOp15
 70
     1
102
RTVSPropertyOp16
 70
     1
102
RTVSPropertyOp17
 70
     1
102
RTVSPropertyOp18
 70
     1
102
RTVSPropertyOp19
 70
     1
102
RTVSPropertyOp20
 70
     1
102
RTVSPropertyOp21
 70
     1
102
RTVSPropertyOp22
 70
     1
102
RTVSPropertyOp23
 70
     1
102
RTVSPropertyOp24
 70
     1
102
RTVSPropertyOp25
 70
     1
102
RTVSPropertyOp26
 70
     1
102
RTVSPropertyOp27
 70
     1
  0
XRECORD
  5
1D93C
102
{ACAD_REACTORS
330
1D93B
102
}
330
1D93B
100
AcDbXrecord
280
     1
102
RTVSPropertyOp0
 70
     1
102
RTVSPropertyOp1
 70
     1
102
RTVSPropertyOp2
 70
     1
102
RTVSPropertyOp3
 70
     1
102
RTVSPropertyOp4
 70
     1
102
RTVSPropertyOp5
 70
     1
102
RTVSPropertyOp6
 70
     1
102
RTVSPropertyOp7
 70
     1
102
RTVSPropertyOp8
 70
     1
102
RTVSPropertyOp9
 70
     1
102
RTVSPropertyOp10
 70
     1
102
RTVSPropertyOp11
 70
     1
102
RTVSPropertyOp12
 70
     1
102
RTVSPropertyOp13
 70
     1
102
RTVSPropertyOp14
 70
     1
102
RTVSPropertyOp15
 70
     1
102
RTVSPropertyOp16
 70
     1
102
RTVSPropertyOp17
 70
     1
102
RTVSPropertyOp18
 70
     1
102
RTVSPropertyOp19
 70
     1
102
RTVSPropertyOp20
 70
     1
102
RTVSPropertyOp21
 70
     1
102
RTVSPropertyOp22
 70
     1
102
RTVSPropertyOp23
 70
     1
102
RTVSPropertyOp24
 70
     1
102
RTVSPropertyOp25
 70
     1
102
RTVSPropertyOp26
 70
     1
102
RTVSPropertyOp27
 70
     1
  0
XRECORD
  5
1D93E
102
{ACAD_REACTORS
330
1D93D
102
}
330
1D93D
100
AcDbXrecord
280
     1
102
RTVSPropertyOp0
 70
     1
102
RTVSPropertyOp1
 70
     1
102
RTVSPropertyOp2
 70
     1
102
RTVSPropertyOp3
 70
     1
102
RTVSPropertyOp4
 70
     1
102
RTVSPropertyOp5
 70
     1
102
RTVSPropertyOp6
 70
     1
102
RTVSPropertyOp7
 70
     1
102
RTVSPropertyOp8
 70
     1
102
RTVSPropertyOp9
 70
     1
102
RTVSPropertyOp10
 70
     1
102
RTVSPropertyOp11
 70
     1
102
RTVSPropertyOp12
 70
     1
102
RTVSPropertyOp13
 70
     1
102
RTVSPropertyOp14
 70
     1
102
RTVSPropertyOp15
 70
     1
102
RTVSPropertyOp16
 70
     1
102
RTVSPropertyOp17
 70
     1
102
RTVSPropertyOp18
 70
     1
102
RTVSPropertyOp19
 70
     1
102
RTVSPropertyOp20
 70
     1
102
RTVSPropertyOp21
 70
     1
102
RTVSPropertyOp22
 70
     1
102
RTVSPropertyOp23
 70
     1
102
RTVSPropertyOp24
 70
     1
102
RTVSPropertyOp25
 70
     1
102
RTVSPropertyOp26
 70
     1
102
RTVSPropertyOp27
 70
     1
  0
XRECORD
  5
1D958
102
{ACAD_REACTORS
330
1D957
102
}
330
1D957
100
AcDbXrecord
280
     1
102
RTVSPropertyOp0
 70
     0
102
RTVSPropertyOp1
 70
     0
102
RTVSPropertyOp2
 70
     0
102
RTVSPropertyOp3
 70
     0
102
RTVSPropertyOp4
 70
     0
102
RTVSPropertyOp5
 70
     0
102
RTVSPropertyOp6
 70
     0
102
RTVSPropertyOp7
 70
     0
102
RTVSPropertyOp8
 70
     0
102
RTVSPropertyOp9
 70
     0
102
RTVSPropertyOp10
 70
     0
102
RTVSPropertyOp11
 70
     0
102
RTVSPropertyOp12
 70
     0
102
RTVSPropertyOp13
 70
     0
102
RTVSPropertyOp14
 70
     2
102
RTVSPropertyOp15
 70
     0
102
RTVSPropertyOp16
 70
     0
102
RTVSPropertyOp17
 70
     0
102
RTVSPropertyOp18
 70
     0
102
RTVSPropertyOp19
 70
     0
102
RTVSPropertyOp20
 70
     0
102
RTVSPropertyOp21
 70
     0
102
RTVSPropertyOp22
 70
     0
102
RTVSPropertyOp23
 70
     0
102
RTVSPropertyOp24
 70
     0
102
RTVSPropertyOp25
 70
     0
102
RTVSPropertyOp26
 70
     0
102
RTVSPropertyOp27
 70
     0
  0
XRECORD
  5
1D952
102
{ACAD_REACTORS
330
1D951
102
}
330
1D951
100
AcDbXrecord
280
     1
102
RTVSPropertyOp0
 70
     1
102
RTVSPropertyOp1
 70
     1
102
RTVSPropertyOp2
 70
     1
102
RTVSPropertyOp3
 70
     1
102
RTVSPropertyOp4
 70
     1
102
RTVSPropertyOp5
 70
     1
102
RTVSPropertyOp6
 70
     1
102
RTVSPropertyOp7
 70
     1
102
RTVSPropertyOp8
 70
     1
102
RTVSPropertyOp9
 70
     1
102
RTVSPropertyOp10
 70
     1
102
RTVSPropertyOp11
 70
     1
102
RTVSPropertyOp12
 70
     1
102
RTVSPropertyOp13
 70
     1
102
RTVSPropertyOp14
 70
     1
102
RTVSPropertyOp15
 70
     1
102
RTVSPropertyOp16
 70
     1
102
RTVSPropertyOp17
 70
     1
102
RTVSPropertyOp18
 70
     1
102
RTVSPropertyOp19
 70
     1
102
RTVSPropertyOp20
 70
     1
102
RTVSPropertyOp21
 70
     1
102
RTVSPropertyOp22
 70
     1
102
RTVSPropertyOp23
 70
     1
102
RTVSPropertyOp24
 70
     1
102
RTVSPropertyOp25
 70
     1
102
RTVSPropertyOp26
 70
     1
102
RTVSPropertyOp27
 70
     1
  0
XRECORD
  5
1D95A
102
{ACAD_REACTORS
330
1D959
102
}
330
1D959
100
AcDbXrecord
280
     1
102
RTVSPropertyOp0
 70
     0
102
RTVSPropertyOp1
 70
     0
102
RTVSPropertyOp2
 70
     0
102
RTVSPropertyOp3
 70
     0
102
RTVSPropertyOp4
 70
     0
102
RTVSPropertyOp5
 70
     0
102
RTVSPropertyOp6
 70
     0
102
RTVSPropertyOp7
 70
     0
102
RTVSPropertyOp8
 70
     0
102
RTVSPropertyOp9
 70
     0
102
RTVSPropertyOp10
 70
     0
102
RTVSPropertyOp11
 70
     0
102
RTVSPropertyOp12
 70
     0
102
RTVSPropertyOp13
 70
     0
102
RTVSPropertyOp14
 70
     2
102
RTVSPropertyOp15
 70
     0
102
RTVSPropertyOp16
 70
     0
102
RTVSPropertyOp17
 70
     0
102
RTVSPropertyOp18
 70
     0
102
RTVSPropertyOp19
 70
     0
102
RTVSPropertyOp20
 70
     0
102
RTVSPropertyOp21
 70
     0
102
RTVSPropertyOp22
 70
     0
102
RTVSPropertyOp23
 70
     0
102
RTVSPropertyOp24
 70
     0
102
RTVSPropertyOp25
 70
     0
102
RTVSPropertyOp26
 70
     0
102
RTVSPropertyOp27
 70
     0
  0
XRECORD
  5
1D94A
102
{ACAD_REACTORS
330
1D949
102
}
330
1D949
100
AcDbXrecord
280
     1
102
RTVSPropertyOp0
 70
     1
102
RTVSPropertyOp1
 70
     1
102
RTVSPropertyOp2
 70
     1
102
RTVSPropertyOp3
 70
     1
102
RTVSPropertyOp4
 70
     1
102
RTVSPropertyOp5
 70
     1
102
RTVSPropertyOp6
 70
     1
102
RTVSPropertyOp7
 70
     1
102
RTVSPropertyOp8
 70
     1
102
RTVSPropertyOp9
 70
     1
102
RTVSPropertyOp10
 70
     1
102
RTVSPropertyOp11
 70
     1
102
RTVSPropertyOp12
 70
     1
102
RTVSPropertyOp13
 70
     1
102
RTVSPropertyOp14
 70
     1
102
RTVSPropertyOp15
 70
     1
102
RTVSPropertyOp16
 70
     1
102
RTVSPropertyOp17
 70
     1
102
RTVSPropertyOp18
 70
     1
102
RTVSPropertyOp19
 70
     1
102
RTVSPropertyOp20
 70
     1
102
RTVSPropertyOp21
 70
     1
102
RTVSPropertyOp22
 70
     1
102
RTVSPropertyOp23
 70
     1
102
RTVSPropertyOp24
 70
     1
102
RTVSPropertyOp25
 70
     1
102
RTVSPropertyOp26
 70
     1
102
RTVSPropertyOp27
 70
     1
  0
XRECORD
  5
1D950
102
{ACAD_REACTORS
330
1D94F
102
}
330
1D94F
100
AcDbXrecord
280
     1
102
RTVSPropertyOp0
 70
     1
102
RTVSPropertyOp1
 70
     1
102
RTVSPropertyOp2
 70
     1
102
RTVSPropertyOp3
 70
     1
102
RTVSPropertyOp4
 70
     1
102
RTVSPropertyOp5
 70
     1
102
RTVSPropertyOp6
 70
     1
102
RTVSPropertyOp7
 70
     1
102
RTVSPropertyOp8
 70
     1
102
RTVSPropertyOp9
 70
     1
102
RTVSPropertyOp10
 70
     1
102
RTVSPropertyOp11
 70
     1
102
RTVSPropertyOp12
 70
     1
102
RTVSPropertyOp13
 70
     1
102
RTVSPropertyOp14
 70
     1
102
RTVSPropertyOp15
 70
     1
102
RTVSPropertyOp16
 70
     1
102
RTVSPropertyOp17
 70
     1
102
RTVSPropertyOp18
 70
     1
102
RTVSPropertyOp19
 70
     1
102
RTVSPropertyOp20
 70
     1
102
RTVSPropertyOp21
 70
     1
102
RTVSPropertyOp22
 70
     1
102
RTVSPropertyOp23
 70
     1
102
RTVSPropertyOp24
 70
     1
102
RTVSPropertyOp25
 70
     1
102
RTVSPropertyOp26
 70
     1
102
RTVSPropertyOp27
 70
     1
  0
ENDSEC
  0
EOF
