  0
SECTION
  2
HEADER
  9
$ACADVER
  1
AC1015
  9
$ACADMAINTVER
 70
    20
  9
$DWGCODEPAGE
  3
ANSI_1252
  9
$INSBASE
 10
0.0
 20
0.0
 30
0.0
  9
$EXTMIN
 10
1041.097498495191
 20
1087.345512657099
 30
0.0
  9
$EXTMAX
 10
2269.481283332655
 20
2188.309689803094
 30
0.0
  9
$LIMMIN
 10
0.0
 20
0.0
  9
$LIMMAX
 10
420.0
 20
297.0
  9
$ORTHOMODE
 70
     0
  9
$REGENMODE
 70
     1
  9
$FILLMODE
 70
     1
  9
$QTEXTMODE
 70
     0
  9
$MIRRTEXT
 70
     1
  9
$LTSCALE
 40
1.0
  9
$ATTMODE
 70
     1
  9
$TEXTSIZE
 40
2.5
  9
$TRACEWID
 40
1.0
  9
$TEXTSTYLE
  7
STANDARD
  9
$CLAYER
  8
0
  9
$CELTYPE
  6
ByLayer
  9
$CECOLOR
 62
   256
  9
$CELTSCALE
 40
1.0
  9
$DISPSILH
 70
     0
  9
$DIMSCALE
 40
1.0
  9
$DIMASZ
 40
2.5
  9
$DIMEXO
 40
1.0
  9
$DIMDLI
 40
10.0
  9
$DIMRND
 40
0.0
  9
$DIMDLE
 40
0.0
  9
$DIMEXE
 40
1.0
  9
$DIMTP
 40
0.1
  9
$DIMTM
 40
0.1
  9
$DIMTXT
 40
3.5
  9
$DIMCEN
 40
0.0
  9
$DIMTSZ
 40
0.0
  9
$DIMTOL
 70
     0
  9
$DIMLIM
 70
     0
  9
$DIMTIH
 70
     0
  9
$DIMTOH
 70
     0
  9
$DIMSE1
 70
     0
  9
$DIMSE2
 70
     0
  9
$DIMTAD
 70
     1
  9
$DIMZIN
 70
     8
  9
$DIMBLK
  1

  9
$DIMASO
 70
     1
  9
$DIMSHO
 70
     1
  9
$DIMPOST
  1

  9
$DIMAPOST
  1
"
  9
$DIMALT
 70
     0
  9
$DIMALTD
 70
     2
  9
$DIMALTF
 40
0.0393701
  9
$DIMLFAC
 40
1.0
  9
$DIMTOFL
 70
     1
  9
$DIMTVP
 40
0.0
  9
$DIMTIX
 70
     0
  9
$DIMSOXD
 70
     0
  9
$DIMSAH
 70
     0
  9
$DIMBLK1
  1

  9
$DIMBLK2
  1

  9
$DIMSTYLE
  2
AM_DIN
  9
$DIMCLRD
 70
   256
  9
$DIMCLRE
 70
   256
  9
$DIMCLRT
 70
     2
  9
$DIMTFAC
 40
0.71
  9
$DIMGAP
 40
1.5
  9
$DIMJUST
 70
     0
  9
$DIMSD1
 70
     0
  9
$DIMSD2
 70
     0
  9
$DIMTOLJ
 70
     0
  9
$DIMTZIN
 70
     8
  9
$DIMALTZ
 70
     0
  9
$DIMALTTZ
 70
     0
  9
$DIMUPT
 70
     0
  9
$DIMDEC
 70
     2
  9
$DIMTDEC
 70
     3
  9
$DIMALTU
 70
     2
  9
$DIMALTTD
 70
     4
  9
$DIMTXSTY
  7
STANDARD
  9
$DIMAUNIT
 70
     0
  9
$DIMADEC
 70
     0
  9
$DIMALTRND
 40
0.0
  9
$DIMAZIN
 70
     2
  9
$DIMDSEP
 70
    46
  9
$DIMATFIT
 70
     3
  9
$DIMFRAC
 70
     0
  9
$DIMLDRBLK
  1

  9
$DIMLUNIT
 70
     2
  9
$DIMLWD
 70
    -1
  9
$DIMLWE
 70
    -1
  9
$DIMTMOVE
 70
     0
  9
$LUNITS
 70
     2
  9
$LUPREC
 70
     2
  9
$SKETCHINC
 40
1.0
  9
$FILLETRAD
 40
2.5
  9
$AUNITS
 70
     0
  9
$AUPREC
 70
     0
  9
$MENU
  1
.
  9
$ELEVATION
 40
0.0
  9
$PELEVATION
 40
0.0
  9
$THICKNESS
 40
0.0
  9
$LIMCHECK
 70
     0
  9
$CHAMFERA
 40
2.5
  9
$CHAMFERB
 40
2.5
  9
$CHAMFERC
 40
20.0
  9
$CHAMFERD
 40
0.0
  9
$SKPOLY
 70
     0
  9
$TDCREATE
 40
2454053.357293646
  9
$TDUCREATE
 40
2454053.315626979
  9
$TDUPDATE
 40
2454053.357572153
  9
$TDUUPDATE
 40
2454053.315905486
  9
$TDINDWG
 40
0.0002792245
  9
$TDUSRTIMER
 40
0.0002792245
  9
$USRTIMER
 70
     1
  9
$ANGBASE
 50
0.0
  9
$ANGDIR
 70
     0
  9
$PDMODE
 70
     0
  9
$PDSIZE
 40
0.0
  9
$PLINEWID
 40
0.0
  9
$SPLFRAME
 70
     0
  9
$SPLINETYPE
 70
     6
  9
$SPLINESEGS
 70
     8
  9
$HANDSEED
  5
5D5
  9
$SURFTAB1
 70
     6
  9
$SURFTAB2
 70
     6
  9
$SURFTYPE
 70
     6
  9
$SURFU
 70
     6
  9
$SURFV
 70
     6
  9
$UCSBASE
  2

  9
$UCSNAME
  2

  9
$UCSORG
 10
0.0
 20
0.0
 30
0.0
  9
$UCSXDIR
 10
1.0
 20
0.0
 30
0.0
  9
$UCSYDIR
 10
0.0
 20
1.0
 30
0.0
  9
$UCSORTHOREF
  2

  9
$UCSORTHOVIEW
 70
     0
  9
$UCSORGTOP
 10
0.0
 20
0.0
 30
0.0
  9
$UCSORGBOTTOM
 10
0.0
 20
0.0
 30
0.0
  9
$UCSORGLEFT
 10
0.0
 20
0.0
 30
0.0
  9
$UCSORGRIGHT
 10
0.0
 20
0.0
 30
0.0
  9
$UCSORGFRONT
 10
0.0
 20
0.0
 30
0.0
  9
$UCSORGBACK
 10
0.0
 20
0.0
 30
0.0
  9
$PUCSBASE
  2

  9
$PUCSNAME
  2

  9
$PUCSORG
 10
0.0
 20
0.0
 30
0.0
  9
$PUCSXDIR
 10
1.0
 20
0.0
 30
0.0
  9
$PUCSYDIR
 10
0.0
 20
1.0
 30
0.0
  9
$PUCSORTHOREF
  2

  9
$PUCSORTHOVIEW
 70
     0
  9
$PUCSORGTOP
 10
0.0
 20
0.0
 30
0.0
  9
$PUCSORGBOTTOM
 10
0.0
 20
0.0
 30
0.0
  9
$PUCSORGLEFT
 10
0.0
 20
0.0
 30
0.0
  9
$PUCSORGRIGHT
 10
0.0
 20
0.0
 30
0.0
  9
$PUCSORGFRONT
 10
0.0
 20
0.0
 30
0.0
  9
$PUCSORGBACK
 10
0.0
 20
0.0
 30
0.0
  9
$USERI1
 70
     0
  9
$USERI2
 70
     0
  9
$USERI3
 70
     0
  9
$USERI4
 70
     0
  9
$USERI5
 70
     0
  9
$USERR1
 40
0.0
  9
$USERR2
 40
0.0
  9
$USERR3
 40
0.0
  9
$USERR4
 40
0.0
  9
$USERR5
 40
0.0
  9
$WORLDVIEW
 70
     1
  9
$SHADEDGE
 70
     3
  9
$SHADEDIF
 70
    70
  9
$TILEMODE
 70
     1
  9
$MAXACTVP
 70
    64
  9
$PINSBASE
 10
0.0
 20
0.0
 30
0.0
  9
$PLIMCHECK
 70
     0
  9
$PEXTMIN
 10
1.000000000000000E+20
 20
1.000000000000000E+20
 30
1.000000000000000E+20
  9
$PEXTMAX
 10
-1.000000000000000E+20
 20
-1.000000000000000E+20
 30
-1.000000000000000E+20
  9
$PLIMMIN
 10
0.0
 20
0.0
  9
$PLIMMAX
 10
420.0
 20
297.0
  9
$UNITMODE
 70
     0
  9
$VISRETAIN
 70
     1
  9
$PLINEGEN
 70
     0
  9
$PSLTSCALE
 70
     1
  9
$TREEDEPTH
 70
  3020
  9
$CMLSTYLE
  2
Standard
  9
$CMLJUST
 70
     0
  9
$CMLSCALE
 40
20.0
  9
$PROXYGRAPHICS
 70
     1
  9
$MEASUREMENT
 70
     1
  9
$CELWEIGHT
370
    -1
  9
$ENDCAPS
280
     0
  9
$JOINSTYLE
280
     0
  9
$LWDISPLAY
290
     0
  9
$INSUNITS
 70
     4
  9
$HYPERLINKBASE
  1

  9
$STYLESHEET
  1

  9
$XEDIT
290
     1
  9
$CEPSNTYPE
380
     0
  9
$PSTYLEMODE
290
     1
  9
$FINGERPRINTGUID
  2
{EED3455F-697D-4626-A577-474C6BB879F1}
  9
$VERSIONGUID
  2
{CD35D558-14E0-4284-83DC-26BC085A2904}
  9
$EXTNAMES
290
     1
  9
$PSVPSCALE
 40
0.0
  9
$OLESTARTUP
290
     0
  0
ENDSEC
  0
SECTION
  2
CLASSES
  0
CLASS
  1
ACDBDICTIONARYWDFLT
  2
AcDbDictionaryWithDefault
  3
ObjectDBX Classes
 90
        0
280
     0
281
     0
  0
CLASS
  1
ACDBPLACEHOLDER
  2
AcDbPlaceHolder
  3
ObjectDBX Classes
 90
        0
280
     0
281
     0
  0
CLASS
  1
LAYOUT
  2
AcDbLayout
  3
ObjectDBX Classes
 90
        0
280
     0
281
     0
  0
CLASS
  1
AMGSETTINGSOBJ
  2
AmgSettingsObj
  3
"AcadM|Product Description: AutoCAD Mechanical 2000|Company: Autodesk"
 90
        0
280
     0
281
     0
  0
CLASS
  1
ACME_DOCUMENT
  2
AcMeDbDoc
  3
AcMeServices
 90
        0
280
     0
281
     0
  0
CLASS
  1
ACMESCOPE
  2
AcMeScope
  3
AcMeServices
 90
        0
280
     0
281
     0
  0
CLASS
  1
ACMECOMMANDHISTORY
  2
AcMeCommandHistory
  3
AcMeServices
 90
        0
280
     0
281
     0
  0
CLASS
  1
DICTIONARYVAR
  2
AcDbDictionaryVar
  3
ObjectDBX Classes
 90
        0
280
     0
281
     0
  0
CLASS
  1
ACIMSYSVARMAN
  2
AcImSysVarManager
  3
AcMeServices
 90
        0
280
     0
281
     0
  0
CLASS
  1
ACIMREALSYSVAR
  2
AcImRealSysVar
  3
AcMeServices
 90
        0
280
     0
281
     0
  0
CLASS
  1
ACIMINTSYSVAR
  2
AcImIntSysVar
  3
AcMeServices
 90
        0
280
     0
281
     0
  0
CLASS
  1
ACMEDRAWINGMAN
  2
AcMeDrawingMan
  3
AcMeServices
 90
        0
280
     0
281
     0
  0
CLASS
  1
ACMEVIEW
  2
AcMeView
  3
AcMeServices
 90
        0
280
     0
281
     0
  0
CLASS
  1
ACDBENTITYCACHE
  2
AcMeEntityCache
  3
AcMeServices
 90
        0
280
     0
281
     0
  0
CLASS
  1
GSMANAGER
  2
AcMeGSManager
  3
AcMeServices
 90
        0
280
     0
281
     0
  0
CLASS
  1
AMDTINTERNALREACTOR
  2
AmdtInternalReactor
  3
AcMeServices
 90
        0
280
     0
281
     0
  0
CLASS
  1
ACMESTATEMGR
  2
AcMeStateMgr
  3
AcMeServices
 90
        0
280
     0
281
     0
  0
CLASS
  1
ACGREFMASTER
  2
AcGrefMaster
  3
AcAttribServices
 90
        0
280
     0
281
     0
  0
CLASS
  1
ACME_DATABASE
  2
AcMeDbDatabase
  3
AcMeServices
 90
        0
280
     0
281
     0
  0
CLASS
  1
ACRFINSADJUSTERMGR
  2
AcRfInsAdjusterMgr
  3
AcMeServices
 90
        0
280
     0
281
     0
  0
CLASS
  1
ACGREFACADMASTER
  2
AcGrefacadMaster
  3
AcGrefServices
 90
        0
280
     0
281
     0
  0
CLASS
  1
AMIMASTER
  2
AmiMaster
  3
AmiServices
 90
        0
280
     0
281
     0
  0
CLASS
  1
ACIMSTRSYSVAR
  2
AcImStrSysVar
  3
AcMeServices
 90
        0
280
     0
281
     0
  0
CLASS
  1
ACMSTANDARDDIN
  2
AcmStandardDIN
  3
"Amdt_StdImp|Product Description: AutoCAD Mechanical 2004 DX|Company: Autodesk"
 90
        0
280
     0
281
     0
  0
CLASS
  1
AMGOBJPROPCFG
  2
AmgObjPropCfg
  3
"AmgLay|Product Description: AutoCAD Mechanical 2000|Company: Autodesk"
 90
        1
280
     0
281
     0
  0
CLASS
  1
AMDTEDGESTANDARDDIN
  2
AmdtEdgeStdDIN
  3
"Amdt_StdImp|Product Description: AutoCAD Mechanical 2004 DX|Company: Autodesk"
 90
        0
280
     0
281
     0
  0
CLASS
  1
ACMSURFSTANDARDDIN
  2
AcmSurfTextStdDIN
  3
"Amdt_StdImp|Product Description: AutoCAD Mechanical 2004 DX|Company: Autodesk"
 90
        0
280
     0
281
     0
  0
CLASS
  1
ACMFCFSTANDARDDIN
  2
AcmFCFStdDIN
  3
"Amdt_StdImp|Product Description: AutoCAD Mechanical 2004 DX|Company: Autodesk"
 90
        0
280
     0
281
     0
  0
CLASS
  1
ACMWELDSTANDARDDIN
  2
AcmWeldingStdDIN
  3
"Amdt_StdImp|Product Description: AutoCAD Mechanical 2004 DX|Company: Autodesk"
 90
        0
280
     0
281
     0
  0
CLASS
  1
ACMIDSTANDARDDIN
  2
AcmIdStdDIN
  3
"Amdt_StdImp|Product Description: AutoCAD Mechanical 2004 DX|Company: Autodesk"
 90
        0
280
     0
281
     0
  0
CLASS
  1
ACMDATUMSTANDARDDIN
  2
AcmDatumStdDIN
  3
"Amdt_StdImp|Product Description: AutoCAD Mechanical 2004 DX|Company: Autodesk"
 90
        0
280
     0
281
     0
  0
CLASS
  1
ACMBOMSTANDARDDIN
  2
AcmBOMStdDIN
  3
"Amdt_StdImp|Product Description: AutoCAD Mechanical 2004 DX|Company: Autodesk"
 90
        0
280
     0
281
     0
  0
CLASS
  1
ACMDETAILSTANDARDDIN
  2
AmdtDetailSymStdDIN
  3
"Amdt_StdImp|Product Description: AutoCAD Mechanical 2004 DX|Company: Autodesk"
 90
        0
280
     0
281
     0
  0
CLASS
  1
ACMSECTIONSTANDARDDIN
  2
AmdtSectionSymStdDIN
  3
"Amdt_StdImp|Product Description: AutoCAD Mechanical 2004 DX|Company: Autodesk"
 90
        0
280
     0
281
     0
  0
CLASS
  1
ACMCENTERLINESTANDARDDIN
  2
AmdtCenterLineStdDIN
  3
"Amdt_StdImp|Product Description: AutoCAD Mechanical 2004 DX|Company: Autodesk"
 90
        0
280
     0
281
     0
  0
CLASS
  1
ACMTHREADLINESTANDARDDIN
  2
AmdtThreadLineStdDIN
  3
"Amdt_StdImp|Product Description: AutoCAD Mechanical 2004 DX|Company: Autodesk"
 90
        0
280
     0
281
     0
  0
CLASS
  1
ACAMGLAYSTD
  2
AcAmgLayStd
  3
"AcAmgLayStd|Product Description: AutoCAD Mechanical 2000|Company: Autodesk"
 90
        0
280
     0
281
     0
  0
CLASS
  1
ACAMGDIMSTD
  2
AcAmgDimStd
  3
"AcAmgDimStd|Product Description: AutoCAD Mechanical 2000|Company: Autodesk"
 90
        0
280
     0
281
     0
  0
CLASS
  1
ACAMGTITLESTD
  2
AcAmgTitleStd
  3
"TITLEAPP"
 90
        0
280
     0
281
     0
  0
CLASS
  1
ACMDATADICTIONARY
  2
AcmDataDictionary
  3
"AcmSymBB|Product Description: AutoCAD Mechanical 2004 DX|Company: Autodesk"
 90
        0
280
     0
281
     0
  0
CLASS
  1
ACMDATAENTRYBLOCK
  2
AcmDataEntryBlock
  3
"AcmSymBB|Product Description: AutoCAD Mechanical 2004 DX|Company: Autodesk"
 90
        0
280
     0
281
     0
  0
CLASS
  1
LAYER_INDEX
  2
AcDbLayerIndex
  3
ObjectDBX Classes
 90
    32768
280
     0
281
     0
  0
CLASS
  1
IDBUFFER
  2
AcDbIdBuffer
  3
ObjectDBX Classes
 90
    32768
280
     0
281
     0
  0
CLASS
  1
ACMNOTESTANDARDDIN
  2
AmdtNoteStdDIN
  3
"Amdt_StdImp|Product Description: AutoCAD Mechanical 2004 DX|Company: Autodesk"
 90
        0
280
     0
281
     0
  0
CLASS
  1
ACAMGHOLECHARTSTDDIN
  2
AcAmgHoleChartStdDIN
  3
ACMSYMBB_MODULE_NAME
 90
        0
280
     0
281
     0
  0
CLASS
  1
AM_DRAWING_MGR
  2
AcDmDwgMgr
  3
AcMechDwgViewMgmt
 90
        0
280
     0
281
     0
  0
CLASS
  1
AM_DWG_DOCUMENT
  2
AcDmDwgDocument
  3
AcMechDwgViewMgmt
 90
        0
280
     0
281
     0
  0
CLASS
  1
AM_DWG_SHEET
  2
AcDmSheet
  3
AcMechDwgViewMgmt
 90
        0
280
     0
281
     0
  0
CLASS
  1
AM_VIEWDIMPARMAP
  2
AcDmViewDimParMap
  3
AcMechDwgViewMgmt
 90
        0
280
     0
281
     0
  0
CLASS
  1
AM_DWGMGR_NAME
  2
AcDmDwgMgrName
  3
AcMechDwgViewMgmt
 90
        0
280
     0
281
     0
  0
CLASS
  1
AMDTMENUSTATEMGR
  2
AmdtMenuStateMgr
  3
McadcomServices
 90
        0
280
     0
281
     0
  0
CLASS
  1
AMDTMCOMMENUSTATE
  2
AmdtMcomMenuState
  3
McadcomServices
 90
        0
280
     0
281
     0
  0
CLASS
  1
MAPIAMMOUDLE
  2
MApiAmModule
  3
MApiAmServices
 90
        0
280
     0
281
     0
  0
CLASS
  1
AMDTADMENUSTATE
  2
AmdtAdMenuState
  3
DesignerServices
 90
        0
280
     0
281
     0
  0
CLASS
  1
ADAPPL
  2
AcAdAppl
  3
DesignerServices
 90
        0
280
     0
281
     0
  0
CLASS
  1
DEPMGR
  2
AcAdDepMgr
  3
DesignerServices
 90
        0
280
     0
281
     0
  0
CLASS
  1
PARAMMGR
  2
AcAdParamMgr
  3
DesignerServices
 90
        0
280
     0
281
     0
  0
CLASS
  1
PARAMSCOPE
  2
AcAdParamScope
  3
DesignerServices
 90
        0
280
     0
281
     0
  0
CLASS
  1
NAMEDAPPL
  2
AcAdNamedAppl
  3
DesignerServices
 90
        0
280
     0
281
     0
  0
CLASS
  1
AMDTDMMENUSTATE
  2
AmdtDmMenuState
  3
AcMechDwgViewMgmt
 90
        0
280
     0
281
     0
  0
CLASS
  1
AMDTAMMENUSTATE
  2
AmdtAmMenuState
  3
DesignerAssemblies
 90
        0
280
     0
281
     0
  0
CLASS
  1
ACAMPROJECT
  2
AcAmProject
  3
DesignerAssemblies
 90
        0
280
     0
281
     0
  0
CLASS
  1
ACAMGRCOMPDEF
  2
AcAmGrCompDef
  3
DesignerAssemblies
 90
        0
280
     0
281
     0
  0
CLASS
  1
ACCMCONTEXT
  2
AcCmContext
  3
DesignerAssemblies
 90
        0
280
     0
281
     0
  0
CLASS
  1
ACAMCOMPDEF
  2
AcAmCompDef
  3
DesignerAssemblies
 90
        0
280
     0
281
     0
  0
CLASS
  1
ACAMCOMPDEFMGR
  2
AcAmCompDefMgr
  3
DesignerAssemblies
 90
        0
280
     0
281
     0
  0
CLASS
  1
AMCONTEXTMGR
  2
AcAmContextMgr
  3
DesignerAssemblies
 90
        0
280
     0
281
     0
  0
CLASS
  1
ACAMCONTEXTMODELER
  2
AcAmContextModeler
  3
DesignerAssemblies
 90
        0
280
     0
281
     0
  0
CLASS
  1
CATALOGSTATE
  2
AcAmCatalogState
  3
DesignerAssemblies
 90
        0
280
     0
281
     0
  0
CLASS
  1
ACAMGRCOMPDEFSET
  2
AcAmGrCompDefSet
  3
DesignerAssemblies
 90
        0
280
     0
281
     0
  0
CLASS
  1
AMDTBROWSERDBTAB
  2
AmdtBrowserDbTab
  3
McadcomServices
 90
        0
280
     0
281
     0
  0
CLASS
  1
CBROWSERAPPOBJECT
  2
CBrowserAppObject
  3
McadcomServices
 90
        0
280
     0
281
     0
  0
CLASS
  1
DM_PLACEHOLDER
  2
AcDmSelsetPlaceholder
  3
AcMechDwgViewMgmt
 90
        0
280
     0
281
     0
  0
CLASS
  1
TABLESTYLE
  2
AcDbTableStyle
  3
ObjectDBX Classes
 90
     2047
280
     0
281
     0
  0
CLASS
  1
VAACXREFPANELOBJECT
  2
VaAcXREFPanelObject
  3
VAAC_ADDIN
 90
    32768
280
     0
281
     0
  0
CLASS
  1
VAACIMAGEINVENTORY
  2
VaAcImageInventory
  3
VAAC_ADDIN
 90
    32768
280
     0
281
     0
  0
CLASS
  1
AMDTNOTETEMPLATEDB
  2
AmdtNoteTemplateDB
  3
AMDT_STDIMP_MODULE_NAME
 90
        0
280
     0
281
     0
  0
CLASS
  1
ACAMGFILTERDAT
  2
AcAmgFilterDat
  3
"AcadM|Product Description: AutoCAD Mechanical 2000|Company: Autodesk"
 90
        0
280
     0
281
     0
  0
CLASS
  1
ACMBOM
  2
AcmBom
  3
"AcmSymBB|Product Description: AutoCAD Mechanical 2004 DX|Company: Autodesk"
 90
    32768
280
     0
281
     0
  0
CLASS
  1
AMDTFORMULAUPDATEDISPATCHER
  2
AmdtFormulaUpdateDispatcher
  3
AcMeServices
 90
    32768
280
     0
281
     0
  0
CLASS
  1
DIMASSOC
  2
AcDbDimAssoc
  3
"AcDbDimAssoc|Product Desc:     AcDim ARX App For Dimension|Company:          Autodesk, Inc.|WEB Address:      www.autodesk.com"
 90
        0
280
     0
281
     0
  0
CLASS
  1
SORTENTSTABLE
  2
AcDbSortentsTable
  3
ObjectDBX Classes
 90
        0
280
     0
281
     0
  0
CLASS
  1
ACRFATTGENMGR
  2
AcRfAttGeneralMgr
  3
AcAttribServices
 90
        0
280
     0
281
     0
  0
ENDSEC
  0
SECTION
  2
TABLES
  0
TABLE
  2
VPORT
  5
8
330
0
100
AcDbSymbolTable
 70
     3
  0
VPORT
  5
5CC
330
8
100
AcDbSymbolTableRecord
100
AcDbViewportTableRecord
  2
*Active
 70
     0
 10
0.0
 20
0.0
 11
1.0
 21
1.0
 12
1655.289390913923
 22
1637.827601230096
 13
0.0
 23
0.0
 14
2.5
 24
2.5
 15
10.0
 25
10.0
 16
0.0
 26
0.0
 36
1.0
 17
0.0
 27
0.0
 37
0.0
 40
1108.403124288874
 41
1.378804960541149
 42
50.0
 43
0.0
 44
0.0
 50
0.0
 51
0.0
 71
     0
 72
   100
 73
     1
 74
     3
 75
     0
 76
     0
 77
     0
 78
     0
281
     0
 65
     1
110
0.0
120
0.0
130
0.0
111
1.0
121
0.0
131
0.0
112
0.0
122
1.0
132
0.0
 79
     0
146
0.0
  0
ENDTAB
  0
TABLE
  2
LTYPE
  5
5
330
0
100
AcDbSymbolTable
 70
    21
  0
LTYPE
  5
14
330
5
100
AcDbSymbolTableRecord
100
AcDbLinetypeTableRecord
  2
ByBlock
 70
     0
  3

 72
    65
 73
     0
 40
0.0
  0
LTYPE
  5
15
330
5
100
AcDbSymbolTableRecord
100
AcDbLinetypeTableRecord
  2
ByLayer
 70
     0
  3

 72
    65
 73
     0
 40
0.0
  0
LTYPE
  5
16
330
5
100
AcDbSymbolTableRecord
100
AcDbLinetypeTableRecord
  2
Continuous
 70
     0
  3
Solid line
 72
    65
 73
     0
 40
0.0
  0
LTYPE
  5
50
330
5
100
AcDbSymbolTableRecord
100
AcDbLinetypeTableRecord
  2
Amconstr
 70
     0
  3
_______________________
 72
    65
 73
     2
 40
9999.0
 49
9999.0
 74
     0
 49
0.0
 74
     0
  0
LTYPE
  5
55
330
5
100
AcDbSymbolTableRecord
100
AcDbLinetypeTableRecord
  2
Amzigzag
 70
     0
  3
/\/-/\/-/\/-/\/-/\/-/\/
 72
    65
 73
     2
 40
11.0001
 49
0.0001
 74
     4
 75
   136
340
285
 46
0.04
 50
0.0
 44
0.0
 45
0.0
 49
-11.0
 74
     0
  0
LTYPE
  5
56
330
5
100
AcDbSymbolTableRecord
100
AcDbLinetypeTableRecord
  2
AM_DIN_F_W050
 70
     0
  3
__ __ __ __ __ __ __ __ __ __ __ __ __ __ __
 72
    65
 73
     2
 40
6.25
 49
4.75
 74
     0
 49
-1.5
 74
     0
  0
LTYPE
  5
57
330
5
100
AcDbSymbolTableRecord
100
AcDbLinetypeTableRecord
  2
AM_DIN_G_W050
 70
     0
  3
____ . ____ . ____ . ____ . ____ . ____ . ____
 72
    65
 73
     4
 40
13.75
 49
9.75
 74
     0
 49
-1.5
 74
     0
 49
1.0
 74
     0
 49
-1.5
 74
     0
  0
LTYPE
  5
58
330
5
100
AcDbSymbolTableRecord
100
AcDbLinetypeTableRecord
  2
AM_DIN_K_W050
 70
     0
  3
_____ . . _____ . . _____ . . ____ .. ____
 72
    65
 73
     6
 40
16.25
 49
9.75
 74
     0
 49
-1.5
 74
     0
 49
1.0
 74
     0
 49
-1.5
 74
     0
 49
1.0
 74
     0
 49
-1.5
 74
     0
  0
LTYPE
  5
59
330
5
100
AcDbSymbolTableRecord
100
AcDbLinetypeTableRecord
  2
AM_DIN_G_W050x2
 70
     0
  3
__ . __ . __ . __ . __ . __
 72
    65
 73
     4
 40
6.875
 49
4.75
 74
     0
 49
-0.875
 74
     0
 49
0.375
 74
     0
 49
-0.875
 74
     0
  0
LTYPE
  5
5A
330
5
100
AcDbSymbolTableRecord
100
AcDbLinetypeTableRecord
  2
AM_DIN_F_W050x2
 70
     0
  3
 _ _ _ _ _ _ _ _ _ _ _ _
 72
    65
 73
     2
 40
3.125
 49
2.25
 74
     0
 49
-0.875
 74
     0
  0
LTYPE
  5
68
330
5
100
AcDbSymbolTableRecord
100
AcDbLinetypeTableRecord
  2
ACDINWELD
 70
     0
  3
_ _ _ _ _
 72
    65
 73
     2
 40
2.0
 49
2.0
 74
     0
 49
-1.0
 74
     0
  0
LTYPE
  5
69
330
5
100
AcDbSymbolTableRecord
100
AcDbLinetypeTableRecord
  2
ACDINTGB
 70
     0
  3
__ . . __ . .
 72
    65
 73
     6
 40
9.0
 49
4.0
 74
     0
 49
-1.0
 74
     0
 49
1.0
 74
     0
 49
-1.0
 74
     0
 49
1.0
 74
     0
 49
-1.0
 74
     0
  0
LTYPE
  5
6A
330
5
100
AcDbSymbolTableRecord
100
AcDbLinetypeTableRecord
  2
ACDINTGL
 70
     0
  3
_ _ _ _ _
 72
    65
 73
     2
 40
3.0
 49
2.0
 74
     0
 49
-1.0
 74
     0
  0
LTYPE
  5
6C
330
5
100
AcDbSymbolTableRecord
100
AcDbLinetypeTableRecord
  2
CENTER
 70
     0
  3
__ . __
 72
    65
 73
     4
 40
7.0
 49
4.0
 74
     0
 49
-1.0
 74
     0
 49
1.0
 74
     0
 49
-1.0
 74
     0
  0
LTYPE
  5
F2
330
5
100
AcDbSymbolTableRecord
100
AcDbLinetypeTableRecord
  2
HIDDEN
 70
     0
  3
Hidden __ __ __ __ __ __ __ __ __ __ __ __ __ _
 72
    65
 73
     2
 40
9.524999999999998
 49
6.349999999999999
 74
     0
 49
-3.174999999999999
 74
     0
  0
LTYPE
  5
F3
330
5
100
AcDbSymbolTableRecord
100
AcDbLinetypeTableRecord
  2
PHANTOM2
 70
     0
  3
Phantom (.5x) ___ _ _ ___ _ _ ___ _ _ ___ _ _
 72
    65
 73
     6
 40
31.75
 49
15.875
 74
     0
 49
-3.174999999999999
 74
     0
 49
3.174999999999999
 74
     0
 49
-3.174999999999999
 74
     0
 49
3.174999999999999
 74
     0
 49
-3.174999999999999
 74
     0
  0
LTYPE
  5
34C
330
5
100
AcDbSymbolTableRecord
100
AcDbLinetypeTableRecord
  2
AUSGEZOGEN
 70
     0
  3
_______________________________________________
 72
    65
 73
     0
 40
0.0
  0
ENDTAB
  0
TABLE
  2
LAYER
  5
2
102
{ACAD_XDICTIONARY
360
C0
102
}
330
0
100
AcDbSymbolTable
 70
    10
  0
LAYER
  5
10
330
2
100
AcDbSymbolTableRecord
100
AcDbLayerTableRecord
  2
0
 70
     0
 62
     7
  6
Continuous
370
    -3
390
F
  0
LAYER
  5
34D
330
2
100
AcDbSymbolTableRecord
100
AcDbLayerTableRecord
  2
AM_7
 70
     0
 62
     4
  6
AM_DIN_G_W050
370
    25
390
F
  0
LAYER
  5
34E
330
2
100
AcDbSymbolTableRecord
100
AcDbLayerTableRecord
  2
DEFPOINTS
 70
     0
 62
     7
  6
Continuous
290
     0
370
    -3
390
F
  0
LAYER
  5
34F
330
2
100
AcDbSymbolTableRecord
100
AcDbLayerTableRecord
  2
406
 70
     0
 62
     7
  6
Continuous
370
    -3
390
F
  0
LAYER
  5
350
330
2
100
AcDbSymbolTableRecord
100
AcDbLayerTableRecord
  2
AM_5
 70
     0
 62
     3
  6
Continuous
370
    25
390
F
  0
LAYER
  5
351
330
2
100
AcDbSymbolTableRecord
100
AcDbLayerTableRecord
  2
AM_4
 70
     0
 62
     3
  6
Continuous
370
    25
390
F
  0
LAYER
  5
352
330
2
100
AcDbSymbolTableRecord
100
AcDbLayerTableRecord
  2
AM_6
 70
     0
 62
     2
  6
Continuous
370
    35
390
F
  0
LAYER
  5
353
330
2
100
AcDbSymbolTableRecord
100
AcDbLayerTableRecord
  2
4
 70
     0
 62
     3
  6
Continuous
370
    -3
390
F
  0
LAYER
  5
354
330
2
100
AcDbSymbolTableRecord
100
AcDbLayerTableRecord
  2
AM_3
 70
     0
 62
     6
  6
AM_DIN_F_W050
370
    25
390
F
  0
ENDTAB
  0
TABLE
  2
STYLE
  5
3
330
0
100
AcDbSymbolTable
 70
     8
  0
STYLE
  5
11
330
3
100
AcDbSymbolTableRecord
100
AcDbTextStyleTableRecord
  2
STANDARD
 70
     0
 40
0.0
 41
1.0
 50
0.0
 71
     0
 42
2.5
  3
ISOCP.SHX
  4
bigfont.shx
  0
STYLE
  5
5B
330
3
100
AcDbSymbolTableRecord
100
AcDbTextStyleTableRecord
  2
ACDINTS
 70
     0
 40
1.0
 41
1.0
 50
0.0
 71
     0
 42
2.5
  3
isocp.shx
  4
bigfont.shx
  0
STYLE
  5
67
330
3
100
AcDbSymbolTableRecord
100
AcDbTextStyleTableRecord
  2
ACDINGDT
 70
     0
 40
0.0
 41
1.0
 50
0.0
 71
     0
 42
2.5
  3
AMGDT
  4
bigfont.shx
  0
STYLE
  5
285
330
3
100
AcDbSymbolTableRecord
100
AcDbTextStyleTableRecord
  2

 70
     1
 40
0.0
 41
1.0
 50
0.0
 71
     0
 42
2.5
  3
genltshp.shx
  4

  0
ENDTAB
  0
TABLE
  2
VIEW
  5
6
330
0
100
AcDbSymbolTable
 70
     0
  0
ENDTAB
  0
TABLE
  2
UCS
  5
7
330
0
100
AcDbSymbolTable
 70
     0
  0
ENDTAB
  0
TABLE
  2
APPID
  5
9
330
0
100
AcDbSymbolTable
 70
    19
  0
APPID
  5
12
330
9
100
AcDbSymbolTableRecord
100
AcDbRegAppTableRecord
  2
ACAD
 70
     0
  0
APPID
  5
30
330
9
100
AcDbSymbolTableRecord
100
AcDbRegAppTableRecord
  2
MCAD_NO_VIS
 70
     0
  0
APPID
  5
31
330
9
100
AcDbSymbolTableRecord
100
AcDbRegAppTableRecord
  2
ACAD_TEMP_GRAPHIC
 70
     0
  0
APPID
  5
44
330
9
100
AcDbSymbolTableRecord
100
AcDbRegAppTableRecord
  2
ACATTRIBSERVICES
 70
     0
  0
APPID
  5
108
330
9
100
AcDbSymbolTableRecord
100
AcDbRegAppTableRecord
  2
AD_DRAW
 70
     0
  0
APPID
  5
126
330
9
100
AcDbSymbolTableRecord
100
AcDbRegAppTableRecord
  2
DESIGNERASSEMBLIES
 70
     0
  0
APPID
  5
12A
330
9
100
AcDbSymbolTableRecord
100
AcDbRegAppTableRecord
  2
ACADM_DIM_EDIT
 70
     0
  0
APPID
  5
12B
330
9
100
AcDbSymbolTableRecord
100
AcDbRegAppTableRecord
  2
AMDT_DM_ADJ
 70
     0
  0
APPID
  5
1A4
330
9
100
AcDbSymbolTableRecord
100
AcDbRegAppTableRecord
  2
ACAD_DSTYLE_DIMARC_LENGTH_SYMBOL
 70
     0
  0
APPID
  5
1A5
330
9
100
AcDbSymbolTableRecord
100
AcDbRegAppTableRecord
  2
ACAD_DSTYLE_DIMJOGGED_JOGANGLE_SYMBOL
 70
     0
  0
APPID
  5
22C
330
9
100
AcDbSymbolTableRecord
100
AcDbRegAppTableRecord
  2
AcAecLayerStandard
 70
     0
  0
APPID
  5
358
330
9
100
AcDbSymbolTableRecord
100
AcDbRegAppTableRecord
  2
GENIUS_GENOENT_13
 70
     0
  0
APPID
  5
359
330
9
100
AcDbSymbolTableRecord
100
AcDbRegAppTableRecord
  2
GENIUS_GENODEF_13
 70
     0
  0
APPID
  5
35A
330
9
100
AcDbSymbolTableRecord
100
AcDbRegAppTableRecord
  2
GENIUS_GENOLIS_13
 70
     0
  0
APPID
  5
35B
330
9
100
AcDbSymbolTableRecord
100
AcDbRegAppTableRecord
  2
GENIUS_GENOREF_13
 70
     0
  0
APPID
  5
35C
330
9
100
AcDbSymbolTableRecord
100
AcDbRegAppTableRecord
  2
GENIUS_GENOBJ-N-CEN_13
 70
     0
  0
APPID
  5
35D
330
9
100
AcDbSymbolTableRecord
100
AcDbRegAppTableRecord
  2
ACAD_PSEXT
 70
     0
  0
APPID
  5
35E
330
9
100
AcDbSymbolTableRecord
100
AcDbRegAppTableRecord
  2
GENIUS_GENCEN_19
 70
     0
  0
APPID
  5
35F
330
9
100
AcDbSymbolTableRecord
100
AcDbRegAppTableRecord
  2
GENIUS_GENOBJ-N-CRS_13
 70
     0
  0
ENDTAB
  0
TABLE
  2
DIMSTYLE
  5
A
330
0
100
AcDbSymbolTable
 70
    11
100
AcDbDimStyleTable
 71
     1
340
6F
  0
DIMSTYLE
105
6F
102
{ACAD_REACTORS
330
4B
102
}
330
A
100
AcDbSymbolTableRecord
100
AcDbDimStyleTableRecord
  2
AM_DIN
 70
     0
  4
"
 41
2.5
 42
1.0
 43
10.0
 44
1.0
 47
0.1
 48
0.1
 73
     0
 74
     0
 77
     1
 78
     8
 79
     2
140
3.5
141
0.0
143
0.0393701
146
0.71
147
1.5
172
     1
176
   256
177
   256
178
     2
271
     2
272
     3
274
     4
283
     0
284
     8
340
11
371
    -1
372
    -1
1001
ACAD_DSTYLE_DIMARC_LENGTH_SYMBOL
1070
   379
1070
     0
1001
ACAD_DSTYLE_DIMJOGGED_JOGANGLE_SYMBOL
1070
   384
1040
1.570796326794896
  0
DIMSTYLE
105
70
330
A
100
AcDbSymbolTableRecord
100
AcDbDimStyleTableRecord
  2
AM_DIN$3
 70
     0
  4
"
 41
2.5
 42
1.0
 43
10.0
 44
1.0
 47
0.1
 48
0.1
 73
     0
 77
     1
 78
     8
 79
     2
140
3.5
141
0.0
143
0.0393701
146
0.71
147
1.5
176
   256
177
   256
178
     2
271
     2
272
     3
274
     4
283
     0
284
     8
288
     1
289
     0
340
11
371
    -1
372
    -1
1001
ACAD_DSTYLE_DIMARC_LENGTH_SYMBOL
1070
   379
1070
     0
1001
ACAD_DSTYLE_DIMJOGGED_JOGANGLE_SYMBOL
1070
   384
1040
1.570796326794896
  0
DIMSTYLE
105
71
330
A
100
AcDbSymbolTableRecord
100
AcDbDimStyleTableRecord
  2
AM_DIN$4
 70
     0
  4
"
 41
2.5
 42
1.0
 43
10.0
 44
1.0
 47
0.1
 48
0.1
 73
     0
 77
     1
 78
     8
 79
     2
140
3.5
141
0.0
143
0.0393701
146
0.71
147
1.5
176
   256
177
   256
178
     2
271
     2
272
     3
274
     4
283
     0
284
     8
288
     1
289
     0
340
11
371
    -1
372
    -1
1001
ACAD_DSTYLE_DIMARC_LENGTH_SYMBOL
1070
   379
1070
     0
1001
ACAD_DSTYLE_DIMJOGGED_JOGANGLE_SYMBOL
1070
   384
1040
1.570796326794896
  0
DIMSTYLE
105
72
330
A
100
AcDbSymbolTableRecord
100
AcDbDimStyleTableRecord
  2
AM_DIN$6
 70
     0
  4
"
 41
2.5
 42
1.0
 43
10.0
 44
1.0
 47
0.1
 48
0.1
 73
     0
 74
     0
 78
     8
 79
     2
140
3.5
141
0.0
143
0.0393701
146
0.71
147
1.5
172
     1
176
   256
177
   256
178
     2
271
     2
272
     3
274
     4
283
     0
284
     8
340
11
371
    -1
372
    -1
1001
ACAD_DSTYLE_DIMARC_LENGTH_SYMBOL
1070
   379
1070
     0
1001
ACAD_DSTYLE_DIMJOGGED_JOGANGLE_SYMBOL
1070
   384
1040
1.570796326794896
  0
DIMSTYLE
105
73
330
A
100
AcDbSymbolTableRecord
100
AcDbDimStyleTableRecord
  2
AM_DIN$7
 70
     0
  4
"
 41
2.5
 42
1.0
 43
10.0
 44
1.0
 47
0.1
 48
0.1
 73
     0
 74
     0
 77
     1
 78
     8
 79
     2
140
5.0
141
0.0
143
0.0393701
146
0.71
147
1.5
172
     1
176
   256
177
   256
178
     2
271
     2
272
     3
274
     4
283
     0
284
     8
340
11
371
    -1
372
    -1
1001
ACAD_DSTYLE_DIMARC_LENGTH_SYMBOL
1070
   379
1070
     0
1001
ACAD_DSTYLE_DIMJOGGED_JOGANGLE_SYMBOL
1070
   384
1040
1.570796326794896
  0
DIMSTYLE
105
74
330
A
100
AcDbSymbolTableRecord
100
AcDbDimStyleTableRecord
  2
AM_DIN$SF
 70
     0
  4
"
 41
2.5
 42
1.0
 43
10.0
 44
1.0
 47
0.1
 48
0.1
 73
     0
 74
     0
 75
     1
 76
     1
 77
     1
 78
     8
 79
     2
140
3.5
141
0.0
143
0.0393701
146
0.71
147
1.5
172
     1
176
   256
177
   256
178
     2
271
     2
272
     3
274
     4
283
     0
284
     8
340
11
371
    -1
372
    -1
1001
ACAD_DSTYLE_DIMARC_LENGTH_SYMBOL
1070
   379
1070
     0
1001
ACAD_DSTYLE_DIMJOGGED_JOGANGLE_SYMBOL
1070
   384
1040
1.570796326794896
  0
DIMSTYLE
105
79
330
A
100
AcDbSymbolTableRecord
100
AcDbDimStyleTableRecord
  2
AM_DIN$SH
 70
     0
  4
"
 41
2.5
 42
1.0
 43
10.0
 44
1.0
 47
0.1
 48
0.1
 73
     0
 74
     0
 75
     1
 76
     1
 77
     1
 78
     8
 79
     2
140
3.5
141
0.0
143
0.0393701
144
2.0
146
0.71
147
1.5
172
     1
173
     1
176
   256
177
   256
178
     2
271
     2
272
     3
274
     4
283
     0
284
     8
340
11
343
75
371
    -1
372
    -1
1001
ACAD_DSTYLE_DIMARC_LENGTH_SYMBOL
1070
   379
1070
     0
1001
ACAD_DSTYLE_DIMJOGGED_JOGANGLE_SYMBOL
1070
   384
1040
1.570796326794896
  0
DIMSTYLE
105
356
330
A
100
AcDbSymbolTableRecord
100
AcDbDimStyleTableRecord
  2
GEN-ISO
 70
     0
  4
"
 40
10.0
 41
2.5
 42
1.0
 43
7.0
 44
1.0
 47
0.1
 48
0.1
 73
     0
 74
     0
 77
     1
 78
     8
140
3.5
141
0.0
143
0.0393701
146
0.71
147
0.6
172
     1
176
     3
177
     3
178
     2
271
     2
272
     2
283
     0
340
11
  0
DIMSTYLE
105
357
102
{ACAD_REACTORS
330
410
330
3EF
330
3F2
330
3F5
330
417
330
508
330
50B
330
50E
330
529
330
530
102
}
330
A
100
AcDbSymbolTableRecord
100
AcDbDimStyleTableRecord
  2
GEN-ISO$0
 70
     0
  4
"
 40
10.0
 41
2.5
 42
1.0
 43
7.0
 44
1.0
 47
0.1
 48
0.1
 73
     0
 74
     0
 77
     1
 78
     8
140
3.5
141
0.0
143
0.0393701
146
0.71
147
0.6
172
     1
176
     3
177
     3
178
     2
271
     2
272
     2
283
     0
340
11
  0
ENDTAB
  0
TABLE
  2
BLOCK_RECORD
  5
1
330
0
100
AcDbSymbolTable
 70
    14
  0
BLOCK_RECORD
  5
1F
102
{ACAD_XDICTIONARY
360
83
102
}
330
1
100
AcDbSymbolTableRecord
100
AcDbBlockTableRecord
  2
*Model_Space
340
22
  0
BLOCK_RECORD
  5
1B
330
1
100
AcDbSymbolTableRecord
100
AcDbBlockTableRecord
  2
*Paper_Space
340
1E
  0
BLOCK_RECORD
  5
23
330
1
100
AcDbSymbolTableRecord
100
AcDbBlockTableRecord
  2
*Paper_Space0
340
26
  0
BLOCK_RECORD
  5
75
330
1
100
AcDbSymbolTableRecord
100
AcDbBlockTableRecord
  2
GENAXEH
340
0
  0
BLOCK_RECORD
  5
58E
330
1
100
AcDbSymbolTableRecord
100
AcDbBlockTableRecord
  2
*D9
340
0
  0
BLOCK_RECORD
  5
59A
330
1
100
AcDbSymbolTableRecord
100
AcDbBlockTableRecord
  2
*D10
340
0
  0
BLOCK_RECORD
  5
5A6
330
1
100
AcDbSymbolTableRecord
100
AcDbBlockTableRecord
  2
*D11
340
0
  0
BLOCK_RECORD
  5
5B2
330
1
100
AcDbSymbolTableRecord
100
AcDbBlockTableRecord
  2
*D12
340
0
  0
BLOCK_RECORD
  5
5BE
330
1
100
AcDbSymbolTableRecord
100
AcDbBlockTableRecord
  2
*D13
340
0
  0
ENDTAB
  0
ENDSEC
  0
SECTION
  2
BLOCKS
  0
BLOCK
  5
20
330
1F
100
AcDbEntity
  8
0
100
AcDbBlockBegin
  2
*Model_Space
 70
     0
 10
0.0
 20
0.0
 30
0.0
  3
*Model_Space
  1

  0
ENDBLK
  5
21
330
1F
100
AcDbEntity
  8
0
100
AcDbBlockEnd
  0
BLOCK
  5
1C
330
1B
100
AcDbEntity
 67
     1
  8
0
100
AcDbBlockBegin
  2
*Paper_Space
 70
     0
 10
0.0
 20
0.0
 30
0.0
  3
*Paper_Space
  1

  0
ENDBLK
  5
1D
330
1B
100
AcDbEntity
 67
     1
  8
0
100
AcDbBlockEnd
  0
BLOCK
  5
24
330
23
100
AcDbEntity
 67
     1
  8
0
100
AcDbBlockBegin
  2
*Paper_Space0
 70
     0
 10
0.0
 20
0.0
 30
0.0
  3
*Paper_Space0
  1

  0
ENDBLK
  5
25
330
23
100
AcDbEntity
 67
     1
  8
0
100
AcDbBlockEnd
  0
BLOCK
  5
77
330
75
100
AcDbEntity
  8
0
100
AcDbBlockBegin
  2
GENAXEH
 70
     0
 10
0.0
 20
0.0
 30
0.0
  3
GENAXEH
  1

  0
LINE
  5
76
330
75
100
AcDbEntity
  8
0
100
AcDbLine
 10
-1.0
 20
0.0
 30
0.0
 11
1.0
 21
0.0
 31
0.0
  0
ENDBLK
  5
78
330
75
100
AcDbEntity
  8
0
100
AcDbBlockEnd
  0
BLOCK
  5
598
330
58E
100
AcDbEntity
  8
0
100
AcDbBlockBegin
  2
*D9
 70
     1
 10
0.0
 20
0.0
 30
0.0
  3
*D9
  1

  0
LINE
  5
58F
330
58E
100
AcDbEntity
  8
AM_5
 62
     3
370
    -2
100
AcDbLine
 10
1310.912490490276
 20
1969.416014827301
 30
0.0
 11
1250.912489490275
 21
1969.416014827301
 31
0.0
  0
LINE
  5
590
330
58E
100
AcDbEntity
  8
AM_5
 62
     3
370
    -2
100
AcDbLine
 10
1434.863907968419
 20
1824.410718096712
 30
0.0
 11
1250.912489490275
 21
1824.410718096712
 31
0.0
  0
LINE
  5
591
330
58E
100
AcDbEntity
  8
AM_5
 62
     3
370
    -2
100
AcDbLine
 10
1260.912489490275
 20
1944.416014827301
 30
0.0
 11
1260.912489490275
 21
1849.410718096712
 31
0.0
  0
SOLID
  5
592
330
58E
100
AcDbEntity
  8
AM_5
 62
     3
100
AcDbTrace
 10
1256.745822823608
 20
1944.416014827301
 30
0.0
 11
1265.079156156942
 21
1944.416014827301
 31
0.0
 12
1260.912489490275
 22
1969.416014827301
 32
0.0
 13
1260.912489490275
 23
1969.416014827301
 33
0.0
  0
SOLID
  5
593
330
58E
100
AcDbEntity
  8
AM_5
 62
     3
100
AcDbTrace
 10
1256.745822823608
 20
1849.410718096712
 30
0.0
 11
1265.079156156942
 21
1849.410718096712
 31
0.0
 12
1260.912489490275
 22
1824.410718096712
 32
0.0
 13
1260.912489490275
 23
1824.410718096712
 33
0.0
  0
MTEXT
  5
594
330
58E
100
AcDbEntity
  8
AM_5
 62
     2
100
AcDbMText
 10
1237.412489490275
 20
1896.913366462007
 30
0.0
 40
35.0
 41
0.0
 71
     5
 72
     1
  1
145
 11
0.0000000000000001
 21
1.0
 31
0.0
 73
     1
 44
1.0
1001
ACAD
1000
MTEXTBEGIN
1070
    73
1070
     1
1070
    44
1040
1.0
1070
    74
1070
     0
1000
MTEXTEND
  0
POINT
  5
595
330
58E
100
AcDbEntity
  8
DEFPOINTS
 62
     0
100
AcDbPoint
 10
1320.912490490276
 20
1969.416014827301
 30
0.0
  0
POINT
  5
596
330
58E
100
AcDbEntity
  8
DEFPOINTS
 62
     0
100
AcDbPoint
 10
1444.863907968419
 20
1824.410718096712
 30
0.0
  0
POINT
  5
597
330
58E
100
AcDbEntity
  8
DEFPOINTS
 62
     0
100
AcDbPoint
 10
1260.912489490275
 20
1824.410718096712
 30
0.0
  0
ENDBLK
  5
599
330
58E
100
AcDbEntity
  8
0
100
AcDbBlockEnd
  0
BLOCK
  5
5A4
330
59A
100
AcDbEntity
  8
0
100
AcDbBlockBegin
  2
*D10
 70
     1
 10
0.0
 20
0.0
 30
0.0
  3
*D10
  1

  0
LINE
  5
59B
330
59A
100
AcDbEntity
  8
AM_5
 62
     3
370
    -2
100
AcDbLine
 10
1808.863907968419
 20
1824.410718096712
 30
0.0
 11
2012.878496891394
 21
1824.410718096712
 31
0.0
  0
LINE
  5
59C
330
59A
100
AcDbEntity
  8
AM_5
 62
     3
370
    -2
100
AcDbLine
 10
1930.912490271662
 20
1899.421136682165
 30
0.0
 11
2012.878496891394
 21
1899.421136682165
 31
0.0
  0
LINE
  5
59D
330
59A
100
AcDbEntity
  8
AM_5
 62
     3
370
    -2
100
AcDbLine
 10
2002.878496891395
 20
1849.410718096712
 30
0.0
 11
2002.878496891395
 21
1874.421136682165
 31
0.0
  0
SOLID
  5
59E
330
59A
100
AcDbEntity
  8
AM_5
 62
     3
100
AcDbTrace
 10
1998.711830224728
 20
1849.410718096712
 30
0.0
 11
2007.045163558061
 21
1849.410718096712
 31
0.0
 12
2002.878496891395
 22
1824.410718096712
 32
0.0
 13
2002.878496891395
 23
1824.410718096712
 33
0.0
  0
SOLID
  5
59F
330
59A
100
AcDbEntity
  8
AM_5
 62
     3
100
AcDbTrace
 10
1998.711830224728
 20
1874.421136682165
 30
0.0
 11
2007.045163558061
 21
1874.421136682165
 31
0.0
 12
2002.878496891395
 22
1899.421136682165
 32
0.0
 13
2002.878496891395
 23
1899.421136682165
 33
0.0
  0
MTEXT
  5
5A0
330
59A
100
AcDbEntity
  8
AM_5
 62
     2
100
AcDbMText
 10
1979.378496891394
 20
1861.915927389436
 30
0.0
 40
35.0
 41
0.0
 71
     5
 72
     1
  1
75
 11
0.0000000000000001
 21
1.0
 31
0.0
 73
     1
 44
1.0
1001
ACAD
1000
MTEXTBEGIN
1070
    73
1070
     1
1070
    44
1040
1.0
1070
    74
1070
     0
1000
MTEXTEND
  0
POINT
  5
5A1
330
59A
100
AcDbEntity
  8
DEFPOINTS
 62
     0
100
AcDbPoint
 10
1798.863907968419
 20
1824.410718096712
 30
0.0
  0
POINT
  5
5A2
330
59A
100
AcDbEntity
  8
DEFPOINTS
 62
     0
100
AcDbPoint
 10
1920.912490271662
 20
1899.421136682165
 30
0.0
  0
POINT
  5
5A3
330
59A
100
AcDbEntity
  8
DEFPOINTS
 62
     0
100
AcDbPoint
 10
2002.878496891395
 20
1899.421136682165
 30
0.0
  0
ENDBLK
  5
5A5
330
59A
100
AcDbEntity
  8
0
100
AcDbBlockEnd
  0
BLOCK
  5
5B0
330
5A6
100
AcDbEntity
  8
0
100
AcDbBlockBegin
  2
*D11
 70
     1
 10
0.0
 20
0.0
 30
0.0
  3
*D11
  1

  0
LINE
  5
5A7
330
5A6
100
AcDbEntity
  8
AM_5
 62
     3
370
    -2
100
AcDbLine
 10
1808.863907968419
 20
1824.410718096712
 30
0.0
 11
2076.374135283998
 21
1824.410718096712
 31
0.0
  0
LINE
  5
5A8
330
5A6
100
AcDbEntity
  8
AM_5
 62
     3
370
    -2
100
AcDbLine
 10
1804.849774491406
 20
2064.410718096711
 30
0.0
 11
2076.374135283998
 21
2064.410718096711
 31
0.0
  0
LINE
  5
5A9
330
5A6
100
AcDbEntity
  8
AM_5
 62
     3
370
    -2
100
AcDbLine
 10
2066.374135283998
 20
1849.410718096712
 30
0.0
 11
2066.374135283998
 21
2039.410718096711
 31
0.0
  0
SOLID
  5
5AA
330
5A6
100
AcDbEntity
  8
AM_5
 62
     3
100
AcDbTrace
 10
2062.207468617331
 20
1849.410718096712
 30
0.0
 11
2070.540801950665
 21
1849.410718096712
 31
0.0
 12
2066.374135283998
 22
1824.410718096712
 32
0.0
 13
2066.374135283998
 23
1824.410718096712
 33
0.0
  0
SOLID
  5
5AB
330
5A6
100
AcDbEntity
  8
AM_5
 62
     3
100
AcDbTrace
 10
2062.207468617331
 20
2039.410718096711
 30
0.0
 11
2070.540801950665
 21
2039.410718096711
 31
0.0
 12
2066.374135283998
 22
2064.410718096711
 32
0.0
 13
2066.374135283998
 23
2064.410718096711
 33
0.0
  0
MTEXT
  5
5AC
330
5A6
100
AcDbEntity
  8
AM_5
 62
     2
100
AcDbMText
 10
2042.870690402108
 20
1944.410718096712
 30
0.0
 40
35.0
 41
0.0
 71
     5
 72
     1
  1
220
 11
0.0000000000000001
 21
1.0
 31
0.0
 73
     1
 44
1.0
1001
ACAD
1000
MTEXTBEGIN
1070
    73
1070
     1
1070
    44
1040
1.0
1070
    74
1070
     0
1000
MTEXTEND
  0
POINT
  5
5AD
330
5A6
100
AcDbEntity
  8
DEFPOINTS
 62
     0
100
AcDbPoint
 10
1798.863907968419
 20
1824.410718096712
 30
0.0
  0
POINT
  5
5AE
330
5A6
100
AcDbEntity
  8
DEFPOINTS
 62
     0
100
AcDbPoint
 10
1794.849774491407
 20
2064.410718096711
 30
0.0
  0
POINT
  5
5AF
330
5A6
100
AcDbEntity
  8
DEFPOINTS
 62
     0
100
AcDbPoint
 10
2066.374135283998
 20
2064.410718096711
 30
0.0
  0
ENDBLK
  5
5B1
330
5A6
100
AcDbEntity
  8
0
100
AcDbBlockEnd
  0
BLOCK
  5
5BC
330
5B2
100
AcDbEntity
  8
0
100
AcDbBlockBegin
  2
*D12
 70
     1
 10
0.0
 20
0.0
 30
0.0
  3
*D12
  1

  0
LINE
  5
5B3
330
5B2
100
AcDbEntity
  8
AM_5
 62
     3
370
    -2
100
AcDbLine
 10
1380.912490490275
 20
1904.4160148273
 30
0.0
 11
1380.912490490275
 21
1714.416014827302
 31
0.0
  0
LINE
  5
5B4
330
5B2
100
AcDbEntity
  8
AM_5
 62
     3
370
    -2
100
AcDbLine
 10
1860.912490490276
 20
1834.4160148273
 30
0.0
 11
1860.912490490276
 21
1714.416014827302
 31
0.0
  0
LINE
  5
5B5
330
5B2
100
AcDbEntity
  8
AM_5
 62
     3
370
    -2
100
AcDbLine
 10
1405.912490490275
 20
1724.416014827302
 30
0.0
 11
1835.912490490276
 21
1724.416014827302
 31
0.0
  0
SOLID
  5
5B6
330
5B2
100
AcDbEntity
  8
AM_5
 62
     3
100
AcDbTrace
 10
1405.912490490275
 20
1728.582681493969
 30
0.0
 11
1405.912490490275
 21
1720.249348160635
 31
0.0
 12
1380.912490490275
 22
1724.416014827302
 32
0.0
 13
1380.912490490275
 23
1724.416014827302
 33
0.0
  0
SOLID
  5
5B7
330
5B2
100
AcDbEntity
  8
AM_5
 62
     3
100
AcDbTrace
 10
1835.912490490276
 20
1728.582681493969
 30
0.0
 11
1835.912490490276
 21
1720.249348160635
 31
0.0
 12
1860.912490490276
 22
1724.416014827302
 32
0.0
 13
1860.912490490276
 23
1724.416014827302
 33
0.0
  0
MTEXT
  5
5B8
330
5B2
100
AcDbEntity
  8
AM_5
 62
     2
100
AcDbMText
 10
1620.912490490275
 20
1747.916014827302
 30
0.0
 40
35.0
 41
0.0
 71
     5
 72
     1
  1
480
 73
     1
 44
1.0
1001
ACAD
1000
MTEXTBEGIN
1070
    73
1070
     1
1070
    44
1040
1.0
1070
    74
1070
     0
1000
MTEXTEND
  0
POINT
  5
5B9
330
5B2
100
AcDbEntity
  8
DEFPOINTS
 62
     0
100
AcDbPoint
 10
1380.912490490275
 20
1914.4160148273
 30
0.0
  0
POINT
  5
5BA
330
5B2
100
AcDbEntity
  8
DEFPOINTS
 62
     0
100
AcDbPoint
 10
1860.912490490276
 20
1844.4160148273
 30
0.0
  0
POINT
  5
5BB
330
5B2
100
AcDbEntity
  8
DEFPOINTS
 62
     0
100
AcDbPoint
 10
1860.912490490276
 20
1724.416014827302
 30
0.0
  0
ENDBLK
  5
5BD
330
5B2
100
AcDbEntity
  8
0
100
AcDbBlockEnd
  0
BLOCK
  5
5C8
330
5BE
100
AcDbEntity
  8
0
100
AcDbBlockBegin
  2
*D13
 70
     1
 10
0.0
 20
0.0
 30
0.0
  3
*D13
  1

  0
LINE
  5
5BF
330
5BE
100
AcDbEntity
  8
AM_5
 62
     3
370
    -2
100
AcDbLine
 10
1429.849774491417
 20
2064.410718096724
 30
0.0
 11
1429.849774491417
 21
2159.059689803095
 31
0.0
  0
LINE
  5
5C0
330
5BE
100
AcDbEntity
  8
AM_5
 62
     3
370
    -2
100
AcDbLine
 10
1813.84977449141
 20
2064.410718096711
 30
0.0
 11
1813.84977449141
 21
2159.059689803095
 31
0.0
  0
LINE
  5
5C1
330
5BE
100
AcDbEntity
  8
AM_5
 62
     3
370
    -2
100
AcDbLine
 10
1454.849774491417
 20
2149.059689803094
 30
0.0
 11
1788.84977449141
 21
2149.059689803094
 31
0.0
  0
SOLID
  5
5C2
330
5BE
100
AcDbEntity
  8
AM_5
 62
     3
100
AcDbTrace
 10
1454.849774491417
 20
2153.226356469761
 30
0.0
 11
1454.849774491417
 21
2144.893023136428
 31
0.0
 12
1429.849774491417
 22
2149.059689803094
 32
0.0
 13
1429.849774491417
 23
2149.059689803094
 33
0.0
  0
SOLID
  5
5C3
330
5BE
100
AcDbEntity
  8
AM_5
 62
     3
100
AcDbTrace
 10
1788.84977449141
 20
2153.226356469761
 30
0.0
 11
1788.84977449141
 21
2144.893023136428
 31
0.0
 12
1813.84977449141
 22
2149.059689803094
 32
0.0
 13
1813.84977449141
 23
2149.059689803094
 33
0.0
  0
MTEXT
  5
5C4
330
5BE
100
AcDbEntity
  8
AM_5
 62
     2
100
AcDbMText
 10
1621.849774491414
 20
2172.559689803094
 30
0.0
 40
35.0
 41
0.0
 71
     5
 72
     1
  1
%%c384
 73
     1
 44
1.0
1001
ACAD
1000
MTEXTBEGIN
1070
    73
1070
     1
1070
    44
1040
1.0
1070
    74
1070
     0
1000
MTEXTEND
  0
POINT
  5
5C5
330
5BE
100
AcDbEntity
  8
DEFPOINTS
 62
     0
100
AcDbPoint
 10
1429.849774491417
 20
2054.410718096724
 30
0.0
  0
POINT
  5
5C6
330
5BE
100
AcDbEntity
  8
DEFPOINTS
 62
     0
100
AcDbPoint
 10
1813.84977449141
 20
2054.410718096711
 30
0.0
  0
POINT
  5
5C7
330
5BE
100
AcDbEntity
  8
DEFPOINTS
 62
     0
100
AcDbPoint
 10
1813.84977449141
 20
2149.059689803094
 30
0.0
  0
ENDBLK
  5
5C9
330
5BE
100
AcDbEntity
  8
0
100
AcDbBlockEnd
  0
ENDSEC
  0
SECTION
  2
ENTITIES
  0
LINE
  5
47B
330
1F
100
AcDbEntity
  8
AM_3
100
AcDbLine
 10
1621.440613335538
 20
1852.163342937042
 30
0.0
 11
1446.537018622349
 21
1859.90687991715
 31
0.0
  0
LINE
  5
47C
330
1F
100
AcDbEntity
  8
AM_3
100
AcDbLine
 10
1621.437784048209
 20
1850.161509044355
 30
0.0
 11
1446.448558930891
 21
1857.908837154096
 31
0.0
  0
LINE
  5
47D
330
1F
100
AcDbEntity
  8
AM_3
100
AcDbLine
 10
1796.427009165532
 20
1842.414180934614
 30
0.0
 11
1621.437784048209
 21
1850.161509044355
 31
0.0
  0
LINE
  5
47E
330
1F
100
AcDbEntity
  8
AM_3
100
AcDbLine
 10
1796.42983845286
 20
1844.416014827301
 30
0.0
 11
1621.440613335538
 21
1852.163342937042
 31
0.0
  0
LINE
  5
47F
330
1F
100
AcDbEntity
  8
0
100
AcDbLine
 10
1432.849774491417
 20
2044.410718096711
 30
0.0
 11
1794.849774491407
 21
2044.410718096711
 31
0.0
1001
ACAD
1000
ASC_BOUNDS
1002
{
1070
    19
1005
0
1005
0
1005
0
1005
0
1002
}
  0
LINE
  5
480
330
1F
100
AcDbEntity
  8
0
100
AcDbLine
 10
1461.16659937345
 20
2054.410718096701
 30
0.0
 11
1429.849774491421
 21
2054.410718096699
 31
0.0
  0
LINE
  5
481
330
1F
100
AcDbEntity
  8
0
100
AcDbLine
 10
1448.841188799067
 20
2064.410718096711
 30
0.0
 11
1621.849774491414
 21
2064.410718096714
 31
0.0
1001
ACAD
1000
ASC_BOUNDS
1002
{
1070
    19
1005
0
1005
0
1005
0
1002
}
  0
LINE
  5
482
330
1F
100
AcDbEntity
  8
0
100
AcDbLine
 10
1429.849774491417
 20
2054.410718096711
 30
0.0
 11
1804.84977449141
 21
2054.410718096711
 31
0.0
  0
LINE
  5
483
330
1F
100
AcDbEntity
  8
0
100
AcDbLine
 10
1429.849774491417
 20
2054.410718096711
 30
0.0
 11
1804.849774491406
 21
2054.410718096711
 31
0.0
  0
LINE
  5
484
330
1F
100
AcDbEntity
  8
0
100
AcDbLine
 10
1461.16659937345
 20
2054.410718096722
 30
0.0
 11
1429.849774491421
 21
2054.410718096724
 31
0.0
1001
ACAD
1000
ASC_BOUNDS
1002
{
1070
    19
1002
}
  0
LINE
  5
485
330
1F
100
AcDbEntity
  8
0
100
AcDbLine
 10
1448.629302050464
 20
2044.410718096722
 30
0.0
 11
1445.480029403575
 21
2024.416014827302
 31
0.0
1001
ACAD
1000
ASC_BOUNDS
1002
{
1070
    19
1002
}
  0
ARC
  5
486
330
1F
100
AcDbEntity
  8
0
100
AcDbCircle
 10
1432.849774491417
 20
2047.410718096722
 30
0.0
 40
3.0
100
AcDbArc
 50
180.0
 51
270.0
1001
ACAD
1000
ASC_BOUNDS
1002
{
1070
    19
1002
}
  0
LINE
  5
487
102
{ACAD_REACTORS
330
532
102
}
330
1F
100
AcDbEntity
  8
0
100
AcDbLine
 10
1429.849774491417
 20
2054.410718096724
 30
0.0
 11
1429.849774491417
 21
2047.410718096724
 31
0.0
1001
ACAD
1000
ASC_BOUNDS
1002
{
1070
    19
1002
}
  0
LINE
  5
488
330
1F
100
AcDbEntity
  8
0
100
AcDbLine
 10
1443.849774491417
 20
2054.410718096722
 30
0.0
 11
1439.349774491417
 21
2054.410718096722
 31
0.0
  0
ARC
  5
489
330
1F
100
AcDbEntity
  8
0
100
AcDbCircle
 10
1432.849774491417
 20
2061.4107180967
 30
0.0
 40
3.0
100
AcDbArc
 50
90.0
 51
180.0
  0
LINE
  5
48A
330
1F
100
AcDbEntity
  8
0
100
AcDbLine
 10
1429.849774491421
 20
2054.410718096699
 30
0.0
 11
1429.849774491417
 21
2061.410718096698
 31
0.0
  0
LINE
  5
48B
330
1F
100
AcDbEntity
  8
0
100
AcDbLine
 10
1443.849774491417
 20
2054.410718096701
 30
0.0
 11
1439.349774491417
 21
2054.410718096701
 31
0.0
  0
LINE
  5
48C
330
1F
100
AcDbEntity
  8
0
100
AcDbLine
 10
1448.849774491417
 20
2064.4107180967
 30
0.0
 11
1432.849774491417
 21
2064.4107180967
 31
0.0
  0
LINE
  5
48D
330
1F
100
AcDbEntity
  8
0
  6
Continuous
 62
     7
100
AcDbLine
 10
1832.078766872496
 20
2061.19395138706
 30
0.0
 11
1803.819950955677
 21
1980.428337939982
 31
0.0
  0
LINE
  5
48E
330
1F
100
AcDbEntity
  8
0
  6
Continuous
 62
     7
100
AcDbLine
 10
1834.06782483442
 20
2060.985029334355
 30
0.0
 11
1823.83064425187
 21
1963.521189200075
 31
0.0
  0
LINE
  5
48F
330
1F
100
AcDbEntity
  8
0
  6
Continuous
 62
     7
100
AcDbLine
 10
1832.078766872496
 20
2061.19395138706
 30
0.0
 11
1821.673599813945
 21
1962.130783497488
 31
0.0
  0
LINE
  5
490
330
1F
100
AcDbEntity
  8
0
  6
Continuous
 62
     7
100
AcDbLine
 10
1807.982232066512
 20
1992.324419794415
 30
0.0
 11
1809.21037296893
 21
2004.017026719752
 31
0.0
  0
LINE
  5
491
330
1F
100
AcDbEntity
  8
0
  6
Continuous
 62
     7
100
AcDbLine
 10
1823.83064425187
 20
1963.521189200075
 30
0.0
 11
1820.84977449141
 21
1961.599755296933
 31
0.0
  0
CIRCLE
  5
492
330
1F
100
AcDbEntity
  8
0
  6
Continuous
 62
     7
100
AcDbCircle
 10
1815.679876829629
 20
1973.70415676628
 30
0.0
 40
2.869338511451267
  0
LINE
  5
493
330
1F
100
AcDbEntity
  8
0
  6
Continuous
 62
     7
100
AcDbLine
 10
1820.84977449141
 20
1980.428337939982
 30
0.0
 11
1820.84977449141
 21
1961.029631635972
 31
0.0
  0
LINE
  5
494
330
1F
100
AcDbEntity
  8
0
  6
Continuous
 62
     7
100
AcDbLine
 10
1798.84977449141
 20
1980.428337939982
 30
0.0
 11
1798.84977449141
 21
2022.428337939982
 31
0.0
  0
LINE
  5
495
330
1F
100
AcDbEntity
  8
0
  6
Continuous
 62
     7
100
AcDbLine
 10
1820.84977449141
 20
1961.029631635972
 30
0.0
 11
1798.84977449141
 21
1961.029631635972
 31
0.0
  0
LINE
  5
496
330
1F
100
AcDbEntity
  8
0
  6
Continuous
 62
     7
100
AcDbLine
 10
1820.84977449141
 20
1980.428337939982
 30
0.0
 11
1798.84977449141
 21
1980.428337939982
 31
0.0
  0
LINE
  5
497
330
1F
100
AcDbEntity
  8
0
  6
Continuous
 62
     7
100
AcDbLine
 10
1813.35222514964
 20
2007.672224417305
 30
0.0
 11
1816.635101037599
 21
2038.927088795665
 31
0.0
  0
LINE
  5
498
330
1F
100
AcDbEntity
  8
0
  6
Continuous
 62
     7
100
AcDbLine
 10
1822.10501043289
 20
2038.352553150726
 30
0.0
 11
1821.254838750865
 21
2030.25843033679
 31
0.0
  0
ARC
  5
499
330
1F
100
AcDbEntity
  8
0
  6
Continuous
 62
     7
100
AcDbCircle
 10
1814.327573863485
 20
2060.036371635211
 30
0.0
 40
5.5
100
AcDbArc
 50
354.0038851199492
 51
127.3688441849558
  0
ARC
  5
49A
330
1F
100
AcDbEntity
  8
0
  6
Continuous
 62
     7
100
AcDbCircle
 10
1814.327573863485
 20
2060.036371635211
 30
0.0
 40
6.5
100
AcDbArc
 50
354.0038851199492
 51
137.7027991340161
  0
LINE
  5
49B
330
1F
100
AcDbEntity
  8
0
  6
Continuous
 62
     7
100
AcDbLine
 10
1816.635101037599
 20
2038.927088795665
 30
0.0
 11
1817.13236552808
 21
2038.874858282488
 31
0.0
  0
ARC
  5
49C
330
1F
100
AcDbEntity
  8
0
  6
Continuous
 62
     7
100
AcDbCircle
 10
1817.289057067607
 20
2040.366651753933
 30
0.0
 40
1.5
100
AcDbArc
 50
264.0038851199492
 51
354.0038851199492
  0
ARC
  5
49D
330
1F
100
AcDbEntity
  8
0
  6
Continuous
 62
     7
100
AcDbCircle
 10
1822.261701972417
 20
2039.844346622169
 30
0.0
 40
1.5
100
AcDbArc
 50
174.0038851199491
 51
264.0038851199492
  0
LINE
  5
49E
330
1F
100
AcDbEntity
  8
0
  6
Continuous
 62
     7
100
AcDbLine
 10
1817.786321558088
 20
2040.314421240755
 30
0.0
 11
1818.78085053905
 21
2040.209960214403
 31
0.0
  0
LINE
  5
49F
330
1F
100
AcDbEntity
  8
0
  6
Continuous
 62
     7
100
AcDbLine
 10
1822.702437488498
 20
2058.399824309496
 30
0.0
 11
1821.707908507536
 21
2058.504285335848
 31
0.0
  0
LINE
  5
4A0
330
1F
100
AcDbEntity
  8
0
  6
Continuous
 62
     7
100
AcDbLine
 10
1820.713379526574
 20
2058.608746362201
 30
0.0
 11
1821.707908507536
 21
2058.504285335848
 31
0.0
  0
LINE
  5
4A1
330
1F
100
AcDbEntity
  8
0
  6
Continuous
 62
     7
100
AcDbLine
 10
1820.769908500975
 20
2040.001038161697
 30
0.0
 11
1822.702437488498
 21
2058.399824309496
 31
0.0
  0
LINE
  5
4A2
330
1F
100
AcDbEntity
  8
0
  6
Continuous
 62
     7
100
AcDbLine
 10
1818.78085053905
 20
2040.209960214403
 30
0.0
 11
1820.792012239738
 21
2059.35737496392
 31
0.0
  0
LINE
  5
4A3
330
1F
100
AcDbEntity
  8
0
  6
Continuous
 62
     7
100
AcDbLine
 10
1817.786321558088
 20
2040.314421240755
 30
0.0
 11
1819.797483258776
 21
2059.461835990273
 31
0.0
  0
LINE
  5
4A4
330
1F
100
AcDbEntity
  8
0
100
AcDbLine
 10
1834.06782483442
 20
2060.985029334355
 30
0.0
 11
1832.078766872496
 21
2061.19395138706
 31
0.0
  0
LINE
  5
4A5
330
1F
100
AcDbEntity
  8
0
  6
Continuous
 62
     7
100
AcDbLine
 10
1809.21037296893
 20
2004.017026719752
 30
0.0
 11
1811.971834656092
 21
2003.726974717652
 31
0.0
  0
LINE
  5
4A6
330
1F
100
AcDbEntity
  8
0
100
AcDbLine
 10
1782.532949609377
 20
2054.410718096711
 30
0.0
 11
1813.849774491406
 21
2054.410718096711
 31
0.0
1001
ACAD
1000
ASC_BOUNDS
1002
{
1070
    19
1002
}
  0
LINE
  5
4A7
330
1F
100
AcDbEntity
  8
4
100
AcDbLine
 10
1479.309588274526
 20
2030.264577448532
 30
0.0
 11
1764.39128155062
 21
2030.261052985558
 31
0.0
  0
LINE
  5
4A8
330
1F
100
AcDbEntity
  8
0
100
AcDbLine
 10
1795.070246932356
 20
2044.410718096711
 30
0.0
 11
1798.843411926614
 21
2022.428337939982
 31
0.0
1001
ACAD
1000
ASC_BOUNDS
1002
{
1070
    19
1002
}
  0
LINE
  5
4A9
330
1F
100
AcDbEntity
  8
0
100
AcDbLine
 10
1794.849774491407
 20
2044.410718096711
 30
0.0
 11
1810.849774491407
 21
2044.410718096711
 31
0.0
1001
ACAD
1000
ASC_BOUNDS
1002
{
1070
    19
1005
0
1002
}
  0
LINE
  5
4AA
330
1F
100
AcDbEntity
  8
0
100
AcDbLine
 10
1799.84977449141
 20
2054.410718096711
 30
0.0
 11
1804.34977449141
 21
2054.410718096711
 31
0.0
  0
LINE
  5
4AB
330
1F
100
AcDbEntity
  8
0
100
AcDbLine
 10
1813.849774491406
 20
2054.410718096711
 30
0.0
 11
1813.849774491406
 21
2047.410718096712
 31
0.0
1001
ACAD
1000
ASC_BOUNDS
1002
{
1070
    19
1002
}
  0
ARC
  5
4AC
330
1F
100
AcDbEntity
  8
0
100
AcDbCircle
 10
1810.849774491407
 20
2047.410718096712
 30
0.0
 40
3.0
100
AcDbArc
 50
270.0
 51
0.0
1001
ACAD
1000
ASC_BOUNDS
1002
{
1070
    19
1002
}
  0
LINE
  5
4AD
330
1F
100
AcDbEntity
  8
0
100
AcDbLine
 10
1782.532949609377
 20
2054.410718096711
 30
0.0
 11
1813.849774491406
 21
2054.410718096711
 31
0.0
  0
LINE
  5
4AE
330
1F
100
AcDbEntity
  8
0
100
AcDbLine
 10
1621.863907968419
 20
2064.410718096712
 30
0.0
 11
1794.849774491407
 21
2064.410718096711
 31
0.0
1001
ACAD
1000
ASC_BOUNDS
1002
{
1070
    19
1005
0
1005
0
1005
0
1002
}
  0
ARC
  5
4AF
330
1F
100
AcDbEntity
  8
0
100
AcDbCircle
 10
1621.849774491417
 20
2084.910718096711
 30
0.0
 40
24.99999999999955
100
AcDbArc
 50
304.9152062475841
 51
235.0847937524159
  0
LINE
  5
4B0
330
1F
100
AcDbEntity
  8
0
100
AcDbLine
 10
1813.84977449141
 20
2054.410718096711
 30
0.0
 11
1813.84977449141
 21
2061.410718096711
 31
0.0
  0
ARC
  5
4B1
330
1F
100
AcDbEntity
  8
0
100
AcDbCircle
 10
1810.84977449141
 20
2061.410718096711
 30
0.0
 40
3.0
100
AcDbArc
 50
0.0
 51
90.0
  0
LINE
  5
4B2
330
1F
100
AcDbEntity
  8
0
100
AcDbLine
 10
1799.84977449141
 20
2054.410718096711
 30
0.0
 11
1804.34977449141
 21
2054.410718096711
 31
0.0
  0
LINE
  5
4B3
330
1F
100
AcDbEntity
  8
0
100
AcDbLine
 10
1794.84977449141
 20
2064.410718096711
 30
0.0
 11
1810.84977449141
 21
2064.410718096711
 31
0.0
  0
ARC
  5
4B4
330
1F
100
AcDbEntity
  8
0
100
AcDbCircle
 10
1620.912490490275
 20
1294.3596461341
 30
0.0
 40
186.5
100
AcDbArc
 50
47.99265495467833
 51
131.8453874366564
  0
ARC
  5
4B5
330
1F
100
AcDbEntity
  8
0
100
AcDbCircle
 10
1620.912490490275
 20
1294.3596461341
 30
0.0
 40
186.5
100
AcDbArc
 50
227.9926549546783
 51
311.8453874366565
  0
POLYLINE
  5
4B6
330
1F
100
AcDbEntity
  8
0
100
AcDb2dPolyline
 66
     1
 10
0.0
 20
0.0
 30
0.0
  0
VERTEX
  5
4B7
330
4B6
100
AcDbEntity
  8
0
100
AcDbVertex
100
AcDb2dVertex
 10
1750.180713332015
 20
1450.801253653766
 30
0.0
  0
VERTEX
  5
4B8
330
4B6
100
AcDbEntity
  8
0
100
AcDbVertex
100
AcDb2dVertex
 10
1738.481225989701
 20
1439.134790523823
 30
0.0
  0
SEQEND
  5
4B9
330
4B6
100
AcDbEntity
  8
0
  0
POLYLINE
  5
4BA
330
1F
100
AcDbEntity
  8
0
100
AcDb2dPolyline
 66
     1
 10
0.0
 20
0.0
 30
0.0
  0
VERTEX
  5
4BB
330
4BA
100
AcDbEntity
  8
0
100
AcDbVertex
100
AcDb2dVertex
 10
1766.019386829558
 20
1411.518677517859
 30
0.0
  0
VERTEX
  5
4BC
330
4BA
100
AcDbEntity
  8
0
100
AcDbVertex
100
AcDb2dVertex
 10
1777.718874171872
 20
1423.185140647802
 30
0.0
  0
VERTEX
  5
4BD
330
4BA
100
AcDbEntity
  8
0
100
AcDbVertex
100
AcDb2dVertex
 10
1750.180713332015
 20
1450.801253653766
 30
0.0
  0
SEQEND
  5
4BE
330
4BA
100
AcDbEntity
  8
0
  0
ARC
  5
4BF
330
1F
100
AcDbEntity
  8
0
100
AcDbCircle
 10
1620.912490490275
 20
1294.3596461341
 30
0.0
 40
186.5
100
AcDbArc
 50
317.9926549546047
 51
41.84538743680362
  0
POLYLINE
  5
4C0
330
1F
100
AcDbEntity
  8
0
100
AcDb2dPolyline
 66
     1
 10
0.0
 20
0.0
 30
0.0
 70
     1
  0
VERTEX
  5
4C1
330
4C0
100
AcDbEntity
  8
0
100
AcDbVertex
100
AcDb2dVertex
 10
1739.186090327644
 20
1426.421584562662
 30
0.0
  0
VERTEX
  5
4C2
330
4C0
100
AcDbEntity
  8
0
100
AcDbVertex
100
AcDb2dVertex
 10
1748.391461329634
 20
1435.60097150928
 30
0.0
  0
VERTEX
  5
4C3
330
4C0
100
AcDbEntity
  8
0
100
AcDbVertex
100
AcDb2dVertex
 10
1762.513595093657
 20
1421.438862275452
 30
0.0
  0
VERTEX
  5
4C4
330
4C0
100
AcDbEntity
  8
0
100
AcDbVertex
100
AcDb2dVertex
 10
1753.308224091671
 20
1412.259475328834
 30
0.0
  0
SEQEND
  5
4C5
330
4C0
100
AcDbEntity
  8
0
  0
POLYLINE
  5
4C6
330
1F
100
AcDbEntity
  8
0
100
AcDb2dPolyline
 66
     1
 10
0.0
 20
0.0
 30
0.0
 70
     1
  0
VERTEX
  5
4C7
330
4C6
100
AcDbEntity
  8
0
100
AcDbVertex
100
AcDb2dVertex
 10
1488.850552061712
 20
1412.63324597147
 30
0.0
  0
VERTEX
  5
4C8
330
4C6
100
AcDbEntity
  8
0
100
AcDbVertex
100
AcDb2dVertex
 10
1479.671165115095
 20
1421.838616973458
 30
0.0
  0
VERTEX
  5
4C9
330
4C6
100
AcDbEntity
  8
0
100
AcDbVertex
100
AcDb2dVertex
 10
1493.833274348923
 20
1435.960750737482
 30
0.0
  0
VERTEX
  5
4CA
330
4C6
100
AcDbEntity
  8
0
100
AcDbVertex
100
AcDb2dVertex
 10
1503.01266129554
 20
1426.755379735497
 30
0.0
  0
SEQEND
  5
4CB
330
4C6
100
AcDbEntity
  8
0
  0
POLYLINE
  5
4CC
330
1F
100
AcDbEntity
  8
0
100
AcDb2dPolyline
 66
     1
 10
0.0
 20
0.0
 30
0.0
  0
VERTEX
  5
4CD
330
4CC
100
AcDbEntity
  8
0
100
AcDbVertex
100
AcDb2dVertex
 10
1503.753459106517
 20
1439.466542473383
 30
0.0
  0
VERTEX
  5
4CE
330
4CC
100
AcDbEntity
  8
0
100
AcDbVertex
100
AcDb2dVertex
 10
1492.086995976574
 20
1451.166029815697
 30
0.0
  0
VERTEX
  5
4CF
330
4CC
100
AcDbEntity
  8
0
100
AcDbVertex
100
AcDb2dVertex
 10
1464.470882970608
 20
1423.627868975842
 30
0.0
  0
SEQEND
  5
4D0
330
4CC
100
AcDbEntity
  8
0
  0
POLYLINE
  5
4D1
330
1F
100
AcDbEntity
  8
0
100
AcDb2dPolyline
 66
     1
 10
0.0
 20
0.0
 30
0.0
  0
VERTEX
  5
4D2
330
4D1
100
AcDbEntity
  8
0
100
AcDbVertex
100
AcDb2dVertex
 10
1464.470882970608
 20
1423.627868975842
 30
0.0
  0
VERTEX
  5
4D3
330
4D1
100
AcDbEntity
  8
0
100
AcDbVertex
100
AcDb2dVertex
 10
1476.13734610055
 20
1411.928381633528
 30
0.0
  0
SEQEND
  5
4D4
330
4D1
100
AcDbEntity
  8
0
  0
POLYLINE
  5
4D5
330
1F
100
AcDbEntity
  8
0
100
AcDb2dPolyline
 66
     1
 10
0.0
 20
0.0
 30
0.0
 70
     1
  0
VERTEX
  5
4D6
330
4D5
100
AcDbEntity
  8
0
100
AcDbVertex
100
AcDb2dVertex
 10
1502.638890652904
 20
1162.297707705538
 30
0.0
  0
VERTEX
  5
4D7
330
4D5
100
AcDbEntity
  8
0
100
AcDbVertex
100
AcDb2dVertex
 10
1493.433519650917
 20
1153.11832075892
 30
0.0
  0
VERTEX
  5
4D8
330
4D5
100
AcDbEntity
  8
0
100
AcDbVertex
100
AcDb2dVertex
 10
1479.311385886894
 20
1167.280429992748
 30
0.0
  0
VERTEX
  5
4D9
330
4D5
100
AcDbEntity
  8
0
100
AcDbVertex
100
AcDb2dVertex
 10
1488.516756888876
 20
1176.459816939366
 30
0.0
  0
SEQEND
  5
4DA
330
4D5
100
AcDbEntity
  8
0
  0
POLYLINE
  5
4DB
330
1F
100
AcDbEntity
  8
0
100
AcDb2dPolyline
 66
     1
 10
0.0
 20
0.0
 30
0.0
  0
VERTEX
  5
4DC
330
4DB
100
AcDbEntity
  8
0
100
AcDbVertex
100
AcDb2dVertex
 10
1475.805594150993
 20
1177.200614750341
 30
0.0
  0
VERTEX
  5
4DD
330
4DB
100
AcDbEntity
  8
0
100
AcDbVertex
100
AcDb2dVertex
 10
1464.106106808679
 20
1165.534151620399
 30
0.0
  0
VERTEX
  5
4DE
330
4DB
100
AcDbEntity
  8
0
100
AcDbVertex
100
AcDb2dVertex
 10
1491.644267648532
 20
1137.918038614434
 30
0.0
  0
SEQEND
  5
4DF
330
4DB
100
AcDbEntity
  8
0
  0
POLYLINE
  5
4E0
330
1F
100
AcDbEntity
  8
0
100
AcDb2dPolyline
 66
     1
 10
0.0
 20
0.0
 30
0.0
  0
VERTEX
  5
4E1
330
4E0
100
AcDbEntity
  8
0
100
AcDbVertex
100
AcDb2dVertex
 10
1491.644267648532
 20
1137.918038614434
 30
0.0
  0
VERTEX
  5
4E2
330
4E0
100
AcDbEntity
  8
0
100
AcDbVertex
100
AcDb2dVertex
 10
1503.343754990846
 20
1149.584501744377
 30
0.0
  0
SEQEND
  5
4E3
330
4E0
100
AcDbEntity
  8
0
  0
POLYLINE
  5
4E4
330
1F
100
AcDbEntity
  8
0
100
AcDb2dPolyline
 66
     1
 10
0.0
 20
0.0
 30
0.0
  0
VERTEX
  5
4E5
330
4E4
100
AcDbEntity
  8
0
100
AcDbVertex
100
AcDb2dVertex
 10
1738.071521874034
 20
1149.252749794817
 30
0.0
  0
VERTEX
  5
4E6
330
4E4
100
AcDbEntity
  8
0
100
AcDbVertex
100
AcDb2dVertex
 10
1749.737985003977
 20
1137.553262452504
 30
0.0
  0
VERTEX
  5
4E7
330
4E4
100
AcDbEntity
  8
0
100
AcDbVertex
100
AcDb2dVertex
 10
1777.35409800994
 20
1165.091423292359
 30
0.0
  0
SEQEND
  5
4E8
330
4E4
100
AcDbEntity
  8
0
  0
POLYLINE
  5
4E9
330
1F
100
AcDbEntity
  8
0
100
AcDb2dPolyline
 66
     1
 10
0.0
 20
0.0
 30
0.0
  0
VERTEX
  5
4EA
330
4E9
100
AcDbEntity
  8
0
100
AcDbVertex
100
AcDb2dVertex
 10
1777.35409800994
 20
1165.091423292359
 30
0.0
  0
VERTEX
  5
4EB
330
4E9
100
AcDbEntity
  8
0
100
AcDbVertex
100
AcDb2dVertex
 10
1765.687634879997
 20
1176.790910634672
 30
0.0
  0
SEQEND
  5
4EC
330
4E9
100
AcDbEntity
  8
0
  0
POLYLINE
  5
4ED
330
1F
100
AcDbEntity
  8
0
100
AcDb2dPolyline
 66
     1
 10
0.0
 20
0.0
 30
0.0
  0
VERTEX
  5
4EE
330
4ED
100
AcDbEntity
  8
0
100
AcDbVertex
100
AcDb2dVertex
 10
1752.974428918836
 20
1176.08604629673
 30
0.0
  0
VERTEX
  5
4EF
330
4ED
100
AcDbEntity
  8
0
100
AcDbVertex
100
AcDb2dVertex
 10
1762.153815865456
 20
1166.880675294738
 30
0.0
  0
SEQEND
  5
4F0
330
4ED
100
AcDbEntity
  8
0
  0
POLYLINE
  5
4F1
330
1F
100
AcDbEntity
  8
0
100
AcDb2dPolyline
 66
     1
 10
0.0
 20
0.0
 30
0.0
  0
VERTEX
  5
4F2
330
4F1
100
AcDbEntity
  8
0
100
AcDbVertex
100
AcDb2dVertex
 10
1747.991706631627
 20
1152.758541530718
 30
0.0
  0
VERTEX
  5
4F3
330
4F1
100
AcDbEntity
  8
0
100
AcDbVertex
100
AcDb2dVertex
 10
1738.812319685007
 20
1161.963912532703
 30
0.0
  0
VERTEX
  5
4F4
330
4F1
100
AcDbEntity
  8
0
100
AcDbVertex
100
AcDb2dVertex
 10
1752.974428918836
 20
1176.08604629673
 30
0.0
  0
SEQEND
  5
4F5
330
4F1
100
AcDbEntity
  8
0
  0
ARC
  5
4F6
330
1F
100
AcDbEntity
  8
0
100
AcDbCircle
 10
1620.912490490275
 20
1294.3596461341
 30
0.0
 40
186.5
100
AcDbArc
 50
137.9926549546047
 51
221.8453874368036
  0
LINE
  5
4F7
330
1F
100
AcDbEntity
  8
0
100
AcDbLine
 10
1747.991706631627
 20
1152.758541530711
 30
0.0
 11
1762.153815865456
 21
1166.880675294738
 31
0.0
  0
LINE
  5
4F8
330
1F
100
AcDbEntity
  8
0
100
AcDbLine
 10
1444.863907968419
 20
1824.410718096712
 30
0.0
 11
1798.863907968419
 21
1824.410718096712
 31
0.0
  0
LINE
  5
4F9
102
{ACAD_REACTORS
330
50D
330
510
102
}
330
1F
100
AcDbEntity
  8
0
100
AcDbLine
 10
1798.863907968419
 20
1824.410718096712
 30
0.0
 11
1798.862200231307
 21
1844.416014827301
 31
0.0
  0
LINE
  5
4FA
330
1F
100
AcDbEntity
  8
0
100
AcDbLine
 10
1798.848541951619
 20
1954.416014827301
 30
0.0
 11
1798.84341192661
 21
1984.5117238129
 31
0.0
  0
LINE
  5
4FB
102
{ACAD_REACTORS
330
50A
102
}
330
1F
100
AcDbEntity
  8
0
100
AcDbLine
 10
1444.863907968419
 20
1824.410718096712
 30
0.0
 11
1444.863907968419
 21
1914.416014827302
 31
0.0
  0
CIRCLE
  5
4FC
330
1F
100
AcDbEntity
  8
0
100
AcDbCircle
 10
1620.912490490275
 20
1294.3596461341
 30
0.0
 40
25.0
  0
LINE
  5
4FD
330
1F
100
AcDbEntity
  8
0
100
AcDbLine
 10
1860.912490490276
 20
1954.416014827301
 30
0.0
 11
1860.912490490276
 21
1844.416014827301
 31
0.0
  0
LINE
  5
4FE
330
1F
100
AcDbEntity
  8
0
100
AcDbLine
 10
1860.912490490276
 20
1954.416014827301
 30
0.0
 11
1798.848541951619
 21
1954.416014827301
 31
0.0
  0
LINE
  5
4FF
102
{ACAD_REACTORS
330
52B
102
}
330
1F
100
AcDbEntity
  8
0
100
AcDbLine
 10
1860.912490490276
 20
1844.4160148273
 30
0.0
 11
1798.862200231307
 21
1844.416014827301
 31
0.0
  0
LINE
  5
500
330
1F
100
AcDbEntity
  8
0
100
AcDbLine
 10
1380.912490490275
 20
2024.416014827302
 30
0.0
 11
1380.912490490275
 21
1914.416014827301
 31
0.0
  0
LINE
  5
501
330
1F
100
AcDbEntity
  8
0
100
AcDbLine
 10
1380.912490490275
 20
2024.416014827302
 30
0.0
 11
1445.480029403575
 21
2024.416014827302
 31
0.0
  0
LINE
  5
502
102
{ACAD_REACTORS
330
52B
102
}
330
1F
100
AcDbEntity
  8
0
100
AcDbLine
 10
1380.912490490275
 20
1914.4160148273
 30
0.0
 11
1444.863907968419
 21
1914.4160148273
 31
0.0
  0
LINE
  5
503
102
{ACAD_REACTORS
330
50A
102
}
330
1F
100
AcDbEntity
  8
AM_7
  6
AM_DIN_G_W050x2
100
AcDbLine
 10
1320.912490490276
 20
1969.416014827301
 30
0.0
 11
1504.863907968419
 21
1969.416014827301
 31
0.0
1001
GENIUS_GENODEF_13
1002
{
1000
HIER
1070
     0
1002
}
1002
{
1000
MANEDIT
1070
     0
1002
}
1002
{
1000
NOSEL
1070
     0
1002
}
1002
{
1000
BEHIND
1070
     0
1002
}
1002
{
1000
OTHER
1070
     0
1002
}
1002
{
1000
REACTOR
1002
}
1001
GENIUS_GENOBJ-N-CEN_13
1002
{
1000
OWNER
1000
GEN
1002
}
1001
GENIUS_GENCEN_19
1002
{
1040
60.0
1002
}
  0
LINE
  5
504
102
{ACAD_REACTORS
330
50D
102
}
330
1F
100
AcDbEntity
  8
AM_7
  6
AM_DIN_G_W050x2
100
AcDbLine
 10
1920.912490271662
 20
1899.421136682165
 30
0.0
 11
1738.855371762286
 21
1899.405595513142
 31
0.0
1001
GENIUS_GENODEF_13
1002
{
1000
HIER
1070
     0
1002
}
1002
{
1000
MANEDIT
1070
     0
1002
}
1002
{
1000
NOSEL
1070
     0
1002
}
1002
{
1000
BEHIND
1070
     0
1002
}
1002
{
1000
OTHER
1070
     0
1002
}
1002
{
1000
REACTOR
1002
}
1001
GENIUS_GENOBJ-N-CEN_13
1002
{
1000
OWNER
1000
GEN
1002
}
1001
GENIUS_GENCEN_19
1002
{
1040
60.0
1002
}
  0
CIRCLE
  5
505
330
1F
100
AcDbEntity
  8
0
100
AcDbCircle
 10
1620.898357013274
 20
1294.3596461341
 30
0.0
 40
177.0141334770014
  0
ARC
  5
506
330
1F
100
AcDbEntity
  8
0
100
AcDbCircle
 10
1379.957300572169
 20
1969.781288962869
 30
0.0
 40
85.31225740650427
100
AcDbArc
 50
319.5358532477327
 51
39.82231422967535
  0
ARC
  5
507
330
1F
100
AcDbEntity
  8
0
100
AcDbCircle
 10
1862.696387327553
 20
1899.423941722384
 30
0.0
 40
84.26550577509845
100
AcDbArc
 50
139.2617186486134
 51
220.7525097471947
  0
DIMENSION
  5
508
102
{ACAD_XDICTIONARY
360
509
102
}
102
{ACAD_REACTORS
330
50A
102
}
330
1F
100
AcDbEntity
  8
AM_5
100
AcDbDimension
  2
*D9
 10
1260.912489490275
 20
1824.410718096712
 30
0.0
 11
1237.412489490275
 21
1896.913366462007
 31
0.0
 70
    32
 71
     5
 42
145.0052967305891
  3
GEN-ISO$0
100
AcDbAlignedDimension
 13
1320.912490490276
 23
1969.416014827301
 33
0.0
 14
1444.863907968419
 24
1824.410718096712
 34
0.0
 50
90.0
100
AcDbRotatedDimension
1001
ACAD
1000
DSTYLE
1002
{
1070
   271
1070
     0
1002
}
  0
DIMENSION
  5
50B
102
{ACAD_XDICTIONARY
360
50C
102
}
102
{ACAD_REACTORS
330
50D
102
}
330
1F
100
AcDbEntity
  8
AM_5
100
AcDbDimension
  2
*D10
 10
2002.878496891395
 20
1899.421136682165
 30
0.0
 11
2002.878496891394
 21
1861.915927389436
 31
0.0
 70
   160
 71
     5
 42
75.01041858545341
  3
GEN-ISO$0
100
AcDbAlignedDimension
 13
1798.863907968419
 23
1824.410718096712
 33
0.0
 14
1920.912490271662
 24
1899.421136682165
 34
0.0
 50
90.0
100
AcDbRotatedDimension
1001
ACAD
1000
DSTYLE
1002
{
1070
   271
1070
     0
1002
}
  0
DIMENSION
  5
50E
102
{ACAD_XDICTIONARY
360
50F
102
}
102
{ACAD_REACTORS
330
510
102
}
330
1F
100
AcDbEntity
  8
AM_5
100
AcDbDimension
  2
*D11
 10
2066.374135283998
 20
2064.410718096711
 30
0.0
 11
2042.870690402108
 21
1944.410718096712
 31
0.0
 70
    32
  1
220
 71
     5
 42
239.9999999999991
  3
GEN-ISO$0
100
AcDbAlignedDimension
 13
1798.863907968419
 23
1824.410718096712
 33
0.0
 14
1794.849774491407
 24
2064.410718096711
 34
0.0
 50
90.0
100
AcDbRotatedDimension
1001
ACAD
1000
DSTYLE
1002
{
1070
   271
1070
     0
1002
}
  0
LINE
  5
511
330
1F
100
AcDbEntity
  8
AM_4
100
AcDbLine
 10
1315.912490490261
 20
2025.533976036021
 30
0.0
 11
1315.912490490261
 21
1913.298053618301
 31
0.0
  0
LINE
  5
512
330
1F
100
AcDbEntity
  8
AM_4
100
AcDbLine
 10
1370.912490490261
 20
1909.416014827299
 30
0.0
 11
1370.91249049029
 21
2029.416014827302
 31
0.0
  0
LINE
  5
513
330
1F
100
AcDbEntity
  8
AM_4
100
AcDbLine
 10
1315.912490490261
 20
1913.298053618301
 30
0.0
 11
1315.912490490261
 21
1909.416014827358
 31
0.0
  0
LINE
  5
514
330
1F
100
AcDbEntity
  8
AM_4
100
AcDbLine
 10
1315.912490490261
 20
1909.416014827365
 30
0.0
 11
1370.912490490261
 21
1909.416014827299
 31
0.0
  0
LINE
  5
515
330
1F
100
AcDbEntity
  8
AM_4
100
AcDbLine
 10
1315.912490490261
 20
2050.672940733353
 30
0.0
 11
1315.912490490261
 21
2025.533976036021
 31
0.0
  0
LWPOLYLINE
  5
516
330
1F
100
AcDbEntity
  8
AM_4
100
AcDbPolyline
 90
        6
 70
     1
 43
0.0
 10
1329.665267239991
 20
2033.544477780326
 10
1333.418043989725
 20
2040.044477780326
 10
1329.665267239991
 20
2046.544477780326
 10
1322.159713740527
 20
2046.544477780326
 10
1318.406936990793
 20
2040.044477780326
 10
1322.15971374053
 20
2033.544477780326
  0
CIRCLE
  5
517
330
1F
100
AcDbEntity
  8
AM_4
100
AcDbCircle
 10
1325.912490490261
 20
2040.044477780326
 30
0.0
 40
6.5
  0
LWPOLYLINE
  5
518
330
1F
100
AcDbEntity
  8
AM_4
100
AcDbPolyline
 90
        6
 70
     1
 43
0.0
 10
1364.665267239991
 20
2033.544477780268
 10
1368.418043989725
 20
2040.044477780268
 10
1364.665267239991
 20
2046.544477780268
 10
1357.159713740527
 20
2046.544477780268
 10
1353.406936990793
 20
2040.044477780268
 10
1357.15971374053
 20
2033.544477780268
  0
CIRCLE
  5
519
330
1F
100
AcDbEntity
  8
AM_4
100
AcDbCircle
 10
1360.912490490261
 20
2040.044477780268
 30
0.0
 40
6.5
  0
LINE
  5
51A
330
1F
100
AcDbEntity
  8
AM_4
100
AcDbLine
 10
1315.912490490261
 20
2029.416014827241
 30
0.0
 11
1370.912490490261
 21
2029.416014827299
 31
0.0
  0
LINE
  5
51B
330
1F
100
AcDbEntity
  8
AM_4
100
AcDbLine
 10
1370.912490490261
 20
2050.672940733353
 30
0.0
 11
1315.912490490261
 21
2050.672940733353
 31
0.0
  0
LINE
  5
51C
330
1F
100
AcDbEntity
  8
AM_4
100
AcDbLine
 10
1370.912490490261
 20
2029.416014827299
 30
0.0
 11
1370.912490490232
 21
2050.672940733353
 31
0.0
  0
LINE
  5
51D
330
1F
100
AcDbEntity
  8
AM_4
100
AcDbLine
 10
1871.787729822729
 20
1955.53397603616
 30
0.0
 11
1871.787729822729
 21
1843.298053618442
 31
0.0
  0
LINE
  5
51E
330
1F
100
AcDbEntity
  8
AM_4
100
AcDbLine
 10
1926.787729822729
 20
1839.41601482744
 30
0.0
 11
1926.787729822758
 21
1959.416014827442
 31
0.0
  0
LINE
  5
51F
330
1F
100
AcDbEntity
  8
AM_4
100
AcDbLine
 10
1871.787729822729
 20
1843.298053618442
 30
0.0
 11
1871.787729822729
 21
1839.416014827499
 31
0.0
  0
LINE
  5
520
330
1F
100
AcDbEntity
  8
AM_4
100
AcDbLine
 10
1871.787729822729
 20
1839.416014827506
 30
0.0
 11
1926.787729822729
 21
1839.41601482744
 31
0.0
  0
LINE
  5
521
330
1F
100
AcDbEntity
  8
AM_4
100
AcDbLine
 10
1871.787729822729
 20
1980.672940733493
 30
0.0
 11
1871.787729822729
 21
1955.53397603616
 31
0.0
  0
LWPOLYLINE
  5
522
330
1F
100
AcDbEntity
  8
AM_4
100
AcDbPolyline
 90
        6
 70
     1
 43
0.0
 10
1885.54050657246
 20
1963.544477780466
 10
1889.293283322194
 20
1970.044477780466
 10
1885.54050657246
 20
1976.544477780466
 10
1878.034953072995
 20
1976.544477780466
 10
1874.282176323261
 20
1970.044477780466
 10
1878.034953072999
 20
1963.544477780466
  0
CIRCLE
  5
523
330
1F
100
AcDbEntity
  8
AM_4
100
AcDbCircle
 10
1881.787729822729
 20
1970.044477780466
 30
0.0
 40
6.5
  0
LWPOLYLINE
  5
524
330
1F
100
AcDbEntity
  8
AM_4
100
AcDbPolyline
 90
        6
 70
     1
 43
0.0
 10
1920.54050657246
 20
1963.544477780408
 10
1924.293283322194
 20
1970.044477780407
 10
1920.54050657246
 20
1976.544477780407
 10
1913.034953072995
 20
1976.544477780407
 10
1909.282176323261
 20
1970.044477780407
 10
1913.034953072999
 20
1963.544477780408
  0
CIRCLE
  5
525
330
1F
100
AcDbEntity
  8
AM_4
100
AcDbCircle
 10
1916.787729822729
 20
1970.044477780407
 30
0.0
 40
6.5
  0
LINE
  5
526
330
1F
100
AcDbEntity
  8
AM_4
100
AcDbLine
 10
1871.787729822729
 20
1959.41601482738
 30
0.0
 11
1926.787729822729
 21
1959.416014827439
 31
0.0
  0
LINE
  5
527
330
1F
100
AcDbEntity
  8
AM_4
100
AcDbLine
 10
1926.787729822729
 20
1980.672940733493
 30
0.0
 11
1871.787729822729
 21
1980.672940733493
 31
0.0
  0
LINE
  5
528
330
1F
100
AcDbEntity
  8
AM_4
100
AcDbLine
 10
1926.787729822729
 20
1959.416014827439
 30
0.0
 11
1926.7877298227
 21
1980.672940733493
 31
0.0
  0
DIMENSION
  5
529
102
{ACAD_XDICTIONARY
360
52A
102
}
102
{ACAD_REACTORS
330
52B
102
}
330
1F
100
AcDbEntity
  8
AM_5
100
AcDbDimension
  2
*D12
 10
1860.912490490276
 20
1724.416014827302
 30
0.0
 11
1620.912490490275
 21
1747.916014827302
 31
0.0
 70
    32
 71
     5
 42
480.0
  3
GEN-ISO$0
100
AcDbAlignedDimension
 13
1380.912490490275
 23
1914.4160148273
 33
0.0
 14
1860.912490490276
 24
1844.4160148273
 34
0.0
100
AcDbRotatedDimension
1001
ACAD
1000
DSTYLE
1002
{
1070
   271
1070
     0
1002
}
  0
LINE
  5
52C
330
1F
100
AcDbEntity
  8
AM_7
100
AcDbLine
 10
1620.898357013274
 20
1294.3596461341
 30
0.0
 11
1827.912490490275
 21
1294.3596461341
 31
0.0
1001
GENIUS_GENOREF_13
1005
58D
  0
LINE
  5
52D
330
1F
100
AcDbEntity
  8
AM_7
100
AcDbLine
 10
1620.898357013274
 20
1294.3596461341
 30
0.0
 11
1620.898357013274
 21
1501.373779611102
 31
0.0
1001
GENIUS_GENOREF_13
1005
58D
  0
LINE
  5
52E
330
1F
100
AcDbEntity
  8
AM_7
100
AcDbLine
 10
1620.898357013274
 20
1294.3596461341
 30
0.0
 11
1413.884223536272
 21
1294.3596461341
 31
0.0
1001
GENIUS_GENOREF_13
1005
58D
  0
LINE
  5
52F
330
1F
100
AcDbEntity
  8
AM_7
100
AcDbLine
 10
1620.898357013274
 20
1294.3596461341
 30
0.0
 11
1620.898357013274
 21
1087.345512657099
 31
0.0
1001
GENIUS_GENOREF_13
1005
58D
  0
DIMENSION
  5
530
102
{ACAD_XDICTIONARY
360
531
102
}
102
{ACAD_REACTORS
330
532
102
}
330
1F
100
AcDbEntity
  8
AM_5
100
AcDbDimension
  2
*D13
 10
1813.84977449141
 20
2149.059689803094
 30
0.0
 11
1621.849774491414
 21
2172.559689803094
 31
0.0
 70
    32
  1
%%c<>
 71
     5
 42
383.9999999999927
  3
GEN-ISO$0
100
AcDbAlignedDimension
 13
1429.849774491417
 23
2054.410718096724
 33
0.0
 14
1813.84977449141
 24
2054.410718096711
 34
0.0
100
AcDbRotatedDimension
1001
ACAD
1000
DSTYLE
1002
{
1070
   271
1070
     0
1002
}
  0
LINE
  5
533
330
1F
100
AcDbEntity
  8
0
100
AcDbLine
 10
1380.912490490279
 20
1349.3596461341
 30
0.0
 11
1380.912490490279
 21
1239.3596461341
 31
0.0
  0
LINE
  5
534
330
1F
100
AcDbEntity
  8
AM_4
100
AcDbLine
 10
1315.912490490265
 20
1350.47760734282
 30
0.0
 11
1315.912490490265
 21
1238.2416849251
 31
0.0
  0
LINE
  5
535
330
1F
100
AcDbEntity
  8
AM_4
100
AcDbLine
 10
1370.912490490264
 20
1234.359646134098
 30
0.0
 11
1370.912490490294
 21
1354.359646134102
 31
0.0
  0
LINE
  5
536
330
1F
100
AcDbEntity
  8
AM_4
100
AcDbLine
 10
1315.912490490265
 20
1238.2416849251
 30
0.0
 11
1315.912490490265
 21
1234.359646134157
 31
0.0
  0
LINE
  5
537
330
1F
100
AcDbEntity
  8
AM_4
100
AcDbLine
 10
1315.912490490265
 20
1234.359646134164
 30
0.0
 11
1370.912490490264
 21
1234.359646134098
 31
0.0
  0
LINE
  5
538
330
1F
100
AcDbEntity
  8
AM_4
100
AcDbLine
 10
1315.912490490265
 20
1375.616572040153
 30
0.0
 11
1315.912490490265
 21
1350.47760734282
 31
0.0
  0
LWPOLYLINE
  5
539
330
1F
100
AcDbEntity
  8
AM_4
100
AcDbPolyline
 90
        6
 70
     1
 43
0.0
 10
1329.665267239995
 20
1358.488109087126
 10
1333.418043989729
 20
1364.988109087126
 10
1329.665267239995
 20
1371.488109087126
 10
1322.15971374053
 20
1371.488109087126
 10
1318.406936990796
 20
1364.988109087126
 10
1322.159713740534
 20
1358.488109087126
  0
CIRCLE
  5
53A
330
1F
100
AcDbEntity
  8
AM_4
100
AcDbCircle
 10
1325.912490490265
 20
1364.988109087126
 30
0.0
 40
6.5
  0
LWPOLYLINE
  5
53B
330
1F
100
AcDbEntity
  8
AM_4
100
AcDbPolyline
 90
        6
 70
     1
 43
0.0
 10
1364.665267239995
 20
1358.488109087067
 10
1368.418043989729
 20
1364.988109087067
 10
1364.665267239995
 20
1371.488109087067
 10
1357.15971374053
 20
1371.488109087067
 10
1353.406936990796
 20
1364.988109087067
 10
1357.159713740534
 20
1358.488109087067
  0
CIRCLE
  5
53C
330
1F
100
AcDbEntity
  8
AM_4
100
AcDbCircle
 10
1360.912490490264
 20
1364.988109087067
 30
0.0
 40
6.5
  0
LINE
  5
53D
330
1F
100
AcDbEntity
  8
AM_4
100
AcDbLine
 10
1315.912490490265
 20
1354.35964613404
 30
0.0
 11
1370.912490490264
 21
1354.359646134098
 31
0.0
  0
LINE
  5
53E
330
1F
100
AcDbEntity
  8
AM_4
100
AcDbLine
 10
1370.912490490264
 20
1375.616572040153
 30
0.0
 11
1315.912490490265
 21
1375.616572040153
 31
0.0
  0
LINE
  5
53F
330
1F
100
AcDbEntity
  8
AM_4
100
AcDbLine
 10
1370.912490490264
 20
1354.359646134098
 30
0.0
 11
1370.912490490235
 21
1375.616572040153
 31
0.0
  0
LINE
  5
540
330
1F
100
AcDbEntity
  8
0
100
AcDbLine
 10
1380.912490490279
 20
1349.3596461341
 30
0.0
 11
1442.706850848878
 21
1349.3596461341
 31
0.0
  0
LINE
  5
541
330
1F
100
AcDbEntity
  8
0
100
AcDbLine
 10
1380.912490490279
 20
1239.3596461341
 30
0.0
 11
1442.706850848878
 21
1239.3596461341
 31
0.0
  0
LINE
  5
542
330
1F
100
AcDbEntity
  8
0
100
AcDbLine
 10
1860.884223536269
 20
1349.3596461341
 30
0.0
 11
1860.884223536269
 21
1239.3596461341
 31
0.0
  0
LINE
  5
543
330
1F
100
AcDbEntity
  8
AM_4
100
AcDbLine
 10
1925.884223536283
 20
1350.47760734282
 30
0.0
 11
1925.884223536283
 21
1238.2416849251
 31
0.0
  0
LINE
  5
544
330
1F
100
AcDbEntity
  8
AM_4
100
AcDbLine
 10
1870.884223536284
 20
1234.359646134098
 30
0.0
 11
1870.884223536254
 21
1354.359646134102
 31
0.0
  0
LINE
  5
545
330
1F
100
AcDbEntity
  8
AM_4
100
AcDbLine
 10
1925.884223536283
 20
1238.2416849251
 30
0.0
 11
1925.884223536283
 21
1234.359646134157
 31
0.0
  0
LINE
  5
546
330
1F
100
AcDbEntity
  8
AM_4
100
AcDbLine
 10
1925.884223536283
 20
1234.359646134164
 30
0.0
 11
1870.884223536284
 21
1234.359646134098
 31
0.0
  0
LINE
  5
547
330
1F
100
AcDbEntity
  8
AM_4
100
AcDbLine
 10
1925.884223536283
 20
1375.616572040153
 30
0.0
 11
1925.884223536283
 21
1350.47760734282
 31
0.0
  0
LWPOLYLINE
  5
548
330
1F
100
AcDbEntity
  8
AM_4
100
AcDbPolyline
 90
        6
 70
     1
 43
0.0
 10
1912.131446786553
 20
1358.488109087126
 10
1908.378670036819
 20
1364.988109087126
 10
1912.131446786553
 20
1371.488109087126
 10
1919.637000286018
 20
1371.488109087126
 10
1923.389777035751
 20
1364.988109087126
 10
1919.637000286014
 20
1358.488109087126
  0
CIRCLE
  5
549
330
1F
100
AcDbEntity
  8
AM_4
100
AcDbCircle
 10
1915.884223536284
 20
1364.988109087126
 30
0.0
 40
6.5
  0
LWPOLYLINE
  5
54A
330
1F
100
AcDbEntity
  8
AM_4
100
AcDbPolyline
 90
        6
 70
     1
 43
0.0
 10
1877.131446786553
 20
1358.488109087067
 10
1873.378670036819
 20
1364.988109087067
 10
1877.131446786553
 20
1371.488109087067
 10
1884.637000286017
 20
1371.488109087067
 10
1888.389777035752
 20
1364.988109087067
 10
1884.637000286014
 20
1358.488109087067
  0
CIRCLE
  5
54B
330
1F
100
AcDbEntity
  8
AM_4
100
AcDbCircle
 10
1880.884223536283
 20
1364.988109087067
 30
0.0
 40
6.5
  0
LINE
  5
54C
330
1F
100
AcDbEntity
  8
AM_4
100
AcDbLine
 10
1925.884223536283
 20
1354.35964613404
 30
0.0
 11
1870.884223536284
 21
1354.359646134098
 31
0.0
  0
LINE
  5
54D
330
1F
100
AcDbEntity
  8
AM_4
100
AcDbLine
 10
1870.884223536284
 20
1375.616572040153
 30
0.0
 11
1925.884223536283
 21
1375.616572040153
 31
0.0
  0
LINE
  5
54E
330
1F
100
AcDbEntity
  8
AM_4
100
AcDbLine
 10
1870.884223536284
 20
1354.359646134098
 30
0.0
 11
1870.884223536313
 21
1375.616572040153
 31
0.0
  0
LINE
  5
54F
330
1F
100
AcDbEntity
  8
0
100
AcDbLine
 10
1860.884223536269
 20
1349.3596461341
 30
0.0
 11
1799.08986317767
 21
1349.3596461341
 31
0.0
  0
LINE
  5
550
330
1F
100
AcDbEntity
  8
0
100
AcDbLine
 10
1860.884223536269
 20
1239.3596461341
 30
0.0
 11
1799.08986317767
 21
1239.3596461341
 31
0.0
  0
TEXT
  5
551
330
1F
100
AcDbEntity
  8
AM_6
100
AcDbText
 10
1037.047498495191
 20
2061.063719907296
 30
0.0
 40
27.0
  1
Zulauf
100
AcDbText
  0
TEXT
  5
552
330
1F
100
AcDbEntity
  8
AM_6
100
AcDbText
 10
1037.047498495191
 20
2023.563719907296
 30
0.0
 40
27.0
  1
DN 100
100
AcDbText
  0
LINE
  5
553
330
1F
100
AcDbEntity
  8
406
  6
AUSGEZOGEN
 62
     7
100
AcDbLine
 10
1194.885324183958
 20
1967.541014827301
 30
0.0
 11
1194.885324183958
 21
1971.291747247299
 31
0.0
  0
LINE
  5
554
330
1F
100
AcDbEntity
  8
406
  6
AUSGEZOGEN
 62
     7
100
AcDbLine
 10
1193.635324183958
 20
1966.291014827301
 30
0.0
 11
1193.635324183958
 21
1972.541747247299
 31
0.0
  0
LINE
  5
555
330
1F
100
AcDbEntity
  8
406
  6
AUSGEZOGEN
 62
     7
100
AcDbLine
 10
1192.385324183958
 20
1965.041014827301
 30
0.0
 11
1192.385324183958
 21
1973.791747247299
 31
0.0
  0
LINE
  5
556
330
1F
100
AcDbEntity
  8
406
  6
AUSGEZOGEN
 62
     7
100
AcDbLine
 10
1191.135324183958
 20
1963.791014827301
 30
0.0
 11
1191.135324183958
 21
1975.041747247299
 31
0.0
  0
LINE
  5
557
330
1F
100
AcDbEntity
  8
406
  6
AUSGEZOGEN
 62
     7
100
AcDbLine
 10
1189.885324183958
 20
1962.541014827301
 30
0.0
 11
1189.885324183958
 21
1976.291747247299
 31
0.0
  0
LINE
  5
558
330
1F
100
AcDbEntity
  8
406
  6
AUSGEZOGEN
 62
     7
100
AcDbLine
 10
1188.635324183958
 20
1961.291014827301
 30
0.0
 11
1188.635324183958
 21
1977.541747247299
 31
0.0
  0
LINE
  5
559
330
1F
100
AcDbEntity
  8
406
  6
AUSGEZOGEN
 62
     7
100
AcDbLine
 10
1187.385324183958
 20
1960.041014827301
 30
0.0
 11
1187.385324183958
 21
1978.791747247299
 31
0.0
  0
LINE
  5
55A
330
1F
100
AcDbEntity
  8
406
  6
AUSGEZOGEN
 62
     7
100
AcDbLine
 10
1186.135324183958
 20
1958.791014827301
 30
0.0
 11
1186.135324183958
 21
1980.041747247299
 31
0.0
  0
LINE
  5
55B
330
1F
100
AcDbEntity
  8
406
  6
AUSGEZOGEN
 62
     7
100
AcDbLine
 10
1184.885324183958
 20
1957.541014827301
 30
0.0
 11
1184.885324183958
 21
1981.291747247299
 31
0.0
  0
LINE
  5
55C
330
1F
100
AcDbEntity
  8
406
  6
AUSGEZOGEN
 62
     7
100
AcDbLine
 10
1183.635324183958
 20
1956.291014827301
 30
0.0
 11
1183.635324183958
 21
1982.541747247299
 31
0.0
  0
LINE
  5
55D
330
1F
100
AcDbEntity
  8
406
  6
AUSGEZOGEN
 62
     7
100
AcDbLine
 10
1182.385324183958
 20
1955.041014827301
 30
0.0
 11
1182.385324183958
 21
1983.791747247299
 31
0.0
  0
LINE
  5
55E
330
1F
100
AcDbEntity
  8
406
  6
AUSGEZOGEN
 62
     7
100
AcDbLine
 10
1181.135324183958
 20
1953.790282407296
 30
0.0
 11
1181.135324183958
 21
1985.040770687302
 31
0.0
  0
LINE
  5
55F
330
1F
100
AcDbEntity
  8
406
  6
AUSGEZOGEN
 62
     7
100
AcDbLine
 10
1179.885324183958
 20
1952.540282407296
 30
0.0
 11
1179.885324183958
 21
1986.290770687302
 31
0.0
  0
LINE
  5
560
330
1F
100
AcDbEntity
  8
406
  6
AUSGEZOGEN
 62
     7
100
AcDbLine
 10
1178.635324183958
 20
1951.290282407296
 30
0.0
 11
1178.635324183958
 21
1987.540770687302
 31
0.0
  0
LINE
  5
561
330
1F
100
AcDbEntity
  8
406
  6
AUSGEZOGEN
 62
     7
100
AcDbLine
 10
1177.385324183958
 20
1950.040282407296
 30
0.0
 11
1177.385324183958
 21
1988.790770687302
 31
0.0
  0
LINE
  5
562
330
1F
100
AcDbEntity
  8
406
  6
AUSGEZOGEN
 62
     7
100
AcDbLine
 10
1176.135324183958
 20
1948.790282407296
 30
0.0
 11
1176.135324183958
 21
1990.040770687302
 31
0.0
  0
LINE
  5
563
330
1F
100
AcDbEntity
  8
406
  6
AUSGEZOGEN
 62
     7
100
AcDbLine
 10
1174.885324183958
 20
1947.540282407296
 30
0.0
 11
1174.885324183958
 21
1991.290770687302
 31
0.0
  0
LINE
  5
564
330
1F
100
AcDbEntity
  8
406
  6
AUSGEZOGEN
 62
     7
100
AcDbLine
 10
1173.635324183958
 20
1946.290282407296
 30
0.0
 11
1173.635324183958
 21
1992.540770687302
 31
0.0
  0
LINE
  5
565
330
1F
100
AcDbEntity
  8
406
  6
AUSGEZOGEN
 62
     7
100
AcDbLine
 10
1172.385324183958
 20
1945.040282407296
 30
0.0
 11
1172.385324183958
 21
1993.7912589673
 31
0.0
  0
LINE
  5
566
330
1F
100
AcDbEntity
  8
406
  6
AUSGEZOGEN
 62
     7
100
AcDbLine
 10
1171.135324183958
 20
1943.790282407296
 30
0.0
 11
1171.135324183958
 21
1995.040770687302
 31
0.0
  0
LINE
  5
567
330
1F
100
AcDbEntity
  8
406
  6
AUSGEZOGEN
 62
     7
100
AcDbLine
 10
1169.885324183958
 20
1942.540282407296
 30
0.0
 11
1169.885324183958
 21
1996.290770687303
 31
0.0
  0
LINE
  5
568
330
1F
100
AcDbEntity
  8
406
  6
AUSGEZOGEN
 62
     7
100
AcDbLine
 10
1168.635324183958
 20
1941.290282407296
 30
0.0
 11
1168.635324183958
 21
1997.540770687301
 31
0.0
  0
LINE
  5
569
330
1F
100
AcDbEntity
  8
406
  6
AUSGEZOGEN
 62
     7
100
AcDbLine
 10
1167.385324183965
 20
1940.040282407296
 30
0.0
 11
1167.385324183965
 21
1998.7912589673
 31
0.0
  0
LINE
  5
56A
330
1F
100
AcDbEntity
  8
406
  6
AUSGEZOGEN
 62
     7
100
AcDbLine
 10
1165.510324183958
 20
1938.166014827301
 30
0.0
 11
1165.510324183958
 21
2000.666014827301
 31
0.0
  0
LINE
  5
56B
330
1F
100
AcDbEntity
  8
406
  6
AUSGEZOGEN
 62
     7
100
AcDbLine
 10
1166.135324183958
 20
1938.790282407296
 30
0.0
 11
1166.135324183958
 21
2000.0412589673
 31
0.0
  0
LINE
  5
56C
330
1F
100
AcDbEntity
  8
406
  6
AUSGEZOGEN
 62
     7
100
AcDbLine
 10
1165.510324183958
 20
2000.666014827301
 30
0.0
 11
1196.760324183965
 21
1969.416014827301
 31
0.0
  0
LINE
  5
56D
330
1F
100
AcDbEntity
  8
406
  6
AUSGEZOGEN
 62
     7
100
AcDbLine
 10
1196.760324183965
 20
1969.416014827301
 30
0.0
 11
1165.510324183958
 21
1938.166014827301
 31
0.0
  0
LINE
  5
56E
330
1F
100
AcDbEntity
  8
406
  6
AUSGEZOGEN
 62
     7
100
AcDbLine
 10
1165.510324183958
 20
1969.416014827301
 30
0.0
 11
1105.108468713964
 21
1969.416014827301
 31
0.0
  0
TEXT
  5
56F
330
1F
100
AcDbEntity
  8
AM_6
100
AcDbText
 10
2109.768457643882
 20
1991.063719907296
 30
0.0
 40
27.0
  1
Ablauf
100
AcDbText
  0
TEXT
  5
570
330
1F
100
AcDbEntity
  8
AM_6
100
AcDbText
 10
2109.768457643882
 20
1953.563719907296
 30
0.0
 40
27.0
  1
DN 100
100
AcDbText
  0
LINE
  5
571
330
1F
100
AcDbEntity
  8
406
  6
AUSGEZOGEN
 62
     7
100
AcDbLine
 10
2267.606283332648
 20
1897.541014827301
 30
0.0
 11
2267.606283332648
 21
1901.291747247299
 31
0.0
  0
LINE
  5
572
330
1F
100
AcDbEntity
  8
406
  6
AUSGEZOGEN
 62
     7
100
AcDbLine
 10
2266.356283332648
 20
1896.291014827301
 30
0.0
 11
2266.356283332648
 21
1902.541747247299
 31
0.0
  0
LINE
  5
573
330
1F
100
AcDbEntity
  8
406
  6
AUSGEZOGEN
 62
     7
100
AcDbLine
 10
2265.106283332648
 20
1895.041014827301
 30
0.0
 11
2265.106283332648
 21
1903.791747247299
 31
0.0
  0
LINE
  5
574
330
1F
100
AcDbEntity
  8
406
  6
AUSGEZOGEN
 62
     7
100
AcDbLine
 10
2263.856283332648
 20
1893.791014827301
 30
0.0
 11
2263.856283332648
 21
1905.041747247299
 31
0.0
  0
LINE
  5
575
330
1F
100
AcDbEntity
  8
406
  6
AUSGEZOGEN
 62
     7
100
AcDbLine
 10
2262.606283332648
 20
1892.541014827301
 30
0.0
 11
2262.606283332648
 21
1906.291747247299
 31
0.0
  0
LINE
  5
576
330
1F
100
AcDbEntity
  8
406
  6
AUSGEZOGEN
 62
     7
100
AcDbLine
 10
2261.356283332648
 20
1891.291014827301
 30
0.0
 11
2261.356283332648
 21
1907.541747247299
 31
0.0
  0
LINE
  5
577
330
1F
100
AcDbEntity
  8
406
  6
AUSGEZOGEN
 62
     7
100
AcDbLine
 10
2260.106283332648
 20
1890.041014827301
 30
0.0
 11
2260.106283332648
 21
1908.791747247299
 31
0.0
  0
LINE
  5
578
330
1F
100
AcDbEntity
  8
406
  6
AUSGEZOGEN
 62
     7
100
AcDbLine
 10
2258.856283332648
 20
1888.791014827301
 30
0.0
 11
2258.856283332648
 21
1910.041747247299
 31
0.0
  0
LINE
  5
579
330
1F
100
AcDbEntity
  8
406
  6
AUSGEZOGEN
 62
     7
100
AcDbLine
 10
2257.606283332648
 20
1887.541014827301
 30
0.0
 11
2257.606283332648
 21
1911.291747247299
 31
0.0
  0
LINE
  5
57A
330
1F
100
AcDbEntity
  8
406
  6
AUSGEZOGEN
 62
     7
100
AcDbLine
 10
2256.356283332648
 20
1886.291014827301
 30
0.0
 11
2256.356283332648
 21
1912.541747247299
 31
0.0
  0
LINE
  5
57B
330
1F
100
AcDbEntity
  8
406
  6
AUSGEZOGEN
 62
     7
100
AcDbLine
 10
2255.106283332648
 20
1885.041014827301
 30
0.0
 11
2255.106283332648
 21
1913.791747247299
 31
0.0
  0
LINE
  5
57C
330
1F
100
AcDbEntity
  8
406
  6
AUSGEZOGEN
 62
     7
100
AcDbLine
 10
2253.856283332648
 20
1883.790282407296
 30
0.0
 11
2253.856283332648
 21
1915.040770687302
 31
0.0
  0
LINE
  5
57D
330
1F
100
AcDbEntity
  8
406
  6
AUSGEZOGEN
 62
     7
100
AcDbLine
 10
2252.606283332648
 20
1882.540282407296
 30
0.0
 11
2252.606283332648
 21
1916.290770687302
 31
0.0
  0
LINE
  5
57E
330
1F
100
AcDbEntity
  8
406
  6
AUSGEZOGEN
 62
     7
100
AcDbLine
 10
2251.356283332648
 20
1881.290282407296
 30
0.0
 11
2251.356283332648
 21
1917.540770687302
 31
0.0
  0
LINE
  5
57F
330
1F
100
AcDbEntity
  8
406
  6
AUSGEZOGEN
 62
     7
100
AcDbLine
 10
2250.106283332648
 20
1880.040282407296
 30
0.0
 11
2250.106283332648
 21
1918.790770687302
 31
0.0
  0
LINE
  5
580
330
1F
100
AcDbEntity
  8
406
  6
AUSGEZOGEN
 62
     7
100
AcDbLine
 10
2248.856283332648
 20
1878.790282407296
 30
0.0
 11
2248.856283332648
 21
1920.040770687302
 31
0.0
  0
LINE
  5
581
330
1F
100
AcDbEntity
  8
406
  6
AUSGEZOGEN
 62
     7
100
AcDbLine
 10
2247.606283332648
 20
1877.540282407296
 30
0.0
 11
2247.606283332648
 21
1921.290770687302
 31
0.0
  0
LINE
  5
582
330
1F
100
AcDbEntity
  8
406
  6
AUSGEZOGEN
 62
     7
100
AcDbLine
 10
2246.356283332648
 20
1876.290282407296
 30
0.0
 11
2246.356283332648
 21
1922.540770687302
 31
0.0
  0
LINE
  5
583
330
1F
100
AcDbEntity
  8
406
  6
AUSGEZOGEN
 62
     7
100
AcDbLine
 10
2245.106283332648
 20
1875.040282407296
 30
0.0
 11
2245.106283332648
 21
1923.7912589673
 31
0.0
  0
LINE
  5
584
330
1F
100
AcDbEntity
  8
406
  6
AUSGEZOGEN
 62
     7
100
AcDbLine
 10
2243.856283332648
 20
1873.790282407296
 30
0.0
 11
2243.856283332648
 21
1925.040770687302
 31
0.0
  0
LINE
  5
585
330
1F
100
AcDbEntity
  8
406
  6
AUSGEZOGEN
 62
     7
100
AcDbLine
 10
2242.606283332648
 20
1872.540282407296
 30
0.0
 11
2242.606283332648
 21
1926.290770687303
 31
0.0
  0
LINE
  5
586
330
1F
100
AcDbEntity
  8
406
  6
AUSGEZOGEN
 62
     7
100
AcDbLine
 10
2241.356283332648
 20
1871.290282407296
 30
0.0
 11
2241.356283332648
 21
1927.540770687301
 31
0.0
  0
LINE
  5
587
330
1F
100
AcDbEntity
  8
406
  6
AUSGEZOGEN
 62
     7
100
AcDbLine
 10
2240.106283332655
 20
1870.040282407296
 30
0.0
 11
2240.106283332655
 21
1928.7912589673
 31
0.0
  0
LINE
  5
588
330
1F
100
AcDbEntity
  8
406
  6
AUSGEZOGEN
 62
     7
100
AcDbLine
 10
2238.231283332648
 20
1868.166014827301
 30
0.0
 11
2238.231283332648
 21
1930.666014827301
 31
0.0
  0
LINE
  5
589
330
1F
100
AcDbEntity
  8
406
  6
AUSGEZOGEN
 62
     7
100
AcDbLine
 10
2238.856283332648
 20
1868.790282407296
 30
0.0
 11
2238.856283332648
 21
1930.0412589673
 31
0.0
  0
LINE
  5
58A
330
1F
100
AcDbEntity
  8
406
  6
AUSGEZOGEN
 62
     7
100
AcDbLine
 10
2238.231283332648
 20
1930.666014827301
 30
0.0
 11
2269.481283332655
 21
1899.416014827301
 31
0.0
  0
LINE
  5
58B
330
1F
100
AcDbEntity
  8
406
  6
AUSGEZOGEN
 62
     7
100
AcDbLine
 10
2269.481283332655
 20
1899.416014827301
 30
0.0
 11
2238.231283332648
 21
1868.166014827301
 31
0.0
  0
LINE
  5
58C
330
1F
100
AcDbEntity
  8
406
  6
AUSGEZOGEN
 62
     7
100
AcDbLine
 10
2238.231283332648
 20
1899.416014827301
 30
0.0
 11
2177.829427862654
 21
1899.416014827301
 31
0.0
  0
POINT
  5
58D
330
1F
100
AcDbEntity
  8
0
 60
     1
100
AcDbPoint
 10
18983.55387416355
 20
-3633.352677090588
 30
0.0
1001
GENIUS_GENODEF_13
1002
{
1000
HIER
1070
    10
1002
}
1002
{
1000
MANEDIT
1070
     0
1002
}
1002
{
1000
NOSEL
1070
     0
1002
}
1002
{
1000
BEHIND
1070
     0
1002
}
1002
{
1000
OTHER
1070
     0
1002
}
1002
{
1000
REACTOR
1002
}
1001
GENIUS_GENOLIS_13
1002
{
1000
ENT
1005
52F
1005
52E
1005
52D
1005
52C
1002
}
1001
GENIUS_GENOBJ-N-CRS_13
1002
{
1000
OWNER
1000
GEN
1002
}
1001
GENIUS_GENOENT_13
1002
{
1000
MYREF
1005
58D
1002
}
1002
{
1000
GRP
1005
0
1002
}
  0
ENDSEC
  0
SECTION
  2
OBJECTS
  0
DICTIONARY
  5
C
330
0
100
AcDbDictionary
281
     1
  3
ACAD_COLOR
350
D7
  3
ACAD_GROUP
350
D
  3
ACAD_LAYOUT
350
1A
  3
ACAD_MATERIAL
350
D6
  3
ACAD_MLINESTYLE
350
17
  3
ACAD_PLOTSETTINGS
350
19
  3
ACAD_PLOTSTYLENAME
350
E
  3
ACAD_TABLESTYLE
350
133
  3
ACDBHEADERROUNDTRIPXREC
350
5CE
  3
AcDbVariableDictionary
350
34
  3
AcmDictionary
350
49
  3
AMG
350
2B
  3
AMGSNAPSETTINGS
350
2C4
  3
DWGPROPS
350
5CD
  0
DICTIONARY
  5
C0
330
2
100
AcDbDictionary
280
     1
281
     1
  3
ACAD_LAYERSTATES
360
360
  3
AMLAYER_GROUPCOLORS
360
C1
  0
DICTIONARY
  5
83
330
1F
100
AcDbDictionary
280
     1
281
     1
  0
DICTIONARY
  5
509
330
508
100
AcDbDictionary
280
     1
281
     1
  3
ACAD_DIMASSOC
360
50A
  0
DICTIONARY
  5
50C
330
50B
100
AcDbDictionary
280
     1
281
     1
  3
ACAD_DIMASSOC
360
50D
  0
DICTIONARY
  5
50F
330
50E
100
AcDbDictionary
280
     1
281
     1
  3
ACAD_DIMASSOC
360
510
  0
DICTIONARY
  5
52A
330
529
100
AcDbDictionary
280
     1
281
     1
  3
ACAD_DIMASSOC
360
52B
  0
DICTIONARY
  5
531
330
530
100
AcDbDictionary
280
     1
281
     1
  3
ACAD_DIMASSOC
360
532
  0
DICTIONARY
  5
D7
102
{ACAD_REACTORS
330
C
102
}
330
C
100
AcDbDictionary
281
     1
  0
DICTIONARY
  5
D
102
{ACAD_REACTORS
330
C
102
}
330
C
100
AcDbDictionary
281
     1
  0
DICTIONARY
  5
1A
102
{ACAD_REACTORS
330
C
102
}
330
C
100
AcDbDictionary
281
     1
  3
Layout1
350
1E
  3
Layout2
350
26
  3
Model
350
22
  0
DICTIONARY
  5
D6
102
{ACAD_REACTORS
330
C
102
}
330
C
100
AcDbDictionary
281
     1
  0
DICTIONARY
  5
17
102
{ACAD_REACTORS
330
C
102
}
330
C
100
AcDbDictionary
281
     1
  3
Standard
350
18
  0
DICTIONARY
  5
19
102
{ACAD_REACTORS
330
C
102
}
330
C
100
AcDbDictionary
281
     1
  0
ACDBDICTIONARYWDFLT
  5
E
102
{ACAD_REACTORS
330
C
102
}
330
C
100
AcDbDictionary
281
     1
  3
Normal
350
F
100
AcDbDictionaryWithDefault
340
F
  0
DICTIONARY
  5
133
102
{ACAD_REACTORS
330
C
102
}
330
C
100
AcDbDictionary
281
     1
  3
Standard
350
134
  0
DICTIONARY
  5
5CE
102
{ACAD_REACTORS
330
C
102
}
330
C
100
AcDbDictionary
281
     1
  0
DICTIONARY
  5
34
102
{ACAD_REACTORS
330
C
102
}
330
C
100
AcDbDictionary
281
     1
  3
CTABLESTYLE
350
152
  3
DIMASSOC
350
AD
  3
INDEXCTL
350
35
  3
PROJECTNAME
350
5CB
  0
DICTIONARY
  5
49
102
{ACAD_REACTORS
330
C
102
}
330
C
100
AcDbDictionary
281
     1
  3
AcmBOM
350
2CB
  3
AcmStdDictionary
350
4A
  3
AMDTSECTSYM_ARROWCOLOR
350
13D
  0
DICTIONARY
  5
2B
102
{ACAD_REACTORS
330
C
102
}
330
C
100
AcDbDictionary
281
     1
  0
DICTIONARY
  5
2C4
102
{ACAD_REACTORS
330
C
102
}
330
C
100
AcDbDictionary
281
     1
  0
XRECORD
  5
5CD
102
{ACAD_REACTORS
330
C
102
}
330
C
100
AcDbXrecord
280
     1
  1
DWGPROPS COOKIE
  2

  3

  4

  6

  7

  8

  9

300
AmdtFileType=84
301
=
302
=
303
=
304
=
305
=
306
=
307
=
308
=
309
=
 40
0.0002788657407407
 41
2454053.357293646
 42
2454053.357572153
  1

 90
        1
  0
DICTIONARY
  5
360
102
{ACAD_REACTORS
330
C0
102
}
330
C0
100
AcDbDictionary
281
     1
  0
DICTIONARY
  5
C1
102
{ACAD_REACTORS
330
C0
102
}
330
C0
100
AcDbDictionary
280
     1
281
     1
  0
DIMASSOC
  5
50A
102
{ACAD_REACTORS
330
509
102
}
330
509
100
AcDbDimAssoc
330
508
 90
        3
 70
     0
 71
     0
  1
AcDbOsnapPointRef
 72
    13
331
503
 73
     0
 91
        0
 40
0.0
 10
0.0
 20
0.0
 30
2.000000000000000E+50
 75
     0
  1
AcDbOsnapPointRef
 72
    13
331
4FB
 73
     0
 91
        0
 40
0.0
 10
0.0
 20
0.0
 30
2.000000000000000E+50
 75
     0
  0
DIMASSOC
  5
50D
102
{ACAD_REACTORS
330
50C
102
}
330
50C
100
AcDbDimAssoc
330
50B
 90
        3
 70
     0
 71
     0
  1
AcDbOsnapPointRef
 72
    13
331
4F9
 73
     0
 91
        0
 40
0.0
 10
0.0
 20
0.0
 30
2.000000000000000E+50
 75
     0
  1
AcDbOsnapPointRef
 72
    13
331
504
 73
     0
 91
        0
 40
0.0
 10
0.0
 20
0.0
 30
2.000000000000000E+50
 75
     0
  0
DIMASSOC
  5
510
102
{ACAD_REACTORS
330
50F
102
}
330
50F
100
AcDbDimAssoc
330
50E
 90
        1
 70
     0
 71
     0
  1
AcDbOsnapPointRef
 72
    13
331
4F9
 73
     0
 91
        0
 40
0.0
 10
0.0
 20
0.0
 30
2.000000000000000E+50
 75
     0
  0
DIMASSOC
  5
52B
102
{ACAD_REACTORS
330
52A
102
}
330
52A
100
AcDbDimAssoc
330
529
 90
        3
 70
     0
 71
     0
  1
AcDbOsnapPointRef
 72
    13
331
502
 73
     0
 91
        0
 40
0.0
 10
0.0
 20
0.0
 30
2.000000000000000E+50
 75
     0
  1
AcDbOsnapPointRef
 72
    13
331
4FF
 73
     0
 91
        0
 40
0.0
 10
0.0
 20
0.0
 30
2.000000000000000E+50
 75
     0
  0
DIMASSOC
  5
532
102
{ACAD_REACTORS
330
531
102
}
330
531
100
AcDbDimAssoc
330
530
 90
        1
 70
     0
 71
     0
  1
AcDbOsnapPointRef
 72
    13
331
487
 73
     0
 91
        0
 40
0.0
 10
0.0
 20
0.0
 30
2.000000000000000E+50
 75
     0
  0
LAYOUT
  5
1E
102
{ACAD_XDICTIONARY
360
5CF
102
}
102
{ACAD_REACTORS
330
1A
102
}
330
1A
100
AcDbPlotSettings
  1

  2
none_device
  4
Letter_(8.50_x_11.00_Inches)
  6

 40
6.349999904632568
 41
6.349999904632568
 42
6.350006103515625
 43
6.350006103515625
 44
215.8999938964844
 45
279.3999938964844
 46
0.0
 47
0.0
 48
0.0
 49
0.0
140
0.0
141
0.0
142
1.0
143
1.0
 70
 15024
 72
     1
 73
     1
 74
     5
  7

 75
    16
147
1.0
148
0.0
149
0.0
100
AcDbLayout
  1
Layout1
 70
     1
 71
     1
 10
0.0
 20
0.0
 11
420.0
 21
297.0
 12
0.0
 22
0.0
 32
0.0
 14
1.000000000000000E+20
 24
1.000000000000000E+20
 34
1.000000000000000E+20
 15
-1.000000000000000E+20
 25
-1.000000000000000E+20
 35
-1.000000000000000E+20
146
0.0
 13
0.0
 23
0.0
 33
0.0
 16
1.0
 26
0.0
 36
0.0
 17
0.0
 27
1.0
 37
0.0
 76
     0
330
1B
  0
LAYOUT
  5
26
102
{ACAD_XDICTIONARY
360
5D3
102
}
102
{ACAD_REACTORS
330
1A
102
}
330
1A
100
AcDbPlotSettings
  1

  2
none_device
  4
Letter_(8.50_x_11.00_Inches)
  6

 40
6.349999904632568
 41
6.349999904632568
 42
6.350006103515625
 43
6.350006103515625
 44
215.8999938964844
 45
279.3999938964844
 46
0.0
 47
0.0
 48
0.0
 49
0.0
140
0.0
141
0.0
142
1.0
143
1.0
 70
 15024
 72
     1
 73
     1
 74
     5
  7

 75
    16
147
1.0
148
0.0
149
0.0
100
AcDbLayout
  1
Layout2
 70
     1
 71
     2
 10
0.0
 20
0.0
 11
12.0
 21
9.0
 12
0.0
 22
0.0
 32
0.0
 14
0.0
 24
0.0
 34
0.0
 15
0.0
 25
0.0
 35
0.0
146
0.0
 13
0.0
 23
0.0
 33
0.0
 16
1.0
 26
0.0
 36
0.0
 17
0.0
 27
1.0
 37
0.0
 76
     0
330
23
  0
LAYOUT
  5
22
102
{ACAD_XDICTIONARY
360
5D1
102
}
102
{ACAD_REACTORS
330
1A
102
}
330
1A
100
AcDbPlotSettings
  1

  2
none_device
  4
Letter_(8.50_x_11.00_Inches)
  6

 40
6.349999904632568
 41
6.349999904632568
 42
6.350006103515625
 43
6.350006103515625
 44
215.8999938964844
 45
279.3999938964844
 46
0.0
 47
0.0
 48
0.0
 49
0.0
140
0.0
141
0.0
142
1.0
143
1.0
 70
 11952
 72
     1
 73
     1
 74
     0
  7

 75
     0
147
1.0
148
-131.3052631578947
149
0.0
100
AcDbLayout
  1
Model
 70
     1
 71
     0
 10
0.0
 20
0.0
 11
12.0
 21
9.0
 12
0.0
 22
0.0
 32
0.0
 14
0.0
 24
0.0
 34
0.0
 15
0.0
 25
0.0
 35
0.0
146
0.0
 13
0.0
 23
0.0
 33
0.0
 16
1.0
 26
0.0
 36
0.0
 17
0.0
 27
1.0
 37
0.0
 76
     0
330
1F
  0
MLINESTYLE
  5
18
102
{ACAD_REACTORS
330
17
102
}
330
17
100
AcDbMlineStyle
  2
STANDARD
 70
     0
  3

 62
   256
 51
90.0
 52
90.0
 71
     2
 49
0.5
 62
   256
  6
BYLAYER
 49
-0.5
 62
   256
  6
BYLAYER
  0
ACDBPLACEHOLDER
  5
F
102
{ACAD_REACTORS
330
E
102
}
330
E
  0
TABLESTYLE
  5
134
102
{ACAD_REACTORS
330
133
102
}
330
133
100
AcDbTableStyle
  3
Standard
 70
     0
 71
     0
 40
1.5
 41
1.5
280
     0
281
     0
  7
STANDARD
140
4.5
170
     2
 62
     0
 63
     7
283
     0
274
    -2
284
     1
 64
     0
275
    -2
285
     1
 65
     0
276
    -2
286
     1
 66
     0
277
    -2
287
     1
 67
     0
278
    -2
288
     1
 68
     0
279
    -2
289
     1
 69
     0
  7
STANDARD
140
6.0
170
     5
 62
     0
 63
     7
283
     0
274
    -2
284
     1
 64
     0
275
    -2
285
     1
 65
     0
276
    -2
286
     1
 66
     0
277
    -2
287
     1
 67
     0
278
    -2
288
     1
 68
     0
279
    -2
289
     1
 69
     0
  7
STANDARD
140
4.5
170
     5
 62
     0
 63
     7
283
     0
274
    -2
284
     1
 64
     0
275
    -2
285
     1
 65
     0
276
    -2
286
     1
 66
     0
277
    -2
287
     1
 67
     0
278
    -2
288
     1
 68
     0
279
    -2
289
     1
 69
     0
  0
DICTIONARYVAR
  5
152
102
{ACAD_REACTORS
330
34
102
}
330
34
100
DictionaryVariables
280
     0
  1
STANDARD
  0
DICTIONARYVAR
  5
AD
102
{ACAD_REACTORS
330
34
102
}
330
34
100
DictionaryVariables
280
     0
  1
2
  0
DICTIONARYVAR
  5
35
102
{ACAD_REACTORS
330
34
102
}
330
34
100
DictionaryVariables
280
     0
  1
0
  0
DICTIONARYVAR
  5
5CB
102
{ACAD_REACTORS
330
34
102
}
330
34
100
DictionaryVariables
280
     0
  1

  0
DICTIONARY
  5
2CB
102
{ACAD_REACTORS
330
49
102
}
330
49
100
AcDbDictionary
281
     1
  0
DICTIONARY
  5
4A
102
{ACAD_REACTORS
330
49
102
}
330
49
100
AcDbDictionary
281
     1
  0
XRECORD
  5
13D
102
{ACAD_REACTORS
330
49
102
}
330
49
100
AcDbXrecord
280
     1
 90
-1023410169
  0
DICTIONARY
  5
5CF
330
1E
100
AcDbDictionary
280
     1
281
     1
  3
ACAD_XREC_ROUNDTRIP
360
5D0
  0
DICTIONARY
  5
5D3
330
26
100
AcDbDictionary
280
     1
281
     1
  3
ACAD_XREC_ROUNDTRIP
360
5D4
  0
DICTIONARY
  5
5D1
330
22
100
AcDbDictionary
280
     1
281
     1
  3
ACAD_XREC_ROUNDTRIP
360
5D2
  0
XRECORD
  5
5D0
102
{ACAD_REACTORS
330
5CF
102
}
330
5CF
100
AcDbXrecord
280
     1
102
SHADEPLOT
 70
     0
102
SHADEPLOTRESLEVEL
 70
     2
102
SHADEPLOTCUSTOMDPI
 70
   300
  0
XRECORD
  5
5D4
102
{ACAD_REACTORS
330
5D3
102
}
330
5D3
100
AcDbXrecord
280
     1
102
SHADEPLOT
 70
     0
102
SHADEPLOTRESLEVEL
 70
     2
102
SHADEPLOTCUSTOMDPI
 70
   300
  0
XRECORD
  5
5D2
102
{ACAD_REACTORS
330
5D1
102
}
330
5D1
100
AcDbXrecord
280
     1
102
SHADEPLOT
 70
     0
102
SHADEPLOTRESLEVEL
 70
     2
102
SHADEPLOTCUSTOMDPI
 70
   300
  0
ENDSEC
  0
EOF
