  0
SECTION
  2
HEADER
  9
$ACADVER
  1
AC1015
  9
$ACADMAINTVER
 70
    20
  9
$DWGCODEPAGE
  3
ANSI_1252
  9
$INSBASE
 10
0.0
 20
0.0
 30
0.0
  9
$EXTMIN
 10
25191.26322073617
 20
-30.46085625155774
 30
-0.0000000349181948
  9
$EXTMAX
 10
25534.34193451912
 20
604.6162322181694
 30
0.0000000814935747
  9
$LIMMIN
 10
0.0
 20
0.0
  9
$LIMMAX
 10
420.0
 20
297.0
  9
$ORTHOMODE
 70
     0
  9
$REGENMODE
 70
     1
  9
$FILLMODE
 70
     1
  9
$QTEXTMODE
 70
     0
  9
$MIRRTEXT
 70
     0
  9
$LTSCALE
 40
8.0
  9
$ATTMODE
 70
     1
  9
$TEXTSIZE
 40
2.5
  9
$TRACEWID
 40
1.0
  9
$TEXTSTYLE
  7
STANDARD
  9
$CLAYER
  8
0
  9
$CELTYPE
  6
ByLayer
  9
$CECOLOR
 62
   256
  9
$CELTSCALE
 40
1.0
  9
$DISPSILH
 70
     0
  9
$DIMSCALE
 40
1.0
  9
$DIMASZ
 40
65.0
  9
$DIMEXO
 40
1.0
  9
$DIMDLI
 40
10.0
  9
$DIMRND
 40
0.0
  9
$DIMDLE
 40
0.0
  9
$DIMEXE
 40
25.0
  9
$DIMTP
 40
0.1
  9
$DIMTM
 40
0.1
  9
$DIMTXT
 40
50.0
  9
$DIMCEN
 40
0.0
  9
$DIMTSZ
 40
0.0
  9
$DIMTOL
 70
     0
  9
$DIMLIM
 70
     0
  9
$DIMTIH
 70
     0
  9
$DIMTOH
 70
     0
  9
$DIMSE1
 70
     0
  9
$DIMSE2
 70
     0
  9
$DIMTAD
 70
     1
  9
$DIMZIN
 70
     8
  9
$DIMBLK
  1

  9
$DIMASO
 70
     1
  9
$DIMSHO
 70
     1
  9
$DIMPOST
  1

  9
$DIMAPOST
  1
"
  9
$DIMALT
 70
     0
  9
$DIMALTD
 70
     2
  9
$DIMALTF
 40
0.0393701
  9
$DIMLFAC
 40
1.0
  9
$DIMTOFL
 70
     1
  9
$DIMTVP
 40
0.0
  9
$DIMTIX
 70
     0
  9
$DIMSOXD
 70
     0
  9
$DIMSAH
 70
     0
  9
$DIMBLK1
  1

  9
$DIMBLK2
  1

  9
$DIMSTYLE
  2
AM_DIN
  9
$DIMCLRD
 70
   256
  9
$DIMCLRE
 70
   256
  9
$DIMCLRT
 70
     2
  9
$DIMTFAC
 40
0.71
  9
$DIMGAP
 40
15.0
  9
$DIMJUST
 70
     0
  9
$DIMSD1
 70
     0
  9
$DIMSD2
 70
     0
  9
$DIMTOLJ
 70
     0
  9
$DIMTZIN
 70
     8
  9
$DIMALTZ
 70
     0
  9
$DIMALTTZ
 70
     0
  9
$DIMUPT
 70
     0
  9
$DIMDEC
 70
     0
  9
$DIMTDEC
 70
     0
  9
$DIMALTU
 70
     2
  9
$DIMALTTD
 70
     2
  9
$DIMTXSTY
  7
STANDARD
  9
$DIMAUNIT
 70
     0
  9
$DIMADEC
 70
     0
  9
$DIMALTRND
 40
0.0
  9
$DIMAZIN
 70
     2
  9
$DIMDSEP
 70
    46
  9
$DIMATFIT
 70
     3
  9
$DIMFRAC
 70
     0
  9
$DIMLDRBLK
  1

  9
$DIMLUNIT
 70
     2
  9
$DIMLWD
 70
    -1
  9
$DIMLWE
 70
    -1
  9
$DIMTMOVE
 70
     0
  9
$LUNITS
 70
     2
  9
$LUPREC
 70
     2
  9
$SKETCHINC
 40
1.0
  9
$FILLETRAD
 40
2.5
  9
$AUNITS
 70
     0
  9
$AUPREC
 70
     0
  9
$MENU
  1
.
  9
$ELEVATION
 40
0.0
  9
$PELEVATION
 40
0.0
  9
$THICKNESS
 40
0.0
  9
$LIMCHECK
 70
     0
  9
$CHAMFERA
 40
2.5
  9
$CHAMFERB
 40
2.5
  9
$CHAMFERC
 40
20.0
  9
$CHAMFERD
 40
0.0
  9
$SKPOLY
 70
     0
  9
$TDCREATE
 40
2454167.376978160
  9
$TDUCREATE
 40
2454167.335311493
  9
$TDUPDATE
 40
2455136.612772523
  9
$TDUUPDATE
 40
2455136.571105857
  9
$TDINDWG
 40
0.8446479514
  9
$TDUSRTIMER
 40
0.8444878009
  9
$USRTIMER
 70
     1
  9
$ANGBASE
 50
0.0
  9
$ANGDIR
 70
     0
  9
$PDMODE
 70
     0
  9
$PDSIZE
 40
0.0
  9
$PLINEWID
 40
0.0
  9
$SPLFRAME
 70
     0
  9
$SPLINETYPE
 70
     6
  9
$SPLINESEGS
 70
     8
  9
$HANDSEED
  5
1C2A5
  9
$SURFTAB1
 70
     6
  9
$SURFTAB2
 70
     6
  9
$SURFTYPE
 70
     6
  9
$SURFU
 70
     6
  9
$SURFV
 70
     6
  9
$UCSBASE
  2

  9
$UCSNAME
  2

  9
$UCSORG
 10
0.0
 20
0.0
 30
0.0
  9
$UCSXDIR
 10
1.0
 20
0.0
 30
0.0
  9
$UCSYDIR
 10
0.0
 20
1.0
 30
0.0
  9
$UCSORTHOREF
  2

  9
$UCSORTHOVIEW
 70
     0
  9
$UCSORGTOP
 10
0.0
 20
0.0
 30
0.0
  9
$UCSORGBOTTOM
 10
0.0
 20
0.0
 30
0.0
  9
$UCSORGLEFT
 10
0.0
 20
0.0
 30
0.0
  9
$UCSORGRIGHT
 10
0.0
 20
0.0
 30
0.0
  9
$UCSORGFRONT
 10
0.0
 20
0.0
 30
0.0
  9
$UCSORGBACK
 10
0.0
 20
0.0
 30
0.0
  9
$PUCSBASE
  2

  9
$PUCSNAME
  2

  9
$PUCSORG
 10
0.0
 20
0.0
 30
0.0
  9
$PUCSXDIR
 10
1.0
 20
0.0
 30
0.0
  9
$PUCSYDIR
 10
0.0
 20
1.0
 30
0.0
  9
$PUCSORTHOREF
  2

  9
$PUCSORTHOVIEW
 70
     0
  9
$PUCSORGTOP
 10
0.0
 20
0.0
 30
0.0
  9
$PUCSORGBOTTOM
 10
0.0
 20
0.0
 30
0.0
  9
$PUCSORGLEFT
 10
0.0
 20
0.0
 30
0.0
  9
$PUCSORGRIGHT
 10
0.0
 20
0.0
 30
0.0
  9
$PUCSORGFRONT
 10
0.0
 20
0.0
 30
0.0
  9
$PUCSORGBACK
 10
0.0
 20
0.0
 30
0.0
  9
$USERI1
 70
     0
  9
$USERI2
 70
     0
  9
$USERI3
 70
     0
  9
$USERI4
 70
     0
  9
$USERI5
 70
     0
  9
$USERR1
 40
0.0
  9
$USERR2
 40
0.0
  9
$USERR3
 40
0.0
  9
$USERR4
 40
0.0
  9
$USERR5
 40
0.0
  9
$WORLDVIEW
 70
     1
  9
$SHADEDGE
 70
     3
  9
$SHADEDIF
 70
    70
  9
$TILEMODE
 70
     1
  9
$MAXACTVP
 70
    64
  9
$PINSBASE
 10
0.0
 20
0.0
 30
0.0
  9
$PLIMCHECK
 70
     0
  9
$PEXTMIN
 10
1.000000000000000E+20
 20
1.000000000000000E+20
 30
1.000000000000000E+20
  9
$PEXTMAX
 10
-1.000000000000000E+20
 20
-1.000000000000000E+20
 30
-1.000000000000000E+20
  9
$PLIMMIN
 10
0.0
 20
0.0
  9
$PLIMMAX
 10
420.0
 20
297.0
  9
$UNITMODE
 70
     0
  9
$VISRETAIN
 70
     1
  9
$PLINEGEN
 70
     0
  9
$PSLTSCALE
 70
     1
  9
$TREEDEPTH
 70
  3020
  9
$CMLSTYLE
  2
Standard
  9
$CMLJUST
 70
     0
  9
$CMLSCALE
 40
20.0
  9
$PROXYGRAPHICS
 70
     1
  9
$MEASUREMENT
 70
     1
  9
$CELWEIGHT
370
    -1
  9
$ENDCAPS
280
     0
  9
$JOINSTYLE
280
     0
  9
$LWDISPLAY
290
     0
  9
$INSUNITS
 70
     4
  9
$HYPERLINKBASE
  1

  9
$STYLESHEET
  1
MONOCHROME UW.CTB
  9
$XEDIT
290
     1
  9
$CEPSNTYPE
380
     0
  9
$PSTYLEMODE
290
     1
  9
$FINGERPRINTGUID
  2
{1344C3A2-CD10-4B1D-A761-DD320F23370E}
  9
$VERSIONGUID
  2
{55C23249-15E6-49A3-B72C-5FFF1FC4A55E}
  9
$EXTNAMES
290
     1
  9
$PSVPSCALE
 40
0.0
  9
$OLESTARTUP
290
     0
  0
ENDSEC
  0
SECTION
  2
CLASSES
  0
CLASS
  1
ACDBDICTIONARYWDFLT
  2
AcDbDictionaryWithDefault
  3
ObjectDBX Classes
 90
        0
280
     0
281
     0
  0
CLASS
  1
ACDBPLACEHOLDER
  2
AcDbPlaceHolder
  3
ObjectDBX Classes
 90
        0
280
     0
281
     0
  0
CLASS
  1
LAYOUT
  2
AcDbLayout
  3
ObjectDBX Classes
 90
        0
280
     0
281
     0
  0
CLASS
  1
ACME_DOCUMENT
  2
AcMeDbDoc
  3
AcMeServices
 90
     1024
280
     0
281
     0
  0
CLASS
  1
AMGSETTINGSOBJ
  2
AmgSettingsObj
  3
"AcadM|Product Description: AutoCAD Mechanical|Company: Autodesk, Inc."
 90
     1024
280
     0
281
     0
  0
CLASS
  1
ACMESCOPE
  2
AcMeScope
  3
AcMeServices
 90
     1024
280
     0
281
     0
  0
CLASS
  1
ACMECOMMANDHISTORY
  2
AcMeCommandHistory
  3
AcMeServices
 90
     1024
280
     0
281
     0
  0
CLASS
  1
ACIMSYSVARMAN
  2
AcImSysVarManager
  3
AcMeServices
 90
     1024
280
     0
281
     0
  0
CLASS
  1
ACIMREALSYSVAR
  2
AcImRealSysVar
  3
AcMeServices
 90
     1024
280
     0
281
     0
  0
CLASS
  1
ACIMINTSYSVAR
  2
AcImIntSysVar
  3
AcMeServices
 90
     1024
280
     0
281
     0
  0
CLASS
  1
ACMEDRAWINGMAN
  2
AcMeDrawingMan
  3
AcMeServices
 90
     1024
280
     0
281
     0
  0
CLASS
  1
ACMEVIEW
  2
AcMeView
  3
AcMeServices
 90
     1024
280
     0
281
     0
  0
CLASS
  1
ACDBENTITYCACHE
  2
AcMeEntityCache
  3
AcMeServices
 90
     1024
280
     0
281
     0
  0
CLASS
  1
GSMANAGER
  2
AcMeGSManager
  3
AcMeServices
 90
    33792
280
     0
281
     0
  0
CLASS
  1
AMDTINTERNALREACTOR
  2
AmdtInternalReactor
  3
AcMeServices
 90
     1024
280
     0
281
     0
  0
CLASS
  1
ACMESTATEMGR
  2
AcMeStateMgr
  3
AcMeServices
 90
     1024
280
     0
281
     0
  0
CLASS
  1
ACGREFMASTER
  2
AcGrefMaster
  3
AcAttribServices
 90
     1024
280
     0
281
     0
  0
CLASS
  1
ACME_DATABASE
  2
AcMeDbDatabase
  3
AcMeServices
 90
     1024
280
     0
281
     0
  0
CLASS
  1
ACRFINSADJUSTERMGR
  2
AcRfInsAdjusterMgr
  3
AcMeServices
 90
     1024
280
     0
281
     0
  0
CLASS
  1
ACGREFACADMASTER
  2
AcGrefacadMaster
  3
AcGrefServices
 90
     1024
280
     0
281
     0
  0
CLASS
  1
AMIMASTER
  2
AmiMaster
  3
AmiServices
 90
     1024
280
     0
281
     0
  0
CLASS
  1
ACMDATADICTIONARY
  2
AcmDataDictionary
  3
"AcmSymBB|Product Description: AutoCAD Mechanical|Company: Autodesk, Inc."
 90
     1024
280
     0
281
     0
  0
CLASS
  1
ACMDATAENTRYBLOCK
  2
AcmDataEntryBlock
  3
AcmSymBB|Product Description: AutoCAD Mechanical|Company: Autodesk, Inc.
 90
    33792
280
     0
281
     0
  0
CLASS
  1
ACIMSTRSYSVAR
  2
AcImStrSysVar
  3
AcMeServices
 90
     1024
280
     0
281
     0
  0
CLASS
  1
ACMSTANDARDISO
  2
AcmStandardISO
  3
"Amdt_StdImp|Product Description: AutoCAD Mechanical|Company: Autodesk, Inc."
 90
    33792
280
     0
281
     0
  0
CLASS
  1
AMGOBJPROPCFG
  2
AmgObjPropCfg
  3
"AmgLay|Product Description: AutoCAD Mechanical|Company: Autodesk, Inc."
 90
     1025
280
     0
281
     0
  0
CLASS
  1
AMDTEDGESTANDARDISO
  2
AmdtEdgeStdISO
  3
"Amdt_StdImp|Product Description: AutoCAD Mechanical|Company: Autodesk, Inc."
 90
    33792
280
     0
281
     0
  0
CLASS
  1
ACMSURFSTANDARDISO
  2
AcmSurfTextStdISO
  3
"Amdt_StdImp|Product Description: AutoCAD Mechanical|Company: Autodesk, Inc."
 90
    33792
280
     0
281
     0
  0
CLASS
  1
ACMFCFSTANDARDISO
  2
AcmFCFStdISO
  3
"Amdt_StdImp|Product Description: AutoCAD Mechanical|Company: Autodesk, Inc."
 90
    33792
280
     0
281
     0
  0
CLASS
  1
ACMWELDSTANDARDISO
  2
AcmWeldingStdISO
  3
"Amdt_StdImp|Product Description: AutoCAD Mechanical|Company: Autodesk, Inc."
 90
    33792
280
     0
281
     0
  0
CLASS
  1
ACMIDSTANDARDISO
  2
AcmIdStdISO
  3
"Amdt_StdImp|Product Description: AutoCAD Mechanical|Company: Autodesk, Inc."
 90
    33792
280
     0
281
     0
  0
CLASS
  1
ACMDATUMSTANDARDISO
  2
AcmDatumStdISO
  3
"Amdt_StdImp|Product Description: AutoCAD Mechanical|Company: Autodesk, Inc."
 90
    33792
280
     0
281
     0
  0
CLASS
  1
ACMBOMSTANDARDISO
  2
AcmBOMStdISO
  3
"Amdt_StdImp|Product Description: AutoCAD Mechanical|Company: Autodesk, Inc."
 90
    33792
280
     0
281
     0
  0
CLASS
  1
ACMDETAILSTANDARDISO
  2
AmdtDetailSymStdISO
  3
"Amdt_StdImp|Product Description: AutoCAD Mechanical|Company: Autodesk, Inc."
 90
    33792
280
     0
281
     0
  0
CLASS
  1
ACMSECTIONSTANDARDISO
  2
AmdtSectionSymStdISO
  3
"Amdt_StdImp|Product Description: AutoCAD Mechanical|Company: Autodesk, Inc."
 90
    33792
280
     0
281
     0
  0
CLASS
  1
ACMCENTERLINESTANDARDISO
  2
AmdtCenterLineStdISO
  3
"Amdt_StdImp|Product Description: AutoCAD Mechanical|Company: Autodesk, Inc."
 90
    33792
280
     0
281
     0
  0
CLASS
  1
ACMNOTESTANDARDISO
  2
AmdtNoteStdISO
  3
"Amdt_StdImp|Product Description: AutoCAD Mechanical|Company: Autodesk, Inc."
 90
    33792
280
     0
281
     0
  0
CLASS
  1
ACAMGLAYSTD
  2
AcAmgLayStd
  3
"AmgLay|Product Description: AutoCAD Mechanical|Company: Autodesk, Inc."
 90
    33792
280
     0
281
     0
  0
CLASS
  1
ACAMGDIMSTD
  2
AcAmgDimStd
  3
"AmgDim|Product Description: AutoCAD Mechanical|Company: Autodesk, Inc."
 90
    33792
280
     0
281
     0
  0
CLASS
  1
ACAMGHOLECHARTSTDISO
  2
AcAmgHoleChartStdISO
  3
AmgDim|Product Description: AutoCAD Mechanical|Company: Autodesk, Inc.
 90
    33792
280
     0
281
     0
  0
CLASS
  1
ACAMGTITLESTD
  2
AcAmgTitleStd
  3
"AmgTitle|Product Description: AutoCAD Mechanical|Company: Autodesk, Inc."
 90
    36863
280
     0
281
     0
  0
CLASS
  1
LAYER_INDEX
  2
AcDbLayerIndex
  3
ObjectDBX Classes
 90
    32768
280
     0
281
     0
  0
CLASS
  1
IDBUFFER
  2
AcDbIdBuffer
  3
ObjectDBX Classes
 90
    32768
280
     0
281
     0
  0
CLASS
  1
DICTIONARYVAR
  2
AcDbDictionaryVar
  3
ObjectDBX Classes
 90
        0
280
     0
281
     0
  0
CLASS
  1
AM_DRAWING_MGR
  2
AcDmDwgMgr
  3
AcMechDwgViewMgmt
 90
     1024
280
     0
281
     0
  0
CLASS
  1
AM_DWG_DOCUMENT
  2
AcDmDwgDocument
  3
AcMechDwgViewMgmt
 90
     1024
280
     0
281
     0
  0
CLASS
  1
AM_DWG_SHEET
  2
AcDmSheet
  3
AcMechDwgViewMgmt
 90
     1024
280
     0
281
     0
  0
CLASS
  1
AM_VIEWDIMPARMAP
  2
AcDmViewDimParMap
  3
AcMechDwgViewMgmt
 90
     1024
280
     0
281
     0
  0
CLASS
  1
AM_DWGMGR_NAME
  2
AcDmDwgMgrName
  3
AcMechDwgViewMgmt
 90
     1024
280
     0
281
     0
  0
CLASS
  1
AMDTMENUSTATEMGR
  2
AmdtMenuStateMgr
  3
McadcomServices
 90
     1024
280
     0
281
     0
  0
CLASS
  1
AMDTMCOMMENUSTATE
  2
AmdtMcomMenuState
  3
McadcomServices
 90
     1024
280
     0
281
     0
  0
CLASS
  1
MAPIAMMOUDLE
  2
MApiAmModule
  3
MApiAmServices
 90
     1024
280
     0
281
     0
  0
CLASS
  1
AMDTADMENUSTATE
  2
AmdtAdMenuState
  3
DesignerServices
 90
     1024
280
     0
281
     0
  0
CLASS
  1
ADAPPL
  2
AcAdAppl
  3
DesignerServices
 90
     1024
280
     0
281
     0
  0
CLASS
  1
DEPMGR
  2
AcAdDepMgr
  3
DesignerServices
 90
     1024
280
     0
281
     0
  0
CLASS
  1
PARAMMGR
  2
AcAdParamMgr
  3
DesignerServices
 90
     1024
280
     0
281
     0
  0
CLASS
  1
PARAMSCOPE
  2
AcAdParamScope
  3
DesignerServices
 90
     1024
280
     0
281
     0
  0
CLASS
  1
NAMEDAPPL
  2
AcAdNamedAppl
  3
DesignerServices
 90
     1024
280
     0
281
     0
  0
CLASS
  1
AMDTDMMENUSTATE
  2
AmdtDmMenuState
  3
AcMechDwgViewMgmt
 90
     1024
280
     0
281
     0
  0
CLASS
  1
AMDTAMMENUSTATE
  2
AmdtAmMenuState
  3
DesignerAssemblies
 90
     1024
280
     0
281
     0
  0
CLASS
  1
ACAMPROJECT
  2
AcAmProject
  3
DesignerAssemblies
 90
     1024
280
     0
281
     0
  0
CLASS
  1
ACAMGRCOMPDEF
  2
AcAmGrCompDef
  3
DesignerAssemblies
 90
     1024
280
     0
281
     0
  0
CLASS
  1
ACCMCONTEXT
  2
AcCmContext
  3
DesignerAssemblies
 90
    33792
280
     0
281
     0
  0
CLASS
  1
ACAMCOMPDEF
  2
AcAmCompDef
  3
DesignerAssemblies
 90
     1024
280
     0
281
     0
  0
CLASS
  1
ACAMCOMPDEFMGR
  2
AcAmCompDefMgr
  3
DesignerAssemblies
 90
     1024
280
     0
281
     0
  0
CLASS
  1
AMCONTEXTMGR
  2
AcAmContextMgr
  3
DesignerAssemblies
 90
     1024
280
     0
281
     0
  0
CLASS
  1
ACAMCONTEXTMODELER
  2
AcAmContextModeler
  3
DesignerAssemblies
 90
     1024
280
     0
281
     0
  0
CLASS
  1
ACMTHREADLINESTANDARDISO
  2
AmdtThreadLineStdISO
  3
"Amdt_StdImp|Product Description: AutoCAD Mechanical|Company: Autodesk, Inc."
 90
    33792
280
     0
281
     0
  0
CLASS
  1
CATALOGSTATE
  2
AcAmCatalogState
  3
DesignerAssemblies
 90
     1024
280
     0
281
     0
  0
CLASS
  1
ACAMGRCOMPDEFSET
  2
AcAmGrCompDefSet
  3
DesignerAssemblies
 90
     1024
280
     0
281
     0
  0
CLASS
  1
AMDTBROWSERDBTAB
  2
AmdtBrowserDbTab
  3
McadcomServices
 90
     1024
280
     0
281
     0
  0
CLASS
  1
CBROWSERAPPOBJECT
  2
CBrowserAppObject
  3
McadcomServices
 90
     1024
280
     0
281
     0
  0
CLASS
  1
DM_PLACEHOLDER
  2
AcDmSelsetPlaceholder
  3
AcMechDwgViewMgmt
 90
     1024
280
     0
281
     0
  0
CLASS
  1
TABLESTYLE
  2
AcDbTableStyle
  3
ObjectDBX Classes
 90
     4095
280
     0
281
     0
  0
CLASS
  1
VAACXREFPANELOBJECT
  2
VaAcXREFPanelObject
  3
VAAC_ADDIN
 90
    32768
280
     0
281
     0
  0
CLASS
  1
VAACIMAGEINVENTORY
  2
VaAcImageInventory
  3
VAAC_ADDIN
 90
    32768
280
     0
281
     0
  0
CLASS
  1
AMDTNOTETEMPLATEDB
  2
AmdtNoteTemplateDB
  3
AcmSymBB|Product Description: AutoCAD Mechanical|Company: Autodesk, Inc.
 90
    33792
280
     0
281
     0
  0
CLASS
  1
ACAMGFILTERDAT
  2
AcAmgFilterDat
  3
"AcadM|Product Description: AutoCAD Mechanical|Company: Autodesk, Inc."
 90
    33792
280
     0
281
     0
  0
CLASS
  1
ACMBOM
  2
AcmBom
  3
"AcmSymBB|Product Description: AutoCAD Mechanical|Company: Autodesk, Inc."
 90
    33792
280
     0
281
     0
  0
CLASS
  1
AMDTFORMULAUPDATEDISPATCHER
  2
AmdtFormulaUpdateDispatcher
  3
AcMeServices
 90
    33792
280
     0
281
     0
  0
CLASS
  1
ACMSTANDARDDIN
  2
AcmStandardDIN
  3
"Amdt_StdImp|Product Description: AutoCAD Mechanical|Company: Autodesk, Inc."
 90
    33792
280
     0
281
     0
  0
CLASS
  1
AMDTEDGESTANDARDDIN13715
  2
AmdtEdgeStdDIN13715
  3
"Amdt_StdImp|Product Description: AutoCAD Mechanical|Company: Autodesk, Inc."
 90
    33792
280
     0
281
     0
  0
CLASS
  1
ACMSURFSTANDARDDIN
  2
AcmSurfTextStdDIN
  3
"Amdt_StdImp|Product Description: AutoCAD Mechanical|Company: Autodesk, Inc."
 90
    33792
280
     0
281
     0
  0
CLASS
  1
ACMFCFSTANDARDDIN
  2
AcmFCFStdDIN
  3
"Amdt_StdImp|Product Description: AutoCAD Mechanical|Company: Autodesk, Inc."
 90
    33792
280
     0
281
     0
  0
CLASS
  1
ACMWELDSTANDARDDIN
  2
AcmWeldingStdDIN
  3
"Amdt_StdImp|Product Description: AutoCAD Mechanical|Company: Autodesk, Inc."
 90
    33792
280
     0
281
     0
  0
CLASS
  1
ACMIDSTANDARDDIN
  2
AcmIdStdDIN
  3
"Amdt_StdImp|Product Description: AutoCAD Mechanical|Company: Autodesk, Inc."
 90
    33792
280
     0
281
     0
  0
CLASS
  1
ACMDATUMSTANDARDDIN
  2
AcmDatumStdDIN
  3
"Amdt_StdImp|Product Description: AutoCAD Mechanical|Company: Autodesk, Inc."
 90
    33792
280
     0
281
     0
  0
CLASS
  1
ACMBOMSTANDARDDIN
  2
AcmBOMStdDIN
  3
"Amdt_StdImp|Product Description: AutoCAD Mechanical|Company: Autodesk, Inc."
 90
    33792
280
     0
281
     0
  0
CLASS
  1
ACMDETAILSTANDARDDIN
  2
AmdtDetailSymStdDIN
  3
"Amdt_StdImp|Product Description: AutoCAD Mechanical|Company: Autodesk, Inc."
 90
    33792
280
     0
281
     0
  0
CLASS
  1
ACMSECTIONSTANDARDDIN
  2
AmdtSectionSymStdDIN
  3
"Amdt_StdImp|Product Description: AutoCAD Mechanical|Company: Autodesk, Inc."
 90
    33792
280
     0
281
     0
  0
CLASS
  1
ACMCENTERLINESTANDARDDIN
  2
AmdtCenterLineStdDIN
  3
"Amdt_StdImp|Product Description: AutoCAD Mechanical|Company: Autodesk, Inc."
 90
    33792
280
     0
281
     0
  0
CLASS
  1
ACMTHREADLINESTANDARDDIN
  2
AmdtThreadLineStdDIN
  3
"Amdt_StdImp|Product Description: AutoCAD Mechanical|Company: Autodesk, Inc."
 90
    33792
280
     0
281
     0
  0
CLASS
  1
ACMNOTESTANDARDDIN
  2
AmdtNoteStdDIN
  3
"Amdt_StdImp|Product Description: AutoCAD Mechanical|Company: Autodesk, Inc."
 90
    33792
280
     0
281
     0
  0
CLASS
  1
ACAMGHOLECHARTSTDDIN
  2
AcAmgHoleChartStdDIN
  3
AmgDim|Product Description: AutoCAD Mechanical|Company: Autodesk, Inc.
 90
    33792
280
     0
281
     0
  0
CLASS
  1
ACRFATTGENMGR
  2
AcRfAttGeneralMgr
  3
AcAttribServices
 90
    33792
280
     0
281
     0
  0
CLASS
  1
SORTENTSTABLE
  2
AcDbSortentsTable
  3
ObjectDBX Classes
 90
        0
280
     0
281
     0
  0
CLASS
  1
DIMASSOC
  2
AcDbDimAssoc
  3
"AcDbDimAssoc|Product Desc:     AcDim ARX App For Dimension|Company:          Autodesk, Inc.|WEB Address:      www.autodesk.com"
 90
        0
280
     0
281
     0
  0
CLASS
  1
AC_AM_MVD_DEP_MGR
  2
AcAmMVDdepMgr
  3
DesignerAssemblies
 90
    33792
280
     0
281
     0
  0
CLASS
  1
AC_AM_MASTER_VIEW_DEF
  2
AcAmMasterViewDef
  3
DesignerAssemblies
 90
    33792
280
     0
281
     0
  0
CLASS
  1
AC_AM_DIRTY_NODES
  2
AcAmDirtyNodes
  3
DesignerAssemblies
 90
    33792
280
     0
281
     0
  0
CLASS
  1
AC_AM_MAPPER_CACHE
  2
AcAmMapperCache
  3
DesignerAssemblies
 90
    33792
280
     0
281
     0
  0
CLASS
  1
ACAMMVDBACKUPOBJECT
  2
AcAmMVDBackupObject
  3
DesignerAssemblies
 90
    33792
280
     0
281
     0
  0
CLASS
  1
AC_AM_2D_XREF_MGR
  2
AcAmXrefMgr2d
  3
DesignerAssemblies
 90
    33792
280
     0
281
     0
  0
CLASS
  1
AC_AM_HIDE_SITUATION
  2
AcAmHideSituation
  3
DesignerAssemblies
 90
    33792
280
     0
281
     0
  0
CLASS
  1
ACAMWBLOCKTEMPENTS
  2
AcAmStructInOutTempObjsHolder
  3
DesignerAssemblies
 90
    33792
280
     0
281
     0
  0
CLASS
  1
STDPART2D
  2
AmgStdPart
  3
AmgStdPart|Product Description: AutoCAD Mechanical|Company: Autodesk, Inc.
 90
    36863
280
     0
281
     1
  0
CLASS
  1
ACMDATAENTRYPART
  2
AcmDataEntryPart
  3
AcmSymBB|Product Description: AutoCAD Mechanical|Company: Autodesk, Inc.
 90
    33792
280
     0
281
     0
  0
CLASS
  1
ACMPARTREF
  2
AcmPartRef
  3
"AcmSymBB|Product Description: AutoCAD Mechanical|Company: Autodesk, Inc."
 90
    36863
280
     0
281
     1
  0
CLASS
  1
ACDBSTDPARTRES_LINE
  2
AcDbStdPartRes_Line
  3
AmgStdPart|Product Description: AutoCAD Mechanical|Company: Autodesk, Inc.
 90
    33792
280
     0
281
     0
  0
CLASS
  1
ACAD_EVALUATION_GRAPH
  2
AcDbEvalGraph
  3
ObjectDBX Classes
 90
    33921
280
     0
281
     0
  0
CLASS
  1
ACAECUSTOBJ
  2
AcAeEditorObj
  3
AcAeEditorObj
 90
    33792
280
     0
281
     0
  0
CLASS
  1
ACDB_DYNAMICBLOCKPURGEPREVENTER_VERSION
  2
AcDbDynamicBlockPurgePreventer
  3
ObjectDBX Classes
 90
    33921
280
     0
281
     0
  0
CLASS
  1
MATERIAL
  2
AcDbMaterial
  3
ObjectDBX Classes
 90
     1153
280
     0
281
     0
  0
CLASS
  1
VISUALSTYLE
  2
AcDbVisualStyle
  3
ObjectDBX Classes
 90
     4095
280
     0
281
     0
  0
CLASS
  1
SCALE
  2
AcDbScale
  3
ObjectDBX Classes
 90
     1153
280
     0
281
     0
  0
CLASS
  1
MLEADERSTYLE
  2
AcDbMLeaderStyle
  3
ACDB_MLEADERSTYLE_CLASS
 90
     4095
280
     0
281
     0
  0
CLASS
  1
ACMTAPERSTANDARDDIN
  2
AcmTaperStdDIN
  3
"Amdt_StdImp|Product Description: AutoCAD Mechanical|Company: Autodesk, Inc."
 90
    33792
280
     0
281
     0
  0
CLASS
  1
ACMANOOTATIONVIEWSTANDARDDIN
  2
AmdtAnViewStdDIN
  3
"Amdt_StdImp|Product Description: AutoCAD Mechanical|Company: Autodesk, Inc."
 90
    33792
280
     0
281
     0
  0
CLASS
  1
CAMSSTRUCTBTNSTATE
  2
StructBtnState
  3
DesignerAssemblies
 90
    33792
280
     0
281
     0
  0
CLASS
  1
CELLSTYLEMAP
  2
AcDbCellStyleMap
  3
ObjectDBX Classes
 90
     1152
280
     0
281
     0
  0
CLASS
  1
ACMSTANDARDANSI
  2
AcmStandardANSI
  3
"Amdt_StdImp|Product Description: AutoCAD Mechanical|Company: Autodesk, Inc."
 90
    33792
280
     0
281
     0
  0
CLASS
  1
ACMSURFSTANDARDANSI
  2
AcmSurfTextStdANSI
  3
"Amdt_StdImp|Product Description: AutoCAD Mechanical|Company: Autodesk, Inc."
 90
    33792
280
     0
281
     0
  0
CLASS
  1
ACMFCFSTANDARDANSI
  2
AcmFCFStdANSI
  3
"Amdt_StdImp|Product Description: AutoCAD Mechanical|Company: Autodesk, Inc."
 90
    33792
280
     0
281
     0
  0
CLASS
  1
ACMWELDSTANDARDANSI
  2
AcmWeldingStdANSI
  3
"Amdt_StdImp|Product Description: AutoCAD Mechanical|Company: Autodesk, Inc."
 90
    33792
280
     0
281
     0
  0
CLASS
  1
ACMIDSTANDARDANSI
  2
AcmIdStdANSI
  3
"Amdt_StdImp|Product Description: AutoCAD Mechanical|Company: Autodesk, Inc."
 90
    33792
280
     0
281
     0
  0
CLASS
  1
ACMDATUMSTANDARDANSI
  2
AcmDatumStdANSI
  3
"Amdt_StdImp|Product Description: AutoCAD Mechanical|Company: Autodesk, Inc."
 90
    33792
280
     0
281
     0
  0
CLASS
  1
ACMBOMSTANDARDANSI
  2
AcmBOMStdANSI
  3
"Amdt_StdImp|Product Description: AutoCAD Mechanical|Company: Autodesk, Inc."
 90
    33792
280
     0
281
     0
  0
CLASS
  1
ACMDETAILSTANDARDANSI
  2
AmdtDetailSymStdANSI
  3
"Amdt_StdImp|Product Description: AutoCAD Mechanical|Company: Autodesk, Inc."
 90
    33792
280
     0
281
     0
  0
CLASS
  1
ACMSECTIONSTANDARDANSI
  2
AmdtSectionSymStdANSI
  3
"Amdt_StdImp|Product Description: AutoCAD Mechanical|Company: Autodesk, Inc."
 90
    33792
280
     0
281
     0
  0
CLASS
  1
ACMCENTERLINESTANDARDANSI
  2
AmdtCenterLineStdANSI
  3
"Amdt_StdImp|Product Description: AutoCAD Mechanical|Company: Autodesk, Inc."
 90
    33792
280
     0
281
     0
  0
CLASS
  1
ACMTHREADLINESTANDARDANSI
  2
AmdtThreadLineStdANSI
  3
"Amdt_StdImp|Product Description: AutoCAD Mechanical|Company: Autodesk, Inc."
 90
    33792
280
     0
281
     0
  0
CLASS
  1
ACMNOTESTANDARDANSI
  2
AmdtNoteStdANSI
  3
"Amdt_StdImp|Product Description: AutoCAD Mechanical|Company: Autodesk, Inc."
 90
    33792
280
     0
281
     0
  0
CLASS
  1
ACMTAPERSTANDARDANSI
  2
AcmTaperStdANSI
  3
"Amdt_StdImp|Product Description: AutoCAD Mechanical|Company: Autodesk, Inc."
 90
    33792
280
     0
281
     0
  0
CLASS
  1
ACMANOOTATIONVIEWSTANDARDANSI
  2
AmdtAnViewStdANSI
  3
"Amdt_StdImp|Product Description: AutoCAD Mechanical|Company: Autodesk, Inc."
 90
    33792
280
     0
281
     0
  0
CLASS
  1
ACAMGHOLECHARTSTDANSI
  2
AcAmgHoleChartStdANSI
  3
AmgDim|Product Description: AutoCAD Mechanical|Company: Autodesk, Inc.
 90
    33792
280
     0
281
     0
  0
ENDSEC
  0
SECTION
  2
TABLES
  0
TABLE
  2
VPORT
  5
8
330
0
100
AcDbSymbolTable
 70
     1
  0
VPORT
  5
1ADF3
330
8
100
AcDbSymbolTableRecord
100
AcDbViewportTableRecord
  2
*Active
 70
     0
 10
0.0
 20
0.0
 11
1.0
 21
1.0
 12
25362.80257762765
 22
287.0776879833059
 13
0.0
 23
0.0
 14
2.5
 24
2.5
 15
10.0
 25
10.0
 16
0.0
 26
0.0
 36
1.0
 17
0.0
 27
0.0
 37
0.0
 40
639.6569713192684
 41
1.513838748495788
 42
50.0
 43
0.0
 44
0.0
 50
0.0
 51
0.0
 71
     0
 72
   100
 73
     1
 74
     3
 75
     0
 76
     0
 77
     0
 78
     0
281
     0
 65
     0
110
0.0
120
0.0
130
0.0
111
1.0
121
0.0
131
0.0
112
0.0
122
1.0
132
0.0
 79
     0
146
0.0
  0
ENDTAB
  0
TABLE
  2
LTYPE
  5
5
330
0
100
AcDbSymbolTable
 70
    24
  0
LTYPE
  5
14
330
5
100
AcDbSymbolTableRecord
100
AcDbLinetypeTableRecord
  2
ByBlock
 70
     0
  3

 72
    65
 73
     0
 40
0.0
  0
LTYPE
  5
15
330
5
100
AcDbSymbolTableRecord
100
AcDbLinetypeTableRecord
  2
ByLayer
 70
     0
  3

 72
    65
 73
     0
 40
0.0
  0
LTYPE
  5
16
330
5
100
AcDbSymbolTableRecord
100
AcDbLinetypeTableRecord
  2
Continuous
 70
     0
  3
Solid line
 72
    65
 73
     0
 40
0.0
  0
LTYPE
  5
67
330
5
100
AcDbSymbolTableRecord
100
AcDbLinetypeTableRecord
  2
Amconstr
 70
     0
  3
_______________________
 72
    65
 73
     2
 40
9999.0
 49
9999.0
 74
     0
 49
0.0
 74
     0
  0
LTYPE
  5
6C
330
5
100
AcDbSymbolTableRecord
100
AcDbLinetypeTableRecord
  2
Amzigzag
 70
     0
  3
/\/-/\/-/\/-/\/-/\/-/\/
 72
    65
 73
     2
 40
11.0001
 49
0.0001
 74
     4
 75
   136
340
22C
 46
0.04
 50
0.0
 44
0.0
 45
0.0
 49
-11.0
 74
     0
  0
LTYPE
  5
7E
330
5
100
AcDbSymbolTableRecord
100
AcDbLinetypeTableRecord
  2
CENTER
 70
     0
  3
__ . __
 72
    65
 73
     4
 40
7.0
 49
4.0
 74
     0
 49
-1.0
 74
     0
 49
1.0
 74
     0
 49
-1.0
 74
     0
  0
LTYPE
  5
D8
330
5
100
AcDbSymbolTableRecord
100
AcDbLinetypeTableRecord
  2
HIDDEN
 70
     0
  3
Hidden __ __ __ __ __ __ __ __ __ __ __ __ __ _
 72
    65
 73
     2
 40
9.524999999999996
 49
6.349999999999997
 74
     0
 49
-3.174999999999998
 74
     0
  0
LTYPE
  5
D9
330
5
100
AcDbSymbolTableRecord
100
AcDbLinetypeTableRecord
  2
PHANTOM2
 70
     0
  3
Phantom (.5x) ___ _ _ ___ _ _ ___ _ _ ___ _ _
 72
    65
 73
     6
 40
31.75
 49
15.875
 74
     0
 49
-3.174999999999998
 74
     0
 49
3.174999999999998
 74
     0
 49
-3.174999999999998
 74
     0
 49
3.174999999999998
 74
     0
 49
-3.174999999999998
 74
     0
  0
LTYPE
  5
1C213
330
5
100
AcDbSymbolTableRecord
100
AcDbLinetypeTableRecord
  2
AM_ISO02W050
 70
     0
  3
__ __ __ __ __ __ __ __ __ __ __ __ __ __ __
 72
    65
 73
     2
 40
7.5
 49
6.0
 74
     0
 49
-1.5
 74
     0
  0
LTYPE
  5
1C214
330
5
100
AcDbSymbolTableRecord
100
AcDbLinetypeTableRecord
  2
AM_ISO08W050
 70
     0
  3
____ . ____ . ____ . ____ . ____ . ____ . ____
 72
    65
 73
     4
 40
18.0
 49
12.0
 74
     0
 49
-1.5
 74
     0
 49
3.0
 74
     0
 49
-1.5
 74
     0
  0
LTYPE
  5
1C215
330
5
100
AcDbSymbolTableRecord
100
AcDbLinetypeTableRecord
  2
AM_ISO09W050
 70
     0
  3
_____ . . _____ . . _____ . . ____ .. ____
 72
    65
 73
     6
 40
22.5
 49
12.0
 74
     0
 49
-1.5
 74
     0
 49
3.0
 74
     0
 49
-1.5
 74
     0
 49
3.0
 74
     0
 49
-1.5
 74
     0
  0
LTYPE
  5
1C216
330
5
100
AcDbSymbolTableRecord
100
AcDbLinetypeTableRecord
  2
AM_ISO08W050x2
 70
     0
  3
__ . __ . __ . __ . __ . __
 72
    65
 73
     4
 40
9.0
 49
6.0
 74
     0
 49
-0.75
 74
     0
 49
1.5
 74
     0
 49
-0.75
 74
     0
  0
LTYPE
  5
1C217
330
5
100
AcDbSymbolTableRecord
100
AcDbLinetypeTableRecord
  2
AM_ISO02W050x2
 70
     0
  3
 _ _ _ _ _ _ _ _ _ _ _ _
 72
    65
 73
     2
 40
3.75
 49
3.0
 74
     0
 49
-0.75
 74
     0
  0
ENDTAB
  0
TABLE
  2
LAYER
  5
2
102
{ACAD_XDICTIONARY
360
5E1
102
}
330
0
100
AcDbSymbolTable
 70
     7
  0
LAYER
  5
10
102
{ACAD_XDICTIONARY
360
1B268
102
}
330
2
100
AcDbSymbolTableRecord
100
AcDbLayerTableRecord
  2
0
 70
     0
 62
     7
  6
Continuous
370
    -3
390
F
  0
LAYER
  5
1080A
102
{ACAD_XDICTIONARY
360
1B26A
102
}
330
2
100
AcDbSymbolTableRecord
100
AcDbLayerTableRecord
  2
AM_5
 70
     0
 62
     3
  6
Continuous
370
    25
390
F
1001
AcAecLayerStandard
1000

1000

  0
LAYER
  5
1081A
330
2
100
AcDbSymbolTableRecord
100
AcDbLayerTableRecord
  2
Defpoints
 70
     0
 62
     7
  6
Continuous
290
     0
370
    -3
390
F
  0
LAYER
  5
1A2FD
102
{ACAD_XDICTIONARY
360
1B26C
102
}
330
2
100
AcDbSymbolTableRecord
100
AcDbLayerTableRecord
  2
AM_0
 70
     0
 62
     7
  6
Continuous
370
    50
390
F
1001
AcAecLayerStandard
1000

1000

  0
LAYER
  5
1A820
102
{ACAD_XDICTIONARY
360
1B26E
102
}
330
2
100
AcDbSymbolTableRecord
100
AcDbLayerTableRecord
  2
AM_4
 70
     0
 62
     3
  6
Continuous
370
    25
390
F
1001
AcAecLayerStandard
1000

1000

  0
ENDTAB
  0
TABLE
  2
STYLE
  5
3
330
0
100
AcDbSymbolTable
 70
     5
  0
STYLE
  5
11
330
3
100
AcDbSymbolTableRecord
100
AcDbTextStyleTableRecord
  2
STANDARD
 70
     0
 40
0.0
 41
1.0
 50
0.0
 71
     0
 42
2.5
  3
ARIAL.TTF
  4

1001
ACAD
1000
Arial
1071
       34
  0
STYLE
  5
22C
330
3
100
AcDbSymbolTableRecord
100
AcDbTextStyleTableRecord
  2

 70
     1
 40
0.0
 41
1.0
 50
0.0
 71
     0
 42
2.5
  3
genltshp.shx
  4

  0
ENDTAB
  0
TABLE
  2
VIEW
  5
6
330
0
100
AcDbSymbolTable
 70
     0
  0
ENDTAB
  0
TABLE
  2
UCS
  5
7
330
0
100
AcDbSymbolTable
 70
     0
  0
ENDTAB
  0
TABLE
  2
APPID
  5
9
330
0
100
AcDbSymbolTable
 70
    76
  0
APPID
  5
12
330
9
100
AcDbSymbolTableRecord
100
AcDbRegAppTableRecord
  2
ACAD
 70
     0
  0
APPID
  5
46
330
9
100
AcDbSymbolTableRecord
100
AcDbRegAppTableRecord
  2
MCAD_NO_VIS
 70
     0
  0
APPID
  5
47
330
9
100
AcDbSymbolTableRecord
100
AcDbRegAppTableRecord
  2
ACAD_TEMP_GRAPHIC
 70
     0
  0
APPID
  5
58
330
9
100
AcDbSymbolTableRecord
100
AcDbRegAppTableRecord
  2
ACATTRIBSERVICES
 70
     0
  0
APPID
  5
EE
330
9
100
AcDbSymbolTableRecord
100
AcDbRegAppTableRecord
  2
AD_DRAW
 70
     0
  0
APPID
  5
10C
330
9
100
AcDbSymbolTableRecord
100
AcDbRegAppTableRecord
  2
DESIGNERASSEMBLIES
 70
     0
  0
APPID
  5
111
330
9
100
AcDbSymbolTableRecord
100
AcDbRegAppTableRecord
  2
ACADM_DIM_EDIT
 70
     0
  0
APPID
  5
112
330
9
100
AcDbSymbolTableRecord
100
AcDbRegAppTableRecord
  2
AMDT_DM_ADJ
 70
     0
  0
APPID
  5
1A3
330
9
100
AcDbSymbolTableRecord
100
AcDbRegAppTableRecord
  2
ACAD_DSTYLE_DIMARC_LENGTH_SYMBOL
 70
     0
  0
APPID
  5
1A4
330
9
100
AcDbSymbolTableRecord
100
AcDbRegAppTableRecord
  2
ACAD_DSTYLE_DIMJOGGED_JOGANGLE_SYMBOL
 70
     0
  0
APPID
  5
5D4
330
9
100
AcDbSymbolTableRecord
100
AcDbRegAppTableRecord
  2
ACAD_PSEXT
 70
     0
  0
APPID
  5
5D5
330
9
100
AcDbSymbolTableRecord
100
AcDbRegAppTableRecord
  2
GENIUS_GENOENT_13
 70
     0
  0
APPID
  5
5D6
330
9
100
AcDbSymbolTableRecord
100
AcDbRegAppTableRecord
  2
GENIUS_VERSION2
 70
     0
  0
APPID
  5
5D7
330
9
100
AcDbSymbolTableRecord
100
AcDbRegAppTableRecord
  2
GENIUS_GENREC_14
 70
     0
  0
APPID
  5
5D8
330
9
100
AcDbSymbolTableRecord
100
AcDbRegAppTableRecord
  2
GENIUS_GENODEF_13
 70
     0
  0
APPID
  5
5D9
330
9
100
AcDbSymbolTableRecord
100
AcDbRegAppTableRecord
  2
GENIUS_GENOBJ-N-REC_13
 70
     0
  0
APPID
  5
5DA
330
9
100
AcDbSymbolTableRecord
100
AcDbRegAppTableRecord
  2
GENIUS_GENTRA_14
 70
     0
  0
APPID
  5
5DB
330
9
100
AcDbSymbolTableRecord
100
AcDbRegAppTableRecord
  2
GENIUS_GENOBJ-N-TIT_13
 70
     0
  0
APPID
  5
5DC
330
9
100
AcDbSymbolTableRecord
100
AcDbRegAppTableRecord
  2
GENIUS_GENTITLE_13
 70
     0
  0
APPID
  5
5DD
330
9
100
AcDbSymbolTableRecord
100
AcDbRegAppTableRecord
  2
GENIUS_GENOREF_13
 70
     0
  0
APPID
  5
5DE
330
9
100
AcDbSymbolTableRecord
100
AcDbRegAppTableRecord
  2
GENIUS_GENOLIS_13
 70
     0
  0
APPID
  5
5DF
330
9
100
AcDbSymbolTableRecord
100
AcDbRegAppTableRecord
  2
GENIUS_GENOBJ-N-SDF_13
 70
     0
  0
APPID
  5
5E0
330
9
100
AcDbSymbolTableRecord
100
AcDbRegAppTableRecord
  2
GENIUS_GENSCREG_15
 70
     0
  0
APPID
  5
2FBB
330
9
100
AcDbSymbolTableRecord
100
AcDbRegAppTableRecord
  2
GENIUS_GENOBJ-N-CRS_13
 70
     0
  0
APPID
  5
2FBC
330
9
100
AcDbSymbolTableRecord
100
AcDbRegAppTableRecord
  2
GENIUS_GENOBJ-N-CEN_13
 70
     0
  0
APPID
  5
2FBD
330
9
100
AcDbSymbolTableRecord
100
AcDbRegAppTableRecord
  2
GENIUS_GENOBJ-N-HTC_13
 70
     0
  0
APPID
  5
2FBE
330
9
100
AcDbSymbolTableRecord
100
AcDbRegAppTableRecord
  2
GENIUS_GENHATCH_13
 70
     0
  0
APPID
  5
2FBF
330
9
100
AcDbSymbolTableRecord
100
AcDbRegAppTableRecord
  2
GENIUS_GENBH_13
 70
     0
  0
APPID
  5
2FC0
330
9
100
AcDbSymbolTableRecord
100
AcDbRegAppTableRecord
  2
GENIUS_GENOBJ-NBEHI-BHF_13
 70
     0
  0
APPID
  5
2FC1
330
9
100
AcDbSymbolTableRecord
100
AcDbRegAppTableRecord
  2
GENIUS_GENOBJ-F-PART_13
 70
     0
  0
APPID
  5
2FC2
330
9
100
AcDbSymbolTableRecord
100
AcDbRegAppTableRecord
  2
GENIUS_GEFSTDP_13
 70
     0
  0
APPID
  5
2FC3
330
9
100
AcDbSymbolTableRecord
100
AcDbRegAppTableRecord
  2
GEVPT
 70
     0
  0
APPID
  5
2FC4
330
9
100
AcDbSymbolTableRecord
100
AcDbRegAppTableRecord
  2
GEVIT
 70
     0
  0
APPID
  5
2FC5
330
9
100
AcDbSymbolTableRecord
100
AcDbRegAppTableRecord
  2
VCC
 70
     0
  0
APPID
  5
2FC6
330
9
100
AcDbSymbolTableRecord
100
AcDbRegAppTableRecord
  2
GENBH
 70
     0
  0
APPID
  5
2FC7
330
9
100
AcDbSymbolTableRecord
100
AcDbRegAppTableRecord
  2
GEVMK
 70
     0
  0
APPID
  5
2FC8
330
9
100
AcDbSymbolTableRecord
100
AcDbRegAppTableRecord
  2
GENIUS_GEFPARTINS_13
 70
     0
  0
APPID
  5
2FC9
330
9
100
AcDbSymbolTableRecord
100
AcDbRegAppTableRecord
  2
GENIUS_GENOBJ-N-CRC_13
 70
     0
  0
APPID
  5
2FCA
330
9
100
AcDbSymbolTableRecord
100
AcDbRegAppTableRecord
  2
GENIUS_GENCRC_14
 70
     0
  0
APPID
  5
2FCB
330
9
100
AcDbSymbolTableRecord
100
AcDbRegAppTableRecord
  2
GEVID978597865
 70
     0
  0
APPID
  5
2FCC
330
9
100
AcDbSymbolTableRecord
100
AcDbRegAppTableRecord
  2
GEVID978597866
 70
     0
  0
APPID
  5
2FCD
330
9
100
AcDbSymbolTableRecord
100
AcDbRegAppTableRecord
  2
GEVID978597868
 70
     0
  0
APPID
  5
2FCE
330
9
100
AcDbSymbolTableRecord
100
AcDbRegAppTableRecord
  2
GENIUS_GENCEN_19
 70
     0
  0
APPID
  5
2FCF
330
9
100
AcDbSymbolTableRecord
100
AcDbRegAppTableRecord
  2
AcAecLayerStandard
 70
     0
  0
APPID
  5
5580
330
9
100
AcDbSymbolTableRecord
100
AcDbRegAppTableRecord
  2
GENIUS_FIRSTVISTXT_14
 70
     0
  0
APPID
  5
5581
330
9
100
AcDbSymbolTableRecord
100
AcDbRegAppTableRecord
  2
GENIUS_SECONDVISTXT_14
 70
     0
  0
APPID
  5
5582
330
9
100
AcDbSymbolTableRecord
100
AcDbRegAppTableRecord
  2
GENIUS_GENOBJ-N-FIL_13
 70
     0
  0
APPID
  5
5583
330
9
100
AcDbSymbolTableRecord
100
AcDbRegAppTableRecord
  2
GENIUS_GEFWELD_13
 70
     0
  0
APPID
  5
5584
330
9
100
AcDbSymbolTableRecord
100
AcDbRegAppTableRecord
  2
GENIUS_GENOBJ-NBEHI-BHB_13
 70
     0
  0
APPID
  5
5585
330
9
100
AcDbSymbolTableRecord
100
AcDbRegAppTableRecord
  2
GENIUS_GENOBJ-F-WELS_13
 70
     0
  0
APPID
  5
5586
330
9
100
AcDbSymbolTableRecord
100
AcDbRegAppTableRecord
  2
AMG_2DHIDE
 70
     0
  0
APPID
  5
5587
330
9
100
AcDbSymbolTableRecord
100
AcDbRegAppTableRecord
  2
GEVID992928022
 70
     0
  0
APPID
  5
5588
330
9
100
AcDbSymbolTableRecord
100
AcDbRegAppTableRecord
  2
GENIUS_GENOBJ-F-DESC_13
 70
     0
  0
APPID
  5
5589
330
9
100
AcDbSymbolTableRecord
100
AcDbRegAppTableRecord
  2
GENIUS_GEFDESC_14
 70
     0
  0
APPID
  5
558A
330
9
100
AcDbSymbolTableRecord
100
AcDbRegAppTableRecord
  2
GEVID992928023
 70
     0
  0
APPID
  5
558B
330
9
100
AcDbSymbolTableRecord
100
AcDbRegAppTableRecord
  2
GENIUS_GENOBJ-F-FEAT_13
 70
     0
  0
APPID
  5
558C
330
9
100
AcDbSymbolTableRecord
100
AcDbRegAppTableRecord
  2
GENIUS_GEFFEAT_14
 70
     0
  0
APPID
  5
7580
330
9
100
AcDbSymbolTableRecord
100
AcDbRegAppTableRecord
  2
ACAD_EXEMPT_FROM_CAD_STANDARDS
 70
     0
  0
APPID
  5
9403
330
9
100
AcDbSymbolTableRecord
100
AcDbRegAppTableRecord
  2
AMG_2DSTRUCT_BTR
 70
     0
  0
APPID
  5
B4E8
330
9
100
AcDbSymbolTableRecord
100
AcDbRegAppTableRecord
  2
ACAD_DSTYLE_DIMEXT_LENGTH
 70
     0
  0
APPID
  5
B4E9
330
9
100
AcDbSymbolTableRecord
100
AcDbRegAppTableRecord
  2
ACAD_DSTYLE_DIMEXT_ENABLED
 70
     0
  0
APPID
  5
DE63
330
9
100
AcDbSymbolTableRecord
100
AcDbRegAppTableRecord
  2
GENIUS_GENDIMSH_14
 70
     0
  0
APPID
  5
E2FA
330
9
100
AcDbSymbolTableRecord
100
AcDbRegAppTableRecord
  2
GEVID1210230727
 70
     0
  0
APPID
  5
E2FB
330
9
100
AcDbSymbolTableRecord
100
AcDbRegAppTableRecord
  2
GEVDC
 70
     0
  0
APPID
  5
10068
330
9
100
AcDbSymbolTableRecord
100
AcDbRegAppTableRecord
  2
ACAUTHENVIRON
 70
     0
  0
APPID
  5
1011A
330
9
100
AcDbSymbolTableRecord
100
AcDbRegAppTableRecord
  2
AcDbDynamicBlockTrueName
 70
     0
  0
APPID
  5
1011B
330
9
100
AcDbSymbolTableRecord
100
AcDbRegAppTableRecord
  2
AcDbDynamicBlockGUID
 70
     0
  0
APPID
  5
1011D
330
9
100
AcDbSymbolTableRecord
100
AcDbRegAppTableRecord
  2
ACDBBLOCKREPETAG
 70
     0
  0
APPID
  5
107E4
330
9
100
AcDbSymbolTableRecord
100
AcDbRegAppTableRecord
  2
ACAD_DSTYLE_DIMTEXT_FILL
 70
     0
  0
APPID
  5
107E7
330
9
100
AcDbSymbolTableRecord
100
AcDbRegAppTableRecord
  2
ACAD_DSTYLE_DIM_LINETYPE
 70
     0
  0
APPID
  5
107E8
330
9
100
AcDbSymbolTableRecord
100
AcDbRegAppTableRecord
  2
ACAD_DSTYLE_DIM_EXT1_LINETYPE
 70
     0
  0
APPID
  5
107E9
330
9
100
AcDbSymbolTableRecord
100
AcDbRegAppTableRecord
  2
ACAD_DSTYLE_DIM_EXT2_LINETYPE
 70
     0
  0
APPID
  5
10B47
330
9
100
AcDbSymbolTableRecord
100
AcDbRegAppTableRecord
  2
GEVID1210230728
 70
     0
  0
APPID
  5
11657
330
9
100
AcDbSymbolTableRecord
100
AcDbRegAppTableRecord
  2
GENIUS_GENDTOL_13
 70
     0
  0
APPID
  5
1AE32
330
9
100
AcDbSymbolTableRecord
100
AcDbRegAppTableRecord
  2
ACAD_MLEADERVER
 70
     0
  0
APPID
  5
1B375
330
9
100
AcDbSymbolTableRecord
100
AcDbRegAppTableRecord
  2
ACAD_DSTYLE_DIMINSPECT
 70
     0
  0
ENDTAB
  0
TABLE
  2
DIMSTYLE
  5
A
330
0
100
AcDbSymbolTable
 70
    16
100
AcDbDimStyleTable
 71
     2
340
2EE
340
1A089
  0
DIMSTYLE
105
2EE
330
A
100
AcDbSymbolTableRecord
100
AcDbDimStyleTableRecord
  2
AM_DIN
 70
     0
  4
"
 41
65.0
 42
1.0
 43
10.0
 44
25.0
 47
0.1
 48
0.1
 73
     0
 74
     0
 77
     1
 78
     8
 79
     2
140
50.0
141
0.0
143
0.0393701
146
0.71
147
15.0
172
     1
176
   256
177
   256
178
     2
271
     0
272
     0
283
     0
284
     8
340
11
371
    -1
372
    -1
1001
ACAD_DSTYLE_DIMJOGGED_JOGANGLE_SYMBOL
1070
   384
1040
1.570796326794896
  0
DIMSTYLE
105
1A089
330
A
100
AcDbSymbolTableRecord
100
AcDbDimStyleTableRecord
  2
GEN-ISO
 70
     0
  4
"
 40
10.0
 41
2.5
 42
1.0
 43
7.0
 44
1.0
 47
0.1
 48
0.1
 73
     0
 74
     0
 77
     1
 78
     8
140
3.5
141
0.0
143
0.0393701
146
0.71
147
0.6
172
     1
176
     3
177
     3
178
     2
271
     2
272
     2
283
     0
340
11
  0
DIMSTYLE
105
1A08A
102
{ACAD_REACTORS
330
1B980
330
1B97D
330
1B97A
102
}
330
A
100
AcDbSymbolTableRecord
100
AcDbDimStyleTableRecord
  2
GEN-ISO$0
 70
     0
  4
"
 40
10.0
 41
2.5
 42
1.0
 43
7.0
 44
1.0
 47
0.1
 48
0.1
 73
     0
 74
     0
 77
     1
 78
     8
140
3.5
141
0.0
143
0.0393701
146
0.71
147
0.6
172
     1
176
     3
177
     3
178
     2
271
     2
272
     2
283
     0
340
11
  0
ENDTAB
  0
TABLE
  2
BLOCK_RECORD
  5
1
330
0
100
AcDbSymbolTable
 70
    10
  0
BLOCK_RECORD
  5
1F
102
{ACAD_XDICTIONARY
360
8F
102
}
330
1
100
AcDbSymbolTableRecord
100
AcDbBlockTableRecord
  2
*Model_Space
340
22
  0
BLOCK_RECORD
  5
1B
330
1
100
AcDbSymbolTableRecord
100
AcDbBlockTableRecord
  2
*Paper_Space
340
1E
  0
BLOCK_RECORD
  5
23
330
1
100
AcDbSymbolTableRecord
100
AcDbBlockTableRecord
  2
*Paper_Space0
340
26
  0
BLOCK_RECORD
  5
1B983
330
1
100
AcDbSymbolTableRecord
100
AcDbBlockTableRecord
  2
*D2
340
0
  0
BLOCK_RECORD
  5
1B991
330
1
100
AcDbSymbolTableRecord
100
AcDbBlockTableRecord
  2
*D3
340
0
  0
BLOCK_RECORD
  5
1B99D
330
1
100
AcDbSymbolTableRecord
100
AcDbBlockTableRecord
  2
*D4
340
0
  0
ENDTAB
  0
ENDSEC
  0
SECTION
  2
BLOCKS
  0
BLOCK
  5
20
330
1F
100
AcDbEntity
  8
0
100
AcDbBlockBegin
  2
*Model_Space
 70
     2
 10
0.0
 20
0.0
 30
0.0
  3
*Model_Space
  1

  0
ENDBLK
  5
21
330
1F
100
AcDbEntity
  8
0
100
AcDbBlockEnd
  0
BLOCK
  5
1C
330
1B
100
AcDbEntity
 67
     1
  8
0
100
AcDbBlockBegin
  2
*Paper_Space
 70
     0
 10
0.0
 20
0.0
 30
0.0
  3
*Paper_Space
  1

  0
ENDBLK
  5
1D
330
1B
100
AcDbEntity
 67
     1
  8
0
100
AcDbBlockEnd
  0
BLOCK
  5
24
330
23
100
AcDbEntity
 67
     1
  8
0
100
AcDbBlockBegin
  2
*Paper_Space0
 70
     0
 10
0.0
 20
0.0
 30
0.0
  3
*Paper_Space0
  1

  0
ENDBLK
  5
25
330
23
100
AcDbEntity
 67
     1
  8
0
100
AcDbBlockEnd
  0
BLOCK
  5
1B984
330
1B983
100
AcDbEntity
  8
0
100
AcDbBlockBegin
  2
*D2
 70
     1
 10
0.0
 20
0.0
 30
0.0
  3
*D2
  1

  0
LINE
  5
1C251
330
1B983
100
AcDbEntity
  8
AM_5
 62
     3
370
    -2
100
AcDbLine
 10
25363.30305190195
 20
423.5426802982401
 30
0.0
 11
25363.30305190195
 21
388.6070171326064
 31
0.0
  0
LINE
  5
1C252
330
1B983
100
AcDbEntity
  8
AM_5
 62
     3
370
    -2
100
AcDbLine
 10
25321.30305190195
 20
423.5426802982401
 30
0.0
 11
25321.30305190195
 21
388.6070171326064
 31
0.0
  0
LINE
  5
1C253
330
1B983
100
AcDbEntity
  8
AM_5
 62
     3
370
    -2
100
AcDbLine
 10
25296.30305190195
 20
398.6070171326064
 30
0.0
 11
25271.30305190195
 21
398.6070171326064
 31
0.0
  0
LINE
  5
1C254
330
1B983
100
AcDbEntity
  8
AM_5
 62
     3
370
    -2
100
AcDbLine
 10
25388.30305190195
 20
398.6070171326064
 30
0.0
 11
25533.31805872324
 21
398.6070171326064
 31
0.0
  0
LINE
  5
1C255
330
1B983
100
AcDbEntity
  8
AM_5
 62
     3
370
    -2
100
AcDbLine
 10
25321.30305190195
 20
398.6070171326064
 30
0.0
 11
25363.30305190195
 21
398.6070171326064
 31
0.0
  0
SOLID
  5
1C256
330
1B983
100
AcDbEntity
  8
AM_5
 62
     3
100
AcDbTrace
 10
25296.30305190195
 20
402.7736837992731
 30
0.0
 11
25296.30305190195
 21
394.4403504659397
 31
0.0
 12
25321.30305190195
 22
398.6070171326064
 32
0.0
 13
25321.30305190195
 23
398.6070171326064
 33
0.0
  0
SOLID
  5
1C257
330
1B983
100
AcDbEntity
  8
AM_5
 62
     3
100
AcDbTrace
 10
25388.30305190195
 20
402.7736837992731
 30
0.0
 11
25388.30305190195
 21
394.4403504659397
 31
0.0
 12
25363.30305190195
 22
398.6070171326064
 32
0.0
 13
25363.30305190195
 23
398.6070171326064
 33
0.0
  0
MTEXT
  5
1C258
330
1B983
100
AcDbEntity
  8
AM_5
 62
     2
100
AcDbMText
 10
25473.3105553126
 20
417.5333472826746
 30
0.0
 40
25.0
 41
0.0
 71
     5
 72
     1
  1
R 1 1/2
 73
     1
 44
1.0
1001
ACAD
1000
MTEXTBEGIN
1070
    73
1070
     1
1070
    44
1040
1.0
1070
    74
1070
     0
1000
MTEXTEND
  0
POINT
  5
1C259
330
1B983
100
AcDbEntity
  8
Defpoints
 62
     0
100
AcDbPoint
 10
25363.30305190195
 20
433.5426802982401
 30
0.0
  0
POINT
  5
1C25A
330
1B983
100
AcDbEntity
  8
Defpoints
 62
     0
100
AcDbPoint
 10
25321.30305190195
 20
433.5426802982401
 30
0.0
  0
POINT
  5
1C25B
330
1B983
100
AcDbEntity
  8
Defpoints
 62
     0
100
AcDbPoint
 10
25321.30305190195
 20
398.6070171326064
 30
0.0
  0
ENDBLK
  5
1B985
330
1B983
100
AcDbEntity
  8
0
100
AcDbBlockEnd
  0
BLOCK
  5
1B992
330
1B991
100
AcDbEntity
  8
0
100
AcDbBlockBegin
  2
*D3
 70
     1
 10
0.0
 20
0.0
 30
0.0
  3
*D3
  1

  0
LINE
  5
1C25C
330
1B991
100
AcDbEntity
  8
AM_5
 62
     3
370
    -2
100
AcDbLine
 10
25311.30305190195
 20
445.5426802982401
 30
0.0
 11
25221.05453073653
 21
445.5426802982401
 31
0.0
  0
LINE
  5
1C25D
330
1B991
100
AcDbEntity
  8
AM_5
 62
     3
370
    -2
100
AcDbLine
 10
25332.30305190195
 20
-30.45731970175984
 30
0.0
 11
25221.05453073653
 21
-30.45731970175981
 31
0.0
  0
LINE
  5
1C25E
330
1B991
100
AcDbEntity
  8
AM_5
 62
     3
370
    -2
100
AcDbLine
 10
25231.05453073652
 20
420.5426802982401
 30
0.0
 11
25231.05453073652
 21
-5.457319701759811
 31
0.0
  0
SOLID
  5
1C25F
330
1B991
100
AcDbEntity
  8
AM_5
 62
     3
100
AcDbTrace
 10
25226.88786406986
 20
420.5426802982401
 30
0.0
 11
25235.22119740319
 21
420.5426802982401
 31
0.0
 12
25231.05453073652
 22
445.5426802982401
 32
0.0
 13
25231.05453073652
 23
445.5426802982401
 33
0.0
  0
SOLID
  5
1C260
330
1B991
100
AcDbEntity
  8
AM_5
 62
     3
100
AcDbTrace
 10
25226.88786406986
 20
-5.45731970175981
 30
0.0
 11
25235.22119740319
 21
-5.457319701759812
 31
0.0
 12
25231.05453073652
 22
-30.45731970175981
 32
0.0
 13
25231.05453073652
 23
-30.45731970175981
 33
0.0
  0
MTEXT
  5
1C261
330
1B991
100
AcDbEntity
  8
AM_5
 62
     2
100
AcDbMText
 10
25212.34136566149
 20
207.5426802982442
 30
0.0
 40
25.0
 41
0.0
 71
     5
 72
     1
  1
475
 11
0.0000000000000001
 21
1.0
 31
0.0
 73
     1
 44
1.0
1001
ACAD
1000
MTEXTBEGIN
1070
    73
1070
     1
1070
    44
1040
1.0
1070
    74
1070
     0
1000
MTEXTEND
  0
POINT
  5
1C262
330
1B991
100
AcDbEntity
  8
Defpoints
 62
     0
100
AcDbPoint
 10
25321.30305190195
 20
445.5426802982401
 30
0.0
  0
POINT
  5
1C263
330
1B991
100
AcDbEntity
  8
Defpoints
 62
     0
100
AcDbPoint
 10
25342.30305190195
 20
-30.45731970175984
 30
0.0
  0
POINT
  5
1C264
330
1B991
100
AcDbEntity
  8
Defpoints
 62
     0
100
AcDbPoint
 10
25231.05453073652
 20
-30.45731970175981
 30
0.0
  0
ENDBLK
  5
1B993
330
1B991
100
AcDbEntity
  8
0
100
AcDbBlockEnd
  0
BLOCK
  5
1B99E
330
1B99D
100
AcDbEntity
  8
0
100
AcDbBlockBegin
  2
*D4
 70
     1
 10
0.0
 20
0.0
 30
0.0
  3
*D4
  1

  0
LINE
  5
1C265
330
1B99D
100
AcDbEntity
  8
AM_5
 62
     3
370
    -2
100
AcDbLine
 10
25324.30305190195
 20
604.5426802982401
 30
0.0
 11
25221.05453073653
 21
604.5426802982401
 31
0.0
  0
LINE
  5
1C266
330
1B99D
100
AcDbEntity
  8
AM_5
 62
     3
370
    -2
100
AcDbLine
 10
25311.30305190195
 20
445.5426802982401
 30
0.0
 11
25221.05453073653
 21
445.5426802982401
 31
0.0
  0
LINE
  5
1C267
330
1B99D
100
AcDbEntity
  8
AM_5
 62
     3
370
    -2
100
AcDbLine
 10
25231.05453073652
 20
579.5426802982401
 30
0.0
 11
25231.05453073652
 21
470.5426802982401
 31
0.0
  0
SOLID
  5
1C268
330
1B99D
100
AcDbEntity
  8
AM_5
 62
     3
100
AcDbTrace
 10
25226.88786406986
 20
579.5426802982401
 30
0.0
 11
25235.22119740319
 21
579.5426802982401
 31
0.0
 12
25231.05453073652
 22
604.5426802982401
 32
0.0
 13
25231.05453073652
 23
604.5426802982401
 33
0.0
  0
SOLID
  5
1C269
330
1B99D
100
AcDbEntity
  8
AM_5
 62
     3
100
AcDbTrace
 10
25226.88786406986
 20
470.5426802982401
 30
0.0
 11
25235.22119740319
 21
470.5426802982401
 31
0.0
 12
25231.05453073652
 22
445.5426802982401
 32
0.0
 13
25231.05453073652
 23
445.5426802982401
 33
0.0
  0
MTEXT
  5
1C26A
330
1B99D
100
AcDbEntity
  8
AM_5
 62
     2
100
AcDbMText
 10
25212.29020604348
 20
525.0426802982441
 30
0.0
 40
25.0
 41
0.0
 71
     5
 72
     1
  1
160
 11
0.0000000000000001
 21
1.0
 31
0.0
 73
     1
 44
1.0
1001
ACAD
1000
MTEXTBEGIN
1070
    73
1070
     1
1070
    44
1040
1.0
1070
    74
1070
     0
1000
MTEXTEND
  0
POINT
  5
1C26B
330
1B99D
100
AcDbEntity
  8
Defpoints
 62
     0
100
AcDbPoint
 10
25334.30305190195
 20
604.5426802982401
 30
0.0
  0
POINT
  5
1C26C
330
1B99D
100
AcDbEntity
  8
Defpoints
 62
     0
100
AcDbPoint
 10
25321.30305190195
 20
445.5426802982401
 30
0.0
  0
POINT
  5
1C26D
330
1B99D
100
AcDbEntity
  8
Defpoints
 62
     0
100
AcDbPoint
 10
25231.05453073652
 20
445.5426802982401
 30
0.0
  0
ENDBLK
  5
1B99F
330
1B99D
100
AcDbEntity
  8
0
100
AcDbBlockEnd
  0
ENDSEC
  0
SECTION
  2
ENTITIES
  0
LINE
  5
1B8EA
330
1F
100
AcDbEntity
  8
AM_0
100
AcDbLine
 10
25363.30305190195
 20
445.5426802982401
 30
0.0
 11
25321.30305190195
 21
445.5426802982401
 31
0.0
  0
LINE
  5
1B8EB
330
1F
100
AcDbEntity
  8
AM_0
100
AcDbLine
 10
25321.30305190195
 20
445.5426802982401
 30
0.0
 11
25321.30305190195
 21
433.5426802982401
 31
0.0
  0
LINE
  5
1B8EC
330
1F
100
AcDbEntity
  8
AM_0
100
AcDbLine
 10
25322.80305190195
 20
445.5426802982401
 30
0.0
 11
25322.80305190195
 21
433.5426802982401
 31
0.0
  0
LINE
  5
1B8ED
102
{ACAD_REACTORS
330
1B97C
102
}
330
1F
100
AcDbEntity
  8
AM_0
100
AcDbLine
 10
25321.30305190195
 20
433.5426802982401
 30
0.0
 11
25363.30305190195
 21
433.5426802982401
 31
0.0
  0
LINE
  5
1B8EE
102
{ACAD_REACTORS
330
1B97C
102
}
330
1F
100
AcDbEntity
  8
AM_0
100
AcDbLine
 10
25363.30305190195
 20
433.5426802982401
 30
0.0
 11
25363.30305190195
 21
445.5426802982401
 31
0.0
  0
LINE
  5
1B8EF
330
1F
100
AcDbEntity
  8
AM_0
100
AcDbLine
 10
25361.80305190195
 20
433.5426802982401
 30
0.0
 11
25361.80305190195
 21
445.5426802982401
 31
0.0
  0
LINE
  5
1B8F0
330
1F
100
AcDbEntity
  8
AM_0
100
AcDbLine
 10
25380.80305190195
 20
511.5426802982401
 30
0.0
 11
25303.80305190195
 21
511.5426802982401
 31
0.0
1001
GENIUS_GENREC_14
1002
{
1000
PYDIR
1011
25380.80305190195
1021
506.5426802982401
1031
0.0
1002
}
1002
{
1000
PXDIR
1011
25303.80305190195
1021
511.5426802982401
1031
0.0
1002
}
1002
{
1000
PORI
1011
25380.80305190195
1021
511.5426802982401
1031
0.0
1002
}
1002
{
1000
PINS
1011
25380.80305190195
1021
511.5426802982401
1031
0.0
1002
}
1002
{
1000
HVAL
1000
5
1002
}
1002
{
1000
H
1070
     2
1002
}
1002
{
1000
WVAL
1000
77
1002
}
1002
{
1000
W
1070
     2
1002
}
1002
{
1000
C
1070
     1
1002
}
1001
GENIUS_GENOBJ-N-REC_13
1002
{
1000
OWNER
1000
GEN
1002
}
1001
GENIUS_GENODEF_13
1002
{
1000
HIER
1070
     0
1002
}
1002
{
1000
MANEDIT
1070
     0
1002
}
1002
{
1000
NOSEL
1070
     0
1002
}
1002
{
1000
BEHIND
1070
     0
1002
}
1002
{
1000
OTHER
1070
     0
1002
}
1002
{
1000
REACTOR
1002
}
  0
LINE
  5
1B8F1
330
1F
100
AcDbEntity
  8
AM_0
100
AcDbLine
 10
25303.80305190195
 20
511.5426802982401
 30
0.0
 11
25303.80305190195
 21
506.5426802982401
 31
0.0
1001
GENIUS_GENREC_14
1002
{
1000
PYDIR
1011
25380.80305190195
1021
506.5426802982401
1031
0.0
1002
}
1002
{
1000
PXDIR
1011
25303.80305190195
1021
511.5426802982401
1031
0.0
1002
}
1002
{
1000
PORI
1011
25380.80305190195
1021
511.5426802982401
1031
0.0
1002
}
1002
{
1000
PINS
1011
25380.80305190195
1021
511.5426802982401
1031
0.0
1002
}
1002
{
1000
HVAL
1000
5
1002
}
1002
{
1000
H
1070
     2
1002
}
1002
{
1000
WVAL
1000
77
1002
}
1002
{
1000
W
1070
     2
1002
}
1002
{
1000
C
1070
     1
1002
}
1001
GENIUS_GENOBJ-N-REC_13
1002
{
1000
OWNER
1000
GEN
1002
}
1001
GENIUS_GENODEF_13
1002
{
1000
HIER
1070
     0
1002
}
1002
{
1000
MANEDIT
1070
     0
1002
}
1002
{
1000
NOSEL
1070
     0
1002
}
1002
{
1000
BEHIND
1070
     0
1002
}
1002
{
1000
OTHER
1070
     0
1002
}
1002
{
1000
REACTOR
1002
}
  0
LINE
  5
1B8F2
330
1F
100
AcDbEntity
  8
AM_0
100
AcDbLine
 10
25303.80305190195
 20
506.5426802982401
 30
0.0
 11
25380.80305190195
 21
506.5426802982401
 31
0.0
1001
GENIUS_GENREC_14
1002
{
1000
PYDIR
1011
25380.80305190195
1021
506.5426802982401
1031
0.0
1002
}
1002
{
1000
PXDIR
1011
25303.80305190195
1021
511.5426802982401
1031
0.0
1002
}
1002
{
1000
PORI
1011
25380.80305190195
1021
511.5426802982401
1031
0.0
1002
}
1002
{
1000
PINS
1011
25380.80305190195
1021
511.5426802982401
1031
0.0
1002
}
1002
{
1000
HVAL
1000
5
1002
}
1002
{
1000
H
1070
     2
1002
}
1002
{
1000
WVAL
1000
77
1002
}
1002
{
1000
W
1070
     2
1002
}
1002
{
1000
C
1070
     1
1002
}
1001
GENIUS_GENOBJ-N-REC_13
1002
{
1000
OWNER
1000
GEN
1002
}
1001
GENIUS_GENODEF_13
1002
{
1000
HIER
1070
     0
1002
}
1002
{
1000
MANEDIT
1070
     0
1002
}
1002
{
1000
NOSEL
1070
     0
1002
}
1002
{
1000
BEHIND
1070
     0
1002
}
1002
{
1000
OTHER
1070
     0
1002
}
1002
{
1000
REACTOR
1002
}
  0
LINE
  5
1B8F3
330
1F
100
AcDbEntity
  8
AM_0
100
AcDbLine
 10
25380.80305190195
 20
506.5426802982401
 30
0.0
 11
25380.80305190195
 21
511.5426802982401
 31
0.0
1001
GENIUS_GENREC_14
1002
{
1000
PYDIR
1011
25380.80305190195
1021
506.5426802982401
1031
0.0
1002
}
1002
{
1000
PXDIR
1011
25303.80305190195
1021
511.5426802982401
1031
0.0
1002
}
1002
{
1000
PORI
1011
25380.80305190195
1021
511.5426802982401
1031
0.0
1002
}
1002
{
1000
PINS
1011
25380.80305190195
1021
511.5426802982401
1031
0.0
1002
}
1002
{
1000
HVAL
1000
5
1002
}
1002
{
1000
H
1070
     2
1002
}
1002
{
1000
WVAL
1000
77
1002
}
1002
{
1000
W
1070
     2
1002
}
1002
{
1000
C
1070
     1
1002
}
1001
GENIUS_GENOBJ-N-REC_13
1002
{
1000
OWNER
1000
GEN
1002
}
1001
GENIUS_GENODEF_13
1002
{
1000
HIER
1070
     0
1002
}
1002
{
1000
MANEDIT
1070
     0
1002
}
1002
{
1000
NOSEL
1070
     0
1002
}
1002
{
1000
BEHIND
1070
     0
1002
}
1002
{
1000
OTHER
1070
     0
1002
}
1002
{
1000
REACTOR
1002
}
  0
LINE
  5
1B8F4
330
1F
100
AcDbEntity
  8
AM_0
100
AcDbLine
 10
25378.30305190195
 20
516.5426802982401
 30
0.0
 11
25306.30305190195
 21
516.5426802982401
 31
0.0
  0
LINE
  5
1B8F5
330
1F
100
AcDbEntity
  8
AM_0
100
AcDbLine
 10
25376.30305190195
 20
591.5426802982401
 30
0.0
 11
25308.30305190195
 21
591.5426802982401
 31
0.0
  0
LINE
  5
1B8F6
330
1F
100
AcDbEntity
  8
AM_0
100
AcDbLine
 10
25380.80305190195
 20
511.5426802982401
 30
0.0
 11
25378.30305190195
 21
516.5426802982401
 31
0.0
  0
LINE
  5
1B8F7
330
1F
100
AcDbEntity
  8
AM_0
100
AcDbLine
 10
25303.80305190195
 20
511.5426802982401
 30
0.0
 11
25306.30305190195
 21
516.5426802982401
 31
0.0
  0
LINE
  5
1B8F8
330
1F
100
AcDbEntity
  8
AM_0
100
AcDbLine
 10
25306.30305190195
 20
516.5426802982401
 30
0.0
 11
25308.30305190195
 21
591.5426802982401
 31
0.0
  0
LINE
  5
1B8F9
330
1F
100
AcDbEntity
  8
AM_0
100
AcDbLine
 10
25378.30305190195
 20
516.5426802982401
 30
0.0
 11
25376.30305190195
 21
591.5426802982401
 31
0.0
  0
LINE
  5
1B8FA
330
1F
100
AcDbEntity
  8
AM_0
100
AcDbLine
 10
25352.30305190195
 20
594.5426802982401
 30
0.0
 11
25332.30305190195
 21
594.5426802982401
 31
0.0
1001
GENIUS_GENREC_14
1002
{
1000
PYDIR
1011
25352.30305190195
1021
592.5426802982401
1031
0.0
1002
}
1002
{
1000
PXDIR
1011
25332.30305190195
1021
594.5426802982401
1031
0.0
1002
}
1002
{
1000
PORI
1011
25352.30305190195
1021
594.5426802982401
1031
0.0
1002
}
1002
{
1000
PINS
1011
25352.30305190195
1021
594.5426802982401
1031
0.0
1002
}
1002
{
1000
HVAL
1000
2
1002
}
1002
{
1000
H
1070
     2
1002
}
1002
{
1000
WVAL
1000
20
1002
}
1002
{
1000
W
1070
     2
1002
}
1002
{
1000
C
1070
     1
1002
}
1001
GENIUS_GENOBJ-N-REC_13
1002
{
1000
OWNER
1000
GEN
1002
}
1001
GENIUS_GENODEF_13
1002
{
1000
HIER
1070
     0
1002
}
1002
{
1000
MANEDIT
1070
     0
1002
}
1002
{
1000
NOSEL
1070
     0
1002
}
1002
{
1000
BEHIND
1070
     0
1002
}
1002
{
1000
OTHER
1070
     0
1002
}
1002
{
1000
REACTOR
1002
}
  0
LINE
  5
1B8FB
330
1F
100
AcDbEntity
  8
AM_0
100
AcDbLine
 10
25332.30305190195
 20
594.5426802982401
 30
0.0
 11
25332.30305190195
 21
592.5426802982401
 31
0.0
1001
GENIUS_GENREC_14
1002
{
1000
PYDIR
1011
25352.30305190195
1021
592.5426802982401
1031
0.0
1002
}
1002
{
1000
PXDIR
1011
25332.30305190195
1021
594.5426802982401
1031
0.0
1002
}
1002
{
1000
PORI
1011
25352.30305190195
1021
594.5426802982401
1031
0.0
1002
}
1002
{
1000
PINS
1011
25352.30305190195
1021
594.5426802982401
1031
0.0
1002
}
1002
{
1000
HVAL
1000
2
1002
}
1002
{
1000
H
1070
     2
1002
}
1002
{
1000
WVAL
1000
20
1002
}
1002
{
1000
W
1070
     2
1002
}
1002
{
1000
C
1070
     1
1002
}
1001
GENIUS_GENOBJ-N-REC_13
1002
{
1000
OWNER
1000
GEN
1002
}
1001
GENIUS_GENODEF_13
1002
{
1000
HIER
1070
     0
1002
}
1002
{
1000
MANEDIT
1070
     0
1002
}
1002
{
1000
NOSEL
1070
     0
1002
}
1002
{
1000
BEHIND
1070
     0
1002
}
1002
{
1000
OTHER
1070
     0
1002
}
1002
{
1000
REACTOR
1002
}
  0
LINE
  5
1B8FC
330
1F
100
AcDbEntity
  8
AM_0
100
AcDbLine
 10
25332.30305190195
 20
592.5426802982401
 30
0.0
 11
25352.30305190195
 21
592.5426802982401
 31
0.0
1001
GENIUS_GENREC_14
1002
{
1000
PYDIR
1011
25352.30305190195
1021
592.5426802982401
1031
0.0
1002
}
1002
{
1000
PXDIR
1011
25332.30305190195
1021
594.5426802982401
1031
0.0
1002
}
1002
{
1000
PORI
1011
25352.30305190195
1021
594.5426802982401
1031
0.0
1002
}
1002
{
1000
PINS
1011
25352.30305190195
1021
594.5426802982401
1031
0.0
1002
}
1002
{
1000
HVAL
1000
2
1002
}
1002
{
1000
H
1070
     2
1002
}
1002
{
1000
WVAL
1000
20
1002
}
1002
{
1000
W
1070
     2
1002
}
1002
{
1000
C
1070
     1
1002
}
1001
GENIUS_GENOBJ-N-REC_13
1002
{
1000
OWNER
1000
GEN
1002
}
1001
GENIUS_GENODEF_13
1002
{
1000
HIER
1070
     0
1002
}
1002
{
1000
MANEDIT
1070
     0
1002
}
1002
{
1000
NOSEL
1070
     0
1002
}
1002
{
1000
BEHIND
1070
     0
1002
}
1002
{
1000
OTHER
1070
     0
1002
}
1002
{
1000
REACTOR
1002
}
  0
LINE
  5
1B8FD
330
1F
100
AcDbEntity
  8
AM_0
100
AcDbLine
 10
25352.30305190195
 20
592.5426802982401
 30
0.0
 11
25352.30305190195
 21
594.5426802982401
 31
0.0
1001
GENIUS_GENREC_14
1002
{
1000
PYDIR
1011
25352.30305190195
1021
592.5426802982401
1031
0.0
1002
}
1002
{
1000
PXDIR
1011
25332.30305190195
1021
594.5426802982401
1031
0.0
1002
}
1002
{
1000
PORI
1011
25352.30305190195
1021
594.5426802982401
1031
0.0
1002
}
1002
{
1000
PINS
1011
25352.30305190195
1021
594.5426802982401
1031
0.0
1002
}
1002
{
1000
HVAL
1000
2
1002
}
1002
{
1000
H
1070
     2
1002
}
1002
{
1000
WVAL
1000
20
1002
}
1002
{
1000
W
1070
     2
1002
}
1002
{
1000
C
1070
     1
1002
}
1001
GENIUS_GENOBJ-N-REC_13
1002
{
1000
OWNER
1000
GEN
1002
}
1001
GENIUS_GENODEF_13
1002
{
1000
HIER
1070
     0
1002
}
1002
{
1000
MANEDIT
1070
     0
1002
}
1002
{
1000
NOSEL
1070
     0
1002
}
1002
{
1000
BEHIND
1070
     0
1002
}
1002
{
1000
OTHER
1070
     0
1002
}
1002
{
1000
REACTOR
1002
}
  0
LINE
  5
1B8FE
330
1F
100
AcDbEntity
  8
AM_0
100
AcDbLine
 10
25352.30305190195
 20
592.5426802982401
 30
0.0
 11
25352.30305190195
 21
591.5426802982401
 31
0.0
  0
LINE
  5
1B8FF
330
1F
100
AcDbEntity
  8
AM_0
100
AcDbLine
 10
25332.30305190195
 20
592.5426802982401
 30
0.0
 11
25332.30305190195
 21
591.5426802982401
 31
0.0
  0
LINE
  5
1B900
330
1F
100
AcDbEntity
  8
AM_0
100
AcDbLine
 10
25350.30305190195
 20
604.5426802982401
 30
0.0
 11
25334.30305190195
 21
604.5426802982401
 31
0.0
  0
LINE
  5
1B901
330
1F
100
AcDbEntity
  8
AM_0
100
AcDbLine
 10
25351.30305190195
 20
594.5426802982401
 30
0.0
 11
25350.30305190195
 21
604.5426802982401
 31
0.0
  0
LINE
  5
1B902
330
1F
100
AcDbEntity
  8
AM_4
100
AcDbLine
 10
25349.74685162356
 20
604.1812576035081
 30
0.0
 11
25349.74685162355
 21
595.2341874766971
 31
0.0
  0
LINE
  5
1B903
330
1F
100
AcDbEntity
  8
AM_4
100
AcDbLine
 10
25349.74685162356
 20
602.1812576035081
 30
0.0
 11
25349.74685162355
 21
595.2341874766971
 31
0.0
  0
LINE
  5
1B904
330
1F
100
AcDbEntity
  8
AM_4
100
AcDbLine
 10
25349.74685162356
 20
600.1812576035081
 30
0.0
 11
25349.74685162355
 21
595.2341874766971
 31
0.0
  0
LINE
  5
1B905
330
1F
100
AcDbEntity
  8
AM_4
100
AcDbLine
 10
25349.74685162356
 20
598.1812576035081
 30
0.0
 11
25349.74685162355
 21
595.2341874766971
 31
0.0
  0
LINE
  5
1B906
330
1F
100
AcDbEntity
  8
AM_4
100
AcDbLine
 10
25348.74685162356
 20
604.1812576035081
 30
0.0
 11
25348.74685162356
 21
595.1966566538685
 31
0.0
  0
LINE
  5
1B907
330
1F
100
AcDbEntity
  8
AM_4
100
AcDbLine
 10
25348.74685162356
 20
602.1812576035081
 30
0.0
 11
25348.74685162356
 21
595.1966566538685
 31
0.0
  0
LINE
  5
1B908
330
1F
100
AcDbEntity
  8
AM_4
100
AcDbLine
 10
25348.74685162356
 20
600.1812576035081
 30
0.0
 11
25348.74685162356
 21
595.1966566538685
 31
0.0
  0
LINE
  5
1B909
330
1F
100
AcDbEntity
  8
AM_4
100
AcDbLine
 10
25348.74685162356
 20
598.1812576035081
 30
0.0
 11
25348.74685162356
 21
595.1966566538685
 31
0.0
  0
LINE
  5
1B90A
330
1F
100
AcDbEntity
  8
AM_4
100
AcDbLine
 10
25347.74685162356
 20
604.1812576035081
 30
0.0
 11
25347.74685162355
 21
595.15912583104
 31
0.0
  0
LINE
  5
1B90B
330
1F
100
AcDbEntity
  8
AM_4
100
AcDbLine
 10
25347.74685162356
 20
602.1812576035081
 30
0.0
 11
25347.74685162355
 21
595.15912583104
 31
0.0
  0
LINE
  5
1B90C
330
1F
100
AcDbEntity
  8
AM_4
100
AcDbLine
 10
25347.74685162356
 20
600.1812576035081
 30
0.0
 11
25347.74685162355
 21
595.15912583104
 31
0.0
  0
LINE
  5
1B90D
330
1F
100
AcDbEntity
  8
AM_4
100
AcDbLine
 10
25347.74685162356
 20
598.1812576035081
 30
0.0
 11
25347.74685162355
 21
595.15912583104
 31
0.0
  0
LINE
  5
1B90E
330
1F
100
AcDbEntity
  8
AM_4
100
AcDbLine
 10
25346.74685162356
 20
604.1812576035081
 30
0.0
 11
25346.74685162356
 21
595.1215950082078
 31
0.0
  0
LINE
  5
1B90F
330
1F
100
AcDbEntity
  8
AM_4
100
AcDbLine
 10
25346.74685162356
 20
602.1812576035081
 30
0.0
 11
25346.74685162356
 21
595.1215950082078
 31
0.0
  0
LINE
  5
1B910
330
1F
100
AcDbEntity
  8
AM_4
100
AcDbLine
 10
25346.74685162356
 20
600.1812576035081
 30
0.0
 11
25346.74685162356
 21
595.1215950082078
 31
0.0
  0
LINE
  5
1B911
330
1F
100
AcDbEntity
  8
AM_4
100
AcDbLine
 10
25346.74685162356
 20
598.1812576035081
 30
0.0
 11
25346.74685162356
 21
595.1215950082078
 31
0.0
  0
LINE
  5
1B912
330
1F
100
AcDbEntity
  8
AM_4
100
AcDbLine
 10
25345.74685162356
 20
604.0686651350188
 30
0.0
 11
25345.74685162355
 21
595.0840641853792
 31
0.0
  0
LINE
  5
1B913
330
1F
100
AcDbEntity
  8
AM_4
100
AcDbLine
 10
25345.74685162356
 20
602.0686651350188
 30
0.0
 11
25345.74685162355
 21
595.0840641853792
 31
0.0
  0
LINE
  5
1B914
330
1F
100
AcDbEntity
  8
AM_4
100
AcDbLine
 10
25345.74685162356
 20
600.0686651350187
 30
0.0
 11
25345.74685162355
 21
595.0840641853792
 31
0.0
  0
LINE
  5
1B915
330
1F
100
AcDbEntity
  8
AM_4
100
AcDbLine
 10
25345.74685162356
 20
598.0686651350188
 30
0.0
 11
25345.74685162355
 21
595.0840641853792
 31
0.0
  0
LINE
  5
1B916
330
1F
100
AcDbEntity
  8
AM_4
100
AcDbLine
 10
25344.74685162356
 20
604.0686651350188
 30
0.0
 11
25344.74685162356
 21
595.046533362547
 31
0.0
  0
LINE
  5
1B917
330
1F
100
AcDbEntity
  8
AM_4
100
AcDbLine
 10
25344.74685162356
 20
602.0686651350188
 30
0.0
 11
25344.74685162356
 21
595.046533362547
 31
0.0
  0
LINE
  5
1B918
330
1F
100
AcDbEntity
  8
AM_4
100
AcDbLine
 10
25344.74685162356
 20
600.0686651350187
 30
0.0
 11
25344.74685162356
 21
595.046533362547
 31
0.0
  0
LINE
  5
1B919
330
1F
100
AcDbEntity
  8
AM_4
100
AcDbLine
 10
25344.74685162356
 20
598.0686651350188
 30
0.0
 11
25344.74685162356
 21
595.046533362547
 31
0.0
  0
LINE
  5
1B91A
330
1F
100
AcDbEntity
  8
AM_4
100
AcDbLine
 10
25343.74685162356
 20
604.0686651350188
 30
0.0
 11
25343.74685162356
 21
595.0090025397185
 31
0.0
  0
LINE
  5
1B91B
330
1F
100
AcDbEntity
  8
AM_4
100
AcDbLine
 10
25343.74685162356
 20
602.0686651350188
 30
0.0
 11
25343.74685162356
 21
595.0090025397185
 31
0.0
  0
LINE
  5
1B91C
330
1F
100
AcDbEntity
  8
AM_4
100
AcDbLine
 10
25343.74685162356
 20
600.0686651350187
 30
0.0
 11
25343.74685162356
 21
595.0090025397185
 31
0.0
  0
LINE
  5
1B91D
330
1F
100
AcDbEntity
  8
AM_4
100
AcDbLine
 10
25343.74685162356
 20
598.0686651350188
 30
0.0
 11
25343.74685162356
 21
595.0090025397185
 31
0.0
  0
LINE
  5
1B91E
330
1F
100
AcDbEntity
  8
AM_4
100
AcDbLine
 10
25342.74685162356
 20
604.0311343121902
 30
0.0
 11
25342.74685162355
 21
594.9714717168863
 31
0.0
  0
LINE
  5
1B91F
330
1F
100
AcDbEntity
  8
AM_4
100
AcDbLine
 10
25342.74685162356
 20
602.0311343121902
 30
0.0
 11
25342.74685162355
 21
594.9714717168863
 31
0.0
  0
LINE
  5
1B920
330
1F
100
AcDbEntity
  8
AM_4
100
AcDbLine
 10
25342.74685162356
 20
600.0311343121902
 30
0.0
 11
25342.74685162355
 21
594.9714717168863
 31
0.0
  0
LINE
  5
1B921
330
1F
100
AcDbEntity
  8
AM_4
100
AcDbLine
 10
25342.74685162356
 20
598.0311343121902
 30
0.0
 11
25342.74685162355
 21
594.9714717168863
 31
0.0
  0
LINE
  5
1B922
330
1F
100
AcDbEntity
  8
AM_4
100
AcDbLine
 10
25334.85925218035
 20
604.1812576035081
 30
0.0
 11
25334.85925218035
 21
595.2341874766971
 31
0.0
  0
LINE
  5
1B923
330
1F
100
AcDbEntity
  8
AM_4
100
AcDbLine
 10
25334.85925218035
 20
602.1812576035081
 30
0.0
 11
25334.85925218035
 21
595.2341874766971
 31
0.0
  0
LINE
  5
1B924
330
1F
100
AcDbEntity
  8
AM_4
100
AcDbLine
 10
25334.85925218035
 20
600.1812576035081
 30
0.0
 11
25334.85925218035
 21
595.2341874766971
 31
0.0
  0
LINE
  5
1B925
330
1F
100
AcDbEntity
  8
AM_4
100
AcDbLine
 10
25334.85925218035
 20
598.1812576035081
 30
0.0
 11
25334.85925218035
 21
595.2341874766971
 31
0.0
  0
LINE
  5
1B926
330
1F
100
AcDbEntity
  8
AM_4
100
AcDbLine
 10
25335.85925218035
 20
604.1812576035081
 30
0.0
 11
25335.85925218035
 21
595.1966566538685
 31
0.0
  0
LINE
  5
1B927
330
1F
100
AcDbEntity
  8
AM_4
100
AcDbLine
 10
25335.85925218035
 20
602.1812576035081
 30
0.0
 11
25335.85925218035
 21
595.1966566538685
 31
0.0
  0
LINE
  5
1B928
330
1F
100
AcDbEntity
  8
AM_4
100
AcDbLine
 10
25335.85925218035
 20
600.1812576035081
 30
0.0
 11
25335.85925218035
 21
595.1966566538685
 31
0.0
  0
LINE
  5
1B929
330
1F
100
AcDbEntity
  8
AM_4
100
AcDbLine
 10
25335.85925218035
 20
598.1812576035081
 30
0.0
 11
25335.85925218035
 21
595.1966566538685
 31
0.0
  0
LINE
  5
1B92A
330
1F
100
AcDbEntity
  8
AM_4
100
AcDbLine
 10
25336.85925218035
 20
604.1812576035081
 30
0.0
 11
25336.85925218035
 21
595.15912583104
 31
0.0
  0
LINE
  5
1B92B
330
1F
100
AcDbEntity
  8
AM_4
100
AcDbLine
 10
25336.85925218035
 20
602.1812576035081
 30
0.0
 11
25336.85925218035
 21
595.15912583104
 31
0.0
  0
LINE
  5
1B92C
330
1F
100
AcDbEntity
  8
AM_4
100
AcDbLine
 10
25336.85925218035
 20
600.1812576035081
 30
0.0
 11
25336.85925218035
 21
595.15912583104
 31
0.0
  0
LINE
  5
1B92D
330
1F
100
AcDbEntity
  8
AM_4
100
AcDbLine
 10
25336.85925218035
 20
598.1812576035081
 30
0.0
 11
25336.85925218035
 21
595.15912583104
 31
0.0
  0
LINE
  5
1B92E
330
1F
100
AcDbEntity
  8
AM_4
100
AcDbLine
 10
25337.85925218035
 20
604.1812576035081
 30
0.0
 11
25337.85925218035
 21
595.1215950082078
 31
0.0
  0
LINE
  5
1B92F
330
1F
100
AcDbEntity
  8
AM_4
100
AcDbLine
 10
25337.85925218035
 20
602.1812576035081
 30
0.0
 11
25337.85925218035
 21
595.1215950082078
 31
0.0
  0
LINE
  5
1B930
330
1F
100
AcDbEntity
  8
AM_4
100
AcDbLine
 10
25337.85925218035
 20
600.1812576035081
 30
0.0
 11
25337.85925218035
 21
595.1215950082078
 31
0.0
  0
LINE
  5
1B931
330
1F
100
AcDbEntity
  8
AM_4
100
AcDbLine
 10
25337.85925218035
 20
598.1812576035081
 30
0.0
 11
25337.85925218035
 21
595.1215950082078
 31
0.0
  0
LINE
  5
1B932
330
1F
100
AcDbEntity
  8
AM_4
100
AcDbLine
 10
25338.85925218035
 20
604.0686651350188
 30
0.0
 11
25338.85925218035
 21
595.0840641853792
 31
0.0
  0
LINE
  5
1B933
330
1F
100
AcDbEntity
  8
AM_4
100
AcDbLine
 10
25338.85925218035
 20
602.0686651350188
 30
0.0
 11
25338.85925218035
 21
595.0840641853792
 31
0.0
  0
LINE
  5
1B934
330
1F
100
AcDbEntity
  8
AM_4
100
AcDbLine
 10
25338.85925218035
 20
600.0686651350187
 30
0.0
 11
25338.85925218035
 21
595.0840641853792
 31
0.0
  0
LINE
  5
1B935
330
1F
100
AcDbEntity
  8
AM_4
100
AcDbLine
 10
25338.85925218035
 20
598.0686651350188
 30
0.0
 11
25338.85925218035
 21
595.0840641853792
 31
0.0
  0
LINE
  5
1B936
330
1F
100
AcDbEntity
  8
AM_4
100
AcDbLine
 10
25339.85925218035
 20
604.0686651350188
 30
0.0
 11
25339.85925218035
 21
595.046533362547
 31
0.0
  0
LINE
  5
1B937
330
1F
100
AcDbEntity
  8
AM_4
100
AcDbLine
 10
25339.85925218035
 20
602.0686651350188
 30
0.0
 11
25339.85925218035
 21
595.046533362547
 31
0.0
  0
LINE
  5
1B938
330
1F
100
AcDbEntity
  8
AM_4
100
AcDbLine
 10
25339.85925218035
 20
600.0686651350187
 30
0.0
 11
25339.85925218035
 21
595.046533362547
 31
0.0
  0
LINE
  5
1B939
330
1F
100
AcDbEntity
  8
AM_4
100
AcDbLine
 10
25339.85925218035
 20
598.0686651350188
 30
0.0
 11
25339.85925218035
 21
595.046533362547
 31
0.0
  0
LINE
  5
1B93A
330
1F
100
AcDbEntity
  8
AM_4
100
AcDbLine
 10
25340.85925218035
 20
604.0686651350188
 30
0.0
 11
25340.85925218035
 21
595.0090025397185
 31
0.0
  0
LINE
  5
1B93B
330
1F
100
AcDbEntity
  8
AM_4
100
AcDbLine
 10
25340.85925218035
 20
602.0686651350188
 30
0.0
 11
25340.85925218035
 21
595.0090025397185
 31
0.0
  0
LINE
  5
1B93C
330
1F
100
AcDbEntity
  8
AM_4
100
AcDbLine
 10
25340.85925218035
 20
600.0686651350187
 30
0.0
 11
25340.85925218035
 21
595.0090025397185
 31
0.0
  0
LINE
  5
1B93D
330
1F
100
AcDbEntity
  8
AM_4
100
AcDbLine
 10
25340.85925218035
 20
598.0686651350188
 30
0.0
 11
25340.85925218035
 21
595.0090025397185
 31
0.0
  0
LINE
  5
1B93E
330
1F
100
AcDbEntity
  8
AM_4
100
AcDbLine
 10
25341.85925218035
 20
604.0311343121902
 30
0.0
 11
25341.85925218035
 21
594.9714717168863
 31
0.0
  0
LINE
  5
1B93F
330
1F
100
AcDbEntity
  8
AM_4
100
AcDbLine
 10
25341.85925218035
 20
602.0311343121902
 30
0.0
 11
25341.85925218035
 21
594.9714717168863
 31
0.0
  0
LINE
  5
1B940
330
1F
100
AcDbEntity
  8
AM_4
100
AcDbLine
 10
25341.85925218035
 20
600.0311343121902
 30
0.0
 11
25341.85925218035
 21
594.9714717168863
 31
0.0
  0
LINE
  5
1B941
330
1F
100
AcDbEntity
  8
AM_4
100
AcDbLine
 10
25341.85925218035
 20
598.0311343121902
 30
0.0
 11
25341.85925218035
 21
594.9714717168863
 31
0.0
  0
LINE
  5
1B942
102
{ACAD_REACTORS
330
1B982
102
}
330
1F
100
AcDbEntity
  8
AM_0
100
AcDbLine
 10
25333.30305190195
 20
594.5426802982401
 30
0.0
 11
25334.30305190195
 21
604.5426802982401
 31
0.0
  0
LINE
  5
1B943
330
1F
100
AcDbEntity
  8
AM_0
100
AcDbLine
 10
25379.80305190195
 20
476.5426802982402
 30
0.0
 11
25304.80305190195
 21
476.5426802982402
 31
0.0
1001
GENIUS_GENREC_14
1002
{
1000
PYDIR
1011
25379.80305190195
1021
471.5426802982401
1031
0.0
1002
}
1002
{
1000
PXDIR
1011
25304.80305190195
1021
476.5426802982402
1031
0.0
1002
}
1002
{
1000
PORI
1011
25379.80305190195
1021
476.5426802982402
1031
0.0
1002
}
1002
{
1000
PINS
1011
25379.80305190195
1021
476.5426802982402
1031
0.0
1002
}
1002
{
1000
HVAL
1000
5
1002
}
1002
{
1000
H
1070
     2
1002
}
1002
{
1000
WVAL
1000
77
1002
}
1002
{
1000
W
1070
     2
1002
}
1002
{
1000
C
1070
     1
1002
}
1001
GENIUS_GENOBJ-N-REC_13
1002
{
1000
OWNER
1000
GEN
1002
}
1001
GENIUS_GENODEF_13
1002
{
1000
HIER
1070
     0
1002
}
1002
{
1000
MANEDIT
1070
     0
1002
}
1002
{
1000
NOSEL
1070
     0
1002
}
1002
{
1000
BEHIND
1070
     0
1002
}
1002
{
1000
OTHER
1070
     0
1002
}
1002
{
1000
REACTOR
1002
}
  0
LINE
  5
1B944
330
1F
100
AcDbEntity
  8
AM_0
100
AcDbLine
 10
25304.80305190195
 20
476.5426802982402
 30
0.0
 11
25304.80305190195
 21
471.5426802982401
 31
0.0
1001
GENIUS_GENREC_14
1002
{
1000
PYDIR
1011
25380.80305190195
1021
471.5426802982401
1031
0.0
1002
}
1002
{
1000
PXDIR
1011
25304.80305190195
1021
476.5426802982402
1031
0.0
1002
}
1002
{
1000
PORI
1011
25380.80305190195
1021
476.5426802982402
1031
0.0
1002
}
1002
{
1000
PINS
1011
25380.80305190195
1021
476.5426802982402
1031
0.0
1002
}
1002
{
1000
HVAL
1000
5
1002
}
1002
{
1000
H
1070
     2
1002
}
1002
{
1000
WVAL
1000
77
1002
}
1002
{
1000
W
1070
     2
1002
}
1002
{
1000
C
1070
     1
1002
}
1001
GENIUS_GENOBJ-N-REC_13
1002
{
1000
OWNER
1000
GEN
1002
}
1001
GENIUS_GENODEF_13
1002
{
1000
HIER
1070
     0
1002
}
1002
{
1000
MANEDIT
1070
     0
1002
}
1002
{
1000
NOSEL
1070
     0
1002
}
1002
{
1000
BEHIND
1070
     0
1002
}
1002
{
1000
OTHER
1070
     0
1002
}
1002
{
1000
REACTOR
1002
}
  0
LINE
  5
1B945
330
1F
100
AcDbEntity
  8
AM_0
100
AcDbLine
 10
25304.80305190195
 20
471.5426802982401
 30
0.0
 11
25379.80305190195
 21
471.5426802982401
 31
0.0
1001
GENIUS_GENREC_14
1002
{
1000
PYDIR
1011
25379.80305190195
1021
471.5426802982401
1031
0.0
1002
}
1002
{
1000
PXDIR
1011
25304.80305190195
1021
476.5426802982402
1031
0.0
1002
}
1002
{
1000
PORI
1011
25379.80305190195
1021
476.5426802982402
1031
0.0
1002
}
1002
{
1000
PINS
1011
25379.80305190195
1021
476.5426802982402
1031
0.0
1002
}
1002
{
1000
HVAL
1000
5
1002
}
1002
{
1000
H
1070
     2
1002
}
1002
{
1000
WVAL
1000
77
1002
}
1002
{
1000
W
1070
     2
1002
}
1002
{
1000
C
1070
     1
1002
}
1001
GENIUS_GENOBJ-N-REC_13
1002
{
1000
OWNER
1000
GEN
1002
}
1001
GENIUS_GENODEF_13
1002
{
1000
HIER
1070
     0
1002
}
1002
{
1000
MANEDIT
1070
     0
1002
}
1002
{
1000
NOSEL
1070
     0
1002
}
1002
{
1000
BEHIND
1070
     0
1002
}
1002
{
1000
OTHER
1070
     0
1002
}
1002
{
1000
REACTOR
1002
}
  0
LINE
  5
1B946
330
1F
100
AcDbEntity
  8
AM_0
100
AcDbLine
 10
25379.80305190195
 20
471.5426802982401
 30
0.0
 11
25379.80305190195
 21
476.5426802982402
 31
0.0
1001
GENIUS_GENREC_14
1002
{
1000
PYDIR
1011
25379.80305190195
1021
471.5426802982401
1031
0.0
1002
}
1002
{
1000
PXDIR
1011
25303.80305190195
1021
476.5426802982402
1031
0.0
1002
}
1002
{
1000
PORI
1011
25379.80305190195
1021
476.5426802982402
1031
0.0
1002
}
1002
{
1000
PINS
1011
25379.80305190195
1021
476.5426802982402
1031
0.0
1002
}
1002
{
1000
HVAL
1000
5
1002
}
1002
{
1000
H
1070
     2
1002
}
1002
{
1000
WVAL
1000
77
1002
}
1002
{
1000
W
1070
     2
1002
}
1002
{
1000
C
1070
     1
1002
}
1001
GENIUS_GENOBJ-N-REC_13
1002
{
1000
OWNER
1000
GEN
1002
}
1001
GENIUS_GENODEF_13
1002
{
1000
HIER
1070
     0
1002
}
1002
{
1000
MANEDIT
1070
     0
1002
}
1002
{
1000
NOSEL
1070
     0
1002
}
1002
{
1000
BEHIND
1070
     0
1002
}
1002
{
1000
OTHER
1070
     0
1002
}
1002
{
1000
REACTOR
1002
}
  0
LINE
  5
1B947
330
1F
100
AcDbEntity
  8
AM_0
100
AcDbLine
 10
25378.80305190195
 20
476.5426802982402
 30
0.0
 11
25378.80305190195
 21
506.5426802982401
 31
0.0
  0
LINE
  5
1B948
330
1F
100
AcDbEntity
  8
AM_0
100
AcDbLine
 10
25305.80305190195
 20
476.5426802982402
 30
0.0
 11
25305.80305190195
 21
506.5426802982401
 31
0.0
  0
LINE
  5
1B949
330
1F
100
AcDbEntity
  8
AM_0
100
AcDbLine
 10
25376.80305190195
 20
470.5426802982401
 30
0.0
 11
25376.80305190195
 21
451.5426802982402
 31
0.0
  0
LINE
  5
1B94A
330
1F
100
AcDbEntity
  8
AM_0
100
AcDbLine
 10
25356.80305190195
 20
471.5426802982401
 30
0.0
 11
25356.80305190195
 21
451.5426802982402
 31
0.0
  0
LINE
  5
1B94B
330
1F
100
AcDbEntity
  8
AM_0
100
AcDbLine
 10
25307.80305190195
 20
470.5426802982401
 30
0.0
 11
25307.80305190195
 21
451.5426802982402
 31
0.0
  0
LINE
  5
1B94C
330
1F
100
AcDbEntity
  8
AM_0
100
AcDbLine
 10
25327.80305190195
 20
471.5426802982401
 30
0.0
 11
25327.80305190195
 21
451.5426802982402
 31
0.0
  0
LINE
  5
1B94D
330
1F
100
AcDbEntity
  8
AM_0
100
AcDbLine
 10
25376.80305190195
 20
470.5426802982401
 30
0.0
 11
25377.80305190195
 21
471.5426802982401
 31
0.0
  0
LINE
  5
1B94E
330
1F
100
AcDbEntity
  8
AM_0
100
AcDbLine
 10
25307.80305190195
 20
470.5426802982401
 30
0.0
 11
25306.80305190195
 21
471.5426802982401
 31
0.0
  0
ARC
  5
1B94F
330
1F
100
AcDbEntity
  8
AM_0
100
AcDbCircle
 10
25366.80305190195
 20
475.5426802982292
 30
0.0
 40
25.99999999999762
100
AcDbArc
 50
247.3801350520878
 51
292.6198649479122
  0
ARC
  5
1B950
330
1F
100
AcDbEntity
  8
AM_0
100
AcDbCircle
 10
25342.30305190195
 20
503.1051802982402
 30
0.0
 40
53.56250000000069
100
AcDbArc
 50
254.2933733960007
 51
285.7066266039993
  0
ARC
  5
1B951
330
1F
100
AcDbEntity
  8
AM_0
100
AcDbCircle
 10
25317.80305190195
 20
475.5426802982292
 30
0.0
 40
25.99999999999762
100
AcDbArc
 50
247.3801350520878
 51
292.6198649479122
  0
LINE
  5
1B952
330
1F
100
AcDbEntity
  8
AM_0
100
AcDbLine
 10
25366.80305190195
 20
449.5426802982401
 30
0.0
 11
25317.80305190195
 21
449.5426802982401
 31
0.0
  0
LINE
  5
1B953
330
1F
100
AcDbEntity
  8
AM_0
100
AcDbLine
 10
25363.30305190195
 20
445.5426802982401
 30
0.0
 11
25366.80305190195
 21
449.5426802982401
 31
0.0
  0
LINE
  5
1B954
102
{ACAD_REACTORS
330
1B97F
330
1B982
102
}
330
1F
100
AcDbEntity
  8
AM_0
100
AcDbLine
 10
25321.30305190195
 20
445.5426802982401
 30
0.0
 11
25317.80305190195
 21
449.5426802982401
 31
0.0
  0
LINE
  5
1B955
330
1F
100
AcDbEntity
  8
AM_0
100
AcDbLine
 10
25293.45305190195
 20
485.1044302982408
 30
0.0
 11
25295.90305190195
 21
485.1044302982408
 31
0.0
  0
LINE
  5
1B956
330
1F
100
AcDbEntity
  8
AM_0
100
AcDbLine
 10
25293.45305190195
 20
498.8191802982401
 30
0.0
 11
25295.90305190195
 21
498.8191802982401
 31
0.0
  0
LINE
  5
1B957
330
1F
100
AcDbEntity
  8
AM_0
100
AcDbLine
 10
25293.45305190195
 20
495.1809302982401
 30
0.0
 11
25295.90305190195
 21
495.1809302982401
 31
0.0
  0
LINE
  5
1B958
330
1F
100
AcDbEntity
  8
AM_0
100
AcDbLine
 10
25293.45305190195
 20
481.4661802982409
 30
0.0
 11
25295.90305190195
 21
481.4661802982409
 31
0.0
  0
LINE
  5
1B959
330
1F
100
AcDbEntity
  8
AM_0
100
AcDbLine
 10
25295.90305190195
 20
498.8191802982401
 30
0.0
 11
25295.90305190195
 21
481.4661802982409
 31
0.0
  0
LWPOLYLINE
  5
1B95A
330
1F
100
AcDbEntity
  8
AM_0
100
AcDbPolyline
 90
        4
 70
     1
 43
0.0
 10
25305.80305190195
 20
498.3676802982408
 10
25305.80305190195
 20
481.9176802982402
 10
25295.90305190195
 20
481.9176802982402
 10
25295.90305190195
 20
498.3676802982408
1001
GENIUS_GENREC_14
1002
{
1000
PYDIR
1011
25295.90305190195
1021
498.3676802982408
1031
0.0
1002
}
1002
{
1000
PXDIR
1011
25305.80305190195
1021
481.9176802982402
1031
0.0
1002
}
1002
{
1000
PORI
1011
25305.80305190195
1021
498.3676802982408
1031
0.0
1002
}
1002
{
1000
PINS
1011
25305.80305190195
1021
498.3676802982408
1031
0.0
1002
}
1002
{
1000
HVAL
1000
7
1002
}
1002
{
1000
H
1070
     2
1002
}
1002
{
1000
WVAL
1000
23.5
1002
}
1002
{
1000
W
1070
     2
1002
}
1002
{
1000
C
1070
     1
1002
}
1001
GENIUS_GENOBJ-N-REC_13
1002
{
1000
OWNER
1000
GEN
1002
}
1001
GENIUS_GENODEF_13
1002
{
1000
HIER
1070
     0
1002
}
1002
{
1000
MANEDIT
1070
     0
1002
}
1002
{
1000
NOSEL
1070
     0
1002
}
1002
{
1000
BEHIND
1070
     0
1002
}
1002
{
1000
OTHER
1070
     0
1002
}
1002
{
1000
REACTOR
1002
}
  0
LINE
  5
1B95B
330
1F
100
AcDbEntity
  8
AM_4
100
AcDbLine
 10
25295.90305190195
 20
490.1426802982387
 30
0.0
 11
25305.80305190195
 21
490.1426802982387
 31
0.0
  0
LINE
  5
1B95C
330
1F
100
AcDbEntity
  8
AM_4
100
AcDbLine
 10
25295.90305190195
 20
489.4426802982415
 30
0.0
 11
25305.80305190195
 21
489.4426802982415
 31
0.0
  0
LINE
  5
1B95D
330
1F
100
AcDbEntity
  8
AM_4
100
AcDbLine
 10
25295.90305190195
 20
488.7426802982409
 30
0.0
 11
25305.80305190195
 21
488.7426802982409
 31
0.0
  0
LINE
  5
1B95E
330
1F
100
AcDbEntity
  8
AM_4
100
AcDbLine
 10
25295.90305190195
 20
488.0426802982401
 30
0.0
 11
25305.80305190195
 21
488.0426802982401
 31
0.0
  0
LINE
  5
1B95F
330
1F
100
AcDbEntity
  8
AM_4
100
AcDbLine
 10
25295.90305190195
 20
487.3426802982394
 30
0.0
 11
25305.80305190195
 21
487.3426802982394
 31
0.0
  0
LINE
  5
1B960
330
1F
100
AcDbEntity
  8
AM_4
100
AcDbLine
 10
25295.90305190195
 20
486.6426802982386
 30
0.0
 11
25305.80305190195
 21
486.6426802982386
 31
0.0
  0
LINE
  5
1B961
330
1F
100
AcDbEntity
  8
AM_4
100
AcDbLine
 10
25295.90305190195
 20
485.9426802982416
 30
0.0
 11
25305.80305190195
 21
485.9426802982416
 31
0.0
  0
LINE
  5
1B962
330
1F
100
AcDbEntity
  8
AM_4
100
AcDbLine
 10
25295.90305190195
 20
485.2426802982408
 30
0.0
 11
25305.80305190195
 21
485.2426802982408
 31
0.0
  0
LINE
  5
1B963
330
1F
100
AcDbEntity
  8
AM_4
100
AcDbLine
 10
25295.90305190195
 20
484.5426802982401
 30
0.0
 11
25305.80305190195
 21
484.5426802982401
 31
0.0
  0
LINE
  5
1B964
330
1F
100
AcDbEntity
  8
AM_4
100
AcDbLine
 10
25295.90305190195
 20
483.8426802982394
 30
0.0
 11
25305.80305190195
 21
483.8426802982394
 31
0.0
  0
LINE
  5
1B965
330
1F
100
AcDbEntity
  8
AM_4
100
AcDbLine
 10
25295.90305190195
 20
483.1426802982386
 30
0.0
 11
25305.80305190195
 21
483.1426802982386
 31
0.0
  0
LINE
  5
1B966
330
1F
100
AcDbEntity
  8
AM_4
100
AcDbLine
 10
25295.90305190195
 20
482.4426802982416
 30
0.0
 11
25305.80305190195
 21
482.4426802982416
 31
0.0
  0
LINE
  5
1B967
330
1F
100
AcDbEntity
  8
AM_4
100
AcDbLine
 10
25295.90305190195
 20
490.8426802982394
 30
0.0
 11
25305.80305190195
 21
490.8426802982394
 31
0.0
  0
LINE
  5
1B968
330
1F
100
AcDbEntity
  8
AM_4
100
AcDbLine
 10
25295.90305190195
 20
491.5426802982401
 30
0.0
 11
25305.80305190195
 21
491.5426802982401
 31
0.0
  0
LINE
  5
1B969
330
1F
100
AcDbEntity
  8
AM_4
100
AcDbLine
 10
25295.90305190195
 20
492.2426802982409
 30
0.0
 11
25305.80305190195
 21
492.2426802982409
 31
0.0
  0
LINE
  5
1B96A
330
1F
100
AcDbEntity
  8
AM_4
100
AcDbLine
 10
25295.90305190195
 20
492.9426802982415
 30
0.0
 11
25305.80305190195
 21
492.9426802982415
 31
0.0
  0
LINE
  5
1B96B
330
1F
100
AcDbEntity
  8
AM_4
100
AcDbLine
 10
25295.90305190195
 20
493.6426802982387
 30
0.0
 11
25305.80305190195
 21
493.6426802982387
 31
0.0
  0
LINE
  5
1B96C
330
1F
100
AcDbEntity
  8
AM_4
100
AcDbLine
 10
25295.90305190195
 20
494.3426802982394
 30
0.0
 11
25305.80305190195
 21
494.3426802982394
 31
0.0
  0
LINE
  5
1B96D
330
1F
100
AcDbEntity
  8
AM_4
100
AcDbLine
 10
25295.90305190195
 20
495.0426802982401
 30
0.0
 11
25305.80305190195
 21
495.0426802982401
 31
0.0
  0
LINE
  5
1B96E
330
1F
100
AcDbEntity
  8
AM_4
100
AcDbLine
 10
25295.90305190195
 20
495.7426802982409
 30
0.0
 11
25305.80305190195
 21
495.7426802982409
 31
0.0
  0
LINE
  5
1B96F
330
1F
100
AcDbEntity
  8
AM_4
100
AcDbLine
 10
25295.90305190195
 20
496.4426802982416
 30
0.0
 11
25305.80305190195
 21
496.4426802982416
 31
0.0
  0
LINE
  5
1B970
330
1F
100
AcDbEntity
  8
AM_4
100
AcDbLine
 10
25295.90305190195
 20
497.1426802982387
 30
0.0
 11
25305.80305190195
 21
497.1426802982387
 31
0.0
  0
LINE
  5
1B971
330
1F
100
AcDbEntity
  8
AM_4
100
AcDbLine
 10
25295.90305190195
 20
497.8426802982394
 30
0.0
 11
25305.80305190195
 21
497.8426802982394
 31
0.0
  0
LINE
  5
1B972
330
1F
100
AcDbEntity
  8
AM_0
100
AcDbLine
 10
25293.45305190195
 20
481.4661802982409
 30
0.0
 11
25293.45305190195
 21
498.8191802982401
 31
0.0
  0
LWPOLYLINE
  5
1B973
330
1F
100
AcDbEntity
  8
AM_0
100
AcDbPolyline
 90
        4
 70
     1
 43
0.0
 10
25344.80305190195
 20
433.5426802982401
 10
25339.80305190195
 20
433.5426802982401
 10
25339.80305190195
 20
253.5426802982402
 10
25344.80305190195
 20
253.5426802982402
1001
GENIUS_GENREC_14
1002
{
1000
PYDIR
1011
25344.80305190195
1021
253.5426802982402
1031
0.0
1002
}
1002
{
1000
PXDIR
1011
25339.80305190195
1021
433.5426802982401
1031
0.0
1002
}
1002
{
1000
PORI
1011
25344.80305190195
1021
433.5426802982401
1031
0.0
1002
}
1002
{
1000
PINS
1011
25344.80305190195
1021
433.5426802982401
1031
0.0
1002
}
1002
{
1000
HVAL
1000
180
1002
}
1002
{
1000
H
1070
     2
1002
}
1002
{
1000
WVAL
1000
5
1002
}
1002
{
1000
W
1070
     2
1002
}
1002
{
1000
C
1070
     1
1002
}
1001
GENIUS_GENODEF_13
1002
{
1000
HIER
1070
     0
1002
}
1002
{
1000
MANEDIT
1070
     0
1002
}
1002
{
1000
NOSEL
1070
     0
1002
}
1002
{
1000
BEHIND
1070
     0
1002
}
1002
{
1000
OTHER
1070
     0
1002
}
1002
{
1000
REACTOR
1002
}
1001
GENIUS_GENOBJ-N-REC_13
1002
{
1000
OWNER
1000
GEN
1002
}
  0
LINE
  5
1B974
330
1F
100
AcDbEntity
  8
AM_0
100
AcDbLine
 10
25360.80305190195
 20
433.5426802982401
 30
0.0
 11
25360.80305190195
 21
-11.95731970177075
 31
0.0
  0
LINE
  5
1B975
330
1F
100
AcDbEntity
  8
AM_0
100
AcDbLine
 10
25353.30305190195
 20
433.5426802982401
 30
0.0
 11
25353.30305190195
 21
-11.95731970177075
 31
0.0
  0
LINE
  5
1B976
330
1F
100
AcDbEntity
  8
AM_0
100
AcDbLine
 10
25323.80305190195
 20
433.5426802982401
 30
0.0
 11
25323.80305190195
 21
-11.95731970177075
 31
0.0
  0
LINE
  5
1B977
330
1F
100
AcDbEntity
  8
AM_0
100
AcDbLine
 10
25331.30305190195
 20
433.5426802982401
 30
0.0
 11
25331.30305190195
 21
-11.95731970177075
 31
0.0
  0
ARC
  5
1B978
102
{ACAD_REACTORS
330
1B97F
102
}
330
1F
100
AcDbEntity
  8
AM_0
100
AcDbCircle
 10
25342.30305190195
 20
-11.95731970177075
 30
0.0
 40
18.49999999999784
100
AcDbArc
 50
180.0
 51
0.0
  0
ARC
  5
1B979
330
1F
100
AcDbEntity
  8
AM_0
100
AcDbCircle
 10
25342.30305190195
 20
-11.95731970177075
 30
0.0
 40
10.99999999999784
100
AcDbArc
 50
180.0
 51
0.0
  0
DIMENSION
  5
1B97A
102
{ACAD_XDICTIONARY
360
1B97B
102
}
102
{ACAD_REACTORS
330
1B97C
102
}
330
1F
100
AcDbEntity
  8
AM_5
100
AcDbDimension
  2
*D2
 10
25321.30305190195
 20
398.6070171326064
 30
0.0
 11
25473.3105553126
 21
398.6070171326064
 31
0.0
 70
   160
  1
R 1 1/2
 71
     5
 42
42.0
  3
GEN-ISO$0
100
AcDbAlignedDimension
 13
25363.30305190195
 23
433.5426802982401
 33
0.0
 14
25321.30305190195
 24
433.5426802982401
 34
0.0
100
AcDbRotatedDimension
1001
ACAD_DSTYLE_DIMINSPECT
1070
   396
1000
100%
1070
   395
1000

1070
   394
1070
    33
1070
   393
1070
     0
1001
ACAD
1000
DSTYLE
1002
{
1070
   140
1040
2.5
1070
   271
1070
     0
1002
}
  0
DIMENSION
  5
1B97D
102
{ACAD_XDICTIONARY
360
1B97E
102
}
102
{ACAD_REACTORS
330
1B97F
102
}
330
1F
100
AcDbEntity
  8
AM_5
100
AcDbDimension
  2
*D3
 10
25231.05453073652
 20
-30.45731970175981
 30
0.0
 11
25212.34136566149
 21
207.5426802982442
 31
0.0
 70
    32
  1
475
 71
     5
 42
476.0
  3
GEN-ISO$0
100
AcDbAlignedDimension
 13
25321.30305190195
 23
445.5426802982401
 33
0.0
 14
25342.30305190195
 24
-30.45731970175984
 34
0.0
 50
270.0
100
AcDbRotatedDimension
1001
ACAD_DSTYLE_DIMINSPECT
1070
   396
1000
100%
1070
   395
1000

1070
   394
1070
    33
1070
   393
1070
     0
1001
ACAD
1000
DSTYLE
1002
{
1070
   140
1040
2.5
1070
   271
1070
     0
1002
}
  0
DIMENSION
  5
1B980
102
{ACAD_XDICTIONARY
360
1B981
102
}
102
{ACAD_REACTORS
330
1B982
102
}
330
1F
100
AcDbEntity
  8
AM_5
100
AcDbDimension
  2
*D4
 10
25231.05453073652
 20
445.5426802982401
 30
0.0
 11
25212.29020604348
 21
525.0426802982441
 31
0.0
 70
    32
  1
160
 71
     5
 42
158.9999999999999
  3
GEN-ISO$0
100
AcDbAlignedDimension
 13
25334.30305190195
 23
604.5426802982401
 33
0.0
 14
25321.30305190195
 24
445.5426802982401
 34
0.0
 50
270.0
100
AcDbRotatedDimension
1001
ACAD
1000
DSTYLE
1002
{
1070
   140
1040
2.5
1070
   271
1070
     0
1002
}
1001
ACAD_DSTYLE_DIMINSPECT
1070
   396
1000
100%
1070
   395
1000

1070
   394
1070
    33
1070
   393
1070
     0
  0
ENDSEC
  0
SECTION
  2
OBJECTS
  0
DICTIONARY
  5
C
330
0
100
AcDbDictionary
281
     1
  3
ACAD_2007HEADERVARS_RT
350
1C272
  3
ACAD_COLOR
350
BE
  3
ACAD_GROUP
350
D
  3
ACAD_LAYOUT
350
1A
  3
ACAD_MATERIAL
350
BD
  3
ACAD_MLEADERSTYLE
350
1AE30
  3
ACAD_MLINESTYLE
350
17
  3
ACAD_PLOTSETTINGS
350
19
  3
ACAD_PLOTSTYLENAME
350
E
  3
ACAD_SCALELIST
350
1AE1E
  3
ACAD_TABLESTYLE
350
11A
  3
ACAD_VISUALSTYLE
350
1AE0D
  3
ACDB_RECOMPOSE_DATA
350
1C270
  3
AcDbVariableDictionary
350
94
  3
AcmDictionary
350
5B
  3
AMG
350
41
  3
AMGSNAPSETTINGS
350
26B
  3
DWGPROPS
350
1C271
  0
DICTIONARY
  5
5E1
330
2
100
AcDbDictionary
280
     1
281
     1
  3
ACAD_LAYERFILTERS
360
10B7F
  3
ACAD_LAYERSTATES
360
5E2
  3
ACLYDICTIONARY
360
10B7E
  3
AMLAYER_GROUPCOLORS
360
1A2FE
  0
DICTIONARY
  5
1B268
330
10
100
AcDbDictionary
280
     1
281
     1
  3
ADSK_XREC_LAYER_RECONCILED
360
1B269
  0
DICTIONARY
  5
1B26A
330
1080A
100
AcDbDictionary
280
     1
281
     1
  3
ADSK_XREC_LAYER_RECONCILED
360
1B26B
  0
DICTIONARY
  5
1B26C
330
1A2FD
100
AcDbDictionary
280
     1
281
     1
  3
ADSK_XREC_LAYER_RECONCILED
360
1B26D
  0
DICTIONARY
  5
1B26E
330
1A820
100
AcDbDictionary
280
     1
281
     1
  3
ADSK_XREC_LAYER_RECONCILED
360
1B26F
  0
DICTIONARY
  5
8F
330
1F
100
AcDbDictionary
280
     1
281
     1
  3
ACAD_SORTENTS
360
9429
  0
DICTIONARY
  5
1B97B
330
1B97A
100
AcDbDictionary
280
     1
281
     1
  3
ACAD_DIMASSOC
360
1B97C
  0
DICTIONARY
  5
1B97E
330
1B97D
100
AcDbDictionary
280
     1
281
     1
  3
ACAD_DIMASSOC
360
1B97F
  0
DICTIONARY
  5
1B981
330
1B980
100
AcDbDictionary
280
     1
281
     1
  3
ACAD_DIMASSOC
360
1B982
  0
DICTIONARY
  5
1C272
102
{ACAD_REACTORS
330
C
102
}
330
C
100
AcDbDictionary
281
     1
  3
DIMARCSYM
350
1C273
  3
DIMJOGANG
350
1C274
  3
DIMLTEX1
350
1C276
  3
DIMLTEX2
350
1C277
  3
DIMLTYPE
350
1C275
  0
DICTIONARY
  5
BE
102
{ACAD_REACTORS
330
C
102
}
330
C
100
AcDbDictionary
281
     1
  0
DICTIONARY
  5
D
102
{ACAD_REACTORS
330
C
102
}
330
C
100
AcDbDictionary
281
     1
  0
DICTIONARY
  5
1A
102
{ACAD_REACTORS
330
C
102
}
330
C
100
AcDbDictionary
281
     1
  3
Layout1
350
1E
  3
Layout2
350
26
  3
Model
350
22
  0
DICTIONARY
  5
BD
102
{ACAD_REACTORS
330
C
102
}
330
C
100
AcDbDictionary
281
     1
  3
ByBlock
350
1ADFD
  3
ByLayer
350
1ADF5
  3
Global
350
1AE05
  0
DICTIONARY
  5
1AE30
102
{ACAD_REACTORS
330
C
102
}
330
C
100
AcDbDictionary
281
     1
  3
Standard
350
1AE31
  0
DICTIONARY
  5
17
102
{ACAD_REACTORS
330
C
102
}
330
C
100
AcDbDictionary
281
     1
  3
Standard
350
18
  0
DICTIONARY
  5
19
102
{ACAD_REACTORS
330
C
102
}
330
C
100
AcDbDictionary
281
     1
  0
ACDBDICTIONARYWDFLT
  5
E
102
{ACAD_REACTORS
330
C
102
}
330
C
100
AcDbDictionary
281
     1
  3
Normal
350
F
100
AcDbDictionaryWithDefault
340
F
  0
DICTIONARY
  5
1AE1E
102
{ACAD_REACTORS
330
C
102
}
330
C
100
AcDbDictionary
281
     1
  3
A0
350
1AE1F
  3
A1
350
1AE20
  3
A2
350
1AE21
  3
A3
350
1AE22
  3
A4
350
1AE23
  3
A5
350
1AE24
  3
A6
350
1AE25
  3
A7
350
1AE26
  3
A8
350
1AE27
  3
A9
350
1AE28
  3
B0
350
1AE29
  3
B1
350
1AE2A
  3
B2
350
1AE2B
  3
B3
350
1AE2C
  3
B4
350
1AE2D
  3
B5
350
1AE2E
  3
B6
350
1AE2F
  0
DICTIONARY
  5
11A
102
{ACAD_REACTORS
330
C
102
}
330
C
100
AcDbDictionary
281
     1
  3
Standard
350
11B
  0
DICTIONARY
  5
1AE0D
102
{ACAD_REACTORS
330
C
102
}
330
C
100
AcDbDictionary
281
     1
  3
2dWireframe
350
1AE13
  3
3D Hidden
350
1AE15
  3
3dWireframe
350
1AE14
  3
Basic
350
1AE12
  3
Brighten
350
1AE19
  3
ColorChange
350
1AE1D
  3
Conceptual
350
1AE16
  3
Dim
350
1AE18
  3
EdgeColorOff
350
1C1B5
  3
Facepattern
350
1AE1C
  3
Flat
350
1AE0E
  3
FlatWithEdges
350
1AE0F
  3
Gouraud
350
1AE10
  3
GouraudWithEdges
350
1AE11
  3
JitterOff
350
1C1B3
  3
Linepattern
350
1AE1B
  3
OverhangOff
350
1C1B4
  3
Realistic
350
1AE17
  3
Thicken
350
1AE1A
  0
XRECORD
  5
1C270
102
{ACAD_REACTORS
330
C
102
}
330
C
100
AcDbXrecord
280
     1
 90
        1
330
11B
  0
DICTIONARY
  5
94
102
{ACAD_REACTORS
330
C
102
}
330
C
100
AcDbDictionary
281
     1
  3
CANNOSCALE
350
1B805
  3
CMLEADERSTYLE
350
1B803
  3
CTABLESTYLE
350
138
  3
DIMASSOC
350
96
  3
INDEXCTL
350
95
  3
LAYEREVAL
350
1B807
  3
LAYERNOTIFY
350
1B808
  3
LIGHTINGUNITS
350
1B806
  3
MSLTSCALE
350
1B804
  3
PROJECTNAME
350
B168
  3
SORTENTS
350
1C19A
  3
XCLIPFRAME
350
1C26E
  0
DICTIONARY
  5
5B
102
{ACAD_REACTORS
330
C
102
}
330
C
100
AcDbDictionary
281
     1
  3
AcmBOM
350
272
  3
AcmStdDictionary
350
61
  3
AMDTSECTSYM_ARROWCOLOR
350
123
  0
DICTIONARY
  5
41
102
{ACAD_REACTORS
330
C
102
}
330
C
100
AcDbDictionary
281
     1
  0
DICTIONARY
  5
26B
102
{ACAD_REACTORS
330
C
102
}
330
C
100
AcDbDictionary
281
     1
  0
XRECORD
  5
1C271
102
{ACAD_REACTORS
330
C
102
}
330
C
100
AcDbXrecord
280
     1
  1
DWGPROPS COOKIE
  2

  3

  4

  6

  7

  8
Administrator
  9

300
AmdtFileType=84
301
=
302
=
303
=
304
=
305
=
306
=
307
=
308
=
309
=
 40
0.8446477662037036
 41
2454167.37697816
 42
2455136.612772523
  1

 90
        1
  0
DICTIONARY
  5
10B7F
102
{ACAD_REACTORS
330
5E1
102
}
330
5E1
100
AcDbDictionary
281
     1
  0
DICTIONARY
  5
5E2
102
{ACAD_REACTORS
330
5E1
102
}
330
5E1
100
AcDbDictionary
281
     1
  0
DICTIONARY
  5
10B7E
102
{ACAD_REACTORS
330
5E1
102
}
330
5E1
100
AcDbDictionary
281
     1
1001
ACAD
1000
<All
  0
DICTIONARY
  5
1A2FE
102
{ACAD_REACTORS
330
5E1
102
}
330
5E1
100
AcDbDictionary
280
     1
281
     1
  0
XRECORD
  5
1B269
102
{ACAD_REACTORS
330
1B268
102
}
330
1B268
100
AcDbXrecord
280
     1
290
     1
  0
XRECORD
  5
1B26B
102
{ACAD_REACTORS
330
1B26A
102
}
330
1B26A
100
AcDbXrecord
280
     1
290
     1
  0
XRECORD
  5
1B26D
102
{ACAD_REACTORS
330
1B26C
102
}
330
1B26C
100
AcDbXrecord
280
     1
290
     1
  0
XRECORD
  5
1B26F
102
{ACAD_REACTORS
330
1B26E
102
}
330
1B26E
100
AcDbXrecord
280
     1
290
     1
  0
SORTENTSTABLE
  5
9429
102
{ACAD_REACTORS
330
8F
102
}
330
8F
100
AcDbSortentsTable
330
1F
331
1B93F
  5
1B93F
331
1B93B
  5
1B93B
331
1B937
  5
1B937
331
1B976
  5
1B976
331
1B933
  5
1B933
331
1B8FE
  5
1B8FE
331
1B972
  5
1B972
331
1B8FA
  5
1B8FA
331
1B96E
  5
1B96E
331
1B92F
  5
1B92F
331
1B96A
  5
1B96A
331
1B8F6
  5
1B8F6
331
1B92B
  5
1B92B
331
1B927
  5
1B927
331
1B966
  5
1B966
331
1B8F2
  5
1B8F2
331
1B923
  5
1B923
331
1B8EE
  5
1B8EE
331
1B962
  5
1B962
331
1B8EA
  5
1B8EA
331
1B91F
  5
1B91F
331
1B95E
  5
1B95E
331
1B95A
  5
1B95A
331
1B91B
  5
1B91B
331
1B917
  5
1B917
331
1B956
  5
1B956
331
1B913
  5
1B913
331
1B952
  5
1B952
331
1B97D
  5
1B97D
331
1B979
  5
1B979
331
1B90F
  5
1B90F
331
1B94E
  5
1B94E
331
1B94A
  5
1B94A
331
1B90B
  5
1B90B
331
1B907
  5
1B907
331
1B946
  5
1B946
331
1B903
  5
1B903
331
1B942
  5
1B942
331
1B93E
  5
1B93E
331
1B93A
  5
1B93A
331
1B936
  5
1B936
331
1B975
  5
1B975
331
1B932
  5
1B932
331
1B8FD
  5
1B8FD
331
1B971
  5
1B971
331
1B8F9
  5
1B8F9
331
1B96D
  5
1B96D
331
1B92E
  5
1B92E
331
1B92A
  5
1B92A
331
1B969
  5
1B969
331
1B8F5
  5
1B8F5
331
1B926
  5
1B926
331
1B965
  5
1B965
331
1B8F1
  5
1B8F1
331
1B922
  5
1B922
331
1B8ED
  5
1B8ED
331
1B961
  5
1B961
331
1B95D
  5
1B95D
331
1B91E
  5
1B91E
331
1B959
  5
1B959
331
1B91A
  5
1B91A
331
1B916
  5
1B916
331
1B955
  5
1B955
331
1B912
  5
1B912
331
1B951
  5
1B951
331
1B978
  5
1B978
331
1B90E
  5
1B90E
331
1B94D
  5
1B94D
331
1B949
  5
1B949
331
1B90A
  5
1B90A
331
1B906
  5
1B906
331
1B945
  5
1B945
331
1B902
  5
1B902
331
1B941
  5
1B941
331
1B980
  5
1B980
331
1B93D
  5
1B93D
331
1B939
  5
1B939
331
1B935
  5
1B935
331
1B974
  5
1B974
331
1B931
  5
1B931
331
1B8FC
  5
1B8FC
331
1B970
  5
1B970
331
1B8F8
  5
1B8F8
331
1B96C
  5
1B96C
331
1B92D
  5
1B92D
331
1B929
  5
1B929
331
1B968
  5
1B968
331
1B8F4
  5
1B8F4
331
1B925
  5
1B925
331
1B8F0
  5
1B8F0
331
1B964
  5
1B964
331
1B921
  5
1B921
331
1B8EC
  5
1B8EC
331
1B960
  5
1B960
331
1B95C
  5
1B95C
331
1B91D
  5
1B91D
331
1B919
  5
1B919
331
1B958
  5
1B958
331
1B915
  5
1B915
331
1B954
  5
1B954
331
1B911
  5
1B911
331
1B950
  5
1B950
331
1B94C
  5
1B94C
331
1B90D
  5
1B90D
331
1B948
  5
1B948
331
1B909
  5
1B909
331
1B905
  5
1B905
331
1B944
  5
1B944
331
1B901
  5
1B901
331
1B940
  5
1B940
331
1B93C
  5
1B93C
331
1B938
  5
1B938
331
1B977
  5
1B977
331
1B934
  5
1B934
331
1B8FF
  5
1B8FF
331
1B973
  5
1B973
331
1B930
  5
1B930
331
1B8FB
  5
1B8FB
331
1B96F
  5
1B96F
331
1B96B
  5
1B96B
331
1B92C
  5
1B92C
331
1B8F7
  5
1B8F7
331
1B928
  5
1B928
331
1B967
  5
1B967
331
1B8F3
  5
1B8F3
331
1B924
  5
1B924
331
1B8EF
  5
1B8EF
331
1B963
  5
1B963
331
1B920
  5
1B920
331
1B8EB
  5
1B8EB
331
1B95F
  5
1B95F
331
1B95B
  5
1B95B
331
1B91C
  5
1B91C
331
1B918
  5
1B918
331
1B957
  5
1B957
331
1B914
  5
1B914
331
1B953
  5
1B953
331
1B910
  5
1B910
331
1B97A
  5
1B97A
331
1B94F
  5
1B94F
331
1B94B
  5
1B94B
331
1B90C
  5
1B90C
331
1B908
  5
1B908
331
1B947
  5
1B947
331
1B904
  5
1B904
331
1B943
  5
1B943
331
1B900
  5
1B900
  0
DIMASSOC
  5
1B97C
102
{ACAD_REACTORS
330
1B97B
102
}
330
1B97B
100
AcDbDimAssoc
330
1B97A
 90
        3
 70
     0
 71
     0
  1
AcDbOsnapPointRef
 72
    13
331
1B8EE
 73
     0
 91
        0
 40
0.0
 10
0.0
 20
0.0
 30
2.000000000000000E+50
 75
     0
  1
AcDbOsnapPointRef
 72
    13
331
1B8ED
 73
     0
 91
        0
 40
0.0
 10
0.0
 20
0.0
 30
2.000000000000000E+50
 75
     0
  0
DIMASSOC
  5
1B97F
102
{ACAD_REACTORS
330
1B97E
102
}
330
1B97E
100
AcDbDimAssoc
330
1B97D
 90
        3
 70
     0
 71
     0
  1
AcDbOsnapPointRef
 72
    13
331
1B954
 73
     0
 91
        0
 40
0.0
 10
0.0
 20
0.0
 30
2.000000000000000E+50
 75
     0
  1
AcDbOsnapPointRef
 72
     2
331
1B978
 73
     0
 91
        0
 40
0.0
 10
0.0
 20
0.0
 30
0.0
 75
     0
  0
DIMASSOC
  5
1B982
102
{ACAD_REACTORS
330
1B981
102
}
330
1B981
100
AcDbDimAssoc
330
1B980
 90
        3
 70
     0
 71
     0
  1
AcDbOsnapPointRef
 72
     1
331
1B942
 73
     0
 91
        0
 40
0.0
 10
0.0
 20
0.0
 30
2.000000000000000E+50
 75
     0
  1
AcDbOsnapPointRef
 72
    13
331
1B954
 73
     0
 91
        0
 40
0.0
 10
0.0
 20
0.0
 30
2.000000000000000E+50
 75
     0
  0
XRECORD
  5
1C273
102
{ACAD_REACTORS
330
1C272
102
}
330
1C272
100
AcDbXrecord
280
     1
 70
     1
  0
XRECORD
  5
1C274
102
{ACAD_REACTORS
330
1C272
102
}
330
1C272
100
AcDbXrecord
280
     1
 40
1.570796326794896
  0
XRECORD
  5
1C276
102
{ACAD_REACTORS
330
1C272
102
}
330
1C272
100
AcDbXrecord
280
     1
340
14
  0
XRECORD
  5
1C277
102
{ACAD_REACTORS
330
1C272
102
}
330
1C272
100
AcDbXrecord
280
     1
340
14
  0
XRECORD
  5
1C275
102
{ACAD_REACTORS
330
1C272
102
}
330
1C272
100
AcDbXrecord
280
     1
340
14
  0
LAYOUT
  5
1E
102
{ACAD_XDICTIONARY
360
1C278
102
}
102
{ACAD_REACTORS
330
1A
102
}
330
1A
100
AcDbPlotSettings
  1

  2

  4

  6

 40
0.0
 41
0.0
 42
0.0
 43
0.0
 44
0.0
 45
0.0
 46
0.0
 47
0.0
 48
0.0
 49
0.0
140
0.0
141
0.0
142
1.0
143
1.0
 70
   688
 72
     0
 73
     0
 74
     5
  7
monochrome uw.ctb
 75
    16
147
1.0
148
0.0
149
0.0
100
AcDbLayout
  1
Layout1
 70
     1
 71
     1
 10
0.0
 20
0.0
 11
420.0
 21
297.0
 12
0.0
 22
0.0
 32
0.0
 14
1.000000000000000E+20
 24
1.000000000000000E+20
 34
1.000000000000000E+20
 15
-1.000000000000000E+20
 25
-1.000000000000000E+20
 35
-1.000000000000000E+20
146
0.0
 13
0.0
 23
0.0
 33
0.0
 16
1.0
 26
0.0
 36
0.0
 17
0.0
 27
1.0
 37
0.0
 76
     0
330
1B
  0
LAYOUT
  5
26
102
{ACAD_XDICTIONARY
360
1C27C
102
}
102
{ACAD_REACTORS
330
1A
102
}
330
1A
100
AcDbPlotSettings
  1

  2

  4

  6

 40
0.0
 41
0.0
 42
0.0
 43
0.0
 44
0.0
 45
0.0
 46
0.0
 47
0.0
 48
0.0
 49
0.0
140
0.0
141
0.0
142
1.0
143
1.0
 70
   688
 72
     0
 73
     0
 74
     5
  7
monochrome uw.ctb
 75
    16
147
1.0
148
0.0
149
0.0
100
AcDbLayout
  1
Layout2
 70
     1
 71
     2
 10
0.0
 20
0.0
 11
12.0
 21
9.0
 12
0.0
 22
0.0
 32
0.0
 14
0.0
 24
0.0
 34
0.0
 15
0.0
 25
0.0
 35
0.0
146
0.0
 13
0.0
 23
0.0
 33
0.0
 16
1.0
 26
0.0
 36
0.0
 17
0.0
 27
1.0
 37
0.0
 76
     0
330
23
  0
LAYOUT
  5
22
102
{ACAD_XDICTIONARY
360
1C27A
102
}
102
{ACAD_REACTORS
330
1A
102
}
330
1A
100
AcDbPlotSettings
  1

  2
Adobe PDF
  4
A4
  6

 40
3.174999952316283
 41
3.174999952316283
 42
3.175003051757812
 43
3.17498779296875
 44
209.9733276367186
 45
297.0318298339844
 46
20.09999056121797
 47
0.0
 48
386.441488024062
 49
270.3185561904811
140
5391.603947773525
141
3967.108854977561
142
1.0
143
4.518902828714379
 70
 11956
 72
     1
 73
     1
 74
     1
  7
monochrome uw.ctb
 75
     0
147
0.2212926539702776
148
-25152.31447022356
149
-330.7520875372629
100
AcDbLayout
  1
Model
 70
     1
 71
     0
 10
0.0
 20
0.0
 11
12.0
 21
9.0
 12
0.0
 22
0.0
 32
0.0
 14
0.0
 24
0.0
 34
0.0
 15
0.0
 25
0.0
 35
0.0
146
0.0
 13
0.0
 23
0.0
 33
0.0
 16
1.0
 26
0.0
 36
0.0
 17
0.0
 27
1.0
 37
0.0
 76
     0
330
1F
331
1ADF3
1001
ACAD_PSEXT
1000
Adobe PDF
1000
Adobe PDF Converter
1000
Eigene Dateien
1000

1070
     0
  0
MATERIAL
  5
1ADFD
102
{ACAD_XDICTIONARY
360
1ADFE
102
}
102
{ACAD_REACTORS
330
BD
102
}
330
BD
100
AcDbMaterial
  1
ByBlock
 72
     0
 43
0.0008202099737533
 43
0.0
 43
0.0
 43
0.0
 43
0.0
 43
0.0008202099737533
 43
0.0
 43
0.0
 43
0.0
 43
0.0
 43
1.0
 43
0.0
 43
0.0
 43
0.0
 43
0.0
 43
1.0
 77
     0
 47
0.0008202099737533
 47
0.0
 47
0.0
 47
0.0
 47
0.0
 47
0.0008202099737533
 47
0.0
 47
0.0
 47
0.0
 47
0.0
 47
1.0
 47
0.0
 47
0.0
 47
0.0
 47
0.0
 47
1.0
171
     0
 49
0.0008202099737533
 49
0.0
 49
0.0
 49
0.0
 49
0.0
 49
0.0008202099737533
 49
0.0
 49
0.0
 49
0.0
 49
0.0
 49
1.0
 49
0.0
 49
0.0
 49
0.0
 49
0.0
 49
1.0
175
     0
142
0.0008202099737533
142
0.0
142
0.0
142
0.0
142
0.0
142
0.0008202099737533
142
0.0
142
0.0
142
0.0
142
0.0
142
1.0
142
0.0
142
0.0
142
0.0
142
0.0
142
1.0
179
     0
144
0.0008202099737533
144
0.0
144
0.0
144
0.0
144
0.0
144
0.0008202099737533
144
0.0
144
0.0
144
0.0
144
0.0
144
1.0
144
0.0
144
0.0
144
0.0
144
0.0
144
1.0
147
0.0008202099737533
147
0.0
147
0.0
147
0.0
147
0.0
147
0.0008202099737533
147
0.0
147
0.0
147
0.0
147
0.0
147
1.0
147
0.0
147
0.0
147
0.0
147
0.0
147
1.0
  0
MATERIAL
  5
1ADF5
102
{ACAD_XDICTIONARY
360
1ADF6
102
}
102
{ACAD_REACTORS
330
BD
102
}
330
BD
100
AcDbMaterial
  1
ByLayer
 72
     0
 43
0.0008202099737533
 43
0.0
 43
0.0
 43
0.0
 43
0.0
 43
0.0008202099737533
 43
0.0
 43
0.0
 43
0.0
 43
0.0
 43
1.0
 43
0.0
 43
0.0
 43
0.0
 43
0.0
 43
1.0
 77
     0
 47
0.0008202099737533
 47
0.0
 47
0.0
 47
0.0
 47
0.0
 47
0.0008202099737533
 47
0.0
 47
0.0
 47
0.0
 47
0.0
 47
1.0
 47
0.0
 47
0.0
 47
0.0
 47
0.0
 47
1.0
171
     0
 49
0.0008202099737533
 49
0.0
 49
0.0
 49
0.0
 49
0.0
 49
0.0008202099737533
 49
0.0
 49
0.0
 49
0.0
 49
0.0
 49
1.0
 49
0.0
 49
0.0
 49
0.0
 49
0.0
 49
1.0
175
     0
142
0.0008202099737533
142
0.0
142
0.0
142
0.0
142
0.0
142
0.0008202099737533
142
0.0
142
0.0
142
0.0
142
0.0
142
1.0
142
0.0
142
0.0
142
0.0
142
0.0
142
1.0
179
     0
144
0.0008202099737533
144
0.0
144
0.0
144
0.0
144
0.0
144
0.0008202099737533
144
0.0
144
0.0
144
0.0
144
0.0
144
1.0
144
0.0
144
0.0
144
0.0
144
0.0
144
1.0
147
0.0008202099737533
147
0.0
147
0.0
147
0.0
147
0.0
147
0.0008202099737533
147
0.0
147
0.0
147
0.0
147
0.0
147
1.0
147
0.0
147
0.0
147
0.0
147
0.0
147
1.0
  0
MATERIAL
  5
1AE05
102
{ACAD_XDICTIONARY
360
1AE06
102
}
102
{ACAD_REACTORS
330
BD
102
}
330
BD
100
AcDbMaterial
  1
Global
 72
     0
 43
0.0008202099737533
 43
0.0
 43
0.0
 43
0.0
 43
0.0
 43
0.0008202099737533
 43
0.0
 43
0.0
 43
0.0
 43
0.0
 43
1.0
 43
0.0
 43
0.0
 43
0.0
 43
0.0
 43
1.0
 77
     0
 47
0.0008202099737533
 47
0.0
 47
0.0
 47
0.0
 47
0.0
 47
0.0008202099737533
 47
0.0
 47
0.0
 47
0.0
 47
0.0
 47
1.0
 47
0.0
 47
0.0
 47
0.0
 47
0.0
 47
1.0
171
     0
 49
0.0008202099737533
 49
0.0
 49
0.0
 49
0.0
 49
0.0
 49
0.0008202099737533
 49
0.0
 49
0.0
 49
0.0
 49
0.0
 49
1.0
 49
0.0
 49
0.0
 49
0.0
 49
0.0
 49
1.0
175
     0
142
0.0008202099737533
142
0.0
142
0.0
142
0.0
142
0.0
142
0.0008202099737533
142
0.0
142
0.0
142
0.0
142
0.0
142
1.0
142
0.0
142
0.0
142
0.0
142
0.0
142
1.0
179
     0
144
0.0008202099737533
144
0.0
144
0.0
144
0.0
144
0.0
144
0.0008202099737533
144
0.0
144
0.0
144
0.0
144
0.0
144
1.0
144
0.0
144
0.0
144
0.0
144
0.0
144
1.0
147
0.0008202099737533
147
0.0
147
0.0
147
0.0
147
0.0
147
0.0008202099737533
147
0.0
147
0.0
147
0.0
147
0.0
147
1.0
147
0.0
147
0.0
147
0.0
147
0.0
147
1.0
  0
MLEADERSTYLE
  5
1AE31
102
{ACAD_REACTORS
330
1AE30
102
}
330
1AE30
100
AcDbMLeaderStyle
170
     2
171
     1
172
     0
 90
        2
 40
0.0
 41
0.0
173
     1
 91
-1056964608
340
14
 92
       -2
290
     1
 42
2.0
291
     1
 43
0.36
  3
Standard
 44
4.0
300

342
11
174
     1
178
     6
175
     1
176
     0
 93
-1056964608
 45
4.0
292
     0
297
     0
 46
4.0
 94
-1056964608
 47
1.0
 49
1.0
140
1.0
293
     1
141
0.0
294
     1
177
     0
142
1.0
295
     0
296
     0
143
0.125
1001
ACAD_MLEADERVER
1070
     2
  0
MLINESTYLE
  5
18
102
{ACAD_REACTORS
330
17
102
}
330
17
100
AcDbMlineStyle
  2
STANDARD
 70
     0
  3

 62
   256
 51
90.0
 52
90.0
 71
     2
 49
0.5
 62
   256
  6
BYLAYER
 49
-0.5
 62
   256
  6
BYLAYER
  0
ACDBPLACEHOLDER
  5
F
102
{ACAD_REACTORS
330
E
102
}
330
E
  0
SCALE
  5
1AE1F
102
{ACAD_REACTORS
330
1AE1E
102
}
330
1AE1E
100
AcDbScale
 70
     0
300
1:1
140
1.0
141
1.0
290
     1
  0
SCALE
  5
1AE20
102
{ACAD_REACTORS
330
1AE1E
102
}
330
1AE1E
100
AcDbScale
 70
     0
300
1:2
140
1.0
141
2.0
290
     0
  0
SCALE
  5
1AE21
102
{ACAD_REACTORS
330
1AE1E
102
}
330
1AE1E
100
AcDbScale
 70
     0
300
1:4
140
1.0
141
4.0
290
     0
  0
SCALE
  5
1AE22
102
{ACAD_REACTORS
330
1AE1E
102
}
330
1AE1E
100
AcDbScale
 70
     0
300
1:5
140
1.0
141
5.0
290
     0
  0
SCALE
  5
1AE23
102
{ACAD_REACTORS
330
1AE1E
102
}
330
1AE1E
100
AcDbScale
 70
     0
300
1:8
140
1.0
141
8.0
290
     0
  0
SCALE
  5
1AE24
102
{ACAD_REACTORS
330
1AE1E
102
}
330
1AE1E
100
AcDbScale
 70
     0
300
1:10
140
1.0
141
10.0
290
     0
  0
SCALE
  5
1AE25
102
{ACAD_REACTORS
330
1AE1E
102
}
330
1AE1E
100
AcDbScale
 70
     0
300
1:16
140
1.0
141
16.0
290
     0
  0
SCALE
  5
1AE26
102
{ACAD_REACTORS
330
1AE1E
102
}
330
1AE1E
100
AcDbScale
 70
     0
300
1:20
140
1.0
141
20.0
290
     0
  0
SCALE
  5
1AE27
102
{ACAD_REACTORS
330
1AE1E
102
}
330
1AE1E
100
AcDbScale
 70
     0
300
1:30
140
1.0
141
30.0
290
     0
  0
SCALE
  5
1AE28
102
{ACAD_REACTORS
330
1AE1E
102
}
330
1AE1E
100
AcDbScale
 70
     0
300
1:40
140
1.0
141
40.0
290
     0
  0
SCALE
  5
1AE29
102
{ACAD_REACTORS
330
1AE1E
102
}
330
1AE1E
100
AcDbScale
 70
     0
300
1:50
140
1.0
141
50.0
290
     0
  0
SCALE
  5
1AE2A
102
{ACAD_REACTORS
330
1AE1E
102
}
330
1AE1E
100
AcDbScale
 70
     0
300
1:100
140
1.0
141
100.0
290
     0
  0
SCALE
  5
1AE2B
102
{ACAD_REACTORS
330
1AE1E
102
}
330
1AE1E
100
AcDbScale
 70
     0
300
2:1
140
2.0
141
1.0
290
     0
  0
SCALE
  5
1AE2C
102
{ACAD_REACTORS
330
1AE1E
102
}
330
1AE1E
100
AcDbScale
 70
     0
300
4:1
140
4.0
141
1.0
290
     0
  0
SCALE
  5
1AE2D
102
{ACAD_REACTORS
330
1AE1E
102
}
330
1AE1E
100
AcDbScale
 70
     0
300
8:1
140
8.0
141
1.0
290
     0
  0
SCALE
  5
1AE2E
102
{ACAD_REACTORS
330
1AE1E
102
}
330
1AE1E
100
AcDbScale
 70
     0
300
10:1
140
10.0
141
1.0
290
     0
  0
SCALE
  5
1AE2F
102
{ACAD_REACTORS
330
1AE1E
102
}
330
1AE1E
100
AcDbScale
 70
     0
300
100:1
140
100.0
141
1.0
290
     0
  0
TABLESTYLE
  5
11B
102
{ACAD_XDICTIONARY
360
1B800
102
}
102
{ACAD_REACTORS
330
11A
102
}
330
11A
100
AcDbTableStyle
  3
Standard
 70
     0
 71
     0
 40
1.5
 41
1.5
280
     0
281
     0
  7
STANDARD
140
4.5
170
     2
 62
     0
 63
     7
283
     0
274
    -2
284
     1
 64
     0
275
    -2
285
     1
 65
     0
276
    -2
286
     1
 66
     0
277
    -2
287
     1
 67
     0
278
    -2
288
     1
 68
     0
279
    -2
289
     1
 69
     0
  7
STANDARD
140
6.0
170
     5
 62
     0
 63
     7
283
     0
274
    -2
284
     1
 64
     0
275
    -2
285
     1
 65
     0
276
    -2
286
     1
 66
     0
277
    -2
287
     1
 67
     0
278
    -2
288
     1
 68
     0
279
    -2
289
     1
 69
     0
  7
STANDARD
140
4.5
170
     5
 62
     0
 63
     7
283
     0
274
    -2
284
     1
 64
     0
275
    -2
285
     1
 65
     0
276
    -2
286
     1
 66
     0
277
    -2
287
     1
 67
     0
278
    -2
288
     1
 68
     0
279
    -2
289
     1
 69
     0
  0
VISUALSTYLE
  5
1AE13
102
{ACAD_XDICTIONARY
360
1C289
102
}
102
{ACAD_REACTORS
330
1AE0D
102
}
330
1AE0D
100
AcDbVisualStyle
  2

 70
     4
 71
     0
 72
     2
 73
     0
 90
        0
 40
-0.6
 41
-30.0
 62
     5
 63
     7
 74
     1
 91
        4
 64
     7
 65
   257
 75
     1
175
     1
 42
1.0
 92
        0
 66
   257
 43
1.0
 76
     1
 77
     6
 78
     2
 67
     7
 79
     5
170
     0
171
     0
290
     0
174
     0
 93
        1
 44
0.0
173
     0
291
     0
 45
0.0
1001
ACAD
1000
AcDbSavedByObjectVersion
1070
     0
  0
VISUALSTYLE
  5
1AE15
102
{ACAD_XDICTIONARY
360
1C28D
102
}
102
{ACAD_REACTORS
330
1AE0D
102
}
330
1AE0D
100
AcDbVisualStyle
  2

 70
     6
 71
     1
 72
     2
 73
     2
 90
        0
 40
-0.6
 41
-30.0
 62
     5
 63
     7
 74
     2
 91
        2
 64
     7
 65
   257
 75
     2
175
     1
 42
40.0
 92
        0
 66
   257
 43
1.0
 76
     1
 77
     6
 78
     2
 67
     7
 79
     3
170
     0
171
     0
290
     0
174
     0
 93
        1
 44
0.0
173
     0
291
     0
 45
0.0
1001
ACAD
1000
AcDbSavedByObjectVersion
1070
     0
  0
VISUALSTYLE
  5
1AE14
102
{ACAD_XDICTIONARY
360
1C28B
102
}
102
{ACAD_REACTORS
330
1AE0D
102
}
330
1AE0D
100
AcDbVisualStyle
  2

 70
     5
 71
     0
 72
     2
 73
     0
 90
        0
 40
-0.6
 41
-30.0
 62
     5
 63
     7
 74
     1
 91
        4
 64
     7
 65
   257
 75
     1
175
     1
 42
1.0
 92
        0
 66
   257
 43
1.0
 76
     1
 77
     6
 78
     2
 67
     7
 79
     5
170
     0
171
     0
290
     0
174
     0
 93
        1
 44
0.0
173
     0
291
     0
 45
0.0
1001
ACAD
1000
AcDbSavedByObjectVersion
1070
     0
  0
VISUALSTYLE
  5
1AE12
102
{ACAD_XDICTIONARY
360
1C287
102
}
102
{ACAD_REACTORS
330
1AE0D
102
}
330
1AE0D
100
AcDbVisualStyle
  2

 70
     7
 71
     1
 72
     0
 73
     1
 90
        0
 40
-0.6
 41
-30.0
 62
     5
 63
     7
 74
     0
 91
        4
 64
     7
 65
   257
 75
     1
175
     1
 42
1.0
 92
        8
 66
     7
 43
1.0
 76
     1
 77
     6
 78
     2
 67
     7
 79
     5
170
     0
171
     0
290
     0
174
     0
 93
        1
 44
0.0
173
     0
291
     1
 45
0.0
1001
ACAD
1000
AcDbSavedByObjectVersion
1070
     0
  0
VISUALSTYLE
  5
1AE19
102
{ACAD_XDICTIONARY
360
1C295
102
}
102
{ACAD_REACTORS
330
1AE0D
102
}
330
1AE0D
100
AcDbVisualStyle
  2

 70
    12
 71
     2
 72
     2
 73
     0
 90
        0
 40
-0.6
 41
-30.0
 62
     5
 63
     7
 74
     1
 91
        4
 64
     7
 65
   257
 75
     1
175
     1
 42
1.0
 92
        8
 66
     7
 43
1.0
 76
     1
 77
     6
 78
     2
 67
     7
 79
     5
170
     0
171
     0
290
     0
174
     0
 93
        1
 44
50.0
173
     0
291
     1
 45
0.0
1001
ACAD
1000
AcDbSavedByObjectVersion
1070
     0
  0
VISUALSTYLE
  5
1AE1D
102
{ACAD_XDICTIONARY
360
1C29D
102
}
102
{ACAD_REACTORS
330
1AE0D
102
}
330
1AE0D
100
AcDbVisualStyle
  2

 70
    16
 71
     2
 72
     2
 73
     3
 90
        0
 40
-0.6
 41
-30.0
 62
     5
 63
     8
 74
     1
 91
        4
 64
     7
 65
   257
 75
     1
175
     1
 42
1.0
 92
        8
 66
     8
 43
1.0
 76
     1
 77
     6
 78
     2
 67
     7
 79
     5
170
     0
171
     0
290
     0
174
     0
 93
        1
 44
0.0
173
     0
291
     1
 45
0.0
1001
ACAD
1000
AcDbSavedByObjectVersion
1070
     0
  0
VISUALSTYLE
  5
1AE16
102
{ACAD_XDICTIONARY
360
1C28F
102
}
102
{ACAD_REACTORS
330
1AE0D
102
}
330
1AE0D
100
AcDbVisualStyle
  2

 70
     9
 71
     3
 72
     2
 73
     0
 90
        0
 40
-0.6
 41
-30.0
 62
     5
 63
     7
 74
     2
 91
        2
 64
     7
 65
   257
 75
     1
175
     1
 42
40.0
 92
        8
 66
     7
 43
1.0
 76
     1
 77
     6
 78
     2
 67
     7
 79
     3
170
     0
171
     0
290
     0
174
     0
 93
        1
 44
0.0
173
     0
291
     0
 45
0.0
1001
ACAD
1000
AcDbSavedByObjectVersion
1070
     0
  0
VISUALSTYLE
  5
1AE18
102
{ACAD_XDICTIONARY
360
1C293
102
}
102
{ACAD_REACTORS
330
1AE0D
102
}
330
1AE0D
100
AcDbVisualStyle
  2

 70
    11
 71
     2
 72
     2
 73
     0
 90
        0
 40
-0.6
 41
-30.0
 62
     5
 63
     7
 74
     1
 91
        4
 64
     7
 65
   257
 75
     1
175
     1
 42
1.0
 92
        8
 66
     7
 43
1.0
 76
     1
 77
     6
 78
     2
 67
     7
 79
     5
170
     0
171
     0
290
     0
174
     0
 93
        1
 44
-50.0
173
     0
291
     1
 45
0.0
1001
ACAD
1000
AcDbSavedByObjectVersion
1070
     0
  0
VISUALSTYLE
  5
1C1B5
102
{ACAD_XDICTIONARY
360
1C2A3
102
}
102
{ACAD_REACTORS
330
1AE0D
102
}
330
1AE0D
100
AcDbVisualStyle
  2
EdgeColorOff
 70
    22
 71
     2
 72
     2
 73
     0
 90
        0
 40
-0.6
 41
-30.0
 62
     5
 63
     7
 74
     1
 91
        4
 64
     7
 65
   257
 75
     1
175
     1
 42
1.0
 92
        8
 66
     7
 43
1.0
 76
     1
 77
     6
 78
     2
 67
     7
 79
     5
170
     0
171
     0
290
     0
174
     0
 93
        1
 44
0.0
173
     0
291
     1
 45
0.0
1001
ACAD
1000
AcDbSavedByObjectVersion
1070
     0
  0
VISUALSTYLE
  5
1AE1C
102
{ACAD_XDICTIONARY
360
1C29B
102
}
102
{ACAD_REACTORS
330
1AE0D
102
}
330
1AE0D
100
AcDbVisualStyle
  2

 70
    15
 71
     2
 72
     2
 73
     0
 90
        0
 40
-0.6
 41
-30.0
 62
     5
 63
     7
 74
     1
 91
        4
 64
     7
 65
   257
 75
     1
175
     1
 42
1.0
 92
        8
 66
     7
 43
1.0
 76
     1
 77
     6
 78
     2
 67
     7
 79
     5
170
     0
171
     0
290
     0
174
     0
 93
        1
 44
0.0
173
     0
291
     1
 45
0.0
1001
ACAD
1000
AcDbSavedByObjectVersion
1070
     0
  0
VISUALSTYLE
  5
1AE0E
102
{ACAD_XDICTIONARY
360
1C27F
102
}
102
{ACAD_REACTORS
330
1AE0D
102
}
330
1AE0D
100
AcDbVisualStyle
  2

 70
     0
 71
     2
 72
     1
 73
     1
 90
        2
 40
-0.6
 41
30.0
 62
     5
 63
     7
 74
     0
 91
        4
 64
     7
 65
   257
 75
     1
175
     1
 42
1.0
 92
        8
 66
     7
 43
1.0
 76
     1
 77
     6
 78
     2
 67
     7
 79
     5
170
     0
171
     0
290
     0
174
     0
 93
       13
 44
0.0
173
     0
291
     1
 45
0.0
1001
ACAD
1000
AcDbSavedByObjectVersion
1070
     0
  0
VISUALSTYLE
  5
1AE0F
102
{ACAD_XDICTIONARY
360
1C281
102
}
102
{ACAD_REACTORS
330
1AE0D
102
}
330
1AE0D
100
AcDbVisualStyle
  2

 70
     1
 71
     2
 72
     1
 73
     1
 90
        2
 40
-0.6
 41
30.0
 62
     5
 63
     7
 74
     1
 91
        4
 64
     7
 65
   257
 75
     1
175
     1
 42
1.0
 92
        0
 66
   257
 43
1.0
 76
     1
 77
     6
 78
     2
 67
     7
 79
     5
170
     0
171
     0
290
     0
174
     0
 93
       13
 44
0.0
173
     0
291
     1
 45
0.0
1001
ACAD
1000
AcDbSavedByObjectVersion
1070
     0
  0
VISUALSTYLE
  5
1AE10
102
{ACAD_XDICTIONARY
360
1C283
102
}
102
{ACAD_REACTORS
330
1AE0D
102
}
330
1AE0D
100
AcDbVisualStyle
  2

 70
     2
 71
     2
 72
     2
 73
     1
 90
        2
 40
-0.6
 41
30.0
 62
     5
 63
     7
 74
     0
 91
        4
 64
     7
 65
   257
 75
     1
175
     1
 42
1.0
 92
        0
 66
     7
 43
1.0
 76
     1
 77
     6
 78
     2
 67
     7
 79
     5
170
     0
171
     0
290
     0
174
     0
 93
       13
 44
0.0
173
     0
291
     1
 45
0.0
1001
ACAD
1000
AcDbSavedByObjectVersion
1070
     0
  0
VISUALSTYLE
  5
1AE11
102
{ACAD_XDICTIONARY
360
1C285
102
}
102
{ACAD_REACTORS
330
1AE0D
102
}
330
1AE0D
100
AcDbVisualStyle
  2

 70
     3
 71
     2
 72
     2
 73
     1
 90
        2
 40
-0.6
 41
30.0
 62
     5
 63
     7
 74
     1
 91
        4
 64
     7
 65
   257
 75
     1
175
     1
 42
1.0
 92
        0
 66
   257
 43
1.0
 76
     1
 77
     6
 78
     2
 67
     7
 79
     5
170
     0
171
     0
290
     0
174
     0
 93
       13
 44
0.0
173
     0
291
     1
 45
0.0
1001
ACAD
1000
AcDbSavedByObjectVersion
1070
     0
  0
VISUALSTYLE
  5
1C1B3
102
{ACAD_XDICTIONARY
360
1C29F
102
}
102
{ACAD_REACTORS
330
1AE0D
102
}
330
1AE0D
100
AcDbVisualStyle
  2
JitterOff
 70
    20
 71
     2
 72
     2
 73
     0
 90
        0
 40
-0.6
 41
-30.0
 62
     5
 63
     7
 74
     1
 91
        4
 64
     7
 65
   257
 75
     1
175
     1
 42
1.0
 92
       10
 66
     7
 43
1.0
 76
     1
 77
     6
 78
     2
 67
     7
 79
     5
170
     0
171
     0
290
     0
174
     0
 93
        1
 44
0.0
173
     0
291
     1
 45
0.0
1001
ACAD
1000
AcDbSavedByObjectVersion
1070
     0
  0
VISUALSTYLE
  5
1AE1B
102
{ACAD_XDICTIONARY
360
1C299
102
}
102
{ACAD_REACTORS
330
1AE0D
102
}
330
1AE0D
100
AcDbVisualStyle
  2

 70
    14
 71
     2
 72
     2
 73
     0
 90
        0
 40
-0.6
 41
-30.0
 62
     5
 63
     7
 74
     1
 91
        4
 64
     7
 65
   257
 75
     7
175
     7
 42
1.0
 92
        8
 66
     7
 43
1.0
 76
     1
 77
     6
 78
     2
 67
     7
 79
     5
170
     0
171
     0
290
     0
174
     0
 93
        1
 44
0.0
173
     0
291
     1
 45
0.0
1001
ACAD
1000
AcDbSavedByObjectVersion
1070
     0
  0
VISUALSTYLE
  5
1C1B4
102
{ACAD_XDICTIONARY
360
1C2A1
102
}
102
{ACAD_REACTORS
330
1AE0D
102
}
330
1AE0D
100
AcDbVisualStyle
  2
OverhangOff
 70
    21
 71
     2
 72
     2
 73
     0
 90
        0
 40
-0.6
 41
-30.0
 62
     5
 63
     7
 74
     1
 91
        4
 64
     7
 65
   257
 75
     1
175
     1
 42
1.0
 92
        9
 66
     7
 43
1.0
 76
     1
 77
     6
 78
     2
 67
     7
 79
     5
170
     0
171
     0
290
     0
174
     0
 93
        1
 44
0.0
173
     0
291
     1
 45
0.0
1001
ACAD
1000
AcDbSavedByObjectVersion
1070
     0
  0
VISUALSTYLE
  5
1AE17
102
{ACAD_XDICTIONARY
360
1C291
102
}
102
{ACAD_REACTORS
330
1AE0D
102
}
330
1AE0D
100
AcDbVisualStyle
  2

 70
     8
 71
     2
 72
     2
 73
     0
 90
        0
 40
-0.6
 41
-30.0
 62
     5
 63
     7
 74
     1
 91
        0
 64
     7
 65
   257
 75
     1
175
     1
 42
1.0
 92
        8
 66
     8
 43
1.0
 76
     1
 77
     6
 78
     2
 67
     7
 79
     5
170
     0
171
     0
290
     0
174
     0
 93
       13
 44
0.0
173
     0
291
     0
 45
0.0
1001
ACAD
1000
AcDbSavedByObjectVersion
1070
     0
  0
VISUALSTYLE
  5
1AE1A
102
{ACAD_XDICTIONARY
360
1C297
102
}
102
{ACAD_REACTORS
330
1AE0D
102
}
330
1AE0D
100
AcDbVisualStyle
  2

 70
    13
 71
     2
 72
     2
 73
     0
 90
        0
 40
-0.6
 41
-30.0
 62
     5
 63
     7
 74
     1
 91
        4
 64
     7
 65
   257
 75
     1
175
     1
 42
1.0
 92
       12
 66
     7
 43
1.0
 76
     1
 77
     6
 78
     2
 67
     7
 79
     5
170
     0
171
     0
290
     0
174
     0
 93
        1
 44
0.0
173
     0
291
     1
 45
0.0
1001
ACAD
1000
AcDbSavedByObjectVersion
1070
     0
  0
DICTIONARYVAR
  5
1B805
102
{ACAD_REACTORS
330
94
102
}
330
94
100
DictionaryVariables
280
     0
  1
1:1
  0
DICTIONARYVAR
  5
1B803
102
{ACAD_REACTORS
330
94
102
}
330
94
100
DictionaryVariables
280
     0
  1
STANDARD
  0
DICTIONARYVAR
  5
138
102
{ACAD_REACTORS
330
94
102
}
330
94
100
DictionaryVariables
280
     0
  1
STANDARD
  0
DICTIONARYVAR
  5
96
102
{ACAD_REACTORS
330
94
102
}
330
94
100
DictionaryVariables
280
     0
  1
2
  0
DICTIONARYVAR
  5
95
102
{ACAD_REACTORS
330
94
102
}
330
94
100
DictionaryVariables
280
     0
  1
0
  0
DICTIONARYVAR
  5
1B807
102
{ACAD_REACTORS
330
94
102
}
330
94
100
DictionaryVariables
280
     0
  1
1
  0
DICTIONARYVAR
  5
1B808
102
{ACAD_REACTORS
330
94
102
}
330
94
100
DictionaryVariables
280
     0
  1
15
  0
DICTIONARYVAR
  5
1B806
102
{ACAD_REACTORS
330
94
102
}
330
94
100
DictionaryVariables
280
     0
  1
0
  0
DICTIONARYVAR
  5
1B804
102
{ACAD_REACTORS
330
94
102
}
330
94
100
DictionaryVariables
280
     0
  1
0
  0
DICTIONARYVAR
  5
B168
102
{ACAD_REACTORS
330
94
102
}
330
94
100
DictionaryVariables
280
     0
  1

  0
DICTIONARYVAR
  5
1C19A
102
{ACAD_REACTORS
330
94
102
}
330
94
100
DictionaryVariables
280
     0
  1
127
  0
DICTIONARYVAR
  5
1C26E
102
{ACAD_REACTORS
330
94
102
}
330
94
100
DictionaryVariables
280
     0
  1
2
  0
DICTIONARY
  5
272
102
{ACAD_REACTORS
330
5B
102
}
330
5B
100
AcDbDictionary
281
     1
  0
DICTIONARY
  5
61
102
{ACAD_REACTORS
330
5B
102
}
330
5B
100
AcDbDictionary
281
     1
  0
XRECORD
  5
123
102
{ACAD_REACTORS
330
5B
102
}
330
5B
100
AcDbXrecord
280
     1
 90
-1023410169
  0
DICTIONARY
  5
1C278
330
1E
100
AcDbDictionary
280
     1
281
     1
  3
ACAD_XREC_ROUNDTRIP
360
1C279
  0
DICTIONARY
  5
1C27C
330
26
100
AcDbDictionary
280
     1
281
     1
  3
ACAD_XREC_ROUNDTRIP
360
1C27D
  0
DICTIONARY
  5
1C27A
330
22
100
AcDbDictionary
280
     1
281
     1
  3
ACAD_XREC_ROUNDTRIP
360
1C27B
  0
DICTIONARY
  5
1ADFE
330
1ADFD
100
AcDbDictionary
280
     1
281
     1
  3
ACAD_XREC_ROUNDTRIP
360
1C1A9
  3
BUMPTILE
360
1AE00
  3
DIFFUSETILE
360
1ADFF
  3
OPACITYTILE
360
1AE03
  3
REFLECTIONTILE
360
1AE02
  3
REFRACTIONTILE
360
1AE04
  3
SPECULARTILE
360
1AE01
  0
DICTIONARY
  5
1ADF6
330
1ADF5
100
AcDbDictionary
280
     1
281
     1
  3
ACAD_XREC_ROUNDTRIP
360
1C1A8
  3
BUMPTILE
360
1ADF8
  3
DIFFUSETILE
360
1ADF7
  3
OPACITYTILE
360
1ADFB
  3
REFLECTIONTILE
360
1ADFA
  3
REFRACTIONTILE
360
1ADFC
  3
SPECULARTILE
360
1ADF9
  0
DICTIONARY
  5
1AE06
330
1AE05
100
AcDbDictionary
280
     1
281
     1
  3
ACAD_XREC_ROUNDTRIP
360
1C1AA
  3
BUMPTILE
360
1AE08
  3
DIFFUSETILE
360
1AE07
  3
OPACITYTILE
360
1AE0B
  3
REFLECTIONTILE
360
1AE0A
  3
REFRACTIONTILE
360
1AE0C
  3
SPECULARTILE
360
1AE09
  0
DICTIONARY
  5
1B800
330
11B
100
AcDbDictionary
280
     1
281
     1
  3
ACAD_ROUNDTRIP_2008_TABLESTYLE_CELLSTYLEMAP
360
1C26F
  3
ACAD_XREC_ROUNDTRIP
360
1C27E
  0
DICTIONARY
  5
1C289
330
1AE13
100
AcDbDictionary
280
     1
281
     1
  3
ACAD_XREC_ROUNDTRIP
360
1C28A
  0
DICTIONARY
  5
1C28D
330
1AE15
100
AcDbDictionary
280
     1
281
     1
  3
ACAD_XREC_ROUNDTRIP
360
1C28E
  0
DICTIONARY
  5
1C28B
330
1AE14
100
AcDbDictionary
280
     1
281
     1
  3
ACAD_XREC_ROUNDTRIP
360
1C28C
  0
DICTIONARY
  5
1C287
330
1AE12
100
AcDbDictionary
280
     1
281
     1
  3
ACAD_XREC_ROUNDTRIP
360
1C288
  0
DICTIONARY
  5
1C295
330
1AE19
100
AcDbDictionary
280
     1
281
     1
  3
ACAD_XREC_ROUNDTRIP
360
1C296
  0
DICTIONARY
  5
1C29D
330
1AE1D
100
AcDbDictionary
280
     1
281
     1
  3
ACAD_XREC_ROUNDTRIP
360
1C29E
  0
DICTIONARY
  5
1C28F
330
1AE16
100
AcDbDictionary
280
     1
281
     1
  3
ACAD_XREC_ROUNDTRIP
360
1C290
  0
DICTIONARY
  5
1C293
330
1AE18
100
AcDbDictionary
280
     1
281
     1
  3
ACAD_XREC_ROUNDTRIP
360
1C294
  0
DICTIONARY
  5
1C2A3
330
1C1B5
100
AcDbDictionary
280
     1
281
     1
  3
ACAD_XREC_ROUNDTRIP
360
1C2A4
  0
DICTIONARY
  5
1C29B
330
1AE1C
100
AcDbDictionary
280
     1
281
     1
  3
ACAD_XREC_ROUNDTRIP
360
1C29C
  0
DICTIONARY
  5
1C27F
330
1AE0E
100
AcDbDictionary
280
     1
281
     1
  3
ACAD_XREC_ROUNDTRIP
360
1C280
  0
DICTIONARY
  5
1C281
330
1AE0F
100
AcDbDictionary
280
     1
281
     1
  3
ACAD_XREC_ROUNDTRIP
360
1C282
  0
DICTIONARY
  5
1C283
330
1AE10
100
AcDbDictionary
280
     1
281
     1
  3
ACAD_XREC_ROUNDTRIP
360
1C284
  0
DICTIONARY
  5
1C285
330
1AE11
100
AcDbDictionary
280
     1
281
     1
  3
ACAD_XREC_ROUNDTRIP
360
1C286
  0
DICTIONARY
  5
1C29F
330
1C1B3
100
AcDbDictionary
280
     1
281
     1
  3
ACAD_XREC_ROUNDTRIP
360
1C2A0
  0
DICTIONARY
  5
1C299
330
1AE1B
100
AcDbDictionary
280
     1
281
     1
  3
ACAD_XREC_ROUNDTRIP
360
1C29A
  0
DICTIONARY
  5
1C2A1
330
1C1B4
100
AcDbDictionary
280
     1
281
     1
  3
ACAD_XREC_ROUNDTRIP
360
1C2A2
  0
DICTIONARY
  5
1C291
330
1AE17
100
AcDbDictionary
280
     1
281
     1
  3
ACAD_XREC_ROUNDTRIP
360
1C292
  0
DICTIONARY
  5
1C297
330
1AE1A
100
AcDbDictionary
280
     1
281
     1
  3
ACAD_XREC_ROUNDTRIP
360
1C298
  0
XRECORD
  5
1C279
102
{ACAD_REACTORS
330
1C278
102
}
330
1C278
100
AcDbXrecord
280
     1
102
SHADEPLOT
 70
     0
102
SHADEPLOTRESLEVEL
 70
     2
102
SHADEPLOTCUSTOMDPI
 70
   300
  0
XRECORD
  5
1C27D
102
{ACAD_REACTORS
330
1C27C
102
}
330
1C27C
100
AcDbXrecord
280
     1
102
SHADEPLOT
 70
     0
102
SHADEPLOTRESLEVEL
 70
     2
102
SHADEPLOTCUSTOMDPI
 70
   300
  0
XRECORD
  5
1C27B
102
{ACAD_REACTORS
330
1C27A
102
}
330
1C27A
100
AcDbXrecord
280
     1
102
SHADEPLOT
 70
     0
102
SHADEPLOTRESLEVEL
 70
     2
102
SHADEPLOTCUSTOMDPI
 70
   300
  0
XRECORD
  5
1C1A9
102
{ACAD_REACTORS
330
1ADFE
102
}
330
1ADFE
100
AcDbXrecord
280
     1
102
MATERIAL
148
0.0
149
0.0
149
0.0
 93
        0
 94
      127
282
     0
 72
     0
 77
     0
171
     0
175
     0
179
     0
273
     0
  0
XRECORD
  5
1AE00
102
{ACAD_REACTORS
330
1ADFE
102
}
330
1ADFE
100
AcDbXrecord
280
     1
270
     1
271
     1
  0
XRECORD
  5
1ADFF
102
{ACAD_REACTORS
330
1ADFE
102
}
330
1ADFE
100
AcDbXrecord
280
     1
270
     1
271
     1
  0
XRECORD
  5
1AE03
102
{ACAD_REACTORS
330
1ADFE
102
}
330
1ADFE
100
AcDbXrecord
280
     1
270
     1
271
     1
  0
XRECORD
  5
1AE02
102
{ACAD_REACTORS
330
1ADFE
102
}
330
1ADFE
100
AcDbXrecord
280
     1
270
     1
271
     1
  0
XRECORD
  5
1AE04
102
{ACAD_REACTORS
330
1ADFE
102
}
330
1ADFE
100
AcDbXrecord
280
     1
270
     1
271
     1
  0
XRECORD
  5
1AE01
102
{ACAD_REACTORS
330
1ADFE
102
}
330
1ADFE
100
AcDbXrecord
280
     1
270
     1
271
     1
  0
XRECORD
  5
1C1A8
102
{ACAD_REACTORS
330
1ADF6
102
}
330
1ADF6
100
AcDbXrecord
280
     1
102
MATERIAL
148
0.0
149
0.0
149
0.0
 93
        0
 94
      127
282
     0
 72
     0
 77
     0
171
     0
175
     0
179
     0
273
     0
  0
XRECORD
  5
1ADF8
102
{ACAD_REACTORS
330
1ADF6
102
}
330
1ADF6
100
AcDbXrecord
280
     1
270
     1
271
     1
  0
XRECORD
  5
1ADF7
102
{ACAD_REACTORS
330
1ADF6
102
}
330
1ADF6
100
AcDbXrecord
280
     1
270
     1
271
     1
  0
XRECORD
  5
1ADFB
102
{ACAD_REACTORS
330
1ADF6
102
}
330
1ADF6
100
AcDbXrecord
280
     1
270
     1
271
     1
  0
XRECORD
  5
1ADFA
102
{ACAD_REACTORS
330
1ADF6
102
}
330
1ADF6
100
AcDbXrecord
280
     1
270
     1
271
     1
  0
XRECORD
  5
1ADFC
102
{ACAD_REACTORS
330
1ADF6
102
}
330
1ADF6
100
AcDbXrecord
280
     1
270
     1
271
     1
  0
XRECORD
  5
1ADF9
102
{ACAD_REACTORS
330
1ADF6
102
}
330
1ADF6
100
AcDbXrecord
280
     1
270
     1
271
     1
  0
XRECORD
  5
1C1AA
102
{ACAD_REACTORS
330
1AE06
102
}
330
1AE06
100
AcDbXrecord
280
     1
102
MATERIAL
148
0.0
149
0.0
149
0.0
 93
        0
 94
      127
282
     0
 72
     0
 77
     0
171
     0
175
     0
179
     0
273
     0
  0
XRECORD
  5
1AE08
102
{ACAD_REACTORS
330
1AE06
102
}
330
1AE06
100
AcDbXrecord
280
     1
270
     1
271
     1
  0
XRECORD
  5
1AE07
102
{ACAD_REACTORS
330
1AE06
102
}
330
1AE06
100
AcDbXrecord
280
     1
270
     1
271
     1
  0
XRECORD
  5
1AE0B
102
{ACAD_REACTORS
330
1AE06
102
}
330
1AE06
100
AcDbXrecord
280
     1
270
     1
271
     1
  0
XRECORD
  5
1AE0A
102
{ACAD_REACTORS
330
1AE06
102
}
330
1AE06
100
AcDbXrecord
280
     1
270
     1
271
     1
  0
XRECORD
  5
1AE0C
102
{ACAD_REACTORS
330
1AE06
102
}
330
1AE06
100
AcDbXrecord
280
     1
270
     1
271
     1
  0
XRECORD
  5
1AE09
102
{ACAD_REACTORS
330
1AE06
102
}
330
1AE06
100
AcDbXrecord
280
     1
270
     1
271
     1
  0
CELLSTYLEMAP
  5
1C26F
102
{ACAD_REACTORS
330
1B800
102
}
330
1B800
100
AcDbCellStyleMap
 90
        3
300
CELLSTYLE
  1
TABLEFORMAT_BEGIN
 90
        5
170
     1
 91
        0
 92
    32768
 62
   257
 93
        1
300
CONTENTFORMAT
  1
CONTENTFORMAT_BEGIN
 90
        0
 91
        0
 92
        4
 93
        0
300

 40
0.0
140
1.0
 94
        5
 62
     0
340
11
144
6.0
309
CONTENTFORMAT_END
171
     1
301
MARGIN
  1
CELLMARGIN_BEGIN
 40
1.5
 40
1.5
 40
1.5
 40
1.5
 40
0.18
 40
0.18
309
CELLMARGIN_END
 94
        6
 95
        1
302
GRIDFORMAT
  1
GRIDFORMAT_BEGIN
 90
        0
 91
        1
 62
     0
 92
       -2
340
0
 93
        0
 40
0.045
309
GRIDFORMAT_END
 95
        2
302
GRIDFORMAT
  1
GRIDFORMAT_BEGIN
 90
        0
 91
        1
 62
     0
 92
       -2
340
0
 93
        0
 40
0.045
309
GRIDFORMAT_END
 95
        4
302
GRIDFORMAT
  1
GRIDFORMAT_BEGIN
 90
        0
 91
        1
 62
     0
 92
       -2
340
0
 93
        0
 40
0.045
309
GRIDFORMAT_END
 95
        8
302
GRIDFORMAT
  1
GRIDFORMAT_BEGIN
 90
        0
 91
        1
 62
     0
 92
       -2
340
0
 93
        0
 40
0.045
309
GRIDFORMAT_END
 95
       16
302
GRIDFORMAT
  1
GRIDFORMAT_BEGIN
 90
        0
 91
        1
 62
     0
 92
       -2
340
0
 93
        0
 40
0.045
309
GRIDFORMAT_END
 95
       32
302
GRIDFORMAT
  1
GRIDFORMAT_BEGIN
 90
        0
 91
        1
 62
     0
 92
       -2
340
0
 93
        0
 40
0.045
309
GRIDFORMAT_END
309
TABLEFORMAT_END
  1
CELLSTYLE_BEGIN
 90
        1
 91
        1
300
_TITLE
309
CELLSTYLE_END
300
CELLSTYLE
  1
TABLEFORMAT_BEGIN
 90
        5
170
     1
 91
        0
 92
        0
 62
   257
 93
        1
300
CONTENTFORMAT
  1
CONTENTFORMAT_BEGIN
 90
        0
 91
        0
 92
        4
 93
        0
300

 40
0.0
140
1.0
 94
        5
 62
     0
340
11
144
4.5
309
CONTENTFORMAT_END
171
     1
301
MARGIN
  1
CELLMARGIN_BEGIN
 40
1.5
 40
1.5
 40
1.5
 40
1.5
 40
0.18
 40
0.18
309
CELLMARGIN_END
 94
        6
 95
        1
302
GRIDFORMAT
  1
GRIDFORMAT_BEGIN
 90
        0
 91
        1
 62
     0
 92
       -2
340
0
 93
        0
 40
0.045
309
GRIDFORMAT_END
 95
        2
302
GRIDFORMAT
  1
GRIDFORMAT_BEGIN
 90
        0
 91
        1
 62
     0
 92
       -2
340
0
 93
        0
 40
0.045
309
GRIDFORMAT_END
 95
        4
302
GRIDFORMAT
  1
GRIDFORMAT_BEGIN
 90
        0
 91
        1
 62
     0
 92
       -2
340
0
 93
        0
 40
0.045
309
GRIDFORMAT_END
 95
        8
302
GRIDFORMAT
  1
GRIDFORMAT_BEGIN
 90
        0
 91
        1
 62
     0
 92
       -2
340
0
 93
        0
 40
0.045
309
GRIDFORMAT_END
 95
       16
302
GRIDFORMAT
  1
GRIDFORMAT_BEGIN
 90
        0
 91
        1
 62
     0
 92
       -2
340
0
 93
        0
 40
0.045
309
GRIDFORMAT_END
 95
       32
302
GRIDFORMAT
  1
GRIDFORMAT_BEGIN
 90
        0
 91
        1
 62
     0
 92
       -2
340
0
 93
        0
 40
0.045
309
GRIDFORMAT_END
309
TABLEFORMAT_END
  1
CELLSTYLE_BEGIN
 90
        2
 91
        1
300
_HEADER
309
CELLSTYLE_END
300
CELLSTYLE
  1
TABLEFORMAT_BEGIN
 90
        5
170
     1
 91
        0
 92
        0
 62
   257
 93
        1
300
CONTENTFORMAT
  1
CONTENTFORMAT_BEGIN
 90
        0
 91
        0
 92
        4
 93
        0
300

 40
0.0
140
1.0
 94
        2
 62
     0
340
11
144
4.5
309
CONTENTFORMAT_END
171
     1
301
MARGIN
  1
CELLMARGIN_BEGIN
 40
1.5
 40
1.5
 40
1.5
 40
1.5
 40
0.18
 40
0.18
309
CELLMARGIN_END
 94
        6
 95
        1
302
GRIDFORMAT
  1
GRIDFORMAT_BEGIN
 90
        0
 91
        1
 62
     0
 92
       -2
340
0
 93
        0
 40
0.045
309
GRIDFORMAT_END
 95
        2
302
GRIDFORMAT
  1
GRIDFORMAT_BEGIN
 90
        0
 91
        1
 62
     0
 92
       -2
340
0
 93
        0
 40
0.045
309
GRIDFORMAT_END
 95
        4
302
GRIDFORMAT
  1
GRIDFORMAT_BEGIN
 90
        0
 91
        1
 62
     0
 92
       -2
340
0
 93
        0
 40
0.045
309
GRIDFORMAT_END
 95
        8
302
GRIDFORMAT
  1
GRIDFORMAT_BEGIN
 90
        0
 91
        1
 62
     0
 92
       -2
340
0
 93
        0
 40
0.045
309
GRIDFORMAT_END
 95
       16
302
GRIDFORMAT
  1
GRIDFORMAT_BEGIN
 90
        0
 91
        1
 62
     0
 92
       -2
340
0
 93
        0
 40
0.045
309
GRIDFORMAT_END
 95
       32
302
GRIDFORMAT
  1
GRIDFORMAT_BEGIN
 90
        0
 91
        1
 62
     0
 92
       -2
340
0
 93
        0
 40
0.045
309
GRIDFORMAT_END
309
TABLEFORMAT_END
  1
CELLSTYLE_BEGIN
 90
        3
 91
        2
300
_DATA
309
CELLSTYLE_END
  0
XRECORD
  5
1C27E
102
{ACAD_REACTORS
330
1B800
102
}
330
1B800
100
AcDbXrecord
280
     1
102
ACAD_ROUNDTRIP_PRE2007_TABLESTYLE
 90
        4
 91
        0
  1

 92
        4
 93
        0
  2

 94
        4
 95
        0
  3

  0
XRECORD
  5
1C28A
102
{ACAD_REACTORS
330
1C289
102
}
330
1C289
100
AcDbXrecord
280
     1
102
RTVSPropertyOp0
 70
     1
102
RTVSPropertyOp1
 70
     1
102
RTVSPropertyOp2
 70
     1
102
RTVSPropertyOp3
 70
     1
102
RTVSPropertyOp4
 70
     1
102
RTVSPropertyOp5
 70
     1
102
RTVSPropertyOp6
 70
     1
102
RTVSPropertyOp7
 70
     1
102
RTVSPropertyOp8
 70
     1
102
RTVSPropertyOp9
 70
     1
102
RTVSPropertyOp10
 70
     1
102
RTVSPropertyOp11
 70
     1
102
RTVSPropertyOp12
 70
     1
102
RTVSPropertyOp13
 70
     1
102
RTVSPropertyOp14
 70
     1
102
RTVSPropertyOp15
 70
     1
102
RTVSPropertyOp16
 70
     1
102
RTVSPropertyOp17
 70
     1
102
RTVSPropertyOp18
 70
     1
102
RTVSPropertyOp19
 70
     1
102
RTVSPropertyOp20
 70
     1
102
RTVSPropertyOp21
 70
     1
102
RTVSPropertyOp22
 70
     1
102
RTVSPropertyOp23
 70
     1
102
RTVSPropertyOp24
 70
     1
102
RTVSPropertyOp25
 70
     1
102
RTVSPropertyOp26
 70
     1
102
RTVSPropertyOp27
 70
     1
  0
XRECORD
  5
1C28E
102
{ACAD_REACTORS
330
1C28D
102
}
330
1C28D
100
AcDbXrecord
280
     1
102
RTVSPropertyOp0
 70
     1
102
RTVSPropertyOp1
 70
     1
102
RTVSPropertyOp2
 70
     1
102
RTVSPropertyOp3
 70
     1
102
RTVSPropertyOp4
 70
     1
102
RTVSPropertyOp5
 70
     1
102
RTVSPropertyOp6
 70
     1
102
RTVSPropertyOp7
 70
     1
102
RTVSPropertyOp8
 70
     1
102
RTVSPropertyOp9
 70
     1
102
RTVSPropertyOp10
 70
     1
102
RTVSPropertyOp11
 70
     1
102
RTVSPropertyOp12
 70
     1
102
RTVSPropertyOp13
 70
     1
102
RTVSPropertyOp14
 70
     1
102
RTVSPropertyOp15
 70
     1
102
RTVSPropertyOp16
 70
     1
102
RTVSPropertyOp17
 70
     1
102
RTVSPropertyOp18
 70
     1
102
RTVSPropertyOp19
 70
     1
102
RTVSPropertyOp20
 70
     1
102
RTVSPropertyOp21
 70
     1
102
RTVSPropertyOp22
 70
     1
102
RTVSPropertyOp23
 70
     1
102
RTVSPropertyOp24
 70
     1
102
RTVSPropertyOp25
 70
     1
102
RTVSPropertyOp26
 70
     1
102
RTVSPropertyOp27
 70
     1
  0
XRECORD
  5
1C28C
102
{ACAD_REACTORS
330
1C28B
102
}
330
1C28B
100
AcDbXrecord
280
     1
102
RTVSPropertyOp0
 70
     1
102
RTVSPropertyOp1
 70
     1
102
RTVSPropertyOp2
 70
     1
102
RTVSPropertyOp3
 70
     1
102
RTVSPropertyOp4
 70
     1
102
RTVSPropertyOp5
 70
     1
102
RTVSPropertyOp6
 70
     1
102
RTVSPropertyOp7
 70
     1
102
RTVSPropertyOp8
 70
     1
102
RTVSPropertyOp9
 70
     1
102
RTVSPropertyOp10
 70
     1
102
RTVSPropertyOp11
 70
     1
102
RTVSPropertyOp12
 70
     1
102
RTVSPropertyOp13
 70
     1
102
RTVSPropertyOp14
 70
     1
102
RTVSPropertyOp15
 70
     1
102
RTVSPropertyOp16
 70
     1
102
RTVSPropertyOp17
 70
     1
102
RTVSPropertyOp18
 70
     1
102
RTVSPropertyOp19
 70
     1
102
RTVSPropertyOp20
 70
     1
102
RTVSPropertyOp21
 70
     1
102
RTVSPropertyOp22
 70
     1
102
RTVSPropertyOp23
 70
     1
102
RTVSPropertyOp24
 70
     1
102
RTVSPropertyOp25
 70
     1
102
RTVSPropertyOp26
 70
     1
102
RTVSPropertyOp27
 70
     1
  0
XRECORD
  5
1C288
102
{ACAD_REACTORS
330
1C287
102
}
330
1C287
100
AcDbXrecord
280
     1
102
RTVSPropertyOp0
 70
     1
102
RTVSPropertyOp1
 70
     1
102
RTVSPropertyOp2
 70
     1
102
RTVSPropertyOp3
 70
     1
102
RTVSPropertyOp4
 70
     1
102
RTVSPropertyOp5
 70
     1
102
RTVSPropertyOp6
 70
     1
102
RTVSPropertyOp7
 70
     1
102
RTVSPropertyOp8
 70
     1
102
RTVSPropertyOp9
 70
     1
102
RTVSPropertyOp10
 70
     1
102
RTVSPropertyOp11
 70
     1
102
RTVSPropertyOp12
 70
     1
102
RTVSPropertyOp13
 70
     1
102
RTVSPropertyOp14
 70
     1
102
RTVSPropertyOp15
 70
     1
102
RTVSPropertyOp16
 70
     1
102
RTVSPropertyOp17
 70
     1
102
RTVSPropertyOp18
 70
     1
102
RTVSPropertyOp19
 70
     1
102
RTVSPropertyOp20
 70
     1
102
RTVSPropertyOp21
 70
     1
102
RTVSPropertyOp22
 70
     1
102
RTVSPropertyOp23
 70
     1
102
RTVSPropertyOp24
 70
     1
102
RTVSPropertyOp25
 70
     1
102
RTVSPropertyOp26
 70
     1
102
RTVSPropertyOp27
 70
     1
  0
XRECORD
  5
1C296
102
{ACAD_REACTORS
330
1C295
102
}
330
1C295
100
AcDbXrecord
280
     1
102
RTVSPropertyOp0
 70
     1
102
RTVSPropertyOp1
 70
     1
102
RTVSPropertyOp2
 70
     1
102
RTVSPropertyOp3
 70
     1
102
RTVSPropertyOp4
 70
     1
102
RTVSPropertyOp5
 70
     1
102
RTVSPropertyOp6
 70
     1
102
RTVSPropertyOp7
 70
     1
102
RTVSPropertyOp8
 70
     1
102
RTVSPropertyOp9
 70
     1
102
RTVSPropertyOp10
 70
     1
102
RTVSPropertyOp11
 70
     1
102
RTVSPropertyOp12
 70
     1
102
RTVSPropertyOp13
 70
     1
102
RTVSPropertyOp14
 70
     1
102
RTVSPropertyOp15
 70
     1
102
RTVSPropertyOp16
 70
     1
102
RTVSPropertyOp17
 70
     1
102
RTVSPropertyOp18
 70
     1
102
RTVSPropertyOp19
 70
     1
102
RTVSPropertyOp20
 70
     1
102
RTVSPropertyOp21
 70
     1
102
RTVSPropertyOp22
 70
     1
102
RTVSPropertyOp23
 70
     1
102
RTVSPropertyOp24
 70
     1
102
RTVSPropertyOp25
 70
     1
102
RTVSPropertyOp26
 70
     1
102
RTVSPropertyOp27
 70
     1
  0
XRECORD
  5
1C29E
102
{ACAD_REACTORS
330
1C29D
102
}
330
1C29D
100
AcDbXrecord
280
     1
102
RTVSPropertyOp0
 70
     1
102
RTVSPropertyOp1
 70
     1
102
RTVSPropertyOp2
 70
     1
102
RTVSPropertyOp3
 70
     1
102
RTVSPropertyOp4
 70
     1
102
RTVSPropertyOp5
 70
     1
102
RTVSPropertyOp6
 70
     1
102
RTVSPropertyOp7
 70
     1
102
RTVSPropertyOp8
 70
     1
102
RTVSPropertyOp9
 70
     1
102
RTVSPropertyOp10
 70
     1
102
RTVSPropertyOp11
 70
     1
102
RTVSPropertyOp12
 70
     1
102
RTVSPropertyOp13
 70
     1
102
RTVSPropertyOp14
 70
     1
102
RTVSPropertyOp15
 70
     1
102
RTVSPropertyOp16
 70
     1
102
RTVSPropertyOp17
 70
     1
102
RTVSPropertyOp18
 70
     1
102
RTVSPropertyOp19
 70
     1
102
RTVSPropertyOp20
 70
     1
102
RTVSPropertyOp21
 70
     1
102
RTVSPropertyOp22
 70
     1
102
RTVSPropertyOp23
 70
     1
102
RTVSPropertyOp24
 70
     1
102
RTVSPropertyOp25
 70
     1
102
RTVSPropertyOp26
 70
     1
102
RTVSPropertyOp27
 70
     1
  0
XRECORD
  5
1C290
102
{ACAD_REACTORS
330
1C28F
102
}
330
1C28F
100
AcDbXrecord
280
     1
102
RTVSPropertyOp0
 70
     1
102
RTVSPropertyOp1
 70
     1
102
RTVSPropertyOp2
 70
     1
102
RTVSPropertyOp3
 70
     1
102
RTVSPropertyOp4
 70
     1
102
RTVSPropertyOp5
 70
     1
102
RTVSPropertyOp6
 70
     1
102
RTVSPropertyOp7
 70
     1
102
RTVSPropertyOp8
 70
     1
102
RTVSPropertyOp9
 70
     1
102
RTVSPropertyOp10
 70
     1
102
RTVSPropertyOp11
 70
     1
102
RTVSPropertyOp12
 70
     1
102
RTVSPropertyOp13
 70
     1
102
RTVSPropertyOp14
 70
     1
102
RTVSPropertyOp15
 70
     1
102
RTVSPropertyOp16
 70
     1
102
RTVSPropertyOp17
 70
     1
102
RTVSPropertyOp18
 70
     1
102
RTVSPropertyOp19
 70
     1
102
RTVSPropertyOp20
 70
     1
102
RTVSPropertyOp21
 70
     1
102
RTVSPropertyOp22
 70
     1
102
RTVSPropertyOp23
 70
     1
102
RTVSPropertyOp24
 70
     1
102
RTVSPropertyOp25
 70
     1
102
RTVSPropertyOp26
 70
     1
102
RTVSPropertyOp27
 70
     1
  0
XRECORD
  5
1C294
102
{ACAD_REACTORS
330
1C293
102
}
330
1C293
100
AcDbXrecord
280
     1
102
RTVSPropertyOp0
 70
     1
102
RTVSPropertyOp1
 70
     1
102
RTVSPropertyOp2
 70
     1
102
RTVSPropertyOp3
 70
     1
102
RTVSPropertyOp4
 70
     1
102
RTVSPropertyOp5
 70
     1
102
RTVSPropertyOp6
 70
     1
102
RTVSPropertyOp7
 70
     1
102
RTVSPropertyOp8
 70
     1
102
RTVSPropertyOp9
 70
     1
102
RTVSPropertyOp10
 70
     1
102
RTVSPropertyOp11
 70
     1
102
RTVSPropertyOp12
 70
     1
102
RTVSPropertyOp13
 70
     1
102
RTVSPropertyOp14
 70
     1
102
RTVSPropertyOp15
 70
     1
102
RTVSPropertyOp16
 70
     1
102
RTVSPropertyOp17
 70
     1
102
RTVSPropertyOp18
 70
     1
102
RTVSPropertyOp19
 70
     1
102
RTVSPropertyOp20
 70
     1
102
RTVSPropertyOp21
 70
     1
102
RTVSPropertyOp22
 70
     1
102
RTVSPropertyOp23
 70
     1
102
RTVSPropertyOp24
 70
     1
102
RTVSPropertyOp25
 70
     1
102
RTVSPropertyOp26
 70
     1
102
RTVSPropertyOp27
 70
     1
  0
XRECORD
  5
1C2A4
102
{ACAD_REACTORS
330
1C2A3
102
}
330
1C2A3
100
AcDbXrecord
280
     1
102
RTVSPropertyOp0
 70
     0
102
RTVSPropertyOp1
 70
     0
102
RTVSPropertyOp2
 70
     0
102
RTVSPropertyOp3
 70
     0
102
RTVSPropertyOp4
 70
     0
102
RTVSPropertyOp5
 70
     0
102
RTVSPropertyOp6
 70
     0
102
RTVSPropertyOp7
 70
     0
102
RTVSPropertyOp8
 70
     0
102
RTVSPropertyOp9
 70
     0
102
RTVSPropertyOp10
 70
     0
102
RTVSPropertyOp11
 70
     0
102
RTVSPropertyOp12
 70
     0
102
RTVSPropertyOp13
 70
     0
102
RTVSPropertyOp14
 70
     2
102
RTVSPropertyOp15
 70
     0
102
RTVSPropertyOp16
 70
     0
102
RTVSPropertyOp17
 70
     0
102
RTVSPropertyOp18
 70
     0
102
RTVSPropertyOp19
 70
     0
102
RTVSPropertyOp20
 70
     0
102
RTVSPropertyOp21
 70
     0
102
RTVSPropertyOp22
 70
     0
102
RTVSPropertyOp23
 70
     0
102
RTVSPropertyOp24
 70
     0
102
RTVSPropertyOp25
 70
     0
102
RTVSPropertyOp26
 70
     0
102
RTVSPropertyOp27
 70
     0
  0
XRECORD
  5
1C29C
102
{ACAD_REACTORS
330
1C29B
102
}
330
1C29B
100
AcDbXrecord
280
     1
102
RTVSPropertyOp0
 70
     1
102
RTVSPropertyOp1
 70
     1
102
RTVSPropertyOp2
 70
     1
102
RTVSPropertyOp3
 70
     1
102
RTVSPropertyOp4
 70
     1
102
RTVSPropertyOp5
 70
     1
102
RTVSPropertyOp6
 70
     1
102
RTVSPropertyOp7
 70
     1
102
RTVSPropertyOp8
 70
     1
102
RTVSPropertyOp9
 70
     1
102
RTVSPropertyOp10
 70
     1
102
RTVSPropertyOp11
 70
     1
102
RTVSPropertyOp12
 70
     1
102
RTVSPropertyOp13
 70
     1
102
RTVSPropertyOp14
 70
     1
102
RTVSPropertyOp15
 70
     1
102
RTVSPropertyOp16
 70
     1
102
RTVSPropertyOp17
 70
     1
102
RTVSPropertyOp18
 70
     1
102
RTVSPropertyOp19
 70
     1
102
RTVSPropertyOp20
 70
     1
102
RTVSPropertyOp21
 70
     1
102
RTVSPropertyOp22
 70
     1
102
RTVSPropertyOp23
 70
     1
102
RTVSPropertyOp24
 70
     1
102
RTVSPropertyOp25
 70
     1
102
RTVSPropertyOp26
 70
     1
102
RTVSPropertyOp27
 70
     1
  0
XRECORD
  5
1C280
102
{ACAD_REACTORS
330
1C27F
102
}
330
1C27F
100
AcDbXrecord
280
     1
102
RTVSPropertyOp0
 70
     1
102
RTVSPropertyOp1
 70
     1
102
RTVSPropertyOp2
 70
     1
102
RTVSPropertyOp3
 70
     1
102
RTVSPropertyOp4
 70
     1
102
RTVSPropertyOp5
 70
     1
102
RTVSPropertyOp6
 70
     1
102
RTVSPropertyOp7
 70
     1
102
RTVSPropertyOp8
 70
     1
102
RTVSPropertyOp9
 70
     1
102
RTVSPropertyOp10
 70
     1
102
RTVSPropertyOp11
 70
     1
102
RTVSPropertyOp12
 70
     1
102
RTVSPropertyOp13
 70
     1
102
RTVSPropertyOp14
 70
     1
102
RTVSPropertyOp15
 70
     1
102
RTVSPropertyOp16
 70
     1
102
RTVSPropertyOp17
 70
     1
102
RTVSPropertyOp18
 70
     1
102
RTVSPropertyOp19
 70
     1
102
RTVSPropertyOp20
 70
     1
102
RTVSPropertyOp21
 70
     1
102
RTVSPropertyOp22
 70
     1
102
RTVSPropertyOp23
 70
     1
102
RTVSPropertyOp24
 70
     1
102
RTVSPropertyOp25
 70
     1
102
RTVSPropertyOp26
 70
     1
102
RTVSPropertyOp27
 70
     1
  0
XRECORD
  5
1C282
102
{ACAD_REACTORS
330
1C281
102
}
330
1C281
100
AcDbXrecord
280
     1
102
RTVSPropertyOp0
 70
     1
102
RTVSPropertyOp1
 70
     1
102
RTVSPropertyOp2
 70
     1
102
RTVSPropertyOp3
 70
     1
102
RTVSPropertyOp4
 70
     1
102
RTVSPropertyOp5
 70
     1
102
RTVSPropertyOp6
 70
     1
102
RTVSPropertyOp7
 70
     1
102
RTVSPropertyOp8
 70
     1
102
RTVSPropertyOp9
 70
     1
102
RTVSPropertyOp10
 70
     1
102
RTVSPropertyOp11
 70
     1
102
RTVSPropertyOp12
 70
     1
102
RTVSPropertyOp13
 70
     1
102
RTVSPropertyOp14
 70
     1
102
RTVSPropertyOp15
 70
     1
102
RTVSPropertyOp16
 70
     1
102
RTVSPropertyOp17
 70
     1
102
RTVSPropertyOp18
 70
     1
102
RTVSPropertyOp19
 70
     1
102
RTVSPropertyOp20
 70
     1
102
RTVSPropertyOp21
 70
     1
102
RTVSPropertyOp22
 70
     1
102
RTVSPropertyOp23
 70
     1
102
RTVSPropertyOp24
 70
     1
102
RTVSPropertyOp25
 70
     1
102
RTVSPropertyOp26
 70
     1
102
RTVSPropertyOp27
 70
     1
  0
XRECORD
  5
1C284
102
{ACAD_REACTORS
330
1C283
102
}
330
1C283
100
AcDbXrecord
280
     1
102
RTVSPropertyOp0
 70
     1
102
RTVSPropertyOp1
 70
     1
102
RTVSPropertyOp2
 70
     1
102
RTVSPropertyOp3
 70
     1
102
RTVSPropertyOp4
 70
     1
102
RTVSPropertyOp5
 70
     1
102
RTVSPropertyOp6
 70
     1
102
RTVSPropertyOp7
 70
     1
102
RTVSPropertyOp8
 70
     1
102
RTVSPropertyOp9
 70
     1
102
RTVSPropertyOp10
 70
     1
102
RTVSPropertyOp11
 70
     1
102
RTVSPropertyOp12
 70
     1
102
RTVSPropertyOp13
 70
     1
102
RTVSPropertyOp14
 70
     1
102
RTVSPropertyOp15
 70
     1
102
RTVSPropertyOp16
 70
     1
102
RTVSPropertyOp17
 70
     1
102
RTVSPropertyOp18
 70
     1
102
RTVSPropertyOp19
 70
     1
102
RTVSPropertyOp20
 70
     1
102
RTVSPropertyOp21
 70
     1
102
RTVSPropertyOp22
 70
     1
102
RTVSPropertyOp23
 70
     1
102
RTVSPropertyOp24
 70
     1
102
RTVSPropertyOp25
 70
     1
102
RTVSPropertyOp26
 70
     1
102
RTVSPropertyOp27
 70
     1
  0
XRECORD
  5
1C286
102
{ACAD_REACTORS
330
1C285
102
}
330
1C285
100
AcDbXrecord
280
     1
102
RTVSPropertyOp0
 70
     1
102
RTVSPropertyOp1
 70
     1
102
RTVSPropertyOp2
 70
     1
102
RTVSPropertyOp3
 70
     1
102
RTVSPropertyOp4
 70
     1
102
RTVSPropertyOp5
 70
     1
102
RTVSPropertyOp6
 70
     1
102
RTVSPropertyOp7
 70
     1
102
RTVSPropertyOp8
 70
     1
102
RTVSPropertyOp9
 70
     1
102
RTVSPropertyOp10
 70
     1
102
RTVSPropertyOp11
 70
     1
102
RTVSPropertyOp12
 70
     1
102
RTVSPropertyOp13
 70
     1
102
RTVSPropertyOp14
 70
     1
102
RTVSPropertyOp15
 70
     1
102
RTVSPropertyOp16
 70
     1
102
RTVSPropertyOp17
 70
     1
102
RTVSPropertyOp18
 70
     1
102
RTVSPropertyOp19
 70
     1
102
RTVSPropertyOp20
 70
     1
102
RTVSPropertyOp21
 70
     1
102
RTVSPropertyOp22
 70
     1
102
RTVSPropertyOp23
 70
     1
102
RTVSPropertyOp24
 70
     1
102
RTVSPropertyOp25
 70
     1
102
RTVSPropertyOp26
 70
     1
102
RTVSPropertyOp27
 70
     1
  0
XRECORD
  5
1C2A0
102
{ACAD_REACTORS
330
1C29F
102
}
330
1C29F
100
AcDbXrecord
280
     1
102
RTVSPropertyOp0
 70
     0
102
RTVSPropertyOp1
 70
     0
102
RTVSPropertyOp2
 70
     0
102
RTVSPropertyOp3
 70
     0
102
RTVSPropertyOp4
 70
     0
102
RTVSPropertyOp5
 70
     0
102
RTVSPropertyOp6
 70
     0
102
RTVSPropertyOp7
 70
     0
102
RTVSPropertyOp8
 70
     0
102
RTVSPropertyOp9
 70
     0
102
RTVSPropertyOp10
 70
     0
102
RTVSPropertyOp11
 70
     0
102
RTVSPropertyOp12
 70
     0
102
RTVSPropertyOp13
 70
     0
102
RTVSPropertyOp14
 70
     2
102
RTVSPropertyOp15
 70
     0
102
RTVSPropertyOp16
 70
     0
102
RTVSPropertyOp17
 70
     0
102
RTVSPropertyOp18
 70
     0
102
RTVSPropertyOp19
 70
     0
102
RTVSPropertyOp20
 70
     0
102
RTVSPropertyOp21
 70
     0
102
RTVSPropertyOp22
 70
     0
102
RTVSPropertyOp23
 70
     0
102
RTVSPropertyOp24
 70
     0
102
RTVSPropertyOp25
 70
     0
102
RTVSPropertyOp26
 70
     0
102
RTVSPropertyOp27
 70
     0
  0
XRECORD
  5
1C29A
102
{ACAD_REACTORS
330
1C299
102
}
330
1C299
100
AcDbXrecord
280
     1
102
RTVSPropertyOp0
 70
     1
102
RTVSPropertyOp1
 70
     1
102
RTVSPropertyOp2
 70
     1
102
RTVSPropertyOp3
 70
     1
102
RTVSPropertyOp4
 70
     1
102
RTVSPropertyOp5
 70
     1
102
RTVSPropertyOp6
 70
     1
102
RTVSPropertyOp7
 70
     1
102
RTVSPropertyOp8
 70
     1
102
RTVSPropertyOp9
 70
     1
102
RTVSPropertyOp10
 70
     1
102
RTVSPropertyOp11
 70
     1
102
RTVSPropertyOp12
 70
     1
102
RTVSPropertyOp13
 70
     1
102
RTVSPropertyOp14
 70
     1
102
RTVSPropertyOp15
 70
     1
102
RTVSPropertyOp16
 70
     1
102
RTVSPropertyOp17
 70
     1
102
RTVSPropertyOp18
 70
     1
102
RTVSPropertyOp19
 70
     1
102
RTVSPropertyOp20
 70
     1
102
RTVSPropertyOp21
 70
     1
102
RTVSPropertyOp22
 70
     1
102
RTVSPropertyOp23
 70
     1
102
RTVSPropertyOp24
 70
     1
102
RTVSPropertyOp25
 70
     1
102
RTVSPropertyOp26
 70
     1
102
RTVSPropertyOp27
 70
     1
  0
XRECORD
  5
1C2A2
102
{ACAD_REACTORS
330
1C2A1
102
}
330
1C2A1
100
AcDbXrecord
280
     1
102
RTVSPropertyOp0
 70
     0
102
RTVSPropertyOp1
 70
     0
102
RTVSPropertyOp2
 70
     0
102
RTVSPropertyOp3
 70
     0
102
RTVSPropertyOp4
 70
     0
102
RTVSPropertyOp5
 70
     0
102
RTVSPropertyOp6
 70
     0
102
RTVSPropertyOp7
 70
     0
102
RTVSPropertyOp8
 70
     0
102
RTVSPropertyOp9
 70
     0
102
RTVSPropertyOp10
 70
     0
102
RTVSPropertyOp11
 70
     0
102
RTVSPropertyOp12
 70
     0
102
RTVSPropertyOp13
 70
     0
102
RTVSPropertyOp14
 70
     2
102
RTVSPropertyOp15
 70
     0
102
RTVSPropertyOp16
 70
     0
102
RTVSPropertyOp17
 70
     0
102
RTVSPropertyOp18
 70
     0
102
RTVSPropertyOp19
 70
     0
102
RTVSPropertyOp20
 70
     0
102
RTVSPropertyOp21
 70
     0
102
RTVSPropertyOp22
 70
     0
102
RTVSPropertyOp23
 70
     0
102
RTVSPropertyOp24
 70
     0
102
RTVSPropertyOp25
 70
     0
102
RTVSPropertyOp26
 70
     0
102
RTVSPropertyOp27
 70
     0
  0
XRECORD
  5
1C292
102
{ACAD_REACTORS
330
1C291
102
}
330
1C291
100
AcDbXrecord
280
     1
102
RTVSPropertyOp0
 70
     1
102
RTVSPropertyOp1
 70
     1
102
RTVSPropertyOp2
 70
     1
102
RTVSPropertyOp3
 70
     1
102
RTVSPropertyOp4
 70
     1
102
RTVSPropertyOp5
 70
     1
102
RTVSPropertyOp6
 70
     1
102
RTVSPropertyOp7
 70
     1
102
RTVSPropertyOp8
 70
     1
102
RTVSPropertyOp9
 70
     1
102
RTVSPropertyOp10
 70
     1
102
RTVSPropertyOp11
 70
     1
102
RTVSPropertyOp12
 70
     1
102
RTVSPropertyOp13
 70
     1
102
RTVSPropertyOp14
 70
     1
102
RTVSPropertyOp15
 70
     1
102
RTVSPropertyOp16
 70
     1
102
RTVSPropertyOp17
 70
     1
102
RTVSPropertyOp18
 70
     1
102
RTVSPropertyOp19
 70
     1
102
RTVSPropertyOp20
 70
     1
102
RTVSPropertyOp21
 70
     1
102
RTVSPropertyOp22
 70
     1
102
RTVSPropertyOp23
 70
     1
102
RTVSPropertyOp24
 70
     1
102
RTVSPropertyOp25
 70
     1
102
RTVSPropertyOp26
 70
     1
102
RTVSPropertyOp27
 70
     1
  0
XRECORD
  5
1C298
102
{ACAD_REACTORS
330
1C297
102
}
330
1C297
100
AcDbXrecord
280
     1
102
RTVSPropertyOp0
 70
     1
102
RTVSPropertyOp1
 70
     1
102
RTVSPropertyOp2
 70
     1
102
RTVSPropertyOp3
 70
     1
102
RTVSPropertyOp4
 70
     1
102
RTVSPropertyOp5
 70
     1
102
RTVSPropertyOp6
 70
     1
102
RTVSPropertyOp7
 70
     1
102
RTVSPropertyOp8
 70
     1
102
RTVSPropertyOp9
 70
     1
102
RTVSPropertyOp10
 70
     1
102
RTVSPropertyOp11
 70
     1
102
RTVSPropertyOp12
 70
     1
102
RTVSPropertyOp13
 70
     1
102
RTVSPropertyOp14
 70
     1
102
RTVSPropertyOp15
 70
     1
102
RTVSPropertyOp16
 70
     1
102
RTVSPropertyOp17
 70
     1
102
RTVSPropertyOp18
 70
     1
102
RTVSPropertyOp19
 70
     1
102
RTVSPropertyOp20
 70
     1
102
RTVSPropertyOp21
 70
     1
102
RTVSPropertyOp22
 70
     1
102
RTVSPropertyOp23
 70
     1
102
RTVSPropertyOp24
 70
     1
102
RTVSPropertyOp25
 70
     1
102
RTVSPropertyOp26
 70
     1
102
RTVSPropertyOp27
 70
     1
  0
ENDSEC
  0
EOF
