  0
SECTION
  2
HEADER
  9
$ACADVER
  1
AC1015
  9
$ACADMAINTVER
 70
    20
  9
$DWGCODEPAGE
  3
ANSI_1252
  9
$INSBASE
 10
0.0
 20
0.0
 30
0.0
  9
$EXTMIN
 10
1276.436216026184
 20
915.9789581966006
 30
0.0
  9
$EXTMAX
 10
2504.820000863648
 20
2156.943135342596
 30
0.0
  9
$LIMMIN
 10
0.0
 20
0.0
  9
$LIMMAX
 10
420.0
 20
297.0
  9
$ORTHOMODE
 70
     0
  9
$REGENMODE
 70
     1
  9
$FILLMODE
 70
     1
  9
$QTEXTMODE
 70
     0
  9
$MIRRTEXT
 70
     1
  9
$LTSCALE
 40
1.0
  9
$ATTMODE
 70
     1
  9
$TEXTSIZE
 40
2.5
  9
$TRACEWID
 40
1.0
  9
$TEXTSTYLE
  7
STANDARD
  9
$CLAYER
  8
0
  9
$CELTYPE
  6
ByLayer
  9
$CECOLOR
 62
   256
  9
$CELTSCALE
 40
1.0
  9
$DISPSILH
 70
     0
  9
$DIMSCALE
 40
1.0
  9
$DIMASZ
 40
2.5
  9
$DIMEXO
 40
1.0
  9
$DIMDLI
 40
10.0
  9
$DIMRND
 40
0.0
  9
$DIMDLE
 40
0.0
  9
$DIMEXE
 40
1.0
  9
$DIMTP
 40
0.1
  9
$DIMTM
 40
0.1
  9
$DIMTXT
 40
3.5
  9
$DIMCEN
 40
0.0
  9
$DIMTSZ
 40
0.0
  9
$DIMTOL
 70
     0
  9
$DIMLIM
 70
     0
  9
$DIMTIH
 70
     0
  9
$DIMTOH
 70
     0
  9
$DIMSE1
 70
     0
  9
$DIMSE2
 70
     0
  9
$DIMTAD
 70
     1
  9
$DIMZIN
 70
     8
  9
$DIMBLK
  1

  9
$DIMASO
 70
     1
  9
$DIMSHO
 70
     1
  9
$DIMPOST
  1

  9
$DIMAPOST
  1
"
  9
$DIMALT
 70
     0
  9
$DIMALTD
 70
     2
  9
$DIMALTF
 40
0.0393701
  9
$DIMLFAC
 40
1.0
  9
$DIMTOFL
 70
     1
  9
$DIMTVP
 40
0.0
  9
$DIMTIX
 70
     0
  9
$DIMSOXD
 70
     0
  9
$DIMSAH
 70
     0
  9
$DIMBLK1
  1

  9
$DIMBLK2
  1

  9
$DIMSTYLE
  2
AM_DIN
  9
$DIMCLRD
 70
   256
  9
$DIMCLRE
 70
   256
  9
$DIMCLRT
 70
     2
  9
$DIMTFAC
 40
0.71
  9
$DIMGAP
 40
1.5
  9
$DIMJUST
 70
     0
  9
$DIMSD1
 70
     0
  9
$DIMSD2
 70
     0
  9
$DIMTOLJ
 70
     0
  9
$DIMTZIN
 70
     8
  9
$DIMALTZ
 70
     0
  9
$DIMALTTZ
 70
     0
  9
$DIMUPT
 70
     0
  9
$DIMDEC
 70
     2
  9
$DIMTDEC
 70
     3
  9
$DIMALTU
 70
     2
  9
$DIMALTTD
 70
     4
  9
$DIMTXSTY
  7
STANDARD
  9
$DIMAUNIT
 70
     0
  9
$DIMADEC
 70
     0
  9
$DIMALTRND
 40
0.0
  9
$DIMAZIN
 70
     2
  9
$DIMDSEP
 70
    46
  9
$DIMATFIT
 70
     3
  9
$DIMFRAC
 70
     0
  9
$DIMLDRBLK
  1

  9
$DIMLUNIT
 70
     2
  9
$DIMLWD
 70
    -1
  9
$DIMLWE
 70
    -1
  9
$DIMTMOVE
 70
     0
  9
$LUNITS
 70
     2
  9
$LUPREC
 70
     2
  9
$SKETCHINC
 40
1.0
  9
$FILLETRAD
 40
2.5
  9
$AUNITS
 70
     0
  9
$AUPREC
 70
     0
  9
$MENU
  1
.
  9
$ELEVATION
 40
0.0
  9
$PELEVATION
 40
0.0
  9
$THICKNESS
 40
0.0
  9
$LIMCHECK
 70
     0
  9
$CHAMFERA
 40
2.5
  9
$CHAMFERB
 40
2.5
  9
$CHAMFERC
 40
20.0
  9
$CHAMFERD
 40
0.0
  9
$SKPOLY
 70
     0
  9
$TDCREATE
 40
2454053.358116319
  9
$TDUCREATE
 40
2454053.316449653
  9
$TDUPDATE
 40
2454053.358309097
  9
$TDUUPDATE
 40
2454053.316642431
  9
$TDINDWG
 40
0.0001929514
  9
$TDUSRTIMER
 40
0.0001929514
  9
$USRTIMER
 70
     1
  9
$ANGBASE
 50
0.0
  9
$ANGDIR
 70
     0
  9
$PDMODE
 70
     0
  9
$PDSIZE
 40
0.0
  9
$PLINEWID
 40
0.0
  9
$SPLFRAME
 70
     0
  9
$SPLINETYPE
 70
     6
  9
$SPLINESEGS
 70
     8
  9
$HANDSEED
  5
5E7
  9
$SURFTAB1
 70
     6
  9
$SURFTAB2
 70
     6
  9
$SURFTYPE
 70
     6
  9
$SURFU
 70
     6
  9
$SURFV
 70
     6
  9
$UCSBASE
  2

  9
$UCSNAME
  2

  9
$UCSORG
 10
0.0
 20
0.0
 30
0.0
  9
$UCSXDIR
 10
1.0
 20
0.0
 30
0.0
  9
$UCSYDIR
 10
0.0
 20
1.0
 30
0.0
  9
$UCSORTHOREF
  2

  9
$UCSORTHOVIEW
 70
     0
  9
$UCSORGTOP
 10
0.0
 20
0.0
 30
0.0
  9
$UCSORGBOTTOM
 10
0.0
 20
0.0
 30
0.0
  9
$UCSORGLEFT
 10
0.0
 20
0.0
 30
0.0
  9
$UCSORGRIGHT
 10
0.0
 20
0.0
 30
0.0
  9
$UCSORGFRONT
 10
0.0
 20
0.0
 30
0.0
  9
$UCSORGBACK
 10
0.0
 20
0.0
 30
0.0
  9
$PUCSBASE
  2

  9
$PUCSNAME
  2

  9
$PUCSORG
 10
0.0
 20
0.0
 30
0.0
  9
$PUCSXDIR
 10
1.0
 20
0.0
 30
0.0
  9
$PUCSYDIR
 10
0.0
 20
1.0
 30
0.0
  9
$PUCSORTHOREF
  2

  9
$PUCSORTHOVIEW
 70
     0
  9
$PUCSORGTOP
 10
0.0
 20
0.0
 30
0.0
  9
$PUCSORGBOTTOM
 10
0.0
 20
0.0
 30
0.0
  9
$PUCSORGLEFT
 10
0.0
 20
0.0
 30
0.0
  9
$PUCSORGRIGHT
 10
0.0
 20
0.0
 30
0.0
  9
$PUCSORGFRONT
 10
0.0
 20
0.0
 30
0.0
  9
$PUCSORGBACK
 10
0.0
 20
0.0
 30
0.0
  9
$USERI1
 70
     0
  9
$USERI2
 70
     0
  9
$USERI3
 70
     0
  9
$USERI4
 70
     0
  9
$USERI5
 70
     0
  9
$USERR1
 40
0.0
  9
$USERR2
 40
0.0
  9
$USERR3
 40
0.0
  9
$USERR4
 40
0.0
  9
$USERR5
 40
0.0
  9
$WORLDVIEW
 70
     1
  9
$SHADEDGE
 70
     3
  9
$SHADEDIF
 70
    70
  9
$TILEMODE
 70
     1
  9
$MAXACTVP
 70
    64
  9
$PINSBASE
 10
0.0
 20
0.0
 30
0.0
  9
$PLIMCHECK
 70
     0
  9
$PEXTMIN
 10
1.000000000000000E+20
 20
1.000000000000000E+20
 30
1.000000000000000E+20
  9
$PEXTMAX
 10
-1.000000000000000E+20
 20
-1.000000000000000E+20
 30
-1.000000000000000E+20
  9
$PLIMMIN
 10
0.0
 20
0.0
  9
$PLIMMAX
 10
420.0
 20
297.0
  9
$UNITMODE
 70
     0
  9
$VISRETAIN
 70
     1
  9
$PLINEGEN
 70
     0
  9
$PSLTSCALE
 70
     1
  9
$TREEDEPTH
 70
  3020
  9
$CMLSTYLE
  2
Standard
  9
$CMLJUST
 70
     0
  9
$CMLSCALE
 40
20.0
  9
$PROXYGRAPHICS
 70
     1
  9
$MEASUREMENT
 70
     1
  9
$CELWEIGHT
370
    -1
  9
$ENDCAPS
280
     0
  9
$JOINSTYLE
280
     0
  9
$LWDISPLAY
290
     0
  9
$INSUNITS
 70
     4
  9
$HYPERLINKBASE
  1

  9
$STYLESHEET
  1

  9
$XEDIT
290
     1
  9
$CEPSNTYPE
380
     0
  9
$PSTYLEMODE
290
     1
  9
$FINGERPRINTGUID
  2
{0806C441-3315-4570-9171-A576A9FFA8DD}
  9
$VERSIONGUID
  2
{ADE895C3-9366-4B8B-830A-20C053284125}
  9
$EXTNAMES
290
     1
  9
$PSVPSCALE
 40
0.0
  9
$OLESTARTUP
290
     0
  0
ENDSEC
  0
SECTION
  2
CLASSES
  0
CLASS
  1
ACDBDICTIONARYWDFLT
  2
AcDbDictionaryWithDefault
  3
ObjectDBX Classes
 90
        0
280
     0
281
     0
  0
CLASS
  1
ACDBPLACEHOLDER
  2
AcDbPlaceHolder
  3
ObjectDBX Classes
 90
        0
280
     0
281
     0
  0
CLASS
  1
LAYOUT
  2
AcDbLayout
  3
ObjectDBX Classes
 90
        0
280
     0
281
     0
  0
CLASS
  1
AMGSETTINGSOBJ
  2
AmgSettingsObj
  3
"AcadM|Product Description: AutoCAD Mechanical 2000|Company: Autodesk"
 90
        0
280
     0
281
     0
  0
CLASS
  1
ACME_DOCUMENT
  2
AcMeDbDoc
  3
AcMeServices
 90
        0
280
     0
281
     0
  0
CLASS
  1
ACMESCOPE
  2
AcMeScope
  3
AcMeServices
 90
        0
280
     0
281
     0
  0
CLASS
  1
ACMECOMMANDHISTORY
  2
AcMeCommandHistory
  3
AcMeServices
 90
        0
280
     0
281
     0
  0
CLASS
  1
DICTIONARYVAR
  2
AcDbDictionaryVar
  3
ObjectDBX Classes
 90
        0
280
     0
281
     0
  0
CLASS
  1
ACIMSYSVARMAN
  2
AcImSysVarManager
  3
AcMeServices
 90
        0
280
     0
281
     0
  0
CLASS
  1
ACIMREALSYSVAR
  2
AcImRealSysVar
  3
AcMeServices
 90
        0
280
     0
281
     0
  0
CLASS
  1
ACIMINTSYSVAR
  2
AcImIntSysVar
  3
AcMeServices
 90
        0
280
     0
281
     0
  0
CLASS
  1
ACMEDRAWINGMAN
  2
AcMeDrawingMan
  3
AcMeServices
 90
        0
280
     0
281
     0
  0
CLASS
  1
ACMEVIEW
  2
AcMeView
  3
AcMeServices
 90
        0
280
     0
281
     0
  0
CLASS
  1
ACDBENTITYCACHE
  2
AcMeEntityCache
  3
AcMeServices
 90
        0
280
     0
281
     0
  0
CLASS
  1
GSMANAGER
  2
AcMeGSManager
  3
AcMeServices
 90
        0
280
     0
281
     0
  0
CLASS
  1
AMDTINTERNALREACTOR
  2
AmdtInternalReactor
  3
AcMeServices
 90
        0
280
     0
281
     0
  0
CLASS
  1
ACMESTATEMGR
  2
AcMeStateMgr
  3
AcMeServices
 90
        0
280
     0
281
     0
  0
CLASS
  1
ACGREFMASTER
  2
AcGrefMaster
  3
AcAttribServices
 90
        0
280
     0
281
     0
  0
CLASS
  1
ACME_DATABASE
  2
AcMeDbDatabase
  3
AcMeServices
 90
        0
280
     0
281
     0
  0
CLASS
  1
ACRFINSADJUSTERMGR
  2
AcRfInsAdjusterMgr
  3
AcMeServices
 90
        0
280
     0
281
     0
  0
CLASS
  1
ACGREFACADMASTER
  2
AcGrefacadMaster
  3
AcGrefServices
 90
        0
280
     0
281
     0
  0
CLASS
  1
AMIMASTER
  2
AmiMaster
  3
AmiServices
 90
        0
280
     0
281
     0
  0
CLASS
  1
ACIMSTRSYSVAR
  2
AcImStrSysVar
  3
AcMeServices
 90
        0
280
     0
281
     0
  0
CLASS
  1
ACMSTANDARDDIN
  2
AcmStandardDIN
  3
"Amdt_StdImp|Product Description: AutoCAD Mechanical 2004 DX|Company: Autodesk"
 90
        0
280
     0
281
     0
  0
CLASS
  1
AMGOBJPROPCFG
  2
AmgObjPropCfg
  3
"AmgLay|Product Description: AutoCAD Mechanical 2000|Company: Autodesk"
 90
        1
280
     0
281
     0
  0
CLASS
  1
AMDTEDGESTANDARDDIN
  2
AmdtEdgeStdDIN
  3
"Amdt_StdImp|Product Description: AutoCAD Mechanical 2004 DX|Company: Autodesk"
 90
        0
280
     0
281
     0
  0
CLASS
  1
ACMSURFSTANDARDDIN
  2
AcmSurfTextStdDIN
  3
"Amdt_StdImp|Product Description: AutoCAD Mechanical 2004 DX|Company: Autodesk"
 90
        0
280
     0
281
     0
  0
CLASS
  1
ACMFCFSTANDARDDIN
  2
AcmFCFStdDIN
  3
"Amdt_StdImp|Product Description: AutoCAD Mechanical 2004 DX|Company: Autodesk"
 90
        0
280
     0
281
     0
  0
CLASS
  1
ACMWELDSTANDARDDIN
  2
AcmWeldingStdDIN
  3
"Amdt_StdImp|Product Description: AutoCAD Mechanical 2004 DX|Company: Autodesk"
 90
        0
280
     0
281
     0
  0
CLASS
  1
ACMIDSTANDARDDIN
  2
AcmIdStdDIN
  3
"Amdt_StdImp|Product Description: AutoCAD Mechanical 2004 DX|Company: Autodesk"
 90
        0
280
     0
281
     0
  0
CLASS
  1
ACMDATUMSTANDARDDIN
  2
AcmDatumStdDIN
  3
"Amdt_StdImp|Product Description: AutoCAD Mechanical 2004 DX|Company: Autodesk"
 90
        0
280
     0
281
     0
  0
CLASS
  1
ACMBOMSTANDARDDIN
  2
AcmBOMStdDIN
  3
"Amdt_StdImp|Product Description: AutoCAD Mechanical 2004 DX|Company: Autodesk"
 90
        0
280
     0
281
     0
  0
CLASS
  1
ACMDETAILSTANDARDDIN
  2
AmdtDetailSymStdDIN
  3
"Amdt_StdImp|Product Description: AutoCAD Mechanical 2004 DX|Company: Autodesk"
 90
        0
280
     0
281
     0
  0
CLASS
  1
ACMSECTIONSTANDARDDIN
  2
AmdtSectionSymStdDIN
  3
"Amdt_StdImp|Product Description: AutoCAD Mechanical 2004 DX|Company: Autodesk"
 90
        0
280
     0
281
     0
  0
CLASS
  1
ACMCENTERLINESTANDARDDIN
  2
AmdtCenterLineStdDIN
  3
"Amdt_StdImp|Product Description: AutoCAD Mechanical 2004 DX|Company: Autodesk"
 90
        0
280
     0
281
     0
  0
CLASS
  1
ACMTHREADLINESTANDARDDIN
  2
AmdtThreadLineStdDIN
  3
"Amdt_StdImp|Product Description: AutoCAD Mechanical 2004 DX|Company: Autodesk"
 90
        0
280
     0
281
     0
  0
CLASS
  1
ACAMGLAYSTD
  2
AcAmgLayStd
  3
"AcAmgLayStd|Product Description: AutoCAD Mechanical 2000|Company: Autodesk"
 90
        0
280
     0
281
     0
  0
CLASS
  1
ACAMGDIMSTD
  2
AcAmgDimStd
  3
"AcAmgDimStd|Product Description: AutoCAD Mechanical 2000|Company: Autodesk"
 90
        0
280
     0
281
     0
  0
CLASS
  1
ACAMGTITLESTD
  2
AcAmgTitleStd
  3
"TITLEAPP"
 90
        0
280
     0
281
     0
  0
CLASS
  1
ACMDATADICTIONARY
  2
AcmDataDictionary
  3
"AcmSymBB|Product Description: AutoCAD Mechanical 2004 DX|Company: Autodesk"
 90
        0
280
     0
281
     0
  0
CLASS
  1
ACMDATAENTRYBLOCK
  2
AcmDataEntryBlock
  3
"AcmSymBB|Product Description: AutoCAD Mechanical 2004 DX|Company: Autodesk"
 90
        0
280
     0
281
     0
  0
CLASS
  1
LAYER_INDEX
  2
AcDbLayerIndex
  3
ObjectDBX Classes
 90
    32768
280
     0
281
     0
  0
CLASS
  1
IDBUFFER
  2
AcDbIdBuffer
  3
ObjectDBX Classes
 90
    32768
280
     0
281
     0
  0
CLASS
  1
ACMNOTESTANDARDDIN
  2
AmdtNoteStdDIN
  3
"Amdt_StdImp|Product Description: AutoCAD Mechanical 2004 DX|Company: Autodesk"
 90
        0
280
     0
281
     0
  0
CLASS
  1
ACAMGHOLECHARTSTDDIN
  2
AcAmgHoleChartStdDIN
  3
ACMSYMBB_MODULE_NAME
 90
        0
280
     0
281
     0
  0
CLASS
  1
AM_DRAWING_MGR
  2
AcDmDwgMgr
  3
AcMechDwgViewMgmt
 90
        0
280
     0
281
     0
  0
CLASS
  1
AM_DWG_DOCUMENT
  2
AcDmDwgDocument
  3
AcMechDwgViewMgmt
 90
        0
280
     0
281
     0
  0
CLASS
  1
AM_DWG_SHEET
  2
AcDmSheet
  3
AcMechDwgViewMgmt
 90
        0
280
     0
281
     0
  0
CLASS
  1
AM_VIEWDIMPARMAP
  2
AcDmViewDimParMap
  3
AcMechDwgViewMgmt
 90
        0
280
     0
281
     0
  0
CLASS
  1
AM_DWGMGR_NAME
  2
AcDmDwgMgrName
  3
AcMechDwgViewMgmt
 90
        0
280
     0
281
     0
  0
CLASS
  1
AMDTMENUSTATEMGR
  2
AmdtMenuStateMgr
  3
McadcomServices
 90
        0
280
     0
281
     0
  0
CLASS
  1
AMDTMCOMMENUSTATE
  2
AmdtMcomMenuState
  3
McadcomServices
 90
        0
280
     0
281
     0
  0
CLASS
  1
MAPIAMMOUDLE
  2
MApiAmModule
  3
MApiAmServices
 90
        0
280
     0
281
     0
  0
CLASS
  1
AMDTADMENUSTATE
  2
AmdtAdMenuState
  3
DesignerServices
 90
        0
280
     0
281
     0
  0
CLASS
  1
ADAPPL
  2
AcAdAppl
  3
DesignerServices
 90
        0
280
     0
281
     0
  0
CLASS
  1
DEPMGR
  2
AcAdDepMgr
  3
DesignerServices
 90
        0
280
     0
281
     0
  0
CLASS
  1
PARAMMGR
  2
AcAdParamMgr
  3
DesignerServices
 90
        0
280
     0
281
     0
  0
CLASS
  1
PARAMSCOPE
  2
AcAdParamScope
  3
DesignerServices
 90
        0
280
     0
281
     0
  0
CLASS
  1
NAMEDAPPL
  2
AcAdNamedAppl
  3
DesignerServices
 90
        0
280
     0
281
     0
  0
CLASS
  1
AMDTDMMENUSTATE
  2
AmdtDmMenuState
  3
AcMechDwgViewMgmt
 90
        0
280
     0
281
     0
  0
CLASS
  1
AMDTAMMENUSTATE
  2
AmdtAmMenuState
  3
DesignerAssemblies
 90
        0
280
     0
281
     0
  0
CLASS
  1
ACAMPROJECT
  2
AcAmProject
  3
DesignerAssemblies
 90
        0
280
     0
281
     0
  0
CLASS
  1
ACAMGRCOMPDEF
  2
AcAmGrCompDef
  3
DesignerAssemblies
 90
        0
280
     0
281
     0
  0
CLASS
  1
ACCMCONTEXT
  2
AcCmContext
  3
DesignerAssemblies
 90
        0
280
     0
281
     0
  0
CLASS
  1
ACAMCOMPDEF
  2
AcAmCompDef
  3
DesignerAssemblies
 90
        0
280
     0
281
     0
  0
CLASS
  1
ACAMCOMPDEFMGR
  2
AcAmCompDefMgr
  3
DesignerAssemblies
 90
        0
280
     0
281
     0
  0
CLASS
  1
AMCONTEXTMGR
  2
AcAmContextMgr
  3
DesignerAssemblies
 90
        0
280
     0
281
     0
  0
CLASS
  1
ACAMCONTEXTMODELER
  2
AcAmContextModeler
  3
DesignerAssemblies
 90
        0
280
     0
281
     0
  0
CLASS
  1
CATALOGSTATE
  2
AcAmCatalogState
  3
DesignerAssemblies
 90
        0
280
     0
281
     0
  0
CLASS
  1
ACAMGRCOMPDEFSET
  2
AcAmGrCompDefSet
  3
DesignerAssemblies
 90
        0
280
     0
281
     0
  0
CLASS
  1
AMDTBROWSERDBTAB
  2
AmdtBrowserDbTab
  3
McadcomServices
 90
        0
280
     0
281
     0
  0
CLASS
  1
CBROWSERAPPOBJECT
  2
CBrowserAppObject
  3
McadcomServices
 90
        0
280
     0
281
     0
  0
CLASS
  1
DM_PLACEHOLDER
  2
AcDmSelsetPlaceholder
  3
AcMechDwgViewMgmt
 90
        0
280
     0
281
     0
  0
CLASS
  1
TABLESTYLE
  2
AcDbTableStyle
  3
ObjectDBX Classes
 90
     2047
280
     0
281
     0
  0
CLASS
  1
VAACXREFPANELOBJECT
  2
VaAcXREFPanelObject
  3
VAAC_ADDIN
 90
    32768
280
     0
281
     0
  0
CLASS
  1
VAACIMAGEINVENTORY
  2
VaAcImageInventory
  3
VAAC_ADDIN
 90
    32768
280
     0
281
     0
  0
CLASS
  1
AMDTNOTETEMPLATEDB
  2
AmdtNoteTemplateDB
  3
AMDT_STDIMP_MODULE_NAME
 90
        0
280
     0
281
     0
  0
CLASS
  1
ACAMGFILTERDAT
  2
AcAmgFilterDat
  3
"AcadM|Product Description: AutoCAD Mechanical 2000|Company: Autodesk"
 90
        0
280
     0
281
     0
  0
CLASS
  1
ACMBOM
  2
AcmBom
  3
"AcmSymBB|Product Description: AutoCAD Mechanical 2004 DX|Company: Autodesk"
 90
    32768
280
     0
281
     0
  0
CLASS
  1
AMDTFORMULAUPDATEDISPATCHER
  2
AmdtFormulaUpdateDispatcher
  3
AcMeServices
 90
    32768
280
     0
281
     0
  0
CLASS
  1
DIMASSOC
  2
AcDbDimAssoc
  3
"AcDbDimAssoc|Product Desc:     AcDim ARX App For Dimension|Company:          Autodesk, Inc.|WEB Address:      www.autodesk.com"
 90
        0
280
     0
281
     0
  0
CLASS
  1
SORTENTSTABLE
  2
AcDbSortentsTable
  3
ObjectDBX Classes
 90
        0
280
     0
281
     0
  0
CLASS
  1
ACRFATTGENMGR
  2
AcRfAttGeneralMgr
  3
AcAttribServices
 90
        0
280
     0
281
     0
  0
ENDSEC
  0
SECTION
  2
TABLES
  0
TABLE
  2
VPORT
  5
8
330
0
100
AcDbSymbolTable
 70
     3
  0
VPORT
  5
5DE
330
8
100
AcDbSymbolTableRecord
100
AcDbViewportTableRecord
  2
*Active
 70
     0
 10
0.0
 20
0.0
 11
1.0
 21
1.0
 12
1890.628108444916
 22
1536.461046769598
 13
0.0
 23
0.0
 14
2.5
 24
2.5
 15
10.0
 25
10.0
 16
0.0
 26
0.0
 36
1.0
 17
0.0
 27
0.0
 37
0.0
 40
1249.34907023482
 41
1.378804960541149
 42
50.0
 43
0.0
 44
0.0
 50
0.0
 51
0.0
 71
     0
 72
   100
 73
     1
 74
     3
 75
     0
 76
     0
 77
     0
 78
     0
281
     0
 65
     1
110
0.0
120
0.0
130
0.0
111
1.0
121
0.0
131
0.0
112
0.0
122
1.0
132
0.0
 79
     0
146
0.0
  0
ENDTAB
  0
TABLE
  2
LTYPE
  5
5
330
0
100
AcDbSymbolTable
 70
    21
  0
LTYPE
  5
14
330
5
100
AcDbSymbolTableRecord
100
AcDbLinetypeTableRecord
  2
ByBlock
 70
     0
  3

 72
    65
 73
     0
 40
0.0
  0
LTYPE
  5
15
330
5
100
AcDbSymbolTableRecord
100
AcDbLinetypeTableRecord
  2
ByLayer
 70
     0
  3

 72
    65
 73
     0
 40
0.0
  0
LTYPE
  5
16
330
5
100
AcDbSymbolTableRecord
100
AcDbLinetypeTableRecord
  2
Continuous
 70
     0
  3
Solid line
 72
    65
 73
     0
 40
0.0
  0
LTYPE
  5
50
330
5
100
AcDbSymbolTableRecord
100
AcDbLinetypeTableRecord
  2
Amconstr
 70
     0
  3
_______________________
 72
    65
 73
     2
 40
9999.0
 49
9999.0
 74
     0
 49
0.0
 74
     0
  0
LTYPE
  5
55
330
5
100
AcDbSymbolTableRecord
100
AcDbLinetypeTableRecord
  2
Amzigzag
 70
     0
  3
/\/-/\/-/\/-/\/-/\/-/\/
 72
    65
 73
     2
 40
11.0001
 49
0.0001
 74
     4
 75
   136
340
285
 46
0.04
 50
0.0
 44
0.0
 45
0.0
 49
-11.0
 74
     0
  0
LTYPE
  5
56
330
5
100
AcDbSymbolTableRecord
100
AcDbLinetypeTableRecord
  2
AM_DIN_F_W050
 70
     0
  3
__ __ __ __ __ __ __ __ __ __ __ __ __ __ __
 72
    65
 73
     2
 40
6.25
 49
4.75
 74
     0
 49
-1.5
 74
     0
  0
LTYPE
  5
57
330
5
100
AcDbSymbolTableRecord
100
AcDbLinetypeTableRecord
  2
AM_DIN_G_W050
 70
     0
  3
____ . ____ . ____ . ____ . ____ . ____ . ____
 72
    65
 73
     4
 40
13.75
 49
9.75
 74
     0
 49
-1.5
 74
     0
 49
1.0
 74
     0
 49
-1.5
 74
     0
  0
LTYPE
  5
58
330
5
100
AcDbSymbolTableRecord
100
AcDbLinetypeTableRecord
  2
AM_DIN_K_W050
 70
     0
  3
_____ . . _____ . . _____ . . ____ .. ____
 72
    65
 73
     6
 40
16.25
 49
9.75
 74
     0
 49
-1.5
 74
     0
 49
1.0
 74
     0
 49
-1.5
 74
     0
 49
1.0
 74
     0
 49
-1.5
 74
     0
  0
LTYPE
  5
59
330
5
100
AcDbSymbolTableRecord
100
AcDbLinetypeTableRecord
  2
AM_DIN_G_W050x2
 70
     0
  3
__ . __ . __ . __ . __ . __
 72
    65
 73
     4
 40
6.875
 49
4.75
 74
     0
 49
-0.875
 74
     0
 49
0.375
 74
     0
 49
-0.875
 74
     0
  0
LTYPE
  5
5A
330
5
100
AcDbSymbolTableRecord
100
AcDbLinetypeTableRecord
  2
AM_DIN_F_W050x2
 70
     0
  3
 _ _ _ _ _ _ _ _ _ _ _ _
 72
    65
 73
     2
 40
3.125
 49
2.25
 74
     0
 49
-0.875
 74
     0
  0
LTYPE
  5
68
330
5
100
AcDbSymbolTableRecord
100
AcDbLinetypeTableRecord
  2
ACDINWELD
 70
     0
  3
_ _ _ _ _
 72
    65
 73
     2
 40
2.0
 49
2.0
 74
     0
 49
-1.0
 74
     0
  0
LTYPE
  5
69
330
5
100
AcDbSymbolTableRecord
100
AcDbLinetypeTableRecord
  2
ACDINTGB
 70
     0
  3
__ . . __ . .
 72
    65
 73
     6
 40
9.0
 49
4.0
 74
     0
 49
-1.0
 74
     0
 49
1.0
 74
     0
 49
-1.0
 74
     0
 49
1.0
 74
     0
 49
-1.0
 74
     0
  0
LTYPE
  5
6A
330
5
100
AcDbSymbolTableRecord
100
AcDbLinetypeTableRecord
  2
ACDINTGL
 70
     0
  3
_ _ _ _ _
 72
    65
 73
     2
 40
3.0
 49
2.0
 74
     0
 49
-1.0
 74
     0
  0
LTYPE
  5
6C
330
5
100
AcDbSymbolTableRecord
100
AcDbLinetypeTableRecord
  2
CENTER
 70
     0
  3
__ . __
 72
    65
 73
     4
 40
7.0
 49
4.0
 74
     0
 49
-1.0
 74
     0
 49
1.0
 74
     0
 49
-1.0
 74
     0
  0
LTYPE
  5
F2
330
5
100
AcDbSymbolTableRecord
100
AcDbLinetypeTableRecord
  2
HIDDEN
 70
     0
  3
Hidden __ __ __ __ __ __ __ __ __ __ __ __ __ _
 72
    65
 73
     2
 40
9.524999999999998
 49
6.349999999999999
 74
     0
 49
-3.174999999999999
 74
     0
  0
LTYPE
  5
F3
330
5
100
AcDbSymbolTableRecord
100
AcDbLinetypeTableRecord
  2
PHANTOM2
 70
     0
  3
Phantom (.5x) ___ _ _ ___ _ _ ___ _ _ ___ _ _
 72
    65
 73
     6
 40
31.75
 49
15.875
 74
     0
 49
-3.174999999999999
 74
     0
 49
3.174999999999999
 74
     0
 49
-3.174999999999999
 74
     0
 49
3.174999999999999
 74
     0
 49
-3.174999999999999
 74
     0
  0
LTYPE
  5
34C
330
5
100
AcDbSymbolTableRecord
100
AcDbLinetypeTableRecord
  2
AUSGEZOGEN
 70
     0
  3
_______________________________________________
 72
    65
 73
     0
 40
0.0
  0
ENDTAB
  0
TABLE
  2
LAYER
  5
2
102
{ACAD_XDICTIONARY
360
C0
102
}
330
0
100
AcDbSymbolTable
 70
    10
  0
LAYER
  5
10
330
2
100
AcDbSymbolTableRecord
100
AcDbLayerTableRecord
  2
0
 70
     0
 62
     7
  6
Continuous
370
    -3
390
F
  0
LAYER
  5
34D
330
2
100
AcDbSymbolTableRecord
100
AcDbLayerTableRecord
  2
AM_7
 70
     0
 62
     4
  6
AM_DIN_G_W050
370
    25
390
F
  0
LAYER
  5
34E
330
2
100
AcDbSymbolTableRecord
100
AcDbLayerTableRecord
  2
DEFPOINTS
 70
     0
 62
     7
  6
Continuous
290
     0
370
    -3
390
F
  0
LAYER
  5
34F
330
2
100
AcDbSymbolTableRecord
100
AcDbLayerTableRecord
  2
406
 70
     0
 62
     7
  6
Continuous
370
    -3
390
F
  0
LAYER
  5
350
330
2
100
AcDbSymbolTableRecord
100
AcDbLayerTableRecord
  2
AM_5
 70
     0
 62
     3
  6
Continuous
370
    25
390
F
  0
LAYER
  5
351
330
2
100
AcDbSymbolTableRecord
100
AcDbLayerTableRecord
  2
AM_4
 70
     0
 62
     3
  6
Continuous
370
    25
390
F
  0
LAYER
  5
352
330
2
100
AcDbSymbolTableRecord
100
AcDbLayerTableRecord
  2
AM_6
 70
     0
 62
     2
  6
Continuous
370
    35
390
F
  0
LAYER
  5
353
330
2
100
AcDbSymbolTableRecord
100
AcDbLayerTableRecord
  2
4
 70
     0
 62
     3
  6
Continuous
370
    -3
390
F
  0
LAYER
  5
354
330
2
100
AcDbSymbolTableRecord
100
AcDbLayerTableRecord
  2
AM_3
 70
     0
 62
     6
  6
AM_DIN_F_W050
370
    25
390
F
  0
ENDTAB
  0
TABLE
  2
STYLE
  5
3
330
0
100
AcDbSymbolTable
 70
     8
  0
STYLE
  5
11
330
3
100
AcDbSymbolTableRecord
100
AcDbTextStyleTableRecord
  2
STANDARD
 70
     0
 40
0.0
 41
1.0
 50
0.0
 71
     0
 42
2.5
  3
ISOCP.SHX
  4
bigfont.shx
  0
STYLE
  5
5B
330
3
100
AcDbSymbolTableRecord
100
AcDbTextStyleTableRecord
  2
ACDINTS
 70
     0
 40
1.0
 41
1.0
 50
0.0
 71
     0
 42
2.5
  3
isocp.shx
  4
bigfont.shx
  0
STYLE
  5
67
330
3
100
AcDbSymbolTableRecord
100
AcDbTextStyleTableRecord
  2
ACDINGDT
 70
     0
 40
0.0
 41
1.0
 50
0.0
 71
     0
 42
2.5
  3
AMGDT
  4
bigfont.shx
  0
STYLE
  5
285
330
3
100
AcDbSymbolTableRecord
100
AcDbTextStyleTableRecord
  2

 70
     1
 40
0.0
 41
1.0
 50
0.0
 71
     0
 42
2.5
  3
genltshp.shx
  4

  0
ENDTAB
  0
TABLE
  2
VIEW
  5
6
330
0
100
AcDbSymbolTable
 70
     0
  0
ENDTAB
  0
TABLE
  2
UCS
  5
7
330
0
100
AcDbSymbolTable
 70
     0
  0
ENDTAB
  0
TABLE
  2
APPID
  5
9
330
0
100
AcDbSymbolTable
 70
    19
  0
APPID
  5
12
330
9
100
AcDbSymbolTableRecord
100
AcDbRegAppTableRecord
  2
ACAD
 70
     0
  0
APPID
  5
30
330
9
100
AcDbSymbolTableRecord
100
AcDbRegAppTableRecord
  2
MCAD_NO_VIS
 70
     0
  0
APPID
  5
31
330
9
100
AcDbSymbolTableRecord
100
AcDbRegAppTableRecord
  2
ACAD_TEMP_GRAPHIC
 70
     0
  0
APPID
  5
44
330
9
100
AcDbSymbolTableRecord
100
AcDbRegAppTableRecord
  2
ACATTRIBSERVICES
 70
     0
  0
APPID
  5
108
330
9
100
AcDbSymbolTableRecord
100
AcDbRegAppTableRecord
  2
AD_DRAW
 70
     0
  0
APPID
  5
126
330
9
100
AcDbSymbolTableRecord
100
AcDbRegAppTableRecord
  2
DESIGNERASSEMBLIES
 70
     0
  0
APPID
  5
12A
330
9
100
AcDbSymbolTableRecord
100
AcDbRegAppTableRecord
  2
ACADM_DIM_EDIT
 70
     0
  0
APPID
  5
12B
330
9
100
AcDbSymbolTableRecord
100
AcDbRegAppTableRecord
  2
AMDT_DM_ADJ
 70
     0
  0
APPID
  5
1A4
330
9
100
AcDbSymbolTableRecord
100
AcDbRegAppTableRecord
  2
ACAD_DSTYLE_DIMARC_LENGTH_SYMBOL
 70
     0
  0
APPID
  5
1A5
330
9
100
AcDbSymbolTableRecord
100
AcDbRegAppTableRecord
  2
ACAD_DSTYLE_DIMJOGGED_JOGANGLE_SYMBOL
 70
     0
  0
APPID
  5
22C
330
9
100
AcDbSymbolTableRecord
100
AcDbRegAppTableRecord
  2
AcAecLayerStandard
 70
     0
  0
APPID
  5
358
330
9
100
AcDbSymbolTableRecord
100
AcDbRegAppTableRecord
  2
GENIUS_GENOENT_13
 70
     0
  0
APPID
  5
359
330
9
100
AcDbSymbolTableRecord
100
AcDbRegAppTableRecord
  2
GENIUS_GENODEF_13
 70
     0
  0
APPID
  5
35A
330
9
100
AcDbSymbolTableRecord
100
AcDbRegAppTableRecord
  2
GENIUS_GENOLIS_13
 70
     0
  0
APPID
  5
35B
330
9
100
AcDbSymbolTableRecord
100
AcDbRegAppTableRecord
  2
GENIUS_GENOREF_13
 70
     0
  0
APPID
  5
35C
330
9
100
AcDbSymbolTableRecord
100
AcDbRegAppTableRecord
  2
GENIUS_GENOBJ-N-CEN_13
 70
     0
  0
APPID
  5
35D
330
9
100
AcDbSymbolTableRecord
100
AcDbRegAppTableRecord
  2
ACAD_PSEXT
 70
     0
  0
APPID
  5
35E
330
9
100
AcDbSymbolTableRecord
100
AcDbRegAppTableRecord
  2
GENIUS_GENCEN_19
 70
     0
  0
APPID
  5
35F
330
9
100
AcDbSymbolTableRecord
100
AcDbRegAppTableRecord
  2
GENIUS_GENOBJ-N-CRS_13
 70
     0
  0
ENDTAB
  0
TABLE
  2
DIMSTYLE
  5
A
330
0
100
AcDbSymbolTable
 70
    11
100
AcDbDimStyleTable
 71
     1
340
6F
  0
DIMSTYLE
105
6F
102
{ACAD_REACTORS
330
4B
102
}
330
A
100
AcDbSymbolTableRecord
100
AcDbDimStyleTableRecord
  2
AM_DIN
 70
     0
  4
"
 41
2.5
 42
1.0
 43
10.0
 44
1.0
 47
0.1
 48
0.1
 73
     0
 74
     0
 77
     1
 78
     8
 79
     2
140
3.5
141
0.0
143
0.0393701
146
0.71
147
1.5
172
     1
176
   256
177
   256
178
     2
271
     2
272
     3
274
     4
283
     0
284
     8
340
11
371
    -1
372
    -1
1001
ACAD_DSTYLE_DIMARC_LENGTH_SYMBOL
1070
   379
1070
     0
1001
ACAD_DSTYLE_DIMJOGGED_JOGANGLE_SYMBOL
1070
   384
1040
1.570796326794896
  0
DIMSTYLE
105
70
330
A
100
AcDbSymbolTableRecord
100
AcDbDimStyleTableRecord
  2
AM_DIN$3
 70
     0
  4
"
 41
2.5
 42
1.0
 43
10.0
 44
1.0
 47
0.1
 48
0.1
 73
     0
 77
     1
 78
     8
 79
     2
140
3.5
141
0.0
143
0.0393701
146
0.71
147
1.5
176
   256
177
   256
178
     2
271
     2
272
     3
274
     4
283
     0
284
     8
288
     1
289
     0
340
11
371
    -1
372
    -1
1001
ACAD_DSTYLE_DIMARC_LENGTH_SYMBOL
1070
   379
1070
     0
1001
ACAD_DSTYLE_DIMJOGGED_JOGANGLE_SYMBOL
1070
   384
1040
1.570796326794896
  0
DIMSTYLE
105
71
330
A
100
AcDbSymbolTableRecord
100
AcDbDimStyleTableRecord
  2
AM_DIN$4
 70
     0
  4
"
 41
2.5
 42
1.0
 43
10.0
 44
1.0
 47
0.1
 48
0.1
 73
     0
 77
     1
 78
     8
 79
     2
140
3.5
141
0.0
143
0.0393701
146
0.71
147
1.5
176
   256
177
   256
178
     2
271
     2
272
     3
274
     4
283
     0
284
     8
288
     1
289
     0
340
11
371
    -1
372
    -1
1001
ACAD_DSTYLE_DIMARC_LENGTH_SYMBOL
1070
   379
1070
     0
1001
ACAD_DSTYLE_DIMJOGGED_JOGANGLE_SYMBOL
1070
   384
1040
1.570796326794896
  0
DIMSTYLE
105
72
330
A
100
AcDbSymbolTableRecord
100
AcDbDimStyleTableRecord
  2
AM_DIN$6
 70
     0
  4
"
 41
2.5
 42
1.0
 43
10.0
 44
1.0
 47
0.1
 48
0.1
 73
     0
 74
     0
 78
     8
 79
     2
140
3.5
141
0.0
143
0.0393701
146
0.71
147
1.5
172
     1
176
   256
177
   256
178
     2
271
     2
272
     3
274
     4
283
     0
284
     8
340
11
371
    -1
372
    -1
1001
ACAD_DSTYLE_DIMARC_LENGTH_SYMBOL
1070
   379
1070
     0
1001
ACAD_DSTYLE_DIMJOGGED_JOGANGLE_SYMBOL
1070
   384
1040
1.570796326794896
  0
DIMSTYLE
105
73
330
A
100
AcDbSymbolTableRecord
100
AcDbDimStyleTableRecord
  2
AM_DIN$7
 70
     0
  4
"
 41
2.5
 42
1.0
 43
10.0
 44
1.0
 47
0.1
 48
0.1
 73
     0
 74
     0
 77
     1
 78
     8
 79
     2
140
5.0
141
0.0
143
0.0393701
146
0.71
147
1.5
172
     1
176
   256
177
   256
178
     2
271
     2
272
     3
274
     4
283
     0
284
     8
340
11
371
    -1
372
    -1
1001
ACAD_DSTYLE_DIMARC_LENGTH_SYMBOL
1070
   379
1070
     0
1001
ACAD_DSTYLE_DIMJOGGED_JOGANGLE_SYMBOL
1070
   384
1040
1.570796326794896
  0
DIMSTYLE
105
74
330
A
100
AcDbSymbolTableRecord
100
AcDbDimStyleTableRecord
  2
AM_DIN$SF
 70
     0
  4
"
 41
2.5
 42
1.0
 43
10.0
 44
1.0
 47
0.1
 48
0.1
 73
     0
 74
     0
 75
     1
 76
     1
 77
     1
 78
     8
 79
     2
140
3.5
141
0.0
143
0.0393701
146
0.71
147
1.5
172
     1
176
   256
177
   256
178
     2
271
     2
272
     3
274
     4
283
     0
284
     8
340
11
371
    -1
372
    -1
1001
ACAD_DSTYLE_DIMARC_LENGTH_SYMBOL
1070
   379
1070
     0
1001
ACAD_DSTYLE_DIMJOGGED_JOGANGLE_SYMBOL
1070
   384
1040
1.570796326794896
  0
DIMSTYLE
105
79
330
A
100
AcDbSymbolTableRecord
100
AcDbDimStyleTableRecord
  2
AM_DIN$SH
 70
     0
  4
"
 41
2.5
 42
1.0
 43
10.0
 44
1.0
 47
0.1
 48
0.1
 73
     0
 74
     0
 75
     1
 76
     1
 77
     1
 78
     8
 79
     2
140
3.5
141
0.0
143
0.0393701
144
2.0
146
0.71
147
1.5
172
     1
173
     1
176
   256
177
   256
178
     2
271
     2
272
     3
274
     4
283
     0
284
     8
340
11
343
75
371
    -1
372
    -1
1001
ACAD_DSTYLE_DIMARC_LENGTH_SYMBOL
1070
   379
1070
     0
1001
ACAD_DSTYLE_DIMJOGGED_JOGANGLE_SYMBOL
1070
   384
1040
1.570796326794896
  0
DIMSTYLE
105
356
330
A
100
AcDbSymbolTableRecord
100
AcDbDimStyleTableRecord
  2
GEN-ISO
 70
     0
  4
"
 40
10.0
 41
2.5
 42
1.0
 43
7.0
 44
1.0
 47
0.1
 48
0.1
 73
     0
 74
     0
 77
     1
 78
     8
140
3.5
141
0.0
143
0.0393701
146
0.71
147
0.6
172
     1
176
     3
177
     3
178
     2
271
     2
272
     2
283
     0
340
11
  0
DIMSTYLE
105
357
102
{ACAD_REACTORS
330
411
330
3F2
330
3F5
330
3F8
330
437
330
52A
330
550
330
50B
330
50E
330
511
102
}
330
A
100
AcDbSymbolTableRecord
100
AcDbDimStyleTableRecord
  2
GEN-ISO$0
 70
     0
  4
"
 40
10.0
 41
2.5
 42
1.0
 43
7.0
 44
1.0
 47
0.1
 48
0.1
 73
     0
 74
     0
 77
     1
 78
     8
140
3.5
141
0.0
143
0.0393701
146
0.71
147
0.6
172
     1
176
     3
177
     3
178
     2
271
     2
272
     2
283
     0
340
11
  0
ENDTAB
  0
TABLE
  2
BLOCK_RECORD
  5
1
330
0
100
AcDbSymbolTable
 70
    14
  0
BLOCK_RECORD
  5
1F
102
{ACAD_XDICTIONARY
360
83
102
}
330
1
100
AcDbSymbolTableRecord
100
AcDbBlockTableRecord
  2
*Model_Space
340
22
  0
BLOCK_RECORD
  5
1B
330
1
100
AcDbSymbolTableRecord
100
AcDbBlockTableRecord
  2
*Paper_Space
340
1E
  0
BLOCK_RECORD
  5
23
330
1
100
AcDbSymbolTableRecord
100
AcDbBlockTableRecord
  2
*Paper_Space0
340
26
  0
BLOCK_RECORD
  5
75
330
1
100
AcDbSymbolTableRecord
100
AcDbBlockTableRecord
  2
GENAXEH
340
0
  0
BLOCK_RECORD
  5
58E
330
1
100
AcDbSymbolTableRecord
100
AcDbBlockTableRecord
  2
*D9
340
0
  0
BLOCK_RECORD
  5
59A
330
1
100
AcDbSymbolTableRecord
100
AcDbBlockTableRecord
  2
*D10
340
0
  0
BLOCK_RECORD
  5
5A6
330
1
100
AcDbSymbolTableRecord
100
AcDbBlockTableRecord
  2
*D11
340
0
  0
BLOCK_RECORD
  5
5BB
330
1
100
AcDbSymbolTableRecord
100
AcDbBlockTableRecord
  2
*D12
340
0
  0
BLOCK_RECORD
  5
5C7
330
1
100
AcDbSymbolTableRecord
100
AcDbBlockTableRecord
  2
*D13
340
0
  0
ENDTAB
  0
ENDSEC
  0
SECTION
  2
BLOCKS
  0
BLOCK
  5
20
330
1F
100
AcDbEntity
  8
0
100
AcDbBlockBegin
  2
*Model_Space
 70
     0
 10
0.0
 20
0.0
 30
0.0
  3
*Model_Space
  1

  0
ENDBLK
  5
21
330
1F
100
AcDbEntity
  8
0
100
AcDbBlockEnd
  0
BLOCK
  5
1C
330
1B
100
AcDbEntity
 67
     1
  8
0
100
AcDbBlockBegin
  2
*Paper_Space
 70
     0
 10
0.0
 20
0.0
 30
0.0
  3
*Paper_Space
  1

  0
ENDBLK
  5
1D
330
1B
100
AcDbEntity
 67
     1
  8
0
100
AcDbBlockEnd
  0
BLOCK
  5
24
330
23
100
AcDbEntity
 67
     1
  8
0
100
AcDbBlockBegin
  2
*Paper_Space0
 70
     0
 10
0.0
 20
0.0
 30
0.0
  3
*Paper_Space0
  1

  0
ENDBLK
  5
25
330
23
100
AcDbEntity
 67
     1
  8
0
100
AcDbBlockEnd
  0
BLOCK
  5
77
330
75
100
AcDbEntity
  8
0
100
AcDbBlockBegin
  2
GENAXEH
 70
     0
 10
0.0
 20
0.0
 30
0.0
  3
GENAXEH
  1

  0
LINE
  5
76
330
75
100
AcDbEntity
  8
0
100
AcDbLine
 10
-1.0
 20
0.0
 30
0.0
 11
1.0
 21
0.0
 31
0.0
  0
ENDBLK
  5
78
330
75
100
AcDbEntity
  8
0
100
AcDbBlockEnd
  0
BLOCK
  5
598
330
58E
100
AcDbEntity
  8
0
100
AcDbBlockBegin
  2
*D9
 70
     1
 10
0.0
 20
0.0
 30
0.0
  3
*D9
  1

  0
LINE
  5
5B2
330
58E
100
AcDbEntity
  8
AM_5
 62
     3
370
    -2
100
AcDbLine
 10
1665.18849202241
 20
2033.044163636226
 30
0.0
 11
1665.18849202241
 21
2127.693135342596
 31
0.0
  0
LINE
  5
5B3
330
58E
100
AcDbEntity
  8
AM_5
 62
     3
370
    -2
100
AcDbLine
 10
2049.188492022403
 20
2033.044163636213
 30
0.0
 11
2049.188492022403
 21
2127.693135342596
 31
0.0
  0
LINE
  5
5B4
330
58E
100
AcDbEntity
  8
AM_5
 62
     3
370
    -2
100
AcDbLine
 10
1690.18849202241
 20
2117.693135342596
 30
0.0
 11
2024.188492022403
 21
2117.693135342596
 31
0.0
  0
SOLID
  5
5B5
330
58E
100
AcDbEntity
  8
AM_5
 62
     3
100
AcDbTrace
 10
1690.18849202241
 20
2121.859802009263
 30
0.0
 11
1690.18849202241
 21
2113.52646867593
 31
0.0
 12
1665.18849202241
 22
2117.693135342596
 32
0.0
 13
1665.18849202241
 23
2117.693135342596
 33
0.0
  0
SOLID
  5
5B6
330
58E
100
AcDbEntity
  8
AM_5
 62
     3
100
AcDbTrace
 10
2024.188492022403
 20
2121.859802009263
 30
0.0
 11
2024.188492022403
 21
2113.52646867593
 31
0.0
 12
2049.188492022403
 22
2117.693135342596
 32
0.0
 13
2049.188492022403
 23
2117.693135342596
 33
0.0
  0
MTEXT
  5
5B7
330
58E
100
AcDbEntity
  8
AM_5
 62
     2
100
AcDbMText
 10
1857.188492022406
 20
2141.193135342597
 30
0.0
 40
35.0
 41
0.0
 71
     5
 72
     1
  1
%%c384
 73
     1
 44
1.0
1001
ACAD
1000
MTEXTBEGIN
1070
    73
1070
     1
1070
    44
1040
1.0
1070
    74
1070
     0
1000
MTEXTEND
  0
POINT
  5
5B8
330
58E
100
AcDbEntity
  8
DEFPOINTS
 62
     0
100
AcDbPoint
 10
1665.18849202241
 20
2023.044163636226
 30
0.0
  0
POINT
  5
5B9
330
58E
100
AcDbEntity
  8
DEFPOINTS
 62
     0
100
AcDbPoint
 10
2049.188492022403
 20
2023.044163636213
 30
0.0
  0
POINT
  5
5BA
330
58E
100
AcDbEntity
  8
DEFPOINTS
 62
     0
100
AcDbPoint
 10
2049.188492022403
 20
2117.693135342596
 30
0.0
  0
ENDBLK
  5
599
330
58E
100
AcDbEntity
  8
0
100
AcDbBlockEnd
  0
BLOCK
  5
5A4
330
59A
100
AcDbEntity
  8
0
100
AcDbBlockBegin
  2
*D10
 70
     1
 10
0.0
 20
0.0
 30
0.0
  3
*D10
  1

  0
LINE
  5
5D3
330
59A
100
AcDbEntity
  8
AM_5
 62
     3
370
    -2
100
AcDbLine
 10
2044.202625499412
 20
1653.044163636213
 30
0.0
 11
2311.712852814991
 21
1653.044163636213
 31
0.0
  0
LINE
  5
5D4
330
59A
100
AcDbEntity
  8
AM_5
 62
     3
370
    -2
100
AcDbLine
 10
2040.188492022399
 20
2033.044163636213
 30
0.0
 11
2311.712852814991
 21
2033.044163636213
 31
0.0
  0
LINE
  5
5D5
330
59A
100
AcDbEntity
  8
AM_5
 62
     3
370
    -2
100
AcDbLine
 10
2301.712852814991
 20
1678.044163636213
 30
0.0
 11
2301.712852814991
 21
2008.044163636213
 31
0.0
  0
SOLID
  5
5D6
330
59A
100
AcDbEntity
  8
AM_5
 62
     3
100
AcDbTrace
 10
2297.546186148324
 20
1678.044163636213
 30
0.0
 11
2305.879519481657
 21
1678.044163636213
 31
0.0
 12
2301.712852814991
 22
1653.044163636213
 32
0.0
 13
2301.712852814991
 23
1653.044163636213
 33
0.0
  0
SOLID
  5
5D7
330
59A
100
AcDbEntity
  8
AM_5
 62
     3
100
AcDbTrace
 10
2297.546186148324
 20
2008.044163636213
 30
0.0
 11
2305.879519481657
 21
2008.044163636213
 31
0.0
 12
2301.712852814991
 22
2033.044163636213
 32
0.0
 13
2301.712852814991
 23
2033.044163636213
 33
0.0
  0
MTEXT
  5
5D8
330
59A
100
AcDbEntity
  8
AM_5
 62
     2
100
AcDbMText
 10
2278.21285281499
 20
1843.044163636213
 30
0.0
 40
35.0
 41
0.0
 71
     5
 72
     1
  1
380
 11
0.0000000000000001
 21
1.0
 31
0.0
 73
     1
 44
1.0
1001
ACAD
1000
MTEXTBEGIN
1070
    73
1070
     1
1070
    44
1040
1.0
1070
    74
1070
     0
1000
MTEXTEND
  0
POINT
  5
5D9
330
59A
100
AcDbEntity
  8
DEFPOINTS
 62
     0
100
AcDbPoint
 10
2034.202625499412
 20
1653.044163636213
 30
0.0
  0
POINT
  5
5DA
330
59A
100
AcDbEntity
  8
DEFPOINTS
 62
     0
100
AcDbPoint
 10
2030.1884920224
 20
2033.044163636213
 30
0.0
  0
POINT
  5
5DB
330
59A
100
AcDbEntity
  8
DEFPOINTS
 62
     0
100
AcDbPoint
 10
2301.712852814991
 20
2033.044163636213
 30
0.0
  0
ENDBLK
  5
5A5
330
59A
100
AcDbEntity
  8
0
100
AcDbBlockEnd
  0
BLOCK
  5
5B0
330
5A6
100
AcDbEntity
  8
0
100
AcDbBlockBegin
  2
*D11
 70
     1
 10
0.0
 20
0.0
 30
0.0
  3
*D11
  1

  0
LINE
  5
5A7
330
5A6
100
AcDbEntity
  8
AM_5
 62
     3
370
    -2
100
AcDbLine
 10
1616.251208021268
 20
1738.049460366802
 30
0.0
 11
1616.251208021268
 21
1548.049460366807
 31
0.0
  0
LINE
  5
5A8
330
5A6
100
AcDbEntity
  8
AM_5
 62
     3
370
    -2
100
AcDbLine
 10
2096.251208021268
 20
1668.049460366802
 30
0.0
 11
2096.251208021268
 21
1548.049460366807
 31
0.0
  0
LINE
  5
5A9
330
5A6
100
AcDbEntity
  8
AM_5
 62
     3
370
    -2
100
AcDbLine
 10
1641.251208021268
 20
1558.049460366807
 30
0.0
 11
2071.251208021268
 21
1558.049460366807
 31
0.0
  0
SOLID
  5
5AA
330
5A6
100
AcDbEntity
  8
AM_5
 62
     3
100
AcDbTrace
 10
1641.251208021268
 20
1562.216127033474
 30
0.0
 11
1641.251208021268
 21
1553.882793700141
 31
0.0
 12
1616.251208021268
 22
1558.049460366807
 32
0.0
 13
1616.251208021268
 23
1558.049460366807
 33
0.0
  0
SOLID
  5
5AB
330
5A6
100
AcDbEntity
  8
AM_5
 62
     3
100
AcDbTrace
 10
2071.251208021268
 20
1562.216127033474
 30
0.0
 11
2071.251208021268
 21
1553.882793700141
 31
0.0
 12
2096.251208021268
 22
1558.049460366807
 32
0.0
 13
2096.251208021268
 23
1558.049460366807
 33
0.0
  0
MTEXT
  5
5AC
330
5A6
100
AcDbEntity
  8
AM_5
 62
     2
100
AcDbMText
 10
1856.251208021268
 20
1581.549460366807
 30
0.0
 40
35.0
 41
0.0
 71
     5
 72
     1
  1
480
 73
     1
 44
1.0
1001
ACAD
1000
MTEXTBEGIN
1070
    73
1070
     1
1070
    44
1040
1.0
1070
    74
1070
     0
1000
MTEXTEND
  0
POINT
  5
5AD
330
5A6
100
AcDbEntity
  8
DEFPOINTS
 62
     0
100
AcDbPoint
 10
1616.251208021268
 20
1748.049460366802
 30
0.0
  0
POINT
  5
5AE
330
5A6
100
AcDbEntity
  8
DEFPOINTS
 62
     0
100
AcDbPoint
 10
2096.251208021268
 20
1678.049460366802
 30
0.0
  0
POINT
  5
5AF
330
5A6
100
AcDbEntity
  8
DEFPOINTS
 62
     0
100
AcDbPoint
 10
2096.251208021268
 20
1558.049460366807
 30
0.0
  0
ENDBLK
  5
5B1
330
5A6
100
AcDbEntity
  8
0
100
AcDbBlockEnd
  0
BLOCK
  5
5C5
330
5BB
100
AcDbEntity
  8
0
100
AcDbBlockBegin
  2
*D12
 70
     1
 10
0.0
 20
0.0
 30
0.0
  3
*D12
  1

  0
LINE
  5
5BC
330
5BB
100
AcDbEntity
  8
AM_5
 62
     3
370
    -2
100
AcDbLine
 10
1546.251208021268
 20
1853.049460366802
 30
0.0
 11
1486.251207021268
 21
1853.049460366802
 31
0.0
  0
LINE
  5
5BD
330
5BB
100
AcDbEntity
  8
AM_5
 62
     3
370
    -2
100
AcDbLine
 10
1670.202625499412
 20
1653.044163636213
 30
0.0
 11
1486.251207021268
 21
1653.044163636213
 31
0.0
  0
LINE
  5
5BE
330
5BB
100
AcDbEntity
  8
AM_5
 62
     3
370
    -2
100
AcDbLine
 10
1496.251207021268
 20
1828.049460366802
 30
0.0
 11
1496.251207021268
 21
1678.044163636213
 31
0.0
  0
SOLID
  5
5BF
330
5BB
100
AcDbEntity
  8
AM_5
 62
     3
100
AcDbTrace
 10
1492.084540354601
 20
1828.049460366802
 30
0.0
 11
1500.417873687934
 21
1828.049460366802
 31
0.0
 12
1496.251207021268
 22
1853.049460366802
 32
0.0
 13
1496.251207021268
 23
1853.049460366802
 33
0.0
  0
SOLID
  5
5C0
330
5BB
100
AcDbEntity
  8
AM_5
 62
     3
100
AcDbTrace
 10
1492.084540354601
 20
1678.044163636213
 30
0.0
 11
1500.417873687934
 21
1678.044163636213
 31
0.0
 12
1496.251207021268
 22
1653.044163636213
 32
0.0
 13
1496.251207021268
 23
1653.044163636213
 33
0.0
  0
MTEXT
  5
5C1
330
5BB
100
AcDbEntity
  8
AM_5
 62
     2
100
AcDbMText
 10
1472.747762139378
 20
1753.046812001508
 30
0.0
 40
35.0
 41
0.0
 71
     5
 72
     1
  1
200
 11
0.0000000000000001
 21
1.0
 31
0.0
 73
     1
 44
1.0
1001
ACAD
1000
MTEXTBEGIN
1070
    73
1070
     1
1070
    44
1040
1.0
1070
    74
1070
     0
1000
MTEXTEND
  0
POINT
  5
5C2
330
5BB
100
AcDbEntity
  8
DEFPOINTS
 62
     0
100
AcDbPoint
 10
1556.251208021268
 20
1853.049460366802
 30
0.0
  0
POINT
  5
5C3
330
5BB
100
AcDbEntity
  8
DEFPOINTS
 62
     0
100
AcDbPoint
 10
1680.202625499411
 20
1653.044163636213
 30
0.0
  0
POINT
  5
5C4
330
5BB
100
AcDbEntity
  8
DEFPOINTS
 62
     0
100
AcDbPoint
 10
1496.251207021268
 20
1653.044163636213
 30
0.0
  0
ENDBLK
  5
5C6
330
5BB
100
AcDbEntity
  8
0
100
AcDbBlockEnd
  0
BLOCK
  5
5D1
330
5C7
100
AcDbEntity
  8
0
100
AcDbBlockBegin
  2
*D13
 70
     1
 10
0.0
 20
0.0
 30
0.0
  3
*D13
  1

  0
LINE
  5
5C8
330
5C7
100
AcDbEntity
  8
AM_5
 62
     3
370
    -2
100
AcDbLine
 10
2044.202625499412
 20
1653.044163636213
 30
0.0
 11
2248.217214422387
 21
1653.044163636213
 31
0.0
  0
LINE
  5
5C9
330
5C7
100
AcDbEntity
  8
AM_5
 62
     3
370
    -2
100
AcDbLine
 10
2166.251207802655
 20
1783.054582221667
 30
0.0
 11
2248.217214422387
 21
1783.054582221667
 31
0.0
  0
LINE
  5
5CA
330
5C7
100
AcDbEntity
  8
AM_5
 62
     3
370
    -2
100
AcDbLine
 10
2238.217214422387
 20
1678.044163636213
 30
0.0
 11
2238.217214422387
 21
1758.054582221667
 31
0.0
  0
SOLID
  5
5CB
330
5C7
100
AcDbEntity
  8
AM_5
 62
     3
100
AcDbTrace
 10
2234.050547755721
 20
1678.044163636213
 30
0.0
 11
2242.383881089054
 21
1678.044163636213
 31
0.0
 12
2238.217214422387
 22
1653.044163636213
 32
0.0
 13
2238.217214422387
 23
1653.044163636213
 33
0.0
  0
SOLID
  5
5CC
330
5C7
100
AcDbEntity
  8
AM_5
 62
     3
100
AcDbTrace
 10
2234.050547755721
 20
1758.054582221667
 30
0.0
 11
2242.383881089054
 21
1758.054582221667
 31
0.0
 12
2238.217214422387
 22
1783.054582221667
 32
0.0
 13
2238.217214422387
 23
1783.054582221667
 33
0.0
  0
MTEXT
  5
5CD
330
5C7
100
AcDbEntity
  8
AM_5
 62
     2
100
AcDbMText
 10
2214.717214422387
 20
1718.049372928936
 30
0.0
 40
35.0
 41
0.0
 71
     5
 72
     1
  1
130
 11
0.0000000000000001
 21
1.0
 31
0.0
 73
     1
 44
1.0
1001
ACAD
1000
MTEXTBEGIN
1070
    73
1070
     1
1070
    44
1040
1.0
1070
    74
1070
     0
1000
MTEXTEND
  0
POINT
  5
5CE
330
5C7
100
AcDbEntity
  8
DEFPOINTS
 62
     0
100
AcDbPoint
 10
2034.202625499412
 20
1653.044163636213
 30
0.0
  0
POINT
  5
5CF
330
5C7
100
AcDbEntity
  8
DEFPOINTS
 62
     0
100
AcDbPoint
 10
2156.251207802655
 20
1783.054582221667
 30
0.0
  0
POINT
  5
5D0
330
5C7
100
AcDbEntity
  8
DEFPOINTS
 62
     0
100
AcDbPoint
 10
2238.217214422387
 20
1783.054582221667
 30
0.0
  0
ENDBLK
  5
5D2
330
5C7
100
AcDbEntity
  8
0
100
AcDbBlockEnd
  0
ENDSEC
  0
SECTION
  2
ENTITIES
  0
LINE
  5
47B
330
1F
100
AcDbEntity
  8
AM_3
100
AcDbLine
 10
1856.77933086653
 20
1680.796788476543
 30
0.0
 11
1681.875736153342
 21
1688.540325456651
 31
0.0
  0
LINE
  5
47C
330
1F
100
AcDbEntity
  8
AM_3
100
AcDbLine
 10
1856.776501579202
 20
1678.794954583855
 30
0.0
 11
1681.787276461883
 21
1686.542282693596
 31
0.0
  0
LINE
  5
47D
330
1F
100
AcDbEntity
  8
AM_3
100
AcDbLine
 10
2031.765726696525
 20
1676.047626474115
 30
0.0
 11
1856.776501579202
 21
1678.794954583855
 31
0.0
  0
LINE
  5
47E
330
1F
100
AcDbEntity
  8
AM_3
100
AcDbLine
 10
2031.768555983853
 20
1678.049460366802
 30
0.0
 11
1856.77933086653
 21
1680.796788476543
 31
0.0
  0
LINE
  5
47F
330
1F
100
AcDbEntity
  8
0
100
AcDbLine
 10
1668.18849202241
 20
2013.044163636213
 30
0.0
 11
2030.1884920224
 21
2013.044163636213
 31
0.0
1001
ACAD
1000
ASC_BOUNDS
1002
{
1070
    19
1005
0
1005
0
1005
0
1005
0
1002
}
  0
LINE
  5
480
330
1F
100
AcDbEntity
  8
0
100
AcDbLine
 10
1696.505316904443
 20
2023.044163636202
 30
0.0
 11
1665.188492022414
 21
2023.0441636362
 31
0.0
  0
LINE
  5
481
330
1F
100
AcDbEntity
  8
0
100
AcDbLine
 10
1684.179906330059
 20
2033.044163636213
 30
0.0
 11
1857.188492022406
 21
2033.044163636215
 31
0.0
1001
ACAD
1000
ASC_BOUNDS
1002
{
1070
    19
1005
0
1005
0
1005
0
1002
}
  0
LINE
  5
482
330
1F
100
AcDbEntity
  8
0
100
AcDbLine
 10
1665.18849202241
 20
2023.044163636213
 30
0.0
 11
2040.188492022403
 21
2023.044163636213
 31
0.0
  0
LINE
  5
483
330
1F
100
AcDbEntity
  8
0
100
AcDbLine
 10
1665.18849202241
 20
2023.044163636213
 30
0.0
 11
2040.188492022399
 21
2023.044163636213
 31
0.0
  0
LINE
  5
484
330
1F
100
AcDbEntity
  8
0
100
AcDbLine
 10
1696.505316904443
 20
2023.044163636224
 30
0.0
 11
1665.188492022414
 21
2023.044163636226
 31
0.0
1001
ACAD
1000
ASC_BOUNDS
1002
{
1070
    19
1002
}
  0
LINE
  5
485
330
1F
100
AcDbEntity
  8
0
100
AcDbLine
 10
1683.968019581457
 20
2013.044163636224
 30
0.0
 11
1680.818746934567
 21
1958.049460366802
 31
0.0
1001
ACAD
1000
ASC_BOUNDS
1002
{
1070
    19
1002
}
  0
ARC
  5
486
330
1F
100
AcDbEntity
  8
0
100
AcDbCircle
 10
1668.18849202241
 20
2016.044163636224
 30
0.0
 40
3.0
100
AcDbArc
 50
180.0
 51
270.0
1001
ACAD
1000
ASC_BOUNDS
1002
{
1070
    19
1002
}
  0
LINE
  5
487
330
1F
100
AcDbEntity
  8
0
100
AcDbLine
 10
1665.18849202241
 20
2023.044163636226
 30
0.0
 11
1665.18849202241
 21
2016.044163636226
 31
0.0
1001
ACAD
1000
ASC_BOUNDS
1002
{
1070
    19
1002
}
  0
LINE
  5
488
330
1F
100
AcDbEntity
  8
0
100
AcDbLine
 10
1679.18849202241
 20
2023.044163636224
 30
0.0
 11
1674.68849202241
 21
2023.044163636224
 31
0.0
  0
ARC
  5
489
330
1F
100
AcDbEntity
  8
0
100
AcDbCircle
 10
1668.18849202241
 20
2030.044163636202
 30
0.0
 40
3.0
100
AcDbArc
 50
90.0
 51
180.0
  0
LINE
  5
48A
330
1F
100
AcDbEntity
  8
0
100
AcDbLine
 10
1665.188492022414
 20
2023.0441636362
 30
0.0
 11
1665.18849202241
 21
2030.0441636362
 31
0.0
  0
LINE
  5
48B
330
1F
100
AcDbEntity
  8
0
100
AcDbLine
 10
1679.18849202241
 20
2023.044163636202
 30
0.0
 11
1674.68849202241
 21
2023.044163636202
 31
0.0
  0
LINE
  5
48C
330
1F
100
AcDbEntity
  8
0
100
AcDbLine
 10
1684.18849202241
 20
2033.044163636202
 30
0.0
 11
1668.18849202241
 21
2033.044163636202
 31
0.0
  0
LINE
  5
48D
330
1F
100
AcDbEntity
  8
0
  6
Continuous
 62
     7
100
AcDbLine
 10
2067.417484403489
 20
2029.827396926562
 30
0.0
 11
2039.15866848667
 21
1949.061783479484
 31
0.0
  0
LINE
  5
48E
330
1F
100
AcDbEntity
  8
0
  6
Continuous
 62
     7
100
AcDbLine
 10
2069.406542365413
 20
2029.618474873857
 30
0.0
 11
2059.169361782863
 21
1932.154634739577
 31
0.0
  0
LINE
  5
48F
330
1F
100
AcDbEntity
  8
0
  6
Continuous
 62
     7
100
AcDbLine
 10
2067.417484403489
 20
2029.827396926562
 30
0.0
 11
2057.012317344939
 21
1930.76422903699
 31
0.0
  0
LINE
  5
490
330
1F
100
AcDbEntity
  8
0
  6
Continuous
 62
     7
100
AcDbLine
 10
2043.320949597505
 20
1960.957865333917
 30
0.0
 11
2044.549090499923
 21
1972.650472259253
 31
0.0
  0
LINE
  5
491
330
1F
100
AcDbEntity
  8
0
  6
Continuous
 62
     7
100
AcDbLine
 10
2059.169361782863
 20
1932.154634739577
 30
0.0
 11
2056.188492022403
 21
1930.233200836434
 31
0.0
  0
CIRCLE
  5
492
330
1F
100
AcDbEntity
  8
0
  6
Continuous
 62
     7
100
AcDbCircle
 10
2051.018594360622
 20
1942.337602305781
 30
0.0
 40
2.869338511451267
  0
LINE
  5
493
330
1F
100
AcDbEntity
  8
0
  6
Continuous
 62
     7
100
AcDbLine
 10
2056.188492022403
 20
1949.061783479484
 30
0.0
 11
2056.188492022403
 21
1929.663077175474
 31
0.0
  0
LINE
  5
494
330
1F
100
AcDbEntity
  8
0
  6
Continuous
 62
     7
100
AcDbLine
 10
2034.188492022403
 20
1949.061783479484
 30
0.0
 11
2034.188492022403
 21
1911.061783479484
 31
0.0
  0
LINE
  5
495
330
1F
100
AcDbEntity
  8
0
  6
Continuous
 62
     7
100
AcDbLine
 10
2056.188492022403
 20
1929.663077175474
 30
0.0
 11
2039.924143094565
 21
1911.061783479484
 31
0.0
  0
LINE
  5
496
330
1F
100
AcDbEntity
  8
0
  6
Continuous
 62
     7
100
AcDbLine
 10
2034.188492022403
 20
1911.061783479484
 30
0.0
 11
2039.924143094565
 21
1911.061783479484
 31
0.0
  0
LINE
  5
497
330
1F
100
AcDbEntity
  8
0
  6
Continuous
 62
     7
100
AcDbLine
 10
2056.188492022403
 20
1949.061783479484
 30
0.0
 11
2034.188492022403
 21
1949.061783479484
 31
0.0
  0
LINE
  5
498
330
1F
100
AcDbEntity
  8
0
  6
Continuous
 62
     7
100
AcDbLine
 10
2048.690942680633
 20
1976.305669956807
 30
0.0
 11
2051.973818568592
 21
2007.560534335167
 31
0.0
  0
LINE
  5
499
330
1F
100
AcDbEntity
  8
0
  6
Continuous
 62
     7
100
AcDbLine
 10
2057.443727963883
 20
2006.985998690228
 30
0.0
 11
2056.593556281859
 21
1998.891875876291
 31
0.0
  0
ARC
  5
49A
330
1F
100
AcDbEntity
  8
0
  6
Continuous
 62
     7
100
AcDbCircle
 10
2049.666291394478
 20
2028.669817174713
 30
0.0
 40
5.5
100
AcDbArc
 50
354.0038851199492
 51
127.3688441849558
  0
ARC
  5
49B
330
1F
100
AcDbEntity
  8
0
  6
Continuous
 62
     7
100
AcDbCircle
 10
2049.666291394478
 20
2028.669817174713
 30
0.0
 40
6.5
100
AcDbArc
 50
354.0038851199492
 51
137.7027991340161
  0
LINE
  5
49C
330
1F
100
AcDbEntity
  8
0
  6
Continuous
 62
     7
100
AcDbLine
 10
2051.973818568592
 20
2007.560534335167
 30
0.0
 11
2052.471083059073
 21
2007.50830382199
 31
0.0
  0
ARC
  5
49D
330
1F
100
AcDbEntity
  8
0
  6
Continuous
 62
     7
100
AcDbCircle
 10
2052.6277745986
 20
2009.000097293435
 30
0.0
 40
1.5
100
AcDbArc
 50
264.0038851199492
 51
354.0038851199492
  0
ARC
  5
49E
330
1F
100
AcDbEntity
  8
0
  6
Continuous
 62
     7
100
AcDbCircle
 10
2057.60041950341
 20
2008.47779216167
 30
0.0
 40
1.5
100
AcDbArc
 50
174.0038851199491
 51
264.0038851199492
  0
LINE
  5
49F
330
1F
100
AcDbEntity
  8
0
  6
Continuous
 62
     7
100
AcDbLine
 10
2053.125039089081
 20
2008.947866780257
 30
0.0
 11
2054.119568070043
 21
2008.843405753904
 31
0.0
  0
LINE
  5
4A0
330
1F
100
AcDbEntity
  8
0
  6
Continuous
 62
     7
100
AcDbLine
 10
2058.04115501949
 20
2027.033269848997
 30
0.0
 11
2057.046626038529
 21
2027.13773087535
 31
0.0
  0
LINE
  5
4A1
330
1F
100
AcDbEntity
  8
0
  6
Continuous
 62
     7
100
AcDbLine
 10
2056.052097057566
 20
2027.242191901702
 30
0.0
 11
2057.046626038529
 21
2027.13773087535
 31
0.0
  0
LINE
  5
4A2
330
1F
100
AcDbEntity
  8
0
  6
Continuous
 62
     7
100
AcDbLine
 10
2056.108626031967
 20
2008.634483701199
 30
0.0
 11
2058.04115501949
 21
2027.033269848997
 31
0.0
  0
LINE
  5
4A3
330
1F
100
AcDbEntity
  8
0
  6
Continuous
 62
     7
100
AcDbLine
 10
2054.119568070043
 20
2008.843405753904
 30
0.0
 11
2056.130729770731
 21
2027.990820503422
 31
0.0
  0
LINE
  5
4A4
330
1F
100
AcDbEntity
  8
0
  6
Continuous
 62
     7
100
AcDbLine
 10
2053.125039089081
 20
2008.947866780257
 30
0.0
 11
2055.136200789769
 21
2028.095281529774
 31
0.0
  0
LINE
  5
4A5
330
1F
100
AcDbEntity
  8
0
100
AcDbLine
 10
2069.406542365413
 20
2029.618474873857
 30
0.0
 11
2067.417484403489
 21
2029.827396926562
 31
0.0
  0
LINE
  5
4A6
330
1F
100
AcDbEntity
  8
0
  6
Continuous
 62
     7
100
AcDbLine
 10
2044.549090499923
 20
1972.650472259253
 30
0.0
 11
2047.310552187085
 21
1972.360420257154
 31
0.0
  0
LINE
  5
4A7
330
1F
100
AcDbEntity
  8
0
100
AcDbLine
 10
2017.87166714037
 20
2023.044163636213
 30
0.0
 11
2049.188492022399
 21
2023.044163636213
 31
0.0
1001
ACAD
1000
ASC_BOUNDS
1002
{
1070
    19
1002
}
  0
LINE
  5
4A8
330
1F
100
AcDbEntity
  8
4
100
AcDbLine
 10
1714.647645384363
 20
1953.145084856883
 30
0.0
 11
1999.729338660457
 21
1953.141560393908
 31
0.0
  0
LINE
  5
4A9
330
1F
100
AcDbEntity
  8
0
100
AcDbLine
 10
2030.408964463349
 20
2013.044163636211
 30
0.0
 11
2034.182129457603
 21
1953.145169352402
 31
0.0
1001
ACAD
1000
ASC_BOUNDS
1002
{
1070
    19
1002
}
  0
LINE
  5
4AA
330
1F
100
AcDbEntity
  8
0
100
AcDbLine
 10
2030.1884920224
 20
2013.044163636213
 30
0.0
 11
2046.1884920224
 21
2013.044163636213
 31
0.0
1001
ACAD
1000
ASC_BOUNDS
1002
{
1070
    19
1005
0
1002
}
  0
LINE
  5
4AB
330
1F
100
AcDbEntity
  8
0
100
AcDbLine
 10
2035.188492022403
 20
2023.044163636213
 30
0.0
 11
2039.688492022403
 21
2023.044163636213
 31
0.0
  0
LINE
  5
4AC
330
1F
100
AcDbEntity
  8
0
100
AcDbLine
 10
2049.188492022399
 20
2023.044163636213
 30
0.0
 11
2049.188492022399
 21
2016.044163636213
 31
0.0
1001
ACAD
1000
ASC_BOUNDS
1002
{
1070
    19
1002
}
  0
ARC
  5
4AD
330
1F
100
AcDbEntity
  8
0
100
AcDbCircle
 10
2046.1884920224
 20
2016.044163636213
 30
0.0
 40
3.0
100
AcDbArc
 50
270.0
 51
0.0
1001
ACAD
1000
ASC_BOUNDS
1002
{
1070
    19
1002
}
  0
LINE
  5
4AE
330
1F
100
AcDbEntity
  8
0
100
AcDbLine
 10
2017.87166714037
 20
2023.044163636213
 30
0.0
 11
2049.188492022399
 21
2023.044163636213
 31
0.0
  0
LINE
  5
4AF
330
1F
100
AcDbEntity
  8
0
100
AcDbLine
 10
1857.202625499412
 20
2033.044163636213
 30
0.0
 11
2030.1884920224
 21
2033.044163636213
 31
0.0
1001
ACAD
1000
ASC_BOUNDS
1002
{
1070
    19
1005
0
1005
0
1005
0
1002
}
  0
ARC
  5
4B0
330
1F
100
AcDbEntity
  8
0
100
AcDbCircle
 10
1857.18849202241
 20
2053.544163636213
 30
0.0
 40
24.99999999999955
100
AcDbArc
 50
304.9152062475841
 51
235.0847937524159
  0
LINE
  5
4B1
330
1F
100
AcDbEntity
  8
0
100
AcDbLine
 10
2049.188492022403
 20
2023.044163636213
 30
0.0
 11
2049.188492022403
 21
2030.044163636213
 31
0.0
  0
ARC
  5
4B2
330
1F
100
AcDbEntity
  8
0
100
AcDbCircle
 10
2046.188492022403
 20
2030.044163636213
 30
0.0
 40
3.0
100
AcDbArc
 50
0.0
 51
90.0
  0
LINE
  5
4B3
330
1F
100
AcDbEntity
  8
0
100
AcDbLine
 10
2035.188492022403
 20
2023.044163636213
 30
0.0
 11
2039.688492022403
 21
2023.044163636213
 31
0.0
  0
LINE
  5
4B4
330
1F
100
AcDbEntity
  8
0
100
AcDbLine
 10
2030.188492022403
 20
2033.044163636213
 30
0.0
 11
2046.188492022403
 21
2033.044163636213
 31
0.0
  0
ARC
  5
4B5
330
1F
100
AcDbEntity
  8
0
100
AcDbCircle
 10
1856.251208021268
 20
1122.993091673602
 30
0.0
 40
186.5
100
AcDbArc
 50
47.99265495467833
 51
131.8453874366564
  0
ARC
  5
4B6
330
1F
100
AcDbEntity
  8
0
100
AcDbCircle
 10
1856.251208021268
 20
1122.993091673602
 30
0.0
 40
186.5
100
AcDbArc
 50
227.9926549546783
 51
311.8453874366565
  0
POLYLINE
  5
4B7
330
1F
100
AcDbEntity
  8
0
100
AcDb2dPolyline
 66
     1
 10
0.0
 20
0.0
 30
0.0
  0
VERTEX
  5
4B8
330
4B7
100
AcDbEntity
  8
0
100
AcDbVertex
100
AcDb2dVertex
 10
1985.519430863008
 20
1279.434699193268
 30
0.0
  0
VERTEX
  5
4B9
330
4B7
100
AcDbEntity
  8
0
100
AcDbVertex
100
AcDb2dVertex
 10
1973.819943520694
 20
1267.768236063325
 30
0.0
  0
SEQEND
  5
4BA
330
4B7
100
AcDbEntity
  8
0
  0
POLYLINE
  5
4BB
330
1F
100
AcDbEntity
  8
0
100
AcDb2dPolyline
 66
     1
 10
0.0
 20
0.0
 30
0.0
  0
VERTEX
  5
4BC
330
4BB
100
AcDbEntity
  8
0
100
AcDbVertex
100
AcDb2dVertex
 10
2001.358104360551
 20
1240.152123057361
 30
0.0
  0
VERTEX
  5
4BD
330
4BB
100
AcDbEntity
  8
0
100
AcDbVertex
100
AcDb2dVertex
 10
2013.057591702865
 20
1251.818586187303
 30
0.0
  0
VERTEX
  5
4BE
330
4BB
100
AcDbEntity
  8
0
100
AcDbVertex
100
AcDb2dVertex
 10
1985.519430863008
 20
1279.434699193268
 30
0.0
  0
SEQEND
  5
4BF
330
4BB
100
AcDbEntity
  8
0
  0
ARC
  5
4C0
330
1F
100
AcDbEntity
  8
0
100
AcDbCircle
 10
1856.251208021268
 20
1122.993091673602
 30
0.0
 40
186.5
100
AcDbArc
 50
317.9926549546047
 51
41.84538743680362
  0
POLYLINE
  5
4C1
330
1F
100
AcDbEntity
  8
0
100
AcDb2dPolyline
 66
     1
 10
0.0
 20
0.0
 30
0.0
 70
     1
  0
VERTEX
  5
4C2
330
4C1
100
AcDbEntity
  8
0
100
AcDbVertex
100
AcDb2dVertex
 10
1974.524807858636
 20
1255.055030102164
 30
0.0
  0
VERTEX
  5
4C3
330
4C1
100
AcDbEntity
  8
0
100
AcDbVertex
100
AcDb2dVertex
 10
1983.730178860626
 20
1264.234417048782
 30
0.0
  0
VERTEX
  5
4C4
330
4C1
100
AcDbEntity
  8
0
100
AcDbVertex
100
AcDb2dVertex
 10
1997.85231262465
 20
1250.072307814954
 30
0.0
  0
VERTEX
  5
4C5
330
4C1
100
AcDbEntity
  8
0
100
AcDbVertex
100
AcDb2dVertex
 10
1988.646941622664
 20
1240.892920868336
 30
0.0
  0
SEQEND
  5
4C6
330
4C1
100
AcDbEntity
  8
0
  0
POLYLINE
  5
4C7
330
1F
100
AcDbEntity
  8
0
100
AcDb2dPolyline
 66
     1
 10
0.0
 20
0.0
 30
0.0
 70
     1
  0
VERTEX
  5
4C8
330
4C7
100
AcDbEntity
  8
0
100
AcDbVertex
100
AcDb2dVertex
 10
1724.189269592704
 20
1241.266691510972
 30
0.0
  0
VERTEX
  5
4C9
330
4C7
100
AcDbEntity
  8
0
100
AcDbVertex
100
AcDb2dVertex
 10
1715.009882646088
 20
1250.47206251296
 30
0.0
  0
VERTEX
  5
4CA
330
4C7
100
AcDbEntity
  8
0
100
AcDbVertex
100
AcDb2dVertex
 10
1729.171991879916
 20
1264.594196276984
 30
0.0
  0
VERTEX
  5
4CB
330
4C7
100
AcDbEntity
  8
0
100
AcDbVertex
100
AcDb2dVertex
 10
1738.351378826533
 20
1255.388825274999
 30
0.0
  0
SEQEND
  5
4CC
330
4C7
100
AcDbEntity
  8
0
  0
POLYLINE
  5
4CD
330
1F
100
AcDbEntity
  8
0
100
AcDb2dPolyline
 66
     1
 10
0.0
 20
0.0
 30
0.0
  0
VERTEX
  5
4CE
330
4CD
100
AcDbEntity
  8
0
100
AcDbVertex
100
AcDb2dVertex
 10
1739.09217663751
 20
1268.099988012885
 30
0.0
  0
VERTEX
  5
4CF
330
4CD
100
AcDbEntity
  8
0
100
AcDbVertex
100
AcDb2dVertex
 10
1727.425713507567
 20
1279.799475355198
 30
0.0
  0
VERTEX
  5
4D0
330
4CD
100
AcDbEntity
  8
0
100
AcDbVertex
100
AcDb2dVertex
 10
1699.8096005016
 20
1252.261314515344
 30
0.0
  0
SEQEND
  5
4D1
330
4CD
100
AcDbEntity
  8
0
  0
POLYLINE
  5
4D2
330
1F
100
AcDbEntity
  8
0
100
AcDb2dPolyline
 66
     1
 10
0.0
 20
0.0
 30
0.0
  0
VERTEX
  5
4D3
330
4D2
100
AcDbEntity
  8
0
100
AcDbVertex
100
AcDb2dVertex
 10
1699.8096005016
 20
1252.261314515344
 30
0.0
  0
VERTEX
  5
4D4
330
4D2
100
AcDbEntity
  8
0
100
AcDbVertex
100
AcDb2dVertex
 10
1711.476063631543
 20
1240.56182717303
 30
0.0
  0
SEQEND
  5
4D5
330
4D2
100
AcDbEntity
  8
0
  0
POLYLINE
  5
4D6
330
1F
100
AcDbEntity
  8
0
100
AcDb2dPolyline
 66
     1
 10
0.0
 20
0.0
 30
0.0
 70
     1
  0
VERTEX
  5
4D7
330
4D6
100
AcDbEntity
  8
0
100
AcDbVertex
100
AcDb2dVertex
 10
1737.977608183896
 20
990.93115324504
 30
0.0
  0
VERTEX
  5
4D8
330
4D6
100
AcDbEntity
  8
0
100
AcDbVertex
100
AcDb2dVertex
 10
1728.77223718191
 20
981.7517662984219
 30
0.0
  0
VERTEX
  5
4D9
330
4D6
100
AcDbEntity
  8
0
100
AcDbVertex
100
AcDb2dVertex
 10
1714.650103417886
 20
995.91387553225
 30
0.0
  0
VERTEX
  5
4DA
330
4D6
100
AcDbEntity
  8
0
100
AcDbVertex
100
AcDb2dVertex
 10
1723.855474419869
 20
1005.093262478868
 30
0.0
  0
SEQEND
  5
4DB
330
4D6
100
AcDbEntity
  8
0
  0
POLYLINE
  5
4DC
330
1F
100
AcDbEntity
  8
0
100
AcDb2dPolyline
 66
     1
 10
0.0
 20
0.0
 30
0.0
  0
VERTEX
  5
4DD
330
4DC
100
AcDbEntity
  8
0
100
AcDbVertex
100
AcDb2dVertex
 10
1711.144311681985
 20
1005.834060289843
 30
0.0
  0
VERTEX
  5
4DE
330
4DC
100
AcDbEntity
  8
0
100
AcDbVertex
100
AcDb2dVertex
 10
1699.444824339671
 20
994.1675971599007
 30
0.0
  0
VERTEX
  5
4DF
330
4DC
100
AcDbEntity
  8
0
100
AcDbVertex
100
AcDb2dVertex
 10
1726.982985179525
 20
966.551484153936
 30
0.0
  0
SEQEND
  5
4E0
330
4DC
100
AcDbEntity
  8
0
  0
POLYLINE
  5
4E1
330
1F
100
AcDbEntity
  8
0
100
AcDb2dPolyline
 66
     1
 10
0.0
 20
0.0
 30
0.0
  0
VERTEX
  5
4E2
330
4E1
100
AcDbEntity
  8
0
100
AcDbVertex
100
AcDb2dVertex
 10
1726.982985179525
 20
966.551484153936
 30
0.0
  0
VERTEX
  5
4E3
330
4E1
100
AcDbEntity
  8
0
100
AcDbVertex
100
AcDb2dVertex
 10
1738.682472521838
 20
978.2179472838789
 30
0.0
  0
SEQEND
  5
4E4
330
4E1
100
AcDbEntity
  8
0
  0
POLYLINE
  5
4E5
330
1F
100
AcDbEntity
  8
0
100
AcDb2dPolyline
 66
     1
 10
0.0
 20
0.0
 30
0.0
  0
VERTEX
  5
4E6
330
4E5
100
AcDbEntity
  8
0
100
AcDbVertex
100
AcDb2dVertex
 10
1973.410239405026
 20
977.8861953343193
 30
0.0
  0
VERTEX
  5
4E7
330
4E5
100
AcDbEntity
  8
0
100
AcDbVertex
100
AcDb2dVertex
 10
1985.07670253497
 20
966.1867079920057
 30
0.0
  0
VERTEX
  5
4E8
330
4E5
100
AcDbEntity
  8
0
100
AcDbVertex
100
AcDb2dVertex
 10
2012.692815540932
 20
993.7248688318604
 30
0.0
  0
SEQEND
  5
4E9
330
4E5
100
AcDbEntity
  8
0
  0
POLYLINE
  5
4EA
330
1F
100
AcDbEntity
  8
0
100
AcDb2dPolyline
 66
     1
 10
0.0
 20
0.0
 30
0.0
  0
VERTEX
  5
4EB
330
4EA
100
AcDbEntity
  8
0
100
AcDbVertex
100
AcDb2dVertex
 10
2012.692815540932
 20
993.7248688318604
 30
0.0
  0
VERTEX
  5
4EC
330
4EA
100
AcDbEntity
  8
0
100
AcDbVertex
100
AcDb2dVertex
 10
2001.02635241099
 20
1005.424356174174
 30
0.0
  0
SEQEND
  5
4ED
330
4EA
100
AcDbEntity
  8
0
  0
POLYLINE
  5
4EE
330
1F
100
AcDbEntity
  8
0
100
AcDb2dPolyline
 66
     1
 10
0.0
 20
0.0
 30
0.0
  0
VERTEX
  5
4EF
330
4EE
100
AcDbEntity
  8
0
100
AcDbVertex
100
AcDb2dVertex
 10
1988.313146449828
 20
1004.719491836232
 30
0.0
  0
VERTEX
  5
4F0
330
4EE
100
AcDbEntity
  8
0
100
AcDbVertex
100
AcDb2dVertex
 10
1997.492533396448
 20
995.5141208342402
 30
0.0
  0
SEQEND
  5
4F1
330
4EE
100
AcDbEntity
  8
0
  0
POLYLINE
  5
4F2
330
1F
100
AcDbEntity
  8
0
100
AcDb2dPolyline
 66
     1
 10
0.0
 20
0.0
 30
0.0
  0
VERTEX
  5
4F3
330
4F2
100
AcDbEntity
  8
0
100
AcDbVertex
100
AcDb2dVertex
 10
1983.33042416262
 20
981.3919870702202
 30
0.0
  0
VERTEX
  5
4F4
330
4F2
100
AcDbEntity
  8
0
100
AcDbVertex
100
AcDb2dVertex
 10
1974.151037216
 20
990.5973580722047
 30
0.0
  0
VERTEX
  5
4F5
330
4F2
100
AcDbEntity
  8
0
100
AcDbVertex
100
AcDb2dVertex
 10
1988.313146449828
 20
1004.719491836232
 30
0.0
  0
SEQEND
  5
4F6
330
4F2
100
AcDbEntity
  8
0
  0
ARC
  5
4F7
330
1F
100
AcDbEntity
  8
0
100
AcDbCircle
 10
1856.251208021268
 20
1122.993091673602
 30
0.0
 40
186.5
100
AcDbArc
 50
137.9926549546047
 51
221.8453874368036
  0
LINE
  5
4F8
330
1F
100
AcDbEntity
  8
0
100
AcDbLine
 10
1983.33042416262
 20
981.3919870702129
 30
0.0
 11
1997.492533396448
 21
995.5141208342402
 31
0.0
  0
LINE
  5
4F9
330
1F
100
AcDbEntity
  8
0
100
AcDbLine
 10
1680.202625499411
 20
1653.044163636213
 30
0.0
 11
2034.202625499412
 21
1653.044163636213
 31
0.0
  0
LINE
  5
4FA
102
{ACAD_REACTORS
330
510
102
}
330
1F
100
AcDbEntity
  8
0
100
AcDbLine
 10
2034.202625499412
 20
1653.044163636213
 30
0.0
 11
2034.2009177623
 21
1678.049460366802
 31
0.0
  0
LINE
  5
4FB
330
1F
100
AcDbEntity
  8
0
100
AcDbLine
 10
2034.187259482612
 20
1888.049460366802
 30
0.0
 11
2034.182129457603
 21
1953.145169352402
 31
0.0
  0
LINE
  5
4FC
102
{ACAD_REACTORS
330
50D
102
}
330
1F
100
AcDbEntity
  8
0
100
AcDbLine
 10
1680.202625499411
 20
1653.044163636213
 30
0.0
 11
1680.202625499411
 21
1748.049460366804
 31
0.0
  0
LINE
  5
4FD
330
1F
100
AcDbEntity
  8
0
100
AcDbLine
 10
1616.251208021268
 20
1227.993091673601
 30
0.0
 11
1702.117337635812
 21
1227.993091673601
 31
0.0
  0
LINE
  5
4FE
330
1F
100
AcDbEntity
  8
0
100
AcDbLine
 10
1616.251208021268
 20
1017.993091673601
 30
0.0
 11
1702.117337635812
 21
1017.993091673602
 31
0.0
  0
CIRCLE
  5
4FF
330
1F
100
AcDbEntity
  8
0
100
AcDbCircle
 10
1856.251208021268
 20
1122.993091673602
 30
0.0
 40
25.0
  0
LINE
  5
500
330
1F
100
AcDbEntity
  8
0
100
AcDbLine
 10
2096.251208021268
 20
1888.049460366802
 30
0.0
 11
2096.251208021268
 21
1678.049460366802
 31
0.0
  0
LINE
  5
501
330
1F
100
AcDbEntity
  8
0
100
AcDbLine
 10
2096.251208021268
 20
1888.049460366802
 30
0.0
 11
2034.187259482612
 21
1888.049460366802
 31
0.0
  0
LINE
  5
502
102
{ACAD_REACTORS
330
52C
102
}
330
1F
100
AcDbEntity
  8
0
100
AcDbLine
 10
2096.251208021268
 20
1678.049460366802
 30
0.0
 11
2034.2009177623
 21
1678.049460366802
 31
0.0
  0
LINE
  5
503
330
1F
100
AcDbEntity
  8
0
100
AcDbLine
 10
1616.251208021268
 20
1853.049460366802
 30
0.0
 11
1616.251208021268
 21
1748.049460366802
 31
0.0
  0
LINE
  5
504
330
1F
100
AcDbEntity
  8
0
100
AcDbLine
 10
1616.251208021268
 20
1958.049460366802
 30
0.0
 11
1680.818746934567
 21
1958.049460366802
 31
0.0
  0
LINE
  5
505
102
{ACAD_REACTORS
330
52C
102
}
330
1F
100
AcDbEntity
  8
0
100
AcDbLine
 10
1616.251208021268
 20
1748.049460366802
 30
0.0
 11
1680.202625499411
 21
1748.049460366802
 31
0.0
  0
LINE
  5
506
102
{ACAD_REACTORS
330
50D
102
}
330
1F
100
AcDbEntity
  8
AM_7
  6
AM_DIN_G_W050x2
100
AcDbLine
 10
1556.251208021268
 20
1853.049460366802
 30
0.0
 11
1740.202625499411
 21
1853.049460366802
 31
0.0
1001
GENIUS_GENODEF_13
1002
{
1000
HIER
1070
     0
1002
}
1002
{
1000
MANEDIT
1070
     0
1002
}
1002
{
1000
NOSEL
1070
     0
1002
}
1002
{
1000
BEHIND
1070
     0
1002
}
1002
{
1000
OTHER
1070
     0
1002
}
1002
{
1000
REACTOR
1002
}
1001
GENIUS_GENOBJ-N-CEN_13
1002
{
1000
OWNER
1000
GEN
1002
}
1001
GENIUS_GENCEN_19
1002
{
1040
60.0
1002
}
  0
LINE
  5
507
102
{ACAD_REACTORS
330
510
102
}
330
1F
100
AcDbEntity
  8
AM_7
  6
AM_DIN_G_W050x2
100
AcDbLine
 10
2156.251207802655
 20
1783.054582221667
 30
0.0
 11
1974.194089293279
 21
1783.039041052644
 31
0.0
1001
GENIUS_GENODEF_13
1002
{
1000
HIER
1070
     0
1002
}
1002
{
1000
MANEDIT
1070
     0
1002
}
1002
{
1000
NOSEL
1070
     0
1002
}
1002
{
1000
BEHIND
1070
     0
1002
}
1002
{
1000
OTHER
1070
     0
1002
}
1002
{
1000
REACTOR
1002
}
1001
GENIUS_GENOBJ-N-CEN_13
1002
{
1000
OWNER
1000
GEN
1002
}
1001
GENIUS_GENCEN_19
1002
{
1040
60.0
1002
}
  0
CIRCLE
  5
508
330
1F
100
AcDbEntity
  8
0
100
AcDbCircle
 10
1856.237074544267
 20
1122.993091673602
 30
0.0
 40
177.0141334770014
  0
ARC
  5
509
330
1F
100
AcDbEntity
  8
0
100
AcDbCircle
 10
1416.257155655831
 20
1853.824756864385
 30
0.0
 40
284.3512342158999
100
AcDbArc
 50
338.161714494217
 51
21.50208496663354
  0
ARC
  5
50A
330
1F
100
AcDbEntity
  8
0
100
AcDbCircle
 10
2293.878437323225
 20
1783.066350088033
 30
0.0
 40
280.1088382968997
100
AcDbArc
 50
157.988419012182
 51
202.0190339571464
  0
DIMENSION
  5
50B
102
{ACAD_XDICTIONARY
360
50C
102
}
102
{ACAD_REACTORS
330
50D
102
}
330
1F
100
AcDbEntity
  8
AM_5
100
AcDbDimension
  2
*D12
 10
1496.251207021268
 20
1653.044163636213
 30
0.0
 11
1472.747762139378
 21
1753.046812001508
 31
0.0
 70
    32
 71
     5
 42
200.0052967305892
  3
GEN-ISO$0
100
AcDbAlignedDimension
 13
1556.251208021268
 23
1853.049460366802
 33
0.0
 14
1680.202625499411
 24
1653.044163636213
 34
0.0
 50
90.0
100
AcDbRotatedDimension
1001
ACAD
1000
DSTYLE
1002
{
1070
   271
1070
     0
1002
}
  0
DIMENSION
  5
50E
102
{ACAD_XDICTIONARY
360
50F
102
}
102
{ACAD_REACTORS
330
510
102
}
330
1F
100
AcDbEntity
  8
AM_5
100
AcDbDimension
  2
*D13
 10
2238.217214422387
 20
1783.054582221667
 30
0.0
 11
2238.217214422387
 21
1718.049372928936
 31
0.0
 70
   160
 71
     5
 42
130.0104185854543
  3
GEN-ISO$0
100
AcDbAlignedDimension
 13
2034.202625499412
 23
1653.044163636213
 33
0.0
 14
2156.251207802655
 24
1783.054582221667
 34
0.0
 50
90.0
100
AcDbRotatedDimension
1001
ACAD
1000
DSTYLE
1002
{
1070
   271
1070
     0
1002
}
  0
DIMENSION
  5
511
330
1F
100
AcDbEntity
  8
AM_5
100
AcDbDimension
  2
*D10
 10
2301.712852814991
 20
2033.044163636213
 30
0.0
 11
2278.21285281499
 21
1843.044163636213
 31
0.0
 70
    32
 71
     5
 42
380.0
  3
GEN-ISO$0
100
AcDbAlignedDimension
 13
2034.202625499412
 23
1653.044163636213
 33
0.0
 14
2030.1884920224
 24
2033.044163636213
 34
0.0
 50
90.0
100
AcDbRotatedDimension
1001
ACAD
1000
DSTYLE
1002
{
1070
   271
1070
     0
1002
}
  0
LINE
  5
512
330
1F
100
AcDbEntity
  8
AM_4
100
AcDbLine
 10
1551.251208021253
 20
1959.167421575522
 30
0.0
 11
1551.251208021253
 21
1746.931499157803
 31
0.0
  0
LINE
  5
513
330
1F
100
AcDbEntity
  8
AM_4
100
AcDbLine
 10
1606.251208021253
 20
1743.049460366801
 30
0.0
 11
1606.251208021283
 21
1963.049460366804
 31
0.0
  0
LINE
  5
514
330
1F
100
AcDbEntity
  8
AM_4
100
AcDbLine
 10
1551.251208021253
 20
1746.931499157803
 30
0.0
 11
1551.251208021253
 21
1743.049460366859
 31
0.0
  0
LINE
  5
515
330
1F
100
AcDbEntity
  8
AM_4
100
AcDbLine
 10
1551.251208021253
 20
1743.049460366866
 30
0.0
 11
1606.251208021253
 21
1743.049460366801
 31
0.0
  0
LINE
  5
516
330
1F
100
AcDbEntity
  8
AM_4
100
AcDbLine
 10
1551.251208021253
 20
1984.306386272855
 30
0.0
 11
1551.251208021253
 21
1959.167421575522
 31
0.0
  0
LWPOLYLINE
  5
517
330
1F
100
AcDbEntity
  8
AM_4
100
AcDbPolyline
 90
        6
 70
     1
 43
0.0
 10
1565.003984770984
 20
1967.177923319827
 10
1568.756761520718
 20
1973.677923319828
 10
1565.003984770984
 20
1980.177923319828
 10
1557.498431271519
 20
1980.177923319828
 10
1553.745654521785
 20
1973.677923319828
 10
1557.498431271523
 20
1967.177923319827
  0
CIRCLE
  5
518
330
1F
100
AcDbEntity
  8
AM_4
100
AcDbCircle
 10
1561.251208021254
 20
1973.677923319828
 30
0.0
 40
6.5
  0
LWPOLYLINE
  5
519
330
1F
100
AcDbEntity
  8
AM_4
100
AcDbPolyline
 90
        6
 70
     1
 43
0.0
 10
1600.003984770984
 20
1967.177923319769
 10
1603.756761520718
 20
1973.677923319769
 10
1600.003984770984
 20
1980.177923319769
 10
1592.498431271519
 20
1980.177923319769
 10
1588.745654521785
 20
1973.677923319769
 10
1592.498431271523
 20
1967.177923319769
  0
CIRCLE
  5
51A
330
1F
100
AcDbEntity
  8
AM_4
100
AcDbCircle
 10
1596.251208021254
 20
1973.677923319769
 30
0.0
 40
6.5
  0
LINE
  5
51B
330
1F
100
AcDbEntity
  8
AM_4
100
AcDbLine
 10
1551.251208021253
 20
1963.049460366742
 30
0.0
 11
1606.251208021253
 21
1963.0494603668
 31
0.0
  0
LINE
  5
51C
330
1F
100
AcDbEntity
  8
AM_4
100
AcDbLine
 10
1606.251208021253
 20
1984.306386272855
 30
0.0
 11
1551.251208021253
 21
1984.306386272855
 31
0.0
  0
LINE
  5
51D
330
1F
100
AcDbEntity
  8
AM_4
100
AcDbLine
 10
1606.251208021253
 20
1963.0494603668
 30
0.0
 11
1606.251208021225
 21
1984.306386272855
 31
0.0
  0
LINE
  5
51E
330
1F
100
AcDbEntity
  8
AM_4
100
AcDbLine
 10
2107.126447353723
 20
1889.167421575662
 30
0.0
 11
2107.126447353723
 21
1676.931499157943
 31
0.0
  0
LINE
  5
51F
330
1F
100
AcDbEntity
  8
AM_4
100
AcDbLine
 10
2162.126447353722
 20
1673.049460366941
 30
0.0
 11
2162.126447353751
 21
1893.049460366944
 31
0.0
  0
LINE
  5
520
330
1F
100
AcDbEntity
  8
AM_4
100
AcDbLine
 10
2107.126447353723
 20
1676.931499157943
 30
0.0
 11
2107.126447353723
 21
1673.049460366999
 31
0.0
  0
LINE
  5
521
330
1F
100
AcDbEntity
  8
AM_4
100
AcDbLine
 10
2107.126447353723
 20
1673.049460367006
 30
0.0
 11
2162.126447353722
 21
1673.049460366941
 31
0.0
  0
LINE
  5
522
330
1F
100
AcDbEntity
  8
AM_4
100
AcDbLine
 10
2107.126447353723
 20
1914.306386272995
 30
0.0
 11
2107.126447353723
 21
1889.167421575662
 31
0.0
  0
LWPOLYLINE
  5
523
330
1F
100
AcDbEntity
  8
AM_4
100
AcDbPolyline
 90
        6
 70
     1
 43
0.0
 10
2120.879224103453
 20
1897.177923319967
 10
2124.632000853187
 20
1903.677923319968
 10
2120.879224103453
 20
1910.177923319968
 10
2113.373670603988
 20
1910.177923319968
 10
2109.620893854254
 20
1903.677923319968
 10
2113.373670603992
 20
1897.177923319967
  0
CIRCLE
  5
524
330
1F
100
AcDbEntity
  8
AM_4
100
AcDbCircle
 10
2117.126447353722
 20
1903.677923319968
 30
0.0
 40
6.5
  0
LWPOLYLINE
  5
525
330
1F
100
AcDbEntity
  8
AM_4
100
AcDbPolyline
 90
        6
 70
     1
 43
0.0
 10
2155.879224103452
 20
1897.17792331991
 10
2159.632000853187
 20
1903.677923319909
 10
2155.879224103452
 20
1910.177923319909
 10
2148.373670603988
 20
1910.177923319909
 10
2144.620893854254
 20
1903.677923319909
 10
2148.373670603992
 20
1897.17792331991
  0
CIRCLE
  5
526
330
1F
100
AcDbEntity
  8
AM_4
100
AcDbCircle
 10
2152.126447353722
 20
1903.677923319909
 30
0.0
 40
6.5
  0
LINE
  5
527
330
1F
100
AcDbEntity
  8
AM_4
100
AcDbLine
 10
2107.126447353723
 20
1893.049460366882
 30
0.0
 11
2162.126447353722
 21
1893.04946036694
 31
0.0
  0
LINE
  5
528
330
1F
100
AcDbEntity
  8
AM_4
100
AcDbLine
 10
2162.126447353722
 20
1914.306386272995
 30
0.0
 11
2107.126447353723
 21
1914.306386272995
 31
0.0
  0
LINE
  5
529
330
1F
100
AcDbEntity
  8
AM_4
100
AcDbLine
 10
2162.126447353722
 20
1893.04946036694
 30
0.0
 11
2162.126447353693
 21
1914.306386272995
 31
0.0
  0
DIMENSION
  5
52A
102
{ACAD_XDICTIONARY
360
52B
102
}
102
{ACAD_REACTORS
330
52C
102
}
330
1F
100
AcDbEntity
  8
AM_5
100
AcDbDimension
  2
*D11
 10
2096.251208021268
 20
1558.049460366807
 30
0.0
 11
1856.251208021268
 21
1581.549460366807
 31
0.0
 70
    32
 71
     5
 42
480.0
  3
GEN-ISO$0
100
AcDbAlignedDimension
 13
1616.251208021268
 23
1748.049460366802
 33
0.0
 14
2096.251208021268
 24
1678.049460366802
 34
0.0
100
AcDbRotatedDimension
1001
ACAD
1000
DSTYLE
1002
{
1070
   271
1070
     0
1002
}
  0
LINE
  5
52D
330
1F
100
AcDbEntity
  8
0
100
AcDbLine
 10
1616.251208021268
 20
1958.049460366802
 30
0.0
 11
1616.251208021268
 21
1853.049460366802
 31
0.0
  0
LINE
  5
52E
330
1F
100
AcDbEntity
  8
0
100
AcDbLine
 10
1616.251208021268
 20
1122.993091673601
 30
0.0
 11
1616.251208021268
 21
1017.993091673601
 31
0.0
  0
LINE
  5
52F
330
1F
100
AcDbEntity
  8
AM_4
100
AcDbLine
 10
1551.251208021253
 20
1229.111052882321
 30
0.0
 11
1551.251208021253
 21
1016.875130464602
 31
0.0
  0
LINE
  5
530
330
1F
100
AcDbEntity
  8
AM_4
100
AcDbLine
 10
1606.251208021253
 20
1012.9930916736
 30
0.0
 11
1606.251208021283
 21
1232.993091673603
 31
0.0
  0
LINE
  5
531
330
1F
100
AcDbEntity
  8
AM_4
100
AcDbLine
 10
1551.251208021253
 20
1016.875130464602
 30
0.0
 11
1551.251208021253
 21
1012.993091673658
 31
0.0
  0
LINE
  5
532
330
1F
100
AcDbEntity
  8
AM_4
100
AcDbLine
 10
1551.251208021253
 20
1012.993091673666
 30
0.0
 11
1606.251208021253
 21
1012.9930916736
 31
0.0
  0
LINE
  5
533
330
1F
100
AcDbEntity
  8
AM_4
100
AcDbLine
 10
1551.251208021253
 20
1254.250017579654
 30
0.0
 11
1551.251208021253
 21
1229.111052882321
 31
0.0
  0
LWPOLYLINE
  5
534
330
1F
100
AcDbEntity
  8
AM_4
100
AcDbPolyline
 90
        6
 70
     1
 43
0.0
 10
1565.003984770984
 20
1237.121554626626
 10
1568.756761520718
 20
1243.621554626626
 10
1565.003984770984
 20
1250.121554626626
 10
1557.498431271519
 20
1250.121554626626
 10
1553.745654521785
 20
1243.621554626626
 10
1557.498431271523
 20
1237.121554626626
  0
CIRCLE
  5
535
330
1F
100
AcDbEntity
  8
AM_4
100
AcDbCircle
 10
1561.251208021254
 20
1243.621554626626
 30
0.0
 40
6.5
  0
LWPOLYLINE
  5
536
330
1F
100
AcDbEntity
  8
AM_4
100
AcDbPolyline
 90
        6
 70
     1
 43
0.0
 10
1600.003984770984
 20
1237.121554626568
 10
1603.756761520718
 20
1243.621554626568
 10
1600.003984770984
 20
1250.121554626568
 10
1592.498431271519
 20
1250.121554626568
 10
1588.745654521785
 20
1243.621554626568
 10
1592.498431271523
 20
1237.121554626568
  0
CIRCLE
  5
537
330
1F
100
AcDbEntity
  8
AM_4
100
AcDbCircle
 10
1596.251208021254
 20
1243.621554626568
 30
0.0
 40
6.5
  0
LINE
  5
538
330
1F
100
AcDbEntity
  8
AM_4
100
AcDbLine
 10
1551.251208021253
 20
1232.993091673541
 30
0.0
 11
1606.251208021253
 21
1232.993091673599
 31
0.0
  0
LINE
  5
539
330
1F
100
AcDbEntity
  8
AM_4
100
AcDbLine
 10
1606.251208021253
 20
1254.250017579654
 30
0.0
 11
1551.251208021253
 21
1254.250017579654
 31
0.0
  0
LINE
  5
53A
330
1F
100
AcDbEntity
  8
AM_4
100
AcDbLine
 10
1606.251208021253
 20
1232.993091673599
 30
0.0
 11
1606.251208021225
 21
1254.250017579654
 31
0.0
  0
LINE
  5
53B
330
1F
100
AcDbEntity
  8
0
100
AcDbLine
 10
1616.251208021268
 20
1227.993091673601
 30
0.0
 11
1616.251208021268
 21
1122.993091673601
 31
0.0
  0
LINE
  5
53C
330
1F
100
AcDbEntity
  8
0
100
AcDbLine
 10
2096.251208021268
 20
1227.993091673601
 30
0.0
 11
2010.385078406724
 21
1227.993091673601
 31
0.0
  0
LINE
  5
53D
330
1F
100
AcDbEntity
  8
0
100
AcDbLine
 10
2096.251208021268
 20
1017.993091673601
 30
0.0
 11
2010.385078406724
 21
1017.993091673602
 31
0.0
  0
LINE
  5
53E
330
1F
100
AcDbEntity
  8
0
100
AcDbLine
 10
2096.251208021268
 20
1122.993091673601
 30
0.0
 11
2096.251208021268
 21
1017.993091673601
 31
0.0
  0
LINE
  5
53F
330
1F
100
AcDbEntity
  8
AM_4
100
AcDbLine
 10
2161.251208021283
 20
1229.111052882321
 30
0.0
 11
2161.251208021283
 21
1016.875130464602
 31
0.0
  0
LINE
  5
540
330
1F
100
AcDbEntity
  8
AM_4
100
AcDbLine
 10
2106.251208021283
 20
1012.9930916736
 30
0.0
 11
2106.251208021254
 21
1232.993091673603
 31
0.0
  0
LINE
  5
541
330
1F
100
AcDbEntity
  8
AM_4
100
AcDbLine
 10
2161.251208021283
 20
1016.875130464602
 30
0.0
 11
2161.251208021283
 21
1012.993091673658
 31
0.0
  0
LINE
  5
542
330
1F
100
AcDbEntity
  8
AM_4
100
AcDbLine
 10
2161.251208021283
 20
1012.993091673666
 30
0.0
 11
2106.251208021283
 21
1012.9930916736
 31
0.0
  0
LINE
  5
543
330
1F
100
AcDbEntity
  8
AM_4
100
AcDbLine
 10
2161.251208021283
 20
1254.250017579654
 30
0.0
 11
2161.251208021283
 21
1229.111052882321
 31
0.0
  0
LWPOLYLINE
  5
544
330
1F
100
AcDbEntity
  8
AM_4
100
AcDbPolyline
 90
        6
 70
     1
 43
0.0
 10
2147.498431271552
 20
1237.121554626626
 10
2143.745654521818
 20
1243.621554626626
 10
2147.498431271552
 20
1250.121554626626
 10
2155.003984771017
 20
1250.121554626626
 10
2158.756761520751
 20
1243.621554626626
 10
2155.003984771013
 20
1237.121554626626
  0
CIRCLE
  5
545
330
1F
100
AcDbEntity
  8
AM_4
100
AcDbCircle
 10
2151.251208021283
 20
1243.621554626626
 30
0.0
 40
6.5
  0
LWPOLYLINE
  5
546
330
1F
100
AcDbEntity
  8
AM_4
100
AcDbPolyline
 90
        6
 70
     1
 43
0.0
 10
2112.498431271552
 20
1237.121554626568
 10
2108.745654521818
 20
1243.621554626568
 10
2112.498431271552
 20
1250.121554626568
 10
2120.003984771017
 20
1250.121554626568
 10
2123.756761520751
 20
1243.621554626568
 10
2120.003984771013
 20
1237.121554626568
  0
CIRCLE
  5
547
330
1F
100
AcDbEntity
  8
AM_4
100
AcDbCircle
 10
2116.251208021283
 20
1243.621554626568
 30
0.0
 40
6.5
  0
LINE
  5
548
330
1F
100
AcDbEntity
  8
AM_4
100
AcDbLine
 10
2161.251208021283
 20
1232.993091673541
 30
0.0
 11
2106.251208021283
 21
1232.993091673599
 31
0.0
  0
LINE
  5
549
330
1F
100
AcDbEntity
  8
AM_4
100
AcDbLine
 10
2106.251208021283
 20
1254.250017579654
 30
0.0
 11
2161.251208021283
 21
1254.250017579654
 31
0.0
  0
LINE
  5
54A
330
1F
100
AcDbEntity
  8
AM_4
100
AcDbLine
 10
2106.251208021283
 20
1232.993091673599
 30
0.0
 11
2106.251208021312
 21
1254.250017579654
 31
0.0
  0
LINE
  5
54B
330
1F
100
AcDbEntity
  8
0
100
AcDbLine
 10
2096.251208021268
 20
1227.993091673601
 30
0.0
 11
2096.251208021268
 21
1122.993091673601
 31
0.0
  0
LINE
  5
54C
330
1F
100
AcDbEntity
  8
AM_7
100
AcDbLine
 10
1856.237074544267
 20
1122.993091673602
 30
0.0
 11
2063.251208021268
 21
1122.993091673602
 31
0.0
1001
GENIUS_GENOREF_13
1005
58D
  0
LINE
  5
54D
330
1F
100
AcDbEntity
  8
AM_7
100
AcDbLine
 10
1856.237074544267
 20
1122.993091673602
 30
0.0
 11
1856.237074544267
 21
1330.007225150603
 31
0.0
1001
GENIUS_GENOREF_13
1005
58D
  0
LINE
  5
54E
330
1F
100
AcDbEntity
  8
AM_7
100
AcDbLine
 10
1856.237074544267
 20
1122.993091673602
 30
0.0
 11
1649.222941067265
 21
1122.993091673602
 31
0.0
1001
GENIUS_GENOREF_13
1005
58D
  0
LINE
  5
54F
330
1F
100
AcDbEntity
  8
AM_7
100
AcDbLine
 10
1856.237074544267
 20
1122.993091673602
 30
0.0
 11
1856.237074544267
 21
915.9789581966006
 31
0.0
1001
GENIUS_GENOREF_13
1005
58D
  0
DIMENSION
  5
550
330
1F
100
AcDbEntity
  8
AM_5
100
AcDbDimension
  2
*D9
 10
2049.188492022403
 20
2117.693135342596
 30
0.0
 11
1857.188492022406
 21
2141.193135342597
 31
0.0
 70
    32
  1
%%c<>
 71
     5
 42
383.9999999999927
  3
GEN-ISO$0
100
AcDbAlignedDimension
 13
1665.18849202241
 23
2023.044163636226
 33
0.0
 14
2049.188492022403
 24
2023.044163636213
 34
0.0
100
AcDbRotatedDimension
1001
ACAD
1000
DSTYLE
1002
{
1070
   271
1070
     0
1002
}
  0
TEXT
  5
551
330
1F
100
AcDbEntity
  8
AM_6
100
AcDbText
 10
1272.386216026184
 20
1944.697165446797
 30
0.0
 40
27.0
  1
Zulauf
100
AcDbText
  0
TEXT
  5
552
330
1F
100
AcDbEntity
  8
AM_6
100
AcDbText
 10
1272.386216026184
 20
1907.197165446797
 30
0.0
 40
27.0
  1
DN 200
100
AcDbText
  0
LINE
  5
553
330
1F
100
AcDbEntity
  8
406
  6
AUSGEZOGEN
 62
     7
100
AcDbLine
 10
1430.22404171495
 20
1851.174460366802
 30
0.0
 11
1430.22404171495
 21
1854.9251927868
 31
0.0
  0
LINE
  5
554
330
1F
100
AcDbEntity
  8
406
  6
AUSGEZOGEN
 62
     7
100
AcDbLine
 10
1428.97404171495
 20
1849.924460366802
 30
0.0
 11
1428.97404171495
 21
1856.1751927868
 31
0.0
  0
LINE
  5
555
330
1F
100
AcDbEntity
  8
406
  6
AUSGEZOGEN
 62
     7
100
AcDbLine
 10
1427.72404171495
 20
1848.674460366802
 30
0.0
 11
1427.72404171495
 21
1857.4251927868
 31
0.0
  0
LINE
  5
556
330
1F
100
AcDbEntity
  8
406
  6
AUSGEZOGEN
 62
     7
100
AcDbLine
 10
1426.47404171495
 20
1847.424460366802
 30
0.0
 11
1426.47404171495
 21
1858.6751927868
 31
0.0
  0
LINE
  5
557
330
1F
100
AcDbEntity
  8
406
  6
AUSGEZOGEN
 62
     7
100
AcDbLine
 10
1425.22404171495
 20
1846.174460366802
 30
0.0
 11
1425.22404171495
 21
1859.9251927868
 31
0.0
  0
LINE
  5
558
330
1F
100
AcDbEntity
  8
406
  6
AUSGEZOGEN
 62
     7
100
AcDbLine
 10
1423.97404171495
 20
1844.924460366802
 30
0.0
 11
1423.97404171495
 21
1861.1751927868
 31
0.0
  0
LINE
  5
559
330
1F
100
AcDbEntity
  8
406
  6
AUSGEZOGEN
 62
     7
100
AcDbLine
 10
1422.72404171495
 20
1843.674460366802
 30
0.0
 11
1422.72404171495
 21
1862.4251927868
 31
0.0
  0
LINE
  5
55A
330
1F
100
AcDbEntity
  8
406
  6
AUSGEZOGEN
 62
     7
100
AcDbLine
 10
1421.47404171495
 20
1842.424460366802
 30
0.0
 11
1421.47404171495
 21
1863.6751927868
 31
0.0
  0
LINE
  5
55B
330
1F
100
AcDbEntity
  8
406
  6
AUSGEZOGEN
 62
     7
100
AcDbLine
 10
1420.22404171495
 20
1841.174460366802
 30
0.0
 11
1420.22404171495
 21
1864.9251927868
 31
0.0
  0
LINE
  5
55C
330
1F
100
AcDbEntity
  8
406
  6
AUSGEZOGEN
 62
     7
100
AcDbLine
 10
1418.974041714951
 20
1839.924460366802
 30
0.0
 11
1418.974041714951
 21
1866.1751927868
 31
0.0
  0
LINE
  5
55D
330
1F
100
AcDbEntity
  8
406
  6
AUSGEZOGEN
 62
     7
100
AcDbLine
 10
1417.72404171495
 20
1838.674460366802
 30
0.0
 11
1417.72404171495
 21
1867.4251927868
 31
0.0
  0
LINE
  5
55E
330
1F
100
AcDbEntity
  8
406
  6
AUSGEZOGEN
 62
     7
100
AcDbLine
 10
1416.47404171495
 20
1837.423727946797
 30
0.0
 11
1416.47404171495
 21
1868.674216226803
 31
0.0
  0
LINE
  5
55F
330
1F
100
AcDbEntity
  8
406
  6
AUSGEZOGEN
 62
     7
100
AcDbLine
 10
1415.22404171495
 20
1836.173727946797
 30
0.0
 11
1415.22404171495
 21
1869.924216226803
 31
0.0
  0
LINE
  5
560
330
1F
100
AcDbEntity
  8
406
  6
AUSGEZOGEN
 62
     7
100
AcDbLine
 10
1413.97404171495
 20
1834.923727946797
 30
0.0
 11
1413.97404171495
 21
1871.174216226803
 31
0.0
  0
LINE
  5
561
330
1F
100
AcDbEntity
  8
406
  6
AUSGEZOGEN
 62
     7
100
AcDbLine
 10
1412.72404171495
 20
1833.673727946797
 30
0.0
 11
1412.72404171495
 21
1872.424216226803
 31
0.0
  0
LINE
  5
562
330
1F
100
AcDbEntity
  8
406
  6
AUSGEZOGEN
 62
     7
100
AcDbLine
 10
1411.47404171495
 20
1832.423727946797
 30
0.0
 11
1411.47404171495
 21
1873.674216226803
 31
0.0
  0
LINE
  5
563
330
1F
100
AcDbEntity
  8
406
  6
AUSGEZOGEN
 62
     7
100
AcDbLine
 10
1410.22404171495
 20
1831.173727946797
 30
0.0
 11
1410.22404171495
 21
1874.924216226803
 31
0.0
  0
LINE
  5
564
330
1F
100
AcDbEntity
  8
406
  6
AUSGEZOGEN
 62
     7
100
AcDbLine
 10
1408.97404171495
 20
1829.923727946797
 30
0.0
 11
1408.97404171495
 21
1876.174216226803
 31
0.0
  0
LINE
  5
565
330
1F
100
AcDbEntity
  8
406
  6
AUSGEZOGEN
 62
     7
100
AcDbLine
 10
1407.72404171495
 20
1828.673727946797
 30
0.0
 11
1407.72404171495
 21
1877.424704506801
 31
0.0
  0
LINE
  5
566
330
1F
100
AcDbEntity
  8
406
  6
AUSGEZOGEN
 62
     7
100
AcDbLine
 10
1406.474041714951
 20
1827.423727946797
 30
0.0
 11
1406.474041714951
 21
1878.674216226803
 31
0.0
  0
LINE
  5
567
330
1F
100
AcDbEntity
  8
406
  6
AUSGEZOGEN
 62
     7
100
AcDbLine
 10
1405.22404171495
 20
1826.173727946797
 30
0.0
 11
1405.22404171495
 21
1879.924216226805
 31
0.0
  0
LINE
  5
568
330
1F
100
AcDbEntity
  8
406
  6
AUSGEZOGEN
 62
     7
100
AcDbLine
 10
1403.97404171495
 20
1824.923727946797
 30
0.0
 11
1403.97404171495
 21
1881.174216226803
 31
0.0
  0
LINE
  5
569
330
1F
100
AcDbEntity
  8
406
  6
AUSGEZOGEN
 62
     7
100
AcDbLine
 10
1402.724041714957
 20
1823.673727946797
 30
0.0
 11
1402.724041714957
 21
1882.424704506801
 31
0.0
  0
LINE
  5
56A
330
1F
100
AcDbEntity
  8
406
  6
AUSGEZOGEN
 62
     7
100
AcDbLine
 10
1400.84904171495
 20
1821.799460366802
 30
0.0
 11
1400.84904171495
 21
1884.299460366802
 31
0.0
  0
LINE
  5
56B
330
1F
100
AcDbEntity
  8
406
  6
AUSGEZOGEN
 62
     7
100
AcDbLine
 10
1401.47404171495
 20
1822.423727946797
 30
0.0
 11
1401.47404171495
 21
1883.674704506801
 31
0.0
  0
LINE
  5
56C
330
1F
100
AcDbEntity
  8
406
  6
AUSGEZOGEN
 62
     7
100
AcDbLine
 10
1400.84904171495
 20
1884.299460366802
 30
0.0
 11
1432.099041714958
 21
1853.049460366802
 31
0.0
  0
LINE
  5
56D
330
1F
100
AcDbEntity
  8
406
  6
AUSGEZOGEN
 62
     7
100
AcDbLine
 10
1432.099041714958
 20
1853.049460366802
 30
0.0
 11
1400.84904171495
 21
1821.799460366802
 31
0.0
  0
LINE
  5
56E
330
1F
100
AcDbEntity
  8
406
  6
AUSGEZOGEN
 62
     7
100
AcDbLine
 10
1400.84904171495
 20
1853.049460366802
 30
0.0
 11
1340.447186244956
 21
1853.049460366802
 31
0.0
  0
TEXT
  5
56F
330
1F
100
AcDbEntity
  8
AM_6
100
AcDbText
 10
2345.107175174874
 20
1874.697165446798
 30
0.0
 40
27.0
  1
Ablauf
100
AcDbText
  0
TEXT
  5
570
330
1F
100
AcDbEntity
  8
AM_6
100
AcDbText
 10
2345.107175174874
 20
1837.197165446798
 30
0.0
 40
27.0
  1
DN 200
100
AcDbText
  0
LINE
  5
571
330
1F
100
AcDbEntity
  8
406
  6
AUSGEZOGEN
 62
     7
100
AcDbLine
 10
2502.945000863641
 20
1781.174460366803
 30
0.0
 11
2502.945000863641
 21
1784.925192786801
 31
0.0
  0
LINE
  5
572
330
1F
100
AcDbEntity
  8
406
  6
AUSGEZOGEN
 62
     7
100
AcDbLine
 10
2501.69500086364
 20
1779.924460366803
 30
0.0
 11
2501.69500086364
 21
1786.175192786801
 31
0.0
  0
LINE
  5
573
330
1F
100
AcDbEntity
  8
406
  6
AUSGEZOGEN
 62
     7
100
AcDbLine
 10
2500.445000863641
 20
1778.674460366803
 30
0.0
 11
2500.445000863641
 21
1787.425192786801
 31
0.0
  0
LINE
  5
574
330
1F
100
AcDbEntity
  8
406
  6
AUSGEZOGEN
 62
     7
100
AcDbLine
 10
2499.19500086364
 20
1777.424460366803
 30
0.0
 11
2499.19500086364
 21
1788.675192786801
 31
0.0
  0
LINE
  5
575
330
1F
100
AcDbEntity
  8
406
  6
AUSGEZOGEN
 62
     7
100
AcDbLine
 10
2497.945000863641
 20
1776.174460366803
 30
0.0
 11
2497.945000863641
 21
1789.925192786801
 31
0.0
  0
LINE
  5
576
330
1F
100
AcDbEntity
  8
406
  6
AUSGEZOGEN
 62
     7
100
AcDbLine
 10
2496.695000863641
 20
1774.924460366803
 30
0.0
 11
2496.695000863641
 21
1791.1751927868
 31
0.0
  0
LINE
  5
577
330
1F
100
AcDbEntity
  8
406
  6
AUSGEZOGEN
 62
     7
100
AcDbLine
 10
2495.44500086364
 20
1773.674460366803
 30
0.0
 11
2495.44500086364
 21
1792.425192786801
 31
0.0
  0
LINE
  5
578
330
1F
100
AcDbEntity
  8
406
  6
AUSGEZOGEN
 62
     7
100
AcDbLine
 10
2494.195000863641
 20
1772.424460366803
 30
0.0
 11
2494.195000863641
 21
1793.675192786801
 31
0.0
  0
LINE
  5
579
330
1F
100
AcDbEntity
  8
406
  6
AUSGEZOGEN
 62
     7
100
AcDbLine
 10
2492.94500086364
 20
1771.174460366803
 30
0.0
 11
2492.94500086364
 21
1794.925192786801
 31
0.0
  0
LINE
  5
57A
330
1F
100
AcDbEntity
  8
406
  6
AUSGEZOGEN
 62
     7
100
AcDbLine
 10
2491.695000863641
 20
1769.924460366803
 30
0.0
 11
2491.695000863641
 21
1796.175192786801
 31
0.0
  0
LINE
  5
57B
330
1F
100
AcDbEntity
  8
406
  6
AUSGEZOGEN
 62
     7
100
AcDbLine
 10
2490.445000863641
 20
1768.674460366803
 30
0.0
 11
2490.445000863641
 21
1797.425192786801
 31
0.0
  0
LINE
  5
57C
330
1F
100
AcDbEntity
  8
406
  6
AUSGEZOGEN
 62
     7
100
AcDbLine
 10
2489.19500086364
 20
1767.423727946798
 30
0.0
 11
2489.19500086364
 21
1798.674216226803
 31
0.0
  0
LINE
  5
57D
330
1F
100
AcDbEntity
  8
406
  6
AUSGEZOGEN
 62
     7
100
AcDbLine
 10
2487.945000863641
 20
1766.173727946798
 30
0.0
 11
2487.945000863641
 21
1799.924216226804
 31
0.0
  0
LINE
  5
57E
330
1F
100
AcDbEntity
  8
406
  6
AUSGEZOGEN
 62
     7
100
AcDbLine
 10
2486.695000863641
 20
1764.923727946798
 30
0.0
 11
2486.695000863641
 21
1801.174216226804
 31
0.0
  0
LINE
  5
57F
330
1F
100
AcDbEntity
  8
406
  6
AUSGEZOGEN
 62
     7
100
AcDbLine
 10
2485.445000863641
 20
1763.673727946798
 30
0.0
 11
2485.445000863641
 21
1802.424216226803
 31
0.0
  0
LINE
  5
580
330
1F
100
AcDbEntity
  8
406
  6
AUSGEZOGEN
 62
     7
100
AcDbLine
 10
2484.195000863641
 20
1762.423727946798
 30
0.0
 11
2484.195000863641
 21
1803.674216226804
 31
0.0
  0
LINE
  5
581
330
1F
100
AcDbEntity
  8
406
  6
AUSGEZOGEN
 62
     7
100
AcDbLine
 10
2482.945000863641
 20
1761.173727946798
 30
0.0
 11
2482.945000863641
 21
1804.924216226804
 31
0.0
  0
LINE
  5
582
330
1F
100
AcDbEntity
  8
406
  6
AUSGEZOGEN
 62
     7
100
AcDbLine
 10
2481.69500086364
 20
1759.923727946798
 30
0.0
 11
2481.69500086364
 21
1806.174216226804
 31
0.0
  0
LINE
  5
583
330
1F
100
AcDbEntity
  8
406
  6
AUSGEZOGEN
 62
     7
100
AcDbLine
 10
2480.445000863641
 20
1758.673727946798
 30
0.0
 11
2480.445000863641
 21
1807.424704506802
 31
0.0
  0
LINE
  5
584
330
1F
100
AcDbEntity
  8
406
  6
AUSGEZOGEN
 62
     7
100
AcDbLine
 10
2479.19500086364
 20
1757.423727946798
 30
0.0
 11
2479.19500086364
 21
1808.674216226804
 31
0.0
  0
LINE
  5
585
330
1F
100
AcDbEntity
  8
406
  6
AUSGEZOGEN
 62
     7
100
AcDbLine
 10
2477.945000863641
 20
1756.173727946798
 30
0.0
 11
2477.945000863641
 21
1809.924216226805
 31
0.0
  0
LINE
  5
586
330
1F
100
AcDbEntity
  8
406
  6
AUSGEZOGEN
 62
     7
100
AcDbLine
 10
2476.695000863641
 20
1754.923727946798
 30
0.0
 11
2476.695000863641
 21
1811.174216226803
 31
0.0
  0
LINE
  5
587
330
1F
100
AcDbEntity
  8
406
  6
AUSGEZOGEN
 62
     7
100
AcDbLine
 10
2475.445000863648
 20
1753.673727946798
 30
0.0
 11
2475.445000863648
 21
1812.424704506802
 31
0.0
  0
LINE
  5
588
330
1F
100
AcDbEntity
  8
406
  6
AUSGEZOGEN
 62
     7
100
AcDbLine
 10
2473.57000086364
 20
1751.799460366803
 30
0.0
 11
2473.57000086364
 21
1814.299460366803
 31
0.0
  0
LINE
  5
589
330
1F
100
AcDbEntity
  8
406
  6
AUSGEZOGEN
 62
     7
100
AcDbLine
 10
2474.195000863641
 20
1752.423727946798
 30
0.0
 11
2474.195000863641
 21
1813.674704506802
 31
0.0
  0
LINE
  5
58A
330
1F
100
AcDbEntity
  8
406
  6
AUSGEZOGEN
 62
     7
100
AcDbLine
 10
2473.57000086364
 20
1814.299460366803
 30
0.0
 11
2504.820000863648
 21
1783.049460366803
 31
0.0
  0
LINE
  5
58B
330
1F
100
AcDbEntity
  8
406
  6
AUSGEZOGEN
 62
     7
100
AcDbLine
 10
2504.820000863648
 20
1783.049460366803
 30
0.0
 11
2473.57000086364
 21
1751.799460366803
 31
0.0
  0
LINE
  5
58C
330
1F
100
AcDbEntity
  8
406
  6
AUSGEZOGEN
 62
     7
100
AcDbLine
 10
2473.57000086364
 20
1783.049460366803
 30
0.0
 11
2413.168145393646
 21
1783.049460366803
 31
0.0
  0
POINT
  5
58D
330
1F
100
AcDbEntity
  8
0
 60
     1
100
AcDbPoint
 10
15561.03981299756
 20
-3804.719231551088
 30
0.0
1001
GENIUS_GENOLIS_13
1002
{
1000
ENT
1005
54F
1005
54E
1005
54D
1005
54C
1002
}
1001
GENIUS_GENODEF_13
1002
{
1000
HIER
1070
    10
1002
}
1002
{
1000
MANEDIT
1070
     0
1002
}
1002
{
1000
NOSEL
1070
     0
1002
}
1002
{
1000
BEHIND
1070
     0
1002
}
1002
{
1000
OTHER
1070
     0
1002
}
1002
{
1000
REACTOR
1002
}
1001
GENIUS_GENOENT_13
1002
{
1000
MYREF
1005
58D
1002
}
1002
{
1000
GRP
1005
0
1002
}
1001
GENIUS_GENOBJ-N-CRS_13
1002
{
1000
OWNER
1000
GEN
1002
}
  0
ENDSEC
  0
SECTION
  2
OBJECTS
  0
DICTIONARY
  5
C
330
0
100
AcDbDictionary
281
     1
  3
ACAD_COLOR
350
D7
  3
ACAD_GROUP
350
D
  3
ACAD_LAYOUT
350
1A
  3
ACAD_MATERIAL
350
D6
  3
ACAD_MLINESTYLE
350
17
  3
ACAD_PLOTSETTINGS
350
19
  3
ACAD_PLOTSTYLENAME
350
E
  3
ACAD_TABLESTYLE
350
133
  3
ACDBHEADERROUNDTRIPXREC
350
5E0
  3
AcDbVariableDictionary
350
34
  3
AcmDictionary
350
49
  3
AMG
350
2B
  3
AMGSNAPSETTINGS
350
2C4
  3
DWGPROPS
350
5DF
  0
DICTIONARY
  5
C0
330
2
100
AcDbDictionary
280
     1
281
     1
  3
ACAD_LAYERSTATES
360
360
  3
AMLAYER_GROUPCOLORS
360
C1
  0
DICTIONARY
  5
83
330
1F
100
AcDbDictionary
280
     1
281
     1
  0
DICTIONARY
  5
50C
330
50B
100
AcDbDictionary
280
     1
281
     1
  3
ACAD_DIMASSOC
360
50D
  0
DICTIONARY
  5
50F
330
50E
100
AcDbDictionary
280
     1
281
     1
  3
ACAD_DIMASSOC
360
510
  0
DICTIONARY
  5
52B
330
52A
100
AcDbDictionary
280
     1
281
     1
  3
ACAD_DIMASSOC
360
52C
  0
DICTIONARY
  5
D7
102
{ACAD_REACTORS
330
C
102
}
330
C
100
AcDbDictionary
281
     1
  0
DICTIONARY
  5
D
102
{ACAD_REACTORS
330
C
102
}
330
C
100
AcDbDictionary
281
     1
  0
DICTIONARY
  5
1A
102
{ACAD_REACTORS
330
C
102
}
330
C
100
AcDbDictionary
281
     1
  3
Layout1
350
1E
  3
Layout2
350
26
  3
Model
350
22
  0
DICTIONARY
  5
D6
102
{ACAD_REACTORS
330
C
102
}
330
C
100
AcDbDictionary
281
     1
  0
DICTIONARY
  5
17
102
{ACAD_REACTORS
330
C
102
}
330
C
100
AcDbDictionary
281
     1
  3
Standard
350
18
  0
DICTIONARY
  5
19
102
{ACAD_REACTORS
330
C
102
}
330
C
100
AcDbDictionary
281
     1
  0
ACDBDICTIONARYWDFLT
  5
E
102
{ACAD_REACTORS
330
C
102
}
330
C
100
AcDbDictionary
281
     1
  3
Normal
350
F
100
AcDbDictionaryWithDefault
340
F
  0
DICTIONARY
  5
133
102
{ACAD_REACTORS
330
C
102
}
330
C
100
AcDbDictionary
281
     1
  3
Standard
350
134
  0
DICTIONARY
  5
5E0
102
{ACAD_REACTORS
330
C
102
}
330
C
100
AcDbDictionary
281
     1
  0
DICTIONARY
  5
34
102
{ACAD_REACTORS
330
C
102
}
330
C
100
AcDbDictionary
281
     1
  3
CTABLESTYLE
350
152
  3
DIMASSOC
350
AD
  3
INDEXCTL
350
35
  3
PROJECTNAME
350
5DD
  0
DICTIONARY
  5
49
102
{ACAD_REACTORS
330
C
102
}
330
C
100
AcDbDictionary
281
     1
  3
AcmBOM
350
2CB
  3
AcmStdDictionary
350
4A
  3
AMDTSECTSYM_ARROWCOLOR
350
13D
  0
DICTIONARY
  5
2B
102
{ACAD_REACTORS
330
C
102
}
330
C
100
AcDbDictionary
281
     1
  0
DICTIONARY
  5
2C4
102
{ACAD_REACTORS
330
C
102
}
330
C
100
AcDbDictionary
281
     1
  0
XRECORD
  5
5DF
102
{ACAD_REACTORS
330
C
102
}
330
C
100
AcDbXrecord
280
     1
  1
DWGPROPS COOKIE
  2

  3

  4

  6

  7

  8

  9

300
AmdtFileType=84
301
=
302
=
303
=
304
=
305
=
306
=
307
=
308
=
309
=
 40
0.0001927777777778
 41
2454053.358116319
 42
2454053.358309097
  1

 90
        1
  0
DICTIONARY
  5
360
102
{ACAD_REACTORS
330
C0
102
}
330
C0
100
AcDbDictionary
281
     1
  0
DICTIONARY
  5
C1
102
{ACAD_REACTORS
330
C0
102
}
330
C0
100
AcDbDictionary
280
     1
281
     1
  0
DIMASSOC
  5
50D
102
{ACAD_REACTORS
330
50C
102
}
330
50C
100
AcDbDimAssoc
330
50B
 90
        3
 70
     0
 71
     0
  1
AcDbOsnapPointRef
 72
    13
331
506
 73
     0
 91
        0
 40
0.0
 10
0.0
 20
0.0
 30
2.000000000000000E+50
 75
     0
  1
AcDbOsnapPointRef
 72
    13
331
4FC
 73
     0
 91
        0
 40
0.0
 10
0.0
 20
0.0
 30
2.000000000000000E+50
 75
     0
  0
DIMASSOC
  5
510
102
{ACAD_REACTORS
330
50F
102
}
330
50F
100
AcDbDimAssoc
330
50E
 90
        3
 70
     0
 71
     0
  1
AcDbOsnapPointRef
 72
    13
331
4FA
 73
     0
 91
        0
 40
0.0
 10
0.0
 20
0.0
 30
2.000000000000000E+50
 75
     0
  1
AcDbOsnapPointRef
 72
    13
331
507
 73
     0
 91
        0
 40
0.0
 10
0.0
 20
0.0
 30
2.000000000000000E+50
 75
     0
  0
DIMASSOC
  5
52C
102
{ACAD_REACTORS
330
52B
102
}
330
52B
100
AcDbDimAssoc
330
52A
 90
        3
 70
     0
 71
     0
  1
AcDbOsnapPointRef
 72
    13
331
505
 73
     0
 91
        0
 40
0.0
 10
0.0
 20
0.0
 30
2.000000000000000E+50
 75
     0
  1
AcDbOsnapPointRef
 72
    13
331
502
 73
     0
 91
        0
 40
0.0
 10
0.0
 20
0.0
 30
2.000000000000000E+50
 75
     0
  0
LAYOUT
  5
1E
102
{ACAD_XDICTIONARY
360
5E1
102
}
102
{ACAD_REACTORS
330
1A
102
}
330
1A
100
AcDbPlotSettings
  1

  2
none_device
  4
Letter_(8.50_x_11.00_Inches)
  6

 40
6.349999904632568
 41
6.349999904632568
 42
6.350006103515625
 43
6.350006103515625
 44
215.8999938964844
 45
279.3999938964844
 46
0.0
 47
0.0
 48
0.0
 49
0.0
140
0.0
141
0.0
142
1.0
143
1.0
 70
 15024
 72
     1
 73
     1
 74
     5
  7

 75
    16
147
1.0
148
0.0
149
0.0
100
AcDbLayout
  1
Layout1
 70
     1
 71
     1
 10
0.0
 20
0.0
 11
420.0
 21
297.0
 12
0.0
 22
0.0
 32
0.0
 14
1.000000000000000E+20
 24
1.000000000000000E+20
 34
1.000000000000000E+20
 15
-1.000000000000000E+20
 25
-1.000000000000000E+20
 35
-1.000000000000000E+20
146
0.0
 13
0.0
 23
0.0
 33
0.0
 16
1.0
 26
0.0
 36
0.0
 17
0.0
 27
1.0
 37
0.0
 76
     0
330
1B
  0
LAYOUT
  5
26
102
{ACAD_XDICTIONARY
360
5E5
102
}
102
{ACAD_REACTORS
330
1A
102
}
330
1A
100
AcDbPlotSettings
  1

  2
none_device
  4
Letter_(8.50_x_11.00_Inches)
  6

 40
6.349999904632568
 41
6.349999904632568
 42
6.350006103515625
 43
6.350006103515625
 44
215.8999938964844
 45
279.3999938964844
 46
0.0
 47
0.0
 48
0.0
 49
0.0
140
0.0
141
0.0
142
1.0
143
1.0
 70
 15024
 72
     1
 73
     1
 74
     5
  7

 75
    16
147
1.0
148
0.0
149
0.0
100
AcDbLayout
  1
Layout2
 70
     1
 71
     2
 10
0.0
 20
0.0
 11
12.0
 21
9.0
 12
0.0
 22
0.0
 32
0.0
 14
0.0
 24
0.0
 34
0.0
 15
0.0
 25
0.0
 35
0.0
146
0.0
 13
0.0
 23
0.0
 33
0.0
 16
1.0
 26
0.0
 36
0.0
 17
0.0
 27
1.0
 37
0.0
 76
     0
330
23
  0
LAYOUT
  5
22
102
{ACAD_XDICTIONARY
360
5E3
102
}
102
{ACAD_REACTORS
330
1A
102
}
330
1A
100
AcDbPlotSettings
  1

  2
none_device
  4
Letter_(8.50_x_11.00_Inches)
  6

 40
6.349999904632568
 41
6.349999904632568
 42
6.350006103515625
 43
6.350006103515625
 44
215.8999938964844
 45
279.3999938964844
 46
0.0
 47
0.0
 48
0.0
 49
0.0
140
0.0
141
0.0
142
1.0
143
1.0
 70
 11952
 72
     1
 73
     1
 74
     0
  7

 75
     0
147
1.0
148
-131.3052631578947
149
0.0
100
AcDbLayout
  1
Model
 70
     1
 71
     0
 10
0.0
 20
0.0
 11
12.0
 21
9.0
 12
0.0
 22
0.0
 32
0.0
 14
0.0
 24
0.0
 34
0.0
 15
0.0
 25
0.0
 35
0.0
146
0.0
 13
0.0
 23
0.0
 33
0.0
 16
1.0
 26
0.0
 36
0.0
 17
0.0
 27
1.0
 37
0.0
 76
     0
330
1F
  0
MLINESTYLE
  5
18
102
{ACAD_REACTORS
330
17
102
}
330
17
100
AcDbMlineStyle
  2
STANDARD
 70
     0
  3

 62
   256
 51
90.0
 52
90.0
 71
     2
 49
0.5
 62
   256
  6
BYLAYER
 49
-0.5
 62
   256
  6
BYLAYER
  0
ACDBPLACEHOLDER
  5
F
102
{ACAD_REACTORS
330
E
102
}
330
E
  0
TABLESTYLE
  5
134
102
{ACAD_REACTORS
330
133
102
}
330
133
100
AcDbTableStyle
  3
Standard
 70
     0
 71
     0
 40
1.5
 41
1.5
280
     0
281
     0
  7
STANDARD
140
4.5
170
     2
 62
     0
 63
     7
283
     0
274
    -2
284
     1
 64
     0
275
    -2
285
     1
 65
     0
276
    -2
286
     1
 66
     0
277
    -2
287
     1
 67
     0
278
    -2
288
     1
 68
     0
279
    -2
289
     1
 69
     0
  7
STANDARD
140
6.0
170
     5
 62
     0
 63
     7
283
     0
274
    -2
284
     1
 64
     0
275
    -2
285
     1
 65
     0
276
    -2
286
     1
 66
     0
277
    -2
287
     1
 67
     0
278
    -2
288
     1
 68
     0
279
    -2
289
     1
 69
     0
  7
STANDARD
140
4.5
170
     5
 62
     0
 63
     7
283
     0
274
    -2
284
     1
 64
     0
275
    -2
285
     1
 65
     0
276
    -2
286
     1
 66
     0
277
    -2
287
     1
 67
     0
278
    -2
288
     1
 68
     0
279
    -2
289
     1
 69
     0
  0
DICTIONARYVAR
  5
152
102
{ACAD_REACTORS
330
34
102
}
330
34
100
DictionaryVariables
280
     0
  1
STANDARD
  0
DICTIONARYVAR
  5
AD
102
{ACAD_REACTORS
330
34
102
}
330
34
100
DictionaryVariables
280
     0
  1
2
  0
DICTIONARYVAR
  5
35
102
{ACAD_REACTORS
330
34
102
}
330
34
100
DictionaryVariables
280
     0
  1
0
  0
DICTIONARYVAR
  5
5DD
102
{ACAD_REACTORS
330
34
102
}
330
34
100
DictionaryVariables
280
     0
  1

  0
DICTIONARY
  5
2CB
102
{ACAD_REACTORS
330
49
102
}
330
49
100
AcDbDictionary
281
     1
  0
DICTIONARY
  5
4A
102
{ACAD_REACTORS
330
49
102
}
330
49
100
AcDbDictionary
281
     1
  0
XRECORD
  5
13D
102
{ACAD_REACTORS
330
49
102
}
330
49
100
AcDbXrecord
280
     1
 90
-1023410169
  0
DICTIONARY
  5
5E1
330
1E
100
AcDbDictionary
280
     1
281
     1
  3
ACAD_XREC_ROUNDTRIP
360
5E2
  0
DICTIONARY
  5
5E5
330
26
100
AcDbDictionary
280
     1
281
     1
  3
ACAD_XREC_ROUNDTRIP
360
5E6
  0
DICTIONARY
  5
5E3
330
22
100
AcDbDictionary
280
     1
281
     1
  3
ACAD_XREC_ROUNDTRIP
360
5E4
  0
XRECORD
  5
5E2
102
{ACAD_REACTORS
330
5E1
102
}
330
5E1
100
AcDbXrecord
280
     1
102
SHADEPLOT
 70
     0
102
SHADEPLOTRESLEVEL
 70
     2
102
SHADEPLOTCUSTOMDPI
 70
   300
  0
XRECORD
  5
5E6
102
{ACAD_REACTORS
330
5E5
102
}
330
5E5
100
AcDbXrecord
280
     1
102
SHADEPLOT
 70
     0
102
SHADEPLOTRESLEVEL
 70
     2
102
SHADEPLOTCUSTOMDPI
 70
   300
  0
XRECORD
  5
5E4
102
{ACAD_REACTORS
330
5E3
102
}
330
5E3
100
AcDbXrecord
280
     1
102
SHADEPLOT
 70
     0
102
SHADEPLOTRESLEVEL
 70
     2
102
SHADEPLOTCUSTOMDPI
 70
   300
  0
ENDSEC
  0
EOF
