  0
SECTION
  2
HEADER
  9
$ACADVER
  1
AC1015
  9
$ACADMAINTVER
 70
    20
  9
$DWGCODEPAGE
  3
ANSI_1252
  9
$INSBASE
 10
0.0
 20
0.0
 30
0.0
  9
$EXTMIN
 10
1160.219607489376
 20
727.1853419565436
 30
0.0
  9
$EXTMAX
 10
2132.000605885579
 20
1928.6668318902
 30
0.0
  9
$LIMMIN
 10
0.0
 20
0.0
  9
$LIMMAX
 10
420.0
 20
297.0
  9
$ORTHOMODE
 70
     0
  9
$REGENMODE
 70
     1
  9
$FILLMODE
 70
     1
  9
$QTEXTMODE
 70
     0
  9
$MIRRTEXT
 70
     1
  9
$LTSCALE
 40
1.0
  9
$ATTMODE
 70
     1
  9
$TEXTSIZE
 40
2.5
  9
$TRACEWID
 40
1.0
  9
$TEXTSTYLE
  7
STANDARD
  9
$CLAYER
  8
AM_0
  9
$CELTYPE
  6
ByLayer
  9
$CECOLOR
 62
   256
  9
$CELTSCALE
 40
1.0
  9
$DISPSILH
 70
     0
  9
$DIMSCALE
 40
1.0
  9
$DIMASZ
 40
2.5
  9
$DIMEXO
 40
1.0
  9
$DIMDLI
 40
10.0
  9
$DIMRND
 40
0.0
  9
$DIMDLE
 40
0.0
  9
$DIMEXE
 40
1.0
  9
$DIMTP
 40
0.1
  9
$DIMTM
 40
0.1
  9
$DIMTXT
 40
3.5
  9
$DIMCEN
 40
0.0
  9
$DIMTSZ
 40
0.0
  9
$DIMTOL
 70
     0
  9
$DIMLIM
 70
     0
  9
$DIMTIH
 70
     0
  9
$DIMTOH
 70
     0
  9
$DIMSE1
 70
     0
  9
$DIMSE2
 70
     0
  9
$DIMTAD
 70
     1
  9
$DIMZIN
 70
     8
  9
$DIMBLK
  1

  9
$DIMASO
 70
     1
  9
$DIMSHO
 70
     1
  9
$DIMPOST
  1

  9
$DIMAPOST
  1
"
  9
$DIMALT
 70
     0
  9
$DIMALTD
 70
     2
  9
$DIMALTF
 40
0.0393701
  9
$DIMLFAC
 40
1.0
  9
$DIMTOFL
 70
     1
  9
$DIMTVP
 40
0.0
  9
$DIMTIX
 70
     0
  9
$DIMSOXD
 70
     0
  9
$DIMSAH
 70
     0
  9
$DIMBLK1
  1

  9
$DIMBLK2
  1

  9
$DIMSTYLE
  2
AM_DIN
  9
$DIMCLRD
 70
   256
  9
$DIMCLRE
 70
   256
  9
$DIMCLRT
 70
     2
  9
$DIMTFAC
 40
0.71
  9
$DIMGAP
 40
1.5
  9
$DIMJUST
 70
     0
  9
$DIMSD1
 70
     0
  9
$DIMSD2
 70
     0
  9
$DIMTOLJ
 70
     0
  9
$DIMTZIN
 70
     8
  9
$DIMALTZ
 70
     0
  9
$DIMALTTZ
 70
     0
  9
$DIMUPT
 70
     0
  9
$DIMDEC
 70
     2
  9
$DIMTDEC
 70
     3
  9
$DIMALTU
 70
     2
  9
$DIMALTTD
 70
     4
  9
$DIMTXSTY
  7
STANDARD
  9
$DIMAUNIT
 70
     0
  9
$DIMADEC
 70
     0
  9
$DIMALTRND
 40
0.0
  9
$DIMAZIN
 70
     2
  9
$DIMDSEP
 70
    46
  9
$DIMATFIT
 70
     3
  9
$DIMFRAC
 70
     0
  9
$DIMLDRBLK
  1

  9
$DIMLUNIT
 70
     2
  9
$DIMLWD
 70
    -1
  9
$DIMLWE
 70
    -1
  9
$DIMTMOVE
 70
     0
  9
$LUNITS
 70
     2
  9
$LUPREC
 70
     2
  9
$SKETCHINC
 40
1.0
  9
$FILLETRAD
 40
2.5
  9
$AUNITS
 70
     0
  9
$AUPREC
 70
     0
  9
$MENU
  1
.
  9
$ELEVATION
 40
0.0
  9
$PELEVATION
 40
0.0
  9
$THICKNESS
 40
0.0
  9
$LIMCHECK
 70
     0
  9
$CHAMFERA
 40
2.5
  9
$CHAMFERB
 40
2.5
  9
$CHAMFERC
 40
20.0
  9
$CHAMFERD
 40
0.0
  9
$SKPOLY
 70
     0
  9
$TDCREATE
 40
2454053.358517431
  9
$TDUCREATE
 40
2454053.316850764
  9
$TDUPDATE
 40
2454053.358748010
  9
$TDUUPDATE
 40
2454053.317081342
  9
$TDINDWG
 40
0.0002309375
  9
$TDUSRTIMER
 40
0.0002307523
  9
$USRTIMER
 70
     1
  9
$ANGBASE
 50
0.0
  9
$ANGDIR
 70
     0
  9
$PDMODE
 70
     0
  9
$PDSIZE
 40
0.0
  9
$PLINEWID
 40
0.0
  9
$SPLFRAME
 70
     0
  9
$SPLINETYPE
 70
     6
  9
$SPLINESEGS
 70
     8
  9
$HANDSEED
  5
615
  9
$SURFTAB1
 70
     6
  9
$SURFTAB2
 70
     6
  9
$SURFTYPE
 70
     6
  9
$SURFU
 70
     6
  9
$SURFV
 70
     6
  9
$UCSBASE
  2

  9
$UCSNAME
  2

  9
$UCSORG
 10
0.0
 20
0.0
 30
0.0
  9
$UCSXDIR
 10
1.0
 20
0.0
 30
0.0
  9
$UCSYDIR
 10
0.0
 20
1.0
 30
0.0
  9
$UCSORTHOREF
  2

  9
$UCSORTHOVIEW
 70
     0
  9
$UCSORGTOP
 10
0.0
 20
0.0
 30
0.0
  9
$UCSORGBOTTOM
 10
0.0
 20
0.0
 30
0.0
  9
$UCSORGLEFT
 10
0.0
 20
0.0
 30
0.0
  9
$UCSORGRIGHT
 10
0.0
 20
0.0
 30
0.0
  9
$UCSORGFRONT
 10
0.0
 20
0.0
 30
0.0
  9
$UCSORGBACK
 10
0.0
 20
0.0
 30
0.0
  9
$PUCSBASE
  2

  9
$PUCSNAME
  2

  9
$PUCSORG
 10
0.0
 20
0.0
 30
0.0
  9
$PUCSXDIR
 10
1.0
 20
0.0
 30
0.0
  9
$PUCSYDIR
 10
0.0
 20
1.0
 30
0.0
  9
$PUCSORTHOREF
  2

  9
$PUCSORTHOVIEW
 70
     0
  9
$PUCSORGTOP
 10
0.0
 20
0.0
 30
0.0
  9
$PUCSORGBOTTOM
 10
0.0
 20
0.0
 30
0.0
  9
$PUCSORGLEFT
 10
0.0
 20
0.0
 30
0.0
  9
$PUCSORGRIGHT
 10
0.0
 20
0.0
 30
0.0
  9
$PUCSORGFRONT
 10
0.0
 20
0.0
 30
0.0
  9
$PUCSORGBACK
 10
0.0
 20
0.0
 30
0.0
  9
$USERI1
 70
     0
  9
$USERI2
 70
     0
  9
$USERI3
 70
     0
  9
$USERI4
 70
     0
  9
$USERI5
 70
     0
  9
$USERR1
 40
0.0
  9
$USERR2
 40
0.0
  9
$USERR3
 40
0.0
  9
$USERR4
 40
0.0
  9
$USERR5
 40
0.0
  9
$WORLDVIEW
 70
     1
  9
$SHADEDGE
 70
     3
  9
$SHADEDIF
 70
    70
  9
$TILEMODE
 70
     1
  9
$MAXACTVP
 70
    64
  9
$PINSBASE
 10
0.0
 20
0.0
 30
0.0
  9
$PLIMCHECK
 70
     0
  9
$PEXTMIN
 10
1.000000000000000E+20
 20
1.000000000000000E+20
 30
1.000000000000000E+20
  9
$PEXTMAX
 10
-1.000000000000000E+20
 20
-1.000000000000000E+20
 30
-1.000000000000000E+20
  9
$PLIMMIN
 10
0.0
 20
0.0
  9
$PLIMMAX
 10
420.0
 20
297.0
  9
$UNITMODE
 70
     0
  9
$VISRETAIN
 70
     1
  9
$PLINEGEN
 70
     0
  9
$PSLTSCALE
 70
     1
  9
$TREEDEPTH
 70
  3020
  9
$CMLSTYLE
  2
Standard
  9
$CMLJUST
 70
     0
  9
$CMLSCALE
 40
20.0
  9
$PROXYGRAPHICS
 70
     1
  9
$MEASUREMENT
 70
     1
  9
$CELWEIGHT
370
    -1
  9
$ENDCAPS
280
     0
  9
$JOINSTYLE
280
     0
  9
$LWDISPLAY
290
     0
  9
$INSUNITS
 70
     4
  9
$HYPERLINKBASE
  1

  9
$STYLESHEET
  1

  9
$XEDIT
290
     1
  9
$CEPSNTYPE
380
     0
  9
$PSTYLEMODE
290
     1
  9
$FINGERPRINTGUID
  2
{351ED845-C914-498E-930C-BD8BFB85AFD4}
  9
$VERSIONGUID
  2
{41412EBB-B159-4B36-BFCB-DACBB6A04670}
  9
$EXTNAMES
290
     1
  9
$PSVPSCALE
 40
0.0
  9
$OLESTARTUP
290
     0
  0
ENDSEC
  0
SECTION
  2
CLASSES
  0
CLASS
  1
ACDBDICTIONARYWDFLT
  2
AcDbDictionaryWithDefault
  3
ObjectDBX Classes
 90
        0
280
     0
281
     0
  0
CLASS
  1
ACDBPLACEHOLDER
  2
AcDbPlaceHolder
  3
ObjectDBX Classes
 90
        0
280
     0
281
     0
  0
CLASS
  1
LAYOUT
  2
AcDbLayout
  3
ObjectDBX Classes
 90
        0
280
     0
281
     0
  0
CLASS
  1
AMGSETTINGSOBJ
  2
AmgSettingsObj
  3
"AcadM|Product Description: AutoCAD Mechanical 2000|Company: Autodesk"
 90
        0
280
     0
281
     0
  0
CLASS
  1
ACME_DOCUMENT
  2
AcMeDbDoc
  3
AcMeServices
 90
        0
280
     0
281
     0
  0
CLASS
  1
ACMESCOPE
  2
AcMeScope
  3
AcMeServices
 90
        0
280
     0
281
     0
  0
CLASS
  1
ACMECOMMANDHISTORY
  2
AcMeCommandHistory
  3
AcMeServices
 90
        0
280
     0
281
     0
  0
CLASS
  1
DICTIONARYVAR
  2
AcDbDictionaryVar
  3
ObjectDBX Classes
 90
        0
280
     0
281
     0
  0
CLASS
  1
ACIMSYSVARMAN
  2
AcImSysVarManager
  3
AcMeServices
 90
        0
280
     0
281
     0
  0
CLASS
  1
ACIMREALSYSVAR
  2
AcImRealSysVar
  3
AcMeServices
 90
        0
280
     0
281
     0
  0
CLASS
  1
ACIMINTSYSVAR
  2
AcImIntSysVar
  3
AcMeServices
 90
        0
280
     0
281
     0
  0
CLASS
  1
ACMEDRAWINGMAN
  2
AcMeDrawingMan
  3
AcMeServices
 90
        0
280
     0
281
     0
  0
CLASS
  1
ACMEVIEW
  2
AcMeView
  3
AcMeServices
 90
        0
280
     0
281
     0
  0
CLASS
  1
ACDBENTITYCACHE
  2
AcMeEntityCache
  3
AcMeServices
 90
        0
280
     0
281
     0
  0
CLASS
  1
GSMANAGER
  2
AcMeGSManager
  3
AcMeServices
 90
        0
280
     0
281
     0
  0
CLASS
  1
AMDTINTERNALREACTOR
  2
AmdtInternalReactor
  3
AcMeServices
 90
        0
280
     0
281
     0
  0
CLASS
  1
ACMESTATEMGR
  2
AcMeStateMgr
  3
AcMeServices
 90
        0
280
     0
281
     0
  0
CLASS
  1
ACGREFMASTER
  2
AcGrefMaster
  3
AcAttribServices
 90
        0
280
     0
281
     0
  0
CLASS
  1
ACME_DATABASE
  2
AcMeDbDatabase
  3
AcMeServices
 90
        0
280
     0
281
     0
  0
CLASS
  1
ACRFINSADJUSTERMGR
  2
AcRfInsAdjusterMgr
  3
AcMeServices
 90
        0
280
     0
281
     0
  0
CLASS
  1
ACGREFACADMASTER
  2
AcGrefacadMaster
  3
AcGrefServices
 90
        0
280
     0
281
     0
  0
CLASS
  1
AMIMASTER
  2
AmiMaster
  3
AmiServices
 90
        0
280
     0
281
     0
  0
CLASS
  1
ACIMSTRSYSVAR
  2
AcImStrSysVar
  3
AcMeServices
 90
        0
280
     0
281
     0
  0
CLASS
  1
ACMSTANDARDDIN
  2
AcmStandardDIN
  3
"Amdt_StdImp|Product Description: AutoCAD Mechanical 2004 DX|Company: Autodesk"
 90
        0
280
     0
281
     0
  0
CLASS
  1
AMGOBJPROPCFG
  2
AmgObjPropCfg
  3
"AmgLay|Product Description: AutoCAD Mechanical 2000|Company: Autodesk"
 90
        1
280
     0
281
     0
  0
CLASS
  1
AMDTEDGESTANDARDDIN
  2
AmdtEdgeStdDIN
  3
"Amdt_StdImp|Product Description: AutoCAD Mechanical 2004 DX|Company: Autodesk"
 90
        0
280
     0
281
     0
  0
CLASS
  1
ACMSURFSTANDARDDIN
  2
AcmSurfTextStdDIN
  3
"Amdt_StdImp|Product Description: AutoCAD Mechanical 2004 DX|Company: Autodesk"
 90
        0
280
     0
281
     0
  0
CLASS
  1
ACMFCFSTANDARDDIN
  2
AcmFCFStdDIN
  3
"Amdt_StdImp|Product Description: AutoCAD Mechanical 2004 DX|Company: Autodesk"
 90
        0
280
     0
281
     0
  0
CLASS
  1
ACMWELDSTANDARDDIN
  2
AcmWeldingStdDIN
  3
"Amdt_StdImp|Product Description: AutoCAD Mechanical 2004 DX|Company: Autodesk"
 90
        0
280
     0
281
     0
  0
CLASS
  1
ACMIDSTANDARDDIN
  2
AcmIdStdDIN
  3
"Amdt_StdImp|Product Description: AutoCAD Mechanical 2004 DX|Company: Autodesk"
 90
        0
280
     0
281
     0
  0
CLASS
  1
ACMDATUMSTANDARDDIN
  2
AcmDatumStdDIN
  3
"Amdt_StdImp|Product Description: AutoCAD Mechanical 2004 DX|Company: Autodesk"
 90
        0
280
     0
281
     0
  0
CLASS
  1
ACMBOMSTANDARDDIN
  2
AcmBOMStdDIN
  3
"Amdt_StdImp|Product Description: AutoCAD Mechanical 2004 DX|Company: Autodesk"
 90
        0
280
     0
281
     0
  0
CLASS
  1
ACMDETAILSTANDARDDIN
  2
AmdtDetailSymStdDIN
  3
"Amdt_StdImp|Product Description: AutoCAD Mechanical 2004 DX|Company: Autodesk"
 90
        0
280
     0
281
     0
  0
CLASS
  1
ACMSECTIONSTANDARDDIN
  2
AmdtSectionSymStdDIN
  3
"Amdt_StdImp|Product Description: AutoCAD Mechanical 2004 DX|Company: Autodesk"
 90
        0
280
     0
281
     0
  0
CLASS
  1
ACMCENTERLINESTANDARDDIN
  2
AmdtCenterLineStdDIN
  3
"Amdt_StdImp|Product Description: AutoCAD Mechanical 2004 DX|Company: Autodesk"
 90
        0
280
     0
281
     0
  0
CLASS
  1
ACMTHREADLINESTANDARDDIN
  2
AmdtThreadLineStdDIN
  3
"Amdt_StdImp|Product Description: AutoCAD Mechanical 2004 DX|Company: Autodesk"
 90
        0
280
     0
281
     0
  0
CLASS
  1
ACAMGLAYSTD
  2
AcAmgLayStd
  3
"AcAmgLayStd|Product Description: AutoCAD Mechanical 2000|Company: Autodesk"
 90
        0
280
     0
281
     0
  0
CLASS
  1
ACAMGDIMSTD
  2
AcAmgDimStd
  3
"AcAmgDimStd|Product Description: AutoCAD Mechanical 2000|Company: Autodesk"
 90
        0
280
     0
281
     0
  0
CLASS
  1
ACAMGTITLESTD
  2
AcAmgTitleStd
  3
"TITLEAPP"
 90
        0
280
     0
281
     0
  0
CLASS
  1
ACMDATADICTIONARY
  2
AcmDataDictionary
  3
"AcmSymBB|Product Description: AutoCAD Mechanical 2004 DX|Company: Autodesk"
 90
        0
280
     0
281
     0
  0
CLASS
  1
ACMDATAENTRYBLOCK
  2
AcmDataEntryBlock
  3
"AcmSymBB|Product Description: AutoCAD Mechanical 2004 DX|Company: Autodesk"
 90
        0
280
     0
281
     0
  0
CLASS
  1
LAYER_INDEX
  2
AcDbLayerIndex
  3
ObjectDBX Classes
 90
    32768
280
     0
281
     0
  0
CLASS
  1
IDBUFFER
  2
AcDbIdBuffer
  3
ObjectDBX Classes
 90
    32768
280
     0
281
     0
  0
CLASS
  1
ACMNOTESTANDARDDIN
  2
AmdtNoteStdDIN
  3
"Amdt_StdImp|Product Description: AutoCAD Mechanical 2004 DX|Company: Autodesk"
 90
        0
280
     0
281
     0
  0
CLASS
  1
ACAMGHOLECHARTSTDDIN
  2
AcAmgHoleChartStdDIN
  3
ACMSYMBB_MODULE_NAME
 90
        0
280
     0
281
     0
  0
CLASS
  1
AM_DRAWING_MGR
  2
AcDmDwgMgr
  3
AcMechDwgViewMgmt
 90
        0
280
     0
281
     0
  0
CLASS
  1
AM_DWG_DOCUMENT
  2
AcDmDwgDocument
  3
AcMechDwgViewMgmt
 90
        0
280
     0
281
     0
  0
CLASS
  1
AM_DWG_SHEET
  2
AcDmSheet
  3
AcMechDwgViewMgmt
 90
        0
280
     0
281
     0
  0
CLASS
  1
AM_VIEWDIMPARMAP
  2
AcDmViewDimParMap
  3
AcMechDwgViewMgmt
 90
        0
280
     0
281
     0
  0
CLASS
  1
AM_DWGMGR_NAME
  2
AcDmDwgMgrName
  3
AcMechDwgViewMgmt
 90
        0
280
     0
281
     0
  0
CLASS
  1
AMDTMENUSTATEMGR
  2
AmdtMenuStateMgr
  3
McadcomServices
 90
        0
280
     0
281
     0
  0
CLASS
  1
AMDTMCOMMENUSTATE
  2
AmdtMcomMenuState
  3
McadcomServices
 90
        0
280
     0
281
     0
  0
CLASS
  1
MAPIAMMOUDLE
  2
MApiAmModule
  3
MApiAmServices
 90
        0
280
     0
281
     0
  0
CLASS
  1
AMDTADMENUSTATE
  2
AmdtAdMenuState
  3
DesignerServices
 90
        0
280
     0
281
     0
  0
CLASS
  1
ADAPPL
  2
AcAdAppl
  3
DesignerServices
 90
        0
280
     0
281
     0
  0
CLASS
  1
DEPMGR
  2
AcAdDepMgr
  3
DesignerServices
 90
        0
280
     0
281
     0
  0
CLASS
  1
PARAMMGR
  2
AcAdParamMgr
  3
DesignerServices
 90
        0
280
     0
281
     0
  0
CLASS
  1
PARAMSCOPE
  2
AcAdParamScope
  3
DesignerServices
 90
        0
280
     0
281
     0
  0
CLASS
  1
NAMEDAPPL
  2
AcAdNamedAppl
  3
DesignerServices
 90
        0
280
     0
281
     0
  0
CLASS
  1
AMDTDMMENUSTATE
  2
AmdtDmMenuState
  3
AcMechDwgViewMgmt
 90
        0
280
     0
281
     0
  0
CLASS
  1
AMDTAMMENUSTATE
  2
AmdtAmMenuState
  3
DesignerAssemblies
 90
        0
280
     0
281
     0
  0
CLASS
  1
ACAMPROJECT
  2
AcAmProject
  3
DesignerAssemblies
 90
        0
280
     0
281
     0
  0
CLASS
  1
ACAMGRCOMPDEF
  2
AcAmGrCompDef
  3
DesignerAssemblies
 90
        0
280
     0
281
     0
  0
CLASS
  1
ACCMCONTEXT
  2
AcCmContext
  3
DesignerAssemblies
 90
        0
280
     0
281
     0
  0
CLASS
  1
ACAMCOMPDEF
  2
AcAmCompDef
  3
DesignerAssemblies
 90
        0
280
     0
281
     0
  0
CLASS
  1
ACAMCOMPDEFMGR
  2
AcAmCompDefMgr
  3
DesignerAssemblies
 90
        0
280
     0
281
     0
  0
CLASS
  1
AMCONTEXTMGR
  2
AcAmContextMgr
  3
DesignerAssemblies
 90
        0
280
     0
281
     0
  0
CLASS
  1
ACAMCONTEXTMODELER
  2
AcAmContextModeler
  3
DesignerAssemblies
 90
        0
280
     0
281
     0
  0
CLASS
  1
CATALOGSTATE
  2
AcAmCatalogState
  3
DesignerAssemblies
 90
        0
280
     0
281
     0
  0
CLASS
  1
ACAMGRCOMPDEFSET
  2
AcAmGrCompDefSet
  3
DesignerAssemblies
 90
        0
280
     0
281
     0
  0
CLASS
  1
AMDTBROWSERDBTAB
  2
AmdtBrowserDbTab
  3
McadcomServices
 90
        0
280
     0
281
     0
  0
CLASS
  1
CBROWSERAPPOBJECT
  2
CBrowserAppObject
  3
McadcomServices
 90
        0
280
     0
281
     0
  0
CLASS
  1
DM_PLACEHOLDER
  2
AcDmSelsetPlaceholder
  3
AcMechDwgViewMgmt
 90
        0
280
     0
281
     0
  0
CLASS
  1
TABLESTYLE
  2
AcDbTableStyle
  3
ObjectDBX Classes
 90
     2047
280
     0
281
     0
  0
CLASS
  1
VAACXREFPANELOBJECT
  2
VaAcXREFPanelObject
  3
VAAC_ADDIN
 90
    32768
280
     0
281
     0
  0
CLASS
  1
VAACIMAGEINVENTORY
  2
VaAcImageInventory
  3
VAAC_ADDIN
 90
    32768
280
     0
281
     0
  0
CLASS
  1
AMDTNOTETEMPLATEDB
  2
AmdtNoteTemplateDB
  3
AMDT_STDIMP_MODULE_NAME
 90
        0
280
     0
281
     0
  0
CLASS
  1
ACAMGFILTERDAT
  2
AcAmgFilterDat
  3
"AcadM|Product Description: AutoCAD Mechanical 2000|Company: Autodesk"
 90
        0
280
     0
281
     0
  0
CLASS
  1
ACMBOM
  2
AcmBom
  3
"AcmSymBB|Product Description: AutoCAD Mechanical 2004 DX|Company: Autodesk"
 90
    32768
280
     0
281
     0
  0
CLASS
  1
AMDTFORMULAUPDATEDISPATCHER
  2
AmdtFormulaUpdateDispatcher
  3
AcMeServices
 90
    32768
280
     0
281
     0
  0
CLASS
  1
DIMASSOC
  2
AcDbDimAssoc
  3
"AcDbDimAssoc|Product Desc:     AcDim ARX App For Dimension|Company:          Autodesk, Inc.|WEB Address:      www.autodesk.com"
 90
        0
280
     0
281
     0
  0
CLASS
  1
SORTENTSTABLE
  2
AcDbSortentsTable
  3
ObjectDBX Classes
 90
        0
280
     0
281
     0
  0
CLASS
  1
ACRFATTGENMGR
  2
AcRfAttGeneralMgr
  3
AcAttribServices
 90
        0
280
     0
281
     0
  0
ENDSEC
  0
SECTION
  2
TABLES
  0
TABLE
  2
VPORT
  5
8
330
0
100
AcDbSymbolTable
 70
     3
  0
VPORT
  5
60C
330
8
100
AcDbSymbolTableRecord
100
AcDbViewportTableRecord
  2
*Active
 70
     0
 10
0.0
 20
0.0
 11
1.0
 21
1.0
 12
1646.110106687477
 22
1327.926086923371
 13
0.0
 23
0.0
 14
2.5
 24
2.5
 15
10.0
 25
10.0
 16
0.0
 26
0.0
 36
1.0
 17
0.0
 27
0.0
 37
0.0
 40
1209.599608108883
 41
1.378804960541149
 42
50.0
 43
0.0
 44
0.0
 50
0.0
 51
0.0
 71
     0
 72
   100
 73
     1
 74
     3
 75
     0
 76
     0
 77
     0
 78
     0
281
     0
 65
     1
110
0.0
120
0.0
130
0.0
111
1.0
121
0.0
131
0.0
112
0.0
122
1.0
132
0.0
 79
     0
146
0.0
  0
ENDTAB
  0
TABLE
  2
LTYPE
  5
5
330
0
100
AcDbSymbolTable
 70
    21
  0
LTYPE
  5
14
330
5
100
AcDbSymbolTableRecord
100
AcDbLinetypeTableRecord
  2
ByBlock
 70
     0
  3

 72
    65
 73
     0
 40
0.0
  0
LTYPE
  5
15
330
5
100
AcDbSymbolTableRecord
100
AcDbLinetypeTableRecord
  2
ByLayer
 70
     0
  3

 72
    65
 73
     0
 40
0.0
  0
LTYPE
  5
16
330
5
100
AcDbSymbolTableRecord
100
AcDbLinetypeTableRecord
  2
Continuous
 70
     0
  3
Solid line
 72
    65
 73
     0
 40
0.0
  0
LTYPE
  5
4D
330
5
100
AcDbSymbolTableRecord
100
AcDbLinetypeTableRecord
  2
AM_ISO02W050
 70
     0
  3
__ __ __ __ __ __ __ __ __ __ __ __ __ __ __
 72
    65
 73
     2
 40
7.5
 49
6.0
 74
     0
 49
-1.5
 74
     0
  0
LTYPE
  5
4E
330
5
100
AcDbSymbolTableRecord
100
AcDbLinetypeTableRecord
  2
AM_ISO08W050
 70
     0
  3
____ . ____ . ____ . ____ . ____ . ____ . ____
 72
    65
 73
     4
 40
18.0
 49
12.0
 74
     0
 49
-1.5
 74
     0
 49
3.0
 74
     0
 49
-1.5
 74
     0
  0
LTYPE
  5
4F
330
5
100
AcDbSymbolTableRecord
100
AcDbLinetypeTableRecord
  2
AM_ISO09W050
 70
     0
  3
_____ . . _____ . . _____ . . ____ .. ____
 72
    65
 73
     6
 40
22.5
 49
12.0
 74
     0
 49
-1.5
 74
     0
 49
3.0
 74
     0
 49
-1.5
 74
     0
 49
3.0
 74
     0
 49
-1.5
 74
     0
  0
LTYPE
  5
50
330
5
100
AcDbSymbolTableRecord
100
AcDbLinetypeTableRecord
  2
Amconstr
 70
     0
  3
_______________________
 72
    65
 73
     2
 40
9999.0
 49
9999.0
 74
     0
 49
0.0
 74
     0
  0
LTYPE
  5
51
330
5
100
AcDbSymbolTableRecord
100
AcDbLinetypeTableRecord
  2
AM_ISO08W050x2
 70
     0
  3
__ . __ . __ . __ . __ . __
 72
    65
 73
     4
 40
9.0
 49
6.0
 74
     0
 49
-0.75
 74
     0
 49
1.5
 74
     0
 49
-0.75
 74
     0
  0
LTYPE
  5
52
330
5
100
AcDbSymbolTableRecord
100
AcDbLinetypeTableRecord
  2
AM_ISO02W050x2
 70
     0
  3
 _ _ _ _ _ _ _ _ _ _ _ _
 72
    65
 73
     2
 40
3.75
 49
3.0
 74
     0
 49
-0.75
 74
     0
  0
LTYPE
  5
55
330
5
100
AcDbSymbolTableRecord
100
AcDbLinetypeTableRecord
  2
Amzigzag
 70
     0
  3
/\/-/\/-/\/-/\/-/\/-/\/
 72
    65
 73
     2
 40
11.0001
 49
0.0001
 74
     4
 75
   136
340
285
 46
0.04
 50
0.0
 44
0.0
 45
0.0
 49
-11.0
 74
     0
  0
LTYPE
  5
56
330
5
100
AcDbSymbolTableRecord
100
AcDbLinetypeTableRecord
  2
AM_DIN_F_W050
 70
     0
  3
__ __ __ __ __ __ __ __ __ __ __ __ __ __ __
 72
    65
 73
     2
 40
6.25
 49
4.75
 74
     0
 49
-1.5
 74
     0
  0
LTYPE
  5
57
330
5
100
AcDbSymbolTableRecord
100
AcDbLinetypeTableRecord
  2
AM_DIN_G_W050
 70
     0
  3
____ . ____ . ____ . ____ . ____ . ____ . ____
 72
    65
 73
     4
 40
13.75
 49
9.75
 74
     0
 49
-1.5
 74
     0
 49
1.0
 74
     0
 49
-1.5
 74
     0
  0
LTYPE
  5
58
330
5
100
AcDbSymbolTableRecord
100
AcDbLinetypeTableRecord
  2
AM_DIN_K_W050
 70
     0
  3
_____ . . _____ . . _____ . . ____ .. ____
 72
    65
 73
     6
 40
16.25
 49
9.75
 74
     0
 49
-1.5
 74
     0
 49
1.0
 74
     0
 49
-1.5
 74
     0
 49
1.0
 74
     0
 49
-1.5
 74
     0
  0
LTYPE
  5
59
330
5
100
AcDbSymbolTableRecord
100
AcDbLinetypeTableRecord
  2
AM_DIN_G_W050x2
 70
     0
  3
__ . __ . __ . __ . __ . __
 72
    65
 73
     4
 40
6.875
 49
4.75
 74
     0
 49
-0.875
 74
     0
 49
0.375
 74
     0
 49
-0.875
 74
     0
  0
LTYPE
  5
5A
330
5
100
AcDbSymbolTableRecord
100
AcDbLinetypeTableRecord
  2
AM_DIN_F_W050x2
 70
     0
  3
 _ _ _ _ _ _ _ _ _ _ _ _
 72
    65
 73
     2
 40
3.125
 49
2.25
 74
     0
 49
-0.875
 74
     0
  0
LTYPE
  5
68
330
5
100
AcDbSymbolTableRecord
100
AcDbLinetypeTableRecord
  2
ACDINWELD
 70
     0
  3
_ _ _ _ _
 72
    65
 73
     2
 40
2.0
 49
2.0
 74
     0
 49
-1.0
 74
     0
  0
LTYPE
  5
69
330
5
100
AcDbSymbolTableRecord
100
AcDbLinetypeTableRecord
  2
ACDINTGB
 70
     0
  3
__ . . __ . .
 72
    65
 73
     6
 40
9.0
 49
4.0
 74
     0
 49
-1.0
 74
     0
 49
1.0
 74
     0
 49
-1.0
 74
     0
 49
1.0
 74
     0
 49
-1.0
 74
     0
  0
LTYPE
  5
6A
330
5
100
AcDbSymbolTableRecord
100
AcDbLinetypeTableRecord
  2
ACDINTGL
 70
     0
  3
_ _ _ _ _
 72
    65
 73
     2
 40
3.0
 49
2.0
 74
     0
 49
-1.0
 74
     0
  0
LTYPE
  5
6C
330
5
100
AcDbSymbolTableRecord
100
AcDbLinetypeTableRecord
  2
CENTER
 70
     0
  3
__ . __
 72
    65
 73
     4
 40
7.0
 49
4.0
 74
     0
 49
-1.0
 74
     0
 49
1.0
 74
     0
 49
-1.0
 74
     0
  0
LTYPE
  5
F2
330
5
100
AcDbSymbolTableRecord
100
AcDbLinetypeTableRecord
  2
HIDDEN
 70
     0
  3
Hidden __ __ __ __ __ __ __ __ __ __ __ __ __ _
 72
    65
 73
     2
 40
9.524999999999998
 49
6.349999999999999
 74
     0
 49
-3.174999999999999
 74
     0
  0
LTYPE
  5
F3
330
5
100
AcDbSymbolTableRecord
100
AcDbLinetypeTableRecord
  2
PHANTOM2
 70
     0
  3
Phantom (.5x) ___ _ _ ___ _ _ ___ _ _ ___ _ _
 72
    65
 73
     6
 40
31.75
 49
15.875
 74
     0
 49
-3.174999999999999
 74
     0
 49
3.174999999999999
 74
     0
 49
-3.174999999999999
 74
     0
 49
3.174999999999999
 74
     0
 49
-3.174999999999999
 74
     0
  0
LTYPE
  5
373
330
5
100
AcDbSymbolTableRecord
100
AcDbLinetypeTableRecord
  2
MITTE
 70
     0
  3
Mitte ____ _ ____ _ ____ _ ____
 72
    65
 73
     4
 40
50.8
 49
31.75
 74
     0
 49
-6.349999999999999
 74
     0
 49
6.349999999999999
 74
     0
 49
-6.349999999999999
 74
     0
  0
LTYPE
  5
374
330
5
100
AcDbSymbolTableRecord
100
AcDbLinetypeTableRecord
  2
AUSGEZOGEN
 70
     0
  3
_______________________________________________
 72
    65
 73
     0
 40
0.0
  0
ENDTAB
  0
TABLE
  2
LAYER
  5
2
102
{ACAD_XDICTIONARY
360
C0
102
}
330
0
100
AcDbSymbolTable
 70
    10
  0
LAYER
  5
10
330
2
100
AcDbSymbolTableRecord
100
AcDbLayerTableRecord
  2
0
 70
     0
 62
     7
  6
Continuous
370
    -3
390
F
  0
LAYER
  5
82
330
2
100
AcDbSymbolTableRecord
100
AcDbLayerTableRecord
  2
AM_0
 70
     0
 62
     7
  6
Continuous
370
    50
390
F
1001
AcAecLayerStandard
1000

1000

  0
LAYER
  5
375
330
2
100
AcDbSymbolTableRecord
100
AcDbLayerTableRecord
  2
AM_7
 70
     0
 62
     4
  6
AM_DIN_G_W050
370
    25
390
F
  0
LAYER
  5
376
330
2
100
AcDbSymbolTableRecord
100
AcDbLayerTableRecord
  2
DEFPOINTS
 70
     0
 62
     7
  6
Continuous
290
     0
370
    -3
390
F
  0
LAYER
  5
377
330
2
100
AcDbSymbolTableRecord
100
AcDbLayerTableRecord
  2
406
 70
     0
 62
     7
  6
Continuous
370
    -3
390
F
  0
LAYER
  5
378
330
2
100
AcDbSymbolTableRecord
100
AcDbLayerTableRecord
  2
AM_5
 70
     0
 62
     3
  6
Continuous
370
    25
390
F
  0
LAYER
  5
379
330
2
100
AcDbSymbolTableRecord
100
AcDbLayerTableRecord
  2
AM_4
 70
     0
 62
     3
  6
Continuous
370
    25
390
F
  0
LAYER
  5
37A
330
2
100
AcDbSymbolTableRecord
100
AcDbLayerTableRecord
  2
AM_6
 70
     0
 62
     2
  6
Continuous
370
    35
390
F
  0
LAYER
  5
37B
330
2
100
AcDbSymbolTableRecord
100
AcDbLayerTableRecord
  2
4
 70
     0
 62
     3
  6
Continuous
370
    -3
390
F
  0
LAYER
  5
37C
330
2
100
AcDbSymbolTableRecord
100
AcDbLayerTableRecord
  2
AM_3
 70
     0
 62
     6
  6
AM_DIN_F_W050
370
    25
390
F
  0
ENDTAB
  0
TABLE
  2
STYLE
  5
3
330
0
100
AcDbSymbolTable
 70
     8
  0
STYLE
  5
11
330
3
100
AcDbSymbolTableRecord
100
AcDbTextStyleTableRecord
  2
STANDARD
 70
     0
 40
0.0
 41
1.0
 50
0.0
 71
     0
 42
2.5
  3
ISOCP.SHX
  4
bigfont.shx
  0
STYLE
  5
54
330
3
100
AcDbSymbolTableRecord
100
AcDbTextStyleTableRecord
  2

 70
     1
 40
0.0
 41
1.0
 50
0.0
 71
     0
 42
2.5
  3
ltypeshp.shx
  4

  0
STYLE
  5
5B
330
3
100
AcDbSymbolTableRecord
100
AcDbTextStyleTableRecord
  2
ACDINTS
 70
     0
 40
1.0
 41
1.0
 50
0.0
 71
     0
 42
2.5
  3
isocp.shx
  4
bigfont.shx
  0
STYLE
  5
67
330
3
100
AcDbSymbolTableRecord
100
AcDbTextStyleTableRecord
  2
ACDINGDT
 70
     0
 40
0.0
 41
1.0
 50
0.0
 71
     0
 42
2.5
  3
AMGDT
  4
bigfont.shx
  0
STYLE
  5
7E
330
3
100
AcDbSymbolTableRecord
100
AcDbTextStyleTableRecord
  2
USER1
 70
     0
 40
0.0
 41
1.0
 50
0.0
 71
     0
 42
2.5
  3
TXT.SHX
  4
bigfont.shx
  0
STYLE
  5
7F
330
3
100
AcDbSymbolTableRecord
100
AcDbTextStyleTableRecord
  2
USER2
 70
     0
 40
0.0
 41
1.0
 50
0.0
 71
     0
 42
2.5
  3
SIMPLEX.SHX
  4
bigfont.shx
  0
STYLE
  5
80
330
3
100
AcDbSymbolTableRecord
100
AcDbTextStyleTableRecord
  2
USER3
 70
     0
 40
0.0
 41
1.0
 50
0.0
 71
     0
 42
2.5
  3
ITALIC.SHX
  4
bigfont.shx
  0
STYLE
  5
285
330
3
100
AcDbSymbolTableRecord
100
AcDbTextStyleTableRecord
  2

 70
     1
 40
0.0
 41
1.0
 50
0.0
 71
     0
 42
2.5
  3
genltshp.shx
  4

  0
ENDTAB
  0
TABLE
  2
VIEW
  5
6
330
0
100
AcDbSymbolTable
 70
     0
  0
ENDTAB
  0
TABLE
  2
UCS
  5
7
330
0
100
AcDbSymbolTable
 70
     0
  0
ENDTAB
  0
TABLE
  2
APPID
  5
9
330
0
100
AcDbSymbolTable
 70
    19
  0
APPID
  5
12
330
9
100
AcDbSymbolTableRecord
100
AcDbRegAppTableRecord
  2
ACAD
 70
     0
  0
APPID
  5
30
330
9
100
AcDbSymbolTableRecord
100
AcDbRegAppTableRecord
  2
MCAD_NO_VIS
 70
     0
  0
APPID
  5
31
330
9
100
AcDbSymbolTableRecord
100
AcDbRegAppTableRecord
  2
ACAD_TEMP_GRAPHIC
 70
     0
  0
APPID
  5
44
330
9
100
AcDbSymbolTableRecord
100
AcDbRegAppTableRecord
  2
ACATTRIBSERVICES
 70
     0
  0
APPID
  5
108
330
9
100
AcDbSymbolTableRecord
100
AcDbRegAppTableRecord
  2
AD_DRAW
 70
     0
  0
APPID
  5
126
330
9
100
AcDbSymbolTableRecord
100
AcDbRegAppTableRecord
  2
DESIGNERASSEMBLIES
 70
     0
  0
APPID
  5
12A
330
9
100
AcDbSymbolTableRecord
100
AcDbRegAppTableRecord
  2
ACADM_DIM_EDIT
 70
     0
  0
APPID
  5
12B
330
9
100
AcDbSymbolTableRecord
100
AcDbRegAppTableRecord
  2
AMDT_DM_ADJ
 70
     0
  0
APPID
  5
1A4
330
9
100
AcDbSymbolTableRecord
100
AcDbRegAppTableRecord
  2
ACAD_DSTYLE_DIMARC_LENGTH_SYMBOL
 70
     0
  0
APPID
  5
1A5
330
9
100
AcDbSymbolTableRecord
100
AcDbRegAppTableRecord
  2
ACAD_DSTYLE_DIMJOGGED_JOGANGLE_SYMBOL
 70
     0
  0
APPID
  5
22C
330
9
100
AcDbSymbolTableRecord
100
AcDbRegAppTableRecord
  2
AcAecLayerStandard
 70
     0
  0
APPID
  5
380
330
9
100
AcDbSymbolTableRecord
100
AcDbRegAppTableRecord
  2
GENIUS_GENOENT_13
 70
     0
  0
APPID
  5
381
330
9
100
AcDbSymbolTableRecord
100
AcDbRegAppTableRecord
  2
GENIUS_GENODEF_13
 70
     0
  0
APPID
  5
382
330
9
100
AcDbSymbolTableRecord
100
AcDbRegAppTableRecord
  2
GENIUS_GENOLIS_13
 70
     0
  0
APPID
  5
383
330
9
100
AcDbSymbolTableRecord
100
AcDbRegAppTableRecord
  2
GENIUS_GENOREF_13
 70
     0
  0
APPID
  5
384
330
9
100
AcDbSymbolTableRecord
100
AcDbRegAppTableRecord
  2
GENIUS_GENOBJ-N-CEN_13
 70
     0
  0
APPID
  5
385
330
9
100
AcDbSymbolTableRecord
100
AcDbRegAppTableRecord
  2
ACAD_PSEXT
 70
     0
  0
APPID
  5
386
330
9
100
AcDbSymbolTableRecord
100
AcDbRegAppTableRecord
  2
GENIUS_GENCEN_19
 70
     0
  0
APPID
  5
387
330
9
100
AcDbSymbolTableRecord
100
AcDbRegAppTableRecord
  2
GENIUS_GENOBJ-N-CRS_13
 70
     0
  0
ENDTAB
  0
TABLE
  2
DIMSTYLE
  5
A
330
0
100
AcDbSymbolTable
 70
    11
100
AcDbDimStyleTable
 71
     1
340
6F
  0
DIMSTYLE
105
27
330
A
100
AcDbSymbolTableRecord
100
AcDbDimStyleTableRecord
  2
ISO-25
 70
     0
 41
2.5
 42
0.625
 43
3.75
 44
1.25
 73
     0
 74
     0
 77
     1
 78
     8
140
2.5
141
2.5
143
0.03937007874016
147
0.625
171
     3
172
     1
271
     2
272
     2
274
     3
278
    44
283
     0
284
     8
340
11
  0
DIMSTYLE
105
6F
102
{ACAD_REACTORS
330
4B
102
}
330
A
100
AcDbSymbolTableRecord
100
AcDbDimStyleTableRecord
  2
AM_DIN
 70
     0
  4
"
 41
2.5
 42
1.0
 43
10.0
 44
1.0
 47
0.1
 48
0.1
 73
     0
 74
     0
 77
     1
 78
     8
 79
     2
140
3.5
141
0.0
143
0.0393701
146
0.71
147
1.5
172
     1
176
   256
177
   256
178
     2
271
     2
272
     3
274
     4
283
     0
284
     8
340
11
371
    -1
372
    -1
1001
ACAD_DSTYLE_DIMARC_LENGTH_SYMBOL
1070
   379
1070
     0
1001
ACAD_DSTYLE_DIMJOGGED_JOGANGLE_SYMBOL
1070
   384
1040
1.570796326794896
  0
DIMSTYLE
105
70
330
A
100
AcDbSymbolTableRecord
100
AcDbDimStyleTableRecord
  2
AM_DIN$3
 70
     0
  4
"
 41
2.5
 42
1.0
 43
10.0
 44
1.0
 47
0.1
 48
0.1
 73
     0
 77
     1
 78
     8
 79
     2
140
3.5
141
0.0
143
0.0393701
146
0.71
147
1.5
176
   256
177
   256
178
     2
271
     2
272
     3
274
     4
283
     0
284
     8
288
     1
289
     0
340
11
371
    -1
372
    -1
1001
ACAD_DSTYLE_DIMARC_LENGTH_SYMBOL
1070
   379
1070
     0
1001
ACAD_DSTYLE_DIMJOGGED_JOGANGLE_SYMBOL
1070
   384
1040
1.570796326794896
  0
DIMSTYLE
105
71
330
A
100
AcDbSymbolTableRecord
100
AcDbDimStyleTableRecord
  2
AM_DIN$4
 70
     0
  4
"
 41
2.5
 42
1.0
 43
10.0
 44
1.0
 47
0.1
 48
0.1
 73
     0
 77
     1
 78
     8
 79
     2
140
3.5
141
0.0
143
0.0393701
146
0.71
147
1.5
176
   256
177
   256
178
     2
271
     2
272
     3
274
     4
283
     0
284
     8
288
     1
289
     0
340
11
371
    -1
372
    -1
1001
ACAD_DSTYLE_DIMARC_LENGTH_SYMBOL
1070
   379
1070
     0
1001
ACAD_DSTYLE_DIMJOGGED_JOGANGLE_SYMBOL
1070
   384
1040
1.570796326794896
  0
DIMSTYLE
105
72
330
A
100
AcDbSymbolTableRecord
100
AcDbDimStyleTableRecord
  2
AM_DIN$6
 70
     0
  4
"
 41
2.5
 42
1.0
 43
10.0
 44
1.0
 47
0.1
 48
0.1
 73
     0
 74
     0
 78
     8
 79
     2
140
3.5
141
0.0
143
0.0393701
146
0.71
147
1.5
172
     1
176
   256
177
   256
178
     2
271
     2
272
     3
274
     4
283
     0
284
     8
340
11
371
    -1
372
    -1
1001
ACAD_DSTYLE_DIMARC_LENGTH_SYMBOL
1070
   379
1070
     0
1001
ACAD_DSTYLE_DIMJOGGED_JOGANGLE_SYMBOL
1070
   384
1040
1.570796326794896
  0
DIMSTYLE
105
73
330
A
100
AcDbSymbolTableRecord
100
AcDbDimStyleTableRecord
  2
AM_DIN$7
 70
     0
  4
"
 41
2.5
 42
1.0
 43
10.0
 44
1.0
 47
0.1
 48
0.1
 73
     0
 74
     0
 77
     1
 78
     8
 79
     2
140
5.0
141
0.0
143
0.0393701
146
0.71
147
1.5
172
     1
176
   256
177
   256
178
     2
271
     2
272
     3
274
     4
283
     0
284
     8
340
11
371
    -1
372
    -1
1001
ACAD_DSTYLE_DIMARC_LENGTH_SYMBOL
1070
   379
1070
     0
1001
ACAD_DSTYLE_DIMJOGGED_JOGANGLE_SYMBOL
1070
   384
1040
1.570796326794896
  0
DIMSTYLE
105
74
330
A
100
AcDbSymbolTableRecord
100
AcDbDimStyleTableRecord
  2
AM_DIN$SF
 70
     0
  4
"
 41
2.5
 42
1.0
 43
10.0
 44
1.0
 47
0.1
 48
0.1
 73
     0
 74
     0
 75
     1
 76
     1
 77
     1
 78
     8
 79
     2
140
3.5
141
0.0
143
0.0393701
146
0.71
147
1.5
172
     1
176
   256
177
   256
178
     2
271
     2
272
     3
274
     4
283
     0
284
     8
340
11
371
    -1
372
    -1
1001
ACAD_DSTYLE_DIMARC_LENGTH_SYMBOL
1070
   379
1070
     0
1001
ACAD_DSTYLE_DIMJOGGED_JOGANGLE_SYMBOL
1070
   384
1040
1.570796326794896
  0
DIMSTYLE
105
79
330
A
100
AcDbSymbolTableRecord
100
AcDbDimStyleTableRecord
  2
AM_DIN$SH
 70
     0
  4
"
 41
2.5
 42
1.0
 43
10.0
 44
1.0
 47
0.1
 48
0.1
 73
     0
 74
     0
 75
     1
 76
     1
 77
     1
 78
     8
 79
     2
140
3.5
141
0.0
143
0.0393701
144
2.0
146
0.71
147
1.5
172
     1
173
     1
176
   256
177
   256
178
     2
271
     2
272
     3
274
     4
283
     0
284
     8
340
11
343
75
371
    -1
372
    -1
1001
ACAD_DSTYLE_DIMARC_LENGTH_SYMBOL
1070
   379
1070
     0
1001
ACAD_DSTYLE_DIMJOGGED_JOGANGLE_SYMBOL
1070
   384
1040
1.570796326794896
  0
DIMSTYLE
105
37D
330
A
100
AcDbSymbolTableRecord
100
AcDbDimStyleTableRecord
  2
AM_ISO
 70
     0
  4
"
 41
2.5
 42
1.0
 43
10.0
 44
1.0
 47
0.1
 48
0.1
 73
     0
 74
     0
 77
     1
 78
     8
 79
     2
140
3.5
141
0.0
143
0.0393701
146
0.71
147
1.5
172
     1
176
   256
177
   256
178
     2
271
     2
272
     3
274
     4
283
     0
284
     8
340
11
371
    -1
372
    -1
  0
DIMSTYLE
105
37E
330
A
100
AcDbSymbolTableRecord
100
AcDbDimStyleTableRecord
  2
GEN-ISO
 70
     0
  4
"
 40
10.0
 41
2.5
 42
1.0
 43
7.0
 44
1.0
 47
0.1
 48
0.1
 73
     0
 74
     0
 77
     1
 78
     8
140
3.5
141
0.0
143
0.0393701
146
0.71
147
0.6
172
     1
176
     3
177
     3
178
     2
271
     2
272
     2
283
     0
340
11
  0
DIMSTYLE
105
37F
102
{ACAD_REACTORS
330
429
330
412
330
415
330
424
330
440
330
443
330
446
330
44B
330
519
330
51C
330
52B
330
530
330
547
330
54A
330
54D
330
552
102
}
330
A
100
AcDbSymbolTableRecord
100
AcDbDimStyleTableRecord
  2
GEN-ISO$0
 70
     0
  4
"
 40
10.0
 41
2.5
 42
1.0
 43
7.0
 44
1.0
 47
0.1
 48
0.1
 73
     0
 74
     0
 77
     1
 78
     8
140
3.5
141
0.0
143
0.0393701
146
0.71
147
0.6
172
     1
176
     3
177
     3
178
     2
271
     2
272
     2
283
     0
340
11
  0
ENDTAB
  0
TABLE
  2
BLOCK_RECORD
  5
1
330
0
100
AcDbSymbolTable
 70
    20
  0
BLOCK_RECORD
  5
1F
102
{ACAD_XDICTIONARY
360
83
102
}
330
1
100
AcDbSymbolTableRecord
100
AcDbBlockTableRecord
  2
*Model_Space
340
22
  0
BLOCK_RECORD
  5
1B
330
1
100
AcDbSymbolTableRecord
100
AcDbBlockTableRecord
  2
*Paper_Space
340
1E
  0
BLOCK_RECORD
  5
23
330
1
100
AcDbSymbolTableRecord
100
AcDbBlockTableRecord
  2
*Paper_Space0
340
26
  0
BLOCK_RECORD
  5
75
330
1
100
AcDbSymbolTableRecord
100
AcDbBlockTableRecord
  2
GENAXEH
340
0
  0
BLOCK_RECORD
  5
30F
330
1
100
AcDbSymbolTableRecord
100
AcDbBlockTableRecord
  2
*D3
340
0
  0
BLOCK_RECORD
  5
31B
330
1
100
AcDbSymbolTableRecord
100
AcDbBlockTableRecord
  2
*D4
340
0
  0
BLOCK_RECORD
  5
327
330
1
100
AcDbSymbolTableRecord
100
AcDbBlockTableRecord
  2
*D5
340
0
  0
BLOCK_RECORD
  5
333
330
1
100
AcDbSymbolTableRecord
100
AcDbBlockTableRecord
  2
*D6
340
0
  0
BLOCK_RECORD
  5
33F
330
1
100
AcDbSymbolTableRecord
100
AcDbBlockTableRecord
  2
*D7
340
0
  0
BLOCK_RECORD
  5
34D
330
1
100
AcDbSymbolTableRecord
100
AcDbBlockTableRecord
  2
*D8
340
0
  0
BLOCK_RECORD
  5
359
330
1
100
AcDbSymbolTableRecord
100
AcDbBlockTableRecord
  2
*D9
340
0
  0
BLOCK_RECORD
  5
367
330
1
100
AcDbSymbolTableRecord
100
AcDbBlockTableRecord
  2
*D10
340
0
  0
BLOCK_RECORD
  5
592
330
1
100
AcDbSymbolTableRecord
100
AcDbBlockTableRecord
  2
*D12
340
0
  0
BLOCK_RECORD
  5
59E
330
1
100
AcDbSymbolTableRecord
100
AcDbBlockTableRecord
  2
*D13
340
0
  0
BLOCK_RECORD
  5
5AA
330
1
100
AcDbSymbolTableRecord
100
AcDbBlockTableRecord
  2
*D14
340
0
  0
BLOCK_RECORD
  5
5BF
330
1
100
AcDbSymbolTableRecord
100
AcDbBlockTableRecord
  2
*D15
340
0
  0
BLOCK_RECORD
  5
5CB
330
1
100
AcDbSymbolTableRecord
100
AcDbBlockTableRecord
  2
*D16
340
0
  0
BLOCK_RECORD
  5
5D9
330
1
100
AcDbSymbolTableRecord
100
AcDbBlockTableRecord
  2
*D17
340
0
  0
BLOCK_RECORD
  5
5E5
330
1
100
AcDbSymbolTableRecord
100
AcDbBlockTableRecord
  2
*D18
340
0
  0
BLOCK_RECORD
  5
5F3
330
1
100
AcDbSymbolTableRecord
100
AcDbBlockTableRecord
  2
*D19
340
0
  0
ENDTAB
  0
ENDSEC
  0
SECTION
  2
BLOCKS
  0
BLOCK
  5
20
330
1F
100
AcDbEntity
  8
0
100
AcDbBlockBegin
  2
*Model_Space
 70
     0
 10
0.0
 20
0.0
 30
0.0
  3
*Model_Space
  1

  0
ENDBLK
  5
21
330
1F
100
AcDbEntity
  8
0
100
AcDbBlockEnd
  0
BLOCK
  5
1C
330
1B
100
AcDbEntity
 67
     1
  8
0
100
AcDbBlockBegin
  2
*Paper_Space
 70
     0
 10
0.0
 20
0.0
 30
0.0
  3
*Paper_Space
  1

  0
ENDBLK
  5
1D
330
1B
100
AcDbEntity
 67
     1
  8
0
100
AcDbBlockEnd
  0
BLOCK
  5
24
330
23
100
AcDbEntity
 67
     1
  8
0
100
AcDbBlockBegin
  2
*Paper_Space0
 70
     0
 10
0.0
 20
0.0
 30
0.0
  3
*Paper_Space0
  1

  0
ENDBLK
  5
25
330
23
100
AcDbEntity
 67
     1
  8
0
100
AcDbBlockEnd
  0
BLOCK
  5
77
330
75
100
AcDbEntity
  8
0
100
AcDbBlockBegin
  2
GENAXEH
 70
     0
 10
0.0
 20
0.0
 30
0.0
  3
GENAXEH
  1

  0
LINE
  5
76
330
75
100
AcDbEntity
  8
0
100
AcDbLine
 10
-1.0
 20
0.0
 30
0.0
 11
1.0
 21
0.0
 31
0.0
  0
ENDBLK
  5
78
330
75
100
AcDbEntity
  8
0
100
AcDbBlockEnd
  0
BLOCK
  5
310
330
30F
100
AcDbEntity
  8
0
100
AcDbBlockBegin
  2
*D3
 70
     1
 10
0.0
 20
0.0
 30
0.0
  3
*D3
  1

  0
LINE
  5
311
330
30F
100
AcDbEntity
  8
AM_5
 62
     3
370
    -2
100
AcDbLine
 10
-19054.68378410427
 20
2197.763395187311
 30
0.0
 11
-19054.68378410427
 21
2292.412366893682
 31
0.0
  0
LINE
  5
312
330
30F
100
AcDbEntity
  8
AM_5
 62
     3
370
    -2
100
AcDbLine
 10
-18670.68378410428
 20
2197.763395187299
 30
0.0
 11
-18670.68378410428
 21
2292.412366893682
 31
0.0
  0
LINE
  5
313
330
30F
100
AcDbEntity
  8
AM_5
 62
     3
370
    -2
100
AcDbLine
 10
-19029.68378410427
 20
2282.412366893682
 30
0.0
 11
-18695.68378410428
 21
2282.412366893682
 31
0.0
  0
SOLID
  5
314
330
30F
100
AcDbEntity
  8
AM_5
 62
     3
100
AcDbTrace
 10
-19029.68378410427
 20
2286.579033560349
 30
0.0
 11
-19029.68378410427
 21
2278.245700227016
 31
0.0
 12
-19054.68378410427
 22
2282.412366893682
 32
0.0
 13
-19054.68378410427
 23
2282.412366893682
 33
0.0
  0
SOLID
  5
315
330
30F
100
AcDbEntity
  8
AM_5
 62
     3
100
AcDbTrace
 10
-18695.68378410428
 20
2286.579033560349
 30
0.0
 11
-18695.68378410428
 21
2278.245700227016
 31
0.0
 12
-18670.68378410428
 22
2282.412366893682
 32
0.0
 13
-18670.68378410428
 23
2282.412366893682
 33
0.0
  0
MTEXT
  5
316
330
30F
100
AcDbEntity
  8
AM_5
 62
     2
100
AcDbMText
 10
-18862.68378410428
 20
2305.912366893682
 30
0.0
 40
35.0
 41
0.0
 71
     5
 72
     1
  1
%%c384
 73
     1
 44
1.0
1001
ACAD
1000
MTEXTBEGIN
1070
    73
1070
     1
1070
    44
1040
1.0
1070
    74
1070
     0
1000
MTEXTEND
  0
POINT
  5
317
330
30F
100
AcDbEntity
  8
DEFPOINTS
 62
     0
100
AcDbPoint
 10
-19054.68378410427
 20
2187.763395187312
 30
0.0
  0
POINT
  5
318
330
30F
100
AcDbEntity
  8
DEFPOINTS
 62
     0
100
AcDbPoint
 10
-18670.68378410428
 20
2187.763395187299
 30
0.0
  0
POINT
  5
319
330
30F
100
AcDbEntity
  8
DEFPOINTS
 62
     0
100
AcDbPoint
 10
-18670.68378410428
 20
2282.412366893682
 30
0.0
  0
ENDBLK
  5
31A
330
30F
100
AcDbEntity
  8
0
100
AcDbBlockEnd
  0
BLOCK
  5
31C
330
31B
100
AcDbEntity
  8
0
100
AcDbBlockBegin
  2
*D4
 70
     1
 10
0.0
 20
0.0
 30
0.0
  3
*D4
  1

  0
LINE
  5
31D
330
31B
100
AcDbEntity
  8
AM_5
 62
     3
370
    -2
100
AcDbLine
 10
-19173.62106810542
 20
2102.768691917889
 30
0.0
 11
-19233.62106910542
 21
2102.768691917889
 31
0.0
  0
LINE
  5
31E
330
31B
100
AcDbEntity
  8
AM_5
 62
     3
370
    -2
100
AcDbLine
 10
-19049.66965062727
 20
1957.7633951873
 30
0.0
 11
-19233.62106910542
 21
1957.7633951873
 31
0.0
  0
LINE
  5
31F
330
31B
100
AcDbEntity
  8
AM_5
 62
     3
370
    -2
100
AcDbLine
 10
-19223.62106910542
 20
2077.768691917889
 30
0.0
 11
-19223.62106910542
 21
1982.7633951873
 31
0.0
  0
SOLID
  5
320
330
31B
100
AcDbEntity
  8
AM_5
 62
     3
100
AcDbTrace
 10
-19227.78773577208
 20
2077.768691917889
 30
0.0
 11
-19219.45440243875
 21
2077.768691917889
 31
0.0
 12
-19223.62106910542
 22
2102.768691917889
 32
0.0
 13
-19223.62106910542
 23
2102.768691917889
 33
0.0
  0
SOLID
  5
321
330
31B
100
AcDbEntity
  8
AM_5
 62
     3
100
AcDbTrace
 10
-19227.78773577208
 20
1982.7633951873
 30
0.0
 11
-19219.45440243875
 21
1982.7633951873
 31
0.0
 12
-19223.62106910542
 22
1957.7633951873
 32
0.0
 13
-19223.62106910542
 23
1957.7633951873
 33
0.0
  0
MTEXT
  5
322
330
31B
100
AcDbEntity
  8
AM_5
 62
     2
100
AcDbMText
 10
-19247.12106910542
 20
2030.266043552591
 30
0.0
 40
35.0
 41
0.0
 71
     5
 72
     1
  1
145
 11
0.0000000000000001
 21
1.0
 31
0.0
 73
     1
 44
1.0
1001
ACAD
1000
MTEXTBEGIN
1070
    73
1070
     1
1070
    44
1040
1.0
1070
    74
1070
     0
1000
MTEXTEND
  0
POINT
  5
323
330
31B
100
AcDbEntity
  8
DEFPOINTS
 62
     0
100
AcDbPoint
 10
-19163.62106810542
 20
2102.768691917889
 30
0.0
  0
POINT
  5
324
330
31B
100
AcDbEntity
  8
DEFPOINTS
 62
     0
100
AcDbPoint
 10
-19039.66965062727
 20
1957.7633951873
 30
0.0
  0
POINT
  5
325
330
31B
100
AcDbEntity
  8
DEFPOINTS
 62
     0
100
AcDbPoint
 10
-19223.62106910542
 20
1957.7633951873
 30
0.0
  0
ENDBLK
  5
326
330
31B
100
AcDbEntity
  8
0
100
AcDbBlockEnd
  0
BLOCK
  5
328
330
327
100
AcDbEntity
  8
0
100
AcDbBlockBegin
  2
*D5
 70
     1
 10
0.0
 20
0.0
 30
0.0
  3
*D5
  1

  0
LINE
  5
329
330
327
100
AcDbEntity
  8
AM_5
 62
     3
370
    -2
100
AcDbLine
 10
-18675.66965062727
 20
1957.7633951873
 30
0.0
 11
-18471.6550617043
 21
1957.7633951873
 31
0.0
  0
LINE
  5
32A
330
327
100
AcDbEntity
  8
AM_5
 62
     3
370
    -2
100
AcDbLine
 10
-18679.68378410429
 20
2197.763395187299
 30
0.0
 11
-18471.6550617043
 21
2197.763395187299
 31
0.0
  0
LINE
  5
32B
330
327
100
AcDbEntity
  8
AM_5
 62
     3
370
    -2
100
AcDbLine
 10
-18481.6550617043
 20
1982.7633951873
 30
0.0
 11
-18481.6550617043
 21
2172.763395187299
 31
0.0
  0
SOLID
  5
32C
330
327
100
AcDbEntity
  8
AM_5
 62
     3
100
AcDbTrace
 10
-18485.82172837097
 20
1982.7633951873
 30
0.0
 11
-18477.48839503763
 21
1982.7633951873
 31
0.0
 12
-18481.6550617043
 22
1957.7633951873
 32
0.0
 13
-18481.6550617043
 23
1957.7633951873
 33
0.0
  0
SOLID
  5
32D
330
327
100
AcDbEntity
  8
AM_5
 62
     3
100
AcDbTrace
 10
-18485.82172837097
 20
2172.763395187299
 30
0.0
 11
-18477.48839503763
 21
2172.763395187299
 31
0.0
 12
-18481.6550617043
 22
2197.763395187299
 32
0.0
 13
-18481.6550617043
 23
2197.763395187299
 33
0.0
  0
MTEXT
  5
32E
330
327
100
AcDbEntity
  8
AM_5
 62
     2
100
AcDbMText
 10
-18505.1550617043
 20
2077.763395187296
 30
0.0
 40
35.0
 41
0.0
 71
     5
 72
     1
  1
190
 11
0.0000000000000001
 21
1.0
 31
0.0
 73
     1
 44
1.0
1001
ACAD
1000
MTEXTBEGIN
1070
    73
1070
     1
1070
    44
1040
1.0
1070
    74
1070
     0
1000
MTEXTEND
  0
POINT
  5
32F
330
327
100
AcDbEntity
  8
DEFPOINTS
 62
     0
100
AcDbPoint
 10
-18685.66965062727
 20
1957.7633951873
 30
0.0
  0
POINT
  5
330
330
327
100
AcDbEntity
  8
DEFPOINTS
 62
     0
100
AcDbPoint
 10
-18689.68378410428
 20
2197.763395187299
 30
0.0
  0
POINT
  5
331
330
327
100
AcDbEntity
  8
DEFPOINTS
 62
     0
100
AcDbPoint
 10
-18481.6550617043
 20
2197.763395187299
 30
0.0
  0
ENDBLK
  5
332
330
327
100
AcDbEntity
  8
0
100
AcDbBlockEnd
  0
BLOCK
  5
334
330
333
100
AcDbEntity
  8
0
100
AcDbBlockBegin
  2
*D6
 70
     1
 10
0.0
 20
0.0
 30
0.0
  3
*D6
  1

  0
LINE
  5
335
330
333
100
AcDbEntity
  8
AM_5
 62
     3
370
    -2
100
AcDbLine
 10
-19039.66965062727
 20
1947.7633951873
 30
0.0
 11
-19039.66965062727
 21
1755.828042102997
 31
0.0
  0
LINE
  5
336
330
333
100
AcDbEntity
  8
AM_5
 62
     3
370
    -2
100
AcDbLine
 10
-18685.66965062727
 20
1947.7633951873
 30
0.0
 11
-18685.66965062727
 21
1755.828042102997
 31
0.0
  0
LINE
  5
337
330
333
100
AcDbEntity
  8
AM_5
 62
     3
370
    -2
100
AcDbLine
 10
-19014.66965062727
 20
1765.828042102997
 30
0.0
 11
-18710.66965062727
 21
1765.828042102997
 31
0.0
  0
SOLID
  5
338
330
333
100
AcDbEntity
  8
AM_5
 62
     3
100
AcDbTrace
 10
-19014.66965062727
 20
1769.994708769664
 30
0.0
 11
-19014.66965062727
 21
1761.66137543633
 31
0.0
 12
-19039.66965062727
 22
1765.828042102997
 32
0.0
 13
-19039.66965062727
 23
1765.828042102997
 33
0.0
  0
SOLID
  5
339
330
333
100
AcDbEntity
  8
AM_5
 62
     3
100
AcDbTrace
 10
-18710.66965062727
 20
1769.994708769664
 30
0.0
 11
-18710.66965062727
 21
1761.66137543633
 31
0.0
 12
-18685.66965062727
 22
1765.828042102997
 32
0.0
 13
-18685.66965062727
 23
1765.828042102997
 33
0.0
  0
MTEXT
  5
33A
330
333
100
AcDbEntity
  8
AM_5
 62
     2
100
AcDbMText
 10
-18844.17655673151
 20
1789.328042102997
 30
0.0
 40
35.0
 41
0.0
 71
     5
 72
     1
  1
%%c354
 73
     1
 44
1.0
1001
ACAD
1000
MTEXTBEGIN
1070
    73
1070
     1
1070
    44
1040
1.0
1070
    74
1070
     0
1000
MTEXTEND
  0
POINT
  5
33B
330
333
100
AcDbEntity
  8
DEFPOINTS
 62
     0
100
AcDbPoint
 10
-19039.66965062727
 20
1957.7633951873
 30
0.0
  0
POINT
  5
33C
330
333
100
AcDbEntity
  8
DEFPOINTS
 62
     0
100
AcDbPoint
 10
-18685.66965062727
 20
1957.7633951873
 30
0.0
  0
POINT
  5
33D
330
333
100
AcDbEntity
  8
DEFPOINTS
 62
     0
100
AcDbPoint
 10
-18685.66965062727
 20
1765.828042102997
 30
0.0
  0
ENDBLK
  5
33E
330
333
100
AcDbEntity
  8
0
100
AcDbBlockEnd
  0
BLOCK
  5
340
330
33F
100
AcDbEntity
  8
0
100
AcDbBlockBegin
  2
*D7
 70
     1
 10
0.0
 20
0.0
 30
0.0
  3
*D7
  1

  0
LINE
  5
341
330
33F
100
AcDbEntity
  8
AM_5
 62
     3
370
    -2
100
AcDbLine
 10
-18675.66965062727
 20
1957.7633951873
 30
0.0
 11
-18555.66965062727
 21
1957.7633951873
 31
0.0
  0
LINE
  5
342
330
33F
100
AcDbEntity
  8
AM_5
 62
     3
370
    -2
100
AcDbLine
 10
-18682.66965062728
 20
1912.691966615868
 30
0.0
 11
-18555.66965062727
 21
1912.691966615868
 31
0.0
  0
LINE
  5
343
330
33F
100
AcDbEntity
  8
AM_5
 62
     3
370
    -2
100
AcDbLine
 10
-18565.66965062727
 20
1982.7633951873
 30
0.0
 11
-18565.66965062727
 21
2007.7633951873
 31
0.0
  0
LINE
  5
344
330
33F
100
AcDbEntity
  8
AM_5
 62
     3
370
    -2
100
AcDbLine
 10
-18565.66965062727
 20
1887.691966615869
 30
0.0
 11
-18565.66965062727
 21
1807.242219147563
 31
0.0
  0
LINE
  5
345
330
33F
100
AcDbEntity
  8
AM_5
 62
     3
370
    -2
100
AcDbLine
 10
-18565.66965062727
 20
1957.7633951873
 30
0.0
 11
-18565.66965062727
 21
1912.691966615868
 31
0.0
  0
SOLID
  5
346
330
33F
100
AcDbEntity
  8
AM_5
 62
     3
100
AcDbTrace
 10
-18569.83631729394
 20
1982.7633951873
 30
0.0
 11
-18561.5029839606
 21
1982.7633951873
 31
0.0
 12
-18565.66965062727
 22
1957.7633951873
 32
0.0
 13
-18565.66965062727
 23
1957.7633951873
 33
0.0
  0
SOLID
  5
347
330
33F
100
AcDbEntity
  8
AM_5
 62
     3
100
AcDbTrace
 10
-18569.83631729394
 20
1887.691966615869
 30
0.0
 11
-18561.5029839606
 21
1887.691966615869
 31
0.0
 12
-18565.66965062727
 22
1912.691966615868
 32
0.0
 13
-18565.66965062727
 23
1912.691966615868
 33
0.0
  0
MTEXT
  5
348
330
33F
100
AcDbEntity
  8
AM_5
 62
     2
100
AcDbMText
 10
-18589.16965062727
 20
1834.967092881713
 30
0.0
 40
35.0
 41
0.0
 71
     5
 72
     1
  1
45
 11
0.0000000000000001
 21
1.0
 31
0.0
 73
     1
 44
1.0
1001
ACAD
1000
MTEXTBEGIN
1070
    73
1070
     1
1070
    44
1040
1.0
1070
    74
1070
     0
1000
MTEXTEND
  0
POINT
  5
349
330
33F
100
AcDbEntity
  8
DEFPOINTS
 62
     0
100
AcDbPoint
 10
-18685.66965062727
 20
1957.7633951873
 30
0.0
  0
POINT
  5
34A
330
33F
100
AcDbEntity
  8
DEFPOINTS
 62
     0
100
AcDbPoint
 10
-18692.66965062728
 20
1912.691966615868
 30
0.0
  0
POINT
  5
34B
330
33F
100
AcDbEntity
  8
DEFPOINTS
 62
     0
100
AcDbPoint
 10
-18565.66965062727
 20
1912.691966615868
 30
0.0
  0
ENDBLK
  5
34C
330
33F
100
AcDbEntity
  8
0
100
AcDbBlockEnd
  0
BLOCK
  5
34E
330
34D
100
AcDbEntity
  8
0
100
AcDbBlockBegin
  2
*D8
 70
     1
 10
0.0
 20
0.0
 30
0.0
  3
*D8
  1

  0
LINE
  5
34F
330
34D
100
AcDbEntity
  8
AM_5
 62
     3
370
    -2
100
AcDbLine
 10
-19103.62106810542
 20
2037.768691917888
 30
0.0
 11
-19103.62106810542
 21
1826.419425276626
 31
0.0
  0
LINE
  5
350
330
34D
100
AcDbEntity
  8
AM_5
 62
     3
370
    -2
100
AcDbLine
 10
-19039.66965062727
 20
1947.7633951873
 30
0.0
 11
-19039.66965062727
 21
1826.419425276626
 31
0.0
  0
LINE
  5
351
330
34D
100
AcDbEntity
  8
AM_5
 62
     3
370
    -2
100
AcDbLine
 10
-19078.62106810542
 20
1836.419425276626
 30
0.0
 11
-19064.66965062727
 21
1836.419425276626
 31
0.0
  0
SOLID
  5
352
330
34D
100
AcDbEntity
  8
AM_5
 62
     3
100
AcDbTrace
 10
-19078.62106810542
 20
1840.586091943293
 30
0.0
 11
-19078.62106810542
 21
1832.252758609959
 31
0.0
 12
-19103.62106810542
 22
1836.419425276626
 32
0.0
 13
-19103.62106810542
 23
1836.419425276626
 33
0.0
  0
SOLID
  5
353
330
34D
100
AcDbEntity
  8
AM_5
 62
     3
100
AcDbTrace
 10
-19064.66965062727
 20
1840.586091943293
 30
0.0
 11
-19064.66965062727
 21
1832.252758609959
 31
0.0
 12
-19039.66965062727
 22
1836.419425276626
 32
0.0
 13
-19039.66965062727
 23
1836.419425276626
 33
0.0
  0
MTEXT
  5
354
330
34D
100
AcDbEntity
  8
AM_5
 62
     2
100
AcDbMText
 10
-19071.64535936635
 20
1859.919425276626
 30
0.0
 40
35.0
 41
0.0
 71
     5
 72
     1
  1
63
 73
     1
 44
1.0
1001
ACAD
1000
MTEXTBEGIN
1070
    73
1070
     1
1070
    44
1040
1.0
1070
    74
1070
     0
1000
MTEXTEND
  0
POINT
  5
355
330
34D
100
AcDbEntity
  8
DEFPOINTS
 62
     0
100
AcDbPoint
 10
-19103.62106810542
 20
2047.768691917888
 30
0.0
  0
POINT
  5
356
330
34D
100
AcDbEntity
  8
DEFPOINTS
 62
     0
100
AcDbPoint
 10
-19039.66965062727
 20
1957.7633951873
 30
0.0
  0
POINT
  5
357
330
34D
100
AcDbEntity
  8
DEFPOINTS
 62
     0
100
AcDbPoint
 10
-19039.66965062727
 20
1836.419425276626
 30
0.0
  0
ENDBLK
  5
358
330
34D
100
AcDbEntity
  8
0
100
AcDbBlockEnd
  0
BLOCK
  5
35A
330
359
100
AcDbEntity
  8
0
100
AcDbBlockBegin
  2
*D9
 70
     1
 10
0.0
 20
0.0
 30
0.0
  3
*D9
  1

  0
LINE
  5
35B
330
359
100
AcDbEntity
  8
AM_5
 62
     3
370
    -2
100
AcDbLine
 10
-19029.66965062723
 20
2047.768691917975
 30
0.0
 11
-18978.7006283222
 21
2047.768691917975
 31
0.0
  0
LINE
  5
35C
330
359
100
AcDbEntity
  8
AM_5
 62
     3
370
    -2
100
AcDbLine
 10
-19027.99653997334
 20
1993.259557007739
 30
0.0
 11
-18978.7006283222
 21
1993.259557007739
 31
0.0
  0
LINE
  5
35D
330
359
100
AcDbEntity
  8
AM_5
 62
     3
370
    -2
100
AcDbLine
 10
-18988.7006283222
 20
2072.768691917975
 30
0.0
 11
-18988.7006283222
 21
2097.768691917975
 31
0.0
  0
LINE
  5
35E
330
359
100
AcDbEntity
  8
AM_5
 62
     3
370
    -2
100
AcDbLine
 10
-18988.7006283222
 20
1968.259557007739
 30
0.0
 11
-18988.7006283222
 21
1943.259557007739
 31
0.0
  0
LINE
  5
35F
330
359
100
AcDbEntity
  8
AM_5
 62
     3
370
    -2
100
AcDbLine
 10
-18988.7006283222
 20
2047.768691917975
 30
0.0
 11
-18988.7006283222
 21
1993.259557007739
 31
0.0
  0
SOLID
  5
360
330
359
100
AcDbEntity
  8
AM_5
 62
     3
100
AcDbTrace
 10
-18992.86729498887
 20
2072.768691917975
 30
0.0
 11
-18984.53396165554
 21
2072.768691917975
 31
0.0
 12
-18988.7006283222
 22
2047.768691917975
 32
0.0
 13
-18988.7006283222
 23
2047.768691917975
 33
0.0
  0
SOLID
  5
361
330
359
100
AcDbEntity
  8
AM_5
 62
     3
100
AcDbTrace
 10
-18992.86729498887
 20
1968.259557007739
 30
0.0
 11
-18984.53396165554
 21
1968.259557007739
 31
0.0
 12
-18988.7006283222
 22
1993.259557007739
 32
0.0
 13
-18988.7006283222
 23
1993.259557007739
 33
0.0
  0
MTEXT
  5
362
330
359
100
AcDbEntity
  8
AM_5
 62
     2
100
AcDbMText
 10
-19012.20062832221
 20
2020.514124462854
 30
0.0
 40
35.0
 41
0.0
 71
     5
 72
     1
  1
56
 11
0.0000000000000001
 21
1.0
 31
0.0
 73
     1
 44
1.0
1001
ACAD
1000
MTEXTBEGIN
1070
    73
1070
     1
1070
    44
1040
1.0
1070
    74
1070
     0
1000
MTEXTEND
  0
POINT
  5
363
330
359
100
AcDbEntity
  8
DEFPOINTS
 62
     0
100
AcDbPoint
 10
-19039.66965062723
 20
2047.768691917975
 30
0.0
  0
POINT
  5
364
330
359
100
AcDbEntity
  8
DEFPOINTS
 62
     0
100
AcDbPoint
 10
-19037.99653997334
 20
1993.259557007739
 30
0.0
  0
POINT
  5
365
330
359
100
AcDbEntity
  8
DEFPOINTS
 62
     0
100
AcDbPoint
 10
-18988.7006283222
 20
1993.259557007739
 30
0.0
  0
ENDBLK
  5
366
330
359
100
AcDbEntity
  8
0
100
AcDbBlockEnd
  0
BLOCK
  5
368
330
367
100
AcDbEntity
  8
0
100
AcDbBlockBegin
  2
*D10
 70
     1
 10
0.0
 20
0.0
 30
0.0
  3
*D10
  1

  0
LINE
  5
369
330
367
100
AcDbEntity
  8
AM_5
 62
     3
370
    -2
100
AcDbLine
 10
-18772.16965062724
 20
1872.691966615869
 30
0.0
 11
-18772.16965062724
 21
1826.419425276626
 31
0.0
  0
LINE
  5
36A
330
367
100
AcDbEntity
  8
AM_5
 62
     3
370
    -2
100
AcDbLine
 10
-19039.66965062727
 20
1947.7633951873
 30
0.0
 11
-19039.66965062727
 21
1826.419425276626
 31
0.0
  0
LINE
  5
36B
330
367
100
AcDbEntity
  8
AM_5
 62
     3
370
    -2
100
AcDbLine
 10
-18797.16965062724
 20
1836.419425276626
 30
0.0
 11
-19014.66965062727
 21
1836.419425276626
 31
0.0
  0
SOLID
  5
36C
330
367
100
AcDbEntity
  8
AM_5
 62
     3
100
AcDbTrace
 10
-18797.16965062724
 20
1840.586091943293
 30
0.0
 11
-18797.16965062724
 21
1832.252758609959
 31
0.0
 12
-18772.16965062724
 22
1836.419425276626
 32
0.0
 13
-18772.16965062724
 23
1836.419425276626
 33
0.0
  0
SOLID
  5
36D
330
367
100
AcDbEntity
  8
AM_5
 62
     3
100
AcDbTrace
 10
-19014.66965062727
 20
1840.586091943293
 30
0.0
 11
-19014.66965062727
 21
1832.252758609959
 31
0.0
 12
-19039.66965062727
 22
1836.419425276626
 32
0.0
 13
-19039.66965062727
 23
1836.419425276626
 33
0.0
  0
MTEXT
  5
36E
330
367
100
AcDbEntity
  8
AM_5
 62
     2
100
AcDbMText
 10
-18905.91965062726
 20
1859.922870158516
 30
0.0
 40
35.0
 41
0.0
 71
     5
 72
     1
  1
268
 73
     1
 44
1.0
1001
ACAD
1000
MTEXTBEGIN
1070
    73
1070
     1
1070
    44
1040
1.0
1070
    74
1070
     0
1000
MTEXTEND
  0
POINT
  5
36F
330
367
100
AcDbEntity
  8
DEFPOINTS
 62
     0
100
AcDbPoint
 10
-18772.16965062724
 20
1882.69196661587
 30
0.0
  0
POINT
  5
370
330
367
100
AcDbEntity
  8
DEFPOINTS
 62
     0
100
AcDbPoint
 10
-19039.66965062727
 20
1957.7633951873
 30
0.0
  0
POINT
  5
371
330
367
100
AcDbEntity
  8
DEFPOINTS
 62
     0
100
AcDbPoint
 10
-19039.66965062727
 20
1836.419425276626
 30
0.0
  0
ENDBLK
  5
372
330
367
100
AcDbEntity
  8
0
100
AcDbBlockEnd
  0
BLOCK
  5
59C
330
592
100
AcDbEntity
  8
0
100
AcDbBlockBegin
  2
*D12
 70
     1
 10
0.0
 20
0.0
 30
0.0
  3
*D12
  1

  0
LINE
  5
5B6
330
592
100
AcDbEntity
  8
AM_5
 62
     3
370
    -2
100
AcDbLine
 10
1563.986016962603
 20
1554.767860183817
 30
0.0
 11
1563.986016962603
 21
1362.832507099515
 31
0.0
  0
LINE
  5
5B7
330
592
100
AcDbEntity
  8
AM_5
 62
     3
370
    -2
100
AcDbLine
 10
1917.986016962603
 20
1554.767860183817
 30
0.0
 11
1917.986016962603
 21
1362.832507099515
 31
0.0
  0
LINE
  5
5B8
330
592
100
AcDbEntity
  8
AM_5
 62
     3
370
    -2
100
AcDbLine
 10
1588.986016962603
 20
1372.832507099515
 30
0.0
 11
1892.986016962603
 21
1372.832507099515
 31
0.0
  0
SOLID
  5
5B9
330
592
100
AcDbEntity
  8
AM_5
 62
     3
100
AcDbTrace
 10
1588.986016962603
 20
1376.999173766181
 30
0.0
 11
1588.986016962603
 21
1368.665840432848
 31
0.0
 12
1563.986016962603
 22
1372.832507099515
 32
0.0
 13
1563.986016962603
 23
1372.832507099515
 33
0.0
  0
SOLID
  5
5BA
330
592
100
AcDbEntity
  8
AM_5
 62
     3
100
AcDbTrace
 10
1892.986016962603
 20
1376.999173766181
 30
0.0
 11
1892.986016962603
 21
1368.665840432848
 31
0.0
 12
1917.986016962603
 22
1372.832507099515
 32
0.0
 13
1917.986016962603
 23
1372.832507099515
 33
0.0
  0
MTEXT
  5
5BB
330
592
100
AcDbEntity
  8
AM_5
 62
     2
100
AcDbMText
 10
1759.479110858366
 20
1396.332507099514
 30
0.0
 40
35.0
 41
0.0
 71
     5
 72
     1
  1
%%c354
 73
     1
 44
1.0
1001
ACAD
1000
MTEXTBEGIN
1070
    73
1070
     1
1070
    44
1040
1.0
1070
    74
1070
     0
1000
MTEXTEND
  0
POINT
  5
5BC
330
592
100
AcDbEntity
  8
DEFPOINTS
 62
     0
100
AcDbPoint
 10
1563.986016962603
 20
1564.767860183817
 30
0.0
  0
POINT
  5
5BD
330
592
100
AcDbEntity
  8
DEFPOINTS
 62
     0
100
AcDbPoint
 10
1917.986016962603
 20
1564.767860183817
 30
0.0
  0
POINT
  5
5BE
330
592
100
AcDbEntity
  8
DEFPOINTS
 62
     0
100
AcDbPoint
 10
1917.986016962603
 20
1372.832507099515
 30
0.0
  0
ENDBLK
  5
59D
330
592
100
AcDbEntity
  8
0
100
AcDbBlockEnd
  0
BLOCK
  5
5A8
330
59E
100
AcDbEntity
  8
0
100
AcDbBlockBegin
  2
*D13
 70
     1
 10
0.0
 20
0.0
 30
0.0
  3
*D13
  1

  0
LINE
  5
59F
330
59E
100
AcDbEntity
  8
AM_5
 62
     3
370
    -2
100
AcDbLine
 10
1430.03459948446
 20
1709.773156914406
 30
0.0
 11
1370.03459848446
 21
1709.773156914406
 31
0.0
  0
LINE
  5
5A0
330
59E
100
AcDbEntity
  8
AM_5
 62
     3
370
    -2
100
AcDbLine
 10
1553.986016962604
 20
1564.767860183817
 30
0.0
 11
1370.03459848446
 21
1564.767860183818
 31
0.0
  0
LINE
  5
5A1
330
59E
100
AcDbEntity
  8
AM_5
 62
     3
370
    -2
100
AcDbLine
 10
1380.03459848446
 20
1684.773156914406
 30
0.0
 11
1380.03459848446
 21
1589.767860183817
 31
0.0
  0
SOLID
  5
5A2
330
59E
100
AcDbEntity
  8
AM_5
 62
     3
100
AcDbTrace
 10
1375.867931817793
 20
1684.773156914406
 30
0.0
 11
1384.201265151127
 21
1684.773156914406
 31
0.0
 12
1380.03459848446
 22
1709.773156914406
 32
0.0
 13
1380.03459848446
 23
1709.773156914406
 33
0.0
  0
SOLID
  5
5A3
330
59E
100
AcDbEntity
  8
AM_5
 62
     3
100
AcDbTrace
 10
1375.867931817793
 20
1589.767860183817
 30
0.0
 11
1384.201265151127
 21
1589.767860183817
 31
0.0
 12
1380.03459848446
 22
1564.767860183818
 32
0.0
 13
1380.03459848446
 23
1564.767860183818
 33
0.0
  0
MTEXT
  5
5A4
330
59E
100
AcDbEntity
  8
AM_5
 62
     2
100
AcDbMText
 10
1356.534598484459
 20
1637.270508549112
 30
0.0
 40
35.0
 41
0.0
 71
     5
 72
     1
  1
145
 11
0.0000000000000001
 21
1.0
 31
0.0
 73
     1
 44
1.0
1001
ACAD
1000
MTEXTBEGIN
1070
    73
1070
     1
1070
    44
1040
1.0
1070
    74
1070
     0
1000
MTEXTEND
  0
POINT
  5
5A5
330
59E
100
AcDbEntity
  8
DEFPOINTS
 62
     0
100
AcDbPoint
 10
1440.03459948446
 20
1709.773156914406
 30
0.0
  0
POINT
  5
5A6
330
59E
100
AcDbEntity
  8
DEFPOINTS
 62
     0
100
AcDbPoint
 10
1563.986016962603
 20
1564.767860183817
 30
0.0
  0
POINT
  5
5A7
330
59E
100
AcDbEntity
  8
DEFPOINTS
 62
     0
100
AcDbPoint
 10
1380.03459848446
 20
1564.767860183818
 30
0.0
  0
ENDBLK
  5
5A9
330
59E
100
AcDbEntity
  8
0
100
AcDbBlockEnd
  0
BLOCK
  5
5B4
330
5AA
100
AcDbEntity
  8
0
100
AcDbBlockBegin
  2
*D14
 70
     1
 10
0.0
 20
0.0
 30
0.0
  3
*D14
  1

  0
LINE
  5
5AB
330
5AA
100
AcDbEntity
  8
AM_5
 62
     3
370
    -2
100
AcDbLine
 10
1927.986016962604
 20
1564.767860183817
 30
0.0
 11
2132.000605885579
 21
1564.767860183817
 31
0.0
  0
LINE
  5
5AC
330
5AA
100
AcDbEntity
  8
AM_5
 62
     3
370
    -2
100
AcDbLine
 10
1923.971883485591
 20
1804.767860183816
 30
0.0
 11
2132.000605885579
 21
1804.767860183816
 31
0.0
  0
LINE
  5
5AD
330
5AA
100
AcDbEntity
  8
AM_5
 62
     3
370
    -2
100
AcDbLine
 10
2122.000605885579
 20
1589.767860183817
 30
0.0
 11
2122.000605885579
 21
1779.767860183816
 31
0.0
  0
SOLID
  5
5AE
330
5AA
100
AcDbEntity
  8
AM_5
 62
     3
100
AcDbTrace
 10
2117.833939218912
 20
1589.767860183817
 30
0.0
 11
2126.167272552246
 21
1589.767860183817
 31
0.0
 12
2122.000605885579
 22
1564.767860183817
 32
0.0
 13
2122.000605885579
 23
1564.767860183817
 33
0.0
  0
SOLID
  5
5AF
330
5AA
100
AcDbEntity
  8
AM_5
 62
     3
100
AcDbTrace
 10
2117.833939218912
 20
1779.767860183816
 30
0.0
 11
2126.167272552246
 21
1779.767860183816
 31
0.0
 12
2122.000605885579
 22
1804.767860183816
 32
0.0
 13
2122.000605885579
 23
1804.767860183816
 33
0.0
  0
MTEXT
  5
5B0
330
5AA
100
AcDbEntity
  8
AM_5
 62
     2
100
AcDbMText
 10
2098.500605885579
 20
1684.767860183817
 30
0.0
 40
35.0
 41
0.0
 71
     5
 72
     1
  1
190
 11
0.0000000000000001
 21
1.0
 31
0.0
 73
     1
 44
1.0
1001
ACAD
1000
MTEXTBEGIN
1070
    73
1070
     1
1070
    44
1040
1.0
1070
    74
1070
     0
1000
MTEXTEND
  0
POINT
  5
5B1
330
5AA
100
AcDbEntity
  8
DEFPOINTS
 62
     0
100
AcDbPoint
 10
1917.986016962603
 20
1564.767860183817
 30
0.0
  0
POINT
  5
5B2
330
5AA
100
AcDbEntity
  8
DEFPOINTS
 62
     0
100
AcDbPoint
 10
1913.971883485591
 20
1804.767860183816
 30
0.0
  0
POINT
  5
5B3
330
5AA
100
AcDbEntity
  8
DEFPOINTS
 62
     0
100
AcDbPoint
 10
2122.000605885579
 20
1804.767860183816
 30
0.0
  0
ENDBLK
  5
5B5
330
5AA
100
AcDbEntity
  8
0
100
AcDbBlockEnd
  0
BLOCK
  5
5C9
330
5BF
100
AcDbEntity
  8
0
100
AcDbBlockBegin
  2
*D15
 70
     1
 10
0.0
 20
0.0
 30
0.0
  3
*D15
  1

  0
LINE
  5
5C0
330
5BF
100
AcDbEntity
  8
AM_5
 62
     3
370
    -2
100
AcDbLine
 10
1548.971883485602
 20
1804.767860183829
 30
0.0
 11
1548.971883485602
 21
1899.4168318902
 31
0.0
  0
LINE
  5
5C1
330
5BF
100
AcDbEntity
  8
AM_5
 62
     3
370
    -2
100
AcDbLine
 10
1932.971883485595
 20
1804.767860183816
 30
0.0
 11
1932.971883485595
 21
1899.4168318902
 31
0.0
  0
LINE
  5
5C2
330
5BF
100
AcDbEntity
  8
AM_5
 62
     3
370
    -2
100
AcDbLine
 10
1573.971883485602
 20
1889.4168318902
 30
0.0
 11
1907.971883485595
 21
1889.4168318902
 31
0.0
  0
SOLID
  5
5C3
330
5BF
100
AcDbEntity
  8
AM_5
 62
     3
100
AcDbTrace
 10
1573.971883485602
 20
1893.583498556866
 30
0.0
 11
1573.971883485602
 21
1885.250165223533
 31
0.0
 12
1548.971883485602
 22
1889.4168318902
 32
0.0
 13
1548.971883485602
 23
1889.4168318902
 33
0.0
  0
SOLID
  5
5C4
330
5BF
100
AcDbEntity
  8
AM_5
 62
     3
100
AcDbTrace
 10
1907.971883485595
 20
1893.583498556866
 30
0.0
 11
1907.971883485595
 21
1885.250165223533
 31
0.0
 12
1932.971883485595
 22
1889.4168318902
 32
0.0
 13
1932.971883485595
 23
1889.4168318902
 33
0.0
  0
MTEXT
  5
5C5
330
5BF
100
AcDbEntity
  8
AM_5
 62
     2
100
AcDbMText
 10
1740.971883485598
 20
1912.9168318902
 30
0.0
 40
35.0
 41
0.0
 71
     5
 72
     1
  1
%%c384
 73
     1
 44
1.0
1001
ACAD
1000
MTEXTBEGIN
1070
    73
1070
     1
1070
    44
1040
1.0
1070
    74
1070
     0
1000
MTEXTEND
  0
POINT
  5
5C6
330
5BF
100
AcDbEntity
  8
DEFPOINTS
 62
     0
100
AcDbPoint
 10
1548.971883485602
 20
1794.767860183829
 30
0.0
  0
POINT
  5
5C7
330
5BF
100
AcDbEntity
  8
DEFPOINTS
 62
     0
100
AcDbPoint
 10
1932.971883485595
 20
1794.767860183816
 30
0.0
  0
POINT
  5
5C8
330
5BF
100
AcDbEntity
  8
DEFPOINTS
 62
     0
100
AcDbPoint
 10
1932.971883485595
 20
1889.4168318902
 30
0.0
  0
ENDBLK
  5
5CA
330
5BF
100
AcDbEntity
  8
0
100
AcDbBlockEnd
  0
BLOCK
  5
5D7
330
5CB
100
AcDbEntity
  8
0
100
AcDbBlockBegin
  2
*D16
 70
     1
 10
0.0
 20
0.0
 30
0.0
  3
*D16
  1

  0
LINE
  5
5CC
330
5CB
100
AcDbEntity
  8
AM_5
 62
     3
370
    -2
100
AcDbLine
 10
1927.986016962604
 20
1564.767860183817
 30
0.0
 11
2047.986016962604
 21
1564.767860183817
 31
0.0
  0
LINE
  5
5CD
330
5CB
100
AcDbEntity
  8
AM_5
 62
     3
370
    -2
100
AcDbLine
 10
1920.9860169626
 20
1519.696431612386
 30
0.0
 11
2047.986016962604
 21
1519.696431612386
 31
0.0
  0
LINE
  5
5CE
330
5CB
100
AcDbEntity
  8
AM_5
 62
     3
370
    -2
100
AcDbLine
 10
2037.986016962604
 20
1589.767860183817
 30
0.0
 11
2037.986016962604
 21
1614.767860183817
 31
0.0
  0
LINE
  5
5CF
330
5CB
100
AcDbEntity
  8
AM_5
 62
     3
370
    -2
100
AcDbLine
 10
2037.986016962603
 20
1494.696431612386
 30
0.0
 11
2037.986016962603
 21
1414.24668414408
 31
0.0
  0
LINE
  5
5D0
330
5CB
100
AcDbEntity
  8
AM_5
 62
     3
370
    -2
100
AcDbLine
 10
2037.986016962604
 20
1564.767860183817
 30
0.0
 11
2037.986016962603
 21
1519.696431612386
 31
0.0
  0
SOLID
  5
5D1
330
5CB
100
AcDbEntity
  8
AM_5
 62
     3
100
AcDbTrace
 10
2033.819350295937
 20
1589.767860183817
 30
0.0
 11
2042.152683629271
 21
1589.767860183817
 31
0.0
 12
2037.986016962604
 22
1564.767860183817
 32
0.0
 13
2037.986016962604
 23
1564.767860183817
 33
0.0
  0
SOLID
  5
5D2
330
5CB
100
AcDbEntity
  8
AM_5
 62
     3
100
AcDbTrace
 10
2033.819350295937
 20
1494.696431612386
 30
0.0
 11
2042.15268362927
 21
1494.696431612386
 31
0.0
 12
2037.986016962603
 22
1519.696431612386
 32
0.0
 13
2037.986016962603
 23
1519.696431612386
 33
0.0
  0
MTEXT
  5
5D3
330
5CB
100
AcDbEntity
  8
AM_5
 62
     2
100
AcDbMText
 10
2014.486016962603
 20
1441.971557878233
 30
0.0
 40
35.0
 41
0.0
 71
     5
 72
     1
  1
45
 11
0.0000000000000001
 21
1.0
 31
0.0
 73
     1
 44
1.0
1001
ACAD
1000
MTEXTBEGIN
1070
    73
1070
     1
1070
    44
1040
1.0
1070
    74
1070
     0
1000
MTEXTEND
  0
POINT
  5
5D4
330
5CB
100
AcDbEntity
  8
DEFPOINTS
 62
     0
100
AcDbPoint
 10
1917.986016962603
 20
1564.767860183817
 30
0.0
  0
POINT
  5
5D5
330
5CB
100
AcDbEntity
  8
DEFPOINTS
 62
     0
100
AcDbPoint
 10
1910.9860169626
 20
1519.696431612386
 30
0.0
  0
POINT
  5
5D6
330
5CB
100
AcDbEntity
  8
DEFPOINTS
 62
     0
100
AcDbPoint
 10
2037.986016962603
 20
1519.696431612386
 30
0.0
  0
ENDBLK
  5
5D8
330
5CB
100
AcDbEntity
  8
0
100
AcDbBlockEnd
  0
BLOCK
  5
5E3
330
5D9
100
AcDbEntity
  8
0
100
AcDbBlockBegin
  2
*D17
 70
     1
 10
0.0
 20
0.0
 30
0.0
  3
*D17
  1

  0
LINE
  5
5DA
330
5D9
100
AcDbEntity
  8
AM_5
 62
     3
370
    -2
100
AcDbLine
 10
1500.03459948446
 20
1644.773156914405
 30
0.0
 11
1500.03459948446
 21
1433.423890273143
 31
0.0
  0
LINE
  5
5DB
330
5D9
100
AcDbEntity
  8
AM_5
 62
     3
370
    -2
100
AcDbLine
 10
1563.986016962603
 20
1554.767860183817
 30
0.0
 11
1563.986016962603
 21
1433.423890273143
 31
0.0
  0
LINE
  5
5DC
330
5D9
100
AcDbEntity
  8
AM_5
 62
     3
370
    -2
100
AcDbLine
 10
1525.03459948446
 20
1443.423890273144
 30
0.0
 11
1538.986016962603
 21
1443.423890273144
 31
0.0
  0
SOLID
  5
5DD
330
5D9
100
AcDbEntity
  8
AM_5
 62
     3
100
AcDbTrace
 10
1525.03459948446
 20
1447.59055693981
 30
0.0
 11
1525.03459948446
 21
1439.257223606477
 31
0.0
 12
1500.03459948446
 22
1443.423890273144
 32
0.0
 13
1500.03459948446
 23
1443.423890273144
 33
0.0
  0
SOLID
  5
5DE
330
5D9
100
AcDbEntity
  8
AM_5
 62
     3
100
AcDbTrace
 10
1538.986016962603
 20
1447.59055693981
 30
0.0
 11
1538.986016962603
 21
1439.257223606477
 31
0.0
 12
1563.986016962603
 22
1443.423890273144
 32
0.0
 13
1563.986016962603
 23
1443.423890273144
 33
0.0
  0
MTEXT
  5
5DF
330
5D9
100
AcDbEntity
  8
AM_5
 62
     2
100
AcDbMText
 10
1532.010308223532
 20
1466.923890273143
 30
0.0
 40
35.0
 41
0.0
 71
     5
 72
     1
  1
63
 73
     1
 44
1.0
1001
ACAD
1000
MTEXTBEGIN
1070
    73
1070
     1
1070
    44
1040
1.0
1070
    74
1070
     0
1000
MTEXTEND
  0
POINT
  5
5E0
330
5D9
100
AcDbEntity
  8
DEFPOINTS
 62
     0
100
AcDbPoint
 10
1500.03459948446
 20
1654.773156914405
 30
0.0
  0
POINT
  5
5E1
330
5D9
100
AcDbEntity
  8
DEFPOINTS
 62
     0
100
AcDbPoint
 10
1563.986016962603
 20
1564.767860183817
 30
0.0
  0
POINT
  5
5E2
330
5D9
100
AcDbEntity
  8
DEFPOINTS
 62
     0
100
AcDbPoint
 10
1563.986016962603
 20
1443.423890273144
 30
0.0
  0
ENDBLK
  5
5E4
330
5D9
100
AcDbEntity
  8
0
100
AcDbBlockEnd
  0
BLOCK
  5
5F1
330
5E5
100
AcDbEntity
  8
0
100
AcDbBlockBegin
  2
*D18
 70
     1
 10
0.0
 20
0.0
 30
0.0
  3
*D18
  1

  0
LINE
  5
5FF
330
5E5
100
AcDbEntity
  8
AM_5
 62
     3
370
    -2
100
AcDbLine
 10
1573.986016962665
 20
1654.773156914513
 30
0.0
 11
1624.955039267689
 21
1654.773156914513
 31
0.0
  0
LINE
  5
600
330
5E5
100
AcDbEntity
  8
AM_5
 62
     3
370
    -2
100
AcDbLine
 10
1575.659127616552
 20
1600.264022004277
 30
0.0
 11
1624.955039267689
 21
1600.264022004277
 31
0.0
  0
LINE
  5
601
330
5E5
100
AcDbEntity
  8
AM_5
 62
     3
370
    -2
100
AcDbLine
 10
1614.955039267689
 20
1679.773156914513
 30
0.0
 11
1614.955039267689
 21
1704.773156914513
 31
0.0
  0
LINE
  5
602
330
5E5
100
AcDbEntity
  8
AM_5
 62
     3
370
    -2
100
AcDbLine
 10
1614.955039267689
 20
1575.264022004277
 30
0.0
 11
1614.955039267689
 21
1550.264022004277
 31
0.0
  0
LINE
  5
603
330
5E5
100
AcDbEntity
  8
AM_5
 62
     3
370
    -2
100
AcDbLine
 10
1614.955039267689
 20
1654.773156914513
 30
0.0
 11
1614.955039267689
 21
1600.264022004277
 31
0.0
  0
SOLID
  5
604
330
5E5
100
AcDbEntity
  8
AM_5
 62
     3
100
AcDbTrace
 10
1610.788372601023
 20
1679.773156914513
 30
0.0
 11
1619.121705934356
 21
1679.773156914513
 31
0.0
 12
1614.955039267689
 22
1654.773156914513
 32
0.0
 13
1614.955039267689
 23
1654.773156914513
 33
0.0
  0
SOLID
  5
605
330
5E5
100
AcDbEntity
  8
AM_5
 62
     3
100
AcDbTrace
 10
1610.788372601023
 20
1575.264022004277
 30
0.0
 11
1619.121705934356
 21
1575.264022004277
 31
0.0
 12
1614.955039267689
 22
1600.264022004277
 32
0.0
 13
1614.955039267689
 23
1600.264022004277
 33
0.0
  0
MTEXT
  5
606
330
5E5
100
AcDbEntity
  8
AM_5
 62
     2
100
AcDbMText
 10
1591.455039267689
 20
1627.518589459396
 30
0.0
 40
35.0
 41
0.0
 71
     5
 72
     1
  1
56
 11
0.0000000000000001
 21
1.0
 31
0.0
 73
     1
 44
1.0
1001
ACAD
1000
MTEXTBEGIN
1070
    73
1070
     1
1070
    44
1040
1.0
1070
    74
1070
     0
1000
MTEXTEND
  0
POINT
  5
607
330
5E5
100
AcDbEntity
  8
DEFPOINTS
 62
     0
100
AcDbPoint
 10
1563.986016962665
 20
1654.773156914513
 30
0.0
  0
POINT
  5
608
330
5E5
100
AcDbEntity
  8
DEFPOINTS
 62
     0
100
AcDbPoint
 10
1565.659127616552
 20
1600.264022004277
 30
0.0
  0
POINT
  5
609
330
5E5
100
AcDbEntity
  8
DEFPOINTS
 62
     0
100
AcDbPoint
 10
1614.955039267689
 20
1600.264022004277
 30
0.0
  0
ENDBLK
  5
5F2
330
5E5
100
AcDbEntity
  8
0
100
AcDbBlockEnd
  0
BLOCK
  5
5FD
330
5F3
100
AcDbEntity
  8
0
100
AcDbBlockBegin
  2
*D19
 70
     1
 10
0.0
 20
0.0
 30
0.0
  3
*D19
  1

  0
LINE
  5
5F4
330
5F3
100
AcDbEntity
  8
AM_5
 62
     3
370
    -2
100
AcDbLine
 10
1831.486016962633
 20
1479.696431612387
 30
0.0
 11
1831.486016962633
 21
1433.423890273143
 31
0.0
  0
LINE
  5
5F5
330
5F3
100
AcDbEntity
  8
AM_5
 62
     3
370
    -2
100
AcDbLine
 10
1563.986016962603
 20
1554.767860183817
 30
0.0
 11
1563.986016962603
 21
1433.423890273143
 31
0.0
  0
LINE
  5
5F6
330
5F3
100
AcDbEntity
  8
AM_5
 62
     3
370
    -2
100
AcDbLine
 10
1806.486016962633
 20
1443.423890273144
 30
0.0
 11
1588.986016962603
 21
1443.423890273144
 31
0.0
  0
SOLID
  5
5F7
330
5F3
100
AcDbEntity
  8
AM_5
 62
     3
100
AcDbTrace
 10
1806.486016962633
 20
1447.59055693981
 30
0.0
 11
1806.486016962633
 21
1439.257223606477
 31
0.0
 12
1831.486016962633
 22
1443.423890273144
 32
0.0
 13
1831.486016962633
 23
1443.423890273144
 33
0.0
  0
SOLID
  5
5F8
330
5F3
100
AcDbEntity
  8
AM_5
 62
     3
100
AcDbTrace
 10
1588.986016962603
 20
1447.59055693981
 30
0.0
 11
1588.986016962603
 21
1439.257223606477
 31
0.0
 12
1563.986016962603
 22
1443.423890273144
 32
0.0
 13
1563.986016962603
 23
1443.423890273144
 33
0.0
  0
MTEXT
  5
5F9
330
5F3
100
AcDbEntity
  8
AM_5
 62
     2
100
AcDbMText
 10
1697.736016962618
 20
1466.927335155033
 30
0.0
 40
35.0
 41
0.0
 71
     5
 72
     1
  1
268
 73
     1
 44
1.0
1001
ACAD
1000
MTEXTBEGIN
1070
    73
1070
     1
1070
    44
1040
1.0
1070
    74
1070
     0
1000
MTEXTEND
  0
POINT
  5
5FA
330
5F3
100
AcDbEntity
  8
DEFPOINTS
 62
     0
100
AcDbPoint
 10
1831.486016962633
 20
1489.696431612387
 30
0.0
  0
POINT
  5
5FB
330
5F3
100
AcDbEntity
  8
DEFPOINTS
 62
     0
100
AcDbPoint
 10
1563.986016962603
 20
1564.767860183817
 30
0.0
  0
POINT
  5
5FC
330
5F3
100
AcDbEntity
  8
DEFPOINTS
 62
     0
100
AcDbPoint
 10
1563.986016962603
 20
1443.423890273144
 30
0.0
  0
ENDBLK
  5
5FE
330
5F3
100
AcDbEntity
  8
0
100
AcDbBlockEnd
  0
ENDSEC
  0
SECTION
  2
ENTITIES
  0
LINE
  5
491
102
{ACAD_REACTORS
330
54F
102
}
330
1F
100
AcDbEntity
  8
AM_3
100
AcDbLine
 10
1740.562722329722
 20
1592.520485024147
 30
0.0
 11
1565.659127616533
 21
1600.264022004255
 31
0.0
  0
LINE
  5
492
330
1F
100
AcDbEntity
  8
AM_3
100
AcDbLine
 10
1740.559893042394
 20
1590.51865113146
 30
0.0
 11
1565.570667925075
 21
1598.265979241201
 31
0.0
  0
LINE
  5
493
330
1F
100
AcDbEntity
  8
AM_3
100
AcDbLine
 10
1915.549118159716
 20
1582.771323021719
 30
0.0
 11
1740.559893042394
 21
1590.51865113146
 31
0.0
  0
LINE
  5
494
330
1F
100
AcDbEntity
  8
AM_3
100
AcDbLine
 10
1915.551947447045
 20
1584.773156914407
 30
0.0
 11
1740.562722329722
 21
1592.520485024147
 31
0.0
  0
LINE
  5
495
330
1F
100
AcDbEntity
  8
0
100
AcDbLine
 10
1551.971883485602
 20
1784.767860183816
 30
0.0
 11
1913.971883485591
 21
1784.767860183816
 31
0.0
1001
ACAD
1000
ASC_BOUNDS
1002
{
1070
    19
1005
0
1005
0
1005
0
1005
0
1002
}
  0
LINE
  5
496
330
1F
100
AcDbEntity
  8
0
100
AcDbLine
 10
1580.288708367635
 20
1794.767860183805
 30
0.0
 11
1548.971883485606
 21
1794.767860183803
 31
0.0
  0
LINE
  5
497
330
1F
100
AcDbEntity
  8
0
100
AcDbLine
 10
1567.963297793251
 20
1804.767860183816
 30
0.0
 11
1740.971883485598
 21
1804.767860183819
 31
0.0
1001
ACAD
1000
ASC_BOUNDS
1002
{
1070
    19
1005
0
1005
0
1005
0
1002
}
  0
LINE
  5
498
330
1F
100
AcDbEntity
  8
0
100
AcDbLine
 10
1548.971883485602
 20
1794.767860183816
 30
0.0
 11
1923.971883485595
 21
1794.767860183816
 31
0.0
  0
LINE
  5
499
330
1F
100
AcDbEntity
  8
0
100
AcDbLine
 10
1548.971883485602
 20
1794.767860183816
 30
0.0
 11
1923.971883485591
 21
1794.767860183816
 31
0.0
  0
LINE
  5
49A
330
1F
100
AcDbEntity
  8
0
100
AcDbLine
 10
1580.288708367635
 20
1794.767860183827
 30
0.0
 11
1548.971883485606
 21
1794.767860183829
 31
0.0
1001
ACAD
1000
ASC_BOUNDS
1002
{
1070
    19
1002
}
  0
LINE
  5
49B
330
1F
100
AcDbEntity
  8
0
100
AcDbLine
 10
1567.751411044649
 20
1784.767860183827
 30
0.0
 11
1564.602138397759
 21
1764.773156914406
 31
0.0
1001
ACAD
1000
ASC_BOUNDS
1002
{
1070
    19
1002
}
  0
ARC
  5
49C
330
1F
100
AcDbEntity
  8
0
100
AcDbCircle
 10
1551.971883485602
 20
1787.767860183827
 30
0.0
 40
3.0
100
AcDbArc
 50
180.0
 51
270.0
1001
ACAD
1000
ASC_BOUNDS
1002
{
1070
    19
1002
}
  0
LINE
  5
49D
102
{ACAD_REACTORS
330
532
102
}
330
1F
100
AcDbEntity
  8
0
100
AcDbLine
 10
1548.971883485602
 20
1794.767860183829
 30
0.0
 11
1548.971883485602
 21
1787.767860183828
 31
0.0
1001
ACAD
1000
ASC_BOUNDS
1002
{
1070
    19
1002
}
  0
LINE
  5
49E
330
1F
100
AcDbEntity
  8
0
100
AcDbLine
 10
1562.971883485602
 20
1794.767860183827
 30
0.0
 11
1558.471883485602
 21
1794.767860183827
 31
0.0
  0
ARC
  5
49F
330
1F
100
AcDbEntity
  8
0
100
AcDbCircle
 10
1551.971883485602
 20
1801.767860183805
 30
0.0
 40
3.0
100
AcDbArc
 50
90.0
 51
180.0
  0
LINE
  5
4A0
330
1F
100
AcDbEntity
  8
0
100
AcDbLine
 10
1548.971883485606
 20
1794.767860183803
 30
0.0
 11
1548.971883485602
 21
1801.767860183803
 31
0.0
  0
LINE
  5
4A1
330
1F
100
AcDbEntity
  8
0
100
AcDbLine
 10
1562.971883485602
 20
1794.767860183805
 30
0.0
 11
1558.471883485602
 21
1794.767860183805
 31
0.0
  0
LINE
  5
4A2
330
1F
100
AcDbEntity
  8
0
100
AcDbLine
 10
1567.971883485602
 20
1804.767860183805
 30
0.0
 11
1551.971883485602
 21
1804.767860183805
 31
0.0
  0
LINE
  5
4A3
330
1F
100
AcDbEntity
  8
0
  6
Continuous
 62
     7
100
AcDbLine
 10
1951.20087586668
 20
1801.551093474165
 30
0.0
 11
1922.942059949862
 21
1720.785480027087
 31
0.0
  0
LINE
  5
4A4
330
1F
100
AcDbEntity
  8
0
  6
Continuous
 62
     7
100
AcDbLine
 10
1953.189933828605
 20
1801.34217142146
 30
0.0
 11
1942.952753246055
 21
1703.87833128718
 31
0.0
  0
LINE
  5
4A5
330
1F
100
AcDbEntity
  8
0
  6
Continuous
 62
     7
100
AcDbLine
 10
1951.20087586668
 20
1801.551093474165
 30
0.0
 11
1940.79570880813
 21
1702.487925584593
 31
0.0
  0
LINE
  5
4A6
330
1F
100
AcDbEntity
  8
0
  6
Continuous
 62
     7
100
AcDbLine
 10
1927.104341060697
 20
1732.68156188152
 30
0.0
 11
1928.332481963115
 21
1744.374168806857
 31
0.0
  0
LINE
  5
4A7
330
1F
100
AcDbEntity
  8
0
  6
Continuous
 62
     7
100
AcDbLine
 10
1942.952753246055
 20
1703.87833128718
 30
0.0
 11
1939.971883485595
 21
1701.956897384038
 31
0.0
  0
CIRCLE
  5
4A8
330
1F
100
AcDbEntity
  8
0
  6
Continuous
 62
     7
100
AcDbCircle
 10
1934.801985823814
 20
1714.061298853385
 30
0.0
 40
2.869338511451267
  0
LINE
  5
4A9
330
1F
100
AcDbEntity
  8
0
  6
Continuous
 62
     7
100
AcDbLine
 10
1939.971883485595
 20
1720.785480027087
 30
0.0
 11
1939.971883485595
 21
1701.386773723077
 31
0.0
  0
LINE
  5
4AA
330
1F
100
AcDbEntity
  8
0
  6
Continuous
 62
     7
100
AcDbLine
 10
1917.971883485595
 20
1720.785480027087
 30
0.0
 11
1917.971883485595
 21
1762.785480027087
 31
0.0
  0
LINE
  5
4AB
330
1F
100
AcDbEntity
  8
0
  6
Continuous
 62
     7
100
AcDbLine
 10
1939.971883485595
 20
1701.386773723077
 30
0.0
 11
1917.971883485595
 21
1701.386773723077
 31
0.0
  0
LINE
  5
4AC
330
1F
100
AcDbEntity
  8
0
  6
Continuous
 62
     7
100
AcDbLine
 10
1939.971883485595
 20
1720.785480027087
 30
0.0
 11
1917.971883485595
 21
1720.785480027087
 31
0.0
  0
LINE
  5
4AD
330
1F
100
AcDbEntity
  8
0
  6
Continuous
 62
     7
100
AcDbLine
 10
1932.474334143825
 20
1748.02936650441
 30
0.0
 11
1935.757210031784
 21
1779.284230882769
 31
0.0
  0
LINE
  5
4AE
330
1F
100
AcDbEntity
  8
0
  6
Continuous
 62
     7
100
AcDbLine
 10
1941.227119427075
 20
1778.70969523783
 30
0.0
 11
1940.37694774505
 21
1770.615572423894
 31
0.0
  0
ARC
  5
4AF
330
1F
100
AcDbEntity
  8
0
  6
Continuous
 62
     7
100
AcDbCircle
 10
1933.449682857669
 20
1800.393513722316
 30
0.0
 40
5.5
100
AcDbArc
 50
354.0038851199492
 51
127.3688441849415
  0
ARC
  5
4B0
330
1F
100
AcDbEntity
  8
0
  6
Continuous
 62
     7
100
AcDbCircle
 10
1933.449682857669
 20
1800.393513722316
 30
0.0
 40
6.5
100
AcDbArc
 50
354.0038851199492
 51
137.7027991339977
  0
LINE
  5
4B1
330
1F
100
AcDbEntity
  8
0
  6
Continuous
 62
     7
100
AcDbLine
 10
1935.757210031784
 20
1779.284230882769
 30
0.0
 11
1936.254474522265
 21
1779.232000369593
 31
0.0
  0
ARC
  5
4B2
330
1F
100
AcDbEntity
  8
0
  6
Continuous
 62
     7
100
AcDbCircle
 10
1936.411166061792
 20
1780.723793841038
 30
0.0
 40
1.5
100
AcDbArc
 50
264.0038851199492
 51
354.0038851199492
  0
ARC
  5
4B3
330
1F
100
AcDbEntity
  8
0
  6
Continuous
 62
     7
100
AcDbCircle
 10
1941.383810966602
 20
1780.201488709274
 30
0.0
 40
1.5
100
AcDbArc
 50
174.0038851199491
 51
264.0038851199492
  0
LINE
  5
4B4
330
1F
100
AcDbEntity
  8
0
  6
Continuous
 62
     7
100
AcDbLine
 10
1936.908430552273
 20
1780.67156332786
 30
0.0
 11
1937.902959533235
 21
1780.567102301507
 31
0.0
  0
LINE
  5
4B5
330
1F
100
AcDbEntity
  8
0
  6
Continuous
 62
     7
100
AcDbLine
 10
1941.824546482682
 20
1798.7569663966
 30
0.0
 11
1940.83001750172
 21
1798.861427422953
 31
0.0
  0
LINE
  5
4B6
330
1F
100
AcDbEntity
  8
0
  6
Continuous
 62
     7
100
AcDbLine
 10
1939.835488520758
 20
1798.965888449306
 30
0.0
 11
1940.83001750172
 21
1798.861427422953
 31
0.0
  0
LINE
  5
4B7
330
1F
100
AcDbEntity
  8
0
  6
Continuous
 62
     7
100
AcDbLine
 10
1939.892017495159
 20
1780.358180248802
 30
0.0
 11
1941.824546482682
 21
1798.7569663966
 31
0.0
  0
LINE
  5
4B8
330
1F
100
AcDbEntity
  8
0
  6
Continuous
 62
     7
100
AcDbLine
 10
1937.902959533235
 20
1780.567102301507
 30
0.0
 11
1939.914121233923
 21
1799.714517051025
 31
0.0
  0
LINE
  5
4B9
330
1F
100
AcDbEntity
  8
0
  6
Continuous
 62
     7
100
AcDbLine
 10
1936.908430552273
 20
1780.67156332786
 30
0.0
 11
1938.91959225296
 21
1799.818978077377
 31
0.0
  0
LINE
  5
4BA
330
1F
100
AcDbEntity
  8
0
100
AcDbLine
 10
1953.189933828605
 20
1801.34217142146
 30
0.0
 11
1951.20087586668
 21
1801.551093474165
 31
0.0
  0
LINE
  5
4BB
330
1F
100
AcDbEntity
  8
0
  6
Continuous
 62
     7
100
AcDbLine
 10
1928.332481963115
 20
1744.374168806857
 30
0.0
 11
1931.093943650276
 21
1744.084116804757
 31
0.0
  0
LINE
  5
4BC
330
1F
100
AcDbEntity
  8
0
100
AcDbLine
 10
1901.655058603562
 20
1794.767860183816
 30
0.0
 11
1932.971883485591
 21
1794.767860183816
 31
0.0
1001
ACAD
1000
ASC_BOUNDS
1002
{
1070
    19
1002
}
  0
LINE
  5
4BD
330
1F
100
AcDbEntity
  8
4
100
AcDbLine
 10
1598.431697268711
 20
1770.621719535637
 30
0.0
 11
1883.513390544804
 21
1770.618195072662
 31
0.0
  0
LINE
  5
4BE
330
1F
100
AcDbEntity
  8
0
100
AcDbLine
 10
1914.192355926541
 20
1784.767860183815
 30
0.0
 11
1917.965520920798
 21
1762.785480027087
 31
0.0
1001
ACAD
1000
ASC_BOUNDS
1002
{
1070
    19
1002
}
  0
LINE
  5
4BF
330
1F
100
AcDbEntity
  8
0
100
AcDbLine
 10
1913.971883485591
 20
1784.767860183816
 30
0.0
 11
1929.971883485591
 21
1784.767860183816
 31
0.0
1001
ACAD
1000
ASC_BOUNDS
1002
{
1070
    19
1005
0
1002
}
  0
LINE
  5
4C0
330
1F
100
AcDbEntity
  8
0
100
AcDbLine
 10
1918.971883485595
 20
1794.767860183816
 30
0.0
 11
1923.471883485595
 21
1794.767860183816
 31
0.0
  0
LINE
  5
4C1
330
1F
100
AcDbEntity
  8
0
100
AcDbLine
 10
1932.971883485591
 20
1794.767860183816
 30
0.0
 11
1932.971883485591
 21
1787.767860183816
 31
0.0
1001
ACAD
1000
ASC_BOUNDS
1002
{
1070
    19
1002
}
  0
ARC
  5
4C2
330
1F
100
AcDbEntity
  8
0
100
AcDbCircle
 10
1929.971883485591
 20
1787.767860183816
 30
0.0
 40
3.0
100
AcDbArc
 50
270.0
 51
0.0
1001
ACAD
1000
ASC_BOUNDS
1002
{
1070
    19
1002
}
  0
LINE
  5
4C3
330
1F
100
AcDbEntity
  8
0
100
AcDbLine
 10
1901.655058603562
 20
1794.767860183816
 30
0.0
 11
1932.971883485591
 21
1794.767860183816
 31
0.0
  0
LINE
  5
4C4
330
1F
100
AcDbEntity
  8
0
100
AcDbLine
 10
1740.986016962603
 20
1804.767860183817
 30
0.0
 11
1913.971883485591
 21
1804.767860183816
 31
0.0
1001
ACAD
1000
ASC_BOUNDS
1002
{
1070
    19
1005
0
1005
0
1005
0
1002
}
  0
ARC
  5
4C5
330
1F
100
AcDbEntity
  8
0
100
AcDbCircle
 10
1740.971883485602
 20
1825.267860183816
 30
0.0
 40
24.99999999999955
100
AcDbArc
 50
304.9152062475841
 51
235.0847937524159
  0
LINE
  5
4C6
330
1F
100
AcDbEntity
  8
0
100
AcDbLine
 10
1932.971883485595
 20
1794.767860183816
 30
0.0
 11
1932.971883485595
 21
1801.767860183816
 31
0.0
  0
ARC
  5
4C7
330
1F
100
AcDbEntity
  8
0
100
AcDbCircle
 10
1929.971883485595
 20
1801.767860183816
 30
0.0
 40
3.0
100
AcDbArc
 50
0.0
 51
90.0
  0
LINE
  5
4C8
330
1F
100
AcDbEntity
  8
0
100
AcDbLine
 10
1918.971883485595
 20
1794.767860183816
 30
0.0
 11
1923.471883485595
 21
1794.767860183816
 31
0.0
  0
LINE
  5
4C9
330
1F
100
AcDbEntity
  8
0
100
AcDbLine
 10
1913.971883485595
 20
1804.767860183816
 30
0.0
 11
1929.971883485595
 21
1804.767860183816
 31
0.0
  0
ARC
  5
4CA
330
1F
100
AcDbEntity
  8
0
100
AcDbCircle
 10
1740.03459948446
 20
934.199475433545
 30
0.0
 40
186.5
100
AcDbArc
 50
47.99265495469237
 51
131.8453874366424
  0
ARC
  5
4CB
330
1F
100
AcDbEntity
  8
0
100
AcDbCircle
 10
1740.03459948446
 20
934.199475433545
 30
0.0
 40
186.5
100
AcDbArc
 50
227.9926549546924
 51
311.8453874366424
  0
POLYLINE
  5
4CC
330
1F
100
AcDbEntity
  8
0
100
AcDb2dPolyline
 66
     1
 10
0.0
 20
0.0
 30
0.0
  0
VERTEX
  5
4CD
330
4CC
100
AcDbEntity
  8
0
100
AcDbVertex
100
AcDb2dVertex
 10
1869.3028223262
 20
1090.641082953211
 30
0.0
  0
VERTEX
  5
4CE
330
4CC
100
AcDbEntity
  8
0
100
AcDbVertex
100
AcDb2dVertex
 10
1857.603334983886
 20
1078.974619823268
 30
0.0
  0
SEQEND
  5
4CF
330
4CC
100
AcDbEntity
  8
0
  0
POLYLINE
  5
4D0
330
1F
100
AcDbEntity
  8
0
100
AcDb2dPolyline
 66
     1
 10
0.0
 20
0.0
 30
0.0
  0
VERTEX
  5
4D1
330
4D0
100
AcDbEntity
  8
0
100
AcDbVertex
100
AcDb2dVertex
 10
1885.141495823743
 20
1051.358506817304
 30
0.0
  0
VERTEX
  5
4D2
330
4D0
100
AcDbEntity
  8
0
100
AcDbVertex
100
AcDb2dVertex
 10
1896.840983166056
 20
1063.024969947246
 30
0.0
  0
VERTEX
  5
4D3
330
4D0
100
AcDbEntity
  8
0
100
AcDbVertex
100
AcDb2dVertex
 10
1869.3028223262
 20
1090.641082953211
 30
0.0
  0
SEQEND
  5
4D4
330
4D0
100
AcDbEntity
  8
0
  0
ARC
  5
4D5
330
1F
100
AcDbEntity
  8
0
100
AcDbCircle
 10
1740.03459948446
 20
934.199475433545
 30
0.0
 40
186.5
100
AcDbArc
 50
317.9926549545863
 51
41.84538743682686
  0
POLYLINE
  5
4D6
330
1F
100
AcDbEntity
  8
0
100
AcDb2dPolyline
 66
     1
 10
0.0
 20
0.0
 30
0.0
 70
     1
  0
VERTEX
  5
4D7
330
4D6
100
AcDbEntity
  8
0
100
AcDbVertex
100
AcDb2dVertex
 10
1858.308199321828
 20
1066.261413862107
 30
0.0
  0
VERTEX
  5
4D8
330
4D6
100
AcDbEntity
  8
0
100
AcDbVertex
100
AcDb2dVertex
 10
1867.513570323818
 20
1075.440800808725
 30
0.0
  0
VERTEX
  5
4D9
330
4D6
100
AcDbEntity
  8
0
100
AcDbVertex
100
AcDb2dVertex
 10
1881.635704087842
 20
1061.278691574897
 30
0.0
  0
VERTEX
  5
4DA
330
4D6
100
AcDbEntity
  8
0
100
AcDbVertex
100
AcDb2dVertex
 10
1872.430333085856
 20
1052.099304628279
 30
0.0
  0
SEQEND
  5
4DB
330
4D6
100
AcDbEntity
  8
0
  0
POLYLINE
  5
4DC
330
1F
100
AcDbEntity
  8
0
100
AcDb2dPolyline
 66
     1
 10
0.0
 20
0.0
 30
0.0
 70
     1
  0
VERTEX
  5
4DD
330
4DC
100
AcDbEntity
  8
0
100
AcDbVertex
100
AcDb2dVertex
 10
1607.972661055896
 20
1052.473075270915
 30
0.0
  0
VERTEX
  5
4DE
330
4DC
100
AcDbEntity
  8
0
100
AcDbVertex
100
AcDb2dVertex
 10
1598.79327410928
 20
1061.678446272903
 30
0.0
  0
VERTEX
  5
4DF
330
4DC
100
AcDbEntity
  8
0
100
AcDbVertex
100
AcDb2dVertex
 10
1612.955383343108
 20
1075.800580036927
 30
0.0
  0
VERTEX
  5
4E0
330
4DC
100
AcDbEntity
  8
0
100
AcDbVertex
100
AcDb2dVertex
 10
1622.134770289725
 20
1066.595209034942
 30
0.0
  0
SEQEND
  5
4E1
330
4DC
100
AcDbEntity
  8
0
  0
POLYLINE
  5
4E2
330
1F
100
AcDbEntity
  8
0
100
AcDb2dPolyline
 66
     1
 10
0.0
 20
0.0
 30
0.0
  0
VERTEX
  5
4E3
330
4E2
100
AcDbEntity
  8
0
100
AcDbVertex
100
AcDb2dVertex
 10
1622.875568100701
 20
1079.306371772828
 30
0.0
  0
VERTEX
  5
4E4
330
4E2
100
AcDbEntity
  8
0
100
AcDbVertex
100
AcDb2dVertex
 10
1611.209104970759
 20
1091.005859115141
 30
0.0
  0
VERTEX
  5
4E5
330
4E2
100
AcDbEntity
  8
0
100
AcDbVertex
100
AcDb2dVertex
 10
1583.592991964792
 20
1063.467698275286
 30
0.0
  0
SEQEND
  5
4E6
330
4E2
100
AcDbEntity
  8
0
  0
POLYLINE
  5
4E7
330
1F
100
AcDbEntity
  8
0
100
AcDb2dPolyline
 66
     1
 10
0.0
 20
0.0
 30
0.0
  0
VERTEX
  5
4E8
330
4E7
100
AcDbEntity
  8
0
100
AcDbVertex
100
AcDb2dVertex
 10
1583.592991964792
 20
1063.467698275286
 30
0.0
  0
VERTEX
  5
4E9
330
4E7
100
AcDbEntity
  8
0
100
AcDbVertex
100
AcDb2dVertex
 10
1595.259455094735
 20
1051.768210932973
 30
0.0
  0
SEQEND
  5
4EA
330
4E7
100
AcDbEntity
  8
0
  0
POLYLINE
  5
4EB
330
1F
100
AcDbEntity
  8
0
100
AcDb2dPolyline
 66
     1
 10
0.0
 20
0.0
 30
0.0
 70
     1
  0
VERTEX
  5
4EC
330
4EB
100
AcDbEntity
  8
0
100
AcDbVertex
100
AcDb2dVertex
 10
1621.760999647088
 20
802.1375370049831
 30
0.0
  0
VERTEX
  5
4ED
330
4EB
100
AcDbEntity
  8
0
100
AcDbVertex
100
AcDb2dVertex
 10
1612.555628645102
 20
792.9581500583649
 30
0.0
  0
VERTEX
  5
4EE
330
4EB
100
AcDbEntity
  8
0
100
AcDbVertex
100
AcDb2dVertex
 10
1598.433494881078
 20
807.1202592921931
 30
0.0
  0
VERTEX
  5
4EF
330
4EB
100
AcDbEntity
  8
0
100
AcDbVertex
100
AcDb2dVertex
 10
1607.638865883061
 20
816.2996462388115
 30
0.0
  0
SEQEND
  5
4F0
330
4EB
100
AcDbEntity
  8
0
  0
POLYLINE
  5
4F1
330
1F
100
AcDbEntity
  8
0
100
AcDb2dPolyline
 66
     1
 10
0.0
 20
0.0
 30
0.0
  0
VERTEX
  5
4F2
330
4F1
100
AcDbEntity
  8
0
100
AcDbVertex
100
AcDb2dVertex
 10
1594.927703145177
 20
817.0404440497863
 30
0.0
  0
VERTEX
  5
4F3
330
4F1
100
AcDbEntity
  8
0
100
AcDbVertex
100
AcDb2dVertex
 10
1583.228215802864
 20
805.3739809198436
 30
0.0
  0
VERTEX
  5
4F4
330
4F1
100
AcDbEntity
  8
0
100
AcDbVertex
100
AcDb2dVertex
 10
1610.766376642717
 20
777.7578679138792
 30
0.0
  0
SEQEND
  5
4F5
330
4F1
100
AcDbEntity
  8
0
  0
POLYLINE
  5
4F6
330
1F
100
AcDbEntity
  8
0
100
AcDb2dPolyline
 66
     1
 10
0.0
 20
0.0
 30
0.0
  0
VERTEX
  5
4F7
330
4F6
100
AcDbEntity
  8
0
100
AcDbVertex
100
AcDb2dVertex
 10
1610.766376642717
 20
777.7578679138792
 30
0.0
  0
VERTEX
  5
4F8
330
4F6
100
AcDbEntity
  8
0
100
AcDbVertex
100
AcDb2dVertex
 10
1622.46586398503
 20
789.4243310438219
 30
0.0
  0
SEQEND
  5
4F9
330
4F6
100
AcDbEntity
  8
0
  0
POLYLINE
  5
4FA
330
1F
100
AcDbEntity
  8
0
100
AcDb2dPolyline
 66
     1
 10
0.0
 20
0.0
 30
0.0
  0
VERTEX
  5
4FB
330
4FA
100
AcDbEntity
  8
0
100
AcDbVertex
100
AcDb2dVertex
 10
1857.193630868219
 20
789.0925790942624
 30
0.0
  0
VERTEX
  5
4FC
330
4FA
100
AcDbEntity
  8
0
100
AcDbVertex
100
AcDb2dVertex
 10
1868.860093998161
 20
777.3930917519487
 30
0.0
  0
VERTEX
  5
4FD
330
4FA
100
AcDbEntity
  8
0
100
AcDbVertex
100
AcDb2dVertex
 10
1896.476207004124
 20
804.9312525918034
 30
0.0
  0
SEQEND
  5
4FE
330
4FA
100
AcDbEntity
  8
0
  0
POLYLINE
  5
4FF
330
1F
100
AcDbEntity
  8
0
100
AcDb2dPolyline
 66
     1
 10
0.0
 20
0.0
 30
0.0
  0
VERTEX
  5
500
330
4FF
100
AcDbEntity
  8
0
100
AcDbVertex
100
AcDb2dVertex
 10
1896.476207004124
 20
804.9312525918034
 30
0.0
  0
VERTEX
  5
501
330
4FF
100
AcDbEntity
  8
0
100
AcDbVertex
100
AcDb2dVertex
 10
1884.809743874182
 20
816.6307399341171
 30
0.0
  0
SEQEND
  5
502
330
4FF
100
AcDbEntity
  8
0
  0
POLYLINE
  5
503
330
1F
100
AcDbEntity
  8
0
100
AcDb2dPolyline
 66
     1
 10
0.0
 20
0.0
 30
0.0
  0
VERTEX
  5
504
330
503
100
AcDbEntity
  8
0
100
AcDbVertex
100
AcDb2dVertex
 10
1872.09653791302
 20
815.9258755961751
 30
0.0
  0
VERTEX
  5
505
330
503
100
AcDbEntity
  8
0
100
AcDbVertex
100
AcDb2dVertex
 10
1881.27592485964
 20
806.7205045941832
 30
0.0
  0
SEQEND
  5
506
330
503
100
AcDbEntity
  8
0
  0
POLYLINE
  5
507
330
1F
100
AcDbEntity
  8
0
100
AcDb2dPolyline
 66
     1
 10
0.0
 20
0.0
 30
0.0
  0
VERTEX
  5
508
330
507
100
AcDbEntity
  8
0
100
AcDbVertex
100
AcDb2dVertex
 10
1867.113815625812
 20
792.5983708301632
 30
0.0
  0
VERTEX
  5
509
330
507
100
AcDbEntity
  8
0
100
AcDbVertex
100
AcDb2dVertex
 10
1857.934428679192
 20
801.8037418321478
 30
0.0
  0
VERTEX
  5
50A
330
507
100
AcDbEntity
  8
0
100
AcDbVertex
100
AcDb2dVertex
 10
1872.09653791302
 20
815.9258755961751
 30
0.0
  0
SEQEND
  5
50B
330
507
100
AcDbEntity
  8
0
  0
ARC
  5
50C
330
1F
100
AcDbEntity
  8
0
100
AcDbCircle
 10
1740.03459948446
 20
934.199475433545
 30
0.0
 40
186.5
100
AcDbArc
 50
137.9926549545863
 51
221.8453874368269
  0
LINE
  5
50D
330
1F
100
AcDbEntity
  8
0
100
AcDbLine
 10
1867.113815625812
 20
792.598370830156
 30
0.0
 11
1881.27592485964
 21
806.7205045941832
 31
0.0
  0
LINE
  5
50E
330
1F
100
AcDbEntity
  8
0
100
AcDbLine
 10
1563.986016962603
 20
1564.767860183817
 30
0.0
 11
1917.986016962603
 21
1564.767860183817
 31
0.0
  0
LINE
  5
50F
102
{ACAD_REACTORS
330
51E
330
549
102
}
330
1F
100
AcDbEntity
  8
0
100
AcDbLine
 10
1917.986016962603
 20
1564.767860183817
 30
0.0
 11
1917.979200987486
 21
1644.613641937898
 31
0.0
  0
LINE
  5
510
330
1F
100
AcDbEntity
  8
0
100
AcDbLine
 10
1917.979200987486
 20
1644.613641937898
 30
0.0
 11
1917.965520920795
 21
1724.868865900005
 31
0.0
  0
LINE
  5
511
102
{ACAD_REACTORS
330
51B
330
54C
330
554
102
}
330
1F
100
AcDbEntity
  8
0
100
AcDbLine
 10
1563.986016962603
 20
1564.767860183817
 30
0.0
 11
1563.986016962603
 21
1654.773156914407
 31
0.0
  0
CIRCLE
  5
512
330
1F
100
AcDbEntity
  8
0
100
AcDbCircle
 10
1740.03459948446
 20
934.199475433545
 30
0.0
 40
25.0
  0
LINE
  5
513
330
1F
100
AcDbEntity
  8
0
100
AcDbLine
 10
1500.03459948446
 20
1764.773156914406
 30
0.0
 11
1500.03459948446
 21
1654.773156914406
 31
0.0
  0
LINE
  5
514
330
1F
100
AcDbEntity
  8
0
100
AcDbLine
 10
1500.03459948446
 20
1764.773156914406
 30
0.0
 11
1564.602138397759
 21
1764.773156914406
 31
0.0
  0
LINE
  5
515
102
{ACAD_REACTORS
330
54C
102
}
330
1F
100
AcDbEntity
  8
0
100
AcDbLine
 10
1500.03459948446
 20
1654.773156914405
 30
0.0
 11
1563.986016962603
 21
1654.773156914405
 31
0.0
  0
LINE
  5
516
102
{ACAD_REACTORS
330
51B
102
}
330
1F
100
AcDbEntity
  8
AM_7
  6
AM_DIN_G_W050x2
100
AcDbLine
 10
1440.03459948446
 20
1709.773156914406
 30
0.0
 11
1623.986016962603
 21
1709.773156914406
 31
0.0
1001
GENIUS_GENODEF_13
1002
{
1000
HIER
1070
     0
1002
}
1002
{
1000
MANEDIT
1070
     0
1002
}
1002
{
1000
NOSEL
1070
     0
1002
}
1002
{
1000
BEHIND
1070
     0
1002
}
1002
{
1000
OTHER
1070
     0
1002
}
1002
{
1000
REACTOR
1002
}
1001
GENIUS_GENOBJ-N-CEN_13
1002
{
1000
OWNER
1000
GEN
1002
}
1001
GENIUS_GENCEN_19
1002
{
1040
60.0
1002
}
  0
CIRCLE
  5
517
330
1F
100
AcDbEntity
  8
0
100
AcDbCircle
 10
1740.020466007459
 20
934.199475433545
 30
0.0
 40
177.0141334770014
  0
ARC
  5
518
102
{ACAD_REACTORS
330
54F
102
}
330
1F
100
AcDbEntity
  8
0
100
AcDbCircle
 10
1499.079409566354
 20
1710.138431049974
 30
0.0
 40
85.31225740650427
100
AcDbArc
 50
319.5358532477327
 51
39.82231422967535
  0
DIMENSION
  5
519
102
{ACAD_XDICTIONARY
360
51A
102
}
102
{ACAD_REACTORS
330
51B
102
}
330
1F
100
AcDbEntity
  8
AM_5
100
AcDbDimension
  2
*D13
 10
1380.03459848446
 20
1564.767860183818
 30
0.0
 11
1356.534598484459
 21
1637.270508549112
 31
0.0
 70
    32
 71
     5
 42
145.0052967305885
  3
GEN-ISO$0
100
AcDbAlignedDimension
 13
1440.03459948446
 23
1709.773156914406
 33
0.0
 14
1563.986016962603
 24
1564.767860183817
 34
0.0
 50
90.0
100
AcDbRotatedDimension
1001
ACAD
1000
DSTYLE
1002
{
1070
   271
1070
     0
1002
}
  0
DIMENSION
  5
51C
102
{ACAD_XDICTIONARY
360
51D
102
}
102
{ACAD_REACTORS
330
51E
102
}
330
1F
100
AcDbEntity
  8
AM_5
100
AcDbDimension
  2
*D14
 10
2122.000605885579
 20
1804.767860183816
 30
0.0
 11
2098.500605885579
 21
1684.767860183817
 31
0.0
 70
    32
  1
190
 71
     5
 42
239.9999999999987
  3
GEN-ISO$0
100
AcDbAlignedDimension
 13
1917.986016962603
 23
1564.767860183817
 33
0.0
 14
1913.971883485591
 24
1804.767860183816
 34
0.0
 50
90.0
100
AcDbRotatedDimension
1001
ACAD
1000
DSTYLE
1002
{
1070
   271
1070
     0
1002
}
  0
LINE
  5
51F
330
1F
100
AcDbEntity
  8
AM_4
100
AcDbLine
 10
1435.034599484446
 20
1765.891118123126
 30
0.0
 11
1435.034599484446
 21
1653.655195705407
 31
0.0
  0
LINE
  5
520
330
1F
100
AcDbEntity
  8
AM_4
100
AcDbLine
 10
1490.034599484445
 20
1649.773156914405
 30
0.0
 11
1490.034599484475
 21
1769.773156914408
 31
0.0
  0
LINE
  5
521
330
1F
100
AcDbEntity
  8
AM_4
100
AcDbLine
 10
1435.034599484446
 20
1653.655195705407
 30
0.0
 11
1435.034599484446
 21
1649.773156914463
 31
0.0
  0
LINE
  5
522
330
1F
100
AcDbEntity
  8
AM_4
100
AcDbLine
 10
1435.034599484446
 20
1649.773156914471
 30
0.0
 11
1490.034599484445
 21
1649.773156914405
 31
0.0
  0
LINE
  5
523
330
1F
100
AcDbEntity
  8
AM_4
100
AcDbLine
 10
1435.034599484446
 20
1791.030082820459
 30
0.0
 11
1435.034599484446
 21
1765.891118123126
 31
0.0
  0
LWPOLYLINE
  5
524
330
1F
100
AcDbEntity
  8
AM_4
100
AcDbPolyline
 90
        6
 70
     1
 43
0.0
 10
1448.787376234176
 20
1773.901619867432
 10
1452.54015298391
 20
1780.401619867432
 10
1448.787376234176
 20
1786.901619867431
 10
1441.281822734711
 20
1786.901619867431
 10
1437.529045984977
 20
1780.401619867432
 10
1441.281822734715
 20
1773.901619867432
  0
CIRCLE
  5
525
330
1F
100
AcDbEntity
  8
AM_4
100
AcDbCircle
 10
1445.034599484445
 20
1780.401619867432
 30
0.0
 40
6.5
  0
LWPOLYLINE
  5
526
330
1F
100
AcDbEntity
  8
AM_4
100
AcDbPolyline
 90
        6
 70
     1
 43
0.0
 10
1483.787376234176
 20
1773.901619867373
 10
1487.54015298391
 20
1780.401619867373
 10
1483.787376234176
 20
1786.901619867373
 10
1476.281822734711
 20
1786.901619867373
 10
1472.529045984977
 20
1780.401619867373
 10
1476.281822734715
 20
1773.901619867373
  0
CIRCLE
  5
527
330
1F
100
AcDbEntity
  8
AM_4
100
AcDbCircle
 10
1480.034599484445
 20
1780.401619867373
 30
0.0
 40
6.5
  0
LINE
  5
528
330
1F
100
AcDbEntity
  8
AM_4
100
AcDbLine
 10
1435.034599484446
 20
1769.773156914346
 30
0.0
 11
1490.034599484445
 21
1769.773156914404
 31
0.0
  0
LINE
  5
529
330
1F
100
AcDbEntity
  8
AM_4
100
AcDbLine
 10
1490.034599484445
 20
1791.030082820459
 30
0.0
 11
1435.034599484446
 21
1791.030082820459
 31
0.0
  0
LINE
  5
52A
330
1F
100
AcDbEntity
  8
AM_4
100
AcDbLine
 10
1490.034599484445
 20
1769.773156914404
 30
0.0
 11
1490.034599484416
 21
1791.030082820459
 31
0.0
  0
DIMENSION
  5
52B
330
1F
100
AcDbEntity
  8
AM_5
100
AcDbDimension
  2
*D12
 10
1917.986016962603
 20
1372.832507099515
 30
0.0
 11
1759.479110858366
 21
1372.832507099515
 31
0.0
 70
   160
  1
%%c<>
 71
     5
 42
354.0
  3
GEN-ISO$0
100
AcDbAlignedDimension
 13
1563.986016962603
 23
1564.767860183817
 33
0.0
 14
1917.986016962603
 24
1564.767860183817
 34
0.0
100
AcDbRotatedDimension
1001
ACAD
1000
DSTYLE
1002
{
1070
   271
1070
     0
1002
}
  0
LINE
  5
52C
330
1F
100
AcDbEntity
  8
AM_7
100
AcDbLine
 10
1740.020466007459
 20
934.199475433545
 30
0.0
 11
1947.03459948446
 21
934.199475433545
 31
0.0
1001
GENIUS_GENOREF_13
1005
591
  0
LINE
  5
52D
330
1F
100
AcDbEntity
  8
AM_7
100
AcDbLine
 10
1740.020466007459
 20
934.199475433545
 30
0.0
 11
1740.020466007459
 21
1141.213608910546
 31
0.0
1001
GENIUS_GENOREF_13
1005
591
  0
LINE
  5
52E
330
1F
100
AcDbEntity
  8
AM_7
100
AcDbLine
 10
1740.020466007459
 20
934.199475433545
 30
0.0
 11
1533.006332530457
 21
934.199475433545
 31
0.0
1001
GENIUS_GENOREF_13
1005
591
  0
LINE
  5
52F
330
1F
100
AcDbEntity
  8
AM_7
100
AcDbLine
 10
1740.020466007459
 20
934.199475433545
 30
0.0
 11
1740.020466007459
 21
727.1853419565436
 31
0.0
1001
GENIUS_GENOREF_13
1005
591
  0
DIMENSION
  5
530
102
{ACAD_XDICTIONARY
360
531
102
}
102
{ACAD_REACTORS
330
532
102
}
330
1F
100
AcDbEntity
  8
AM_5
100
AcDbDimension
  2
*D15
 10
1932.971883485595
 20
1889.4168318902
 30
0.0
 11
1740.971883485598
 21
1912.9168318902
 31
0.0
 70
    32
  1
%%c<>
 71
     5
 42
383.9999999999927
  3
GEN-ISO$0
100
AcDbAlignedDimension
 13
1548.971883485602
 23
1794.767860183829
 33
0.0
 14
1932.971883485595
 24
1794.767860183816
 34
0.0
100
AcDbRotatedDimension
1001
ACAD
1000
DSTYLE
1002
{
1070
   271
1070
     0
1002
}
  0
LINE
  5
533
330
1F
100
AcDbEntity
  8
0
100
AcDbLine
 10
1500.034599484464
 20
989.1994754335451
 30
0.0
 11
1500.034599484464
 21
879.1994754335451
 31
0.0
  0
LINE
  5
534
330
1F
100
AcDbEntity
  8
AM_4
100
AcDbLine
 10
1435.034599484449
 20
990.3174366422645
 30
0.0
 11
1435.034599484449
 21
878.0815142245456
 31
0.0
  0
LINE
  5
535
330
1F
100
AcDbEntity
  8
AM_4
100
AcDbLine
 10
1490.034599484449
 20
874.1994754335436
 30
0.0
 11
1490.034599484478
 21
994.1994754335464
 31
0.0
  0
LINE
  5
536
330
1F
100
AcDbEntity
  8
AM_4
100
AcDbLine
 10
1435.034599484449
 20
878.0815142245456
 30
0.0
 11
1435.034599484449
 21
874.1994754336019
 31
0.0
  0
LINE
  5
537
330
1F
100
AcDbEntity
  8
AM_4
100
AcDbLine
 10
1435.034599484449
 20
874.1994754336092
 30
0.0
 11
1490.034599484449
 21
874.1994754335436
 31
0.0
  0
LINE
  5
538
330
1F
100
AcDbEntity
  8
AM_4
100
AcDbLine
 10
1435.034599484449
 20
1015.456401339597
 30
0.0
 11
1435.034599484449
 21
990.3174366422645
 31
0.0
  0
LWPOLYLINE
  5
539
330
1F
100
AcDbEntity
  8
AM_4
100
AcDbPolyline
 90
        6
 70
     1
 43
0.0
 10
1448.78737623418
 20
998.3279383865701
 10
1452.540152983913
 20
1004.82793838657
 10
1448.78737623418
 20
1011.32793838657
 10
1441.281822734715
 20
1011.32793838657
 10
1437.529045984981
 20
1004.82793838657
 10
1441.281822734719
 20
998.3279383865701
  0
CIRCLE
  5
53A
330
1F
100
AcDbEntity
  8
AM_4
100
AcDbCircle
 10
1445.034599484449
 20
1004.82793838657
 30
0.0
 40
6.5
  0
LWPOLYLINE
  5
53B
330
1F
100
AcDbEntity
  8
AM_4
100
AcDbPolyline
 90
        6
 70
     1
 43
0.0
 10
1483.78737623418
 20
998.327938386512
 10
1487.540152983914
 20
1004.827938386512
 10
1483.78737623418
 20
1011.327938386512
 10
1476.281822734715
 20
1011.327938386512
 10
1472.529045984981
 20
1004.827938386512
 10
1476.281822734719
 20
998.327938386512
  0
CIRCLE
  5
53C
330
1F
100
AcDbEntity
  8
AM_4
100
AcDbCircle
 10
1480.034599484449
 20
1004.827938386512
 30
0.0
 40
6.5
  0
LINE
  5
53D
330
1F
100
AcDbEntity
  8
AM_4
100
AcDbLine
 10
1435.034599484449
 20
994.1994754334846
 30
0.0
 11
1490.034599484449
 21
994.1994754335429
 31
0.0
  0
LINE
  5
53E
330
1F
100
AcDbEntity
  8
AM_4
100
AcDbLine
 10
1490.034599484449
 20
1015.456401339597
 30
0.0
 11
1435.034599484449
 21
1015.456401339597
 31
0.0
  0
LINE
  5
53F
330
1F
100
AcDbEntity
  8
AM_4
100
AcDbLine
 10
1490.034599484449
 20
994.1994754335429
 30
0.0
 11
1490.03459948442
 21
1015.456401339597
 31
0.0
  0
LINE
  5
540
330
1F
100
AcDbEntity
  8
0
100
AcDbLine
 10
1500.034599484464
 20
989.1994754335451
 30
0.0
 11
1561.828959843063
 21
989.1994754335451
 31
0.0
  0
LINE
  5
541
330
1F
100
AcDbEntity
  8
0
100
AcDbLine
 10
1500.034599484464
 20
879.1994754335451
 30
0.0
 11
1561.828959843063
 21
879.1994754335451
 31
0.0
  0
LINE
  5
542
330
1F
100
AcDbEntity
  8
0
100
AcDbLine
 10
1910.9860169626
 20
1519.696431612386
 30
0.0
 11
1751.986016962655
 21
1519.696431612388
 31
0.0
  0
LINE
  5
543
330
1F
100
AcDbEntity
  8
0
100
AcDbLine
 10
1751.986016962655
 20
1519.696431612388
 30
0.0
 11
1751.986016962655
 21
1564.767860183817
 31
0.0
  0
LINE
  5
544
102
{ACAD_REACTORS
330
549
102
}
330
1F
100
AcDbEntity
  8
0
100
AcDbLine
 10
1910.9860169626
 20
1519.696431612386
 30
0.0
 11
1910.9860169626
 21
1564.767860183817
 31
0.0
  0
LINE
  5
545
330
1F
100
AcDbEntity
  8
AM_3
100
AcDbLine
 10
1751.986016962655
 20
1564.767860183817
 30
0.0
 11
1751.986016962655
 21
1590.012780378712
 31
0.0
  0
LINE
  5
546
330
1F
100
AcDbEntity
  8
AM_3
100
AcDbLine
 10
1910.9860169626
 20
1564.767860183817
 30
0.0
 11
1910.9860169626
 21
1582.973345987124
 31
0.0
  0
DIMENSION
  5
547
102
{ACAD_XDICTIONARY
360
548
102
}
102
{ACAD_REACTORS
330
549
102
}
330
1F
100
AcDbEntity
  8
AM_5
100
AcDbDimension
  2
*D16
 10
2037.986016962603
 20
1519.696431612386
 30
0.0
 11
2014.486016962603
 21
1441.971557878233
 31
0.0
 70
    32
 71
     5
 42
45.07142857143117
  3
GEN-ISO$0
100
AcDbAlignedDimension
 13
1917.986016962603
 23
1564.767860183817
 33
0.0
 14
1910.9860169626
 24
1519.696431612386
 34
0.0
 50
90.0
100
AcDbRotatedDimension
1001
ACAD
1000
DSTYLE
1002
{
1070
   271
1070
     0
1002
}
  0
DIMENSION
  5
54A
102
{ACAD_XDICTIONARY
360
54B
102
}
102
{ACAD_REACTORS
330
54C
102
}
330
1F
100
AcDbEntity
  8
AM_5
100
AcDbDimension
  2
*D17
 10
1563.986016962603
 20
1443.423890273144
 30
0.0
 11
1532.010308223532
 21
1466.923890273143
 31
0.0
 70
    32
  1
63
 71
     5
 42
63.95141747814341
  3
GEN-ISO$0
100
AcDbAlignedDimension
 13
1500.03459948446
 23
1654.773156914405
 33
0.0
 14
1563.986016962603
 24
1564.767860183817
 34
0.0
100
AcDbRotatedDimension
1001
ACAD
1000
DSTYLE
1002
{
1070
   271
1070
     0
1002
}
  0
DIMENSION
  5
54D
102
{ACAD_XDICTIONARY
360
54E
102
}
102
{ACAD_REACTORS
330
54F
102
}
330
1F
100
AcDbEntity
  8
AM_5
100
AcDbDimension
  2
*D18
 10
1614.955039267689
 20
1600.264022004277
 30
0.0
 11
1591.455039267689
 21
1627.518589459396
 31
0.0
 70
    32
  1
56
 71
     5
 42
54.50913491023652
  3
GEN-ISO$0
100
AcDbAlignedDimension
 13
1563.986016962665
 23
1654.773156914513
 33
0.0
 14
1565.659127616552
 24
1600.264022004277
 34
0.0
 50
90.0
100
AcDbRotatedDimension
1001
ACAD
1000
DSTYLE
1002
{
1070
   271
1070
     0
1002
}
  0
CIRCLE
  5
550
330
1F
100
AcDbEntity
  8
AM_3
100
AcDbCircle
 10
1831.486016962629
 20
934.199475433545
 30
0.0
 40
79.49999999997089
  0
LINE
  5
551
102
{ACAD_REACTORS
330
554
102
}
330
1F
100
AcDbEntity
  8
AM_7
  6
AM_DIN_G_W050x2
100
AcDbLine
 10
1831.486016962633
 20
1489.696431612387
 30
0.0
 11
1831.486016962633
 21
1594.767860183817
 31
0.0
1001
GENIUS_GENOBJ-N-CEN_13
1002
{
1000
OWNER
1000
GEN
1002
}
1001
GENIUS_GENODEF_13
1002
{
1000
HIER
1070
     0
1002
}
1002
{
1000
MANEDIT
1070
     0
1002
}
1002
{
1000
NOSEL
1070
     0
1002
}
1002
{
1000
BEHIND
1070
     0
1002
}
1002
{
1000
OTHER
1070
     0
1002
}
1002
{
1000
REACTOR
1002
}
1001
GENIUS_GENCEN_19
1002
{
1040
30.0
1002
}
  0
DIMENSION
  5
552
102
{ACAD_XDICTIONARY
360
553
102
}
102
{ACAD_REACTORS
330
554
102
}
330
1F
100
AcDbEntity
  8
AM_5
100
AcDbDimension
  2
*D19
 10
1563.986016962603
 20
1443.423890273144
 30
0.0
 11
1697.736016962618
 21
1443.423890273144
 31
0.0
 70
   160
 71
     5
 42
267.5000000000291
  3
GEN-ISO$0
100
AcDbAlignedDimension
 13
1831.486016962633
 23
1489.696431612387
 33
0.0
 14
1563.986016962603
 24
1564.767860183817
 34
0.0
100
AcDbRotatedDimension
1001
ACAD
1000
DSTYLE
1002
{
1070
   271
1070
     0
1002
}
  0
TEXT
  5
555
330
1F
100
AcDbEntity
  8
AM_6
100
AcDbText
 10
1156.169607489376
 20
1801.420861994401
 30
0.0
 40
27.0
  1
Zulauf
100
AcDbText
  0
TEXT
  5
556
330
1F
100
AcDbEntity
  8
AM_6
100
AcDbText
 10
1156.169607489376
 20
1763.920861994401
 30
0.0
 40
27.0
  1
DN 100
100
AcDbText
  0
LINE
  5
557
330
1F
100
AcDbEntity
  8
406
  6
AUSGEZOGEN
 62
     7
100
AcDbLine
 10
1314.007433178142
 20
1707.898156914406
 30
0.0
 11
1314.007433178142
 21
1711.648889334404
 31
0.0
  0
LINE
  5
558
330
1F
100
AcDbEntity
  8
406
  6
AUSGEZOGEN
 62
     7
100
AcDbLine
 10
1312.757433178142
 20
1706.648156914406
 30
0.0
 11
1312.757433178142
 21
1712.898889334404
 31
0.0
  0
LINE
  5
559
330
1F
100
AcDbEntity
  8
406
  6
AUSGEZOGEN
 62
     7
100
AcDbLine
 10
1311.507433178142
 20
1705.398156914406
 30
0.0
 11
1311.507433178142
 21
1714.148889334404
 31
0.0
  0
LINE
  5
55A
330
1F
100
AcDbEntity
  8
406
  6
AUSGEZOGEN
 62
     7
100
AcDbLine
 10
1310.257433178142
 20
1704.148156914406
 30
0.0
 11
1310.257433178142
 21
1715.398889334404
 31
0.0
  0
LINE
  5
55B
330
1F
100
AcDbEntity
  8
406
  6
AUSGEZOGEN
 62
     7
100
AcDbLine
 10
1309.007433178142
 20
1702.898156914406
 30
0.0
 11
1309.007433178142
 21
1716.648889334404
 31
0.0
  0
LINE
  5
55C
330
1F
100
AcDbEntity
  8
406
  6
AUSGEZOGEN
 62
     7
100
AcDbLine
 10
1307.757433178142
 20
1701.648156914406
 30
0.0
 11
1307.757433178142
 21
1717.898889334404
 31
0.0
  0
LINE
  5
55D
330
1F
100
AcDbEntity
  8
406
  6
AUSGEZOGEN
 62
     7
100
AcDbLine
 10
1306.507433178142
 20
1700.398156914406
 30
0.0
 11
1306.507433178142
 21
1719.148889334404
 31
0.0
  0
LINE
  5
55E
330
1F
100
AcDbEntity
  8
406
  6
AUSGEZOGEN
 62
     7
100
AcDbLine
 10
1305.257433178142
 20
1699.148156914406
 30
0.0
 11
1305.257433178142
 21
1720.398889334404
 31
0.0
  0
LINE
  5
55F
330
1F
100
AcDbEntity
  8
406
  6
AUSGEZOGEN
 62
     7
100
AcDbLine
 10
1304.007433178142
 20
1697.898156914406
 30
0.0
 11
1304.007433178142
 21
1721.648889334404
 31
0.0
  0
LINE
  5
560
330
1F
100
AcDbEntity
  8
406
  6
AUSGEZOGEN
 62
     7
100
AcDbLine
 10
1302.757433178142
 20
1696.648156914406
 30
0.0
 11
1302.757433178142
 21
1722.898889334404
 31
0.0
  0
LINE
  5
561
330
1F
100
AcDbEntity
  8
406
  6
AUSGEZOGEN
 62
     7
100
AcDbLine
 10
1301.507433178142
 20
1695.398156914406
 30
0.0
 11
1301.507433178142
 21
1724.148889334404
 31
0.0
  0
LINE
  5
562
330
1F
100
AcDbEntity
  8
406
  6
AUSGEZOGEN
 62
     7
100
AcDbLine
 10
1300.257433178142
 20
1694.147424494401
 30
0.0
 11
1300.257433178142
 21
1725.397912774407
 31
0.0
  0
LINE
  5
563
330
1F
100
AcDbEntity
  8
406
  6
AUSGEZOGEN
 62
     7
100
AcDbLine
 10
1299.007433178142
 20
1692.897424494401
 30
0.0
 11
1299.007433178142
 21
1726.647912774407
 31
0.0
  0
LINE
  5
564
330
1F
100
AcDbEntity
  8
406
  6
AUSGEZOGEN
 62
     7
100
AcDbLine
 10
1297.757433178142
 20
1691.647424494401
 30
0.0
 11
1297.757433178142
 21
1727.897912774407
 31
0.0
  0
LINE
  5
565
330
1F
100
AcDbEntity
  8
406
  6
AUSGEZOGEN
 62
     7
100
AcDbLine
 10
1296.507433178142
 20
1690.397424494401
 30
0.0
 11
1296.507433178142
 21
1729.147912774407
 31
0.0
  0
LINE
  5
566
330
1F
100
AcDbEntity
  8
406
  6
AUSGEZOGEN
 62
     7
100
AcDbLine
 10
1295.257433178142
 20
1689.147424494401
 30
0.0
 11
1295.257433178142
 21
1730.397912774407
 31
0.0
  0
LINE
  5
567
330
1F
100
AcDbEntity
  8
406
  6
AUSGEZOGEN
 62
     7
100
AcDbLine
 10
1294.007433178142
 20
1687.897424494401
 30
0.0
 11
1294.007433178142
 21
1731.647912774407
 31
0.0
  0
LINE
  5
568
330
1F
100
AcDbEntity
  8
406
  6
AUSGEZOGEN
 62
     7
100
AcDbLine
 10
1292.757433178142
 20
1686.647424494401
 30
0.0
 11
1292.757433178142
 21
1732.897912774407
 31
0.0
  0
LINE
  5
569
330
1F
100
AcDbEntity
  8
406
  6
AUSGEZOGEN
 62
     7
100
AcDbLine
 10
1291.507433178142
 20
1685.397424494401
 30
0.0
 11
1291.507433178142
 21
1734.148401054405
 31
0.0
  0
LINE
  5
56A
330
1F
100
AcDbEntity
  8
406
  6
AUSGEZOGEN
 62
     7
100
AcDbLine
 10
1290.257433178142
 20
1684.147424494401
 30
0.0
 11
1290.257433178142
 21
1735.397912774407
 31
0.0
  0
LINE
  5
56B
330
1F
100
AcDbEntity
  8
406
  6
AUSGEZOGEN
 62
     7
100
AcDbLine
 10
1289.007433178142
 20
1682.897424494401
 30
0.0
 11
1289.007433178142
 21
1736.647912774408
 31
0.0
  0
LINE
  5
56C
330
1F
100
AcDbEntity
  8
406
  6
AUSGEZOGEN
 62
     7
100
AcDbLine
 10
1287.757433178142
 20
1681.647424494401
 30
0.0
 11
1287.757433178142
 21
1737.897912774406
 31
0.0
  0
LINE
  5
56D
330
1F
100
AcDbEntity
  8
406
  6
AUSGEZOGEN
 62
     7
100
AcDbLine
 10
1286.50743317815
 20
1680.397424494401
 30
0.0
 11
1286.50743317815
 21
1739.148401054405
 31
0.0
  0
LINE
  5
56E
330
1F
100
AcDbEntity
  8
406
  6
AUSGEZOGEN
 62
     7
100
AcDbLine
 10
1284.632433178142
 20
1678.523156914406
 30
0.0
 11
1284.632433178142
 21
1741.023156914406
 31
0.0
  0
LINE
  5
56F
330
1F
100
AcDbEntity
  8
406
  6
AUSGEZOGEN
 62
     7
100
AcDbLine
 10
1285.257433178142
 20
1679.147424494401
 30
0.0
 11
1285.257433178142
 21
1740.398401054405
 31
0.0
  0
LINE
  5
570
330
1F
100
AcDbEntity
  8
406
  6
AUSGEZOGEN
 62
     7
100
AcDbLine
 10
1284.632433178142
 20
1741.023156914406
 30
0.0
 11
1315.88243317815
 21
1709.773156914406
 31
0.0
  0
LINE
  5
571
330
1F
100
AcDbEntity
  8
406
  6
AUSGEZOGEN
 62
     7
100
AcDbLine
 10
1315.88243317815
 20
1709.773156914406
 30
0.0
 11
1284.632433178142
 21
1678.523156914406
 31
0.0
  0
LINE
  5
572
330
1F
100
AcDbEntity
  8
406
  6
AUSGEZOGEN
 62
     7
100
AcDbLine
 10
1284.632433178142
 20
1709.773156914406
 30
0.0
 11
1224.230577708148
 21
1709.773156914406
 31
0.0
  0
TEXT
  5
573
330
1F
100
AcDbEntity
  8
AM_6
100
AcDbText
 10
1890.107295274999
 20
1312.277587363319
 30
0.0
 40
27.0
  1
Ablauf
100
AcDbText
  0
TEXT
  5
574
330
1F
100
AcDbEntity
  8
AM_6
100
AcDbText
 10
1890.107295274999
 20
1274.777587363318
 30
0.0
 40
27.0
  1
DN 150
100
AcDbText
  0
LINE
  5
575
330
1F
100
AcDbEntity
  8
406
  6
AUSGEZOGEN
 62
     7
100
AcDbLine
 10
1829.611016962633
 20
1264.864881088492
 30
0.0
 11
1833.36174938263
 21
1264.864881088492
 31
0.0
  0
LINE
  5
576
330
1F
100
AcDbEntity
  8
406
  6
AUSGEZOGEN
 62
     7
100
AcDbLine
 10
1828.361016962633
 20
1266.114881088492
 30
0.0
 11
1834.61174938263
 21
1266.114881088492
 31
0.0
  0
LINE
  5
577
330
1F
100
AcDbEntity
  8
406
  6
AUSGEZOGEN
 62
     7
100
AcDbLine
 10
1827.111016962632
 20
1267.364881088492
 30
0.0
 11
1835.86174938263
 21
1267.364881088492
 31
0.0
  0
LINE
  5
578
330
1F
100
AcDbEntity
  8
406
  6
AUSGEZOGEN
 62
     7
100
AcDbLine
 10
1825.861016962632
 20
1268.614881088492
 30
0.0
 11
1837.11174938263
 21
1268.614881088492
 31
0.0
  0
LINE
  5
579
330
1F
100
AcDbEntity
  8
406
  6
AUSGEZOGEN
 62
     7
100
AcDbLine
 10
1824.611016962633
 20
1269.864881088492
 30
0.0
 11
1838.36174938263
 21
1269.864881088492
 31
0.0
  0
LINE
  5
57A
330
1F
100
AcDbEntity
  8
406
  6
AUSGEZOGEN
 62
     7
100
AcDbLine
 10
1823.361016962633
 20
1271.114881088492
 30
0.0
 11
1839.61174938263
 21
1271.114881088492
 31
0.0
  0
LINE
  5
57B
330
1F
100
AcDbEntity
  8
406
  6
AUSGEZOGEN
 62
     7
100
AcDbLine
 10
1822.111016962633
 20
1272.364881088492
 30
0.0
 11
1840.86174938263
 21
1272.364881088492
 31
0.0
  0
LINE
  5
57C
330
1F
100
AcDbEntity
  8
406
  6
AUSGEZOGEN
 62
     7
100
AcDbLine
 10
1820.861016962632
 20
1273.614881088492
 30
0.0
 11
1842.11174938263
 21
1273.614881088492
 31
0.0
  0
LINE
  5
57D
330
1F
100
AcDbEntity
  8
406
  6
AUSGEZOGEN
 62
     7
100
AcDbLine
 10
1819.611016962632
 20
1274.864881088492
 30
0.0
 11
1843.36174938263
 21
1274.864881088492
 31
0.0
  0
LINE
  5
57E
330
1F
100
AcDbEntity
  8
406
  6
AUSGEZOGEN
 62
     7
100
AcDbLine
 10
1818.361016962633
 20
1276.114881088492
 30
0.0
 11
1844.61174938263
 21
1276.114881088492
 31
0.0
  0
LINE
  5
57F
330
1F
100
AcDbEntity
  8
406
  6
AUSGEZOGEN
 62
     7
100
AcDbLine
 10
1817.111016962632
 20
1277.364881088492
 30
0.0
 11
1845.86174938263
 21
1277.364881088492
 31
0.0
  0
LINE
  5
580
330
1F
100
AcDbEntity
  8
406
  6
AUSGEZOGEN
 62
     7
100
AcDbLine
 10
1815.860284542628
 20
1278.614881088492
 30
0.0
 11
1847.110772822633
 21
1278.614881088492
 31
0.0
  0
LINE
  5
581
330
1F
100
AcDbEntity
  8
406
  6
AUSGEZOGEN
 62
     7
100
AcDbLine
 10
1814.610284542627
 20
1279.864881088492
 30
0.0
 11
1848.360772822633
 21
1279.864881088492
 31
0.0
  0
LINE
  5
582
330
1F
100
AcDbEntity
  8
406
  6
AUSGEZOGEN
 62
     7
100
AcDbLine
 10
1813.360284542628
 20
1281.114881088492
 30
0.0
 11
1849.610772822633
 21
1281.114881088492
 31
0.0
  0
LINE
  5
583
330
1F
100
AcDbEntity
  8
406
  6
AUSGEZOGEN
 62
     7
100
AcDbLine
 10
1812.110284542627
 20
1282.364881088492
 30
0.0
 11
1850.860772822633
 21
1282.364881088492
 31
0.0
  0
LINE
  5
584
330
1F
100
AcDbEntity
  8
406
  6
AUSGEZOGEN
 62
     7
100
AcDbLine
 10
1810.860284542627
 20
1283.614881088492
 30
0.0
 11
1852.110772822633
 21
1283.614881088492
 31
0.0
  0
LINE
  5
585
330
1F
100
AcDbEntity
  8
406
  6
AUSGEZOGEN
 62
     7
100
AcDbLine
 10
1809.610284542628
 20
1284.864881088492
 30
0.0
 11
1853.360772822633
 21
1284.864881088492
 31
0.0
  0
LINE
  5
586
330
1F
100
AcDbEntity
  8
406
  6
AUSGEZOGEN
 62
     7
100
AcDbLine
 10
1808.360284542628
 20
1286.114881088492
 30
0.0
 11
1854.610772822633
 21
1286.114881088492
 31
0.0
  0
LINE
  5
587
330
1F
100
AcDbEntity
  8
406
  6
AUSGEZOGEN
 62
     7
100
AcDbLine
 10
1807.110284542628
 20
1287.364881088492
 30
0.0
 11
1855.861261102632
 21
1287.364881088492
 31
0.0
  0
LINE
  5
588
330
1F
100
AcDbEntity
  8
406
  6
AUSGEZOGEN
 62
     7
100
AcDbLine
 10
1805.860284542627
 20
1288.614881088492
 30
0.0
 11
1857.110772822633
 21
1288.614881088492
 31
0.0
  0
LINE
  5
589
330
1F
100
AcDbEntity
  8
406
  6
AUSGEZOGEN
 62
     7
100
AcDbLine
 10
1804.610284542627
 20
1289.864881088492
 30
0.0
 11
1858.360772822637
 21
1289.864881088492
 31
0.0
  0
LINE
  5
58A
330
1F
100
AcDbEntity
  8
406
  6
AUSGEZOGEN
 62
     7
100
AcDbLine
 10
1803.360284542628
 20
1291.114881088492
 30
0.0
 11
1859.610772822633
 21
1291.114881088492
 31
0.0
  0
LINE
  5
58B
330
1F
100
AcDbEntity
  8
406
  6
AUSGEZOGEN
 62
     7
100
AcDbLine
 10
1802.110284542628
 20
1292.364881088485
 30
0.0
 11
1860.861261102632
 21
1292.364881088485
 31
0.0
  0
LINE
  5
58C
330
1F
100
AcDbEntity
  8
406
  6
AUSGEZOGEN
 62
     7
100
AcDbLine
 10
1800.236016962633
 20
1294.239881088492
 30
0.0
 11
1862.736016962633
 21
1294.239881088492
 31
0.0
  0
LINE
  5
58D
330
1F
100
AcDbEntity
  8
406
  6
AUSGEZOGEN
 62
     7
100
AcDbLine
 10
1800.860284542627
 20
1293.614881088492
 30
0.0
 11
1862.111261102632
 21
1293.614881088492
 31
0.0
  0
LINE
  5
58E
330
1F
100
AcDbEntity
  8
406
  6
AUSGEZOGEN
 62
     7
100
AcDbLine
 10
1862.736016962633
 20
1294.239881088492
 30
0.0
 11
1831.486016962633
 21
1262.989881088485
 31
0.0
  0
LINE
  5
58F
330
1F
100
AcDbEntity
  8
406
  6
AUSGEZOGEN
 62
     7
100
AcDbLine
 10
1831.486016962633
 20
1262.989881088485
 30
0.0
 11
1800.236016962633
 21
1294.239881088492
 31
0.0
  0
LINE
  5
590
330
1F
100
AcDbEntity
  8
406
  6
AUSGEZOGEN
 62
     7
100
AcDbLine
 10
1831.486016962633
 20
1294.239881088492
 30
0.0
 11
1831.486016962633
 21
1354.641736558486
 31
0.0
  0
POINT
  5
591
330
1F
100
AcDbEntity
  8
0
 60
     1
100
AcDbPoint
 10
19103.64153411288
 20
-1892.995535003482
 30
0.0
1001
GENIUS_GENODEF_13
1002
{
1000
HIER
1070
    10
1002
}
1002
{
1000
MANEDIT
1070
     0
1002
}
1002
{
1000
NOSEL
1070
     0
1002
}
1002
{
1000
BEHIND
1070
     0
1002
}
1002
{
1000
OTHER
1070
     0
1002
}
1002
{
1000
REACTOR
1002
}
1001
GENIUS_GENOLIS_13
1002
{
1000
ENT
1005
52F
1005
52E
1005
52D
1005
52C
1002
}
1001
GENIUS_GENOBJ-N-CRS_13
1002
{
1000
OWNER
1000
GEN
1002
}
1001
GENIUS_GENOENT_13
1002
{
1000
MYREF
1005
591
1002
}
1002
{
1000
GRP
1005
0
1002
}
  0
ENDSEC
  0
SECTION
  2
OBJECTS
  0
DICTIONARY
  5
C
330
0
100
AcDbDictionary
281
     1
  3
ACAD_COLOR
350
D7
  3
ACAD_GROUP
350
D
  3
ACAD_LAYOUT
350
1A
  3
ACAD_MATERIAL
350
D6
  3
ACAD_MLINESTYLE
350
17
  3
ACAD_PLOTSETTINGS
350
19
  3
ACAD_PLOTSTYLENAME
350
E
  3
ACAD_TABLESTYLE
350
133
  3
ACDBHEADERROUNDTRIPXREC
350
60E
  3
AcDbVariableDictionary
350
34
  3
AcmDictionary
350
49
  3
AMG
350
2B
  3
AMGSNAPSETTINGS
350
2C4
  3
DWGPROPS
350
60D
  0
DICTIONARY
  5
C0
330
2
100
AcDbDictionary
280
     1
281
     1
  3
ACAD_LAYERSTATES
360
388
  3
AMLAYER_GROUPCOLORS
360
C1
  0
DICTIONARY
  5
83
330
1F
100
AcDbDictionary
280
     1
281
     1
  0
DICTIONARY
  5
51A
330
519
100
AcDbDictionary
280
     1
281
     1
  3
ACAD_DIMASSOC
360
51B
  0
DICTIONARY
  5
51D
330
51C
100
AcDbDictionary
280
     1
281
     1
  3
ACAD_DIMASSOC
360
51E
  0
DICTIONARY
  5
531
330
530
100
AcDbDictionary
280
     1
281
     1
  3
ACAD_DIMASSOC
360
532
  0
DICTIONARY
  5
548
330
547
100
AcDbDictionary
280
     1
281
     1
  3
ACAD_DIMASSOC
360
549
  0
DICTIONARY
  5
54B
330
54A
100
AcDbDictionary
280
     1
281
     1
  3
ACAD_DIMASSOC
360
54C
  0
DICTIONARY
  5
54E
330
54D
100
AcDbDictionary
280
     1
281
     1
  3
ACAD_DIMASSOC
360
54F
  0
DICTIONARY
  5
553
330
552
100
AcDbDictionary
280
     1
281
     1
  3
ACAD_DIMASSOC
360
554
  0
DICTIONARY
  5
D7
102
{ACAD_REACTORS
330
C
102
}
330
C
100
AcDbDictionary
281
     1
  0
DICTIONARY
  5
D
102
{ACAD_REACTORS
330
C
102
}
330
C
100
AcDbDictionary
281
     1
  0
DICTIONARY
  5
1A
102
{ACAD_REACTORS
330
C
102
}
330
C
100
AcDbDictionary
281
     1
  3
Layout1
350
1E
  3
Layout2
350
26
  3
Model
350
22
  0
DICTIONARY
  5
D6
102
{ACAD_REACTORS
330
C
102
}
330
C
100
AcDbDictionary
281
     1
  0
DICTIONARY
  5
17
102
{ACAD_REACTORS
330
C
102
}
330
C
100
AcDbDictionary
281
     1
  3
Standard
350
18
  0
DICTIONARY
  5
19
102
{ACAD_REACTORS
330
C
102
}
330
C
100
AcDbDictionary
281
     1
  0
ACDBDICTIONARYWDFLT
  5
E
102
{ACAD_REACTORS
330
C
102
}
330
C
100
AcDbDictionary
281
     1
  3
Normal
350
F
100
AcDbDictionaryWithDefault
340
F
  0
DICTIONARY
  5
133
102
{ACAD_REACTORS
330
C
102
}
330
C
100
AcDbDictionary
281
     1
  3
Standard
350
134
  0
DICTIONARY
  5
60E
102
{ACAD_REACTORS
330
C
102
}
330
C
100
AcDbDictionary
281
     1
  0
DICTIONARY
  5
34
102
{ACAD_REACTORS
330
C
102
}
330
C
100
AcDbDictionary
281
     1
  3
CTABLESTYLE
350
152
  3
DIMASSOC
350
AD
  3
INDEXCTL
350
35
  3
PROJECTNAME
350
60B
  0
DICTIONARY
  5
49
102
{ACAD_REACTORS
330
C
102
}
330
C
100
AcDbDictionary
281
     1
  3
AcmBOM
350
2CB
  3
AcmStdDictionary
350
4A
  3
AMDTSECTSYM_ARROWCOLOR
350
13D
  0
DICTIONARY
  5
2B
102
{ACAD_REACTORS
330
C
102
}
330
C
100
AcDbDictionary
281
     1
  0
DICTIONARY
  5
2C4
102
{ACAD_REACTORS
330
C
102
}
330
C
100
AcDbDictionary
281
     1
  0
XRECORD
  5
60D
102
{ACAD_REACTORS
330
C
102
}
330
C
100
AcDbXrecord
280
     1
  1
DWGPROPS COOKIE
  2

  3

  4

  6

  7

  8

  9

300
AmdtFileType=84
301
=
302
=
303
=
304
=
305
=
306
=
307
=
308
=
309
=
 40
0.0002309375
 41
2454053.358517431
 42
2454053.35874801
  1

 90
        1
  0
DICTIONARY
  5
388
102
{ACAD_REACTORS
330
C0
102
}
330
C0
100
AcDbDictionary
281
     1
  0
DICTIONARY
  5
C1
102
{ACAD_REACTORS
330
C0
102
}
330
C0
100
AcDbDictionary
280
     1
281
     1
  0
DIMASSOC
  5
51B
102
{ACAD_REACTORS
330
51A
102
}
330
51A
100
AcDbDimAssoc
330
519
 90
        3
 70
     0
 71
     0
  1
AcDbOsnapPointRef
 72
    13
331
516
 73
     0
 91
        0
 40
0.0
 10
0.0
 20
0.0
 30
2.000000000000000E+50
 75
     0
  1
AcDbOsnapPointRef
 72
    13
331
511
 73
     0
 91
        0
 40
0.0
 10
0.0
 20
0.0
 30
2.000000000000000E+50
 75
     0
  0
DIMASSOC
  5
51E
102
{ACAD_REACTORS
330
51D
102
}
330
51D
100
AcDbDimAssoc
330
51C
 90
        1
 70
     0
 71
     0
  1
AcDbOsnapPointRef
 72
    13
331
50F
 73
     0
 91
        0
 40
0.0
 10
0.0
 20
0.0
 30
2.000000000000000E+50
 75
     0
  0
DIMASSOC
  5
532
102
{ACAD_REACTORS
330
531
102
}
330
531
100
AcDbDimAssoc
330
530
 90
        1
 70
     0
 71
     0
  1
AcDbOsnapPointRef
 72
    13
331
49D
 73
     0
 91
        0
 40
0.0
 10
0.0
 20
0.0
 30
2.000000000000000E+50
 75
     0
  0
DIMASSOC
  5
549
102
{ACAD_REACTORS
330
548
102
}
330
548
100
AcDbDimAssoc
330
547
 90
        3
 70
     0
 71
     0
  1
AcDbOsnapPointRef
 72
    13
331
50F
 73
     0
 91
        0
 40
0.0
 10
0.0
 20
0.0
 30
2.000000000000000E+50
 75
     0
  1
AcDbOsnapPointRef
 72
    13
331
544
 73
     0
 91
        0
 40
0.0
 10
0.0
 20
0.0
 30
2.000000000000000E+50
 75
     0
  0
DIMASSOC
  5
54C
102
{ACAD_REACTORS
330
54B
102
}
330
54B
100
AcDbDimAssoc
330
54A
 90
        3
 70
     0
 71
     0
  1
AcDbOsnapPointRef
 72
    13
331
515
 73
     0
 91
        0
 40
0.0
 10
0.0
 20
0.0
 30
2.000000000000000E+50
 75
     0
  1
AcDbOsnapPointRef
 72
    13
331
511
 73
     0
 91
        0
 40
0.0
 10
0.0
 20
0.0
 30
2.000000000000000E+50
 75
     0
  0
DIMASSOC
  5
54F
102
{ACAD_REACTORS
330
54E
102
}
330
54E
100
AcDbDimAssoc
330
54D
 90
        3
 70
     0
 71
     0
  1
AcDbOsnapPointRef
 72
    13
331
518
 73
     0
 91
        0
 40
0.0
 10
0.0
 20
0.0
 30
2.000000000000000E+50
 75
     0
  1
AcDbOsnapPointRef
 72
     1
331
491
 73
     0
 91
        0
 40
0.0
 10
0.0
 20
0.0
 30
2.000000000000000E+50
 75
     0
  0
DIMASSOC
  5
554
102
{ACAD_REACTORS
330
553
102
}
330
553
100
AcDbDimAssoc
330
552
 90
        3
 70
     0
 71
     0
  1
AcDbOsnapPointRef
 72
    13
331
551
 73
     0
 91
        0
 40
0.0
 10
0.0
 20
0.0
 30
2.000000000000000E+50
 75
     0
  1
AcDbOsnapPointRef
 72
    13
331
511
 73
     0
 91
        0
 40
0.0
 10
0.0
 20
0.0
 30
2.000000000000000E+50
 75
     0
  0
LAYOUT
  5
1E
102
{ACAD_XDICTIONARY
360
60F
102
}
102
{ACAD_REACTORS
330
1A
102
}
330
1A
100
AcDbPlotSettings
  1

  2
none_device
  4
Letter_(8.50_x_11.00_Inches)
  6

 40
6.349999904632568
 41
6.349999904632568
 42
6.350006103515625
 43
6.350006103515625
 44
215.8999938964844
 45
279.3999938964844
 46
0.0
 47
0.0
 48
0.0
 49
0.0
140
0.0
141
0.0
142
1.0
143
1.0
 70
 15024
 72
     1
 73
     1
 74
     5
  7

 75
    16
147
1.0
148
0.0
149
0.0
100
AcDbLayout
  1
Layout1
 70
     1
 71
     1
 10
0.0
 20
0.0
 11
420.0
 21
297.0
 12
0.0
 22
0.0
 32
0.0
 14
1.000000000000000E+20
 24
1.000000000000000E+20
 34
1.000000000000000E+20
 15
-1.000000000000000E+20
 25
-1.000000000000000E+20
 35
-1.000000000000000E+20
146
0.0
 13
0.0
 23
0.0
 33
0.0
 16
1.0
 26
0.0
 36
0.0
 17
0.0
 27
1.0
 37
0.0
 76
     0
330
1B
  0
LAYOUT
  5
26
102
{ACAD_XDICTIONARY
360
613
102
}
102
{ACAD_REACTORS
330
1A
102
}
330
1A
100
AcDbPlotSettings
  1

  2
none_device
  4
Letter_(8.50_x_11.00_Inches)
  6

 40
6.349999904632568
 41
6.349999904632568
 42
6.350006103515625
 43
6.350006103515625
 44
215.8999938964844
 45
279.3999938964844
 46
0.0
 47
0.0
 48
0.0
 49
0.0
140
0.0
141
0.0
142
1.0
143
1.0
 70
 15024
 72
     1
 73
     1
 74
     5
  7

 75
    16
147
1.0
148
0.0
149
0.0
100
AcDbLayout
  1
Layout2
 70
     1
 71
     2
 10
0.0
 20
0.0
 11
12.0
 21
9.0
 12
0.0
 22
0.0
 32
0.0
 14
0.0
 24
0.0
 34
0.0
 15
0.0
 25
0.0
 35
0.0
146
0.0
 13
0.0
 23
0.0
 33
0.0
 16
1.0
 26
0.0
 36
0.0
 17
0.0
 27
1.0
 37
0.0
 76
     0
330
23
  0
LAYOUT
  5
22
102
{ACAD_XDICTIONARY
360
611
102
}
102
{ACAD_REACTORS
330
1A
102
}
330
1A
100
AcDbPlotSettings
  1

  2
none_device
  4
Letter_(8.50_x_11.00_Inches)
  6

 40
6.349999904632568
 41
6.349999904632568
 42
6.350006103515625
 43
6.350006103515625
 44
215.8999938964844
 45
279.3999938964844
 46
0.0
 47
0.0
 48
0.0
 49
0.0
140
0.0
141
0.0
142
1.0
143
1.0
 70
 11952
 72
     1
 73
     1
 74
     0
  7

 75
     0
147
1.0
148
-131.3052631578947
149
0.0
100
AcDbLayout
  1
Model
 70
     1
 71
     0
 10
0.0
 20
0.0
 11
12.0
 21
9.0
 12
0.0
 22
0.0
 32
0.0
 14
0.0
 24
0.0
 34
0.0
 15
0.0
 25
0.0
 35
0.0
146
0.0
 13
0.0
 23
0.0
 33
0.0
 16
1.0
 26
0.0
 36
0.0
 17
0.0
 27
1.0
 37
0.0
 76
     0
330
1F
  0
MLINESTYLE
  5
18
102
{ACAD_REACTORS
330
17
102
}
330
17
100
AcDbMlineStyle
  2
STANDARD
 70
     0
  3

 62
   256
 51
90.0
 52
90.0
 71
     2
 49
0.5
 62
   256
  6
BYLAYER
 49
-0.5
 62
   256
  6
BYLAYER
  0
ACDBPLACEHOLDER
  5
F
102
{ACAD_REACTORS
330
E
102
}
330
E
  0
TABLESTYLE
  5
134
102
{ACAD_REACTORS
330
133
102
}
330
133
100
AcDbTableStyle
  3
Standard
 70
     0
 71
     0
 40
1.5
 41
1.5
280
     0
281
     0
  7
STANDARD
140
4.5
170
     2
 62
     0
 63
     7
283
     0
274
    -2
284
     1
 64
     0
275
    -2
285
     1
 65
     0
276
    -2
286
     1
 66
     0
277
    -2
287
     1
 67
     0
278
    -2
288
     1
 68
     0
279
    -2
289
     1
 69
     0
  7
STANDARD
140
6.0
170
     5
 62
     0
 63
     7
283
     0
274
    -2
284
     1
 64
     0
275
    -2
285
     1
 65
     0
276
    -2
286
     1
 66
     0
277
    -2
287
     1
 67
     0
278
    -2
288
     1
 68
     0
279
    -2
289
     1
 69
     0
  7
STANDARD
140
4.5
170
     5
 62
     0
 63
     7
283
     0
274
    -2
284
     1
 64
     0
275
    -2
285
     1
 65
     0
276
    -2
286
     1
 66
     0
277
    -2
287
     1
 67
     0
278
    -2
288
     1
 68
     0
279
    -2
289
     1
 69
     0
  0
DICTIONARYVAR
  5
152
102
{ACAD_REACTORS
330
34
102
}
330
34
100
DictionaryVariables
280
     0
  1
STANDARD
  0
DICTIONARYVAR
  5
AD
102
{ACAD_REACTORS
330
34
102
}
330
34
100
DictionaryVariables
280
     0
  1
2
  0
DICTIONARYVAR
  5
35
102
{ACAD_REACTORS
330
34
102
}
330
34
100
DictionaryVariables
280
     0
  1
0
  0
DICTIONARYVAR
  5
60B
102
{ACAD_REACTORS
330
34
102
}
330
34
100
DictionaryVariables
280
     0
  1

  0
DICTIONARY
  5
2CB
102
{ACAD_REACTORS
330
49
102
}
330
49
100
AcDbDictionary
281
     1
  0
DICTIONARY
  5
4A
102
{ACAD_REACTORS
330
49
102
}
330
49
100
AcDbDictionary
281
     1
  0
XRECORD
  5
13D
102
{ACAD_REACTORS
330
49
102
}
330
49
100
AcDbXrecord
280
     1
 90
-1023410169
  0
DICTIONARY
  5
60F
330
1E
100
AcDbDictionary
280
     1
281
     1
  3
ACAD_XREC_ROUNDTRIP
360
610
  0
DICTIONARY
  5
613
330
26
100
AcDbDictionary
280
     1
281
     1
  3
ACAD_XREC_ROUNDTRIP
360
614
  0
DICTIONARY
  5
611
330
22
100
AcDbDictionary
280
     1
281
     1
  3
ACAD_XREC_ROUNDTRIP
360
612
  0
XRECORD
  5
610
102
{ACAD_REACTORS
330
60F
102
}
330
60F
100
AcDbXrecord
280
     1
102
SHADEPLOT
 70
     0
102
SHADEPLOTRESLEVEL
 70
     2
102
SHADEPLOTCUSTOMDPI
 70
   300
  0
XRECORD
  5
614
102
{ACAD_REACTORS
330
613
102
}
330
613
100
AcDbXrecord
280
     1
102
SHADEPLOT
 70
     0
102
SHADEPLOTRESLEVEL
 70
     2
102
SHADEPLOTCUSTOMDPI
 70
   300
  0
XRECORD
  5
612
102
{ACAD_REACTORS
330
611
102
}
330
611
100
AcDbXrecord
280
     1
102
SHADEPLOT
 70
     0
102
SHADEPLOTRESLEVEL
 70
     2
102
SHADEPLOTCUSTOMDPI
 70
   300
  0
ENDSEC
  0
EOF
