  0
SECTION
  2
HEADER
  9
$ACADVER
  1
AC1015
  9
$ACADMAINTVER
 70
    20
  9
$DWGCODEPAGE
  3
ANSI_1252
  9
$INSBASE
 10
0.0
 20
0.0
 30
0.0
  9
$EXTMIN
 10
1073.057093643614
 20
732.99437780275
 30
0.0
  9
$EXTMAX
 10
1960.823503116841
 20
2014.475867736406
 30
0.0
  9
$LIMMIN
 10
0.0
 20
0.0
  9
$LIMMAX
 10
420.0
 20
297.0
  9
$ORTHOMODE
 70
     0
  9
$REGENMODE
 70
     1
  9
$FILLMODE
 70
     1
  9
$QTEXTMODE
 70
     0
  9
$MIRRTEXT
 70
     1
  9
$LTSCALE
 40
1.0
  9
$ATTMODE
 70
     1
  9
$TEXTSIZE
 40
2.5
  9
$TRACEWID
 40
1.0
  9
$TEXTSTYLE
  7
STANDARD
  9
$CLAYER
  8
0
  9
$CELTYPE
  6
ByLayer
  9
$CECOLOR
 62
   256
  9
$CELTSCALE
 40
1.0
  9
$DISPSILH
 70
     0
  9
$DIMSCALE
 40
1.0
  9
$DIMASZ
 40
2.5
  9
$DIMEXO
 40
1.0
  9
$DIMDLI
 40
10.0
  9
$DIMRND
 40
0.0
  9
$DIMDLE
 40
0.0
  9
$DIMEXE
 40
1.0
  9
$DIMTP
 40
0.1
  9
$DIMTM
 40
0.1
  9
$DIMTXT
 40
3.5
  9
$DIMCEN
 40
0.0
  9
$DIMTSZ
 40
0.0
  9
$DIMTOL
 70
     0
  9
$DIMLIM
 70
     0
  9
$DIMTIH
 70
     0
  9
$DIMTOH
 70
     0
  9
$DIMSE1
 70
     0
  9
$DIMSE2
 70
     0
  9
$DIMTAD
 70
     1
  9
$DIMZIN
 70
     8
  9
$DIMBLK
  1

  9
$DIMASO
 70
     1
  9
$DIMSHO
 70
     1
  9
$DIMPOST
  1

  9
$DIMAPOST
  1
"
  9
$DIMALT
 70
     0
  9
$DIMALTD
 70
     2
  9
$DIMALTF
 40
0.0393701
  9
$DIMLFAC
 40
1.0
  9
$DIMTOFL
 70
     1
  9
$DIMTVP
 40
0.0
  9
$DIMTIX
 70
     0
  9
$DIMSOXD
 70
     0
  9
$DIMSAH
 70
     0
  9
$DIMBLK1
  1

  9
$DIMBLK2
  1

  9
$DIMSTYLE
  2
AM_DIN
  9
$DIMCLRD
 70
   256
  9
$DIMCLRE
 70
   256
  9
$DIMCLRT
 70
     2
  9
$DIMTFAC
 40
0.71
  9
$DIMGAP
 40
1.5
  9
$DIMJUST
 70
     0
  9
$DIMSD1
 70
     0
  9
$DIMSD2
 70
     0
  9
$DIMTOLJ
 70
     0
  9
$DIMTZIN
 70
     8
  9
$DIMALTZ
 70
     0
  9
$DIMALTTZ
 70
     0
  9
$DIMUPT
 70
     0
  9
$DIMDEC
 70
     2
  9
$DIMTDEC
 70
     3
  9
$DIMALTU
 70
     2
  9
$DIMALTTD
 70
     4
  9
$DIMTXSTY
  7
STANDARD
  9
$DIMAUNIT
 70
     0
  9
$DIMADEC
 70
     0
  9
$DIMALTRND
 40
0.0
  9
$DIMAZIN
 70
     2
  9
$DIMDSEP
 70
    46
  9
$DIMATFIT
 70
     3
  9
$DIMFRAC
 70
     0
  9
$DIMLDRBLK
  1

  9
$DIMLUNIT
 70
     2
  9
$DIMLWD
 70
    -1
  9
$DIMLWE
 70
    -1
  9
$DIMTMOVE
 70
     0
  9
$LUNITS
 70
     2
  9
$LUPREC
 70
     2
  9
$SKETCHINC
 40
1.0
  9
$FILLETRAD
 40
2.5
  9
$AUNITS
 70
     0
  9
$AUPREC
 70
     0
  9
$MENU
  1
.
  9
$ELEVATION
 40
0.0
  9
$PELEVATION
 40
0.0
  9
$THICKNESS
 40
0.0
  9
$LIMCHECK
 70
     0
  9
$CHAMFERA
 40
2.5
  9
$CHAMFERB
 40
2.5
  9
$CHAMFERC
 40
20.0
  9
$CHAMFERD
 40
0.0
  9
$SKPOLY
 70
     0
  9
$TDCREATE
 40
2454053.358878391
  9
$TDUCREATE
 40
2454053.317211724
  9
$TDUPDATE
 40
2454053.359087627
  9
$TDUUPDATE
 40
2454053.317420961
  9
$TDINDWG
 40
0.0002096065
  9
$TDUSRTIMER
 40
0.0002096065
  9
$USRTIMER
 70
     1
  9
$ANGBASE
 50
0.0
  9
$ANGDIR
 70
     0
  9
$PDMODE
 70
     0
  9
$PDSIZE
 40
0.0
  9
$PLINEWID
 40
0.0
  9
$SPLFRAME
 70
     0
  9
$SPLINETYPE
 70
     6
  9
$SPLINESEGS
 70
     8
  9
$HANDSEED
  5
5F7
  9
$SURFTAB1
 70
     6
  9
$SURFTAB2
 70
     6
  9
$SURFTYPE
 70
     6
  9
$SURFU
 70
     6
  9
$SURFV
 70
     6
  9
$UCSBASE
  2

  9
$UCSNAME
  2

  9
$UCSORG
 10
0.0
 20
0.0
 30
0.0
  9
$UCSXDIR
 10
1.0
 20
0.0
 30
0.0
  9
$UCSYDIR
 10
0.0
 20
1.0
 30
0.0
  9
$UCSORTHOREF
  2

  9
$UCSORTHOVIEW
 70
     0
  9
$UCSORGTOP
 10
0.0
 20
0.0
 30
0.0
  9
$UCSORGBOTTOM
 10
0.0
 20
0.0
 30
0.0
  9
$UCSORGLEFT
 10
0.0
 20
0.0
 30
0.0
  9
$UCSORGRIGHT
 10
0.0
 20
0.0
 30
0.0
  9
$UCSORGFRONT
 10
0.0
 20
0.0
 30
0.0
  9
$UCSORGBACK
 10
0.0
 20
0.0
 30
0.0
  9
$PUCSBASE
  2

  9
$PUCSNAME
  2

  9
$PUCSORG
 10
0.0
 20
0.0
 30
0.0
  9
$PUCSXDIR
 10
1.0
 20
0.0
 30
0.0
  9
$PUCSYDIR
 10
0.0
 20
1.0
 30
0.0
  9
$PUCSORTHOREF
  2

  9
$PUCSORTHOVIEW
 70
     0
  9
$PUCSORGTOP
 10
0.0
 20
0.0
 30
0.0
  9
$PUCSORGBOTTOM
 10
0.0
 20
0.0
 30
0.0
  9
$PUCSORGLEFT
 10
0.0
 20
0.0
 30
0.0
  9
$PUCSORGRIGHT
 10
0.0
 20
0.0
 30
0.0
  9
$PUCSORGFRONT
 10
0.0
 20
0.0
 30
0.0
  9
$PUCSORGBACK
 10
0.0
 20
0.0
 30
0.0
  9
$USERI1
 70
     0
  9
$USERI2
 70
     0
  9
$USERI3
 70
     0
  9
$USERI4
 70
     0
  9
$USERI5
 70
     0
  9
$USERR1
 40
0.0
  9
$USERR2
 40
0.0
  9
$USERR3
 40
0.0
  9
$USERR4
 40
0.0
  9
$USERR5
 40
0.0
  9
$WORLDVIEW
 70
     1
  9
$SHADEDGE
 70
     3
  9
$SHADEDIF
 70
    70
  9
$TILEMODE
 70
     1
  9
$MAXACTVP
 70
    64
  9
$PINSBASE
 10
0.0
 20
0.0
 30
0.0
  9
$PLIMCHECK
 70
     0
  9
$PEXTMIN
 10
1.000000000000000E+20
 20
1.000000000000000E+20
 30
1.000000000000000E+20
  9
$PEXTMAX
 10
-1.000000000000000E+20
 20
-1.000000000000000E+20
 30
-1.000000000000000E+20
  9
$PLIMMIN
 10
0.0
 20
0.0
  9
$PLIMMAX
 10
420.0
 20
297.0
  9
$UNITMODE
 70
     0
  9
$VISRETAIN
 70
     1
  9
$PLINEGEN
 70
     0
  9
$PSLTSCALE
 70
     1
  9
$TREEDEPTH
 70
  3020
  9
$CMLSTYLE
  2
Standard
  9
$CMLJUST
 70
     0
  9
$CMLSCALE
 40
20.0
  9
$PROXYGRAPHICS
 70
     1
  9
$MEASUREMENT
 70
     1
  9
$CELWEIGHT
370
    -1
  9
$ENDCAPS
280
     0
  9
$JOINSTYLE
280
     0
  9
$LWDISPLAY
290
     0
  9
$INSUNITS
 70
     4
  9
$HYPERLINKBASE
  1

  9
$STYLESHEET
  1

  9
$XEDIT
290
     1
  9
$CEPSNTYPE
380
     0
  9
$PSTYLEMODE
290
     1
  9
$FINGERPRINTGUID
  2
{930DAD36-9921-430E-AD99-954A84CB5803}
  9
$VERSIONGUID
  2
{D9194223-4F4D-4A86-83B1-2505239F92CF}
  9
$EXTNAMES
290
     1
  9
$PSVPSCALE
 40
0.0
  9
$OLESTARTUP
290
     0
  0
ENDSEC
  0
SECTION
  2
CLASSES
  0
CLASS
  1
ACDBDICTIONARYWDFLT
  2
AcDbDictionaryWithDefault
  3
ObjectDBX Classes
 90
        0
280
     0
281
     0
  0
CLASS
  1
ACDBPLACEHOLDER
  2
AcDbPlaceHolder
  3
ObjectDBX Classes
 90
        0
280
     0
281
     0
  0
CLASS
  1
LAYOUT
  2
AcDbLayout
  3
ObjectDBX Classes
 90
        0
280
     0
281
     0
  0
CLASS
  1
AMGSETTINGSOBJ
  2
AmgSettingsObj
  3
"AcadM|Product Description: AutoCAD Mechanical 2000|Company: Autodesk"
 90
        0
280
     0
281
     0
  0
CLASS
  1
ACME_DOCUMENT
  2
AcMeDbDoc
  3
AcMeServices
 90
        0
280
     0
281
     0
  0
CLASS
  1
ACMESCOPE
  2
AcMeScope
  3
AcMeServices
 90
        0
280
     0
281
     0
  0
CLASS
  1
ACMECOMMANDHISTORY
  2
AcMeCommandHistory
  3
AcMeServices
 90
        0
280
     0
281
     0
  0
CLASS
  1
DICTIONARYVAR
  2
AcDbDictionaryVar
  3
ObjectDBX Classes
 90
        0
280
     0
281
     0
  0
CLASS
  1
ACIMSYSVARMAN
  2
AcImSysVarManager
  3
AcMeServices
 90
        0
280
     0
281
     0
  0
CLASS
  1
ACIMREALSYSVAR
  2
AcImRealSysVar
  3
AcMeServices
 90
        0
280
     0
281
     0
  0
CLASS
  1
ACIMINTSYSVAR
  2
AcImIntSysVar
  3
AcMeServices
 90
        0
280
     0
281
     0
  0
CLASS
  1
ACMEDRAWINGMAN
  2
AcMeDrawingMan
  3
AcMeServices
 90
        0
280
     0
281
     0
  0
CLASS
  1
ACMEVIEW
  2
AcMeView
  3
AcMeServices
 90
        0
280
     0
281
     0
  0
CLASS
  1
ACDBENTITYCACHE
  2
AcMeEntityCache
  3
AcMeServices
 90
        0
280
     0
281
     0
  0
CLASS
  1
GSMANAGER
  2
AcMeGSManager
  3
AcMeServices
 90
        0
280
     0
281
     0
  0
CLASS
  1
AMDTINTERNALREACTOR
  2
AmdtInternalReactor
  3
AcMeServices
 90
        0
280
     0
281
     0
  0
CLASS
  1
ACMESTATEMGR
  2
AcMeStateMgr
  3
AcMeServices
 90
        0
280
     0
281
     0
  0
CLASS
  1
ACGREFMASTER
  2
AcGrefMaster
  3
AcAttribServices
 90
        0
280
     0
281
     0
  0
CLASS
  1
ACME_DATABASE
  2
AcMeDbDatabase
  3
AcMeServices
 90
        0
280
     0
281
     0
  0
CLASS
  1
ACRFINSADJUSTERMGR
  2
AcRfInsAdjusterMgr
  3
AcMeServices
 90
        0
280
     0
281
     0
  0
CLASS
  1
ACGREFACADMASTER
  2
AcGrefacadMaster
  3
AcGrefServices
 90
        0
280
     0
281
     0
  0
CLASS
  1
AMIMASTER
  2
AmiMaster
  3
AmiServices
 90
        0
280
     0
281
     0
  0
CLASS
  1
ACIMSTRSYSVAR
  2
AcImStrSysVar
  3
AcMeServices
 90
        0
280
     0
281
     0
  0
CLASS
  1
ACMSTANDARDDIN
  2
AcmStandardDIN
  3
"Amdt_StdImp|Product Description: AutoCAD Mechanical 2004 DX|Company: Autodesk"
 90
        0
280
     0
281
     0
  0
CLASS
  1
AMGOBJPROPCFG
  2
AmgObjPropCfg
  3
"AmgLay|Product Description: AutoCAD Mechanical 2000|Company: Autodesk"
 90
        1
280
     0
281
     0
  0
CLASS
  1
AMDTEDGESTANDARDDIN
  2
AmdtEdgeStdDIN
  3
"Amdt_StdImp|Product Description: AutoCAD Mechanical 2004 DX|Company: Autodesk"
 90
        0
280
     0
281
     0
  0
CLASS
  1
ACMSURFSTANDARDDIN
  2
AcmSurfTextStdDIN
  3
"Amdt_StdImp|Product Description: AutoCAD Mechanical 2004 DX|Company: Autodesk"
 90
        0
280
     0
281
     0
  0
CLASS
  1
ACMFCFSTANDARDDIN
  2
AcmFCFStdDIN
  3
"Amdt_StdImp|Product Description: AutoCAD Mechanical 2004 DX|Company: Autodesk"
 90
        0
280
     0
281
     0
  0
CLASS
  1
ACMWELDSTANDARDDIN
  2
AcmWeldingStdDIN
  3
"Amdt_StdImp|Product Description: AutoCAD Mechanical 2004 DX|Company: Autodesk"
 90
        0
280
     0
281
     0
  0
CLASS
  1
ACMIDSTANDARDDIN
  2
AcmIdStdDIN
  3
"Amdt_StdImp|Product Description: AutoCAD Mechanical 2004 DX|Company: Autodesk"
 90
        0
280
     0
281
     0
  0
CLASS
  1
ACMDATUMSTANDARDDIN
  2
AcmDatumStdDIN
  3
"Amdt_StdImp|Product Description: AutoCAD Mechanical 2004 DX|Company: Autodesk"
 90
        0
280
     0
281
     0
  0
CLASS
  1
ACMBOMSTANDARDDIN
  2
AcmBOMStdDIN
  3
"Amdt_StdImp|Product Description: AutoCAD Mechanical 2004 DX|Company: Autodesk"
 90
        0
280
     0
281
     0
  0
CLASS
  1
ACMDETAILSTANDARDDIN
  2
AmdtDetailSymStdDIN
  3
"Amdt_StdImp|Product Description: AutoCAD Mechanical 2004 DX|Company: Autodesk"
 90
        0
280
     0
281
     0
  0
CLASS
  1
ACMSECTIONSTANDARDDIN
  2
AmdtSectionSymStdDIN
  3
"Amdt_StdImp|Product Description: AutoCAD Mechanical 2004 DX|Company: Autodesk"
 90
        0
280
     0
281
     0
  0
CLASS
  1
ACMCENTERLINESTANDARDDIN
  2
AmdtCenterLineStdDIN
  3
"Amdt_StdImp|Product Description: AutoCAD Mechanical 2004 DX|Company: Autodesk"
 90
        0
280
     0
281
     0
  0
CLASS
  1
ACMTHREADLINESTANDARDDIN
  2
AmdtThreadLineStdDIN
  3
"Amdt_StdImp|Product Description: AutoCAD Mechanical 2004 DX|Company: Autodesk"
 90
        0
280
     0
281
     0
  0
CLASS
  1
ACAMGLAYSTD
  2
AcAmgLayStd
  3
"AcAmgLayStd|Product Description: AutoCAD Mechanical 2000|Company: Autodesk"
 90
        0
280
     0
281
     0
  0
CLASS
  1
ACAMGDIMSTD
  2
AcAmgDimStd
  3
"AcAmgDimStd|Product Description: AutoCAD Mechanical 2000|Company: Autodesk"
 90
        0
280
     0
281
     0
  0
CLASS
  1
ACAMGTITLESTD
  2
AcAmgTitleStd
  3
"TITLEAPP"
 90
        0
280
     0
281
     0
  0
CLASS
  1
ACMDATADICTIONARY
  2
AcmDataDictionary
  3
"AcmSymBB|Product Description: AutoCAD Mechanical 2004 DX|Company: Autodesk"
 90
        0
280
     0
281
     0
  0
CLASS
  1
ACMDATAENTRYBLOCK
  2
AcmDataEntryBlock
  3
"AcmSymBB|Product Description: AutoCAD Mechanical 2004 DX|Company: Autodesk"
 90
        0
280
     0
281
     0
  0
CLASS
  1
LAYER_INDEX
  2
AcDbLayerIndex
  3
ObjectDBX Classes
 90
    32768
280
     0
281
     0
  0
CLASS
  1
IDBUFFER
  2
AcDbIdBuffer
  3
ObjectDBX Classes
 90
    32768
280
     0
281
     0
  0
CLASS
  1
ACMNOTESTANDARDDIN
  2
AmdtNoteStdDIN
  3
"Amdt_StdImp|Product Description: AutoCAD Mechanical 2004 DX|Company: Autodesk"
 90
        0
280
     0
281
     0
  0
CLASS
  1
ACAMGHOLECHARTSTDDIN
  2
AcAmgHoleChartStdDIN
  3
ACMSYMBB_MODULE_NAME
 90
        0
280
     0
281
     0
  0
CLASS
  1
AM_DRAWING_MGR
  2
AcDmDwgMgr
  3
AcMechDwgViewMgmt
 90
        0
280
     0
281
     0
  0
CLASS
  1
AM_DWG_DOCUMENT
  2
AcDmDwgDocument
  3
AcMechDwgViewMgmt
 90
        0
280
     0
281
     0
  0
CLASS
  1
AM_DWG_SHEET
  2
AcDmSheet
  3
AcMechDwgViewMgmt
 90
        0
280
     0
281
     0
  0
CLASS
  1
AM_VIEWDIMPARMAP
  2
AcDmViewDimParMap
  3
AcMechDwgViewMgmt
 90
        0
280
     0
281
     0
  0
CLASS
  1
AM_DWGMGR_NAME
  2
AcDmDwgMgrName
  3
AcMechDwgViewMgmt
 90
        0
280
     0
281
     0
  0
CLASS
  1
AMDTMENUSTATEMGR
  2
AmdtMenuStateMgr
  3
McadcomServices
 90
        0
280
     0
281
     0
  0
CLASS
  1
AMDTMCOMMENUSTATE
  2
AmdtMcomMenuState
  3
McadcomServices
 90
        0
280
     0
281
     0
  0
CLASS
  1
MAPIAMMOUDLE
  2
MApiAmModule
  3
MApiAmServices
 90
        0
280
     0
281
     0
  0
CLASS
  1
AMDTADMENUSTATE
  2
AmdtAdMenuState
  3
DesignerServices
 90
        0
280
     0
281
     0
  0
CLASS
  1
ADAPPL
  2
AcAdAppl
  3
DesignerServices
 90
        0
280
     0
281
     0
  0
CLASS
  1
DEPMGR
  2
AcAdDepMgr
  3
DesignerServices
 90
        0
280
     0
281
     0
  0
CLASS
  1
PARAMMGR
  2
AcAdParamMgr
  3
DesignerServices
 90
        0
280
     0
281
     0
  0
CLASS
  1
PARAMSCOPE
  2
AcAdParamScope
  3
DesignerServices
 90
        0
280
     0
281
     0
  0
CLASS
  1
NAMEDAPPL
  2
AcAdNamedAppl
  3
DesignerServices
 90
        0
280
     0
281
     0
  0
CLASS
  1
AMDTDMMENUSTATE
  2
AmdtDmMenuState
  3
AcMechDwgViewMgmt
 90
        0
280
     0
281
     0
  0
CLASS
  1
AMDTAMMENUSTATE
  2
AmdtAmMenuState
  3
DesignerAssemblies
 90
        0
280
     0
281
     0
  0
CLASS
  1
ACAMPROJECT
  2
AcAmProject
  3
DesignerAssemblies
 90
        0
280
     0
281
     0
  0
CLASS
  1
ACAMGRCOMPDEF
  2
AcAmGrCompDef
  3
DesignerAssemblies
 90
        0
280
     0
281
     0
  0
CLASS
  1
ACCMCONTEXT
  2
AcCmContext
  3
DesignerAssemblies
 90
        0
280
     0
281
     0
  0
CLASS
  1
ACAMCOMPDEF
  2
AcAmCompDef
  3
DesignerAssemblies
 90
        0
280
     0
281
     0
  0
CLASS
  1
ACAMCOMPDEFMGR
  2
AcAmCompDefMgr
  3
DesignerAssemblies
 90
        0
280
     0
281
     0
  0
CLASS
  1
AMCONTEXTMGR
  2
AcAmContextMgr
  3
DesignerAssemblies
 90
        0
280
     0
281
     0
  0
CLASS
  1
ACAMCONTEXTMODELER
  2
AcAmContextModeler
  3
DesignerAssemblies
 90
        0
280
     0
281
     0
  0
CLASS
  1
CATALOGSTATE
  2
AcAmCatalogState
  3
DesignerAssemblies
 90
        0
280
     0
281
     0
  0
CLASS
  1
ACAMGRCOMPDEFSET
  2
AcAmGrCompDefSet
  3
DesignerAssemblies
 90
        0
280
     0
281
     0
  0
CLASS
  1
AMDTBROWSERDBTAB
  2
AmdtBrowserDbTab
  3
McadcomServices
 90
        0
280
     0
281
     0
  0
CLASS
  1
CBROWSERAPPOBJECT
  2
CBrowserAppObject
  3
McadcomServices
 90
        0
280
     0
281
     0
  0
CLASS
  1
DM_PLACEHOLDER
  2
AcDmSelsetPlaceholder
  3
AcMechDwgViewMgmt
 90
        0
280
     0
281
     0
  0
CLASS
  1
TABLESTYLE
  2
AcDbTableStyle
  3
ObjectDBX Classes
 90
     2047
280
     0
281
     0
  0
CLASS
  1
VAACXREFPANELOBJECT
  2
VaAcXREFPanelObject
  3
VAAC_ADDIN
 90
    32768
280
     0
281
     0
  0
CLASS
  1
VAACIMAGEINVENTORY
  2
VaAcImageInventory
  3
VAAC_ADDIN
 90
    32768
280
     0
281
     0
  0
CLASS
  1
AMDTNOTETEMPLATEDB
  2
AmdtNoteTemplateDB
  3
AMDT_STDIMP_MODULE_NAME
 90
        0
280
     0
281
     0
  0
CLASS
  1
ACAMGFILTERDAT
  2
AcAmgFilterDat
  3
"AcadM|Product Description: AutoCAD Mechanical 2000|Company: Autodesk"
 90
        0
280
     0
281
     0
  0
CLASS
  1
ACMBOM
  2
AcmBom
  3
"AcmSymBB|Product Description: AutoCAD Mechanical 2004 DX|Company: Autodesk"
 90
    32768
280
     0
281
     0
  0
CLASS
  1
AMDTFORMULAUPDATEDISPATCHER
  2
AmdtFormulaUpdateDispatcher
  3
AcMeServices
 90
    32768
280
     0
281
     0
  0
CLASS
  1
DIMASSOC
  2
AcDbDimAssoc
  3
"AcDbDimAssoc|Product Desc:     AcDim ARX App For Dimension|Company:          Autodesk, Inc.|WEB Address:      www.autodesk.com"
 90
        0
280
     0
281
     0
  0
CLASS
  1
SORTENTSTABLE
  2
AcDbSortentsTable
  3
ObjectDBX Classes
 90
        0
280
     0
281
     0
  0
CLASS
  1
ACRFATTGENMGR
  2
AcRfAttGeneralMgr
  3
AcAttribServices
 90
        0
280
     0
281
     0
  0
ENDSEC
  0
SECTION
  2
TABLES
  0
TABLE
  2
VPORT
  5
8
330
0
100
AcDbSymbolTable
 70
     3
  0
VPORT
  5
5EE
330
8
100
AcDbSymbolTableRecord
100
AcDbViewportTableRecord
  2
*Active
 70
     0
 10
0.0
 20
0.0
 11
1.0
 21
1.0
 12
1516.940298380228
 22
1373.735122769578
 13
0.0
 23
0.0
 14
2.5
 24
2.5
 15
10.0
 25
10.0
 16
0.0
 26
0.0
 36
1.0
 17
0.0
 27
0.0
 37
0.0
 40
1290.140148649424
 41
1.378804960541149
 42
50.0
 43
0.0
 44
0.0
 50
0.0
 51
0.0
 71
     0
 72
   100
 73
     1
 74
     3
 75
     0
 76
     0
 77
     0
 78
     0
281
     0
 65
     1
110
0.0
120
0.0
130
0.0
111
1.0
121
0.0
131
0.0
112
0.0
122
1.0
132
0.0
 79
     0
146
0.0
  0
ENDTAB
  0
TABLE
  2
LTYPE
  5
5
330
0
100
AcDbSymbolTable
 70
    21
  0
LTYPE
  5
14
330
5
100
AcDbSymbolTableRecord
100
AcDbLinetypeTableRecord
  2
ByBlock
 70
     0
  3

 72
    65
 73
     0
 40
0.0
  0
LTYPE
  5
15
330
5
100
AcDbSymbolTableRecord
100
AcDbLinetypeTableRecord
  2
ByLayer
 70
     0
  3

 72
    65
 73
     0
 40
0.0
  0
LTYPE
  5
16
330
5
100
AcDbSymbolTableRecord
100
AcDbLinetypeTableRecord
  2
Continuous
 70
     0
  3
Solid line
 72
    65
 73
     0
 40
0.0
  0
LTYPE
  5
50
330
5
100
AcDbSymbolTableRecord
100
AcDbLinetypeTableRecord
  2
Amconstr
 70
     0
  3
_______________________
 72
    65
 73
     2
 40
9999.0
 49
9999.0
 74
     0
 49
0.0
 74
     0
  0
LTYPE
  5
55
330
5
100
AcDbSymbolTableRecord
100
AcDbLinetypeTableRecord
  2
Amzigzag
 70
     0
  3
/\/-/\/-/\/-/\/-/\/-/\/
 72
    65
 73
     2
 40
11.0001
 49
0.0001
 74
     4
 75
   136
340
285
 46
0.04
 50
0.0
 44
0.0
 45
0.0
 49
-11.0
 74
     0
  0
LTYPE
  5
56
330
5
100
AcDbSymbolTableRecord
100
AcDbLinetypeTableRecord
  2
AM_DIN_F_W050
 70
     0
  3
__ __ __ __ __ __ __ __ __ __ __ __ __ __ __
 72
    65
 73
     2
 40
6.25
 49
4.75
 74
     0
 49
-1.5
 74
     0
  0
LTYPE
  5
57
330
5
100
AcDbSymbolTableRecord
100
AcDbLinetypeTableRecord
  2
AM_DIN_G_W050
 70
     0
  3
____ . ____ . ____ . ____ . ____ . ____ . ____
 72
    65
 73
     4
 40
13.75
 49
9.75
 74
     0
 49
-1.5
 74
     0
 49
1.0
 74
     0
 49
-1.5
 74
     0
  0
LTYPE
  5
58
330
5
100
AcDbSymbolTableRecord
100
AcDbLinetypeTableRecord
  2
AM_DIN_K_W050
 70
     0
  3
_____ . . _____ . . _____ . . ____ .. ____
 72
    65
 73
     6
 40
16.25
 49
9.75
 74
     0
 49
-1.5
 74
     0
 49
1.0
 74
     0
 49
-1.5
 74
     0
 49
1.0
 74
     0
 49
-1.5
 74
     0
  0
LTYPE
  5
59
330
5
100
AcDbSymbolTableRecord
100
AcDbLinetypeTableRecord
  2
AM_DIN_G_W050x2
 70
     0
  3
__ . __ . __ . __ . __ . __
 72
    65
 73
     4
 40
6.875
 49
4.75
 74
     0
 49
-0.875
 74
     0
 49
0.375
 74
     0
 49
-0.875
 74
     0
  0
LTYPE
  5
5A
330
5
100
AcDbSymbolTableRecord
100
AcDbLinetypeTableRecord
  2
AM_DIN_F_W050x2
 70
     0
  3
 _ _ _ _ _ _ _ _ _ _ _ _
 72
    65
 73
     2
 40
3.125
 49
2.25
 74
     0
 49
-0.875
 74
     0
  0
LTYPE
  5
68
330
5
100
AcDbSymbolTableRecord
100
AcDbLinetypeTableRecord
  2
ACDINWELD
 70
     0
  3
_ _ _ _ _
 72
    65
 73
     2
 40
2.0
 49
2.0
 74
     0
 49
-1.0
 74
     0
  0
LTYPE
  5
69
330
5
100
AcDbSymbolTableRecord
100
AcDbLinetypeTableRecord
  2
ACDINTGB
 70
     0
  3
__ . . __ . .
 72
    65
 73
     6
 40
9.0
 49
4.0
 74
     0
 49
-1.0
 74
     0
 49
1.0
 74
     0
 49
-1.0
 74
     0
 49
1.0
 74
     0
 49
-1.0
 74
     0
  0
LTYPE
  5
6A
330
5
100
AcDbSymbolTableRecord
100
AcDbLinetypeTableRecord
  2
ACDINTGL
 70
     0
  3
_ _ _ _ _
 72
    65
 73
     2
 40
3.0
 49
2.0
 74
     0
 49
-1.0
 74
     0
  0
LTYPE
  5
6C
330
5
100
AcDbSymbolTableRecord
100
AcDbLinetypeTableRecord
  2
CENTER
 70
     0
  3
__ . __
 72
    65
 73
     4
 40
7.0
 49
4.0
 74
     0
 49
-1.0
 74
     0
 49
1.0
 74
     0
 49
-1.0
 74
     0
  0
LTYPE
  5
F2
330
5
100
AcDbSymbolTableRecord
100
AcDbLinetypeTableRecord
  2
HIDDEN
 70
     0
  3
Hidden __ __ __ __ __ __ __ __ __ __ __ __ __ _
 72
    65
 73
     2
 40
9.524999999999998
 49
6.349999999999999
 74
     0
 49
-3.174999999999999
 74
     0
  0
LTYPE
  5
F3
330
5
100
AcDbSymbolTableRecord
100
AcDbLinetypeTableRecord
  2
PHANTOM2
 70
     0
  3
Phantom (.5x) ___ _ _ ___ _ _ ___ _ _ ___ _ _
 72
    65
 73
     6
 40
31.75
 49
15.875
 74
     0
 49
-3.174999999999999
 74
     0
 49
3.174999999999999
 74
     0
 49
-3.174999999999999
 74
     0
 49
3.174999999999999
 74
     0
 49
-3.174999999999999
 74
     0
  0
LTYPE
  5
368
330
5
100
AcDbSymbolTableRecord
100
AcDbLinetypeTableRecord
  2
AUSGEZOGEN
 70
     0
  3
_______________________________________________
 72
    65
 73
     0
 40
0.0
  0
ENDTAB
  0
TABLE
  2
LAYER
  5
2
102
{ACAD_XDICTIONARY
360
C0
102
}
330
0
100
AcDbSymbolTable
 70
    10
  0
LAYER
  5
10
330
2
100
AcDbSymbolTableRecord
100
AcDbLayerTableRecord
  2
0
 70
     0
 62
     7
  6
Continuous
370
    -3
390
F
  0
LAYER
  5
369
330
2
100
AcDbSymbolTableRecord
100
AcDbLayerTableRecord
  2
AM_7
 70
     0
 62
     4
  6
AM_DIN_G_W050
370
    25
390
F
  0
LAYER
  5
36A
330
2
100
AcDbSymbolTableRecord
100
AcDbLayerTableRecord
  2
DEFPOINTS
 70
     0
 62
     7
  6
Continuous
290
     0
370
    -3
390
F
  0
LAYER
  5
36B
330
2
100
AcDbSymbolTableRecord
100
AcDbLayerTableRecord
  2
406
 70
     0
 62
     7
  6
Continuous
370
    -3
390
F
  0
LAYER
  5
36C
330
2
100
AcDbSymbolTableRecord
100
AcDbLayerTableRecord
  2
AM_5
 70
     0
 62
     3
  6
Continuous
370
    25
390
F
  0
LAYER
  5
36D
330
2
100
AcDbSymbolTableRecord
100
AcDbLayerTableRecord
  2
AM_4
 70
     0
 62
     3
  6
Continuous
370
    25
390
F
  0
LAYER
  5
36E
330
2
100
AcDbSymbolTableRecord
100
AcDbLayerTableRecord
  2
AM_6
 70
     0
 62
     2
  6
Continuous
370
    35
390
F
  0
LAYER
  5
36F
330
2
100
AcDbSymbolTableRecord
100
AcDbLayerTableRecord
  2
4
 70
     0
 62
     3
  6
Continuous
370
    -3
390
F
  0
LAYER
  5
370
330
2
100
AcDbSymbolTableRecord
100
AcDbLayerTableRecord
  2
AM_3
 70
     0
 62
     6
  6
AM_DIN_F_W050
370
    25
390
F
  0
ENDTAB
  0
TABLE
  2
STYLE
  5
3
330
0
100
AcDbSymbolTable
 70
     8
  0
STYLE
  5
11
330
3
100
AcDbSymbolTableRecord
100
AcDbTextStyleTableRecord
  2
STANDARD
 70
     0
 40
0.0
 41
1.0
 50
0.0
 71
     0
 42
2.5
  3
ISOCP.SHX
  4
bigfont.shx
  0
STYLE
  5
5B
330
3
100
AcDbSymbolTableRecord
100
AcDbTextStyleTableRecord
  2
ACDINTS
 70
     0
 40
1.0
 41
1.0
 50
0.0
 71
     0
 42
2.5
  3
isocp.shx
  4
bigfont.shx
  0
STYLE
  5
67
330
3
100
AcDbSymbolTableRecord
100
AcDbTextStyleTableRecord
  2
ACDINGDT
 70
     0
 40
0.0
 41
1.0
 50
0.0
 71
     0
 42
2.5
  3
AMGDT
  4
bigfont.shx
  0
STYLE
  5
285
330
3
100
AcDbSymbolTableRecord
100
AcDbTextStyleTableRecord
  2

 70
     1
 40
0.0
 41
1.0
 50
0.0
 71
     0
 42
2.5
  3
genltshp.shx
  4

  0
ENDTAB
  0
TABLE
  2
VIEW
  5
6
330
0
100
AcDbSymbolTable
 70
     0
  0
ENDTAB
  0
TABLE
  2
UCS
  5
7
330
0
100
AcDbSymbolTable
 70
     0
  0
ENDTAB
  0
TABLE
  2
APPID
  5
9
330
0
100
AcDbSymbolTable
 70
    19
  0
APPID
  5
12
330
9
100
AcDbSymbolTableRecord
100
AcDbRegAppTableRecord
  2
ACAD
 70
     0
  0
APPID
  5
30
330
9
100
AcDbSymbolTableRecord
100
AcDbRegAppTableRecord
  2
MCAD_NO_VIS
 70
     0
  0
APPID
  5
31
330
9
100
AcDbSymbolTableRecord
100
AcDbRegAppTableRecord
  2
ACAD_TEMP_GRAPHIC
 70
     0
  0
APPID
  5
44
330
9
100
AcDbSymbolTableRecord
100
AcDbRegAppTableRecord
  2
ACATTRIBSERVICES
 70
     0
  0
APPID
  5
108
330
9
100
AcDbSymbolTableRecord
100
AcDbRegAppTableRecord
  2
AD_DRAW
 70
     0
  0
APPID
  5
126
330
9
100
AcDbSymbolTableRecord
100
AcDbRegAppTableRecord
  2
DESIGNERASSEMBLIES
 70
     0
  0
APPID
  5
12A
330
9
100
AcDbSymbolTableRecord
100
AcDbRegAppTableRecord
  2
ACADM_DIM_EDIT
 70
     0
  0
APPID
  5
12B
330
9
100
AcDbSymbolTableRecord
100
AcDbRegAppTableRecord
  2
AMDT_DM_ADJ
 70
     0
  0
APPID
  5
1A4
330
9
100
AcDbSymbolTableRecord
100
AcDbRegAppTableRecord
  2
ACAD_DSTYLE_DIMARC_LENGTH_SYMBOL
 70
     0
  0
APPID
  5
1A5
330
9
100
AcDbSymbolTableRecord
100
AcDbRegAppTableRecord
  2
ACAD_DSTYLE_DIMJOGGED_JOGANGLE_SYMBOL
 70
     0
  0
APPID
  5
22C
330
9
100
AcDbSymbolTableRecord
100
AcDbRegAppTableRecord
  2
AcAecLayerStandard
 70
     0
  0
APPID
  5
374
330
9
100
AcDbSymbolTableRecord
100
AcDbRegAppTableRecord
  2
GENIUS_GENOENT_13
 70
     0
  0
APPID
  5
375
330
9
100
AcDbSymbolTableRecord
100
AcDbRegAppTableRecord
  2
GENIUS_GENODEF_13
 70
     0
  0
APPID
  5
376
330
9
100
AcDbSymbolTableRecord
100
AcDbRegAppTableRecord
  2
GENIUS_GENOLIS_13
 70
     0
  0
APPID
  5
377
330
9
100
AcDbSymbolTableRecord
100
AcDbRegAppTableRecord
  2
GENIUS_GENOREF_13
 70
     0
  0
APPID
  5
378
330
9
100
AcDbSymbolTableRecord
100
AcDbRegAppTableRecord
  2
GENIUS_GENOBJ-N-CEN_13
 70
     0
  0
APPID
  5
379
330
9
100
AcDbSymbolTableRecord
100
AcDbRegAppTableRecord
  2
ACAD_PSEXT
 70
     0
  0
APPID
  5
37A
330
9
100
AcDbSymbolTableRecord
100
AcDbRegAppTableRecord
  2
GENIUS_GENCEN_19
 70
     0
  0
APPID
  5
37B
330
9
100
AcDbSymbolTableRecord
100
AcDbRegAppTableRecord
  2
GENIUS_GENOBJ-N-CRS_13
 70
     0
  0
ENDTAB
  0
TABLE
  2
DIMSTYLE
  5
A
330
0
100
AcDbSymbolTable
 70
    11
100
AcDbDimStyleTable
 71
     1
340
6F
  0
DIMSTYLE
105
6F
102
{ACAD_REACTORS
330
4B
102
}
330
A
100
AcDbSymbolTableRecord
100
AcDbDimStyleTableRecord
  2
AM_DIN
 70
     0
  4
"
 41
2.5
 42
1.0
 43
10.0
 44
1.0
 47
0.1
 48
0.1
 73
     0
 74
     0
 77
     1
 78
     8
 79
     2
140
3.5
141
0.0
143
0.0393701
146
0.71
147
1.5
172
     1
176
   256
177
   256
178
     2
271
     2
272
     3
274
     4
283
     0
284
     8
340
11
371
    -1
372
    -1
1001
ACAD_DSTYLE_DIMARC_LENGTH_SYMBOL
1070
   379
1070
     0
1001
ACAD_DSTYLE_DIMJOGGED_JOGANGLE_SYMBOL
1070
   384
1040
1.570796326794896
  0
DIMSTYLE
105
70
330
A
100
AcDbSymbolTableRecord
100
AcDbDimStyleTableRecord
  2
AM_DIN$3
 70
     0
  4
"
 41
2.5
 42
1.0
 43
10.0
 44
1.0
 47
0.1
 48
0.1
 73
     0
 77
     1
 78
     8
 79
     2
140
3.5
141
0.0
143
0.0393701
146
0.71
147
1.5
176
   256
177
   256
178
     2
271
     2
272
     3
274
     4
283
     0
284
     8
288
     1
289
     0
340
11
371
    -1
372
    -1
1001
ACAD_DSTYLE_DIMARC_LENGTH_SYMBOL
1070
   379
1070
     0
1001
ACAD_DSTYLE_DIMJOGGED_JOGANGLE_SYMBOL
1070
   384
1040
1.570796326794896
  0
DIMSTYLE
105
71
330
A
100
AcDbSymbolTableRecord
100
AcDbDimStyleTableRecord
  2
AM_DIN$4
 70
     0
  4
"
 41
2.5
 42
1.0
 43
10.0
 44
1.0
 47
0.1
 48
0.1
 73
     0
 77
     1
 78
     8
 79
     2
140
3.5
141
0.0
143
0.0393701
146
0.71
147
1.5
176
   256
177
   256
178
     2
271
     2
272
     3
274
     4
283
     0
284
     8
288
     1
289
     0
340
11
371
    -1
372
    -1
1001
ACAD_DSTYLE_DIMARC_LENGTH_SYMBOL
1070
   379
1070
     0
1001
ACAD_DSTYLE_DIMJOGGED_JOGANGLE_SYMBOL
1070
   384
1040
1.570796326794896
  0
DIMSTYLE
105
72
330
A
100
AcDbSymbolTableRecord
100
AcDbDimStyleTableRecord
  2
AM_DIN$6
 70
     0
  4
"
 41
2.5
 42
1.0
 43
10.0
 44
1.0
 47
0.1
 48
0.1
 73
     0
 74
     0
 78
     8
 79
     2
140
3.5
141
0.0
143
0.0393701
146
0.71
147
1.5
172
     1
176
   256
177
   256
178
     2
271
     2
272
     3
274
     4
283
     0
284
     8
340
11
371
    -1
372
    -1
1001
ACAD_DSTYLE_DIMARC_LENGTH_SYMBOL
1070
   379
1070
     0
1001
ACAD_DSTYLE_DIMJOGGED_JOGANGLE_SYMBOL
1070
   384
1040
1.570796326794896
  0
DIMSTYLE
105
73
330
A
100
AcDbSymbolTableRecord
100
AcDbDimStyleTableRecord
  2
AM_DIN$7
 70
     0
  4
"
 41
2.5
 42
1.0
 43
10.0
 44
1.0
 47
0.1
 48
0.1
 73
     0
 74
     0
 77
     1
 78
     8
 79
     2
140
5.0
141
0.0
143
0.0393701
146
0.71
147
1.5
172
     1
176
   256
177
   256
178
     2
271
     2
272
     3
274
     4
283
     0
284
     8
340
11
371
    -1
372
    -1
1001
ACAD_DSTYLE_DIMARC_LENGTH_SYMBOL
1070
   379
1070
     0
1001
ACAD_DSTYLE_DIMJOGGED_JOGANGLE_SYMBOL
1070
   384
1040
1.570796326794896
  0
DIMSTYLE
105
74
330
A
100
AcDbSymbolTableRecord
100
AcDbDimStyleTableRecord
  2
AM_DIN$SF
 70
     0
  4
"
 41
2.5
 42
1.0
 43
10.0
 44
1.0
 47
0.1
 48
0.1
 73
     0
 74
     0
 75
     1
 76
     1
 77
     1
 78
     8
 79
     2
140
3.5
141
0.0
143
0.0393701
146
0.71
147
1.5
172
     1
176
   256
177
   256
178
     2
271
     2
272
     3
274
     4
283
     0
284
     8
340
11
371
    -1
372
    -1
1001
ACAD_DSTYLE_DIMARC_LENGTH_SYMBOL
1070
   379
1070
     0
1001
ACAD_DSTYLE_DIMJOGGED_JOGANGLE_SYMBOL
1070
   384
1040
1.570796326794896
  0
DIMSTYLE
105
79
330
A
100
AcDbSymbolTableRecord
100
AcDbDimStyleTableRecord
  2
AM_DIN$SH
 70
     0
  4
"
 41
2.5
 42
1.0
 43
10.0
 44
1.0
 47
0.1
 48
0.1
 73
     0
 74
     0
 75
     1
 76
     1
 77
     1
 78
     8
 79
     2
140
3.5
141
0.0
143
0.0393701
144
2.0
146
0.71
147
1.5
172
     1
173
     1
176
   256
177
   256
178
     2
271
     2
272
     3
274
     4
283
     0
284
     8
340
11
343
75
371
    -1
372
    -1
1001
ACAD_DSTYLE_DIMARC_LENGTH_SYMBOL
1070
   379
1070
     0
1001
ACAD_DSTYLE_DIMJOGGED_JOGANGLE_SYMBOL
1070
   384
1040
1.570796326794896
  0
DIMSTYLE
105
372
330
A
100
AcDbSymbolTableRecord
100
AcDbDimStyleTableRecord
  2
GEN-ISO
 70
     0
  4
"
 40
10.0
 41
2.5
 42
1.0
 43
7.0
 44
1.0
 47
0.1
 48
0.1
 73
     0
 74
     0
 77
     1
 78
     8
140
3.5
141
0.0
143
0.0393701
146
0.71
147
0.6
172
     1
176
     3
177
     3
178
     2
271
     2
272
     2
283
     0
340
11
  0
DIMSTYLE
105
373
102
{ACAD_REACTORS
330
409
330
428
330
430
330
431
330
433
330
429
330
42D
330
504
330
523
330
524
330
528
330
52B
330
52C
330
52E
102
}
330
A
100
AcDbSymbolTableRecord
100
AcDbDimStyleTableRecord
  2
GEN-ISO$0
 70
     0
  4
"
 40
10.0
 41
2.5
 42
1.0
 43
7.0
 44
1.0
 47
0.1
 48
0.1
 73
     0
 74
     0
 77
     1
 78
     8
140
3.5
141
0.0
143
0.0393701
146
0.71
147
0.6
172
     1
176
     3
177
     3
178
     2
271
     2
272
     2
283
     0
340
11
  0
ENDTAB
  0
TABLE
  2
BLOCK_RECORD
  5
1
330
0
100
AcDbSymbolTable
 70
    18
  0
BLOCK_RECORD
  5
1F
102
{ACAD_XDICTIONARY
360
83
102
}
330
1
100
AcDbSymbolTableRecord
100
AcDbBlockTableRecord
  2
*Model_Space
340
22
  0
BLOCK_RECORD
  5
1B
330
1
100
AcDbSymbolTableRecord
100
AcDbBlockTableRecord
  2
*Paper_Space
340
1E
  0
BLOCK_RECORD
  5
23
330
1
100
AcDbSymbolTableRecord
100
AcDbBlockTableRecord
  2
*Paper_Space0
340
26
  0
BLOCK_RECORD
  5
75
330
1
100
AcDbSymbolTableRecord
100
AcDbBlockTableRecord
  2
GENAXEH
340
0
  0
BLOCK_RECORD
  5
56E
330
1
100
AcDbSymbolTableRecord
100
AcDbBlockTableRecord
  2
*D11
340
0
  0
BLOCK_RECORD
  5
57A
330
1
100
AcDbSymbolTableRecord
100
AcDbBlockTableRecord
  2
*D12
340
0
  0
BLOCK_RECORD
  5
586
330
1
100
AcDbSymbolTableRecord
100
AcDbBlockTableRecord
  2
*D13
340
0
  0
BLOCK_RECORD
  5
592
330
1
100
AcDbSymbolTableRecord
100
AcDbBlockTableRecord
  2
*D14
340
0
  0
BLOCK_RECORD
  5
5A0
330
1
100
AcDbSymbolTableRecord
100
AcDbBlockTableRecord
  2
*D15
340
0
  0
BLOCK_RECORD
  5
5BE
330
1
100
AcDbSymbolTableRecord
100
AcDbBlockTableRecord
  2
*D16
340
0
  0
BLOCK_RECORD
  5
5E0
330
1
100
AcDbSymbolTableRecord
100
AcDbBlockTableRecord
  2
*D17
340
0
  0
ENDTAB
  0
ENDSEC
  0
SECTION
  2
BLOCKS
  0
BLOCK
  5
20
330
1F
100
AcDbEntity
  8
0
100
AcDbBlockBegin
  2
*Model_Space
 70
     0
 10
0.0
 20
0.0
 30
0.0
  3
*Model_Space
  1

  0
ENDBLK
  5
21
330
1F
100
AcDbEntity
  8
0
100
AcDbBlockEnd
  0
BLOCK
  5
1C
330
1B
100
AcDbEntity
 67
     1
  8
0
100
AcDbBlockBegin
  2
*Paper_Space
 70
     0
 10
0.0
 20
0.0
 30
0.0
  3
*Paper_Space
  1

  0
ENDBLK
  5
1D
330
1B
100
AcDbEntity
 67
     1
  8
0
100
AcDbBlockEnd
  0
BLOCK
  5
24
330
23
100
AcDbEntity
 67
     1
  8
0
100
AcDbBlockBegin
  2
*Paper_Space0
 70
     0
 10
0.0
 20
0.0
 30
0.0
  3
*Paper_Space0
  1

  0
ENDBLK
  5
25
330
23
100
AcDbEntity
 67
     1
  8
0
100
AcDbBlockEnd
  0
BLOCK
  5
77
330
75
100
AcDbEntity
  8
0
100
AcDbBlockBegin
  2
GENAXEH
 70
     0
 10
0.0
 20
0.0
 30
0.0
  3
GENAXEH
  1

  0
LINE
  5
76
330
75
100
AcDbEntity
  8
0
100
AcDbLine
 10
-1.0
 20
0.0
 30
0.0
 11
1.0
 21
0.0
 31
0.0
  0
ENDBLK
  5
78
330
75
100
AcDbEntity
  8
0
100
AcDbBlockEnd
  0
BLOCK
  5
578
330
56E
100
AcDbEntity
  8
0
100
AcDbBlockBegin
  2
*D11
 70
     1
 10
0.0
 20
0.0
 30
0.0
  3
*D11
  1

  0
LINE
  5
5AC
330
56E
100
AcDbEntity
  8
AM_5
 62
     3
370
    -2
100
AcDbLine
 10
1461.80936963984
 20
1890.576896030036
 30
0.0
 11
1461.80936963984
 21
1985.225867736406
 31
0.0
  0
LINE
  5
5AD
330
56E
100
AcDbEntity
  8
AM_5
 62
     3
370
    -2
100
AcDbLine
 10
1845.809369639833
 20
1890.576896030023
 30
0.0
 11
1845.809369639833
 21
1985.225867736406
 31
0.0
  0
LINE
  5
5AE
330
56E
100
AcDbEntity
  8
AM_5
 62
     3
370
    -2
100
AcDbLine
 10
1486.80936963984
 20
1975.225867736406
 30
0.0
 11
1820.809369639833
 21
1975.225867736406
 31
0.0
  0
SOLID
  5
5AF
330
56E
100
AcDbEntity
  8
AM_5
 62
     3
100
AcDbTrace
 10
1486.80936963984
 20
1979.392534403073
 30
0.0
 11
1486.80936963984
 21
1971.059201069739
 31
0.0
 12
1461.80936963984
 22
1975.225867736406
 32
0.0
 13
1461.80936963984
 23
1975.225867736406
 33
0.0
  0
SOLID
  5
5B0
330
56E
100
AcDbEntity
  8
AM_5
 62
     3
100
AcDbTrace
 10
1820.809369639833
 20
1979.392534403073
 30
0.0
 11
1820.809369639833
 21
1971.059201069739
 31
0.0
 12
1845.809369639833
 22
1975.225867736406
 32
0.0
 13
1845.809369639833
 23
1975.225867736406
 33
0.0
  0
MTEXT
  5
5B1
330
56E
100
AcDbEntity
  8
AM_5
 62
     2
100
AcDbMText
 10
1653.809369639836
 20
1998.725867736406
 30
0.0
 40
35.0
 41
0.0
 71
     5
 72
     1
  1
%%c384
 73
     1
 44
1.0
1001
ACAD
1000
MTEXTBEGIN
1070
    73
1070
     1
1070
    44
1040
1.0
1070
    74
1070
     0
1000
MTEXTEND
  0
POINT
  5
5B2
330
56E
100
AcDbEntity
  8
DEFPOINTS
 62
     0
100
AcDbPoint
 10
1461.80936963984
 20
1880.576896030035
 30
0.0
  0
POINT
  5
5B3
330
56E
100
AcDbEntity
  8
DEFPOINTS
 62
     0
100
AcDbPoint
 10
1845.809369639833
 20
1880.576896030023
 30
0.0
  0
POINT
  5
5B4
330
56E
100
AcDbEntity
  8
DEFPOINTS
 62
     0
100
AcDbPoint
 10
1845.809369639833
 20
1975.225867736406
 30
0.0
  0
ENDBLK
  5
579
330
56E
100
AcDbEntity
  8
0
100
AcDbBlockEnd
  0
BLOCK
  5
584
330
57A
100
AcDbEntity
  8
0
100
AcDbBlockBegin
  2
*D12
 70
     1
 10
0.0
 20
0.0
 30
0.0
  3
*D12
  1

  0
LINE
  5
5B5
330
57A
100
AcDbEntity
  8
AM_5
 62
     3
370
    -2
100
AcDbLine
 10
1476.823503116841
 20
1560.576896030024
 30
0.0
 11
1476.823503116841
 21
1368.641542945721
 31
0.0
  0
LINE
  5
5B6
330
57A
100
AcDbEntity
  8
AM_5
 62
     3
370
    -2
100
AcDbLine
 10
1830.823503116841
 20
1560.576896030024
 30
0.0
 11
1830.823503116841
 21
1368.641542945721
 31
0.0
  0
LINE
  5
5B7
330
57A
100
AcDbEntity
  8
AM_5
 62
     3
370
    -2
100
AcDbLine
 10
1501.823503116841
 20
1378.641542945721
 30
0.0
 11
1805.823503116841
 21
1378.641542945721
 31
0.0
  0
SOLID
  5
5B8
330
57A
100
AcDbEntity
  8
AM_5
 62
     3
100
AcDbTrace
 10
1501.823503116841
 20
1382.808209612388
 30
0.0
 11
1501.823503116841
 21
1374.474876279054
 31
0.0
 12
1476.823503116841
 22
1378.641542945721
 32
0.0
 13
1476.823503116841
 23
1378.641542945721
 33
0.0
  0
SOLID
  5
5B9
330
57A
100
AcDbEntity
  8
AM_5
 62
     3
100
AcDbTrace
 10
1805.823503116841
 20
1382.808209612388
 30
0.0
 11
1805.823503116841
 21
1374.474876279054
 31
0.0
 12
1830.823503116841
 22
1378.641542945721
 32
0.0
 13
1830.823503116841
 23
1378.641542945721
 33
0.0
  0
MTEXT
  5
5BA
330
57A
100
AcDbEntity
  8
AM_5
 62
     2
100
AcDbMText
 10
1672.316597012604
 20
1402.141542945721
 30
0.0
 40
35.0
 41
0.0
 71
     5
 72
     1
  1
%%c354
 73
     1
 44
1.0
1001
ACAD
1000
MTEXTBEGIN
1070
    73
1070
     1
1070
    44
1040
1.0
1070
    74
1070
     0
1000
MTEXTEND
  0
POINT
  5
5BB
330
57A
100
AcDbEntity
  8
DEFPOINTS
 62
     0
100
AcDbPoint
 10
1476.823503116841
 20
1570.576896030024
 30
0.0
  0
POINT
  5
5BC
330
57A
100
AcDbEntity
  8
DEFPOINTS
 62
     0
100
AcDbPoint
 10
1830.823503116841
 20
1570.576896030024
 30
0.0
  0
POINT
  5
5BD
330
57A
100
AcDbEntity
  8
DEFPOINTS
 62
     0
100
AcDbPoint
 10
1830.823503116841
 20
1378.641542945721
 30
0.0
  0
ENDBLK
  5
585
330
57A
100
AcDbEntity
  8
0
100
AcDbBlockEnd
  0
BLOCK
  5
590
330
586
100
AcDbEntity
  8
0
100
AcDbBlockBegin
  2
*D13
 70
     1
 10
0.0
 20
0.0
 30
0.0
  3
*D13
  1

  0
LINE
  5
5CC
330
586
100
AcDbEntity
  8
AM_5
 62
     3
370
    -2
100
AcDbLine
 10
1412.872085638698
 20
1650.582192760612
 30
0.0
 11
1412.872085638698
 21
1439.23292611935
 31
0.0
  0
LINE
  5
5CD
330
586
100
AcDbEntity
  8
AM_5
 62
     3
370
    -2
100
AcDbLine
 10
1476.823503116841
 20
1560.576896030024
 30
0.0
 11
1476.823503116841
 21
1439.23292611935
 31
0.0
  0
LINE
  5
5CE
330
586
100
AcDbEntity
  8
AM_5
 62
     3
370
    -2
100
AcDbLine
 10
1437.872085638698
 20
1449.23292611935
 30
0.0
 11
1451.823503116841
 21
1449.23292611935
 31
0.0
  0
SOLID
  5
5CF
330
586
100
AcDbEntity
  8
AM_5
 62
     3
100
AcDbTrace
 10
1437.872085638698
 20
1453.399592786017
 30
0.0
 11
1437.872085638698
 21
1445.066259452683
 31
0.0
 12
1412.872085638698
 22
1449.23292611935
 32
0.0
 13
1412.872085638698
 23
1449.23292611935
 33
0.0
  0
SOLID
  5
5D0
330
586
100
AcDbEntity
  8
AM_5
 62
     3
100
AcDbTrace
 10
1451.823503116841
 20
1453.399592786017
 30
0.0
 11
1451.823503116841
 21
1445.066259452683
 31
0.0
 12
1476.823503116841
 22
1449.23292611935
 32
0.0
 13
1476.823503116841
 23
1449.23292611935
 33
0.0
  0
MTEXT
  5
5D1
330
586
100
AcDbEntity
  8
AM_5
 62
     2
100
AcDbMText
 10
1444.84779437777
 20
1472.73292611935
 30
0.0
 40
35.0
 41
0.0
 71
     5
 72
     1
  1
63
 73
     1
 44
1.0
1001
ACAD
1000
MTEXTBEGIN
1070
    73
1070
     1
1070
    44
1040
1.0
1070
    74
1070
     0
1000
MTEXTEND
  0
POINT
  5
5D2
330
586
100
AcDbEntity
  8
DEFPOINTS
 62
     0
100
AcDbPoint
 10
1412.872085638698
 20
1660.582192760612
 30
0.0
  0
POINT
  5
5D3
330
586
100
AcDbEntity
  8
DEFPOINTS
 62
     0
100
AcDbPoint
 10
1476.823503116841
 20
1570.576896030024
 30
0.0
  0
POINT
  5
5D4
330
586
100
AcDbEntity
  8
DEFPOINTS
 62
     0
100
AcDbPoint
 10
1476.823503116841
 20
1449.23292611935
 30
0.0
  0
ENDBLK
  5
591
330
586
100
AcDbEntity
  8
0
100
AcDbBlockEnd
  0
BLOCK
  5
59E
330
592
100
AcDbEntity
  8
0
100
AcDbBlockBegin
  2
*D14
 70
     1
 10
0.0
 20
0.0
 30
0.0
  3
*D14
  1

  0
LINE
  5
5D5
330
592
100
AcDbEntity
  8
AM_5
 62
     3
370
    -2
100
AcDbLine
 10
1486.823503116885
 20
1660.582192760698
 30
0.0
 11
1537.792525421909
 21
1660.582192760698
 31
0.0
  0
LINE
  5
5D6
330
592
100
AcDbEntity
  8
AM_5
 62
     3
370
    -2
100
AcDbLine
 10
1488.496613770771
 20
1606.073057850462
 30
0.0
 11
1537.792525421909
 21
1606.073057850461
 31
0.0
  0
LINE
  5
5D7
330
592
100
AcDbEntity
  8
AM_5
 62
     3
370
    -2
100
AcDbLine
 10
1527.792525421909
 20
1685.582192760698
 30
0.0
 11
1527.792525421909
 21
1710.582192760698
 31
0.0
  0
LINE
  5
5D8
330
592
100
AcDbEntity
  8
AM_5
 62
     3
370
    -2
100
AcDbLine
 10
1527.792525421909
 20
1581.073057850462
 30
0.0
 11
1527.792525421909
 21
1556.073057850461
 31
0.0
  0
LINE
  5
5D9
330
592
100
AcDbEntity
  8
AM_5
 62
     3
370
    -2
100
AcDbLine
 10
1527.792525421909
 20
1660.582192760698
 30
0.0
 11
1527.792525421909
 21
1606.073057850462
 31
0.0
  0
SOLID
  5
5DA
330
592
100
AcDbEntity
  8
AM_5
 62
     3
100
AcDbTrace
 10
1523.625858755242
 20
1685.582192760698
 30
0.0
 11
1531.959192088575
 21
1685.582192760698
 31
0.0
 12
1527.792525421909
 22
1660.582192760698
 32
0.0
 13
1527.792525421909
 23
1660.582192760698
 33
0.0
  0
SOLID
  5
5DB
330
592
100
AcDbEntity
  8
AM_5
 62
     3
100
AcDbTrace
 10
1523.625858755242
 20
1581.073057850462
 30
0.0
 11
1531.959192088575
 21
1581.073057850462
 31
0.0
 12
1527.792525421909
 22
1606.073057850462
 32
0.0
 13
1527.792525421909
 23
1606.073057850462
 33
0.0
  0
MTEXT
  5
5DC
330
592
100
AcDbEntity
  8
AM_5
 62
     2
100
AcDbMText
 10
1504.292525421908
 20
1633.32762530558
 30
0.0
 40
35.0
 41
0.0
 71
     5
 72
     1
  1
56
 11
0.0000000000000001
 21
1.0
 31
0.0
 73
     1
 44
1.0
1001
ACAD
1000
MTEXTBEGIN
1070
    73
1070
     1
1070
    44
1040
1.0
1070
    74
1070
     0
1000
MTEXTEND
  0
POINT
  5
5DD
330
592
100
AcDbEntity
  8
DEFPOINTS
 62
     0
100
AcDbPoint
 10
1476.823503116885
 20
1660.582192760698
 30
0.0
  0
POINT
  5
5DE
330
592
100
AcDbEntity
  8
DEFPOINTS
 62
     0
100
AcDbPoint
 10
1478.496613770771
 20
1606.073057850462
 30
0.0
  0
POINT
  5
5DF
330
592
100
AcDbEntity
  8
DEFPOINTS
 62
     0
100
AcDbPoint
 10
1527.792525421909
 20
1606.073057850462
 30
0.0
  0
ENDBLK
  5
59F
330
592
100
AcDbEntity
  8
0
100
AcDbBlockEnd
  0
BLOCK
  5
5AA
330
5A0
100
AcDbEntity
  8
0
100
AcDbBlockBegin
  2
*D15
 70
     1
 10
0.0
 20
0.0
 30
0.0
  3
*D15
  1

  0
LINE
  5
5A1
330
5A0
100
AcDbEntity
  8
AM_5
 62
     3
370
    -2
100
AcDbLine
 10
1342.872085638698
 20
1740.582192760613
 30
0.0
 11
1282.872084638698
 21
1740.582192760613
 31
0.0
  0
LINE
  5
5A2
330
5A0
100
AcDbEntity
  8
AM_5
 62
     3
370
    -2
100
AcDbLine
 10
1466.823503116841
 20
1570.576896030024
 30
0.0
 11
1282.872084638698
 21
1570.576896030024
 31
0.0
  0
LINE
  5
5A3
330
5A0
100
AcDbEntity
  8
AM_5
 62
     3
370
    -2
100
AcDbLine
 10
1292.872084638698
 20
1715.582192760613
 30
0.0
 11
1292.872084638698
 21
1595.576896030024
 31
0.0
  0
SOLID
  5
5A4
330
5A0
100
AcDbEntity
  8
AM_5
 62
     3
100
AcDbTrace
 10
1288.705417972031
 20
1715.582192760613
 30
0.0
 11
1297.038751305364
 21
1715.582192760613
 31
0.0
 12
1292.872084638698
 22
1740.582192760613
 32
0.0
 13
1292.872084638698
 23
1740.582192760613
 33
0.0
  0
SOLID
  5
5A5
330
5A0
100
AcDbEntity
  8
AM_5
 62
     3
100
AcDbTrace
 10
1288.705417972031
 20
1595.576896030024
 30
0.0
 11
1297.038751305364
 21
1595.576896030024
 31
0.0
 12
1292.872084638698
 22
1570.576896030024
 32
0.0
 13
1292.872084638698
 23
1570.576896030024
 33
0.0
  0
MTEXT
  5
5A6
330
5A0
100
AcDbEntity
  8
AM_5
 62
     2
100
AcDbMText
 10
1269.372084638697
 20
1655.579544395318
 30
0.0
 40
35.0
 41
0.0
 71
     5
 72
     1
  1
170
 11
0.0000000000000001
 21
1.0
 31
0.0
 73
     1
 44
1.0
1001
ACAD
1000
MTEXTBEGIN
1070
    73
1070
     1
1070
    44
1040
1.0
1070
    74
1070
     0
1000
MTEXTEND
  0
POINT
  5
5A7
330
5A0
100
AcDbEntity
  8
DEFPOINTS
 62
     0
100
AcDbPoint
 10
1352.872085638698
 20
1740.582192760613
 30
0.0
  0
POINT
  5
5A8
330
5A0
100
AcDbEntity
  8
DEFPOINTS
 62
     0
100
AcDbPoint
 10
1476.823503116841
 20
1570.576896030024
 30
0.0
  0
POINT
  5
5A9
330
5A0
100
AcDbEntity
  8
DEFPOINTS
 62
     0
100
AcDbPoint
 10
1292.872084638698
 20
1570.576896030024
 30
0.0
  0
ENDBLK
  5
5AB
330
5A0
100
AcDbEntity
  8
0
100
AcDbBlockEnd
  0
BLOCK
  5
5CA
330
5BE
100
AcDbEntity
  8
0
100
AcDbBlockBegin
  2
*D16
 70
     1
 10
0.0
 20
0.0
 30
0.0
  3
*D16
  1

  0
LINE
  5
5BF
330
5BE
100
AcDbEntity
  8
AM_5
 62
     3
370
    -2
100
AcDbLine
 10
1840.823503116842
 20
1570.576896030024
 30
0.0
 11
1960.823503116841
 21
1570.576896030024
 31
0.0
  0
LINE
  5
5C0
330
5BE
100
AcDbEntity
  8
AM_5
 62
     3
370
    -2
100
AcDbLine
 10
1833.823503116837
 20
1525.505467458592
 30
0.0
 11
1960.823503116841
 21
1525.505467458592
 31
0.0
  0
LINE
  5
5C1
330
5BE
100
AcDbEntity
  8
AM_5
 62
     3
370
    -2
100
AcDbLine
 10
1950.823503116842
 20
1595.576896030024
 30
0.0
 11
1950.823503116842
 21
1620.576896030024
 31
0.0
  0
LINE
  5
5C2
330
5BE
100
AcDbEntity
  8
AM_5
 62
     3
370
    -2
100
AcDbLine
 10
1950.823503116841
 20
1500.505467458592
 30
0.0
 11
1950.823503116841
 21
1420.055719990287
 31
0.0
  0
LINE
  5
5C3
330
5BE
100
AcDbEntity
  8
AM_5
 62
     3
370
    -2
100
AcDbLine
 10
1950.823503116842
 20
1570.576896030024
 30
0.0
 11
1950.823503116841
 21
1525.505467458592
 31
0.0
  0
SOLID
  5
5C4
330
5BE
100
AcDbEntity
  8
AM_5
 62
     3
100
AcDbTrace
 10
1946.656836450175
 20
1595.576896030024
 30
0.0
 11
1954.990169783508
 21
1595.576896030024
 31
0.0
 12
1950.823503116842
 22
1570.576896030024
 32
0.0
 13
1950.823503116842
 23
1570.576896030024
 33
0.0
  0
SOLID
  5
5C5
330
5BE
100
AcDbEntity
  8
AM_5
 62
     3
100
AcDbTrace
 10
1946.656836450175
 20
1500.505467458592
 30
0.0
 11
1954.990169783508
 21
1500.505467458592
 31
0.0
 12
1950.823503116841
 22
1525.505467458592
 32
0.0
 13
1950.823503116841
 23
1525.505467458592
 33
0.0
  0
MTEXT
  5
5C6
330
5BE
100
AcDbEntity
  8
AM_5
 62
     2
100
AcDbMText
 10
1927.323503116841
 20
1447.78059372444
 30
0.0
 40
35.0
 41
0.0
 71
     5
 72
     1
  1
45
 11
0.0000000000000001
 21
1.0
 31
0.0
 73
     1
 44
1.0
1001
ACAD
1000
MTEXTBEGIN
1070
    73
1070
     1
1070
    44
1040
1.0
1070
    74
1070
     0
1000
MTEXTEND
  0
POINT
  5
5C7
330
5BE
100
AcDbEntity
  8
DEFPOINTS
 62
     0
100
AcDbPoint
 10
1830.823503116841
 20
1570.576896030024
 30
0.0
  0
POINT
  5
5C8
330
5BE
100
AcDbEntity
  8
DEFPOINTS
 62
     0
100
AcDbPoint
 10
1823.823503116838
 20
1525.505467458592
 30
0.0
  0
POINT
  5
5C9
330
5BE
100
AcDbEntity
  8
DEFPOINTS
 62
     0
100
AcDbPoint
 10
1950.823503116841
 20
1525.505467458592
 30
0.0
  0
ENDBLK
  5
5CB
330
5BE
100
AcDbEntity
  8
0
100
AcDbBlockEnd
  0
BLOCK
  5
5EA
330
5E0
100
AcDbEntity
  8
0
100
AcDbBlockBegin
  2
*D17
 70
     1
 10
0.0
 20
0.0
 30
0.0
  3
*D17
  1

  0
LINE
  5
5E1
330
5E0
100
AcDbEntity
  8
AM_5
 62
     3
370
    -2
100
AcDbLine
 10
1744.323503116871
 20
1485.505467458593
 30
0.0
 11
1744.323503116871
 21
1439.23292611935
 31
0.0
  0
LINE
  5
5E2
330
5E0
100
AcDbEntity
  8
AM_5
 62
     3
370
    -2
100
AcDbLine
 10
1476.823503116841
 20
1560.576896030024
 30
0.0
 11
1476.823503116841
 21
1439.23292611935
 31
0.0
  0
LINE
  5
5E3
330
5E0
100
AcDbEntity
  8
AM_5
 62
     3
370
    -2
100
AcDbLine
 10
1719.323503116871
 20
1449.23292611935
 30
0.0
 11
1501.823503116841
 21
1449.23292611935
 31
0.0
  0
SOLID
  5
5E4
330
5E0
100
AcDbEntity
  8
AM_5
 62
     3
100
AcDbTrace
 10
1719.323503116871
 20
1453.399592786017
 30
0.0
 11
1719.323503116871
 21
1445.066259452683
 31
0.0
 12
1744.323503116871
 22
1449.23292611935
 32
0.0
 13
1744.323503116871
 23
1449.23292611935
 33
0.0
  0
SOLID
  5
5E5
330
5E0
100
AcDbEntity
  8
AM_5
 62
     3
100
AcDbTrace
 10
1501.823503116841
 20
1453.399592786017
 30
0.0
 11
1501.823503116841
 21
1445.066259452683
 31
0.0
 12
1476.823503116841
 22
1449.23292611935
 32
0.0
 13
1476.823503116841
 23
1449.23292611935
 33
0.0
  0
MTEXT
  5
5E6
330
5E0
100
AcDbEntity
  8
AM_5
 62
     2
100
AcDbMText
 10
1610.573503116856
 20
1472.736371001239
 30
0.0
 40
35.0
 41
0.0
 71
     5
 72
     1
  1
268
 73
     1
 44
1.0
1001
ACAD
1000
MTEXTBEGIN
1070
    73
1070
     1
1070
    44
1040
1.0
1070
    74
1070
     0
1000
MTEXTEND
  0
POINT
  5
5E7
330
5E0
100
AcDbEntity
  8
DEFPOINTS
 62
     0
100
AcDbPoint
 10
1744.323503116871
 20
1495.505467458593
 30
0.0
  0
POINT
  5
5E8
330
5E0
100
AcDbEntity
  8
DEFPOINTS
 62
     0
100
AcDbPoint
 10
1476.823503116841
 20
1570.576896030024
 30
0.0
  0
POINT
  5
5E9
330
5E0
100
AcDbEntity
  8
DEFPOINTS
 62
     0
100
AcDbPoint
 10
1476.823503116841
 20
1449.23292611935
 30
0.0
  0
ENDBLK
  5
5EB
330
5E0
100
AcDbEntity
  8
0
100
AcDbBlockEnd
  0
ENDSEC
  0
SECTION
  2
ENTITIES
  0
LINE
  5
479
330
1F
100
AcDbEntity
  8
AM_3
100
AcDbLine
 10
1653.40020848396
 20
1598.329520870354
 30
0.0
 11
1478.496613770771
 21
1606.073057850462
 31
0.0
  0
LINE
  5
47A
330
1F
100
AcDbEntity
  8
AM_3
100
AcDbLine
 10
1653.397379196632
 20
1596.327686977666
 30
0.0
 11
1478.408154079313
 21
1604.075015087407
 31
0.0
  0
LINE
  5
47B
330
1F
100
AcDbEntity
  8
AM_3
100
AcDbLine
 10
1828.386604313954
 20
1588.580358867925
 30
0.0
 11
1653.397379196632
 21
1596.327686977666
 31
0.0
  0
LINE
  5
47C
330
1F
100
AcDbEntity
  8
AM_3
100
AcDbLine
 10
1828.389433601283
 20
1590.582192760613
 30
0.0
 11
1653.40020848396
 21
1598.329520870354
 31
0.0
  0
LINE
  5
47D
330
1F
100
AcDbEntity
  8
0
100
AcDbLine
 10
1464.80936963984
 20
1870.576896030023
 30
0.0
 11
1826.809369639829
 21
1870.576896030023
 31
0.0
1001
ACAD
1000
ASC_BOUNDS
1002
{
1070
    19
1005
0
1005
0
1005
0
1005
0
1002
}
  0
LINE
  5
47E
330
1F
100
AcDbEntity
  8
0
100
AcDbLine
 10
1493.126194521873
 20
1880.576896030012
 30
0.0
 11
1461.809369639843
 21
1880.57689603001
 31
0.0
  0
LINE
  5
47F
330
1F
100
AcDbEntity
  8
0
100
AcDbLine
 10
1480.800783947489
 20
1890.576896030023
 30
0.0
 11
1653.809369639836
 21
1890.576896030026
 31
0.0
1001
ACAD
1000
ASC_BOUNDS
1002
{
1070
    19
1005
0
1005
0
1005
0
1002
}
  0
LINE
  5
480
330
1F
100
AcDbEntity
  8
0
100
AcDbLine
 10
1461.80936963984
 20
1880.576896030023
 30
0.0
 11
1836.809369639833
 21
1880.576896030023
 31
0.0
  0
LINE
  5
481
330
1F
100
AcDbEntity
  8
0
100
AcDbLine
 10
1461.80936963984
 20
1880.576896030023
 30
0.0
 11
1836.809369639829
 21
1880.576896030023
 31
0.0
  0
LINE
  5
482
330
1F
100
AcDbEntity
  8
0
100
AcDbLine
 10
1493.126194521873
 20
1880.576896030033
 30
0.0
 11
1461.809369639843
 21
1880.576896030035
 31
0.0
1001
ACAD
1000
ASC_BOUNDS
1002
{
1070
    19
1002
}
  0
LINE
  5
483
330
1F
100
AcDbEntity
  8
0
100
AcDbLine
 10
1480.588897198887
 20
1870.576896030034
 30
0.0
 11
1477.439624551997
 21
1820.582192760613
 31
0.0
1001
ACAD
1000
ASC_BOUNDS
1002
{
1070
    19
1002
}
  0
ARC
  5
484
330
1F
100
AcDbEntity
  8
0
100
AcDbCircle
 10
1464.80936963984
 20
1873.576896030034
 30
0.0
 40
3.0
100
AcDbArc
 50
180.0
 51
270.0
1001
ACAD
1000
ASC_BOUNDS
1002
{
1070
    19
1002
}
  0
LINE
  5
485
330
1F
100
AcDbEntity
  8
0
100
AcDbLine
 10
1461.80936963984
 20
1880.576896030035
 30
0.0
 11
1461.80936963984
 21
1873.576896030036
 31
0.0
1001
ACAD
1000
ASC_BOUNDS
1002
{
1070
    19
1002
}
  0
LINE
  5
486
330
1F
100
AcDbEntity
  8
0
100
AcDbLine
 10
1475.80936963984
 20
1880.576896030033
 30
0.0
 11
1471.30936963984
 21
1880.576896030033
 31
0.0
  0
ARC
  5
487
330
1F
100
AcDbEntity
  8
0
100
AcDbCircle
 10
1464.80936963984
 20
1887.576896030012
 30
0.0
 40
3.0
100
AcDbArc
 50
90.0
 51
180.0
  0
LINE
  5
488
330
1F
100
AcDbEntity
  8
0
100
AcDbLine
 10
1461.809369639843
 20
1880.57689603001
 30
0.0
 11
1461.80936963984
 21
1887.57689603001
 31
0.0
  0
LINE
  5
489
330
1F
100
AcDbEntity
  8
0
100
AcDbLine
 10
1475.80936963984
 20
1880.576896030012
 30
0.0
 11
1471.30936963984
 21
1880.576896030012
 31
0.0
  0
LINE
  5
48A
330
1F
100
AcDbEntity
  8
0
100
AcDbLine
 10
1480.80936963984
 20
1890.576896030012
 30
0.0
 11
1464.80936963984
 21
1890.576896030012
 31
0.0
  0
LINE
  5
48B
330
1F
100
AcDbEntity
  8
0
  6
Continuous
 62
     7
100
AcDbLine
 10
1864.038362020918
 20
1887.360129320372
 30
0.0
 11
1835.7795461041
 21
1806.594515873294
 31
0.0
  0
LINE
  5
48C
330
1F
100
AcDbEntity
  8
0
  6
Continuous
 62
     7
100
AcDbLine
 10
1866.027419982843
 20
1887.151207267667
 30
0.0
 11
1855.790239400293
 21
1789.687367133387
 31
0.0
  0
LINE
  5
48D
330
1F
100
AcDbEntity
  8
0
  6
Continuous
 62
     7
100
AcDbLine
 10
1864.038362020918
 20
1887.360129320372
 30
0.0
 11
1853.633194962368
 21
1788.2969614308
 31
0.0
  0
LINE
  5
48E
330
1F
100
AcDbEntity
  8
0
  6
Continuous
 62
     7
100
AcDbLine
 10
1839.941827214935
 20
1818.490597727727
 30
0.0
 11
1841.169968117353
 21
1830.183204653063
 31
0.0
  0
LINE
  5
48F
330
1F
100
AcDbEntity
  8
0
  6
Continuous
 62
     7
100
AcDbLine
 10
1855.790239400293
 20
1789.687367133387
 30
0.0
 11
1852.809369639833
 21
1787.765933230244
 31
0.0
  0
CIRCLE
  5
490
330
1F
100
AcDbEntity
  8
0
  6
Continuous
 62
     7
100
AcDbCircle
 10
1847.639471978052
 20
1799.870334699592
 30
0.0
 40
2.869338511451267
  0
LINE
  5
491
330
1F
100
AcDbEntity
  8
0
  6
Continuous
 62
     7
100
AcDbLine
 10
1852.809369639833
 20
1806.594515873294
 30
0.0
 11
1852.809369639833
 21
1787.195809569284
 31
0.0
  0
LINE
  5
492
330
1F
100
AcDbEntity
  8
0
  6
Continuous
 62
     7
100
AcDbLine
 10
1830.809369639833
 20
1806.594515873294
 30
0.0
 11
1830.809369639833
 21
1768.594515873294
 31
0.0
  0
LINE
  5
493
330
1F
100
AcDbEntity
  8
0
  6
Continuous
 62
     7
100
AcDbLine
 10
1852.809369639833
 20
1787.195809569284
 30
0.0
 11
1836.545020711995
 21
1768.594515873294
 31
0.0
  0
LINE
  5
494
330
1F
100
AcDbEntity
  8
0
  6
Continuous
 62
     7
100
AcDbLine
 10
1830.809369639833
 20
1768.594515873294
 30
0.0
 11
1836.545020711995
 21
1768.594515873294
 31
0.0
  0
LINE
  5
495
330
1F
100
AcDbEntity
  8
0
  6
Continuous
 62
     7
100
AcDbLine
 10
1852.809369639833
 20
1806.594515873294
 30
0.0
 11
1830.809369639833
 21
1806.594515873294
 31
0.0
  0
LINE
  5
496
330
1F
100
AcDbEntity
  8
0
  6
Continuous
 62
     7
100
AcDbLine
 10
1845.311820298063
 20
1833.838402350617
 30
0.0
 11
1848.594696186022
 21
1865.093266728976
 31
0.0
  0
LINE
  5
497
330
1F
100
AcDbEntity
  8
0
  6
Continuous
 62
     7
100
AcDbLine
 10
1854.064605581313
 20
1864.518731084037
 30
0.0
 11
1853.214433899288
 21
1856.424608270101
 31
0.0
  0
ARC
  5
498
330
1F
100
AcDbEntity
  8
0
  6
Continuous
 62
     7
100
AcDbCircle
 10
1846.287169011907
 20
1886.202549568523
 30
0.0
 40
5.5
100
AcDbArc
 50
354.0038851199492
 51
127.3688441849454
  0
ARC
  5
499
330
1F
100
AcDbEntity
  8
0
  6
Continuous
 62
     7
100
AcDbCircle
 10
1846.287169011907
 20
1886.202549568523
 30
0.0
 40
6.5
100
AcDbArc
 50
354.0038851199492
 51
137.7027991339977
  0
LINE
  5
49A
330
1F
100
AcDbEntity
  8
0
  6
Continuous
 62
     7
100
AcDbLine
 10
1848.594696186022
 20
1865.093266728976
 30
0.0
 11
1849.091960676503
 21
1865.0410362158
 31
0.0
  0
ARC
  5
49B
330
1F
100
AcDbEntity
  8
0
  6
Continuous
 62
     7
100
AcDbCircle
 10
1849.24865221603
 20
1866.532829687245
 30
0.0
 40
1.5
100
AcDbArc
 50
264.0038851199492
 51
354.0038851199492
  0
ARC
  5
49C
330
1F
100
AcDbEntity
  8
0
  6
Continuous
 62
     7
100
AcDbCircle
 10
1854.22129712084
 20
1866.01052455548
 30
0.0
 40
1.5
100
AcDbArc
 50
174.0038851199491
 51
264.0038851199492
  0
LINE
  5
49D
330
1F
100
AcDbEntity
  8
0
  6
Continuous
 62
     7
100
AcDbLine
 10
1849.745916706511
 20
1866.480599174067
 30
0.0
 11
1850.740445687472
 21
1866.376138147714
 31
0.0
  0
LINE
  5
49E
330
1F
100
AcDbEntity
  8
0
  6
Continuous
 62
     7
100
AcDbLine
 10
1854.66203263692
 20
1884.566002242807
 30
0.0
 11
1853.667503655958
 21
1884.670463269159
 31
0.0
  0
LINE
  5
49F
330
1F
100
AcDbEntity
  8
0
  6
Continuous
 62
     7
100
AcDbLine
 10
1852.672974674996
 20
1884.774924295512
 30
0.0
 11
1853.667503655958
 21
1884.670463269159
 31
0.0
  0
LINE
  5
4A0
330
1F
100
AcDbEntity
  8
0
  6
Continuous
 62
     7
100
AcDbLine
 10
1852.729503649397
 20
1866.167216095009
 30
0.0
 11
1854.66203263692
 21
1884.566002242807
 31
0.0
  0
LINE
  5
4A1
330
1F
100
AcDbEntity
  8
0
  6
Continuous
 62
     7
100
AcDbLine
 10
1850.740445687472
 20
1866.376138147714
 30
0.0
 11
1852.75160738816
 21
1885.523552897231
 31
0.0
  0
LINE
  5
4A2
330
1F
100
AcDbEntity
  8
0
  6
Continuous
 62
     7
100
AcDbLine
 10
1849.745916706511
 20
1866.480599174067
 30
0.0
 11
1851.757078407198
 21
1885.628013923584
 31
0.0
  0
LINE
  5
4A3
330
1F
100
AcDbEntity
  8
0
100
AcDbLine
 10
1866.027419982843
 20
1887.151207267667
 30
0.0
 11
1864.038362020918
 21
1887.360129320372
 31
0.0
  0
LINE
  5
4A4
330
1F
100
AcDbEntity
  8
0
  6
Continuous
 62
     7
100
AcDbLine
 10
1841.169968117353
 20
1830.183204653063
 30
0.0
 11
1843.931429804515
 21
1829.893152650964
 31
0.0
  0
LINE
  5
4A5
330
1F
100
AcDbEntity
  8
0
100
AcDbLine
 10
1814.4925447578
 20
1880.576896030023
 30
0.0
 11
1845.809369639829
 21
1880.576896030023
 31
0.0
1001
ACAD
1000
ASC_BOUNDS
1002
{
1070
    19
1002
}
  0
LINE
  5
4A6
330
1F
100
AcDbEntity
  8
4
100
AcDbLine
 10
1511.268523001793
 20
1810.677817250694
 30
0.0
 11
1796.350216277887
 21
1810.674292787719
 31
0.0
  0
LINE
  5
4A7
330
1F
100
AcDbEntity
  8
0
100
AcDbLine
 10
1827.029842080779
 20
1870.576896030022
 30
0.0
 11
1830.803007075033
 21
1810.677901746212
 31
0.0
1001
ACAD
1000
ASC_BOUNDS
1002
{
1070
    19
1002
}
  0
LINE
  5
4A8
330
1F
100
AcDbEntity
  8
0
100
AcDbLine
 10
1826.809369639829
 20
1870.576896030023
 30
0.0
 11
1842.809369639829
 21
1870.576896030023
 31
0.0
1001
ACAD
1000
ASC_BOUNDS
1002
{
1070
    19
1005
0
1002
}
  0
LINE
  5
4A9
330
1F
100
AcDbEntity
  8
0
100
AcDbLine
 10
1831.809369639833
 20
1880.576896030023
 30
0.0
 11
1836.309369639833
 21
1880.576896030023
 31
0.0
  0
LINE
  5
4AA
330
1F
100
AcDbEntity
  8
0
100
AcDbLine
 10
1845.809369639829
 20
1880.576896030023
 30
0.0
 11
1845.809369639829
 21
1873.576896030023
 31
0.0
1001
ACAD
1000
ASC_BOUNDS
1002
{
1070
    19
1002
}
  0
ARC
  5
4AB
330
1F
100
AcDbEntity
  8
0
100
AcDbCircle
 10
1842.809369639829
 20
1873.576896030023
 30
0.0
 40
3.0
100
AcDbArc
 50
270.0
 51
0.0
1001
ACAD
1000
ASC_BOUNDS
1002
{
1070
    19
1002
}
  0
LINE
  5
4AC
330
1F
100
AcDbEntity
  8
0
100
AcDbLine
 10
1814.4925447578
 20
1880.576896030023
 30
0.0
 11
1845.809369639829
 21
1880.576896030023
 31
0.0
  0
LINE
  5
4AD
330
1F
100
AcDbEntity
  8
0
100
AcDbLine
 10
1653.823503116841
 20
1890.576896030024
 30
0.0
 11
1826.809369639829
 21
1890.576896030023
 31
0.0
1001
ACAD
1000
ASC_BOUNDS
1002
{
1070
    19
1005
0
1005
0
1005
0
1002
}
  0
ARC
  5
4AE
330
1F
100
AcDbEntity
  8
0
100
AcDbCircle
 10
1653.80936963984
 20
1911.076896030023
 30
0.0
 40
24.99999999999955
100
AcDbArc
 50
304.9152062475841
 51
235.0847937524159
  0
LINE
  5
4AF
330
1F
100
AcDbEntity
  8
0
100
AcDbLine
 10
1845.809369639833
 20
1880.576896030023
 30
0.0
 11
1845.809369639833
 21
1887.576896030023
 31
0.0
  0
ARC
  5
4B0
330
1F
100
AcDbEntity
  8
0
100
AcDbCircle
 10
1842.809369639833
 20
1887.576896030023
 30
0.0
 40
3.0
100
AcDbArc
 50
0.0
 51
90.0
  0
LINE
  5
4B1
330
1F
100
AcDbEntity
  8
0
100
AcDbLine
 10
1831.809369639833
 20
1880.576896030023
 30
0.0
 11
1836.309369639833
 21
1880.576896030023
 31
0.0
  0
LINE
  5
4B2
330
1F
100
AcDbEntity
  8
0
100
AcDbLine
 10
1826.809369639833
 20
1890.576896030023
 30
0.0
 11
1842.809369639833
 21
1890.576896030023
 31
0.0
  0
ARC
  5
4B3
330
1F
100
AcDbEntity
  8
0
100
AcDbCircle
 10
1652.872085638698
 20
940.0085112797514
 30
0.0
 40
186.5
100
AcDbArc
 50
47.99265495469237
 51
131.845387436638
  0
ARC
  5
4B4
330
1F
100
AcDbEntity
  8
0
100
AcDbCircle
 10
1652.872085638698
 20
940.0085112797514
 30
0.0
 40
186.5
100
AcDbArc
 50
227.9926549546924
 51
311.845387436638
  0
POLYLINE
  5
4B5
330
1F
100
AcDbEntity
  8
0
100
AcDb2dPolyline
 66
     1
 10
0.0
 20
0.0
 30
0.0
  0
VERTEX
  5
4B6
330
4B5
100
AcDbEntity
  8
0
100
AcDbVertex
100
AcDb2dVertex
 10
1782.140308480438
 20
1096.450118799417
 30
0.0
  0
VERTEX
  5
4B7
330
4B5
100
AcDbEntity
  8
0
100
AcDbVertex
100
AcDb2dVertex
 10
1770.440821138124
 20
1084.783655669474
 30
0.0
  0
SEQEND
  5
4B8
330
4B5
100
AcDbEntity
  8
0
  0
POLYLINE
  5
4B9
330
1F
100
AcDbEntity
  8
0
100
AcDb2dPolyline
 66
     1
 10
0.0
 20
0.0
 30
0.0
  0
VERTEX
  5
4BA
330
4B9
100
AcDbEntity
  8
0
100
AcDbVertex
100
AcDb2dVertex
 10
1797.978981977981
 20
1057.16754266351
 30
0.0
  0
VERTEX
  5
4BB
330
4B9
100
AcDbEntity
  8
0
100
AcDbVertex
100
AcDb2dVertex
 10
1809.678469320294
 20
1068.834005793453
 30
0.0
  0
VERTEX
  5
4BC
330
4B9
100
AcDbEntity
  8
0
100
AcDbVertex
100
AcDb2dVertex
 10
1782.140308480438
 20
1096.450118799417
 30
0.0
  0
SEQEND
  5
4BD
330
4B9
100
AcDbEntity
  8
0
  0
ARC
  5
4BE
330
1F
100
AcDbEntity
  8
0
100
AcDbCircle
 10
1652.872085638698
 20
940.0085112797514
 30
0.0
 40
186.5
100
AcDbArc
 50
317.9926549545863
 51
41.84538743681332
  0
POLYLINE
  5
4BF
330
1F
100
AcDbEntity
  8
0
100
AcDb2dPolyline
 66
     1
 10
0.0
 20
0.0
 30
0.0
 70
     1
  0
VERTEX
  5
4C0
330
4BF
100
AcDbEntity
  8
0
100
AcDbVertex
100
AcDb2dVertex
 10
1771.145685476066
 20
1072.070449708313
 30
0.0
  0
VERTEX
  5
4C1
330
4BF
100
AcDbEntity
  8
0
100
AcDbVertex
100
AcDb2dVertex
 10
1780.351056478056
 20
1081.249836654931
 30
0.0
  0
VERTEX
  5
4C2
330
4BF
100
AcDbEntity
  8
0
100
AcDbVertex
100
AcDb2dVertex
 10
1794.47319024208
 20
1067.087727421103
 30
0.0
  0
VERTEX
  5
4C3
330
4BF
100
AcDbEntity
  8
0
100
AcDbVertex
100
AcDb2dVertex
 10
1785.267819240093
 20
1057.908340474485
 30
0.0
  0
SEQEND
  5
4C4
330
4BF
100
AcDbEntity
  8
0
  0
POLYLINE
  5
4C5
330
1F
100
AcDbEntity
  8
0
100
AcDb2dPolyline
 66
     1
 10
0.0
 20
0.0
 30
0.0
 70
     1
  0
VERTEX
  5
4C6
330
4C5
100
AcDbEntity
  8
0
100
AcDbVertex
100
AcDb2dVertex
 10
1520.810147210134
 20
1058.282111117121
 30
0.0
  0
VERTEX
  5
4C7
330
4C5
100
AcDbEntity
  8
0
100
AcDbVertex
100
AcDb2dVertex
 10
1511.630760263518
 20
1067.487482119109
 30
0.0
  0
VERTEX
  5
4C8
330
4C5
100
AcDbEntity
  8
0
100
AcDbVertex
100
AcDb2dVertex
 10
1525.792869497346
 20
1081.609615883133
 30
0.0
  0
VERTEX
  5
4C9
330
4C5
100
AcDbEntity
  8
0
100
AcDbVertex
100
AcDb2dVertex
 10
1534.972256443962
 20
1072.404244881149
 30
0.0
  0
SEQEND
  5
4CA
330
4C5
100
AcDbEntity
  8
0
  0
POLYLINE
  5
4CB
330
1F
100
AcDbEntity
  8
0
100
AcDb2dPolyline
 66
     1
 10
0.0
 20
0.0
 30
0.0
  0
VERTEX
  5
4CC
330
4CB
100
AcDbEntity
  8
0
100
AcDbVertex
100
AcDb2dVertex
 10
1535.713054254939
 20
1085.115407619034
 30
0.0
  0
VERTEX
  5
4CD
330
4CB
100
AcDbEntity
  8
0
100
AcDbVertex
100
AcDb2dVertex
 10
1524.046591124997
 20
1096.814894961348
 30
0.0
  0
VERTEX
  5
4CE
330
4CB
100
AcDbEntity
  8
0
100
AcDbVertex
100
AcDb2dVertex
 10
1496.43047811903
 20
1069.276734121493
 30
0.0
  0
SEQEND
  5
4CF
330
4CB
100
AcDbEntity
  8
0
  0
POLYLINE
  5
4D0
330
1F
100
AcDbEntity
  8
0
100
AcDb2dPolyline
 66
     1
 10
0.0
 20
0.0
 30
0.0
  0
VERTEX
  5
4D1
330
4D0
100
AcDbEntity
  8
0
100
AcDbVertex
100
AcDb2dVertex
 10
1496.43047811903
 20
1069.276734121493
 30
0.0
  0
VERTEX
  5
4D2
330
4D0
100
AcDbEntity
  8
0
100
AcDbVertex
100
AcDb2dVertex
 10
1508.096941248973
 20
1057.577246779179
 30
0.0
  0
SEQEND
  5
4D3
330
4D0
100
AcDbEntity
  8
0
  0
POLYLINE
  5
4D4
330
1F
100
AcDbEntity
  8
0
100
AcDb2dPolyline
 66
     1
 10
0.0
 20
0.0
 30
0.0
 70
     1
  0
VERTEX
  5
4D5
330
4D4
100
AcDbEntity
  8
0
100
AcDbVertex
100
AcDb2dVertex
 10
1534.598485801326
 20
807.9465728511895
 30
0.0
  0
VERTEX
  5
4D6
330
4D4
100
AcDbEntity
  8
0
100
AcDbVertex
100
AcDb2dVertex
 10
1525.39311479934
 20
798.7671859045713
 30
0.0
  0
VERTEX
  5
4D7
330
4D4
100
AcDbEntity
  8
0
100
AcDbVertex
100
AcDb2dVertex
 10
1511.270981035316
 20
812.9292951383995
 30
0.0
  0
VERTEX
  5
4D8
330
4D4
100
AcDbEntity
  8
0
100
AcDbVertex
100
AcDb2dVertex
 10
1520.476352037299
 20
822.1086820850178
 30
0.0
  0
SEQEND
  5
4D9
330
4D4
100
AcDbEntity
  8
0
  0
POLYLINE
  5
4DA
330
1F
100
AcDbEntity
  8
0
100
AcDb2dPolyline
 66
     1
 10
0.0
 20
0.0
 30
0.0
  0
VERTEX
  5
4DB
330
4DA
100
AcDbEntity
  8
0
100
AcDbVertex
100
AcDb2dVertex
 10
1507.765189299415
 20
822.8494798959927
 30
0.0
  0
VERTEX
  5
4DC
330
4DA
100
AcDbEntity
  8
0
100
AcDbVertex
100
AcDb2dVertex
 10
1496.065701957102
 20
811.18301676605
 30
0.0
  0
VERTEX
  5
4DD
330
4DA
100
AcDbEntity
  8
0
100
AcDbVertex
100
AcDb2dVertex
 10
1523.603862796955
 20
783.5669037600855
 30
0.0
  0
SEQEND
  5
4DE
330
4DA
100
AcDbEntity
  8
0
  0
POLYLINE
  5
4DF
330
1F
100
AcDbEntity
  8
0
100
AcDb2dPolyline
 66
     1
 10
0.0
 20
0.0
 30
0.0
  0
VERTEX
  5
4E0
330
4DF
100
AcDbEntity
  8
0
100
AcDbVertex
100
AcDb2dVertex
 10
1523.603862796955
 20
783.5669037600855
 30
0.0
  0
VERTEX
  5
4E1
330
4DF
100
AcDbEntity
  8
0
100
AcDbVertex
100
AcDb2dVertex
 10
1535.303350139268
 20
795.2333668900283
 30
0.0
  0
SEQEND
  5
4E2
330
4DF
100
AcDbEntity
  8
0
  0
POLYLINE
  5
4E3
330
1F
100
AcDbEntity
  8
0
100
AcDb2dPolyline
 66
     1
 10
0.0
 20
0.0
 30
0.0
  0
VERTEX
  5
4E4
330
4E3
100
AcDbEntity
  8
0
100
AcDbVertex
100
AcDb2dVertex
 10
1770.031117022457
 20
794.9016149404688
 30
0.0
  0
VERTEX
  5
4E5
330
4E3
100
AcDbEntity
  8
0
100
AcDbVertex
100
AcDb2dVertex
 10
1781.697580152399
 20
783.2021275981551
 30
0.0
  0
VERTEX
  5
4E6
330
4E3
100
AcDbEntity
  8
0
100
AcDbVertex
100
AcDb2dVertex
 10
1809.313693158362
 20
810.7402884380098
 30
0.0
  0
SEQEND
  5
4E7
330
4E3
100
AcDbEntity
  8
0
  0
POLYLINE
  5
4E8
330
1F
100
AcDbEntity
  8
0
100
AcDb2dPolyline
 66
     1
 10
0.0
 20
0.0
 30
0.0
  0
VERTEX
  5
4E9
330
4E8
100
AcDbEntity
  8
0
100
AcDbVertex
100
AcDb2dVertex
 10
1809.313693158362
 20
810.7402884380098
 30
0.0
  0
VERTEX
  5
4EA
330
4E8
100
AcDbEntity
  8
0
100
AcDbVertex
100
AcDb2dVertex
 10
1797.64723002842
 20
822.4397757803235
 30
0.0
  0
SEQEND
  5
4EB
330
4E8
100
AcDbEntity
  8
0
  0
POLYLINE
  5
4EC
330
1F
100
AcDbEntity
  8
0
100
AcDb2dPolyline
 66
     1
 10
0.0
 20
0.0
 30
0.0
  0
VERTEX
  5
4ED
330
4EC
100
AcDbEntity
  8
0
100
AcDbVertex
100
AcDb2dVertex
 10
1784.934024067258
 20
821.7349114423814
 30
0.0
  0
VERTEX
  5
4EE
330
4EC
100
AcDbEntity
  8
0
100
AcDbVertex
100
AcDb2dVertex
 10
1794.113411013878
 20
812.5295404403896
 30
0.0
  0
SEQEND
  5
4EF
330
4EC
100
AcDbEntity
  8
0
  0
POLYLINE
  5
4F0
330
1F
100
AcDbEntity
  8
0
100
AcDb2dPolyline
 66
     1
 10
0.0
 20
0.0
 30
0.0
  0
VERTEX
  5
4F1
330
4F0
100
AcDbEntity
  8
0
100
AcDbVertex
100
AcDb2dVertex
 10
1779.95130178005
 20
798.4074066763696
 30
0.0
  0
VERTEX
  5
4F2
330
4F0
100
AcDbEntity
  8
0
100
AcDbVertex
100
AcDb2dVertex
 10
1770.77191483343
 20
807.6127776783541
 30
0.0
  0
VERTEX
  5
4F3
330
4F0
100
AcDbEntity
  8
0
100
AcDbVertex
100
AcDb2dVertex
 10
1784.934024067258
 20
821.7349114423814
 30
0.0
  0
SEQEND
  5
4F4
330
4F0
100
AcDbEntity
  8
0
  0
ARC
  5
4F5
330
1F
100
AcDbEntity
  8
0
100
AcDbCircle
 10
1652.872085638698
 20
940.0085112797514
 30
0.0
 40
186.5
100
AcDbArc
 50
137.9926549545863
 51
221.8453874368133
  0
LINE
  5
4F6
330
1F
100
AcDbEntity
  8
0
100
AcDbLine
 10
1779.95130178005
 20
798.4074066763623
 30
0.0
 11
1794.113411013878
 21
812.5295404403896
 31
0.0
  0
LINE
  5
4F7
330
1F
100
AcDbEntity
  8
0
100
AcDbLine
 10
1476.823503116841
 20
1570.576896030024
 30
0.0
 11
1830.823503116841
 21
1570.576896030024
 31
0.0
  0
LINE
  5
4F8
330
1F
100
AcDbEntity
  8
0
100
AcDbLine
 10
1830.823503116841
 20
1570.576896030024
 30
0.0
 11
1830.803007075033
 21
1810.677901746212
 31
0.0
  0
LINE
  5
4F9
102
{ACAD_REACTORS
330
506
102
}
330
1F
100
AcDbEntity
  8
0
100
AcDbLine
 10
1476.823503116841
 20
1570.576896030024
 30
0.0
 11
1476.823503116841
 21
1660.582192760614
 31
0.0
  0
LINE
  5
4FA
330
1F
100
AcDbEntity
  8
0
100
AcDbLine
 10
1412.872085638698
 20
1020.008511279751
 30
0.0
 11
1412.872085638698
 21
860.0085112797515
 31
0.0
  0
LINE
  5
4FB
330
1F
100
AcDbEntity
  8
0
100
AcDbLine
 10
1412.872085638698
 20
1020.008511279751
 30
0.0
 11
1484.401761842485
 21
1020.008511279751
 31
0.0
  0
LINE
  5
4FC
330
1F
100
AcDbEntity
  8
0
100
AcDbLine
 10
1412.872085638698
 20
860.0085112797506
 30
0.0
 11
1484.401761842485
 21
860.0085112797515
 31
0.0
  0
CIRCLE
  5
4FD
330
1F
100
AcDbEntity
  8
0
100
AcDbCircle
 10
1652.872085638698
 20
940.0085112797514
 30
0.0
 40
25.0
  0
LINE
  5
4FE
330
1F
100
AcDbEntity
  8
0
100
AcDbLine
 10
1412.872085638698
 20
1820.582192760613
 30
0.0
 11
1412.872085638698
 21
1660.582192760613
 31
0.0
  0
LINE
  5
4FF
330
1F
100
AcDbEntity
  8
0
100
AcDbLine
 10
1412.872085638698
 20
1820.582192760613
 30
0.0
 11
1477.439624551997
 21
1820.582192760613
 31
0.0
  0
LINE
  5
500
330
1F
100
AcDbEntity
  8
0
100
AcDbLine
 10
1412.872085638698
 20
1660.582192760612
 30
0.0
 11
1476.823503116841
 21
1660.582192760612
 31
0.0
  0
LINE
  5
501
102
{ACAD_REACTORS
330
506
102
}
330
1F
100
AcDbEntity
  8
AM_7
  6
AM_DIN_G_W050x2
100
AcDbLine
 10
1352.872085638698
 20
1740.582192760613
 30
0.0
 11
1536.823503116841
 21
1740.582192760613
 31
0.0
1001
GENIUS_GENODEF_13
1002
{
1000
HIER
1070
     0
1002
}
1002
{
1000
MANEDIT
1070
     0
1002
}
1002
{
1000
NOSEL
1070
     0
1002
}
1002
{
1000
BEHIND
1070
     0
1002
}
1002
{
1000
OTHER
1070
     0
1002
}
1002
{
1000
REACTOR
1002
}
1001
GENIUS_GENOBJ-N-CEN_13
1002
{
1000
OWNER
1000
GEN
1002
}
1001
GENIUS_GENCEN_19
1002
{
1040
60.0
1002
}
  0
CIRCLE
  5
502
330
1F
100
AcDbEntity
  8
0
100
AcDbCircle
 10
1652.857952161696
 20
940.0085112797514
 30
0.0
 40
177.0141334770014
  0
ARC
  5
503
330
1F
100
AcDbEntity
  8
0
100
AcDbCircle
 10
1327.947410490877
 20
1741.156664977239
 30
0.0
 40
169.2818257479595
100
AcDbArc
 50
331.576935146385
 51
27.98180256091863
  0
DIMENSION
  5
504
102
{ACAD_XDICTIONARY
360
505
102
}
102
{ACAD_REACTORS
330
506
102
}
330
1F
100
AcDbEntity
  8
AM_5
100
AcDbDimension
  2
*D15
 10
1292.872084638698
 20
1570.576896030024
 30
0.0
 11
1269.372084638697
 21
1655.579544395318
 31
0.0
 70
    32
 71
     5
 42
170.0052967305891
  3
GEN-ISO$0
100
AcDbAlignedDimension
 13
1352.872085638698
 23
1740.582192760613
 33
0.0
 14
1476.823503116841
 24
1570.576896030024
 34
0.0
 50
90.0
100
AcDbRotatedDimension
1001
ACAD
1000
DSTYLE
1002
{
1070
   271
1070
     0
1002
}
  0
LINE
  5
507
330
1F
100
AcDbEntity
  8
AM_4
100
AcDbLine
 10
1347.872085638683
 20
1821.700153969332
 30
0.0
 11
1347.872085638683
 21
1659.464231551613
 31
0.0
  0
LINE
  5
508
330
1F
100
AcDbEntity
  8
AM_4
100
AcDbLine
 10
1402.872085638683
 20
1655.582192760611
 30
0.0
 11
1402.872085638712
 21
1825.582192760614
 31
0.0
  0
LINE
  5
509
330
1F
100
AcDbEntity
  8
AM_4
100
AcDbLine
 10
1347.872085638683
 20
1659.464231551613
 30
0.0
 11
1347.872085638683
 21
1655.582192760669
 31
0.0
  0
LINE
  5
50A
330
1F
100
AcDbEntity
  8
AM_4
100
AcDbLine
 10
1347.872085638683
 20
1655.582192760677
 30
0.0
 11
1402.872085638683
 21
1655.582192760611
 31
0.0
  0
LINE
  5
50B
330
1F
100
AcDbEntity
  8
AM_4
100
AcDbLine
 10
1347.872085638683
 20
1846.839118666665
 30
0.0
 11
1347.872085638683
 21
1821.700153969332
 31
0.0
  0
LWPOLYLINE
  5
50C
330
1F
100
AcDbEntity
  8
AM_4
100
AcDbPolyline
 90
        6
 70
     1
 43
0.0
 10
1361.624862388414
 20
1829.710655713638
 10
1365.377639138148
 20
1836.210655713638
 10
1361.624862388414
 20
1842.710655713638
 10
1354.119308888949
 20
1842.710655713638
 10
1350.366532139215
 20
1836.210655713638
 10
1354.119308888953
 20
1829.710655713638
  0
CIRCLE
  5
50D
330
1F
100
AcDbEntity
  8
AM_4
100
AcDbCircle
 10
1357.872085638683
 20
1836.210655713638
 30
0.0
 40
6.5
  0
LWPOLYLINE
  5
50E
330
1F
100
AcDbEntity
  8
AM_4
100
AcDbPolyline
 90
        6
 70
     1
 43
0.0
 10
1396.624862388414
 20
1829.71065571358
 10
1400.377639138148
 20
1836.21065571358
 10
1396.624862388414
 20
1842.710655713579
 10
1389.119308888949
 20
1842.710655713579
 10
1385.366532139215
 20
1836.21065571358
 10
1389.119308888953
 20
1829.71065571358
  0
CIRCLE
  5
50F
330
1F
100
AcDbEntity
  8
AM_4
100
AcDbCircle
 10
1392.872085638683
 20
1836.21065571358
 30
0.0
 40
6.5
  0
LINE
  5
510
330
1F
100
AcDbEntity
  8
AM_4
100
AcDbLine
 10
1347.872085638683
 20
1825.582192760552
 30
0.0
 11
1402.872085638683
 21
1825.582192760611
 31
0.0
  0
LINE
  5
511
330
1F
100
AcDbEntity
  8
AM_4
100
AcDbLine
 10
1402.872085638683
 20
1846.839118666665
 30
0.0
 11
1347.872085638683
 21
1846.839118666665
 31
0.0
  0
LINE
  5
512
330
1F
100
AcDbEntity
  8
AM_4
100
AcDbLine
 10
1402.872085638683
 20
1825.582192760611
 30
0.0
 11
1402.872085638654
 21
1846.839118666665
 31
0.0
  0
LINE
  5
513
330
1F
100
AcDbEntity
  8
AM_4
100
AcDbLine
 10
1347.872085638683
 20
1021.126472488471
 30
0.0
 11
1347.872085638683
 21
858.890550070752
 31
0.0
  0
LINE
  5
514
330
1F
100
AcDbEntity
  8
AM_4
100
AcDbLine
 10
1402.872085638683
 20
855.0085112797502
 30
0.0
 11
1402.872085638712
 21
1025.008511279753
 31
0.0
  0
LINE
  5
515
330
1F
100
AcDbEntity
  8
AM_4
100
AcDbLine
 10
1347.872085638683
 20
858.890550070752
 30
0.0
 11
1347.872085638683
 21
855.0085112798083
 31
0.0
  0
LINE
  5
516
330
1F
100
AcDbEntity
  8
AM_4
100
AcDbLine
 10
1347.872085638683
 20
855.0085112798155
 30
0.0
 11
1402.872085638683
 21
855.0085112797502
 31
0.0
  0
LINE
  5
517
330
1F
100
AcDbEntity
  8
AM_4
100
AcDbLine
 10
1347.872085638683
 20
1046.265437185804
 30
0.0
 11
1347.872085638683
 21
1021.126472488471
 31
0.0
  0
LWPOLYLINE
  5
518
330
1F
100
AcDbEntity
  8
AM_4
100
AcDbPolyline
 90
        6
 70
     1
 43
0.0
 10
1361.624862388414
 20
1029.136974232776
 10
1365.377639138148
 20
1035.636974232776
 10
1361.624862388414
 20
1042.136974232776
 10
1354.119308888949
 20
1042.136974232776
 10
1350.366532139215
 20
1035.636974232776
 10
1354.119308888953
 20
1029.136974232776
  0
CIRCLE
  5
519
330
1F
100
AcDbEntity
  8
AM_4
100
AcDbCircle
 10
1357.872085638683
 20
1035.636974232776
 30
0.0
 40
6.5
  0
LWPOLYLINE
  5
51A
330
1F
100
AcDbEntity
  8
AM_4
100
AcDbPolyline
 90
        6
 70
     1
 43
0.0
 10
1396.624862388414
 20
1029.136974232718
 10
1400.377639138148
 20
1035.636974232718
 10
1396.624862388414
 20
1042.136974232718
 10
1389.119308888949
 20
1042.136974232718
 10
1385.366532139215
 20
1035.636974232718
 10
1389.119308888953
 20
1029.136974232718
  0
CIRCLE
  5
51B
330
1F
100
AcDbEntity
  8
AM_4
100
AcDbCircle
 10
1392.872085638683
 20
1035.636974232718
 30
0.0
 40
6.5
  0
LINE
  5
51C
330
1F
100
AcDbEntity
  8
AM_4
100
AcDbLine
 10
1347.872085638683
 20
1025.008511279691
 30
0.0
 11
1402.872085638683
 21
1025.008511279749
 31
0.0
  0
LINE
  5
51D
330
1F
100
AcDbEntity
  8
AM_4
100
AcDbLine
 10
1402.872085638683
 20
1046.265437185804
 30
0.0
 11
1347.872085638683
 21
1046.265437185804
 31
0.0
  0
LINE
  5
51E
330
1F
100
AcDbEntity
  8
AM_4
100
AcDbLine
 10
1402.872085638683
 20
1025.008511279749
 30
0.0
 11
1402.872085638654
 21
1046.265437185804
 31
0.0
  0
LINE
  5
51F
330
1F
100
AcDbEntity
  8
AM_7
100
AcDbLine
 10
1652.857952161696
 20
940.0085112797514
 30
0.0
 11
1859.872085638698
 21
940.0085112797514
 31
0.0
1001
GENIUS_GENOREF_13
1005
56D
  0
LINE
  5
520
330
1F
100
AcDbEntity
  8
AM_7
100
AcDbLine
 10
1652.857952161696
 20
940.0085112797514
 30
0.0
 11
1652.857952161696
 21
1147.022644756753
 31
0.0
1001
GENIUS_GENOREF_13
1005
56D
  0
LINE
  5
521
330
1F
100
AcDbEntity
  8
AM_7
100
AcDbLine
 10
1652.857952161696
 20
940.0085112797514
 30
0.0
 11
1445.843818684695
 21
940.0085112797514
 31
0.0
1001
GENIUS_GENOREF_13
1005
56D
  0
LINE
  5
522
330
1F
100
AcDbEntity
  8
AM_7
100
AcDbLine
 10
1652.857952161696
 20
940.0085112797514
 30
0.0
 11
1652.857952161696
 21
732.99437780275
 31
0.0
1001
GENIUS_GENOREF_13
1005
56D
  0
DIMENSION
  5
523
330
1F
100
AcDbEntity
  8
AM_5
100
AcDbDimension
  2
*D11
 10
1845.809369639833
 20
1975.225867736406
 30
0.0
 11
1653.809369639836
 21
1998.725867736406
 31
0.0
 70
    32
  1
%%c<>
 71
     5
 42
383.9999999999927
  3
GEN-ISO$0
100
AcDbAlignedDimension
 13
1461.80936963984
 23
1880.576896030035
 33
0.0
 14
1845.809369639833
 24
1880.576896030023
 34
0.0
100
AcDbRotatedDimension
1001
ACAD
1000
DSTYLE
1002
{
1070
   271
1070
     0
1002
}
  0
DIMENSION
  5
524
330
1F
100
AcDbEntity
  8
AM_5
100
AcDbDimension
  2
*D12
 10
1830.823503116841
 20
1378.641542945721
 30
0.0
 11
1672.316597012604
 21
1378.641542945721
 31
0.0
 70
   160
  1
%%c<>
 71
     5
 42
354.0
  3
GEN-ISO$0
100
AcDbAlignedDimension
 13
1476.823503116841
 23
1570.576896030024
 33
0.0
 14
1830.823503116841
 24
1570.576896030024
 34
0.0
100
AcDbRotatedDimension
1001
ACAD
1000
DSTYLE
1002
{
1070
   271
1070
     0
1002
}
  0
LINE
  5
525
330
1F
100
AcDbEntity
  8
0
100
AcDbLine
 10
1823.823503116838
 20
1525.505467458592
 30
0.0
 11
1664.823503116892
 21
1525.505467458594
 31
0.0
  0
LINE
  5
526
330
1F
100
AcDbEntity
  8
0
100
AcDbLine
 10
1664.823503116892
 20
1525.505467458594
 30
0.0
 11
1664.823503116892
 21
1570.576896030024
 31
0.0
  0
LINE
  5
527
102
{ACAD_REACTORS
330
52A
102
}
330
1F
100
AcDbEntity
  8
0
100
AcDbLine
 10
1823.823503116838
 20
1525.505467458592
 30
0.0
 11
1823.823503116838
 21
1570.576896030024
 31
0.0
  0
DIMENSION
  5
528
102
{ACAD_XDICTIONARY
360
529
102
}
102
{ACAD_REACTORS
330
52A
102
}
330
1F
100
AcDbEntity
  8
AM_5
100
AcDbDimension
  2
*D16
 10
1950.823503116841
 20
1525.505467458592
 30
0.0
 11
1927.323503116841
 21
1447.78059372444
 31
0.0
 70
    32
 71
     5
 42
45.07142857143117
  3
GEN-ISO$0
100
AcDbAlignedDimension
 13
1830.823503116841
 23
1570.576896030024
 33
0.0
 14
1823.823503116838
 24
1525.505467458592
 34
0.0
 50
90.0
100
AcDbRotatedDimension
1001
ACAD
1000
DSTYLE
1002
{
1070
   271
1070
     0
1002
}
  0
DIMENSION
  5
52B
330
1F
100
AcDbEntity
  8
AM_5
100
AcDbDimension
  2
*D13
 10
1476.823503116841
 20
1449.23292611935
 30
0.0
 11
1444.84779437777
 21
1472.73292611935
 31
0.0
 70
    32
  1
63
 71
     5
 42
63.95141747814341
  3
GEN-ISO$0
100
AcDbAlignedDimension
 13
1412.872085638698
 23
1660.582192760612
 33
0.0
 14
1476.823503116841
 24
1570.576896030024
 34
0.0
100
AcDbRotatedDimension
1001
ACAD
1000
DSTYLE
1002
{
1070
   271
1070
     0
1002
}
  0
DIMENSION
  5
52C
330
1F
100
AcDbEntity
  8
AM_5
100
AcDbDimension
  2
*D14
 10
1527.792525421909
 20
1606.073057850462
 30
0.0
 11
1504.292525421908
 21
1633.32762530558
 31
0.0
 70
    32
  1
56
 71
     5
 42
54.50913491023652
  3
GEN-ISO$0
100
AcDbAlignedDimension
 13
1476.823503116885
 23
1660.582192760698
 33
0.0
 14
1478.496613770771
 24
1606.073057850462
 34
0.0
 50
90.0
100
AcDbRotatedDimension
1001
ACAD
1000
DSTYLE
1002
{
1070
   271
1070
     0
1002
}
  0
LINE
  5
52D
102
{ACAD_REACTORS
330
530
102
}
330
1F
100
AcDbEntity
  8
AM_7
  6
AM_DIN_G_W050x2
100
AcDbLine
 10
1744.323503116871
 20
1495.505467458593
 30
0.0
 11
1744.323503116871
 21
1600.576896030023
 31
0.0
1001
GENIUS_GENOBJ-N-CEN_13
1002
{
1000
OWNER
1000
GEN
1002
}
1001
GENIUS_GENODEF_13
1002
{
1000
HIER
1070
     0
1002
}
1002
{
1000
MANEDIT
1070
     0
1002
}
1002
{
1000
NOSEL
1070
     0
1002
}
1002
{
1000
BEHIND
1070
     0
1002
}
1002
{
1000
OTHER
1070
     0
1002
}
1002
{
1000
REACTOR
1002
}
1001
GENIUS_GENCEN_19
1002
{
1040
30.0
1002
}
  0
DIMENSION
  5
52E
102
{ACAD_XDICTIONARY
360
52F
102
}
102
{ACAD_REACTORS
330
530
102
}
330
1F
100
AcDbEntity
  8
AM_5
100
AcDbDimension
  2
*D17
 10
1476.823503116841
 20
1449.23292611935
 30
0.0
 11
1610.573503116856
 21
1449.23292611935
 31
0.0
 70
   160
 71
     5
 42
267.5000000000291
  3
GEN-ISO$0
100
AcDbAlignedDimension
 13
1744.323503116871
 23
1495.505467458593
 33
0.0
 14
1476.823503116841
 24
1570.576896030024
 34
0.0
100
AcDbRotatedDimension
1001
ACAD
1000
DSTYLE
1002
{
1070
   271
1070
     0
1002
}
  0
TEXT
  5
531
330
1F
100
AcDbEntity
  8
AM_6
100
AcDbText
 10
1069.007093643614
 20
1832.229897840608
 30
0.0
 40
27.0
  1
Zulauf
100
AcDbText
  0
TEXT
  5
532
330
1F
100
AcDbEntity
  8
AM_6
100
AcDbText
 10
1069.007093643614
 20
1794.729897840608
 30
0.0
 40
27.0
  1
DN 150
100
AcDbText
  0
LINE
  5
533
330
1F
100
AcDbEntity
  8
406
  6
AUSGEZOGEN
 62
     7
100
AcDbLine
 10
1226.84491933238
 20
1738.707192760613
 30
0.0
 11
1226.84491933238
 21
1742.457925180611
 31
0.0
  0
LINE
  5
534
330
1F
100
AcDbEntity
  8
406
  6
AUSGEZOGEN
 62
     7
100
AcDbLine
 10
1225.59491933238
 20
1737.457192760613
 30
0.0
 11
1225.59491933238
 21
1743.707925180611
 31
0.0
  0
LINE
  5
535
330
1F
100
AcDbEntity
  8
406
  6
AUSGEZOGEN
 62
     7
100
AcDbLine
 10
1224.34491933238
 20
1736.207192760613
 30
0.0
 11
1224.34491933238
 21
1744.957925180611
 31
0.0
  0
LINE
  5
536
330
1F
100
AcDbEntity
  8
406
  6
AUSGEZOGEN
 62
     7
100
AcDbLine
 10
1223.09491933238
 20
1734.957192760613
 30
0.0
 11
1223.09491933238
 21
1746.207925180611
 31
0.0
  0
LINE
  5
537
330
1F
100
AcDbEntity
  8
406
  6
AUSGEZOGEN
 62
     7
100
AcDbLine
 10
1221.84491933238
 20
1733.707192760613
 30
0.0
 11
1221.84491933238
 21
1747.457925180611
 31
0.0
  0
LINE
  5
538
330
1F
100
AcDbEntity
  8
406
  6
AUSGEZOGEN
 62
     7
100
AcDbLine
 10
1220.59491933238
 20
1732.457192760613
 30
0.0
 11
1220.59491933238
 21
1748.70792518061
 31
0.0
  0
LINE
  5
539
330
1F
100
AcDbEntity
  8
406
  6
AUSGEZOGEN
 62
     7
100
AcDbLine
 10
1219.34491933238
 20
1731.207192760613
 30
0.0
 11
1219.34491933238
 21
1749.95792518061
 31
0.0
  0
LINE
  5
53A
330
1F
100
AcDbEntity
  8
406
  6
AUSGEZOGEN
 62
     7
100
AcDbLine
 10
1218.09491933238
 20
1729.957192760613
 30
0.0
 11
1218.09491933238
 21
1751.207925180611
 31
0.0
  0
LINE
  5
53B
330
1F
100
AcDbEntity
  8
406
  6
AUSGEZOGEN
 62
     7
100
AcDbLine
 10
1216.84491933238
 20
1728.707192760613
 30
0.0
 11
1216.84491933238
 21
1752.457925180611
 31
0.0
  0
LINE
  5
53C
330
1F
100
AcDbEntity
  8
406
  6
AUSGEZOGEN
 62
     7
100
AcDbLine
 10
1215.59491933238
 20
1727.457192760613
 30
0.0
 11
1215.59491933238
 21
1753.707925180611
 31
0.0
  0
LINE
  5
53D
330
1F
100
AcDbEntity
  8
406
  6
AUSGEZOGEN
 62
     7
100
AcDbLine
 10
1214.34491933238
 20
1726.207192760613
 30
0.0
 11
1214.34491933238
 21
1754.957925180611
 31
0.0
  0
LINE
  5
53E
330
1F
100
AcDbEntity
  8
406
  6
AUSGEZOGEN
 62
     7
100
AcDbLine
 10
1213.09491933238
 20
1724.956460340608
 30
0.0
 11
1213.09491933238
 21
1756.206948620613
 31
0.0
  0
LINE
  5
53F
330
1F
100
AcDbEntity
  8
406
  6
AUSGEZOGEN
 62
     7
100
AcDbLine
 10
1211.84491933238
 20
1723.706460340608
 30
0.0
 11
1211.84491933238
 21
1757.456948620613
 31
0.0
  0
LINE
  5
540
330
1F
100
AcDbEntity
  8
406
  6
AUSGEZOGEN
 62
     7
100
AcDbLine
 10
1210.59491933238
 20
1722.456460340608
 30
0.0
 11
1210.59491933238
 21
1758.706948620613
 31
0.0
  0
LINE
  5
541
330
1F
100
AcDbEntity
  8
406
  6
AUSGEZOGEN
 62
     7
100
AcDbLine
 10
1209.34491933238
 20
1721.206460340608
 30
0.0
 11
1209.34491933238
 21
1759.956948620614
 31
0.0
  0
LINE
  5
542
330
1F
100
AcDbEntity
  8
406
  6
AUSGEZOGEN
 62
     7
100
AcDbLine
 10
1208.09491933238
 20
1719.956460340608
 30
0.0
 11
1208.09491933238
 21
1761.206948620614
 31
0.0
  0
LINE
  5
543
330
1F
100
AcDbEntity
  8
406
  6
AUSGEZOGEN
 62
     7
100
AcDbLine
 10
1206.84491933238
 20
1718.706460340608
 30
0.0
 11
1206.84491933238
 21
1762.456948620614
 31
0.0
  0
LINE
  5
544
330
1F
100
AcDbEntity
  8
406
  6
AUSGEZOGEN
 62
     7
100
AcDbLine
 10
1205.59491933238
 20
1717.456460340608
 30
0.0
 11
1205.59491933238
 21
1763.706948620614
 31
0.0
  0
LINE
  5
545
330
1F
100
AcDbEntity
  8
406
  6
AUSGEZOGEN
 62
     7
100
AcDbLine
 10
1204.34491933238
 20
1716.206460340608
 30
0.0
 11
1204.34491933238
 21
1764.957436900612
 31
0.0
  0
LINE
  5
546
330
1F
100
AcDbEntity
  8
406
  6
AUSGEZOGEN
 62
     7
100
AcDbLine
 10
1203.09491933238
 20
1714.956460340608
 30
0.0
 11
1203.09491933238
 21
1766.206948620614
 31
0.0
  0
LINE
  5
547
330
1F
100
AcDbEntity
  8
406
  6
AUSGEZOGEN
 62
     7
100
AcDbLine
 10
1201.84491933238
 20
1713.706460340608
 30
0.0
 11
1201.84491933238
 21
1767.456948620614
 31
0.0
  0
LINE
  5
548
330
1F
100
AcDbEntity
  8
406
  6
AUSGEZOGEN
 62
     7
100
AcDbLine
 10
1200.59491933238
 20
1712.456460340608
 30
0.0
 11
1200.59491933238
 21
1768.706948620613
 31
0.0
  0
LINE
  5
549
330
1F
100
AcDbEntity
  8
406
  6
AUSGEZOGEN
 62
     7
100
AcDbLine
 10
1199.344919332387
 20
1711.206460340608
 30
0.0
 11
1199.344919332387
 21
1769.957436900612
 31
0.0
  0
LINE
  5
54A
330
1F
100
AcDbEntity
  8
406
  6
AUSGEZOGEN
 62
     7
100
AcDbLine
 10
1197.46991933238
 20
1709.332192760613
 30
0.0
 11
1197.46991933238
 21
1771.832192760613
 31
0.0
  0
LINE
  5
54B
330
1F
100
AcDbEntity
  8
406
  6
AUSGEZOGEN
 62
     7
100
AcDbLine
 10
1198.09491933238
 20
1709.956460340608
 30
0.0
 11
1198.09491933238
 21
1771.207436900612
 31
0.0
  0
LINE
  5
54C
330
1F
100
AcDbEntity
  8
406
  6
AUSGEZOGEN
 62
     7
100
AcDbLine
 10
1197.46991933238
 20
1771.832192760613
 30
0.0
 11
1228.719919332388
 21
1740.582192760613
 31
0.0
  0
LINE
  5
54D
330
1F
100
AcDbEntity
  8
406
  6
AUSGEZOGEN
 62
     7
100
AcDbLine
 10
1228.719919332388
 20
1740.582192760613
 30
0.0
 11
1197.46991933238
 21
1709.332192760613
 31
0.0
  0
LINE
  5
54E
330
1F
100
AcDbEntity
  8
406
  6
AUSGEZOGEN
 62
     7
100
AcDbLine
 10
1197.46991933238
 20
1740.582192760613
 30
0.0
 11
1137.068063862386
 21
1740.582192760613
 31
0.0
  0
TEXT
  5
54F
330
1F
100
AcDbEntity
  8
AM_6
100
AcDbText
 10
1802.944781429237
 20
1318.086623209525
 30
0.0
 40
27.0
  1
Ablauf
100
AcDbText
  0
TEXT
  5
550
330
1F
100
AcDbEntity
  8
AM_6
100
AcDbText
 10
1802.944781429237
 20
1280.586623209525
 30
0.0
 40
27.0
  1
DN 150
100
AcDbText
  0
LINE
  5
551
330
1F
100
AcDbEntity
  8
406
  6
AUSGEZOGEN
 62
     7
100
AcDbLine
 10
1742.448503116871
 20
1270.673916934699
 30
0.0
 11
1746.199235536868
 21
1270.673916934699
 31
0.0
  0
LINE
  5
552
330
1F
100
AcDbEntity
  8
406
  6
AUSGEZOGEN
 62
     7
100
AcDbLine
 10
1741.198503116871
 20
1271.923916934699
 30
0.0
 11
1747.449235536868
 21
1271.923916934699
 31
0.0
  0
LINE
  5
553
330
1F
100
AcDbEntity
  8
406
  6
AUSGEZOGEN
 62
     7
100
AcDbLine
 10
1739.94850311687
 20
1273.173916934699
 30
0.0
 11
1748.699235536868
 21
1273.173916934699
 31
0.0
  0
LINE
  5
554
330
1F
100
AcDbEntity
  8
406
  6
AUSGEZOGEN
 62
     7
100
AcDbLine
 10
1738.69850311687
 20
1274.423916934699
 30
0.0
 11
1749.949235536868
 21
1274.423916934699
 31
0.0
  0
LINE
  5
555
330
1F
100
AcDbEntity
  8
406
  6
AUSGEZOGEN
 62
     7
100
AcDbLine
 10
1737.44850311687
 20
1275.673916934699
 30
0.0
 11
1751.199235536868
 21
1275.673916934699
 31
0.0
  0
LINE
  5
556
330
1F
100
AcDbEntity
  8
406
  6
AUSGEZOGEN
 62
     7
100
AcDbLine
 10
1736.19850311687
 20
1276.923916934699
 30
0.0
 11
1752.449235536868
 21
1276.923916934699
 31
0.0
  0
LINE
  5
557
330
1F
100
AcDbEntity
  8
406
  6
AUSGEZOGEN
 62
     7
100
AcDbLine
 10
1734.948503116871
 20
1278.173916934699
 30
0.0
 11
1753.699235536868
 21
1278.173916934699
 31
0.0
  0
LINE
  5
558
330
1F
100
AcDbEntity
  8
406
  6
AUSGEZOGEN
 62
     7
100
AcDbLine
 10
1733.69850311687
 20
1279.423916934699
 30
0.0
 11
1754.949235536868
 21
1279.423916934699
 31
0.0
  0
LINE
  5
559
330
1F
100
AcDbEntity
  8
406
  6
AUSGEZOGEN
 62
     7
100
AcDbLine
 10
1732.44850311687
 20
1280.673916934699
 30
0.0
 11
1756.199235536868
 21
1280.673916934699
 31
0.0
  0
LINE
  5
55A
330
1F
100
AcDbEntity
  8
406
  6
AUSGEZOGEN
 62
     7
100
AcDbLine
 10
1731.198503116871
 20
1281.923916934698
 30
0.0
 11
1757.449235536868
 21
1281.923916934698
 31
0.0
  0
LINE
  5
55B
330
1F
100
AcDbEntity
  8
406
  6
AUSGEZOGEN
 62
     7
100
AcDbLine
 10
1729.948503116871
 20
1283.173916934699
 30
0.0
 11
1758.699235536868
 21
1283.173916934699
 31
0.0
  0
LINE
  5
55C
330
1F
100
AcDbEntity
  8
406
  6
AUSGEZOGEN
 62
     7
100
AcDbLine
 10
1728.697770696865
 20
1284.423916934699
 30
0.0
 11
1759.948258976871
 21
1284.423916934699
 31
0.0
  0
LINE
  5
55D
330
1F
100
AcDbEntity
  8
406
  6
AUSGEZOGEN
 62
     7
100
AcDbLine
 10
1727.447770696866
 20
1285.673916934699
 30
0.0
 11
1761.198258976871
 21
1285.673916934699
 31
0.0
  0
LINE
  5
55E
330
1F
100
AcDbEntity
  8
406
  6
AUSGEZOGEN
 62
     7
100
AcDbLine
 10
1726.197770696865
 20
1286.923916934699
 30
0.0
 11
1762.448258976871
 21
1286.923916934699
 31
0.0
  0
LINE
  5
55F
330
1F
100
AcDbEntity
  8
406
  6
AUSGEZOGEN
 62
     7
100
AcDbLine
 10
1724.947770696865
 20
1288.173916934699
 30
0.0
 11
1763.698258976871
 21
1288.173916934699
 31
0.0
  0
LINE
  5
560
330
1F
100
AcDbEntity
  8
406
  6
AUSGEZOGEN
 62
     7
100
AcDbLine
 10
1723.697770696865
 20
1289.423916934699
 30
0.0
 11
1764.948258976871
 21
1289.423916934699
 31
0.0
  0
LINE
  5
561
330
1F
100
AcDbEntity
  8
406
  6
AUSGEZOGEN
 62
     7
100
AcDbLine
 10
1722.447770696865
 20
1290.673916934699
 30
0.0
 11
1766.198258976871
 21
1290.673916934699
 31
0.0
  0
LINE
  5
562
330
1F
100
AcDbEntity
  8
406
  6
AUSGEZOGEN
 62
     7
100
AcDbLine
 10
1721.197770696865
 20
1291.923916934699
 30
0.0
 11
1767.448258976871
 21
1291.923916934699
 31
0.0
  0
LINE
  5
563
330
1F
100
AcDbEntity
  8
406
  6
AUSGEZOGEN
 62
     7
100
AcDbLine
 10
1719.947770696865
 20
1293.173916934699
 30
0.0
 11
1768.69874725687
 21
1293.173916934699
 31
0.0
  0
LINE
  5
564
330
1F
100
AcDbEntity
  8
406
  6
AUSGEZOGEN
 62
     7
100
AcDbLine
 10
1718.697770696865
 20
1294.423916934699
 30
0.0
 11
1769.948258976871
 21
1294.423916934699
 31
0.0
  0
LINE
  5
565
330
1F
100
AcDbEntity
  8
406
  6
AUSGEZOGEN
 62
     7
100
AcDbLine
 10
1717.447770696865
 20
1295.673916934699
 30
0.0
 11
1771.198258976875
 21
1295.673916934699
 31
0.0
  0
LINE
  5
566
330
1F
100
AcDbEntity
  8
406
  6
AUSGEZOGEN
 62
     7
100
AcDbLine
 10
1716.197770696865
 20
1296.923916934699
 30
0.0
 11
1772.448258976871
 21
1296.923916934699
 31
0.0
  0
LINE
  5
567
330
1F
100
AcDbEntity
  8
406
  6
AUSGEZOGEN
 62
     7
100
AcDbLine
 10
1714.947770696866
 20
1298.173916934691
 30
0.0
 11
1773.69874725687
 21
1298.173916934691
 31
0.0
  0
LINE
  5
568
330
1F
100
AcDbEntity
  8
406
  6
AUSGEZOGEN
 62
     7
100
AcDbLine
 10
1713.073503116871
 20
1300.048916934699
 30
0.0
 11
1775.573503116871
 21
1300.048916934699
 31
0.0
  0
LINE
  5
569
330
1F
100
AcDbEntity
  8
406
  6
AUSGEZOGEN
 62
     7
100
AcDbLine
 10
1713.697770696865
 20
1299.423916934699
 30
0.0
 11
1774.94874725687
 21
1299.423916934699
 31
0.0
  0
LINE
  5
56A
330
1F
100
AcDbEntity
  8
406
  6
AUSGEZOGEN
 62
     7
100
AcDbLine
 10
1775.573503116871
 20
1300.048916934699
 30
0.0
 11
1744.323503116871
 21
1268.798916934691
 31
0.0
  0
LINE
  5
56B
330
1F
100
AcDbEntity
  8
406
  6
AUSGEZOGEN
 62
     7
100
AcDbLine
 10
1744.323503116871
 20
1268.798916934691
 30
0.0
 11
1713.073503116871
 21
1300.048916934699
 31
0.0
  0
LINE
  5
56C
330
1F
100
AcDbEntity
  8
406
  6
AUSGEZOGEN
 62
     7
100
AcDbLine
 10
1744.323503116871
 20
1300.048916934699
 30
0.0
 11
1744.323503116871
 21
1360.450772404693
 31
0.0
  0
POINT
  5
56D
330
1F
100
AcDbEntity
  8
0
 60
     1
100
AcDbPoint
 10
17936.1113712244
 20
-1887.186499157276
 30
0.0
1001
GENIUS_GENODEF_13
1002
{
1000
HIER
1070
    10
1002
}
1002
{
1000
MANEDIT
1070
     0
1002
}
1002
{
1000
NOSEL
1070
     0
1002
}
1002
{
1000
BEHIND
1070
     0
1002
}
1002
{
1000
OTHER
1070
     0
1002
}
1002
{
1000
REACTOR
1002
}
1001
GENIUS_GENOLIS_13
1002
{
1000
ENT
1005
522
1005
521
1005
520
1005
51F
1002
}
1001
GENIUS_GENOBJ-N-CRS_13
1002
{
1000
OWNER
1000
GEN
1002
}
1001
GENIUS_GENOENT_13
1002
{
1000
MYREF
1005
56D
1002
}
1002
{
1000
GRP
1005
0
1002
}
  0
ENDSEC
  0
SECTION
  2
OBJECTS
  0
DICTIONARY
  5
C
330
0
100
AcDbDictionary
281
     1
  3
ACAD_COLOR
350
D7
  3
ACAD_GROUP
350
D
  3
ACAD_LAYOUT
350
1A
  3
ACAD_MATERIAL
350
D6
  3
ACAD_MLINESTYLE
350
17
  3
ACAD_PLOTSETTINGS
350
19
  3
ACAD_PLOTSTYLENAME
350
E
  3
ACAD_TABLESTYLE
350
133
  3
ACDBHEADERROUNDTRIPXREC
350
5F0
  3
AcDbVariableDictionary
350
34
  3
AcmDictionary
350
49
  3
AMG
350
2B
  3
AMGSNAPSETTINGS
350
2C4
  3
DWGPROPS
350
5EF
  0
DICTIONARY
  5
C0
330
2
100
AcDbDictionary
280
     1
281
     1
  3
ACAD_LAYERSTATES
360
37C
  3
AMLAYER_GROUPCOLORS
360
C1
  0
DICTIONARY
  5
83
330
1F
100
AcDbDictionary
280
     1
281
     1
  0
DICTIONARY
  5
505
330
504
100
AcDbDictionary
280
     1
281
     1
  3
ACAD_DIMASSOC
360
506
  0
DICTIONARY
  5
529
330
528
100
AcDbDictionary
280
     1
281
     1
  3
ACAD_DIMASSOC
360
52A
  0
DICTIONARY
  5
52F
330
52E
100
AcDbDictionary
280
     1
281
     1
  3
ACAD_DIMASSOC
360
530
  0
DICTIONARY
  5
D7
102
{ACAD_REACTORS
330
C
102
}
330
C
100
AcDbDictionary
281
     1
  0
DICTIONARY
  5
D
102
{ACAD_REACTORS
330
C
102
}
330
C
100
AcDbDictionary
281
     1
  0
DICTIONARY
  5
1A
102
{ACAD_REACTORS
330
C
102
}
330
C
100
AcDbDictionary
281
     1
  3
Layout1
350
1E
  3
Layout2
350
26
  3
Model
350
22
  0
DICTIONARY
  5
D6
102
{ACAD_REACTORS
330
C
102
}
330
C
100
AcDbDictionary
281
     1
  0
DICTIONARY
  5
17
102
{ACAD_REACTORS
330
C
102
}
330
C
100
AcDbDictionary
281
     1
  3
Standard
350
18
  0
DICTIONARY
  5
19
102
{ACAD_REACTORS
330
C
102
}
330
C
100
AcDbDictionary
281
     1
  0
ACDBDICTIONARYWDFLT
  5
E
102
{ACAD_REACTORS
330
C
102
}
330
C
100
AcDbDictionary
281
     1
  3
Normal
350
F
100
AcDbDictionaryWithDefault
340
F
  0
DICTIONARY
  5
133
102
{ACAD_REACTORS
330
C
102
}
330
C
100
AcDbDictionary
281
     1
  3
Standard
350
134
  0
DICTIONARY
  5
5F0
102
{ACAD_REACTORS
330
C
102
}
330
C
100
AcDbDictionary
281
     1
  0
DICTIONARY
  5
34
102
{ACAD_REACTORS
330
C
102
}
330
C
100
AcDbDictionary
281
     1
  3
CTABLESTYLE
350
152
  3
DIMASSOC
350
AD
  3
INDEXCTL
350
35
  3
PROJECTNAME
350
5ED
  0
DICTIONARY
  5
49
102
{ACAD_REACTORS
330
C
102
}
330
C
100
AcDbDictionary
281
     1
  3
AcmBOM
350
2CB
  3
AcmStdDictionary
350
4A
  3
AMDTSECTSYM_ARROWCOLOR
350
13D
  0
DICTIONARY
  5
2B
102
{ACAD_REACTORS
330
C
102
}
330
C
100
AcDbDictionary
281
     1
  0
DICTIONARY
  5
2C4
102
{ACAD_REACTORS
330
C
102
}
330
C
100
AcDbDictionary
281
     1
  0
XRECORD
  5
5EF
102
{ACAD_REACTORS
330
C
102
}
330
C
100
AcDbXrecord
280
     1
  1
DWGPROPS COOKIE
  2

  3

  4

  6

  7

  8

  9

300
AmdtFileType=84
301
=
302
=
303
=
304
=
305
=
306
=
307
=
308
=
309
=
 40
0.0002096064814815
 41
2454053.358878391
 42
2454053.359087627
  1

 90
        1
  0
DICTIONARY
  5
37C
102
{ACAD_REACTORS
330
C0
102
}
330
C0
100
AcDbDictionary
281
     1
  0
DICTIONARY
  5
C1
102
{ACAD_REACTORS
330
C0
102
}
330
C0
100
AcDbDictionary
280
     1
281
     1
  0
DIMASSOC
  5
506
102
{ACAD_REACTORS
330
505
102
}
330
505
100
AcDbDimAssoc
330
504
 90
        3
 70
     0
 71
     0
  1
AcDbOsnapPointRef
 72
    13
331
501
 73
     0
 91
        0
 40
0.0
 10
0.0
 20
0.0
 30
2.000000000000000E+50
 75
     0
  1
AcDbOsnapPointRef
 72
    13
331
4F9
 73
     0
 91
        0
 40
0.0
 10
0.0
 20
0.0
 30
2.000000000000000E+50
 75
     0
  0
DIMASSOC
  5
52A
102
{ACAD_REACTORS
330
529
102
}
330
529
100
AcDbDimAssoc
330
528
 90
        2
 70
     0
 71
     0
  1
AcDbOsnapPointRef
 72
    13
331
527
 73
     0
 91
        0
 40
0.0
 10
0.0
 20
0.0
 30
2.000000000000000E+50
 75
     0
  0
DIMASSOC
  5
530
102
{ACAD_REACTORS
330
52F
102
}
330
52F
100
AcDbDimAssoc
330
52E
 90
        1
 70
     0
 71
     0
  1
AcDbOsnapPointRef
 72
    13
331
52D
 73
     0
 91
        0
 40
0.0
 10
0.0
 20
0.0
 30
2.000000000000000E+50
 75
     0
  0
LAYOUT
  5
1E
102
{ACAD_XDICTIONARY
360
5F1
102
}
102
{ACAD_REACTORS
330
1A
102
}
330
1A
100
AcDbPlotSettings
  1

  2
none_device
  4
Letter_(8.50_x_11.00_Inches)
  6

 40
6.349999904632568
 41
6.349999904632568
 42
6.350006103515625
 43
6.350006103515625
 44
215.8999938964844
 45
279.3999938964844
 46
0.0
 47
0.0
 48
0.0
 49
0.0
140
0.0
141
0.0
142
1.0
143
1.0
 70
 15024
 72
     1
 73
     1
 74
     5
  7

 75
    16
147
1.0
148
0.0
149
0.0
100
AcDbLayout
  1
Layout1
 70
     1
 71
     1
 10
0.0
 20
0.0
 11
420.0
 21
297.0
 12
0.0
 22
0.0
 32
0.0
 14
1.000000000000000E+20
 24
1.000000000000000E+20
 34
1.000000000000000E+20
 15
-1.000000000000000E+20
 25
-1.000000000000000E+20
 35
-1.000000000000000E+20
146
0.0
 13
0.0
 23
0.0
 33
0.0
 16
1.0
 26
0.0
 36
0.0
 17
0.0
 27
1.0
 37
0.0
 76
     0
330
1B
  0
LAYOUT
  5
26
102
{ACAD_XDICTIONARY
360
5F5
102
}
102
{ACAD_REACTORS
330
1A
102
}
330
1A
100
AcDbPlotSettings
  1

  2
none_device
  4
Letter_(8.50_x_11.00_Inches)
  6

 40
6.349999904632568
 41
6.349999904632568
 42
6.350006103515625
 43
6.350006103515625
 44
215.8999938964844
 45
279.3999938964844
 46
0.0
 47
0.0
 48
0.0
 49
0.0
140
0.0
141
0.0
142
1.0
143
1.0
 70
 15024
 72
     1
 73
     1
 74
     5
  7

 75
    16
147
1.0
148
0.0
149
0.0
100
AcDbLayout
  1
Layout2
 70
     1
 71
     2
 10
0.0
 20
0.0
 11
12.0
 21
9.0
 12
0.0
 22
0.0
 32
0.0
 14
0.0
 24
0.0
 34
0.0
 15
0.0
 25
0.0
 35
0.0
146
0.0
 13
0.0
 23
0.0
 33
0.0
 16
1.0
 26
0.0
 36
0.0
 17
0.0
 27
1.0
 37
0.0
 76
     0
330
23
  0
LAYOUT
  5
22
102
{ACAD_XDICTIONARY
360
5F3
102
}
102
{ACAD_REACTORS
330
1A
102
}
330
1A
100
AcDbPlotSettings
  1

  2
none_device
  4
Letter_(8.50_x_11.00_Inches)
  6

 40
6.349999904632568
 41
6.349999904632568
 42
6.350006103515625
 43
6.350006103515625
 44
215.8999938964844
 45
279.3999938964844
 46
0.0
 47
0.0
 48
0.0
 49
0.0
140
0.0
141
0.0
142
1.0
143
1.0
 70
 11952
 72
     1
 73
     1
 74
     0
  7

 75
     0
147
1.0
148
-131.3052631578947
149
0.0
100
AcDbLayout
  1
Model
 70
     1
 71
     0
 10
0.0
 20
0.0
 11
12.0
 21
9.0
 12
0.0
 22
0.0
 32
0.0
 14
0.0
 24
0.0
 34
0.0
 15
0.0
 25
0.0
 35
0.0
146
0.0
 13
0.0
 23
0.0
 33
0.0
 16
1.0
 26
0.0
 36
0.0
 17
0.0
 27
1.0
 37
0.0
 76
     0
330
1F
  0
MLINESTYLE
  5
18
102
{ACAD_REACTORS
330
17
102
}
330
17
100
AcDbMlineStyle
  2
STANDARD
 70
     0
  3

 62
   256
 51
90.0
 52
90.0
 71
     2
 49
0.5
 62
   256
  6
BYLAYER
 49
-0.5
 62
   256
  6
BYLAYER
  0
ACDBPLACEHOLDER
  5
F
102
{ACAD_REACTORS
330
E
102
}
330
E
  0
TABLESTYLE
  5
134
102
{ACAD_REACTORS
330
133
102
}
330
133
100
AcDbTableStyle
  3
Standard
 70
     0
 71
     0
 40
1.5
 41
1.5
280
     0
281
     0
  7
STANDARD
140
4.5
170
     2
 62
     0
 63
     7
283
     0
274
    -2
284
     1
 64
     0
275
    -2
285
     1
 65
     0
276
    -2
286
     1
 66
     0
277
    -2
287
     1
 67
     0
278
    -2
288
     1
 68
     0
279
    -2
289
     1
 69
     0
  7
STANDARD
140
6.0
170
     5
 62
     0
 63
     7
283
     0
274
    -2
284
     1
 64
     0
275
    -2
285
     1
 65
     0
276
    -2
286
     1
 66
     0
277
    -2
287
     1
 67
     0
278
    -2
288
     1
 68
     0
279
    -2
289
     1
 69
     0
  7
STANDARD
140
4.5
170
     5
 62
     0
 63
     7
283
     0
274
    -2
284
     1
 64
     0
275
    -2
285
     1
 65
     0
276
    -2
286
     1
 66
     0
277
    -2
287
     1
 67
     0
278
    -2
288
     1
 68
     0
279
    -2
289
     1
 69
     0
  0
DICTIONARYVAR
  5
152
102
{ACAD_REACTORS
330
34
102
}
330
34
100
DictionaryVariables
280
     0
  1
STANDARD
  0
DICTIONARYVAR
  5
AD
102
{ACAD_REACTORS
330
34
102
}
330
34
100
DictionaryVariables
280
     0
  1
2
  0
DICTIONARYVAR
  5
35
102
{ACAD_REACTORS
330
34
102
}
330
34
100
DictionaryVariables
280
     0
  1
0
  0
DICTIONARYVAR
  5
5ED
102
{ACAD_REACTORS
330
34
102
}
330
34
100
DictionaryVariables
280
     0
  1

  0
DICTIONARY
  5
2CB
102
{ACAD_REACTORS
330
49
102
}
330
49
100
AcDbDictionary
281
     1
  0
DICTIONARY
  5
4A
102
{ACAD_REACTORS
330
49
102
}
330
49
100
AcDbDictionary
281
     1
  0
XRECORD
  5
13D
102
{ACAD_REACTORS
330
49
102
}
330
49
100
AcDbXrecord
280
     1
 90
-1023410169
  0
DICTIONARY
  5
5F1
330
1E
100
AcDbDictionary
280
     1
281
     1
  3
ACAD_XREC_ROUNDTRIP
360
5F2
  0
DICTIONARY
  5
5F5
330
26
100
AcDbDictionary
280
     1
281
     1
  3
ACAD_XREC_ROUNDTRIP
360
5F6
  0
DICTIONARY
  5
5F3
330
22
100
AcDbDictionary
280
     1
281
     1
  3
ACAD_XREC_ROUNDTRIP
360
5F4
  0
XRECORD
  5
5F2
102
{ACAD_REACTORS
330
5F1
102
}
330
5F1
100
AcDbXrecord
280
     1
102
SHADEPLOT
 70
     0
102
SHADEPLOTRESLEVEL
 70
     2
102
SHADEPLOTCUSTOMDPI
 70
   300
  0
XRECORD
  5
5F6
102
{ACAD_REACTORS
330
5F5
102
}
330
5F5
100
AcDbXrecord
280
     1
102
SHADEPLOT
 70
     0
102
SHADEPLOTRESLEVEL
 70
     2
102
SHADEPLOTCUSTOMDPI
 70
   300
  0
XRECORD
  5
5F4
102
{ACAD_REACTORS
330
5F3
102
}
330
5F3
100
AcDbXrecord
280
     1
102
SHADEPLOT
 70
     0
102
SHADEPLOTRESLEVEL
 70
     2
102
SHADEPLOTCUSTOMDPI
 70
   300
  0
ENDSEC
  0
EOF
