  0
SECTION
  2
HEADER
  9
$ACADVER
  1
AC1015
  9
$ACADMAINTVER
 70
    20
  9
$DWGCODEPAGE
  3
ANSI_1252
  9
$INSBASE
 10
0.0
 20
0.0
 30
0.0
  9
$EXTMIN
 10
1014.948730471493
 20
877.0651959741945
 30
0.0
  9
$EXTMAX
 10
1385.944665320546
 20
1593.056773691628
 30
0.0
  9
$LIMMIN
 10
0.0
 20
0.0
  9
$LIMMAX
 10
420.0
 20
297.0
  9
$ORTHOMODE
 70
     0
  9
$REGENMODE
 70
     1
  9
$FILLMODE
 70
     1
  9
$QTEXTMODE
 70
     0
  9
$MIRRTEXT
 70
     1
  9
$LTSCALE
 40
1.0
  9
$ATTMODE
 70
     1
  9
$TEXTSIZE
 40
2.5
  9
$TRACEWID
 40
1.0
  9
$TEXTSTYLE
  7
STANDARD
  9
$CLAYER
  8
0
  9
$CELTYPE
  6
ByLayer
  9
$CECOLOR
 62
   256
  9
$CELTSCALE
 40
1.0
  9
$DISPSILH
 70
     0
  9
$DIMSCALE
 40
1.0
  9
$DIMASZ
 40
2.5
  9
$DIMEXO
 40
1.0
  9
$DIMDLI
 40
10.0
  9
$DIMRND
 40
0.0
  9
$DIMDLE
 40
0.0
  9
$DIMEXE
 40
1.0
  9
$DIMTP
 40
0.1
  9
$DIMTM
 40
0.1
  9
$DIMTXT
 40
3.5
  9
$DIMCEN
 40
0.0
  9
$DIMTSZ
 40
0.0
  9
$DIMTOL
 70
     0
  9
$DIMLIM
 70
     0
  9
$DIMTIH
 70
     0
  9
$DIMTOH
 70
     0
  9
$DIMSE1
 70
     0
  9
$DIMSE2
 70
     0
  9
$DIMTAD
 70
     1
  9
$DIMZIN
 70
     8
  9
$DIMBLK
  1

  9
$DIMASO
 70
     1
  9
$DIMSHO
 70
     1
  9
$DIMPOST
  1

  9
$DIMAPOST
  1
"
  9
$DIMALT
 70
     0
  9
$DIMALTD
 70
     2
  9
$DIMALTF
 40
0.0393701
  9
$DIMLFAC
 40
1.0
  9
$DIMTOFL
 70
     1
  9
$DIMTVP
 40
0.0
  9
$DIMTIX
 70
     0
  9
$DIMSOXD
 70
     0
  9
$DIMSAH
 70
     0
  9
$DIMBLK1
  1

  9
$DIMBLK2
  1

  9
$DIMSTYLE
  2
AM_DIN
  9
$DIMCLRD
 70
   256
  9
$DIMCLRE
 70
   256
  9
$DIMCLRT
 70
     2
  9
$DIMTFAC
 40
0.71
  9
$DIMGAP
 40
1.5
  9
$DIMJUST
 70
     0
  9
$DIMSD1
 70
     0
  9
$DIMSD2
 70
     0
  9
$DIMTOLJ
 70
     0
  9
$DIMTZIN
 70
     8
  9
$DIMALTZ
 70
     0
  9
$DIMALTTZ
 70
     0
  9
$DIMUPT
 70
     0
  9
$DIMDEC
 70
     2
  9
$DIMTDEC
 70
     3
  9
$DIMALTU
 70
     2
  9
$DIMALTTD
 70
     4
  9
$DIMTXSTY
  7
STANDARD
  9
$DIMAUNIT
 70
     0
  9
$DIMADEC
 70
     0
  9
$DIMALTRND
 40
0.0
  9
$DIMAZIN
 70
     2
  9
$DIMDSEP
 70
    46
  9
$DIMATFIT
 70
     3
  9
$DIMFRAC
 70
     0
  9
$DIMLDRBLK
  1

  9
$DIMLUNIT
 70
     2
  9
$DIMLWD
 70
    -1
  9
$DIMLWE
 70
    -1
  9
$DIMTMOVE
 70
     0
  9
$LUNITS
 70
     2
  9
$LUPREC
 70
     2
  9
$SKETCHINC
 40
1.0
  9
$FILLETRAD
 40
2.5
  9
$AUNITS
 70
     0
  9
$AUPREC
 70
     0
  9
$MENU
  1
.
  9
$ELEVATION
 40
0.0
  9
$PELEVATION
 40
0.0
  9
$THICKNESS
 40
0.0
  9
$LIMCHECK
 70
     0
  9
$CHAMFERA
 40
2.5
  9
$CHAMFERB
 40
2.5
  9
$CHAMFERC
 40
20.0
  9
$CHAMFERD
 40
0.0
  9
$SKPOLY
 70
     0
  9
$TDCREATE
 40
2454053.372288773
  9
$TDUCREATE
 40
2454053.330622107
  9
$TDUPDATE
 40
2454053.617981227
  9
$TDUUPDATE
 40
2454053.576314560
  9
$TDINDWG
 40
0.0007065509
  9
$TDUSRTIMER
 40
0.0007063657
  9
$USRTIMER
 70
     1
  9
$ANGBASE
 50
0.0
  9
$ANGDIR
 70
     0
  9
$PDMODE
 70
     0
  9
$PDSIZE
 40
0.0
  9
$PLINEWID
 40
0.0
  9
$SPLFRAME
 70
     0
  9
$SPLINETYPE
 70
     6
  9
$SPLINESEGS
 70
     8
  9
$HANDSEED
  5
4DF
  9
$SURFTAB1
 70
     6
  9
$SURFTAB2
 70
     6
  9
$SURFTYPE
 70
     6
  9
$SURFU
 70
     6
  9
$SURFV
 70
     6
  9
$UCSBASE
  2

  9
$UCSNAME
  2

  9
$UCSORG
 10
0.0
 20
0.0
 30
0.0
  9
$UCSXDIR
 10
1.0
 20
0.0
 30
0.0
  9
$UCSYDIR
 10
0.0
 20
1.0
 30
0.0
  9
$UCSORTHOREF
  2

  9
$UCSORTHOVIEW
 70
     0
  9
$UCSORGTOP
 10
0.0
 20
0.0
 30
0.0
  9
$UCSORGBOTTOM
 10
0.0
 20
0.0
 30
0.0
  9
$UCSORGLEFT
 10
0.0
 20
0.0
 30
0.0
  9
$UCSORGRIGHT
 10
0.0
 20
0.0
 30
0.0
  9
$UCSORGFRONT
 10
0.0
 20
0.0
 30
0.0
  9
$UCSORGBACK
 10
0.0
 20
0.0
 30
0.0
  9
$PUCSBASE
  2

  9
$PUCSNAME
  2

  9
$PUCSORG
 10
0.0
 20
0.0
 30
0.0
  9
$PUCSXDIR
 10
1.0
 20
0.0
 30
0.0
  9
$PUCSYDIR
 10
0.0
 20
1.0
 30
0.0
  9
$PUCSORTHOREF
  2

  9
$PUCSORTHOVIEW
 70
     0
  9
$PUCSORGTOP
 10
0.0
 20
0.0
 30
0.0
  9
$PUCSORGBOTTOM
 10
0.0
 20
0.0
 30
0.0
  9
$PUCSORGLEFT
 10
0.0
 20
0.0
 30
0.0
  9
$PUCSORGRIGHT
 10
0.0
 20
0.0
 30
0.0
  9
$PUCSORGFRONT
 10
0.0
 20
0.0
 30
0.0
  9
$PUCSORGBACK
 10
0.0
 20
0.0
 30
0.0
  9
$USERI1
 70
     0
  9
$USERI2
 70
     0
  9
$USERI3
 70
     0
  9
$USERI4
 70
     0
  9
$USERI5
 70
     0
  9
$USERR1
 40
0.0
  9
$USERR2
 40
0.0
  9
$USERR3
 40
0.0
  9
$USERR4
 40
0.0
  9
$USERR5
 40
0.0
  9
$WORLDVIEW
 70
     1
  9
$SHADEDGE
 70
     3
  9
$SHADEDIF
 70
    70
  9
$TILEMODE
 70
     1
  9
$MAXACTVP
 70
    64
  9
$PINSBASE
 10
0.0
 20
0.0
 30
0.0
  9
$PLIMCHECK
 70
     0
  9
$PEXTMIN
 10
1.000000000000000E+20
 20
1.000000000000000E+20
 30
1.000000000000000E+20
  9
$PEXTMAX
 10
-1.000000000000000E+20
 20
-1.000000000000000E+20
 30
-1.000000000000000E+20
  9
$PLIMMIN
 10
0.0
 20
0.0
  9
$PLIMMAX
 10
420.0
 20
297.0
  9
$UNITMODE
 70
     0
  9
$VISRETAIN
 70
     1
  9
$PLINEGEN
 70
     0
  9
$PSLTSCALE
 70
     1
  9
$TREEDEPTH
 70
  3020
  9
$CMLSTYLE
  2
Standard
  9
$CMLJUST
 70
     0
  9
$CMLSCALE
 40
20.0
  9
$PROXYGRAPHICS
 70
     1
  9
$MEASUREMENT
 70
     1
  9
$CELWEIGHT
370
    -1
  9
$ENDCAPS
280
     0
  9
$JOINSTYLE
280
     0
  9
$LWDISPLAY
290
     0
  9
$INSUNITS
 70
     4
  9
$HYPERLINKBASE
  1

  9
$STYLESHEET
  1

  9
$XEDIT
290
     1
  9
$CEPSNTYPE
380
     0
  9
$PSTYLEMODE
290
     1
  9
$FINGERPRINTGUID
  2
{608690C8-2D22-4632-8DDE-F8BF7A29622C}
  9
$VERSIONGUID
  2
{FFBA100F-6FF8-4BD1-B26E-44E8B4C3BD6C}
  9
$EXTNAMES
290
     1
  9
$PSVPSCALE
 40
0.0
  9
$OLESTARTUP
290
     0
  0
ENDSEC
  0
SECTION
  2
CLASSES
  0
CLASS
  1
ACDBDICTIONARYWDFLT
  2
AcDbDictionaryWithDefault
  3
ObjectDBX Classes
 90
        0
280
     0
281
     0
  0
CLASS
  1
AMGSETTINGSOBJ
  2
AmgSettingsObj
  3
"AcadM|Product Description: AutoCAD Mechanical 2000|Company: Autodesk"
 90
        0
280
     0
281
     0
  0
CLASS
  1
ACME_DOCUMENT
  2
AcMeDbDoc
  3
AcMeServices
 90
        0
280
     0
281
     0
  0
CLASS
  1
ACMESCOPE
  2
AcMeScope
  3
AcMeServices
 90
        0
280
     0
281
     0
  0
CLASS
  1
ACMECOMMANDHISTORY
  2
AcMeCommandHistory
  3
AcMeServices
 90
        0
280
     0
281
     0
  0
CLASS
  1
DICTIONARYVAR
  2
AcDbDictionaryVar
  3
ObjectDBX Classes
 90
        0
280
     0
281
     0
  0
CLASS
  1
ACIMSYSVARMAN
  2
AcImSysVarManager
  3
AcMeServices
 90
        0
280
     0
281
     0
  0
CLASS
  1
ACIMREALSYSVAR
  2
AcImRealSysVar
  3
AcMeServices
 90
        0
280
     0
281
     0
  0
CLASS
  1
ACIMINTSYSVAR
  2
AcImIntSysVar
  3
AcMeServices
 90
        0
280
     0
281
     0
  0
CLASS
  1
ACMEDRAWINGMAN
  2
AcMeDrawingMan
  3
AcMeServices
 90
        0
280
     0
281
     0
  0
CLASS
  1
ACMEVIEW
  2
AcMeView
  3
AcMeServices
 90
        0
280
     0
281
     0
  0
CLASS
  1
ACDBENTITYCACHE
  2
AcMeEntityCache
  3
AcMeServices
 90
        0
280
     0
281
     0
  0
CLASS
  1
GSMANAGER
  2
AcMeGSManager
  3
AcMeServices
 90
        0
280
     0
281
     0
  0
CLASS
  1
AMDTINTERNALREACTOR
  2
AmdtInternalReactor
  3
AcMeServices
 90
        0
280
     0
281
     0
  0
CLASS
  1
ACMESTATEMGR
  2
AcMeStateMgr
  3
AcMeServices
 90
        0
280
     0
281
     0
  0
CLASS
  1
ACGREFMASTER
  2
AcGrefMaster
  3
AcAttribServices
 90
        0
280
     0
281
     0
  0
CLASS
  1
ACME_DATABASE
  2
AcMeDbDatabase
  3
AcMeServices
 90
        0
280
     0
281
     0
  0
CLASS
  1
ACRFINSADJUSTERMGR
  2
AcRfInsAdjusterMgr
  3
AcMeServices
 90
        0
280
     0
281
     0
  0
CLASS
  1
ACGREFACADMASTER
  2
AcGrefacadMaster
  3
AcGrefServices
 90
        0
280
     0
281
     0
  0
CLASS
  1
AMIMASTER
  2
AmiMaster
  3
AmiServices
 90
        0
280
     0
281
     0
  0
CLASS
  1
ACIMSTRSYSVAR
  2
AcImStrSysVar
  3
AcMeServices
 90
        0
280
     0
281
     0
  0
CLASS
  1
ACMSTANDARDDIN
  2
AcmStandardDIN
  3
"Amdt_StdImp|Product Description: AutoCAD Mechanical 2004 DX|Company: Autodesk"
 90
        0
280
     0
281
     0
  0
CLASS
  1
AMGOBJPROPCFG
  2
AmgObjPropCfg
  3
"AmgLay|Product Description: AutoCAD Mechanical 2000|Company: Autodesk"
 90
        1
280
     0
281
     0
  0
CLASS
  1
AMDTEDGESTANDARDDIN
  2
AmdtEdgeStdDIN
  3
"Amdt_StdImp|Product Description: AutoCAD Mechanical 2004 DX|Company: Autodesk"
 90
    32768
280
     0
281
     0
  0
CLASS
  1
ACMSURFSTANDARDDIN
  2
AcmSurfTextStdDIN
  3
"Amdt_StdImp|Product Description: AutoCAD Mechanical 2004 DX|Company: Autodesk"
 90
        0
280
     0
281
     0
  0
CLASS
  1
ACMFCFSTANDARDDIN
  2
AcmFCFStdDIN
  3
"Amdt_StdImp|Product Description: AutoCAD Mechanical 2004 DX|Company: Autodesk"
 90
        0
280
     0
281
     0
  0
CLASS
  1
ACMWELDSTANDARDDIN
  2
AcmWeldingStdDIN
  3
"Amdt_StdImp|Product Description: AutoCAD Mechanical 2004 DX|Company: Autodesk"
 90
        0
280
     0
281
     0
  0
CLASS
  1
ACMIDSTANDARDDIN
  2
AcmIdStdDIN
  3
"Amdt_StdImp|Product Description: AutoCAD Mechanical 2004 DX|Company: Autodesk"
 90
        0
280
     0
281
     0
  0
CLASS
  1
ACMDATUMSTANDARDDIN
  2
AcmDatumStdDIN
  3
"Amdt_StdImp|Product Description: AutoCAD Mechanical 2004 DX|Company: Autodesk"
 90
        0
280
     0
281
     0
  0
CLASS
  1
ACMBOMSTANDARDDIN
  2
AcmBOMStdDIN
  3
"Amdt_StdImp|Product Description: AutoCAD Mechanical 2004 DX|Company: Autodesk"
 90
        0
280
     0
281
     0
  0
CLASS
  1
ACMDETAILSTANDARDDIN
  2
AmdtDetailSymStdDIN
  3
"Amdt_StdImp|Product Description: AutoCAD Mechanical 2004 DX|Company: Autodesk"
 90
        0
280
     0
281
     0
  0
CLASS
  1
ACMSECTIONSTANDARDDIN
  2
AmdtSectionSymStdDIN
  3
"Amdt_StdImp|Product Description: AutoCAD Mechanical 2004 DX|Company: Autodesk"
 90
        0
280
     0
281
     0
  0
CLASS
  1
ACMCENTERLINESTANDARDDIN
  2
AmdtCenterLineStdDIN
  3
"Amdt_StdImp|Product Description: AutoCAD Mechanical 2004 DX|Company: Autodesk"
 90
        0
280
     0
281
     0
  0
CLASS
  1
ACMTHREADLINESTANDARDDIN
  2
AmdtThreadLineStdDIN
  3
"Amdt_StdImp|Product Description: AutoCAD Mechanical 2004 DX|Company: Autodesk"
 90
        0
280
     0
281
     0
  0
CLASS
  1
ACAMGLAYSTD
  2
AcAmgLayStd
  3
"AcAmgLayStd|Product Description: AutoCAD Mechanical 2000|Company: Autodesk"
 90
        0
280
     0
281
     0
  0
CLASS
  1
ACAMGDIMSTD
  2
AcAmgDimStd
  3
"AcAmgDimStd|Product Description: AutoCAD Mechanical 2000|Company: Autodesk"
 90
        0
280
     0
281
     0
  0
CLASS
  1
ACAMGTITLESTD
  2
AcAmgTitleStd
  3
"TITLEAPP"
 90
        0
280
     0
281
     0
  0
CLASS
  1
ACMDATADICTIONARY
  2
AcmDataDictionary
  3
"AcmSymBB|Product Description: AutoCAD Mechanical 2004 DX|Company: Autodesk"
 90
        0
280
     0
281
     0
  0
CLASS
  1
ACMDATAENTRYBLOCK
  2
AcmDataEntryBlock
  3
"AcmSymBB|Product Description: AutoCAD Mechanical 2004 DX|Company: Autodesk"
 90
    32768
280
     0
281
     0
  0
CLASS
  1
LAYER_INDEX
  2
AcDbLayerIndex
  3
ObjectDBX Classes
 90
    32768
280
     0
281
     0
  0
CLASS
  1
IDBUFFER
  2
AcDbIdBuffer
  3
ObjectDBX Classes
 90
    32768
280
     0
281
     0
  0
CLASS
  1
ACMNOTESTANDARDDIN
  2
AmdtNoteStdDIN
  3
"Amdt_StdImp|Product Description: AutoCAD Mechanical 2004 DX|Company: Autodesk"
 90
        0
280
     0
281
     0
  0
CLASS
  1
ACAMGHOLECHARTSTDDIN
  2
AcAmgHoleChartStdDIN
  3
ACMSYMBB_MODULE_NAME
 90
        0
280
     0
281
     0
  0
CLASS
  1
AM_DRAWING_MGR
  2
AcDmDwgMgr
  3
AcMechDwgViewMgmt
 90
        0
280
     0
281
     0
  0
CLASS
  1
AM_DWG_DOCUMENT
  2
AcDmDwgDocument
  3
AcMechDwgViewMgmt
 90
        0
280
     0
281
     0
  0
CLASS
  1
AM_DWG_SHEET
  2
AcDmSheet
  3
AcMechDwgViewMgmt
 90
        0
280
     0
281
     0
  0
CLASS
  1
AM_VIEWDIMPARMAP
  2
AcDmViewDimParMap
  3
AcMechDwgViewMgmt
 90
        0
280
     0
281
     0
  0
CLASS
  1
AM_DWGMGR_NAME
  2
AcDmDwgMgrName
  3
AcMechDwgViewMgmt
 90
        0
280
     0
281
     0
  0
CLASS
  1
AMDTMENUSTATEMGR
  2
AmdtMenuStateMgr
  3
McadcomServices
 90
        0
280
     0
281
     0
  0
CLASS
  1
AMDTMCOMMENUSTATE
  2
AmdtMcomMenuState
  3
McadcomServices
 90
        0
280
     0
281
     0
  0
CLASS
  1
MAPIAMMOUDLE
  2
MApiAmModule
  3
MApiAmServices
 90
        0
280
     0
281
     0
  0
CLASS
  1
AMDTADMENUSTATE
  2
AmdtAdMenuState
  3
DesignerServices
 90
        0
280
     0
281
     0
  0
CLASS
  1
ADAPPL
  2
AcAdAppl
  3
DesignerServices
 90
        0
280
     0
281
     0
  0
CLASS
  1
DEPMGR
  2
AcAdDepMgr
  3
DesignerServices
 90
        0
280
     0
281
     0
  0
CLASS
  1
PARAMMGR
  2
AcAdParamMgr
  3
DesignerServices
 90
        0
280
     0
281
     0
  0
CLASS
  1
PARAMSCOPE
  2
AcAdParamScope
  3
DesignerServices
 90
        0
280
     0
281
     0
  0
CLASS
  1
NAMEDAPPL
  2
AcAdNamedAppl
  3
DesignerServices
 90
        0
280
     0
281
     0
  0
CLASS
  1
AMDTDMMENUSTATE
  2
AmdtDmMenuState
  3
AcMechDwgViewMgmt
 90
        0
280
     0
281
     0
  0
CLASS
  1
AMDTAMMENUSTATE
  2
AmdtAmMenuState
  3
DesignerAssemblies
 90
        0
280
     0
281
     0
  0
CLASS
  1
ACAMPROJECT
  2
AcAmProject
  3
DesignerAssemblies
 90
        0
280
     0
281
     0
  0
CLASS
  1
ACAMGRCOMPDEF
  2
AcAmGrCompDef
  3
DesignerAssemblies
 90
        0
280
     0
281
     0
  0
CLASS
  1
ACCMCONTEXT
  2
AcCmContext
  3
DesignerAssemblies
 90
        0
280
     0
281
     0
  0
CLASS
  1
ACAMCOMPDEF
  2
AcAmCompDef
  3
DesignerAssemblies
 90
        0
280
     0
281
     0
  0
CLASS
  1
ACAMCOMPDEFMGR
  2
AcAmCompDefMgr
  3
DesignerAssemblies
 90
        0
280
     0
281
     0
  0
CLASS
  1
AMCONTEXTMGR
  2
AcAmContextMgr
  3
DesignerAssemblies
 90
        0
280
     0
281
     0
  0
CLASS
  1
ACAMCONTEXTMODELER
  2
AcAmContextModeler
  3
DesignerAssemblies
 90
        0
280
     0
281
     0
  0
CLASS
  1
CATALOGSTATE
  2
AcAmCatalogState
  3
DesignerAssemblies
 90
        0
280
     0
281
     0
  0
CLASS
  1
ACAMGRCOMPDEFSET
  2
AcAmGrCompDefSet
  3
DesignerAssemblies
 90
        0
280
     0
281
     0
  0
CLASS
  1
AMDTBROWSERDBTAB
  2
AmdtBrowserDbTab
  3
McadcomServices
 90
        0
280
     0
281
     0
  0
CLASS
  1
CBROWSERAPPOBJECT
  2
CBrowserAppObject
  3
McadcomServices
 90
        0
280
     0
281
     0
  0
CLASS
  1
DM_PLACEHOLDER
  2
AcDmSelsetPlaceholder
  3
AcMechDwgViewMgmt
 90
        0
280
     0
281
     0
  0
CLASS
  1
TABLESTYLE
  2
AcDbTableStyle
  3
ObjectDBX Classes
 90
     2047
280
     0
281
     0
  0
CLASS
  1
VAACXREFPANELOBJECT
  2
VaAcXREFPanelObject
  3
VAAC_ADDIN
 90
    32768
280
     0
281
     0
  0
CLASS
  1
VAACIMAGEINVENTORY
  2
VaAcImageInventory
  3
VAAC_ADDIN
 90
    32768
280
     0
281
     0
  0
CLASS
  1
AMDTNOTETEMPLATEDB
  2
AmdtNoteTemplateDB
  3
AMDT_STDIMP_MODULE_NAME
 90
        0
280
     0
281
     0
  0
CLASS
  1
ACAMGFILTERDAT
  2
AcAmgFilterDat
  3
"AcadM|Product Description: AutoCAD Mechanical 2000|Company: Autodesk"
 90
    32768
280
     0
281
     0
  0
CLASS
  1
ACMBOM
  2
AcmBom
  3
"AcmSymBB|Product Description: AutoCAD Mechanical 2004 DX|Company: Autodesk"
 90
    32768
280
     0
281
     0
  0
CLASS
  1
AMDTFORMULAUPDATEDISPATCHER
  2
AmdtFormulaUpdateDispatcher
  3
AcMeServices
 90
    32768
280
     0
281
     0
  0
CLASS
  1
DIMASSOC
  2
AcDbDimAssoc
  3
"AcDbDimAssoc|Product Desc:     AcDim ARX App For Dimension|Company:          Autodesk, Inc.|WEB Address:      www.autodesk.com"
 90
        0
280
     0
281
     0
  0
CLASS
  1
SORTENTSTABLE
  2
AcDbSortentsTable
  3
ObjectDBX Classes
 90
    32768
280
     0
281
     0
  0
CLASS
  1
ACRFATTGENMGR
  2
AcRfAttGeneralMgr
  3
AcAttribServices
 90
    32768
280
     0
281
     0
  0
CLASS
  1
AMDTEDGESTANDARDDIN13715
  2
AmdtEdgeStdDIN13715
  3
"Amdt_StdImp|Product Description: AutoCAD Mechanical 2004 DX|Company: Autodesk"
 90
        0
280
     0
281
     0
  0
CLASS
  1
ACDBPLACEHOLDER
  2
AcDbPlaceHolder
  3
ObjectDBX Classes
 90
        0
280
     0
281
     0
  0
CLASS
  1
LAYOUT
  2
AcDbLayout
  3
ObjectDBX Classes
 90
        0
280
     0
281
     0
  0
ENDSEC
  0
SECTION
  2
TABLES
  0
TABLE
  2
VPORT
  5
8
330
0
100
AcDbSymbolTable
 70
    21
  0
VPORT
  5
4D6
330
8
100
AcDbSymbolTableRecord
100
AcDbViewportTableRecord
  2
*Active
 70
     0
 10
0.0
 20
0.0
 11
1.0
 21
1.0
 12
1178.63379787843
 22
1204.366740613918
 13
0.0
 23
0.0
 14
2.5
 24
2.5
 15
10.0
 25
10.0
 16
0.0
 26
0.0
 36
1.0
 17
0.0
 27
0.0
 37
0.0
 40
1157.095943512984
 41
1.378804960541149
 42
50.0
 43
0.0
 44
0.0
 50
0.0
 51
0.0
 71
     0
 72
   100
 73
     1
 74
     3
 75
     0
 76
     0
 77
     0
 78
     0
281
     0
 65
     0
110
0.0
120
0.0
130
0.0
111
1.0
121
0.0
131
0.0
112
0.0
122
1.0
132
0.0
 79
     0
146
0.0
  0
ENDTAB
  0
TABLE
  2
LTYPE
  5
5
330
0
100
AcDbSymbolTable
 70
    21
  0
LTYPE
  5
14
330
5
100
AcDbSymbolTableRecord
100
AcDbLinetypeTableRecord
  2
ByBlock
 70
     0
  3

 72
    65
 73
     0
 40
0.0
  0
LTYPE
  5
15
330
5
100
AcDbSymbolTableRecord
100
AcDbLinetypeTableRecord
  2
ByLayer
 70
     0
  3

 72
    65
 73
     0
 40
0.0
  0
LTYPE
  5
16
330
5
100
AcDbSymbolTableRecord
100
AcDbLinetypeTableRecord
  2
Continuous
 70
     0
  3
Solid line
 72
    65
 73
     0
 40
0.0
  0
LTYPE
  5
50
330
5
100
AcDbSymbolTableRecord
100
AcDbLinetypeTableRecord
  2
Amconstr
 70
     0
  3
_______________________
 72
    65
 73
     2
 40
9999.0
 49
9999.0
 74
     0
 49
0.0
 74
     0
  0
LTYPE
  5
55
330
5
100
AcDbSymbolTableRecord
100
AcDbLinetypeTableRecord
  2
Amzigzag
 70
     0
  3
/\/-/\/-/\/-/\/-/\/-/\/
 72
    65
 73
     2
 40
11.0001
 49
0.0001
 74
     4
 75
   136
340
285
 46
0.04
 50
0.0
 44
0.0
 45
0.0
 49
-11.0
 74
     0
  0
LTYPE
  5
56
330
5
100
AcDbSymbolTableRecord
100
AcDbLinetypeTableRecord
  2
AM_DIN_F_W050
 70
     0
  3
__ __ __ __ __ __ __ __ __ __ __ __ __ __ __
 72
    65
 73
     2
 40
6.25
 49
4.75
 74
     0
 49
-1.5
 74
     0
  0
LTYPE
  5
57
330
5
100
AcDbSymbolTableRecord
100
AcDbLinetypeTableRecord
  2
AM_DIN_G_W050
 70
     0
  3
____ . ____ . ____ . ____ . ____ . ____ . ____
 72
    65
 73
     4
 40
13.75
 49
9.75
 74
     0
 49
-1.5
 74
     0
 49
1.0
 74
     0
 49
-1.5
 74
     0
  0
LTYPE
  5
58
330
5
100
AcDbSymbolTableRecord
100
AcDbLinetypeTableRecord
  2
AM_DIN_K_W050
 70
     0
  3
_____ . . _____ . . _____ . . ____ .. ____
 72
    65
 73
     6
 40
16.25
 49
9.75
 74
     0
 49
-1.5
 74
     0
 49
1.0
 74
     0
 49
-1.5
 74
     0
 49
1.0
 74
     0
 49
-1.5
 74
     0
  0
LTYPE
  5
59
330
5
100
AcDbSymbolTableRecord
100
AcDbLinetypeTableRecord
  2
AM_DIN_G_W050x2
 70
     0
  3
__ . __ . __ . __ . __ . __
 72
    65
 73
     4
 40
6.875
 49
4.75
 74
     0
 49
-0.875
 74
     0
 49
0.375
 74
     0
 49
-0.875
 74
     0
  0
LTYPE
  5
5A
330
5
100
AcDbSymbolTableRecord
100
AcDbLinetypeTableRecord
  2
AM_DIN_F_W050x2
 70
     0
  3
 _ _ _ _ _ _ _ _ _ _ _ _
 72
    65
 73
     2
 40
3.125
 49
2.25
 74
     0
 49
-0.875
 74
     0
  0
LTYPE
  5
68
330
5
100
AcDbSymbolTableRecord
100
AcDbLinetypeTableRecord
  2
ACDINWELD
 70
     0
  3
_ _ _ _ _
 72
    65
 73
     2
 40
2.0
 49
2.0
 74
     0
 49
-1.0
 74
     0
  0
LTYPE
  5
69
330
5
100
AcDbSymbolTableRecord
100
AcDbLinetypeTableRecord
  2
ACDINTGB
 70
     0
  3
__ . . __ . .
 72
    65
 73
     6
 40
9.0
 49
4.0
 74
     0
 49
-1.0
 74
     0
 49
1.0
 74
     0
 49
-1.0
 74
     0
 49
1.0
 74
     0
 49
-1.0
 74
     0
  0
LTYPE
  5
6A
330
5
100
AcDbSymbolTableRecord
100
AcDbLinetypeTableRecord
  2
ACDINTGL
 70
     0
  3
_ _ _ _ _
 72
    65
 73
     2
 40
3.0
 49
2.0
 74
     0
 49
-1.0
 74
     0
  0
LTYPE
  5
6C
330
5
100
AcDbSymbolTableRecord
100
AcDbLinetypeTableRecord
  2
CENTER
 70
     0
  3
__ . __
 72
    65
 73
     4
 40
7.0
 49
4.0
 74
     0
 49
-1.0
 74
     0
 49
1.0
 74
     0
 49
-1.0
 74
     0
  0
LTYPE
  5
F2
330
5
100
AcDbSymbolTableRecord
100
AcDbLinetypeTableRecord
  2
HIDDEN
 70
     0
  3
Hidden __ __ __ __ __ __ __ __ __ __ __ __ __ _
 72
    65
 73
     2
 40
9.524999999999996
 49
6.349999999999998
 74
     0
 49
-3.174999999999998
 74
     0
  0
LTYPE
  5
F3
330
5
100
AcDbSymbolTableRecord
100
AcDbLinetypeTableRecord
  2
PHANTOM2
 70
     0
  3
Phantom (.5x) ___ _ _ ___ _ _ ___ _ _ ___ _ _
 72
    65
 73
     6
 40
31.75
 49
15.875
 74
     0
 49
-3.174999999999998
 74
     0
 49
3.174999999999998
 74
     0
 49
-3.174999999999998
 74
     0
 49
3.174999999999998
 74
     0
 49
-3.174999999999998
 74
     0
  0
LTYPE
  5
328
330
5
100
AcDbSymbolTableRecord
100
AcDbLinetypeTableRecord
  2
GEN7A
 70
     0
  3
__ . __ . __
 72
    65
 73
     4
 40
6.875
 49
5.0
 74
     0
 49
-0.625
 74
     0
 49
0.625
 74
     0
 49
-0.625
 74
     0
  0
LTYPE
  5
329
330
5
100
AcDbSymbolTableRecord
100
AcDbLinetypeTableRecord
  2
C_SOLID_M
 70
     0
  3
CADAM Solid Medium
 72
    65
 73
     0
 40
0.0
  0
LTYPE
  5
461
330
5
100
AcDbSymbolTableRecord
100
AcDbLinetypeTableRecord
  2
AM_ISO02W050
 70
     0
  3
__ __ __ __ __ __ __ __ __ __ __ __ __ __ __
 72
    65
 73
     2
 40
7.5
 49
6.0
 74
     0
 49
-1.5
 74
     0
  0
LTYPE
  5
462
330
5
100
AcDbSymbolTableRecord
100
AcDbLinetypeTableRecord
  2
AM_ISO08W050
 70
     0
  3
____ . ____ . ____ . ____ . ____ . ____ . ____
 72
    65
 73
     4
 40
18.0
 49
12.0
 74
     0
 49
-1.5
 74
     0
 49
3.0
 74
     0
 49
-1.5
 74
     0
  0
LTYPE
  5
463
330
5
100
AcDbSymbolTableRecord
100
AcDbLinetypeTableRecord
  2
AM_ISO09W050
 70
     0
  3
_____ . . _____ . . _____ . . ____ .. ____
 72
    65
 73
     6
 40
22.5
 49
12.0
 74
     0
 49
-1.5
 74
     0
 49
3.0
 74
     0
 49
-1.5
 74
     0
 49
3.0
 74
     0
 49
-1.5
 74
     0
  0
LTYPE
  5
464
330
5
100
AcDbSymbolTableRecord
100
AcDbLinetypeTableRecord
  2
AM_ISO08W050x2
 70
     0
  3
__ . __ . __ . __ . __ . __
 72
    65
 73
     4
 40
9.0
 49
6.0
 74
     0
 49
-0.75
 74
     0
 49
1.5
 74
     0
 49
-0.75
 74
     0
  0
LTYPE
  5
465
330
5
100
AcDbSymbolTableRecord
100
AcDbLinetypeTableRecord
  2
AM_ISO02W050x2
 70
     0
  3
 _ _ _ _ _ _ _ _ _ _ _ _
 72
    65
 73
     2
 40
3.75
 49
3.0
 74
     0
 49
-0.75
 74
     0
  0
ENDTAB
  0
TABLE
  2
LAYER
  5
2
102
{ACAD_XDICTIONARY
360
C0
102
}
330
0
100
AcDbSymbolTable
 70
     6
  0
LAYER
  5
10
330
2
100
AcDbSymbolTableRecord
100
AcDbLayerTableRecord
  2
0
 70
     0
 62
     7
  6
Continuous
370
    -3
390
F
  0
LAYER
  5
32A
330
2
100
AcDbSymbolTableRecord
100
AcDbLayerTableRecord
  2
AM_7
 70
     0
 62
     4
  6
AM_DIN_G_W050
370
    25
390
F
  0
LAYER
  5
32B
330
2
100
AcDbSymbolTableRecord
100
AcDbLayerTableRecord
  2
DEFPOINTS
 70
     0
 62
     7
  6
Continuous
290
     0
370
    -3
390
F
  0
LAYER
  5
32C
330
2
100
AcDbSymbolTableRecord
100
AcDbLayerTableRecord
  2
AM_5
 70
     0
 62
     3
  6
Continuous
370
    25
390
F
  0
LAYER
  5
32D
330
2
100
AcDbSymbolTableRecord
100
AcDbLayerTableRecord
  2
7A
 70
     0
 62
     4
  6
GEN7A
370
    -3
390
F
  0
LAYER
  5
32E
330
2
100
AcDbSymbolTableRecord
100
AcDbLayerTableRecord
  2
MO_001_VIEW_PV
 70
     0
 62
     7
  6
C_SOLID_M
370
    -3
390
F
  0
ENDTAB
  0
TABLE
  2
STYLE
  5
3
330
0
100
AcDbSymbolTable
 70
     4
  0
STYLE
  5
11
330
3
100
AcDbSymbolTableRecord
100
AcDbTextStyleTableRecord
  2
STANDARD
 70
     0
 40
0.0
 41
1.0
 50
0.0
 71
     0
 42
2.5
  3
ISOCP.SHX
  4
bigfont.shx
  0
STYLE
  5
5B
330
3
100
AcDbSymbolTableRecord
100
AcDbTextStyleTableRecord
  2
ACDINTS
 70
     0
 40
1.0
 41
1.0
 50
0.0
 71
     0
 42
2.5
  3
isocp.shx
  4
bigfont.shx
  0
STYLE
  5
67
330
3
100
AcDbSymbolTableRecord
100
AcDbTextStyleTableRecord
  2
ACDINGDT
 70
     0
 40
0.0
 41
1.0
 50
0.0
 71
     0
 42
2.5
  3
AMGDT
  4
bigfont.shx
  0
STYLE
  5
285
330
3
100
AcDbSymbolTableRecord
100
AcDbTextStyleTableRecord
  2

 70
     1
 40
0.0
 41
1.0
 50
0.0
 71
     0
 42
2.5
  3
genltshp.shx
  4

  0
ENDTAB
  0
TABLE
  2
VIEW
  5
6
330
0
100
AcDbSymbolTable
 70
     0
  0
ENDTAB
  0
TABLE
  2
UCS
  5
7
330
0
100
AcDbSymbolTable
 70
     0
  0
ENDTAB
  0
TABLE
  2
APPID
  5
9
330
0
100
AcDbSymbolTable
 70
    15
  0
APPID
  5
12
330
9
100
AcDbSymbolTableRecord
100
AcDbRegAppTableRecord
  2
ACAD
 70
     0
  0
APPID
  5
30
330
9
100
AcDbSymbolTableRecord
100
AcDbRegAppTableRecord
  2
MCAD_NO_VIS
 70
     0
  0
APPID
  5
31
330
9
100
AcDbSymbolTableRecord
100
AcDbRegAppTableRecord
  2
ACAD_TEMP_GRAPHIC
 70
     0
  0
APPID
  5
44
330
9
100
AcDbSymbolTableRecord
100
AcDbRegAppTableRecord
  2
ACATTRIBSERVICES
 70
     0
  0
APPID
  5
108
330
9
100
AcDbSymbolTableRecord
100
AcDbRegAppTableRecord
  2
AD_DRAW
 70
     0
  0
APPID
  5
126
330
9
100
AcDbSymbolTableRecord
100
AcDbRegAppTableRecord
  2
DESIGNERASSEMBLIES
 70
     0
  0
APPID
  5
12A
330
9
100
AcDbSymbolTableRecord
100
AcDbRegAppTableRecord
  2
ACADM_DIM_EDIT
 70
     0
  0
APPID
  5
12B
330
9
100
AcDbSymbolTableRecord
100
AcDbRegAppTableRecord
  2
AMDT_DM_ADJ
 70
     0
  0
APPID
  5
1A4
330
9
100
AcDbSymbolTableRecord
100
AcDbRegAppTableRecord
  2
ACAD_DSTYLE_DIMARC_LENGTH_SYMBOL
 70
     0
  0
APPID
  5
1A5
330
9
100
AcDbSymbolTableRecord
100
AcDbRegAppTableRecord
  2
ACAD_DSTYLE_DIMJOGGED_JOGANGLE_SYMBOL
 70
     0
  0
APPID
  5
22C
330
9
100
AcDbSymbolTableRecord
100
AcDbRegAppTableRecord
  2
AcAecLayerStandard
 70
     0
  0
APPID
  5
332
330
9
100
AcDbSymbolTableRecord
100
AcDbRegAppTableRecord
  2
GENIUS_GENODEF_13
 70
     0
  0
APPID
  5
333
330
9
100
AcDbSymbolTableRecord
100
AcDbRegAppTableRecord
  2
GENIUS_GENOBJ-N-CEN_13
 70
     0
  0
APPID
  5
334
330
9
100
AcDbSymbolTableRecord
100
AcDbRegAppTableRecord
  2
ACAD_PSEXT
 70
     0
  0
APPID
  5
335
330
9
100
AcDbSymbolTableRecord
100
AcDbRegAppTableRecord
  2
GENIUS_GENCEN_19
 70
     0
  0
ENDTAB
  0
TABLE
  2
DIMSTYLE
  5
A
330
0
100
AcDbSymbolTable
 70
    10
100
AcDbDimStyleTable
 71
     2
340
330
340
6F
  0
DIMSTYLE
105
6F
330
A
100
AcDbSymbolTableRecord
100
AcDbDimStyleTableRecord
  2
AM_DIN
 70
     0
  4
"
 41
2.5
 42
1.0
 43
10.0
 44
1.0
 47
0.1
 48
0.1
 73
     0
 74
     0
 77
     1
 78
     8
 79
     2
140
3.5
141
0.0
143
0.0393701
146
0.71
147
1.5
172
     1
176
   256
177
   256
178
     2
271
     2
272
     3
274
     4
283
     0
284
     8
340
11
371
    -1
372
    -1
1001
ACAD_DSTYLE_DIMARC_LENGTH_SYMBOL
1070
   379
1070
     0
1001
ACAD_DSTYLE_DIMJOGGED_JOGANGLE_SYMBOL
1070
   384
1040
1.570796326794896
  0
DIMSTYLE
105
70
330
A
100
AcDbSymbolTableRecord
100
AcDbDimStyleTableRecord
  2
AM_DIN$3
 70
     0
  4
"
 41
2.5
 42
1.0
 43
10.0
 44
1.0
 47
0.1
 48
0.1
 73
     0
 77
     1
 78
     8
 79
     2
140
3.5
141
0.0
143
0.0393701
146
0.71
147
1.5
176
   256
177
   256
178
     2
271
     2
272
     3
274
     4
283
     0
284
     8
288
     1
289
     0
340
11
371
    -1
372
    -1
1001
ACAD_DSTYLE_DIMARC_LENGTH_SYMBOL
1070
   379
1070
     0
1001
ACAD_DSTYLE_DIMJOGGED_JOGANGLE_SYMBOL
1070
   384
1040
1.570796326794896
  0
DIMSTYLE
105
71
330
A
100
AcDbSymbolTableRecord
100
AcDbDimStyleTableRecord
  2
AM_DIN$4
 70
     0
  4
"
 41
2.5
 42
1.0
 43
10.0
 44
1.0
 47
0.1
 48
0.1
 73
     0
 77
     1
 78
     8
 79
     2
140
3.5
141
0.0
143
0.0393701
146
0.71
147
1.5
176
   256
177
   256
178
     2
271
     2
272
     3
274
     4
283
     0
284
     8
288
     1
289
     0
340
11
371
    -1
372
    -1
1001
ACAD_DSTYLE_DIMARC_LENGTH_SYMBOL
1070
   379
1070
     0
1001
ACAD_DSTYLE_DIMJOGGED_JOGANGLE_SYMBOL
1070
   384
1040
1.570796326794896
  0
DIMSTYLE
105
72
330
A
100
AcDbSymbolTableRecord
100
AcDbDimStyleTableRecord
  2
AM_DIN$6
 70
     0
  4
"
 41
2.5
 42
1.0
 43
10.0
 44
1.0
 47
0.1
 48
0.1
 73
     0
 74
     0
 78
     8
 79
     2
140
3.5
141
0.0
143
0.0393701
146
0.71
147
1.5
172
     1
176
   256
177
   256
178
     2
271
     2
272
     3
274
     4
283
     0
284
     8
340
11
371
    -1
372
    -1
1001
ACAD_DSTYLE_DIMARC_LENGTH_SYMBOL
1070
   379
1070
     0
1001
ACAD_DSTYLE_DIMJOGGED_JOGANGLE_SYMBOL
1070
   384
1040
1.570796326794896
  0
DIMSTYLE
105
73
330
A
100
AcDbSymbolTableRecord
100
AcDbDimStyleTableRecord
  2
AM_DIN$7
 70
     0
  4
"
 41
2.5
 42
1.0
 43
10.0
 44
1.0
 47
0.1
 48
0.1
 73
     0
 74
     0
 77
     1
 78
     8
 79
     2
140
5.0
141
0.0
143
0.0393701
146
0.71
147
1.5
172
     1
176
   256
177
   256
178
     2
271
     2
272
     3
274
     4
283
     0
284
     8
340
11
371
    -1
372
    -1
1001
ACAD_DSTYLE_DIMARC_LENGTH_SYMBOL
1070
   379
1070
     0
1001
ACAD_DSTYLE_DIMJOGGED_JOGANGLE_SYMBOL
1070
   384
1040
1.570796326794896
  0
DIMSTYLE
105
74
330
A
100
AcDbSymbolTableRecord
100
AcDbDimStyleTableRecord
  2
AM_DIN$SF
 70
     0
  4
"
 41
2.5
 42
1.0
 43
10.0
 44
1.0
 47
0.1
 48
0.1
 73
     0
 74
     0
 75
     1
 76
     1
 77
     1
 78
     8
 79
     2
140
3.5
141
0.0
143
0.0393701
146
0.71
147
1.5
172
     1
176
   256
177
   256
178
     2
271
     2
272
     3
274
     4
283
     0
284
     8
340
11
371
    -1
372
    -1
1001
ACAD_DSTYLE_DIMARC_LENGTH_SYMBOL
1070
   379
1070
     0
1001
ACAD_DSTYLE_DIMJOGGED_JOGANGLE_SYMBOL
1070
   384
1040
1.570796326794896
  0
DIMSTYLE
105
79
330
A
100
AcDbSymbolTableRecord
100
AcDbDimStyleTableRecord
  2
AM_DIN$SH
 70
     0
  4
"
 41
2.5
 42
1.0
 43
10.0
 44
1.0
 47
0.1
 48
0.1
 73
     0
 74
     0
 75
     1
 76
     1
 77
     1
 78
     8
 79
     2
140
3.5
141
0.0
143
0.0393701
144
2.0
146
0.71
147
1.5
172
     1
173
     1
176
   256
177
   256
178
     2
271
     2
272
     3
274
     4
283
     0
284
     8
340
11
343
75
371
    -1
372
    -1
1001
ACAD_DSTYLE_DIMARC_LENGTH_SYMBOL
1070
   379
1070
     0
1001
ACAD_DSTYLE_DIMJOGGED_JOGANGLE_SYMBOL
1070
   384
1040
1.570796326794896
  0
DIMSTYLE
105
330
330
A
100
AcDbSymbolTableRecord
100
AcDbDimStyleTableRecord
  2
GEN-ISO
 70
     0
  4
"
 40
10.0
 41
2.5
 42
1.0
 43
7.0
 44
1.0
 47
0.1
 48
0.1
 73
     0
 74
     0
 77
     1
 78
     8
140
3.5
141
0.0
143
0.0393701
146
0.71
147
0.6
172
     1
176
     3
177
     3
178
     2
271
     2
272
     2
283
     0
340
11
  0
DIMSTYLE
105
331
102
{ACAD_REACTORS
330
3CC
330
3CF
330
499
102
}
330
A
100
AcDbSymbolTableRecord
100
AcDbDimStyleTableRecord
  2
GEN-ISO$0
 70
     0
  4
"
 40
10.0
 41
2.5
 42
1.0
 43
7.0
 44
1.0
 47
0.1
 48
0.1
 73
     0
 74
     0
 77
     1
 78
     8
140
3.5
141
0.0
143
0.0393701
146
0.71
147
0.6
172
     1
176
     3
177
     3
178
     2
271
     2
272
     2
283
     0
340
11
  0
DIMSTYLE
105
495
330
A
100
AcDbSymbolTableRecord
100
AcDbDimStyleTableRecord
  2
AM_DIN$0
 70
     0
  4
"
 41
2.5
 42
1.0
 43
10.0
 44
1.0
 47
0.1
 48
0.1
 73
     0
 74
     0
 77
     1
 78
     8
 79
     2
140
3.5
141
0.0
143
0.0393701
146
0.71
147
1.5
172
     1
176
   256
177
   256
178
     2
271
     2
272
     3
274
     4
283
     0
284
     8
340
11
371
    -1
372
    -1
1001
ACAD_DSTYLE_DIMARC_LENGTH_SYMBOL
1070
   379
1070
     0
1001
ACAD_DSTYLE_DIMJOGGED_JOGANGLE_SYMBOL
1070
   384
1040
1.570796326794896
  0
ENDTAB
  0
TABLE
  2
BLOCK_RECORD
  5
1
330
0
100
AcDbSymbolTable
 70
     6
  0
BLOCK_RECORD
  5
1F
102
{ACAD_XDICTIONARY
360
83
102
}
330
1
100
AcDbSymbolTableRecord
100
AcDbBlockTableRecord
  2
*Model_Space
340
22
  0
BLOCK_RECORD
  5
1B
330
1
100
AcDbSymbolTableRecord
100
AcDbBlockTableRecord
  2
*Paper_Space
340
1E
  0
BLOCK_RECORD
  5
23
330
1
100
AcDbSymbolTableRecord
100
AcDbBlockTableRecord
  2
*Paper_Space0
340
26
  0
BLOCK_RECORD
  5
75
330
1
100
AcDbSymbolTableRecord
100
AcDbBlockTableRecord
  2
GENAXEH
340
0
  0
BLOCK_RECORD
  5
3D2
330
1
100
AcDbSymbolTableRecord
100
AcDbBlockTableRecord
  2
*D2
340
0
  0
BLOCK_RECORD
  5
3DE
330
1
100
AcDbSymbolTableRecord
100
AcDbBlockTableRecord
  2
*D3
340
0
  0
BLOCK_RECORD
  5
49A
330
1
100
AcDbSymbolTableRecord
100
AcDbBlockTableRecord
  2
*D5
340
0
  0
ENDTAB
  0
ENDSEC
  0
SECTION
  2
BLOCKS
  0
BLOCK
  5
20
330
1F
100
AcDbEntity
  8
0
100
AcDbBlockBegin
  2
*Model_Space
 70
     0
 10
0.0
 20
0.0
 30
0.0
  3
*Model_Space
  1

  0
ENDBLK
  5
21
330
1F
100
AcDbEntity
  8
0
100
AcDbBlockEnd
  0
BLOCK
  5
1C
330
1B
100
AcDbEntity
 67
     1
  8
0
100
AcDbBlockBegin
  2
*Paper_Space
 70
     0
 10
0.0
 20
0.0
 30
0.0
  3
*Paper_Space
  1

  0
ENDBLK
  5
1D
330
1B
100
AcDbEntity
 67
     1
  8
0
100
AcDbBlockEnd
  0
BLOCK
  5
24
330
23
100
AcDbEntity
 67
     1
  8
0
100
AcDbBlockBegin
  2
*Paper_Space0
 70
     0
 10
0.0
 20
0.0
 30
0.0
  3
*Paper_Space0
  1

  0
ENDBLK
  5
25
330
23
100
AcDbEntity
 67
     1
  8
0
100
AcDbBlockEnd
  0
BLOCK
  5
77
330
75
100
AcDbEntity
  8
0
100
AcDbBlockBegin
  2
GENAXEH
 70
     0
 10
0.0
 20
0.0
 30
0.0
  3
GENAXEH
  1

  0
LINE
  5
76
330
75
100
AcDbEntity
  8
0
100
AcDbLine
 10
-1.0
 20
0.0
 30
0.0
 11
1.0
 21
0.0
 31
0.0
  0
ENDBLK
  5
78
330
75
100
AcDbEntity
  8
0
100
AcDbBlockEnd
  0
BLOCK
  5
3DC
330
3D2
100
AcDbEntity
  8
0
100
AcDbBlockBegin
  2
*D2
 70
     1
 10
0.0
 20
0.0
 30
0.0
  3
*D2
  1

  0
LINE
  5
3F3
330
3D2
100
AcDbEntity
  8
AM_5
 62
     3
370
    -2
100
AcDbLine
 10
1014.948851876765
 20
1484.984525022374
 30
0.0
 11
1014.948851876765
 21
1562.056773691629
 31
0.0
  0
LINE
  5
3F4
330
3D2
100
AcDbEntity
  8
AM_5
 62
     3
370
    -2
100
AcDbLine
 10
1264.94108769395
 20
1484.984615713891
 30
0.0
 11
1264.94108769395
 21
1562.056773691629
 31
0.0
  0
LINE
  5
3F5
330
3D2
100
AcDbEntity
  8
AM_5
 62
     3
370
    -2
100
AcDbLine
 10
1039.948851876766
 20
1552.056773691629
 30
0.0
 11
1239.94108769395
 21
1552.056773691629
 31
0.0
  0
SOLID
  5
3F6
330
3D2
100
AcDbEntity
  8
AM_5
 62
     3
100
AcDbTrace
 10
1039.948851876766
 20
1556.223440358295
 30
0.0
 11
1039.948851876766
 21
1547.890107024962
 31
0.0
 12
1014.948851876765
 22
1552.056773691629
 32
0.0
 13
1014.948851876765
 23
1552.056773691629
 33
0.0
  0
SOLID
  5
3F7
330
3D2
100
AcDbEntity
  8
AM_5
 62
     3
100
AcDbTrace
 10
1239.94108769395
 20
1556.223440358295
 30
0.0
 11
1239.94108769395
 21
1547.890107024962
 31
0.0
 12
1264.94108769395
 22
1552.056773691629
 32
0.0
 13
1264.94108769395
 23
1552.056773691629
 33
0.0
  0
MTEXT
  5
3F8
330
3D2
100
AcDbEntity
  8
AM_5
 62
     2
100
AcDbMText
 10
1139.944969785358
 20
1575.560218573518
 30
0.0
 40
35.0
 41
0.0
 71
     5
 72
     1
  1
%%c200
 73
     1
 44
1.0
1001
ACAD
1000
MTEXTBEGIN
1070
    73
1070
     1
1070
    44
1040
1.0
1070
    74
1070
     0
1000
MTEXTEND
  0
POINT
  5
3F9
330
3D2
100
AcDbEntity
  8
DEFPOINTS
 62
     0
100
AcDbPoint
 10
1014.948851876765
 20
1474.984525022375
 30
0.0
  0
POINT
  5
3FA
330
3D2
100
AcDbEntity
  8
DEFPOINTS
 62
     0
100
AcDbPoint
 10
1264.94108769395
 20
1474.984615713891
 30
0.0
  0
POINT
  5
3FB
330
3D2
100
AcDbEntity
  8
DEFPOINTS
 62
     0
100
AcDbPoint
 10
1264.94108769395
 20
1552.056773691629
 30
0.0
  0
ENDBLK
  5
3DD
330
3D2
100
AcDbEntity
  8
0
100
AcDbBlockEnd
  0
BLOCK
  5
3E8
330
3DE
100
AcDbEntity
  8
0
100
AcDbBlockBegin
  2
*D3
 70
     1
 10
0.0
 20
0.0
 30
0.0
  3
*D3
  1

  0
LINE
  5
3EA
330
3DE
100
AcDbEntity
  8
AM_5
 62
     3
370
    -2
100
AcDbLine
 10
1265.944665320546
 20
1478.861203728929
 30
0.0
 11
1385.944665320546
 21
1478.861203728929
 31
0.0
  0
LINE
  5
3EB
330
3DE
100
AcDbEntity
  8
AM_5
 62
     3
370
    -2
100
AcDbLine
 10
1205.652916895152
 20
1057.461057244554
 30
0.0
 11
1385.944665320546
 21
1057.461057244554
 31
0.0
  0
LINE
  5
3EC
330
3DE
100
AcDbEntity
  8
AM_5
 62
     3
370
    -2
100
AcDbLine
 10
1375.944665320546
 20
1453.861203728929
 30
0.0
 11
1375.944665320546
 21
1082.461057244554
 31
0.0
  0
SOLID
  5
3ED
330
3DE
100
AcDbEntity
  8
AM_5
 62
     3
100
AcDbTrace
 10
1371.777998653879
 20
1453.861203728929
 30
0.0
 11
1380.111331987213
 21
1453.861203728929
 31
0.0
 12
1375.944665320546
 22
1478.861203728929
 32
0.0
 13
1375.944665320546
 23
1478.861203728929
 33
0.0
  0
SOLID
  5
3EE
330
3DE
100
AcDbEntity
  8
AM_5
 62
     3
100
AcDbTrace
 10
1371.777998653879
 20
1082.461057244554
 30
0.0
 11
1380.111331987213
 21
1082.461057244554
 31
0.0
 12
1375.944665320546
 22
1057.461057244554
 32
0.0
 13
1375.944665320546
 23
1057.461057244554
 33
0.0
  0
MTEXT
  5
3EF
330
3DE
100
AcDbEntity
  8
AM_5
 62
     2
100
AcDbMText
 10
1352.444665320545
 20
1268.161130486742
 30
0.0
 40
35.0
 41
0.0
 71
     5
 72
     1
  1
365 - 465
 11
0.0000000000000001
 21
1.0
 31
0.0
 73
     1
 44
1.0
1001
ACAD
1000
MTEXTBEGIN
1070
    73
1070
     1
1070
    44
1040
1.0
1070
    74
1070
     0
1000
MTEXTEND
  0
POINT
  5
3F0
330
3DE
100
AcDbEntity
  8
DEFPOINTS
 62
     0
100
AcDbPoint
 10
1255.944665320546
 20
1478.861203728929
 30
0.0
  0
POINT
  5
3F1
330
3DE
100
AcDbEntity
  8
DEFPOINTS
 62
     0
100
AcDbPoint
 10
1195.652916895152
 20
1057.461057244554
 30
0.0
  0
POINT
  5
3F2
330
3DE
100
AcDbEntity
  8
DEFPOINTS
 62
     0
100
AcDbPoint
 10
1375.944665320546
 20
1057.461057244554
 30
0.0
  0
ENDBLK
  5
3E9
330
3DE
100
AcDbEntity
  8
0
100
AcDbBlockEnd
  0
BLOCK
  5
4A4
330
49A
100
AcDbEntity
  8
0
100
AcDbBlockBegin
  2
*D5
 70
     1
 10
0.0
 20
0.0
 30
0.0
  3
*D5
  1

  0
LINE
  5
4C9
330
49A
100
AcDbEntity
  8
AM_5
 62
     3
370
    -2
100
AcDbLine
 10
1187.945491345245
 20
947.4611938002361
 30
0.0
 11
1187.945491345245
 21
877.0651959741945
 31
0.0
  0
LINE
  5
4CA
330
49A
100
AcDbEntity
  8
AM_5
 62
     3
370
    -2
100
AcDbLine
 10
1135.943350257558
 20
947.4611938002361
 30
0.0
 11
1135.943350257558
 21
877.0651959741945
 31
0.0
  0
LINE
  5
4CB
330
49A
100
AcDbEntity
  8
AM_5
 62
     3
370
    -2
100
AcDbLine
 10
1212.945491345245
 20
887.0651959741946
 30
0.0
 11
1237.945491345245
 21
887.0651959741946
 31
0.0
  0
LINE
  5
4CC
330
49A
100
AcDbEntity
  8
AM_5
 62
     3
370
    -2
100
AcDbLine
 10
1110.943350257558
 20
887.0651959741946
 30
0.0
 11
1033.341283328424
 21
887.0651959741946
 31
0.0
  0
LINE
  5
4CD
330
49A
100
AcDbEntity
  8
AM_5
 62
     3
370
    -2
100
AcDbLine
 10
1187.945491345245
 20
887.0651959741946
 30
0.0
 11
1135.943350257558
 21
887.0651959741946
 31
0.0
  0
SOLID
  5
4CE
330
49A
100
AcDbEntity
  8
AM_5
 62
     3
100
AcDbTrace
 10
1212.945491345245
 20
891.2318626408612
 30
0.0
 11
1212.945491345245
 21
882.8985293075279
 31
0.0
 12
1187.945491345245
 22
887.0651959741946
 32
0.0
 13
1187.945491345245
 23
887.0651959741946
 33
0.0
  0
SOLID
  5
4CF
330
49A
100
AcDbEntity
  8
AM_5
 62
     3
100
AcDbTrace
 10
1110.943350257558
 20
891.2318626408612
 30
0.0
 11
1110.943350257558
 21
882.8985293075279
 31
0.0
 12
1135.943350257558
 22
887.0651959741946
 32
0.0
 13
1135.943350257558
 23
887.0651959741946
 33
0.0
  0
MTEXT
  5
4D0
330
49A
100
AcDbEntity
  8
AM_5
 62
     2
100
AcDbMText
 10
1059.642316792991
 20
910.5686408560844
 30
0.0
 40
35.0
 41
0.0
 71
     5
 72
     1
  1
52
 73
     1
 44
1.0
1001
ACAD
1000
MTEXTBEGIN
1070
    73
1070
     1
1070
    44
1040
1.0
1070
    74
1070
     0
1000
MTEXTEND
  0
POINT
  5
4D1
330
49A
100
AcDbEntity
  8
DEFPOINTS
 62
     0
100
AcDbPoint
 10
1187.945491345245
 20
957.4611938002361
 30
0.0
  0
POINT
  5
4D2
330
49A
100
AcDbEntity
  8
DEFPOINTS
 62
     0
100
AcDbPoint
 10
1135.943350257558
 20
957.4611938002361
 30
0.0
  0
POINT
  5
4D3
330
49A
100
AcDbEntity
  8
DEFPOINTS
 62
     0
100
AcDbPoint
 10
1135.943350257558
 20
887.0651959741946
 30
0.0
  0
ENDBLK
  5
4A5
330
49A
100
AcDbEntity
  8
0
100
AcDbBlockEnd
  0
ENDSEC
  0
SECTION
  2
ENTITIES
  0
LINE
  5
388
330
1F
100
AcDbEntity
  8
MO_001_VIEW_PV
  6
C_SOLID_M
100
AcDbLine
 10
1203.953698145148
 20
1192.461057244554
 30
0.0
 11
1203.953698145148
 21
1179.463010369554
 31
0.0
  0
LINE
  5
389
330
1F
100
AcDbEntity
  8
MO_001_VIEW_PV
  6
C_SOLID_M
100
AcDbLine
 10
1159.444420801398
 20
1265.861936150804
 30
0.0
 11
1159.444420801398
 21
1218.962522088304
 31
0.0
  0
LINE
  5
38A
102
{ACAD_REACTORS
330
3D1
102
}
330
1F
100
AcDbEntity
  8
7A
100
AcDbLine
 10
1195.652916895148
 20
1057.461057244554
 30
0.0
 11
1128.235924707648
 21
1057.461057244554
 31
0.0
  0
LINE
  5
38B
330
1F
100
AcDbEntity
  8
MO_001_VIEW_PV
  6
C_SOLID_M
100
AcDbLine
 10
1135.943444238898
 20
1155.610471307054
 30
0.0
 11
1135.943444238898
 21
957.4610572445545
 31
0.0
  0
LINE
  5
38C
330
1F
100
AcDbEntity
  8
MO_001_VIEW_PV
  6
C_SOLID_M
100
AcDbLine
 10
1146.944420801398
 20
952.4610572445544
 30
0.0
 11
1176.944420801398
 21
952.4610572445544
 31
0.0
  0
LINE
  5
38D
330
1F
100
AcDbEntity
  8
MO_001_VIEW_PV
  6
C_SOLID_M
100
AcDbLine
 10
1146.944420801398
 20
952.4610572445544
 30
0.0
 11
1146.944420801398
 21
1167.461057244554
 31
0.0
  0
LINE
  5
38E
330
1F
100
AcDbEntity
  8
7A
100
AcDbLine
 10
1161.944420801398
 20
1269.465451775804
 30
0.0
 11
1161.944420801398
 21
942.1196622108407
 31
0.0
  0
LINE
  5
38F
330
1F
100
AcDbEntity
  8
MO_001_VIEW_PV
  6
C_SOLID_M
100
AcDbLine
 10
1149.944909082648
 20
1375.461545525804
 30
0.0
 11
1149.944909082648
 21
1225.261350213304
 31
0.0
  0
LINE
  5
390
330
1F
100
AcDbEntity
  8
MO_001_VIEW_PV
  6
C_SOLID_M
100
AcDbLine
 10
1209.444420801398
 20
1207.461057244554
 30
0.0
 11
1114.444420801398
 21
1207.461057244554
 31
0.0
  0
LINE
  5
391
330
1F
100
AcDbEntity
  8
MO_001_VIEW_PV
  6
C_SOLID_M
100
AcDbLine
 10
1128.943932520148
 20
1411.462522088304
 30
0.0
 11
1128.943932520148
 21
1427.461057244554
 31
0.0
  0
LINE
  5
392
330
1F
100
AcDbEntity
  8
MO_001_VIEW_PV
  6
C_SOLID_M
100
AcDbLine
 10
1150.943444238898
 20
1411.462522088304
 30
0.0
 11
1150.943444238898
 21
1427.461057244554
 31
0.0
  0
LINE
  5
393
330
1F
100
AcDbEntity
  8
MO_001_VIEW_PV
  6
C_SOLID_M
100
AcDbLine
 10
1186.944420801398
 20
1375.461545525804
 30
0.0
 11
1186.944420801398
 21
1207.461057244554
 31
0.0
  0
LINE
  5
394
330
1F
100
AcDbEntity
  8
MO_001_VIEW_PV
  6
C_SOLID_M
100
AcDbLine
 10
1204.944909082648
 20
1375.461545525804
 30
0.0
 11
1204.944909082648
 21
1207.461057244554
 31
0.0
  0
LINE
  5
395
330
1F
100
AcDbEntity
  8
MO_001_VIEW_PV
  6
C_SOLID_M
100
AcDbLine
 10
1209.444420801398
 20
1411.462522088304
 30
0.0
 11
1209.444420801398
 21
1375.461545525804
 31
0.0
  0
LINE
  5
396
330
1F
100
AcDbEntity
  8
MO_001_VIEW_PV
  6
C_SOLID_M
100
AcDbLine
 10
1209.444420801398
 20
1375.461545525804
 30
0.0
 11
1114.444420801398
 21
1375.461545525804
 31
0.0
  0
LINE
  5
397
330
1F
100
AcDbEntity
  8
MO_001_VIEW_PV
  6
C_SOLID_M
100
AcDbLine
 10
1114.444420801398
 20
1375.461545525804
 30
0.0
 11
1114.444420801398
 21
1411.462522088304
 31
0.0
  0
LINE
  5
398
330
1F
100
AcDbEntity
  8
MO_001_VIEW_PV
  6
C_SOLID_M
100
AcDbLine
 10
1209.444420801398
 20
1207.461057244554
 30
0.0
 11
1209.444420801398
 21
1192.461057244554
 31
0.0
  0
LINE
  5
399
330
1F
100
AcDbEntity
  8
MO_001_VIEW_PV
  6
C_SOLID_M
100
AcDbLine
 10
1114.444420801398
 20
1207.461057244554
 30
0.0
 11
1114.444420801398
 21
1192.461057244554
 31
0.0
  0
LINE
  5
39A
330
1F
100
AcDbEntity
  8
MO_001_VIEW_PV
  6
C_SOLID_M
100
AcDbLine
 10
1209.444420801398
 20
1192.461057244554
 30
0.0
 11
1114.444420801398
 21
1192.461057244554
 31
0.0
  0
LINE
  5
39B
330
1F
100
AcDbEntity
  8
MO_001_VIEW_PV
  6
C_SOLID_M
100
AcDbLine
 10
1140.01798710519
 20
1179.458195606321
 30
0.0
 11
1146.94669804269
 21
1167.457316447007
 31
0.0
  0
LINE
  5
39C
330
1F
100
AcDbEntity
  8
MO_001_VIEW_PV
  6
C_SOLID_M
100
AcDbLine
 10
1203.953698145148
 20
1179.463010369554
 30
0.0
 11
1119.935143457648
 21
1179.463010369554
 31
0.0
  0
LINE
  5
39D
330
1F
100
AcDbEntity
  8
MO_001_VIEW_PV
  6
C_SOLID_M
100
AcDbLine
 10
1119.935143457648
 20
1192.461057244569
 30
0.0
 11
1119.935143457648
 21
1179.463010369569
 31
0.0
  0
LINE
  5
39E
330
1F
100
AcDbEntity
  8
MO_001_VIEW_PV
  6
C_SOLID_M
100
AcDbLine
 10
1146.944420801398
 20
1155.610471307054
 30
0.0
 11
1135.943444238898
 21
1155.610471307054
 31
0.0
  0
LINE
  5
39F
330
1F
100
AcDbEntity
  8
MO_001_VIEW_PV
  6
C_SOLID_M
100
AcDbLine
 10
1176.944420801398
 20
1155.610471307054
 30
0.0
 11
1187.945397363898
 21
1155.610471307054
 31
0.0
  0
LINE
  5
3A0
330
1F
100
AcDbEntity
  8
MO_001_VIEW_PV
  6
C_SOLID_M
100
AcDbLine
 10
1118.943932520148
 20
1375.461545525804
 30
0.0
 11
1118.943932520148
 21
1207.461057244554
 31
0.0
  0
LINE
  5
3A1
330
1F
100
AcDbEntity
  8
MO_001_VIEW_PV
  6
C_SOLID_M
100
AcDbLine
 10
1150.865319238898
 20
1416.462522088304
 30
0.0
 11
1150.943444238898
 21
1416.462522088304
 31
0.0
  0
LINE
  5
3A2
330
1F
100
AcDbEntity
  8
MO_001_VIEW_PV
  6
C_SOLID_M
100
AcDbLine
 10
1135.943350257565
 20
957.4609193855886
 30
0.0
 11
1146.944326820066
 21
957.4609196613035
 31
0.0
  0
LINE
  5
3A3
330
1F
100
AcDbEntity
  8
MO_001_VIEW_PV
  6
C_SOLID_M
100
AcDbLine
 10
1136.946168319798
 20
1218.961139385139
 30
0.0
 11
1186.943726913548
 21
1218.960752449233
 31
0.0
  0
LINE
  5
3A4
330
1F
100
AcDbEntity
  8
MO_001_VIEW_PV
  6
C_SOLID_M
100
AcDbLine
 10
1171.944420801398
 20
1225.261350213304
 30
0.0
 11
1186.944420801398
 21
1225.261350213304
 31
0.0
  0
LINE
  5
3A5
330
1F
100
AcDbEntity
  8
MO_001_VIEW_PV
  6
C_SOLID_M
100
AcDbLine
 10
1171.944420801398
 20
1225.261350213304
 30
0.0
 11
1171.944420801398
 21
1218.962522088304
 31
0.0
  0
LINE
  5
3A6
330
1F
100
AcDbEntity
  8
MO_001_VIEW_PV
  6
C_SOLID_M
100
AcDbLine
 10
1164.444420801398
 20
1265.861936150804
 30
0.0
 11
1159.444420801398
 21
1265.861936150804
 31
0.0
  0
LINE
  5
3A7
330
1F
100
AcDbEntity
  8
MO_001_VIEW_PV
  6
C_SOLID_M
100
AcDbLine
 10
1183.873542982716
 20
1179.460866047071
 30
0.0
 11
1176.946052748341
 21
1167.462101207553
 31
0.0
  0
LINE
  5
3A8
330
1F
100
AcDbEntity
  8
MO_001_VIEW_PV
  6
C_SOLID_M
100
AcDbLine
 10
1159.444420801398
 20
1265.361447869554
 30
0.0
 11
1149.944909082648
 21
1265.361447869554
 31
0.0
  0
LINE
  5
3A9
330
1F
100
AcDbEntity
  8
MO_001_VIEW_PV
  6
C_SOLID_M
100
AcDbLine
 10
1159.444420801398
 20
1230.361447869554
 30
0.0
 11
1149.944909082648
 21
1230.361447869554
 31
0.0
  0
LINE
  5
3AA
330
1F
100
AcDbEntity
  8
MO_001_VIEW_PV
  6
C_SOLID_M
100
AcDbLine
 10
1170.745690332648
 20
1248.862424432054
 30
0.0
 11
1170.745690332648
 21
1264.860959588304
 31
0.0
  0
LINE
  5
3AB
330
1F
100
AcDbEntity
  8
MO_001_VIEW_PV
  6
C_SOLID_M
100
AcDbLine
 10
1170.743453489597
 20
1264.861235168058
 30
0.0
 11
1164.444625364597
 21
1264.861235485632
 31
0.0
  0
LINE
  5
3AC
330
1F
100
AcDbEntity
  8
MO_001_VIEW_PV
  6
C_SOLID_M
100
AcDbLine
 10
1170.743452682985
 20
1248.862700011808
 30
0.0
 11
1164.444624557985
 21
1248.862700329382
 31
0.0
  0
LINE
  5
3AD
330
1F
100
AcDbEntity
  8
MO_001_VIEW_PV
  6
C_SOLID_M
100
AcDbLine
 10
1176.944420801398
 20
1167.461057244554
 30
0.0
 11
1176.944420801398
 21
952.4610572445544
 31
0.0
  0
LINE
  5
3AE
330
1F
100
AcDbEntity
  8
MO_001_VIEW_PV
  6
C_SOLID_M
100
AcDbLine
 10
1187.945397363898
 20
1155.610471307054
 30
0.0
 11
1187.945397363898
 21
957.4610572445545
 31
0.0
  0
LINE
  5
3AF
102
{ACAD_REACTORS
330
4A7
102
}
330
1F
100
AcDbEntity
  8
MO_001_VIEW_PV
  6
C_SOLID_M
100
AcDbLine
 10
1187.945491345245
 20
957.4611938002361
 30
0.0
 11
1176.944514782745
 21
957.4611940759512
 31
0.0
  0
LINE
  5
3B0
330
1F
100
AcDbEntity
  8
MO_001_VIEW_PV
  6
C_SOLID_M
100
AcDbLine
 10
1136.944420801398
 20
1375.461545525804
 30
0.0
 11
1136.944420801398
 21
1207.461057244554
 31
0.0
  0
LINE
  5
3B1
330
1F
100
AcDbEntity
  8
MO_001_VIEW_PV
  6
C_SOLID_M
100
AcDbLine
 10
1151.944420801398
 20
1225.261350213319
 30
0.0
 11
1136.944420801398
 21
1225.261350213319
 31
0.0
  0
LINE
  5
3B2
330
1F
100
AcDbEntity
  8
MO_001_VIEW_PV
  6
C_SOLID_M
100
AcDbLine
 10
1151.944420801398
 20
1225.261350213304
 30
0.0
 11
1151.944420801398
 21
1218.962522088304
 31
0.0
  0
LINE
  5
3B3
330
1F
100
AcDbEntity
  8
MO_001_VIEW_PV
  6
C_SOLID_M
100
AcDbLine
 10
1164.444420801398
 20
1265.861936150819
 30
0.0
 11
1164.444420801398
 21
1218.962522088319
 31
0.0
  0
LINE
  5
3B4
330
1F
100
AcDbEntity
  8
MO_001_VIEW_PV
  6
C_SOLID_M
100
AcDbLine
 10
1170.745690332648
 20
1246.862912713319
 30
0.0
 11
1170.745690332648
 21
1230.861936150819
 31
0.0
  0
LINE
  5
3B5
330
1F
100
AcDbEntity
  8
MO_001_VIEW_PV
  6
C_SOLID_M
100
AcDbLine
 10
1170.745487483636
 20
1230.861660571181
 30
0.0
 11
1164.444217952386
 21
1230.861660253491
 31
0.0
  0
LINE
  5
3B6
330
1F
100
AcDbEntity
  8
MO_001_VIEW_PV
  6
C_SOLID_M
100
AcDbLine
 10
1170.745486676892
 20
1246.862637133681
 30
0.0
 11
1164.444217145642
 21
1246.862636815991
 31
0.0
  0
LINE
  5
3B7
330
1F
100
AcDbEntity
  8
MO_001_VIEW_PV
  6
C_SOLID_M
100
AcDbLine
 10
1023.945153223273
 20
1478.861203728929
 30
0.0
 11
1255.944664942023
 21
1478.861203728929
 31
0.0
  0
LINE
  5
3B8
330
1F
100
AcDbEntity
  8
MO_001_VIEW_PV
  6
C_SOLID_M
100
AcDbLine
 10
1016.945031152961
 20
1476.861081658617
 30
0.0
 11
1262.944787012336
 21
1476.861081658617
 31
0.0
  0
ARC
  5
3B9
102
{ACAD_REACTORS
330
3CE
102
}
330
1F
100
AcDbEntity
  8
MO_001_VIEW_PV
  6
C_SOLID_M
100
AcDbCircle
 10
1016.945031152961
 20
1474.860959588304
 30
0.0
 40
2.000000029802321
100
AcDbArc
 50
90.00000249263969
 51
176.4578552219827
  0
ARC
  5
3BA
330
1F
100
AcDbEntity
  8
MO_001_VIEW_PV
  6
C_SOLID_M
100
AcDbCircle
 10
1023.945153223273
 20
1473.861203728929
 30
0.0
 40
5.0
100
AcDbArc
 50
90.00000249263969
 51
143.1300974353914
  0
LINE
  5
3BB
330
1F
100
AcDbEntity
  8
MO_001_VIEW_PV
  6
C_SOLID_M
100
AcDbLine
 10
1024.944909082648
 20
1465.261045037523
 30
0.0
 11
1254.944909082648
 21
1465.261045037523
 31
0.0
  0
ARC
  5
3BC
330
1F
100
AcDbEntity
  8
MO_001_VIEW_PV
  6
C_SOLID_M
100
AcDbCircle
 10
1024.944909082648
 20
1475.261045037523
 30
0.0
 40
10.0
100
AcDbArc
 50
181.5840251658782
 51
269.999997507152
  0
ARC
  5
3BD
330
1F
100
AcDbEntity
  8
MO_001_VIEW_PV
  6
C_SOLID_M
100
AcDbCircle
 10
1262.944787012336
 20
1474.860959588304
 30
0.0
 40
2.000000029802321
100
AcDbArc
 50
3.542144854296187
 51
89.99999566245053
  0
ARC
  5
3BE
102
{ACAD_REACTORS
330
3D1
102
}
330
1F
100
AcDbEntity
  8
MO_001_VIEW_PV
  6
C_SOLID_M
100
AcDbCircle
 10
1255.944664942023
 20
1473.861203728929
 30
0.0
 40
5.0
100
AcDbArc
 50
36.86990413498229
 51
89.99999566245053
  0
ARC
  5
3BF
330
1F
100
AcDbEntity
  8
MO_001_VIEW_PV
  6
C_SOLID_M
100
AcDbCircle
 10
1254.944909082648
 20
1475.261045037523
 30
0.0
 40
10.0
100
AcDbArc
 50
270.0000043373411
 51
358.4159748645657
  0
LINE
  5
3C0
330
1F
100
AcDbEntity
  8
MO_001_VIEW_PV
  6
C_SOLID_M
100
AcDbLine
 10
1122.444909082648
 20
1427.461057244554
 30
0.0
 11
1157.444909082648
 21
1427.461057244554
 31
0.0
  0
LINE
  5
3C1
330
1F
100
AcDbEntity
  8
MO_001_VIEW_PV
  6
C_SOLID_M
100
AcDbLine
 10
1097.013390527961
 20
1454.461179314867
 30
0.0
 11
1182.876427637336
 21
1454.461179314867
 31
0.0
  0
LINE
  5
3C2
330
1F
100
AcDbEntity
  8
MO_001_VIEW_PV
  6
C_SOLID_M
100
AcDbLine
 10
1157.444909082648
 20
1444.461179314867
 30
0.0
 11
1185.488121973273
 21
1444.461179314867
 31
0.0
  0
LINE
  5
3C3
330
1F
100
AcDbEntity
  8
MO_001_VIEW_PV
  6
C_SOLID_M
100
AcDbLine
 10
1094.401696192023
 20
1444.461179314867
 30
0.0
 11
1122.444909082648
 21
1444.461179314867
 31
0.0
  0
LINE
  5
3C4
330
1F
100
AcDbEntity
  8
MO_001_VIEW_PV
  6
C_SOLID_M
100
AcDbLine
 10
1094.401742939658
 20
1444.460891471741
 30
0.0
 11
1057.298930858155
 21
1465.260928858393
 31
0.0
  0
LINE
  5
3C5
330
1F
100
AcDbEntity
  8
MO_001_VIEW_PV
  6
C_SOLID_M
100
AcDbLine
 10
1185.488244095681
 20
1444.460916557504
 30
0.0
 11
1222.591051106569
 21
1465.26096535304
 31
0.0
  0
LINE
  5
3C6
330
1F
100
AcDbEntity
  8
MO_001_VIEW_PV
  6
C_SOLID_M
100
AcDbLine
 10
1182.876408841864
 20
1454.461216957143
 30
0.0
 11
1202.141224166141
 21
1465.261186870711
 31
0.0
  0
LINE
  5
3C7
330
1F
100
AcDbEntity
  8
MO_001_VIEW_PV
  6
C_SOLID_M
100
AcDbLine
 10
1097.013665448564
 20
1454.460831680104
 30
0.0
 11
1077.748313777144
 21
1465.261092160423
 31
0.0
  0
LINE
  5
3C8
330
1F
100
AcDbEntity
  8
MO_001_VIEW_PV
  6
C_SOLID_M
100
AcDbLine
 10
1157.444909082648
 20
1454.461179314867
 30
0.0
 11
1157.444909082648
 21
1427.461057244554
 31
0.0
  0
LINE
  5
3C9
330
1F
100
AcDbEntity
  8
MO_001_VIEW_PV
  6
C_SOLID_M
100
AcDbLine
 10
1122.444909082648
 20
1454.461179314867
 30
0.0
 11
1122.444909082648
 21
1427.461057244554
 31
0.0
  0
LINE
  5
3CA
330
1F
100
AcDbEntity
  8
MO_001_VIEW_PV
  6
C_SOLID_M
100
AcDbLine
 10
1114.444420801398
 20
1411.462522088304
 30
0.0
 11
1209.444420801398
 21
1411.462522088304
 31
0.0
  0
LINE
  5
3CB
330
1F
100
AcDbEntity
  8
AM_7
  6
AM_DIN_G_W050x2
100
AcDbLine
 10
1139.944909082648
 20
1397.461057244554
 30
0.0
 11
1139.944909082648
 21
1484.461179314867
 31
0.0
1001
GENIUS_GENOBJ-N-CEN_13
1002
{
1000
OWNER
1000
GEN
1002
}
1001
GENIUS_GENODEF_13
1002
{
1000
HIER
1070
     0
1002
}
1002
{
1000
MANEDIT
1070
     0
1002
}
1002
{
1000
NOSEL
1070
     0
1002
}
1002
{
1000
BEHIND
1070
     0
1002
}
1002
{
1000
OTHER
1070
     0
1002
}
1002
{
1000
REACTOR
1002
}
1001
GENIUS_GENCEN_19
1002
{
1040
30.0
1002
}
  0
DIMENSION
  5
3CC
102
{ACAD_XDICTIONARY
360
3CD
102
}
102
{ACAD_REACTORS
330
3CE
102
}
330
1F
100
AcDbEntity
  8
AM_5
100
AcDbDimension
  2
*D2
 10
1264.94108769395
 20
1552.056773691629
 30
0.0
 11
1139.944969785358
 21
1575.560218573518
 31
0.0
 70
    32
  1
%%c200
 71
     5
 42
249.9922358171843
  3
GEN-ISO$0
100
AcDbAlignedDimension
 13
1014.948851876765
 23
1474.984525022375
 33
0.0
 14
1264.94108769395
 24
1474.984615713891
 34
0.0
100
AcDbRotatedDimension
1001
ACAD
1000
DSTYLE
1002
{
1070
   271
1070
     1
1002
}
  0
DIMENSION
  5
3CF
102
{ACAD_XDICTIONARY
360
3D0
102
}
102
{ACAD_REACTORS
330
3D1
102
}
330
1F
100
AcDbEntity
  8
AM_5
100
AcDbDimension
  2
*D3
 10
1375.944665320546
 20
1057.461057244554
 30
0.0
 11
1352.444665320545
 21
1268.161130486742
 31
0.0
 70
    32
  1
365 - 465
 71
     5
 42
421.4001464843748
  3
GEN-ISO$0
100
AcDbAlignedDimension
 13
1255.944665320546
 23
1478.861203728929
 33
0.0
 14
1195.652916895152
 24
1057.461057244554
 34
0.0
 50
90.0
100
AcDbRotatedDimension
1001
ACAD
1000
DSTYLE
1002
{
1070
   271
1070
     1
1002
}
  0
DIMENSION
  5
499
102
{ACAD_XDICTIONARY
360
4A6
102
}
102
{ACAD_REACTORS
330
4A7
102
}
330
1F
100
AcDbEntity
  8
AM_5
100
AcDbDimension
  2
*D5
 10
1135.943350257558
 20
887.0651959741946
 30
0.0
 11
1059.642316792991
 21
910.5686408560844
 31
0.0
 70
    32
 71
     5
 42
52.00214108768682
  3
GEN-ISO$0
100
AcDbAlignedDimension
 13
1187.945491345245
 23
957.4611938002361
 33
0.0
 14
1135.943350257558
 24
957.4611938002361
 34
0.0
 50
359.9999985640086
100
AcDbRotatedDimension
1001
ACAD
1000
DSTYLE
1002
{
1070
   271
1070
     1
1002
}
  0
ENDSEC
  0
SECTION
  2
OBJECTS
  0
DICTIONARY
  5
C
330
0
100
AcDbDictionary
281
     1
  3
ACAD_COLOR
350
D7
  3
ACAD_GROUP
350
D
  3
ACAD_LAYOUT
350
1A
  3
ACAD_MATERIAL
350
D6
  3
ACAD_MLINESTYLE
350
17
  3
ACAD_PLOTSETTINGS
350
19
  3
ACAD_PLOTSTYLENAME
350
E
  3
ACAD_TABLESTYLE
350
133
  3
ACDBHEADERROUNDTRIPXREC
350
4D8
  3
AcDbVariableDictionary
350
34
  3
AcmDictionary
350
49
  3
AMG
350
2B
  3
AMGSNAPSETTINGS
350
2C4
  3
DWGPROPS
350
4D7
  0
DICTIONARY
  5
C0
330
2
100
AcDbDictionary
280
     1
281
     1
  3
ACAD_LAYERSTATES
360
336
  3
AMLAYER_GROUPCOLORS
360
C1
  0
DICTIONARY
  5
83
330
1F
100
AcDbDictionary
280
     1
281
     1
  0
DICTIONARY
  5
3CD
330
3CC
100
AcDbDictionary
280
     1
281
     1
  3
ACAD_DIMASSOC
360
3CE
  0
DICTIONARY
  5
3D0
330
3CF
100
AcDbDictionary
280
     1
281
     1
  3
ACAD_DIMASSOC
360
3D1
  0
DICTIONARY
  5
4A6
330
499
100
AcDbDictionary
280
     1
281
     1
  3
ACAD_DIMASSOC
360
4A7
  0
DICTIONARY
  5
D7
102
{ACAD_REACTORS
330
C
102
}
330
C
100
AcDbDictionary
281
     1
  0
DICTIONARY
  5
D
102
{ACAD_REACTORS
330
C
102
}
330
C
100
AcDbDictionary
281
     1
  0
DICTIONARY
  5
1A
102
{ACAD_REACTORS
330
C
102
}
330
C
100
AcDbDictionary
281
     1
  3
Layout1
350
1E
  3
Layout2
350
26
  3
Model
350
22
  0
DICTIONARY
  5
D6
102
{ACAD_REACTORS
330
C
102
}
330
C
100
AcDbDictionary
281
     1
  0
DICTIONARY
  5
17
102
{ACAD_REACTORS
330
C
102
}
330
C
100
AcDbDictionary
281
     1
  3
Standard
350
18
  0
DICTIONARY
  5
19
102
{ACAD_REACTORS
330
C
102
}
330
C
100
AcDbDictionary
281
     1
  0
ACDBDICTIONARYWDFLT
  5
E
102
{ACAD_REACTORS
330
C
102
}
330
C
100
AcDbDictionary
281
     1
  3
Normal
350
F
100
AcDbDictionaryWithDefault
340
F
  0
DICTIONARY
  5
133
102
{ACAD_REACTORS
330
C
102
}
330
C
100
AcDbDictionary
281
     1
  3
Standard
350
134
  0
DICTIONARY
  5
4D8
102
{ACAD_REACTORS
330
C
102
}
330
C
100
AcDbDictionary
281
     1
  0
DICTIONARY
  5
34
102
{ACAD_REACTORS
330
C
102
}
330
C
100
AcDbDictionary
281
     1
  3
CTABLESTYLE
350
152
  3
DIMASSOC
350
AD
  3
INDEXCTL
350
35
  3
PROJECTNAME
350
4D5
  0
DICTIONARY
  5
49
102
{ACAD_REACTORS
330
C
102
}
330
C
100
AcDbDictionary
281
     1
  3
AcmBOM
350
2CB
  3
AcmStdDictionary
350
4A
  3
AMDTSECTSYM_ARROWCOLOR
350
13D
  0
DICTIONARY
  5
2B
102
{ACAD_REACTORS
330
C
102
}
330
C
100
AcDbDictionary
281
     1
  0
DICTIONARY
  5
2C4
102
{ACAD_REACTORS
330
C
102
}
330
C
100
AcDbDictionary
281
     1
  0
XRECORD
  5
4D7
102
{ACAD_REACTORS
330
C
102
}
330
C
100
AcDbXrecord
280
     1
  1
DWGPROPS COOKIE
  2

  3

  4

  6

  7

  8

  9

300
AmdtFileType=84
301
=
302
=
303
=
304
=
305
=
306
=
307
=
308
=
309
=
 40
0.0007065509259259
 41
2454053.372288773
 42
2454053.617981227
  1

 90
        1
  0
DICTIONARY
  5
336
102
{ACAD_REACTORS
330
C0
102
}
330
C0
100
AcDbDictionary
281
     1
  0
DICTIONARY
  5
C1
102
{ACAD_REACTORS
330
C0
102
}
330
C0
100
AcDbDictionary
280
     1
281
     1
  0
DIMASSOC
  5
3CE
102
{ACAD_REACTORS
330
3CD
102
}
330
3CD
100
AcDbDimAssoc
330
3CC
 90
        1
 70
     0
 71
     0
  1
AcDbOsnapPointRef
 72
     1
331
3B9
 73
     0
 91
        0
 40
0.0
 10
0.0
 20
0.0
 30
2.000000000000000E+50
 75
     0
  0
DIMASSOC
  5
3D1
102
{ACAD_REACTORS
330
3D0
102
}
330
3D0
100
AcDbDimAssoc
330
3CF
 90
        3
 70
     0
 71
     0
  1
AcDbOsnapPointRef
 72
     1
331
3BE
 73
     0
 91
        0
 40
0.0
 10
0.0
 20
0.0
 30
2.000000000000000E+50
 75
     0
  1
AcDbOsnapPointRef
 72
    13
331
38A
 73
     0
 91
        0
 40
0.0
 10
0.0
 20
0.0
 30
2.000000000000000E+50
 75
     0
  0
DIMASSOC
  5
4A7
102
{ACAD_REACTORS
330
4A6
102
}
330
4A6
100
AcDbDimAssoc
330
499
 90
        1
 70
     0
 71
     0
  1
AcDbOsnapPointRef
 72
    13
331
3AF
 73
     0
 91
        0
 40
0.0
 10
0.0
 20
0.0
 30
2.000000000000000E+50
 75
     0
  0
LAYOUT
  5
1E
102
{ACAD_XDICTIONARY
360
4D9
102
}
102
{ACAD_REACTORS
330
1A
102
}
330
1A
100
AcDbPlotSettings
  1

  2
none_device
  4
Letter_(8.50_x_11.00_Inches)
  6

 40
6.349999904632567
 41
6.349999904632567
 42
6.350006103515625
 43
6.350006103515625
 44
215.8999938964844
 45
279.3999938964844
 46
0.0
 47
0.0
 48
0.0
 49
0.0
140
0.0
141
0.0
142
1.0
143
1.0
 70
 15024
 72
     1
 73
     1
 74
     5
  7

 75
    16
147
1.0
148
0.0
149
0.0
100
AcDbLayout
  1
Layout1
 70
     1
 71
     1
 10
0.0
 20
0.0
 11
420.0
 21
297.0
 12
0.0
 22
0.0
 32
0.0
 14
1.000000000000000E+20
 24
1.000000000000000E+20
 34
1.000000000000000E+20
 15
-1.000000000000000E+20
 25
-1.000000000000000E+20
 35
-1.000000000000000E+20
146
0.0
 13
0.0
 23
0.0
 33
0.0
 16
1.0
 26
0.0
 36
0.0
 17
0.0
 27
1.0
 37
0.0
 76
     0
330
1B
  0
LAYOUT
  5
26
102
{ACAD_XDICTIONARY
360
4DD
102
}
102
{ACAD_REACTORS
330
1A
102
}
330
1A
100
AcDbPlotSettings
  1

  2
none_device
  4
Letter_(8.50_x_11.00_Inches)
  6

 40
6.349999904632567
 41
6.349999904632567
 42
6.350006103515625
 43
6.350006103515625
 44
215.8999938964844
 45
279.3999938964844
 46
0.0
 47
0.0
 48
0.0
 49
0.0
140
0.0
141
0.0
142
1.0
143
1.0
 70
 15024
 72
     1
 73
     1
 74
     5
  7

 75
    16
147
1.0
148
0.0
149
0.0
100
AcDbLayout
  1
Layout2
 70
     1
 71
     2
 10
0.0
 20
0.0
 11
12.0
 21
9.0
 12
0.0
 22
0.0
 32
0.0
 14
0.0
 24
0.0
 34
0.0
 15
0.0
 25
0.0
 35
0.0
146
0.0
 13
0.0
 23
0.0
 33
0.0
 16
1.0
 26
0.0
 36
0.0
 17
0.0
 27
1.0
 37
0.0
 76
     0
330
23
  0
LAYOUT
  5
22
102
{ACAD_XDICTIONARY
360
4DB
102
}
102
{ACAD_REACTORS
330
1A
102
}
330
1A
100
AcDbPlotSettings
  1

  2
none_device
  4
Letter_(8.50_x_11.00_Inches)
  6

 40
6.349999904632567
 41
6.349999904632567
 42
6.350006103515625
 43
6.350006103515625
 44
215.8999938964844
 45
279.3999938964844
 46
0.0
 47
0.0
 48
0.0
 49
0.0
140
0.0
141
0.0
142
1.0
143
1.0
 70
 11952
 72
     1
 73
     1
 74
     0
  7

 75
     0
147
1.0
148
-131.3052631578947
149
0.0
100
AcDbLayout
  1
Model
 70
     1
 71
     0
 10
0.0
 20
0.0
 11
12.0
 21
9.0
 12
0.0
 22
0.0
 32
0.0
 14
0.0
 24
0.0
 34
0.0
 15
0.0
 25
0.0
 35
0.0
146
0.0
 13
0.0
 23
0.0
 33
0.0
 16
1.0
 26
0.0
 36
0.0
 17
0.0
 27
1.0
 37
0.0
 76
     0
330
1F
  0
MLINESTYLE
  5
18
102
{ACAD_REACTORS
330
17
102
}
330
17
100
AcDbMlineStyle
  2
STANDARD
 70
     0
  3

 62
   256
 51
90.0
 52
90.0
 71
     2
 49
0.5
 62
   256
  6
BYLAYER
 49
-0.5
 62
   256
  6
BYLAYER
  0
ACDBPLACEHOLDER
  5
F
102
{ACAD_REACTORS
330
E
102
}
330
E
  0
TABLESTYLE
  5
134
102
{ACAD_REACTORS
330
133
102
}
330
133
100
AcDbTableStyle
  3
Standard
 70
     0
 71
     0
 40
1.5
 41
1.5
280
     0
281
     0
  7
STANDARD
140
4.5
170
     2
 62
     0
 63
     7
283
     0
274
    -2
284
     1
 64
     0
275
    -2
285
     1
 65
     0
276
    -2
286
     1
 66
     0
277
    -2
287
     1
 67
     0
278
    -2
288
     1
 68
     0
279
    -2
289
     1
 69
     0
  7
STANDARD
140
6.0
170
     5
 62
     0
 63
     7
283
     0
274
    -2
284
     1
 64
     0
275
    -2
285
     1
 65
     0
276
    -2
286
     1
 66
     0
277
    -2
287
     1
 67
     0
278
    -2
288
     1
 68
     0
279
    -2
289
     1
 69
     0
  7
STANDARD
140
4.5
170
     5
 62
     0
 63
     7
283
     0
274
    -2
284
     1
 64
     0
275
    -2
285
     1
 65
     0
276
    -2
286
     1
 66
     0
277
    -2
287
     1
 67
     0
278
    -2
288
     1
 68
     0
279
    -2
289
     1
 69
     0
  0
DICTIONARYVAR
  5
152
102
{ACAD_REACTORS
330
34
102
}
330
34
100
DictionaryVariables
280
     0
  1
STANDARD
  0
DICTIONARYVAR
  5
AD
102
{ACAD_REACTORS
330
34
102
}
330
34
100
DictionaryVariables
280
     0
  1
2
  0
DICTIONARYVAR
  5
35
102
{ACAD_REACTORS
330
34
102
}
330
34
100
DictionaryVariables
280
     0
  1
0
  0
DICTIONARYVAR
  5
4D5
102
{ACAD_REACTORS
330
34
102
}
330
34
100
DictionaryVariables
280
     0
  1

  0
DICTIONARY
  5
2CB
102
{ACAD_REACTORS
330
49
102
}
330
49
100
AcDbDictionary
281
     1
  0
DICTIONARY
  5
4A
102
{ACAD_REACTORS
330
49
102
}
330
49
100
AcDbDictionary
281
     1
  0
XRECORD
  5
13D
102
{ACAD_REACTORS
330
49
102
}
330
49
100
AcDbXrecord
280
     1
 90
-1023410169
  0
DICTIONARY
  5
4D9
330
1E
100
AcDbDictionary
280
     1
281
     1
  3
ACAD_XREC_ROUNDTRIP
360
4DA
  0
DICTIONARY
  5
4DD
330
26
100
AcDbDictionary
280
     1
281
     1
  3
ACAD_XREC_ROUNDTRIP
360
4DE
  0
DICTIONARY
  5
4DB
330
22
100
AcDbDictionary
280
     1
281
     1
  3
ACAD_XREC_ROUNDTRIP
360
4DC
  0
XRECORD
  5
4DA
102
{ACAD_REACTORS
330
4D9
102
}
330
4D9
100
AcDbXrecord
280
     1
102
SHADEPLOT
 70
     0
102
SHADEPLOTRESLEVEL
 70
     2
102
SHADEPLOTCUSTOMDPI
 70
   300
  0
XRECORD
  5
4DE
102
{ACAD_REACTORS
330
4DD
102
}
330
4DD
100
AcDbXrecord
280
     1
102
SHADEPLOT
 70
     0
102
SHADEPLOTRESLEVEL
 70
     2
102
SHADEPLOTCUSTOMDPI
 70
   300
  0
XRECORD
  5
4DC
102
{ACAD_REACTORS
330
4DB
102
}
330
4DB
100
AcDbXrecord
280
     1
102
SHADEPLOT
 70
     0
102
SHADEPLOTRESLEVEL
 70
     2
102
SHADEPLOTCUSTOMDPI
 70
   300
  0
ENDSEC
  0
EOF
