  0
SECTION
  2
HEADER
  9
$ACADVER
  1
AC1015
  9
$ACADMAINTVER
 70
    20
  9
$DWGCODEPAGE
  3
ANSI_1252
  9
$INSBASE
 10
0.0
 20
0.0
 30
0.0
  9
$EXTMIN
 10
1369.409577313352
 20
793.989249005087
 30
0.0
  9
$EXTMAX
 10
1660.069398873346
 20
1192.817570280203
 30
0.0
  9
$LIMMIN
 10
0.0
 20
0.0
  9
$LIMMAX
 10
420.0
 20
297.0
  9
$ORTHOMODE
 70
     0
  9
$REGENMODE
 70
     1
  9
$FILLMODE
 70
     1
  9
$QTEXTMODE
 70
     0
  9
$MIRRTEXT
 70
     1
  9
$LTSCALE
 40
1.0
  9
$ATTMODE
 70
     1
  9
$TEXTSIZE
 40
2.5
  9
$TRACEWID
 40
1.0
  9
$TEXTSTYLE
  7
STANDARD
  9
$CLAYER
  8
0
  9
$CELTYPE
  6
ByLayer
  9
$CECOLOR
 62
   256
  9
$CELTSCALE
 40
1.0
  9
$DISPSILH
 70
     0
  9
$DIMSCALE
 40
1.0
  9
$DIMASZ
 40
2.5
  9
$DIMEXO
 40
1.0
  9
$DIMDLI
 40
10.0
  9
$DIMRND
 40
0.0
  9
$DIMDLE
 40
0.0
  9
$DIMEXE
 40
1.0
  9
$DIMTP
 40
0.1
  9
$DIMTM
 40
0.1
  9
$DIMTXT
 40
3.5
  9
$DIMCEN
 40
0.0
  9
$DIMTSZ
 40
0.0
  9
$DIMTOL
 70
     0
  9
$DIMLIM
 70
     0
  9
$DIMTIH
 70
     0
  9
$DIMTOH
 70
     0
  9
$DIMSE1
 70
     0
  9
$DIMSE2
 70
     0
  9
$DIMTAD
 70
     1
  9
$DIMZIN
 70
     8
  9
$DIMBLK
  1

  9
$DIMASO
 70
     1
  9
$DIMSHO
 70
     1
  9
$DIMPOST
  1

  9
$DIMAPOST
  1
"
  9
$DIMALT
 70
     0
  9
$DIMALTD
 70
     2
  9
$DIMALTF
 40
0.0393701
  9
$DIMLFAC
 40
1.0
  9
$DIMTOFL
 70
     1
  9
$DIMTVP
 40
0.0
  9
$DIMTIX
 70
     0
  9
$DIMSOXD
 70
     0
  9
$DIMSAH
 70
     0
  9
$DIMBLK1
  1

  9
$DIMBLK2
  1

  9
$DIMSTYLE
  2
AM_DIN
  9
$DIMCLRD
 70
   256
  9
$DIMCLRE
 70
   256
  9
$DIMCLRT
 70
     2
  9
$DIMTFAC
 40
0.71
  9
$DIMGAP
 40
1.5
  9
$DIMJUST
 70
     0
  9
$DIMSD1
 70
     0
  9
$DIMSD2
 70
     0
  9
$DIMTOLJ
 70
     0
  9
$DIMTZIN
 70
     8
  9
$DIMALTZ
 70
     0
  9
$DIMALTTZ
 70
     0
  9
$DIMUPT
 70
     0
  9
$DIMDEC
 70
     2
  9
$DIMTDEC
 70
     3
  9
$DIMALTU
 70
     2
  9
$DIMALTTD
 70
     4
  9
$DIMTXSTY
  7
STANDARD
  9
$DIMAUNIT
 70
     0
  9
$DIMADEC
 70
     0
  9
$DIMALTRND
 40
0.0
  9
$DIMAZIN
 70
     2
  9
$DIMDSEP
 70
    46
  9
$DIMATFIT
 70
     3
  9
$DIMFRAC
 70
     0
  9
$DIMLDRBLK
  1

  9
$DIMLUNIT
 70
     2
  9
$DIMLWD
 70
    -1
  9
$DIMLWE
 70
    -1
  9
$DIMTMOVE
 70
     0
  9
$LUNITS
 70
     2
  9
$LUPREC
 70
     2
  9
$SKETCHINC
 40
1.0
  9
$FILLETRAD
 40
2.5
  9
$AUNITS
 70
     0
  9
$AUPREC
 70
     0
  9
$MENU
  1
.
  9
$ELEVATION
 40
0.0
  9
$PELEVATION
 40
0.0
  9
$THICKNESS
 40
0.0
  9
$LIMCHECK
 70
     0
  9
$CHAMFERA
 40
2.5
  9
$CHAMFERB
 40
2.5
  9
$CHAMFERC
 40
20.0
  9
$CHAMFERD
 40
0.0
  9
$SKPOLY
 70
     0
  9
$TDCREATE
 40
2454053.359702500
  9
$TDUCREATE
 40
2454053.318035834
  9
$TDUPDATE
 40
2454053.359955324
  9
$TDUUPDATE
 40
2454053.318288657
  9
$TDINDWG
 40
0.0002530093
  9
$TDUSRTIMER
 40
0.0002530093
  9
$USRTIMER
 70
     1
  9
$ANGBASE
 50
0.0
  9
$ANGDIR
 70
     0
  9
$PDMODE
 70
     0
  9
$PDSIZE
 40
0.0
  9
$PLINEWID
 40
0.0
  9
$SPLFRAME
 70
     0
  9
$SPLINETYPE
 70
     6
  9
$SPLINESEGS
 70
     8
  9
$HANDSEED
  5
5F5
  9
$SURFTAB1
 70
     6
  9
$SURFTAB2
 70
     6
  9
$SURFTYPE
 70
     6
  9
$SURFU
 70
     6
  9
$SURFV
 70
     6
  9
$UCSBASE
  2

  9
$UCSNAME
  2

  9
$UCSORG
 10
0.0
 20
0.0
 30
0.0
  9
$UCSXDIR
 10
1.0
 20
0.0
 30
0.0
  9
$UCSYDIR
 10
0.0
 20
1.0
 30
0.0
  9
$UCSORTHOREF
  2

  9
$UCSORTHOVIEW
 70
     0
  9
$UCSORGTOP
 10
0.0
 20
0.0
 30
0.0
  9
$UCSORGBOTTOM
 10
0.0
 20
0.0
 30
0.0
  9
$UCSORGLEFT
 10
0.0
 20
0.0
 30
0.0
  9
$UCSORGRIGHT
 10
0.0
 20
0.0
 30
0.0
  9
$UCSORGFRONT
 10
0.0
 20
0.0
 30
0.0
  9
$UCSORGBACK
 10
0.0
 20
0.0
 30
0.0
  9
$PUCSBASE
  2

  9
$PUCSNAME
  2

  9
$PUCSORG
 10
0.0
 20
0.0
 30
0.0
  9
$PUCSXDIR
 10
1.0
 20
0.0
 30
0.0
  9
$PUCSYDIR
 10
0.0
 20
1.0
 30
0.0
  9
$PUCSORTHOREF
  2

  9
$PUCSORTHOVIEW
 70
     0
  9
$PUCSORGTOP
 10
0.0
 20
0.0
 30
0.0
  9
$PUCSORGBOTTOM
 10
0.0
 20
0.0
 30
0.0
  9
$PUCSORGLEFT
 10
0.0
 20
0.0
 30
0.0
  9
$PUCSORGRIGHT
 10
0.0
 20
0.0
 30
0.0
  9
$PUCSORGFRONT
 10
0.0
 20
0.0
 30
0.0
  9
$PUCSORGBACK
 10
0.0
 20
0.0
 30
0.0
  9
$USERI1
 70
     0
  9
$USERI2
 70
     0
  9
$USERI3
 70
     0
  9
$USERI4
 70
     0
  9
$USERI5
 70
     0
  9
$USERR1
 40
0.0
  9
$USERR2
 40
0.0
  9
$USERR3
 40
0.0
  9
$USERR4
 40
0.0
  9
$USERR5
 40
0.0
  9
$WORLDVIEW
 70
     1
  9
$SHADEDGE
 70
     3
  9
$SHADEDIF
 70
    70
  9
$TILEMODE
 70
     1
  9
$MAXACTVP
 70
    64
  9
$PINSBASE
 10
0.0
 20
0.0
 30
0.0
  9
$PLIMCHECK
 70
     0
  9
$PEXTMIN
 10
1.000000000000000E+20
 20
1.000000000000000E+20
 30
1.000000000000000E+20
  9
$PEXTMAX
 10
-1.000000000000000E+20
 20
-1.000000000000000E+20
 30
-1.000000000000000E+20
  9
$PLIMMIN
 10
0.0
 20
0.0
  9
$PLIMMAX
 10
420.0
 20
297.0
  9
$UNITMODE
 70
     0
  9
$VISRETAIN
 70
     1
  9
$PLINEGEN
 70
     0
  9
$PSLTSCALE
 70
     1
  9
$TREEDEPTH
 70
  3020
  9
$CMLSTYLE
  2
Standard
  9
$CMLJUST
 70
     0
  9
$CMLSCALE
 40
20.0
  9
$PROXYGRAPHICS
 70
     1
  9
$MEASUREMENT
 70
     1
  9
$CELWEIGHT
370
    -1
  9
$ENDCAPS
280
     0
  9
$JOINSTYLE
280
     0
  9
$LWDISPLAY
290
     0
  9
$INSUNITS
 70
     4
  9
$HYPERLINKBASE
  1

  9
$STYLESHEET
  1

  9
$XEDIT
290
     1
  9
$CEPSNTYPE
380
     0
  9
$PSTYLEMODE
290
     1
  9
$FINGERPRINTGUID
  2
{4D2DFE3A-FEF3-4CF9-991B-E3B55A8E4F73}
  9
$VERSIONGUID
  2
{5E32B81F-A33E-4D5B-9ACC-10E269C23019}
  9
$EXTNAMES
290
     1
  9
$PSVPSCALE
 40
0.0
  9
$OLESTARTUP
290
     0
  0
ENDSEC
  0
SECTION
  2
CLASSES
  0
CLASS
  1
ACDBDICTIONARYWDFLT
  2
AcDbDictionaryWithDefault
  3
ObjectDBX Classes
 90
        0
280
     0
281
     0
  0
CLASS
  1
ACDBPLACEHOLDER
  2
AcDbPlaceHolder
  3
ObjectDBX Classes
 90
        0
280
     0
281
     0
  0
CLASS
  1
LAYOUT
  2
AcDbLayout
  3
ObjectDBX Classes
 90
        0
280
     0
281
     0
  0
CLASS
  1
AMGSETTINGSOBJ
  2
AmgSettingsObj
  3
"AcadM|Product Description: AutoCAD Mechanical 2000|Company: Autodesk"
 90
        0
280
     0
281
     0
  0
CLASS
  1
ACME_DOCUMENT
  2
AcMeDbDoc
  3
AcMeServices
 90
        0
280
     0
281
     0
  0
CLASS
  1
ACMESCOPE
  2
AcMeScope
  3
AcMeServices
 90
        0
280
     0
281
     0
  0
CLASS
  1
ACMECOMMANDHISTORY
  2
AcMeCommandHistory
  3
AcMeServices
 90
        0
280
     0
281
     0
  0
CLASS
  1
DICTIONARYVAR
  2
AcDbDictionaryVar
  3
ObjectDBX Classes
 90
        0
280
     0
281
     0
  0
CLASS
  1
ACIMSYSVARMAN
  2
AcImSysVarManager
  3
AcMeServices
 90
        0
280
     0
281
     0
  0
CLASS
  1
ACIMREALSYSVAR
  2
AcImRealSysVar
  3
AcMeServices
 90
        0
280
     0
281
     0
  0
CLASS
  1
ACIMINTSYSVAR
  2
AcImIntSysVar
  3
AcMeServices
 90
        0
280
     0
281
     0
  0
CLASS
  1
ACMEDRAWINGMAN
  2
AcMeDrawingMan
  3
AcMeServices
 90
        0
280
     0
281
     0
  0
CLASS
  1
ACMEVIEW
  2
AcMeView
  3
AcMeServices
 90
        0
280
     0
281
     0
  0
CLASS
  1
ACDBENTITYCACHE
  2
AcMeEntityCache
  3
AcMeServices
 90
        0
280
     0
281
     0
  0
CLASS
  1
GSMANAGER
  2
AcMeGSManager
  3
AcMeServices
 90
        0
280
     0
281
     0
  0
CLASS
  1
AMDTINTERNALREACTOR
  2
AmdtInternalReactor
  3
AcMeServices
 90
        0
280
     0
281
     0
  0
CLASS
  1
ACMESTATEMGR
  2
AcMeStateMgr
  3
AcMeServices
 90
        0
280
     0
281
     0
  0
CLASS
  1
ACGREFMASTER
  2
AcGrefMaster
  3
AcAttribServices
 90
        0
280
     0
281
     0
  0
CLASS
  1
ACME_DATABASE
  2
AcMeDbDatabase
  3
AcMeServices
 90
        0
280
     0
281
     0
  0
CLASS
  1
ACRFINSADJUSTERMGR
  2
AcRfInsAdjusterMgr
  3
AcMeServices
 90
        0
280
     0
281
     0
  0
CLASS
  1
ACGREFACADMASTER
  2
AcGrefacadMaster
  3
AcGrefServices
 90
        0
280
     0
281
     0
  0
CLASS
  1
AMIMASTER
  2
AmiMaster
  3
AmiServices
 90
        0
280
     0
281
     0
  0
CLASS
  1
ACIMSTRSYSVAR
  2
AcImStrSysVar
  3
AcMeServices
 90
        0
280
     0
281
     0
  0
CLASS
  1
ACMSTANDARDDIN
  2
AcmStandardDIN
  3
"Amdt_StdImp|Product Description: AutoCAD Mechanical 2004 DX|Company: Autodesk"
 90
        0
280
     0
281
     0
  0
CLASS
  1
AMGOBJPROPCFG
  2
AmgObjPropCfg
  3
"AmgLay|Product Description: AutoCAD Mechanical 2000|Company: Autodesk"
 90
        1
280
     0
281
     0
  0
CLASS
  1
AMDTEDGESTANDARDDIN
  2
AmdtEdgeStdDIN
  3
"Amdt_StdImp|Product Description: AutoCAD Mechanical 2004 DX|Company: Autodesk"
 90
        0
280
     0
281
     0
  0
CLASS
  1
ACMSURFSTANDARDDIN
  2
AcmSurfTextStdDIN
  3
"Amdt_StdImp|Product Description: AutoCAD Mechanical 2004 DX|Company: Autodesk"
 90
        0
280
     0
281
     0
  0
CLASS
  1
ACMFCFSTANDARDDIN
  2
AcmFCFStdDIN
  3
"Amdt_StdImp|Product Description: AutoCAD Mechanical 2004 DX|Company: Autodesk"
 90
        0
280
     0
281
     0
  0
CLASS
  1
ACMWELDSTANDARDDIN
  2
AcmWeldingStdDIN
  3
"Amdt_StdImp|Product Description: AutoCAD Mechanical 2004 DX|Company: Autodesk"
 90
        0
280
     0
281
     0
  0
CLASS
  1
ACMIDSTANDARDDIN
  2
AcmIdStdDIN
  3
"Amdt_StdImp|Product Description: AutoCAD Mechanical 2004 DX|Company: Autodesk"
 90
        0
280
     0
281
     0
  0
CLASS
  1
ACMDATUMSTANDARDDIN
  2
AcmDatumStdDIN
  3
"Amdt_StdImp|Product Description: AutoCAD Mechanical 2004 DX|Company: Autodesk"
 90
        0
280
     0
281
     0
  0
CLASS
  1
ACMBOMSTANDARDDIN
  2
AcmBOMStdDIN
  3
"Amdt_StdImp|Product Description: AutoCAD Mechanical 2004 DX|Company: Autodesk"
 90
        0
280
     0
281
     0
  0
CLASS
  1
ACMDETAILSTANDARDDIN
  2
AmdtDetailSymStdDIN
  3
"Amdt_StdImp|Product Description: AutoCAD Mechanical 2004 DX|Company: Autodesk"
 90
        0
280
     0
281
     0
  0
CLASS
  1
ACMSECTIONSTANDARDDIN
  2
AmdtSectionSymStdDIN
  3
"Amdt_StdImp|Product Description: AutoCAD Mechanical 2004 DX|Company: Autodesk"
 90
        0
280
     0
281
     0
  0
CLASS
  1
ACMCENTERLINESTANDARDDIN
  2
AmdtCenterLineStdDIN
  3
"Amdt_StdImp|Product Description: AutoCAD Mechanical 2004 DX|Company: Autodesk"
 90
        0
280
     0
281
     0
  0
CLASS
  1
ACMTHREADLINESTANDARDDIN
  2
AmdtThreadLineStdDIN
  3
"Amdt_StdImp|Product Description: AutoCAD Mechanical 2004 DX|Company: Autodesk"
 90
        0
280
     0
281
     0
  0
CLASS
  1
ACAMGLAYSTD
  2
AcAmgLayStd
  3
"AcAmgLayStd|Product Description: AutoCAD Mechanical 2000|Company: Autodesk"
 90
        0
280
     0
281
     0
  0
CLASS
  1
ACAMGDIMSTD
  2
AcAmgDimStd
  3
"AcAmgDimStd|Product Description: AutoCAD Mechanical 2000|Company: Autodesk"
 90
        0
280
     0
281
     0
  0
CLASS
  1
ACAMGTITLESTD
  2
AcAmgTitleStd
  3
"TITLEAPP"
 90
        0
280
     0
281
     0
  0
CLASS
  1
ACMDATADICTIONARY
  2
AcmDataDictionary
  3
"AcmSymBB|Product Description: AutoCAD Mechanical 2004 DX|Company: Autodesk"
 90
        0
280
     0
281
     0
  0
CLASS
  1
ACMDATAENTRYBLOCK
  2
AcmDataEntryBlock
  3
"AcmSymBB|Product Description: AutoCAD Mechanical 2004 DX|Company: Autodesk"
 90
        0
280
     0
281
     0
  0
CLASS
  1
LAYER_INDEX
  2
AcDbLayerIndex
  3
ObjectDBX Classes
 90
    32768
280
     0
281
     0
  0
CLASS
  1
IDBUFFER
  2
AcDbIdBuffer
  3
ObjectDBX Classes
 90
    32768
280
     0
281
     0
  0
CLASS
  1
ACMNOTESTANDARDDIN
  2
AmdtNoteStdDIN
  3
"Amdt_StdImp|Product Description: AutoCAD Mechanical 2004 DX|Company: Autodesk"
 90
        0
280
     0
281
     0
  0
CLASS
  1
ACAMGHOLECHARTSTDDIN
  2
AcAmgHoleChartStdDIN
  3
ACMSYMBB_MODULE_NAME
 90
        0
280
     0
281
     0
  0
CLASS
  1
AM_DRAWING_MGR
  2
AcDmDwgMgr
  3
AcMechDwgViewMgmt
 90
        0
280
     0
281
     0
  0
CLASS
  1
AM_DWG_DOCUMENT
  2
AcDmDwgDocument
  3
AcMechDwgViewMgmt
 90
        0
280
     0
281
     0
  0
CLASS
  1
AM_DWG_SHEET
  2
AcDmSheet
  3
AcMechDwgViewMgmt
 90
        0
280
     0
281
     0
  0
CLASS
  1
AM_VIEWDIMPARMAP
  2
AcDmViewDimParMap
  3
AcMechDwgViewMgmt
 90
        0
280
     0
281
     0
  0
CLASS
  1
AM_DWGMGR_NAME
  2
AcDmDwgMgrName
  3
AcMechDwgViewMgmt
 90
        0
280
     0
281
     0
  0
CLASS
  1
AMDTMENUSTATEMGR
  2
AmdtMenuStateMgr
  3
McadcomServices
 90
        0
280
     0
281
     0
  0
CLASS
  1
AMDTMCOMMENUSTATE
  2
AmdtMcomMenuState
  3
McadcomServices
 90
        0
280
     0
281
     0
  0
CLASS
  1
MAPIAMMOUDLE
  2
MApiAmModule
  3
MApiAmServices
 90
        0
280
     0
281
     0
  0
CLASS
  1
AMDTADMENUSTATE
  2
AmdtAdMenuState
  3
DesignerServices
 90
        0
280
     0
281
     0
  0
CLASS
  1
ADAPPL
  2
AcAdAppl
  3
DesignerServices
 90
        0
280
     0
281
     0
  0
CLASS
  1
DEPMGR
  2
AcAdDepMgr
  3
DesignerServices
 90
        0
280
     0
281
     0
  0
CLASS
  1
PARAMMGR
  2
AcAdParamMgr
  3
DesignerServices
 90
        0
280
     0
281
     0
  0
CLASS
  1
PARAMSCOPE
  2
AcAdParamScope
  3
DesignerServices
 90
        0
280
     0
281
     0
  0
CLASS
  1
NAMEDAPPL
  2
AcAdNamedAppl
  3
DesignerServices
 90
        0
280
     0
281
     0
  0
CLASS
  1
AMDTDMMENUSTATE
  2
AmdtDmMenuState
  3
AcMechDwgViewMgmt
 90
        0
280
     0
281
     0
  0
CLASS
  1
AMDTAMMENUSTATE
  2
AmdtAmMenuState
  3
DesignerAssemblies
 90
        0
280
     0
281
     0
  0
CLASS
  1
ACAMPROJECT
  2
AcAmProject
  3
DesignerAssemblies
 90
        0
280
     0
281
     0
  0
CLASS
  1
ACAMGRCOMPDEF
  2
AcAmGrCompDef
  3
DesignerAssemblies
 90
        0
280
     0
281
     0
  0
CLASS
  1
ACCMCONTEXT
  2
AcCmContext
  3
DesignerAssemblies
 90
        0
280
     0
281
     0
  0
CLASS
  1
ACAMCOMPDEF
  2
AcAmCompDef
  3
DesignerAssemblies
 90
        0
280
     0
281
     0
  0
CLASS
  1
ACAMCOMPDEFMGR
  2
AcAmCompDefMgr
  3
DesignerAssemblies
 90
        0
280
     0
281
     0
  0
CLASS
  1
AMCONTEXTMGR
  2
AcAmContextMgr
  3
DesignerAssemblies
 90
        0
280
     0
281
     0
  0
CLASS
  1
ACAMCONTEXTMODELER
  2
AcAmContextModeler
  3
DesignerAssemblies
 90
        0
280
     0
281
     0
  0
CLASS
  1
CATALOGSTATE
  2
AcAmCatalogState
  3
DesignerAssemblies
 90
        0
280
     0
281
     0
  0
CLASS
  1
ACAMGRCOMPDEFSET
  2
AcAmGrCompDefSet
  3
DesignerAssemblies
 90
        0
280
     0
281
     0
  0
CLASS
  1
AMDTBROWSERDBTAB
  2
AmdtBrowserDbTab
  3
McadcomServices
 90
        0
280
     0
281
     0
  0
CLASS
  1
CBROWSERAPPOBJECT
  2
CBrowserAppObject
  3
McadcomServices
 90
        0
280
     0
281
     0
  0
CLASS
  1
DM_PLACEHOLDER
  2
AcDmSelsetPlaceholder
  3
AcMechDwgViewMgmt
 90
        0
280
     0
281
     0
  0
CLASS
  1
TABLESTYLE
  2
AcDbTableStyle
  3
ObjectDBX Classes
 90
     2047
280
     0
281
     0
  0
CLASS
  1
VAACXREFPANELOBJECT
  2
VaAcXREFPanelObject
  3
VAAC_ADDIN
 90
    32768
280
     0
281
     0
  0
CLASS
  1
VAACIMAGEINVENTORY
  2
VaAcImageInventory
  3
VAAC_ADDIN
 90
    32768
280
     0
281
     0
  0
CLASS
  1
AMDTNOTETEMPLATEDB
  2
AmdtNoteTemplateDB
  3
AMDT_STDIMP_MODULE_NAME
 90
        0
280
     0
281
     0
  0
CLASS
  1
ACAMGFILTERDAT
  2
AcAmgFilterDat
  3
"AcadM|Product Description: AutoCAD Mechanical 2000|Company: Autodesk"
 90
        0
280
     0
281
     0
  0
CLASS
  1
ACMBOM
  2
AcmBom
  3
"AcmSymBB|Product Description: AutoCAD Mechanical 2004 DX|Company: Autodesk"
 90
    32768
280
     0
281
     0
  0
CLASS
  1
AMDTFORMULAUPDATEDISPATCHER
  2
AmdtFormulaUpdateDispatcher
  3
AcMeServices
 90
    32768
280
     0
281
     0
  0
CLASS
  1
DIMASSOC
  2
AcDbDimAssoc
  3
"AcDbDimAssoc|Product Desc:     AcDim ARX App For Dimension|Company:          Autodesk, Inc.|WEB Address:      www.autodesk.com"
 90
        0
280
     0
281
     0
  0
CLASS
  1
SORTENTSTABLE
  2
AcDbSortentsTable
  3
ObjectDBX Classes
 90
        0
280
     0
281
     0
  0
CLASS
  1
ACRFATTGENMGR
  2
AcRfAttGeneralMgr
  3
AcAttribServices
 90
        0
280
     0
281
     0
  0
ENDSEC
  0
SECTION
  2
TABLES
  0
TABLE
  2
VPORT
  5
8
330
0
100
AcDbSymbolTable
 70
     3
  0
VPORT
  5
5EC
330
8
100
AcDbSymbolTableRecord
100
AcDbViewportTableRecord
  2
*Active
 70
     0
 10
0.0
 20
0.0
 11
1.0
 21
1.0
 12
1514.739488093349
 22
993.4034096426453
 13
0.0
 23
0.0
 14
2.5
 24
2.5
 15
10.0
 25
10.0
 16
0.0
 26
0.0
 36
1.0
 17
0.0
 27
0.0
 37
0.0
 40
401.5231072296783
 41
1.378804960541149
 42
50.0
 43
0.0
 44
0.0
 50
0.0
 51
0.0
 71
     0
 72
   100
 73
     1
 74
     3
 75
     0
 76
     0
 77
     0
 78
     0
281
     0
 65
     1
110
0.0
120
0.0
130
0.0
111
1.0
121
0.0
131
0.0
112
0.0
122
1.0
132
0.0
 79
     0
146
0.0
  0
ENDTAB
  0
TABLE
  2
LTYPE
  5
5
330
0
100
AcDbSymbolTable
 70
    22
  0
LTYPE
  5
14
330
5
100
AcDbSymbolTableRecord
100
AcDbLinetypeTableRecord
  2
ByBlock
 70
     0
  3

 72
    65
 73
     0
 40
0.0
  0
LTYPE
  5
15
330
5
100
AcDbSymbolTableRecord
100
AcDbLinetypeTableRecord
  2
ByLayer
 70
     0
  3

 72
    65
 73
     0
 40
0.0
  0
LTYPE
  5
16
330
5
100
AcDbSymbolTableRecord
100
AcDbLinetypeTableRecord
  2
Continuous
 70
     0
  3
Solid line
 72
    65
 73
     0
 40
0.0
  0
LTYPE
  5
50
330
5
100
AcDbSymbolTableRecord
100
AcDbLinetypeTableRecord
  2
Amconstr
 70
     0
  3
_______________________
 72
    65
 73
     2
 40
9999.0
 49
9999.0
 74
     0
 49
0.0
 74
     0
  0
LTYPE
  5
55
330
5
100
AcDbSymbolTableRecord
100
AcDbLinetypeTableRecord
  2
Amzigzag
 70
     0
  3
/\/-/\/-/\/-/\/-/\/-/\/
 72
    65
 73
     2
 40
11.0001
 49
0.0001
 74
     4
 75
   136
340
285
 46
0.04
 50
0.0
 44
0.0
 45
0.0
 49
-11.0
 74
     0
  0
LTYPE
  5
56
330
5
100
AcDbSymbolTableRecord
100
AcDbLinetypeTableRecord
  2
AM_DIN_F_W050
 70
     0
  3
__ __ __ __ __ __ __ __ __ __ __ __ __ __ __
 72
    65
 73
     2
 40
6.25
 49
4.75
 74
     0
 49
-1.5
 74
     0
  0
LTYPE
  5
57
330
5
100
AcDbSymbolTableRecord
100
AcDbLinetypeTableRecord
  2
AM_DIN_G_W050
 70
     0
  3
____ . ____ . ____ . ____ . ____ . ____ . ____
 72
    65
 73
     4
 40
13.75
 49
9.75
 74
     0
 49
-1.5
 74
     0
 49
1.0
 74
     0
 49
-1.5
 74
     0
  0
LTYPE
  5
58
330
5
100
AcDbSymbolTableRecord
100
AcDbLinetypeTableRecord
  2
AM_DIN_K_W050
 70
     0
  3
_____ . . _____ . . _____ . . ____ .. ____
 72
    65
 73
     6
 40
16.25
 49
9.75
 74
     0
 49
-1.5
 74
     0
 49
1.0
 74
     0
 49
-1.5
 74
     0
 49
1.0
 74
     0
 49
-1.5
 74
     0
  0
LTYPE
  5
59
330
5
100
AcDbSymbolTableRecord
100
AcDbLinetypeTableRecord
  2
AM_DIN_G_W050x2
 70
     0
  3
__ . __ . __ . __ . __ . __
 72
    65
 73
     4
 40
6.875
 49
4.75
 74
     0
 49
-0.875
 74
     0
 49
0.375
 74
     0
 49
-0.875
 74
     0
  0
LTYPE
  5
5A
330
5
100
AcDbSymbolTableRecord
100
AcDbLinetypeTableRecord
  2
AM_DIN_F_W050x2
 70
     0
  3
 _ _ _ _ _ _ _ _ _ _ _ _
 72
    65
 73
     2
 40
3.125
 49
2.25
 74
     0
 49
-0.875
 74
     0
  0
LTYPE
  5
68
330
5
100
AcDbSymbolTableRecord
100
AcDbLinetypeTableRecord
  2
ACDINWELD
 70
     0
  3
_ _ _ _ _
 72
    65
 73
     2
 40
2.0
 49
2.0
 74
     0
 49
-1.0
 74
     0
  0
LTYPE
  5
69
330
5
100
AcDbSymbolTableRecord
100
AcDbLinetypeTableRecord
  2
ACDINTGB
 70
     0
  3
__ . . __ . .
 72
    65
 73
     6
 40
9.0
 49
4.0
 74
     0
 49
-1.0
 74
     0
 49
1.0
 74
     0
 49
-1.0
 74
     0
 49
1.0
 74
     0
 49
-1.0
 74
     0
  0
LTYPE
  5
6A
330
5
100
AcDbSymbolTableRecord
100
AcDbLinetypeTableRecord
  2
ACDINTGL
 70
     0
  3
_ _ _ _ _
 72
    65
 73
     2
 40
3.0
 49
2.0
 74
     0
 49
-1.0
 74
     0
  0
LTYPE
  5
6C
330
5
100
AcDbSymbolTableRecord
100
AcDbLinetypeTableRecord
  2
CENTER
 70
     0
  3
__ . __
 72
    65
 73
     4
 40
7.0
 49
4.0
 74
     0
 49
-1.0
 74
     0
 49
1.0
 74
     0
 49
-1.0
 74
     0
  0
LTYPE
  5
F2
330
5
100
AcDbSymbolTableRecord
100
AcDbLinetypeTableRecord
  2
HIDDEN
 70
     0
  3
Hidden __ __ __ __ __ __ __ __ __ __ __ __ __ _
 72
    65
 73
     2
 40
9.524999999999998
 49
6.349999999999999
 74
     0
 49
-3.174999999999999
 74
     0
  0
LTYPE
  5
F3
330
5
100
AcDbSymbolTableRecord
100
AcDbLinetypeTableRecord
  2
PHANTOM2
 70
     0
  3
Phantom (.5x) ___ _ _ ___ _ _ ___ _ _ ___ _ _
 72
    65
 73
     6
 40
31.75
 49
15.875
 74
     0
 49
-3.174999999999999
 74
     0
 49
3.174999999999999
 74
     0
 49
-3.174999999999999
 74
     0
 49
3.174999999999999
 74
     0
 49
-3.174999999999999
 74
     0
  0
LTYPE
  5
335
330
5
100
AcDbSymbolTableRecord
100
AcDbLinetypeTableRecord
  2
AUSGEZOGEN
 70
     0
  3
_______________________________________________
 72
    65
 73
     0
 40
0.0
  0
LTYPE
  5
336
330
5
100
AcDbSymbolTableRecord
100
AcDbLinetypeTableRecord
  2
PUNKT
 70
     0
  3
...............................................
 72
    65
 73
     2
 40
0.25
 49
0.0
 74
     0
 49
-0.25
 74
     0
  0
ENDTAB
  0
TABLE
  2
LAYER
  5
2
102
{ACAD_XDICTIONARY
360
C0
102
}
330
0
100
AcDbSymbolTable
 70
    11
  0
LAYER
  5
10
330
2
100
AcDbSymbolTableRecord
100
AcDbLayerTableRecord
  2
0
 70
     0
 62
     7
  6
Continuous
370
    -3
390
F
  0
LAYER
  5
82
330
2
100
AcDbSymbolTableRecord
100
AcDbLayerTableRecord
  2
AM_0
 70
     0
 62
     7
  6
Continuous
370
    50
390
F
1001
AcAecLayerStandard
1000

1000

  0
LAYER
  5
338
330
2
100
AcDbSymbolTableRecord
100
AcDbLayerTableRecord
  2
DEFPOINTS
 70
     0
 62
     7
  6
Continuous
290
     0
370
    -3
390
F
  0
LAYER
  5
339
330
2
100
AcDbSymbolTableRecord
100
AcDbLayerTableRecord
  2
AM_5
 70
     0
 62
     3
  6
Continuous
370
    25
390
F
  0
LAYER
  5
33A
330
2
100
AcDbSymbolTableRecord
100
AcDbLayerTableRecord
  2
AM_4
 70
     0
 62
     3
  6
Continuous
370
    25
390
F
  0
LAYER
  5
33B
330
2
100
AcDbSymbolTableRecord
100
AcDbLayerTableRecord
  2
0N
 70
     0
 62
     7
  6
Continuous
370
    -3
390
F
  0
LAYER
  5
33C
330
2
100
AcDbSymbolTableRecord
100
AcDbLayerTableRecord
  2
BILD
 70
     0
 62
     1
  6
PUNKT
370
    -3
390
F
  0
LAYER
  5
33D
330
2
100
AcDbSymbolTableRecord
100
AcDbLayerTableRecord
  2
1
 70
     0
 62
     7
  6
AUSGEZOGEN
370
    -3
390
F
  0
LAYER
  5
33E
330
2
100
AcDbSymbolTableRecord
100
AcDbLayerTableRecord
  2
HAHN
 70
     0
 62
     7
  6
AUSGEZOGEN
370
    -3
390
F
  0
LAYER
  5
33F
330
2
100
AcDbSymbolTableRecord
100
AcDbLayerTableRecord
  2
BEH
 70
     0
 62
     7
  6
AUSGEZOGEN
370
    -3
390
F
  0
ENDTAB
  0
TABLE
  2
STYLE
  5
3
330
0
100
AcDbSymbolTable
 70
     8
  0
STYLE
  5
11
330
3
100
AcDbSymbolTableRecord
100
AcDbTextStyleTableRecord
  2
STANDARD
 70
     0
 40
0.0
 41
1.0
 50
0.0
 71
     0
 42
2.5
  3
ISOCP.SHX
  4
bigfont.shx
  0
STYLE
  5
5B
330
3
100
AcDbSymbolTableRecord
100
AcDbTextStyleTableRecord
  2
ACDINTS
 70
     0
 40
1.0
 41
1.0
 50
0.0
 71
     0
 42
2.5
  3
isocp.shx
  4
bigfont.shx
  0
STYLE
  5
67
330
3
100
AcDbSymbolTableRecord
100
AcDbTextStyleTableRecord
  2
ACDINGDT
 70
     0
 40
0.0
 41
1.0
 50
0.0
 71
     0
 42
2.5
  3
AMGDT
  4
bigfont.shx
  0
STYLE
  5
285
330
3
100
AcDbSymbolTableRecord
100
AcDbTextStyleTableRecord
  2

 70
     1
 40
0.0
 41
1.0
 50
0.0
 71
     0
 42
2.5
  3
genltshp.shx
  4

  0
ENDTAB
  0
TABLE
  2
VIEW
  5
6
330
0
100
AcDbSymbolTable
 70
     0
  0
ENDTAB
  0
TABLE
  2
UCS
  5
7
330
0
100
AcDbSymbolTable
 70
     0
  0
ENDTAB
  0
TABLE
  2
APPID
  5
9
330
0
100
AcDbSymbolTable
 70
    12
  0
APPID
  5
12
330
9
100
AcDbSymbolTableRecord
100
AcDbRegAppTableRecord
  2
ACAD
 70
     0
  0
APPID
  5
30
330
9
100
AcDbSymbolTableRecord
100
AcDbRegAppTableRecord
  2
MCAD_NO_VIS
 70
     0
  0
APPID
  5
31
330
9
100
AcDbSymbolTableRecord
100
AcDbRegAppTableRecord
  2
ACAD_TEMP_GRAPHIC
 70
     0
  0
APPID
  5
44
330
9
100
AcDbSymbolTableRecord
100
AcDbRegAppTableRecord
  2
ACATTRIBSERVICES
 70
     0
  0
APPID
  5
108
330
9
100
AcDbSymbolTableRecord
100
AcDbRegAppTableRecord
  2
AD_DRAW
 70
     0
  0
APPID
  5
126
330
9
100
AcDbSymbolTableRecord
100
AcDbRegAppTableRecord
  2
DESIGNERASSEMBLIES
 70
     0
  0
APPID
  5
12A
330
9
100
AcDbSymbolTableRecord
100
AcDbRegAppTableRecord
  2
ACADM_DIM_EDIT
 70
     0
  0
APPID
  5
12B
330
9
100
AcDbSymbolTableRecord
100
AcDbRegAppTableRecord
  2
AMDT_DM_ADJ
 70
     0
  0
APPID
  5
1A4
330
9
100
AcDbSymbolTableRecord
100
AcDbRegAppTableRecord
  2
ACAD_DSTYLE_DIMARC_LENGTH_SYMBOL
 70
     0
  0
APPID
  5
1A5
330
9
100
AcDbSymbolTableRecord
100
AcDbRegAppTableRecord
  2
ACAD_DSTYLE_DIMJOGGED_JOGANGLE_SYMBOL
 70
     0
  0
APPID
  5
22C
330
9
100
AcDbSymbolTableRecord
100
AcDbRegAppTableRecord
  2
AcAecLayerStandard
 70
     0
  0
APPID
  5
343
330
9
100
AcDbSymbolTableRecord
100
AcDbRegAppTableRecord
  2
ACAD_PSEXT
 70
     0
  0
ENDTAB
  0
TABLE
  2
DIMSTYLE
  5
A
330
0
100
AcDbSymbolTable
 70
    11
100
AcDbDimStyleTable
 71
     1
340
6F
  0
DIMSTYLE
105
6F
102
{ACAD_REACTORS
330
4B
102
}
330
A
100
AcDbSymbolTableRecord
100
AcDbDimStyleTableRecord
  2
AM_DIN
 70
     0
  4
"
 41
2.5
 42
1.0
 43
10.0
 44
1.0
 47
0.1
 48
0.1
 73
     0
 74
     0
 77
     1
 78
     8
 79
     2
140
3.5
141
0.0
143
0.0393701
146
0.71
147
1.5
172
     1
176
   256
177
   256
178
     2
271
     2
272
     3
274
     4
283
     0
284
     8
340
11
371
    -1
372
    -1
1001
ACAD_DSTYLE_DIMARC_LENGTH_SYMBOL
1070
   379
1070
     0
1001
ACAD_DSTYLE_DIMJOGGED_JOGANGLE_SYMBOL
1070
   384
1040
1.570796326794896
  0
DIMSTYLE
105
70
330
A
100
AcDbSymbolTableRecord
100
AcDbDimStyleTableRecord
  2
AM_DIN$3
 70
     0
  4
"
 41
2.5
 42
1.0
 43
10.0
 44
1.0
 47
0.1
 48
0.1
 73
     0
 77
     1
 78
     8
 79
     2
140
3.5
141
0.0
143
0.0393701
146
0.71
147
1.5
176
   256
177
   256
178
     2
271
     2
272
     3
274
     4
283
     0
284
     8
288
     1
289
     0
340
11
371
    -1
372
    -1
1001
ACAD_DSTYLE_DIMARC_LENGTH_SYMBOL
1070
   379
1070
     0
1001
ACAD_DSTYLE_DIMJOGGED_JOGANGLE_SYMBOL
1070
   384
1040
1.570796326794896
  0
DIMSTYLE
105
71
330
A
100
AcDbSymbolTableRecord
100
AcDbDimStyleTableRecord
  2
AM_DIN$4
 70
     0
  4
"
 41
2.5
 42
1.0
 43
10.0
 44
1.0
 47
0.1
 48
0.1
 73
     0
 77
     1
 78
     8
 79
     2
140
3.5
141
0.0
143
0.0393701
146
0.71
147
1.5
176
   256
177
   256
178
     2
271
     2
272
     3
274
     4
283
     0
284
     8
288
     1
289
     0
340
11
371
    -1
372
    -1
1001
ACAD_DSTYLE_DIMARC_LENGTH_SYMBOL
1070
   379
1070
     0
1001
ACAD_DSTYLE_DIMJOGGED_JOGANGLE_SYMBOL
1070
   384
1040
1.570796326794896
  0
DIMSTYLE
105
72
330
A
100
AcDbSymbolTableRecord
100
AcDbDimStyleTableRecord
  2
AM_DIN$6
 70
     0
  4
"
 41
2.5
 42
1.0
 43
10.0
 44
1.0
 47
0.1
 48
0.1
 73
     0
 74
     0
 78
     8
 79
     2
140
3.5
141
0.0
143
0.0393701
146
0.71
147
1.5
172
     1
176
   256
177
   256
178
     2
271
     2
272
     3
274
     4
283
     0
284
     8
340
11
371
    -1
372
    -1
1001
ACAD_DSTYLE_DIMARC_LENGTH_SYMBOL
1070
   379
1070
     0
1001
ACAD_DSTYLE_DIMJOGGED_JOGANGLE_SYMBOL
1070
   384
1040
1.570796326794896
  0
DIMSTYLE
105
73
330
A
100
AcDbSymbolTableRecord
100
AcDbDimStyleTableRecord
  2
AM_DIN$7
 70
     0
  4
"
 41
2.5
 42
1.0
 43
10.0
 44
1.0
 47
0.1
 48
0.1
 73
     0
 74
     0
 77
     1
 78
     8
 79
     2
140
5.0
141
0.0
143
0.0393701
146
0.71
147
1.5
172
     1
176
   256
177
   256
178
     2
271
     2
272
     3
274
     4
283
     0
284
     8
340
11
371
    -1
372
    -1
1001
ACAD_DSTYLE_DIMARC_LENGTH_SYMBOL
1070
   379
1070
     0
1001
ACAD_DSTYLE_DIMJOGGED_JOGANGLE_SYMBOL
1070
   384
1040
1.570796326794896
  0
DIMSTYLE
105
74
330
A
100
AcDbSymbolTableRecord
100
AcDbDimStyleTableRecord
  2
AM_DIN$SF
 70
     0
  4
"
 41
2.5
 42
1.0
 43
10.0
 44
1.0
 47
0.1
 48
0.1
 73
     0
 74
     0
 75
     1
 76
     1
 77
     1
 78
     8
 79
     2
140
3.5
141
0.0
143
0.0393701
146
0.71
147
1.5
172
     1
176
   256
177
   256
178
     2
271
     2
272
     3
274
     4
283
     0
284
     8
340
11
371
    -1
372
    -1
1001
ACAD_DSTYLE_DIMARC_LENGTH_SYMBOL
1070
   379
1070
     0
1001
ACAD_DSTYLE_DIMJOGGED_JOGANGLE_SYMBOL
1070
   384
1040
1.570796326794896
  0
DIMSTYLE
105
79
330
A
100
AcDbSymbolTableRecord
100
AcDbDimStyleTableRecord
  2
AM_DIN$SH
 70
     0
  4
"
 41
2.5
 42
1.0
 43
10.0
 44
1.0
 47
0.1
 48
0.1
 73
     0
 74
     0
 75
     1
 76
     1
 77
     1
 78
     8
 79
     2
140
3.5
141
0.0
143
0.0393701
144
2.0
146
0.71
147
1.5
172
     1
173
     1
176
   256
177
   256
178
     2
271
     2
272
     3
274
     4
283
     0
284
     8
340
11
343
75
371
    -1
372
    -1
1001
ACAD_DSTYLE_DIMARC_LENGTH_SYMBOL
1070
   379
1070
     0
1001
ACAD_DSTYLE_DIMJOGGED_JOGANGLE_SYMBOL
1070
   384
1040
1.570796326794896
  0
DIMSTYLE
105
341
330
A
100
AcDbSymbolTableRecord
100
AcDbDimStyleTableRecord
  2
GEN-ISO
 70
     0
  4
"
 40
10.0
 41
2.5
 42
1.0
 43
7.0
 44
1.0
 47
0.1
 48
0.1
 73
     0
 74
     0
 77
     1
 78
     8
140
3.5
141
0.0
143
0.0393701
146
0.71
147
0.6
172
     1
176
     3
177
     3
178
     2
271
     2
272
     2
283
     0
340
11
  0
DIMSTYLE
105
342
102
{ACAD_REACTORS
330
477
330
47A
330
47B
330
5B5
330
5B8
330
5B9
102
}
330
A
100
AcDbSymbolTableRecord
100
AcDbDimStyleTableRecord
  2
GEN-ISO$0
 70
     0
  4
"
 40
10.0
 41
2.5
 42
1.0
 43
7.0
 44
1.0
 47
0.1
 48
0.1
 73
     0
 74
     0
 77
     1
 78
     8
140
3.5
141
0.0
143
0.0393701
146
0.71
147
0.6
172
     1
176
     3
177
     3
178
     2
271
     2
272
     2
283
     0
340
11
  0
ENDTAB
  0
TABLE
  2
BLOCK_RECORD
  5
1
330
0
100
AcDbSymbolTable
 70
    10
  0
BLOCK_RECORD
  5
1F
102
{ACAD_XDICTIONARY
360
83
102
}
330
1
100
AcDbSymbolTableRecord
100
AcDbBlockTableRecord
  2
*Model_Space
340
22
  0
BLOCK_RECORD
  5
1B
330
1
100
AcDbSymbolTableRecord
100
AcDbBlockTableRecord
  2
*Paper_Space
340
1E
  0
BLOCK_RECORD
  5
23
330
1
100
AcDbSymbolTableRecord
100
AcDbBlockTableRecord
  2
*Paper_Space0
340
26
  0
BLOCK_RECORD
  5
75
330
1
100
AcDbSymbolTableRecord
100
AcDbBlockTableRecord
  2
GENAXEH
340
0
  0
BLOCK_RECORD
  5
5BC
330
1
100
AcDbSymbolTableRecord
100
AcDbBlockTableRecord
  2
*D7
340
0
  0
BLOCK_RECORD
  5
5C8
330
1
100
AcDbSymbolTableRecord
100
AcDbBlockTableRecord
  2
*D8
340
0
  0
BLOCK_RECORD
  5
5DD
330
1
100
AcDbSymbolTableRecord
100
AcDbBlockTableRecord
  2
*D9
340
0
  0
ENDTAB
  0
ENDSEC
  0
SECTION
  2
BLOCKS
  0
BLOCK
  5
20
330
1F
100
AcDbEntity
  8
0
100
AcDbBlockBegin
  2
*Model_Space
 70
     0
 10
0.0
 20
0.0
 30
0.0
  3
*Model_Space
  1

  0
ENDBLK
  5
21
330
1F
100
AcDbEntity
  8
0
100
AcDbBlockEnd
  0
BLOCK
  5
1C
330
1B
100
AcDbEntity
 67
     1
  8
0
100
AcDbBlockBegin
  2
*Paper_Space
 70
     0
 10
0.0
 20
0.0
 30
0.0
  3
*Paper_Space
  1

  0
ENDBLK
  5
1D
330
1B
100
AcDbEntity
 67
     1
  8
0
100
AcDbBlockEnd
  0
BLOCK
  5
24
330
23
100
AcDbEntity
 67
     1
  8
0
100
AcDbBlockBegin
  2
*Paper_Space0
 70
     0
 10
0.0
 20
0.0
 30
0.0
  3
*Paper_Space0
  1

  0
ENDBLK
  5
25
330
23
100
AcDbEntity
 67
     1
  8
0
100
AcDbBlockEnd
  0
BLOCK
  5
77
330
75
100
AcDbEntity
  8
0
100
AcDbBlockBegin
  2
GENAXEH
 70
     0
 10
0.0
 20
0.0
 30
0.0
  3
GENAXEH
  1

  0
LINE
  5
76
330
75
100
AcDbEntity
  8
0
100
AcDbLine
 10
-1.0
 20
0.0
 30
0.0
 11
1.0
 21
0.0
 31
0.0
  0
ENDBLK
  5
78
330
75
100
AcDbEntity
  8
0
100
AcDbBlockEnd
  0
BLOCK
  5
5C6
330
5BC
100
AcDbEntity
  8
0
100
AcDbBlockBegin
  2
*D7
 70
     1
 10
0.0
 20
0.0
 30
0.0
  3
*D7
  1

  0
LINE
  5
5D4
330
5BC
100
AcDbEntity
  8
AM_5
 62
     3
370
    -2
100
AcDbLine
 10
1379.409577313352
 20
1191.684818820204
 30
0.0
 11
1660.069398873346
 21
1191.684818820204
 31
0.0
  0
LINE
  5
5D5
330
5BC
100
AcDbEntity
  8
AM_5
 62
     3
370
    -2
100
AcDbLine
 10
1470.069397873354
 20
875.3176313202038
 30
0.0
 11
1660.069398873346
 21
875.3176313202038
 31
0.0
  0
LINE
  5
5D6
330
5BC
100
AcDbEntity
  8
AM_5
 62
     3
370
    -2
100
AcDbLine
 10
1650.069398873347
 20
1166.684818820203
 30
0.0
 11
1650.069398873347
 21
900.3176313202038
 31
0.0
  0
SOLID
  5
5D7
330
5BC
100
AcDbEntity
  8
AM_5
 62
     3
100
AcDbTrace
 10
1645.90273220668
 20
1166.684818820203
 30
0.0
 11
1654.236065540014
 21
1166.684818820203
 31
0.0
 12
1650.069398873347
 22
1191.684818820204
 32
0.0
 13
1650.069398873347
 23
1191.684818820204
 33
0.0
  0
SOLID
  5
5D8
330
5BC
100
AcDbEntity
  8
AM_5
 62
     3
100
AcDbTrace
 10
1645.90273220668
 20
900.3176313202038
 30
0.0
 11
1654.236065540014
 21
900.3176313202038
 31
0.0
 12
1650.069398873347
 22
875.3176313202038
 32
0.0
 13
1650.069398873347
 23
875.3176313202038
 33
0.0
  0
MTEXT
  5
5D9
330
5BC
100
AcDbEntity
  8
AM_5
 62
     2
100
AcDbMText
 10
1626.565953991457
 20
1033.501225070204
 30
0.0
 40
35.0
 41
0.0
 71
     5
 72
     1
  1
320
 11
0.0000000000000001
 21
1.0
 31
0.0
 73
     1
 44
1.0
1001
ACAD
1000
MTEXTBEGIN
1070
    73
1070
     1
1070
    44
1040
1.0
1070
    74
1070
     0
1000
MTEXTEND
  0
POINT
  5
5DA
330
5BC
100
AcDbEntity
  8
DEFPOINTS
 62
     0
100
AcDbPoint
 10
1369.409577313352
 20
1191.684818820204
 30
0.0
  0
POINT
  5
5DB
330
5BC
100
AcDbEntity
  8
DEFPOINTS
 62
     0
100
AcDbPoint
 10
1460.069397873354
 20
875.3176313202038
 30
0.0
  0
POINT
  5
5DC
330
5BC
100
AcDbEntity
  8
DEFPOINTS
 62
     0
100
AcDbPoint
 10
1650.069398873347
 20
875.3176313202038
 30
0.0
  0
ENDBLK
  5
5C7
330
5BC
100
AcDbEntity
  8
0
100
AcDbBlockEnd
  0
BLOCK
  5
5D2
330
5C8
100
AcDbEntity
  8
0
100
AcDbBlockBegin
  2
*D8
 70
     1
 10
0.0
 20
0.0
 30
0.0
  3
*D8
  1

  0
LINE
  5
5C9
330
5C8
100
AcDbEntity
  8
AM_5
 62
     3
370
    -2
100
AcDbLine
 10
1448.519168993355
 20
1105.317631320204
 30
0.0
 11
1590.069398873354
 21
1105.317631320203
 31
0.0
  0
LINE
  5
5CA
330
5C8
100
AcDbEntity
  8
AM_5
 62
     3
370
    -2
100
AcDbLine
 10
1470.069397873354
 20
875.3176313202038
 30
0.0
 11
1590.069398873354
 21
875.3176313202038
 31
0.0
  0
LINE
  5
5CB
330
5C8
100
AcDbEntity
  8
AM_5
 62
     3
370
    -2
100
AcDbLine
 10
1580.069398873354
 20
1080.317631320204
 30
0.0
 11
1580.069398873354
 21
900.3176313202038
 31
0.0
  0
SOLID
  5
5CC
330
5C8
100
AcDbEntity
  8
AM_5
 62
     3
100
AcDbTrace
 10
1575.902732206687
 20
1080.317631320204
 30
0.0
 11
1584.236065540021
 21
1080.317631320204
 31
0.0
 12
1580.069398873354
 22
1105.317631320203
 32
0.0
 13
1580.069398873354
 23
1105.317631320203
 33
0.0
  0
SOLID
  5
5CD
330
5C8
100
AcDbEntity
  8
AM_5
 62
     3
100
AcDbTrace
 10
1575.902732206687
 20
900.3176313202038
 30
0.0
 11
1584.236065540021
 21
900.3176313202038
 31
0.0
 12
1580.069398873354
 22
875.3176313202038
 32
0.0
 13
1580.069398873354
 23
875.3176313202038
 33
0.0
  0
MTEXT
  5
5CE
330
5C8
100
AcDbEntity
  8
AM_5
 62
     2
100
AcDbMText
 10
1556.565953991464
 20
990.317631320204
 30
0.0
 40
35.0
 41
0.0
 71
     5
 72
     1
  1
230
 11
0.0000000000000001
 21
1.0
 31
0.0
 73
     1
 44
1.0
1001
ACAD
1000
MTEXTBEGIN
1070
    73
1070
     1
1070
    44
1040
1.0
1070
    74
1070
     0
1000
MTEXTEND
  0
POINT
  5
5CF
330
5C8
100
AcDbEntity
  8
DEFPOINTS
 62
     0
100
AcDbPoint
 10
1438.519168993355
 20
1105.317631320204
 30
0.0
  0
POINT
  5
5D0
330
5C8
100
AcDbEntity
  8
DEFPOINTS
 62
     0
100
AcDbPoint
 10
1460.069397873354
 20
875.3176313202038
 30
0.0
  0
POINT
  5
5D1
330
5C8
100
AcDbEntity
  8
DEFPOINTS
 62
     0
100
AcDbPoint
 10
1580.069398873354
 20
875.3176313202038
 30
0.0
  0
ENDBLK
  5
5D3
330
5C8
100
AcDbEntity
  8
0
100
AcDbBlockEnd
  0
BLOCK
  5
5E8
330
5DD
100
AcDbEntity
  8
0
100
AcDbBlockBegin
  2
*D9
 70
     1
 10
0.0
 20
0.0
 30
0.0
  3
*D9
  1

  0
LINE
  5
5DE
330
5DD
100
AcDbEntity
  8
AM_5
 62
     3
370
    -2
100
AcDbLine
 10
1383.969397873354
 20
865.3176313202038
 30
0.0
 11
1383.969397873354
 21
793.989249005087
 31
0.0
  0
LINE
  5
5DF
330
5DD
100
AcDbEntity
  8
AM_5
 62
     3
370
    -2
100
AcDbLine
 10
1460.069397873354
 20
865.3176313202038
 30
0.0
 11
1460.069397873354
 21
793.989249005087
 31
0.0
  0
LINE
  5
5E0
330
5DD
100
AcDbEntity
  8
AM_5
 62
     3
370
    -2
100
AcDbLine
 10
1408.969397873354
 20
803.9892490050871
 30
0.0
 11
1435.069397873354
 21
803.9892490050871
 31
0.0
  0
LINE
  5
5E1
330
5DD
100
AcDbEntity
  8
AM_5
 62
     3
370
    -2
100
AcDbLine
 10
1460.069397873354
 20
803.9892490050871
 30
0.0
 11
1595.069397873354
 21
803.9892490050871
 31
0.0
  0
SOLID
  5
5E2
330
5DD
100
AcDbEntity
  8
AM_5
 62
     3
100
AcDbTrace
 10
1408.969397873354
 20
808.1559156717537
 30
0.0
 11
1408.969397873354
 21
799.8225823384204
 31
0.0
 12
1383.969397873354
 22
803.9892490050871
 32
0.0
 13
1383.969397873354
 23
803.9892490050871
 33
0.0
  0
SOLID
  5
5E3
330
5DD
100
AcDbEntity
  8
AM_5
 62
     3
100
AcDbTrace
 10
1435.069397873354
 20
808.1559156717537
 30
0.0
 11
1435.069397873354
 21
799.8225823384204
 31
0.0
 12
1460.069397873354
 22
803.9892490050871
 32
0.0
 13
1460.069397873354
 23
803.9892490050871
 33
0.0
  0
MTEXT
  5
5E4
330
5DD
100
AcDbEntity
  8
AM_5
 62
     2
100
AcDbMText
 10
1540.069397873354
 20
827.489249005087
 30
0.0
 40
35.0
 41
0.0
 71
     5
 72
     1
  1
%%c76.1
 73
     1
 44
1.0
1001
ACAD
1000
MTEXTBEGIN
1070
    73
1070
     1
1070
    44
1040
1.0
1070
    74
1070
     0
1000
MTEXTEND
  0
POINT
  5
5E5
330
5DD
100
AcDbEntity
  8
DEFPOINTS
 62
     0
100
AcDbPoint
 10
1383.969397873354
 20
875.3176313202038
 30
0.0
  0
POINT
  5
5E6
330
5DD
100
AcDbEntity
  8
DEFPOINTS
 62
     0
100
AcDbPoint
 10
1460.069397873354
 20
875.3176313202038
 30
0.0
  0
POINT
  5
5E7
330
5DD
100
AcDbEntity
  8
DEFPOINTS
 62
     0
100
AcDbPoint
 10
1460.069397873354
 20
803.9892490050871
 30
0.0
  0
ENDBLK
  5
5E9
330
5DD
100
AcDbEntity
  8
0
100
AcDbBlockEnd
  0
ENDSEC
  0
SECTION
  2
ENTITIES
  0
LINE
  5
484
330
1F
100
AcDbEntity
  8
0N
100
AcDbLine
 10
1384.519397873353
 20
943.4214521202029
 30
0.0
 11
1459.519428393352
 21
943.4214521202029
 31
0.0
  0
LINE
  5
485
330
1F
100
AcDbEntity
  8
1
  6
AUSGEZOGEN
 62
     7
100
AcDbLine
 10
1383.969397873354
 20
943.4214521202029
 30
0.0
 11
1383.969397873354
 21
1013.423649390202
 31
0.0
  0
LINE
  5
486
330
1F
100
AcDbEntity
  8
1
  6
AUSGEZOGEN
 62
     7
100
AcDbLine
 10
1460.069397873354
 20
943.4214521202029
 30
0.0
 11
1460.069397873354
 21
1013.422916960204
 31
0.0
  0
LINE
  5
487
330
1F
100
AcDbEntity
  8
BILD
  6
AUSGEZOGEN
 62
     7
100
AcDbLine
 10
1457.071350993355
 20
943.4214521202029
 30
0.0
 11
1457.071350993355
 21
1013.422428680203
 31
0.0
  0
LINE
  5
488
330
1F
100
AcDbEntity
  8
BILD
  6
AUSGEZOGEN
 62
     7
100
AcDbLine
 10
1386.967444743352
 20
943.4214521202029
 30
0.0
 11
1386.967444743352
 21
1013.422428680203
 31
0.0
  0
LINE
  5
489
330
1F
100
AcDbEntity
  8
BILD
  6
AUSGEZOGEN
 62
     7
100
AcDbLine
 10
1460.069397873354
 20
943.4214521202029
 30
0.0
 11
1383.969397873354
 21
943.4214521202029
 31
0.0
  0
LINE
  5
48A
330
1F
100
AcDbEntity
  8
HAHN
  6
AUSGEZOGEN
 62
     7
100
AcDbLine
 10
1376.240848673354
 20
1190.983158660203
 30
0.0
 11
1376.240848673354
 21
1107.062565400203
 31
0.0
  0
LINE
  5
48B
330
1F
100
AcDbEntity
  8
HAHN
  6
AUSGEZOGEN
 62
     7
100
AcDbLine
 10
1382.483280323354
 20
1107.062809540202
 30
0.0
 11
1382.483280323354
 21
1190.983097630204
 31
0.0
  0
POLYLINE
  5
48C
330
1F
100
AcDbEntity
  8
HAHN
  6
AUSGEZOGEN
 62
     7
100
AcDb2dPolyline
 66
     1
 10
0.0
 20
0.0
 30
0.0
  0
VERTEX
  5
48D
330
48C
100
AcDbEntity
  8
HAHN
  6
AUSGEZOGEN
 62
     7
100
AcDbVertex
100
AcDb2dVertex
 10
1382.786762373354
 20
1071.908024390202
 30
0.0
 42
0.07317886
 70
     2
 50
247.43267822
  0
VERTEX
  5
48E
330
48C
100
AcDbEntity
  8
HAHN
  6
AUSGEZOGEN
 62
     7
100
AcDbVertex
100
AcDb2dVertex
 10
1382.116626873353
 20
1067.317265110203
 30
0.0
 42
0.07317256
 70
     2
 50
270.0
  0
VERTEX
  5
48F
330
48C
100
AcDbEntity
  8
HAHN
  6
AUSGEZOGEN
 62
     7
100
AcDbVertex
100
AcDb2dVertex
 10
1382.786655563355
 20
1062.726872040202
 30
0.0
 50
270.0
  0
SEQEND
  5
490
330
48C
100
AcDbEntity
  8
HAHN
 62
     7
  0
LINE
  5
491
330
1F
100
AcDbEntity
  8
HAHN
  6
AUSGEZOGEN
 62
     7
100
AcDbLine
 10
1382.116581103352
 20
1074.122440890203
 30
0.0
 11
1382.116581103352
 21
1060.512699680203
 31
0.0
  0
POLYLINE
  5
492
330
1F
100
AcDbEntity
  8
HAHN
  6
AUSGEZOGEN
 62
     7
100
AcDb2dPolyline
 66
     1
 10
0.0
 20
0.0
 30
0.0
  0
VERTEX
  5
493
330
492
100
AcDbEntity
  8
HAHN
  6
AUSGEZOGEN
 62
     7
100
AcDbVertex
100
AcDb2dVertex
 10
1386.648655073352
 20
1062.726872040202
 30
0.0
 42
0.07317273
 70
     2
 50
67.43447876000001
  0
VERTEX
  5
494
330
492
100
AcDbEntity
  8
HAHN
  6
AUSGEZOGEN
 62
     7
100
AcDbVertex
100
AcDb2dVertex
 10
1387.318683763354
 20
1067.317265110203
 30
0.0
 42
0.07317872
 70
     2
 50
90.0
  0
VERTEX
  5
495
330
492
100
AcDbEntity
  8
HAHN
  6
AUSGEZOGEN
 62
     7
100
AcDbVertex
100
AcDb2dVertex
 10
1386.648548263353
 20
1071.908024390202
 30
0.0
 50
90.0
  0
SEQEND
  5
496
330
492
100
AcDbEntity
  8
HAHN
 62
     7
  0
LINE
  5
497
330
1F
100
AcDbEntity
  8
HAHN
  6
AUSGEZOGEN
 62
     7
100
AcDbLine
 10
1387.318851603354
 20
1074.122440890203
 30
0.0
 11
1387.318851603354
 21
1060.512699680203
 31
0.0
  0
POLYLINE
  5
498
330
1F
100
AcDbEntity
  8
HAHN
  6
AUSGEZOGEN
 62
     7
100
AcDb2dPolyline
 66
     1
 10
0.0
 20
0.0
 30
0.0
  0
VERTEX
  5
499
330
498
100
AcDbEntity
  8
HAHN
  6
AUSGEZOGEN
 62
     7
100
AcDbVertex
100
AcDb2dVertex
 10
1394.971775193356
 20
1062.312260230203
 30
0.0
 42
0.07317273
 70
     2
 50
67.43447876000001
  0
VERTEX
  5
49A
330
498
100
AcDbEntity
  8
HAHN
  6
AUSGEZOGEN
 62
     7
100
AcDbVertex
100
AcDb2dVertex
 10
1395.641803873353
 20
1066.902653290202
 30
0.0
 42
0.07317872
 70
     2
 50
90.0
  0
VERTEX
  5
49B
330
498
100
AcDbEntity
  8
HAHN
  6
AUSGEZOGEN
 62
     7
100
AcDbVertex
100
AcDb2dVertex
 10
1394.971668383353
 20
1071.493412570204
 30
0.0
 50
90.0
  0
SEQEND
  5
49C
330
498
100
AcDbEntity
  8
HAHN
 62
     7
  0
POLYLINE
  5
49D
330
1F
100
AcDbEntity
  8
HAHN
  6
AUSGEZOGEN
 62
     7
100
AcDb2dPolyline
 66
     1
 10
0.0
 20
0.0
 30
0.0
  0
VERTEX
  5
49E
330
49D
100
AcDbEntity
  8
HAHN
  6
AUSGEZOGEN
 62
     7
100
AcDbVertex
100
AcDb2dVertex
 10
1391.110126633352
 20
1071.493412570204
 30
0.0
 42
0.07317886
 70
     2
 50
247.43267822
  0
VERTEX
  5
49F
330
49D
100
AcDbEntity
  8
HAHN
  6
AUSGEZOGEN
 62
     7
100
AcDbVertex
100
AcDb2dVertex
 10
1390.439991133352
 20
1066.902653290202
 30
0.0
 42
0.07317256
 70
     2
 50
270.0
  0
VERTEX
  5
4A0
330
49D
100
AcDbEntity
  8
HAHN
  6
AUSGEZOGEN
 62
     7
100
AcDbVertex
100
AcDb2dVertex
 10
1391.110019823353
 20
1062.312260230203
 30
0.0
 50
270.0
  0
SEQEND
  5
4A1
330
49D
100
AcDbEntity
  8
HAHN
 62
     7
  0
LINE
  5
4A2
330
1F
100
AcDbEntity
  8
HAHN
  6
AUSGEZOGEN
 62
     7
100
AcDbLine
 10
1395.642215863353
 20
1073.707829070203
 30
0.0
 11
1395.642215863353
 21
1060.098148900202
 31
0.0
  0
LINE
  5
4A3
330
1F
100
AcDbEntity
  8
HAHN
  6
AUSGEZOGEN
 62
     7
100
AcDbLine
 10
1390.439945353354
 20
1073.707829070203
 30
0.0
 11
1390.439945353354
 21
1060.098148900202
 31
0.0
  0
LINE
  5
4A4
330
1F
100
AcDbEntity
  8
HAHN
  6
AUSGEZOGEN
 62
     7
100
AcDbLine
 10
1387.318851603354
 20
1055.887882780203
 30
0.0
 11
1387.318851603354
 21
1067.317570280204
 31
0.0
  0
LINE
  5
4A5
330
1F
100
AcDbEntity
  8
HAHN
  6
AUSGEZOGEN
 62
     7
100
AcDbLine
 10
1390.439823283355
 20
1067.732121070203
 30
0.0
 11
1390.439823283355
 21
1055.888126930204
 31
0.0
  0
LINE
  5
4A6
330
1F
100
AcDbEntity
  8
HAHN
  6
AUSGEZOGEN
 62
     7
100
AcDbLine
 10
1440.954960003352
 20
1059.722538550202
 30
0.0
 11
1440.955448283354
 21
1074.912479950202
 31
0.0
  0
LINE
  5
4A7
330
1F
100
AcDbEntity
  8
HAHN
  6
AUSGEZOGEN
 62
     7
100
AcDbLine
 10
1395.642215863353
 20
1058.733402800204
 30
0.0
 11
1395.642215863353
 21
1075.901737760203
 31
0.0
  0
ARC
  5
4A8
330
1F
100
AcDbEntity
  8
AM_4
100
AcDbCircle
 10
1371.249393603352
 20
1067.317326140202
 30
0.0
 40
34.21172714
100
AcDbArc
 50
344.4724121099982
 51
15.63452147996416
  0
LINE
  5
4A9
330
1F
100
AcDbEntity
  8
BILD
  6
AUSGEZOGEN
 62
     7
100
AcDbLine
 10
1389.975257243352
 20
1016.423405250203
 30
0.0
 11
1454.073304123354
 21
1016.423405250203
 31
0.0
  0
LINE
  5
4AA
330
1F
100
AcDbEntity
  8
BILD
  6
AUSGEZOGEN
 62
     7
100
AcDbLine
 10
1389.975257243352
 20
1019.421452120203
 30
0.0
 11
1454.073304123354
 21
1019.421452120203
 31
0.0
  0
LINE
  5
4AB
330
1F
100
AcDbEntity
  8
1
  6
AUSGEZOGEN
 62
     7
100
AcDbLine
 10
1404.519413133354
 20
994.4214521202029
 30
0.0
 11
1404.519413133354
 21
1009.421452120203
 31
0.0
  0
LINE
  5
4AC
330
1F
100
AcDbEntity
  8
1
  6
AUSGEZOGEN
 62
     7
100
AcDbLine
 10
1439.519382613353
 20
994.4214521202029
 30
0.0
 11
1439.519382613353
 21
1009.421452120203
 31
0.0
  0
LINE
  5
4AD
330
1F
100
AcDbEntity
  8
1
  6
AUSGEZOGEN
 62
     7
100
AcDbLine
 10
1439.519382613353
 20
994.4214521202029
 30
0.0
 11
1404.519413133354
 21
994.4214521202029
 31
0.0
  0
LINE
  5
4AE
330
1F
100
AcDbEntity
  8
BILD
  6
AUSGEZOGEN
 62
     7
100
AcDbLine
 10
1436.019413133355
 20
978.4068036802036
 30
0.0
 11
1408.019413133354
 21
978.4068036802036
 31
0.0
  0
LINE
  5
4AF
330
1F
100
AcDbEntity
  8
BILD
  6
AUSGEZOGEN
 62
     7
100
AcDbLine
 10
1408.019413133354
 20
989.4068036802037
 30
0.0
 11
1436.019413133355
 21
989.4068036802037
 31
0.0
  0
LINE
  5
4B0
330
1F
100
AcDbEntity
  8
BILD
  6
AUSGEZOGEN
 62
     7
100
AcDbLine
 10
1408.769413133355
 20
989.4068036802037
 30
0.0
 11
1408.769413133355
 21
994.4214521202029
 31
0.0
  0
LINE
  5
4B1
330
1F
100
AcDbEntity
  8
AM_4
100
AcDbLine
 10
1409.519413133354
 20
989.4068036802037
 30
0.0
 11
1409.519413133354
 21
994.4214521202029
 31
0.0
  0
LINE
  5
4B2
330
1F
100
AcDbEntity
  8
BILD
  6
AUSGEZOGEN
 62
     7
100
AcDbLine
 10
1408.019413133354
 20
978.4068036802036
 30
0.0
 11
1408.019413133354
 21
989.4068036802037
 31
0.0
  0
LINE
  5
4B3
330
1F
100
AcDbEntity
  8
BILD
  6
AUSGEZOGEN
 62
     7
100
AcDbLine
 10
1435.269413133354
 20
989.4068036802037
 30
0.0
 11
1435.269413133354
 21
994.4214521202029
 31
0.0
  0
LINE
  5
4B4
330
1F
100
AcDbEntity
  8
AM_4
100
AcDbLine
 10
1434.519413133354
 20
989.4068036802037
 30
0.0
 11
1434.519413133354
 21
994.4214521202029
 31
0.0
  0
LINE
  5
4B5
330
1F
100
AcDbEntity
  8
BILD
  6
AUSGEZOGEN
 62
     7
100
AcDbLine
 10
1436.019413133355
 20
989.4068036802037
 30
0.0
 11
1436.019413133355
 21
978.4068036802036
 31
0.0
  0
LINE
  5
4B6
330
1F
100
AcDbEntity
  8
BEH
  6
AUSGEZOGEN
 62
     7
100
AcDbLine
 10
1438.519168993355
 20
1029.317631320204
 30
0.0
 11
1405.519413133355
 21
1029.317631320204
 31
0.0
  0
POLYLINE
  5
4B7
330
1F
100
AcDbEntity
  8
BEH
  6
AUSGEZOGEN
 62
     7
100
AcDb2dPolyline
 66
     1
 10
0.0
 20
0.0
 30
0.0
  0
VERTEX
  5
4B8
330
4B7
100
AcDbEntity
  8
BEH
  6
AUSGEZOGEN
 62
     7
100
AcDbVertex
100
AcDb2dVertex
 10
1413.394413133354
 20
1049.067265110203
 30
0.0
 42
0.08801567
 70
     2
 50
113.29824829
  0
VERTEX
  5
4B9
330
4B7
100
AcDbEntity
  8
BEH
  6
AUSGEZOGEN
 62
     7
100
AcDbVertex
100
AcDb2dVertex
 10
1412.540500773352
 20
1050.161808570203
 30
0.0
 42
0.09450925
 70
     2
 50
135.0
  0
VERTEX
  5
4BA
330
4B7
100
AcDbEntity
  8
BEH
  6
AUSGEZOGEN
 62
     7
100
AcDbVertex
100
AcDb2dVertex
 10
1411.126178873353
 20
1051.017033180204
 30
0.0
 42
0.08990236
 70
     2
 50
157.5
  0
VERTEX
  5
4BB
330
4B7
100
AcDbEntity
  8
BEH
  6
AUSGEZOGEN
 62
     7
100
AcDbVertex
100
AcDb2dVertex
 10
1409.457889693352
 20
1051.317326140202
 30
0.0
 42
0.08990249
 70
     2
 50
180.0
  0
VERTEX
  5
4BC
330
4B7
100
AcDbEntity
  8
BEH
  6
AUSGEZOGEN
 62
     7
100
AcDbVertex
100
AcDb2dVertex
 10
1407.789585253354
 20
1051.017033180204
 30
0.0
 42
0.09450918
 70
     2
 50
202.5
  0
VERTEX
  5
4BD
330
4B7
100
AcDbEntity
  8
BEH
  6
AUSGEZOGEN
 62
     7
100
AcDbVertex
100
AcDb2dVertex
 10
1406.375278613355
 20
1050.161808570203
 30
0.0
 42
0.088016
 70
     2
 50
225.0
  0
VERTEX
  5
4BE
330
4B7
100
AcDbEntity
  8
BEH
  6
AUSGEZOGEN
 62
     7
100
AcDbVertex
100
AcDb2dVertex
 10
1405.521366253352
 20
1049.067265110203
 30
0.0
 50
225.0
  0
SEQEND
  5
4BF
330
4B7
100
AcDbEntity
  8
BEH
 62
     7
  0
LINE
  5
4C0
330
1F
100
AcDbEntity
  8
HAHN
  6
AUSGEZOGEN
 62
     7
100
AcDbLine
 10
1408.989383833354
 20
1053.315739230203
 30
0.0
 11
1403.999027393354
 21
1057.422733860203
 31
0.0
  0
LINE
  5
4C1
330
1F
100
AcDbEntity
  8
1
  6
AUSGEZOGEN
 62
     7
100
AcDbLine
 10
1439.519382613353
 20
1009.421452120203
 30
0.0
 11
1404.519413133354
 21
1009.421452120203
 31
0.0
  0
LINE
  5
4C2
330
1F
100
AcDbEntity
  8
BEH
  6
AUSGEZOGEN
 62
     7
100
AcDbLine
 10
1405.519413133355
 20
1029.317631320204
 30
0.0
 11
1405.519413133355
 21
1049.070316870204
 31
0.0
  0
ARC
  5
4C3
330
1F
100
AcDbEntity
  8
BILD
  6
AUSGEZOGEN
 62
     7
100
AcDbCircle
 10
1389.975226723354
 20
1013.422916960204
 30
0.0
 40
6.000000479999999
100
AcDbArc
 50
90.00003051990656
 51
180.0
  0
ARC
  5
4C4
330
1F
100
AcDbEntity
  8
BILD
  6
AUSGEZOGEN
 62
     7
100
AcDbCircle
 10
1389.975226723354
 20
1013.422916960204
 30
0.0
 40
3.000000239999999
100
AcDbArc
 50
90.00003051990656
 51
180.0
  0
LINE
  5
4C5
330
1F
100
AcDbEntity
  8
HAHN
  6
AUSGEZOGEN
 62
     7
100
AcDbLine
 10
1386.648929733353
 20
1062.726811010203
 30
0.0
 11
1382.786991253352
 21
1062.726811010203
 31
0.0
  0
LINE
  5
4C6
330
1F
100
AcDbEntity
  8
HAHN
  6
AUSGEZOGEN
 62
     7
100
AcDbLine
 10
1386.529667033354
 20
1058.136601050202
 30
0.0
 11
1382.906376023354
 21
1058.136601050202
 31
0.0
  0
POLYLINE
  5
4C7
330
1F
100
AcDbEntity
  8
HAHN
  6
AUSGEZOGEN
 62
     7
100
AcDb2dPolyline
 66
     1
 10
0.0
 20
0.0
 30
0.0
  0
VERTEX
  5
4C8
330
4C7
100
AcDbEntity
  8
HAHN
  6
AUSGEZOGEN
 62
     7
100
AcDbVertex
100
AcDb2dVertex
 10
1382.786823413356
 20
1062.726566870204
 30
0.0
 42
0.06685259
 70
     2
 50
226.25695801
  0
VERTEX
  5
4C9
330
4C7
100
AcDbEntity
  8
HAHN
  6
AUSGEZOGEN
 62
     7
100
AcDbVertex
100
AcDb2dVertex
 10
1382.344013353354
 20
1061.854374480202
 30
0.0
 42
0.08490545
 70
     2
 50
247.5
  0
VERTEX
  5
4CA
330
4C7
100
AcDbEntity
  8
HAHN
  6
AUSGEZOGEN
 62
     7
100
AcDbVertex
100
AcDb2dVertex
 10
1382.116916793354
 20
1060.512394500203
 30
0.0
 42
0.08490552
 70
     2
 50
270.0
  0
VERTEX
  5
4CB
330
4C7
100
AcDbEntity
  8
HAHN
  6
AUSGEZOGEN
 62
     7
100
AcDbVertex
100
AcDb2dVertex
 10
1382.344013353354
 20
1059.170414520204
 30
0.0
 42
0.08167321
 70
     2
 50
292.5
  0
VERTEX
  5
4CC
330
4C7
100
AcDbEntity
  8
HAHN
  6
AUSGEZOGEN
 62
     7
100
AcDbVertex
100
AcDb2dVertex
 10
1382.906147143351
 20
1058.136326390204
 30
0.0
 50
292.5
  0
SEQEND
  5
4CD
330
4C7
100
AcDbEntity
  8
HAHN
 62
     7
  0
POLYLINE
  5
4CE
330
1F
100
AcDbEntity
  8
HAHN
  6
AUSGEZOGEN
 62
     7
100
AcDb2dPolyline
 66
     1
 10
0.0
 20
0.0
 30
0.0
  0
VERTEX
  5
4CF
330
4CE
100
AcDbEntity
  8
HAHN
  6
AUSGEZOGEN
 62
     7
100
AcDbVertex
100
AcDb2dVertex
 10
1394.853046553354
 20
1057.721226290203
 30
0.0
 42
0.08161401
 70
     2
 50
42.73507689999999
  0
VERTEX
  5
4D0
330
4CE
100
AcDbEntity
  8
HAHN
  6
AUSGEZOGEN
 62
     7
100
AcDbVertex
100
AcDb2dVertex
 10
1395.414829393353
 20
1058.754948210204
 30
0.0
 42
0.08490556
 70
     2
 50
67.5
  0
VERTEX
  5
4D1
330
4CE
100
AcDbEntity
  8
HAHN
  6
AUSGEZOGEN
 62
     7
100
AcDbVertex
100
AcDb2dVertex
 10
1395.641986983354
 20
1060.097233370203
 30
0.0
 42
0.08490556
 70
     2
 50
90.0
  0
VERTEX
  5
4D2
330
4CE
100
AcDbEntity
  8
HAHN
  6
AUSGEZOGEN
 62
     7
100
AcDbVertex
100
AcDb2dVertex
 10
1395.414829393353
 20
1061.439549040204
 30
0.0
 42
0.06685821
 70
     2
 50
112.5
  0
VERTEX
  5
4D3
330
4CE
100
AcDbEntity
  8
HAHN
  6
AUSGEZOGEN
 62
     7
100
AcDbVertex
100
AcDb2dVertex
 10
1394.971866743354
 20
1062.311985570202
 30
0.0
 50
112.5
  0
SEQEND
  5
4D4
330
4CE
100
AcDbEntity
  8
HAHN
 62
     7
  0
POLYLINE
  5
4D5
330
1F
100
AcDbEntity
  8
HAHN
  6
AUSGEZOGEN
 62
     7
100
AcDb2dPolyline
 66
     1
 10
0.0
 20
0.0
 30
0.0
  0
VERTEX
  5
4D6
330
4D5
100
AcDbEntity
  8
HAHN
  6
AUSGEZOGEN
 62
     7
100
AcDbVertex
100
AcDb2dVertex
 10
1386.530048503354
 20
1058.135532930204
 30
0.0
 42
0.08161401
 70
     2
 50
42.73507689999999
  0
VERTEX
  5
4D7
330
4D5
100
AcDbEntity
  8
HAHN
  6
AUSGEZOGEN
 62
     7
100
AcDbVertex
100
AcDb2dVertex
 10
1387.091831343353
 20
1059.169254850203
 30
0.0
 42
0.08490556
 70
     2
 50
67.5
  0
VERTEX
  5
4D8
330
4D5
100
AcDbEntity
  8
HAHN
  6
AUSGEZOGEN
 62
     7
100
AcDbVertex
100
AcDb2dVertex
 10
1387.318988933354
 20
1060.511540010204
 30
0.0
 42
0.08490556
 70
     2
 50
90.0
  0
VERTEX
  5
4D9
330
4D5
100
AcDbEntity
  8
HAHN
  6
AUSGEZOGEN
 62
     7
100
AcDbVertex
100
AcDb2dVertex
 10
1387.091831343353
 20
1061.853855680203
 30
0.0
 42
0.06685821
 70
     2
 50
112.5
  0
VERTEX
  5
4DA
330
4D5
100
AcDbEntity
  8
HAHN
  6
AUSGEZOGEN
 62
     7
100
AcDbVertex
100
AcDb2dVertex
 10
1386.648868693354
 20
1062.726292210203
 30
0.0
 50
112.5
  0
SEQEND
  5
4DB
330
4D5
100
AcDbEntity
  8
HAHN
 62
     7
  0
POLYLINE
  5
4DC
330
1F
100
AcDbEntity
  8
HAHN
  6
AUSGEZOGEN
 62
     7
100
AcDb2dPolyline
 66
     1
 10
0.0
 20
0.0
 30
0.0
  0
VERTEX
  5
4DD
330
4DC
100
AcDbEntity
  8
HAHN
  6
AUSGEZOGEN
 62
     7
100
AcDbVertex
100
AcDb2dVertex
 10
1391.109821453355
 20
1062.311955050203
 30
0.0
 42
0.06685259
 70
     2
 50
226.25695801
  0
VERTEX
  5
4DE
330
4DC
100
AcDbEntity
  8
HAHN
  6
AUSGEZOGEN
 62
     7
100
AcDbVertex
100
AcDb2dVertex
 10
1390.667011393353
 20
1061.439762670203
 30
0.0
 42
0.08490545
 70
     2
 50
247.5
  0
VERTEX
  5
4DF
330
4DC
100
AcDbEntity
  8
HAHN
  6
AUSGEZOGEN
 62
     7
100
AcDbVertex
100
AcDb2dVertex
 10
1390.439914843354
 20
1060.097782690203
 30
0.0
 42
0.08490552
 70
     2
 50
270.0
  0
VERTEX
  5
4E0
330
4DC
100
AcDbEntity
  8
HAHN
  6
AUSGEZOGEN
 62
     7
100
AcDbVertex
100
AcDb2dVertex
 10
1390.667011393353
 20
1058.755802710204
 30
0.0
 42
0.08167321
 70
     2
 50
292.5
  0
VERTEX
  5
4E1
330
4DC
100
AcDbEntity
  8
HAHN
  6
AUSGEZOGEN
 62
     7
100
AcDbVertex
100
AcDb2dVertex
 10
1391.229145183354
 20
1057.721714570203
 30
0.0
 50
292.5
  0
SEQEND
  5
4E2
330
4DC
100
AcDbEntity
  8
HAHN
 62
     7
  0
LINE
  5
4E3
330
1F
100
AcDbEntity
  8
HAHN
  6
AUSGEZOGEN
 62
     7
100
AcDbLine
 10
1394.972293993355
 20
1062.312504370204
 30
0.0
 11
1391.110111373352
 21
1062.312504370204
 31
0.0
  0
LINE
  5
4E4
330
1F
100
AcDbEntity
  8
HAHN
  6
AUSGEZOGEN
 62
     7
100
AcDbLine
 10
1394.852909223354
 20
1057.721928190203
 30
0.0
 11
1391.229740283353
 21
1057.721928190203
 31
0.0
  0
LINE
  5
4E5
330
1F
100
AcDbEntity
  8
HAHN
  6
AUSGEZOGEN
 62
     7
100
AcDbLine
 10
1394.350467823354
 20
1051.607548310203
 30
0.0
 11
1394.350467823354
 21
1055.276127410203
 31
0.0
  0
POLYLINE
  5
4E6
330
1F
100
AcDbEntity
  8
HAHN
  6
AUSGEZOGEN
 62
     7
100
AcDb2dPolyline
 66
     1
 10
0.0
 20
0.0
 30
0.0
  0
VERTEX
  5
4E7
330
4E6
100
AcDbEntity
  8
HAHN
  6
AUSGEZOGEN
 62
     7
100
AcDbVertex
100
AcDb2dVertex
 10
1390.440113203352
 20
1055.887577610203
 30
0.0
 42
0.08490539
 70
     2
 50
270.0
  0
VERTEX
  5
4E8
330
4E6
100
AcDbEntity
  8
HAHN
  6
AUSGEZOGEN
 62
     7
100
AcDbVertex
100
AcDb2dVertex
 10
1390.479725023352
 20
1055.653568820204
 30
0.0
 42
0.09178853
 70
     2
 50
292.5
  0
VERTEX
  5
4E9
330
4E6
100
AcDbEntity
  8
HAHN
  6
AUSGEZOGEN
 62
     7
100
AcDbVertex
100
AcDb2dVertex
 10
1390.592487473353
 20
1055.455204560203
 30
0.0
 42
0.10355989
 70
     2
 50
315.0
  0
VERTEX
  5
4EA
330
4E6
100
AcDbEntity
  8
HAHN
  6
AUSGEZOGEN
 62
     7
100
AcDbVertex
100
AcDb2dVertex
 10
1390.761249683352
 20
1055.322666720203
 30
0.0
 42
0.11375958
 70
     2
 50
337.5
  0
VERTEX
  5
4EB
330
4E6
100
AcDbEntity
  8
HAHN
  6
AUSGEZOGEN
 62
     7
100
AcDbVertex
100
AcDb2dVertex
 10
1390.960331103352
 20
1055.276127410203
 30
0.0
 50
337.5
  0
SEQEND
  5
4EC
330
4E6
100
AcDbEntity
  8
HAHN
 62
     7
  0
POLYLINE
  5
4ED
330
1F
100
AcDbEntity
  8
HAHN
  6
AUSGEZOGEN
 62
     7
100
AcDb2dPolyline
 66
     1
 10
0.0
 20
0.0
 30
0.0
  0
VERTEX
  5
4EE
330
4ED
100
AcDbEntity
  8
HAHN
  6
AUSGEZOGEN
 62
     7
100
AcDbVertex
100
AcDb2dVertex
 10
1387.318851603354
 20
1055.887577610203
 30
0.0
 42
0.08490552
 70
     2
 50
270.0
  0
VERTEX
  5
4EF
330
4ED
100
AcDbEntity
  8
HAHN
  6
AUSGEZOGEN
 62
     7
100
AcDbVertex
100
AcDb2dVertex
 10
1387.596042773354
 20
1054.249607640204
 30
0.0
 42
0.09178853
 70
     2
 50
292.5
  0
VERTEX
  5
4F0
330
4ED
100
AcDbEntity
  8
HAHN
  6
AUSGEZOGEN
 62
     7
100
AcDbVertex
100
AcDb2dVertex
 10
1388.385410443355
 20
1052.860996800204
 30
0.0
 42
0.10355989
 70
     2
 50
315.0
  0
VERTEX
  5
4F1
330
4ED
100
AcDbEntity
  8
HAHN
  6
AUSGEZOGEN
 62
     7
100
AcDbVertex
100
AcDb2dVertex
 10
1389.566791673354
 20
1051.933140350204
 30
0.0
 42
0.11375958
 70
     2
 50
337.5
  0
VERTEX
  5
4F2
330
4ED
100
AcDbEntity
  8
HAHN
  6
AUSGEZOGEN
 62
     7
100
AcDbVertex
100
AcDb2dVertex
 10
1390.960331103352
 20
1051.607334690203
 30
0.0
 50
337.5
  0
SEQEND
  5
4F3
330
4ED
100
AcDbEntity
  8
HAHN
 62
     7
  0
LINE
  5
4F4
330
1F
100
AcDbEntity
  8
HAHN
  6
AUSGEZOGEN
 62
     7
100
AcDbLine
 10
1394.350467823354
 20
1051.607548310203
 30
0.0
 11
1390.960086963353
 21
1051.607548310203
 31
0.0
  0
LINE
  5
4F5
330
1F
100
AcDbEntity
  8
HAHN
  6
AUSGEZOGEN
 62
     7
100
AcDbLine
 10
1390.960331103352
 20
1055.276127410203
 30
0.0
 11
1394.350711963353
 21
1055.276127410203
 31
0.0
  0
LINE
  5
4F6
330
1F
100
AcDbEntity
  8
HAHN
  6
AUSGEZOGEN
 62
     7
100
AcDbLine
 10
1395.642215863353
 20
1058.733402800204
 30
0.0
 11
1403.999027393354
 21
1057.422733860203
 31
0.0
  0
LINE
  5
4F7
330
1F
100
AcDbEntity
  8
BEH
  6
AUSGEZOGEN
 62
     7
100
AcDbLine
 10
1438.519168993355
 20
1029.317631320204
 30
0.0
 11
1438.519168993355
 21
1049.070316870204
 31
0.0
  0
LINE
  5
4F8
330
1F
100
AcDbEntity
  8
BEH
  6
AUSGEZOGEN
 62
     7
100
AcDbLine
 10
1413.396366253352
 20
1029.317631320204
 30
0.0
 11
1413.396366253352
 21
1049.070316870204
 31
0.0
  0
LINE
  5
4F9
330
1F
100
AcDbEntity
  8
BEH
  6
AUSGEZOGEN
 62
     7
100
AcDbLine
 10
1430.642460003352
 20
1029.317631320204
 30
0.0
 11
1430.642460003352
 21
1049.070316870204
 31
0.0
  0
LINE
  5
4FA
330
1F
100
AcDbEntity
  8
AM_4
100
AcDbLine
 10
1410.076053753352
 20
1029.317631320204
 30
0.0
 11
1410.076053753352
 21
1019.422672820203
 31
0.0
  0
LINE
  5
4FB
330
1F
100
AcDbEntity
  8
BILD
  6
AUSGEZOGEN
 62
     7
100
AcDbLine
 10
1408.572147503349
 20
1029.317631320203
 30
0.0
 11
1408.572147503352
 21
1019.421452120203
 31
0.0
  0
LINE
  5
4FC
330
1F
100
AcDbEntity
  8
BILD
  6
AUSGEZOGEN
 62
     7
100
AcDbLine
 10
1408.572147503352
 20
1016.423405250203
 30
0.0
 11
1408.572147503352
 21
1009.421452120203
 31
0.0
  0
LINE
  5
4FD
330
1F
100
AcDbEntity
  8
AM_4
100
AcDbLine
 10
1433.972507613357
 20
1029.317631320204
 30
0.0
 11
1433.972507613353
 21
1019.422672820203
 31
0.0
  0
LINE
  5
4FE
330
1F
100
AcDbEntity
  8
BILD
  6
AUSGEZOGEN
 62
     7
100
AcDbLine
 10
1435.466648233355
 20
1029.317631320203
 30
0.0
 11
1435.466648233355
 21
1019.421452120203
 31
0.0
  0
LINE
  5
4FF
330
1F
100
AcDbEntity
  8
BILD
  6
AUSGEZOGEN
 62
     7
100
AcDbLine
 10
1435.466648233355
 20
1016.423405250203
 30
0.0
 11
1435.466648233355
 21
1009.421452120203
 31
0.0
  0
LINE
  5
500
330
1F
100
AcDbEntity
  8
BEH
  6
AUSGEZOGEN
 62
     7
100
AcDbLine
 10
1434.206913133355
 20
1051.317631320204
 30
0.0
 11
1409.831913133355
 21
1051.317631320204
 31
0.0
  0
ARC
  5
501
330
1F
100
AcDbEntity
  8
BEH
  6
AUSGEZOGEN
 62
     7
100
AcDbCircle
 10
1422.019413133354
 20
1033.661137180203
 30
0.0
 40
17.65638733
100
AcDbArc
 50
60.75848388998412
 51
119.2415008499862
  0
LINE
  5
502
330
1F
100
AcDbEntity
  8
AM_4
100
AcDbLine
 10
1439.204105513351
 20
1059.207890110203
 30
0.0
 11
1409.066410203354
 21
1059.207890110203
 31
0.0
  0
POLYLINE
  5
503
330
1F
100
AcDbEntity
  8
BEH
  6
AUSGEZOGEN
 62
     7
100
AcDb2dPolyline
 66
     1
 10
0.0
 20
0.0
 30
0.0
  0
VERTEX
  5
504
330
503
100
AcDbEntity
  8
BEH
  6
AUSGEZOGEN
 62
     7
100
AcDbVertex
100
AcDb2dVertex
 10
1408.517414233355
 20
1051.218327120203
 30
0.0
 42
0.04591683
 70
     2
 50
38.74493408
  0
VERTEX
  5
505
330
503
100
AcDbEntity
  8
BEH
  6
AUSGEZOGEN
 62
     7
100
AcDbVertex
100
AcDb2dVertex
 10
1408.782367843355
 20
1051.401676730203
 30
0.0
 42
0.10388008
 70
     2
 50
45.0
  0
VERTEX
  5
506
330
503
100
AcDbEntity
  8
BEH
  6
AUSGEZOGEN
 62
     7
100
AcDbVertex
100
AcDb2dVertex
 10
1409.169773233355
 20
1051.888584690203
 30
0.0
 42
0.11505464
 70
     2
 50
67.5
  0
VERTEX
  5
507
330
503
100
AcDbEntity
  8
BEH
  6
AUSGEZOGEN
 62
     7
100
AcDbVertex
100
AcDb2dVertex
 10
1409.305805343355
 20
1052.462956030203
 30
0.0
 42
0.1150547
 70
     2
 50
90.0
  0
VERTEX
  5
508
330
503
100
AcDbEntity
  8
BEH
  6
AUSGEZOGEN
 62
     7
100
AcDbVertex
100
AcDb2dVertex
 10
1409.169773233355
 20
1053.037327360203
 30
0.0
 42
0.05749289
 70
     2
 50
112.5
  0
VERTEX
  5
509
330
503
100
AcDbEntity
  8
BEH
  6
AUSGEZOGEN
 62
     7
100
AcDbVertex
100
AcDb2dVertex
 10
1408.989490643353
 20
1053.315525610203
 30
0.0
 50
112.5
  0
SEQEND
  5
50A
330
503
100
AcDbEntity
  8
BEH
 62
     7
  0
POLYLINE
  5
50B
330
1F
100
AcDbEntity
  8
BEH
  6
AUSGEZOGEN
 62
     7
100
AcDb2dPolyline
 66
     1
 10
0.0
 20
0.0
 30
0.0
  0
VERTEX
  5
50C
330
50B
100
AcDbEntity
  8
BEH
  6
AUSGEZOGEN
 62
     7
100
AcDbVertex
100
AcDb2dVertex
 10
1438.517704143355
 20
1049.067265110203
 30
0.0
 42
0.08801587
 70
     2
 50
113.29821777
  0
VERTEX
  5
50D
330
50B
100
AcDbEntity
  8
BEH
  6
AUSGEZOGEN
 62
     7
100
AcDbVertex
100
AcDb2dVertex
 10
1437.663791793354
 20
1050.161808570203
 30
0.0
 42
0.09450925
 70
     2
 50
135.0
  0
VERTEX
  5
50E
330
50B
100
AcDbEntity
  8
BEH
  6
AUSGEZOGEN
 62
     7
100
AcDbVertex
100
AcDb2dVertex
 10
1436.249485153355
 20
1051.017033180204
 30
0.0
 42
0.08990236
 70
     2
 50
157.5
  0
VERTEX
  5
50F
330
50B
100
AcDbEntity
  8
BEH
  6
AUSGEZOGEN
 62
     7
100
AcDbVertex
100
AcDb2dVertex
 10
1434.581180713353
 20
1051.317326140202
 30
0.0
 42
0.08990249
 70
     2
 50
180.0
  0
VERTEX
  5
510
330
50B
100
AcDbEntity
  8
BEH
  6
AUSGEZOGEN
 62
     7
100
AcDbVertex
100
AcDb2dVertex
 10
1432.912876263354
 20
1051.017033180204
 30
0.0
 42
0.09450918
 70
     2
 50
202.5
  0
VERTEX
  5
511
330
50B
100
AcDbEntity
  8
BEH
  6
AUSGEZOGEN
 62
     7
100
AcDbVertex
100
AcDb2dVertex
 10
1431.498569623355
 20
1050.161808570203
 30
0.0
 42
0.088016
 70
     2
 50
225.0
  0
VERTEX
  5
512
330
50B
100
AcDbEntity
  8
BEH
  6
AUSGEZOGEN
 62
     7
100
AcDbVertex
100
AcDb2dVertex
 10
1430.644657273354
 20
1049.067265110203
 30
0.0
 50
225.0
  0
SEQEND
  5
513
330
50B
100
AcDbEntity
  8
BEH
 62
     7
  0
LINE
  5
514
330
1F
100
AcDbEntity
  8
HAHN
  6
AUSGEZOGEN
 62
     7
100
AcDbLine
 10
1435.049442423354
 20
1053.315739230203
 30
0.0
 11
1440.661869183353
 21
1058.651432590203
 31
0.0
  0
POLYLINE
  5
515
330
1F
100
AcDbEntity
  8
BEH
  6
AUSGEZOGEN
 62
     7
100
AcDb2dPolyline
 66
     1
 10
0.0
 20
0.0
 30
0.0
  0
VERTEX
  5
516
330
515
100
AcDbEntity
  8
BEH
  6
AUSGEZOGEN
 62
     7
100
AcDbVertex
100
AcDb2dVertex
 10
1435.049381393352
 20
1053.315495090203
 30
0.0
 42
0.05736805
 70
     2
 50
239.76953125
  0
VERTEX
  5
517
330
515
100
AcDbEntity
  8
BEH
  6
AUSGEZOGEN
 62
     7
100
AcDbVertex
100
AcDb2dVertex
 10
1434.870823043354
 20
1053.038487030204
 30
0.0
 42
0.1145247
 70
     2
 50
247.5
  0
VERTEX
  5
518
330
515
100
AcDbEntity
  8
BEH
  6
AUSGEZOGEN
 62
     7
100
AcDbVertex
100
AcDb2dVertex
 10
1434.736087933353
 20
1052.466618140202
 30
0.0
 42
0.1145247
 70
     2
 50
270.0
  0
VERTEX
  5
519
330
515
100
AcDbEntity
  8
BEH
  6
AUSGEZOGEN
 62
     7
100
AcDbVertex
100
AcDb2dVertex
 10
1434.870823043354
 20
1051.894749240204
 30
0.0
 42
0.10375096
 70
     2
 50
292.5
  0
VERTEX
  5
51A
330
515
100
AcDbEntity
  8
BEH
  6
AUSGEZOGEN
 62
     7
100
AcDbVertex
100
AcDb2dVertex
 10
1435.254520553352
 20
1051.409916480203
 30
0.0
 42
0.0460009
 70
     2
 50
315.0
  0
VERTEX
  5
51B
330
515
100
AcDbEntity
  8
BEH
  6
AUSGEZOGEN
 62
     7
100
AcDbVertex
100
AcDb2dVertex
 10
1435.516910693352
 20
1051.227360320203
 30
0.0
 50
315.0
  0
SEQEND
  5
51C
330
515
100
AcDbEntity
  8
BEH
 62
     7
  0
POLYLINE
  5
51D
330
1F
100
AcDbEntity
  8
HAHN
  6
AUSGEZOGEN
 62
     7
100
AcDb2dPolyline
 66
     1
 10
0.0
 20
0.0
 30
0.0
  0
VERTEX
  5
51E
330
51D
100
AcDbEntity
  8
HAHN
  6
AUSGEZOGEN
 62
     7
100
AcDbVertex
100
AcDb2dVertex
 10
1440.661350383353
 20
1058.651157930204
 30
0.0
 42
0.05263424
 70
     2
 50
49.78701782
  0
VERTEX
  5
51F
330
51D
100
AcDbEntity
  8
HAHN
  6
AUSGEZOGEN
 62
     7
100
AcDbVertex
100
AcDb2dVertex
 10
1440.836246623351
 20
1059.020298560203
 30
0.0
 42
0.08490552
 70
     2
 50
67.5
  0
VERTEX
  5
520
330
51D
100
AcDbEntity
  8
HAHN
  6
AUSGEZOGEN
 62
     7
100
AcDbVertex
100
AcDb2dVertex
 10
1440.955051563352
 20
1059.722294410203
 30
0.0
 70
     2
 50
90.0
  0
SEQEND
  5
521
330
51D
100
AcDbEntity
  8
HAHN
 62
     7
  0
ARC
  5
522
330
1F
100
AcDbEntity
  8
BILD
  6
AUSGEZOGEN
 62
     7
100
AcDbCircle
 10
1454.063538493355
 20
1013.422916960204
 30
0.0
 40
6.000000479999999
100
AcDbArc
 50
0.0
 51
90.00003051990656
  0
ARC
  5
523
330
1F
100
AcDbEntity
  8
BILD
  6
AUSGEZOGEN
 62
     7
100
AcDbCircle
 10
1454.063538493355
 20
1013.422916960204
 30
0.0
 40
3.000000239999999
100
AcDbArc
 50
0.0
 51
90.00003051990656
  0
LINE
  5
524
330
1F
100
AcDbEntity
  8
BEH
  6
AUSGEZOGEN
 62
     7
100
AcDbLine
 10
1438.519168993355
 20
1105.317631320204
 30
0.0
 11
1405.519413133355
 21
1105.317631320204
 31
0.0
  0
POLYLINE
  5
525
330
1F
100
AcDbEntity
  8
BEH
  6
AUSGEZOGEN
 62
     7
100
AcDb2dPolyline
 66
     1
 10
0.0
 20
0.0
 30
0.0
  0
VERTEX
  5
526
330
525
100
AcDbEntity
  8
BEH
  6
AUSGEZOGEN
 62
     7
100
AcDbVertex
100
AcDb2dVertex
 10
1405.521366253352
 20
1085.567448210204
 30
0.0
 42
0.08801594
 70
     2
 50
293.29818726
  0
VERTEX
  5
527
330
525
100
AcDbEntity
  8
BEH
  6
AUSGEZOGEN
 62
     7
100
AcDbVertex
100
AcDb2dVertex
 10
1406.375278613355
 20
1084.472904760203
 30
0.0
 42
0.09450921
 70
     2
 50
315.0
  0
VERTEX
  5
528
330
525
100
AcDbEntity
  8
BEH
  6
AUSGEZOGEN
 62
     7
100
AcDbVertex
100
AcDb2dVertex
 10
1407.789585253354
 20
1083.617680150202
 30
0.0
 42
0.08990245
 70
     2
 50
337.5
  0
VERTEX
  5
529
330
525
100
AcDbEntity
  8
BEH
  6
AUSGEZOGEN
 62
     7
100
AcDbVertex
100
AcDb2dVertex
 10
1409.457889693352
 20
1083.317387180203
 30
0.0
 42
0.08990249
 70
     2
  0
VERTEX
  5
52A
330
525
100
AcDbEntity
  8
BEH
  6
AUSGEZOGEN
 62
     7
100
AcDbVertex
100
AcDb2dVertex
 10
1411.126194133353
 20
1083.617680150202
 30
0.0
 42
0.09450918
 70
     2
 50
22.5
  0
VERTEX
  5
52B
330
525
100
AcDbEntity
  8
BEH
  6
AUSGEZOGEN
 62
     7
100
AcDbVertex
100
AcDb2dVertex
 10
1412.540500773352
 20
1084.472904760203
 30
0.0
 42
0.08801567
 70
     2
 50
45.0
  0
VERTEX
  5
52C
330
525
100
AcDbEntity
  8
BEH
  6
AUSGEZOGEN
 62
     7
100
AcDbVertex
100
AcDb2dVertex
 10
1413.394413133354
 20
1085.567448210204
 30
0.0
 50
45.0
  0
SEQEND
  5
52D
330
525
100
AcDbEntity
  8
BEH
 62
     7
  0
LINE
  5
52E
330
1F
100
AcDbEntity
  8
HAHN
  6
AUSGEZOGEN
 62
     7
100
AcDbLine
 10
1408.989383833354
 20
1081.319401340202
 30
0.0
 11
1403.999027393354
 21
1077.212406710203
 31
0.0
  0
LINE
  5
52F
330
1F
100
AcDbEntity
  8
BEH
  6
AUSGEZOGEN
 62
     7
100
AcDbLine
 10
1405.519413133355
 20
1105.317631320204
 30
0.0
 11
1405.519413133355
 21
1085.564945770204
 31
0.0
  0
LINE
  5
530
330
1F
100
AcDbEntity
  8
HAHN
  6
AUSGEZOGEN
 62
     7
100
AcDbLine
 10
1381.146732463355
 20
1094.737797340203
 30
0.0
 11
1388.872440473354
 21
1088.444706510203
 31
0.0
  0
POLYLINE
  5
531
330
1F
100
AcDbEntity
  8
HAHN
  6
AUSGEZOGEN
 62
     7
100
AcDb2dPolyline
 66
     1
 10
0.0
 20
0.0
 30
0.0
  0
VERTEX
  5
532
330
531
100
AcDbEntity
  8
HAHN
  6
AUSGEZOGEN
 62
     7
100
AcDbVertex
100
AcDb2dVertex
 10
1377.801273483353
 20
1095.240421850203
 30
0.0
 42
0.08490539
 70
     2
 50
270.0
  0
VERTEX
  5
533
330
531
100
AcDbEntity
  8
HAHN
  6
AUSGEZOGEN
 62
     7
100
AcDbVertex
100
AcDb2dVertex
 10
1378.078464643352
 20
1093.602421360203
 30
0.0
 42
0.09178853
 70
     2
 50
292.5
  0
VERTEX
  5
534
330
531
100
AcDbEntity
  8
HAHN
  6
AUSGEZOGEN
 62
     7
100
AcDbVertex
100
AcDb2dVertex
 10
1378.867832323353
 20
1092.213810520203
 30
0.0
 42
0.04561013
 70
     2
 50
315.0
  0
VERTEX
  5
535
330
531
100
AcDbEntity
  8
HAHN
  6
AUSGEZOGEN
 62
     7
100
AcDbVertex
100
AcDb2dVertex
 10
1379.368625773352
 20
1091.722355440202
 30
0.0
 50
315.0
  0
SEQEND
  5
536
330
531
100
AcDbEntity
  8
HAHN
 62
     7
  0
LINE
  5
537
330
1F
100
AcDbEntity
  8
HAHN
  6
AUSGEZOGEN
 62
     7
100
AcDbLine
 10
1386.648685593353
 20
1071.908329560203
 30
0.0
 11
1382.786747113353
 21
1071.908329560203
 31
0.0
  0
LINE
  5
538
330
1F
100
AcDbEntity
  8
HAHN
  6
AUSGEZOGEN
 62
     7
100
AcDbLine
 10
1386.529300823356
 20
1076.498539520204
 30
0.0
 11
1382.906131883355
 21
1076.498539520204
 31
0.0
  0
LINE
  5
539
330
1F
100
AcDbEntity
  8
HAHN
  6
AUSGEZOGEN
 62
     7
100
AcDbLine
 10
1387.094852583354
 20
1085.429447730203
 30
0.0
 11
1379.369144573356
 21
1091.722538550202
 31
0.0
  0
POLYLINE
  5
53A
330
1F
100
AcDbEntity
  8
HAHN
  6
AUSGEZOGEN
 62
     7
100
AcDb2dPolyline
 66
     1
 10
0.0
 20
0.0
 30
0.0
  0
VERTEX
  5
53B
330
53A
100
AcDbEntity
  8
HAHN
  6
AUSGEZOGEN
 62
     7
100
AcDbVertex
100
AcDb2dVertex
 10
1382.906147143351
 20
1076.498203830204
 30
0.0
 42
0.08167321
 70
     2
 50
222.72125244
  0
VERTEX
  5
53C
330
53A
100
AcDbEntity
  8
HAHN
  6
AUSGEZOGEN
 62
     7
100
AcDbVertex
100
AcDb2dVertex
 10
1382.344013353354
 20
1075.464115690203
 30
0.0
 42
0.08490545
 70
     2
 50
247.5
  0
VERTEX
  5
53D
330
53A
100
AcDbEntity
  8
HAHN
  6
AUSGEZOGEN
 62
     7
100
AcDbVertex
100
AcDb2dVertex
 10
1382.116916793354
 20
1074.122135710204
 30
0.0
 42
0.08490552
 70
     2
 50
270.0
  0
VERTEX
  5
53E
330
53A
100
AcDbEntity
  8
HAHN
  6
AUSGEZOGEN
 62
     7
100
AcDbVertex
100
AcDb2dVertex
 10
1382.344013353354
 20
1072.780155730203
 30
0.0
 42
0.06685252
 70
     2
 50
292.5
  0
VERTEX
  5
53F
330
53A
100
AcDbEntity
  8
HAHN
  6
AUSGEZOGEN
 62
     7
100
AcDbVertex
100
AcDb2dVertex
 10
1382.786823413356
 20
1071.907963350204
 30
0.0
 50
292.5
  0
SEQEND
  5
540
330
53A
100
AcDbEntity
  8
HAHN
 62
     7
  0
LINE
  5
541
330
1F
100
AcDbEntity
  8
HAHN
  6
AUSGEZOGEN
 62
     7
100
AcDbLine
 10
1387.318851603354
 20
1084.926518040203
 30
0.0
 11
1387.318851603354
 21
1067.317570280204
 31
0.0
  0
LINE
  5
542
330
1F
100
AcDbEntity
  8
HAHN
  6
AUSGEZOGEN
 62
     7
100
AcDbLine
 10
1390.439823283355
 20
1066.902958470204
 30
0.0
 11
1390.439823283355
 21
1084.926762180202
 31
0.0
  0
POLYLINE
  5
543
330
1F
100
AcDbEntity
  8
HAHN
  6
AUSGEZOGEN
 62
     7
100
AcDb2dPolyline
 66
     1
 10
0.0
 20
0.0
 30
0.0
  0
VERTEX
  5
544
330
543
100
AcDbEntity
  8
HAHN
  6
AUSGEZOGEN
 62
     7
100
AcDbVertex
100
AcDb2dVertex
 10
1394.972110883354
 20
1071.493321020203
 30
0.0
 42
0.06685811
 70
     2
 50
46.25561523
  0
VERTEX
  5
545
330
543
100
AcDbEntity
  8
HAHN
  6
AUSGEZOGEN
 62
     7
100
AcDbVertex
100
AcDb2dVertex
 10
1395.415073533352
 20
1072.365788060204
 30
0.0
 42
0.08490556
 70
     2
 50
67.5
  0
VERTEX
  5
546
330
543
100
AcDbEntity
  8
HAHN
  6
AUSGEZOGEN
 62
     7
100
AcDbVertex
100
AcDb2dVertex
 10
1395.642231123354
 20
1073.708073210204
 30
0.0
 42
0.08490556
 70
     2
 50
90.0
  0
VERTEX
  5
547
330
543
100
AcDbEntity
  8
HAHN
  6
AUSGEZOGEN
 62
     7
100
AcDbVertex
100
AcDb2dVertex
 10
1395.415073533352
 20
1075.050388890204
 30
0.0
 42
0.08161413
 70
     2
 50
112.5
  0
VERTEX
  5
548
330
543
100
AcDbEntity
  8
HAHN
  6
AUSGEZOGEN
 62
     7
100
AcDbVertex
100
AcDb2dVertex
 10
1394.853290693353
 20
1076.084080290204
 30
0.0
 50
112.5
  0
SEQEND
  5
549
330
543
100
AcDbEntity
  8
HAHN
 62
     7
  0
POLYLINE
  5
54A
330
1F
100
AcDbEntity
  8
HAHN
  6
AUSGEZOGEN
 62
     7
100
AcDb2dPolyline
 66
     1
 10
0.0
 20
0.0
 30
0.0
  0
VERTEX
  5
54B
330
54A
100
AcDbEntity
  8
HAHN
  6
AUSGEZOGEN
 62
     7
100
AcDbVertex
100
AcDb2dVertex
 10
1386.648868693354
 20
1071.908238010202
 30
0.0
 42
0.06685811
 70
     2
 50
46.25561523
  0
VERTEX
  5
54C
330
54A
100
AcDbEntity
  8
HAHN
  6
AUSGEZOGEN
 62
     7
100
AcDbVertex
100
AcDb2dVertex
 10
1387.091831343353
 20
1072.780705050203
 30
0.0
 42
0.08490556
 70
     2
 50
67.5
  0
VERTEX
  5
54D
330
54A
100
AcDbEntity
  8
HAHN
  6
AUSGEZOGEN
 62
     7
100
AcDbVertex
100
AcDb2dVertex
 10
1387.318988933354
 20
1074.122990210204
 30
0.0
 42
0.08490556
 70
     2
 50
90.0
  0
VERTEX
  5
54E
330
54A
100
AcDbEntity
  8
HAHN
  6
AUSGEZOGEN
 62
     7
100
AcDbVertex
100
AcDb2dVertex
 10
1387.091831343353
 20
1075.465305880203
 30
0.0
 42
0.08161413
 70
     2
 50
112.5
  0
VERTEX
  5
54F
330
54A
100
AcDbEntity
  8
HAHN
  6
AUSGEZOGEN
 62
     7
100
AcDbVertex
100
AcDb2dVertex
 10
1386.530048503354
 20
1076.498997290204
 30
0.0
 50
112.5
  0
SEQEND
  5
550
330
54A
100
AcDbEntity
  8
HAHN
 62
     7
  0
POLYLINE
  5
551
330
1F
100
AcDbEntity
  8
HAHN
  6
AUSGEZOGEN
 62
     7
100
AcDb2dPolyline
 66
     1
 10
0.0
 20
0.0
 30
0.0
  0
VERTEX
  5
552
330
551
100
AcDbEntity
  8
HAHN
  6
AUSGEZOGEN
 62
     7
100
AcDbVertex
100
AcDb2dVertex
 10
1391.229511393353
 20
1076.083592010203
 30
0.0
 42
0.08167321
 70
     2
 50
222.72125244
  0
VERTEX
  5
553
330
551
100
AcDbEntity
  8
HAHN
  6
AUSGEZOGEN
 62
     7
100
AcDbVertex
100
AcDb2dVertex
 10
1390.667377613353
 20
1075.049503880204
 30
0.0
 42
0.08490545
 70
     2
 50
247.5
  0
VERTEX
  5
554
330
551
100
AcDbEntity
  8
HAHN
  6
AUSGEZOGEN
 62
     7
100
AcDbVertex
100
AcDb2dVertex
 10
1390.440281053353
 20
1073.707523900202
 30
0.0
 42
0.08490552
 70
     2
 50
270.0
  0
VERTEX
  5
555
330
551
100
AcDbEntity
  8
HAHN
  6
AUSGEZOGEN
 62
     7
100
AcDbVertex
100
AcDb2dVertex
 10
1390.667377613353
 20
1072.365543920203
 30
0.0
 42
0.06685252
 70
     2
 50
292.5
  0
VERTEX
  5
556
330
551
100
AcDbEntity
  8
HAHN
  6
AUSGEZOGEN
 62
     7
100
AcDbVertex
100
AcDb2dVertex
 10
1391.110187663354
 20
1071.493351530203
 30
0.0
 50
292.5
  0
SEQEND
  5
557
330
551
100
AcDbEntity
  8
HAHN
 62
     7
  0
LINE
  5
558
330
1F
100
AcDbEntity
  8
HAHN
  6
AUSGEZOGEN
 62
     7
100
AcDbLine
 10
1394.972049853352
 20
1071.493412570204
 30
0.0
 11
1391.110111373352
 21
1071.493412570204
 31
0.0
  0
LINE
  5
559
330
1F
100
AcDbEntity
  8
HAHN
  6
AUSGEZOGEN
 62
     7
100
AcDbLine
 10
1394.852665083355
 20
1076.083927710204
 30
0.0
 11
1391.229374073354
 21
1076.083927710204
 31
0.0
  0
LINE
  5
55A
330
1F
100
AcDbEntity
  8
HAHN
  6
AUSGEZOGEN
 62
     7
100
AcDbLine
 10
1395.642215863353
 20
1075.901737760203
 30
0.0
 11
1403.999027393354
 21
1077.212406710203
 31
0.0
  0
POLYLINE
  5
55B
330
1F
100
AcDbEntity
  8
HAHN
  6
AUSGEZOGEN
 62
     7
100
AcDb2dPolyline
 66
     1
 10
0.0
 20
0.0
 30
0.0
  0
VERTEX
  5
55C
330
55B
100
AcDbEntity
  8
HAHN
  6
AUSGEZOGEN
 62
     7
100
AcDbVertex
100
AcDb2dVertex
 10
1390.439945353354
 20
1084.926212860204
 30
0.0
 42
0.08490556
 70
     2
 50
90.0
  0
VERTEX
  5
55D
330
55B
100
AcDbEntity
  8
HAHN
  6
AUSGEZOGEN
 62
     7
100
AcDbVertex
100
AcDb2dVertex
 10
1390.162754193355
 20
1086.564182830203
 30
0.0
 42
0.09178843
 70
     2
 50
112.5
  0
VERTEX
  5
55E
330
55B
100
AcDbEntity
  8
HAHN
  6
AUSGEZOGEN
 62
     7
100
AcDbVertex
100
AcDb2dVertex
 10
1389.373386523354
 20
1087.952793670203
 30
0.0
 42
0.04560899
 70
     2
 50
135.0
  0
VERTEX
  5
55F
330
55B
100
AcDbEntity
  8
HAHN
  6
AUSGEZOGEN
 62
     7
100
AcDbVertex
100
AcDb2dVertex
 10
1388.872608323355
 20
1088.444279270203
 30
0.0
 50
135.0
  0
SEQEND
  5
560
330
55B
100
AcDbEntity
  8
HAHN
 62
     7
  0
POLYLINE
  5
561
330
1F
100
AcDbEntity
  8
HAHN
  6
AUSGEZOGEN
 62
     7
100
AcDb2dPolyline
 66
     1
 10
0.0
 20
0.0
 30
0.0
  0
VERTEX
  5
562
330
561
100
AcDbEntity
  8
HAHN
  6
AUSGEZOGEN
 62
     7
100
AcDbVertex
100
AcDb2dVertex
 10
1387.318683763354
 20
1084.926212860204
 30
0.0
 42
0.08490556
 70
     2
 50
90.0
  0
VERTEX
  5
563
330
561
100
AcDbEntity
  8
HAHN
  6
AUSGEZOGEN
 62
     7
100
AcDbVertex
100
AcDb2dVertex
 10
1387.279071943353
 20
1085.160221650203
 30
0.0
 42
0.09178843
 70
     2
 50
112.5
  0
VERTEX
  5
564
330
561
100
AcDbEntity
  8
HAHN
  6
AUSGEZOGEN
 62
     7
100
AcDbVertex
100
AcDb2dVertex
 10
1387.166309493353
 20
1085.358585910204
 30
0.0
 42
0.04561086
 70
     2
 50
135.0
  0
VERTEX
  5
565
330
561
100
AcDbEntity
  8
HAHN
  6
AUSGEZOGEN
 62
     7
100
AcDbVertex
100
AcDb2dVertex
 10
1387.094776293353
 20
1085.428806860203
 30
0.0
 50
135.0
  0
SEQEND
  5
566
330
561
100
AcDbEntity
  8
HAHN
 62
     7
  0
POLYLINE
  5
567
330
1F
100
AcDbEntity
  8
HAHN
  6
AUSGEZOGEN
 62
     7
100
AcDb2dPolyline
 66
     1
 10
0.0
 20
0.0
 30
0.0
  0
VERTEX
  5
568
330
567
100
AcDbEntity
  8
HAHN
  6
AUSGEZOGEN
 62
     7
100
AcDbVertex
100
AcDb2dVertex
 10
1380.922535083354
 20
1095.240421850203
 30
0.0
 42
0.08490539
 70
     2
 50
270.0
  0
VERTEX
  5
569
330
567
100
AcDbEntity
  8
HAHN
  6
AUSGEZOGEN
 62
     7
100
AcDbVertex
100
AcDb2dVertex
 10
1380.962131633353
 20
1095.006413060204
 30
0.0
 42
0.09178853
 70
     2
 50
292.5
  0
VERTEX
  5
56A
330
567
100
AcDbEntity
  8
HAHN
  6
AUSGEZOGEN
 62
     7
100
AcDbVertex
100
AcDb2dVertex
 10
1381.074909343354
 20
1094.808048800203
 30
0.0
 42
0.04560439
 70
     2
 50
315.0
  0
VERTEX
  5
56B
330
567
100
AcDbEntity
  8
HAHN
  6
AUSGEZOGEN
 62
     7
100
AcDbVertex
100
AcDb2dVertex
 10
1381.146442553355
 20
1094.737858370203
 30
0.0
 50
315.0
  0
SEQEND
  5
56C
330
567
100
AcDbEntity
  8
HAHN
 62
     7
  0
LINE
  5
56D
330
1F
100
AcDbEntity
  8
HAHN
  6
AUSGEZOGEN
 62
     7
100
AcDbLine
 10
1380.922733443352
 20
1105.228397920204
 30
0.0
 11
1380.922733443352
 21
1095.240421850203
 31
0.0
  0
LINE
  5
56E
330
1F
100
AcDbEntity
  8
HAHN
  6
AUSGEZOGEN
 62
     7
100
AcDbLine
 10
1377.801395553352
 20
1105.228397920204
 30
0.0
 11
1377.801395553352
 21
1095.240421850203
 31
0.0
  0
POLYLINE
  5
56F
330
1F
100
AcDbEntity
  8
HAHN
  6
AUSGEZOGEN
 62
     7
100
AcDb2dPolyline
 66
     1
 10
0.0
 20
0.0
 30
0.0
  0
VERTEX
  5
570
330
56F
100
AcDbEntity
  8
HAHN
  6
AUSGEZOGEN
 62
     7
100
AcDbVertex
100
AcDb2dVertex
 10
1380.922733443352
 20
1105.228092750203
 30
0.0
 42
0.11375958
 70
     2
  0
VERTEX
  5
571
330
56F
100
AcDbEntity
  8
HAHN
  6
AUSGEZOGEN
 62
     7
100
AcDbVertex
100
AcDb2dVertex
 10
1381.519962443354
 20
1105.367741180203
 30
0.0
 42
0.10355993
 70
     2
 50
22.5
  0
VERTEX
  5
572
330
56F
100
AcDbEntity
  8
HAHN
  6
AUSGEZOGEN
 62
     7
100
AcDbVertex
100
AcDb2dVertex
 10
1382.026264323354
 20
1105.765385230203
 30
0.0
 42
0.09178846
 70
     2
 50
45.0
  0
VERTEX
  5
573
330
56F
100
AcDbEntity
  8
HAHN
  6
AUSGEZOGEN
 62
     7
100
AcDbVertex
100
AcDb2dVertex
 10
1382.364566943352
 20
1106.360539030204
 30
0.0
 42
0.08490552
 70
     2
 50
67.5
  0
VERTEX
  5
574
330
56F
100
AcDbEntity
  8
HAHN
  6
AUSGEZOGEN
 62
     7
100
AcDbVertex
100
AcDb2dVertex
 10
1382.483371873352
 20
1107.062504370204
 30
0.0
 50
67.5
  0
SEQEND
  5
575
330
56F
100
AcDbEntity
  8
HAHN
 62
     7
  0
POLYLINE
  5
576
330
1F
100
AcDbEntity
  8
HAHN
  6
AUSGEZOGEN
 62
     7
100
AcDb2dPolyline
 66
     1
 10
0.0
 20
0.0
 30
0.0
  0
VERTEX
  5
577
330
576
100
AcDbEntity
  8
HAHN
  6
AUSGEZOGEN
 62
     7
100
AcDbVertex
100
AcDb2dVertex
 10
1376.240757123355
 20
1107.062504370204
 30
0.0
 42
0.08490565
 70
     2
 50
270.0
  0
VERTEX
  5
578
330
576
100
AcDbEntity
  8
HAHN
  6
AUSGEZOGEN
 62
     7
100
AcDbVertex
100
AcDb2dVertex
 10
1376.359562053351
 20
1106.360539030204
 30
0.0
 42
0.0917884
 70
     2
 50
292.5
  0
VERTEX
  5
579
330
576
100
AcDbEntity
  8
HAHN
  6
AUSGEZOGEN
 62
     7
100
AcDbVertex
100
AcDb2dVertex
 10
1376.697864673354
 20
1105.765385230203
 30
0.0
 42
0.10355989
 70
     2
 50
315.0
  0
VERTEX
  5
57A
330
576
100
AcDbEntity
  8
HAHN
  6
AUSGEZOGEN
 62
     7
100
AcDbVertex
100
AcDb2dVertex
 10
1377.204166553353
 20
1105.367741180203
 30
0.0
 42
0.11375958
 70
     2
 50
337.5
  0
VERTEX
  5
57B
330
576
100
AcDbEntity
  8
HAHN
  6
AUSGEZOGEN
 62
     7
100
AcDbVertex
100
AcDb2dVertex
 10
1377.801395553352
 20
1105.228092750203
 30
0.0
 50
337.5
  0
SEQEND
  5
57C
330
576
100
AcDbEntity
  8
HAHN
 62
     7
  0
LINE
  5
57D
330
1F
100
AcDbEntity
  8
HAHN
  6
AUSGEZOGEN
 62
     7
100
AcDbLine
 10
1380.922733443352
 20
1105.228397920204
 30
0.0
 11
1377.801639693352
 21
1105.228397920204
 31
0.0
  0
LINE
  5
57E
330
1F
100
AcDbEntity
  8
BEH
  6
AUSGEZOGEN
 62
     7
100
AcDbLine
 10
1430.642460003352
 20
1105.317631320204
 30
0.0
 11
1430.642460003352
 21
1085.564945770204
 31
0.0
  0
LINE
  5
57F
330
1F
100
AcDbEntity
  8
BEH
  6
AUSGEZOGEN
 62
     7
100
AcDbLine
 10
1413.396366253352
 20
1105.317631320204
 30
0.0
 11
1413.396366253352
 21
1085.564945770204
 31
0.0
  0
LINE
  5
580
102
{ACAD_REACTORS
330
5B7
102
}
330
1F
100
AcDbEntity
  8
BEH
  6
AUSGEZOGEN
 62
     7
100
AcDbLine
 10
1438.519168993355
 20
1105.317631320204
 30
0.0
 11
1438.519168993355
 21
1085.564945770204
 31
0.0
  0
ARC
  5
581
330
1F
100
AcDbEntity
  8
BEH
  6
AUSGEZOGEN
 62
     7
100
AcDbCircle
 10
1422.019413133354
 20
1100.973576140202
 30
0.0
 40
17.65638733
100
AcDbArc
 50
240.7584991500137
 51
299.2415161100158
  0
LINE
  5
582
330
1F
100
AcDbEntity
  8
BEH
  6
AUSGEZOGEN
 62
     7
100
AcDbLine
 10
1434.206913133355
 20
1083.317631320204
 30
0.0
 11
1409.831913133355
 21
1083.317631320204
 31
0.0
  0
LINE
  5
583
330
1F
100
AcDbEntity
  8
AM_4
100
AcDbLine
 10
1439.204105513351
 20
1075.427372530203
 30
0.0
 11
1409.066410203354
 21
1075.427372530203
 31
0.0
  0
POLYLINE
  5
584
330
1F
100
AcDbEntity
  8
BEH
  6
AUSGEZOGEN
 62
     7
100
AcDb2dPolyline
 66
     1
 10
0.0
 20
0.0
 30
0.0
  0
VERTEX
  5
585
330
584
100
AcDbEntity
  8
BEH
  6
AUSGEZOGEN
 62
     7
100
AcDbVertex
100
AcDb2dVertex
 10
1408.989490643353
 20
1081.319126680204
 30
0.0
 42
0.05749289
 70
     2
 50
59.90100098
  0
VERTEX
  5
586
330
584
100
AcDbEntity
  8
BEH
  6
AUSGEZOGEN
 62
     7
100
AcDbVertex
100
AcDb2dVertex
 10
1409.169773233355
 20
1081.597324920203
 30
0.0
 42
0.11505464
 70
     2
 50
67.5
  0
VERTEX
  5
587
330
584
100
AcDbEntity
  8
BEH
  6
AUSGEZOGEN
 62
     7
100
AcDbVertex
100
AcDb2dVertex
 10
1409.305805343355
 20
1082.171696260204
 30
0.0
 42
0.1150547
 70
     2
 50
90.0
  0
VERTEX
  5
588
330
584
100
AcDbEntity
  8
BEH
  6
AUSGEZOGEN
 62
     7
100
AcDbVertex
100
AcDb2dVertex
 10
1409.169773233355
 20
1082.746067600203
 30
0.0
 42
0.10388001
 70
     2
 50
112.5
  0
VERTEX
  5
589
330
584
100
AcDbEntity
  8
BEH
  6
AUSGEZOGEN
 62
     7
100
AcDbVertex
100
AcDb2dVertex
 10
1408.782367843355
 20
1083.232975560204
 30
0.0
 42
0.04591703
 70
     2
 50
135.0
  0
VERTEX
  5
58A
330
584
100
AcDbEntity
  8
BEH
  6
AUSGEZOGEN
 62
     7
100
AcDbVertex
100
AcDb2dVertex
 10
1408.517414233355
 20
1083.416325170203
 30
0.0
 50
135.0
  0
SEQEND
  5
58B
330
584
100
AcDbEntity
  8
BEH
 62
     7
  0
LINE
  5
58C
330
1F
100
AcDbEntity
  8
HAHN
  6
AUSGEZOGEN
 62
     7
100
AcDbLine
 10
1435.049442423354
 20
1081.319401340202
 30
0.0
 11
1440.661869183353
 21
1075.983707980204
 31
0.0
  0
POLYLINE
  5
58D
330
1F
100
AcDbEntity
  8
HAHN
  6
AUSGEZOGEN
 62
     7
100
AcDb2dPolyline
 66
     1
 10
0.0
 20
0.0
 30
0.0
  0
VERTEX
  5
58E
330
58D
100
AcDbEntity
  8
HAHN
  6
AUSGEZOGEN
 62
     7
100
AcDbVertex
100
AcDb2dVertex
 10
1440.955051563352
 20
1074.912235810203
 30
0.0
 42
0.08490559
 70
     2
 50
90.0
  0
VERTEX
  5
58F
330
58D
100
AcDbEntity
  8
HAHN
  6
AUSGEZOGEN
 62
     7
100
AcDbVertex
100
AcDb2dVertex
 10
1440.836246623351
 20
1075.614231660203
 30
0.0
 42
0.05263417
 70
     2
 50
112.5
  0
VERTEX
  5
590
330
58D
100
AcDbEntity
  8
HAHN
  6
AUSGEZOGEN
 62
     7
100
AcDbVertex
100
AcDb2dVertex
 10
1440.661350383353
 20
1075.983372290204
 30
0.0
 50
112.5
  0
SEQEND
  5
591
330
58D
100
AcDbEntity
  8
HAHN
 62
     7
  0
POLYLINE
  5
592
330
1F
100
AcDbEntity
  8
BEH
  6
AUSGEZOGEN
 62
     7
100
AcDb2dPolyline
 66
     1
 10
0.0
 20
0.0
 30
0.0
  0
VERTEX
  5
593
330
592
100
AcDbEntity
  8
BEH
  6
AUSGEZOGEN
 62
     7
100
AcDbVertex
100
AcDb2dVertex
 10
1430.644657273354
 20
1085.567448210204
 30
0.0
 42
0.08801575
 70
     2
 50
293.29821777
  0
VERTEX
  5
594
330
592
100
AcDbEntity
  8
BEH
  6
AUSGEZOGEN
 62
     7
100
AcDbVertex
100
AcDb2dVertex
 10
1431.498569623355
 20
1084.472904760203
 30
0.0
 42
0.09450921
 70
     2
 50
315.0
  0
VERTEX
  5
595
330
592
100
AcDbEntity
  8
BEH
  6
AUSGEZOGEN
 62
     7
100
AcDbVertex
100
AcDb2dVertex
 10
1432.912876263354
 20
1083.617680150202
 30
0.0
 42
0.08990245
 70
     2
 50
337.5
  0
VERTEX
  5
596
330
592
100
AcDbEntity
  8
BEH
  6
AUSGEZOGEN
 62
     7
100
AcDbVertex
100
AcDb2dVertex
 10
1434.581180713353
 20
1083.317387180203
 30
0.0
 42
0.08990249
 70
     2
  0
VERTEX
  5
597
330
592
100
AcDbEntity
  8
BEH
  6
AUSGEZOGEN
 62
     7
100
AcDbVertex
100
AcDb2dVertex
 10
1436.249485153355
 20
1083.617680150202
 30
0.0
 42
0.09450918
 70
     2
 50
22.5
  0
VERTEX
  5
598
330
592
100
AcDbEntity
  8
BEH
  6
AUSGEZOGEN
 62
     7
100
AcDbVertex
100
AcDb2dVertex
 10
1437.663791793354
 20
1084.472904760203
 30
0.0
 42
0.08801594
 70
     2
 50
45.0
  0
VERTEX
  5
599
330
592
100
AcDbEntity
  8
BEH
  6
AUSGEZOGEN
 62
     7
100
AcDbVertex
100
AcDb2dVertex
 10
1438.517704143355
 20
1085.567448210204
 30
0.0
 50
45.0
  0
SEQEND
  5
59A
330
592
100
AcDbEntity
  8
BEH
 62
     7
  0
POLYLINE
  5
59B
330
1F
100
AcDbEntity
  8
BEH
  6
AUSGEZOGEN
 62
     7
100
AcDb2dPolyline
 66
     1
 10
0.0
 20
0.0
 30
0.0
  0
VERTEX
  5
59C
330
59B
100
AcDbEntity
  8
BEH
  6
AUSGEZOGEN
 62
     7
100
AcDbVertex
100
AcDb2dVertex
 10
1435.516910693352
 20
1083.407291960204
 30
0.0
 42
0.04600096
 70
     2
 50
218.59729004
  0
VERTEX
  5
59D
330
59B
100
AcDbEntity
  8
BEH
  6
AUSGEZOGEN
 62
     7
100
AcDbVertex
100
AcDb2dVertex
 10
1435.254520553352
 20
1083.224735810203
 30
0.0
 42
0.10375087
 70
     2
 50
225.0
  0
VERTEX
  5
59E
330
59B
100
AcDbEntity
  8
BEH
  6
AUSGEZOGEN
 62
     7
100
AcDbVertex
100
AcDb2dVertex
 10
1434.870823043354
 20
1082.739903050204
 30
0.0
 42
0.1145247
 70
     2
 50
247.5
  0
VERTEX
  5
59F
330
59B
100
AcDbEntity
  8
BEH
  6
AUSGEZOGEN
 62
     7
100
AcDbVertex
100
AcDb2dVertex
 10
1434.736087933353
 20
1082.168034150203
 30
0.0
 42
0.1145247
 70
     2
 50
270.0
  0
VERTEX
  5
5A0
330
59B
100
AcDbEntity
  8
BEH
  6
AUSGEZOGEN
 62
     7
100
AcDbVertex
100
AcDb2dVertex
 10
1434.870823043354
 20
1081.596165260203
 30
0.0
 42
0.05736804
 70
     2
 50
292.5
  0
VERTEX
  5
5A1
330
59B
100
AcDbEntity
  8
BEH
  6
AUSGEZOGEN
 62
     7
100
AcDbVertex
100
AcDb2dVertex
 10
1435.049381393352
 20
1081.319157200203
 30
0.0
 50
292.5
  0
SEQEND
  5
5A2
330
59B
100
AcDbEntity
  8
BEH
 62
     7
  0
LINE
  5
5A3
330
1F
100
AcDbEntity
  8
HAHN
  6
AUSGEZOGEN
 62
     7
100
AcDbLine
 10
1377.801395553352
 20
1192.817570280203
 30
0.0
 11
1380.922489303352
 21
1192.817570280203
 31
0.0
  0
POLYLINE
  5
5A4
330
1F
100
AcDbEntity
  8
HAHN
  6
AUSGEZOGEN
 62
     7
100
AcDb2dPolyline
 66
     1
 10
0.0
 20
0.0
 30
0.0
  0
VERTEX
  5
5A5
330
5A4
100
AcDbEntity
  8
HAHN
  6
AUSGEZOGEN
 62
     7
100
AcDbVertex
100
AcDb2dVertex
 10
1377.801395553352
 20
1192.817265110203
 30
0.0
 42
0.11375958
 70
     2
 50
180.0
  0
VERTEX
  5
5A6
330
5A4
100
AcDbEntity
  8
HAHN
  6
AUSGEZOGEN
 62
     7
100
AcDbVertex
100
AcDb2dVertex
 10
1377.204166553353
 20
1192.677616670204
 30
0.0
 42
0.10355996
 70
     2
 50
202.5
  0
VERTEX
  5
5A7
330
5A4
100
AcDbEntity
  8
HAHN
  6
AUSGEZOGEN
 62
     7
100
AcDbVertex
100
AcDb2dVertex
 10
1376.697864673354
 20
1192.279972630204
 30
0.0
 42
0.09178846
 70
     2
 50
225.0
  0
VERTEX
  5
5A8
330
5A4
100
AcDbEntity
  8
HAHN
  6
AUSGEZOGEN
 62
     7
100
AcDbVertex
100
AcDb2dVertex
 10
1376.359562053351
 20
1191.684818820204
 30
0.0
 42
0.08490552
 70
     2
 50
247.5
  0
VERTEX
  5
5A9
330
5A4
100
AcDbEntity
  8
HAHN
  6
AUSGEZOGEN
 62
     7
100
AcDbVertex
100
AcDb2dVertex
 10
1376.240757123355
 20
1190.982853490202
 30
0.0
 50
247.5
  0
SEQEND
  5
5AA
330
5A4
100
AcDbEntity
  8
HAHN
 62
     7
  0
POLYLINE
  5
5AB
330
1F
100
AcDbEntity
  8
HAHN
  6
AUSGEZOGEN
 62
     7
100
AcDb2dPolyline
 66
     1
 10
0.0
 20
0.0
 30
0.0
  0
VERTEX
  5
5AC
330
5AB
100
AcDbEntity
  8
HAHN
  6
AUSGEZOGEN
 62
     7
100
AcDbVertex
100
AcDb2dVertex
 10
1382.483371873352
 20
1190.982853490202
 30
0.0
 42
0.08490559
 70
     2
 50
90.0
  0
VERTEX
  5
5AD
330
5AB
100
AcDbEntity
  8
HAHN
  6
AUSGEZOGEN
 62
     7
100
AcDbVertex
100
AcDb2dVertex
 10
1382.364566943352
 20
1191.684818820204
 30
0.0
 42
0.09178846
 70
     2
 50
112.5
  0
VERTEX
  5
5AE
330
5AB
100
AcDbEntity
  8
HAHN
  6
AUSGEZOGEN
 62
     7
100
AcDbVertex
100
AcDb2dVertex
 10
1382.026264323354
 20
1192.279972630204
 30
0.0
 42
0.10355996
 70
     2
 50
135.0
  0
VERTEX
  5
5AF
330
5AB
100
AcDbEntity
  8
HAHN
  6
AUSGEZOGEN
 62
     7
100
AcDbVertex
100
AcDb2dVertex
 10
1381.519962443354
 20
1192.677616670204
 30
0.0
 42
0.11375952
 70
     2
 50
157.5
  0
VERTEX
  5
5B0
330
5AB
100
AcDbEntity
  8
HAHN
  6
AUSGEZOGEN
 62
     7
100
AcDbVertex
100
AcDb2dVertex
 10
1380.922733443352
 20
1192.817265110203
 30
0.0
 50
157.5
  0
SEQEND
  5
5B1
330
5AB
100
AcDbEntity
  8
HAHN
 62
     7
  0
LINE
  5
5B2
330
1F
100
AcDbEntity
  8
AM_0
100
AcDbLine
 10
1383.969397873354
 20
943.4214521202029
 30
0.0
 11
1383.969397873354
 21
875.3176313202038
 31
0.0
  0
LINE
  5
5B3
330
1F
100
AcDbEntity
  8
AM_0
100
AcDbLine
 10
1460.069397873354
 20
943.4214521202029
 30
0.0
 11
1460.069397873354
 21
875.3176313202038
 31
0.0
  0
LINE
  5
5B4
102
{ACAD_REACTORS
330
5B7
330
5BB
102
}
330
1F
100
AcDbEntity
  8
AM_0
100
AcDbLine
 10
1460.069397873354
 20
875.3176313202038
 30
0.0
 11
1383.969397873354
 21
875.3176313202038
 31
0.0
  0
DIMENSION
  5
5B5
102
{ACAD_XDICTIONARY
360
5B6
102
}
102
{ACAD_REACTORS
330
5B7
102
}
330
1F
100
AcDbEntity
  8
AM_5
100
AcDbDimension
  2
*D8
 10
1580.069398873354
 20
875.3176313202038
 30
0.0
 11
1556.565953991464
 21
990.317631320204
 31
0.0
 70
    32
 71
     5
 42
229.9999999999999
  3
GEN-ISO$0
100
AcDbAlignedDimension
 13
1438.519168993355
 23
1105.317631320204
 33
0.0
 14
1460.069397873354
 24
875.3176313202038
 34
0.0
 50
90.0
100
AcDbRotatedDimension
1001
ACAD
1000
DSTYLE
1002
{
1070
   271
1070
     0
1002
}
  0
DIMENSION
  5
5B8
330
1F
100
AcDbEntity
  8
AM_5
100
AcDbDimension
  2
*D7
 10
1650.069398873347
 20
875.3176313202038
 30
0.0
 11
1626.565953991457
 21
1033.501225070204
 31
0.0
 70
    32
  1
320
 71
     5
 42
316.3671874999999
  3
GEN-ISO$0
100
AcDbAlignedDimension
 13
1369.409577313352
 23
1191.684818820204
 33
0.0
 14
1460.069397873354
 24
875.3176313202038
 34
0.0
 50
90.0
100
AcDbRotatedDimension
1001
ACAD
1000
DSTYLE
1002
{
1070
   271
1070
     0
1002
}
  0
DIMENSION
  5
5B9
102
{ACAD_XDICTIONARY
360
5BA
102
}
102
{ACAD_REACTORS
330
5BB
102
}
330
1F
100
AcDbEntity
  8
AM_5
100
AcDbDimension
  2
*D9
 10
1460.069397873354
 20
803.9892490050871
 30
0.0
 11
1540.069397873354
 21
827.489249005087
 31
0.0
 70
    32
  1
%%c<>
 71
     5
 42
76.09999999999968
  3
GEN-ISO$0
100
AcDbAlignedDimension
 13
1383.969397873354
 23
875.3176313202038
 33
0.0
 14
1460.069397873354
 24
875.3176313202038
 34
0.0
100
AcDbRotatedDimension
1001
ACAD
1000
DSTYLE
1002
{
1070
   271
1070
     1
1002
}
  0
ENDSEC
  0
SECTION
  2
OBJECTS
  0
DICTIONARY
  5
C
330
0
100
AcDbDictionary
281
     1
  3
ACAD_COLOR
350
D7
  3
ACAD_GROUP
350
D
  3
ACAD_LAYOUT
350
1A
  3
ACAD_MATERIAL
350
D6
  3
ACAD_MLINESTYLE
350
17
  3
ACAD_PLOTSETTINGS
350
19
  3
ACAD_PLOTSTYLENAME
350
E
  3
ACAD_TABLESTYLE
350
133
  3
ACDBHEADERROUNDTRIPXREC
350
5EE
  3
AcDbVariableDictionary
350
34
  3
AcmDictionary
350
49
  3
AMG
350
2B
  3
AMGSNAPSETTINGS
350
2C4
  3
DWGPROPS
350
5ED
  0
DICTIONARY
  5
C0
330
2
100
AcDbDictionary
280
     1
281
     1
  3
ACAD_LAYERSTATES
360
344
  3
AMLAYER_GROUPCOLORS
360
C1
  0
DICTIONARY
  5
83
330
1F
100
AcDbDictionary
280
     1
281
     1
  0
DICTIONARY
  5
5B6
330
5B5
100
AcDbDictionary
280
     1
281
     1
  3
ACAD_DIMASSOC
360
5B7
  0
DICTIONARY
  5
5BA
330
5B9
100
AcDbDictionary
280
     1
281
     1
  3
ACAD_DIMASSOC
360
5BB
  0
DICTIONARY
  5
D7
102
{ACAD_REACTORS
330
C
102
}
330
C
100
AcDbDictionary
281
     1
  0
DICTIONARY
  5
D
102
{ACAD_REACTORS
330
C
102
}
330
C
100
AcDbDictionary
281
     1
  0
DICTIONARY
  5
1A
102
{ACAD_REACTORS
330
C
102
}
330
C
100
AcDbDictionary
281
     1
  3
Layout1
350
1E
  3
Layout2
350
26
  3
Model
350
22
  0
DICTIONARY
  5
D6
102
{ACAD_REACTORS
330
C
102
}
330
C
100
AcDbDictionary
281
     1
  0
DICTIONARY
  5
17
102
{ACAD_REACTORS
330
C
102
}
330
C
100
AcDbDictionary
281
     1
  3
Standard
350
18
  0
DICTIONARY
  5
19
102
{ACAD_REACTORS
330
C
102
}
330
C
100
AcDbDictionary
281
     1
  0
ACDBDICTIONARYWDFLT
  5
E
102
{ACAD_REACTORS
330
C
102
}
330
C
100
AcDbDictionary
281
     1
  3
Normal
350
F
100
AcDbDictionaryWithDefault
340
F
  0
DICTIONARY
  5
133
102
{ACAD_REACTORS
330
C
102
}
330
C
100
AcDbDictionary
281
     1
  3
Standard
350
134
  0
DICTIONARY
  5
5EE
102
{ACAD_REACTORS
330
C
102
}
330
C
100
AcDbDictionary
281
     1
  0
DICTIONARY
  5
34
102
{ACAD_REACTORS
330
C
102
}
330
C
100
AcDbDictionary
281
     1
  3
CTABLESTYLE
350
152
  3
DIMASSOC
350
AD
  3
INDEXCTL
350
35
  3
PROJECTNAME
350
5EB
  0
DICTIONARY
  5
49
102
{ACAD_REACTORS
330
C
102
}
330
C
100
AcDbDictionary
281
     1
  3
AcmBOM
350
2CB
  3
AcmStdDictionary
350
4A
  3
AMDTSECTSYM_ARROWCOLOR
350
13D
  0
DICTIONARY
  5
2B
102
{ACAD_REACTORS
330
C
102
}
330
C
100
AcDbDictionary
281
     1
  0
DICTIONARY
  5
2C4
102
{ACAD_REACTORS
330
C
102
}
330
C
100
AcDbDictionary
281
     1
  0
XRECORD
  5
5ED
102
{ACAD_REACTORS
330
C
102
}
330
C
100
AcDbXrecord
280
     1
  1
DWGPROPS COOKIE
  2

  3

  4

  6

  7

  8

  9

300
AmdtFileType=84
301
=
302
=
303
=
304
=
305
=
306
=
307
=
308
=
309
=
 40
0.0002530092592593
 41
2454053.3597025
 42
2454053.359955324
  1

 90
        1
  0
DICTIONARY
  5
344
102
{ACAD_REACTORS
330
C0
102
}
330
C0
100
AcDbDictionary
281
     1
  0
DICTIONARY
  5
C1
102
{ACAD_REACTORS
330
C0
102
}
330
C0
100
AcDbDictionary
280
     1
281
     1
  0
DIMASSOC
  5
5B7
102
{ACAD_REACTORS
330
5B6
102
}
330
5B6
100
AcDbDimAssoc
330
5B5
 90
        3
 70
     0
 71
     0
  1
AcDbOsnapPointRef
 72
    13
331
580
 73
     0
 91
        0
 40
0.0
 10
0.0
 20
0.0
 30
2.000000000000000E+50
 75
     0
  1
AcDbOsnapPointRef
 72
    13
331
5B4
 73
     0
 91
        0
 40
0.0
 10
0.0
 20
0.0
 30
2.000000000000000E+50
 75
     0
  0
DIMASSOC
  5
5BB
102
{ACAD_REACTORS
330
5BA
102
}
330
5BA
100
AcDbDimAssoc
330
5B9
 90
        3
 70
     0
 71
     0
  1
AcDbOsnapPointRef
 72
     1
331
5B4
 73
     0
 91
        0
 40
0.0
 10
0.0
 20
0.0
 30
2.000000000000000E+50
 75
     0
  1
AcDbOsnapPointRef
 72
    13
331
5B4
 73
     0
 91
        0
 40
0.0
 10
0.0
 20
0.0
 30
2.000000000000000E+50
 75
     0
  0
LAYOUT
  5
1E
102
{ACAD_XDICTIONARY
360
5EF
102
}
102
{ACAD_REACTORS
330
1A
102
}
330
1A
100
AcDbPlotSettings
  1

  2
none_device
  4
Letter_(8.50_x_11.00_Inches)
  6

 40
6.349999904632568
 41
6.349999904632568
 42
6.350006103515625
 43
6.350006103515625
 44
215.8999938964844
 45
279.3999938964844
 46
0.0
 47
0.0
 48
0.0
 49
0.0
140
0.0
141
0.0
142
1.0
143
1.0
 70
 15024
 72
     1
 73
     1
 74
     5
  7

 75
    16
147
1.0
148
0.0
149
0.0
100
AcDbLayout
  1
Layout1
 70
     1
 71
     1
 10
0.0
 20
0.0
 11
420.0
 21
297.0
 12
0.0
 22
0.0
 32
0.0
 14
1.000000000000000E+20
 24
1.000000000000000E+20
 34
1.000000000000000E+20
 15
-1.000000000000000E+20
 25
-1.000000000000000E+20
 35
-1.000000000000000E+20
146
0.0
 13
0.0
 23
0.0
 33
0.0
 16
1.0
 26
0.0
 36
0.0
 17
0.0
 27
1.0
 37
0.0
 76
     0
330
1B
  0
LAYOUT
  5
26
102
{ACAD_XDICTIONARY
360
5F3
102
}
102
{ACAD_REACTORS
330
1A
102
}
330
1A
100
AcDbPlotSettings
  1

  2
none_device
  4
Letter_(8.50_x_11.00_Inches)
  6

 40
6.349999904632568
 41
6.349999904632568
 42
6.350006103515625
 43
6.350006103515625
 44
215.8999938964844
 45
279.3999938964844
 46
0.0
 47
0.0
 48
0.0
 49
0.0
140
0.0
141
0.0
142
1.0
143
1.0
 70
 15024
 72
     1
 73
     1
 74
     5
  7

 75
    16
147
1.0
148
0.0
149
0.0
100
AcDbLayout
  1
Layout2
 70
     1
 71
     2
 10
0.0
 20
0.0
 11
12.0
 21
9.0
 12
0.0
 22
0.0
 32
0.0
 14
0.0
 24
0.0
 34
0.0
 15
0.0
 25
0.0
 35
0.0
146
0.0
 13
0.0
 23
0.0
 33
0.0
 16
1.0
 26
0.0
 36
0.0
 17
0.0
 27
1.0
 37
0.0
 76
     0
330
23
  0
LAYOUT
  5
22
102
{ACAD_XDICTIONARY
360
5F1
102
}
102
{ACAD_REACTORS
330
1A
102
}
330
1A
100
AcDbPlotSettings
  1

  2
none_device
  4
Letter_(8.50_x_11.00_Inches)
  6

 40
6.349999904632568
 41
6.349999904632568
 42
6.350006103515625
 43
6.350006103515625
 44
215.8999938964844
 45
279.3999938964844
 46
0.0
 47
0.0
 48
0.0
 49
0.0
140
0.0
141
0.0
142
1.0
143
1.0
 70
 11952
 72
     1
 73
     1
 74
     0
  7

 75
     0
147
1.0
148
-131.3052631578947
149
0.0
100
AcDbLayout
  1
Model
 70
     1
 71
     0
 10
0.0
 20
0.0
 11
12.0
 21
9.0
 12
0.0
 22
0.0
 32
0.0
 14
0.0
 24
0.0
 34
0.0
 15
0.0
 25
0.0
 35
0.0
146
0.0
 13
0.0
 23
0.0
 33
0.0
 16
1.0
 26
0.0
 36
0.0
 17
0.0
 27
1.0
 37
0.0
 76
     0
330
1F
  0
MLINESTYLE
  5
18
102
{ACAD_REACTORS
330
17
102
}
330
17
100
AcDbMlineStyle
  2
STANDARD
 70
     0
  3

 62
   256
 51
90.0
 52
90.0
 71
     2
 49
0.5
 62
   256
  6
BYLAYER
 49
-0.5
 62
   256
  6
BYLAYER
  0
ACDBPLACEHOLDER
  5
F
102
{ACAD_REACTORS
330
E
102
}
330
E
  0
TABLESTYLE
  5
134
102
{ACAD_REACTORS
330
133
102
}
330
133
100
AcDbTableStyle
  3
Standard
 70
     0
 71
     0
 40
1.5
 41
1.5
280
     0
281
     0
  7
STANDARD
140
4.5
170
     2
 62
     0
 63
     7
283
     0
274
    -2
284
     1
 64
     0
275
    -2
285
     1
 65
     0
276
    -2
286
     1
 66
     0
277
    -2
287
     1
 67
     0
278
    -2
288
     1
 68
     0
279
    -2
289
     1
 69
     0
  7
STANDARD
140
6.0
170
     5
 62
     0
 63
     7
283
     0
274
    -2
284
     1
 64
     0
275
    -2
285
     1
 65
     0
276
    -2
286
     1
 66
     0
277
    -2
287
     1
 67
     0
278
    -2
288
     1
 68
     0
279
    -2
289
     1
 69
     0
  7
STANDARD
140
4.5
170
     5
 62
     0
 63
     7
283
     0
274
    -2
284
     1
 64
     0
275
    -2
285
     1
 65
     0
276
    -2
286
     1
 66
     0
277
    -2
287
     1
 67
     0
278
    -2
288
     1
 68
     0
279
    -2
289
     1
 69
     0
  0
DICTIONARYVAR
  5
152
102
{ACAD_REACTORS
330
34
102
}
330
34
100
DictionaryVariables
280
     0
  1
STANDARD
  0
DICTIONARYVAR
  5
AD
102
{ACAD_REACTORS
330
34
102
}
330
34
100
DictionaryVariables
280
     0
  1
2
  0
DICTIONARYVAR
  5
35
102
{ACAD_REACTORS
330
34
102
}
330
34
100
DictionaryVariables
280
     0
  1
0
  0
DICTIONARYVAR
  5
5EB
102
{ACAD_REACTORS
330
34
102
}
330
34
100
DictionaryVariables
280
     0
  1

  0
DICTIONARY
  5
2CB
102
{ACAD_REACTORS
330
49
102
}
330
49
100
AcDbDictionary
281
     1
  0
DICTIONARY
  5
4A
102
{ACAD_REACTORS
330
49
102
}
330
49
100
AcDbDictionary
281
     1
  0
XRECORD
  5
13D
102
{ACAD_REACTORS
330
49
102
}
330
49
100
AcDbXrecord
280
     1
 90
-1023410169
  0
DICTIONARY
  5
5EF
330
1E
100
AcDbDictionary
280
     1
281
     1
  3
ACAD_XREC_ROUNDTRIP
360
5F0
  0
DICTIONARY
  5
5F3
330
26
100
AcDbDictionary
280
     1
281
     1
  3
ACAD_XREC_ROUNDTRIP
360
5F4
  0
DICTIONARY
  5
5F1
330
22
100
AcDbDictionary
280
     1
281
     1
  3
ACAD_XREC_ROUNDTRIP
360
5F2
  0
XRECORD
  5
5F0
102
{ACAD_REACTORS
330
5EF
102
}
330
5EF
100
AcDbXrecord
280
     1
102
SHADEPLOT
 70
     0
102
SHADEPLOTRESLEVEL
 70
     2
102
SHADEPLOTCUSTOMDPI
 70
   300
  0
XRECORD
  5
5F4
102
{ACAD_REACTORS
330
5F3
102
}
330
5F3
100
AcDbXrecord
280
     1
102
SHADEPLOT
 70
     0
102
SHADEPLOTRESLEVEL
 70
     2
102
SHADEPLOTCUSTOMDPI
 70
   300
  0
XRECORD
  5
5F2
102
{ACAD_REACTORS
330
5F1
102
}
330
5F1
100
AcDbXrecord
280
     1
102
SHADEPLOT
 70
     0
102
SHADEPLOTRESLEVEL
 70
     2
102
SHADEPLOTCUSTOMDPI
 70
   300
  0
ENDSEC
  0
EOF
