  0
SECTION
  2
HEADER
  9
$ACADVER
  1
AC1015
  9
$ACADMAINTVER
 70
    20
  9
$DWGCODEPAGE
  3
ANSI_1252
  9
$INSBASE
 10
0.0
 20
0.0
 30
0.0
  9
$EXTMIN
 10
1503.058756800038
 20
805.6072798609715
 30
0.0
  9
$EXTMAX
 10
1853.058756800038
 20
1278.191911016769
 30
0.0
  9
$LIMMIN
 10
0.0
 20
0.0
  9
$LIMMAX
 10
420.0
 20
297.0
  9
$ORTHOMODE
 70
     0
  9
$REGENMODE
 70
     1
  9
$FILLMODE
 70
     1
  9
$QTEXTMODE
 70
     0
  9
$MIRRTEXT
 70
     1
  9
$LTSCALE
 40
1.0
  9
$ATTMODE
 70
     1
  9
$TEXTSIZE
 40
2.5
  9
$TRACEWID
 40
1.0
  9
$TEXTSTYLE
  7
STANDARD
  9
$CLAYER
  8
0
  9
$CELTYPE
  6
ByLayer
  9
$CECOLOR
 62
   256
  9
$CELTSCALE
 40
1.0
  9
$DISPSILH
 70
     0
  9
$DIMSCALE
 40
1.0
  9
$DIMASZ
 40
2.5
  9
$DIMEXO
 40
1.0
  9
$DIMDLI
 40
10.0
  9
$DIMRND
 40
0.0
  9
$DIMDLE
 40
0.0
  9
$DIMEXE
 40
1.0
  9
$DIMTP
 40
0.1
  9
$DIMTM
 40
0.1
  9
$DIMTXT
 40
3.5
  9
$DIMCEN
 40
0.0
  9
$DIMTSZ
 40
0.0
  9
$DIMTOL
 70
     0
  9
$DIMLIM
 70
     0
  9
$DIMTIH
 70
     0
  9
$DIMTOH
 70
     0
  9
$DIMSE1
 70
     0
  9
$DIMSE2
 70
     0
  9
$DIMTAD
 70
     1
  9
$DIMZIN
 70
     8
  9
$DIMBLK
  1

  9
$DIMASO
 70
     1
  9
$DIMSHO
 70
     1
  9
$DIMPOST
  1

  9
$DIMAPOST
  1
"
  9
$DIMALT
 70
     0
  9
$DIMALTD
 70
     2
  9
$DIMALTF
 40
0.0393701
  9
$DIMLFAC
 40
1.0
  9
$DIMTOFL
 70
     1
  9
$DIMTVP
 40
0.0
  9
$DIMTIX
 70
     0
  9
$DIMSOXD
 70
     0
  9
$DIMSAH
 70
     0
  9
$DIMBLK1
  1

  9
$DIMBLK2
  1

  9
$DIMSTYLE
  2
AM_DIN
  9
$DIMCLRD
 70
   256
  9
$DIMCLRE
 70
   256
  9
$DIMCLRT
 70
     2
  9
$DIMTFAC
 40
0.71
  9
$DIMGAP
 40
1.5
  9
$DIMJUST
 70
     0
  9
$DIMSD1
 70
     0
  9
$DIMSD2
 70
     0
  9
$DIMTOLJ
 70
     0
  9
$DIMTZIN
 70
     8
  9
$DIMALTZ
 70
     0
  9
$DIMALTTZ
 70
     0
  9
$DIMUPT
 70
     0
  9
$DIMDEC
 70
     2
  9
$DIMTDEC
 70
     3
  9
$DIMALTU
 70
     2
  9
$DIMALTTD
 70
     4
  9
$DIMTXSTY
  7
STANDARD
  9
$DIMAUNIT
 70
     0
  9
$DIMADEC
 70
     0
  9
$DIMALTRND
 40
0.0
  9
$DIMAZIN
 70
     2
  9
$DIMDSEP
 70
    46
  9
$DIMATFIT
 70
     3
  9
$DIMFRAC
 70
     0
  9
$DIMLDRBLK
  1

  9
$DIMLUNIT
 70
     2
  9
$DIMLWD
 70
    -1
  9
$DIMLWE
 70
    -1
  9
$DIMTMOVE
 70
     0
  9
$LUNITS
 70
     2
  9
$LUPREC
 70
     2
  9
$SKETCHINC
 40
1.0
  9
$FILLETRAD
 40
2.5
  9
$AUNITS
 70
     0
  9
$AUPREC
 70
     0
  9
$MENU
  1
.
  9
$ELEVATION
 40
0.0
  9
$PELEVATION
 40
0.0
  9
$THICKNESS
 40
0.0
  9
$LIMCHECK
 70
     0
  9
$CHAMFERA
 40
2.5
  9
$CHAMFERB
 40
2.5
  9
$CHAMFERC
 40
20.0
  9
$CHAMFERD
 40
0.0
  9
$SKPOLY
 70
     0
  9
$TDCREATE
 40
2454053.360197292
  9
$TDUCREATE
 40
2454053.318530625
  9
$TDUPDATE
 40
2454053.360392431
  9
$TDUUPDATE
 40
2454053.318725764
  9
$TDINDWG
 40
0.0001953125
  9
$TDUSRTIMER
 40
0.0001953125
  9
$USRTIMER
 70
     1
  9
$ANGBASE
 50
0.0
  9
$ANGDIR
 70
     0
  9
$PDMODE
 70
     0
  9
$PDSIZE
 40
0.0
  9
$PLINEWID
 40
0.0
  9
$SPLFRAME
 70
     0
  9
$SPLINETYPE
 70
     6
  9
$SPLINESEGS
 70
     8
  9
$HANDSEED
  5
494
  9
$SURFTAB1
 70
     6
  9
$SURFTAB2
 70
     6
  9
$SURFTYPE
 70
     6
  9
$SURFU
 70
     6
  9
$SURFV
 70
     6
  9
$UCSBASE
  2

  9
$UCSNAME
  2

  9
$UCSORG
 10
0.0
 20
0.0
 30
0.0
  9
$UCSXDIR
 10
1.0
 20
0.0
 30
0.0
  9
$UCSYDIR
 10
0.0
 20
1.0
 30
0.0
  9
$UCSORTHOREF
  2

  9
$UCSORTHOVIEW
 70
     0
  9
$UCSORGTOP
 10
0.0
 20
0.0
 30
0.0
  9
$UCSORGBOTTOM
 10
0.0
 20
0.0
 30
0.0
  9
$UCSORGLEFT
 10
0.0
 20
0.0
 30
0.0
  9
$UCSORGRIGHT
 10
0.0
 20
0.0
 30
0.0
  9
$UCSORGFRONT
 10
0.0
 20
0.0
 30
0.0
  9
$UCSORGBACK
 10
0.0
 20
0.0
 30
0.0
  9
$PUCSBASE
  2

  9
$PUCSNAME
  2

  9
$PUCSORG
 10
0.0
 20
0.0
 30
0.0
  9
$PUCSXDIR
 10
1.0
 20
0.0
 30
0.0
  9
$PUCSYDIR
 10
0.0
 20
1.0
 30
0.0
  9
$PUCSORTHOREF
  2

  9
$PUCSORTHOVIEW
 70
     0
  9
$PUCSORGTOP
 10
0.0
 20
0.0
 30
0.0
  9
$PUCSORGBOTTOM
 10
0.0
 20
0.0
 30
0.0
  9
$PUCSORGLEFT
 10
0.0
 20
0.0
 30
0.0
  9
$PUCSORGRIGHT
 10
0.0
 20
0.0
 30
0.0
  9
$PUCSORGFRONT
 10
0.0
 20
0.0
 30
0.0
  9
$PUCSORGBACK
 10
0.0
 20
0.0
 30
0.0
  9
$USERI1
 70
     0
  9
$USERI2
 70
     0
  9
$USERI3
 70
     0
  9
$USERI4
 70
     0
  9
$USERI5
 70
     0
  9
$USERR1
 40
0.0
  9
$USERR2
 40
0.0
  9
$USERR3
 40
0.0
  9
$USERR4
 40
0.0
  9
$USERR5
 40
0.0
  9
$WORLDVIEW
 70
     1
  9
$SHADEDGE
 70
     3
  9
$SHADEDIF
 70
    70
  9
$TILEMODE
 70
     1
  9
$MAXACTVP
 70
    64
  9
$PINSBASE
 10
0.0
 20
0.0
 30
0.0
  9
$PLIMCHECK
 70
     0
  9
$PEXTMIN
 10
1.000000000000000E+20
 20
1.000000000000000E+20
 30
1.000000000000000E+20
  9
$PEXTMAX
 10
-1.000000000000000E+20
 20
-1.000000000000000E+20
 30
-1.000000000000000E+20
  9
$PLIMMIN
 10
0.0
 20
0.0
  9
$PLIMMAX
 10
420.0
 20
297.0
  9
$UNITMODE
 70
     0
  9
$VISRETAIN
 70
     1
  9
$PLINEGEN
 70
     0
  9
$PSLTSCALE
 70
     1
  9
$TREEDEPTH
 70
  3020
  9
$CMLSTYLE
  2
Standard
  9
$CMLJUST
 70
     0
  9
$CMLSCALE
 40
20.0
  9
$PROXYGRAPHICS
 70
     1
  9
$MEASUREMENT
 70
     1
  9
$CELWEIGHT
370
    -1
  9
$ENDCAPS
280
     0
  9
$JOINSTYLE
280
     0
  9
$LWDISPLAY
290
     0
  9
$INSUNITS
 70
     4
  9
$HYPERLINKBASE
  1

  9
$STYLESHEET
  1

  9
$XEDIT
290
     1
  9
$CEPSNTYPE
380
     0
  9
$PSTYLEMODE
290
     1
  9
$FINGERPRINTGUID
  2
{9C21AA36-FF47-4B70-8CE1-BBC6E12DA4E5}
  9
$VERSIONGUID
  2
{05640B32-5444-4BE8-B474-6D3AE3D0E0CD}
  9
$EXTNAMES
290
     1
  9
$PSVPSCALE
 40
0.0
  9
$OLESTARTUP
290
     0
  0
ENDSEC
  0
SECTION
  2
CLASSES
  0
CLASS
  1
ACDBDICTIONARYWDFLT
  2
AcDbDictionaryWithDefault
  3
ObjectDBX Classes
 90
        0
280
     0
281
     0
  0
CLASS
  1
ACDBPLACEHOLDER
  2
AcDbPlaceHolder
  3
ObjectDBX Classes
 90
        0
280
     0
281
     0
  0
CLASS
  1
LAYOUT
  2
AcDbLayout
  3
ObjectDBX Classes
 90
        0
280
     0
281
     0
  0
CLASS
  1
AMGSETTINGSOBJ
  2
AmgSettingsObj
  3
"AcadM|Product Description: AutoCAD Mechanical 2000|Company: Autodesk"
 90
        0
280
     0
281
     0
  0
CLASS
  1
ACME_DOCUMENT
  2
AcMeDbDoc
  3
AcMeServices
 90
        0
280
     0
281
     0
  0
CLASS
  1
ACMESCOPE
  2
AcMeScope
  3
AcMeServices
 90
        0
280
     0
281
     0
  0
CLASS
  1
ACMECOMMANDHISTORY
  2
AcMeCommandHistory
  3
AcMeServices
 90
        0
280
     0
281
     0
  0
CLASS
  1
DICTIONARYVAR
  2
AcDbDictionaryVar
  3
ObjectDBX Classes
 90
        0
280
     0
281
     0
  0
CLASS
  1
ACIMSYSVARMAN
  2
AcImSysVarManager
  3
AcMeServices
 90
        0
280
     0
281
     0
  0
CLASS
  1
ACIMREALSYSVAR
  2
AcImRealSysVar
  3
AcMeServices
 90
        0
280
     0
281
     0
  0
CLASS
  1
ACIMINTSYSVAR
  2
AcImIntSysVar
  3
AcMeServices
 90
        0
280
     0
281
     0
  0
CLASS
  1
ACMEDRAWINGMAN
  2
AcMeDrawingMan
  3
AcMeServices
 90
        0
280
     0
281
     0
  0
CLASS
  1
ACMEVIEW
  2
AcMeView
  3
AcMeServices
 90
        0
280
     0
281
     0
  0
CLASS
  1
ACDBENTITYCACHE
  2
AcMeEntityCache
  3
AcMeServices
 90
        0
280
     0
281
     0
  0
CLASS
  1
GSMANAGER
  2
AcMeGSManager
  3
AcMeServices
 90
        0
280
     0
281
     0
  0
CLASS
  1
AMDTINTERNALREACTOR
  2
AmdtInternalReactor
  3
AcMeServices
 90
        0
280
     0
281
     0
  0
CLASS
  1
ACMESTATEMGR
  2
AcMeStateMgr
  3
AcMeServices
 90
        0
280
     0
281
     0
  0
CLASS
  1
ACGREFMASTER
  2
AcGrefMaster
  3
AcAttribServices
 90
        0
280
     0
281
     0
  0
CLASS
  1
ACME_DATABASE
  2
AcMeDbDatabase
  3
AcMeServices
 90
        0
280
     0
281
     0
  0
CLASS
  1
ACRFINSADJUSTERMGR
  2
AcRfInsAdjusterMgr
  3
AcMeServices
 90
        0
280
     0
281
     0
  0
CLASS
  1
ACGREFACADMASTER
  2
AcGrefacadMaster
  3
AcGrefServices
 90
        0
280
     0
281
     0
  0
CLASS
  1
AMIMASTER
  2
AmiMaster
  3
AmiServices
 90
        0
280
     0
281
     0
  0
CLASS
  1
ACIMSTRSYSVAR
  2
AcImStrSysVar
  3
AcMeServices
 90
        0
280
     0
281
     0
  0
CLASS
  1
ACMSTANDARDDIN
  2
AcmStandardDIN
  3
"Amdt_StdImp|Product Description: AutoCAD Mechanical 2004 DX|Company: Autodesk"
 90
        0
280
     0
281
     0
  0
CLASS
  1
AMGOBJPROPCFG
  2
AmgObjPropCfg
  3
"AmgLay|Product Description: AutoCAD Mechanical 2000|Company: Autodesk"
 90
        1
280
     0
281
     0
  0
CLASS
  1
AMDTEDGESTANDARDDIN
  2
AmdtEdgeStdDIN
  3
"Amdt_StdImp|Product Description: AutoCAD Mechanical 2004 DX|Company: Autodesk"
 90
        0
280
     0
281
     0
  0
CLASS
  1
ACMSURFSTANDARDDIN
  2
AcmSurfTextStdDIN
  3
"Amdt_StdImp|Product Description: AutoCAD Mechanical 2004 DX|Company: Autodesk"
 90
        0
280
     0
281
     0
  0
CLASS
  1
ACMFCFSTANDARDDIN
  2
AcmFCFStdDIN
  3
"Amdt_StdImp|Product Description: AutoCAD Mechanical 2004 DX|Company: Autodesk"
 90
        0
280
     0
281
     0
  0
CLASS
  1
ACMWELDSTANDARDDIN
  2
AcmWeldingStdDIN
  3
"Amdt_StdImp|Product Description: AutoCAD Mechanical 2004 DX|Company: Autodesk"
 90
        0
280
     0
281
     0
  0
CLASS
  1
ACMIDSTANDARDDIN
  2
AcmIdStdDIN
  3
"Amdt_StdImp|Product Description: AutoCAD Mechanical 2004 DX|Company: Autodesk"
 90
        0
280
     0
281
     0
  0
CLASS
  1
ACMDATUMSTANDARDDIN
  2
AcmDatumStdDIN
  3
"Amdt_StdImp|Product Description: AutoCAD Mechanical 2004 DX|Company: Autodesk"
 90
        0
280
     0
281
     0
  0
CLASS
  1
ACMBOMSTANDARDDIN
  2
AcmBOMStdDIN
  3
"Amdt_StdImp|Product Description: AutoCAD Mechanical 2004 DX|Company: Autodesk"
 90
        0
280
     0
281
     0
  0
CLASS
  1
ACMDETAILSTANDARDDIN
  2
AmdtDetailSymStdDIN
  3
"Amdt_StdImp|Product Description: AutoCAD Mechanical 2004 DX|Company: Autodesk"
 90
        0
280
     0
281
     0
  0
CLASS
  1
ACMSECTIONSTANDARDDIN
  2
AmdtSectionSymStdDIN
  3
"Amdt_StdImp|Product Description: AutoCAD Mechanical 2004 DX|Company: Autodesk"
 90
        0
280
     0
281
     0
  0
CLASS
  1
ACMCENTERLINESTANDARDDIN
  2
AmdtCenterLineStdDIN
  3
"Amdt_StdImp|Product Description: AutoCAD Mechanical 2004 DX|Company: Autodesk"
 90
        0
280
     0
281
     0
  0
CLASS
  1
ACMTHREADLINESTANDARDDIN
  2
AmdtThreadLineStdDIN
  3
"Amdt_StdImp|Product Description: AutoCAD Mechanical 2004 DX|Company: Autodesk"
 90
        0
280
     0
281
     0
  0
CLASS
  1
ACAMGLAYSTD
  2
AcAmgLayStd
  3
"AcAmgLayStd|Product Description: AutoCAD Mechanical 2000|Company: Autodesk"
 90
        0
280
     0
281
     0
  0
CLASS
  1
ACAMGDIMSTD
  2
AcAmgDimStd
  3
"AcAmgDimStd|Product Description: AutoCAD Mechanical 2000|Company: Autodesk"
 90
        0
280
     0
281
     0
  0
CLASS
  1
ACAMGTITLESTD
  2
AcAmgTitleStd
  3
"TITLEAPP"
 90
        0
280
     0
281
     0
  0
CLASS
  1
ACMDATADICTIONARY
  2
AcmDataDictionary
  3
"AcmSymBB|Product Description: AutoCAD Mechanical 2004 DX|Company: Autodesk"
 90
        0
280
     0
281
     0
  0
CLASS
  1
ACMDATAENTRYBLOCK
  2
AcmDataEntryBlock
  3
"AcmSymBB|Product Description: AutoCAD Mechanical 2004 DX|Company: Autodesk"
 90
        0
280
     0
281
     0
  0
CLASS
  1
LAYER_INDEX
  2
AcDbLayerIndex
  3
ObjectDBX Classes
 90
    32768
280
     0
281
     0
  0
CLASS
  1
IDBUFFER
  2
AcDbIdBuffer
  3
ObjectDBX Classes
 90
    32768
280
     0
281
     0
  0
CLASS
  1
ACMNOTESTANDARDDIN
  2
AmdtNoteStdDIN
  3
"Amdt_StdImp|Product Description: AutoCAD Mechanical 2004 DX|Company: Autodesk"
 90
        0
280
     0
281
     0
  0
CLASS
  1
ACAMGHOLECHARTSTDDIN
  2
AcAmgHoleChartStdDIN
  3
ACMSYMBB_MODULE_NAME
 90
        0
280
     0
281
     0
  0
CLASS
  1
AM_DRAWING_MGR
  2
AcDmDwgMgr
  3
AcMechDwgViewMgmt
 90
        0
280
     0
281
     0
  0
CLASS
  1
AM_DWG_DOCUMENT
  2
AcDmDwgDocument
  3
AcMechDwgViewMgmt
 90
        0
280
     0
281
     0
  0
CLASS
  1
AM_DWG_SHEET
  2
AcDmSheet
  3
AcMechDwgViewMgmt
 90
        0
280
     0
281
     0
  0
CLASS
  1
AM_VIEWDIMPARMAP
  2
AcDmViewDimParMap
  3
AcMechDwgViewMgmt
 90
        0
280
     0
281
     0
  0
CLASS
  1
AM_DWGMGR_NAME
  2
AcDmDwgMgrName
  3
AcMechDwgViewMgmt
 90
        0
280
     0
281
     0
  0
CLASS
  1
AMDTMENUSTATEMGR
  2
AmdtMenuStateMgr
  3
McadcomServices
 90
        0
280
     0
281
     0
  0
CLASS
  1
AMDTMCOMMENUSTATE
  2
AmdtMcomMenuState
  3
McadcomServices
 90
        0
280
     0
281
     0
  0
CLASS
  1
MAPIAMMOUDLE
  2
MApiAmModule
  3
MApiAmServices
 90
        0
280
     0
281
     0
  0
CLASS
  1
AMDTADMENUSTATE
  2
AmdtAdMenuState
  3
DesignerServices
 90
        0
280
     0
281
     0
  0
CLASS
  1
ADAPPL
  2
AcAdAppl
  3
DesignerServices
 90
        0
280
     0
281
     0
  0
CLASS
  1
DEPMGR
  2
AcAdDepMgr
  3
DesignerServices
 90
        0
280
     0
281
     0
  0
CLASS
  1
PARAMMGR
  2
AcAdParamMgr
  3
DesignerServices
 90
        0
280
     0
281
     0
  0
CLASS
  1
PARAMSCOPE
  2
AcAdParamScope
  3
DesignerServices
 90
        0
280
     0
281
     0
  0
CLASS
  1
NAMEDAPPL
  2
AcAdNamedAppl
  3
DesignerServices
 90
        0
280
     0
281
     0
  0
CLASS
  1
AMDTDMMENUSTATE
  2
AmdtDmMenuState
  3
AcMechDwgViewMgmt
 90
        0
280
     0
281
     0
  0
CLASS
  1
AMDTAMMENUSTATE
  2
AmdtAmMenuState
  3
DesignerAssemblies
 90
        0
280
     0
281
     0
  0
CLASS
  1
ACAMPROJECT
  2
AcAmProject
  3
DesignerAssemblies
 90
        0
280
     0
281
     0
  0
CLASS
  1
ACAMGRCOMPDEF
  2
AcAmGrCompDef
  3
DesignerAssemblies
 90
        0
280
     0
281
     0
  0
CLASS
  1
ACCMCONTEXT
  2
AcCmContext
  3
DesignerAssemblies
 90
        0
280
     0
281
     0
  0
CLASS
  1
ACAMCOMPDEF
  2
AcAmCompDef
  3
DesignerAssemblies
 90
        0
280
     0
281
     0
  0
CLASS
  1
ACAMCOMPDEFMGR
  2
AcAmCompDefMgr
  3
DesignerAssemblies
 90
        0
280
     0
281
     0
  0
CLASS
  1
AMCONTEXTMGR
  2
AcAmContextMgr
  3
DesignerAssemblies
 90
        0
280
     0
281
     0
  0
CLASS
  1
ACAMCONTEXTMODELER
  2
AcAmContextModeler
  3
DesignerAssemblies
 90
        0
280
     0
281
     0
  0
CLASS
  1
CATALOGSTATE
  2
AcAmCatalogState
  3
DesignerAssemblies
 90
        0
280
     0
281
     0
  0
CLASS
  1
ACAMGRCOMPDEFSET
  2
AcAmGrCompDefSet
  3
DesignerAssemblies
 90
        0
280
     0
281
     0
  0
CLASS
  1
AMDTBROWSERDBTAB
  2
AmdtBrowserDbTab
  3
McadcomServices
 90
        0
280
     0
281
     0
  0
CLASS
  1
CBROWSERAPPOBJECT
  2
CBrowserAppObject
  3
McadcomServices
 90
        0
280
     0
281
     0
  0
CLASS
  1
DM_PLACEHOLDER
  2
AcDmSelsetPlaceholder
  3
AcMechDwgViewMgmt
 90
        0
280
     0
281
     0
  0
CLASS
  1
TABLESTYLE
  2
AcDbTableStyle
  3
ObjectDBX Classes
 90
     2047
280
     0
281
     0
  0
CLASS
  1
VAACXREFPANELOBJECT
  2
VaAcXREFPanelObject
  3
VAAC_ADDIN
 90
    32768
280
     0
281
     0
  0
CLASS
  1
VAACIMAGEINVENTORY
  2
VaAcImageInventory
  3
VAAC_ADDIN
 90
    32768
280
     0
281
     0
  0
CLASS
  1
AMDTNOTETEMPLATEDB
  2
AmdtNoteTemplateDB
  3
AMDT_STDIMP_MODULE_NAME
 90
        0
280
     0
281
     0
  0
CLASS
  1
ACAMGFILTERDAT
  2
AcAmgFilterDat
  3
"AcadM|Product Description: AutoCAD Mechanical 2000|Company: Autodesk"
 90
        0
280
     0
281
     0
  0
CLASS
  1
ACMBOM
  2
AcmBom
  3
"AcmSymBB|Product Description: AutoCAD Mechanical 2004 DX|Company: Autodesk"
 90
    32768
280
     0
281
     0
  0
CLASS
  1
AMDTFORMULAUPDATEDISPATCHER
  2
AmdtFormulaUpdateDispatcher
  3
AcMeServices
 90
    32768
280
     0
281
     0
  0
CLASS
  1
DIMASSOC
  2
AcDbDimAssoc
  3
"AcDbDimAssoc|Product Desc:     AcDim ARX App For Dimension|Company:          Autodesk, Inc.|WEB Address:      www.autodesk.com"
 90
        0
280
     0
281
     0
  0
CLASS
  1
SORTENTSTABLE
  2
AcDbSortentsTable
  3
ObjectDBX Classes
 90
        0
280
     0
281
     0
  0
CLASS
  1
ACRFATTGENMGR
  2
AcRfAttGeneralMgr
  3
AcAttribServices
 90
        0
280
     0
281
     0
  0
ENDSEC
  0
SECTION
  2
TABLES
  0
TABLE
  2
VPORT
  5
8
330
0
100
AcDbSymbolTable
 70
     3
  0
VPORT
  5
48B
330
8
100
AcDbSymbolTableRecord
100
AcDbViewportTableRecord
  2
*Active
 70
     0
 10
0.0
 20
0.0
 11
1.0
 21
1.0
 12
1678.058756800038
 22
1041.89959543887
 13
0.0
 23
0.0
 14
2.5
 24
2.5
 15
10.0
 25
10.0
 16
0.0
 26
0.0
 36
1.0
 17
0.0
 27
0.0
 37
0.0
 40
475.7777705554993
 41
1.378804960541149
 42
50.0
 43
0.0
 44
0.0
 50
0.0
 51
0.0
 71
     0
 72
   100
 73
     1
 74
     3
 75
     0
 76
     0
 77
     0
 78
     0
281
     0
 65
     1
110
0.0
120
0.0
130
0.0
111
1.0
121
0.0
131
0.0
112
0.0
122
1.0
132
0.0
 79
     0
146
0.0
  0
ENDTAB
  0
TABLE
  2
LTYPE
  5
5
330
0
100
AcDbSymbolTable
 70
    20
  0
LTYPE
  5
14
330
5
100
AcDbSymbolTableRecord
100
AcDbLinetypeTableRecord
  2
ByBlock
 70
     0
  3

 72
    65
 73
     0
 40
0.0
  0
LTYPE
  5
15
330
5
100
AcDbSymbolTableRecord
100
AcDbLinetypeTableRecord
  2
ByLayer
 70
     0
  3

 72
    65
 73
     0
 40
0.0
  0
LTYPE
  5
16
330
5
100
AcDbSymbolTableRecord
100
AcDbLinetypeTableRecord
  2
Continuous
 70
     0
  3
Solid line
 72
    65
 73
     0
 40
0.0
  0
LTYPE
  5
50
330
5
100
AcDbSymbolTableRecord
100
AcDbLinetypeTableRecord
  2
Amconstr
 70
     0
  3
_______________________
 72
    65
 73
     2
 40
9999.0
 49
9999.0
 74
     0
 49
0.0
 74
     0
  0
LTYPE
  5
55
330
5
100
AcDbSymbolTableRecord
100
AcDbLinetypeTableRecord
  2
Amzigzag
 70
     0
  3
/\/-/\/-/\/-/\/-/\/-/\/
 72
    65
 73
     2
 40
11.0001
 49
0.0001
 74
     4
 75
   136
340
285
 46
0.04
 50
0.0
 44
0.0
 45
0.0
 49
-11.0
 74
     0
  0
LTYPE
  5
56
330
5
100
AcDbSymbolTableRecord
100
AcDbLinetypeTableRecord
  2
AM_DIN_F_W050
 70
     0
  3
__ __ __ __ __ __ __ __ __ __ __ __ __ __ __
 72
    65
 73
     2
 40
6.25
 49
4.75
 74
     0
 49
-1.5
 74
     0
  0
LTYPE
  5
57
330
5
100
AcDbSymbolTableRecord
100
AcDbLinetypeTableRecord
  2
AM_DIN_G_W050
 70
     0
  3
____ . ____ . ____ . ____ . ____ . ____ . ____
 72
    65
 73
     4
 40
13.75
 49
9.75
 74
     0
 49
-1.5
 74
     0
 49
1.0
 74
     0
 49
-1.5
 74
     0
  0
LTYPE
  5
58
330
5
100
AcDbSymbolTableRecord
100
AcDbLinetypeTableRecord
  2
AM_DIN_K_W050
 70
     0
  3
_____ . . _____ . . _____ . . ____ .. ____
 72
    65
 73
     6
 40
16.25
 49
9.75
 74
     0
 49
-1.5
 74
     0
 49
1.0
 74
     0
 49
-1.5
 74
     0
 49
1.0
 74
     0
 49
-1.5
 74
     0
  0
LTYPE
  5
59
330
5
100
AcDbSymbolTableRecord
100
AcDbLinetypeTableRecord
  2
AM_DIN_G_W050x2
 70
     0
  3
__ . __ . __ . __ . __ . __
 72
    65
 73
     4
 40
6.875
 49
4.75
 74
     0
 49
-0.875
 74
     0
 49
0.375
 74
     0
 49
-0.875
 74
     0
  0
LTYPE
  5
5A
330
5
100
AcDbSymbolTableRecord
100
AcDbLinetypeTableRecord
  2
AM_DIN_F_W050x2
 70
     0
  3
 _ _ _ _ _ _ _ _ _ _ _ _
 72
    65
 73
     2
 40
3.125
 49
2.25
 74
     0
 49
-0.875
 74
     0
  0
LTYPE
  5
68
330
5
100
AcDbSymbolTableRecord
100
AcDbLinetypeTableRecord
  2
ACDINWELD
 70
     0
  3
_ _ _ _ _
 72
    65
 73
     2
 40
2.0
 49
2.0
 74
     0
 49
-1.0
 74
     0
  0
LTYPE
  5
69
330
5
100
AcDbSymbolTableRecord
100
AcDbLinetypeTableRecord
  2
ACDINTGB
 70
     0
  3
__ . . __ . .
 72
    65
 73
     6
 40
9.0
 49
4.0
 74
     0
 49
-1.0
 74
     0
 49
1.0
 74
     0
 49
-1.0
 74
     0
 49
1.0
 74
     0
 49
-1.0
 74
     0
  0
LTYPE
  5
6A
330
5
100
AcDbSymbolTableRecord
100
AcDbLinetypeTableRecord
  2
ACDINTGL
 70
     0
  3
_ _ _ _ _
 72
    65
 73
     2
 40
3.0
 49
2.0
 74
     0
 49
-1.0
 74
     0
  0
LTYPE
  5
6C
330
5
100
AcDbSymbolTableRecord
100
AcDbLinetypeTableRecord
  2
CENTER
 70
     0
  3
__ . __
 72
    65
 73
     4
 40
7.0
 49
4.0
 74
     0
 49
-1.0
 74
     0
 49
1.0
 74
     0
 49
-1.0
 74
     0
  0
LTYPE
  5
F2
330
5
100
AcDbSymbolTableRecord
100
AcDbLinetypeTableRecord
  2
HIDDEN
 70
     0
  3
Hidden __ __ __ __ __ __ __ __ __ __ __ __ __ _
 72
    65
 73
     2
 40
9.524999999999998
 49
6.349999999999999
 74
     0
 49
-3.174999999999999
 74
     0
  0
LTYPE
  5
F3
330
5
100
AcDbSymbolTableRecord
100
AcDbLinetypeTableRecord
  2
PHANTOM2
 70
     0
  3
Phantom (.5x) ___ _ _ ___ _ _ ___ _ _ ___ _ _
 72
    65
 73
     6
 40
31.75
 49
15.875
 74
     0
 49
-3.174999999999999
 74
     0
 49
3.174999999999999
 74
     0
 49
-3.174999999999999
 74
     0
 49
3.174999999999999
 74
     0
 49
-3.174999999999999
 74
     0
  0
ENDTAB
  0
TABLE
  2
LAYER
  5
2
102
{ACAD_XDICTIONARY
360
C0
102
}
330
0
100
AcDbSymbolTable
 70
     6
  0
LAYER
  5
10
330
2
100
AcDbSymbolTableRecord
100
AcDbLayerTableRecord
  2
0
 70
     0
 62
     7
  6
Continuous
370
    -3
390
F
  0
LAYER
  5
328
330
2
100
AcDbSymbolTableRecord
100
AcDbLayerTableRecord
  2
AM_7
 70
     0
 62
     4
  6
AM_DIN_G_W050
370
    25
390
F
  0
LAYER
  5
329
330
2
100
AcDbSymbolTableRecord
100
AcDbLayerTableRecord
  2
DEFPOINTS
 70
     0
 62
     7
  6
Continuous
290
     0
370
    -3
390
F
  0
LAYER
  5
32A
330
2
100
AcDbSymbolTableRecord
100
AcDbLayerTableRecord
  2
AM_5
 70
     0
 62
     3
  6
Continuous
370
    25
390
F
  0
LAYER
  5
32B
330
2
100
AcDbSymbolTableRecord
100
AcDbLayerTableRecord
  2
AM_4
 70
     0
 62
     3
  6
Continuous
370
    25
390
F
  0
ENDTAB
  0
TABLE
  2
STYLE
  5
3
330
0
100
AcDbSymbolTable
 70
     8
  0
STYLE
  5
11
330
3
100
AcDbSymbolTableRecord
100
AcDbTextStyleTableRecord
  2
STANDARD
 70
     0
 40
0.0
 41
1.0
 50
0.0
 71
     0
 42
2.5
  3
ISOCP.SHX
  4
bigfont.shx
  0
STYLE
  5
5B
330
3
100
AcDbSymbolTableRecord
100
AcDbTextStyleTableRecord
  2
ACDINTS
 70
     0
 40
1.0
 41
1.0
 50
0.0
 71
     0
 42
2.5
  3
isocp.shx
  4
bigfont.shx
  0
STYLE
  5
67
330
3
100
AcDbSymbolTableRecord
100
AcDbTextStyleTableRecord
  2
ACDINGDT
 70
     0
 40
0.0
 41
1.0
 50
0.0
 71
     0
 42
2.5
  3
AMGDT
  4
bigfont.shx
  0
STYLE
  5
285
330
3
100
AcDbSymbolTableRecord
100
AcDbTextStyleTableRecord
  2

 70
     1
 40
0.0
 41
1.0
 50
0.0
 71
     0
 42
2.5
  3
genltshp.shx
  4

  0
ENDTAB
  0
TABLE
  2
VIEW
  5
6
330
0
100
AcDbSymbolTable
 70
     0
  0
ENDTAB
  0
TABLE
  2
UCS
  5
7
330
0
100
AcDbSymbolTable
 70
     0
  0
ENDTAB
  0
TABLE
  2
APPID
  5
9
330
0
100
AcDbSymbolTable
 70
    17
  0
APPID
  5
12
330
9
100
AcDbSymbolTableRecord
100
AcDbRegAppTableRecord
  2
ACAD
 70
     0
  0
APPID
  5
30
330
9
100
AcDbSymbolTableRecord
100
AcDbRegAppTableRecord
  2
MCAD_NO_VIS
 70
     0
  0
APPID
  5
31
330
9
100
AcDbSymbolTableRecord
100
AcDbRegAppTableRecord
  2
ACAD_TEMP_GRAPHIC
 70
     0
  0
APPID
  5
44
330
9
100
AcDbSymbolTableRecord
100
AcDbRegAppTableRecord
  2
ACATTRIBSERVICES
 70
     0
  0
APPID
  5
108
330
9
100
AcDbSymbolTableRecord
100
AcDbRegAppTableRecord
  2
AD_DRAW
 70
     0
  0
APPID
  5
126
330
9
100
AcDbSymbolTableRecord
100
AcDbRegAppTableRecord
  2
DESIGNERASSEMBLIES
 70
     0
  0
APPID
  5
12A
330
9
100
AcDbSymbolTableRecord
100
AcDbRegAppTableRecord
  2
ACADM_DIM_EDIT
 70
     0
  0
APPID
  5
12B
330
9
100
AcDbSymbolTableRecord
100
AcDbRegAppTableRecord
  2
AMDT_DM_ADJ
 70
     0
  0
APPID
  5
1A4
330
9
100
AcDbSymbolTableRecord
100
AcDbRegAppTableRecord
  2
ACAD_DSTYLE_DIMARC_LENGTH_SYMBOL
 70
     0
  0
APPID
  5
1A5
330
9
100
AcDbSymbolTableRecord
100
AcDbRegAppTableRecord
  2
ACAD_DSTYLE_DIMJOGGED_JOGANGLE_SYMBOL
 70
     0
  0
APPID
  5
22C
330
9
100
AcDbSymbolTableRecord
100
AcDbRegAppTableRecord
  2
AcAecLayerStandard
 70
     0
  0
APPID
  5
32F
330
9
100
AcDbSymbolTableRecord
100
AcDbRegAppTableRecord
  2
GENIUS_GENOENT_13
 70
     0
  0
APPID
  5
330
330
9
100
AcDbSymbolTableRecord
100
AcDbRegAppTableRecord
  2
GENIUS_GENODEF_13
 70
     0
  0
APPID
  5
331
330
9
100
AcDbSymbolTableRecord
100
AcDbRegAppTableRecord
  2
GENIUS_GENOLIS_13
 70
     0
  0
APPID
  5
332
330
9
100
AcDbSymbolTableRecord
100
AcDbRegAppTableRecord
  2
GENIUS_GENOREF_13
 70
     0
  0
APPID
  5
333
330
9
100
AcDbSymbolTableRecord
100
AcDbRegAppTableRecord
  2
ACAD_PSEXT
 70
     0
  0
APPID
  5
334
330
9
100
AcDbSymbolTableRecord
100
AcDbRegAppTableRecord
  2
GENIUS_GENOBJ-N-CRS_13
 70
     0
  0
ENDTAB
  0
TABLE
  2
DIMSTYLE
  5
A
330
0
100
AcDbSymbolTable
 70
    11
100
AcDbDimStyleTable
 71
     1
340
6F
  0
DIMSTYLE
105
6F
102
{ACAD_REACTORS
330
4B
102
}
330
A
100
AcDbSymbolTableRecord
100
AcDbDimStyleTableRecord
  2
AM_DIN
 70
     0
  4
"
 41
2.5
 42
1.0
 43
10.0
 44
1.0
 47
0.1
 48
0.1
 73
     0
 74
     0
 77
     1
 78
     8
 79
     2
140
3.5
141
0.0
143
0.0393701
146
0.71
147
1.5
172
     1
176
   256
177
   256
178
     2
271
     2
272
     3
274
     4
283
     0
284
     8
340
11
371
    -1
372
    -1
1001
ACAD_DSTYLE_DIMARC_LENGTH_SYMBOL
1070
   379
1070
     0
1001
ACAD_DSTYLE_DIMJOGGED_JOGANGLE_SYMBOL
1070
   384
1040
1.570796326794896
  0
DIMSTYLE
105
70
330
A
100
AcDbSymbolTableRecord
100
AcDbDimStyleTableRecord
  2
AM_DIN$3
 70
     0
  4
"
 41
2.5
 42
1.0
 43
10.0
 44
1.0
 47
0.1
 48
0.1
 73
     0
 77
     1
 78
     8
 79
     2
140
3.5
141
0.0
143
0.0393701
146
0.71
147
1.5
176
   256
177
   256
178
     2
271
     2
272
     3
274
     4
283
     0
284
     8
288
     1
289
     0
340
11
371
    -1
372
    -1
1001
ACAD_DSTYLE_DIMARC_LENGTH_SYMBOL
1070
   379
1070
     0
1001
ACAD_DSTYLE_DIMJOGGED_JOGANGLE_SYMBOL
1070
   384
1040
1.570796326794896
  0
DIMSTYLE
105
71
330
A
100
AcDbSymbolTableRecord
100
AcDbDimStyleTableRecord
  2
AM_DIN$4
 70
     0
  4
"
 41
2.5
 42
1.0
 43
10.0
 44
1.0
 47
0.1
 48
0.1
 73
     0
 77
     1
 78
     8
 79
     2
140
3.5
141
0.0
143
0.0393701
146
0.71
147
1.5
176
   256
177
   256
178
     2
271
     2
272
     3
274
     4
283
     0
284
     8
288
     1
289
     0
340
11
371
    -1
372
    -1
1001
ACAD_DSTYLE_DIMARC_LENGTH_SYMBOL
1070
   379
1070
     0
1001
ACAD_DSTYLE_DIMJOGGED_JOGANGLE_SYMBOL
1070
   384
1040
1.570796326794896
  0
DIMSTYLE
105
72
330
A
100
AcDbSymbolTableRecord
100
AcDbDimStyleTableRecord
  2
AM_DIN$6
 70
     0
  4
"
 41
2.5
 42
1.0
 43
10.0
 44
1.0
 47
0.1
 48
0.1
 73
     0
 74
     0
 78
     8
 79
     2
140
3.5
141
0.0
143
0.0393701
146
0.71
147
1.5
172
     1
176
   256
177
   256
178
     2
271
     2
272
     3
274
     4
283
     0
284
     8
340
11
371
    -1
372
    -1
1001
ACAD_DSTYLE_DIMARC_LENGTH_SYMBOL
1070
   379
1070
     0
1001
ACAD_DSTYLE_DIMJOGGED_JOGANGLE_SYMBOL
1070
   384
1040
1.570796326794896
  0
DIMSTYLE
105
73
330
A
100
AcDbSymbolTableRecord
100
AcDbDimStyleTableRecord
  2
AM_DIN$7
 70
     0
  4
"
 41
2.5
 42
1.0
 43
10.0
 44
1.0
 47
0.1
 48
0.1
 73
     0
 74
     0
 77
     1
 78
     8
 79
     2
140
5.0
141
0.0
143
0.0393701
146
0.71
147
1.5
172
     1
176
   256
177
   256
178
     2
271
     2
272
     3
274
     4
283
     0
284
     8
340
11
371
    -1
372
    -1
1001
ACAD_DSTYLE_DIMARC_LENGTH_SYMBOL
1070
   379
1070
     0
1001
ACAD_DSTYLE_DIMJOGGED_JOGANGLE_SYMBOL
1070
   384
1040
1.570796326794896
  0
DIMSTYLE
105
74
330
A
100
AcDbSymbolTableRecord
100
AcDbDimStyleTableRecord
  2
AM_DIN$SF
 70
     0
  4
"
 41
2.5
 42
1.0
 43
10.0
 44
1.0
 47
0.1
 48
0.1
 73
     0
 74
     0
 75
     1
 76
     1
 77
     1
 78
     8
 79
     2
140
3.5
141
0.0
143
0.0393701
146
0.71
147
1.5
172
     1
176
   256
177
   256
178
     2
271
     2
272
     3
274
     4
283
     0
284
     8
340
11
371
    -1
372
    -1
1001
ACAD_DSTYLE_DIMARC_LENGTH_SYMBOL
1070
   379
1070
     0
1001
ACAD_DSTYLE_DIMJOGGED_JOGANGLE_SYMBOL
1070
   384
1040
1.570796326794896
  0
DIMSTYLE
105
79
330
A
100
AcDbSymbolTableRecord
100
AcDbDimStyleTableRecord
  2
AM_DIN$SH
 70
     0
  4
"
 41
2.5
 42
1.0
 43
10.0
 44
1.0
 47
0.1
 48
0.1
 73
     0
 74
     0
 75
     1
 76
     1
 77
     1
 78
     8
 79
     2
140
3.5
141
0.0
143
0.0393701
144
2.0
146
0.71
147
1.5
172
     1
173
     1
176
   256
177
   256
178
     2
271
     2
272
     3
274
     4
283
     0
284
     8
340
11
343
75
371
    -1
372
    -1
1001
ACAD_DSTYLE_DIMARC_LENGTH_SYMBOL
1070
   379
1070
     0
1001
ACAD_DSTYLE_DIMJOGGED_JOGANGLE_SYMBOL
1070
   384
1040
1.570796326794896
  0
DIMSTYLE
105
32D
330
A
100
AcDbSymbolTableRecord
100
AcDbDimStyleTableRecord
  2
GEN-ISO
 70
     0
  4
"
 40
10.0
 41
2.5
 42
1.0
 43
7.0
 44
1.0
 47
0.1
 48
0.1
 73
     0
 74
     0
 77
     1
 78
     8
140
3.5
141
0.0
143
0.0393701
146
0.71
147
0.6
172
     1
176
     3
177
     3
178
     2
271
     2
272
     2
283
     0
340
11
  0
DIMSTYLE
105
32E
102
{ACAD_REACTORS
330
3CA
330
3CD
330
46A
330
46D
102
}
330
A
100
AcDbSymbolTableRecord
100
AcDbDimStyleTableRecord
  2
GEN-ISO$0
 70
     0
  4
"
 40
10.0
 41
2.5
 42
1.0
 43
7.0
 44
1.0
 47
0.1
 48
0.1
 73
     0
 74
     0
 77
     1
 78
     8
140
3.5
141
0.0
143
0.0393701
146
0.71
147
0.6
172
     1
176
     3
177
     3
178
     2
271
     2
272
     2
283
     0
340
11
  0
ENDTAB
  0
TABLE
  2
BLOCK_RECORD
  5
1
330
0
100
AcDbSymbolTable
 70
     8
  0
BLOCK_RECORD
  5
1F
102
{ACAD_XDICTIONARY
360
83
102
}
330
1
100
AcDbSymbolTableRecord
100
AcDbBlockTableRecord
  2
*Model_Space
340
22
  0
BLOCK_RECORD
  5
1B
330
1
100
AcDbSymbolTableRecord
100
AcDbBlockTableRecord
  2
*Paper_Space
340
1E
  0
BLOCK_RECORD
  5
23
330
1
100
AcDbSymbolTableRecord
100
AcDbBlockTableRecord
  2
*Paper_Space0
340
26
  0
BLOCK_RECORD
  5
75
330
1
100
AcDbSymbolTableRecord
100
AcDbBlockTableRecord
  2
GENAXEH
340
0
  0
BLOCK_RECORD
  5
471
330
1
100
AcDbSymbolTableRecord
100
AcDbBlockTableRecord
  2
*D6
340
0
  0
BLOCK_RECORD
  5
47D
330
1
100
AcDbSymbolTableRecord
100
AcDbBlockTableRecord
  2
*D7
340
0
  0
ENDTAB
  0
ENDSEC
  0
SECTION
  2
BLOCKS
  0
BLOCK
  5
20
330
1F
100
AcDbEntity
  8
0
100
AcDbBlockBegin
  2
*Model_Space
 70
     0
 10
0.0
 20
0.0
 30
0.0
  3
*Model_Space
  1

  0
ENDBLK
  5
21
330
1F
100
AcDbEntity
  8
0
100
AcDbBlockEnd
  0
BLOCK
  5
1C
330
1B
100
AcDbEntity
 67
     1
  8
0
100
AcDbBlockBegin
  2
*Paper_Space
 70
     0
 10
0.0
 20
0.0
 30
0.0
  3
*Paper_Space
  1

  0
ENDBLK
  5
1D
330
1B
100
AcDbEntity
 67
     1
  8
0
100
AcDbBlockEnd
  0
BLOCK
  5
24
330
23
100
AcDbEntity
 67
     1
  8
0
100
AcDbBlockBegin
  2
*Paper_Space0
 70
     0
 10
0.0
 20
0.0
 30
0.0
  3
*Paper_Space0
  1

  0
ENDBLK
  5
25
330
23
100
AcDbEntity
 67
     1
  8
0
100
AcDbBlockEnd
  0
BLOCK
  5
77
330
75
100
AcDbEntity
  8
0
100
AcDbBlockBegin
  2
GENAXEH
 70
     0
 10
0.0
 20
0.0
 30
0.0
  3
GENAXEH
  1

  0
LINE
  5
76
330
75
100
AcDbEntity
  8
0
100
AcDbLine
 10
-1.0
 20
0.0
 30
0.0
 11
1.0
 21
0.0
 31
0.0
  0
ENDBLK
  5
78
330
75
100
AcDbEntity
  8
0
100
AcDbBlockEnd
  0
BLOCK
  5
47B
330
471
100
AcDbEntity
  8
0
100
AcDbBlockBegin
  2
*D6
 70
     1
 10
0.0
 20
0.0
 30
0.0
  3
*D6
  1

  0
LINE
  5
472
330
471
100
AcDbEntity
  8
AM_5
 62
     3
370
    -2
100
AcDbLine
 10
1533.058756800038
 20
1093.191911016769
 30
0.0
 11
1533.058756800038
 21
805.6072798609715
 31
0.0
  0
LINE
  5
473
330
471
100
AcDbEntity
  8
AM_5
 62
     3
370
    -2
100
AcDbLine
 10
1823.058756800038
 20
1093.191911016769
 30
0.0
 11
1823.058756800038
 21
805.6072798609715
 31
0.0
  0
LINE
  5
474
330
471
100
AcDbEntity
  8
AM_5
 62
     3
370
    -2
100
AcDbLine
 10
1558.058756800038
 20
815.6072798609717
 30
0.0
 11
1798.058756800038
 21
815.6072798609717
 31
0.0
  0
SOLID
  5
475
330
471
100
AcDbEntity
  8
AM_5
 62
     3
100
AcDbTrace
 10
1558.058756800038
 20
819.7739465276383
 30
0.0
 11
1558.058756800038
 21
811.440613194305
 31
0.0
 12
1533.058756800038
 22
815.6072798609717
 32
0.0
 13
1533.058756800038
 23
815.6072798609717
 33
0.0
  0
SOLID
  5
476
330
471
100
AcDbEntity
  8
AM_5
 62
     3
100
AcDbTrace
 10
1798.058756800038
 20
819.7739465276383
 30
0.0
 11
1798.058756800038
 21
811.440613194305
 31
0.0
 12
1823.058756800038
 22
815.6072798609717
 32
0.0
 13
1823.058756800038
 23
815.6072798609717
 33
0.0
  0
MTEXT
  5
477
330
471
100
AcDbEntity
  8
AM_5
 62
     2
100
AcDbMText
 10
1678.058756800038
 20
839.1107247428614
 30
0.0
 40
35.0
 41
0.0
 71
     5
 72
     1
  1
290
 73
     1
 44
1.0
1001
ACAD
1000
MTEXTBEGIN
1070
    73
1070
     1
1070
    44
1040
1.0
1070
    74
1070
     0
1000
MTEXTEND
  0
POINT
  5
478
330
471
100
AcDbEntity
  8
DEFPOINTS
 62
     0
100
AcDbPoint
 10
1533.058756800038
 20
1103.191911016769
 30
0.0
  0
POINT
  5
479
330
471
100
AcDbEntity
  8
DEFPOINTS
 62
     0
100
AcDbPoint
 10
1823.058756800038
 20
1103.191911016769
 30
0.0
  0
POINT
  5
47A
330
471
100
AcDbEntity
  8
DEFPOINTS
 62
     0
100
AcDbPoint
 10
1823.058756800038
 20
815.6072798609717
 30
0.0
  0
ENDBLK
  5
47C
330
471
100
AcDbEntity
  8
0
100
AcDbBlockEnd
  0
BLOCK
  5
487
330
47D
100
AcDbEntity
  8
0
100
AcDbBlockBegin
  2
*D7
 70
     1
 10
0.0
 20
0.0
 30
0.0
  3
*D7
  1

  0
LINE
  5
47E
330
47D
100
AcDbEntity
  8
AM_5
 62
     3
370
    -2
100
AcDbLine
 10
1570.558756800038
 20
1093.191911016769
 30
0.0
 11
1570.558756800038
 21
866.710187357618
 31
0.0
  0
LINE
  5
47F
330
47D
100
AcDbEntity
  8
AM_5
 62
     3
370
    -2
100
AcDbLine
 10
1785.557417541672
 20
1093.191911016769
 30
0.0
 11
1785.557417541672
 21
866.710187357618
 31
0.0
  0
LINE
  5
480
330
47D
100
AcDbEntity
  8
AM_5
 62
     3
370
    -2
100
AcDbLine
 10
1595.558756800038
 20
876.710187357618
 30
0.0
 11
1760.557417541672
 21
876.710187357618
 31
0.0
  0
SOLID
  5
481
330
47D
100
AcDbEntity
  8
AM_5
 62
     3
100
AcDbTrace
 10
1595.558756800038
 20
880.8768540242846
 30
0.0
 11
1595.558756800038
 21
872.5435206909514
 31
0.0
 12
1570.558756800038
 22
876.710187357618
 32
0.0
 13
1570.558756800038
 23
876.710187357618
 33
0.0
  0
SOLID
  5
482
330
47D
100
AcDbEntity
  8
AM_5
 62
     3
100
AcDbTrace
 10
1760.557417541672
 20
880.8768540242846
 30
0.0
 11
1760.557417541672
 21
872.5435206909514
 31
0.0
 12
1785.557417541672
 22
876.710187357618
 32
0.0
 13
1785.557417541672
 23
876.710187357618
 33
0.0
  0
MTEXT
  5
483
330
47D
100
AcDbEntity
  8
AM_5
 62
     2
100
AcDbMText
 10
1678.537852533122
 20
900.2136322395077
 30
0.0
 40
35.0
 41
0.0
 71
     5
 72
     1
  1
215
 73
     1
 44
1.0
1001
ACAD
1000
MTEXTBEGIN
1070
    73
1070
     1
1070
    44
1040
1.0
1070
    74
1070
     0
1000
MTEXTEND
  0
POINT
  5
484
330
47D
100
AcDbEntity
  8
DEFPOINTS
 62
     0
100
AcDbPoint
 10
1570.558756800038
 20
1103.191911016769
 30
0.0
  0
POINT
  5
485
330
47D
100
AcDbEntity
  8
DEFPOINTS
 62
     0
100
AcDbPoint
 10
1785.557417541672
 20
1103.191911016769
 30
0.0
  0
POINT
  5
486
330
47D
100
AcDbEntity
  8
DEFPOINTS
 62
     0
100
AcDbPoint
 10
1785.557417541672
 20
876.710187357618
 30
0.0
  0
ENDBLK
  5
488
330
47D
100
AcDbEntity
  8
0
100
AcDbBlockEnd
  0
ENDSEC
  0
SECTION
  2
ENTITIES
  0
CIRCLE
  5
3D7
102
{ACAD_REACTORS
330
46C
102
}
330
1F
100
AcDbEntity
  8
0
100
AcDbCircle
 10
1678.058756800038
 20
1103.191911016769
 30
0.0
 40
145.0
  0
ARC
  5
3D8
102
{ACAD_REACTORS
330
46F
102
}
330
1F
100
AcDbEntity
  8
0
100
AcDbCircle
 10
1678.058756800038
 20
1103.191911016769
 30
0.0
 40
107.5
100
AcDbArc
 50
0.2860000000075141
 51
0.0
  0
CIRCLE
  5
3D9
330
1F
100
AcDbEntity
  8
0
100
AcDbCircle
 10
1678.058756800038
 20
1103.191911016769
 30
0.0
 40
110.5
  0
LINE
  5
3DA
330
1F
100
AcDbEntity
  8
0
100
AcDbLine
 10
1575.986756800038
 20
1078.43591101677
 30
0.0
 11
1667.848756800039
 21
1103.05091101677
 31
0.0
  0
LINE
  5
3DB
330
1F
100
AcDbEntity
  8
0
100
AcDbLine
 10
1577.28075680004
 20
1073.60691101677
 30
0.0
 11
1666.826756800038
 21
1097.599911016771
 31
0.0
  0
LINE
  5
3DC
330
1F
100
AcDbEntity
  8
0
100
AcDbLine
 10
1575.985756800038
 20
1078.431911016769
 30
0.0
 11
1577.27975680004
 21
1073.602911016769
 31
0.0
  0
LINE
  5
3DD
330
1F
100
AcDbEntity
  8
0
100
AcDbLine
 10
1689.288756800038
 20
1108.795911016771
 30
0.0
 11
1778.830756800039
 21
1132.787911016769
 31
0.0
  0
LINE
  5
3DE
330
1F
100
AcDbEntity
  8
0
100
AcDbLine
 10
1688.257756800039
 20
1103.342911016769
 30
0.0
 11
1780.124756800041
 21
1127.958911016769
 31
0.0
  0
POINT
  5
3DF
330
1F
100
AcDbEntity
  8
0
100
AcDbPoint
 10
1666.545756800039
 20
1094.968911016769
 30
0.0
  0
LINE
  5
3E0
330
1F
100
AcDbEntity
  8
0
100
AcDbLine
 10
1687.489756800039
 20
1099.888911016769
 30
0.0
 11
1678.467756800038
 21
1074.14891101677
 31
0.0
  0
LINE
  5
3E1
330
1F
100
AcDbEntity
  8
0
100
AcDbLine
 10
1687.892756800041
 20
1101.333911016769
 30
0.0
 11
1692.949756800038
 21
1128.14191101677
 31
0.0
  0
LINE
  5
3E2
330
1F
100
AcDbEntity
  8
0
100
AcDbLine
 10
1668.616756800039
 20
1106.502911016769
 30
0.0
 11
1677.63875680004
 21
1132.242911016771
 31
0.0
  0
LINE
  5
3E3
330
1F
100
AcDbEntity
  8
0
100
AcDbLine
 10
1668.236756800038
 20
1105.046911016771
 30
0.0
 11
1663.177756800041
 21
1078.234911016769
 31
0.0
  0
LINE
  5
3E4
330
1F
100
AcDbEntity
  8
0
100
AcDbLine
 10
1671.259756800039
 20
1070.33591101677
 30
0.0
 11
1667.519756800038
 21
1071.33791101677
 31
0.0
  0
LINE
  5
3E5
330
1F
100
AcDbEntity
  8
0
100
AcDbLine
 10
1688.600756800039
 20
1135.052911016768
 30
0.0
 11
1684.860756800038
 21
1136.054911016769
 31
0.0
  0
ARC
  5
3E6
330
1F
100
AcDbEntity
  8
0
100
AcDbCircle
 10
1687.04875680004
 20
1129.24691101677
 30
0.0
 40
6.0
100
AcDbArc
 50
349.3159999999767
 51
75.00000000000555
  0
ARC
  5
3E7
330
1F
100
AcDbEntity
  8
0
100
AcDbCircle
 10
1669.074756800038
 20
1077.13191101677
 30
0.0
 40
6.0
100
AcDbArc
 50
169.3159999999766
 51
255.0000000000056
  0
ARC
  5
3E8
330
1F
100
AcDbEntity
  8
0
100
AcDbCircle
 10
1672.814756800039
 20
1076.126911016769
 30
0.0
 40
6.0
100
AcDbArc
 50
255.0000000000056
 51
340.6839999999359
  0
ARC
  5
3E9
330
1F
100
AcDbEntity
  8
0
100
AcDbCircle
 10
1678.058756800038
 20
1103.191911016769
 30
0.0
 40
10.0
100
AcDbArc
 50
160.6839999999359
 51
169.3159999999766
  0
ARC
  5
3EA
330
1F
100
AcDbEntity
  8
0
100
AcDbCircle
 10
1678.058756800038
 20
1103.191911016769
 30
0.0
 40
10.0
100
AcDbArc
 50
340.6839999999359
 51
349.3159999999767
  0
LINE
  5
3EB
330
1F
100
AcDbEntity
  8
0
100
AcDbLine
 10
1778.830756800039
 20
1132.787911016769
 30
0.0
 11
1780.124756800041
 21
1127.958911016769
 31
0.0
  0
POINT
  5
3EC
330
1F
100
AcDbEntity
  8
AM_4
 48
0.1
100
AcDbPoint
 10
1710.668433006872
 20
1224.901393145891
 30
0.0
 50
104.9999999999944
  0
LINE
  5
3ED
330
1F
100
AcDbEntity
  8
AM_4
 48
0.1
100
AcDbLine
 10
1714.296709229461
 20
1223.930234738311
 30
0.0
 11
1719.602669084773
 21
1229.235731700314
 31
0.0
  0
LINE
  5
3EE
330
1F
100
AcDbEntity
  8
AM_4
 48
0.1
100
AcDbLine
 10
1707.043313380808
 20
1225.872741022159
 30
0.0
 11
1714.295484484589
 21
1223.92952763153
 31
0.0
  0
LINE
  5
3EF
330
1F
100
AcDbEntity
  8
AM_4
 48
0.1
100
AcDbLine
 10
1705.100258728868
 20
1233.121640843481
 30
0.0
 11
1707.041640348202
 21
1225.874224586076
 31
0.0
  0
LINE
  5
3F0
330
1F
100
AcDbEntity
  8
AM_4
 48
0.1
100
AcDbLine
 10
1705.100517547912
 20
1233.122606769308
 30
0.0
 11
1710.406736222271
 21
1238.429069657136
 31
0.0
  0
LINE
  5
3F1
330
1F
100
AcDbEntity
  8
AM_4
 48
0.1
100
AcDbLine
 10
1710.40796096714
 20
1238.429776763917
 30
0.0
 11
1717.659166145092
 21
1236.486822192334
 31
0.0
  0
LINE
  5
3F2
330
1F
100
AcDbEntity
  8
AM_4
 48
0.1
100
AcDbLine
 10
1717.659873251873
 20
1236.485597447462
 30
0.0
 11
1719.602927903817
 21
1229.23669762614
 31
0.0
  0
CIRCLE
  5
3F3
330
1F
100
AcDbEntity
  8
AM_4
 48
0.1
100
AcDbCircle
 10
1712.350756800039
 20
1231.179911016769
 30
0.0
 40
6.5
  0
CIRCLE
  5
3F4
330
1F
100
AcDbEntity
  8
AM_4
 48
0.1
100
AcDbCircle
 10
1712.350756800039
 20
1231.179911016769
 30
0.0
 40
4.0
  0
ARC
  5
3F5
330
1F
100
AcDbEntity
  8
AM_4
 48
0.1
100
AcDbCircle
 10
1712.350756800039
 20
1231.179911016769
 30
0.0
 40
3.2
100
AcDbArc
 50
157.0199999999402
 51
66.97400000009242
  0
POINT
  5
3F6
330
1F
100
AcDbEntity
  8
AM_4
 48
0.1
100
AcDbPoint
 10
1678.058756800038
 20
1248.19191101677
 30
0.0
  0
ARC
  5
3F7
330
1F
100
AcDbEntity
  8
0
100
AcDbCircle
 10
1683.298933552313
 20
1130.251542806671
 30
0.0
 40
5.999999999999998
100
AcDbArc
 50
75.0037157615695
 51
160.6877157617259
  0
POINT
  5
3F8
330
1F
100
AcDbEntity
  8
AM_4
 48
0.1
100
AcDbPoint
 10
1645.444823739778
 20
1224.900252525453
 30
0.0
 50
134.9999999999944
  0
LINE
  5
3F9
330
1F
100
AcDbEntity
  8
AM_4
 48
0.1
100
AcDbLine
 10
1649.072582324276
 20
1225.873342784684
 30
0.0
 11
1651.014929869435
 21
1233.121017861135
 31
0.0
  0
LINE
  5
3FA
330
1F
100
AcDbEntity
  8
AM_4
 48
0.1
100
AcDbLine
 10
1641.819704113714
 20
1223.928904649182
 30
0.0
 11
1649.071875217495
 21
1225.872118039812
 31
0.0
  0
LINE
  5
3FB
330
1F
100
AcDbEntity
  8
AM_4
 48
0.1
100
AcDbLine
 10
1636.51251951353
 20
1229.235108717965
 30
0.0
 11
1641.817513443017
 21
1223.929352936919
 31
0.0
  0
LINE
  5
3FC
330
1F
100
AcDbEntity
  8
AM_4
 48
0.1
100
AcDbLine
 10
1636.512260694487
 20
1229.236074643792
 30
0.0
 11
1638.454349420602
 21
1236.484715646069
 31
0.0
  0
LINE
  5
3FD
330
1F
100
AcDbEntity
  8
AM_4
 48
0.1
100
AcDbLine
 10
1638.455056527383
 20
1236.48594039094
 30
0.0
 11
1645.706261705335
 21
1238.428894962525
 31
0.0
  0
LINE
  5
3FE
330
1F
100
AcDbEntity
  8
AM_4
 48
0.1
100
AcDbLine
 10
1645.707486450203
 20
1238.428187855743
 30
0.0
 11
1651.014671050391
 21
1233.121983786963
 31
0.0
  0
CIRCLE
  5
3FF
330
1F
100
AcDbEntity
  8
AM_4
 48
0.1
100
AcDbCircle
 10
1643.76249994661
 20
1231.178770396331
 30
0.0
 40
6.5
  0
CIRCLE
  5
400
330
1F
100
AcDbEntity
  8
AM_4
 48
0.1
100
AcDbCircle
 10
1643.76249994661
 20
1231.178770396331
 30
0.0
 40
4.0
  0
ARC
  5
401
330
1F
100
AcDbEntity
  8
AM_4
 48
0.1
100
AcDbCircle
 10
1643.76249994661
 20
1231.178770396331
 30
0.0
 40
3.2
100
AcDbArc
 50
187.0200000000082
 51
96.97399999998365
  0
POINT
  5
402
330
1F
100
AcDbEntity
  8
AM_4
 48
0.1
100
AcDbPoint
 10
1588.96009149819
 20
1192.287460085633
 30
0.0
 50
164.9999999999944
  0
LINE
  5
403
330
1F
100
AcDbEntity
  8
AM_4
 48
0.1
100
AcDbLine
 10
1591.615277461545
 20
1194.944060262549
 30
0.0
 11
1589.673562240406
 21
1202.191904769714
 31
0.0
  0
LINE
  5
404
330
1F
100
AcDbEntity
  8
AM_4
 48
0.1
100
AcDbLine
 10
1586.306319748398
 20
1189.633688335838
 30
0.0
 11
1591.615277461545
 21
1194.942646048987
 31
0.0
  0
LINE
  5
405
330
1F
100
AcDbEntity
  8
AM_4
 48
0.1
100
AcDbLine
 10
1579.057061027671
 20
1191.575403556977
 30
0.0
 11
1586.304198428054
 21
1189.632981229059
 31
0.0
  0
LINE
  5
406
330
1F
100
AcDbEntity
  8
AM_4
 48
0.1
100
AcDbLine
 10
1579.056353920889
 20
1191.576110663757
 30
0.0
 11
1577.113931592973
 21
1198.824662277703
 31
0.0
  0
LINE
  5
407
330
1F
100
AcDbEntity
  8
AM_4
 48
0.1
100
AcDbLine
 10
1577.113931592969
 20
1198.826076491261
 30
0.0
 11
1582.422182199339
 21
1204.134327097631
 31
0.0
  0
LINE
  5
408
330
1F
100
AcDbEntity
  8
AM_4
 48
0.1
100
AcDbLine
 10
1582.423596412901
 20
1204.134327097631
 30
0.0
 11
1589.672855133624
 21
1202.192611876493
 31
0.0
  0
CIRCLE
  5
409
330
1F
100
AcDbEntity
  8
AM_4
 48
0.1
100
AcDbCircle
 10
1584.363897420478
 20
1196.883654163345
 30
0.0
 40
6.5
  0
CIRCLE
  5
40A
330
1F
100
AcDbEntity
  8
AM_4
 48
0.1
100
AcDbCircle
 10
1584.363897420478
 20
1196.883654163345
 30
0.0
 40
4.0
  0
ARC
  5
40B
330
1F
100
AcDbEntity
  8
AM_4
 48
0.1
100
AcDbCircle
 10
1584.363897420478
 20
1196.883654163345
 30
0.0
 40
3.2
100
AcDbArc
 50
217.0199999999852
 51
126.9739999999496
  0
POINT
  5
40C
330
1F
100
AcDbEntity
  8
AM_4
 48
0.1
100
AcDbPoint
 10
1556.349274670917
 20
1135.801587223603
 30
0.0
 50
194.9999999999944
  0
LINE
  5
40D
330
1F
100
AcDbEntity
  8
AM_4
 48
0.1
100
AcDbLine
 10
1557.320433078498
 20
1139.42986344619
 30
0.0
 11
1552.014936116496
 21
1144.735823301502
 31
0.0
  0
LINE
  5
40E
330
1F
100
AcDbEntity
  8
AM_4
 48
0.1
100
AcDbLine
 10
1555.377926794649
 20
1132.176467597539
 30
0.0
 11
1557.321140185279
 21
1139.428638701318
 31
0.0
  0
LINE
  5
40F
330
1F
100
AcDbEntity
  8
AM_4
 48
0.1
100
AcDbLine
 10
1548.129026973326
 20
1130.233412945598
 30
0.0
 11
1555.376443230733
 21
1132.174794564933
 31
0.0
  0
LINE
  5
410
330
1F
100
AcDbEntity
  8
AM_4
 48
0.1
100
AcDbLine
 10
1548.128061047501
 20
1130.233671764643
 30
0.0
 11
1542.821598159674
 21
1135.539890439001
 31
0.0
  0
LINE
  5
411
330
1F
100
AcDbEntity
  8
AM_4
 48
0.1
100
AcDbLine
 10
1542.820891052893
 20
1135.541115183871
 30
0.0
 11
1544.763845624476
 21
1142.792320361823
 31
0.0
  0
LINE
  5
412
330
1F
100
AcDbEntity
  8
AM_4
 48
0.1
100
AcDbLine
 10
1544.765070369348
 20
1142.793027468604
 30
0.0
 11
1552.013970190667
 21
1144.736082120548
 31
0.0
  0
CIRCLE
  5
413
330
1F
100
AcDbEntity
  8
AM_4
 48
0.1
100
AcDbCircle
 10
1550.070756800041
 20
1137.483911016769
 30
0.0
 40
6.5
  0
CIRCLE
  5
414
330
1F
100
AcDbEntity
  8
AM_4
 48
0.1
100
AcDbCircle
 10
1550.070756800041
 20
1137.483911016769
 30
0.0
 40
4.0
  0
ARC
  5
415
330
1F
100
AcDbEntity
  8
AM_4
 48
0.1
100
AcDbCircle
 10
1550.070756800041
 20
1137.483911016769
 30
0.0
 40
3.2
100
AcDbArc
 50
247.0199999998531
 51
156.9739999999521
  0
POINT
  5
416
330
1F
100
AcDbEntity
  8
AM_4
 48
0.1
100
AcDbPoint
 10
1556.350415291353
 20
1070.577977956511
 30
0.0
 50
224.9999999999944
  0
LINE
  5
417
330
1F
100
AcDbEntity
  8
AM_4
 48
0.1
100
AcDbLine
 10
1555.377325032122
 20
1074.205736541009
 30
0.0
 11
1548.129649955671
 21
1076.148084086168
 31
0.0
  0
LINE
  5
418
330
1F
100
AcDbEntity
  8
AM_4
 48
0.1
100
AcDbLine
 10
1557.321763167628
 20
1066.952858330451
 30
0.0
 11
1555.378549776994
 21
1074.205029434228
 31
0.0
  0
LINE
  5
419
330
1F
100
AcDbEntity
  8
AM_4
 48
0.1
100
AcDbLine
 10
1552.015559098844
 20
1061.645673730267
 30
0.0
 11
1557.321314879887
 21
1066.95066765975
 31
0.0
  0
LINE
  5
41A
330
1F
100
AcDbEntity
  8
AM_4
 48
0.1
100
AcDbLine
 10
1552.014593173016
 20
1061.64541491122
 30
0.0
 11
1544.76595217074
 21
1063.587503637339
 31
0.0
  0
LINE
  5
41B
330
1F
100
AcDbEntity
  8
AM_4
 48
0.1
100
AcDbLine
 10
1544.764727425868
 20
1063.588210744116
 30
0.0
 11
1542.821772854281
 21
1070.839415922068
 31
0.0
  0
LINE
  5
41C
330
1F
100
AcDbEntity
  8
AM_4
 48
0.1
100
AcDbLine
 10
1542.822479961066
 20
1070.840640666937
 30
0.0
 11
1548.128684029846
 21
1076.147825267124
 31
0.0
  0
CIRCLE
  5
41D
330
1F
100
AcDbEntity
  8
AM_4
 48
0.1
100
AcDbCircle
 10
1550.071897420476
 20
1068.895654163344
 30
0.0
 40
6.499999999999999
  0
CIRCLE
  5
41E
330
1F
100
AcDbEntity
  8
AM_4
 48
0.1
100
AcDbCircle
 10
1550.071897420476
 20
1068.895654163344
 30
0.0
 40
3.999999999999999
  0
ARC
  5
41F
330
1F
100
AcDbEntity
  8
AM_4
 48
0.1
100
AcDbCircle
 10
1550.071897420476
 20
1068.895654163344
 30
0.0
 40
3.199999999999999
100
AcDbArc
 50
277.0200000000074
 51
186.9739999999836
  0
POINT
  5
420
330
1F
100
AcDbEntity
  8
AM_4
 48
0.1
100
AcDbPoint
 10
1588.963207731177
 20
1014.09324571492
 30
0.0
 50
254.9999999999944
  0
LINE
  5
421
330
1F
100
AcDbEntity
  8
AM_4
 48
0.1
100
AcDbLine
 10
1586.30660755426
 20
1016.748431678276
 30
0.0
 11
1579.058763047095
 21
1014.806716457137
 31
0.0
  0
LINE
  5
422
330
1F
100
AcDbEntity
  8
AM_4
 48
0.1
100
AcDbLine
 10
1591.616979480969
 20
1011.439473965127
 30
0.0
 11
1586.308021767822
 21
1016.748431678276
 31
0.0
  0
LINE
  5
423
330
1F
100
AcDbEntity
  8
AM_4
 48
0.1
100
AcDbLine
 10
1589.67526425983
 20
1004.190215244404
 30
0.0
 11
1591.61768658775
 21
1011.437352644784
 31
0.0
  0
LINE
  5
424
330
1F
100
AcDbEntity
  8
AM_4
 48
0.1
100
AcDbLine
 10
1589.674557153053
 20
1004.189508137623
 30
0.0
 11
1582.426005539107
 21
1002.247085809703
 31
0.0
  0
LINE
  5
425
330
1F
100
AcDbEntity
  8
AM_4
 48
0.1
100
AcDbLine
 10
1582.424591325548
 20
1002.247085809703
 30
0.0
 11
1577.116340719179
 21
1007.555336416068
 31
0.0
  0
LINE
  5
426
330
1F
100
AcDbEntity
  8
AM_4
 48
0.1
100
AcDbLine
 10
1577.116340719179
 20
1007.556750629631
 30
0.0
 11
1579.058055940314
 21
1014.806009350356
 31
0.0
  0
CIRCLE
  5
427
330
1F
100
AcDbEntity
  8
AM_4
 48
0.1
100
AcDbCircle
 10
1584.367013653465
 20
1009.497051637207
 30
0.0
 40
6.5
  0
CIRCLE
  5
428
330
1F
100
AcDbEntity
  8
AM_4
 48
0.1
100
AcDbCircle
 10
1584.367013653465
 20
1009.497051637207
 30
0.0
 40
4.0
  0
ARC
  5
429
330
1F
100
AcDbEntity
  8
AM_4
 48
0.1
100
AcDbCircle
 10
1584.367013653465
 20
1009.497051637207
 30
0.0
 40
3.2
100
AcDbArc
 50
307.0199999998915
 51
216.9740000000981
  0
POINT
  5
42A
330
1F
100
AcDbEntity
  8
AM_4
 48
0.1
100
AcDbPoint
 10
1645.449080593204
 20
981.4824288876502
 30
0.0
 50
284.9999999999944
  0
LINE
  5
42B
330
1F
100
AcDbEntity
  8
AM_4
 48
0.1
100
AcDbLine
 10
1641.820804370615
 20
982.4535872952296
 30
0.0
 11
1636.514844515303
 21
977.1480903332271
 31
0.0
  0
LINE
  5
42C
330
1F
100
AcDbEntity
  8
AM_4
 48
0.1
100
AcDbLine
 10
1649.074200219268
 20
980.5110810113824
 30
0.0
 11
1641.822029115487
 21
982.4542944020109
 31
0.0
  0
LINE
  5
42D
330
1F
100
AcDbEntity
  8
AM_4
 48
0.1
100
AcDbLine
 10
1651.017254871208
 20
973.2621811900594
 30
0.0
 11
1649.075873251874
 21
980.5095974474648
 31
0.0
  0
LINE
  5
42E
330
1F
100
AcDbEntity
  8
AM_4
 48
0.1
100
AcDbLine
 10
1651.016996052164
 20
973.2612152642328
 30
0.0
 11
1645.710777377805
 21
967.9547523764053
 31
0.0
  0
LINE
  5
42F
330
1F
100
AcDbEntity
  8
AM_4
 48
0.1
100
AcDbLine
 10
1645.709552632937
 20
967.9540452696242
 30
0.0
 11
1638.458347454984
 21
969.8969998412071
 31
0.0
  0
LINE
  5
430
330
1F
100
AcDbEntity
  8
AM_4
 48
0.1
100
AcDbLine
 10
1638.457640348203
 20
969.8982245860793
 30
0.0
 11
1636.51458569626
 21
977.1471244074005
 31
0.0
  0
CIRCLE
  5
431
330
1F
100
AcDbEntity
  8
AM_4
 48
0.1
100
AcDbCircle
 10
1643.766756800037
 20
975.203911016772
 30
0.0
 40
6.5
  0
CIRCLE
  5
432
330
1F
100
AcDbEntity
  8
AM_4
 48
0.1
100
AcDbCircle
 10
1643.766756800037
 20
975.203911016772
 30
0.0
 40
4.0
  0
ARC
  5
433
330
1F
100
AcDbEntity
  8
AM_4
 48
0.1
100
AcDbCircle
 10
1643.766756800037
 20
975.203911016772
 30
0.0
 40
3.2
100
AcDbArc
 50
337.0199999998821
 51
246.9740000000924
  0
POINT
  5
434
330
1F
100
AcDbEntity
  8
AM_4
 48
0.1
100
AcDbPoint
 10
1710.672689860298
 20
981.483569508086
 30
0.0
 50
314.9999999999944
  0
LINE
  5
435
330
1F
100
AcDbEntity
  8
AM_4
 48
0.1
100
AcDbLine
 10
1707.0449312758
 20
980.5104792488551
 30
0.0
 11
1705.102583730641
 21
973.2628041724042
 31
0.0
  0
LINE
  5
436
330
1F
100
AcDbEntity
  8
AM_4
 48
0.1
100
AcDbLine
 10
1714.297809486362
 20
982.4549173843575
 30
0.0
 11
1707.045638382585
 21
980.5117039937272
 31
0.0
  0
LINE
  5
437
330
1F
100
AcDbEntity
  8
AM_4
 48
0.1
100
AcDbLine
 10
1719.604994086546
 20
977.1487133155737
 30
0.0
 11
1714.300000157059
 21
982.4544690966199
 31
0.0
  0
LINE
  5
438
330
1F
100
AcDbEntity
  8
AM_4
 48
0.1
100
AcDbLine
 10
1719.60525290559
 20
977.1477473897471
 30
0.0
 11
1717.663164179475
 21
969.8991063874697
 31
0.0
  0
LINE
  5
439
330
1F
100
AcDbEntity
  8
AM_4
 48
0.1
100
AcDbLine
 10
1717.662457072697
 20
969.8978816425992
 30
0.0
 11
1710.411251894741
 21
967.9549270710145
 31
0.0
  0
LINE
  5
43A
330
1F
100
AcDbEntity
  8
AM_4
 48
0.1
100
AcDbLine
 10
1710.410027149873
 20
967.9556341777956
 30
0.0
 11
1705.102842549685
 21
973.2618382465757
 31
0.0
  0
CIRCLE
  5
43B
330
1F
100
AcDbEntity
  8
AM_4
 48
0.1
100
AcDbCircle
 10
1712.355013653466
 20
975.205051637206
 30
0.0
 40
6.5
  0
CIRCLE
  5
43C
330
1F
100
AcDbEntity
  8
AM_4
 48
0.1
100
AcDbCircle
 10
1712.355013653466
 20
975.205051637206
 30
0.0
 40
4.0
  0
ARC
  5
43D
330
1F
100
AcDbEntity
  8
AM_4
 48
0.1
100
AcDbCircle
 10
1712.355013653466
 20
975.205051637206
 30
0.0
 40
3.2
100
AcDbArc
 50
7.019999999954888
 51
276.9739999999837
  0
POINT
  5
43E
330
1F
100
AcDbEntity
  8
AM_4
 48
0.1
100
AcDbPoint
 10
1767.15742210189
 20
1014.096361947905
 30
0.0
 50
344.9999999999944
  0
LINE
  5
43F
330
1F
100
AcDbEntity
  8
AM_4
 48
0.1
100
AcDbLine
 10
1764.502236138535
 20
1011.439761770988
 30
0.0
 11
1766.443951359674
 21
1004.191917263825
 31
0.0
  0
LINE
  5
440
330
1F
100
AcDbEntity
  8
AM_4
 48
0.1
100
AcDbLine
 10
1769.811193851682
 20
1016.7501336977
 30
0.0
 11
1764.502236138535
 21
1011.44117598455
 31
0.0
  0
LINE
  5
441
330
1F
100
AcDbEntity
  8
AM_4
 48
0.1
100
AcDbLine
 10
1777.060452572406
 20
1014.808418476562
 30
0.0
 11
1769.813315172026
 21
1016.75084080448
 31
0.0
  0
LINE
  5
442
330
1F
100
AcDbEntity
  8
AM_4
 48
0.1
100
AcDbLine
 10
1777.061159679187
 20
1014.80771136978
 30
0.0
 11
1779.003582007107
 21
1007.559159755838
 31
0.0
  0
LINE
  5
443
330
1F
100
AcDbEntity
  8
AM_4
 48
0.1
100
AcDbLine
 10
1779.003582007107
 20
1007.557745542276
 30
0.0
 11
1773.695331400741
 21
1002.249494935908
 31
0.0
  0
LINE
  5
444
330
1F
100
AcDbEntity
  8
AM_4
 48
0.1
100
AcDbLine
 10
1773.693917187179
 20
1002.249494935908
 30
0.0
 11
1766.444658466455
 21
1004.191210157046
 31
0.0
  0
CIRCLE
  5
445
330
1F
100
AcDbEntity
  8
AM_4
 48
0.1
100
AcDbCircle
 10
1771.753616179602
 20
1009.500167870194
 30
0.0
 40
6.5
  0
CIRCLE
  5
446
330
1F
100
AcDbEntity
  8
AM_4
 48
0.1
100
AcDbCircle
 10
1771.753616179602
 20
1009.500167870194
 30
0.0
 40
4.0
  0
ARC
  5
447
330
1F
100
AcDbEntity
  8
AM_4
 48
0.1
100
AcDbCircle
 10
1771.753616179602
 20
1009.500167870194
 30
0.0
 40
3.2
100
AcDbArc
 50
37.02000000008688
 51
306.9739999999496
  0
POINT
  5
448
330
1F
100
AcDbEntity
  8
AM_4
 48
0.1
100
AcDbPoint
 10
1799.768238929159
 20
1070.582234809936
 30
0.0
 50
14.99999999999441
  0
LINE
  5
449
330
1F
100
AcDbEntity
  8
AM_4
 48
0.1
100
AcDbLine
 10
1798.797080521582
 20
1066.953958587348
 30
0.0
 11
1804.102577483584
 21
1061.647998732037
 31
0.0
  0
LINE
  5
44A
330
1F
100
AcDbEntity
  8
AM_4
 48
0.1
100
AcDbLine
 10
1800.739586805427
 20
1074.207354436
 30
0.0
 11
1798.7963734148
 21
1066.955183332221
 31
0.0
  0
LINE
  5
44B
330
1F
100
AcDbEntity
  8
AM_4
 48
0.1
100
AcDbLine
 10
1807.98848662675
 20
1076.150409087941
 30
0.0
 11
1800.741070369346
 21
1074.209027468605
 31
0.0
  0
LINE
  5
44C
330
1F
100
AcDbEntity
  8
AM_4
 48
0.1
100
AcDbLine
 10
1807.989452552579
 20
1076.150150268895
 30
0.0
 11
1813.295915440406
 21
1070.843931594538
 31
0.0
  0
LINE
  5
44D
330
1F
100
AcDbEntity
  8
AM_4
 48
0.1
100
AcDbLine
 10
1813.296622547187
 20
1070.842706849668
 30
0.0
 11
1811.353667975604
 21
1063.591501671716
 31
0.0
  0
LINE
  5
44E
330
1F
100
AcDbEntity
  8
AM_4
 48
0.1
100
AcDbLine
 10
1811.352443230732
 20
1063.590794564934
 30
0.0
 11
1804.103543409409
 21
1061.647739912991
 31
0.0
  0
CIRCLE
  5
44F
330
1F
100
AcDbEntity
  8
AM_4
 48
0.1
100
AcDbCircle
 10
1806.046756800039
 20
1068.89991101677
 30
0.0
 40
6.5
  0
CIRCLE
  5
450
330
1F
100
AcDbEntity
  8
AM_4
 48
0.1
100
AcDbCircle
 10
1806.046756800039
 20
1068.89991101677
 30
0.0
 40
4.0
  0
ARC
  5
451
330
1F
100
AcDbEntity
  8
AM_4
 48
0.1
100
AcDbCircle
 10
1806.046756800039
 20
1068.89991101677
 30
0.0
 40
3.2
100
AcDbArc
 50
67.01999999985301
 51
336.973999999923
  0
POINT
  5
452
330
1F
100
AcDbEntity
  8
AM_4
 48
0.1
100
AcDbPoint
 10
1799.767098308723
 20
1135.80584407703
 30
0.0
 50
44.99999999999444
  0
LINE
  5
453
330
1F
100
AcDbEntity
  8
AM_4
 48
0.1
100
AcDbLine
 10
1800.740188567954
 20
1132.178085492531
 30
0.0
 11
1807.987863644405
 21
1130.235737947373
 31
0.0
  0
LINE
  5
454
330
1F
100
AcDbEntity
  8
AM_4
 48
0.1
100
AcDbLine
 10
1798.795750432452
 20
1139.430963703093
 30
0.0
 11
1800.738963823082
 21
1132.178792599312
 31
0.0
  0
LINE
  5
455
330
1F
100
AcDbEntity
  8
AM_4
 48
0.1
100
AcDbLine
 10
1804.101954501236
 20
1144.738148303277
 30
0.0
 11
1798.79619872019
 21
1139.43315437379
 31
0.0
  0
LINE
  5
456
330
1F
100
AcDbEntity
  8
AM_4
 48
0.1
100
AcDbLine
 10
1804.102920427061
 20
1144.738407122321
 30
0.0
 11
1811.35156142934
 21
1142.796318396206
 31
0.0
  0
LINE
  5
457
330
1F
100
AcDbEntity
  8
AM_4
 48
0.1
100
AcDbLine
 10
1811.352786174208
 20
1142.795611289425
 30
0.0
 11
1813.295740745795
 21
1135.544406111472
 31
0.0
  0
LINE
  5
458
330
1F
100
AcDbEntity
  8
AM_4
 48
0.1
100
AcDbLine
 10
1813.295033639014
 20
1135.543181366604
 30
0.0
 11
1807.988829570234
 21
1130.23599676642
 31
0.0
  0
CIRCLE
  5
459
330
1F
100
AcDbEntity
  8
AM_4
 48
0.1
100
AcDbCircle
 10
1806.0456161796
 20
1137.488167870197
 30
0.0
 40
6.5
  0
CIRCLE
  5
45A
330
1F
100
AcDbEntity
  8
AM_4
 48
0.1
100
AcDbCircle
 10
1806.0456161796
 20
1137.488167870197
 30
0.0
 40
4.0
  0
ARC
  5
45B
330
1F
100
AcDbEntity
  8
AM_4
 48
0.1
100
AcDbCircle
 10
1806.0456161796
 20
1137.488167870197
 30
0.0
 40
3.2
100
AcDbArc
 50
97.0200000000074
 51
6.973999999983667
  0
POINT
  5
45C
330
1F
100
AcDbEntity
  8
AM_4
 48
0.1
100
AcDbPoint
 10
1767.154305868903
 20
1192.290576318621
 30
0.0
 50
74.99999999999445
  0
LINE
  5
45D
330
1F
100
AcDbEntity
  8
AM_4
 48
0.1
100
AcDbLine
 10
1769.81090604582
 20
1189.635390355263
 30
0.0
 11
1777.058750552984
 21
1191.577105576402
 31
0.0
  0
LINE
  5
45E
330
1F
100
AcDbEntity
  8
AM_4
 48
0.1
100
AcDbLine
 10
1764.500534119107
 20
1194.944348068411
 30
0.0
 11
1769.809491832258
 21
1189.635390355263
 31
0.0
  0
LINE
  5
45F
330
1F
100
AcDbEntity
  8
AM_4
 48
0.1
100
AcDbLine
 10
1766.442249340246
 20
1202.193606789137
 30
0.0
 11
1764.499827012329
 21
1194.946469388757
 31
0.0
  0
LINE
  5
460
330
1F
100
AcDbEntity
  8
AM_4
 48
0.1
100
AcDbLine
 10
1766.442956447031
 20
1202.194313895918
 30
0.0
 11
1773.691508060973
 21
1204.136736223838
 31
0.0
  0
LINE
  5
461
330
1F
100
AcDbEntity
  8
AM_4
 48
0.1
100
AcDbLine
 10
1773.692922274532
 20
1204.136736223838
 30
0.0
 11
1779.001172880901
 21
1198.828485617473
 31
0.0
  0
LINE
  5
462
330
1F
100
AcDbEntity
  8
AM_4
 48
0.1
100
AcDbLine
 10
1779.001172880901
 20
1198.827071403908
 30
0.0
 11
1777.059457659766
 21
1191.577812683183
 31
0.0
  0
CIRCLE
  5
463
330
1F
100
AcDbEntity
  8
AM_4
 48
0.1
100
AcDbCircle
 10
1771.750499946615
 20
1196.886770396334
 30
0.0
 40
6.5
  0
CIRCLE
  5
464
330
1F
100
AcDbEntity
  8
AM_4
 48
0.1
100
AcDbCircle
 10
1771.750499946615
 20
1196.886770396334
 30
0.0
 40
4.0
  0
ARC
  5
465
330
1F
100
AcDbEntity
  8
AM_4
 48
0.1
100
AcDbCircle
 10
1771.750499946615
 20
1196.886770396334
 30
0.0
 40
3.2
100
AcDbArc
 50
127.0199999998914
 51
36.97400000009811
  0
LINE
  5
466
330
1F
100
AcDbEntity
  8
AM_7
100
AcDbLine
 10
1678.058756800038
 20
1103.191911016769
 30
0.0
 11
1853.058756800038
 21
1103.191911016769
 31
0.0
1001
GENIUS_GENOREF_13
1005
470
  0
LINE
  5
467
330
1F
100
AcDbEntity
  8
AM_7
100
AcDbLine
 10
1678.058756800038
 20
1103.191911016769
 30
0.0
 11
1678.058756800038
 21
1278.191911016769
 31
0.0
1001
GENIUS_GENOREF_13
1005
470
  0
LINE
  5
468
102
{ACAD_REACTORS
330
46C
330
46F
102
}
330
1F
100
AcDbEntity
  8
AM_7
100
AcDbLine
 10
1678.058756800038
 20
1103.191911016769
 30
0.0
 11
1503.058756800038
 21
1103.191911016769
 31
0.0
1001
GENIUS_GENOREF_13
1005
470
  0
LINE
  5
469
330
1F
100
AcDbEntity
  8
AM_7
100
AcDbLine
 10
1678.058756800038
 20
1103.191911016769
 30
0.0
 11
1678.058756800038
 21
928.1919110167695
 31
0.0
1001
GENIUS_GENOREF_13
1005
470
  0
DIMENSION
  5
46A
102
{ACAD_XDICTIONARY
360
46B
102
}
102
{ACAD_REACTORS
330
46C
102
}
330
1F
100
AcDbEntity
  8
AM_5
100
AcDbDimension
  2
*D6
 10
1823.058756800038
 20
815.6072798609717
 30
0.0
 11
1678.058756800038
 21
815.6072798609717
 31
0.0
 70
   160
 71
     5
 42
290.0
  3
GEN-ISO$0
100
AcDbAlignedDimension
 13
1533.058756800038
 23
1103.191911016769
 33
0.0
 14
1823.058756800038
 24
1103.191911016769
 34
0.0
100
AcDbRotatedDimension
1001
ACAD
1000
DSTYLE
1002
{
1070
   271
1070
     0
1002
}
  0
DIMENSION
  5
46D
102
{ACAD_XDICTIONARY
360
46E
102
}
102
{ACAD_REACTORS
330
46F
102
}
330
1F
100
AcDbEntity
  8
AM_5
100
AcDbDimension
  2
*D7
 10
1785.557417541672
 20
876.710187357618
 30
0.0
 11
1678.537852533122
 21
876.710187357618
 31
0.0
 70
   160
 71
     5
 42
214.998660741634
  3
GEN-ISO$0
100
AcDbAlignedDimension
 13
1570.558756800038
 23
1103.191911016769
 33
0.0
 14
1785.557417541672
 24
1103.191911016769
 34
0.0
100
AcDbRotatedDimension
1001
ACAD
1000
DSTYLE
1002
{
1070
   271
1070
     0
1002
}
  0
POINT
  5
470
330
1F
100
AcDbEntity
  8
0
 60
     1
100
AcDbPoint
 10
576.7478001107311
 20
-854.5714841705311
 30
0.0
1001
GENIUS_GENOBJ-N-CRS_13
1002
{
1000
OWNER
1000
GEN
1002
}
1001
GENIUS_GENOENT_13
1002
{
1000
MYREF
1005
470
1002
}
1002
{
1000
GRP
1005
0
1002
}
1001
GENIUS_GENODEF_13
1002
{
1000
HIER
1070
    10
1002
}
1002
{
1000
MANEDIT
1070
     0
1002
}
1002
{
1000
NOSEL
1070
     0
1002
}
1002
{
1000
BEHIND
1070
     0
1002
}
1002
{
1000
OTHER
1070
     0
1002
}
1002
{
1000
REACTOR
1002
}
1001
GENIUS_GENOLIS_13
1002
{
1000
ENT
1005
469
1005
468
1005
467
1005
466
1002
}
  0
ENDSEC
  0
SECTION
  2
OBJECTS
  0
DICTIONARY
  5
C
330
0
100
AcDbDictionary
281
     1
  3
ACAD_COLOR
350
D7
  3
ACAD_GROUP
350
D
  3
ACAD_LAYOUT
350
1A
  3
ACAD_MATERIAL
350
D6
  3
ACAD_MLINESTYLE
350
17
  3
ACAD_PLOTSETTINGS
350
19
  3
ACAD_PLOTSTYLENAME
350
E
  3
ACAD_TABLESTYLE
350
133
  3
ACDBHEADERROUNDTRIPXREC
350
48D
  3
AcDbVariableDictionary
350
34
  3
AcmDictionary
350
49
  3
AMG
350
2B
  3
AMGSNAPSETTINGS
350
2C4
  3
DWGPROPS
350
48C
  0
DICTIONARY
  5
C0
330
2
100
AcDbDictionary
280
     1
281
     1
  3
ACAD_LAYERSTATES
360
335
  3
AMLAYER_GROUPCOLORS
360
C1
  0
DICTIONARY
  5
83
330
1F
100
AcDbDictionary
280
     1
281
     1
  0
DICTIONARY
  5
46B
330
46A
100
AcDbDictionary
280
     1
281
     1
  3
ACAD_DIMASSOC
360
46C
  0
DICTIONARY
  5
46E
330
46D
100
AcDbDictionary
280
     1
281
     1
  3
ACAD_DIMASSOC
360
46F
  0
DICTIONARY
  5
D7
102
{ACAD_REACTORS
330
C
102
}
330
C
100
AcDbDictionary
281
     1
  0
DICTIONARY
  5
D
102
{ACAD_REACTORS
330
C
102
}
330
C
100
AcDbDictionary
281
     1
  0
DICTIONARY
  5
1A
102
{ACAD_REACTORS
330
C
102
}
330
C
100
AcDbDictionary
281
     1
  3
Layout1
350
1E
  3
Layout2
350
26
  3
Model
350
22
  0
DICTIONARY
  5
D6
102
{ACAD_REACTORS
330
C
102
}
330
C
100
AcDbDictionary
281
     1
  0
DICTIONARY
  5
17
102
{ACAD_REACTORS
330
C
102
}
330
C
100
AcDbDictionary
281
     1
  3
Standard
350
18
  0
DICTIONARY
  5
19
102
{ACAD_REACTORS
330
C
102
}
330
C
100
AcDbDictionary
281
     1
  0
ACDBDICTIONARYWDFLT
  5
E
102
{ACAD_REACTORS
330
C
102
}
330
C
100
AcDbDictionary
281
     1
  3
Normal
350
F
100
AcDbDictionaryWithDefault
340
F
  0
DICTIONARY
  5
133
102
{ACAD_REACTORS
330
C
102
}
330
C
100
AcDbDictionary
281
     1
  3
Standard
350
134
  0
DICTIONARY
  5
48D
102
{ACAD_REACTORS
330
C
102
}
330
C
100
AcDbDictionary
281
     1
  0
DICTIONARY
  5
34
102
{ACAD_REACTORS
330
C
102
}
330
C
100
AcDbDictionary
281
     1
  3
CTABLESTYLE
350
152
  3
DIMASSOC
350
AD
  3
INDEXCTL
350
35
  3
PROJECTNAME
350
48A
  0
DICTIONARY
  5
49
102
{ACAD_REACTORS
330
C
102
}
330
C
100
AcDbDictionary
281
     1
  3
AcmBOM
350
2CB
  3
AcmStdDictionary
350
4A
  3
AMDTSECTSYM_ARROWCOLOR
350
13D
  0
DICTIONARY
  5
2B
102
{ACAD_REACTORS
330
C
102
}
330
C
100
AcDbDictionary
281
     1
  0
DICTIONARY
  5
2C4
102
{ACAD_REACTORS
330
C
102
}
330
C
100
AcDbDictionary
281
     1
  0
XRECORD
  5
48C
102
{ACAD_REACTORS
330
C
102
}
330
C
100
AcDbXrecord
280
     1
  1
DWGPROPS COOKIE
  2

  3

  4

  6

  7

  8

  9

300
AmdtFileType=84
301
=
302
=
303
=
304
=
305
=
306
=
307
=
308
=
309
=
 40
0.0001953125
 41
2454053.360197292
 42
2454053.360392431
  1

 90
        1
  0
DICTIONARY
  5
335
102
{ACAD_REACTORS
330
C0
102
}
330
C0
100
AcDbDictionary
281
     1
  0
DICTIONARY
  5
C1
102
{ACAD_REACTORS
330
C0
102
}
330
C0
100
AcDbDictionary
280
     1
281
     1
  0
DIMASSOC
  5
46C
102
{ACAD_REACTORS
330
46B
102
}
330
46B
100
AcDbDimAssoc
330
46A
 90
        3
 70
     0
 71
     0
  1
AcDbOsnapPointRef
 72
     6
331
3D7
 73
     0
 91
        0
 40
3.141592653589793
 10
0.0
 20
0.0
 30
0.0
332
468
 74
     0
 92
        0
 75
     0
  1
AcDbOsnapPointRef
 72
     8
331
3D7
 73
     0
 91
        0
 40
0.0
 10
0.0
 20
0.0
 30
0.0
 75
     1
  1
AcDbOsnapPointRef
 72
     6
331
3D7
 73
     0
 91
        0
 40
3.141592653589793
 10
0.0
 20
0.0
 30
0.0
332
468
 74
     0
 92
        0
 75
     0
  0
DIMASSOC
  5
46F
102
{ACAD_REACTORS
330
46E
102
}
330
46E
100
AcDbDimAssoc
330
46D
 90
        1
 70
     0
 71
     0
  1
AcDbOsnapPointRef
 72
     6
331
3D8
 73
     0
 91
        0
 40
3.141592653589793
 10
0.0
 20
0.0
 30
0.0
332
468
 74
     0
 92
        0
 75
     0
  0
LAYOUT
  5
1E
102
{ACAD_XDICTIONARY
360
48E
102
}
102
{ACAD_REACTORS
330
1A
102
}
330
1A
100
AcDbPlotSettings
  1

  2
none_device
  4
Letter_(8.50_x_11.00_Inches)
  6

 40
6.349999904632568
 41
6.349999904632568
 42
6.350006103515625
 43
6.350006103515625
 44
215.8999938964844
 45
279.3999938964844
 46
0.0
 47
0.0
 48
0.0
 49
0.0
140
0.0
141
0.0
142
1.0
143
1.0
 70
 15024
 72
     1
 73
     1
 74
     5
  7

 75
    16
147
1.0
148
0.0
149
0.0
100
AcDbLayout
  1
Layout1
 70
     1
 71
     1
 10
0.0
 20
0.0
 11
420.0
 21
297.0
 12
0.0
 22
0.0
 32
0.0
 14
1.000000000000000E+20
 24
1.000000000000000E+20
 34
1.000000000000000E+20
 15
-1.000000000000000E+20
 25
-1.000000000000000E+20
 35
-1.000000000000000E+20
146
0.0
 13
0.0
 23
0.0
 33
0.0
 16
1.0
 26
0.0
 36
0.0
 17
0.0
 27
1.0
 37
0.0
 76
     0
330
1B
  0
LAYOUT
  5
26
102
{ACAD_XDICTIONARY
360
492
102
}
102
{ACAD_REACTORS
330
1A
102
}
330
1A
100
AcDbPlotSettings
  1

  2
none_device
  4
Letter_(8.50_x_11.00_Inches)
  6

 40
6.349999904632568
 41
6.349999904632568
 42
6.350006103515625
 43
6.350006103515625
 44
215.8999938964844
 45
279.3999938964844
 46
0.0
 47
0.0
 48
0.0
 49
0.0
140
0.0
141
0.0
142
1.0
143
1.0
 70
 15024
 72
     1
 73
     1
 74
     5
  7

 75
    16
147
1.0
148
0.0
149
0.0
100
AcDbLayout
  1
Layout2
 70
     1
 71
     2
 10
0.0
 20
0.0
 11
12.0
 21
9.0
 12
0.0
 22
0.0
 32
0.0
 14
0.0
 24
0.0
 34
0.0
 15
0.0
 25
0.0
 35
0.0
146
0.0
 13
0.0
 23
0.0
 33
0.0
 16
1.0
 26
0.0
 36
0.0
 17
0.0
 27
1.0
 37
0.0
 76
     0
330
23
  0
LAYOUT
  5
22
102
{ACAD_XDICTIONARY
360
490
102
}
102
{ACAD_REACTORS
330
1A
102
}
330
1A
100
AcDbPlotSettings
  1

  2
none_device
  4
Letter_(8.50_x_11.00_Inches)
  6

 40
6.349999904632568
 41
6.349999904632568
 42
6.350006103515625
 43
6.350006103515625
 44
215.8999938964844
 45
279.3999938964844
 46
0.0
 47
0.0
 48
0.0
 49
0.0
140
0.0
141
0.0
142
1.0
143
1.0
 70
 11952
 72
     1
 73
     1
 74
     0
  7

 75
     0
147
1.0
148
-131.3052631578947
149
0.0
100
AcDbLayout
  1
Model
 70
     1
 71
     0
 10
0.0
 20
0.0
 11
12.0
 21
9.0
 12
0.0
 22
0.0
 32
0.0
 14
0.0
 24
0.0
 34
0.0
 15
0.0
 25
0.0
 35
0.0
146
0.0
 13
0.0
 23
0.0
 33
0.0
 16
1.0
 26
0.0
 36
0.0
 17
0.0
 27
1.0
 37
0.0
 76
     0
330
1F
  0
MLINESTYLE
  5
18
102
{ACAD_REACTORS
330
17
102
}
330
17
100
AcDbMlineStyle
  2
STANDARD
 70
     0
  3

 62
   256
 51
90.0
 52
90.0
 71
     2
 49
0.5
 62
   256
  6
BYLAYER
 49
-0.5
 62
   256
  6
BYLAYER
  0
ACDBPLACEHOLDER
  5
F
102
{ACAD_REACTORS
330
E
102
}
330
E
  0
TABLESTYLE
  5
134
102
{ACAD_REACTORS
330
133
102
}
330
133
100
AcDbTableStyle
  3
Standard
 70
     0
 71
     0
 40
1.5
 41
1.5
280
     0
281
     0
  7
STANDARD
140
4.5
170
     2
 62
     0
 63
     7
283
     0
274
    -2
284
     1
 64
     0
275
    -2
285
     1
 65
     0
276
    -2
286
     1
 66
     0
277
    -2
287
     1
 67
     0
278
    -2
288
     1
 68
     0
279
    -2
289
     1
 69
     0
  7
STANDARD
140
6.0
170
     5
 62
     0
 63
     7
283
     0
274
    -2
284
     1
 64
     0
275
    -2
285
     1
 65
     0
276
    -2
286
     1
 66
     0
277
    -2
287
     1
 67
     0
278
    -2
288
     1
 68
     0
279
    -2
289
     1
 69
     0
  7
STANDARD
140
4.5
170
     5
 62
     0
 63
     7
283
     0
274
    -2
284
     1
 64
     0
275
    -2
285
     1
 65
     0
276
    -2
286
     1
 66
     0
277
    -2
287
     1
 67
     0
278
    -2
288
     1
 68
     0
279
    -2
289
     1
 69
     0
  0
DICTIONARYVAR
  5
152
102
{ACAD_REACTORS
330
34
102
}
330
34
100
DictionaryVariables
280
     0
  1
STANDARD
  0
DICTIONARYVAR
  5
AD
102
{ACAD_REACTORS
330
34
102
}
330
34
100
DictionaryVariables
280
     0
  1
2
  0
DICTIONARYVAR
  5
35
102
{ACAD_REACTORS
330
34
102
}
330
34
100
DictionaryVariables
280
     0
  1
0
  0
DICTIONARYVAR
  5
48A
102
{ACAD_REACTORS
330
34
102
}
330
34
100
DictionaryVariables
280
     0
  1

  0
DICTIONARY
  5
2CB
102
{ACAD_REACTORS
330
49
102
}
330
49
100
AcDbDictionary
281
     1
  0
DICTIONARY
  5
4A
102
{ACAD_REACTORS
330
49
102
}
330
49
100
AcDbDictionary
281
     1
  0
XRECORD
  5
13D
102
{ACAD_REACTORS
330
49
102
}
330
49
100
AcDbXrecord
280
     1
 90
-1023410169
  0
DICTIONARY
  5
48E
330
1E
100
AcDbDictionary
280
     1
281
     1
  3
ACAD_XREC_ROUNDTRIP
360
48F
  0
DICTIONARY
  5
492
330
26
100
AcDbDictionary
280
     1
281
     1
  3
ACAD_XREC_ROUNDTRIP
360
493
  0
DICTIONARY
  5
490
330
22
100
AcDbDictionary
280
     1
281
     1
  3
ACAD_XREC_ROUNDTRIP
360
491
  0
XRECORD
  5
48F
102
{ACAD_REACTORS
330
48E
102
}
330
48E
100
AcDbXrecord
280
     1
102
SHADEPLOT
 70
     0
102
SHADEPLOTRESLEVEL
 70
     2
102
SHADEPLOTCUSTOMDPI
 70
   300
  0
XRECORD
  5
493
102
{ACAD_REACTORS
330
492
102
}
330
492
100
AcDbXrecord
280
     1
102
SHADEPLOT
 70
     0
102
SHADEPLOTRESLEVEL
 70
     2
102
SHADEPLOTCUSTOMDPI
 70
   300
  0
XRECORD
  5
491
102
{ACAD_REACTORS
330
490
102
}
330
490
100
AcDbXrecord
280
     1
102
SHADEPLOT
 70
     0
102
SHADEPLOTRESLEVEL
 70
     2
102
SHADEPLOTCUSTOMDPI
 70
   300
  0
ENDSEC
  0
EOF
