  0
SECTION
  2
HEADER
  9
$ACADVER
  1
AC1015
  9
$ACADMAINTVER
 70
    20
  9
$DWGCODEPAGE
  3
ANSI_1252
  9
$INSBASE
 10
0.0
 20
0.0
 30
0.0
  9
$EXTMIN
 10
1442.044968104965
 20
1215.144337481112
 30
0.0
  9
$EXTMAX
 10
1660.706960152915
 20
1569.222517528577
 30
0.0
  9
$LIMMIN
 10
0.0
 20
0.0
  9
$LIMMAX
 10
420.0
 20
297.0
  9
$ORTHOMODE
 70
     0
  9
$REGENMODE
 70
     1
  9
$FILLMODE
 70
     1
  9
$QTEXTMODE
 70
     0
  9
$MIRRTEXT
 70
     1
  9
$LTSCALE
 40
1.0
  9
$ATTMODE
 70
     1
  9
$TEXTSIZE
 40
2.5
  9
$TRACEWID
 40
1.0
  9
$TEXTSTYLE
  7
STANDARD
  9
$CLAYER
  8
0
  9
$CELTYPE
  6
ByLayer
  9
$CECOLOR
 62
   256
  9
$CELTSCALE
 40
1.0
  9
$DISPSILH
 70
     0
  9
$DIMSCALE
 40
1.0
  9
$DIMASZ
 40
2.5
  9
$DIMEXO
 40
1.0
  9
$DIMDLI
 40
10.0
  9
$DIMRND
 40
0.0
  9
$DIMDLE
 40
0.0
  9
$DIMEXE
 40
1.0
  9
$DIMTP
 40
0.1
  9
$DIMTM
 40
0.1
  9
$DIMTXT
 40
3.5
  9
$DIMCEN
 40
0.0
  9
$DIMTSZ
 40
0.0
  9
$DIMTOL
 70
     0
  9
$DIMLIM
 70
     0
  9
$DIMTIH
 70
     0
  9
$DIMTOH
 70
     0
  9
$DIMSE1
 70
     0
  9
$DIMSE2
 70
     0
  9
$DIMTAD
 70
     1
  9
$DIMZIN
 70
     8
  9
$DIMBLK
  1

  9
$DIMASO
 70
     1
  9
$DIMSHO
 70
     1
  9
$DIMPOST
  1

  9
$DIMAPOST
  1
"
  9
$DIMALT
 70
     0
  9
$DIMALTD
 70
     2
  9
$DIMALTF
 40
0.0393701
  9
$DIMLFAC
 40
1.0
  9
$DIMTOFL
 70
     1
  9
$DIMTVP
 40
0.0
  9
$DIMTIX
 70
     0
  9
$DIMSOXD
 70
     0
  9
$DIMSAH
 70
     0
  9
$DIMBLK1
  1

  9
$DIMBLK2
  1

  9
$DIMSTYLE
  2
AM_DIN
  9
$DIMCLRD
 70
   256
  9
$DIMCLRE
 70
   256
  9
$DIMCLRT
 70
     2
  9
$DIMTFAC
 40
0.71
  9
$DIMGAP
 40
1.5
  9
$DIMJUST
 70
     0
  9
$DIMSD1
 70
     0
  9
$DIMSD2
 70
     0
  9
$DIMTOLJ
 70
     0
  9
$DIMTZIN
 70
     8
  9
$DIMALTZ
 70
     0
  9
$DIMALTTZ
 70
     0
  9
$DIMUPT
 70
     0
  9
$DIMDEC
 70
     2
  9
$DIMTDEC
 70
     3
  9
$DIMALTU
 70
     2
  9
$DIMALTTD
 70
     4
  9
$DIMTXSTY
  7
STANDARD
  9
$DIMAUNIT
 70
     0
  9
$DIMADEC
 70
     0
  9
$DIMALTRND
 40
0.0
  9
$DIMAZIN
 70
     2
  9
$DIMDSEP
 70
    46
  9
$DIMATFIT
 70
     3
  9
$DIMFRAC
 70
     0
  9
$DIMLDRBLK
  1

  9
$DIMLUNIT
 70
     2
  9
$DIMLWD
 70
    -1
  9
$DIMLWE
 70
    -1
  9
$DIMTMOVE
 70
     0
  9
$LUNITS
 70
     2
  9
$LUPREC
 70
     2
  9
$SKETCHINC
 40
1.0
  9
$FILLETRAD
 40
2.5
  9
$AUNITS
 70
     0
  9
$AUPREC
 70
     0
  9
$MENU
  1
.
  9
$ELEVATION
 40
0.0
  9
$PELEVATION
 40
0.0
  9
$THICKNESS
 40
0.0
  9
$LIMCHECK
 70
     0
  9
$CHAMFERA
 40
2.5
  9
$CHAMFERB
 40
2.5
  9
$CHAMFERC
 40
20.0
  9
$CHAMFERD
 40
0.0
  9
$SKPOLY
 70
     0
  9
$TDCREATE
 40
2454053.374667419
  9
$TDUCREATE
 40
2454053.333000752
  9
$TDUPDATE
 40
2454053.374884074
  9
$TDUUPDATE
 40
2454053.333217407
  9
$TDINDWG
 40
0.0002170139
  9
$TDUSRTIMER
 40
0.0002168403
  9
$USRTIMER
 70
     1
  9
$ANGBASE
 50
0.0
  9
$ANGDIR
 70
     0
  9
$PDMODE
 70
     0
  9
$PDSIZE
 40
0.0
  9
$PLINEWID
 40
0.0
  9
$SPLFRAME
 70
     0
  9
$SPLINETYPE
 70
     6
  9
$SPLINESEGS
 70
     8
  9
$HANDSEED
  5
5B8
  9
$SURFTAB1
 70
     6
  9
$SURFTAB2
 70
     6
  9
$SURFTYPE
 70
     6
  9
$SURFU
 70
     6
  9
$SURFV
 70
     6
  9
$UCSBASE
  2

  9
$UCSNAME
  2

  9
$UCSORG
 10
0.0
 20
0.0
 30
0.0
  9
$UCSXDIR
 10
1.0
 20
0.0
 30
0.0
  9
$UCSYDIR
 10
0.0
 20
1.0
 30
0.0
  9
$UCSORTHOREF
  2

  9
$UCSORTHOVIEW
 70
     0
  9
$UCSORGTOP
 10
0.0
 20
0.0
 30
0.0
  9
$UCSORGBOTTOM
 10
0.0
 20
0.0
 30
0.0
  9
$UCSORGLEFT
 10
0.0
 20
0.0
 30
0.0
  9
$UCSORGRIGHT
 10
0.0
 20
0.0
 30
0.0
  9
$UCSORGFRONT
 10
0.0
 20
0.0
 30
0.0
  9
$UCSORGBACK
 10
0.0
 20
0.0
 30
0.0
  9
$PUCSBASE
  2

  9
$PUCSNAME
  2

  9
$PUCSORG
 10
0.0
 20
0.0
 30
0.0
  9
$PUCSXDIR
 10
1.0
 20
0.0
 30
0.0
  9
$PUCSYDIR
 10
0.0
 20
1.0
 30
0.0
  9
$PUCSORTHOREF
  2

  9
$PUCSORTHOVIEW
 70
     0
  9
$PUCSORGTOP
 10
0.0
 20
0.0
 30
0.0
  9
$PUCSORGBOTTOM
 10
0.0
 20
0.0
 30
0.0
  9
$PUCSORGLEFT
 10
0.0
 20
0.0
 30
0.0
  9
$PUCSORGRIGHT
 10
0.0
 20
0.0
 30
0.0
  9
$PUCSORGFRONT
 10
0.0
 20
0.0
 30
0.0
  9
$PUCSORGBACK
 10
0.0
 20
0.0
 30
0.0
  9
$USERI1
 70
     0
  9
$USERI2
 70
     0
  9
$USERI3
 70
     0
  9
$USERI4
 70
     0
  9
$USERI5
 70
     0
  9
$USERR1
 40
0.0
  9
$USERR2
 40
0.0
  9
$USERR3
 40
0.0
  9
$USERR4
 40
0.0
  9
$USERR5
 40
0.0
  9
$WORLDVIEW
 70
     1
  9
$SHADEDGE
 70
     3
  9
$SHADEDIF
 70
    70
  9
$TILEMODE
 70
     1
  9
$MAXACTVP
 70
    64
  9
$PINSBASE
 10
0.0
 20
0.0
 30
0.0
  9
$PLIMCHECK
 70
     0
  9
$PEXTMIN
 10
1.000000000000000E+20
 20
1.000000000000000E+20
 30
1.000000000000000E+20
  9
$PEXTMAX
 10
-1.000000000000000E+20
 20
-1.000000000000000E+20
 30
-1.000000000000000E+20
  9
$PLIMMIN
 10
0.0
 20
0.0
  9
$PLIMMAX
 10
420.0
 20
297.0
  9
$UNITMODE
 70
     0
  9
$VISRETAIN
 70
     1
  9
$PLINEGEN
 70
     0
  9
$PSLTSCALE
 70
     1
  9
$TREEDEPTH
 70
  3020
  9
$CMLSTYLE
  2
Standard
  9
$CMLJUST
 70
     0
  9
$CMLSCALE
 40
20.0
  9
$PROXYGRAPHICS
 70
     1
  9
$MEASUREMENT
 70
     1
  9
$CELWEIGHT
370
    -1
  9
$ENDCAPS
280
     0
  9
$JOINSTYLE
280
     0
  9
$LWDISPLAY
290
     0
  9
$INSUNITS
 70
     4
  9
$HYPERLINKBASE
  1

  9
$STYLESHEET
  1

  9
$XEDIT
290
     1
  9
$CEPSNTYPE
380
     0
  9
$PSTYLEMODE
290
     1
  9
$FINGERPRINTGUID
  2
{C75E4ED8-0879-4AE8-BF99-883F9EAC4A86}
  9
$VERSIONGUID
  2
{829B39E3-23F4-454B-A9A6-AABD11C66EFC}
  9
$EXTNAMES
290
     1
  9
$PSVPSCALE
 40
0.0
  9
$OLESTARTUP
290
     0
  0
ENDSEC
  0
SECTION
  2
CLASSES
  0
CLASS
  1
ACDBDICTIONARYWDFLT
  2
AcDbDictionaryWithDefault
  3
ObjectDBX Classes
 90
        0
280
     0
281
     0
  0
CLASS
  1
ACDBPLACEHOLDER
  2
AcDbPlaceHolder
  3
ObjectDBX Classes
 90
        0
280
     0
281
     0
  0
CLASS
  1
LAYOUT
  2
AcDbLayout
  3
ObjectDBX Classes
 90
        0
280
     0
281
     0
  0
CLASS
  1
AMGSETTINGSOBJ
  2
AmgSettingsObj
  3
"AcadM|Product Description: AutoCAD Mechanical 2000|Company: Autodesk"
 90
        0
280
     0
281
     0
  0
CLASS
  1
ACME_DOCUMENT
  2
AcMeDbDoc
  3
AcMeServices
 90
        0
280
     0
281
     0
  0
CLASS
  1
ACMESCOPE
  2
AcMeScope
  3
AcMeServices
 90
        0
280
     0
281
     0
  0
CLASS
  1
ACMECOMMANDHISTORY
  2
AcMeCommandHistory
  3
AcMeServices
 90
        0
280
     0
281
     0
  0
CLASS
  1
DICTIONARYVAR
  2
AcDbDictionaryVar
  3
ObjectDBX Classes
 90
        0
280
     0
281
     0
  0
CLASS
  1
ACIMSYSVARMAN
  2
AcImSysVarManager
  3
AcMeServices
 90
        0
280
     0
281
     0
  0
CLASS
  1
ACIMREALSYSVAR
  2
AcImRealSysVar
  3
AcMeServices
 90
        0
280
     0
281
     0
  0
CLASS
  1
ACIMINTSYSVAR
  2
AcImIntSysVar
  3
AcMeServices
 90
        0
280
     0
281
     0
  0
CLASS
  1
ACMEDRAWINGMAN
  2
AcMeDrawingMan
  3
AcMeServices
 90
        0
280
     0
281
     0
  0
CLASS
  1
ACMEVIEW
  2
AcMeView
  3
AcMeServices
 90
        0
280
     0
281
     0
  0
CLASS
  1
ACDBENTITYCACHE
  2
AcMeEntityCache
  3
AcMeServices
 90
        0
280
     0
281
     0
  0
CLASS
  1
GSMANAGER
  2
AcMeGSManager
  3
AcMeServices
 90
        0
280
     0
281
     0
  0
CLASS
  1
AMDTINTERNALREACTOR
  2
AmdtInternalReactor
  3
AcMeServices
 90
        0
280
     0
281
     0
  0
CLASS
  1
ACMESTATEMGR
  2
AcMeStateMgr
  3
AcMeServices
 90
        0
280
     0
281
     0
  0
CLASS
  1
ACGREFMASTER
  2
AcGrefMaster
  3
AcAttribServices
 90
        0
280
     0
281
     0
  0
CLASS
  1
ACME_DATABASE
  2
AcMeDbDatabase
  3
AcMeServices
 90
        0
280
     0
281
     0
  0
CLASS
  1
ACRFINSADJUSTERMGR
  2
AcRfInsAdjusterMgr
  3
AcMeServices
 90
        0
280
     0
281
     0
  0
CLASS
  1
ACGREFACADMASTER
  2
AcGrefacadMaster
  3
AcGrefServices
 90
        0
280
     0
281
     0
  0
CLASS
  1
AMIMASTER
  2
AmiMaster
  3
AmiServices
 90
        0
280
     0
281
     0
  0
CLASS
  1
ACIMSTRSYSVAR
  2
AcImStrSysVar
  3
AcMeServices
 90
        0
280
     0
281
     0
  0
CLASS
  1
ACMSTANDARDDIN
  2
AcmStandardDIN
  3
"Amdt_StdImp|Product Description: AutoCAD Mechanical 2004 DX|Company: Autodesk"
 90
        0
280
     0
281
     0
  0
CLASS
  1
AMGOBJPROPCFG
  2
AmgObjPropCfg
  3
"AmgLay|Product Description: AutoCAD Mechanical 2000|Company: Autodesk"
 90
        1
280
     0
281
     0
  0
CLASS
  1
AMDTEDGESTANDARDDIN
  2
AmdtEdgeStdDIN
  3
"Amdt_StdImp|Product Description: AutoCAD Mechanical 2004 DX|Company: Autodesk"
 90
        0
280
     0
281
     0
  0
CLASS
  1
ACMSURFSTANDARDDIN
  2
AcmSurfTextStdDIN
  3
"Amdt_StdImp|Product Description: AutoCAD Mechanical 2004 DX|Company: Autodesk"
 90
        0
280
     0
281
     0
  0
CLASS
  1
ACMFCFSTANDARDDIN
  2
AcmFCFStdDIN
  3
"Amdt_StdImp|Product Description: AutoCAD Mechanical 2004 DX|Company: Autodesk"
 90
        0
280
     0
281
     0
  0
CLASS
  1
ACMWELDSTANDARDDIN
  2
AcmWeldingStdDIN
  3
"Amdt_StdImp|Product Description: AutoCAD Mechanical 2004 DX|Company: Autodesk"
 90
        0
280
     0
281
     0
  0
CLASS
  1
ACMIDSTANDARDDIN
  2
AcmIdStdDIN
  3
"Amdt_StdImp|Product Description: AutoCAD Mechanical 2004 DX|Company: Autodesk"
 90
        0
280
     0
281
     0
  0
CLASS
  1
ACMDATUMSTANDARDDIN
  2
AcmDatumStdDIN
  3
"Amdt_StdImp|Product Description: AutoCAD Mechanical 2004 DX|Company: Autodesk"
 90
        0
280
     0
281
     0
  0
CLASS
  1
ACMBOMSTANDARDDIN
  2
AcmBOMStdDIN
  3
"Amdt_StdImp|Product Description: AutoCAD Mechanical 2004 DX|Company: Autodesk"
 90
        0
280
     0
281
     0
  0
CLASS
  1
ACMDETAILSTANDARDDIN
  2
AmdtDetailSymStdDIN
  3
"Amdt_StdImp|Product Description: AutoCAD Mechanical 2004 DX|Company: Autodesk"
 90
        0
280
     0
281
     0
  0
CLASS
  1
ACMSECTIONSTANDARDDIN
  2
AmdtSectionSymStdDIN
  3
"Amdt_StdImp|Product Description: AutoCAD Mechanical 2004 DX|Company: Autodesk"
 90
        0
280
     0
281
     0
  0
CLASS
  1
ACMCENTERLINESTANDARDDIN
  2
AmdtCenterLineStdDIN
  3
"Amdt_StdImp|Product Description: AutoCAD Mechanical 2004 DX|Company: Autodesk"
 90
        0
280
     0
281
     0
  0
CLASS
  1
ACMTHREADLINESTANDARDDIN
  2
AmdtThreadLineStdDIN
  3
"Amdt_StdImp|Product Description: AutoCAD Mechanical 2004 DX|Company: Autodesk"
 90
        0
280
     0
281
     0
  0
CLASS
  1
ACAMGLAYSTD
  2
AcAmgLayStd
  3
"AcAmgLayStd|Product Description: AutoCAD Mechanical 2000|Company: Autodesk"
 90
        0
280
     0
281
     0
  0
CLASS
  1
ACAMGDIMSTD
  2
AcAmgDimStd
  3
"AcAmgDimStd|Product Description: AutoCAD Mechanical 2000|Company: Autodesk"
 90
        0
280
     0
281
     0
  0
CLASS
  1
ACAMGTITLESTD
  2
AcAmgTitleStd
  3
"TITLEAPP"
 90
        0
280
     0
281
     0
  0
CLASS
  1
ACMDATADICTIONARY
  2
AcmDataDictionary
  3
"AcmSymBB|Product Description: AutoCAD Mechanical 2004 DX|Company: Autodesk"
 90
        0
280
     0
281
     0
  0
CLASS
  1
ACMDATAENTRYBLOCK
  2
AcmDataEntryBlock
  3
"AcmSymBB|Product Description: AutoCAD Mechanical 2004 DX|Company: Autodesk"
 90
        0
280
     0
281
     0
  0
CLASS
  1
LAYER_INDEX
  2
AcDbLayerIndex
  3
ObjectDBX Classes
 90
    32768
280
     0
281
     0
  0
CLASS
  1
IDBUFFER
  2
AcDbIdBuffer
  3
ObjectDBX Classes
 90
    32768
280
     0
281
     0
  0
CLASS
  1
ACMNOTESTANDARDDIN
  2
AmdtNoteStdDIN
  3
"Amdt_StdImp|Product Description: AutoCAD Mechanical 2004 DX|Company: Autodesk"
 90
        0
280
     0
281
     0
  0
CLASS
  1
ACAMGHOLECHARTSTDDIN
  2
AcAmgHoleChartStdDIN
  3
ACMSYMBB_MODULE_NAME
 90
        0
280
     0
281
     0
  0
CLASS
  1
AM_DRAWING_MGR
  2
AcDmDwgMgr
  3
AcMechDwgViewMgmt
 90
        0
280
     0
281
     0
  0
CLASS
  1
AM_DWG_DOCUMENT
  2
AcDmDwgDocument
  3
AcMechDwgViewMgmt
 90
        0
280
     0
281
     0
  0
CLASS
  1
AM_DWG_SHEET
  2
AcDmSheet
  3
AcMechDwgViewMgmt
 90
        0
280
     0
281
     0
  0
CLASS
  1
AM_VIEWDIMPARMAP
  2
AcDmViewDimParMap
  3
AcMechDwgViewMgmt
 90
        0
280
     0
281
     0
  0
CLASS
  1
AM_DWGMGR_NAME
  2
AcDmDwgMgrName
  3
AcMechDwgViewMgmt
 90
        0
280
     0
281
     0
  0
CLASS
  1
AMDTMENUSTATEMGR
  2
AmdtMenuStateMgr
  3
McadcomServices
 90
        0
280
     0
281
     0
  0
CLASS
  1
AMDTMCOMMENUSTATE
  2
AmdtMcomMenuState
  3
McadcomServices
 90
        0
280
     0
281
     0
  0
CLASS
  1
MAPIAMMOUDLE
  2
MApiAmModule
  3
MApiAmServices
 90
        0
280
     0
281
     0
  0
CLASS
  1
AMDTADMENUSTATE
  2
AmdtAdMenuState
  3
DesignerServices
 90
        0
280
     0
281
     0
  0
CLASS
  1
ADAPPL
  2
AcAdAppl
  3
DesignerServices
 90
        0
280
     0
281
     0
  0
CLASS
  1
DEPMGR
  2
AcAdDepMgr
  3
DesignerServices
 90
        0
280
     0
281
     0
  0
CLASS
  1
PARAMMGR
  2
AcAdParamMgr
  3
DesignerServices
 90
        0
280
     0
281
     0
  0
CLASS
  1
PARAMSCOPE
  2
AcAdParamScope
  3
DesignerServices
 90
        0
280
     0
281
     0
  0
CLASS
  1
NAMEDAPPL
  2
AcAdNamedAppl
  3
DesignerServices
 90
        0
280
     0
281
     0
  0
CLASS
  1
AMDTDMMENUSTATE
  2
AmdtDmMenuState
  3
AcMechDwgViewMgmt
 90
        0
280
     0
281
     0
  0
CLASS
  1
AMDTAMMENUSTATE
  2
AmdtAmMenuState
  3
DesignerAssemblies
 90
        0
280
     0
281
     0
  0
CLASS
  1
ACAMPROJECT
  2
AcAmProject
  3
DesignerAssemblies
 90
        0
280
     0
281
     0
  0
CLASS
  1
ACAMGRCOMPDEF
  2
AcAmGrCompDef
  3
DesignerAssemblies
 90
        0
280
     0
281
     0
  0
CLASS
  1
ACCMCONTEXT
  2
AcCmContext
  3
DesignerAssemblies
 90
        0
280
     0
281
     0
  0
CLASS
  1
ACAMCOMPDEF
  2
AcAmCompDef
  3
DesignerAssemblies
 90
        0
280
     0
281
     0
  0
CLASS
  1
ACAMCOMPDEFMGR
  2
AcAmCompDefMgr
  3
DesignerAssemblies
 90
        0
280
     0
281
     0
  0
CLASS
  1
AMCONTEXTMGR
  2
AcAmContextMgr
  3
DesignerAssemblies
 90
        0
280
     0
281
     0
  0
CLASS
  1
ACAMCONTEXTMODELER
  2
AcAmContextModeler
  3
DesignerAssemblies
 90
        0
280
     0
281
     0
  0
CLASS
  1
CATALOGSTATE
  2
AcAmCatalogState
  3
DesignerAssemblies
 90
        0
280
     0
281
     0
  0
CLASS
  1
ACAMGRCOMPDEFSET
  2
AcAmGrCompDefSet
  3
DesignerAssemblies
 90
        0
280
     0
281
     0
  0
CLASS
  1
AMDTBROWSERDBTAB
  2
AmdtBrowserDbTab
  3
McadcomServices
 90
        0
280
     0
281
     0
  0
CLASS
  1
CBROWSERAPPOBJECT
  2
CBrowserAppObject
  3
McadcomServices
 90
        0
280
     0
281
     0
  0
CLASS
  1
DM_PLACEHOLDER
  2
AcDmSelsetPlaceholder
  3
AcMechDwgViewMgmt
 90
        0
280
     0
281
     0
  0
CLASS
  1
TABLESTYLE
  2
AcDbTableStyle
  3
ObjectDBX Classes
 90
     2047
280
     0
281
     0
  0
CLASS
  1
VAACXREFPANELOBJECT
  2
VaAcXREFPanelObject
  3
VAAC_ADDIN
 90
    32768
280
     0
281
     0
  0
CLASS
  1
VAACIMAGEINVENTORY
  2
VaAcImageInventory
  3
VAAC_ADDIN
 90
    32768
280
     0
281
     0
  0
CLASS
  1
AMDTNOTETEMPLATEDB
  2
AmdtNoteTemplateDB
  3
AMDT_STDIMP_MODULE_NAME
 90
        0
280
     0
281
     0
  0
CLASS
  1
ACAMGFILTERDAT
  2
AcAmgFilterDat
  3
"AcadM|Product Description: AutoCAD Mechanical 2000|Company: Autodesk"
 90
        0
280
     0
281
     0
  0
CLASS
  1
ACMBOM
  2
AcmBom
  3
"AcmSymBB|Product Description: AutoCAD Mechanical 2004 DX|Company: Autodesk"
 90
    32768
280
     0
281
     0
  0
CLASS
  1
AMDTFORMULAUPDATEDISPATCHER
  2
AmdtFormulaUpdateDispatcher
  3
AcMeServices
 90
    32768
280
     0
281
     0
  0
CLASS
  1
SORTENTSTABLE
  2
AcDbSortentsTable
  3
ObjectDBX Classes
 90
        0
280
     0
281
     0
  0
CLASS
  1
ACRFATTGENMGR
  2
AcRfAttGeneralMgr
  3
AcAttribServices
 90
        0
280
     0
281
     0
  0
ENDSEC
  0
SECTION
  2
TABLES
  0
TABLE
  2
VPORT
  5
8
330
0
100
AcDbSymbolTable
 70
     3
  0
VPORT
  5
5AF
330
8
100
AcDbSymbolTableRecord
100
AcDbViewportTableRecord
  2
*Active
 70
     0
 10
0.0
 20
0.0
 11
1.0
 21
1.0
 12
1551.37596412894
 22
1392.183427504844
 13
0.0
 23
0.0
 14
2.5
 24
2.5
 15
10.0
 25
10.0
 16
0.0
 26
0.0
 36
1.0
 17
0.0
 27
0.0
 37
0.0
 40
356.4706001829206
 41
1.378804960541149
 42
50.0
 43
0.0
 44
0.0
 50
0.0
 51
0.0
 71
     0
 72
   100
 73
     1
 74
     3
 75
     0
 76
     0
 77
     0
 78
     0
281
     0
 65
     1
110
0.0
120
0.0
130
0.0
111
1.0
121
0.0
131
0.0
112
0.0
122
1.0
132
0.0
 79
     0
146
0.0
  0
ENDTAB
  0
TABLE
  2
LTYPE
  5
5
330
0
100
AcDbSymbolTable
 70
    20
  0
LTYPE
  5
14
330
5
100
AcDbSymbolTableRecord
100
AcDbLinetypeTableRecord
  2
ByBlock
 70
     0
  3

 72
    65
 73
     0
 40
0.0
  0
LTYPE
  5
15
330
5
100
AcDbSymbolTableRecord
100
AcDbLinetypeTableRecord
  2
ByLayer
 70
     0
  3

 72
    65
 73
     0
 40
0.0
  0
LTYPE
  5
16
330
5
100
AcDbSymbolTableRecord
100
AcDbLinetypeTableRecord
  2
Continuous
 70
     0
  3
Solid line
 72
    65
 73
     0
 40
0.0
  0
LTYPE
  5
50
330
5
100
AcDbSymbolTableRecord
100
AcDbLinetypeTableRecord
  2
Amconstr
 70
     0
  3
_______________________
 72
    65
 73
     2
 40
9999.0
 49
9999.0
 74
     0
 49
0.0
 74
     0
  0
LTYPE
  5
55
330
5
100
AcDbSymbolTableRecord
100
AcDbLinetypeTableRecord
  2
Amzigzag
 70
     0
  3
/\/-/\/-/\/-/\/-/\/-/\/
 72
    65
 73
     2
 40
11.0001
 49
0.0001
 74
     4
 75
   136
340
285
 46
0.04
 50
0.0
 44
0.0
 45
0.0
 49
-11.0
 74
     0
  0
LTYPE
  5
56
330
5
100
AcDbSymbolTableRecord
100
AcDbLinetypeTableRecord
  2
AM_DIN_F_W050
 70
     0
  3
__ __ __ __ __ __ __ __ __ __ __ __ __ __ __
 72
    65
 73
     2
 40
6.25
 49
4.75
 74
     0
 49
-1.5
 74
     0
  0
LTYPE
  5
57
330
5
100
AcDbSymbolTableRecord
100
AcDbLinetypeTableRecord
  2
AM_DIN_G_W050
 70
     0
  3
____ . ____ . ____ . ____ . ____ . ____ . ____
 72
    65
 73
     4
 40
13.75
 49
9.75
 74
     0
 49
-1.5
 74
     0
 49
1.0
 74
     0
 49
-1.5
 74
     0
  0
LTYPE
  5
58
330
5
100
AcDbSymbolTableRecord
100
AcDbLinetypeTableRecord
  2
AM_DIN_K_W050
 70
     0
  3
_____ . . _____ . . _____ . . ____ .. ____
 72
    65
 73
     6
 40
16.25
 49
9.75
 74
     0
 49
-1.5
 74
     0
 49
1.0
 74
     0
 49
-1.5
 74
     0
 49
1.0
 74
     0
 49
-1.5
 74
     0
  0
LTYPE
  5
59
330
5
100
AcDbSymbolTableRecord
100
AcDbLinetypeTableRecord
  2
AM_DIN_G_W050x2
 70
     0
  3
__ . __ . __ . __ . __ . __
 72
    65
 73
     4
 40
6.875
 49
4.75
 74
     0
 49
-0.875
 74
     0
 49
0.375
 74
     0
 49
-0.875
 74
     0
  0
LTYPE
  5
5A
330
5
100
AcDbSymbolTableRecord
100
AcDbLinetypeTableRecord
  2
AM_DIN_F_W050x2
 70
     0
  3
 _ _ _ _ _ _ _ _ _ _ _ _
 72
    65
 73
     2
 40
3.125
 49
2.25
 74
     0
 49
-0.875
 74
     0
  0
LTYPE
  5
68
330
5
100
AcDbSymbolTableRecord
100
AcDbLinetypeTableRecord
  2
ACDINWELD
 70
     0
  3
_ _ _ _ _
 72
    65
 73
     2
 40
2.0
 49
2.0
 74
     0
 49
-1.0
 74
     0
  0
LTYPE
  5
69
330
5
100
AcDbSymbolTableRecord
100
AcDbLinetypeTableRecord
  2
ACDINTGB
 70
     0
  3
__ . . __ . .
 72
    65
 73
     6
 40
9.0
 49
4.0
 74
     0
 49
-1.0
 74
     0
 49
1.0
 74
     0
 49
-1.0
 74
     0
 49
1.0
 74
     0
 49
-1.0
 74
     0
  0
LTYPE
  5
6A
330
5
100
AcDbSymbolTableRecord
100
AcDbLinetypeTableRecord
  2
ACDINTGL
 70
     0
  3
_ _ _ _ _
 72
    65
 73
     2
 40
3.0
 49
2.0
 74
     0
 49
-1.0
 74
     0
  0
LTYPE
  5
6C
330
5
100
AcDbSymbolTableRecord
100
AcDbLinetypeTableRecord
  2
CENTER
 70
     0
  3
__ . __
 72
    65
 73
     4
 40
7.0
 49
4.0
 74
     0
 49
-1.0
 74
     0
 49
1.0
 74
     0
 49
-1.0
 74
     0
  0
LTYPE
  5
F2
330
5
100
AcDbSymbolTableRecord
100
AcDbLinetypeTableRecord
  2
HIDDEN
 70
     0
  3
Hidden __ __ __ __ __ __ __ __ __ __ __ __ __ _
 72
    65
 73
     2
 40
9.524999999999998
 49
6.349999999999999
 74
     0
 49
-3.174999999999999
 74
     0
  0
LTYPE
  5
F3
330
5
100
AcDbSymbolTableRecord
100
AcDbLinetypeTableRecord
  2
PHANTOM2
 70
     0
  3
Phantom (.5x) ___ _ _ ___ _ _ ___ _ _ ___ _ _
 72
    65
 73
     6
 40
31.75
 49
15.875
 74
     0
 49
-3.174999999999999
 74
     0
 49
3.174999999999999
 74
     0
 49
-3.174999999999999
 74
     0
 49
3.174999999999999
 74
     0
 49
-3.174999999999999
 74
     0
  0
ENDTAB
  0
TABLE
  2
LAYER
  5
2
102
{ACAD_XDICTIONARY
360
C0
102
}
330
0
100
AcDbSymbolTable
 70
     7
  0
LAYER
  5
10
330
2
100
AcDbSymbolTableRecord
100
AcDbLayerTableRecord
  2
0
 70
     0
 62
     7
  6
Continuous
370
    -3
390
F
  0
LAYER
  5
82
330
2
100
AcDbSymbolTableRecord
100
AcDbLayerTableRecord
  2
AM_0
 70
     0
 62
     7
  6
Continuous
370
    50
390
F
1001
AcAecLayerStandard
1000

1000

  0
LAYER
  5
328
330
2
100
AcDbSymbolTableRecord
100
AcDbLayerTableRecord
  2
AM_7
 70
     0
 62
     4
  6
AM_DIN_G_W050
370
    25
390
F
  0
LAYER
  5
329
330
2
100
AcDbSymbolTableRecord
100
AcDbLayerTableRecord
  2
DEFPOINTS
 70
     0
 62
     7
  6
Continuous
290
     0
370
    -3
390
F
  0
LAYER
  5
32A
330
2
100
AcDbSymbolTableRecord
100
AcDbLayerTableRecord
  2
AM_5
 70
     0
 62
     3
  6
Continuous
370
    25
390
F
  0
LAYER
  5
32B
330
2
100
AcDbSymbolTableRecord
100
AcDbLayerTableRecord
  2
AM_0N
 70
     0
 62
     7
  6
Continuous
370
    50
390
F
1001
AcAecLayerStandard
1000

1000

  0
LAYER
  5
32C
330
2
100
AcDbSymbolTableRecord
100
AcDbLayerTableRecord
  2
AM_4N
 70
     0
 62
     3
  6
Continuous
370
    25
390
F
1001
AcAecLayerStandard
1000

1000

  0
ENDTAB
  0
TABLE
  2
STYLE
  5
3
330
0
100
AcDbSymbolTable
 70
     8
  0
STYLE
  5
11
330
3
100
AcDbSymbolTableRecord
100
AcDbTextStyleTableRecord
  2
STANDARD
 70
     0
 40
0.0
 41
1.0
 50
0.0
 71
     0
 42
2.5
  3
ISOCP.SHX
  4
bigfont.shx
  0
STYLE
  5
5B
330
3
100
AcDbSymbolTableRecord
100
AcDbTextStyleTableRecord
  2
ACDINTS
 70
     0
 40
1.0
 41
1.0
 50
0.0
 71
     0
 42
2.5
  3
isocp.shx
  4
bigfont.shx
  0
STYLE
  5
67
330
3
100
AcDbSymbolTableRecord
100
AcDbTextStyleTableRecord
  2
ACDINGDT
 70
     0
 40
0.0
 41
1.0
 50
0.0
 71
     0
 42
2.5
  3
AMGDT
  4
bigfont.shx
  0
STYLE
  5
285
330
3
100
AcDbSymbolTableRecord
100
AcDbTextStyleTableRecord
  2

 70
     1
 40
0.0
 41
1.0
 50
0.0
 71
     0
 42
2.5
  3
genltshp.shx
  4

  0
ENDTAB
  0
TABLE
  2
VIEW
  5
6
330
0
100
AcDbSymbolTable
 70
     0
  0
ENDTAB
  0
TABLE
  2
UCS
  5
7
330
0
100
AcDbSymbolTable
 70
     0
  0
ENDTAB
  0
TABLE
  2
APPID
  5
9
330
0
100
AcDbSymbolTable
 70
    16
  0
APPID
  5
12
330
9
100
AcDbSymbolTableRecord
100
AcDbRegAppTableRecord
  2
ACAD
 70
     0
  0
APPID
  5
30
330
9
100
AcDbSymbolTableRecord
100
AcDbRegAppTableRecord
  2
MCAD_NO_VIS
 70
     0
  0
APPID
  5
31
330
9
100
AcDbSymbolTableRecord
100
AcDbRegAppTableRecord
  2
ACAD_TEMP_GRAPHIC
 70
     0
  0
APPID
  5
44
330
9
100
AcDbSymbolTableRecord
100
AcDbRegAppTableRecord
  2
ACATTRIBSERVICES
 70
     0
  0
APPID
  5
108
330
9
100
AcDbSymbolTableRecord
100
AcDbRegAppTableRecord
  2
AD_DRAW
 70
     0
  0
APPID
  5
126
330
9
100
AcDbSymbolTableRecord
100
AcDbRegAppTableRecord
  2
DESIGNERASSEMBLIES
 70
     0
  0
APPID
  5
12A
330
9
100
AcDbSymbolTableRecord
100
AcDbRegAppTableRecord
  2
ACADM_DIM_EDIT
 70
     0
  0
APPID
  5
12B
330
9
100
AcDbSymbolTableRecord
100
AcDbRegAppTableRecord
  2
AMDT_DM_ADJ
 70
     0
  0
APPID
  5
1A4
330
9
100
AcDbSymbolTableRecord
100
AcDbRegAppTableRecord
  2
ACAD_DSTYLE_DIMARC_LENGTH_SYMBOL
 70
     0
  0
APPID
  5
1A5
330
9
100
AcDbSymbolTableRecord
100
AcDbRegAppTableRecord
  2
ACAD_DSTYLE_DIMJOGGED_JOGANGLE_SYMBOL
 70
     0
  0
APPID
  5
22C
330
9
100
AcDbSymbolTableRecord
100
AcDbRegAppTableRecord
  2
AcAecLayerStandard
 70
     0
  0
APPID
  5
330
330
9
100
AcDbSymbolTableRecord
100
AcDbRegAppTableRecord
  2
GENIUS_GENODEF_13
 70
     0
  0
APPID
  5
331
330
9
100
AcDbSymbolTableRecord
100
AcDbRegAppTableRecord
  2
GENIUS_GENOREF_13
 70
     0
  0
APPID
  5
332
330
9
100
AcDbSymbolTableRecord
100
AcDbRegAppTableRecord
  2
GENIUS_GENOBJ-N-CEN_13
 70
     0
  0
APPID
  5
333
330
9
100
AcDbSymbolTableRecord
100
AcDbRegAppTableRecord
  2
ACAD_PSEXT
 70
     0
  0
APPID
  5
334
330
9
100
AcDbSymbolTableRecord
100
AcDbRegAppTableRecord
  2
GENIUS_GENCEN_19
 70
     0
  0
ENDTAB
  0
TABLE
  2
DIMSTYLE
  5
A
330
0
100
AcDbSymbolTable
 70
    11
100
AcDbDimStyleTable
 71
     1
340
6F
  0
DIMSTYLE
105
6F
102
{ACAD_REACTORS
330
4B
102
}
330
A
100
AcDbSymbolTableRecord
100
AcDbDimStyleTableRecord
  2
AM_DIN
 70
     0
  4
"
 41
2.5
 42
1.0
 43
10.0
 44
1.0
 47
0.1
 48
0.1
 73
     0
 74
     0
 77
     1
 78
     8
 79
     2
140
3.5
141
0.0
143
0.0393701
146
0.71
147
1.5
172
     1
176
   256
177
   256
178
     2
271
     2
272
     3
274
     4
283
     0
284
     8
340
11
371
    -1
372
    -1
1001
ACAD_DSTYLE_DIMARC_LENGTH_SYMBOL
1070
   379
1070
     0
1001
ACAD_DSTYLE_DIMJOGGED_JOGANGLE_SYMBOL
1070
   384
1040
1.570796326794896
  0
DIMSTYLE
105
70
330
A
100
AcDbSymbolTableRecord
100
AcDbDimStyleTableRecord
  2
AM_DIN$3
 70
     0
  4
"
 41
2.5
 42
1.0
 43
10.0
 44
1.0
 47
0.1
 48
0.1
 73
     0
 77
     1
 78
     8
 79
     2
140
3.5
141
0.0
143
0.0393701
146
0.71
147
1.5
176
   256
177
   256
178
     2
271
     2
272
     3
274
     4
283
     0
284
     8
288
     1
289
     0
340
11
371
    -1
372
    -1
1001
ACAD_DSTYLE_DIMARC_LENGTH_SYMBOL
1070
   379
1070
     0
1001
ACAD_DSTYLE_DIMJOGGED_JOGANGLE_SYMBOL
1070
   384
1040
1.570796326794896
  0
DIMSTYLE
105
71
330
A
100
AcDbSymbolTableRecord
100
AcDbDimStyleTableRecord
  2
AM_DIN$4
 70
     0
  4
"
 41
2.5
 42
1.0
 43
10.0
 44
1.0
 47
0.1
 48
0.1
 73
     0
 77
     1
 78
     8
 79
     2
140
3.5
141
0.0
143
0.0393701
146
0.71
147
1.5
176
   256
177
   256
178
     2
271
     2
272
     3
274
     4
283
     0
284
     8
288
     1
289
     0
340
11
371
    -1
372
    -1
1001
ACAD_DSTYLE_DIMARC_LENGTH_SYMBOL
1070
   379
1070
     0
1001
ACAD_DSTYLE_DIMJOGGED_JOGANGLE_SYMBOL
1070
   384
1040
1.570796326794896
  0
DIMSTYLE
105
72
330
A
100
AcDbSymbolTableRecord
100
AcDbDimStyleTableRecord
  2
AM_DIN$6
 70
     0
  4
"
 41
2.5
 42
1.0
 43
10.0
 44
1.0
 47
0.1
 48
0.1
 73
     0
 74
     0
 78
     8
 79
     2
140
3.5
141
0.0
143
0.0393701
146
0.71
147
1.5
172
     1
176
   256
177
   256
178
     2
271
     2
272
     3
274
     4
283
     0
284
     8
340
11
371
    -1
372
    -1
1001
ACAD_DSTYLE_DIMARC_LENGTH_SYMBOL
1070
   379
1070
     0
1001
ACAD_DSTYLE_DIMJOGGED_JOGANGLE_SYMBOL
1070
   384
1040
1.570796326794896
  0
DIMSTYLE
105
73
330
A
100
AcDbSymbolTableRecord
100
AcDbDimStyleTableRecord
  2
AM_DIN$7
 70
     0
  4
"
 41
2.5
 42
1.0
 43
10.0
 44
1.0
 47
0.1
 48
0.1
 73
     0
 74
     0
 77
     1
 78
     8
 79
     2
140
5.0
141
0.0
143
0.0393701
146
0.71
147
1.5
172
     1
176
   256
177
   256
178
     2
271
     2
272
     3
274
     4
283
     0
284
     8
340
11
371
    -1
372
    -1
1001
ACAD_DSTYLE_DIMARC_LENGTH_SYMBOL
1070
   379
1070
     0
1001
ACAD_DSTYLE_DIMJOGGED_JOGANGLE_SYMBOL
1070
   384
1040
1.570796326794896
  0
DIMSTYLE
105
74
330
A
100
AcDbSymbolTableRecord
100
AcDbDimStyleTableRecord
  2
AM_DIN$SF
 70
     0
  4
"
 41
2.5
 42
1.0
 43
10.0
 44
1.0
 47
0.1
 48
0.1
 73
     0
 74
     0
 75
     1
 76
     1
 77
     1
 78
     8
 79
     2
140
3.5
141
0.0
143
0.0393701
146
0.71
147
1.5
172
     1
176
   256
177
   256
178
     2
271
     2
272
     3
274
     4
283
     0
284
     8
340
11
371
    -1
372
    -1
1001
ACAD_DSTYLE_DIMARC_LENGTH_SYMBOL
1070
   379
1070
     0
1001
ACAD_DSTYLE_DIMJOGGED_JOGANGLE_SYMBOL
1070
   384
1040
1.570796326794896
  0
DIMSTYLE
105
79
330
A
100
AcDbSymbolTableRecord
100
AcDbDimStyleTableRecord
  2
AM_DIN$SH
 70
     0
  4
"
 41
2.5
 42
1.0
 43
10.0
 44
1.0
 47
0.1
 48
0.1
 73
     0
 74
     0
 75
     1
 76
     1
 77
     1
 78
     8
 79
     2
140
3.5
141
0.0
143
0.0393701
144
2.0
146
0.71
147
1.5
172
     1
173
     1
176
   256
177
   256
178
     2
271
     2
272
     3
274
     4
283
     0
284
     8
340
11
343
75
371
    -1
372
    -1
1001
ACAD_DSTYLE_DIMARC_LENGTH_SYMBOL
1070
   379
1070
     0
1001
ACAD_DSTYLE_DIMJOGGED_JOGANGLE_SYMBOL
1070
   384
1040
1.570796326794896
  0
DIMSTYLE
105
32E
330
A
100
AcDbSymbolTableRecord
100
AcDbDimStyleTableRecord
  2
GEN-ISO
 70
     0
  4
"
 40
10.0
 41
2.5
 42
1.0
 43
7.0
 44
1.0
 47
0.1
 48
0.1
 73
     0
 74
     0
 77
     1
 78
     8
140
3.5
141
0.0
143
0.0393701
146
0.71
147
0.6
172
     1
176
     3
177
     3
178
     2
271
     2
272
     2
283
     0
340
11
  0
DIMSTYLE
105
32F
102
{ACAD_REACTORS
330
459
330
458
330
581
330
582
102
}
330
A
100
AcDbSymbolTableRecord
100
AcDbDimStyleTableRecord
  2
GEN-ISO$0
 70
     0
  4
"
 40
10.0
 41
2.5
 42
1.0
 43
7.0
 44
1.0
 47
0.1
 48
0.1
 73
     0
 74
     0
 77
     1
 78
     8
140
3.5
141
0.0
143
0.0393701
146
0.71
147
0.6
172
     1
176
     3
177
     3
178
     2
271
     2
272
     2
283
     0
340
11
  0
ENDTAB
  0
TABLE
  2
BLOCK_RECORD
  5
1
330
0
100
AcDbSymbolTable
 70
     8
  0
BLOCK_RECORD
  5
1F
102
{ACAD_XDICTIONARY
360
83
102
}
330
1
100
AcDbSymbolTableRecord
100
AcDbBlockTableRecord
  2
*Model_Space
340
22
  0
BLOCK_RECORD
  5
1B
330
1
100
AcDbSymbolTableRecord
100
AcDbBlockTableRecord
  2
*Paper_Space
340
1E
  0
BLOCK_RECORD
  5
23
330
1
100
AcDbSymbolTableRecord
100
AcDbBlockTableRecord
  2
*Paper_Space0
340
26
  0
BLOCK_RECORD
  5
75
330
1
100
AcDbSymbolTableRecord
100
AcDbBlockTableRecord
  2
GENAXEH
340
0
  0
BLOCK_RECORD
  5
583
330
1
100
AcDbSymbolTableRecord
100
AcDbBlockTableRecord
  2
*D6
340
0
  0
BLOCK_RECORD
  5
58F
330
1
100
AcDbSymbolTableRecord
100
AcDbBlockTableRecord
  2
*D7
340
0
  0
ENDTAB
  0
ENDSEC
  0
SECTION
  2
BLOCKS
  0
BLOCK
  5
20
330
1F
100
AcDbEntity
  8
0
100
AcDbBlockBegin
  2
*Model_Space
 70
     0
 10
0.0
 20
0.0
 30
0.0
  3
*Model_Space
  1

  0
ENDBLK
  5
21
330
1F
100
AcDbEntity
  8
0
100
AcDbBlockEnd
  0
BLOCK
  5
1C
330
1B
100
AcDbEntity
 67
     1
  8
0
100
AcDbBlockBegin
  2
*Paper_Space
 70
     0
 10
0.0
 20
0.0
 30
0.0
  3
*Paper_Space
  1

  0
ENDBLK
  5
1D
330
1B
100
AcDbEntity
 67
     1
  8
0
100
AcDbBlockEnd
  0
BLOCK
  5
24
330
23
100
AcDbEntity
 67
     1
  8
0
100
AcDbBlockBegin
  2
*Paper_Space0
 70
     0
 10
0.0
 20
0.0
 30
0.0
  3
*Paper_Space0
  1

  0
ENDBLK
  5
25
330
23
100
AcDbEntity
 67
     1
  8
0
100
AcDbBlockEnd
  0
BLOCK
  5
77
330
75
100
AcDbEntity
  8
0
100
AcDbBlockBegin
  2
GENAXEH
 70
     0
 10
0.0
 20
0.0
 30
0.0
  3
GENAXEH
  1

  0
LINE
  5
76
330
75
100
AcDbEntity
  8
0
100
AcDbLine
 10
-1.0
 20
0.0
 30
0.0
 11
1.0
 21
0.0
 31
0.0
  0
ENDBLK
  5
78
330
75
100
AcDbEntity
  8
0
100
AcDbBlockEnd
  0
BLOCK
  5
58D
330
583
100
AcDbEntity
  8
0
100
AcDbBlockBegin
  2
*D6
 70
     1
 10
0.0
 20
0.0
 30
0.0
  3
*D6
  1

  0
LINE
  5
59B
330
583
100
AcDbEntity
  8
AM_5
 62
     3
370
    -2
100
AcDbLine
 10
1532.706960152915
 20
1506.722517528577
 30
0.0
 11
1471.308747632525
 21
1506.722517528577
 31
0.0
  0
LINE
  5
59C
330
583
100
AcDbEntity
  8
AM_5
 62
     3
370
    -2
100
AcDbLine
 10
1532.706960152915
 20
1346.722517528578
 30
0.0
 11
1471.308747632525
 21
1346.722517528578
 31
0.0
  0
LINE
  5
59D
330
583
100
AcDbEntity
  8
AM_5
 62
     3
370
    -2
100
AcDbLine
 10
1481.308747632525
 20
1481.722517528577
 30
0.0
 11
1481.308747632525
 21
1371.722517528578
 31
0.0
  0
SOLID
  5
59E
330
583
100
AcDbEntity
  8
AM_5
 62
     3
100
AcDbTrace
 10
1477.142080965858
 20
1481.722517528577
 30
0.0
 11
1485.475414299191
 21
1481.722517528577
 31
0.0
 12
1481.308747632525
 22
1506.722517528577
 32
0.0
 13
1481.308747632525
 23
1506.722517528577
 33
0.0
  0
SOLID
  5
59F
330
583
100
AcDbEntity
  8
AM_5
 62
     3
100
AcDbTrace
 10
1477.142080965858
 20
1371.722517528578
 30
0.0
 11
1485.475414299191
 21
1371.722517528578
 31
0.0
 12
1481.308747632525
 22
1346.722517528578
 32
0.0
 13
1481.308747632525
 23
1346.722517528578
 33
0.0
  0
MTEXT
  5
5A0
330
583
100
AcDbEntity
  8
AM_5
 62
     2
100
AcDbMText
 10
1457.808747632524
 20
1426.722517528579
 30
0.0
 40
35.0
 41
0.0
 71
     5
 72
     1
  1
%%c160
 11
0.0000000000000001
 21
1.0
 31
0.0
 73
     1
 44
1.0
1001
ACAD
1000
MTEXTBEGIN
1070
    73
1070
     1
1070
    44
1040
1.0
1070
    74
1070
     0
1000
MTEXTEND
  0
POINT
  5
5A1
330
583
100
AcDbEntity
  8
DEFPOINTS
 62
     0
100
AcDbPoint
 10
1542.706960152916
 20
1506.722517528577
 30
0.0
  0
POINT
  5
5A2
330
583
100
AcDbEntity
  8
DEFPOINTS
 62
     0
100
AcDbPoint
 10
1542.706960152916
 20
1346.722517528578
 30
0.0
  0
POINT
  5
5A3
330
583
100
AcDbEntity
  8
DEFPOINTS
 62
     0
100
AcDbPoint
 10
1481.308747632525
 20
1346.722517528578
 30
0.0
  0
ENDBLK
  5
58E
330
583
100
AcDbEntity
  8
0
100
AcDbBlockEnd
  0
BLOCK
  5
599
330
58F
100
AcDbEntity
  8
0
100
AcDbBlockBegin
  2
*D7
 70
     1
 10
0.0
 20
0.0
 30
0.0
  3
*D7
  1

  0
LINE
  5
5A4
330
58F
100
AcDbEntity
  8
AM_5
 62
     3
370
    -2
100
AcDbLine
 10
1542.706960152916
 20
1336.722517528577
 30
0.0
 11
1542.706960152916
 21
1215.144337481112
 31
0.0
  0
LINE
  5
5A5
330
58F
100
AcDbEntity
  8
AM_5
 62
     3
370
    -2
100
AcDbLine
 10
1617.706960152912
 20
1315.722517528577
 30
0.0
 11
1617.706960152912
 21
1215.144337481112
 31
0.0
  0
LINE
  5
5A6
330
58F
100
AcDbEntity
  8
AM_5
 62
     3
370
    -2
100
AcDbLine
 10
1567.706960152915
 20
1225.144337481112
 30
0.0
 11
1592.706960152912
 21
1225.144337481112
 31
0.0
  0
SOLID
  5
5A7
330
58F
100
AcDbEntity
  8
AM_5
 62
     3
100
AcDbTrace
 10
1567.706960152915
 20
1229.311004147779
 30
0.0
 11
1567.706960152915
 21
1220.977670814445
 31
0.0
 12
1542.706960152916
 22
1225.144337481112
 32
0.0
 13
1542.706960152916
 23
1225.144337481112
 33
0.0
  0
SOLID
  5
5A8
330
58F
100
AcDbEntity
  8
AM_5
 62
     3
100
AcDbTrace
 10
1592.706960152912
 20
1229.311004147779
 30
0.0
 11
1592.706960152912
 21
1220.977670814445
 31
0.0
 12
1617.706960152912
 22
1225.144337481112
 32
0.0
 13
1617.706960152912
 23
1225.144337481112
 33
0.0
  0
MTEXT
  5
5A9
330
58F
100
AcDbEntity
  8
AM_5
 62
     2
100
AcDbMText
 10
1580.206960152914
 20
1248.644337481112
 30
0.0
 40
35.0
 41
0.0
 71
     5
 72
     1
  1
75
 73
     1
 44
1.0
1001
ACAD
1000
MTEXTBEGIN
1070
    73
1070
     1
1070
    44
1040
1.0
1070
    74
1070
     0
1000
MTEXTEND
  0
POINT
  5
5AA
330
58F
100
AcDbEntity
  8
DEFPOINTS
 62
     0
100
AcDbPoint
 10
1542.706960152916
 20
1346.722517528577
 30
0.0
  0
POINT
  5
5AB
330
58F
100
AcDbEntity
  8
DEFPOINTS
 62
     0
100
AcDbPoint
 10
1617.706960152912
 20
1325.722517528577
 30
0.0
  0
POINT
  5
5AC
330
58F
100
AcDbEntity
  8
DEFPOINTS
 62
     0
100
AcDbPoint
 10
1617.706960152912
 20
1225.144337481112
 30
0.0
  0
ENDBLK
  5
59A
330
58F
100
AcDbEntity
  8
0
100
AcDbBlockEnd
  0
ENDSEC
  0
SECTION
  2
ENTITIES
  0
LINE
  5
460
330
1F
100
AcDbEntity
  8
0
100
AcDbLine
 10
1595.706960152915
 20
1569.222517528577
 30
0.0
 11
1613.706960152915
 21
1569.222517528577
 31
0.0
  0
LINE
  5
461
330
1F
100
AcDbEntity
  8
0
100
AcDbLine
 10
1613.706960152915
 20
1569.222517528577
 30
0.0
 11
1613.706960152915
 21
1284.222517528577
 31
0.0
  0
LINE
  5
462
330
1F
100
AcDbEntity
  8
0
100
AcDbLine
 10
1613.706960152915
 20
1284.222517528577
 30
0.0
 11
1595.706960152914
 21
1284.222517528577
 31
0.0
  0
LINE
  5
463
330
1F
100
AcDbEntity
  8
0
100
AcDbLine
 10
1595.706960152914
 20
1284.222517528577
 30
0.0
 11
1595.706960152915
 21
1569.222517528577
 31
0.0
  0
LINE
  5
464
330
1F
100
AcDbEntity
  8
AM_7
  6
AM_DIN_G_W050x2
100
AcDbLine
 10
1643.706960152915
 20
1426.722517528577
 30
0.0
 11
1529.417863477335
 21
1426.722517528577
 31
0.0
1001
GENIUS_GENODEF_13
1002
{
1000
HIER
1070
     0
1002
}
1002
{
1000
MANEDIT
1070
     0
1002
}
1002
{
1000
NOSEL
1070
     0
1002
}
1002
{
1000
BEHIND
1070
     0
1002
}
1002
{
1000
OTHER
1070
     0
1002
}
1002
{
1000
REACTOR
1002
}
1001
GENIUS_GENOBJ-N-CEN_13
1002
{
1000
OWNER
1000
GEN
1002
}
1001
GENIUS_GENCEN_19
1002
{
1040
30.0
1002
}
  0
LINE
  5
465
330
1F
100
AcDbEntity
  8
0
100
AcDbLine
 10
1617.706960152917
 20
1521.575331270962
 30
0.0
 11
1617.706960152915
 21
1532.85597693749
 31
0.0
  0
LINE
  5
466
330
1F
100
AcDbEntity
  8
0
100
AcDbLine
 10
1613.706960152919
 20
1532.85597693749
 30
0.0
 11
1617.706960152915
 21
1532.85597693749
 31
0.0
  0
LINE
  5
467
330
1F
100
AcDbEntity
  8
AM_0
100
AcDbLine
 10
1619.706960152916
 20
1529.855976937489
 30
0.0
 11
1619.706960152916
 21
1521.575331270962
 31
0.0
  0
LINE
  5
468
330
1F
100
AcDbEntity
  8
AM_0
100
AcDbLine
 10
1617.706960152915
 20
1529.855976937489
 30
0.0
 11
1619.706960152916
 21
1529.855976937489
 31
0.0
  0
LINE
  5
469
330
1F
100
AcDbEntity
  8
0
100
AcDbLine
 10
1542.706960152916
 20
1426.722517528577
 30
0.0
 11
1542.706960152916
 21
1506.722517528577
 31
0.0
  0
LINE
  5
46A
330
1F
100
AcDbEntity
  8
0
100
AcDbLine
 10
1542.706960152916
 20
1506.722517528577
 30
0.0
 11
1583.206960152915
 21
1506.722517528576
 31
0.0
  0
LINE
  5
46B
330
1F
100
AcDbEntity
  8
AM_0N
100
AcDbLine
 10
1614.706960152916
 20
1536.722517528577
 30
0.0
 11
1637.706960152916
 21
1536.722517528577
 31
0.0
1001
GENIUS_GENOREF_13
1005
0
  0
LINE
  5
46C
330
1F
100
AcDbEntity
  8
AM_0N
100
AcDbLine
 10
1655.706960152915
 20
1536.722517528577
 30
0.0
 11
1659.786785152916
 21
1536.722517528577
 31
0.0
1001
GENIUS_GENOREF_13
1005
0
  0
LINE
  5
46D
330
1F
100
AcDbEntity
  8
AM_4N
100
AcDbLine
 10
1614.706960152916
 20
1537.642692528577
 30
0.0
 11
1637.706960152916
 21
1537.642692528577
 31
0.0
1001
GENIUS_GENOREF_13
1005
0
  0
LINE
  5
46E
330
1F
100
AcDbEntity
  8
AM_4N
100
AcDbLine
 10
1655.706960152915
 20
1537.642692528576
 30
0.0
 11
1660.706960152915
 21
1537.642692528577
 31
0.0
1001
GENIUS_GENOREF_13
1005
0
  0
LINE
  5
46F
330
1F
100
AcDbEntity
  8
AM_4N
100
AcDbLine
 10
1614.706960152916
 20
1555.802342528577
 30
0.0
 11
1637.706960152916
 21
1555.802342528577
 31
0.0
1001
GENIUS_GENOREF_13
1005
0
  0
LINE
  5
470
330
1F
100
AcDbEntity
  8
AM_4N
100
AcDbLine
 10
1655.706960152915
 20
1555.802342528577
 30
0.0
 11
1660.706960152915
 21
1555.802342528577
 31
0.0
1001
GENIUS_GENOREF_13
1005
0
  0
LINE
  5
471
330
1F
100
AcDbEntity
  8
AM_0N
100
AcDbLine
 10
1614.706960152916
 20
1556.722517528577
 30
0.0
 11
1637.706960152916
 21
1556.722517528577
 31
0.0
1001
GENIUS_GENOREF_13
1005
0
  0
LINE
  5
472
330
1F
100
AcDbEntity
  8
AM_0N
100
AcDbLine
 10
1655.706960152915
 20
1556.722517528577
 30
0.0
 11
1659.786785152916
 21
1556.722517528577
 31
0.0
1001
GENIUS_GENOREF_13
1005
0
  0
LINE
  5
473
330
1F
100
AcDbEntity
  8
AM_0N
100
AcDbLine
 10
1613.706960152915
 20
1556.722517528577
 30
0.0
 11
1613.786785152916
 21
1556.722517528577
 31
0.0
1001
GENIUS_GENOREF_13
1005
0
  0
LINE
  5
474
330
1F
100
AcDbEntity
  8
AM_0N
100
AcDbLine
 10
1613.706960152915
 20
1536.722517528577
 30
0.0
 11
1613.786785152916
 21
1536.722517528577
 31
0.0
1001
GENIUS_GENOREF_13
1005
0
  0
ARC
  5
475
330
1F
100
AcDbEntity
  8
AM_0N
100
AcDbCircle
 10
1611.843420861333
 20
1546.722517528577
 30
0.0
 40
28.63646070841828
100
AcDbArc
 50
162.3875260144803
 51
197.6124739855197
1001
GENIUS_GENOREF_13
1005
0
  0
LINE
  5
476
330
1F
100
AcDbEntity
  8
AM_0N
100
AcDbLine
 10
1594.406960152916
 20
1532.622517528577
 30
0.0
 11
1594.406960152916
 21
1560.822517528577
 31
0.0
1001
GENIUS_GENOREF_13
1005
0
  0
LINE
  5
477
330
1F
100
AcDbEntity
  8
AM_0N
100
AcDbLine
 10
1595.706960152915
 20
1556.722517528577
 30
0.0
 11
1595.706960152915
 21
1536.722517528577
 31
0.0
1001
GENIUS_GENOREF_13
1005
0
  0
LINE
  5
478
330
1F
100
AcDbEntity
  8
AM_0N
100
AcDbLine
 10
1583.206960152915
 20
1561.722517528577
 30
0.0
 11
1583.206960152915
 21
1531.722517528577
 31
0.0
1001
GENIUS_GENOREF_13
1005
0
  0
LINE
  5
479
330
1F
100
AcDbEntity
  8
AM_0N
100
AcDbLine
 10
1584.549299528781
 20
1529.397517528576
 30
0.0
 11
1594.406960152916
 21
1529.397517528576
 31
0.0
1001
GENIUS_GENOREF_13
1005
0
  0
LINE
  5
47A
330
1F
100
AcDbEntity
  8
AM_0N
100
AcDbLine
 10
1584.549299528781
 20
1538.057771566421
 30
0.0
 11
1594.406960152916
 21
1538.057771566421
 31
0.0
1001
GENIUS_GENOREF_13
1005
0
  0
ARC
  5
47B
330
1F
100
AcDbEntity
  8
AM_0N
100
AcDbCircle
 10
1590.862205677819
 20
1533.727644547499
 30
0.0
 40
7.655245524904224
100
AcDbArc
 50
145.5531276177229
 51
205.5531276177247
1001
GENIUS_GENOREF_13
1005
0
  0
LINE
  5
47C
330
1F
100
AcDbEntity
  8
AM_0N
100
AcDbLine
 10
1584.549299528781
 20
1529.397517528576
 30
0.0
 11
1583.206960152915
 21
1531.722517528577
 31
0.0
1001
GENIUS_GENOREF_13
1005
0
  0
LINE
  5
47D
330
1F
100
AcDbEntity
  8
AM_0N
100
AcDbLine
 10
1595.706960152915
 20
1536.722517528577
 30
0.0
 11
1595.706960152915
 21
1532.622517528577
 31
0.0
1001
GENIUS_GENOREF_13
1005
0
  0
LINE
  5
47E
330
1F
100
AcDbEntity
  8
AM_0N
100
AcDbLine
 10
1594.406960152916
 20
1532.622517528577
 30
0.0
 11
1595.706960152915
 21
1532.622517528577
 31
0.0
1001
GENIUS_GENOREF_13
1005
0
  0
LINE
  5
47F
330
1F
100
AcDbEntity
  8
AM_0N
100
AcDbLine
 10
1594.406960152916
 20
1529.397517528576
 30
0.0
 11
1594.406960152916
 21
1532.622517528577
 31
0.0
1001
GENIUS_GENOREF_13
1005
0
  0
LINE
  5
480
330
1F
100
AcDbEntity
  8
AM_0N
100
AcDbLine
 10
1594.406960152916
 20
1560.822517528577
 30
0.0
 11
1594.406960152916
 21
1564.047517528577
 31
0.0
1001
GENIUS_GENOREF_13
1005
0
  0
LINE
  5
481
330
1F
100
AcDbEntity
  8
AM_0N
100
AcDbLine
 10
1584.549299528781
 20
1564.047517528577
 30
0.0
 11
1583.206960152915
 21
1561.722517528577
 31
0.0
1001
GENIUS_GENOREF_13
1005
0
  0
LINE
  5
482
330
1F
100
AcDbEntity
  8
AM_0N
100
AcDbLine
 10
1584.549299528781
 20
1555.387263490732
 30
0.0
 11
1594.406960152916
 21
1555.387263490732
 31
0.0
1001
GENIUS_GENOREF_13
1005
0
  0
ARC
  5
483
330
1F
100
AcDbEntity
  8
AM_0N
100
AcDbCircle
 10
1590.862205677819
 20
1559.717390509655
 30
0.0
 40
7.655245524904224
100
AcDbArc
 50
154.4468723822753
 51
214.4468723822771
1001
GENIUS_GENOREF_13
1005
0
  0
LINE
  5
484
330
1F
100
AcDbEntity
  8
AM_0N
100
AcDbLine
 10
1594.406960152916
 20
1560.822517528577
 30
0.0
 11
1595.706960152915
 21
1560.822517528577
 31
0.0
1001
GENIUS_GENOREF_13
1005
0
  0
LINE
  5
485
330
1F
100
AcDbEntity
  8
AM_0N
100
AcDbLine
 10
1595.706960152915
 20
1560.822517528577
 30
0.0
 11
1595.706960152915
 21
1556.722517528577
 31
0.0
1001
GENIUS_GENOREF_13
1005
0
  0
LINE
  5
486
330
1F
100
AcDbEntity
  8
AM_0N
100
AcDbLine
 10
1584.549299528781
 20
1564.047517528577
 30
0.0
 11
1594.406960152916
 21
1564.047517528577
 31
0.0
1001
GENIUS_GENOREF_13
1005
0
  0
LINE
  5
487
330
1F
100
AcDbEntity
  8
AM_0N
100
AcDbLine
 10
1614.706960152916
 20
1536.722517528577
 30
0.0
 11
1614.706960152916
 21
1556.722517528577
 31
0.0
1001
GENIUS_GENOREF_13
1005
0
  0
LINE
  5
488
330
1F
100
AcDbEntity
  8
AM_4N
100
AcDbLine
 10
1614.706960152916
 20
1537.642692528577
 30
0.0
 11
1613.786785152916
 21
1536.722517528577
 31
0.0
1001
GENIUS_GENOREF_13
1005
0
  0
LINE
  5
489
330
1F
100
AcDbEntity
  8
AM_0N
100
AcDbLine
 10
1614.706960152916
 20
1536.722517528577
 30
0.0
 11
1613.786785152916
 21
1536.722517528577
 31
0.0
1001
GENIUS_GENOREF_13
1005
0
  0
LINE
  5
48A
330
1F
100
AcDbEntity
  8
AM_4N
100
AcDbLine
 10
1614.706960152916
 20
1555.802342528577
 30
0.0
 11
1613.786785152916
 21
1556.722517528577
 31
0.0
1001
GENIUS_GENOREF_13
1005
0
  0
LINE
  5
48B
330
1F
100
AcDbEntity
  8
AM_0N
100
AcDbLine
 10
1614.706960152916
 20
1556.722517528577
 30
0.0
 11
1613.786785152916
 21
1556.722517528577
 31
0.0
1001
GENIUS_GENOREF_13
1005
0
  0
LINE
  5
48C
330
1F
100
AcDbEntity
  8
AM_0N
100
AcDbLine
 10
1659.786785152916
 20
1536.722517528577
 30
0.0
 11
1659.786785152916
 21
1556.722517528577
 31
0.0
1001
GENIUS_GENOREF_13
1005
0
  0
LINE
  5
48D
330
1F
100
AcDbEntity
  8
AM_0N
100
AcDbLine
 10
1660.706960152915
 20
1537.642692528577
 30
0.0
 11
1659.786785152916
 21
1536.722517528577
 31
0.0
1001
GENIUS_GENOREF_13
1005
0
  0
LINE
  5
48E
330
1F
100
AcDbEntity
  8
AM_0N
100
AcDbLine
 10
1660.706960152915
 20
1537.642692528577
 30
0.0
 11
1660.706960152915
 21
1555.802342528577
 31
0.0
1001
GENIUS_GENOREF_13
1005
0
  0
LINE
  5
48F
330
1F
100
AcDbEntity
  8
AM_0N
100
AcDbLine
 10
1659.786785152916
 20
1556.722517528577
 30
0.0
 11
1660.706960152915
 21
1555.802342528577
 31
0.0
1001
GENIUS_GENOREF_13
1005
0
  0
ARC
  5
490
330
1F
100
AcDbEntity
  8
AM_0N
100
AcDbCircle
 10
1647.384138829103
 20
1559.716267528577
 30
0.0
 40
7.658868514244661
100
AcDbArc
 50
325.5615305952663
 51
25.56153059527558
1001
GENIUS_GENOREF_13
1005
0
  0
ARC
  5
491
330
1F
100
AcDbEntity
  8
AM_0N
100
AcDbCircle
 10
1646.029781476728
 20
1559.716267528577
 30
0.0
 40
7.658868514244661
100
AcDbArc
 50
154.4384694047244
 51
214.4384694047337
1001
GENIUS_GENOREF_13
1005
0
  0
LINE
  5
492
330
1F
100
AcDbEntity
  8
AM_0N
100
AcDbLine
 10
1655.706960152915
 20
1560.572517528577
 30
0.0
 11
1655.706960152915
 21
1532.872517528577
 31
0.0
1001
GENIUS_GENOREF_13
1005
0
  0
LINE
  5
493
330
1F
100
AcDbEntity
  8
AM_0N
100
AcDbLine
 10
1637.706960152916
 20
1560.572517528577
 30
0.0
 11
1637.706960152916
 21
1532.872517528577
 31
0.0
1001
GENIUS_GENOREF_13
1005
0
  0
ARC
  5
494
330
1F
100
AcDbEntity
  8
AM_0N
100
AcDbCircle
 10
1647.384138829103
 20
1533.728767528577
 30
0.0
 40
7.658868514244677
100
AcDbArc
 50
334.4384694047244
 51
34.43846940473366
1001
GENIUS_GENOREF_13
1005
0
  0
ARC
  5
495
330
1F
100
AcDbEntity
  8
AM_0N
100
AcDbCircle
 10
1626.421042350167
 20
1546.722517528577
 30
0.0
 40
28.62196499317989
100
AcDbArc
 50
342.3830311595945
 51
17.61696884040555
1001
GENIUS_GENOREF_13
1005
0
  0
ARC
  5
496
330
1F
100
AcDbEntity
  8
AM_0N
100
AcDbCircle
 10
1666.992877955664
 20
1546.722517528577
 30
0.0
 40
28.62196499317981
100
AcDbArc
 50
162.3830311595944
 51
197.6169688404055
1001
GENIUS_GENOREF_13
1005
0
  0
ARC
  5
497
330
1F
100
AcDbEntity
  8
AM_0N
100
AcDbCircle
 10
1646.029781476728
 20
1533.728767528577
 30
0.0
 40
7.658868514244661
100
AcDbArc
 50
145.5615305952663
 51
205.5615305952755
1001
GENIUS_GENOREF_13
1005
0
  0
LINE
  5
498
330
1F
100
AcDbEntity
  8
AM_0N
100
AcDbLine
 10
1653.700667967482
 20
1529.397517528576
 30
0.0
 11
1655.706960152915
 21
1532.872517528577
 31
0.0
1001
GENIUS_GENOREF_13
1005
0
  0
LINE
  5
499
330
1F
100
AcDbEntity
  8
AM_0N
100
AcDbLine
 10
1639.713252338349
 20
1555.385017528577
 30
0.0
 11
1653.700667967482
 21
1555.385017528577
 31
0.0
1001
GENIUS_GENOREF_13
1005
0
  0
LINE
  5
49A
330
1F
100
AcDbEntity
  8
AM_0N
100
AcDbLine
 10
1639.713252338349
 20
1529.397517528576
 30
0.0
 11
1637.706960152916
 21
1532.872517528577
 31
0.0
1001
GENIUS_GENOREF_13
1005
0
  0
LINE
  5
49B
330
1F
100
AcDbEntity
  8
AM_0N
100
AcDbLine
 10
1639.713252338349
 20
1529.397517528576
 30
0.0
 11
1653.700667967482
 21
1529.397517528576
 31
0.0
1001
GENIUS_GENOREF_13
1005
0
  0
LINE
  5
49C
330
1F
100
AcDbEntity
  8
AM_0N
100
AcDbLine
 10
1639.713252338349
 20
1538.060017528577
 30
0.0
 11
1653.700667967482
 21
1538.060017528577
 31
0.0
1001
GENIUS_GENOREF_13
1005
0
  0
LINE
  5
49D
330
1F
100
AcDbEntity
  8
AM_0N
100
AcDbLine
 10
1653.700667967482
 20
1564.047517528577
 30
0.0
 11
1655.706960152915
 21
1560.572517528577
 31
0.0
1001
GENIUS_GENOREF_13
1005
0
  0
LINE
  5
49E
330
1F
100
AcDbEntity
  8
AM_0N
100
AcDbLine
 10
1639.713252338349
 20
1564.047517528577
 30
0.0
 11
1637.706960152916
 21
1560.572517528577
 31
0.0
1001
GENIUS_GENOREF_13
1005
0
  0
LINE
  5
49F
330
1F
100
AcDbEntity
  8
AM_0N
100
AcDbLine
 10
1639.713252338349
 20
1564.047517528577
 30
0.0
 11
1653.700667967482
 21
1564.047517528577
 31
0.0
1001
GENIUS_GENOREF_13
1005
0
  0
LINE
  5
4A0
330
1F
100
AcDbEntity
  8
AM_0N
100
AcDbLine
 10
1614.706960152916
 20
1501.575331270962
 30
0.0
 11
1637.706960152916
 21
1501.575331270962
 31
0.0
  0
LINE
  5
4A1
330
1F
100
AcDbEntity
  8
AM_0N
100
AcDbLine
 10
1655.706960152915
 20
1501.575331270962
 30
0.0
 11
1659.786785152916
 21
1501.575331270962
 31
0.0
  0
LINE
  5
4A2
330
1F
100
AcDbEntity
  8
AM_4N
100
AcDbLine
 10
1614.706960152916
 20
1502.495506270962
 30
0.0
 11
1637.706960152916
 21
1502.495506270962
 31
0.0
  0
LINE
  5
4A3
330
1F
100
AcDbEntity
  8
AM_4N
100
AcDbLine
 10
1655.706960152915
 20
1502.495506270962
 30
0.0
 11
1660.706960152915
 21
1502.495506270962
 31
0.0
  0
LINE
  5
4A4
330
1F
100
AcDbEntity
  8
AM_4N
100
AcDbLine
 10
1614.706960152916
 20
1520.655156270962
 30
0.0
 11
1637.706960152916
 21
1520.655156270962
 31
0.0
  0
LINE
  5
4A5
330
1F
100
AcDbEntity
  8
AM_4N
100
AcDbLine
 10
1655.706960152915
 20
1520.655156270962
 30
0.0
 11
1660.706960152915
 21
1520.655156270962
 31
0.0
  0
LINE
  5
4A6
330
1F
100
AcDbEntity
  8
AM_0N
100
AcDbLine
 10
1614.706960152916
 20
1521.575331270962
 30
0.0
 11
1637.706960152916
 21
1521.575331270962
 31
0.0
  0
LINE
  5
4A7
330
1F
100
AcDbEntity
  8
AM_0N
100
AcDbLine
 10
1655.706960152915
 20
1521.575331270962
 30
0.0
 11
1659.786785152916
 21
1521.575331270962
 31
0.0
  0
LINE
  5
4A8
330
1F
100
AcDbEntity
  8
AM_0N
100
AcDbLine
 10
1613.706960152915
 20
1521.575331270963
 30
0.0
 11
1613.786785152916
 21
1521.575331270962
 31
0.0
  0
LINE
  5
4A9
330
1F
100
AcDbEntity
  8
AM_0N
100
AcDbLine
 10
1613.706960152915
 20
1501.575331270962
 30
0.0
 11
1613.786785152916
 21
1501.575331270962
 31
0.0
  0
ARC
  5
4AA
330
1F
100
AcDbEntity
  8
AM_0N
100
AcDbCircle
 10
1611.843420861333
 20
1511.575331270962
 30
0.0
 40
28.63646070841828
100
AcDbArc
 50
162.3875260144803
 51
197.6124739855197
  0
LINE
  5
4AB
330
1F
100
AcDbEntity
  8
AM_0N
100
AcDbLine
 10
1594.406960152916
 20
1497.475331270962
 30
0.0
 11
1594.406960152916
 21
1525.675331270962
 31
0.0
  0
LINE
  5
4AC
330
1F
100
AcDbEntity
  8
AM_0N
100
AcDbLine
 10
1595.706960152915
 20
1521.575331270962
 30
0.0
 11
1595.706960152915
 21
1501.575331270962
 31
0.0
  0
LINE
  5
4AD
330
1F
100
AcDbEntity
  8
AM_0N
100
AcDbLine
 10
1583.206960152915
 20
1526.575331270962
 30
0.0
 11
1583.206960152915
 21
1496.575331270962
 31
0.0
  0
LINE
  5
4AE
330
1F
100
AcDbEntity
  8
AM_0N
100
AcDbLine
 10
1584.549299528781
 20
1494.250331270962
 30
0.0
 11
1594.406960152916
 21
1494.250331270962
 31
0.0
  0
LINE
  5
4AF
330
1F
100
AcDbEntity
  8
AM_0N
100
AcDbLine
 10
1584.549299528781
 20
1502.910585308806
 30
0.0
 11
1594.406960152916
 21
1502.910585308806
 31
0.0
  0
ARC
  5
4B0
330
1F
100
AcDbEntity
  8
AM_0N
100
AcDbCircle
 10
1590.862205677819
 20
1498.580458289884
 30
0.0
 40
7.655245524904224
100
AcDbArc
 50
145.5531276177229
 51
205.5531276177247
  0
LINE
  5
4B1
330
1F
100
AcDbEntity
  8
AM_0N
100
AcDbLine
 10
1584.549299528781
 20
1494.250331270962
 30
0.0
 11
1583.206960152915
 21
1496.575331270962
 31
0.0
  0
LINE
  5
4B2
330
1F
100
AcDbEntity
  8
AM_0N
100
AcDbLine
 10
1595.706960152915
 20
1501.575331270962
 30
0.0
 11
1595.706960152915
 21
1497.475331270962
 31
0.0
  0
LINE
  5
4B3
330
1F
100
AcDbEntity
  8
AM_0N
100
AcDbLine
 10
1594.406960152916
 20
1497.475331270962
 30
0.0
 11
1595.706960152915
 21
1497.475331270962
 31
0.0
  0
LINE
  5
4B4
330
1F
100
AcDbEntity
  8
AM_0N
100
AcDbLine
 10
1594.406960152916
 20
1494.250331270962
 30
0.0
 11
1594.406960152916
 21
1497.475331270962
 31
0.0
  0
LINE
  5
4B5
330
1F
100
AcDbEntity
  8
AM_0N
100
AcDbLine
 10
1594.406960152916
 20
1525.675331270962
 30
0.0
 11
1594.406960152916
 21
1528.900331270962
 31
0.0
  0
LINE
  5
4B6
330
1F
100
AcDbEntity
  8
AM_0N
100
AcDbLine
 10
1584.549299528781
 20
1528.900331270962
 30
0.0
 11
1583.206960152915
 21
1526.575331270962
 31
0.0
  0
LINE
  5
4B7
330
1F
100
AcDbEntity
  8
AM_0N
100
AcDbLine
 10
1584.549299528781
 20
1520.240077233118
 30
0.0
 11
1594.406960152916
 21
1520.240077233118
 31
0.0
  0
ARC
  5
4B8
330
1F
100
AcDbEntity
  8
AM_0N
100
AcDbCircle
 10
1590.862205677819
 20
1524.57020425204
 30
0.0
 40
7.655245524904224
100
AcDbArc
 50
154.4468723822753
 51
214.4468723822771
  0
LINE
  5
4B9
330
1F
100
AcDbEntity
  8
AM_0N
100
AcDbLine
 10
1594.406960152916
 20
1525.675331270962
 30
0.0
 11
1595.706960152915
 21
1525.675331270962
 31
0.0
  0
LINE
  5
4BA
330
1F
100
AcDbEntity
  8
AM_0N
100
AcDbLine
 10
1595.706960152915
 20
1525.675331270962
 30
0.0
 11
1595.706960152915
 21
1521.575331270962
 31
0.0
  0
LINE
  5
4BB
330
1F
100
AcDbEntity
  8
AM_0N
100
AcDbLine
 10
1584.549299528781
 20
1528.900331270962
 30
0.0
 11
1594.406960152916
 21
1528.900331270962
 31
0.0
  0
LINE
  5
4BC
330
1F
100
AcDbEntity
  8
AM_0N
100
AcDbLine
 10
1614.706960152916
 20
1501.575331270962
 30
0.0
 11
1614.706960152916
 21
1521.575331270962
 31
0.0
  0
LINE
  5
4BD
330
1F
100
AcDbEntity
  8
AM_4N
100
AcDbLine
 10
1614.706960152916
 20
1502.495506270962
 30
0.0
 11
1613.786785152916
 21
1501.575331270962
 31
0.0
  0
LINE
  5
4BE
330
1F
100
AcDbEntity
  8
AM_0N
100
AcDbLine
 10
1614.706960152916
 20
1501.575331270962
 30
0.0
 11
1613.786785152916
 21
1501.575331270962
 31
0.0
  0
LINE
  5
4BF
330
1F
100
AcDbEntity
  8
AM_4N
100
AcDbLine
 10
1614.706960152916
 20
1520.655156270962
 30
0.0
 11
1613.786785152916
 21
1521.575331270962
 31
0.0
  0
LINE
  5
4C0
330
1F
100
AcDbEntity
  8
AM_0N
100
AcDbLine
 10
1614.706960152916
 20
1521.575331270962
 30
0.0
 11
1613.786785152916
 21
1521.575331270962
 31
0.0
  0
LINE
  5
4C1
330
1F
100
AcDbEntity
  8
AM_0N
100
AcDbLine
 10
1659.786785152916
 20
1501.575331270962
 30
0.0
 11
1659.786785152916
 21
1521.575331270962
 31
0.0
  0
LINE
  5
4C2
330
1F
100
AcDbEntity
  8
AM_0N
100
AcDbLine
 10
1660.706960152915
 20
1502.495506270962
 30
0.0
 11
1659.786785152916
 21
1501.575331270962
 31
0.0
  0
LINE
  5
4C3
330
1F
100
AcDbEntity
  8
AM_0N
100
AcDbLine
 10
1660.706960152915
 20
1502.495506270962
 30
0.0
 11
1660.706960152915
 21
1520.655156270962
 31
0.0
  0
LINE
  5
4C4
330
1F
100
AcDbEntity
  8
AM_0N
100
AcDbLine
 10
1659.786785152916
 20
1521.575331270962
 30
0.0
 11
1660.706960152915
 21
1520.655156270962
 31
0.0
  0
ARC
  5
4C5
330
1F
100
AcDbEntity
  8
AM_0N
100
AcDbCircle
 10
1647.384138829103
 20
1524.569081270962
 30
0.0
 40
7.658868514244661
100
AcDbArc
 50
325.5615305952663
 51
25.56153059527558
  0
ARC
  5
4C6
330
1F
100
AcDbEntity
  8
AM_0N
100
AcDbCircle
 10
1646.029781476728
 20
1524.569081270962
 30
0.0
 40
7.658868514244661
100
AcDbArc
 50
154.4384694047244
 51
214.4384694047337
  0
LINE
  5
4C7
330
1F
100
AcDbEntity
  8
AM_0N
100
AcDbLine
 10
1655.706960152915
 20
1525.425331270962
 30
0.0
 11
1655.706960152915
 21
1497.725331270962
 31
0.0
  0
LINE
  5
4C8
330
1F
100
AcDbEntity
  8
AM_0N
100
AcDbLine
 10
1637.706960152916
 20
1525.425331270962
 30
0.0
 11
1637.706960152916
 21
1497.725331270962
 31
0.0
  0
ARC
  5
4C9
330
1F
100
AcDbEntity
  8
AM_0N
100
AcDbCircle
 10
1647.384138829103
 20
1498.581581270962
 30
0.0
 40
7.658868514244677
100
AcDbArc
 50
334.4384694047244
 51
34.43846940473366
  0
ARC
  5
4CA
330
1F
100
AcDbEntity
  8
AM_0N
100
AcDbCircle
 10
1626.421042350167
 20
1511.575331270962
 30
0.0
 40
28.62196499317989
100
AcDbArc
 50
342.3830311595945
 51
17.61696884040555
  0
ARC
  5
4CB
330
1F
100
AcDbEntity
  8
AM_0N
100
AcDbCircle
 10
1666.992877955664
 20
1511.575331270962
 30
0.0
 40
28.62196499317981
100
AcDbArc
 50
162.3830311595944
 51
197.6169688404055
  0
ARC
  5
4CC
330
1F
100
AcDbEntity
  8
AM_0N
100
AcDbCircle
 10
1646.029781476728
 20
1498.581581270962
 30
0.0
 40
7.658868514244661
100
AcDbArc
 50
145.5615305952663
 51
205.5615305952755
  0
LINE
  5
4CD
330
1F
100
AcDbEntity
  8
AM_0N
100
AcDbLine
 10
1653.700667967482
 20
1494.250331270962
 30
0.0
 11
1655.706960152915
 21
1497.725331270962
 31
0.0
  0
LINE
  5
4CE
330
1F
100
AcDbEntity
  8
AM_0N
100
AcDbLine
 10
1639.713252338349
 20
1520.237831270962
 30
0.0
 11
1653.700667967482
 21
1520.237831270962
 31
0.0
  0
LINE
  5
4CF
330
1F
100
AcDbEntity
  8
AM_0N
100
AcDbLine
 10
1639.713252338349
 20
1494.250331270962
 30
0.0
 11
1637.706960152916
 21
1497.725331270962
 31
0.0
  0
LINE
  5
4D0
330
1F
100
AcDbEntity
  8
AM_0N
100
AcDbLine
 10
1639.713252338349
 20
1494.250331270962
 30
0.0
 11
1653.700667967482
 21
1494.250331270962
 31
0.0
  0
LINE
  5
4D1
330
1F
100
AcDbEntity
  8
AM_0N
100
AcDbLine
 10
1639.713252338349
 20
1502.912831270962
 30
0.0
 11
1653.700667967482
 21
1502.912831270962
 31
0.0
  0
LINE
  5
4D2
330
1F
100
AcDbEntity
  8
AM_0N
100
AcDbLine
 10
1653.700667967482
 20
1528.900331270962
 30
0.0
 11
1655.706960152915
 21
1525.425331270962
 31
0.0
  0
LINE
  5
4D3
330
1F
100
AcDbEntity
  8
AM_0N
100
AcDbLine
 10
1639.713252338349
 20
1528.900331270962
 30
0.0
 11
1637.706960152916
 21
1525.425331270962
 31
0.0
  0
LINE
  5
4D4
330
1F
100
AcDbEntity
  8
AM_0N
100
AcDbLine
 10
1639.713252338349
 20
1528.900331270962
 30
0.0
 11
1653.700667967482
 21
1528.900331270962
 31
0.0
  0
LINE
  5
4D5
330
1F
100
AcDbEntity
  8
AM_0N
100
AcDbLine
 10
1614.706960152916
 20
1416.722517528576
 30
0.0
 11
1637.706960152916
 21
1416.722517528576
 31
0.0
  0
LINE
  5
4D6
330
1F
100
AcDbEntity
  8
AM_0N
100
AcDbLine
 10
1655.706960152915
 20
1416.722517528576
 30
0.0
 11
1659.786785152916
 21
1416.722517528576
 31
0.0
  0
LINE
  5
4D7
330
1F
100
AcDbEntity
  8
AM_4N
100
AcDbLine
 10
1614.706960152916
 20
1417.642692528576
 30
0.0
 11
1637.706960152916
 21
1417.642692528576
 31
0.0
  0
LINE
  5
4D8
330
1F
100
AcDbEntity
  8
AM_4N
100
AcDbLine
 10
1655.706960152915
 20
1417.642692528576
 30
0.0
 11
1660.706960152915
 21
1417.642692528576
 31
0.0
  0
LINE
  5
4D9
330
1F
100
AcDbEntity
  8
AM_4N
100
AcDbLine
 10
1614.706960152916
 20
1435.802342528577
 30
0.0
 11
1637.706960152916
 21
1435.802342528577
 31
0.0
  0
LINE
  5
4DA
330
1F
100
AcDbEntity
  8
AM_4N
100
AcDbLine
 10
1655.706960152915
 20
1435.802342528577
 30
0.0
 11
1660.706960152915
 21
1435.802342528577
 31
0.0
  0
LINE
  5
4DB
330
1F
100
AcDbEntity
  8
AM_0N
100
AcDbLine
 10
1614.706960152916
 20
1436.722517528577
 30
0.0
 11
1637.706960152916
 21
1436.722517528577
 31
0.0
  0
LINE
  5
4DC
330
1F
100
AcDbEntity
  8
AM_0N
100
AcDbLine
 10
1655.706960152915
 20
1436.722517528577
 30
0.0
 11
1659.786785152916
 21
1436.722517528577
 31
0.0
  0
LINE
  5
4DD
330
1F
100
AcDbEntity
  8
AM_0N
100
AcDbLine
 10
1613.706960152915
 20
1436.722517528577
 30
0.0
 11
1613.786785152916
 21
1436.722517528577
 31
0.0
  0
LINE
  5
4DE
330
1F
100
AcDbEntity
  8
AM_0N
100
AcDbLine
 10
1613.706960152915
 20
1416.722517528577
 30
0.0
 11
1613.786785152916
 21
1416.722517528576
 31
0.0
  0
ARC
  5
4DF
330
1F
100
AcDbEntity
  8
AM_0N
100
AcDbCircle
 10
1611.843420861333
 20
1426.722517528576
 30
0.0
 40
28.63646070841828
100
AcDbArc
 50
162.3875260144803
 51
197.6124739855197
  0
LINE
  5
4E0
330
1F
100
AcDbEntity
  8
AM_0N
100
AcDbLine
 10
1594.406960152916
 20
1412.622517528577
 30
0.0
 11
1594.406960152916
 21
1440.822517528576
 31
0.0
  0
LINE
  5
4E1
330
1F
100
AcDbEntity
  8
AM_0N
100
AcDbLine
 10
1595.706960152915
 20
1436.722517528577
 30
0.0
 11
1595.706960152915
 21
1416.722517528576
 31
0.0
  0
LINE
  5
4E2
330
1F
100
AcDbEntity
  8
AM_0N
100
AcDbLine
 10
1583.206960152915
 20
1441.722517528577
 30
0.0
 11
1583.206960152915
 21
1411.722517528577
 31
0.0
  0
LINE
  5
4E3
330
1F
100
AcDbEntity
  8
AM_0N
100
AcDbLine
 10
1584.549299528781
 20
1409.397517528576
 30
0.0
 11
1594.406960152916
 21
1409.397517528576
 31
0.0
  0
LINE
  5
4E4
330
1F
100
AcDbEntity
  8
AM_0N
100
AcDbLine
 10
1584.549299528781
 20
1418.057771566421
 30
0.0
 11
1594.406960152916
 21
1418.057771566421
 31
0.0
  0
ARC
  5
4E5
330
1F
100
AcDbEntity
  8
AM_0N
100
AcDbCircle
 10
1590.862205677819
 20
1413.727644547499
 30
0.0
 40
7.655245524904224
100
AcDbArc
 50
145.5531276177229
 51
205.5531276177247
  0
LINE
  5
4E6
330
1F
100
AcDbEntity
  8
AM_0N
100
AcDbLine
 10
1584.549299528781
 20
1409.397517528576
 30
0.0
 11
1583.206960152915
 21
1411.722517528577
 31
0.0
  0
LINE
  5
4E7
330
1F
100
AcDbEntity
  8
AM_0N
100
AcDbLine
 10
1595.706960152915
 20
1416.722517528576
 30
0.0
 11
1595.706960152915
 21
1412.622517528577
 31
0.0
  0
LINE
  5
4E8
330
1F
100
AcDbEntity
  8
AM_0N
100
AcDbLine
 10
1594.406960152916
 20
1412.622517528577
 30
0.0
 11
1595.706960152915
 21
1412.622517528577
 31
0.0
  0
LINE
  5
4E9
330
1F
100
AcDbEntity
  8
AM_0N
100
AcDbLine
 10
1594.406960152916
 20
1409.397517528576
 30
0.0
 11
1594.406960152916
 21
1412.622517528577
 31
0.0
  0
LINE
  5
4EA
330
1F
100
AcDbEntity
  8
AM_0N
100
AcDbLine
 10
1594.406960152916
 20
1440.822517528576
 30
0.0
 11
1594.406960152916
 21
1444.047517528576
 31
0.0
  0
LINE
  5
4EB
330
1F
100
AcDbEntity
  8
AM_0N
100
AcDbLine
 10
1584.549299528781
 20
1444.047517528576
 30
0.0
 11
1583.206960152915
 21
1441.722517528577
 31
0.0
  0
LINE
  5
4EC
330
1F
100
AcDbEntity
  8
AM_0N
100
AcDbLine
 10
1584.549299528781
 20
1435.387263490732
 30
0.0
 11
1594.406960152916
 21
1435.387263490732
 31
0.0
  0
ARC
  5
4ED
330
1F
100
AcDbEntity
  8
AM_0N
100
AcDbCircle
 10
1590.862205677819
 20
1439.717390509654
 30
0.0
 40
7.655245524904224
100
AcDbArc
 50
154.4468723822753
 51
214.4468723822771
  0
LINE
  5
4EE
330
1F
100
AcDbEntity
  8
AM_0N
100
AcDbLine
 10
1594.406960152916
 20
1440.822517528576
 30
0.0
 11
1595.706960152915
 21
1440.822517528576
 31
0.0
  0
LINE
  5
4EF
330
1F
100
AcDbEntity
  8
AM_0N
100
AcDbLine
 10
1595.706960152915
 20
1440.822517528576
 30
0.0
 11
1595.706960152915
 21
1436.722517528577
 31
0.0
  0
LINE
  5
4F0
330
1F
100
AcDbEntity
  8
AM_0N
100
AcDbLine
 10
1584.549299528781
 20
1444.047517528576
 30
0.0
 11
1594.406960152916
 21
1444.047517528576
 31
0.0
  0
LINE
  5
4F1
330
1F
100
AcDbEntity
  8
AM_0N
100
AcDbLine
 10
1614.706960152916
 20
1416.722517528576
 30
0.0
 11
1614.706960152916
 21
1436.722517528577
 31
0.0
  0
LINE
  5
4F2
330
1F
100
AcDbEntity
  8
AM_4N
100
AcDbLine
 10
1614.706960152916
 20
1417.642692528576
 30
0.0
 11
1613.786785152916
 21
1416.722517528576
 31
0.0
  0
LINE
  5
4F3
330
1F
100
AcDbEntity
  8
AM_0N
100
AcDbLine
 10
1614.706960152916
 20
1416.722517528576
 30
0.0
 11
1613.786785152916
 21
1416.722517528576
 31
0.0
  0
LINE
  5
4F4
330
1F
100
AcDbEntity
  8
AM_4N
100
AcDbLine
 10
1614.706960152916
 20
1435.802342528577
 30
0.0
 11
1613.786785152916
 21
1436.722517528577
 31
0.0
  0
LINE
  5
4F5
330
1F
100
AcDbEntity
  8
AM_0N
100
AcDbLine
 10
1614.706960152916
 20
1436.722517528577
 30
0.0
 11
1613.786785152916
 21
1436.722517528577
 31
0.0
  0
LINE
  5
4F6
330
1F
100
AcDbEntity
  8
AM_0N
100
AcDbLine
 10
1659.786785152916
 20
1416.722517528576
 30
0.0
 11
1659.786785152916
 21
1436.722517528577
 31
0.0
  0
LINE
  5
4F7
330
1F
100
AcDbEntity
  8
AM_0N
100
AcDbLine
 10
1660.706960152915
 20
1417.642692528576
 30
0.0
 11
1659.786785152916
 21
1416.722517528576
 31
0.0
  0
LINE
  5
4F8
330
1F
100
AcDbEntity
  8
AM_0N
100
AcDbLine
 10
1660.706960152915
 20
1417.642692528576
 30
0.0
 11
1660.706960152915
 21
1435.802342528577
 31
0.0
  0
LINE
  5
4F9
330
1F
100
AcDbEntity
  8
AM_0N
100
AcDbLine
 10
1659.786785152916
 20
1436.722517528577
 30
0.0
 11
1660.706960152915
 21
1435.802342528577
 31
0.0
  0
ARC
  5
4FA
330
1F
100
AcDbEntity
  8
AM_0N
100
AcDbCircle
 10
1647.384138829103
 20
1439.716267528577
 30
0.0
 40
7.658868514244661
100
AcDbArc
 50
325.5615305952663
 51
25.56153059527558
  0
ARC
  5
4FB
330
1F
100
AcDbEntity
  8
AM_0N
100
AcDbCircle
 10
1646.029781476728
 20
1439.716267528577
 30
0.0
 40
7.658868514244661
100
AcDbArc
 50
154.4384694047244
 51
214.4384694047337
  0
LINE
  5
4FC
330
1F
100
AcDbEntity
  8
AM_0N
100
AcDbLine
 10
1655.706960152915
 20
1440.572517528577
 30
0.0
 11
1655.706960152915
 21
1412.872517528577
 31
0.0
  0
LINE
  5
4FD
330
1F
100
AcDbEntity
  8
AM_0N
100
AcDbLine
 10
1637.706960152916
 20
1440.572517528577
 30
0.0
 11
1637.706960152916
 21
1412.872517528577
 31
0.0
  0
ARC
  5
4FE
330
1F
100
AcDbEntity
  8
AM_0N
100
AcDbCircle
 10
1647.384138829103
 20
1413.728767528576
 30
0.0
 40
7.658868514244677
100
AcDbArc
 50
334.4384694047244
 51
34.43846940473366
  0
ARC
  5
4FF
330
1F
100
AcDbEntity
  8
AM_0N
100
AcDbCircle
 10
1626.421042350167
 20
1426.722517528576
 30
0.0
 40
28.62196499317989
100
AcDbArc
 50
342.3830311595945
 51
17.61696884040555
  0
ARC
  5
500
330
1F
100
AcDbEntity
  8
AM_0N
100
AcDbCircle
 10
1666.992877955664
 20
1426.722517528576
 30
0.0
 40
28.62196499317981
100
AcDbArc
 50
162.3830311595944
 51
197.6169688404055
  0
ARC
  5
501
330
1F
100
AcDbEntity
  8
AM_0N
100
AcDbCircle
 10
1646.029781476728
 20
1413.728767528576
 30
0.0
 40
7.658868514244661
100
AcDbArc
 50
145.5615305952663
 51
205.5615305952755
  0
LINE
  5
502
330
1F
100
AcDbEntity
  8
AM_0N
100
AcDbLine
 10
1653.700667967482
 20
1409.397517528576
 30
0.0
 11
1655.706960152915
 21
1412.872517528577
 31
0.0
  0
LINE
  5
503
330
1F
100
AcDbEntity
  8
AM_0N
100
AcDbLine
 10
1639.713252338349
 20
1435.385017528576
 30
0.0
 11
1653.700667967482
 21
1435.385017528576
 31
0.0
  0
LINE
  5
504
330
1F
100
AcDbEntity
  8
AM_0N
100
AcDbLine
 10
1639.713252338349
 20
1409.397517528576
 30
0.0
 11
1637.706960152916
 21
1412.872517528577
 31
0.0
  0
LINE
  5
505
330
1F
100
AcDbEntity
  8
AM_0N
100
AcDbLine
 10
1639.713252338349
 20
1409.397517528576
 30
0.0
 11
1653.700667967482
 21
1409.397517528576
 31
0.0
  0
LINE
  5
506
330
1F
100
AcDbEntity
  8
AM_0N
100
AcDbLine
 10
1639.713252338349
 20
1418.060017528577
 30
0.0
 11
1653.700667967482
 21
1418.060017528577
 31
0.0
  0
LINE
  5
507
330
1F
100
AcDbEntity
  8
AM_0N
100
AcDbLine
 10
1653.700667967482
 20
1444.047517528576
 30
0.0
 11
1655.706960152915
 21
1440.572517528577
 31
0.0
  0
LINE
  5
508
330
1F
100
AcDbEntity
  8
AM_0N
100
AcDbLine
 10
1639.713252338349
 20
1444.047517528576
 30
0.0
 11
1637.706960152916
 21
1440.572517528577
 31
0.0
  0
LINE
  5
509
330
1F
100
AcDbEntity
  8
AM_0N
100
AcDbLine
 10
1639.713252338349
 20
1444.047517528576
 30
0.0
 11
1653.700667967482
 21
1444.047517528576
 31
0.0
  0
LINE
  5
50A
330
1F
100
AcDbEntity
  8
0
100
AcDbLine
 10
1617.706960152917
 20
1501.575331270962
 30
0.0
 11
1617.706960152917
 21
1436.722517528577
 31
0.0
  0
LINE
  5
50B
330
1F
100
AcDbEntity
  8
0
100
AcDbLine
 10
1619.706960152916
 20
1501.575331270962
 30
0.0
 11
1619.706960152916
 21
1436.722517528577
 31
0.0
  0
LINE
  5
50C
330
1F
100
AcDbEntity
  8
0
100
AcDbLine
 10
1589.706960152917
 20
1494.250331270962
 30
0.0
 11
1589.706960152917
 21
1444.047517528576
 31
0.0
  0
LINE
  5
50D
330
1F
100
AcDbEntity
  8
0
100
AcDbLine
 10
1595.706960152915
 20
1284.222517528577
 30
0.0
 11
1613.706960152915
 21
1284.222517528577
 31
0.0
  0
LINE
  5
50E
330
1F
100
AcDbEntity
  8
0
100
AcDbLine
 10
1617.706960152917
 20
1331.869703786191
 30
0.0
 11
1617.706960152915
 21
1320.589058119664
 31
0.0
  0
LINE
  5
50F
330
1F
100
AcDbEntity
  8
0
100
AcDbLine
 10
1613.706960152919
 20
1320.589058119664
 30
0.0
 11
1617.706960152915
 21
1320.589058119664
 31
0.0
  0
LINE
  5
510
330
1F
100
AcDbEntity
  8
AM_0
100
AcDbLine
 10
1619.706960152916
 20
1323.589058119664
 30
0.0
 11
1619.706960152916
 21
1331.869703786191
 31
0.0
  0
LINE
  5
511
330
1F
100
AcDbEntity
  8
AM_0
100
AcDbLine
 10
1617.706960152915
 20
1323.589058119664
 30
0.0
 11
1619.706960152916
 21
1323.589058119664
 31
0.0
  0
LINE
  5
512
330
1F
100
AcDbEntity
  8
0
100
AcDbLine
 10
1542.706960152916
 20
1426.722517528577
 30
0.0
 11
1542.706960152916
 21
1346.722517528577
 31
0.0
  0
LINE
  5
513
330
1F
100
AcDbEntity
  8
0
100
AcDbLine
 10
1542.706960152916
 20
1346.722517528577
 30
0.0
 11
1583.206960152915
 21
1346.722517528577
 31
0.0
  0
LINE
  5
514
330
1F
100
AcDbEntity
  8
AM_0N
100
AcDbLine
 10
1614.706960152916
 20
1316.722517528577
 30
0.0
 11
1637.706960152916
 21
1316.722517528577
 31
0.0
  0
LINE
  5
515
330
1F
100
AcDbEntity
  8
AM_0N
100
AcDbLine
 10
1655.706960152915
 20
1316.722517528577
 30
0.0
 11
1659.786785152916
 21
1316.722517528577
 31
0.0
  0
LINE
  5
516
330
1F
100
AcDbEntity
  8
AM_4N
100
AcDbLine
 10
1614.706960152916
 20
1315.802342528577
 30
0.0
 11
1637.706960152916
 21
1315.802342528577
 31
0.0
  0
LINE
  5
517
330
1F
100
AcDbEntity
  8
AM_4N
100
AcDbLine
 10
1655.706960152915
 20
1315.802342528577
 30
0.0
 11
1660.706960152915
 21
1315.802342528577
 31
0.0
  0
LINE
  5
518
330
1F
100
AcDbEntity
  8
AM_4N
100
AcDbLine
 10
1614.706960152916
 20
1297.642692528577
 30
0.0
 11
1637.706960152916
 21
1297.642692528577
 31
0.0
  0
LINE
  5
519
330
1F
100
AcDbEntity
  8
AM_4N
100
AcDbLine
 10
1655.706960152915
 20
1297.642692528577
 30
0.0
 11
1660.706960152915
 21
1297.642692528577
 31
0.0
  0
LINE
  5
51A
330
1F
100
AcDbEntity
  8
AM_0N
100
AcDbLine
 10
1614.706960152916
 20
1296.722517528577
 30
0.0
 11
1637.706960152916
 21
1296.722517528577
 31
0.0
  0
LINE
  5
51B
330
1F
100
AcDbEntity
  8
AM_0N
100
AcDbLine
 10
1655.706960152915
 20
1296.722517528577
 30
0.0
 11
1659.786785152916
 21
1296.722517528577
 31
0.0
  0
LINE
  5
51C
330
1F
100
AcDbEntity
  8
AM_0N
100
AcDbLine
 10
1613.706960152915
 20
1296.722517528577
 30
0.0
 11
1613.786785152916
 21
1296.722517528577
 31
0.0
  0
LINE
  5
51D
330
1F
100
AcDbEntity
  8
AM_0N
100
AcDbLine
 10
1613.706960152915
 20
1316.722517528577
 30
0.0
 11
1613.786785152916
 21
1316.722517528577
 31
0.0
  0
ARC
  5
51E
330
1F
100
AcDbEntity
  8
AM_0N
100
AcDbCircle
 10
1611.843420861333
 20
1306.722517528577
 30
0.0
 40
28.63646070841828
100
AcDbArc
 50
162.3875260144803
 51
197.6124739855197
  0
LINE
  5
51F
330
1F
100
AcDbEntity
  8
AM_0N
100
AcDbLine
 10
1594.406960152916
 20
1320.822517528577
 30
0.0
 11
1594.406960152916
 21
1292.622517528577
 31
0.0
  0
LINE
  5
520
330
1F
100
AcDbEntity
  8
AM_0N
100
AcDbLine
 10
1595.706960152915
 20
1296.722517528577
 30
0.0
 11
1595.706960152915
 21
1316.722517528577
 31
0.0
  0
LINE
  5
521
330
1F
100
AcDbEntity
  8
AM_0N
100
AcDbLine
 10
1583.206960152915
 20
1291.722517528577
 30
0.0
 11
1583.206960152915
 21
1321.722517528577
 31
0.0
  0
LINE
  5
522
330
1F
100
AcDbEntity
  8
AM_0N
100
AcDbLine
 10
1584.549299528781
 20
1324.047517528577
 30
0.0
 11
1594.406960152916
 21
1324.047517528577
 31
0.0
  0
LINE
  5
523
330
1F
100
AcDbEntity
  8
AM_0N
100
AcDbLine
 10
1584.549299528781
 20
1315.387263490733
 30
0.0
 11
1594.406960152916
 21
1315.387263490733
 31
0.0
  0
ARC
  5
524
330
1F
100
AcDbEntity
  8
AM_0N
100
AcDbCircle
 10
1590.862205677819
 20
1319.717390509655
 30
0.0
 40
7.655245524904224
100
AcDbArc
 50
154.4468723822579
 51
214.4468723822771
  0
LINE
  5
525
330
1F
100
AcDbEntity
  8
AM_0N
100
AcDbLine
 10
1584.549299528781
 20
1324.047517528577
 30
0.0
 11
1583.206960152915
 21
1321.722517528577
 31
0.0
  0
LINE
  5
526
330
1F
100
AcDbEntity
  8
AM_0N
100
AcDbLine
 10
1595.706960152915
 20
1316.722517528577
 30
0.0
 11
1595.706960152915
 21
1320.822517528577
 31
0.0
  0
LINE
  5
527
330
1F
100
AcDbEntity
  8
AM_0N
100
AcDbLine
 10
1594.406960152916
 20
1320.822517528577
 30
0.0
 11
1595.706960152915
 21
1320.822517528577
 31
0.0
  0
LINE
  5
528
330
1F
100
AcDbEntity
  8
AM_0N
100
AcDbLine
 10
1594.406960152916
 20
1324.047517528577
 30
0.0
 11
1594.406960152916
 21
1320.822517528577
 31
0.0
  0
LINE
  5
529
330
1F
100
AcDbEntity
  8
AM_0N
100
AcDbLine
 10
1594.406960152916
 20
1292.622517528577
 30
0.0
 11
1594.406960152916
 21
1289.397517528577
 31
0.0
  0
LINE
  5
52A
330
1F
100
AcDbEntity
  8
AM_0N
100
AcDbLine
 10
1584.549299528781
 20
1289.397517528577
 30
0.0
 11
1583.206960152915
 21
1291.722517528577
 31
0.0
  0
LINE
  5
52B
330
1F
100
AcDbEntity
  8
AM_0N
100
AcDbLine
 10
1584.549299528781
 20
1298.057771566421
 30
0.0
 11
1594.406960152916
 21
1298.057771566421
 31
0.0
  0
ARC
  5
52C
330
1F
100
AcDbEntity
  8
AM_0N
100
AcDbCircle
 10
1590.862205677819
 20
1293.727644547499
 30
0.0
 40
7.655245524904224
100
AcDbArc
 50
145.5531276177229
 51
205.5531276177421
  0
LINE
  5
52D
330
1F
100
AcDbEntity
  8
AM_0N
100
AcDbLine
 10
1594.406960152916
 20
1292.622517528577
 30
0.0
 11
1595.706960152915
 21
1292.622517528577
 31
0.0
  0
LINE
  5
52E
330
1F
100
AcDbEntity
  8
AM_0N
100
AcDbLine
 10
1595.706960152915
 20
1292.622517528577
 30
0.0
 11
1595.706960152915
 21
1296.722517528577
 31
0.0
  0
LINE
  5
52F
330
1F
100
AcDbEntity
  8
AM_0N
100
AcDbLine
 10
1584.549299528781
 20
1289.397517528577
 30
0.0
 11
1594.406960152916
 21
1289.397517528577
 31
0.0
  0
LINE
  5
530
330
1F
100
AcDbEntity
  8
AM_0N
100
AcDbLine
 10
1614.706960152916
 20
1316.722517528577
 30
0.0
 11
1614.706960152916
 21
1296.722517528577
 31
0.0
  0
LINE
  5
531
330
1F
100
AcDbEntity
  8
AM_4N
100
AcDbLine
 10
1614.706960152916
 20
1315.802342528577
 30
0.0
 11
1613.786785152916
 21
1316.722517528577
 31
0.0
  0
LINE
  5
532
330
1F
100
AcDbEntity
  8
AM_0N
100
AcDbLine
 10
1614.706960152916
 20
1316.722517528577
 30
0.0
 11
1613.786785152916
 21
1316.722517528577
 31
0.0
  0
LINE
  5
533
330
1F
100
AcDbEntity
  8
AM_4N
100
AcDbLine
 10
1614.706960152916
 20
1297.642692528577
 30
0.0
 11
1613.786785152916
 21
1296.722517528577
 31
0.0
  0
LINE
  5
534
330
1F
100
AcDbEntity
  8
AM_0N
100
AcDbLine
 10
1614.706960152916
 20
1296.722517528577
 30
0.0
 11
1613.786785152916
 21
1296.722517528577
 31
0.0
  0
LINE
  5
535
330
1F
100
AcDbEntity
  8
AM_0N
100
AcDbLine
 10
1659.786785152916
 20
1316.722517528577
 30
0.0
 11
1659.786785152916
 21
1296.722517528577
 31
0.0
  0
LINE
  5
536
330
1F
100
AcDbEntity
  8
AM_0N
100
AcDbLine
 10
1660.706960152915
 20
1315.802342528577
 30
0.0
 11
1659.786785152916
 21
1316.722517528577
 31
0.0
  0
LINE
  5
537
330
1F
100
AcDbEntity
  8
AM_0N
100
AcDbLine
 10
1660.706960152915
 20
1315.802342528577
 30
0.0
 11
1660.706960152915
 21
1297.642692528577
 31
0.0
  0
LINE
  5
538
330
1F
100
AcDbEntity
  8
AM_0N
100
AcDbLine
 10
1659.786785152916
 20
1296.722517528577
 30
0.0
 11
1660.706960152915
 21
1297.642692528577
 31
0.0
  0
ARC
  5
539
330
1F
100
AcDbEntity
  8
AM_0N
100
AcDbCircle
 10
1647.384138829103
 20
1293.728767528577
 30
0.0
 40
7.658868514244661
100
AcDbArc
 50
334.4384694047244
 51
34.43846940471554
  0
ARC
  5
53A
330
1F
100
AcDbEntity
  8
AM_0N
100
AcDbCircle
 10
1646.029781476728
 20
1293.728767528577
 30
0.0
 40
7.658868514244661
100
AcDbArc
 50
145.5615305952844
 51
205.5615305952755
  0
LINE
  5
53B
330
1F
100
AcDbEntity
  8
AM_0N
100
AcDbLine
 10
1655.706960152915
 20
1292.872517528577
 30
0.0
 11
1655.706960152915
 21
1320.572517528577
 31
0.0
  0
LINE
  5
53C
330
1F
100
AcDbEntity
  8
AM_0N
100
AcDbLine
 10
1637.706960152916
 20
1292.872517528577
 30
0.0
 11
1637.706960152916
 21
1320.572517528577
 31
0.0
  0
ARC
  5
53D
330
1F
100
AcDbEntity
  8
AM_0N
100
AcDbCircle
 10
1647.384138829103
 20
1319.716267528577
 30
0.0
 40
7.658868514244677
100
AcDbArc
 50
325.5615305952844
 51
25.56153059527558
  0
ARC
  5
53E
330
1F
100
AcDbEntity
  8
AM_0N
100
AcDbCircle
 10
1626.421042350167
 20
1306.722517528577
 30
0.0
 40
28.62196499317989
100
AcDbArc
 50
342.3830311596108
 51
17.61696884038919
  0
ARC
  5
53F
330
1F
100
AcDbEntity
  8
AM_0N
100
AcDbCircle
 10
1666.992877955664
 20
1306.722517528577
 30
0.0
 40
28.62196499317981
100
AcDbArc
 50
162.3830311596108
 51
197.6169688403892
  0
ARC
  5
540
330
1F
100
AcDbEntity
  8
AM_0N
100
AcDbCircle
 10
1646.029781476728
 20
1319.716267528577
 30
0.0
 40
7.658868514244661
100
AcDbArc
 50
154.4384694047244
 51
214.4384694047155
  0
LINE
  5
541
330
1F
100
AcDbEntity
  8
AM_0N
100
AcDbLine
 10
1653.700667967482
 20
1324.047517528577
 30
0.0
 11
1655.706960152915
 21
1320.572517528577
 31
0.0
  0
LINE
  5
542
330
1F
100
AcDbEntity
  8
AM_0N
100
AcDbLine
 10
1639.713252338349
 20
1298.060017528577
 30
0.0
 11
1653.700667967482
 21
1298.060017528577
 31
0.0
  0
LINE
  5
543
330
1F
100
AcDbEntity
  8
AM_0N
100
AcDbLine
 10
1639.713252338349
 20
1324.047517528577
 30
0.0
 11
1637.706960152916
 21
1320.572517528577
 31
0.0
  0
LINE
  5
544
330
1F
100
AcDbEntity
  8
AM_0N
100
AcDbLine
 10
1639.713252338349
 20
1324.047517528577
 30
0.0
 11
1653.700667967482
 21
1324.047517528577
 31
0.0
  0
LINE
  5
545
330
1F
100
AcDbEntity
  8
AM_0N
100
AcDbLine
 10
1639.713252338349
 20
1315.385017528577
 30
0.0
 11
1653.700667967482
 21
1315.385017528577
 31
0.0
  0
LINE
  5
546
330
1F
100
AcDbEntity
  8
AM_0N
100
AcDbLine
 10
1653.700667967482
 20
1289.397517528577
 30
0.0
 11
1655.706960152915
 21
1292.872517528577
 31
0.0
  0
LINE
  5
547
330
1F
100
AcDbEntity
  8
AM_0N
100
AcDbLine
 10
1639.713252338349
 20
1289.397517528577
 30
0.0
 11
1637.706960152916
 21
1292.872517528577
 31
0.0
  0
LINE
  5
548
330
1F
100
AcDbEntity
  8
AM_0N
100
AcDbLine
 10
1639.713252338349
 20
1289.397517528577
 30
0.0
 11
1653.700667967482
 21
1289.397517528577
 31
0.0
  0
LINE
  5
549
330
1F
100
AcDbEntity
  8
AM_0N
100
AcDbLine
 10
1614.706960152916
 20
1351.869703786191
 30
0.0
 11
1637.706960152916
 21
1351.869703786191
 31
0.0
  0
LINE
  5
54A
330
1F
100
AcDbEntity
  8
AM_0N
100
AcDbLine
 10
1655.706960152915
 20
1351.869703786191
 30
0.0
 11
1659.786785152916
 21
1351.869703786191
 31
0.0
  0
LINE
  5
54B
330
1F
100
AcDbEntity
  8
AM_4N
100
AcDbLine
 10
1614.706960152916
 20
1350.949528786191
 30
0.0
 11
1637.706960152916
 21
1350.949528786191
 31
0.0
  0
LINE
  5
54C
330
1F
100
AcDbEntity
  8
AM_4N
100
AcDbLine
 10
1655.706960152915
 20
1350.949528786192
 30
0.0
 11
1660.706960152915
 21
1350.949528786191
 31
0.0
  0
LINE
  5
54D
330
1F
100
AcDbEntity
  8
AM_4N
100
AcDbLine
 10
1614.706960152916
 20
1332.789878786191
 30
0.0
 11
1637.706960152916
 21
1332.789878786191
 31
0.0
  0
LINE
  5
54E
330
1F
100
AcDbEntity
  8
AM_4N
100
AcDbLine
 10
1655.706960152915
 20
1332.789878786191
 30
0.0
 11
1660.706960152915
 21
1332.789878786191
 31
0.0
  0
LINE
  5
54F
330
1F
100
AcDbEntity
  8
AM_0N
100
AcDbLine
 10
1614.706960152916
 20
1331.869703786191
 30
0.0
 11
1637.706960152916
 21
1331.869703786191
 31
0.0
  0
LINE
  5
550
330
1F
100
AcDbEntity
  8
AM_0N
100
AcDbLine
 10
1655.706960152915
 20
1331.869703786191
 30
0.0
 11
1659.786785152916
 21
1331.869703786191
 31
0.0
  0
LINE
  5
551
330
1F
100
AcDbEntity
  8
AM_0N
100
AcDbLine
 10
1613.706960152915
 20
1331.869703786191
 30
0.0
 11
1613.786785152916
 21
1331.869703786191
 31
0.0
  0
LINE
  5
552
330
1F
100
AcDbEntity
  8
AM_0N
100
AcDbLine
 10
1613.706960152915
 20
1351.869703786191
 30
0.0
 11
1613.786785152916
 21
1351.869703786191
 31
0.0
  0
ARC
  5
553
330
1F
100
AcDbEntity
  8
AM_0N
100
AcDbCircle
 10
1611.843420861333
 20
1341.869703786191
 30
0.0
 40
28.63646070841828
100
AcDbArc
 50
162.3875260144803
 51
197.6124739855197
  0
LINE
  5
554
330
1F
100
AcDbEntity
  8
AM_0N
100
AcDbLine
 10
1594.406960152916
 20
1355.969703786191
 30
0.0
 11
1594.406960152916
 21
1327.769703786192
 31
0.0
  0
LINE
  5
555
330
1F
100
AcDbEntity
  8
AM_0N
100
AcDbLine
 10
1595.706960152915
 20
1331.869703786191
 30
0.0
 11
1595.706960152915
 21
1351.869703786191
 31
0.0
  0
LINE
  5
556
330
1F
100
AcDbEntity
  8
AM_0N
100
AcDbLine
 10
1583.206960152915
 20
1326.869703786191
 30
0.0
 11
1583.206960152915
 21
1356.869703786191
 31
0.0
  0
LINE
  5
557
330
1F
100
AcDbEntity
  8
AM_0N
100
AcDbLine
 10
1584.549299528781
 20
1359.194703786192
 30
0.0
 11
1594.406960152916
 21
1359.194703786192
 31
0.0
  0
LINE
  5
558
330
1F
100
AcDbEntity
  8
AM_0N
100
AcDbLine
 10
1584.549299528781
 20
1350.534449748347
 30
0.0
 11
1594.406960152916
 21
1350.534449748347
 31
0.0
  0
ARC
  5
559
330
1F
100
AcDbEntity
  8
AM_0N
100
AcDbCircle
 10
1590.862205677819
 20
1354.864576767269
 30
0.0
 40
7.655245524904224
100
AcDbArc
 50
154.4468723822579
 51
214.4468723822771
  0
LINE
  5
55A
330
1F
100
AcDbEntity
  8
AM_0N
100
AcDbLine
 10
1584.549299528781
 20
1359.194703786192
 30
0.0
 11
1583.206960152915
 21
1356.869703786191
 31
0.0
  0
LINE
  5
55B
330
1F
100
AcDbEntity
  8
AM_0N
100
AcDbLine
 10
1595.706960152915
 20
1351.869703786191
 30
0.0
 11
1595.706960152915
 21
1355.969703786191
 31
0.0
  0
LINE
  5
55C
330
1F
100
AcDbEntity
  8
AM_0N
100
AcDbLine
 10
1594.406960152916
 20
1355.969703786191
 30
0.0
 11
1595.706960152915
 21
1355.969703786191
 31
0.0
  0
LINE
  5
55D
330
1F
100
AcDbEntity
  8
AM_0N
100
AcDbLine
 10
1594.406960152916
 20
1359.194703786192
 30
0.0
 11
1594.406960152916
 21
1355.969703786191
 31
0.0
  0
LINE
  5
55E
330
1F
100
AcDbEntity
  8
AM_0N
100
AcDbLine
 10
1594.406960152916
 20
1327.769703786192
 30
0.0
 11
1594.406960152916
 21
1324.544703786191
 31
0.0
  0
LINE
  5
55F
330
1F
100
AcDbEntity
  8
AM_0N
100
AcDbLine
 10
1584.549299528781
 20
1324.544703786191
 30
0.0
 11
1583.206960152915
 21
1326.869703786191
 31
0.0
  0
LINE
  5
560
330
1F
100
AcDbEntity
  8
AM_0N
100
AcDbLine
 10
1584.549299528781
 20
1333.204957824036
 30
0.0
 11
1594.406960152916
 21
1333.204957824036
 31
0.0
  0
ARC
  5
561
330
1F
100
AcDbEntity
  8
AM_0N
100
AcDbCircle
 10
1590.862205677819
 20
1328.874830805114
 30
0.0
 40
7.655245524904224
100
AcDbArc
 50
145.5531276177229
 51
205.5531276177421
  0
LINE
  5
562
330
1F
100
AcDbEntity
  8
AM_0N
100
AcDbLine
 10
1594.406960152916
 20
1327.769703786192
 30
0.0
 11
1595.706960152915
 21
1327.769703786192
 31
0.0
  0
LINE
  5
563
330
1F
100
AcDbEntity
  8
AM_0N
100
AcDbLine
 10
1595.706960152915
 20
1327.769703786192
 30
0.0
 11
1595.706960152915
 21
1331.869703786191
 31
0.0
  0
LINE
  5
564
330
1F
100
AcDbEntity
  8
AM_0N
100
AcDbLine
 10
1584.549299528781
 20
1324.544703786191
 30
0.0
 11
1594.406960152916
 21
1324.544703786191
 31
0.0
  0
LINE
  5
565
330
1F
100
AcDbEntity
  8
AM_0N
100
AcDbLine
 10
1614.706960152916
 20
1351.869703786191
 30
0.0
 11
1614.706960152916
 21
1331.869703786191
 31
0.0
  0
LINE
  5
566
330
1F
100
AcDbEntity
  8
AM_4N
100
AcDbLine
 10
1614.706960152916
 20
1350.949528786191
 30
0.0
 11
1613.786785152916
 21
1351.869703786191
 31
0.0
  0
LINE
  5
567
330
1F
100
AcDbEntity
  8
AM_0N
100
AcDbLine
 10
1614.706960152916
 20
1351.869703786191
 30
0.0
 11
1613.786785152916
 21
1351.869703786191
 31
0.0
  0
LINE
  5
568
330
1F
100
AcDbEntity
  8
AM_4N
100
AcDbLine
 10
1614.706960152916
 20
1332.789878786191
 30
0.0
 11
1613.786785152916
 21
1331.869703786191
 31
0.0
  0
LINE
  5
569
330
1F
100
AcDbEntity
  8
AM_0N
100
AcDbLine
 10
1614.706960152916
 20
1331.869703786191
 30
0.0
 11
1613.786785152916
 21
1331.869703786191
 31
0.0
  0
LINE
  5
56A
330
1F
100
AcDbEntity
  8
AM_0N
100
AcDbLine
 10
1659.786785152916
 20
1351.869703786191
 30
0.0
 11
1659.786785152916
 21
1331.869703786191
 31
0.0
  0
LINE
  5
56B
330
1F
100
AcDbEntity
  8
AM_0N
100
AcDbLine
 10
1660.706960152915
 20
1350.949528786191
 30
0.0
 11
1659.786785152916
 21
1351.869703786191
 31
0.0
  0
LINE
  5
56C
330
1F
100
AcDbEntity
  8
AM_0N
100
AcDbLine
 10
1660.706960152915
 20
1350.949528786191
 30
0.0
 11
1660.706960152915
 21
1332.789878786191
 31
0.0
  0
LINE
  5
56D
330
1F
100
AcDbEntity
  8
AM_0N
100
AcDbLine
 10
1659.786785152916
 20
1331.869703786191
 30
0.0
 11
1660.706960152915
 21
1332.789878786191
 31
0.0
  0
ARC
  5
56E
330
1F
100
AcDbEntity
  8
AM_0N
100
AcDbCircle
 10
1647.384138829103
 20
1328.875953786191
 30
0.0
 40
7.658868514244661
100
AcDbArc
 50
334.4384694047244
 51
34.43846940471554
  0
ARC
  5
56F
330
1F
100
AcDbEntity
  8
AM_0N
100
AcDbCircle
 10
1646.029781476728
 20
1328.875953786191
 30
0.0
 40
7.658868514244661
100
AcDbArc
 50
145.5615305952844
 51
205.5615305952755
  0
LINE
  5
570
330
1F
100
AcDbEntity
  8
AM_0N
100
AcDbLine
 10
1655.706960152915
 20
1328.019703786192
 30
0.0
 11
1655.706960152915
 21
1355.719703786191
 31
0.0
  0
LINE
  5
571
330
1F
100
AcDbEntity
  8
AM_0N
100
AcDbLine
 10
1637.706960152916
 20
1328.019703786192
 30
0.0
 11
1637.706960152916
 21
1355.719703786191
 31
0.0
  0
ARC
  5
572
330
1F
100
AcDbEntity
  8
AM_0N
100
AcDbCircle
 10
1647.384138829103
 20
1354.863453786191
 30
0.0
 40
7.658868514244677
100
AcDbArc
 50
325.5615305952844
 51
25.56153059527558
  0
ARC
  5
573
330
1F
100
AcDbEntity
  8
AM_0N
100
AcDbCircle
 10
1626.421042350167
 20
1341.869703786191
 30
0.0
 40
28.62196499317989
100
AcDbArc
 50
342.3830311596108
 51
17.61696884038919
  0
ARC
  5
574
330
1F
100
AcDbEntity
  8
AM_0N
100
AcDbCircle
 10
1666.992877955664
 20
1341.869703786191
 30
0.0
 40
28.62196499317981
100
AcDbArc
 50
162.3830311596108
 51
197.6169688403892
  0
ARC
  5
575
330
1F
100
AcDbEntity
  8
AM_0N
100
AcDbCircle
 10
1646.029781476728
 20
1354.863453786191
 30
0.0
 40
7.658868514244661
100
AcDbArc
 50
154.4384694047244
 51
214.4384694047155
  0
LINE
  5
576
330
1F
100
AcDbEntity
  8
AM_0N
100
AcDbLine
 10
1653.700667967482
 20
1359.194703786192
 30
0.0
 11
1655.706960152915
 21
1355.719703786191
 31
0.0
  0
LINE
  5
577
330
1F
100
AcDbEntity
  8
AM_0N
100
AcDbLine
 10
1639.713252338349
 20
1333.207203786192
 30
0.0
 11
1653.700667967482
 21
1333.207203786192
 31
0.0
  0
LINE
  5
578
330
1F
100
AcDbEntity
  8
AM_0N
100
AcDbLine
 10
1639.713252338349
 20
1359.194703786192
 30
0.0
 11
1637.706960152916
 21
1355.719703786191
 31
0.0
  0
LINE
  5
579
330
1F
100
AcDbEntity
  8
AM_0N
100
AcDbLine
 10
1639.713252338349
 20
1359.194703786192
 30
0.0
 11
1653.700667967482
 21
1359.194703786192
 31
0.0
  0
LINE
  5
57A
330
1F
100
AcDbEntity
  8
AM_0N
100
AcDbLine
 10
1639.713252338349
 20
1350.532203786191
 30
0.0
 11
1653.700667967482
 21
1350.532203786191
 31
0.0
  0
LINE
  5
57B
330
1F
100
AcDbEntity
  8
AM_0N
100
AcDbLine
 10
1653.700667967482
 20
1324.544703786191
 30
0.0
 11
1655.706960152915
 21
1328.019703786192
 31
0.0
  0
LINE
  5
57C
330
1F
100
AcDbEntity
  8
AM_0N
100
AcDbLine
 10
1639.713252338349
 20
1324.544703786191
 30
0.0
 11
1637.706960152916
 21
1328.019703786192
 31
0.0
  0
LINE
  5
57D
330
1F
100
AcDbEntity
  8
AM_0N
100
AcDbLine
 10
1639.713252338349
 20
1324.544703786191
 30
0.0
 11
1653.700667967482
 21
1324.544703786191
 31
0.0
  0
LINE
  5
57E
330
1F
100
AcDbEntity
  8
0
100
AcDbLine
 10
1617.706960152917
 20
1351.869703786191
 30
0.0
 11
1617.706960152917
 21
1416.722517528577
 31
0.0
  0
LINE
  5
57F
330
1F
100
AcDbEntity
  8
0
100
AcDbLine
 10
1619.706960152916
 20
1351.869703786191
 30
0.0
 11
1619.706960152916
 21
1416.722517528577
 31
0.0
  0
LINE
  5
580
330
1F
100
AcDbEntity
  8
0
100
AcDbLine
 10
1589.706960152917
 20
1359.194703786192
 30
0.0
 11
1589.706960152917
 21
1409.397517528577
 31
0.0
  0
DIMENSION
  5
581
330
1F
100
AcDbEntity
  8
AM_5
100
AcDbDimension
  2
*D6
 10
1481.308747632525
 20
1346.722517528578
 30
0.0
 11
1481.308747632524
 21
1426.722517528579
 31
0.0
 70
   160
  1
%%c<>
 71
     5
 42
159.9999999999988
  3
GEN-ISO$0
100
AcDbAlignedDimension
 13
1542.706960152916
 23
1506.722517528577
 33
0.0
 14
1542.706960152916
 24
1346.722517528578
 34
0.0
 50
90.0
100
AcDbRotatedDimension
1001
ACAD
1000
DSTYLE
1002
{
1070
   271
1070
     0
1002
}
  0
DIMENSION
  5
582
330
1F
100
AcDbEntity
  8
AM_5
100
AcDbDimension
  2
*D7
 10
1617.706960152912
 20
1225.144337481112
 30
0.0
 11
1580.206960152914
 21
1225.144337481112
 31
0.0
 70
   160
 71
     5
 42
74.99999999999636
  3
GEN-ISO$0
100
AcDbAlignedDimension
 13
1542.706960152916
 23
1346.722517528577
 33
0.0
 14
1617.706960152912
 24
1325.722517528577
 34
0.0
100
AcDbRotatedDimension
1001
ACAD
1000
DSTYLE
1002
{
1070
   271
1070
     1
1002
}
  0
ENDSEC
  0
SECTION
  2
OBJECTS
  0
DICTIONARY
  5
C
330
0
100
AcDbDictionary
281
     1
  3
ACAD_COLOR
350
D7
  3
ACAD_GROUP
350
D
  3
ACAD_LAYOUT
350
1A
  3
ACAD_MATERIAL
350
D6
  3
ACAD_MLINESTYLE
350
17
  3
ACAD_PLOTSETTINGS
350
19
  3
ACAD_PLOTSTYLENAME
350
E
  3
ACAD_TABLESTYLE
350
133
  3
ACDBHEADERROUNDTRIPXREC
350
5B1
  3
AcDbVariableDictionary
350
34
  3
AcmDictionary
350
49
  3
AMG
350
2B
  3
AMGSNAPSETTINGS
350
2C4
  3
DWGPROPS
350
5B0
  0
DICTIONARY
  5
C0
330
2
100
AcDbDictionary
280
     1
281
     1
  3
ACAD_LAYERSTATES
360
335
  3
AMLAYER_GROUPCOLORS
360
C1
  0
DICTIONARY
  5
83
330
1F
100
AcDbDictionary
280
     1
281
     1
  0
DICTIONARY
  5
D7
102
{ACAD_REACTORS
330
C
102
}
330
C
100
AcDbDictionary
281
     1
  0
DICTIONARY
  5
D
102
{ACAD_REACTORS
330
C
102
}
330
C
100
AcDbDictionary
281
     1
  0
DICTIONARY
  5
1A
102
{ACAD_REACTORS
330
C
102
}
330
C
100
AcDbDictionary
281
     1
  3
Layout1
350
1E
  3
Layout2
350
26
  3
Model
350
22
  0
DICTIONARY
  5
D6
102
{ACAD_REACTORS
330
C
102
}
330
C
100
AcDbDictionary
281
     1
  0
DICTIONARY
  5
17
102
{ACAD_REACTORS
330
C
102
}
330
C
100
AcDbDictionary
281
     1
  3
Standard
350
18
  0
DICTIONARY
  5
19
102
{ACAD_REACTORS
330
C
102
}
330
C
100
AcDbDictionary
281
     1
  0
ACDBDICTIONARYWDFLT
  5
E
102
{ACAD_REACTORS
330
C
102
}
330
C
100
AcDbDictionary
281
     1
  3
Normal
350
F
100
AcDbDictionaryWithDefault
340
F
  0
DICTIONARY
  5
133
102
{ACAD_REACTORS
330
C
102
}
330
C
100
AcDbDictionary
281
     1
  3
Standard
350
134
  0
DICTIONARY
  5
5B1
102
{ACAD_REACTORS
330
C
102
}
330
C
100
AcDbDictionary
281
     1
  0
DICTIONARY
  5
34
102
{ACAD_REACTORS
330
C
102
}
330
C
100
AcDbDictionary
281
     1
  3
CTABLESTYLE
350
152
  3
DIMASSOC
350
AD
  3
INDEXCTL
350
35
  3
PROJECTNAME
350
5AE
  0
DICTIONARY
  5
49
102
{ACAD_REACTORS
330
C
102
}
330
C
100
AcDbDictionary
281
     1
  3
AcmBOM
350
2CB
  3
AcmStdDictionary
350
4A
  3
AMDTSECTSYM_ARROWCOLOR
350
13D
  0
DICTIONARY
  5
2B
102
{ACAD_REACTORS
330
C
102
}
330
C
100
AcDbDictionary
281
     1
  0
DICTIONARY
  5
2C4
102
{ACAD_REACTORS
330
C
102
}
330
C
100
AcDbDictionary
281
     1
  0
XRECORD
  5
5B0
102
{ACAD_REACTORS
330
C
102
}
330
C
100
AcDbXrecord
280
     1
  1
DWGPROPS COOKIE
  2

  3

  4

  6

  7

  8

  9

300
AmdtFileType=84
301
=
302
=
303
=
304
=
305
=
306
=
307
=
308
=
309
=
 40
0.0002170138888889
 41
2454053.374667419
 42
2454053.374884074
  1

 90
        1
  0
DICTIONARY
  5
335
102
{ACAD_REACTORS
330
C0
102
}
330
C0
100
AcDbDictionary
281
     1
  0
DICTIONARY
  5
C1
102
{ACAD_REACTORS
330
C0
102
}
330
C0
100
AcDbDictionary
280
     1
281
     1
  0
LAYOUT
  5
1E
102
{ACAD_XDICTIONARY
360
5B2
102
}
102
{ACAD_REACTORS
330
1A
102
}
330
1A
100
AcDbPlotSettings
  1

  2
none_device
  4
Letter_(8.50_x_11.00_Inches)
  6

 40
6.349999904632568
 41
6.349999904632568
 42
6.350006103515625
 43
6.350006103515625
 44
215.8999938964844
 45
279.3999938964844
 46
0.0
 47
0.0
 48
0.0
 49
0.0
140
0.0
141
0.0
142
1.0
143
1.0
 70
 15024
 72
     1
 73
     1
 74
     5
  7

 75
    16
147
1.0
148
0.0
149
0.0
100
AcDbLayout
  1
Layout1
 70
     1
 71
     1
 10
0.0
 20
0.0
 11
420.0
 21
297.0
 12
0.0
 22
0.0
 32
0.0
 14
1.000000000000000E+20
 24
1.000000000000000E+20
 34
1.000000000000000E+20
 15
-1.000000000000000E+20
 25
-1.000000000000000E+20
 35
-1.000000000000000E+20
146
0.0
 13
0.0
 23
0.0
 33
0.0
 16
1.0
 26
0.0
 36
0.0
 17
0.0
 27
1.0
 37
0.0
 76
     0
330
1B
  0
LAYOUT
  5
26
102
{ACAD_XDICTIONARY
360
5B6
102
}
102
{ACAD_REACTORS
330
1A
102
}
330
1A
100
AcDbPlotSettings
  1

  2
none_device
  4
Letter_(8.50_x_11.00_Inches)
  6

 40
6.349999904632568
 41
6.349999904632568
 42
6.350006103515625
 43
6.350006103515625
 44
215.8999938964844
 45
279.3999938964844
 46
0.0
 47
0.0
 48
0.0
 49
0.0
140
0.0
141
0.0
142
1.0
143
1.0
 70
 15024
 72
     1
 73
     1
 74
     5
  7

 75
    16
147
1.0
148
0.0
149
0.0
100
AcDbLayout
  1
Layout2
 70
     1
 71
     2
 10
0.0
 20
0.0
 11
12.0
 21
9.0
 12
0.0
 22
0.0
 32
0.0
 14
0.0
 24
0.0
 34
0.0
 15
0.0
 25
0.0
 35
0.0
146
0.0
 13
0.0
 23
0.0
 33
0.0
 16
1.0
 26
0.0
 36
0.0
 17
0.0
 27
1.0
 37
0.0
 76
     0
330
23
  0
LAYOUT
  5
22
102
{ACAD_XDICTIONARY
360
5B4
102
}
102
{ACAD_REACTORS
330
1A
102
}
330
1A
100
AcDbPlotSettings
  1

  2
none_device
  4
Letter_(8.50_x_11.00_Inches)
  6

 40
6.349999904632568
 41
6.349999904632568
 42
6.350006103515625
 43
6.350006103515625
 44
215.8999938964844
 45
279.3999938964844
 46
0.0
 47
0.0
 48
0.0
 49
0.0
140
0.0
141
0.0
142
1.0
143
1.0
 70
 11952
 72
     1
 73
     1
 74
     0
  7

 75
     0
147
1.0
148
-131.3052631578947
149
0.0
100
AcDbLayout
  1
Model
 70
     1
 71
     0
 10
0.0
 20
0.0
 11
12.0
 21
9.0
 12
0.0
 22
0.0
 32
0.0
 14
0.0
 24
0.0
 34
0.0
 15
0.0
 25
0.0
 35
0.0
146
0.0
 13
0.0
 23
0.0
 33
0.0
 16
1.0
 26
0.0
 36
0.0
 17
0.0
 27
1.0
 37
0.0
 76
     0
330
1F
  0
MLINESTYLE
  5
18
102
{ACAD_REACTORS
330
17
102
}
330
17
100
AcDbMlineStyle
  2
STANDARD
 70
     0
  3

 62
   256
 51
90.0
 52
90.0
 71
     2
 49
0.5
 62
   256
  6
BYLAYER
 49
-0.5
 62
   256
  6
BYLAYER
  0
ACDBPLACEHOLDER
  5
F
102
{ACAD_REACTORS
330
E
102
}
330
E
  0
TABLESTYLE
  5
134
102
{ACAD_REACTORS
330
133
102
}
330
133
100
AcDbTableStyle
  3
Standard
 70
     0
 71
     0
 40
1.5
 41
1.5
280
     0
281
     0
  7
STANDARD
140
4.5
170
     2
 62
     0
 63
     7
283
     0
274
    -2
284
     1
 64
     0
275
    -2
285
     1
 65
     0
276
    -2
286
     1
 66
     0
277
    -2
287
     1
 67
     0
278
    -2
288
     1
 68
     0
279
    -2
289
     1
 69
     0
  7
STANDARD
140
6.0
170
     5
 62
     0
 63
     7
283
     0
274
    -2
284
     1
 64
     0
275
    -2
285
     1
 65
     0
276
    -2
286
     1
 66
     0
277
    -2
287
     1
 67
     0
278
    -2
288
     1
 68
     0
279
    -2
289
     1
 69
     0
  7
STANDARD
140
4.5
170
     5
 62
     0
 63
     7
283
     0
274
    -2
284
     1
 64
     0
275
    -2
285
     1
 65
     0
276
    -2
286
     1
 66
     0
277
    -2
287
     1
 67
     0
278
    -2
288
     1
 68
     0
279
    -2
289
     1
 69
     0
  0
DICTIONARYVAR
  5
152
102
{ACAD_REACTORS
330
34
102
}
330
34
100
DictionaryVariables
280
     0
  1
STANDARD
  0
DICTIONARYVAR
  5
AD
102
{ACAD_REACTORS
330
34
102
}
330
34
100
DictionaryVariables
280
     0
  1
2
  0
DICTIONARYVAR
  5
35
102
{ACAD_REACTORS
330
34
102
}
330
34
100
DictionaryVariables
280
     0
  1
0
  0
DICTIONARYVAR
  5
5AE
102
{ACAD_REACTORS
330
34
102
}
330
34
100
DictionaryVariables
280
     0
  1

  0
DICTIONARY
  5
2CB
102
{ACAD_REACTORS
330
49
102
}
330
49
100
AcDbDictionary
281
     1
  0
DICTIONARY
  5
4A
102
{ACAD_REACTORS
330
49
102
}
330
49
100
AcDbDictionary
281
     1
  0
XRECORD
  5
13D
102
{ACAD_REACTORS
330
49
102
}
330
49
100
AcDbXrecord
280
     1
 90
-1023410169
  0
DICTIONARY
  5
5B2
330
1E
100
AcDbDictionary
280
     1
281
     1
  3
ACAD_XREC_ROUNDTRIP
360
5B3
  0
DICTIONARY
  5
5B6
330
26
100
AcDbDictionary
280
     1
281
     1
  3
ACAD_XREC_ROUNDTRIP
360
5B7
  0
DICTIONARY
  5
5B4
330
22
100
AcDbDictionary
280
     1
281
     1
  3
ACAD_XREC_ROUNDTRIP
360
5B5
  0
XRECORD
  5
5B3
102
{ACAD_REACTORS
330
5B2
102
}
330
5B2
100
AcDbXrecord
280
     1
102
SHADEPLOT
 70
     0
102
SHADEPLOTRESLEVEL
 70
     2
102
SHADEPLOTCUSTOMDPI
 70
   300
  0
XRECORD
  5
5B7
102
{ACAD_REACTORS
330
5B6
102
}
330
5B6
100
AcDbXrecord
280
     1
102
SHADEPLOT
 70
     0
102
SHADEPLOTRESLEVEL
 70
     2
102
SHADEPLOTCUSTOMDPI
 70
   300
  0
XRECORD
  5
5B5
102
{ACAD_REACTORS
330
5B4
102
}
330
5B4
100
AcDbXrecord
280
     1
102
SHADEPLOT
 70
     0
102
SHADEPLOTRESLEVEL
 70
     2
102
SHADEPLOTCUSTOMDPI
 70
   300
  0
ENDSEC
  0
EOF
