  0
SECTION
  2
HEADER
  9
$ACADVER
  1
AC1015
  9
$ACADMAINTVER
 70
     6
  9
$DWGCODEPAGE
  3
ANSI_1252
  9
$INSBASE
 10
0.0
 20
0.0
 30
0.0
  9
$EXTMIN
 10
0.0
 20
0.0
 30
0.0
  9
$EXTMAX
 10
210.0
 20
297.0
 30
0.0
  9
$LIMMIN
 10
0.0
 20
0.0
  9
$LIMMAX
 10
210.0
 20
297.0
  9
$ORTHOMODE
 70
     0
  9
$REGENMODE
 70
     1
  9
$FILLMODE
 70
     1
  9
$QTEXTMODE
 70
     0
  9
$MIRRTEXT
 70
     1
  9
$LTSCALE
 40
1.0
  9
$ATTMODE
 70
     1
  9
$TEXTSIZE
 40
2.5
  9
$TRACEWID
 40
1.0
  9
$TEXTSTYLE
  7
Standard
  9
$CLAYER
  8
0
  9
$CELTYPE
  6
ByLayer
  9
$CECOLOR
 62
   256
  9
$CELTSCALE
 40
1.0
  9
$DISPSILH
 70
     0
  9
$DIMSCALE
 40
1.0
  9
$DIMASZ
 40
3.302
  9
$DIMEXO
 40
0.0
  9
$DIMDLI
 40
3.75
  9
$DIMRND
 40
0.0
  9
$DIMDLE
 40
0.0
  9
$DIMEXE
 40
1.0
  9
$DIMTP
 40
0.0
  9
$DIMTM
 40
0.0
  9
$DIMTXT
 40
2.5
  9
$DIMCEN
 40
2.5
  9
$DIMTSZ
 40
0.0
  9
$DIMTOL
 70
     0
  9
$DIMLIM
 70
     0
  9
$DIMTIH
 70
     1
  9
$DIMTOH
 70
     1
  9
$DIMSE1
 70
     0
  9
$DIMSE2
 70
     0
  9
$DIMTAD
 70
     1
  9
$DIMZIN
 70
     0
  9
$DIMBLK
  1

  9
$DIMASO
 70
     1
  9
$DIMSHO
 70
     1
  9
$DIMPOST
  1

  9
$DIMAPOST
  1

  9
$DIMALT
 70
     0
  9
$DIMALTD
 70
     3
  9
$DIMALTF
 40
0.0393700787
  9
$DIMLFAC
 40
1.0
  9
$DIMTOFL
 70
     1
  9
$DIMTVP
 40
0.0
  9
$DIMTIX
 70
     0
  9
$DIMSOXD
 70
     0
  9
$DIMSAH
 70
     0
  9
$DIMBLK1
  1

  9
$DIMBLK2
  1

  9
$DIMSTYLE
  2
ISO-25
  9
$DIMCLRD
 70
     0
  9
$DIMCLRE
 70
     0
  9
$DIMCLRT
 70
     0
  9
$DIMTFAC
 40
1.0
  9
$DIMGAP
 40
1.524
  9
$DIMJUST
 70
     0
  9
$DIMSD1
 70
     0
  9
$DIMSD2
 70
     0
  9
$DIMTOLJ
 70
     0
  9
$DIMTZIN
 70
     0
  9
$DIMALTZ
 70
     0
  9
$DIMALTTZ
 70
     0
  9
$DIMUPT
 70
     0
  9
$DIMDEC
 70
     3
  9
$DIMTDEC
 70
     3
  9
$DIMALTU
 70
     2
  9
$DIMALTTD
 70
     3
  9
$DIMTXSTY
  7
Standard
  9
$DIMAUNIT
 70
     0
  9
$DIMADEC
 70
     2
  9
$DIMALTRND
 40
0.0
  9
$DIMAZIN
 70
     0
  9
$DIMDSEP
 70
    44
  9
$DIMATFIT
 70
     3
  9
$DIMFRAC
 70
     0
  9
$DIMLDRBLK
  1

  9
$DIMLUNIT
 70
     2
  9
$DIMLWD
 70
    -2
  9
$DIMLWE
 70
    -2
  9
$DIMTMOVE
 70
     0
  9
$LUNITS
 70
     2
  9
$LUPREC
 70
     1
  9
$SKETCHINC
 40
1.0
  9
$FILLETRAD
 40
10.0
  9
$AUNITS
 70
     0
  9
$AUPREC
 70
     2
  9
$MENU
  1
.
  9
$ELEVATION
 40
0.0
  9
$PELEVATION
 40
0.0
  9
$THICKNESS
 40
0.0
  9
$LIMCHECK
 70
     0
  9
$CHAMFERA
 40
0.0
  9
$CHAMFERB
 40
0.0
  9
$CHAMFERC
 40
0.0
  9
$CHAMFERD
 40
0.0
  9
$SKPOLY
 70
     0
  9
$TDCREATE
 40
2457785.409854433
  9
$TDUCREATE
 40
2457785.368187766
  9
$TDUPDATE
 40
2457785.409855475
  9
$TDUUPDATE
 40
2457785.368188808
  9
$TDINDWG
 40
0.0000000116
  9
$TDUSRTIMER
 40
0.0000000116
  9
$USRTIMER
 70
     1
  9
$ANGBASE
 50
0.0
  9
$ANGDIR
 70
     0
  9
$PDMODE
 70
     0
  9
$PDSIZE
 40
-1.0
  9
$PLINEWID
 40
0.0
  9
$SPLFRAME
 70
     0
  9
$SPLINETYPE
 70
     6
  9
$SPLINESEGS
 70
     8
  9
$HANDSEED
  5
470
  9
$SURFTAB1
 70
     6
  9
$SURFTAB2
 70
     6
  9
$SURFTYPE
 70
     6
  9
$SURFU
 70
     6
  9
$SURFV
 70
     6
  9
$UCSBASE
  2

  9
$UCSNAME
  2

  9
$UCSORG
 10
0.0
 20
0.0
 30
0.0
  9
$UCSXDIR
 10
1.0
 20
0.0
 30
0.0
  9
$UCSYDIR
 10
0.0
 20
1.0
 30
0.0
  9
$UCSORTHOREF
  2

  9
$UCSORTHOVIEW
 70
     0
  9
$UCSORGTOP
 10
0.0
 20
0.0
 30
0.0
  9
$UCSORGBOTTOM
 10
0.0
 20
0.0
 30
0.0
  9
$UCSORGLEFT
 10
0.0
 20
0.0
 30
0.0
  9
$UCSORGRIGHT
 10
0.0
 20
0.0
 30
0.0
  9
$UCSORGFRONT
 10
0.0
 20
0.0
 30
0.0
  9
$UCSORGBACK
 10
0.0
 20
0.0
 30
0.0
  9
$PUCSBASE
  2

  9
$PUCSNAME
  2

  9
$PUCSORG
 10
0.0
 20
0.0
 30
0.0
  9
$PUCSXDIR
 10
1.0
 20
0.0
 30
0.0
  9
$PUCSYDIR
 10
0.0
 20
1.0
 30
0.0
  9
$PUCSORTHOREF
  2

  9
$PUCSORTHOVIEW
 70
     0
  9
$PUCSORGTOP
 10
0.0
 20
0.0
 30
0.0
  9
$PUCSORGBOTTOM
 10
0.0
 20
0.0
 30
0.0
  9
$PUCSORGLEFT
 10
0.0
 20
0.0
 30
0.0
  9
$PUCSORGRIGHT
 10
0.0
 20
0.0
 30
0.0
  9
$PUCSORGFRONT
 10
0.0
 20
0.0
 30
0.0
  9
$PUCSORGBACK
 10
0.0
 20
0.0
 30
0.0
  9
$USERI1
 70
     0
  9
$USERI2
 70
     0
  9
$USERI3
 70
     0
  9
$USERI4
 70
     0
  9
$USERI5
 70
     0
  9
$USERR1
 40
0.0
  9
$USERR2
 40
0.0
  9
$USERR3
 40
0.0
  9
$USERR4
 40
0.0
  9
$USERR5
 40
0.0
  9
$WORLDVIEW
 70
     1
  9
$SHADEDGE
 70
     3
  9
$SHADEDIF
 70
    70
  9
$TILEMODE
 70
     1
  9
$MAXACTVP
 70
    64
  9
$PINSBASE
 10
0.0
 20
0.0
 30
0.0
  9
$PLIMCHECK
 70
     0
  9
$PEXTMIN
 10
1.0000000000E+20
 20
1.0000000000E+20
 30
1.0000000000E+20
  9
$PEXTMAX
 10
-1.0000000000E+20
 20
-1.0000000000E+20
 30
-1.0000000000E+20
  9
$PLIMMIN
 10
0.0
 20
0.0
  9
$PLIMMAX
 10
420.0
 20
297.0
  9
$UNITMODE
 70
     0
  9
$VISRETAIN
 70
     1
  9
$PLINEGEN
 70
     0
  9
$PSLTSCALE
 70
     1
  9
$TREEDEPTH
 70
  3020
  9
$CMLSTYLE
  2
Standard
  9
$CMLJUST
 70
     0
  9
$CMLSCALE
 40
20.0
  9
$PROXYGRAPHICS
 70
     1
  9
$MEASUREMENT
 70
     1
  9
$CELWEIGHT
370
    -1
  9
$ENDCAPS
280
     0
  9
$JOINSTYLE
280
     0
  9
$LWDISPLAY
290
     1
  9
$INSUNITS
 70
     4
  9
$HYPERLINKBASE
  1

  9
$STYLESHEET
  1

  9
$XEDIT
290
     1
  9
$CEPSNTYPE
380
     0
  9
$PSTYLEMODE
290
     1
  9
$FINGERPRINTGUID
  2
{569FEB83-196C-4F47-99E2-3C2CF8541C8B}
  9
$VERSIONGUID
  2
{FAEB1C32-E019-11D5-929B-00C0DF256EC4}
  9
$EXTNAMES
290
     1
  9
$PSVPSCALE
 40
0.0
  9
$OLESTARTUP
290
     0
  0
ENDSEC
  0
SECTION
  2
CLASSES
  0
CLASS
  1
ACDBDICTIONARYWDFLT
  2
AcDbDictionaryWithDefault
  3
ObjectDBX Classes
 90
        0
280
     0
281
     0
  0
CLASS
  1
VISUALSTYLE
  2
AcDbVisualStyle
  3
ObjectDBX Classes
 90
     4095
280
     0
281
     0
  0
CLASS
  1
MATERIAL
  2
AcDbMaterial
  3
ObjectDBX Classes
 90
     1153
280
     0
281
     0
  0
CLASS
  1
SCALE
  2
AcDbScale
  3
ObjectDBX Classes
 90
     1153
280
     0
281
     0
  0
CLASS
  1
SUN
  2
AcDbSun
  3
SCENEOE
 90
     1153
280
     0
281
     0
  0
CLASS
  1
ACDBPLACEHOLDER
  2
AcDbPlaceHolder
  3
ObjectDBX Classes
 90
        0
280
     0
281
     0
  0
CLASS
  1
LAYOUT
  2
AcDbLayout
  3
ObjectDBX Classes
 90
        0
280
     0
281
     0
  0
ENDSEC
  0
SECTION
  2
TABLES
  0
TABLE
  2
VPORT
  5
8
330
0
100
AcDbSymbolTable
 70
     1
  0
VPORT
  5
29
330
8
100
AcDbSymbolTableRecord
100
AcDbViewportTableRecord
  2
*Active
 70
     0
 10
0.0
 20
0.0
 11
1.0
 21
1.0
 12
105.0
 22
148.5
 13
0.0
 23
0.0
 14
10.0
 24
10.0
 15
10.0
 25
10.0
 16
0.0
 26
0.0
 36
1.0
 17
0.0
 27
0.0
 37
0.0
 40
297.0
 41
0.7070707071
 42
50.0
 43
0.0
 44
0.0
 50
0.0
 51
0.0
 71
     0
 72
  2000
 73
     1
 74
     3
 75
     0
 76
     0
 77
     0
 78
     0
281
     0
 65
     1
110
0.0
120
0.0
130
0.0
111
1.0
121
0.0
131
0.0
112
0.0
122
1.0
132
0.0
 79
     0
146
0.0
  0
ENDTAB
  0
TABLE
  2
LTYPE
  5
5
330
0
100
AcDbSymbolTable
 70
     6
  0
LTYPE
  5
14
330
5
100
AcDbSymbolTableRecord
100
AcDbLinetypeTableRecord
  2
ByBlock
 70
     0
  3

 72
    65
 73
     0
 40
0.0
  0
LTYPE
  5
15
330
5
100
AcDbSymbolTableRecord
100
AcDbLinetypeTableRecord
  2
ByLayer
 70
     0
  3

 72
    65
 73
     0
 40
0.0
  0
LTYPE
  5
16
330
5
100
AcDbSymbolTableRecord
100
AcDbLinetypeTableRecord
  2
Continuous
 70
     0
  3
Solid line
 72
    65
 73
     0
 40
0.0
  0
LTYPE
  5
6A
330
5
100
AcDbSymbolTableRecord
100
AcDbLinetypeTableRecord
  2
HIDDEN
 70
     0
  3
Hidden __ __ __ __ __ __ __ __ __ __ __ __ __ __
 72
    65
 73
     2
 40
1.905
 49
1.27
 74
     0
 49
-0.635
 74
     0
  0
LTYPE
  5
6B
330
5
100
AcDbSymbolTableRecord
100
AcDbLinetypeTableRecord
  2
PHANTOM
 70
     0
  3
Phantom ______  __  __  ______  __  __  ______
 72
    65
 73
     6
 40
12.7
 49
6.35
 74
     0
 49
-1.27
 74
     0
 49
1.27
 74
     0
 49
-1.27
 74
     0
 49
1.27
 74
     0
 49
-1.27
 74
     0
  0
LTYPE
  5
6C
330
5
100
AcDbSymbolTableRecord
100
AcDbLinetypeTableRecord
  2
CENTER
 70
     0
  3
Center ____ _ ____ _ ____ _ ____ _ ____ _ ____
 72
    65
 73
     4
 40
10.16
 49
6.35
 74
     0
 49
-1.27
 74
     0
 49
1.27
 74
     0
 49
-1.27
 74
     0
  0
LTYPE
  5
6D
330
5
100
AcDbSymbolTableRecord
100
AcDbLinetypeTableRecord
  2
CENTERX2
 70
     0
  3
Center (2x) ________  __  ________  __  _____
 72
    65
 73
     4
 40
20.32
 49
12.7
 74
     0
 49
-2.54
 74
     0
 49
2.54
 74
     0
 49
-2.54
 74
     0
  0
LTYPE
  5
6E
330
5
100
AcDbSymbolTableRecord
100
AcDbLinetypeTableRecord
  2
DOT2
 70
     0
  3
Dot (.5x) ........................................
 72
    65
 73
     2
 40
0.635
 49
0.0
 74
     0
 49
-0.635
 74
     0
  0
ENDTAB
  0
TABLE
  2
LAYER
  5
2
330
0
100
AcDbSymbolTable
 70
    13
  0
LAYER
  5
10
330
2
100
AcDbSymbolTableRecord
100
AcDbLayerTableRecord
  2
0
 70
     0
 62
     7
  6
Continuous
370
    -3
390
F
  0
LAYER
  5
6F
330
2
100
AcDbSymbolTableRecord
100
AcDbLayerTableRecord
  2
BORDER_-_RAHMEN
 70
     0
 62
     7
  6
Continuous
370
    -3
390
F
  0
LAYER
  5
70
330
2
100
AcDbSymbolTableRecord
100
AcDbLayerTableRecord
  2
VIEWS_-_ANSICHTEN
 70
     0
 62
     7
  6
Continuous
370
    15
390
F
  0
LAYER
  5
71
330
2
100
AcDbSymbolTableRecord
100
AcDbLayerTableRecord
  2
INVISIBLE_-_UNSICHTBAR
 70
     0
 62
     7
  6
Continuous
370
    15
390
F
  0
LAYER
  5
72
330
2
100
AcDbSymbolTableRecord
100
AcDbLayerTableRecord
  2
SPERRLAYER
 70
     0
 62
     7
  6
Continuous
370
    15
390
F
  0
LAYER
  5
73
330
2
100
AcDbSymbolTableRecord
100
AcDbLayerTableRecord
  2
DIMENSION_-_BEMAßUNG
 70
     0
 62
     7
  6
Continuous
370
    -3
390
F
  0
LAYER
  5
74
330
2
100
AcDbSymbolTableRecord
100
AcDbLayerTableRecord
  2
TITLE_BLOCK_-_SCHRIFTFELD
 70
     0
 62
     7
  6
Continuous
370
    -3
390
F
  0
LAYER
  5
75
330
2
100
AcDbSymbolTableRecord
100
AcDbLayerTableRecord
  2
EMP
 70
     0
 62
     1
  6
Continuous
370
    -3
390
F
  0
LAYER
  5
76
330
2
100
AcDbSymbolTableRecord
100
AcDbLayerTableRecord
  2
WEP
 70
     0
 62
   144
  6
Continuous
370
    -3
390
F
  0
LAYER
  5
77
330
2
100
AcDbSymbolTableRecord
100
AcDbLayerTableRecord
  2
MARKETING
 70
     0
 62
    -7
  6
Continuous
370
    -3
390
F
  0
LAYER
  5
78
330
2
100
AcDbSymbolTableRecord
100
AcDbLayerTableRecord
  2
REVISION_-_AENDERUNGSINDEX
 70
     0
 62
     7
  6
Continuous
370
    -3
390
F
  0
LAYER
  5
79
330
2
100
AcDbSymbolTableRecord
100
AcDbLayerTableRecord
  2
TABLES_-_TABELLEN
 70
     0
 62
     7
  6
Continuous
370
    -3
390
F
  0
LAYER
  5
7A
330
2
100
AcDbSymbolTableRecord
100
AcDbLayerTableRecord
  2
DEVELOPMENT_-_ENTWICKLUNGSSTAND
 70
     0
 62
    -7
  6
Continuous
370
    -3
390
F
  0
ENDTAB
  0
TABLE
  2
STYLE
  5
3
330
0
100
AcDbSymbolTable
 70
     7
  0
STYLE
  5
11
330
3
100
AcDbSymbolTableRecord
100
AcDbTextStyleTableRecord
  2
Standard
 70
     0
 40
0.0
 41
1.0
 50
0.0
 71
     0
 42
2.5
  3
txt
  4

  0
STYLE
  5
BB
330
3
100
AcDbSymbolTableRecord
100
AcDbTextStyleTableRecord
  2
SLDTEXTSTYLE0
 70
     0
 40
0.0
 41
0.5874490748
 50
0.0
 71
     0
 42
2.5
  3
TXT
  4

  0
STYLE
  5
C0
330
3
100
AcDbSymbolTableRecord
100
AcDbTextStyleTableRecord
  2
SLDTEXTSTYLE1
 70
     0
 40
0.0
 41
0.5831565299
 50
0.0
 71
     0
 42
2.5
  3
TXT
  4

  0
STYLE
  5
CC
330
3
100
AcDbSymbolTableRecord
100
AcDbTextStyleTableRecord
  2
SLDTEXTSTYLE2
 70
     0
 40
0.0
 41
0.6
 50
0.0
 71
     0
 42
2.5
  3
TXT
  4

  0
STYLE
  5
D7
330
3
100
AcDbSymbolTableRecord
100
AcDbTextStyleTableRecord
  2
SLDTEXTSTYLE3
 70
     0
 40
0.0
 41
0.75
 50
0.0
 71
     0
 42
2.5
  3
TXT
  4

  0
STYLE
  5
E8
330
3
100
AcDbSymbolTableRecord
100
AcDbTextStyleTableRecord
  2
SLDTEXTSTYLE4
 70
     0
 40
0.0
 41
0.6
 50
0.0
 71
     0
 42
2.5
  3
TXT
  4
bigfont
  0
STYLE
  5
169
330
3
100
AcDbSymbolTableRecord
100
AcDbTextStyleTableRecord
  2
SLDTEXTSTYLE5
 70
     0
 40
0.0
 41
0.484
 50
0.0
 71
     0
 42
2.5
  3
TXT
  4

  0
ENDTAB
  0
TABLE
  2
VIEW
  5
6
330
0
100
AcDbSymbolTable
 70
     0
  0
ENDTAB
  0
TABLE
  2
UCS
  5
7
330
0
100
AcDbSymbolTable
 70
     0
  0
ENDTAB
  0
TABLE
  2
APPID
  5
9
330
0
100
AcDbSymbolTable
 70
     1
  0
APPID
  5
12
330
9
100
AcDbSymbolTableRecord
100
AcDbRegAppTableRecord
  2
ACAD
 70
     0
  0
ENDTAB
  0
TABLE
  2
DIMSTYLE
  5
A
330
0
100
AcDbSymbolTable
 70
     2
100
AcDbDimStyleTable
  0
DIMSTYLE
105
27
330
A
100
AcDbSymbolTableRecord
100
AcDbDimStyleTableRecord
  2
ISO-25
 70
     0
 41
2.5
 42
0.625
 43
3.75
 44
1.25
 73
     0
 74
     0
 77
     1
 78
     8
140
2.5
141
2.5
143
0.0393700787
147
0.625
171
     3
172
     1
178
     0
271
     2
272
     2
274
     3
278
    44
283
     0
284
     8
340
11
  0
DIMSTYLE
105
32D
102
{ACAD_REACTORS
330
32C
330
337
330
465
102
}
330
A
100
AcDbSymbolTableRecord
100
AcDbDimStyleTableRecord
  2
SLDDIMSTYLE0
 70
     0
 41
3.302
 44
0.0
 45
0.000000001
 73
     0
 74
     0
 77
     1
 78
    12
 79
     3
140
2.5
147
0.625
173
     1
178
     0
271
     3
272
     3
276
     2
284
    12
340
D7
  0
ENDTAB
  0
TABLE
  2
BLOCK_RECORD
  5
1
330
0
100
AcDbSymbolTable
 70
    22
  0
BLOCK_RECORD
  5
1F
330
1
100
AcDbSymbolTableRecord
100
AcDbBlockTableRecord
  2
*Model_Space
340
22
  0
BLOCK_RECORD
  5
1B
330
1
100
AcDbSymbolTableRecord
100
AcDbBlockTableRecord
  2
*Paper_Space
340
1E
  0
BLOCK_RECORD
  5
23
330
1
100
AcDbSymbolTableRecord
100
AcDbBlockTableRecord
  2
*Paper_Space0
340
26
  0
BLOCK_RECORD
  5
7B
330
1
100
AcDbSymbolTableRecord
100
AcDbBlockTableRecord
  2
ACO_SF_2013_Felder_Kundenzeichnung
340
0
  0
BLOCK_RECORD
  5
97
330
1
100
AcDbSymbolTableRecord
100
AcDbBlockTableRecord
  2
DE - ACO Haustechnik
340
0
  0
BLOCK_RECORD
  5
BD
330
1
100
AcDbSymbolTableRecord
100
AcDbBlockTableRecord
  2
SW_NOTE_0
340
0
102
{BLKREFS
331
C5
102
}
  0
BLOCK_RECORD
  5
C6
330
1
100
AcDbSymbolTableRecord
100
AcDbBlockTableRecord
  2
ACO_SF_2013_Beschriftung_Kundenzeichnung
340
0
  0
BLOCK_RECORD
  5
C9
330
1
100
AcDbSymbolTableRecord
100
AcDbBlockTableRecord
  2
SW_NOTE_1
340
0
102
{BLKREFS
331
CF
102
}
  0
BLOCK_RECORD
  5
D4
330
1
100
AcDbSymbolTableRecord
100
AcDbBlockTableRecord
  2
SW_NOTE_2
340
0
102
{BLKREFS
331
DA
102
}
  0
BLOCK_RECORD
  5
DC
330
1
100
AcDbSymbolTableRecord
100
AcDbBlockTableRecord
  2
SW_NOTE_3
340
0
102
{BLKREFS
331
E1
102
}
  0
BLOCK_RECORD
  5
E4
330
1
100
AcDbSymbolTableRecord
100
AcDbBlockTableRecord
  2
SW_NOTE_4
340
0
102
{BLKREFS
331
EA
102
}
  0
BLOCK_RECORD
  5
EC
330
1
100
AcDbSymbolTableRecord
100
AcDbBlockTableRecord
  2
SW_NOTE_5
340
0
102
{BLKREFS
331
F1
102
}
  0
BLOCK_RECORD
  5
F2
330
1
100
AcDbSymbolTableRecord
100
AcDbBlockTableRecord
  2
SW_NOTE_6
340
0
102
{BLKREFS
331
F7
102
}
  0
BLOCK_RECORD
  5
10A
330
1
100
AcDbSymbolTableRecord
100
AcDbBlockTableRecord
  2
ACO_SF_2013_Felder
340
0
  0
BLOCK_RECORD
  5
132
330
1
100
AcDbSymbolTableRecord
100
AcDbBlockTableRecord
  2
ACO_SF_2013_Beschriftung
340
0
  0
BLOCK_RECORD
  5
138
330
1
100
AcDbSymbolTableRecord
100
AcDbBlockTableRecord
  2
SW_NOTE_7
340
0
102
{BLKREFS
331
13D
102
}
  0
BLOCK_RECORD
  5
13E
330
1
100
AcDbSymbolTableRecord
100
AcDbBlockTableRecord
  2
SW_NOTE_8
340
0
102
{BLKREFS
331
143
102
}
  0
BLOCK_RECORD
  5
144
330
1
100
AcDbSymbolTableRecord
100
AcDbBlockTableRecord
  2
SW_NOTE_9
340
0
102
{BLKREFS
331
149
102
}
  0
BLOCK_RECORD
  5
14A
330
1
100
AcDbSymbolTableRecord
100
AcDbBlockTableRecord
  2
SW_NOTE_10
340
0
102
{BLKREFS
331
14F
102
}
  0
BLOCK_RECORD
  5
150
330
1
100
AcDbSymbolTableRecord
100
AcDbBlockTableRecord
  2
SW_NOTE_11
340
0
102
{BLKREFS
331
155
102
}
  0
BLOCK_RECORD
  5
161
330
1
100
AcDbSymbolTableRecord
100
AcDbBlockTableRecord
  2
SW_NOTE_12
340
0
102
{BLKREFS
331
166
102
}
  0
BLOCK_RECORD
  5
32E
330
1
100
AcDbSymbolTableRecord
100
AcDbBlockTableRecord
  2
_D
340
0
  0
BLOCK_RECORD
  5
338
330
1
100
AcDbSymbolTableRecord
100
AcDbBlockTableRecord
  2
_D_1
340
0
  0
BLOCK_RECORD
  5
466
330
1
100
AcDbSymbolTableRecord
100
AcDbBlockTableRecord
  2
_D_2
340
0
  0
ENDTAB
  0
ENDSEC
  0
SECTION
  2
BLOCKS
  0
BLOCK
  5
20
330
1F
100
AcDbEntity
  8
0
100
AcDbBlockBegin
  2
*Model_Space
 70
     0
 10
0.0
 20
0.0
 30
0.0
  3
*Model_Space
  1
*Model_Space
  0
ENDBLK
  5
21
330
1F
100
AcDbEntity
  8
0
100
AcDbBlockEnd
  0
BLOCK
  5
1C
330
1B
100
AcDbEntity
 67
     1
  8
0
100
AcDbBlockBegin
  2
*Paper_Space
 70
     0
 10
0.0
 20
0.0
 30
0.0
  3
*Paper_Space
  1
*Paper_Space
  0
ENDBLK
  5
1D
330
1B
100
AcDbEntity
 67
     1
  8
0
100
AcDbBlockEnd
  0
BLOCK
  5
24
330
23
100
AcDbEntity
  8
0
100
AcDbBlockBegin
  2
*Paper_Space0
 70
     0
 10
0.0
 20
0.0
 30
0.0
  3
*Paper_Space0
  1
*Paper_Space0
  0
ENDBLK
  5
25
330
23
100
AcDbEntity
  8
0
100
AcDbBlockEnd
  0
BLOCK
  5
7C
330
7B
100
AcDbEntity
  8
0
100
AcDbBlockBegin
  2
ACO_SF_2013_Felder_Kundenzeichnung
 70
     0
 10
0.0
 20
0.0
 30
0.0
  3
ACO_SF_2013_Felder_Kundenzeichnung
  1
ACO_SF_2013_Felder_Kundenzeichnung
  0
CIRCLE
  5
7E
330
7B
100
AcDbEntity
  8
0
  6
Continuous
 62
     7
370
     0
100
AcDbCircle
 10
375.7027196515
 20
43.3723567183
 30
0.0
 40
2.199999999999975
  0
CIRCLE
  5
7F
330
7B
100
AcDbEntity
  8
0
  6
Continuous
 62
     7
370
     0
100
AcDbCircle
 10
375.7027196515
 20
43.3723567183
 30
0.0
 40
1.300000000000056
  0
LINE
  5
80
330
7B
100
AcDbEntity
  8
0
  6
Continuous
 62
     7
370
     0
100
AcDbLine
 10
408.9796702667
 20
10.0438940849
 30
0.0
 11
408.9796702667
 21
50.0438940849
 31
0.0
  0
LINE
  5
81
330
7B
100
AcDbEntity
  8
0
  6
Continuous
 62
     7
370
     0
100
AcDbLine
 10
228.9796702667
 20
10.0438940849
 30
0.0
 11
228.9796702667
 21
50.0438940849
 31
0.0
  0
LINE
  5
82
330
7B
100
AcDbEntity
  8
0
  6
Continuous
 62
     7
370
     0
100
AcDbLine
 10
284.0609383881
 20
40.0438940849
 30
0.0
 11
409.0609383881
 21
40.0438940849
 31
0.0
  0
LINE
  5
83
330
7B
100
AcDbEntity
  8
0
  6
Continuous
 62
     7
370
     0
100
AcDbLine
 10
349.0609383881
 20
30.0438940849
 30
0.0
 11
409.0609383881
 21
30.0438940849
 31
0.0
  0
LINE
  5
84
330
7B
100
AcDbEntity
  8
0
  6
Continuous
 62
     7
370
     0
100
AcDbLine
 10
228.9796702667
 20
50.0438940849
 30
0.0
 11
408.9796702667
 21
50.0438940849
 31
0.0
  0
LINE
  5
85
330
7B
100
AcDbEntity
  8
0
  6
Continuous
 62
     7
370
     0
100
AcDbLine
 10
394.0609383881
 20
40.0438940849
 30
0.0
 11
394.0609383881
 21
50.0438940849
 31
0.0
  0
LINE
  5
86
330
7B
100
AcDbEntity
  8
0
  6
Continuous
 62
     7
370
     0
100
AcDbLine
 10
394.0609383881
 20
40.0438940849
 30
0.0
 11
394.0609383881
 21
20.0438940849
 31
0.0
  0
LINE
  5
87
330
7B
100
AcDbEntity
  8
0
  6
Continuous
 62
     7
370
     0
100
AcDbLine
 10
228.9796702667
 20
10.0438940849
 30
0.0
 11
408.9796702667
 21
10.0438940849
 31
0.0
  0
LINE
  5
88
330
7B
100
AcDbEntity
  8
0
  6
Continuous
 62
     7
370
     0
100
AcDbLine
 10
349.0609383881
 20
25.0438940849
 30
0.0
 11
409.0609383881
 21
25.0438940849
 31
0.0
  0
LINE
  5
89
330
7B
100
AcDbEntity
  8
0
  6
Continuous
 62
     7
370
     0
100
AcDbLine
 10
314.0609383881
 20
50.0438940849
 30
0.0
 11
314.0609383881
 21
40.0438940849
 31
0.0
  0
LINE
  5
8A
330
7B
100
AcDbEntity
  8
0
  6
Continuous
 62
     7
370
     0
100
AcDbLine
 10
361.5609383881
 20
50.0438940849
 30
0.0
 11
361.5609383881
 21
40.0438940849
 31
0.0
  0
LINE
  5
8B
330
7B
100
AcDbEntity
  8
0
  6
Continuous
 62
     7
370
     0
100
AcDbLine
 10
229.0609383881
 20
20.0438940849
 30
0.0
 11
409.0609383881
 21
20.0438940849
 31
0.0
  0
LINE
  5
8C
330
7B
100
AcDbEntity
  8
0
  6
Continuous
 62
     7
370
     0
100
AcDbLine
 10
284.0609383881
 20
20.0438940849
 30
0.0
 11
284.0609383881
 21
50.0438940849
 31
0.0
  0
LINE
  5
8D
330
7B
100
AcDbEntity
  8
0
  6
Continuous
 62
     7
370
     0
100
AcDbLine
 10
349.0609383881
 20
20.0438940849
 30
0.0
 11
349.0609383881
 21
50.0438940849
 31
0.0
  0
LINE
  5
8E
330
7B
100
AcDbEntity
  8
0
  6
Continuous
 62
     7
370
     0
100
AcDbLine
 10
371.6372869997
 20
43.3723567183
 30
0.0
 11
363.8301690811
 21
43.3723567183
 31
0.0
  0
LINE
  5
8F
330
7B
100
AcDbEntity
  8
0
  6
Continuous
 62
     7
370
     0
100
AcDbLine
 10
370.2600660001
 20
45.4031577143
 30
0.0
 11
364.6410837732
 21
44.1279277053
 31
0.0
  0
LINE
  5
90
330
7B
100
AcDbEntity
  8
0
  6
Continuous
 62
     7
370
     0
100
AcDbLine
 10
364.6410837732
 20
42.3547195715
 30
0.0
 11
370.2600660001
 21
41.0794895626
 31
0.0
  0
LINE
  5
91
330
7B
100
AcDbEntity
  8
0
  6
Continuous
 62
     7
370
     0
100
AcDbLine
 10
370.2600660001
 20
41.0794895626
 30
0.0
 11
370.2600660001
 21
45.4031577143
 31
0.0
  0
LINE
  5
92
330
7B
100
AcDbEntity
  8
0
  6
Continuous
 62
     7
370
     0
100
AcDbLine
 10
375.7027196515
 20
46.1200074421
 30
0.0
 11
375.7027196515
 21
40.6247059945
 31
0.0
  0
LINE
  5
93
330
7B
100
AcDbEntity
  8
0
  6
Continuous
 62
     7
370
     0
100
AcDbLine
 10
378.4503703752
 20
43.3723567183
 30
0.0
 11
372.9550689277
 21
43.3723567183
 31
0.0
  0
LINE
  5
94
330
7B
100
AcDbEntity
  8
0
  6
Continuous
 62
     7
370
     0
100
AcDbLine
 10
364.6410837732
 20
42.3547195715
 30
0.0
 11
364.6410837732
 21
44.1279277053
 31
0.0
  0
LINE
  5
95
330
7B
100
AcDbEntity
  8
0
  6
Continuous
 62
     7
370
     0
100
AcDbLine
 10
284.0609383881
 20
25.0438940849
 30
0.0
 11
229.0609383881
 21
25.0438940849
 31
0.0
  0
LINE
  5
96
330
7B
100
AcDbEntity
  8
0
  6
Continuous
 62
     7
370
     0
100
AcDbLine
 10
381.5609383881
 20
20.0438940849
 30
0.0
 11
381.5609383881
 21
10.0438940849
 31
0.0
  0
ENDBLK
  5
7D
330
7B
100
AcDbEntity
  8
0
100
AcDbBlockEnd
  0
BLOCK
  5
98
330
97
100
AcDbEntity
  8
0
100
AcDbBlockBegin
  2
DE - ACO Haustechnik
 70
     0
 10
0.0
 20
0.0
 30
0.0
  3
DE - ACO Haustechnik
  1
DE - ACO Haustechnik
  0
ARC
  5
9A
330
97
100
AcDbEntity
  8
0
  6
Continuous
 62
     7
370
     0
100
AcDbCircle
 10
11.4974959256
 20
4.725
 30
0.0
 40
2.625000000000002
100
AcDbArc
 50
39.0
 51
321.0
  0
ARC
  5
9B
330
97
100
AcDbEntity
  8
0
  6
Continuous
 62
     7
370
     0
100
AcDbCircle
 10
11.4974959256
 20
4.725
 30
0.0
 40
1.687500000000002
100
AcDbArc
 50
39.0
 51
321.0
  0
ARC
  5
9C
330
97
100
AcDbEntity
  8
0
  6
Continuous
 62
     7
370
     0
100
AcDbCircle
 10
8.4363181105
 20
2.3720262707
 30
0.0
 40
6.30000000000001
100
AcDbArc
 50
127.8000422699
 51
181.1098456421
  0
ARC
  5
9D
330
97
100
AcDbEntity
  8
0
  6
Continuous
 62
     7
370
     0
100
AcDbCircle
 10
0.7136818895
 20
2.3720262707
 30
0.0
 40
6.299999999999997
100
AcDbArc
 50
358.8901543579
 51
52.1999577301
  0
ARC
  5
9E
330
97
100
AcDbEntity
  8
0
  6
Continuous
 62
     7
370
     0
100
AcDbCircle
 10
7.1981455988
 20
2.1252060446
 30
0.0
 40
4.200000000000005
100
AcDbArc
 50
169.0222878091
 51
178.2973286991
  0
ARC
  5
9F
330
97
100
AcDbEntity
  8
0
  6
Continuous
 62
     7
370
     0
100
AcDbCircle
 10
1.9518544012
 20
2.1252060446
 30
0.0
 40
4.200000000000014
100
AcDbArc
 50
1.7026713009
 51
10.9777121909
  0
ARC
  5
A0
330
97
100
AcDbEntity
  8
0
  6
Continuous
 62
     7
370
     0
100
AcDbCircle
 10
7.4141035109
 20
2.9799246771
 30
0.0
 40
4.200000000000005
100
AcDbArc
 50
132.5300679467
 51
168.3923675342
  0
ARC
  5
A1
330
97
100
AcDbEntity
  8
0
  6
Continuous
 62
     7
370
     0
100
AcDbCircle
 10
1.7358964891
 20
2.9799246771
 30
0.0
 40
4.200000000000006
100
AcDbArc
 50
11.6076324658
 51
47.4699320533
  0
CIRCLE
  5
A2
330
97
100
AcDbEntity
  8
0
  6
Continuous
 62
     7
370
     0
100
AcDbCircle
 10
17.925
 20
4.725
 30
0.0
 40
2.625000000000002
  0
CIRCLE
  5
A3
330
97
100
AcDbEntity
  8
0
  6
Continuous
 62
     7
370
     0
100
AcDbCircle
 10
17.925
 20
4.725
 30
0.0
 40
1.687499999999989
  0
LINE
  5
A4
330
97
100
AcDbEntity
  8
0
  6
Continuous
 62
     7
370
     0
100
AcDbLine
 10
13.5375040744
 20
3.0730339735
 30
0.0
 11
12.8089297355
 21
3.6630218401
 31
0.0
  0
LINE
  5
A5
330
97
100
AcDbEntity
  8
0
  6
Continuous
 62
     7
370
     0
100
AcDbLine
 10
13.5375040744
 20
6.3769660265
 30
0.0
 11
12.8089297355
 21
5.7869781599
 31
0.0
  0
LINE
  5
A6
330
97
100
AcDbEntity
  8
0
  6
Continuous
 62
     7
370
     0
100
AcDbLine
 10
3.3
 20
3.825
 30
0.0
 11
5.85
 21
3.825
 31
0.0
  0
LINE
  5
A7
330
97
100
AcDbEntity
  8
0
  6
Continuous
 62
     7
370
     0
100
AcDbLine
 10
3.075
 20
2.925
 30
0.0
 11
6.075
 21
2.925
 31
0.0
  0
LINE
  5
A8
330
97
100
AcDbEntity
  8
0
  6
Continuous
 62
     7
370
     0
100
AcDbLine
 10
2.1375
 20
2.25
 30
0.0
 11
3.0
 21
2.25
 31
0.0
  0
LINE
  5
A9
330
97
100
AcDbEntity
  8
0
  6
Continuous
 62
     7
370
     0
100
AcDbLine
 10
6.15
 20
2.25
 30
0.0
 11
7.0125
 21
2.25
 31
0.0
  0
LINE
  5
AA
330
97
100
AcDbEntity
  8
0
  6
Continuous
 62
     7
370
     0
100
AcDbLine
 10
1.5
 20
16.5
 30
0.0
 11
7.65
 21
16.5
 31
0.0
  0
LINE
  5
AB
330
97
100
AcDbEntity
  8
0
  6
Continuous
 62
     7
370
     0
100
AcDbLine
 10
1.5
 20
16.5
 30
0.0
 11
1.5
 21
1.5
 31
0.0
  0
LINE
  5
AC
330
97
100
AcDbEntity
  8
0
  6
Continuous
 62
     7
370
     0
100
AcDbLine
 10
1.5
 20
1.5
 30
0.0
 11
7.65
 21
1.5
 31
0.0
  0
LINE
  5
AD
330
97
100
AcDbEntity
  8
0
  6
Continuous
 62
     7
370
     0
100
AcDbLine
 10
7.65
 20
16.5
 30
0.0
 11
7.65
 21
1.5
 31
0.0
  0
LINE
  5
AE
330
97
100
AcDbEntity
  8
0
  6
Continuous
 62
     7
370
     0
100
AcDbLine
 10
8.175
 20
16.5
 30
0.0
 11
14.325
 21
16.5
 31
0.0
  0
LINE
  5
AF
330
97
100
AcDbEntity
  8
0
  6
Continuous
 62
     7
370
     0
100
AcDbLine
 10
8.175
 20
16.5
 30
0.0
 11
8.175
 21
1.5
 31
0.0
  0
LINE
  5
B0
330
97
100
AcDbEntity
  8
0
  6
Continuous
 62
     7
370
     0
100
AcDbLine
 10
8.175
 20
1.5
 30
0.0
 11
14.325
 21
1.5
 31
0.0
  0
LINE
  5
B1
330
97
100
AcDbEntity
  8
0
  6
Continuous
 62
     7
370
     0
100
AcDbLine
 10
14.325
 20
16.5
 30
0.0
 11
14.325
 21
1.5
 31
0.0
  0
LINE
  5
B2
330
97
100
AcDbEntity
  8
0
  6
Continuous
 62
     7
370
     0
100
AcDbLine
 10
14.85
 20
16.5
 30
0.0
 11
21.0
 21
16.5
 31
0.0
  0
LINE
  5
B3
330
97
100
AcDbEntity
  8
0
  6
Continuous
 62
     7
370
     0
100
AcDbLine
 10
14.85
 20
16.5
 30
0.0
 11
14.85
 21
1.5
 31
0.0
  0
LINE
  5
B4
330
97
100
AcDbEntity
  8
0
  6
Continuous
 62
     7
370
     0
100
AcDbLine
 10
14.85
 20
1.5
 30
0.0
 11
21.0
 21
1.5
 31
0.0
  0
LINE
  5
B5
330
97
100
AcDbEntity
  8
0
  6
Continuous
 62
     7
370
     0
100
AcDbLine
 10
21.0
 20
16.5
 30
0.0
 11
21.0
 21
1.5
 31
0.0
  0
HATCH
  5
B6
330
97
100
AcDbEntity
  8
0
  6
Continuous
 62
     7
100
AcDbHatch
 10
0.0
 20
0.0
 30
0.0
210
0.0
220
0.0
230
1.0
  2
SOLID
 70
     1
 71
     0
 91
        2
 92
        0
 93
        4
 72
     1
 10
7.649999999999987
 20
1.499999999999946
 11
7.649999999999987
 21
16.49999999999996
 72
     1
 10
7.649999999999987
 20
16.49999999999996
 11
1.499999999999984
 21
16.49999999999996
 72
     1
 10
1.499999999999984
 20
16.49999999999996
 11
1.499999999999984
 21
1.499999999999947
 72
     1
 10
1.499999999999984
 20
1.499999999999946
 11
7.649999999999987
 21
1.499999999999946
 97
        0
 92
        0
 93
        7
 72
     2
 10
1.951854401203986
 20
2.125206044578165
 40
4.200000000000009
 50
1.70267130094402
 51
10.977712190876
 73
     1
 72
     1
 10
6.074999999999994
 20
2.924999999999955
 11
3.074999999999991
 21
2.924999999999955
 72
     2
 10
7.198145598795985
 20
2.125206044578165
 40
4.200000000000002
 50
169.022287809124
 51
178.297328699056
 73
     1
 72
     1
 10
2.999999999999985
 20
2.249999999999947
 11
2.137499999999983
 21
2.249999999999947
 72
     2
 10
8.436318110507376
 20
2.37202627071334
 40
6.299999999999999
 50
178.8901543578781
 51
232.1999577301262
 73
     0
 72
     2
 10
0.7136818894926088
 20
2.37202627071334
 40
6.299999999999992
 50
307.8000422698753
 51
361.1098456421227
 73
     0
 72
     1
 10
7.012499999999988
 20
2.249999999999947
 11
6.149999999999985
 21
2.249999999999947
 97
        0
 75
     0
 76
     1
 98
        1
 10
0.0
 20
0.0
  0
HATCH
  5
B7
330
97
100
AcDbEntity
  8
0
  6
Continuous
 62
     7
100
AcDbHatch
 10
0.0
 20
0.0
 30
0.0
210
0.0
220
0.0
230
1.0
  2
SOLID
 70
     1
 71
     0
 91
        2
 92
        0
 93
        4
 72
     1
 10
14.325
 20
1.499999999999946
 11
14.325
 21
16.49999999999996
 72
     1
 10
14.325
 20
16.49999999999996
 11
8.174999999999985
 21
16.49999999999996
 72
     1
 10
8.174999999999985
 20
16.49999999999996
 11
8.174999999999985
 21
1.499999999999947
 72
     1
 10
8.174999999999985
 20
1.499999999999946
 11
14.325
 21
1.499999999999946
 97
        0
 92
        0
 93
        4
 72
     1
 10
13.53750407441227
 20
6.376966026505782
 11
12.80892973554637
 21
5.786978159896538
 72
     2
 10
11.49749592558772
 20
4.724999999999952
 40
1.687499999999998
 50
38.99999999999952
 51
321.0000000000002
 73
     1
 72
     1
 10
12.80892973554635
 20
3.663021840103337
 11
13.53750407441227
 21
3.073033973494121
 72
     2
 10
11.49749592558772
 20
4.724999999999952
 40
2.625000000000002
 50
39.00000000000016
 51
321.0000000000007
 73
     0
 97
        0
 75
     0
 76
     1
 98
        1
 10
0.0
 20
0.0
  0
HATCH
  5
B8
330
97
100
AcDbEntity
  8
0
  6
Continuous
 62
     7
100
AcDbHatch
 10
0.0
 20
0.0
 30
0.0
210
0.0
220
0.0
230
1.0
  2
SOLID
 70
     1
 71
     0
 91
        2
 92
        0
 93
        4
 72
     1
 10
21.0
 20
1.499999999999946
 11
21.0
 21
16.49999999999996
 72
     1
 10
21.0
 20
16.49999999999996
 11
14.84999999999999
 21
16.49999999999996
 72
     1
 10
14.84999999999999
 20
16.49999999999996
 11
14.84999999999999
 21
1.499999999999947
 72
     1
 10
14.84999999999999
 20
1.499999999999946
 11
21.0
 21
1.499999999999946
 97
        0
 92
        0
 93
        1
 72
     2
 10
17.92499999999999
 20
4.724999999999952
 40
2.625000000000002
 50
0.0
 51
360.0
 73
     1
 97
        0
 75
     0
 76
     1
 98
        1
 10
0.0
 20
0.0
  0
HATCH
  5
B9
330
97
100
AcDbEntity
  8
0
  6
Continuous
 62
     7
100
AcDbHatch
 10
0.0
 20
0.0
 30
0.0
210
0.0
220
0.0
230
1.0
  2
SOLID
 70
     1
 71
     0
 91
        1
 92
        0
 93
        3
 72
     2
 10
1.73589648906498
 20
2.979924677136786
 40
4.200000000000001
 50
11.60763246583783
 51
47.46993205327803
 73
     1
 72
     2
 10
7.41410351093499
 20
2.979924677136786
 40
4.199999999999997
 50
132.5300679467219
 51
168.3923675341622
 73
     1
 72
     1
 10
3.29999999999998
 20
3.82499999999994
 11
5.849999999999991
 21
3.82499999999994
 97
        0
 75
     0
 76
     1
 98
        1
 10
0.0
 20
0.0
  0
HATCH
  5
BA
330
97
100
AcDbEntity
  8
0
  6
Continuous
 62
     7
100
AcDbHatch
 10
0.0
 20
0.0
 30
0.0
210
0.0
220
0.0
230
1.0
  2
SOLID
 70
     1
 71
     0
 91
        1
 92
        0
 93
        1
 72
     2
 10
17.92499999999999
 20
4.724999999999952
 40
1.68749999999999
 50
0.0
 51
360.0
 73
     1
 97
        0
 75
     0
 76
     1
 98
        1
 10
0.0
 20
0.0
  0
MTEXT
  5
BC
330
97
100
AcDbEntity
  8
0
  6
Continuous
 62
     7
370
     0
100
AcDbMText
 10
22.0
 20
16.4935027355
 30
0.0
 40
2.5
 41
0.0
 71
     1
 72
     1
  1
ACO Haustechnik
  7
SLDTEXTSTYLE0
 73
     1
 44
1.0
  0
INSERT
  5
C5
330
97
100
AcDbEntity
  8
0
  6
Continuous
 62
     7
370
     0
100
AcDbBlockReference
  2
SW_NOTE_0
 10
22.0
 20
7.9450000496
 30
0.0
  0
ENDBLK
  5
99
330
97
100
AcDbEntity
  8
0
100
AcDbBlockEnd
  0
BLOCK
  5
BE
330
BD
100
AcDbEntity
  8
0
100
AcDbBlockBegin
  2
SW_NOTE_0
 70
     0
 10
0.0
 20
0.0
 30
0.0
  3
SW_NOTE_0
  1
SW_NOTE_0
  0
MTEXT
  5
C1
330
BD
100
AcDbEntity
  8
0
  6
Continuous
 62
     0
370
     0
100
AcDbMText
 10
0.0
 20
2.3203219316
 30
0.0
 40
1.8
 41
0.0
 71
     1
 72
     1
  1
ACO Passavant GmbH
  7
SLDTEXTSTYLE1
 73
     1
 44
1.0
  0
MTEXT
  5
C2
330
BD
100
AcDbEntity
  8
0
  6
Continuous
 62
     0
370
     0
100
AcDbMText
 10
0.0
 20
-0.004678077
 30
0.0
 40
1.8
 41
0.0
 71
     1
 72
     1
  1
Ulsterstraße 3
  7
SLDTEXTSTYLE1
 73
     1
 44
1.0
  0
MTEXT
  5
C3
330
BD
100
AcDbEntity
  8
0
  6
Continuous
 62
     0
370
     0
100
AcDbMText
 10
0.0
 20
-2.3296780855
 30
0.0
 40
1.8
 41
0.0
 71
     1
 72
     1
  1
36269 Phillipsthal
  7
SLDTEXTSTYLE1
 73
     1
 44
1.0
  0
MTEXT
  5
C4
330
BD
100
AcDbEntity
  8
0
  6
Continuous
 62
     0
370
     0
100
AcDbMText
 10
0.0
 20
-4.6546780941
 30
0.0
 40
1.8
 41
0.0
 71
     1
 72
     1
  1
www.aco-haustechnik.de
  7
SLDTEXTSTYLE1
 73
     1
 44
1.0
  0
ENDBLK
  5
BF
330
BD
100
AcDbEntity
  8
0
100
AcDbBlockEnd
  0
BLOCK
  5
C7
330
C6
100
AcDbEntity
  8
0
100
AcDbBlockBegin
  2
ACO_SF_2013_Beschriftung_Kundenzeichnung
 70
     2
 10
0.0
 20
0.0
 30
0.0
  3
ACO_SF_2013_Beschriftung_Kundenzeichnung
  1
ACO_SF_2013_Beschriftung_Kundenzeichnung
  0
INSERT
  5
CF
330
C6
100
AcDbEntity
  8
0
  6
Continuous
 62
     7
370
     0
100
AcDbBlockReference
  2
SW_NOTE_1
 10
-178.9445357757
 20
7.6370899702
 30
0.0
  0
MTEXT
  5
D0
330
C6
100
AcDbEntity
  8
0
  6
Continuous
 62
     7
370
     0
100
AcDbMText
 10
-93.8419156023
 20
38.9692899265
 30
0.0
 40
1.8520833333
 41
0.0
 71
     1
 72
     1
  1
Released by/ Freigegeben durch:
  7
SLDTEXTSTYLE2
 73
     1
 44
1.0
  0
MTEXT
  5
D1
330
C6
100
AcDbEntity
  8
0
  6
Continuous
 62
     7
370
     0
100
AcDbMText
 10
-58.9445357757
 20
39.0418631573
 30
0.0
 40
2.0
 41
0.0
 71
     1
 72
     1
  1
Format:
  7
SLDTEXTSTYLE2
 73
     1
 44
1.0
  0
MTEXT
  5
D2
330
C6
100
AcDbEntity
  8
0
  6
Continuous
 62
     7
370
     0
100
AcDbMText
 10
-58.9445357757
 20
34.3815802371
 30
0.0
 40
3.175
 41
0.0
 71
     1
 72
     1
  1
DIN A4
  7
SLDTEXTSTYLE2
 73
     1
 44
1.0
  0
MTEXT
  5
D3
330
C6
100
AcDbEntity
  8
0
  6
Continuous
 62
     7
370
     0
100
AcDbMText
 10
-46.051345225
 20
39.043297809
 30
0.0
 40
2.0
 41
0.0
 71
     1
 72
     1
  1
Projection: ISO-E:
  7
SLDTEXTSTYLE2
 73
     1
 44
1.0
  0
INSERT
  5
DA
330
C6
100
AcDbEntity
  8
0
  6
Continuous
 62
     7
370
     0
100
AcDbBlockReference
  2
SW_NOTE_2
 10
-12.8248774702
 20
37.1533350976
 30
0.0
  0
MTEXT
  5
DB
330
C6
100
AcDbEntity
  8
0
  6
Continuous
 62
     7
370
     0
100
AcDbMText
 10
-10.4445357757
 20
28.8095378756
 30
0.0
 40
2.0
 41
0.0
 71
     1
 72
     1
  1
Index
  7
SLDTEXTSTYLE2
 73
     1
 44
1.0
  0
INSERT
  5
E1
330
C6
100
AcDbEntity
  8
0
  6
Continuous
 62
     7
370
     0
100
AcDbBlockReference
  2
SW_NOTE_3
 10
-13.9445357757
 20
17.0591301864
 30
0.0
  0
MTEXT
  5
E2
330
C6
100
AcDbEntity
  8
0
  6
Continuous
 62
     7
370
     0
100
AcDbMText
 10
-26.4461677225
 20
8.9810019188
 30
0.0
 40
1.5875
 41
0.0
 71
     1
 72
     1
  1
Protection note/ Schutzvermerk:
  7
SLDTEXTSTYLE2
 73
     1
 44
1.0
  0
MTEXT
  5
E3
330
C6
100
AcDbEntity
  8
0
  6
Continuous
 62
     7
370
     0
100
AcDbMText
 10
-26.4445357757
 20
4.437484331
 30
0.0
 40
3.175
 41
0.0
 71
     1
 72
     1
  1
DIN ISO 16016
  7
SLDTEXTSTYLE2
 73
     1
 44
1.0
  0
INSERT
  5
EA
330
C6
100
AcDbEntity
  8
0
  6
Continuous
 62
     7
370
     0
100
AcDbBlockReference
  2
SW_NOTE_4
 10
-178.9445357757
 20
2.8870899702
 30
0.0
  0
MTEXT
  5
EB
330
C6
100
AcDbEntity
  8
0
  6
Continuous
 62
     7
370
     0
100
AcDbMText
 10
-58.9445357757
 20
28.9046380663
 30
0.0
 40
2.0
 41
0.0
 71
     1
 72
     1
  1
Drawing-no./ Zeichnung Nr.:
  7
SLDTEXTSTYLE2
 73
     1
 44
1.0
  0
INSERT
  5
F1
330
C6
100
AcDbEntity
  8
0
  6
Continuous
 62
     7
370
     0
100
AcDbBlockReference
  2
SW_NOTE_5
 10
-58.9445357757
 20
17.5782792805
 30
0.0
  0
INSERT
  5
F7
330
C6
100
AcDbEntity
  8
0
  6
Continuous
 62
     7
370
     0
100
AcDbBlockReference
  2
SW_NOTE_6
 10
-58.9445357757
 20
12.5207089389
 30
0.0
  0
MTEXT
  5
F8
330
C6
100
AcDbEntity
  8
0
  6
Continuous
 62
     7
370
     0
100
AcDbMText
 10
-178.9445357757
 20
13.2686813251
 30
0.0
 40
2.1166666667
 41
0.0
 71
     1
 72
     1
  1
Article-no./ Artikel Nr.:
  7
SLDTEXTSTYLE2
 73
     1
 44
1.0
  0
MTEXT
  5
F9
330
C6
100
AcDbEntity
  8
0
  6
Continuous
 62
     7
370
     0
100
AcDbMText
 10
-123.5914005339
 20
38.9692899265
 30
0.0
 40
1.8520833333
 41
0.0
 71
     1
 72
     1
  1
Created by/ Erstellt durch:
  7
SLDTEXTSTYLE2
 73
     1
 44
1.0
  0
ATTDEF
  5
FA
330
C6
100
AcDbEntity
  8
0
  6
Continuous
 62
     7
370
     0
100
AcDbText
 10
0.0
 20
0.0
 30
0.0
 40
1.0
  1

100
AcDbAttributeDefinition
  3

  2
AUTOATTR29
 70
     0
  0
ATTDEF
  5
FB
330
C6
100
AcDbEntity
  8
0
  6
Continuous
 62
     7
370
     0
100
AcDbText
 10
0.0
 20
0.0
 30
0.0
 40
1.0
  1

100
AcDbAttributeDefinition
  3

  2
AUTOATTR30
 70
     0
  0
ATTDEF
  5
FC
330
C6
100
AcDbEntity
  8
0
  6
Continuous
 62
     7
370
     0
100
AcDbText
 10
0.0
 20
0.0
 30
0.0
 40
1.0
  1

100
AcDbAttributeDefinition
  3

  2
AUTOATTR31
 70
     0
  0
ATTDEF
  5
FD
330
C6
100
AcDbEntity
  8
0
  6
Continuous
 62
     7
370
     0
100
AcDbText
 10
0.0
 20
0.0
 30
0.0
 40
1.0
  1

100
AcDbAttributeDefinition
  3

  2
AUTOATTR32
 70
     0
  0
ATTDEF
  5
FE
330
C6
100
AcDbEntity
  8
0
  6
Continuous
 62
     7
370
     0
100
AcDbText
 10
-9.4333460929
 20
31.8958115903
 30
0.0
 40
3.175
  1
1:1
 41
0.75
  7
SLDTEXTSTYLE3
 11
-9.4333460929
 21
30.2534863445
 31
0.0
100
AcDbAttributeDefinition
  3

  2
AUTOATTR64
 70
     0
 74
     1
  0
ATTDEF
  5
FF
330
C6
100
AcDbEntity
  8
0
  6
Continuous
 62
     7
370
     0
100
AcDbText
 10
0.0
 20
0.0
 30
0.0
 40
1.0
  1

100
AcDbAttributeDefinition
  3

  2
AUTOATTR38
 70
     0
  0
ATTDEF
  5
100
330
C6
100
AcDbEntity
  8
0
  6
Continuous
 62
     7
370
     0
100
AcDbText
 10
-6.4445357757
 20
16.7675689663
 30
0.0
 40
2.1166666667
  1
1 / 1
 41
0.6
  7
SLDTEXTSTYLE2
 11
-6.4445357757
 21
15.6726854691
 31
0.0
100
AcDbAttributeDefinition
  3

  2
AUTOATTR40
 70
     0
 74
     1
  0
ATTDEF
  5
101
330
C6
100
AcDbEntity
  8
0
  6
Continuous
 62
     7
370
     0
100
AcDbText
 10
0.0
 20
0.0
 30
0.0
 40
1.0
  1

100
AcDbAttributeDefinition
  3

  2
AUTOATTR44
 70
     0
  0
ATTDEF
  5
102
330
C6
100
AcDbEntity
  8
0
  6
Continuous
 62
     7
370
     0
100
AcDbText
 10
0.0
 20
0.0
 30
0.0
 40
1.0
  1

100
AcDbAttributeDefinition
  3

  2
AUTOATTR41
 70
     0
  0
ATTDEF
  5
103
330
C6
100
AcDbEntity
  8
0
  6
Continuous
 62
     7
370
     0
100
AcDbText
 10
0.0
 20
0.0
 30
0.0
 40
1.0
  1

100
AcDbAttributeDefinition
  3

  2
AUTOATTR39
 70
     0
  0
ATTDEF
  5
104
330
C6
100
AcDbEntity
  8
0
  6
Continuous
 62
     7
370
     0
100
AcDbText
 10
0.0
 20
0.0
 30
0.0
 40
1.0
  1

100
AcDbAttributeDefinition
  3

  2
AUTOATTR37
 70
     0
  0
ATTDEF
  5
105
330
C6
100
AcDbEntity
  8
VIEWS_-_ANSICHTEN
 62
     7
100
AcDbText
 10
0.0
 20
0.0
 30
0.0
 40
1.0
  1

100
AcDbAttributeDefinition
  3

  2
AUTOATTR136
 70
     0
  0
ATTDEF
  5
106
330
C6
100
AcDbEntity
  8
0
  6
Continuous
 62
     7
370
     0
100
AcDbText
 10
0.0
 20
0.0
 30
0.0
 40
1.0
  1

100
AcDbAttributeDefinition
  3

  2
AUTOATTR36
 70
     0
  0
ATTDEF
  5
107
330
C6
100
AcDbEntity
  8
0
  6
Continuous
 62
     7
370
     0
100
AcDbText
 10
0.0
 20
0.0
 30
0.0
 40
1.0
  1

100
AcDbAttributeDefinition
  3

  2
AUTOATTR35
 70
     0
  0
ATTDEF
  5
108
330
C6
100
AcDbEntity
  8
0
  6
Continuous
 62
     7
370
     0
100
AcDbText
 10
0.0
 20
0.0
 30
0.0
 40
1.0
  1

100
AcDbAttributeDefinition
  3

  2
AUTOATTR34
 70
     0
  0
ATTDEF
  5
109
330
C6
100
AcDbEntity
  8
0
  6
Continuous
 62
     7
370
     0
100
AcDbText
 10
0.0
 20
0.0
 30
0.0
 40
1.0
  1

100
AcDbAttributeDefinition
  3

  2
AUTOATTR28
 70
     0
  0
ENDBLK
  5
C8
330
C6
100
AcDbEntity
  8
0
100
AcDbBlockEnd
  0
BLOCK
  5
CA
330
C9
100
AcDbEntity
  8
0
100
AcDbBlockBegin
  2
SW_NOTE_1
 70
     0
 10
0.0
 20
0.0
 30
0.0
  3
SW_NOTE_1
  1
SW_NOTE_1
  0
MTEXT
  5
CD
330
C9
100
AcDbEntity
  8
0
  6
Continuous
 62
     0
370
     0
100
AcDbMText
 10
0.0
 20
2.0463950369
 30
0.0
 40
1.5875
 41
0.0
 71
     1
 72
     1
  1
The reproduction, distribution and utilization of this document as well as the communication of its contents to others without express authorization is prohibited. Offenders will be held
  7
SLDTEXTSTYLE2
 73
     1
 44
1.0
  0
MTEXT
  5
CE
330
C9
100
AcDbEntity
  8
0
  6
Continuous
 62
     0
370
     0
100
AcDbMText
 10
0.0
 20
-0.0702716042
 30
0.0
 40
1.5875
 41
0.0
 71
     1
 72
     1
  1
liable for the payment of damages. All rights reserved in the event of the grant of a patent, utility model or design.
  7
SLDTEXTSTYLE2
 73
     1
 44
1.0
  0
ENDBLK
  5
CB
330
C9
100
AcDbEntity
  8
0
100
AcDbBlockEnd
  0
BLOCK
  5
D5
330
D4
100
AcDbEntity
  8
0
100
AcDbBlockBegin
  2
SW_NOTE_2
 70
     0
 10
0.0
 20
0.0
 30
0.0
  3
SW_NOTE_2
  1
SW_NOTE_2
  0
MTEXT
  5
D8
330
D4
100
AcDbEntity
  8
0
  6
Continuous
 62
     0
370
     0
100
AcDbMText
 10
0.0
 20
2.0463950369
 30
0.0
 40
1.5875
 41
0.0
 71
     1
 72
     1
  1
Scale/
  7
SLDTEXTSTYLE3
 73
     1
 44
1.0
  0
MTEXT
  5
D9
330
D4
100
AcDbEntity
  8
0
  6
Continuous
 62
     0
370
     0
100
AcDbMText
 10
0.0
 20
-0.0702716042
 30
0.0
 40
1.5875
 41
0.0
 71
     1
 72
     1
  1
Maßstab:
  7
SLDTEXTSTYLE3
 73
     1
 44
1.0
  0
ENDBLK
  5
D6
330
D4
100
AcDbEntity
  8
0
100
AcDbBlockEnd
  0
BLOCK
  5
DD
330
DC
100
AcDbEntity
  8
0
100
AcDbBlockBegin
  2
SW_NOTE_3
 70
     0
 10
0.0
 20
0.0
 30
0.0
  3
SW_NOTE_3
  1
SW_NOTE_3
  0
MTEXT
  5
DF
330
DC
100
AcDbEntity
  8
0
  6
Continuous
 62
     0
370
     0
100
AcDbMText
 10
0.0
 20
2.0463950369
 30
0.0
 40
1.5875
 41
0.0
 71
     1
 72
     1
  1
Sheet/
  7
SLDTEXTSTYLE2
 73
     1
 44
1.0
  0
MTEXT
  5
E0
330
DC
100
AcDbEntity
  8
0
  6
Continuous
 62
     0
370
     0
100
AcDbMText
 10
0.0
 20
-0.0702716042
 30
0.0
 40
1.5875
 41
0.0
 71
     1
 72
     1
  1
Blatt:
  7
SLDTEXTSTYLE2
 73
     1
 44
1.0
  0
ENDBLK
  5
DE
330
DC
100
AcDbEntity
  8
0
100
AcDbBlockEnd
  0
BLOCK
  5
E5
330
E4
100
AcDbEntity
  8
0
100
AcDbBlockBegin
  2
SW_NOTE_4
 70
     0
 10
0.0
 20
0.0
 30
0.0
  3
SW_NOTE_4
  1
SW_NOTE_4
  0
MTEXT
  5
E7
330
E4
100
AcDbEntity
  8
0
  6
Continuous
 62
     0
370
     0
100
AcDbMText
 10
0.0
 20
2.0463950369
 30
0.0
 40
1.5875
 41
0.0
 71
     1
 72
     1
  1
Weitergabe sowie Vervielfältigung dieses Dokuments, Verwertung und Mitteilung seines Inhalts sind verboten, soweit nicht ausdrücklich gestattet. Zuwiderhandlungen verpflichten zu
  7
SLDTEXTSTYLE2
 73
     1
 44
1.0
  0
MTEXT
  5
E9
330
E4
100
AcDbEntity
  8
0
  6
Continuous
 62
     0
370
     0
100
AcDbMText
 10
0.0
 20
-0.0702716042
 30
0.0
 40
1.5875
 41
0.0
 71
     1
 72
     1
  1
Schadenersatz. Alle Rechte für den Fall der Patent-, Gebrauchsmuster- oder Geschmacksmustereintragung vorbehalten.\M+18167
  7
SLDTEXTSTYLE4
 73
     1
 44
1.0
  0
ENDBLK
  5
E6
330
E4
100
AcDbEntity
  8
0
100
AcDbBlockEnd
  0
BLOCK
  5
ED
330
EC
100
AcDbEntity
  8
0
100
AcDbBlockBegin
  2
SW_NOTE_5
 70
     0
 10
0.0
 20
0.0
 30
0.0
  3
SW_NOTE_5
  1
SW_NOTE_5
  0
MTEXT
  5
EF
330
EC
100
AcDbEntity
  8
0
  6
Continuous
 62
     0
370
     0
100
AcDbMText
 10
0.0
 20
2.0463950369
 30
0.0
 40
1.5875
 41
0.0
 71
     1
 72
     1
  1
Replacement for/
  7
SLDTEXTSTYLE2
 73
     1
 44
1.0
  0
MTEXT
  5
F0
330
EC
100
AcDbEntity
  8
0
  6
Continuous
 62
     0
370
     0
100
AcDbMText
 10
0.0
 20
-0.0702716042
 30
0.0
 40
1.5875
 41
0.0
 71
     1
 72
     1
  1
Ersatz für:
  7
SLDTEXTSTYLE2
 73
     1
 44
1.0
  0
ENDBLK
  5
EE
330
EC
100
AcDbEntity
  8
0
100
AcDbBlockEnd
  0
BLOCK
  5
F3
330
F2
100
AcDbEntity
  8
0
100
AcDbBlockBegin
  2
SW_NOTE_6
 70
     0
 10
0.0
 20
0.0
 30
0.0
  3
SW_NOTE_6
  1
SW_NOTE_6
  0
MTEXT
  5
F5
330
F2
100
AcDbEntity
  8
0
  6
Continuous
 62
     0
370
     0
100
AcDbMText
 10
0.0
 20
2.0463950369
 30
0.0
 40
1.5875
 41
0.0
 71
     1
 72
     1
  1
Replaced by/
  7
SLDTEXTSTYLE2
 73
     1
 44
1.0
  0
MTEXT
  5
F6
330
F2
100
AcDbEntity
  8
0
  6
Continuous
 62
     0
370
     0
100
AcDbMText
 10
0.0
 20
-0.0702716042
 30
0.0
 40
1.5875
 41
0.0
 71
     1
 72
     1
  1
Ersetzt durch:
  7
SLDTEXTSTYLE2
 73
     1
 44
1.0
  0
ENDBLK
  5
F4
330
F2
100
AcDbEntity
  8
0
100
AcDbBlockEnd
  0
BLOCK
  5
10B
330
10A
100
AcDbEntity
  8
0
100
AcDbBlockBegin
  2
ACO_SF_2013_Felder
 70
     2
 10
0.0
 20
0.0
 30
0.0
  3
ACO_SF_2013_Felder
  1
ACO_SF_2013_Felder
  0
CIRCLE
  5
10D
330
10A
100
AcDbEntity
  8
0
  6
Continuous
 62
     7
370
     0
100
AcDbCircle
 10
375.7027196515
 20
43.3723567183
 30
0.0
 40
2.199999999999975
  0
CIRCLE
  5
10E
330
10A
100
AcDbEntity
  8
0
  6
Continuous
 62
     7
370
     0
100
AcDbCircle
 10
375.7027196515
 20
43.3723567183
 30
0.0
 40
1.300000000000056
  0
LINE
  5
10F
330
10A
100
AcDbEntity
  8
0
  6
Continuous
 62
     7
370
     0
100
AcDbLine
 10
229.0609383881
 20
10.0438940849
 30
0.0
 11
229.0609383881
 21
80.0438940849
 31
0.0
  0
LINE
  5
110
330
10A
100
AcDbEntity
  8
0
  6
Continuous
 62
     7
370
     0
100
AcDbLine
 10
229.0609383881
 20
80.0438940849
 30
0.0
 11
409.0609383881
 21
80.0438940849
 31
0.0
  0
LINE
  5
111
330
10A
100
AcDbEntity
  8
0
  6
Continuous
 62
     7
370
     0
100
AcDbLine
 10
284.0609383881
 20
40.0438940849
 30
0.0
 11
409.0609383881
 21
40.0438940849
 31
0.0
  0
LINE
  5
112
330
10A
100
AcDbEntity
  8
0
  6
Continuous
 62
     7
370
     0
100
AcDbLine
 10
349.0609383881
 20
30.0438940849
 30
0.0
 11
409.0609383881
 21
30.0438940849
 31
0.0
  0
LINE
  5
113
330
10A
100
AcDbEntity
  8
0
  6
Continuous
 62
     7
370
     0
100
AcDbLine
 10
228.9796702667
 20
50.0438940849
 30
0.0
 11
409.0609383881
 21
50.0438940849
 31
0.0
  0
LINE
  5
114
330
10A
100
AcDbEntity
  8
0
  6
Continuous
 62
     7
370
     0
100
AcDbLine
 10
229.0609383881
 20
75.0438940849
 30
0.0
 11
409.0609383881
 21
75.0438940849
 31
0.0
  0
LINE
  5
115
330
10A
100
AcDbEntity
  8
0
  6
Continuous
 62
     7
370
     0
100
AcDbLine
 10
409.0609383881
 20
65.0438940849
 30
0.0
 11
229.0609383881
 21
65.0438940849
 31
0.0
  0
LINE
  5
116
330
10A
100
AcDbEntity
  8
0
  6
Continuous
 62
     7
370
     0
100
AcDbLine
 10
229.0609383881
 20
70.0438940849
 30
0.0
 11
409.0609383881
 21
70.0438940849
 31
0.0
  0
LINE
  5
117
330
10A
100
AcDbEntity
  8
0
  6
Continuous
 62
     7
370
     0
100
AcDbLine
 10
409.0609383881
 20
60.0438940849
 30
0.0
 11
229.0609383881
 21
60.0438940849
 31
0.0
  0
LINE
  5
118
330
10A
100
AcDbEntity
  8
0
  6
Continuous
 62
     7
370
     0
100
AcDbLine
 10
394.0609383881
 20
40.0438940849
 30
0.0
 11
394.0609383881
 21
20.0438940849
 31
0.0
  0
LINE
  5
119
330
10A
100
AcDbEntity
  8
0
  6
Continuous
 62
     7
370
     0
100
AcDbLine
 10
229.0609383881
 20
10.0438940849
 30
0.0
 11
409.0609383881
 21
10.0438940849
 31
0.0
  0
LINE
  5
11A
330
10A
100
AcDbEntity
  8
0
  6
Continuous
 62
     7
370
     0
100
AcDbLine
 10
409.0609383881
 20
80.0438940849
 30
0.0
 11
409.0609383881
 21
10.0438940849
 31
0.0
  0
LINE
  5
11B
330
10A
100
AcDbEntity
  8
0
  6
Continuous
 62
     7
370
     0
100
AcDbLine
 10
349.0609383881
 20
25.0438940849
 30
0.0
 11
409.0609383881
 21
25.0438940849
 31
0.0
  0
LINE
  5
11C
330
10A
100
AcDbEntity
  8
0
  6
Continuous
 62
     7
370
     0
100
AcDbLine
 10
261.0609383881
 20
60.0438940849
 30
0.0
 11
261.0609383881
 21
50.0438940849
 31
0.0
  0
LINE
  5
11D
330
10A
100
AcDbEntity
  8
0
  6
Continuous
 62
     7
370
     0
100
AcDbLine
 10
314.0609383881
 20
50.0438940849
 30
0.0
 11
314.0609383881
 21
40.0438940849
 31
0.0
  0
LINE
  5
11E
330
10A
100
AcDbEntity
  8
0
  6
Continuous
 62
     7
370
     0
100
AcDbLine
 10
381.5609383881
 20
60.0438940849
 30
0.0
 11
381.5609383881
 21
40.0438940849
 31
0.0
  0
LINE
  5
11F
330
10A
100
AcDbEntity
  8
0
  6
Continuous
 62
     7
370
     0
100
AcDbLine
 10
361.5609383881
 20
50.0438940849
 30
0.0
 11
361.5609383881
 21
40.0438940849
 31
0.0
  0
LINE
  5
120
330
10A
100
AcDbEntity
  8
0
  6
Continuous
 62
     7
370
     0
100
AcDbLine
 10
229.0609383881
 20
20.0438940849
 30
0.0
 11
409.0609383881
 21
20.0438940849
 31
0.0
  0
LINE
  5
121
330
10A
100
AcDbEntity
  8
0
  6
Continuous
 62
     7
370
     0
100
AcDbLine
 10
306.5609383881
 20
60.0438940849
 30
0.0
 11
306.5609383881
 21
50.0438940849
 31
0.0
  0
LINE
  5
122
330
10A
100
AcDbEntity
  8
0
  6
Continuous
 62
     7
370
     0
100
AcDbLine
 10
245.0609383881
 20
80.0438940849
 30
0.0
 11
245.0609383881
 21
60.0438940849
 31
0.0
  0
LINE
  5
123
330
10A
100
AcDbEntity
  8
0
  6
Continuous
 62
     7
370
     0
100
AcDbLine
 10
321.5609383881
 20
60.0438940849
 30
0.0
 11
321.5609383881
 21
50.0438940849
 31
0.0
  0
LINE
  5
124
330
10A
100
AcDbEntity
  8
0
  6
Continuous
 62
     7
370
     0
100
AcDbLine
 10
261.0609383881
 20
60.0438940849
 30
0.0
 11
261.0609383881
 21
80.0438940849
 31
0.0
  0
LINE
  5
125
330
10A
100
AcDbEntity
  8
0
  6
Continuous
 62
     7
370
     0
100
AcDbLine
 10
284.0609383881
 20
20.0438940849
 30
0.0
 11
284.0609383881
 21
50.0438940849
 31
0.0
  0
LINE
  5
126
330
10A
100
AcDbEntity
  8
0
  6
Continuous
 62
     7
370
     0
100
AcDbLine
 10
349.0609383881
 20
20.0438940849
 30
0.0
 11
349.0609383881
 21
50.0438940849
 31
0.0
  0
LINE
  5
127
330
10A
100
AcDbEntity
  8
0
  6
Continuous
 62
     7
370
     0
100
AcDbLine
 10
371.6372869997
 20
43.3723567183
 30
0.0
 11
363.8301690811
 21
43.3723567183
 31
0.0
  0
LINE
  5
128
330
10A
100
AcDbEntity
  8
0
  6
Continuous
 62
     7
370
     0
100
AcDbLine
 10
370.2600660001
 20
45.4031577143
 30
0.0
 11
364.6410837732
 21
44.1279277053
 31
0.0
  0
LINE
  5
129
330
10A
100
AcDbEntity
  8
0
  6
Continuous
 62
     7
370
     0
100
AcDbLine
 10
364.6410837732
 20
42.3547195715
 30
0.0
 11
370.2600660001
 21
41.0794895626
 31
0.0
  0
LINE
  5
12A
330
10A
100
AcDbEntity
  8
0
  6
Continuous
 62
     7
370
     0
100
AcDbLine
 10
370.2600660001
 20
41.0794895626
 30
0.0
 11
370.2600660001
 21
45.4031577143
 31
0.0
  0
LINE
  5
12B
330
10A
100
AcDbEntity
  8
0
  6
Continuous
 62
     7
370
     0
100
AcDbLine
 10
375.7027196515
 20
46.1200074421
 30
0.0
 11
375.7027196515
 21
40.6247059945
 31
0.0
  0
LINE
  5
12C
330
10A
100
AcDbEntity
  8
0
  6
Continuous
 62
     7
370
     0
100
AcDbLine
 10
378.4503703752
 20
43.3723567183
 30
0.0
 11
372.9550689277
 21
43.3723567183
 31
0.0
  0
LINE
  5
12D
330
10A
100
AcDbEntity
  8
0
  6
Continuous
 62
     7
370
     0
100
AcDbLine
 10
364.6410837732
 20
42.3547195715
 30
0.0
 11
364.6410837732
 21
44.1279277053
 31
0.0
  0
LINE
  5
12E
330
10A
100
AcDbEntity
  8
0
  6
Continuous
 62
     7
370
     0
100
AcDbLine
 10
381.5609383881
 20
80.0438940849
 30
0.0
 11
381.5609383881
 21
60.0438940849
 31
0.0
  0
LINE
  5
12F
330
10A
100
AcDbEntity
  8
0
  6
Continuous
 62
     7
370
     0
100
AcDbLine
 10
284.0609383881
 20
25.0438940849
 30
0.0
 11
229.0609383881
 21
25.0438940849
 31
0.0
  0
LINE
  5
130
330
10A
100
AcDbEntity
  8
0
  6
Continuous
 62
     7
370
     0
100
AcDbLine
 10
381.5609383881
 20
20.0438940849
 30
0.0
 11
381.5609383881
 21
10.0438940849
 31
0.0
  0
ATTDEF
  5
131
330
10A
100
AcDbEntity
  8
0
  6
Continuous
 62
     7
370
     0
100
AcDbText
 10
0.0
 20
0.0
 30
0.0
 40
1.0
  1

100
AcDbAttributeDefinition
  3

  2
F71
 70
     0
  0
ENDBLK
  5
10C
330
10A
100
AcDbEntity
  8
0
100
AcDbBlockEnd
  0
BLOCK
  5
133
330
132
100
AcDbEntity
  8
0
100
AcDbBlockBegin
  2
ACO_SF_2013_Beschriftung
 70
     2
 10
0.0
 20
0.0
 30
0.0
  3
ACO_SF_2013_Beschriftung
  1
ACO_SF_2013_Beschriftung
  0
MTEXT
  5
135
330
132
100
AcDbEntity
  8
0
  6
Continuous
 62
     7
370
     0
100
AcDbMText
 10
-179.4883680531
 20
74.4731338952
 30
0.0
 40
2.6458333333
 41
0.0
 71
     1
 72
     1
  1
3D-model is essential/ 3D-Modell ist maßgeblich:
  7
SLDTEXTSTYLE2
 73
     1
 44
1.0
  0
MTEXT
  5
136
330
132
100
AcDbEntity
  8
0
  6
Continuous
 62
     7
370
     0
100
AcDbMText
 10
-179.4883680531
 20
13.246557705
 30
0.0
 40
2.1166666667
 41
0.0
 71
     1
 72
     1
  1
Article-no./ Artikel Nr.:
  7
SLDTEXTSTYLE2
 73
     1
 44
1.0
  0
MTEXT
  5
137
330
132
100
AcDbEntity
  8
0
  6
Continuous
 62
     7
370
     0
100
AcDbMText
 10
-59.4883680531
 20
28.8825146208
 30
0.0
 40
2.0
 41
0.0
 71
     1
 72
     1
  1
Drawing-no./ Zeichnung Nr.:
  7
SLDTEXTSTYLE2
 73
     1
 44
1.0
  0
INSERT
  5
13D
330
132
100
AcDbEntity
  8
0
  6
Continuous
 62
     7
370
     0
100
AcDbBlockReference
  2
SW_NOTE_7
 10
-59.4883680531
 20
17.556155835
 30
0.0
  0
INSERT
  5
143
330
132
100
AcDbEntity
  8
0
  6
Continuous
 62
     7
370
     0
100
AcDbBlockReference
  2
SW_NOTE_8
 10
-59.4883680531
 20
12.4985854934
 30
0.0
  0
INSERT
  5
149
330
132
100
AcDbEntity
  8
0
  6
Continuous
 62
     7
370
     0
100
AcDbBlockReference
  2
SW_NOTE_9
 10
-179.4883680531
 20
2.8649665247
 30
0.0
  0
INSERT
  5
14F
330
132
100
AcDbEntity
  8
0
  6
Continuous
 62
     7
370
     0
100
AcDbBlockReference
  2
SW_NOTE_10
 10
-179.4883680531
 20
7.6149665247
 30
0.0
  0
INSERT
  5
155
330
132
100
AcDbEntity
  8
0
  6
Continuous
 62
     7
370
     0
100
AcDbBlockReference
  2
SW_NOTE_11
 10
-14.4883680531
 20
17.0370067409
 30
0.0
  0
MTEXT
  5
156
330
132
100
AcDbEntity
  8
0
  6
Continuous
 62
     7
370
     0
100
AcDbMText
 10
-10.9883680531
 20
28.7874144301
 30
0.0
 40
2.0
 41
0.0
 71
     1
 72
     1
  1
Index
  7
SLDTEXTSTYLE2
 73
     1
 44
1.0
  0
MTEXT
  5
157
330
132
100
AcDbEntity
  8
0
  6
Continuous
 62
     7
370
     0
100
AcDbMText
 10
-26.9883680531
 20
4.4153608855
 30
0.0
 40
3.175
 41
0.0
 71
     1
 72
     1
  1
DIN ISO 16016
  7
SLDTEXTSTYLE2
 73
     1
 44
1.0
  0
MTEXT
  5
158
330
132
100
AcDbEntity
  8
0
  6
Continuous
 62
     7
370
     0
100
AcDbMText
 10
-26.99
 20
8.9588784733
 30
0.0
 40
1.5875
 41
0.0
 71
     1
 72
     1
  1
Protection note/ Schutzvermerk:
  7
SLDTEXTSTYLE2
 73
     1
 44
1.0
  0
MTEXT
  5
159
330
132
100
AcDbEntity
  8
0
  6
Continuous
 62
     7
370
     0
100
AcDbMText
 10
-46.5951775024
 20
39.0211743635
 30
0.0
 40
2.0
 41
0.0
 71
     1
 72
     1
  1
Projection: ISO-E:
  7
SLDTEXTSTYLE2
 73
     1
 44
1.0
  0
MTEXT
  5
15A
330
132
100
AcDbEntity
  8
0
  6
Continuous
 62
     7
370
     0
100
AcDbMText
 10
-59.4883680531
 20
34.3594567916
 30
0.0
 40
3.175
 41
0.0
 71
     1
 72
     1
  1
DIN A4
  7
SLDTEXTSTYLE2
 73
     1
 44
1.0
  0
MTEXT
  5
15B
330
132
100
AcDbEntity
  8
0
  6
Continuous
 62
     7
370
     0
100
AcDbMText
 10
-59.4883680531
 20
39.0197397118
 30
0.0
 40
2.0
 41
0.0
 71
     1
 72
     1
  1
Format:
  7
SLDTEXTSTYLE2
 73
     1
 44
1.0
  0
MTEXT
  5
15C
330
132
100
AcDbEntity
  8
0
  6
Continuous
 62
     7
370
     0
100
AcDbMText
 10
-94.3857478798
 20
38.947166481
 30
0.0
 40
1.8520833333
 41
0.0
 71
     1
 72
     1
  1
Released by/ Freigegeben durch:
  7
SLDTEXTSTYLE2
 73
     1
 44
1.0
  0
MTEXT
  5
15D
330
132
100
AcDbEntity
  8
0
  6
Continuous
 62
     7
370
     0
100
AcDbMText
 10
-124.1352328113
 20
38.947166481
 30
0.0
 40
1.8520833333
 41
0.0
 71
     1
 72
     1
  1
Created by/ Erstellt durch:
  7
SLDTEXTSTYLE2
 73
     1
 44
1.0
  0
MTEXT
  5
15E
330
132
100
AcDbEntity
  8
0
  6
Continuous
 62
     7
370
     0
100
AcDbMText
 10
-26.9883680531
 20
48.9736574518
 30
0.0
 40
2.0
 41
0.0
 71
     1
 72
     1
  1
Weight/ Gewicht:
  7
SLDTEXTSTYLE2
 73
     1
 44
1.0
  0
MTEXT
  5
15F
330
132
100
AcDbEntity
  8
0
  6
Continuous
 62
     7
370
     0
100
AcDbMText
 10
-26.9883680531
 20
38.9736574518
 30
0.0
 40
2.0
 41
0.0
 71
     1
 72
     1
  1
Volume/ Volumen:
  7
SLDTEXTSTYLE2
 73
     1
 44
1.0
  0
MTEXT
  5
160
330
132
100
AcDbEntity
  8
0
  6
Continuous
 62
     7
370
     0
100
AcDbMText
 10
-86.8857478798
 20
49.0187602638
 30
0.0
 40
2.0
 41
0.0
 71
     1
 72
     1
  1
Material/ Werkstoff:
  7
SLDTEXTSTYLE2
 73
     1
 44
1.0
  0
INSERT
  5
166
330
132
100
AcDbEntity
  8
0
  6
Continuous
 62
     7
370
     0
100
AcDbBlockReference
  2
SW_NOTE_12
 10
-101.8687097477
 20
47.1312116521
 30
0.0
  0
MTEXT
  5
167
330
132
100
AcDbEntity
  8
0
  6
Continuous
 62
     7
370
     0
100
AcDbMText
 10
-147.3857478798
 20
48.9736574518
 30
0.0
 40
2.0
 41
0.0
 71
     1
 72
     1
  1
General tolerance/ Allgemeintoleranz:
  7
SLDTEXTSTYLE2
 73
     1
 44
1.0
  0
MTEXT
  5
168
330
132
100
AcDbEntity
  8
0
  6
Continuous
 62
     7
370
     0
100
AcDbMText
 10
-179.4883680531
 20
48.9736574518
 30
0.0
 40
2.0
 41
0.0
 71
     1
 72
     1
  1
Surface/ Oberfläche:
  7
SLDTEXTSTYLE2
 73
     1
 44
1.0
  0
MTEXT
  5
16A
330
132
100
AcDbEntity
  8
0
  6
Continuous
 62
     7
370
     0
100
AcDbMText
 10
-16.4883680531
 20
52.9475174978
 30
0.0
 40
2.0
 41
0.0
 71
     1
 72
     1
  1
Name
  7
SLDTEXTSTYLE5
 73
     1
 44
1.0
  0
MTEXT
  5
16B
330
132
100
AcDbEntity
  8
0
  6
Continuous
 62
     7
370
     0
100
AcDbMText
 10
-98.9883680531
 20
52.9475174978
 30
0.0
 40
2.0
 41
0.0
 71
     1
 72
     1
  1
Description/ Benennung
  7
SLDTEXTSTYLE5
 73
     1
 44
1.0
  0
MTEXT
  5
16C
330
132
100
AcDbEntity
  8
0
  6
Continuous
 62
     7
370
     0
100
AcDbMText
 10
-162.9883680531
 20
52.9447397118
 30
0.0
 40
2.0
 41
0.0
 71
     1
 72
     1
  1
Date/ Datum
  7
SLDTEXTSTYLE2
 73
     1
 44
1.0
  0
MTEXT
  5
16D
330
132
100
AcDbEntity
  8
0
  6
Continuous
 62
     7
370
     0
100
AcDbMText
 10
-174.7383680531
 20
52.9447397118
 30
0.0
 40
2.0
 41
0.0
 71
     1
 72
     1
  1
Index
  7
SLDTEXTSTYLE2
 73
     1
 44
1.0
  0
ATTDEF
  5
16E
330
132
100
AcDbEntity
  8
0
  6
Continuous
 62
     7
370
     0
100
AcDbText
 10
0.0
 20
0.0
 30
0.0
 40
1.0
  1

100
AcDbAttributeDefinition
  3

  2
AUTOATTR28
 70
     0
  0
ATTDEF
  5
16F
330
132
100
AcDbEntity
  8
0
  6
Continuous
 62
     7
370
     0
100
AcDbText
 10
0.0
 20
0.0
 30
0.0
 40
1.0
  1

100
AcDbAttributeDefinition
  3

  2
AUTOATTR36
 70
     0
  0
ATTDEF
  5
170
330
132
100
AcDbEntity
  8
0
  6
Continuous
 62
     7
370
     0
100
AcDbText
 10
0.0
 20
0.0
 30
0.0
 40
1.0
  1

100
AcDbAttributeDefinition
  3

  2
AUTOATTR35
 70
     0
  0
ATTDEF
  5
171
330
132
100
AcDbEntity
  8
0
  6
Continuous
 62
     7
370
     0
100
AcDbText
 10
0.0
 20
0.0
 30
0.0
 40
1.0
  1

100
AcDbAttributeDefinition
  3

  2
AUTOATTR34
 70
     0
  0
ATTDEF
  5
172
330
132
100
AcDbEntity
  8
0
  6
Continuous
 62
     7
370
     0
100
AcDbText
 10
0.0
 20
0.0
 30
0.0
 40
1.0
  1

100
AcDbAttributeDefinition
  3

  2
AUTOATTR37
 70
     0
  0
ATTDEF
  5
173
330
132
100
AcDbEntity
  8
0
  6
Continuous
 62
     7
370
     0
100
AcDbText
 10
0.0
 20
0.0
 30
0.0
 40
1.0
  1

100
AcDbAttributeDefinition
  3

  2
AUTOATTR39
 70
     0
  0
ATTDEF
  5
174
330
132
100
AcDbEntity
  8
0
  6
Continuous
 62
     7
370
     0
100
AcDbText
 10
0.0
 20
0.0
 30
0.0
 40
1.0
  1

100
AcDbAttributeDefinition
  3

  2
AUTOATTR41
 70
     0
  0
ATTDEF
  5
175
330
132
100
AcDbEntity
  8
0
  6
Continuous
 62
     7
370
     0
100
AcDbText
 10
0.0
 20
0.0
 30
0.0
 40
1.0
  1

100
AcDbAttributeDefinition
  3

  2
AUTOATTR44
 70
     0
  0
ATTDEF
  5
176
330
132
100
AcDbEntity
  8
0
  6
Continuous
 62
     7
370
     0
100
AcDbText
 10
-6.9883680531
 20
16.7454455208
 30
0.0
 40
2.1166666667
  1
1 / 1
 41
0.6
  7
SLDTEXTSTYLE2
 11
-6.9883680531
 21
15.6505620236
 31
0.0
100
AcDbAttributeDefinition
  3

  2
AUTOATTR40
 70
     0
 74
     1
  0
ATTDEF
  5
177
330
132
100
AcDbEntity
  8
0
  6
Continuous
 62
     7
370
     0
100
AcDbText
 10
0.0
 20
0.0
 30
0.0
 40
1.0
  1

100
AcDbAttributeDefinition
  3

  2
AUTOATTR38
 70
     0
  0
ATTDEF
  5
178
330
132
100
AcDbEntity
  8
0
  6
Continuous
 62
     7
370
     0
100
AcDbText
 10
0.0
 20
0.0
 30
0.0
 40
1.0
  1

100
AcDbAttributeDefinition
  3

  2
AUTOATTR32
 70
     0
  0
ATTDEF
  5
179
330
132
100
AcDbEntity
  8
0
  6
Continuous
 62
     7
370
     0
100
AcDbText
 10
0.0
 20
0.0
 30
0.0
 40
1.0
  1

100
AcDbAttributeDefinition
  3

  2
AUTOATTR31
 70
     0
  0
ATTDEF
  5
17A
330
132
100
AcDbEntity
  8
0
  6
Continuous
 62
     7
370
     0
100
AcDbText
 10
0.0
 20
0.0
 30
0.0
 40
1.0
  1

100
AcDbAttributeDefinition
  3

  2
AUTOATTR30
 70
     0
  0
ATTDEF
  5
17B
330
132
100
AcDbEntity
  8
0
  6
Continuous
 62
     7
370
     0
100
AcDbText
 10
0.0
 20
0.0
 30
0.0
 40
1.0
  1

100
AcDbAttributeDefinition
  3

  2
AUTOATTR29
 70
     0
  0
ATTDEF
  5
17C
330
132
100
AcDbEntity
  8
0
  6
Continuous
 62
     7
370
     0
100
AcDbText
 10
0.0
 20
0.0
 30
0.0
 40
1.0
  1

100
AcDbAttributeDefinition
  3

  2
AUTOATTR42
 70
     0
  0
ATTDEF
  5
17D
330
132
100
AcDbEntity
  8
0
  6
Continuous
 62
     7
370
     0
100
AcDbText
 10
0.0
 20
0.0
 30
0.0
 40
1.0
  1

100
AcDbAttributeDefinition
  3

  2
AUTOATTR24
 70
     0
  0
ATTDEF
  5
17E
330
132
100
AcDbEntity
  8
0
  6
Continuous
 62
     7
370
     0
100
AcDbText
 10
-98.4771783703
 20
41.8736881448
 30
0.0
 40
3.175
  1
1:1
 41
0.75
  7
SLDTEXTSTYLE3
 11
-98.4771783703
 21
40.231362899
 31
0.0
100
AcDbAttributeDefinition
  3

  2
AUTOATTR64
 70
     0
 74
     1
  0
ATTDEF
  5
17F
330
132
100
AcDbEntity
  8
0
  6
Continuous
 62
     7
370
     0
100
AcDbText
 10
0.0
 20
0.0
 30
0.0
 40
1.0
  1

100
AcDbAttributeDefinition
  3

  2
AUTOATTR25
 70
     0
  0
ATTDEF
  5
180
330
132
100
AcDbEntity
  8
0
  6
Continuous
 62
     7
370
     0
100
AcDbText
 10
-26.9883680531
 20
31.9111333487
 30
0.0
 40
3.175
  1
19.289 cm³
 41
0.6
  7
SLDTEXTSTYLE2
 11
-26.9883680531
 21
30.2688081029
 31
0.0
100
AcDbAttributeDefinition
  3

  2
AUTOATTR26
 70
     0
 74
     1
  0
ATTDEF
  5
181
330
132
100
AcDbEntity
  8
0
  6
Continuous
 62
     7
370
     0
100
AcDbText
 10
-26.9883680531
 20
41.8906251294
 30
0.0
 40
3.175
  1
0.019 kg
 41
0.6
  7
SLDTEXTSTYLE2
 11
-26.9883680531
 21
40.2482998836
 31
0.0
100
AcDbAttributeDefinition
  3

  2
AUTOATTR27
 70
     0
 74
     1
  0
ATTDEF
  5
182
330
132
100
AcDbEntity
  8
0
  6
Continuous
 62
     7
370
     0
100
AcDbText
 10
0.0
 20
0.0
 30
0.0
 40
1.0
  1

100
AcDbAttributeDefinition
  3

  2
AUTOATTR22
 70
     0
  0
ATTDEF
  5
183
330
132
100
AcDbEntity
  8
0
  6
Continuous
 62
     7
370
     0
100
AcDbText
 10
0.0
 20
0.0
 30
0.0
 40
1.0
  1

100
AcDbAttributeDefinition
  3

  2
AUTOATTR17
 70
     0
  0
ATTDEF
  5
184
330
132
100
AcDbEntity
  8
0
  6
Continuous
 62
     7
370
     0
100
AcDbText
 10
0.0
 20
0.0
 30
0.0
 40
1.0
  1

100
AcDbAttributeDefinition
  3

  2
AUTOATTR13
 70
     0
  0
ATTDEF
  5
185
330
132
100
AcDbEntity
  8
0
  6
Continuous
 62
     7
370
     0
100
AcDbText
 10
0.0
 20
0.0
 30
0.0
 40
1.0
  1

100
AcDbAttributeDefinition
  3

  2
AUTOATTR21
 70
     0
  0
ATTDEF
  5
186
330
132
100
AcDbEntity
  8
0
  6
Continuous
 62
     7
370
     0
100
AcDbText
 10
0.0
 20
0.0
 30
0.0
 40
1.0
  1

100
AcDbAttributeDefinition
  3

  2
AUTOATTR20
 70
     0
  0
ATTDEF
  5
187
330
132
100
AcDbEntity
  8
0
  6
Continuous
 62
     7
370
     0
100
AcDbText
 10
0.0
 20
0.0
 30
0.0
 40
1.0
  1

100
AcDbAttributeDefinition
  3

  2
AUTOATTR19
 70
     0
  0
ATTDEF
  5
188
330
132
100
AcDbEntity
  8
0
  6
Continuous
 62
     7
370
     0
100
AcDbText
 10
0.0
 20
0.0
 30
0.0
 40
1.0
  1

100
AcDbAttributeDefinition
  3

  2
AUTOATTR16
 70
     0
  0
ATTDEF
  5
189
330
132
100
AcDbEntity
  8
0
  6
Continuous
 62
     7
370
     0
100
AcDbText
 10
0.0
 20
0.0
 30
0.0
 40
1.0
  1

100
AcDbAttributeDefinition
  3

  2
AUTOATTR15
 70
     0
  0
ATTDEF
  5
18A
330
132
100
AcDbEntity
  8
0
  6
Continuous
 62
     7
370
     0
100
AcDbText
 10
0.0
 20
0.0
 30
0.0
 40
1.0
  1

100
AcDbAttributeDefinition
  3

  2
AUTOATTR14
 70
     0
  0
ATTDEF
  5
18B
330
132
100
AcDbEntity
  8
0
  6
Continuous
 62
     7
370
     0
100
AcDbText
 10
0.0
 20
0.0
 30
0.0
 40
1.0
  1

100
AcDbAttributeDefinition
  3

  2
AUTOATTR12
 70
     0
  0
ATTDEF
  5
18C
330
132
100
AcDbEntity
  8
0
  6
Continuous
 62
     7
370
     0
100
AcDbText
 10
0.0
 20
0.0
 30
0.0
 40
1.0
  1

100
AcDbAttributeDefinition
  3

  2
AUTOATTR11
 70
     0
  0
ATTDEF
  5
18D
330
132
100
AcDbEntity
  8
0
  6
Continuous
 62
     7
370
     0
100
AcDbText
 10
0.0
 20
0.0
 30
0.0
 40
1.0
  1

100
AcDbAttributeDefinition
  3

  2
AUTOATTR10
 70
     0
  0
ATTDEF
  5
18E
330
132
100
AcDbEntity
  8
0
  6
Continuous
 62
     7
370
     0
100
AcDbText
 10
-112.3857478798
 20
72.4310798718
 30
0.0
 40
2.6458333333
  1
 Index 
 41
0.6
  7
SLDTEXTSTYLE2
 11
-112.3857478798
 21
71.0624755003
 31
0.0
100
AcDbAttributeDefinition
  3

  2
AUTOATTR43
 70
     0
 74
     1
  0
ATTDEF
  5
18F
330
132
100
AcDbEntity
  8
VIEWS_-_ANSICHTEN
 62
     7
100
AcDbText
 10
0.0
 20
0.0
 30
0.0
 40
1.0
  1

100
AcDbAttributeDefinition
  3

  2
AUTOATTR136
 70
     0
  0
ENDBLK
  5
134
330
132
100
AcDbEntity
  8
0
100
AcDbBlockEnd
  0
BLOCK
  5
139
330
138
100
AcDbEntity
  8
0
100
AcDbBlockBegin
  2
SW_NOTE_7
 70
     0
 10
0.0
 20
0.0
 30
0.0
  3
SW_NOTE_7
  1
SW_NOTE_7
  0
MTEXT
  5
13B
330
138
100
AcDbEntity
  8
0
  6
Continuous
 62
     0
370
     0
100
AcDbMText
 10
0.0
 20
2.0463950369
 30
0.0
 40
1.5875
 41
0.0
 71
     1
 72
     1
  1
Replacement for/
  7
SLDTEXTSTYLE2
 73
     1
 44
1.0
  0
MTEXT
  5
13C
330
138
100
AcDbEntity
  8
0
  6
Continuous
 62
     0
370
     0
100
AcDbMText
 10
0.0
 20
-0.0702716042
 30
0.0
 40
1.5875
 41
0.0
 71
     1
 72
     1
  1
Ersatz für:
  7
SLDTEXTSTYLE2
 73
     1
 44
1.0
  0
ENDBLK
  5
13A
330
138
100
AcDbEntity
  8
0
100
AcDbBlockEnd
  0
BLOCK
  5
13F
330
13E
100
AcDbEntity
  8
0
100
AcDbBlockBegin
  2
SW_NOTE_8
 70
     0
 10
0.0
 20
0.0
 30
0.0
  3
SW_NOTE_8
  1
SW_NOTE_8
  0
MTEXT
  5
141
330
13E
100
AcDbEntity
  8
0
  6
Continuous
 62
     0
370
     0
100
AcDbMText
 10
0.0
 20
2.0463950369
 30
0.0
 40
1.5875
 41
0.0
 71
     1
 72
     1
  1
Replaced by/
  7
SLDTEXTSTYLE2
 73
     1
 44
1.0
  0
MTEXT
  5
142
330
13E
100
AcDbEntity
  8
0
  6
Continuous
 62
     0
370
     0
100
AcDbMText
 10
0.0
 20
-0.0702716042
 30
0.0
 40
1.5875
 41
0.0
 71
     1
 72
     1
  1
Ersetzt durch:
  7
SLDTEXTSTYLE2
 73
     1
 44
1.0
  0
ENDBLK
  5
140
330
13E
100
AcDbEntity
  8
0
100
AcDbBlockEnd
  0
BLOCK
  5
145
330
144
100
AcDbEntity
  8
0
100
AcDbBlockBegin
  2
SW_NOTE_9
 70
     0
 10
0.0
 20
0.0
 30
0.0
  3
SW_NOTE_9
  1
SW_NOTE_9
  0
MTEXT
  5
147
330
144
100
AcDbEntity
  8
0
  6
Continuous
 62
     0
370
     0
100
AcDbMText
 10
0.0
 20
2.0463950369
 30
0.0
 40
1.5875
 41
0.0
 71
     1
 72
     1
  1
Weitergabe sowie Vervielfältigung dieses Dokuments, Verwertung und Mitteilung seines Inhalts sind verboten, soweit nicht ausdrücklich gestattet. Zuwiderhandlungen verpflichten zu
  7
SLDTEXTSTYLE2
 73
     1
 44
1.0
  0
MTEXT
  5
148
330
144
100
AcDbEntity
  8
0
  6
Continuous
 62
     0
370
     0
100
AcDbMText
 10
0.0
 20
-0.0702716042
 30
0.0
 40
1.5875
 41
0.0
 71
     1
 72
     1
  1
Schadenersatz. Alle Rechte für den Fall der Patent-, Gebrauchsmuster- oder Geschmacksmustereintragung vorbehalten.\M+18167
  7
SLDTEXTSTYLE4
 73
     1
 44
1.0
  0
ENDBLK
  5
146
330
144
100
AcDbEntity
  8
0
100
AcDbBlockEnd
  0
BLOCK
  5
14B
330
14A
100
AcDbEntity
  8
0
100
AcDbBlockBegin
  2
SW_NOTE_10
 70
     0
 10
0.0
 20
0.0
 30
0.0
  3
SW_NOTE_10
  1
SW_NOTE_10
  0
MTEXT
  5
14D
330
14A
100
AcDbEntity
  8
0
  6
Continuous
 62
     0
370
     0
100
AcDbMText
 10
0.0
 20
2.0463950369
 30
0.0
 40
1.5875
 41
0.0
 71
     1
 72
     1
  1
The reproduction, distribution and utilization of this document as well as the communication of its contents to others without express authorization is prohibited. Offenders will be held
  7
SLDTEXTSTYLE2
 73
     1
 44
1.0
  0
MTEXT
  5
14E
330
14A
100
AcDbEntity
  8
0
  6
Continuous
 62
     0
370
     0
100
AcDbMText
 10
0.0
 20
-0.0702716042
 30
0.0
 40
1.5875
 41
0.0
 71
     1
 72
     1
  1
liable for the payment of damages. All rights reserved in the event of the grant of a patent, utility model or design.
  7
SLDTEXTSTYLE2
 73
     1
 44
1.0
  0
ENDBLK
  5
14C
330
14A
100
AcDbEntity
  8
0
100
AcDbBlockEnd
  0
BLOCK
  5
151
330
150
100
AcDbEntity
  8
0
100
AcDbBlockBegin
  2
SW_NOTE_11
 70
     0
 10
0.0
 20
0.0
 30
0.0
  3
SW_NOTE_11
  1
SW_NOTE_11
  0
MTEXT
  5
153
330
150
100
AcDbEntity
  8
0
  6
Continuous
 62
     0
370
     0
100
AcDbMText
 10
0.0
 20
2.0463950369
 30
0.0
 40
1.5875
 41
0.0
 71
     1
 72
     1
  1
Sheet/
  7
SLDTEXTSTYLE2
 73
     1
 44
1.0
  0
MTEXT
  5
154
330
150
100
AcDbEntity
  8
0
  6
Continuous
 62
     0
370
     0
100
AcDbMText
 10
0.0
 20
-0.0702716042
 30
0.0
 40
1.5875
 41
0.0
 71
     1
 72
     1
  1
Blatt:
  7
SLDTEXTSTYLE2
 73
     1
 44
1.0
  0
ENDBLK
  5
152
330
150
100
AcDbEntity
  8
0
100
AcDbBlockEnd
  0
BLOCK
  5
162
330
161
100
AcDbEntity
  8
0
100
AcDbBlockBegin
  2
SW_NOTE_12
 70
     0
 10
0.0
 20
0.0
 30
0.0
  3
SW_NOTE_12
  1
SW_NOTE_12
  0
MTEXT
  5
164
330
161
100
AcDbEntity
  8
0
  6
Continuous
 62
     0
370
     0
100
AcDbMText
 10
0.0
 20
2.0463950369
 30
0.0
 40
1.5875
 41
0.0
 71
     1
 72
     1
  1
Scale/
  7
SLDTEXTSTYLE3
 73
     1
 44
1.0
  0
MTEXT
  5
165
330
161
100
AcDbEntity
  8
0
  6
Continuous
 62
     0
370
     0
100
AcDbMText
 10
0.0
 20
-0.0702716042
 30
0.0
 40
1.5875
 41
0.0
 71
     1
 72
     1
  1
Maßstab:
  7
SLDTEXTSTYLE3
 73
     1
 44
1.0
  0
ENDBLK
  5
163
330
161
100
AcDbEntity
  8
0
100
AcDbBlockEnd
  0
BLOCK
  5
32F
330
32E
100
AcDbEntity
  8
0
100
AcDbBlockBegin
  2
_D
 70
     0
 10
0.0
 20
0.0
 30
0.0
  3
_D
  1
_D
  0
SOLID
  5
331
330
32E
100
AcDbEntity
  8
DIMENSION_-_BEMAßUNG
100
AcDbTrace
 10
133.04545414
 20
278.7712571066
 30
0.0
 11
136.34745414
 21
278.2632571066
 31
0.0
 12
136.34745414
 22
279.2792571066
 32
0.0
 13
136.34745414
 23
279.2792571066
 33
0.0
  0
SOLID
  5
332
330
32E
100
AcDbEntity
  8
DIMENSION_-_BEMAßUNG
100
AcDbTrace
 10
182.54545414
 20
278.7712571066
 30
0.0
 11
179.24345414
 21
279.2792571066
 31
0.0
 12
179.24345414
 22
278.2632571066
 32
0.0
 13
179.24345414
 23
278.2632571066
 33
0.0
  0
LINE
  5
333
330
32E
100
AcDbEntity
  8
DIMENSION_-_BEMAßUNG
100
AcDbLine
 10
133.04545414
 20
260.1538216561
 30
0.0
 11
133.04545414
 21
279.7712571066
 31
0.0
  0
LINE
  5
334
330
32E
100
AcDbEntity
  8
DIMENSION_-_BEMAßUNG
100
AcDbLine
 10
182.54545414
 20
214.9929212872
 30
0.0
 11
182.54545414
 21
279.7712571066
 31
0.0
  0
LINE
  5
335
330
32E
100
AcDbEntity
  8
DIMENSION_-_BEMAßUNG
100
AcDbLine
 10
133.04545414
 20
278.7712571066
 30
0.0
 11
182.54545414
 21
278.7712571066
 31
0.0
  0
MTEXT
  5
336
330
32E
100
AcDbEntity
  8
DIMENSION_-_BEMAßUNG
100
AcDbMText
 10
155.2183773527
 20
281.9939266306
 30
0.0
 40
2.5
 41
0.0
 71
     1
 72
     1
  1
49.5
  7
SLDTEXTSTYLE3
 73
     1
 44
1.0
  0
ENDBLK
  5
330
330
32E
100
AcDbEntity
  8
0
100
AcDbBlockEnd
  0
BLOCK
  5
339
330
338
100
AcDbEntity
  8
0
100
AcDbBlockBegin
  2
_D_1
 70
     0
 10
0.0
 20
0.0
 30
0.0
  3
_D_1
  1
_D_1
  0
SOLID
  5
33B
330
338
100
AcDbEntity
  8
DIMENSION_-_BEMAßUNG
100
AcDbTrace
 10
194.9404442816
 20
266.3242605765
 30
0.0
 11
194.4324442816
 21
263.0222605765
 31
0.0
 12
195.4484442816
 22
263.0222605765
 32
0.0
 13
195.4484442816
 23
263.0222605765
 33
0.0
  0
SOLID
  5
33C
330
338
100
AcDbEntity
  8
DIMENSION_-_BEMAßUNG
100
AcDbTrace
 10
194.9404442816
 20
213.9833827356
 30
0.0
 11
195.4484442816
 21
217.2853827356
 31
0.0
 12
194.4324442816
 22
217.2853827356
 32
0.0
 13
194.4324442816
 23
217.2853827356
 33
0.0
  0
LINE
  5
33D
330
338
100
AcDbEntity
  8
DIMENSION_-_BEMAßUNG
100
AcDbLine
 10
181.5788469892
 20
266.3242605765
 30
0.0
 11
195.9404442816
 21
266.3242605765
 31
0.0
  0
LINE
  5
33E
330
338
100
AcDbEntity
  8
DIMENSION_-_BEMAßUNG
100
AcDbLine
 10
181.5788469892
 20
213.9833827356
 30
0.0
 11
195.9404442816
 21
213.9833827356
 31
0.0
  0
LINE
  5
33F
330
338
100
AcDbEntity
  8
DIMENSION_-_BEMAßUNG
100
AcDbLine
 10
194.9404442816
 20
266.3242605765
 30
0.0
 11
194.9404442816
 21
213.9833827356
 31
0.0
  0
MTEXT
  5
340
330
338
100
AcDbEntity
  8
DIMENSION_-_BEMAßUNG
100
AcDbMText
 10
191.7177747576
 20
239.8330756288
 30
0.0
 40
2.5
 41
0.0
 71
     1
 72
     1
  1
52.3
  7
SLDTEXTSTYLE3
 11
-7.044195017643634E-15
 21
1.0
 31
0.0
 73
     1
 44
1.0
  0
ENDBLK
  5
33A
330
338
100
AcDbEntity
  8
0
100
AcDbBlockEnd
  0
BLOCK
  5
467
330
466
100
AcDbEntity
  8
0
100
AcDbBlockBegin
  2
_D_2
 70
     0
 10
0.0
 20
0.0
 30
0.0
  3
_D_2
  1
_D_2
  0
SOLID
  5
469
330
466
100
AcDbEntity
  8
DIMENSION_-_BEMAßUNG
100
AcDbTrace
 10
50.2555462593
 20
197.9719885504
 30
0.0
 11
53.5575462593
 21
197.4639885504
 31
0.0
 12
53.5575462593
 22
198.4799885504
 32
0.0
 13
53.5575462593
 23
198.4799885504
 33
0.0
  0
SOLID
  5
46A
330
466
100
AcDbEntity
  8
DIMENSION_-_BEMAßUNG
100
AcDbTrace
 10
98.2555462593
 20
197.9719885504
 30
0.0
 11
94.9535462593
 21
198.4799885504
 31
0.0
 12
94.9535462593
 22
197.4639885504
 32
0.0
 13
94.9535462593
 23
197.4639885504
 33
0.0
  0
LINE
  5
46B
330
466
100
AcDbEntity
  8
DIMENSION_-_BEMAßUNG
100
AcDbLine
 10
50.2555462593
 20
240.1538216561
 30
0.0
 11
50.2555462593
 21
196.9719885504
 31
0.0
  0
LINE
  5
46C
330
466
100
AcDbEntity
  8
DIMENSION_-_BEMAßUNG
100
AcDbLine
 10
98.2555462593
 20
240.1538216561
 30
0.0
 11
98.2555462593
 21
196.9719885504
 31
0.0
  0
LINE
  5
46D
330
466
100
AcDbEntity
  8
DIMENSION_-_BEMAßUNG
100
AcDbLine
 10
50.2555462593
 20
197.9719885504
 30
0.0
 11
98.2555462593
 21
197.9719885504
 31
0.0
  0
MTEXT
  5
46E
330
466
100
AcDbEntity
  8
DIMENSION_-_BEMAßUNG
100
AcDbMText
 10
69.9609688405
 20
201.1946581326
 30
0.0
 40
2.5
 41
0.0
 71
     1
 72
     1
  1
%%c
  7
SLDTEXTSTYLE3
 73
     1
 44
1.0
  0
MTEXT
  5
46F
330
466
100
AcDbEntity
  8
DIMENSION_-_BEMAßUNG
100
AcDbMText
 10
73.7312813677
 20
201.2328525445
 30
0.0
 40
2.5
 41
0.0
 71
     1
 72
     1
  1
48
  7
SLDTEXTSTYLE3
 73
     1
 44
1.0
  0
ENDBLK
  5
468
330
466
100
AcDbEntity
  8
0
100
AcDbBlockEnd
  0
ENDSEC
  0
SECTION
  2
ENTITIES
  0
ARC
  5
190
330
1F
100
AcDbEntity
  8
0
  6
Continuous
 62
     7
370
    30
100
AcDbCircle
 10
168.54545414
 20
232.1538216561
 30
0.0
 40
0.5
100
AcDbArc
 50
0.0
 51
90.0
  0
ARC
  5
191
330
1F
100
AcDbEntity
  8
0
  6
Continuous
 62
     7
370
    30
100
AcDbCircle
 10
168.54545414
 20
248.1538216561
 30
0.0
 40
0.5
100
AcDbArc
 50
270.0
 51
0.0
  0
ARC
  5
192
330
1F
100
AcDbEntity
  8
0
  6
Continuous
 62
     7
370
    30
100
AcDbCircle
 10
155.5563609152
 20
216.3538216561
 30
0.0
 40
0.2000000000000298
100
AcDbArc
 50
189.3990934883
 51
350.6009065117
  0
ARC
  5
193
330
1F
100
AcDbEntity
  8
0
  6
Continuous
 62
     7
370
    30
100
AcDbCircle
 10
155.5563609152
 20
263.9538216561
 30
0.0
 40
0.2000000000000298
100
AcDbArc
 50
9.3990934883
 51
170.6009065117
  0
ARC
  5
194
330
1F
100
AcDbEntity
  8
0
  6
Continuous
 62
     7
370
    30
100
AcDbCircle
 10
158.14545414
 20
216.3538216561
 30
0.0
 40
0.2000000000000018
100
AcDbArc
 50
189.3990934883
 51
350.6009065117
  0
ARC
  5
195
330
1F
100
AcDbEntity
  8
0
  6
Continuous
 62
     7
370
    30
100
AcDbCircle
 10
158.14545414
 20
263.9538216561
 30
0.0
 40
0.2000000000000018
100
AcDbArc
 50
9.3990934883
 51
170.6009065117
  0
ARC
  5
196
330
1F
100
AcDbEntity
  8
0
  6
Continuous
 62
     7
370
    30
100
AcDbCircle
 10
152.9672676905
 20
216.3538216561
 30
0.0
 40
0.2000000000000251
100
AcDbArc
 50
189.3990934883
 51
350.6009065117
  0
ARC
  5
197
330
1F
100
AcDbEntity
  8
0
  6
Continuous
 62
     7
370
    30
100
AcDbCircle
 10
152.9672676905
 20
263.9538216561
 30
0.0
 40
0.2000000000000205
100
AcDbArc
 50
9.3990934883
 51
170.6009065117
  0
LINE
  5
198
330
1F
100
AcDbEntity
  8
0
  6
Continuous
 62
     7
370
    30
100
AcDbLine
 10
153.1645826578
 20
216.321159625
 30
0.0
 11
153.5672679126
 21
218.753820756
 31
0.0
  0
LINE
  5
199
330
1F
100
AcDbEntity
  8
0
  6
Continuous
 62
     7
370
    30
100
AcDbLine
 10
153.5672679126
 20
261.5538225561
 30
0.0
 11
153.1645826578
 21
263.9864836871
 31
0.0
  0
LINE
  5
19A
330
1F
100
AcDbEntity
  8
0
  6
Continuous
 62
     7
370
    30
100
AcDbLine
 10
152.769952412
 20
263.9864836871
 30
0.0
 11
152.3672671572
 21
261.5538225561
 31
0.0
  0
LINE
  5
19B
330
1F
100
AcDbEntity
  8
0
  6
Continuous
 62
     7
370
    30
100
AcDbLine
 10
152.3672671572
 20
218.753820756
 30
0.0
 11
152.769952412
 21
216.321159625
 31
0.0
  0
LINE
  5
19C
330
1F
100
AcDbEntity
  8
0
  6
Continuous
 62
     7
370
    30
100
AcDbLine
 10
158.342768769
 20
216.321159625
 30
0.0
 11
158.7454540238
 21
218.753820756
 31
0.0
  0
LINE
  5
19D
330
1F
100
AcDbEntity
  8
0
  6
Continuous
 62
     7
370
    30
100
AcDbLine
 10
158.7454540238
 20
261.5538225561
 30
0.0
 11
158.342768769
 21
263.9864836871
 31
0.0
  0
LINE
  5
19E
330
1F
100
AcDbEntity
  8
0
  6
Continuous
 62
     7
370
    30
100
AcDbLine
 10
155.3590459332
 20
263.9864836871
 30
0.0
 11
154.9563606784
 21
261.5538225561
 31
0.0
  0
LINE
  5
19F
330
1F
100
AcDbEntity
  8
0
  6
Continuous
 62
     7
370
    30
100
AcDbLine
 10
154.9563606784
 20
218.753820756
 30
0.0
 11
155.3590459332
 21
216.321159625
 31
0.0
  0
LINE
  5
1A0
330
1F
100
AcDbEntity
  8
0
  6
Continuous
 62
     7
370
    30
100
AcDbLine
 10
157.9481394544
 20
263.9864836871
 30
0.0
 11
157.5454541996
 21
261.5538225561
 31
0.0
  0
LINE
  5
1A1
330
1F
100
AcDbEntity
  8
0
  6
Continuous
 62
     7
370
    30
100
AcDbLine
 10
157.5454541996
 20
218.753820756
 30
0.0
 11
157.9481394544
 21
216.321159625
 31
0.0
  0
LINE
  5
1A2
330
1F
100
AcDbEntity
  8
0
  6
Continuous
 62
     7
370
    30
100
AcDbLine
 10
155.7536761791
 20
216.321159625
 30
0.0
 11
156.1563605026
 21
218.753820756
 31
0.0
  0
LINE
  5
1A3
330
1F
100
AcDbEntity
  8
0
  6
Continuous
 62
     7
370
    30
100
AcDbLine
 10
156.1563605026
 20
261.5538225561
 30
0.0
 11
155.7536761791
 21
263.9864836871
 31
0.0
  0
LINE
  5
1A4
330
1F
100
AcDbEntity
  8
0
  6
Continuous
 62
     7
370
    30
100
AcDbLine
 10
153.9440018639
 20
218.753820756
 30
0.0
 11
154.5796267271
 21
218.753820756
 31
0.0
  0
LINE
  5
1A5
330
1F
100
AcDbEntity
  8
0
  6
Continuous
 62
     7
370
    30
100
AcDbLine
 10
154.5796267271
 20
261.5538225561
 30
0.0
 11
153.9440018639
 21
261.5538225561
 31
0.0
  0
ARC
  5
1A6
330
1F
100
AcDbEntity
  8
0
  6
Continuous
 62
     7
370
    30
100
AcDbCircle
 10
156.5330948164
 20
261.3538216561
 30
0.0
 40
0.2000000000000455
100
AcDbArc
 50
90.0
 51
120.0
  0
ARC
  5
1A7
330
1F
100
AcDbEntity
  8
0
  6
Continuous
 62
     7
370
    30
100
AcDbCircle
 10
156.5330948164
 20
218.9538216561
 30
0.0
 40
0.2000000000000171
100
AcDbArc
 50
240.0
 51
270.0
  0
ARC
  5
1A8
330
1F
100
AcDbEntity
  8
0
  6
Continuous
 62
     7
370
    30
100
AcDbCircle
 10
154.5796270141
 20
261.3538216561
 30
0.0
 40
0.2000000000000475
100
AcDbArc
 50
60.0
 51
90.0
  0
ARC
  5
1A9
330
1F
100
AcDbEntity
  8
0
  6
Continuous
 62
     7
370
    30
100
AcDbCircle
 10
154.5796270141
 20
218.9538216561
 30
0.0
 40
0.2000000000000229
100
AcDbArc
 50
270.0
 51
300.0
  0
ARC
  5
1AA
330
1F
100
AcDbEntity
  8
0
  6
Continuous
 62
     7
370
    30
100
AcDbCircle
 10
158.8633682016
 20
218.7343030265
 30
0.0
 40
0.1195186295963475
100
AcDbArc
 50
60.0
 51
170.6009065117
  0
ARC
  5
1AB
330
1F
100
AcDbEntity
  8
0
  6
Continuous
 62
     7
370
    30
100
AcDbCircle
 10
158.8633682016
 20
261.5733402856
 30
0.0
 40
0.1195186295963382
100
AcDbArc
 50
189.3990934883
 51
300.0
  0
ARC
  5
1AC
330
1F
100
AcDbEntity
  8
0
  6
Continuous
 62
     7
370
    30
100
AcDbCircle
 10
152.2493536289
 20
218.7343030265
 30
0.0
 40
0.1195186295963475
100
AcDbArc
 50
9.3990934883
 51
120.0
  0
ARC
  5
1AD
330
1F
100
AcDbEntity
  8
0
  6
Continuous
 62
     7
370
    30
100
AcDbCircle
 10
152.2493536289
 20
261.5733402856
 30
0.0
 40
0.1195186295963382
100
AcDbArc
 50
240.0
 51
350.6009065117
  0
ARC
  5
1AE
330
1F
100
AcDbEntity
  8
0
  6
Continuous
 62
     7
370
    30
100
AcDbCircle
 10
156.2742749768
 20
218.7343030265
 30
0.0
 40
0.1195186295963416
100
AcDbArc
 50
60.0
 51
170.6009065117
  0
ARC
  5
1AF
330
1F
100
AcDbEntity
  8
0
  6
Continuous
 62
     7
370
    30
100
AcDbCircle
 10
156.2742749768
 20
261.5733402856
 30
0.0
 40
0.119518629596317
100
AcDbArc
 50
189.3990934883
 51
300.0
  0
ARC
  5
1B0
330
1F
100
AcDbEntity
  8
0
  6
Continuous
 62
     7
370
    30
100
AcDbCircle
 10
157.4275400784
 20
218.7343030265
 30
0.0
 40
0.1195186295963416
100
AcDbArc
 50
9.3990934883
 51
120.0
  0
ARC
  5
1B1
330
1F
100
AcDbEntity
  8
0
  6
Continuous
 62
     7
370
    30
100
AcDbCircle
 10
157.4275400784
 20
261.5733402856
 30
0.0
 40
0.1195186295963195
100
AcDbArc
 50
240.0
 51
350.6009065117
  0
LINE
  5
1B2
330
1F
100
AcDbEntity
  8
0
  6
Continuous
 62
     7
370
    30
100
AcDbLine
 10
151.0334008888
 20
218.753820756
 30
0.0
 11
151.9905341372
 21
218.753820756
 31
0.0
  0
LINE
  5
1B3
330
1F
100
AcDbEntity
  8
0
  6
Continuous
 62
     7
370
    30
100
AcDbLine
 10
151.9905341372
 20
261.5538225561
 30
0.0
 11
151.0334008888
 21
261.5538225561
 31
0.0
  0
ARC
  5
1B4
330
1F
100
AcDbEntity
  8
0
  6
Continuous
 62
     7
370
    30
100
AcDbCircle
 10
154.8384468537
 20
218.7343030265
 30
0.0
 40
0.1195186295963416
100
AcDbArc
 50
9.3990934883
 51
120.0
  0
ARC
  5
1B5
330
1F
100
AcDbEntity
  8
0
  6
Continuous
 62
     7
370
    30
100
AcDbCircle
 10
154.8384468537
 20
261.5733402856
 30
0.0
 40
0.1195186295963382
100
AcDbArc
 50
240.0
 51
350.6009065117
  0
ARC
  5
1B6
330
1F
100
AcDbEntity
  8
0
  6
Continuous
 62
     7
370
    30
100
AcDbCircle
 10
151.9905337894
 20
261.3538216561
 30
0.0
 40
0.2000000000000455
100
AcDbArc
 50
60.0
 51
90.0
  0
ARC
  5
1B7
330
1F
100
AcDbEntity
  8
0
  6
Continuous
 62
     7
370
    30
100
AcDbCircle
 10
151.9905337894
 20
218.9538216561
 30
0.0
 40
0.2000000000000333
100
AcDbArc
 50
270.0
 51
300.0
  0
ARC
  5
1B8
330
1F
100
AcDbEntity
  8
0
  6
Continuous
 62
     7
370
    30
100
AcDbCircle
 10
160.0793201024
 20
261.2538216561
 30
0.0
 40
0.3000000000000114
100
AcDbArc
 50
0.0
 51
90.0
  0
ARC
  5
1B9
330
1F
100
AcDbEntity
  8
0
  6
Continuous
 62
     7
370
    30
100
AcDbCircle
 10
160.0793201024
 20
219.0538216561
 30
0.0
 40
0.3000000000000114
100
AcDbArc
 50
270.0
 51
0.0
  0
LINE
  5
1BA
330
1F
100
AcDbEntity
  8
0
  6
Continuous
 62
     7
370
    30
100
AcDbLine
 10
160.3793197826
 20
219.053822109
 30
0.0
 11
160.3793197826
 21
261.2538212031
 31
0.0
  0
ARC
  5
1BB
330
1F
100
AcDbEntity
  8
0
  6
Continuous
 62
     7
370
    30
100
AcDbCircle
 10
157.1687202389
 20
261.3538216561
 30
0.0
 40
0.2000000000000475
100
AcDbArc
 50
60.0
 51
90.0
  0
ARC
  5
1BC
330
1F
100
AcDbEntity
  8
0
  6
Continuous
 62
     7
370
    30
100
AcDbCircle
 10
157.1687202389
 20
218.9538216561
 30
0.0
 40
0.2000000000000475
100
AcDbArc
 50
270.0
 51
300.0
  0
LINE
  5
1BD
330
1F
100
AcDbEntity
  8
0
  6
Continuous
 62
     7
370
    30
100
AcDbLine
 10
159.1221879751
 20
218.753820756
 30
0.0
 11
160.0793202922
 21
218.753820756
 31
0.0
  0
LINE
  5
1BE
330
1F
100
AcDbEntity
  8
0
  6
Continuous
 62
     7
370
    30
100
AcDbLine
 10
160.0793202922
 20
261.5538225561
 30
0.0
 11
159.1221879751
 21
261.5538225561
 31
0.0
  0
ARC
  5
1BF
330
1F
100
AcDbEntity
  8
0
  6
Continuous
 62
     7
370
    30
100
AcDbCircle
 10
153.685181752
 20
218.7343030265
 30
0.0
 40
0.1195186295963429
100
AcDbArc
 50
60.0
 51
170.6009065117
  0
ARC
  5
1C0
330
1F
100
AcDbEntity
  8
0
  6
Continuous
 62
     7
370
    30
100
AcDbCircle
 10
153.685181752
 20
261.5733402856
 30
0.0
 40
0.1195186295963382
100
AcDbArc
 50
189.3990934883
 51
300.0
  0
LINE
  5
1C1
330
1F
100
AcDbEntity
  8
0
  6
Continuous
 62
     7
370
    30
100
AcDbLine
 10
156.5330944538
 20
218.753820756
 30
0.0
 11
157.1687202484
 21
218.753820756
 31
0.0
  0
LINE
  5
1C2
330
1F
100
AcDbEntity
  8
0
  6
Continuous
 62
     7
370
    30
100
AcDbLine
 10
157.1687202484
 20
261.5538225561
 30
0.0
 11
156.5330944538
 21
261.5538225561
 31
0.0
  0
ARC
  5
1C3
330
1F
100
AcDbEntity
  8
0
  6
Continuous
 62
     7
370
    30
100
AcDbCircle
 10
151.033401728
 20
261.2538216561
 30
0.0
 40
0.3000000000000114
100
AcDbArc
 50
90.0
 51
180.0
  0
ARC
  5
1C4
330
1F
100
AcDbEntity
  8
0
  6
Continuous
 62
     7
370
    30
100
AcDbCircle
 10
151.033401728
 20
219.0538216561
 30
0.0
 40
0.3000000000000114
100
AcDbArc
 50
180.0
 51
270.0
  0
LINE
  5
1C5
330
1F
100
AcDbEntity
  8
0
  6
Continuous
 62
     7
370
    30
100
AcDbLine
 10
150.7334013984
 20
261.2538212031
 30
0.0
 11
150.7334013984
 21
219.053822109
 31
0.0
  0
ARC
  5
1C6
330
1F
100
AcDbEntity
  8
0
  6
Continuous
 62
     7
370
    30
100
AcDbCircle
 10
153.9440015916
 20
261.3538216561
 30
0.0
 40
0.2000000000000455
100
AcDbArc
 50
90.0
 51
120.0
  0
ARC
  5
1C7
330
1F
100
AcDbEntity
  8
0
  6
Continuous
 62
     7
370
    30
100
AcDbCircle
 10
153.9440015916
 20
218.9538216561
 30
0.0
 40
0.2000000000000171
100
AcDbArc
 50
240.0
 51
270.0
  0
ARC
  5
1C8
330
1F
100
AcDbEntity
  8
0
  6
Continuous
 62
     7
370
    30
100
AcDbCircle
 10
159.1221880411
 20
261.3538216561
 30
0.0
 40
0.2000000000000455
100
AcDbArc
 50
90.0
 51
120.0
  0
ARC
  5
1C9
330
1F
100
AcDbEntity
  8
0
  6
Continuous
 62
     7
370
    30
100
AcDbCircle
 10
159.1221880411
 20
218.9538216561
 30
0.0
 40
0.2000000000000191
100
AcDbArc
 50
240.0
 51
270.0
  0
LINE
  5
1CA
330
1F
100
AcDbEntity
  8
0
  6
Continuous
 62
     7
370
    30
100
AcDbLine
 10
152.0905339673
 20
218.7806167691
 30
0.0
 11
152.1895950243
 21
218.8378092884
 31
0.0
  0
LINE
  5
1CB
330
1F
100
AcDbEntity
  8
0
  6
Continuous
 62
     7
370
    30
100
AcDbLine
 10
152.1895950243
 20
261.4698340237
 30
0.0
 11
152.0905339673
 21
261.527026543
 31
0.0
  0
LINE
  5
1CC
330
1F
100
AcDbEntity
  8
0
  6
Continuous
 62
     7
370
    30
100
AcDbLine
 10
156.4330946237
 20
261.527026543
 30
0.0
 11
156.3340344981
 21
261.4698340237
 31
0.0
  0
LINE
  5
1CD
330
1F
100
AcDbEntity
  8
0
  6
Continuous
 62
     7
370
    30
100
AcDbLine
 10
156.3340344981
 20
218.8378092884
 30
0.0
 11
156.4330946237
 21
218.7806167691
 31
0.0
  0
LINE
  5
1CE
330
1F
100
AcDbEntity
  8
0
  6
Continuous
 62
     7
370
    30
100
AcDbLine
 10
157.2687200785
 20
218.7806167691
 30
0.0
 11
157.3677811355
 21
218.8378092884
 31
0.0
  0
LINE
  5
1CF
330
1F
100
AcDbEntity
  8
0
  6
Continuous
 62
     7
370
    30
100
AcDbLine
 10
157.3677811355
 20
261.4698340237
 30
0.0
 11
157.2687200785
 21
261.527026543
 31
0.0
  0
LINE
  5
1D0
330
1F
100
AcDbEntity
  8
0
  6
Continuous
 62
     7
370
    30
100
AcDbLine
 10
159.0221881449
 20
261.527026543
 30
0.0
 11
158.923127088
 21
261.4698340237
 31
0.0
  0
LINE
  5
1D1
330
1F
100
AcDbEntity
  8
0
  6
Continuous
 62
     7
370
    30
100
AcDbLine
 10
158.923127088
 20
218.8378092884
 30
0.0
 11
159.0221881449
 21
218.7806167691
 31
0.0
  0
LINE
  5
1D2
330
1F
100
AcDbEntity
  8
0
  6
Continuous
 62
     7
370
    30
100
AcDbLine
 10
154.6796265572
 20
218.7806167691
 30
0.0
 11
154.7786876142
 21
218.8378092884
 31
0.0
  0
LINE
  5
1D3
330
1F
100
AcDbEntity
  8
0
  6
Continuous
 62
     7
370
    30
100
AcDbLine
 10
154.7786876142
 20
261.4698340237
 30
0.0
 11
154.6796265572
 21
261.527026543
 31
0.0
  0
LINE
  5
1D4
330
1F
100
AcDbEntity
  8
0
  6
Continuous
 62
     7
370
    30
100
AcDbLine
 10
153.8440020338
 20
261.527026543
 30
0.0
 11
153.7449409768
 21
261.4698340237
 31
0.0
  0
LINE
  5
1D5
330
1F
100
AcDbEntity
  8
0
  6
Continuous
 62
     7
370
    30
100
AcDbLine
 10
153.7449409768
 20
218.8378092884
 30
0.0
 11
153.8440020338
 21
218.7806167691
 31
0.0
  0
LINE
  5
1D6
330
1F
100
AcDbEntity
  8
0
  6
Continuous
 62
     7
370
    30
100
AcDbLine
 10
140.2971831665
 20
217.7538224548
 30
0.0
 11
140.7937233851
 21
217.7538224548
 31
0.0
  0
LINE
  5
1D7
330
1F
100
AcDbEntity
  8
0
  6
Continuous
 62
     7
370
    30
100
AcDbLine
 10
140.7937233851
 20
262.5538208573
 30
0.0
 11
140.2971831665
 21
262.5538208573
 31
0.0
  0
ARC
  5
1D8
330
1F
100
AcDbEntity
  8
0
  6
Continuous
 62
     7
370
    30
100
AcDbCircle
 10
140.2971840294
 20
262.2538216561
 30
0.0
 40
0.2999999999999867
100
AcDbArc
 50
90.0
 51
170.0
  0
ARC
  5
1D9
330
1F
100
AcDbEntity
  8
0
  6
Continuous
 62
     7
370
    30
100
AcDbCircle
 10
140.2971840294
 20
218.0538216561
 30
0.0
 40
0.3000000000000114
100
AcDbArc
 50
190.0
 51
270.0
  0
ARC
  5
1DA
330
1F
100
AcDbEntity
  8
0
  6
Continuous
 62
     7
370
    30
100
AcDbCircle
 10
140.7937242507
 20
262.2538216561
 30
0.0
 40
0.2999999999999867
100
AcDbArc
 50
10.0
 51
90.0
  0
ARC
  5
1DB
330
1F
100
AcDbEntity
  8
0
  6
Continuous
 62
     7
370
    30
100
AcDbCircle
 10
140.7937242507
 20
218.0538216561
 30
0.0
 40
0.3000000000000114
100
AcDbArc
 50
270.0
 51
350.0
  0
LINE
  5
1DC
330
1F
100
AcDbEntity
  8
0
  6
Continuous
 62
     7
370
    30
100
AcDbLine
 10
141.0891668454
 20
218.0017274856
 30
0.0
 11
141.3367626772
 21
219.405916059
 31
0.0
  0
LINE
  5
1DD
330
1F
100
AcDbEntity
  8
0
  6
Continuous
 62
     7
370
    30
100
AcDbLine
 10
141.3367626772
 20
260.9017272531
 30
0.0
 11
141.0891668454
 21
262.3059158265
 31
0.0
  0
LINE
  5
1DE
330
1F
100
AcDbEntity
  8
0
  6
Continuous
 62
     7
370
    30
100
AcDbLine
 10
140.0017415688
 20
262.3059158265
 30
0.0
 11
139.754145737
 21
260.9017272531
 31
0.0
  0
LINE
  5
1DF
330
1F
100
AcDbEntity
  8
0
  6
Continuous
 62
     7
370
    30
100
AcDbLine
 10
139.754145737
 20
219.405916059
 30
0.0
 11
140.0017415688
 21
218.0017274856
 31
0.0
  0
ARC
  5
1E0
330
1F
100
AcDbEntity
  8
0
  6
Continuous
 62
     7
370
    30
100
AcDbCircle
 10
160.83014351
 20
261.6038216561
 30
0.0
 40
0.3000000000000089
100
AcDbArc
 50
90.0
 51
177.0
  0
ARC
  5
1E1
330
1F
100
AcDbEntity
  8
0
  6
Continuous
 62
     7
370
    30
100
AcDbCircle
 10
160.83014351
 20
218.7038216561
 30
0.0
 40
0.3000000000000114
100
AcDbArc
 50
183.0
 51
270.0
  0
ARC
  5
1E2
330
1F
100
AcDbEntity
  8
0
  6
Continuous
 62
     7
370
    30
100
AcDbCircle
 10
150.2563744308
 20
261.6038216561
 30
0.0
 40
0.3000000000000089
100
AcDbArc
 50
3.0
 51
90.0
  0
ARC
  5
1E3
330
1F
100
AcDbEntity
  8
0
  6
Continuous
 62
     7
370
    30
100
AcDbCircle
 10
150.2563744308
 20
218.7038216561
 30
0.0
 40
0.3000000000000114
100
AcDbArc
 50
270.0
 51
357.0
  0
LINE
  5
1E4
330
1F
100
AcDbEntity
  8
0
  6
Continuous
 62
     7
370
    30
100
AcDbLine
 10
179.4572960168
 20
261.9038210302
 30
0.0
 11
160.8301437043
 21
261.9038210302
 31
0.0
  0
LINE
  5
1E5
330
1F
100
AcDbEntity
  8
0
  6
Continuous
 62
     7
370
    30
100
AcDbLine
 10
160.8301437043
 20
218.4038222819
 30
0.0
 11
179.4572960168
 21
218.4038222819
 31
0.0
  0
ARC
  5
1E6
330
1F
100
AcDbEntity
  8
0
  6
Continuous
 62
     7
370
    30
100
AcDbCircle
 10
147.4226987044
 20
256.9038216561
 30
0.0
 40
5.0
100
AcDbArc
 50
90.0
 51
110.0
  0
ARC
  5
1E7
330
1F
100
AcDbEntity
  8
0
  6
Continuous
 62
     7
370
    30
100
AcDbCircle
 10
147.4226987044
 20
223.4038216561
 30
0.0
 40
5.000000000000033
100
AcDbArc
 50
250.0
 51
270.0
  0
LINE
  5
1E8
330
1F
100
AcDbEntity
  8
0
  6
Continuous
 62
     7
370
    30
100
AcDbLine
 10
150.2563742504
 20
261.9038210302
 30
0.0
 11
147.4226986572
 21
261.9038210302
 31
0.0
  0
LINE
  5
1E9
330
1F
100
AcDbEntity
  8
0
  6
Continuous
 62
     7
370
    30
100
AcDbLine
 10
147.4226986572
 20
218.4038222819
 30
0.0
 11
150.2563742504
 21
218.4038222819
 31
0.0
  0
LINE
  5
1EA
330
1F
100
AcDbEntity
  8
0
  6
Continuous
 62
     7
370
    30
100
AcDbLine
 10
150.5559639588
 20
218.6881215363
 30
0.0
 11
150.6283593878
 21
220.0695225089
 31
0.0
  0
LINE
  5
1EB
330
1F
100
AcDbEntity
  8
0
  6
Continuous
 62
     7
370
    30
100
AcDbLine
 10
150.6283593878
 20
260.2381208032
 30
0.0
 11
150.5559639588
 21
261.6195217758
 31
0.0
  0
LINE
  5
1EC
330
1F
100
AcDbEntity
  8
0
  6
Continuous
 62
     7
370
    30
100
AcDbLine
 10
160.5305544615
 20
261.6195217758
 30
0.0
 11
160.4581581012
 21
260.2381208032
 31
0.0
  0
LINE
  5
1ED
330
1F
100
AcDbEntity
  8
0
  6
Continuous
 62
     7
370
    30
100
AcDbLine
 10
160.4581581012
 20
220.0695225089
 30
0.0
 11
160.5305544615
 21
218.6881215363
 31
0.0
  0
LINE
  5
1EE
330
1F
100
AcDbEntity
  8
0
  6
Continuous
 62
     7
370
    30
100
AcDbLine
 10
145.7125985578
 20
261.6022848576
 30
0.0
 11
143.9351824627
 21
260.9553583949
 31
0.0
  0
LINE
  5
1EF
330
1F
100
AcDbEntity
  8
0
  6
Continuous
 62
     7
370
    30
100
AcDbLine
 10
143.9351824627
 20
219.3522849172
 30
0.0
 11
145.7125985578
 21
218.7053584545
 31
0.0
  0
ARC
  5
1F0
330
1F
100
AcDbEntity
  8
0
  6
Continuous
 62
     7
370
    30
100
AcDbCircle
 10
142.225082123
 20
214.6538216561
 30
0.0
 40
5.0
100
AcDbArc
 50
70.0
 51
90.0
  0
ARC
  5
1F1
330
1F
100
AcDbEntity
  8
0
  6
Continuous
 62
     7
370
    30
100
AcDbCircle
 10
142.225082123
 20
265.6538216561
 30
0.0
 40
5.000000000000013
100
AcDbArc
 50
270.0
 51
290.0
  0
ARC
  5
1F2
330
1F
100
AcDbEntity
  8
0
  6
Continuous
 62
     7
370
    30
100
AcDbCircle
 10
139.4587029873
 20
219.3538216561
 30
0.0
 40
0.3000000000000114
100
AcDbArc
 50
10.0
 51
90.0
  0
ARC
  5
1F3
330
1F
100
AcDbEntity
  8
0
  6
Continuous
 62
     7
370
    30
100
AcDbCircle
 10
139.4587029873
 20
260.9538216561
 30
0.0
 40
0.3000000000000114
100
AcDbArc
 50
270.0
 51
350.0
  0
ARC
  5
1F4
330
1F
100
AcDbEntity
  8
0
  6
Continuous
 62
     7
370
    30
100
AcDbCircle
 10
141.6322052927
 20
219.3538216561
 30
0.0
 40
0.3000000000000196
100
AcDbArc
 50
90.0
 51
170.0
  0
ARC
  5
1F5
330
1F
100
AcDbEntity
  8
0
  6
Continuous
 62
     7
370
    30
100
AcDbCircle
 10
141.6322052927
 20
260.9538216561
 30
0.0
 40
0.3000000000000148
100
AcDbArc
 50
190.0
 51
270.0
  0
LINE
  5
1F6
330
1F
100
AcDbEntity
  8
0
  6
Continuous
 62
     7
370
    30
100
AcDbLine
 10
138.0454537973
 20
219.6538210898
 30
0.0
 11
139.4587022767
 21
219.6538210898
 31
0.0
  0
LINE
  5
1F7
330
1F
100
AcDbEntity
  8
0
  6
Continuous
 62
     7
370
    30
100
AcDbLine
 10
139.4587022767
 20
260.6538222223
 30
0.0
 11
138.0454537973
 21
260.6538222223
 31
0.0
  0
LINE
  5
1F8
330
1F
100
AcDbEntity
  8
0
  6
Continuous
 62
     7
370
    30
100
AcDbLine
 10
141.6322061375
 20
219.6538210898
 30
0.0
 11
142.2250823632
 21
219.6538210898
 31
0.0
  0
LINE
  5
1F9
330
1F
100
AcDbEntity
  8
0
  6
Continuous
 62
     7
370
    30
100
AcDbLine
 10
142.2250823632
 20
260.6538222223
 30
0.0
 11
141.6322061375
 21
260.6538222223
 31
0.0
  0
ARC
  5
1FA
330
1F
100
AcDbEntity
  8
0
  6
Continuous
 62
     7
370
    30
100
AcDbCircle
 10
160.1585696004
 20
220.0538216561
 30
0.0
 40
0.2999999999999999
100
AcDbArc
 50
3.0
 51
42.7380100887
  0
ARC
  5
1FB
330
1F
100
AcDbEntity
  8
0
  6
Continuous
 62
     7
370
    30
100
AcDbCircle
 10
160.1585696004
 20
260.2538216561
 30
0.0
 40
0.3000000000000192
100
AcDbArc
 50
317.2619899113
 51
357.0
  0
ARC
  5
1FC
330
1F
100
AcDbEntity
  8
0
  6
Continuous
 62
     7
370
    30
100
AcDbCircle
 10
150.9279483404
 20
220.0538216561
 30
0.0
 40
0.3000000000000245
100
AcDbArc
 50
130.3246804459
 51
177.0
  0
ARC
  5
1FD
330
1F
100
AcDbEntity
  8
0
  6
Continuous
 62
     7
370
    30
100
AcDbCircle
 10
150.9279483404
 20
260.2538216561
 30
0.0
 40
0.3000000000000679
100
AcDbArc
 50
183.0
 51
229.6753195541
  0
SPLINE
  5
1FE
330
1F
100
AcDbEntity
  8
0
  6
Continuous
 62
     7
370
    30
100
AcDbSpline
210
0.0
220
0.0
230
1.0
 70
     8
 71
     3
 72
    12
 73
     8
 74
     0
 42
0.000000001
 43
0.00000001
 40
0.0
 40
0.0
 40
0.0
 40
0.0
 40
0.070070892359977
 40
0.3506971337838443
 40
0.6291425885407446
 40
0.9287936380113466
 40
1.0
 40
1.0
 40
1.0
 40
1.0
 10
168.5898118555487
 20
223.5752181201603
 30
0.0
 10
168.5907930526283
 20
223.5735178795311
 30
0.0
 10
168.5957038364343
 20
223.5650083615936
 30
0.0
 10
168.5740684852547
 20
223.6184977968283
 30
0.0
 10
168.5550994684171
 20
223.7506308686417
 30
0.0
 10
168.5444095192083
 20
223.8989633759422
 30
0.0
 10
168.5462789022838
 20
224.0080317419651
 30
0.0
 10
168.5466378326
 20
224.0289733796742
 30
0.0
  0
SPLINE
  5
1FF
330
1F
100
AcDbEntity
  8
0
  6
Continuous
 62
     7
370
    30
100
AcDbSpline
210
0.0
220
0.0
230
1.0
 70
     8
 71
     3
 72
    11
 73
     7
 74
     0
 42
0.000000001
 43
0.00000001
 40
0.0
 40
0.0
 40
0.0
 40
0.0
 40
0.3256847525473119
 40
0.5889947422275305
 40
0.8638452379240191
 40
1.0
 40
1.0
 40
1.0
 40
1.0
 10
168.5454712229325
 20
256.282268562856
 30
0.0
 10
168.5472076608357
 20
256.3675158540634
 30
0.0
 10
168.5503479760859
 20
256.5216839749765
 30
0.0
 10
168.5711622430285
 20
256.6721307936961
 30
0.0
 10
168.5910165423222
 20
256.7347137655679
 30
0.0
 10
168.5891334094335
 20
256.730539176495
 30
0.0
 10
168.5885095791891
 20
256.7291562497046
 30
0.0
  0
SPLINE
  5
200
330
1F
100
AcDbEntity
  8
0
  6
Continuous
 62
     7
370
    30
100
AcDbSpline
210
0.0
220
0.0
230
1.0
 70
     8
 71
     3
 72
    18
 73
    14
 74
     0
 42
0.000000001
 43
0.00000001
 40
0.0
 40
0.0
 40
0.0
 40
0.0
 40
0.0453233319737748
 40
0.1402648695600227
 40
0.2407827532773961
 40
0.328145236519801
 40
0.4220252686133241
 40
0.518401308940996
 40
0.6189821703921331
 40
0.7212849808816841
 40
0.8260656658412736
 40
0.9335062055582398
 40
1.0
 40
1.0
 40
1.0
 40
1.0
 10
168.5906438067322
 20
256.7292456566718
 30
0.0
 10
168.5952534517576
 20
256.737280436828
 30
0.0
 10
168.6095192003257
 20
256.7621461592158
 30
0.0
 10
168.6875003049767
 20
256.84381810183
 30
0.0
 10
168.8368633911926
 20
256.9561286652325
 30
0.0
 10
169.0546108335271
 20
257.0776248744804
 30
0.0
 10
169.3351209356938
 20
257.1991420652947
 30
0.0
 10
169.6844095268838
 20
257.3190290552742
 30
0.0
 10
170.0949928280959
 20
257.4306154663452
 30
0.0
 10
170.5600756322975
 20
257.531724443422
 30
0.0
 10
171.0672958028919
 20
257.6193768280242
 30
0.0
 10
171.53617530935
 20
257.6854135374923
 30
0.0
 10
171.8354074070192
 20
257.7150926946464
 30
0.0
 10
171.9498015988792
 20
257.7264388143446
 30
0.0
  0
SPLINE
  5
201
330
1F
100
AcDbEntity
  8
0
  6
Continuous
 62
     7
370
    30
100
AcDbSpline
210
0.0
220
0.0
230
1.0
 70
     8
 71
     3
 72
    18
 73
    14
 74
     0
 42
0.000000001
 43
0.00000001
 40
0.0
 40
0.0
 40
0.0
 40
0.0
 40
0.0248811262581615
 40
0.1315197583639538
 40
0.2384381341545813
 40
0.343472159239965
 40
0.4469150890581877
 40
0.5479184845293098
 40
0.6435999607559764
 40
0.7408401859705012
 40
0.8341433034296392
 40
0.9270245383503464
 40
1.0
 40
1.0
 40
1.0
 40
1.0
 10
171.9494523529138
 20
222.580764913502
 30
0.0
 10
171.906597961222
 20
222.584599091389
 30
0.0
 10
171.6800728762379
 20
222.6048662667571
 30
0.0
 10
171.2748752232908
 20
222.6581802645756
 30
0.0
 10
170.7501972135501
 20
222.7401651056862
 30
0.0
 10
170.2606162053575
 20
222.8383232367187
 30
0.0
 10
169.8191610331509
 20
222.9490695758317
 30
0.0
 10
169.4392401385706
 20
223.0691076421288
 30
0.0
 10
169.1270137136873
 20
223.19528050966
 30
0.0
 10
168.8834955878193
 20
223.3224697074242
 30
0.0
 10
168.7191871946375
 20
223.4365529540285
 30
0.0
 10
168.6228960624875
 20
223.5288636831624
 30
0.0
 10
168.6003249755845
 20
223.5632611953625
 30
0.0
 10
168.5903938994161
 20
223.5783957927849
 30
0.0
  0
SPLINE
  5
202
330
1F
100
AcDbEntity
  8
0
  6
Continuous
 62
     7
370
    30
100
AcDbSpline
210
0.0
220
0.0
230
1.0
 70
     8
 71
     3
 72
     9
 73
     5
 74
     0
 42
0.000000001
 43
0.00000001
 40
0.0
 40
0.0
 40
0.0
 40
0.0
 40
0.7000112738091426
 40
1.0
 40
1.0
 40
1.0
 40
1.0
 10
180.274570691603
 20
221.7524577915099
 30
0.0
 10
178.3316779411612
 20
221.9426826707019
 30
0.0
 10
175.5561615700184
 20
222.2144281215385
 30
0.0
 10
172.7818503999696
 20
222.4981982201644
 30
0.0
 10
171.9495883260097
 20
222.5833260505822
 30
0.0
  0
LINE
  5
203
330
1F
100
AcDbEntity
  8
0
  6
Continuous
 62
     7
370
    30
100
AcDbLine
 10
171.9494076494
 20
257.7257067948
 30
0.0
 11
180.274736467
 21
258.5535221785
 31
0.0
  0
SPLINE
  5
204
330
1F
100
AcDbEntity
  8
0
  6
Continuous
 62
     7
370
    30
100
AcDbSpline
210
0.0
220
0.0
230
1.0
 70
     8
 71
     3
 72
    16
 73
    12
 74
     0
 42
0.000000001
 43
0.00000001
 40
0.0
 40
0.0
 40
0.0
 40
0.0
 40
0.0671634270421099
 40
0.1877242190824306
 40
0.3101794594128164
 40
0.4313369936000468
 40
0.5537838375342633
 40
0.6749139628703298
 40
0.7967098598807776
 40
0.9171858108679831
 40
1.0
 40
1.0
 40
1.0
 40
1.0
 10
182.535205367225
 20
219.2667988180544
 30
0.0
 10
182.5351016034116
 20
219.3492068415015
 30
0.0
 10
182.534811579783
 20
219.5795402614747
 30
0.0
 10
182.4490289802981
 20
219.9534295207724
 30
0.0
 10
182.2869102090791
 20
220.3703435050598
 30
0.0
 10
182.0503010683226
 20
220.7543504667505
 30
0.0
 10
181.7517007686307
 20
221.0893774422208
 30
0.0
 10
181.3985521885457
 20
221.3685179610484
 30
0.0
 10
181.0031986424375
 20
221.5760219618226
 30
0.0
 10
180.6232173550943
 20
221.7066987126721
 30
0.0
 10
180.3749950400453
 20
221.7315681177004
 30
0.0
 10
180.2738768562849
 20
221.7416991531279
 30
0.0
  0
SPLINE
  5
205
330
1F
100
AcDbEntity
  8
0
  6
Continuous
 62
     7
370
    30
100
AcDbSpline
210
0.0
220
0.0
230
1.0
 70
     8
 71
     3
 72
    16
 73
    12
 74
     0
 42
0.000000001
 43
0.00000001
 40
0.0
 40
0.0
 40
0.0
 40
0.0
 40
0.0735078060582799
 40
0.1902056287124436
 40
0.3089883741762231
 40
0.4263914886782075
 40
0.5457405132555808
 40
0.6643147667827639
 40
0.7842889218062893
 40
0.9039302081485846
 40
1.0
 40
1.0
 40
1.0
 40
1.0
 10
180.2734000191267
 20
258.5664955019381
 30
0.0
 10
180.3644091978944
 20
258.5747697224983
 30
0.0
 10
180.5999006238307
 20
258.5961797387694
 30
0.0
 10
180.9675538950843
 20
258.7171124384722
 30
0.0
 10
181.3596570798431
 20
258.9150560518963
 30
0.0
 10
181.7134197449265
 20
259.1830125693426
 30
0.0
 10
182.0148606912954
 20
259.5076562351399
 30
0.0
 10
182.2584103099711
 20
259.8821187908574
 30
0.0
 10
182.4306816787181
 20
260.2936366252777
 30
0.0
 10
182.5318080708081
 20
260.7014583728412
 30
0.0
 10
182.5367269367645
 20
260.9697684849419
 30
0.0
 10
182.5389176190074
 20
261.0892639547017
 30
0.0
  0
ARC
  5
206
330
1F
100
AcDbEntity
  8
0
  6
Continuous
 62
     7
370
    30
100
AcDbCircle
 10
179.457296146
 20
217.4038216561
 30
0.0
 40
1.00000000000001
100
AcDbArc
 50
5.0
 51
90.4053488052
  0
ARC
  5
207
330
1F
100
AcDbEntity
  8
0
  6
Continuous
 62
     7
370
    30
100
AcDbCircle
 10
179.457296146
 20
262.9038216561
 30
0.0
 40
1.00000000000001
100
AcDbArc
 50
269.4561802127
 51
355.0
  0
SPLINE
  5
208
330
1F
100
AcDbEntity
  8
0
  6
Continuous
 62
     7
370
    30
100
AcDbSpline
210
0.0
220
0.0
230
1.0
 70
     8
 71
     3
 72
    21
 73
    17
 74
     0
 42
0.000000001
 43
0.00000001
 40
0.0
 40
0.0
 40
0.0
 40
0.0
 40
0.0731533900734685
 40
0.149387129904754
 40
0.2228656503164071
 40
0.2961517515482129
 40
0.3697107422850375
 40
0.4421196505285565
 40
0.5122149314594722
 40
0.5790712998189826
 40
0.6439166528590555
 40
0.7183028150374379
 40
0.8009359472307876
 40
0.8991481019047622
 40
0.9894868255182953
 40
1.0
 40
1.0
 40
1.0
 40
1.0
 10
172.9697257794614
 20
222.4794277041581
 30
0.0
 10
172.7654250404458
 20
222.5051330797836
 30
0.0
 10
172.3482208478812
 20
222.5576262353839
 30
0.0
 10
171.7474938145115
 20
222.6563064450211
 30
0.0
 10
171.1756707364978
 20
222.7695548936808
 30
0.0
 10
170.6483744393298
 20
222.8986991792343
 30
0.0
 10
170.1686450437592
 20
223.0434094818705
 30
0.0
 10
169.7494191722092
 20
223.2007578914029
 30
0.0
 10
169.4026329705995
 20
223.3651197103343
 30
0.0
 10
169.1400341227881
 20
223.5252051918169
 30
0.0
 10
168.9362422655641
 20
223.6899500680297
 30
0.0
 10
168.7780427429996
 20
223.8654784058709
 30
0.0
 10
168.6562339007801
 20
224.0633113148839
 30
0.0
 10
168.582925549738
 20
224.2922644410768
 30
0.0
 10
168.5482872368443
 20
224.4773901273755
 30
0.0
 10
168.5559002102284
 20
224.5948223585293
 30
0.0
 10
168.5566938147021
 20
224.6070639281895
 30
0.0
  0
SPLINE
  5
209
330
1F
100
AcDbEntity
  8
0
  6
Continuous
 62
     7
370
    30
100
AcDbSpline
210
0.0
220
0.0
230
1.0
 70
     8
 71
     3
 72
    20
 73
    16
 74
     0
 42
0.000000001
 43
0.00000001
 40
0.0
 40
0.0
 40
0.0
 40
0.0
 40
0.067311573694283
 40
0.1564516144138341
 40
0.2670788955380359
 40
0.349096068181497
 40
0.4241977295942559
 40
0.4902666524465824
 40
0.5612312186376187
 40
0.6318208424476108
 40
0.7059988469579886
 40
0.7834082371216173
 40
0.8634375914548126
 40
0.9452459115744726
 40
1.0
 40
1.0
 40
1.0
 40
1.0
 10
168.5501862737001
 20
255.7569504767087
 30
0.0
 10
168.5526140853606
 20
255.8249189199755
 30
0.0
 10
168.5582570236093
 20
255.982897289737
 30
0.0
 10
168.6186717860915
 20
256.1808331354421
 30
0.0
 10
168.7245902170219
 20
256.3843513731036
 30
0.0
 10
168.8935818398823
 20
256.5807687086361
 30
0.0
 10
169.0949794346673
 20
256.7503272205558
 30
0.0
 10
169.3445418712004
 20
256.9099536465984
 30
0.0
 10
169.6582199417024
 20
257.0675311229286
 30
0.0
 10
170.0434715520471
 20
257.2226743513191
 30
0.0
 10
170.4920103322525
 20
257.3695986511112
 30
0.0
 10
171.004788051036
 20
257.5066885265466
 30
0.0
 10
171.5738834375887
 20
257.6293628216038
 30
0.0
 10
172.1146034251633
 20
257.7258835776352
 30
0.0
 10
172.4709027611624
 20
257.7729103360461
 30
0.0
 10
172.6137593902822
 20
257.7917655050185
 30
0.0
  0
LINE
  5
20A
330
1F
100
AcDbEntity
  8
0
  6
Continuous
 62
     7
370
    30
100
AcDbLine
 10
169.0454541638
 20
247.6538214884
 30
0.0
 11
169.0454541638
 21
232.6538218237
 31
0.0
  0
LINE
  5
20B
330
1F
100
AcDbEntity
  8
0
  6
Continuous
 62
     7
370
    30
100
AcDbLine
 10
171.0454540841
 20
246.6538217902
 30
0.0
 11
171.0454540841
 21
245.8503069408
 31
0.0
  0
LINE
  5
20C
330
1F
100
AcDbEntity
  8
0
  6
Continuous
 62
     7
370
    30
100
AcDbLine
 10
171.0454540841
 20
234.457332646
 30
0.0
 11
171.0454540841
 21
233.6538215219
 31
0.0
  0
LINE
  5
20D
330
1F
100
AcDbEntity
  8
0
  6
Continuous
 62
     7
370
    30
100
AcDbLine
 10
169.0454541638
 20
247.6538214884
 30
0.0
 11
169.0454541638
 21
248.153822036
 31
0.0
  0
LINE
  5
20E
330
1F
100
AcDbEntity
  8
0
  6
Continuous
 62
     7
370
    30
100
AcDbLine
 10
169.0454541638
 20
248.153822036
 30
0.0
 11
169.5454541875
 21
248.153822036
 31
0.0
  0
ARC
  5
20F
330
1F
100
AcDbEntity
  8
0
  6
Continuous
 62
     7
370
    30
100
AcDbCircle
 10
169.54545414
 20
246.6538216561
 30
0.0
 40
1.5
100
AcDbArc
 50
0.0
 51
90.0
  0
LINE
  5
210
330
1F
100
AcDbEntity
  8
0
  6
Continuous
 62
     7
370
    30
100
AcDbLine
 10
169.0454541638
 20
232.1538212761
 30
0.0
 11
169.0454541638
 21
232.6538218237
 31
0.0
  0
LINE
  5
211
330
1F
100
AcDbEntity
  8
0
  6
Continuous
 62
     7
370
    30
100
AcDbLine
 10
169.5454541875
 20
232.1538212761
 30
0.0
 11
169.0454541638
 21
232.1538212761
 31
0.0
  0
ARC
  5
212
330
1F
100
AcDbEntity
  8
0
  6
Continuous
 62
     7
370
    30
100
AcDbCircle
 10
169.54545414
 20
233.6538216561
 30
0.0
 40
1.5
100
AcDbArc
 50
270.0
 51
0.0
  0
SPLINE
  5
213
330
1F
100
AcDbEntity
  8
0
  6
Continuous
 62
     7
370
    30
100
AcDbSpline
210
0.0
220
0.0
230
1.0
 70
     8
 71
     3
 72
    11
 73
     7
 74
     0
 42
0.000000001
 43
0.00000001
 40
0.0
 40
0.0
 40
0.0
 40
0.0
 40
0.2264305786618141
 40
0.5000000345846946
 40
0.7735691644890592
 40
1.0
 40
1.0
 40
1.0
 40
1.0
 10
171.0454540841456
 20
234.2701582289662
 30
0.0
 10
171.0513343675119
 20
234.3189237024422
 30
0.0
 10
171.0643191061629
 20
234.4266067661371
 30
0.0
 10
171.1514966421798
 20
234.5724523757667
 30
0.0
 10
171.2698093236903
 20
234.6944073634875
 30
0.0
 10
171.3704625669592
 20
234.7348198802615
 30
0.0
 10
171.4160445660527
 20
234.7531211614039
 30
0.0
  0
SPLINE
  5
214
330
1F
100
AcDbEntity
  8
0
  6
Continuous
 62
     7
370
    30
100
AcDbSpline
210
0.0
220
0.0
230
1.0
 70
    24
 71
     3
 72
    12
 73
     8
 74
     0
 42
0.000000001
 43
0.00000001
 40
0.0
 40
0.0
 40
0.0
 40
0.0
 40
0.1023892943578227
 40
0.4215015875538111
 40
0.7406128553886666
 40
0.8798179522782337
 40
1.0
 40
1.0
 40
1.0
 40
1.0
 10
171.0595340516593
 20
235.4038180834975
 30
0.0
 10
171.0663827278574
 20
235.4038180834975
 30
0.0
 10
171.0945763774793
 20
235.4038180834975
 30
0.0
 10
171.1913736142998
 20
235.4038180834975
 30
0.0
 10
171.3326689869971
 20
235.4038180834975
 30
0.0
 10
171.4534423547207
 20
235.4038180834975
 30
0.0
 10
171.5103574096725
 20
235.4038180834975
 30
0.0
 10
171.5367279064085
 20
235.4038180834975
 30
0.0
  0
SPLINE
  5
215
330
1F
100
AcDbEntity
  8
0
  6
Continuous
 62
     7
370
    30
100
AcDbSpline
210
0.0
220
0.0
230
1.0
 70
     8
 71
     3
 72
    11
 73
     7
 74
     0
 42
0.000000001
 43
0.00000001
 40
0.0
 40
0.0
 40
0.0
 40
0.0
 40
0.2264308355109408
 40
0.4999999654153055
 40
0.773569421338186
 40
1.0
 40
1.0
 40
1.0
 40
1.0
 10
171.4160445660527
 20
245.5545221506979
 30
0.0
 10
171.3704625669592
 20
245.5728234318403
 30
0.0
 10
171.2698093236903
 20
245.6132359486143
 30
0.0
 10
171.1514966421798
 20
245.7351909363351
 30
0.0
 10
171.0643191061629
 20
245.8810365459648
 30
0.0
 10
171.0513343675119
 20
245.9887196096597
 30
0.0
 10
171.0454540841456
 20
246.0374850831356
 30
0.0
  0
SPLINE
  5
216
330
1F
100
AcDbEntity
  8
0
  6
Continuous
 62
     7
370
    30
100
AcDbSpline
210
0.0
220
0.0
230
1.0
 70
    24
 71
     3
 72
    12
 73
     8
 74
     0
 42
0.000000001
 43
0.00000001
 40
0.0
 40
0.0
 40
0.0
 40
0.0
 40
0.1201820477217664
 40
0.2593871446113334
 40
0.5784984124461889
 40
0.8976107056421773
 40
1.0
 40
1.0
 40
1.0
 40
1.0
 10
171.5367279064085
 20
244.9038252286043
 30
0.0
 10
171.5103574096725
 20
244.9038252286043
 30
0.0
 10
171.4534423547207
 20
244.9038252286043
 30
0.0
 10
171.3326689869971
 20
244.9038252286043
 30
0.0
 10
171.1913736142998
 20
244.9038252286043
 30
0.0
 10
171.0945763774793
 20
244.9038252286043
 30
0.0
 10
171.0663827278574
 20
244.9038252286043
 30
0.0
 10
171.0595340516593
 20
244.9038252286043
 30
0.0
  0
LINE
  5
217
330
1F
100
AcDbEntity
  8
0
  6
Continuous
 62
     7
370
    30
100
AcDbLine
 10
178.6748639822
 20
236.6981157153
 30
0.0
 11
171.4160445661
 21
234.7531211614
 31
0.0
  0
LINE
  5
218
330
1F
100
AcDbEntity
  8
0
  6
Continuous
 62
     7
370
    30
100
AcDbLine
 10
171.4160445661
 20
245.5545221507
 30
0.0
 11
178.6748639822
 21
243.6095275968
 31
0.0
  0
LINE
  5
219
330
1F
100
AcDbEntity
  8
0
  6
Continuous
 62
     7
370
    30
100
AcDbLine
 10
179.0454539985
 20
243.1265646643
 30
0.0
 11
179.0454539985
 21
243.0235047411
 31
0.0
  0
ARC
  5
21A
330
1F
100
AcDbEntity
  8
0
  6
Continuous
 62
     7
370
    30
100
AcDbCircle
 10
178.54545414
 20
243.1265646226
 30
0.0
 40
0.5000000000000079
100
AcDbArc
 50
0.0
 51
75.0
  0
LINE
  5
21B
330
1F
100
AcDbEntity
  8
0
  6
Continuous
 62
     7
370
    30
100
AcDbLine
 10
179.0454539985
 20
243.0235047411
 30
0.0
 11
179.0454539985
 21
237.284138571
 31
0.0
  0
LINE
  5
21C
330
1F
100
AcDbEntity
  8
0
  6
Continuous
 62
     7
370
    30
100
AcDbLine
 10
179.0454539985
 20
237.284138571
 30
0.0
 11
179.0454539985
 21
237.1810786478
 31
0.0
  0
ARC
  5
21D
330
1F
100
AcDbEntity
  8
0
  6
Continuous
 62
     7
370
    30
100
AcDbCircle
 10
178.54545414
 20
237.1810786895
 30
0.0
 40
0.5
100
AcDbArc
 50
285.0
 51
0.0
  0
LINE
  5
21E
330
1F
100
AcDbEntity
  8
0
  6
Continuous
 62
     7
370
    30
100
AcDbLine
 10
168.54545414
 20
259.1455732524
 30
0.0
 11
168.54545414
 21
221.1620700597
 31
0.0
  0
LINE
  5
21F
330
1F
100
AcDbEntity
  8
0
  6
Continuous
 62
     7
370
    30
100
AcDbLine
 10
136.812921013
 20
241.0491369134
 30
0.0
 11
136.7090226665
 21
240.9139878052
 31
0.0
  0
SPLINE
  5
220
330
1F
100
AcDbEntity
  8
0
  6
Continuous
 62
     7
370
    30
100
AcDbSpline
210
0.0
220
0.0
230
1.0
 70
     8
 71
     3
 72
    10
 73
     6
 74
     0
 42
0.000000001
 43
0.00000001
 40
0.0
 40
0.0
 40
0.0
 40
0.0
 40
0.4678156408825753
 40
0.7255615577636623
 40
1.0
 40
1.0
 40
1.0
 40
1.0
 10
137.2852133169945
 20
239.9443771188742
 30
0.0
 10
137.2683043046781
 20
240.1390256902595
 30
0.0
 10
137.2420791675849
 20
240.440917094327
 30
0.0
 10
137.0472544025381
 20
240.8132176207197
 30
0.0
 10
136.8926486009843
 20
240.9688697512783
 30
0.0
 10
136.8129210129555
 20
241.0491369134177
 30
0.0
  0
LINE
  5
221
330
1F
100
AcDbEntity
  8
0
  6
Continuous
 62
     7
370
    30
100
AcDbLine
 10
137.285213317
 20
239.9443771189
 30
0.0
 11
137.121404852
 21
239.9450400168
 31
0.0
  0
SPLINE
  5
222
330
1F
100
AcDbEntity
  8
0
  6
Continuous
 62
     7
370
    30
100
AcDbSpline
210
0.0
220
0.0
230
1.0
 70
     8
 71
     3
 72
    10
 73
     6
 74
     0
 42
0.000000001
 43
0.00000001
 40
0.0
 40
0.0
 40
0.0
 40
0.0
 40
0.4995523262211352
 40
0.7490756503147378
 40
1.0
 40
1.0
 40
1.0
 40
1.0
 10
137.1214048519905
 20
239.9450400168205
 30
0.0
 10
137.1052774115421
 20
240.1276795632243
 30
0.0
 10
137.0810944134703
 20
240.4015464432578
 30
0.0
 10
136.9014475079722
 20
240.7228003806383
 30
0.0
 10
136.7732838802764
 20
240.8501398328345
 30
0.0
 10
136.7090226665314
 20
240.9139878051717
 30
0.0
  0
SPLINE
  5
223
330
1F
100
AcDbEntity
  8
0
  6
Continuous
 62
     7
370
    30
100
AcDbSpline
210
0.0
220
0.0
230
1.0
 70
     8
 71
     3
 72
     9
 73
     5
 74
     0
 42
0.000000001
 43
0.00000001
 40
0.0
 40
0.0
 40
0.0
 40
0.0
 40
0.5014888219325627
 40
0.9999999999999999
 40
0.9999999999999999
 40
0.9999999999999999
 40
0.9999999999999999
 10
135.5466426864441
 20
239.0348343230214
 30
0.0
 10
135.383231721817
 20
239.039599799977
 30
0.0
 10
135.0573800627564
 20
239.0491024583557
 30
0.0
 10
134.7693438978487
 20
239.2035094426604
 30
0.0
 10
134.6257546499546
 20
239.280483050308
 30
0.0
  0
SPLINE
  5
224
330
1F
100
AcDbEntity
  8
0
  6
Continuous
 62
     7
370
    30
100
AcDbSpline
210
0.0
220
0.0
230
1.0
 70
     8
 71
     3
 72
    13
 73
     9
 74
     0
 42
0.000000001
 43
0.00000001
 40
0.0
 40
0.0
 40
0.0
 40
0.0
 40
0.1252086247184547
 40
0.2501082566222682
 40
0.3754043452189721
 40
0.5008439135956468
 40
0.7499708180167814
 40
0.9999999999999999
 40
0.9999999999999999
 40
0.9999999999999999
 40
0.9999999999999999
 10
136.7796318188484
 20
239.9474134341942
 30
0.0
 10
136.7752895476311
 20
239.8749058989158
 30
0.0
 10
136.7666157211564
 20
239.7300697641746
 30
0.0
 10
136.6869728032882
 20
239.5245636015032
 30
0.0
 10
136.5537850791455
 20
239.3512083155592
 30
0.0
 10
136.3251471033321
 20
239.1733151679267
 30
0.0
 10
135.9776497855927
 20
239.0521833226134
 30
0.0
 10
135.690484746581
 20
239.0406242876126
 30
0.0
 10
135.5466426864441
 20
239.0348343230214
 30
0.0
  0
SPLINE
  5
225
330
1F
100
AcDbEntity
  8
0
  6
Continuous
 62
     7
370
    30
100
AcDbSpline
210
0.0
220
0.0
230
1.0
 70
     8
 71
     3
 72
    13
 73
     9
 74
     0
 42
0.000000001
 43
0.00000001
 40
0.0
 40
0.0
 40
0.0
 40
0.0
 40
0.2488793229098344
 40
0.4984058374538512
 40
0.6238552890005384
 40
0.7491445710122514
 40
0.8677524348427731
 40
1.0
 40
1.0
 40
1.0
 40
1.0
 10
135.5466426864441
 20
240.8576190988895
 30
0.0
 10
135.6895110527566
 20
240.8516360406453
 30
0.0
 10
135.9756193036354
 20
240.8396543656719
 30
0.0
 10
136.3228427502478
 20
240.7207222959906
 30
0.0
 10
136.5523851101357
 20
240.5440572888582
 30
0.0
 10
136.6843777257999
 20
240.3741944721637
 30
0.0
 10
136.7633171289037
 20
240.168611302244
 30
0.0
 10
136.7739999703522
 20
240.0237711758841
 30
0.0
 10
136.7796318188484
 20
239.9474134341942
 30
0.0
  0
SPLINE
  5
226
330
1F
100
AcDbEntity
  8
0
  6
Continuous
 62
     7
370
    30
100
AcDbSpline
210
0.0
220
0.0
230
1.0
 70
     8
 71
     3
 72
     9
 73
     5
 74
     0
 42
0.000000001
 43
0.00000001
 40
0.0
 40
0.0
 40
0.0
 40
0.0
 40
0.4969319695020535
 40
1.0
 40
1.0
 40
1.0
 40
1.0
 10
134.6257546499546
 20
240.6119704007067
 30
0.0
 10
134.7687422929552
 20
240.6889788553077
 30
0.0
 10
135.0564831745569
 20
240.8439466563896
 30
0.0
 10
135.3825891803674
 20
240.8530430127903
 30
0.0
 10
135.5466426864441
 20
240.8576190988895
 30
0.0
  0
SPLINE
  5
227
330
1F
100
AcDbEntity
  8
0
  6
Continuous
 62
     7
370
    30
100
AcDbSpline
210
0.0
220
0.0
230
1.0
 70
     8
 71
     3
 72
    11
 73
     7
 74
     0
 42
0.000000001
 43
0.00000001
 40
0.0
 40
0.0
 40
0.0
 40
0.0
 40
0.2513342381037132
 40
0.5014465679790465
 40
0.7501992242700443
 40
1.0
 40
1.0
 40
1.0
 40
1.0
 10
134.3112768188293
 20
239.9474134341942
 30
0.0
 10
134.3143668779497
 20
240.0114778570826
 30
0.0
 10
134.3205319732924
 20
240.1392952417306
 30
0.0
 10
134.3806377638861
 20
240.32252758455
 30
0.0
 10
134.4815852486797
 20
240.4869061876634
 30
0.0
 10
134.5776308766104
 20
240.5702239427985
 30
0.0
 10
134.6257546499546
 20
240.6119704007067
 30
0.0
  0
SPLINE
  5
228
330
1F
100
AcDbEntity
  8
0
  6
Continuous
 62
     7
370
    30
100
AcDbSpline
210
0.0
220
0.0
230
1.0
 70
     8
 71
     3
 72
    11
 73
     7
 74
     0
 42
0.000000001
 43
0.00000001
 40
0.0
 40
0.0
 40
0.0
 40
0.0
 40
0.2503824851768204
 40
0.499059286081585
 40
0.748685457270617
 40
1.0
 40
1.0
 40
1.0
 40
1.0
 10
134.6257546499546
 20
239.280483050308
 30
0.0
 10
134.5774087232334
 20
239.3225517235336
 30
0.0
 10
134.4810462174558
 20
239.4064024849458
 30
0.0
 10
134.3774538867468
 20
239.5702164770771
 30
0.0
 10
134.3193773270613
 20
239.754998312729
 30
0.0
 10
134.3139830485356
 20
239.8831311073671
 30
0.0
 10
134.3112768188293
 20
239.9474134341942
 30
0.0
  0
SPLINE
  5
229
330
1F
100
AcDbEntity
  8
0
  6
Continuous
 62
     7
370
    30
100
AcDbSpline
210
0.0
220
0.0
230
1.0
 70
     8
 71
     3
 72
    10
 73
     6
 74
     0
 42
0.000000001
 43
0.00000001
 40
0.0
 40
0.0
 40
0.0
 40
0.0
 40
0.2503245103314951
 40
0.4998914096902036
 40
1.0
 40
1.0
 40
1.0
 40
1.0
 10
134.3801052823837
 20
240.9139878051717
 30
0.0
 10
134.316958428332
 20
240.8493842952926
 30
0.0
 10
134.1908558351517
 20
240.7203727990486
 30
0.0
 10
134.0116907696748
 20
240.3999893294915
 30
0.0
 10
133.9863851601818
 20
240.1270907110702
 30
0.0
 10
133.9695037856872
 20
239.9450400168205
 30
0.0
  0
SPLINE
  5
22A
330
1F
100
AcDbEntity
  8
0
  6
Continuous
 62
     7
370
    30
100
AcDbSpline
210
0.0
220
0.0
230
1.0
 70
     8
 71
     3
 72
     9
 73
     5
 74
     0
 42
0.000000001
 43
0.00000001
 40
0.0
 40
0.0
 40
0.0
 40
0.0
 40
0.5034361742328318
 40
1.0
 40
1.0
 40
1.0
 40
1.0
 10
135.5466426864441
 20
241.2753406730842
 30
0.0
 10
135.3361008701143
 20
241.2631851771724
 30
0.0
 10
134.91789131922
 20
241.2390401186051
 30
0.0
 10
134.5585441082445
 20
241.021841020353
 30
0.0
 10
134.3801052823837
 20
240.9139878051717
 30
0.0
  0
SPLINE
  5
22B
330
1F
100
AcDbEntity
  8
0
  6
Continuous
 62
     7
370
    30
100
AcDbSpline
210
0.0
220
0.0
230
1.0
 70
     8
 71
     3
 72
     9
 73
     5
 74
     0
 42
0.000000001
 43
0.00000001
 40
0.0
 40
0.0
 40
0.0
 40
0.0
 40
0.4961956278605141
 40
1.0
 40
1.0
 40
1.0
 40
1.0
 10
136.7090226665314
 20
240.9139878051717
 30
0.0
 10
136.5318318266451
 20
241.0218457037089
 30
0.0
 10
136.1747330737797
 20
241.2392154113023
 30
0.0
 10
135.7570654575844
 20
241.2632379919326
 30
0.0
 10
135.5466426864441
 20
241.2753406730842
 30
0.0
  0
SPLINE
  5
22C
330
1F
100
AcDbEntity
  8
0
  6
Continuous
 62
     7
370
    30
100
AcDbSpline
210
0.0
220
0.0
230
1.0
 70
     8
 71
     3
 72
    10
 73
     6
 74
     0
 42
0.000000001
 43
0.00000001
 40
0.0
 40
0.0
 40
0.0
 40
0.0
 40
0.250472009248052
 40
0.4999329340793439
 40
1.0
 40
1.0
 40
1.0
 40
1.0
 10
136.7090226665314
 20
238.9760921993654
 30
0.0
 10
136.7733140494313
 20
239.0396568036813
 30
0.0
 10
136.9016372891644
 20
239.1665294200453
 30
0.0
 10
137.0814531074346
 20
239.4876856324705
 30
0.0
 10
137.1054168312538
 20
239.762014432775
 30
0.0
 10
137.1214048519905
 20
239.9450400168205
 30
0.0
  0
SPLINE
  5
22D
330
1F
100
AcDbEntity
  8
0
  6
Continuous
 62
     7
370
    30
100
AcDbSpline
210
0.0
220
0.0
230
1.0
 70
     8
 71
     3
 72
    10
 73
     6
 74
     0
 42
0.000000001
 43
0.00000001
 40
0.0
 40
0.0
 40
0.0
 40
0.0
 40
0.5016848784310058
 40
0.7580785863629464
 40
1.0
 40
1.0
 40
1.0
 40
1.0
 10
135.5466426864441
 20
238.6171127488267
 30
0.0
 10
135.7541593259455
 20
238.6322377602284
 30
0.0
 10
136.0677305087407
 20
238.655092639367
 30
0.0
 10
136.4590358346495
 20
238.7996535319932
 30
0.0
 10
136.6273228788511
 20
238.9184291554587
 30
0.0
 10
136.7090226665314
 20
238.9760921993654
 30
0.0
  0
SPLINE
  5
22E
330
1F
100
AcDbEntity
  8
0
  6
Continuous
 62
     7
370
    30
100
AcDbSpline
210
0.0
220
0.0
230
1.0
 70
     8
 71
     3
 72
     9
 73
     5
 74
     0
 42
0.000000001
 43
0.00000001
 40
0.0
 40
0.0
 40
0.0
 40
0.0
 40
0.4965577816525846
 40
1.0
 40
1.0
 40
1.0
 40
1.0
 10
134.3801052823837
 20
238.9784656749468
 30
0.0
 10
134.5587382163543
 20
238.8710717111036
 30
0.0
 10
134.9184807087106
 20
238.6547948389823
 30
0.0
 10
135.336296551626
 20
238.6297309624357
 30
0.0
 10
135.5466426864441
 20
238.6171127488267
 30
0.0
  0
SPLINE
  5
22F
330
1F
100
AcDbEntity
  8
0
  6
Continuous
 62
     7
370
    30
100
AcDbSpline
210
0.0
220
0.0
230
1.0
 70
     8
 71
     3
 72
    10
 73
     6
 74
     0
 42
0.000000001
 43
0.00000001
 40
0.0
 40
0.0
 40
0.0
 40
0.0
 40
0.4996030796440013
 40
0.7492290943930568
 40
1.0
 40
1.0
 40
1.0
 40
1.0
 10
133.9695037856872
 20
239.9450400168205
 30
0.0
 10
133.9862544099456
 20
239.7635719551137
 30
0.0
 10
134.0113744613524
 20
239.4914336175545
 30
0.0
 10
134.188197024919
 20
239.1698760283667
 30
0.0
 10
134.3160383643735
 20
239.0423663719823
 30
0.0
 10
134.3801052823837
 20
238.9784656749468
 30
0.0
  0
SPLINE
  5
230
330
1F
100
AcDbEntity
  8
0
  6
Continuous
 62
     7
370
    30
100
AcDbSpline
210
0.0
220
0.0
230
1.0
 70
     8
 71
     3
 72
    10
 73
     6
 74
     0
 42
0.000000001
 43
0.00000001
 40
0.0
 40
0.0
 40
0.0
 40
0.0
 40
0.4424069079851232
 40
0.8286606193337425
 40
0.9999999999999999
 40
0.9999999999999999
 40
0.9999999999999999
 40
0.9999999999999999
 10
136.812503780442
 20
238.8385031423893
 30
0.0
 10
136.9371941654768
 20
238.9744091839525
 30
0.0
 10
137.170748411179
 20
239.2289711777646
 30
0.0
 10
137.2741632941417
 20
239.6438344886116
 30
0.0
 10
137.2826159514731
 20
239.8737330056498
 30
0.0
 10
137.2852133169945
 20
239.9443771188742
 30
0.0
  0
LWPOLYLINE
  5
231
330
1F
100
AcDbEntity
  8
0
  6
Continuous
 62
     7
370
    30
100
AcDbPolyline
 90
        3
 70
   128
 43
0.0
 10
136.8125037804
 20
238.8385031424
 10
136.7607632235
 20
238.9072977291
 10
136.7090226665
 20
238.9760921994
  0
LINE
  5
232
330
1F
100
AcDbEntity
  8
0
  6
Continuous
 62
     7
370
    30
100
AcDbLine
 10
136.5957514897
 20
239.9463488743
 30
0.0
 11
136.7796318188
 21
239.9474134342
 31
0.0
  0
SPLINE
  5
233
330
1F
100
AcDbEntity
  8
0
  6
Continuous
 62
     7
370
    30
100
AcDbSpline
210
0.0
220
0.0
230
1.0
 70
     8
 71
     3
 72
    12
 73
     8
 74
     0
 42
0.000000001
 43
0.00000001
 40
0.0
 40
0.0
 40
0.0
 40
0.0
 40
0.3689235246210323
 40
0.5895604443495949
 40
0.7311475945628405
 40
0.8736442766045607
 40
0.9999999999999999
 40
0.9999999999999999
 40
0.9999999999999999
 40
0.9999999999999999
 10
135.5366365567024
 20
240.6871109321144
 30
0.0
 10
135.7167050260399
 20
240.6788772527141
 30
0.0
 10
136.0044645201112
 20
240.6657193721185
 30
0.0
 10
136.3304165040762
 20
240.5062362843803
 30
0.0
 10
136.503036204108
 20
240.3273887225756
 30
0.0
 10
136.5819092145891
 20
240.1385728481124
 30
0.0
 10
136.5913258452026
 20
240.0078066164077
 30
0.0
 10
136.5957514897163
 20
239.9463488742838
 30
0.0
  0
LWPOLYLINE
  5
234
330
1F
100
AcDbEntity
  8
0
  6
Continuous
 62
     7
370
    30
100
AcDbPolyline
 90
        3
 70
   128
 43
0.0
 10
135.5366365567
 20
240.6871109321
 10
135.5416433469
 20
240.7723648991
 10
135.5466426864
 20
240.8576190989
  0
LWPOLYLINE
  5
235
330
1F
100
AcDbEntity
  8
0
  6
Continuous
 62
     7
370
    30
100
AcDbPolyline
 90
        3
 70
   128
 43
0.0
 10
135.5367408648
 20
239.2033696575
 10
135.5416955009
 20
239.1191020194
 10
135.5466426864
 20
239.034834323
  0
SPLINE
  5
236
330
1F
100
AcDbEntity
  8
0
  6
Continuous
 62
     7
370
    30
100
AcDbSpline
210
0.0
220
0.0
230
1.0
 70
     8
 71
     3
 72
    12
 73
     8
 74
     0
 42
0.000000001
 43
0.00000001
 40
0.0
 40
0.0
 40
0.0
 40
0.0
 40
0.1723211937115095
 40
0.3128826226024951
 40
0.4528481650591777
 40
0.6626221206682296
 40
1.0
 40
1.0
 40
1.0
 40
1.0
 10
136.5957514897163
 20
239.9463488742838
 30
0.0
 10
136.5892664223794
 20
239.8615705406678
 30
0.0
 10
136.5774915220761
 20
239.7076389969597
 30
0.0
 10
136.4619290442382
 20
239.5128414927412
 30
0.0
 10
136.2814536426953
 20
239.3543927843107
 30
0.0
 10
135.9680742620405
 20
239.2221314133343
 30
0.0
 10
135.7012603201837
 20
239.2105257782255
 30
0.0
 10
135.5367408648308
 20
239.2033696575452
 30
0.0
  0
LINE
  5
237
330
1F
100
AcDbEntity
  8
0
  6
Continuous
 62
     7
370
    30
100
AcDbLine
 10
135.5363944128
 20
241.4550946611
 30
0.0
 11
135.5466426864
 21
241.2753406731
 31
0.0
  0
SPLINE
  5
238
330
1F
100
AcDbEntity
  8
0
  6
Continuous
 62
     7
370
    30
100
AcDbSpline
210
0.0
220
0.0
230
1.0
 70
     8
 71
     3
 72
    10
 73
     6
 74
     0
 42
0.000000001
 43
0.00000001
 40
0.0
 40
0.0
 40
0.0
 40
0.0
 40
0.4027061487239999
 40
0.6968173185624212
 40
0.9999999999999999
 40
0.9999999999999999
 40
0.9999999999999999
 40
0.9999999999999999
 10
136.8129210129555
 20
241.0491369134177
 30
0.0
 10
136.6587588904296
 20
241.150049207791
 30
0.0
 10
136.3920064775778
 20
241.3246614768065
 30
0.0
 10
135.9446957789382
 20
241.4318533847868
 30
0.0
 10
135.6738659609669
 20
241.4472695238573
 30
0.0
 10
135.536394412833
 20
241.4550946611341
 30
0.0
  0
SPLINE
  5
239
330
1F
100
AcDbEntity
  8
0
  6
Continuous
 62
     7
370
    30
100
AcDbSpline
210
0.0
220
0.0
230
1.0
 70
     8
 71
     3
 72
    10
 73
     6
 74
     0
 42
0.000000001
 43
0.00000001
 40
0.0
 40
0.0
 40
0.0
 40
0.0
 40
0.2980658829165789
 40
0.5584012120481208
 40
1.0
 40
1.0
 40
1.0
 40
1.0
 10
135.5361038401897
 20
238.4350983244728
 30
0.0
 10
135.671238198185
 20
238.4424362363384
 30
0.0
 10
135.9244009840614
 20
238.4561831933518
 30
0.0
 10
136.37218604878
 20
238.5556583253634
 30
0.0
 10
136.642466017856
 20
238.7292767897176
 30
0.0
 10
136.812503780442
 20
238.8385031423893
 30
0.0
  0
LINE
  5
23A
330
1F
100
AcDbEntity
  8
0
  6
Continuous
 62
     7
370
    30
100
AcDbLine
 10
135.5361038402
 20
238.4350983245
 30
0.0
 11
135.5466426864
 21
238.6171127488
 31
0.0
  0
LWPOLYLINE
  5
23B
330
1F
100
AcDbEntity
  8
0
  6
Continuous
 62
     7
370
    30
100
AcDbPolyline
 90
        3
 70
   128
 43
0.0
 10
137.209899123
 20
242.487707879
 10
137.1276782409
 20
242.5688661221
 10
137.0454536334
 20
242.6500241324
  0
LWPOLYLINE
  5
23C
330
1F
100
AcDbEntity
  8
0
  6
Continuous
 62
     7
370
    30
100
AcDbPolyline
 90
        4
 70
   128
 43
0.0
 10
133.860635902
 20
242.4878850631
 10
135.1112568334
 20
242.4878182407
 10
136.1605779782
 20
242.487762827
 10
137.209899123
 20
242.487707879
  0
LINE
  5
23D
330
1F
100
AcDbEntity
  8
0
  6
Continuous
 62
     7
370
    30
100
AcDbLine
 10
133.860635902
 20
242.4878850631
 30
0.0
 11
134.0454550043
 21
242.6500241324
 31
0.0
  0
LINE
  5
23E
330
1F
100
AcDbEntity
  8
0
  6
Continuous
 62
     7
370
    30
100
AcDbLine
 10
134.0454550043
 20
242.6500241324
 30
0.0
 11
137.0454536334
 21
242.6500241324
 31
0.0
  0
LINE
  5
23F
330
1F
100
AcDbEntity
  8
0
  6
Continuous
 62
     7
370
    30
100
AcDbLine
 10
137.2101263657
 20
243.2194012269
 30
0.0
 11
137.0454536334
 21
243.0297709122
 31
0.0
  0
SPLINE
  5
240
330
1F
100
AcDbEntity
  8
0
  6
Continuous
 62
     7
370
    30
100
AcDbSpline
210
0.0
220
0.0
230
1.0
 70
     8
 71
     3
 72
    14
 73
    10
 74
     0
 42
0.000000001
 43
0.00000001
 40
0.0
 40
0.0
 40
0.0
 40
0.0
 40
0.1306404145150293
 40
0.26128062380651
 40
0.391920892824257
 40
0.5225611444936119
 40
0.6532011945076822
 40
0.7838414433322769
 40
1.0
 40
1.0
 40
1.0
 40
1.0
 10
137.2101263657387
 20
243.2194012268808
 30
0.0
 10
137.2099833034961
 20
243.1876104135044
 30
0.0
 10
137.2096971792357
 20
243.1240288366918
 30
0.0
 10
137.2096302902119
 20
243.0285761712507
 30
0.0
 10
137.2096117761644
 20
242.9330653061803
 30
0.0
 10
137.209573907479
 20
242.8374908239359
 30
0.0
 10
137.2095650823896
 20
242.7418561392877
 30
0.0
 10
137.2094636141178
 20
242.6252878463991
 30
0.0
 10
137.2097319008138
 20
242.54053441466
 30
0.0
 10
137.2098991230305
 20
242.4877078789648
 30
0.0
  0
SPLINE
  5
241
330
1F
100
AcDbEntity
  8
0
  6
Continuous
 62
     7
370
    30
100
AcDbSpline
210
0.0
220
0.0
230
1.0
 70
    24
 71
     3
 72
    10
 73
     6
 74
     0
 42
0.000000001
 43
0.00000001
 40
0.0
 40
0.0
 40
0.0
 40
0.0
 40
0.251745067013429
 40
0.5034898676974129
 40
0.9999999999999999
 40
0.9999999999999999
 40
0.9999999999999999
 40
0.9999999999999999
 10
137.0454536333854
 20
243.029770912173
 30
0.0
 10
137.0454536333854
 20
242.9979387072223
 30
0.0
 10
137.0454536333854
 20
242.9342743309973
 30
0.0
 10
137.0454536333854
 20
242.8077298034111
 30
0.0
 10
137.0454536333854
 20
242.7129295478413
 30
0.0
 10
137.0454536333854
 20
242.6500241323736
 30
0.0
  0
SPLINE
  5
242
330
1F
100
AcDbEntity
  8
0
  6
Continuous
 62
     7
370
    30
100
AcDbSpline
210
0.0
220
0.0
230
1.0
 70
    24
 71
     3
 72
    10
 73
     6
 74
     0
 42
0.000000001
 43
0.00000001
 40
0.0
 40
0.0
 40
0.0
 40
0.0
 40
0.2517830716607777
 40
0.503566068643253
 40
1.0
 40
1.0
 40
1.0
 40
1.0
 10
134.3872280374344
 20
243.3667962956604
 30
0.0
 10
134.3872280374344
 20
243.3385420068569
 30
0.0
 10
134.3872280374344
 20
243.28203343763
 30
0.0
 10
134.3872280374344
 20
243.1697273885223
 30
0.0
 10
134.3872280374344
 20
243.0855931077965
 30
0.0
 10
134.3872280374344
 20
243.029770912173
 30
0.0
  0
LINE
  5
243
330
1F
100
AcDbEntity
  8
0
  6
Continuous
 62
     7
370
    30
100
AcDbLine
 10
135.6024177328
 20
243.0297709122
 30
0.0
 11
134.3872280374
 21
243.0297709122
 31
0.0
  0
SPLINE
  5
244
330
1F
100
AcDbEntity
  8
0
  6
Continuous
 62
     7
370
    30
100
AcDbSpline
210
0.0
220
0.0
230
1.0
 70
    24
 71
     3
 72
    10
 73
     6
 74
     0
 42
0.000000001
 43
0.00000001
 40
0.0
 40
0.0
 40
0.0
 40
0.0
 40
0.2517195801065437
 40
0.5034382267996541
 40
1.0
 40
1.0
 40
1.0
 40
1.0
 10
135.6024177327926
 20
243.029770912173
 30
0.0
 10
135.6024177327926
 20
243.0530413704469
 30
0.0
 10
135.6024177327926
 20
243.0995822007044
 30
0.0
 10
135.6024177327926
 20
243.1919734555739
 30
0.0
 10
135.6024177327926
 20
243.2610368293638
 30
0.0
 10
135.6024177327926
 20
243.306867550629
 30
0.0
  0
SPLINE
  5
245
330
1F
100
AcDbEntity
  8
0
  6
Continuous
 62
     7
370
    30
100
AcDbSpline
210
0.0
220
0.0
230
1.0
 70
     8
 71
     3
 72
    10
 73
     6
 74
     0
 42
0.000000001
 43
0.00000001
 40
0.0
 40
0.0
 40
0.0
 40
0.0
 40
0.2491444681716511
 40
0.4980731987311665
 40
1.0
 40
1.0
 40
1.0
 40
1.0
 10
135.4208508089359
 20
243.9583707652416
 30
0.0
 10
135.4574973295724
 20
243.9135744324974
 30
0.0
 10
135.5307586381206
 20
243.8240205567678
 30
0.0
 10
135.5964626182394
 20
243.5982247107829
 30
0.0
 10
135.6000318182407
 20
243.4235996944016
 30
0.0
 10
135.6024177327926
 20
243.306867550629
 30
0.0
  0
SPLINE
  5
246
330
1F
100
AcDbEntity
  8
0
  6
Continuous
 62
     7
370
    30
100
AcDbSpline
210
0.0
220
0.0
230
1.0
 70
     8
 71
     3
 72
    10
 73
     6
 74
     0
 42
0.000000001
 43
0.00000001
 40
0.0
 40
0.0
 40
0.0
 40
0.0
 40
0.498816735428991
 40
0.7481632158603906
 40
1.0
 40
1.0
 40
1.0
 40
1.0
 10
134.9675276830967
 20
244.1310370392528
 30
0.0
 10
135.051727984061
 20
244.1254256913327
 30
0.0
 10
135.1780179889296
 20
244.1170093656424
 30
0.0
 10
135.3275063207193
 20
244.0401822965052
 30
0.0
 10
135.3896330800456
 20
243.9857314616457
 30
0.0
 10
135.4208508089359
 20
243.9583707652416
 30
0.0
  0
SPLINE
  5
247
330
1F
100
AcDbEntity
  8
0
  6
Continuous
 62
     7
370
    30
100
AcDbSpline
210
0.0
220
0.0
230
1.0
 70
     8
 71
     3
 72
    10
 73
     6
 74
     0
 42
0.000000001
 43
0.00000001
 40
0.0
 40
0.0
 40
0.0
 40
0.0
 40
0.2501422439250877
 40
0.4996716642326841
 40
1.0
 40
1.0
 40
1.0
 40
1.0
 10
134.5035241499718
 20
243.9109024177667
 30
0.0
 10
134.5310960128582
 20
243.9460355802397
 30
0.0
 10
134.5861721903094
 20
244.0162158324322
 30
0.0
 10
134.7420675184023
 20
244.1127845838071
 30
0.0
 10
134.8772978287419
 20
244.1237323502018
 30
0.0
 10
134.9675276830967
 20
244.1310370392528
 30
0.0
  0
SPLINE
  5
248
330
1F
100
AcDbEntity
  8
0
  6
Continuous
 62
     7
370
    30
100
AcDbSpline
210
0.0
220
0.0
230
1.0
 70
     8
 71
     3
 72
     9
 73
     5
 74
     0
 42
0.000000001
 43
0.00000001
 40
0.0
 40
0.0
 40
0.0
 40
0.0
 40
0.5011868362337314
 40
1.0
 40
1.0
 40
1.0
 40
1.0
 10
134.3872280374344
 20
243.3667962956604
 30
0.0
 10
134.3871405980217
 20
243.4616102194307
 30
0.0
 10
134.3869661333184
 20
243.6507890184647
 30
0.0
 10
134.4647330087844
 20
243.8243352653154
 30
0.0
 10
134.5035241499718
 20
243.9109024177667
 30
0.0
  0
LINE
  5
249
330
1F
100
AcDbEntity
  8
0
  6
Continuous
 62
     7
370
    30
100
AcDbLine
 10
137.0454536334
 20
243.0297709122
 30
0.0
 11
135.9441870406
 21
243.0297709122
 31
0.0
  0
SPLINE
  5
24A
330
1F
100
AcDbEntity
  8
0
  6
Continuous
 62
     7
370
    30
100
AcDbSpline
210
0.0
220
0.0
230
1.0
 70
    24
 71
     3
 72
    10
 73
     6
 74
     0
 42
0.000000001
 43
0.00000001
 40
0.0
 40
0.0
 40
0.0
 40
0.0
 40
0.499907229460831
 40
0.7499421721578304
 40
1.0
 40
1.0
 40
1.0
 40
1.0
 10
134.0454550042923
 20
242.6500241323736
 30
0.0
 10
134.0454550042923
 20
242.7761367761804
 30
0.0
 10
134.0454550042923
 20
242.9653262586669
 30
0.0
 10
134.0454550042923
 20
243.216945041573
 30
0.0
 10
134.0454550042923
 20
243.3425560704294
 30
0.0
 10
134.0454550042923
 20
243.405364458951
 30
0.0
  0
SPLINE
  5
24B
330
1F
100
AcDbEntity
  8
0
  6
Continuous
 62
     7
370
    30
100
AcDbSpline
210
0.0
220
0.0
230
1.0
 70
     8
 71
     3
 72
     9
 73
     5
 74
     0
 42
0.000000001
 43
0.00000001
 40
0.0
 40
0.0
 40
0.0
 40
0.0
 40
0.4986188716382754
 40
1.0
 40
1.0
 40
1.0
 40
1.0
 10
134.2347332790668
 20
244.1909657842841
 30
0.0
 10
134.1732407326729
 20
244.0672712771722
 30
0.0
 10
134.0499149825025
 20
243.8191970181583
 30
0.0
 10
134.0469443988672
 20
243.5435624365122
 30
0.0
 10
134.0454550042923
 20
243.405364458951
 30
0.0
  0
SPLINE
  5
24C
330
1F
100
AcDbEntity
  8
0
  6
Continuous
 62
     7
370
    30
100
AcDbSpline
210
0.0
220
0.0
230
1.0
 70
     8
 71
     3
 72
    11
 73
     7
 74
     0
 42
0.000000001
 43
0.00000001
 40
0.0
 40
0.0
 40
0.0
 40
0.0
 40
0.2496633468687647
 40
0.4978381987723337
 40
0.7487616149307471
 40
1.0
 40
1.0
 40
1.0
 40
1.0
 10
134.9580319181259
 20
244.5487584970322
 30
0.0
 10
134.8881225412401
 20
244.5452301150519
 30
0.0
 10
134.748720587759
 20
244.5381943873344
 30
0.0
 10
134.5459953658486
 20
244.4735748239726
 30
0.0
 10
134.3667961814533
 20
244.3561312269383
 30
0.0
 10
134.2787726500766
 20
244.246043948368
 30
0.0
 10
134.2347332790668
 20
244.1909657842841
 30
0.0
  0
SPLINE
  5
24D
330
1F
100
AcDbEntity
  8
0
  6
Continuous
 62
     7
370
    30
100
AcDbSpline
210
0.0
220
0.0
230
1.0
 70
     8
 71
     3
 72
     9
 73
     5
 74
     0
 42
0.000000001
 43
0.00000001
 40
0.0
 40
0.0
 40
0.0
 40
0.0
 40
0.4983499490089631
 40
1.0
 40
1.0
 40
1.0
 40
1.0
 10
135.6308975771244
 20
244.2823420330312
 30
0.0
 10
135.5332047102532
 20
244.3595139421633
 30
0.0
 10
135.337172048736
 20
244.5143687972418
 30
0.0
 10
135.0846897008282
 20
244.5372700715884
 30
0.0
 10
134.9580319181259
 20
244.5487584970322
 30
0.0
  0
SPLINE
  5
24E
330
1F
100
AcDbEntity
  8
0
  6
Continuous
 62
     7
370
    30
100
AcDbSpline
210
0.0
220
0.0
230
1.0
 70
     8
 71
     3
 72
    10
 73
     6
 74
     0
 42
0.000000001
 43
0.00000001
 40
0.0
 40
0.0
 40
0.0
 40
0.0
 40
0.4980884087131302
 40
0.7490641221794307
 40
1.0
 40
1.0
 40
1.0
 40
1.0
 10
135.9441870406444
 20
243.373916489574
 30
0.0
 10
135.9365981792297
 20
243.5398526308786
 30
0.0
 10
135.9251854586875
 20
243.7894003172931
 30
0.0
 10
135.7910421421895
 20
244.0942083059613
 30
0.0
 10
135.6842762742201
 20
244.2196341089335
 30
0.0
 10
135.6308975771244
 20
244.2823420330312
 30
0.0
  0
SPLINE
  5
24F
330
1F
100
AcDbEntity
  8
0
  6
Continuous
 62
     7
370
    30
100
AcDbSpline
210
0.0
220
0.0
230
1.0
 70
    24
 71
     3
 72
    10
 73
     6
 74
     0
 42
0.000000001
 43
0.00000001
 40
0.0
 40
0.0
 40
0.0
 40
0.0
 40
0.2517727120789526
 40
0.5035451954192884
 40
1.0
 40
1.0
 40
1.0
 40
1.0
 10
135.9441870406444
 20
243.373916489574
 30
0.0
 10
135.9441870406444
 20
243.3450666610974
 30
0.0
 10
135.9441870406444
 20
243.2873670303546
 30
0.0
 10
135.9441870406444
 20
243.172688144865
 30
0.0
 10
135.9441870406444
 20
243.0867749835377
 30
0.0
 10
135.9441870406444
 20
243.029770912173
 30
0.0
  0
SPLINE
  5
250
330
1F
100
AcDbEntity
  8
0
  6
Continuous
 62
     7
370
    30
100
AcDbSpline
210
0.0
220
0.0
230
1.0
 70
     8
 71
     3
 72
    10
 73
     6
 74
     0
 42
0.000000001
 43
0.00000001
 40
0.0
 40
0.0
 40
0.0
 40
0.0
 40
0.398763960813009
 40
0.6958862107600193
 40
0.9999999999999999
 40
0.9999999999999999
 40
0.9999999999999999
 40
0.9999999999999999
 10
134.721006597596
 20
240.4756851662312
 30
0.0
 10
134.8209140335184
 20
240.5319140165415
 30
0.0
 10
134.9952633073824
 20
240.6300394376506
 30
0.0
 10
135.2792908471886
 20
240.6792207545698
 30
0.0
 10
135.4501922051296
 20
240.6844605623727
 30
0.0
 10
135.5366365567024
 20
240.6871109321144
 30
0.0
  0
LWPOLYLINE
  5
251
330
1F
100
AcDbEntity
  8
0
  6
Continuous
 62
     7
370
    30
100
AcDbPolyline
 90
        3
 70
   128
 43
0.0
 10
134.7210065976
 20
240.4756851662
 10
134.6733862117
 20
240.5438346374
 10
134.62575465
 20
240.6119704007
  0
LINE
  5
252
330
1F
100
AcDbEntity
  8
0
  6
Continuous
 62
     7
370
    30
100
AcDbLine
 10
138.0454537973
 20
260.6538222223
 30
0.0
 11
138.0454537973
 21
219.6538210898
 31
0.0
  0
LINE
  5
253
330
1F
100
AcDbEntity
  8
0
  6
Continuous
 62
     7
370
    30
100
AcDbLine
 10
138.0454537973
 20
219.6538210898
 30
0.0
 11
133.0454529777
 21
220.1538221031
 31
0.0
  0
LINE
  5
254
330
1F
100
AcDbEntity
  8
0
  6
Continuous
 62
     7
370
    30
100
AcDbLine
 10
133.0454529777
 20
220.1538221031
 30
0.0
 11
133.0454529777
 21
260.153821209
 31
0.0
  0
LINE
  5
255
330
1F
100
AcDbEntity
  8
0
  6
Continuous
 62
     7
370
    30
100
AcDbLine
 10
133.0454529777
 20
260.153821209
 30
0.0
 11
138.0454537973
 21
260.6538222223
 31
0.0
  0
SPLINE
  5
256
330
1F
100
AcDbEntity
  8
0
  6
Continuous
 62
     7
370
    30
100
AcDbSpline
210
0.0
220
0.0
230
1.0
 70
     8
 71
     3
 72
    10
 73
     6
 74
     0
 42
0.000000001
 43
0.00000001
 40
0.0
 40
0.0
 40
0.0
 40
0.0
 40
0.4062396546339486
 40
0.7030823266572519
 40
1.0
 40
1.0
 40
1.0
 40
1.0
 10
134.5517070546921
 20
237.7460510521557
 30
0.0
 10
134.5515649109081
 20
237.6010152402896
 30
0.0
 10
134.5513189014869
 20
237.3500005623961
 30
0.0
 10
134.5515319299632
 20
236.9941152156193
 30
0.0
 10
134.5515990064208
 20
236.7834615307059
 30
0.0
 10
134.5516325488861
 20
236.6781213838037
 30
0.0
  0
LWPOLYLINE
  5
257
330
1F
100
AcDbEntity
  8
0
  6
Continuous
 62
     7
370
    30
100
AcDbPolyline
 90
        8
 70
   128
 43
0.0
 10
134.5517070547
 20
237.7460510522
 10
134.3808168128
 20
237.7460417389
 10
134.2953735545
 20
237.7460368495
 10
134.2099302963
 20
237.7460321929
 10
134.124487038
 20
237.7460275363
 10
134.0390437797
 20
237.7460228796
 10
133.949823077
 20
237.7460179902
 10
133.8606023744
 20
237.7460131008
  0
SPLINE
  5
258
330
1F
100
AcDbEntity
  8
0
  6
Continuous
 62
     7
370
    30
100
AcDbSpline
210
0.0
220
0.0
230
1.0
 70
     8
 71
     3
 72
    10
 73
     6
 74
     0
 42
0.000000001
 43
0.00000001
 40
0.0
 40
0.0
 40
0.0
 40
0.0
 40
0.3011793283858069
 40
0.6023509663555328
 40
1.0
 40
1.0
 40
1.0
 40
1.0
 10
133.8582405403431
 20
234.872681093904
 30
0.0
 10
133.8587735495861
 20
235.1575041294581
 30
0.0
 10
133.8598395544621
 20
235.7271429277975
 30
0.0
 10
133.8605644796909
 20
236.6849060968806
 30
0.0
 10
133.8605886313848
 20
237.3611888118063
 30
0.0
 10
133.8606023743923
 20
237.7460131007608
 30
0.0
  0
LWPOLYLINE
  5
259
330
1F
100
AcDbEntity
  8
0
  6
Continuous
 62
     7
370
    30
100
AcDbPolyline
 90
        6
 70
   128
 43
0.0
 10
133.8582405403
 20
234.8726810939
 10
134.0291196063
 20
234.8727155528
 10
134.2000023976
 20
234.8727500118
 10
134.2882657007
 20
234.8727677069
 10
134.376532729
 20
234.872785402
 10
134.5530630604
 20
234.872819861
  0
SPLINE
  5
25A
330
1F
100
AcDbEntity
  8
0
  6
Continuous
 62
     7
370
    30
100
AcDbSpline
210
0.0
220
0.0
230
1.0
 70
     8
 71
     3
 72
    11
 73
     7
 74
     0
 42
0.000000001
 43
0.00000001
 40
0.0
 40
0.0
 40
0.0
 40
0.0
 40
0.2496337282209694
 40
0.4992675962842897
 40
0.7496108348412979
 40
1.0
 40
1.0
 40
1.0
 40
1.0
 10
134.5519603744324
 20
235.9438762120333
 30
0.0
 10
134.5520025087301
 20
235.8542596269487
 30
0.0
 10
134.5520867773494
 20
235.6750264065771
 30
0.0
 10
134.5522819621275
 20
235.4069830772159
 30
0.0
 10
134.5522693091415
 20
235.1394363796372
 30
0.0
 10
134.5527984604432
 20
234.9616974678605
 30
0.0
 10
134.5530630603607
 20
234.8728198609676
 30
0.0
  0
LWPOLYLINE
  5
25B
330
1F
100
AcDbEntity
  8
0
  6
Continuous
 62
     7
370
    30
100
AcDbPolyline
 90
        4
 70
   128
 43
0.0
 10
134.5519603744
 20
235.943876212
 10
135.7165978804
 20
235.9440391935
 10
136.463604267
 20
235.9441421046
 10
137.2106106535
 20
235.9442440845
  0
SPLINE
  5
25C
330
1F
100
AcDbEntity
  8
0
  6
Continuous
 62
     7
370
    30
100
AcDbSpline
210
0.0
220
0.0
230
1.0
 70
     8
 71
     3
 72
    14
 73
    10
 74
     0
 42
0.000000001
 43
0.00000001
 40
0.0
 40
0.0
 40
0.0
 40
0.0
 40
0.1302739444569284
 40
0.2605480554009618
 40
0.3908217314127049
 40
0.5210953941612426
 40
0.6513689579671041
 40
0.7816429149260364
 40
1.0
 40
1.0
 40
1.0
 40
1.0
 10
137.2102716520603
 20
236.6783202211734
 30
0.0
 10
137.2101504890199
 20
236.6463450763284
 30
0.0
 10
137.2099081627843
 20
236.5823947457748
 30
0.0
 10
137.2099151175398
 20
236.4865651752374
 30
0.0
 10
137.2099602154887
 20
236.3908126601034
 30
0.0
 10
137.2099963864877
 20
236.295146313783
 30
0.0
 10
137.210052473745
 20
236.1995700110686
 30
0.0
 10
137.210034521066
 20
236.0825538257428
 30
0.0
 10
137.2103887747679
 20
235.9975095947883
 30
0.0
 10
137.2106106534775
 20
235.9442440844502
 30
0.0
  0
LWPOLYLINE
  5
25D
330
1F
100
AcDbEntity
  8
0
  6
Continuous
 62
     7
370
    30
100
AcDbPolyline
 90
        4
 70
   128
 43
0.0
 10
137.2102716521
 20
236.6783202212
 10
136.0482753769
 20
236.678233841
 10
135.2999539629
 20
236.6781777288
 10
134.5516325489
 20
236.6781213838
  0
SPLINE
  5
25E
330
1F
100
AcDbEntity
  8
0
  6
Continuous
 62
     7
370
    30
100
AcDbSpline
210
0.0
220
0.0
230
1.0
 70
     8
 71
     3
 72
    10
 73
     6
 74
     0
 42
0.000000001
 43
0.00000001
 40
0.0
 40
0.0
 40
0.0
 40
0.0
 40
0.4398866758066062
 40
0.8376370579924232
 40
1.0
 40
1.0
 40
1.0
 40
1.0
 10
134.2561387971218
 20
241.0495679993544
 30
0.0
 10
134.1341556564651
 20
240.9129841992953
 30
0.0
 10
133.901874015115
 20
240.6528998213332
 30
0.0
 10
133.7952294543088
 20
240.2403912507499
 30
0.0
 10
133.7877908880455
 20
240.0104354907571
 30
0.0
 10
133.7856346324261
 20
239.943777026994
 30
0.0
  0
SPLINE
  5
25F
330
1F
100
AcDbEntity
  8
0
  6
Continuous
 62
     7
370
    30
100
AcDbSpline
210
0.0
220
0.0
230
1.0
 70
     8
 71
     3
 72
    10
 73
     6
 74
     0
 42
0.000000001
 43
0.00000001
 40
0.0
 40
0.0
 40
0.0
 40
0.0
 40
0.4400785273108602
 40
0.8095340512839881
 40
1.0
 40
1.0
 40
1.0
 40
1.0
 10
133.7856346324261
 20
239.943777026994
 30
0.0
 10
133.8008221519309
 20
239.7618005174556
 30
0.0
 10
133.8287599253751
 20
239.4270507583493
 30
0.0
 10
134.0363559785704
 20
239.0562551618234
 30
0.0
 10
134.2006640857713
 20
238.8950404907496
 30
0.0
 10
134.2565560296352
 20
238.8402008270275
 30
0.0
  0
SPLINE
  5
260
330
1F
100
AcDbEntity
  8
0
  6
Continuous
 62
     7
370
    30
100
AcDbSpline
210
0.0
220
0.0
230
1.0
 70
     8
 71
     3
 72
    10
 73
     6
 74
     0
 42
0.000000001
 43
0.00000001
 40
0.0
 40
0.0
 40
0.0
 40
0.0
 40
0.4152904659115255
 40
0.703408486518489
 40
1.0
 40
1.0
 40
1.0
 40
1.0
 10
134.2565560296352
 20
238.8402008270275
 30
0.0
 10
134.417030373648
 20
238.7372990686815
 30
0.0
 10
134.6888377583886
 20
238.5630066732627
 30
0.0
 10
135.1369083679648
 20
238.4575787212653
 30
0.0
 10
135.4017592940116
 20
238.4426638378995
 30
0.0
 10
135.5361038401897
 20
238.4350983244728
 30
0.0
  0
SPLINE
  5
261
330
1F
100
AcDbEntity
  8
0
  6
Continuous
 62
     7
370
    30
100
AcDbSpline
210
0.0
220
0.0
230
1.0
 70
     8
 71
     3
 72
    10
 73
     6
 74
     0
 42
0.000000001
 43
0.00000001
 40
0.0
 40
0.0
 40
0.0
 40
0.0
 40
0.2735022931359514
 40
0.5430706424532714
 40
1.0
 40
1.0
 40
1.0
 40
1.0
 10
135.536394412833
 20
241.4550946611341
 30
0.0
 10
135.4124312453121
 20
241.4486030709376
 30
0.0
 10
135.1662879451804
 20
241.4357132628919
 30
0.0
 10
134.7164879829549
 20
241.3399409242701
 30
0.0
 10
134.4338827950881
 20
241.1616829898095
 30
0.0
 10
134.2561387971218
 20
241.0495679993544
 30
0.0
  0
LINE
  5
262
330
1F
100
AcDbEntity
  8
0
  6
Continuous
 62
     7
370
    30
100
AcDbLine
 10
136.1084984198
 20
243.390562018
 30
0.0
 11
136.1084388152
 21
243.2194992486
 31
0.0
  0
SPLINE
  5
263
330
1F
100
AcDbEntity
  8
0
  6
Continuous
 62
     7
370
    30
100
AcDbSpline
210
0.0
220
0.0
230
1.0
 70
     8
 71
     3
 72
    10
 73
     6
 74
     0
 42
0.000000001
 43
0.00000001
 40
0.0
 40
0.0
 40
0.0
 40
0.0
 40
0.3060700318713007
 40
0.7030104247373339
 40
1.0
 40
1.0
 40
1.0
 40
1.0
 10
136.1084984198387
 20
243.3905620179501
 30
0.0
 10
136.1044778565311
 20
243.5061420540927
 30
0.0
 10
136.0952430487283
 20
243.7716171474986
 30
0.0
 10
135.9823807007245
 20
244.1412854428893
 30
0.0
 10
135.8156287353626
 20
244.3418867982931
 30
0.0
 10
135.7442618861969
 20
244.4277405790415
 30
0.0
  0
SPLINE
  5
264
330
1F
100
AcDbEntity
  8
0
  6
Continuous
 62
     7
370
    30
100
AcDbSpline
210
0.0
220
0.0
230
1.0
 70
     8
 71
     3
 72
    10
 73
     6
 74
     0
 42
0.000000001
 43
0.00000001
 40
0.0
 40
0.0
 40
0.0
 40
0.0
 40
0.4360495498913862
 40
0.8859518150065321
 40
1.0
 40
1.0
 40
1.0
 40
1.0
 10
135.7442618861969
 20
244.4277405790415
 30
0.0
 10
135.644717639729
 20
244.508097881893
 30
0.0
 10
135.4424667582556
 20
244.6713653324112
 30
0.0
 10
135.1461303570286
 20
244.7436805160405
 30
0.0
 10
134.9794500811137
 20
244.7478707215481
 30
0.0
 10
134.9457421854313
 20
244.748718110415
 30
0.0
  0
SPLINE
  5
265
330
1F
100
AcDbEntity
  8
0
  6
Continuous
 62
     7
370
    30
100
AcDbSpline
210
0.0
220
0.0
230
1.0
 70
     8
 71
     3
 72
    10
 73
     6
 74
     0
 42
0.000000001
 43
0.00000001
 40
0.0
 40
0.0
 40
0.0
 40
0.0
 40
0.4432875816912045
 40
0.7537470732696496
 40
1.0
 40
1.0
 40
1.0
 40
1.0
 10
134.9457421854313
 20
244.748718110415
 30
0.0
 10
134.7954798776913
 20
244.7353287681704
 30
0.0
 10
134.539980334371
 20
244.7125621084519
 30
0.0
 10
134.2475940907512
 20
244.5238791808975
 30
0.0
 10
134.1315730236495
 20
244.3779146061696
 30
0.0
 10
134.0802529409702
 20
244.3133494868305
 30
0.0
  0
SPLINE
  5
266
330
1F
100
AcDbEntity
  8
0
  6
Continuous
 62
     7
370
    30
100
AcDbSpline
210
0.0
220
0.0
230
1.0
 70
     8
 71
     3
 72
    10
 73
     6
 74
     0
 42
0.000000001
 43
0.00000001
 40
0.0
 40
0.0
 40
0.0
 40
0.0
 40
0.4415024786742101
 40
0.718442098835975
 40
1.0
 40
1.0
 40
1.0
 40
1.0
 10
134.0802529409702
 20
244.3133494868305
 30
0.0
 10
134.015517897765
 20
244.1911011719835
 30
0.0
 10
133.9101767444191
 20
243.9921706106838
 30
0.0
 10
133.8669914551012
 20
243.6832608931166
 30
0.0
 10
133.8627412994456
 20
243.5109861041956
 30
0.0
 10
133.860598649102
 20
243.4241364295956
 30
0.0
  0
SPLINE
  5
267
330
1F
100
AcDbEntity
  8
0
  6
Continuous
 62
     7
370
    30
100
AcDbSpline
210
0.0
220
0.0
230
1.0
 70
     8
 71
     3
 72
    10
 73
     6
 74
     0
 42
0.000000001
 43
0.00000001
 40
0.0
 40
0.0
 40
0.0
 40
0.0
 40
0.3815965678993156
 40
0.6907654687015895
 40
1.0
 40
1.0
 40
1.0
 40
1.0
 10
133.860635902005
 20
242.4878850630846
 30
0.0
 10
133.8607868020177
 20
242.6072760201709
 30
0.0
 10
133.8610599609681
 20
242.8233973309167
 30
0.0
 10
133.8607570005153
 20
243.1354458354761
 30
0.0
 10
133.8606514366409
 20
243.3278994232578
 30
0.0
 10
133.860598649102
 20
243.4241364295956
 30
0.0
  0
LWPOLYLINE
  5
268
330
1F
100
AcDbEntity
  8
0
  6
Continuous
 62
     7
370
    30
100
AcDbPolyline
 90
        4
 70
   128
 43
0.0
 10
137.2101263657
 20
243.2194012269
 10
136.8499727503
 20
243.2194331247
 10
136.4792057827
 20
243.2194659538
 10
136.1084388152
 20
243.2194992486
  0
LWPOLYLINE
  5
269
330
1F
100
AcDbEntity
  8
0
  6
Continuous
 62
     7
370
    30
100
AcDbPolyline
 90
        3
 70
   128
 43
0.0
 10
134.2561387971
 20
241.0495679994
 10
134.3012669638
 20
241.0002118028
 10
134.3801052824
 20
240.9139878052
  0
LWPOLYLINE
  5
26A
330
1F
100
AcDbEntity
  8
0
  6
Continuous
 62
     7
370
    30
100
AcDbPolyline
 90
        3
 70
   128
 43
0.0
 10
134.72148716
 20
239.4144991464
 10
134.6736171797
 20
239.3474896141
 10
134.62575465
 20
239.2804830503
  0
SPLINE
  5
26B
330
1F
100
AcDbEntity
  8
0
  6
Continuous
 62
     7
370
    30
100
AcDbSpline
210
0.0
220
0.0
230
1.0
 70
     8
 71
     3
 72
    10
 73
     6
 74
     0
 42
0.000000001
 43
0.00000001
 40
0.0
 40
0.0
 40
0.0
 40
0.0
 40
0.3945076630511024
 40
0.879204694140006
 40
1.0
 40
1.0
 40
1.0
 40
1.0
 10
135.5367408648308
 20
239.2033696575452
 30
0.0
 10
135.4248310270281
 20
239.2076753679867
 30
0.0
 10
135.1754273679062
 20
239.2172711279334
 30
0.0
 10
134.8933088382005
 20
239.2986592437514
 30
0.0
 10
134.7500643393091
 20
239.3952327901719
 30
0.0
 10
134.7214871600445
 20
239.4144991464343
 30
0.0
  0
LWPOLYLINE
  5
26C
330
1F
100
AcDbEntity
  8
0
  6
Continuous
 62
     7
370
    30
100
AcDbPolyline
 90
        3
 70
   128
 43
0.0
 10
134.2565560296
 20
238.840200827
 10
134.3013638213
 20
238.890345912
 10
134.3801052824
 20
238.9784656749
  0
SPLINE
  5
26D
330
1F
100
AcDbEntity
  8
0
  6
Continuous
 62
     7
370
    30
100
AcDbSpline
210
0.0
220
0.0
230
1.0
 70
     8
 71
     3
 72
     9
 73
     5
 74
     0
 42
0.000000001
 43
0.00000001
 40
0.0
 40
0.0
 40
0.0
 40
0.0
 40
0.4382242721358804
 40
1.0
 40
1.0
 40
1.0
 40
1.0
 10
136.1084388151939
 20
243.2194992485818
 30
0.0
 10
136.0844884916728
 20
243.1917767317624
 30
0.0
 10
136.0298353721538
 20
243.1285157063421
 30
0.0
 10
135.9749950196107
 20
243.0652897306739
 30
0.0
 10
135.9441870406444
 20
243.029770912173
 30
0.0
  0
SPLINE
  5
26E
330
1F
100
AcDbEntity
  8
0
  6
Continuous
 62
     7
370
    30
100
AcDbSpline
210
0.0
220
0.0
230
1.0
 70
     8
 71
     3
 72
    10
 73
     6
 74
     0
 42
0.000000001
 43
0.00000001
 40
0.0
 40
0.0
 40
0.0
 40
0.0
 40
0.4653853316735108
 40
0.7995529275681167
 40
1.0
 40
1.0
 40
1.0
 40
1.0
 10
134.4750852838333
 20
239.9464344686492
 30
0.0
 10
134.4830758182367
 20
240.0411841852396
 30
0.0
 10
134.4968039156655
 20
240.2039684591095
 30
0.0
 10
134.609129608841
 20
240.3792323365485
 30
0.0
 10
134.6904983917883
 20
240.4493830391232
 30
0.0
 10
134.721006597596
 20
240.4756851662312
 30
0.0
  0
LWPOLYLINE
  5
26F
330
1F
100
AcDbEntity
  8
0
  6
Continuous
 62
     7
370
    30
100
AcDbPolyline
 90
        3
 70
   128
 43
0.0
 10
134.4750852838
 20
239.9464344686
 10
134.3931810513
 20
239.9469294229
 10
134.3112768188
 20
239.9474134342
  0
SPLINE
  5
270
330
1F
100
AcDbEntity
  8
0
  6
Continuous
 62
     7
370
    30
100
AcDbSpline
210
0.0
220
0.0
230
1.0
 70
     8
 71
     3
 72
    10
 73
     6
 74
     0
 42
0.000000001
 43
0.00000001
 40
0.0
 40
0.0
 40
0.0
 40
0.0
 40
0.3675428031874946
 40
0.6879334518962744
 40
1.0
 40
1.0
 40
1.0
 40
1.0
 10
134.7214871600445
 20
239.4144991464343
 30
0.0
 10
134.6656761920995
 20
239.4650572422549
 30
0.0
 10
134.5612142586892
 20
239.5596873236428
 30
0.0
 10
134.4843185009575
 20
239.7547130827989
 30
0.0
 10
134.4781358987187
 20
239.8830905544257
 30
0.0
 10
134.4750852838333
 20
239.9464344686492
 30
0.0
  0
LWPOLYLINE
  5
271
330
1F
100
AcDbEntity
  8
0
  6
Continuous
 62
     7
370
    30
100
AcDbPolyline
 90
        3
 70
   128
 43
0.0
 10
133.7856346324
 20
239.943777027
 10
133.8524886921
 20
239.9442362563
 10
133.9695037857
 20
239.9450400168
  0
LWPOLYLINE
  5
272
330
1F
100
AcDbEntity
  8
0
  6
Continuous
 62
     7
370
    30
100
AcDbPolyline
 90
        3
 70
   128
 43
0.0
 10
136.1084984198
 20
243.390562018
 10
136.0263445929
 20
243.3822392538
 10
135.9441870406
 20
243.3739164896
  0
LINE
  5
273
330
1F
100
AcDbEntity
  8
0
  6
Continuous
 62
     7
370
    30
100
AcDbLine
 10
134.5516325489
 20
236.6781213838
 30
0.0
 11
134.3872280374
 21
236.5209101751
 31
0.0
  0
LWPOLYLINE
  5
274
330
1F
100
AcDbEntity
  8
0
  6
Continuous
 62
     7
370
    30
100
AcDbPolyline
 90
        3
 70
   128
 43
0.0
 10
137.2102716521
 20
236.6783202212
 10
137.1278645054
 20
236.5996153145
 10
137.0454536334
 20
236.5209101751
  0
LINE
  5
275
330
1F
100
AcDbEntity
  8
0
  6
Continuous
 62
     7
370
    30
100
AcDbLine
 10
137.0454536334
 20
236.5209101751
 30
0.0
 11
134.3872280374
 21
236.5209101751
 31
0.0
  0
SPLINE
  5
276
330
1F
100
AcDbEntity
  8
0
  6
Continuous
 62
     7
370
    30
100
AcDbSpline
210
0.0
220
0.0
230
1.0
 70
    24
 71
     3
 72
    10
 73
     6
 74
     0
 42
0.000000001
 43
0.00000001
 40
0.0
 40
0.0
 40
0.0
 40
0.0
 40
0.251877434519519
 40
0.5037551004775507
 40
1.0
 40
1.0
 40
1.0
 40
1.0
 10
137.0454536333854
 20
236.5209101750877
 30
0.0
 10
137.0454536333854
 20
236.4889788069246
 30
0.0
 10
137.0454536333854
 20
236.4251160412581
 30
0.0
 10
137.0454536333854
 20
236.2984730265727
 30
0.0
 10
137.0454536333854
 20
236.2038973580172
 30
0.0
 10
137.0454536333854
 20
236.1411633952882
 30
0.0
  0
LINE
  5
277
330
1F
100
AcDbEntity
  8
0
  6
Continuous
 62
     7
370
    30
100
AcDbLine
 10
134.3872280374
 20
236.1411633953
 30
0.0
 11
137.0454536334
 21
236.1411633953
 31
0.0
  0
SPLINE
  5
278
330
1F
100
AcDbEntity
  8
0
  6
Continuous
 62
     7
370
    30
100
AcDbSpline
210
0.0
220
0.0
230
1.0
 70
     8
 71
     3
 72
    10
 73
     6
 74
     0
 42
0.000000001
 43
0.00000001
 40
0.0
 40
0.0
 40
0.0
 40
0.0
 40
0.2520559171907688
 40
0.5041109690477816
 40
1.0
 40
1.0
 40
1.0
 40
1.0
 10
134.3872280374344
 20
236.1411633952882
 30
0.0
 10
134.3872264993346
 20
236.0513657254943
 30
0.0
 10
134.3872234231405
 20
235.871770694191
 30
0.0
 10
134.3872243749724
 20
235.5167183234014
 30
0.0
 10
134.387226577291
 20
235.252830669038
 30
0.0
 10
134.3872280374344
 20
235.0778724118497
 30
0.0
  0
LINE
  5
279
330
1F
100
AcDbEntity
  8
0
  6
Continuous
 62
     7
370
    30
100
AcDbLine
 10
134.0454550043
 20
235.0778724118
 30
0.0
 11
134.3872280374
 21
235.0778724118
 31
0.0
  0
SPLINE
  5
27A
330
1F
100
AcDbEntity
  8
0
  6
Continuous
 62
     7
370
    30
100
AcDbSpline
210
0.0
220
0.0
230
1.0
 70
     8
 71
     3
 72
    10
 73
     6
 74
     0
 42
0.000000001
 43
0.00000001
 40
0.0
 40
0.0
 40
0.0
 40
0.0
 40
0.3454372099676228
 40
0.6724352702225925
 40
0.9999999999999999
 40
0.9999999999999999
 40
0.9999999999999999
 40
0.9999999999999999
 10
134.0454550042923
 20
235.0778724118497
 30
0.0
 10
134.0454579880762
 20
235.3634749429658
 30
0.0
 10
134.0454637963721
 20
235.9194347806603
 30
0.0
 10
134.0454639768725
 20
236.7560600823055
 30
0.0
 10
134.045457996878
 20
237.3079950142364
 30
0.0
 10
134.0454550042923
 20
237.5842013913568
 30
0.0
  0
LINE
  5
27B
330
1F
100
AcDbEntity
  8
0
  6
Continuous
 62
     7
370
    30
100
AcDbLine
 10
134.3872280374
 20
237.5842013914
 30
0.0
 11
134.0454550043
 21
237.5842013914
 31
0.0
  0
SPLINE
  5
27C
330
1F
100
AcDbEntity
  8
0
  6
Continuous
 62
     7
370
    30
100
AcDbSpline
210
0.0
220
0.0
230
1.0
 70
     8
 71
     3
 72
    10
 73
     6
 74
     0
 42
0.000000001
 43
0.00000001
 40
0.0
 40
0.0
 40
0.0
 40
0.0
 40
0.4075071004675576
 40
0.7037164109890831
 40
1.0
 40
1.0
 40
1.0
 40
1.0
 10
134.3872280374344
 20
237.5842013913568
 30
0.0
 10
134.3872265466423
 20
237.4393197010173
 30
0.0
 10
134.3872239722212
 20
237.1891262122982
 30
0.0
 10
134.3872234798047
 20
236.8348025490206
 30
0.0
 10
134.3872265180975
 20
236.6255497107986
 30
0.0
 10
134.3872280374344
 20
236.5209101750877
 30
0.0
  0
LWPOLYLINE
  5
27D
330
1F
100
AcDbEntity
  8
0
  6
Continuous
 62
     7
370
    30
100
AcDbPolyline
 90
        3
 70
   128
 43
0.0
 10
137.2106106535
 20
235.9442440845
 10
137.1280321434
 20
236.0427039727
 10
137.0454536334
 20
236.1411633953
  0
SPLINE
  5
27E
330
1F
100
AcDbEntity
  8
0
  6
Continuous
 62
     7
370
    30
100
AcDbSpline
210
0.0
220
0.0
230
1.0
 70
     8
 71
     3
 72
     9
 73
     5
 74
     0
 42
0.000000001
 43
0.00000001
 40
0.0
 40
0.0
 40
0.0
 40
0.0
 40
0.4999981796130505
 40
1.0
 40
1.0
 40
1.0
 40
1.0
 10
135.4177029386337
 20
243.2195614143636
 30
0.0
 10
135.4484422276861
 20
243.1879166843476
 30
0.0
 10
135.5099210296214
 20
243.124626993892
 30
0.0
 10
135.5715854235669
 20
243.0613896828236
 30
0.0
 10
135.6024177327926
 20
243.029770912173
 30
0.0
  0
LINE
  5
27F
330
1F
100
AcDbEntity
  8
0
  6
Continuous
 62
     7
370
    30
100
AcDbLine
 10
135.4177029386
 20
243.2195614144
 30
0.0
 11
135.4176396087
 21
243.3229696523
 31
0.0
  0
LWPOLYLINE
  5
280
330
1F
100
AcDbEntity
  8
0
  6
Continuous
 62
     7
370
    30
100
AcDbPolyline
 90
        3
 70
   128
 43
0.0
 10
135.4176396087
 20
243.3229696523
 10
135.5100268081
 20
243.3149188343
 10
135.6024177328
 20
243.3068675506
  0
SPLINE
  5
281
330
1F
100
AcDbEntity
  8
0
  6
Continuous
 62
     7
370
    30
100
AcDbSpline
210
0.0
220
0.0
230
1.0
 70
     8
 71
     3
 72
     9
 73
     5
 74
     0
 42
0.000000001
 43
0.00000001
 40
0.0
 40
0.0
 40
0.0
 40
0.0
 40
0.4289680074983239
 40
1.0
 40
1.0
 40
1.0
 40
1.0
 10
134.5514835372742
 20
243.2196401111212
 30
0.0
 10
134.5280378467755
 20
243.192483227187
 30
0.0
 10
134.4733818116193
 20
243.1291757463039
 30
0.0
 10
134.4185428429693
 20
243.0659021563291
 30
0.0
 10
134.3872280374344
 20
243.029770912173
 30
0.0
  0
LWPOLYLINE
  5
282
330
1F
100
AcDbEntity
  8
0
  6
Continuous
 62
     7
370
    30
100
AcDbPolyline
 90
        3
 70
   128
 43
0.0
 10
135.4177029386
 20
243.2195614144
 10
135.041519399
 20
243.2195954076
 10
134.5514835373
 20
243.2196401111
  0
LINE
  5
283
330
1F
100
AcDbEntity
  8
0
  6
Continuous
 62
     7
370
    30
100
AcDbLine
 10
135.7442618862
 20
244.427740579
 30
0.0
 11
135.6308975771
 21
244.282342033
 31
0.0
  0
SPLINE
  5
284
330
1F
100
AcDbEntity
  8
0
  6
Continuous
 62
     7
370
    30
100
AcDbSpline
210
0.0
220
0.0
230
1.0
 70
     8
 71
     3
 72
    10
 73
     6
 74
     0
 42
0.000000001
 43
0.00000001
 40
0.0
 40
0.0
 40
0.0
 40
0.0
 40
0.2465286588035562
 40
0.5883323390067334
 40
1.0
 40
1.0
 40
1.0
 40
1.0
 10
135.2868483916099
 20
243.8540316704091
 30
0.0
 10
135.3153046880931
 20
243.8174116719622
 30
0.0
 10
135.3832146809948
 20
243.7300192793485
 30
0.0
 10
135.4119846718385
 20
243.5398277300729
 30
0.0
 10
135.4156416027732
 20
243.3995900876846
 30
0.0
 10
135.4176396086986
 20
243.3229696522828
 30
0.0
  0
SPLINE
  5
285
330
1F
100
AcDbEntity
  8
0
  6
Continuous
 62
     7
370
    30
100
AcDbSpline
210
0.0
220
0.0
230
1.0
 70
     8
 71
     3
 72
     9
 73
     5
 74
     0
 42
0.000000001
 43
0.00000001
 40
0.0
 40
0.0
 40
0.0
 40
0.0
 40
0.8182159846052978
 40
1.0
 40
1.0
 40
1.0
 40
1.0
 10
135.2868483916099
 20
243.8540316704091
 30
0.0
 10
135.3234079502277
 20
243.8824784849892
 30
0.0
 10
135.3680899893294
 20
243.9172453620918
 30
0.0
 10
135.4127350504567
 20
243.9520447861948
 30
0.0
 10
135.4208508089359
 20
243.9583707652416
 30
0.0
  0
LINE
  5
286
330
1F
100
AcDbEntity
  8
0
  6
Continuous
 62
     7
370
    30
100
AcDbLine
 10
134.5519603744
 20
235.943876212
 30
0.0
 11
134.3872280374
 21
236.1411633953
 31
0.0
  0
LWPOLYLINE
  5
287
330
1F
100
AcDbEntity
  8
0
  6
Continuous
 62
     7
370
    30
100
AcDbPolyline
 90
        3
 70
   128
 43
0.0
 10
134.5517070547
 20
237.7460510522
 10
134.4694675461
 20
237.6651263382
 10
134.3872280374
 20
237.5842013914
  0
LWPOLYLINE
  5
288
330
1F
100
AcDbEntity
  8
0
  6
Continuous
 62
     7
370
    30
100
AcDbPolyline
 90
        3
 70
   128
 43
0.0
 10
133.8606023744
 20
237.7460131008
 10
133.9427375749
 20
237.6741147652
 10
134.0454550043
 20
237.5842013914
  0
LWPOLYLINE
  5
289
330
1F
100
AcDbEntity
  8
0
  6
Continuous
 62
     7
370
    30
100
AcDbPolyline
 90
        3
 70
   128
 43
0.0
 10
133.8605986491
 20
243.4241364296
 10
133.9530268267
 20
243.4147503279
 10
134.0454550043
 20
243.405364459
  0
LWPOLYLINE
  5
28A
330
1F
100
AcDbEntity
  8
0
  6
Continuous
 62
     7
370
    30
100
AcDbPolyline
 90
        4
 70
   128
 43
0.0
 10
133.8582405403
 20
234.8726810939
 10
133.9272664443
 20
234.9483342893
 10
133.9863607243
 20
235.0131031177
 10
134.0454550043
 20
235.0778724118
  0
LWPOLYLINE
  5
28B
330
1F
100
AcDbEntity
  8
0
  6
Continuous
 62
     7
370
    30
100
AcDbPolyline
 90
        3
 70
   128
 43
0.0
 10
134.5515394166
 20
243.381118407
 10
134.4693818644
 20
243.3739588648
 10
134.3872280374
 20
243.3667962957
  0
LINE
  5
28C
330
1F
100
AcDbEntity
  8
0
  6
Continuous
 62
     7
370
    30
100
AcDbLine
 10
134.5515394166
 20
243.381118407
 30
0.0
 11
134.5514835373
 21
243.2196401111
 31
0.0
  0
LWPOLYLINE
  5
28D
330
1F
100
AcDbEntity
  8
0
  6
Continuous
 62
     7
370
    30
100
AcDbPolyline
 90
        3
 70
   128
 43
0.0
 10
134.6389049247
 20
243.831874575
 10
134.5264868394
 20
243.8975025486
 10
134.50352415
 20
243.9109024178
  0
SPLINE
  5
28E
330
1F
100
AcDbEntity
  8
0
  6
Continuous
 62
     7
370
    30
100
AcDbSpline
210
0.0
220
0.0
230
1.0
 70
     8
 71
     3
 72
    10
 73
     6
 74
     0
 42
0.000000001
 43
0.00000001
 40
0.0
 40
0.0
 40
0.0
 40
0.0
 40
0.3535142111784124
 40
0.6690297895942251
 40
1.0
 40
1.0
 40
1.0
 40
1.0
 10
134.5515394166286
 20
243.3811184070435
 30
0.0
 10
134.5527539786161
 20
243.4356194485258
 30
0.0
 10
134.555052551418
 20
243.5387633085535
 30
0.0
 10
134.5717684263383
 20
243.6942880318888
 30
0.0
 10
134.6161722584716
 20
243.7852872635149
 30
0.0
 10
134.6389049247082
 20
243.8318745750364
 30
0.0
  0
SPLINE
  5
28F
330
1F
100
AcDbEntity
  8
0
  6
Continuous
 62
     7
370
    30
100
AcDbSpline
210
0.0
220
0.0
230
1.0
 70
     8
 71
     3
 72
    10
 73
     6
 74
     0
 42
0.000000001
 43
0.00000001
 40
0.0
 40
0.0
 40
0.0
 40
0.0
 40
0.2812705488291308
 40
0.6863099270564441
 40
1.0
 40
1.0
 40
1.0
 40
1.0
 10
134.9592873409565
 20
243.9752197876003
 30
0.0
 10
134.9931008876532
 20
243.9741962970204
 30
0.0
 10
135.0756071182684
 20
243.9716989443891
 30
0.0
 10
135.1937474394967
 20
243.9348635927844
 30
0.0
 10
135.2585606231424
 20
243.8785916201522
 30
0.0
 10
135.2868483916099
 20
243.8540316704091
 30
0.0
  0
LWPOLYLINE
  5
290
330
1F
100
AcDbEntity
  8
0
  6
Continuous
 62
     7
370
    30
100
AcDbPolyline
 90
        3
 70
   128
 43
0.0
 10
134.959287341
 20
243.9752197876
 10
134.9661567763
 20
244.1051984257
 10
134.9675276831
 20
244.1310370393
  0
LWPOLYLINE
  5
291
330
1F
100
AcDbEntity
  8
0
  6
Continuous
 62
     7
370
    30
100
AcDbPolyline
 90
        3
 70
   128
 43
0.0
 10
134.080252941
 20
244.3133494868
 10
134.1444918469
 20
244.2624587617
 10
134.2347332791
 20
244.1909657843
  0
SPLINE
  5
292
330
1F
100
AcDbEntity
  8
0
  6
Continuous
 62
     7
370
    30
100
AcDbSpline
210
0.0
220
0.0
230
1.0
 70
     8
 71
     3
 72
    10
 73
     6
 74
     0
 42
0.000000001
 43
0.00000001
 40
0.0
 40
0.0
 40
0.0
 40
0.0
 40
0.286915741042306
 40
0.577260866689711
 40
1.0
 40
1.0
 40
1.0
 40
1.0
 10
134.6389049247082
 20
243.8318745750364
 30
0.0
 10
134.6609192298855
 20
243.8595471878914
 30
0.0
 10
134.7052109680805
 20
243.9152231728416
 30
0.0
 10
134.8205675502627
 20
243.9675746021375
 30
0.0
 10
134.9076575854064
 20
243.9723743460479
 30
0.0
 10
134.9592873409565
 20
243.9752197876003
 30
0.0
  0
LWPOLYLINE
  5
293
330
1F
100
AcDbEntity
  8
0
  6
Continuous
 62
     7
370
    30
100
AcDbPolyline
 90
        3
 70
   128
 43
0.0
 10
134.9457421854
 20
244.7487181104
 10
134.9507713273
 20
244.6669261023
 10
134.9580319181
 20
244.548758497
  0
LWPOLYLINE
  5
294
330
1F
100
AcDbEntity
  8
0
  6
Continuous
 62
     7
370
    30
100
AcDbPolyline
 90
        3
 70
   128
 43
0.0
 10
134.5530630604
 20
234.872819861
 10
134.4865331009
 20
234.9550826527
 10
134.3872280374
 20
235.0778724118
  0
LINE
  5
295
330
1F
100
AcDbEntity
  8
0
  6
Continuous
 62
     7
370
    30
100
AcDbLine
 10
180.5929321379
 20
215.8971545338
 30
0.0
 11
180.4174532697
 21
217.9028918087
 31
0.0
  0
LINE
  5
296
330
1F
100
AcDbEntity
  8
0
  6
Continuous
 62
     7
370
    30
100
AcDbLine
 10
180.4174532697
 20
262.4047515034
 30
0.0
 11
180.5929321379
 21
264.4104887783
 31
0.0
  0
ARC
  5
297
330
1F
100
AcDbEntity
  8
0
  6
Continuous
 62
     7
370
    30
100
AcDbCircle
 10
181.4486108559
 20
214.7219885504
 30
0.0
 40
0.7499999999999998
100
AcDbArc
 50
185.0
 51
280.0
  0
LWPOLYLINE
  5
298
330
1F
100
AcDbEntity
  8
0
  6
Continuous
 62
     7
370
    30
100
AcDbPolyline
 90
        9
 70
   128
 43
0.0
 10
180.7014647454
 20
214.6566216885
 10
180.6993832395
 20
214.6804095297
 10
180.6932197467
 20
214.7508678078
 10
180.6832061663
 20
214.8653161764
 10
180.6697262034
 20
215.0193979084
 10
180.6532911539
 20
215.2072456717
 10
180.634527798
 20
215.4217143595
 10
180.6141495288
 20
215.6546381354
 10
180.5929321379
 20
215.8971545338
  0
LWPOLYLINE
  5
299
330
1F
100
AcDbEntity
  8
0
  6
Continuous
 62
     7
370
    30
100
AcDbPolyline
 90
        9
 70
   128
 43
0.0
 10
180.5929321379
 20
264.4104887783
 10
180.6141495288
 20
264.6530051767
 10
180.634527798
 20
264.8859289526
 10
180.6532911539
 20
265.1003976404
 10
180.6697262034
 20
265.2882454037
 10
180.6832061663
 20
265.4423271357
 10
180.6932197467
 20
265.5567755043
 10
180.6993832395
 20
265.6272337824
 10
180.7014647454
 20
265.6510216236
  0
ARC
  5
29A
330
1F
100
AcDbEntity
  8
0
  6
Continuous
 62
     7
370
    30
100
AcDbCircle
 10
181.4486108559
 20
265.5856547617
 30
0.0
 40
0.7499999999999718
100
AcDbArc
 50
80.0
 51
175.0
  0
LINE
  5
29B
330
1F
100
AcDbEntity
  8
0
  6
Continuous
 62
     7
370
    30
100
AcDbLine
 10
181.7191022963
 20
214.0081138402
 30
0.0
 11
181.5788469792
 21
213.9833835005
 31
0.0
  0
LINE
  5
29C
330
1F
100
AcDbEntity
  8
0
  6
Continuous
 62
     7
370
    30
100
AcDbLine
 10
181.5788469792
 20
266.3242598116
 30
0.0
 11
181.7191022963
 21
266.2995294719
 31
0.0
  0
LINE
  5
29D
330
1F
100
AcDbEntity
  8
0
  6
Continuous
 62
     7
370
    30
100
AcDbLine
 10
182.5454545722
 20
216.0006561368
 30
0.0
 11
182.5454545722
 21
214.9929204076
 31
0.0
  0
ARC
  5
29E
330
1F
100
AcDbEntity
  8
0
  6
Continuous
 62
     7
370
    30
100
AcDbCircle
 10
181.54545414
 20
214.9929212872
 30
0.0
 40
1.000000000000026
100
AcDbArc
 50
280.0
 51
0.0
  0
LINE
  5
29F
330
1F
100
AcDbEntity
  8
0
  6
Continuous
 62
     7
370
    30
100
AcDbLine
 10
182.5454545722
 20
219.2187053203
 30
0.0
 11
182.5454545722
 21
216.0006561368
 31
0.0
  0
LINE
  5
2A0
330
1F
100
AcDbEntity
  8
0
  6
Continuous
 62
     7
370
    30
100
AcDbLine
 10
182.5454545722
 20
264.3069871753
 30
0.0
 11
182.5454545722
 21
261.0889379918
 31
0.0
  0
ARC
  5
2A1
330
1F
100
AcDbEntity
  8
0
  6
Continuous
 62
     7
370
    30
100
AcDbCircle
 10
181.54545414
 20
265.3147220249
 30
0.0
 40
1.0
100
AcDbArc
 50
0.0
 51
80.0
  0
LINE
  5
2A2
330
1F
100
AcDbEntity
  8
0
  6
Continuous
 62
     7
370
    30
100
AcDbLine
 10
182.5454545722
 20
265.3147229045
 30
0.0
 11
182.5454545722
 21
264.3069871753
 31
0.0
  0
LINE
  5
2A3
330
1F
100
AcDbEntity
  8
0
  6
Continuous
 62
     7
370
     0
100
AcDbLine
 10
169.6108546855
 20
235.4038180835
 30
0.0
 11
169.6108546855
 21
244.903441058
 31
0.0
  0
SPLINE
  5
2A4
330
1F
100
AcDbEntity
  8
0
  6
Continuous
 62
     7
370
     0
100
AcDbSpline
210
0.0
220
0.0
230
1.0
 70
     8
 71
     3
 72
    11
 73
     7
 74
     0
 42
0.000000001
 43
0.00000001
 40
0.0
 40
0.0
 40
0.0
 40
0.0
 40
0.2500000965286382
 40
0.5000001003927952
 40
0.7500000056633332
 40
1.0
 40
1.0
 40
1.0
 40
1.0
 10
169.6108546855102
 20
244.9034410580423
 30
0.0
 10
169.7745565400193
 20
244.9034729807845
 30
0.0
 10
170.1019601883602
 20
244.9035368262571
 30
0.0
 10
170.5382391013254
 20
244.9036335424382
 30
0.0
 10
170.8871401602146
 20
244.9037292608249
 30
0.0
 10
171.0020694143535
 20
244.9037932393407
 30
0.0
 10
171.0595340516593
 20
244.9038252286043
 30
0.0
  0
LINE
  5
2A5
330
1F
100
AcDbEntity
  8
0
  6
Continuous
 62
     7
370
     0
100
AcDbLine
 10
171.0595340517
 20
244.9038252286
 30
0.0
 11
171.0595340517
 21
235.4038180835
 31
0.0
  0
SPLINE
  5
2A6
330
1F
100
AcDbEntity
  8
0
  6
Continuous
 62
     7
370
     0
100
AcDbSpline
210
0.0
220
0.0
230
1.0
 70
    24
 71
     3
 72
    11
 73
     7
 74
     0
 42
0.000000001
 43
0.00000001
 40
0.0
 40
0.0
 40
0.0
 40
0.0
 40
0.2500000965403703
 40
0.5000001003693425
 40
0.7500000056516053
 40
1.0
 40
1.0
 40
1.0
 40
1.0
 10
169.6108546855102
 20
235.4038180834975
 30
0.0
 10
169.7745565400106
 20
235.4038180834975
 30
0.0
 10
170.1019601883032
 20
235.4038180834975
 30
0.0
 10
170.5382391013777
 20
235.4038180834975
 30
0.0
 10
170.887140160207
 20
235.4038180834975
 30
0.0
 10
171.002069414351
 20
235.4038180834975
 30
0.0
 10
171.0595340516593
 20
235.4038180834975
 30
0.0
  0
SPLINE
  5
2A7
330
1F
100
AcDbEntity
  8
0
  6
Continuous
 62
     7
370
     0
100
AcDbSpline
210
0.0
220
0.0
230
1.0
 70
     8
 71
     3
 72
    10
 73
     6
 74
     0
 42
0.000000001
 43
0.00000001
 40
0.0
 40
0.0
 40
0.0
 40
0.0
 40
0.0261144760136467
 40
0.5126446325443436
 40
1.0
 40
1.0
 40
1.0
 40
1.0
 10
169.6108546855102
 20
244.9034410580423
 30
0.0
 10
169.6108292478014
 20
244.9117041663498
 30
0.0
 10
169.6103298885616
 20
245.0739145097537
 30
0.0
 10
169.5700216608398
 20
245.3886985194575
 30
0.0
 10
169.5536479699823
 20
245.6963505718304
 30
0.0
 10
169.5454541875224
 20
245.8503069407668
 30
0.0
  0
SPLINE
  5
2A8
330
1F
100
AcDbEntity
  8
0
  6
Continuous
 62
     7
370
     0
100
AcDbSpline
210
0.0
220
0.0
230
1.0
 70
    24
 71
     3
 72
    11
 73
     7
 74
     0
 42
0.000000001
 43
0.00000001
 40
0.0
 40
0.0
 40
0.0
 40
0.0
 40
0.249999902229233
 40
0.5000001043534422
 40
0.7499999614225488
 40
0.9999999999999999
 40
0.9999999999999999
 40
0.9999999999999999
 40
0.9999999999999999
 10
169.5454541875224
 20
245.8503069407668
 30
0.0
 10
169.7420097950676
 20
245.8503069407668
 30
0.0
 10
170.1351212459422
 20
245.8503069407668
 30
0.0
 10
170.6309378007551
 20
245.8503069407668
 30
0.0
 10
170.9778122829104
 20
245.8503069407668
 30
0.0
 10
171.0229068116105
 20
245.8503069407668
 30
0.0
 10
171.0454540841456
 20
245.8503069407668
 30
0.0
  0
SPLINE
  5
2A9
330
1F
100
AcDbEntity
  8
0
  6
Continuous
 62
     7
370
     0
100
AcDbSpline
210
0.0
220
0.0
230
1.0
 70
     8
 71
     3
 72
    13
 73
     9
 74
     0
 42
0.000000001
 43
0.00000001
 40
0.0
 40
0.0
 40
0.0
 40
0.0
 40
0.0000579729942383
 40
0.3578290052129911
 40
0.804890199721537
 40
0.9625778081382392
 40
0.9999423927043283
 40
1.0
 40
1.0
 40
1.0
 40
1.0
 10
171.0454540841456
 20
245.8499721303012
 30
0.0
 10
171.0454540841148
 20
245.8499567635272
 30
0.0
 10
171.0454538939537
 20
245.755107816153
 30
0.0
 10
171.0533739631776
 20
245.5293119658685
 30
0.0
 10
171.0585768737261
 20
245.2073425816861
 30
0.0
 10
171.0595235182284
 20
244.9846821951299
 30
0.0
 10
171.059534052698
 20
244.9168526456512
 30
0.0
 10
171.0595340516608
 20
244.9038452520378
 30
0.0
 10
171.0595340516593
 20
244.9038252286043
 30
0.0
  0
SPLINE
  5
2AA
330
1F
100
AcDbEntity
  8
0
  6
Continuous
 62
     7
370
     0
100
AcDbSpline
210
0.0
220
0.0
230
1.0
 70
     8
 71
     3
 72
     9
 73
     5
 74
     0
 42
0.000000001
 43
0.00000001
 40
0.0
 40
0.0
 40
0.0
 40
0.0
 40
0.5001203599018444
 40
0.9999999999999999
 40
0.9999999999999999
 40
0.9999999999999999
 40
0.9999999999999999
 10
169.5454541875224
 20
234.4573326460447
 30
0.0
 10
169.5557894852791
 20
234.6151573978192
 30
0.0
 10
169.5764551061685
 20
234.9307309365679
 30
0.0
 10
169.5993899217409
 20
235.2461476768729
 30
0.0
 10
169.6108545690949
 20
235.4038180834975
 30
0.0
  0
SPLINE
  5
2AB
330
1F
100
AcDbEntity
  8
0
  6
Continuous
 62
     7
370
     0
100
AcDbSpline
210
0.0
220
0.0
230
1.0
 70
     8
 71
     3
 72
    12
 73
     8
 74
     0
 42
0.000000001
 43
0.00000001
 40
0.0
 40
0.0
 40
0.0
 40
0.0
 40
0.0000576289988839
 40
0.1669939910953515
 40
0.629684434020588
 40
0.9999420051647746
 40
1.0
 40
1.0
 40
1.0
 40
1.0
 10
171.0595340516593
 20
235.4038180834975
 30
0.0
 10
171.0595340516654
 20
235.4037980600631
 30
0.0
 10
171.0595340695517
 20
235.3457753059046
 30
0.0
 10
171.0589478236679
 20
235.1269031923621
 30
0.0
 10
171.0537890899825
 20
234.7900021193754
 30
0.0
 10
171.0454538906694
 20
234.5558083107607
 30
0.0
 10
171.0454540841153
 20
234.4576865485741
 30
0.0
 10
171.0454540841456
 20
234.4576711818006
 30
0.0
  0
SPLINE
  5
2AC
330
1F
100
AcDbEntity
  8
0
  6
Continuous
 62
     7
370
     0
100
AcDbSpline
210
0.0
220
0.0
230
1.0
 70
     8
 71
     3
 72
    11
 73
     7
 74
     0
 42
0.000000001
 43
0.00000001
 40
0.0
 40
0.0
 40
0.0
 40
0.0
 40
0.249999902236416
 40
0.500000104367802
 40
0.7499999614440925
 40
0.9999999999999999
 40
0.9999999999999999
 40
0.9999999999999999
 40
0.9999999999999999
 10
169.5454541875224
 20
234.4573326460447
 30
0.0
 10
169.7420097950675
 20
234.4573608989469
 30
0.0
 10
170.1351212459421
 20
234.457417404785
 30
0.0
 10
170.6309378007553
 20
234.4575021134077
 30
0.0
 10
170.9778122828965
 20
234.4575870218854
 30
0.0
 10
171.0229068116067
 20
234.4576431284887
 30
0.0
 10
171.0454540841456
 20
234.4576711818006
 30
0.0
  0
LINE
  5
2AD
330
1F
100
AcDbEntity
  8
0
  6
Continuous
 62
     7
370
     0
100
AcDbLine
 10
169.5454541875
 20
247.6538214884
 30
0.0
 11
169.0454541638
 21
247.6538214884
 31
0.0
  0
LINE
  5
2AE
330
1F
100
AcDbEntity
  8
0
  6
Continuous
 62
     7
370
     0
100
AcDbLine
 10
169.5454541875
 20
245.8503069408
 30
0.0
 11
169.5454541875
 21
247.6538214884
 31
0.0
  0
LINE
  5
2AF
330
1F
100
AcDbEntity
  8
0
  6
Continuous
 62
     7
370
     0
100
AcDbLine
 10
169.5454541875
 20
232.6538218237
 30
0.0
 11
169.5454541875
 21
234.457332646
 31
0.0
  0
LINE
  5
2B0
330
1F
100
AcDbEntity
  8
0
  6
Continuous
 62
     7
370
     0
100
AcDbLine
 10
169.0454541638
 20
232.6538218237
 30
0.0
 11
169.5454541875
 21
232.6538218237
 31
0.0
  0
ELLIPSE
  5
2B1
330
1F
100
AcDbEntity
  8
0
  6
Continuous
 62
     7
370
     0
100
AcDbEllipse
 10
169.54545414
 20
246.6538216561
 30
0.0
 11
1.5
 21
0.0
 31
0.0
210
0.0
220
0.0
230
1.0
 40
0.6666666667
 41
0.0
 42
1.570796326794897
  0
ELLIPSE
  5
2B2
330
1F
100
AcDbEntity
  8
0
  6
Continuous
 62
     7
370
     0
100
AcDbEllipse
 10
169.54545414
 20
233.6538216561
 30
0.0
 11
1.5
 21
0.0
 31
0.0
210
0.0
220
0.0
230
1.0
 40
0.6666666667
 41
4.712388980384699
 42
6.283185307179586
  0
LINE
  5
2B3
330
1F
100
AcDbEntity
  8
0
  6
Continuous
 62
     7
370
     0
100
AcDbLine
 10
169.5454541875
 20
247.6538214884
 30
0.0
 11
169.5454541875
 21
248.153822036
 31
0.0
  0
LINE
  5
2B4
330
1F
100
AcDbEntity
  8
0
  6
Continuous
 62
     7
370
     0
100
AcDbLine
 10
169.5454541875
 20
232.1538212761
 30
0.0
 11
169.5454541875
 21
232.6538218237
 31
0.0
  0
LINE
  5
2B5
330
1F
100
AcDbEntity
  8
0
  6
Continuous
 62
     7
370
     0
100
AcDbLine
 10
168.54545414
 20
246.2788214959
 30
0.0
 11
169.0454541638
 21
246.2788214959
 31
0.0
  0
LINE
  5
2B6
330
1F
100
AcDbEntity
  8
0
  6
Continuous
 62
     7
370
     0
100
AcDbLine
 10
168.54545414
 20
234.0288218162
 30
0.0
 11
169.0454541638
 21
234.0288218162
 31
0.0
  0
SPLINE
  5
2B7
330
1F
100
AcDbEntity
  8
0
  6
Continuous
 62
     7
370
     0
100
AcDbSpline
210
0.0
220
0.0
230
1.0
 70
     8
 71
     3
 72
    13
 73
     9
 74
     0
 42
0.000000001
 43
0.00000001
 40
0.0
 40
0.0
 40
0.0
 40
0.0
 40
0.262127870234744
 40
0.5162806838715808
 40
0.6440812047217974
 40
0.7667134842857227
 40
0.8850357079536756
 40
1.0
 40
1.0
 40
1.0
 40
1.0
 10
171.5367279064085
 20
235.4038180834975
 30
0.0
 10
171.5200776602977
 20
235.3187949519707
 30
0.0
 10
171.4872837401359
 20
235.1513354580593
 30
0.0
 10
171.4523628527828
 20
234.9674427961331
 30
0.0
 10
171.4324197928741
 20
234.8569724150763
 30
0.0
 10
171.4221319518177
 20
234.796929140153
 30
0.0
 10
171.4160133067054
 20
234.7596494834726
 30
0.0
 10
171.4160342467407
 20
234.7552762861248
 30
0.0
 10
171.4160445660527
 20
234.7531211614039
 30
0.0
  0
SPLINE
  5
2B8
330
1F
100
AcDbEntity
  8
0
  6
Continuous
 62
     7
370
     0
100
AcDbSpline
210
0.0
220
0.0
230
1.0
 70
     8
 71
     3
 72
    13
 73
     9
 74
     0
 42
0.000000001
 43
0.00000001
 40
0.0
 40
0.0
 40
0.0
 40
0.0
 40
0.1149500554425256
 40
0.2332674124260888
 40
0.3559044804023966
 40
0.4837189147204503
 40
0.7378719259609703
 40
1.0
 40
1.0
 40
1.0
 40
1.0
 10
171.4160445660527
 20
245.5545221506979
 30
0.0
 10
171.4160344475848
 20
245.5523673469289
 30
0.0
 10
171.4160139142425
 20
245.5479946174199
 30
0.0
 10
171.4221345538508
 20
245.5107201319123
 30
0.0
 10
171.4324234368905
 20
245.4506770231698
 30
0.0
 10
171.4523592821328
 20
245.3402048404578
 30
0.0
 10
171.4872846617305
 20
245.1563077297974
 30
0.0
 10
171.5200779706433
 20
244.9888483182918
 30
0.0
 10
171.5367279064085
 20
244.9038252286043
 30
0.0
  0
LINE
  5
2B9
330
1F
100
AcDbEntity
  8
0
  6
Continuous
 62
     7
370
     0
100
AcDbLine
 10
171.5367279064
 20
244.9038252286
 30
0.0
 11
171.5367279064
 21
235.4038180835
 31
0.0
  0
ELLIPSE
  5
2BA
330
1F
100
AcDbEntity
  8
0
  6
Continuous
 62
     7
370
     0
100
AcDbEllipse
 10
178.54545414
 20
237.2846063075
 30
0.0
 11
-0.1294043984593998
 21
0.5864917823769815
 31
0.0
210
0.0
220
0.0
230
1.0
 40
0.0140202848
 41
3.142218897518136
 42
4.708498193784228
  0
LINE
  5
2BB
330
1F
100
AcDbEntity
  8
0
  6
Continuous
 62
     7
370
     0
100
AcDbLine
 10
171.5367279064
 20
235.4038180835
 30
0.0
 11
178.554180409
 21
237.284138571
 31
0.0
  0
ELLIPSE
  5
2BC
330
1F
100
AcDbEntity
  8
0
  6
Continuous
 62
     7
370
     0
100
AcDbEllipse
 10
178.54545414
 20
243.0230370046
 30
0.0
 11
0.1294043984593998
 21
0.5864917823769815
 31
0.0
210
0.0
220
0.0
230
1.0
 40
0.0140202848
 41
4.716279766985151
 42
6.282559063253942
  0
LINE
  5
2BD
330
1F
100
AcDbEntity
  8
0
  6
Continuous
 62
     7
370
     0
100
AcDbLine
 10
178.554180409
 20
243.0235047411
 30
0.0
 11
171.5367279064
 21
244.9038252286
 31
0.0
  0
LINE
  5
2BE
330
1F
100
AcDbEntity
  8
0
  6
Continuous
 62
     7
370
     0
100
AcDbLine
 10
178.554180409
 20
237.284138571
 30
0.0
 11
178.554180409
 21
243.0235047411
 31
0.0
  0
LINE
  5
2BF
330
1F
100
AcDbEntity
  8
0
  6
Continuous
 62
     7
370
     0
100
AcDbLine
 10
179.0454539985
 20
243.0235047411
 30
0.0
 11
178.554180409
 21
243.0235047411
 31
0.0
  0
LINE
  5
2C0
330
1F
100
AcDbEntity
  8
0
  6
Continuous
 62
     7
370
     0
100
AcDbLine
 10
179.0454539985
 20
237.284138571
 30
0.0
 11
178.554180409
 21
237.284138571
 31
0.0
  0
LINE
  5
2C1
330
1F
100
AcDbEntity
  8
0
  6
Continuous
 62
     7
370
     0
100
AcDbLine
 10
155.3590459332
 20
216.321159625
 30
0.0
 11
155.3590459332
 21
263.9864836871
 31
0.0
  0
LINE
  5
2C2
330
1F
100
AcDbEntity
  8
0
  6
Continuous
 62
     7
370
     0
100
AcDbLine
 10
155.7536761791
 20
216.321159625
 30
0.0
 11
155.7536761791
 21
263.9864836871
 31
0.0
  0
LINE
  5
2C3
330
1F
100
AcDbEntity
  8
0
  6
Continuous
 62
     7
370
     0
100
AcDbLine
 10
157.9481394544
 20
216.321159625
 30
0.0
 11
157.9481394544
 21
263.9864836871
 31
0.0
  0
LINE
  5
2C4
330
1F
100
AcDbEntity
  8
0
  6
Continuous
 62
     7
370
     0
100
AcDbLine
 10
158.342768769
 20
216.321159625
 30
0.0
 11
158.342768769
 21
263.9864836871
 31
0.0
  0
LINE
  5
2C5
330
1F
100
AcDbEntity
  8
0
  6
Continuous
 62
     7
370
     0
100
AcDbLine
 10
152.769952412
 20
216.321159625
 30
0.0
 11
152.769952412
 21
263.9864836871
 31
0.0
  0
LINE
  5
2C6
330
1F
100
AcDbEntity
  8
0
  6
Continuous
 62
     7
370
     0
100
AcDbLine
 10
153.1645826578
 20
216.321159625
 30
0.0
 11
153.1645826578
 21
263.9864836871
 31
0.0
  0
LINE
  5
2C7
330
1F
100
AcDbEntity
  8
0
  6
Continuous
 62
     7
370
     0
100
AcDbLine
 10
153.5672679126
 20
218.753820756
 30
0.0
 11
153.5672679126
 21
261.5538225561
 31
0.0
  0
LINE
  5
2C8
330
1F
100
AcDbEntity
  8
0
  6
Continuous
 62
     7
370
     0
100
AcDbLine
 10
152.3672671572
 20
218.753820756
 30
0.0
 11
152.3672671572
 21
261.5538225561
 31
0.0
  0
LINE
  5
2C9
330
1F
100
AcDbEntity
  8
0
  6
Continuous
 62
     7
370
     0
100
AcDbLine
 10
158.7454540238
 20
218.753820756
 30
0.0
 11
158.7454540238
 21
261.5538225561
 31
0.0
  0
LINE
  5
2CA
330
1F
100
AcDbEntity
  8
0
  6
Continuous
 62
     7
370
     0
100
AcDbLine
 10
154.9563606784
 20
218.753820756
 30
0.0
 11
154.9563606784
 21
261.5538225561
 31
0.0
  0
LINE
  5
2CB
330
1F
100
AcDbEntity
  8
0
  6
Continuous
 62
     7
370
     0
100
AcDbLine
 10
157.5454541996
 20
218.753820756
 30
0.0
 11
157.5454541996
 21
261.5538225561
 31
0.0
  0
LINE
  5
2CC
330
1F
100
AcDbEntity
  8
0
  6
Continuous
 62
     7
370
     0
100
AcDbLine
 10
156.1563605026
 20
218.753820756
 30
0.0
 11
156.1563605026
 21
261.5538225561
 31
0.0
  0
LINE
  5
2CD
330
1F
100
AcDbEntity
  8
0
  6
Continuous
 62
     7
370
     0
100
AcDbLine
 10
153.9440018639
 20
261.5538225561
 30
0.0
 11
153.9440018639
 21
218.753820756
 31
0.0
  0
LINE
  5
2CE
330
1F
100
AcDbEntity
  8
0
  6
Continuous
 62
     7
370
     0
100
AcDbLine
 10
154.5796267271
 20
218.753820756
 30
0.0
 11
154.5796267271
 21
261.5538225561
 31
0.0
  0
LINE
  5
2CF
330
1F
100
AcDbEntity
  8
0
  6
Continuous
 62
     7
370
     0
100
AcDbLine
 10
156.4330946237
 20
218.7806167691
 30
0.0
 11
156.4330946237
 21
261.527026543
 31
0.0
  0
LINE
  5
2D0
330
1F
100
AcDbEntity
  8
0
  6
Continuous
 62
     7
370
     0
100
AcDbLine
 10
156.5330944538
 20
261.5538225561
 30
0.0
 11
156.5330944538
 21
218.753820756
 31
0.0
  0
LINE
  5
2D1
330
1F
100
AcDbEntity
  8
0
  6
Continuous
 62
     7
370
     0
100
AcDbLine
 10
154.6796265572
 20
261.527026543
 30
0.0
 11
154.6796265572
 21
218.7806167691
 31
0.0
  0
LINE
  5
2D2
330
1F
100
AcDbEntity
  8
0
  6
Continuous
 62
     7
370
     0
100
AcDbLine
 10
158.923127088
 20
218.8378092884
 30
0.0
 11
158.923127088
 21
261.4698340237
 31
0.0
  0
LINE
  5
2D3
330
1F
100
AcDbEntity
  8
0
  6
Continuous
 62
     7
370
     0
100
AcDbLine
 10
152.1895950243
 20
218.8378092884
 30
0.0
 11
152.1895950243
 21
261.4698340237
 31
0.0
  0
LINE
  5
2D4
330
1F
100
AcDbEntity
  8
0
  6
Continuous
 62
     7
370
     0
100
AcDbLine
 10
156.3340344981
 20
218.8378092884
 30
0.0
 11
156.3340344981
 21
261.4698340237
 31
0.0
  0
LINE
  5
2D5
330
1F
100
AcDbEntity
  8
0
  6
Continuous
 62
     7
370
     0
100
AcDbLine
 10
157.3677811355
 20
218.8378092884
 30
0.0
 11
157.3677811355
 21
261.4698340237
 31
0.0
  0
LINE
  5
2D6
330
1F
100
AcDbEntity
  8
0
  6
Continuous
 62
     7
370
     0
100
AcDbLine
 10
151.9905341372
 20
218.753820756
 30
0.0
 11
151.9905341372
 21
261.5538225561
 31
0.0
  0
LINE
  5
2D7
330
1F
100
AcDbEntity
  8
0
  6
Continuous
 62
     7
370
     0
100
AcDbLine
 10
151.0334008888
 20
261.5538225561
 30
0.0
 11
151.0334008888
 21
218.753820756
 31
0.0
  0
LINE
  5
2D8
330
1F
100
AcDbEntity
  8
0
  6
Continuous
 62
     7
370
     0
100
AcDbLine
 10
154.7786876142
 20
218.8378092884
 30
0.0
 11
154.7786876142
 21
261.4698340237
 31
0.0
  0
LINE
  5
2D9
330
1F
100
AcDbEntity
  8
0
  6
Continuous
 62
     7
370
     0
100
AcDbLine
 10
152.0905339673
 20
261.527026543
 30
0.0
 11
152.0905339673
 21
218.7806167691
 31
0.0
  0
LINE
  5
2DA
330
1F
100
AcDbEntity
  8
0
  6
Continuous
 62
     7
370
     0
100
AcDbLine
 10
160.0793202922
 20
218.753820756
 30
0.0
 11
160.0793202922
 21
261.5538225561
 31
0.0
  0
LINE
  5
2DB
330
1F
100
AcDbEntity
  8
0
  6
Continuous
 62
     7
370
     0
100
AcDbLine
 10
157.1687202484
 20
218.753820756
 30
0.0
 11
157.1687202484
 21
261.5538225561
 31
0.0
  0
LINE
  5
2DC
330
1F
100
AcDbEntity
  8
0
  6
Continuous
 62
     7
370
     0
100
AcDbLine
 10
157.2687200785
 20
261.527026543
 30
0.0
 11
157.2687200785
 21
218.7806167691
 31
0.0
  0
LINE
  5
2DD
330
1F
100
AcDbEntity
  8
0
  6
Continuous
 62
     7
370
     0
100
AcDbLine
 10
159.1221879751
 20
261.5538225561
 30
0.0
 11
159.1221879751
 21
218.753820756
 31
0.0
  0
LINE
  5
2DE
330
1F
100
AcDbEntity
  8
0
  6
Continuous
 62
     7
370
     0
100
AcDbLine
 10
153.7449409768
 20
218.8378092884
 30
0.0
 11
153.7449409768
 21
261.4698340237
 31
0.0
  0
LINE
  5
2DF
330
1F
100
AcDbEntity
  8
0
  6
Continuous
 62
     7
370
     0
100
AcDbLine
 10
153.8440020338
 20
218.7806167691
 30
0.0
 11
153.8440020338
 21
261.527026543
 31
0.0
  0
LINE
  5
2E0
330
1F
100
AcDbEntity
  8
0
  6
Continuous
 62
     7
370
     0
100
AcDbLine
 10
159.0221881449
 20
218.7806167691
 30
0.0
 11
159.0221881449
 21
261.527026543
 31
0.0
  0
LINE
  5
2E1
330
1F
100
AcDbEntity
  8
0
  6
Continuous
 62
     7
370
     0
100
AcDbLine
 10
140.2971831665
 20
262.5538208573
 30
0.0
 11
140.2971831665
 21
217.7538224548
 31
0.0
  0
LINE
  5
2E2
330
1F
100
AcDbEntity
  8
0
  6
Continuous
 62
     7
370
     0
100
AcDbLine
 10
140.7937233851
 20
217.7538224548
 30
0.0
 11
140.7937233851
 21
262.5538208573
 31
0.0
  0
LINE
  5
2E3
330
1F
100
AcDbEntity
  8
0
  6
Continuous
 62
     7
370
     0
100
AcDbLine
 10
140.0017415688
 20
218.0017274856
 30
0.0
 11
140.0017415688
 21
262.3059158265
 31
0.0
  0
LINE
  5
2E4
330
1F
100
AcDbEntity
  8
0
  6
Continuous
 62
     7
370
     0
100
AcDbLine
 10
141.0891668454
 20
262.3059158265
 30
0.0
 11
141.0891668454
 21
218.0017274856
 31
0.0
  0
LINE
  5
2E5
330
1F
100
AcDbEntity
  8
0
  6
Continuous
 62
     7
370
     0
100
AcDbLine
 10
141.3367626772
 20
219.405916059
 30
0.0
 11
141.3367626772
 21
260.9017272531
 31
0.0
  0
LINE
  5
2E6
330
1F
100
AcDbEntity
  8
0
  6
Continuous
 62
     7
370
     0
100
AcDbLine
 10
139.754145737
 20
260.9017272531
 30
0.0
 11
139.754145737
 21
219.405916059
 31
0.0
  0
LINE
  5
2E7
330
1F
100
AcDbEntity
  8
0
  6
Continuous
 62
     7
370
     0
100
AcDbLine
 10
160.5305544615
 20
218.6881215363
 30
0.0
 11
160.5305544615
 21
261.6195217758
 31
0.0
  0
LINE
  5
2E8
330
1F
100
AcDbEntity
  8
0
  6
Continuous
 62
     7
370
     0
100
AcDbLine
 10
160.8301437043
 20
261.9038210302
 30
0.0
 11
160.8301437043
 21
218.4038222819
 31
0.0
  0
LINE
  5
2E9
330
1F
100
AcDbEntity
  8
0
  6
Continuous
 62
     7
370
     0
100
AcDbLine
 10
150.2563742504
 20
218.4038222819
 30
0.0
 11
150.2563742504
 21
261.9038210302
 31
0.0
  0
LINE
  5
2EA
330
1F
100
AcDbEntity
  8
0
  6
Continuous
 62
     7
370
     0
100
AcDbLine
 10
150.5559639588
 20
261.6195217758
 30
0.0
 11
150.5559639588
 21
218.6881215363
 31
0.0
  0
LWPOLYLINE
  5
2EB
330
1F
100
AcDbEntity
  8
0
  6
Continuous
 62
     7
370
     0
100
AcDbPolyline
 90
        4
 70
   128
 43
0.0
 10
179.4133999899
 20
261.4241433381
 10
179.4377466247
 20
261.690194258
 10
179.452402848
 20
261.8503482133
 10
179.4572960168
 20
261.9038210302
  0
ELLIPSE
  5
2EC
330
1F
100
AcDbEntity
  8
0
  6
Continuous
 62
     7
370
     0
100
AcDbEllipse
 10
279.8700926626
 20
240.1538216561
 30
0.0
 11
480.979076517054
 21
0.0
 31
0.0
210
0.0
220
0.0
230
1.0
 40
0.0452202623
 41
1.781204161837035
 42
1.79729070805564
  0
SPLINE
  5
2ED
330
1F
100
AcDbEntity
  8
0
  6
Continuous
 62
     7
370
     0
100
AcDbSpline
210
0.0
220
0.0
230
1.0
 70
     8
 71
     3
 72
    16
 73
    12
 74
     0
 42
0.000000001
 43
0.00000001
 40
0.0
 40
0.0
 40
0.0
 40
0.0
 40
0.1200683184757121
 40
0.2400802709860101
 40
0.359736668505671
 40
0.479332205441472
 40
0.589645451903894
 40
0.6999242665293307
 40
0.8041841739450425
 40
0.9084286564295624
 40
1.0
 40
1.0
 40
1.0
 40
1.0
 10
167.7954541335057
 20
259.8238498955395
 30
0.0
 10
167.8073179702344
 20
259.9378373820416
 30
0.0
 10
167.8310400742241
 20
260.1657588437213
 30
0.0
 10
168.0240953828466
 20
260.4651559333024
 30
0.0
 10
168.3404671188416
 20
260.7236776558898
 30
0.0
 10
168.7723824762462
 20
260.9324947709931
 30
0.0
 10
169.3037174060818
 20
261.0926356180668
 30
0.0
 10
169.8973996405055
 20
261.2089897490698
 30
0.0
 10
170.5496189062895
 20
261.287810332647
 30
0.0
 10
171.2069804358289
 20
261.3348291865742
 30
0.0
 10
171.6519745693202
 20
261.3440205355409
 30
0.0
 10
171.8600716956134
 20
261.3483187794116
 30
0.0
  0
LINE
  5
2EE
330
1F
100
AcDbEntity
  8
0
  6
Continuous
 62
     7
370
     0
100
AcDbLine
 10
167.7954541335
 20
220.4837934166
 30
0.0
 11
167.7954541335
 21
259.8238498955
 31
0.0
  0
SPLINE
  5
2EF
330
1F
100
AcDbEntity
  8
0
  6
Continuous
 62
     7
370
     0
100
AcDbSpline
210
0.0
220
0.0
230
1.0
 70
     8
 71
     3
 72
    16
 73
    12
 74
     0
 42
0.000000001
 43
0.00000001
 40
0.0
 40
0.0
 40
0.0
 40
0.0
 40
0.1025258667704761
 40
0.2050603851295598
 40
0.3083964122461829
 40
0.4117538356333638
 40
0.5166666134350506
 40
0.6216121842366376
 40
0.7299421106166527
 40
0.8383135906060053
 40
0.9999999999999999
 40
0.9999999999999999
 40
0.9999999999999999
 40
0.9999999999999999
 10
171.8600716956134
 20
218.9593245326903
 30
0.0
 10
171.6271463459356
 20
218.9644372853247
 30
0.0
 10
171.161275991303
 20
218.9746632220304
 30
0.0
 10
170.4886735461036
 20
219.0255918062893
 30
0.0
 10
169.8620934666629
 20
219.1051828069874
 30
0.0
 10
169.2946840514369
 20
219.2176169274565
 30
0.0
 10
168.8066005819539
 20
219.3655232728952
 30
0.0
 10
168.4010664245314
 20
219.5505259431281
 30
0.0
 10
168.0965821081236
 20
219.7750083508982
 30
0.0
 10
167.8503124907355
 20
220.076022113979
 30
0.0
 10
167.8159983557012
 20
220.3310847926029
 30
0.0
 10
167.7954541335057
 20
220.4837934165623
 30
0.0
  0
ELLIPSE
  5
2F0
330
1F
100
AcDbEntity
  8
0
  6
Continuous
 62
     7
370
     0
100
AcDbEllipse
 10
279.8700926626
 20
240.1538216561
 30
0.0
 11
480.979076517054
 21
0.0
 31
0.0
210
0.0
220
0.0
230
1.0
 40
0.0452202623
 41
4.485894599123963
 42
4.501981145342565
  0
LWPOLYLINE
  5
2F1
330
1F
100
AcDbEntity
  8
0
  6
Continuous
 62
     7
370
     0
100
AcDbPolyline
 90
        4
 70
   128
 43
0.0
 10
179.4572960168
 20
218.4038222819
 10
179.452402848
 20
218.4572950988
 10
179.4377466247
 20
218.6174490541
 10
179.4133999899
 20
218.883499974
  0
LINE
  5
2F2
330
1F
100
AcDbEntity
  8
0
  6
Continuous
 62
     7
370
     0
100
AcDbLine
 10
145.7125985578
 20
218.7053584545
 30
0.0
 11
145.7125985578
 21
261.6022848576
 31
0.0
  0
LINE
  5
2F3
330
1F
100
AcDbEntity
  8
0
  6
Continuous
 62
     7
370
     0
100
AcDbLine
 10
147.4226986572
 20
261.9038210302
 30
0.0
 11
147.4226986572
 21
218.4038222819
 31
0.0
  0
ARC
  5
2F4
330
1F
100
AcDbEntity
  8
0
  6
Continuous
 62
     7
370
     0
100
AcDbCircle
 10
167.8296002812
 20
221.199828682
 30
0.0
 40
0.7168489804120542
100
AcDbArc
 50
267.2697586152
 51
356.980659268
  0
ARC
  5
2F5
330
1F
100
AcDbEntity
  8
0
  6
Continuous
 62
     7
370
     0
100
AcDbCircle
 10
167.8296002812
 20
259.1078146301
 30
0.0
 40
0.7168489804120826
100
AcDbArc
 50
3.019340732
 51
92.7302413848
  0
LINE
  5
2F6
330
1F
100
AcDbEntity
  8
0
  6
Continuous
 62
     7
370
     0
100
AcDbLine
 10
150.6283593878
 20
220.0695225089
 30
0.0
 11
150.6283593878
 21
260.2381208032
 31
0.0
  0
LINE
  5
2F7
330
1F
100
AcDbEntity
  8
0
  6
Continuous
 62
     7
370
     0
100
AcDbLine
 10
160.4581581012
 20
260.2381208032
 30
0.0
 11
160.4581581012
 21
220.0695225089
 31
0.0
  0
LINE
  5
2F8
330
1F
100
AcDbEntity
  8
0
  6
Continuous
 62
     7
370
     0
100
AcDbLine
 10
143.9351824627
 20
260.9553583949
 30
0.0
 11
143.9351824627
 21
219.3522849172
 31
0.0
  0
LINE
  5
2F9
330
1F
100
AcDbEntity
  8
0
  6
Continuous
 62
     7
370
     0
100
AcDbLine
 10
142.2250823632
 20
219.6538210898
 30
0.0
 11
142.2250823632
 21
260.6538222223
 31
0.0
  0
LINE
  5
2FA
330
1F
100
AcDbEntity
  8
0
  6
Continuous
 62
     7
370
     0
100
AcDbLine
 10
139.4587022767
 20
219.6538210898
 30
0.0
 11
139.4587022767
 21
260.6538222223
 31
0.0
  0
LINE
  5
2FB
330
1F
100
AcDbEntity
  8
0
  6
Continuous
 62
     7
370
     0
100
AcDbLine
 10
141.6322061375
 20
260.6538222223
 30
0.0
 11
141.6322061375
 21
219.6538210898
 31
0.0
  0
SPLINE
  5
2FC
330
1F
100
AcDbEntity
  8
0
  6
Continuous
 62
     7
370
     0
100
AcDbSpline
210
0.0
220
0.0
230
1.0
 70
     8
 71
     3
 72
    16
 73
    12
 74
     0
 42
0.000000001
 43
0.00000001
 40
0.0
 40
0.0
 40
0.0
 40
0.0
 40
0.0919221161049916
 40
0.1962944118535393
 40
0.3006706483593465
 40
0.4105624356482963
 40
0.5204753800547893
 40
0.6396258678719037
 40
0.758839577266134
 40
0.8793830802106607
 40
1.0
 40
1.0
 40
1.0
 40
1.0
 10
171.8927862636919
 20
260.6174727022078
 30
0.0
 10
171.7214542196291
 20
260.6133263205463
 30
0.0
 10
171.3555844567684
 20
260.6044719600937
 30
0.0
 10
170.8144519126839
 20
260.5591539709194
 30
0.0
 10
170.2774954587432
 20
260.4831415637136
 30
0.0
 10
169.7881589388319
 20
260.3707623383964
 30
0.0
 10
169.3499242264073
 20
260.2160366957364
 30
0.0
 10
168.9939301613456
 20
260.0140231028345
 30
0.0
 10
168.7329170732561
 20
259.7638962018083
 30
0.0
 10
168.5744465934819
 20
259.4743909621463
 30
0.0
 10
168.55512025236
 20
259.2552013983777
 30
0.0
 10
168.5454541400249
 20
259.1455732523825
 30
0.0
  0
ARC
  5
2FD
330
1F
100
AcDbEntity
  8
0
  6
Continuous
 62
     7
370
     0
100
AcDbCircle
 10
165.1479754422
 20
260.6817126898
 30
0.0
 40
6.745116736879995
100
AcDbArc
 50
359.4543110288
 51
5.6716828866
  0
SPLINE
  5
2FE
330
1F
100
AcDbEntity
  8
0
  6
Continuous
 62
     7
370
     0
100
AcDbSpline
210
0.0
220
0.0
230
1.0
 70
     8
 71
     3
 72
    16
 73
    12
 74
     0
 42
0.000000001
 43
0.00000001
 40
0.0
 40
0.0
 40
0.0
 40
0.0
 40
0.1627097942043857
 40
0.2709121481551343
 40
0.3790662598779607
 40
0.4835197545920655
 40
0.5879462744676519
 40
0.6911426374037551
 40
0.7943301055036173
 40
0.8971657893267815
 40
1.0
 40
1.0
 40
1.0
 40
1.0
 10
168.5454541400249
 20
221.1620700597193
 30
0.0
 10
168.562215213748
 20
221.0148373761426
 30
0.0
 10
168.590122436604
 20
220.7696946496001
 30
0.0
 10
168.7929748595122
 20
220.4782429519251
 30
0.0
 10
169.0437499837644
 20
220.2612189277048
 30
0.0
 10
169.378276462398
 20
220.0823381466416
 30
0.0
 10
169.7806678218047
 20
219.9393715953559
 30
0.0
 10
170.2482121036645
 20
219.8308438119637
 30
0.0
 10
170.7644154225409
 20
219.7540394914809
 30
0.0
 10
171.317916067696
 20
219.7049373129219
 30
0.0
 10
171.701163780055
 20
219.6950928207323
 30
0.0
 10
171.8927862636919
 20
219.690170609894
 30
0.0
  0
ARC
  5
2FF
330
1F
100
AcDbEntity
  8
0
  6
Continuous
 62
     7
370
     0
100
AcDbCircle
 10
165.1479754422
 20
219.6259306223
 30
0.0
 40
6.745116736879995
100
AcDbArc
 50
354.3283171134
 51
0.5456889712
  0
LINE
  5
300
330
1F
100
AcDbEntity
  8
0
  6
Continuous
 62
     7
370
     0
100
AcDbLine
 10
171.8927862637
 20
260.6174727022
 30
0.0
 11
171.8927862637
 21
258.7233861029
 31
0.0
  0
SPLINE
  5
301
330
1F
100
AcDbEntity
  8
0
  6
Continuous
 62
     7
370
     0
100
AcDbSpline
210
0.0
220
0.0
230
1.0
 70
     8
 71
     3
 72
    14
 73
    10
 74
     0
 42
0.000000001
 43
0.00000001
 40
0.0
 40
0.0
 40
0.0
 40
0.0
 40
0.147380479239175
 40
0.294680137110434
 40
0.4396807771006292
 40
0.5846268369297212
 40
0.7208880992524517
 40
0.8571221619720767
 40
1.0
 40
1.0
 40
1.0
 40
1.0
 10
168.704587598535
 20
257.2750099986222
 30
0.0
 10
168.7717787386844
 20
257.3845675833555
 30
0.0
 10
168.9061241723133
 20
257.6036226729942
 30
0.0
 10
169.2300625719088
 20
257.8876921088382
 30
0.0
 10
169.642668737526
 20
258.1333379665629
 30
0.0
 10
170.1285796974545
 20
258.3361313268953
 30
0.0
 10
170.6724305615909
 20
258.4988306209849
 30
0.0
 10
171.2605530338807
 20
258.6313216440981
 30
0.0
 10
171.6787239093158
 20
258.6922147979229
 30
0.0
 10
171.8927862636919
 20
258.7233861028578
 30
0.0
  0
SPLINE
  5
302
330
1F
100
AcDbEntity
  8
0
  6
Continuous
 62
     7
370
     0
100
AcDbSpline
210
0.0
220
0.0
230
1.0
 70
     8
 71
     3
 72
    10
 73
     6
 74
     0
 42
0.000000001
 43
0.00000001
 40
0.0
 40
0.0
 40
0.0
 40
0.0
 40
0.354598470943831
 40
0.7184500292942655
 40
1.0
 40
1.0
 40
1.0
 40
1.0
 10
168.5454541400249
 20
256.2823225795653
 30
0.0
 10
168.5481042727737
 20
256.4197791603748
 30
0.0
 10
168.5534736922919
 20
256.6982791895669
 30
0.0
 10
168.6023164332722
 20
257.031403815989
 30
0.0
 10
168.6735240061127
 20
257.2010176553316
 30
0.0
 10
168.704587598535
 20
257.2750099986222
 30
0.0
  0
LINE
  5
303
330
1F
100
AcDbEntity
  8
0
  6
Continuous
 62
     7
370
     0
100
AcDbLine
 10
171.8927862637
 20
221.5842572092
 30
0.0
 11
171.8927862637
 21
219.6901706099
 31
0.0
  0
SPLINE
  5
304
330
1F
100
AcDbEntity
  8
0
  6
Continuous
 62
     7
370
     0
100
AcDbSpline
210
0.0
220
0.0
230
1.0
 70
     8
 71
     3
 72
    10
 73
     6
 74
     0
 42
0.000000001
 43
0.00000001
 40
0.0
 40
0.0
 40
0.0
 40
0.0
 40
0.34267958308054
 40
0.6970344140803092
 40
0.9999999999999999
 40
0.9999999999999999
 40
0.9999999999999999
 40
0.9999999999999999
 10
168.704587598535
 20
223.0326333134797
 30
0.0
 10
168.6677971699292
 20
223.1239031870656
 30
0.0
 10
168.5929628462252
 20
223.3095525399866
 30
0.0
 10
168.5517669484945
 20
223.6518350067564
 30
0.0
 10
168.5474458005418
 20
223.9074877937984
 30
0.0
 10
168.5454541400249
 20
224.0253207325366
 30
0.0
  0
SPLINE
  5
305
330
1F
100
AcDbEntity
  8
0
  6
Continuous
 62
     7
370
     0
100
AcDbSpline
210
0.0
220
0.0
230
1.0
 70
     8
 71
     3
 72
    14
 73
    10
 74
     0
 42
0.000000001
 43
0.00000001
 40
0.0
 40
0.0
 40
0.0
 40
0.0
 40
0.1303116891589097
 40
0.2606443966959757
 40
0.3920306482810221
 40
0.5234443052582141
 40
0.6588978251350126
 40
0.7943999807752653
 40
1.0
 40
1.0
 40
1.0
 40
1.0
 10
171.8927862636919
 20
221.584257209244
 30
0.0
 10
171.6976136533592
 20
221.6124448585088
 30
0.0
 10
171.3072369526956
 20
221.6688247035119
 30
0.0
 10
170.7474819309458
 20
221.7900466070203
 30
0.0
 10
170.2285605211962
 20
221.9390202281535
 30
0.0
 10
169.7584820118731
 20
222.1204781145119
 30
0.0
 10
169.3570626587003
 20
222.3373147815958
 30
0.0
 10
168.9658030989128
 20
222.6291749439695
 30
0.0
 10
168.8028237360155
 20
222.8809034513638
 30
0.0
 10
168.704587598535
 20
223.0326333134797
 30
0.0
  0
ARC
  5
306
330
1F
100
AcDbEntity
  8
0
  6
Continuous
 62
     7
370
     0
100
AcDbCircle
 10
167.9194647532
 20
223.1501650813
 30
0.0
 40
0.7938712733830895
100
AcDbArc
 50
351.4861257185
 51
33.1850064195
  0
ARC
  5
307
330
1F
100
AcDbEntity
  8
0
  6
Continuous
 62
     7
370
     0
100
AcDbCircle
 10
167.9194754804
 20
257.1574761754
 30
0.0
 40
0.7938609687404127
100
AcDbArc
 50
326.8198245108
 51
8.5141356149
  0
ARC
  5
308
330
1F
100
AcDbEntity
  8
0
  6
Continuous
 62
     7
370
     0
100
AcDbCircle
 10
167.0014678987
 20
257.9455097426
 30
0.0
 40
4.952785779696356
100
AcDbArc
 50
357.4883407631
 51
9.0361933399
  0
ARC
  5
309
330
1F
100
AcDbEntity
  8
0
  6
Continuous
 62
     7
370
     0
100
AcDbCircle
 10
165.3029408349
 20
222.45868158
 30
0.0
 40
6.647607145119501
100
AcDbArc
 50
352.4414241947
 51
1.0387123165
  0
SPLINE
  5
30A
330
1F
100
AcDbEntity
  8
0
  6
Continuous
 62
     7
370
     0
100
AcDbSpline
210
0.0
220
0.0
230
1.0
 70
     8
 71
     3
 72
    12
 73
     8
 74
     0
 42
0.000000001
 43
0.00000001
 40
0.0
 40
0.0
 40
0.0
 40
0.0
 40
0.1936023825153091
 40
0.4039168876775441
 40
0.6153547701547439
 40
0.8268173074274033
 40
0.9999999999999999
 40
0.9999999999999999
 40
0.9999999999999999
 40
0.9999999999999999
 10
168.5454541400249
 20
256.590677896085
 30
0.0
 10
168.7097935154368
 20
256.6991798850167
 30
0.0
 10
169.0526583509665
 20
256.9255499591177
 30
0.0
 10
169.7321010625048
 20
257.2022773257457
 30
0.0
 10
170.5305247613817
 20
257.4389851716354
 30
0.0
 10
171.3591572486299
 20
257.6223997301585
 30
0.0
 10
171.937078761167
 20
257.710630259127
 30
0.0
 10
172.1972821794625
 20
257.7503551780608
 30
0.0
  0
SPLINE
  5
30B
330
1F
100
AcDbEntity
  8
0
  6
Continuous
 62
     7
370
     0
100
AcDbSpline
210
0.0
220
0.0
230
1.0
 70
     8
 71
     3
 72
    12
 73
     8
 74
     0
 42
0.000000001
 43
0.00000001
 40
0.0
 40
0.0
 40
0.0
 40
0.0
 40
0.0942014438088825
 40
0.3113279094917526
 40
0.5390608213058773
 40
0.7667646277838599
 40
1.0
 40
1.0
 40
1.0
 40
1.0
 10
172.2249929841782
 20
222.5552764772799
 30
0.0
 10
172.0806526943478
 20
222.5751235487814
 30
0.0
 10
171.603620083473
 20
222.6407164636057
 30
0.0
 10
170.8281340291396
 20
222.7968102818113
 30
0.0
 10
169.9433644589903
 20
223.033484484313
 30
0.0
 10
169.1434023785359
 20
223.3298926133223
 30
0.0
 10
168.7463584799956
 20
223.5889883890047
 30
0.0
 10
168.5454541400249
 20
223.7200909345772
 30
0.0
  0
ELLIPSE
  5
30C
330
1F
100
AcDbEntity
  8
0
  6
Continuous
 62
     7
370
     0
100
AcDbEllipse
 10
279.9028072032
 20
240.1538216561
 30
0.0
 11
480.9790765170541
 21
0.0
 31
0.0
210
0.0
220
0.0
230
1.0
 40
0.0436609429
 41
4.485894599123963
 42
4.501981145342566
  0
ARC
  5
30D
330
1F
100
AcDbEntity
  8
0
  6
Continuous
 62
     7
370
     0
100
AcDbCircle
 10
172.8805699761
 20
219.5423437724
 30
0.0
 40
6.565968560750514
100
AcDbArc
 50
354.241123196
 51
0.6511224086
  0
ELLIPSE
  5
30E
330
1F
100
AcDbEntity
  8
0
  6
Continuous
 62
     7
370
     0
100
AcDbEllipse
 10
279.9028072032
 20
240.1538216561
 30
0.0
 11
480.9790765170541
 21
0.0
 31
0.0
210
0.0
220
0.0
230
1.0
 40
0.0436609429
 41
1.781204161837035
 42
1.79729070805564
  0
ARC
  5
30F
330
1F
100
AcDbEntity
  8
0
  6
Continuous
 62
     7
370
     0
100
AcDbCircle
 10
172.8805699761
 20
260.7652995397
 30
0.0
 40
6.565968560750514
100
AcDbArc
 50
359.3488775914
 51
5.758876804
  0
LINE
  5
310
330
1F
100
AcDbEntity
  8
0
  6
Continuous
 62
     7
370
     0
100
AcDbLine
 10
181.5890738324
 20
216.0006561368
 30
0.0
 11
181.5890738324
 21
219.2187053203
 31
0.0
  0
LINE
  5
311
330
1F
100
AcDbEntity
  8
0
  6
Continuous
 62
     7
370
     0
100
AcDbLine
 10
181.3727927908
 20
215.96252034
 30
0.0
 11
181.5890738324
 21
216.0006561368
 31
0.0
  0
LINE
  5
312
330
1F
100
AcDbEntity
  8
0
  6
Continuous
 62
     7
370
     0
100
AcDbLine
 10
181.1973139227
 20
217.9682594776
 30
0.0
 11
181.3727927908
 21
215.96252034
 31
0.0
  0
SPLINE
  5
313
330
1F
100
AcDbEntity
  8
0
  6
Continuous
 62
     7
370
     0
100
AcDbSpline
210
0.0
220
0.0
230
1.0
 70
     8
 71
     3
 72
    12
 73
     8
 74
     0
 42
0.000000001
 43
0.00000001
 40
0.0
 40
0.0
 40
0.0
 40
0.0
 40
0.0718517900637681
 40
0.3008269148254897
 40
0.5335745579262531
 40
0.7667865678837003
 40
1.0
 40
1.0
 40
1.0
 40
1.0
 10
179.4461145579989
 20
219.6169593423035
 30
0.0
 10
179.5089051128256
 20
219.6142404574812
 30
0.0
 10
179.7717947203348
 20
219.6028571122347
 30
0.0
 10
180.2291462555607
 20
219.4604189180513
 30
0.0
 10
180.7232629721993
 20
219.0922123702741
 30
0.0
 10
181.083364919827
 20
218.5756791947902
 30
0.0
 10
181.1593308445082
 20
218.1707331282039
 30
0.0
 10
181.1973139226611
 20
217.9682594775584
 30
0.0
  0
LINE
  5
314
330
1F
100
AcDbEntity
  8
0
  6
Continuous
 62
     7
370
     0
100
AcDbLine
 10
180.2198070616
 20
220.7552962988
 30
0.0
 11
171.8927862637
 21
221.5842572092
 31
0.0
  0
SPLINE
  5
315
330
1F
100
AcDbEntity
  8
0
  6
Continuous
 62
     7
370
     0
100
AcDbSpline
210
0.0
220
0.0
230
1.0
 70
     8
 71
     3
 72
    12
 73
     8
 74
     0
 42
0.000000001
 43
0.00000001
 40
0.0
 40
0.0
 40
0.0
 40
0.0
 40
0.2332140298434629
 40
0.4664258366475568
 40
0.699194799264732
 40
0.9283967583209362
 40
1.0
 40
1.0
 40
1.0
 40
1.0
 10
181.5890738323505
 20
219.2187053203013
 30
0.0
 10
181.5718029502607
 20
219.3941010218032
 30
0.0
 10
181.5372613507105
 20
219.7448907529025
 30
0.0
 10
181.2688620993337
 20
220.2120104273134
 30
0.0
 10
180.8751144779603
 20
220.5628844157459
 30
0.0
 10
180.496060057665
 20
220.7185950152126
 30
0.0
 10
180.2729224257542
 20
220.7482397163545
 30
0.0
 10
180.2198070615704
 20
220.7552962988045
 30
0.0
  0
ARC
  5
316
330
1F
100
AcDbEntity
  8
0
  6
Continuous
 62
     7
370
     0
100
AcDbCircle
 10
175.2986439271
 20
221.5242000077
 30
0.0
 40
4.980869352818032
100
AcDbArc
 50
351.1196594284
 51
2.6036575935
  0
LINE
  5
317
330
1F
100
AcDbEntity
  8
0
  6
Continuous
 62
     7
370
     0
100
AcDbLine
 10
171.8927862637
 20
258.7233861029
 30
0.0
 11
180.2198070616
 21
259.5523470133
 31
0.0
  0
SPLINE
  5
318
330
1F
100
AcDbEntity
  8
0
  6
Continuous
 62
     7
370
     0
100
AcDbSpline
210
0.0
220
0.0
230
1.0
 70
     8
 71
     3
 72
    12
 73
     8
 74
     0
 42
0.000000001
 43
0.00000001
 40
0.0
 40
0.0
 40
0.0
 40
0.0
 40
0.0956923498610758
 40
0.3270617005548533
 40
0.5538127070894006
 40
0.7768329787020855
 40
1.0
 40
1.0
 40
1.0
 40
1.0
 10
181.1973139226611
 20
262.3393838345435
 30
0.0
 10
181.186492713897
 20
262.2562385395653
 30
0.0
 10
181.1495074904639
 20
261.9720607384331
 30
0.0
 10
180.9550808317999
 20
261.5145124031172
 30
0.0
 10
180.5550688723157
 20
261.0629716954386
 30
0.0
 10
180.0335538223514
 20
260.7550278362487
 30
0.0
 10
179.6419705763082
 20
260.7121366275458
 30
0.0
 10
179.4461145579989
 20
260.6906839697983
 30
0.0
  0
LINE
  5
319
330
1F
100
AcDbEntity
  8
0
  6
Continuous
 62
     7
370
     0
100
AcDbLine
 10
181.3727927908
 20
264.3451229721
 30
0.0
 11
181.1973139227
 21
262.3393838345
 31
0.0
  0
LINE
  5
31A
330
1F
100
AcDbEntity
  8
0
  6
Continuous
 62
     7
370
     0
100
AcDbLine
 10
181.5890738324
 20
264.3069871753
 30
0.0
 11
181.3727927908
 21
264.3451229721
 31
0.0
  0
LINE
  5
31B
330
1F
100
AcDbEntity
  8
0
  6
Continuous
 62
     7
370
     0
100
AcDbLine
 10
181.5890738324
 20
261.0889379918
 30
0.0
 11
181.5890738324
 21
264.3069871753
 31
0.0
  0
SPLINE
  5
31C
330
1F
100
AcDbEntity
  8
0
  6
Continuous
 62
     7
370
     0
100
AcDbSpline
210
0.0
220
0.0
230
1.0
 70
     8
 71
     3
 72
    12
 73
     8
 74
     0
 42
0.000000001
 43
0.00000001
 40
0.0
 40
0.0
 40
0.0
 40
0.0
 40
0.223725779339373
 40
0.4473121544991165
 40
0.6744348966655752
 40
0.9059172064708796
 40
1.0
 40
1.0
 40
1.0
 40
1.0
 10
180.2198070615704
 20
259.5523470132973
 30
0.0
 10
180.3854859177192
 20
259.5855909490706
 30
0.0
 10
180.7167403950426
 20
259.6520581062246
 30
0.0
 10
181.138725963651
 20
259.954767208465
 30
0.0
 10
181.4456761250809
 20
260.3707135814254
 30
0.0
 10
181.5760332705765
 20
260.7746554669444
 30
0.0
 10
181.586150208784
 20
261.0184775459915
 30
0.0
 10
181.5890738323505
 20
261.0889379918005
 30
0.0
  0
ARC
  5
31D
330
1F
100
AcDbEntity
  8
0
  6
Continuous
 62
     7
370
     0
100
AcDbCircle
 10
175.3082319914
 20
258.7841958889
 30
0.0
 40
4.971280098693054
100
AcDbArc
 50
357.3825908486
 51
8.8888296845
  0
ARC
  5
31E
330
1F
100
AcDbEntity
  8
0
  6
Continuous
 62
     7
370
     0
100
AcDbCircle
 10
176.4540467474
 20
269.872506795
 30
0.0
 40
52.1205283270147
100
AcDbArc
 50
274.3611586752
 51
275.2214691234
  0
SPLINE
  5
31F
330
1F
100
AcDbEntity
  8
0
  6
Continuous
 62
     7
370
     0
100
AcDbSpline
210
0.0
220
0.0
230
1.0
 70
     8
 71
     3
 72
    12
 73
     8
 74
     0
 42
0.000000001
 43
0.00000001
 40
0.0
 40
0.0
 40
0.0
 40
0.0
 40
0.2356741058328308
 40
0.4713046465386757
 40
0.7042098986545056
 40
0.929846056236084
 40
1.0
 40
1.0
 40
1.0
 40
1.0
 10
180.4174532696779
 20
217.9028918086913
 30
0.0
 10
180.3954169845122
 20
218.0219996880316
 30
0.0
 10
180.35134848766
 20
218.2601934292325
 30
0.0
 10
180.1458599028836
 20
218.5647883133938
 30
0.0
 10
179.8640190459968
 20
218.784954263948
 30
0.0
 10
179.60090854696
 20
218.873143361012
 30
0.0
 10
179.4493466460872
 20
218.8815145413415
 30
0.0
 10
179.4133999899204
 20
218.8834999739554
 30
0.0
  0
SPLINE
  5
320
330
1F
100
AcDbEntity
  8
0
  6
Continuous
 62
     7
370
     0
100
AcDbSpline
210
0.0
220
0.0
230
1.0
 70
     8
 71
     3
 72
    12
 73
     8
 74
     0
 42
0.000000001
 43
0.00000001
 40
0.0
 40
0.0
 40
0.0
 40
0.0
 40
0.2188510309991667
 40
0.440884796579692
 40
0.669383285898032
 40
0.9034601888693413
 40
1.0
 40
1.0
 40
1.0
 40
1.0
 10
179.4133999899204
 20
261.4241433381465
 30
0.0
 10
179.525789614376
 20
261.4381872001283
 30
0.0
 10
179.7522033373981
 20
261.4664791629525
 30
0.0
 10
180.0498384298854
 20
261.6521035920976
 30
0.0
 10
180.2780398636005
 20
261.919542646289
 30
0.0
 10
180.3895243010267
 20
262.1884786544256
 30
0.0
 10
180.4111411634607
 20
262.3558726059564
 30
0.0
 10
180.4174532696779
 20
262.4047515034106
 30
0.0
  0
ARC
  5
321
330
1F
100
AcDbEntity
  8
0
  6
Continuous
 62
     7
370
     0
100
AcDbCircle
 10
176.4540467474
 20
210.4351365171
 30
0.0
 40
52.12052832701468
100
AcDbArc
 50
84.7785308766
 51
85.6388413248
  0
LINE
  5
322
330
1F
100
AcDbEntity
  8
0
  6
Continuous
 62
     7
370
     0
100
AcDbLine
 10
182.5454545722
 20
219.2187053203
 30
0.0
 11
181.5890738324
 21
219.2187053203
 31
0.0
  0
LINE
  5
323
330
1F
100
AcDbEntity
  8
0
  6
Continuous
 62
     7
370
     0
100
AcDbLine
 10
181.5890738324
 20
261.0889379918
 30
0.0
 11
182.5454545722
 21
261.0889379918
 31
0.0
  0
ARC
  5
324
330
1F
100
AcDbEntity
  8
0
  6
Continuous
 62
     7
370
     0
100
AcDbCircle
 10
176.6276722849
 20
267.8903601249
 30
0.0
 40
52.14419155895138
100
AcDbArc
 50
274.361218078
 51
275.2211379358
  0
ARC
  5
325
330
1F
100
AcDbEntity
  8
0
  6
Continuous
 62
     7
370
     0
100
AcDbCircle
 10
176.6276722849
 20
212.4172831872
 30
0.0
 40
52.14419155895135
100
AcDbArc
 50
84.7788620642
 51
85.638781922
  0
ELLIPSE
  5
326
330
1F
100
AcDbEntity
  8
0
  6
Continuous
 62
     7
370
     0
100
AcDbEllipse
 10
181.3392500265
 20
215.9719885504
 30
0.0
 11
-0.2395689975739686
 21
1.988609962161775
 31
0.0
210
0.0
220
0.0
230
1.0
 40
0.0160611941
 41
3.142471113405729
 42
4.70569294064588
  0
ELLIPSE
  5
327
330
1F
100
AcDbEntity
  8
0
  6
Continuous
 62
     7
370
     0
100
AcDbEllipse
 10
181.3392500265
 20
264.3356547617
 30
0.0
 11
0.2395689975739402
 21
1.988609962161718
 31
0.0
210
0.0
220
0.0
230
1.0
 40
0.0160611941
 41
4.719085020123499
 42
6.282306847364596
  0
ELLIPSE
  5
328
330
1F
100
AcDbEntity
  8
0
  6
Continuous
 62
     7
370
     0
100
AcDbEllipse
 10
181.54545414
 20
216.0083478991
 30
0.0
 11
-0.1735683408006423
 21
2.000244853722592
 31
0.0
210
0.0
220
0.0
230
1.0
 40
0.0213132322
 41
3.143472560914301
 42
4.706694388152777
  0
ELLIPSE
  5
329
330
1F
100
AcDbEntity
  8
0
  6
Continuous
 62
     7
370
     0
100
AcDbEllipse
 10
181.54545414
 20
264.299295413
 30
0.0
 11
0.1735683408006423
 21
2.000244853722563
 31
0.0
210
0.0
220
0.0
230
1.0
 40
0.0213132322
 41
4.718083572616574
 42
6.28130539985629
  0
LINE
  5
32A
330
1F
100
AcDbEntity
  8
0
  6
Continuous
 62
     7
370
     0
100
AcDbLine
 10
182.5454545722
 20
216.0006561368
 30
0.0
 11
181.5890738324
 21
216.0006561368
 31
0.0
  0
LINE
  5
32B
330
1F
100
AcDbEntity
  8
0
  6
Continuous
 62
     7
370
     0
100
AcDbLine
 10
181.5890738324
 20
264.3069871753
 30
0.0
 11
182.5454545722
 21
264.3069871753
 31
0.0
  0
DIMENSION
  5
32C
330
1F
100
AcDbEntity
  8
DIMENSION_-_BEMAßUNG
100
AcDbDimension
  2
_D
 10
182.54545414
 20
278.7712571066
 30
0.0
 11
158.45101617
 21
278.7712571066
 31
0.0
 70
   160
  1
<>
 71
     2
 42
-1.0
  3
SLDDIMSTYLE0
100
AcDbAlignedDimension
 13
133.04545414
 23
260.1538216561
 33
0.0
 14
182.54545414
 24
214.9929212872
 34
0.0
100
AcDbRotatedDimension
  0
DIMENSION
  5
337
330
1F
100
AcDbEntity
  8
DIMENSION_-_BEMAßUNG
100
AcDbDimension
  2
_D_1
 10
194.9404442816
 20
213.9833827356
 30
0.0
 11
194.9404442816
 21
243.0657144461
 31
0.0
 70
   160
  1
<>
 71
     2
 42
-1.0
  3
SLDDIMSTYLE0
100
AcDbAlignedDimension
 13
181.5788469892
 23
266.3242605765
 33
0.0
 14
181.5788469892
 24
213.9833827356
 34
0.0
 50
90.0
100
AcDbRotatedDimension
  0
ARC
  5
341
330
1F
100
AcDbEntity
  8
0
  6
Continuous
 62
     7
370
    30
100
AcDbCircle
 10
74.2555462593
 20
240.1538216561
 30
0.0
 40
24.00000000000002
100
AcDbArc
 50
0.0
 51
77.8417369409
  0
ARC
  5
342
330
1F
100
AcDbEntity
  8
0
  6
Continuous
 62
     7
370
    30
100
AcDbCircle
 10
74.2555462593
 20
240.1538216561
 30
0.0
 40
24.0
100
AcDbArc
 50
102.1582630591
 51
257.8417369409
  0
ARC
  5
343
330
1F
100
AcDbEntity
  8
0
  6
Continuous
 62
     7
370
    30
100
AcDbCircle
 10
74.2555462593
 20
240.1538216561
 30
0.0
 40
24.00000000000001
100
AcDbArc
 50
282.1582630591
 51
0.0
  0
SPLINE
  5
344
330
1F
100
AcDbEntity
  8
0
  6
Continuous
 62
     7
370
    30
100
AcDbSpline
210
0.0
220
0.0
230
1.0
 70
     8
 71
     3
 72
    16
 73
    12
 74
     0
 42
0.000000001
 43
0.00000001
 40
0.0
 40
0.0
 40
0.0
 40
0.0
 40
0.0833154602451016
 40
0.2097029273182638
 40
0.3361598001717988
 40
0.4625811812780757
 40
0.5889944353196805
 40
0.7154184094000494
 40
0.841882230413564
 40
0.9619647527943979
 40
0.9999999999999999
 40
0.9999999999999999
 40
0.9999999999999999
 40
0.9999999999999999
 10
77.31100724319849
 20
213.971987837496
 30
0.0
 10
77.3978528969266
 20
213.9753478911308
 30
0.0
 10
77.61644123284977
 20
213.9838050619977
 30
0.0
 10
77.95986287464807
 20
214.0670156645224
 30
0.0
 10
78.32171462511492
 20
214.2308122953395
 30
0.0
 10
78.64402042778063
 20
214.4638466094646
 30
0.0
 10
78.91395755967362
 20
214.7553932955705
 30
0.0
 10
79.12129453479999
 20
215.0944665743482
 30
0.0
 10
79.25475925997183
 20
215.4613063071926
 30
0.0
 10
79.30291200763396
 20
215.7556215844602
 30
0.0
 10
79.30657355656521
 20
215.9200921732187
 30
0.0
 10
79.30745434257123
 20
215.9596555917885
 30
0.0
  0
SPLINE
  5
345
330
1F
100
AcDbEntity
  8
0
  6
Continuous
 62
     7
370
    30
100
AcDbSpline
210
0.0
220
0.0
230
1.0
 70
     8
 71
     3
 72
    14
 73
    10
 74
     0
 42
0.000000001
 43
0.00000001
 40
0.0
 40
0.0
 40
0.0
 40
0.0
 40
0.1435372911353226
 40
0.3068075028965209
 40
0.4699781359233939
 40
0.6330962753143157
 40
0.7962117723550124
 40
0.9510620391588652
 40
1.0
 40
1.0
 40
1.0
 40
1.0
 10
79.17793996873233
 20
265.0360097228911
 30
0.0
 10
79.13355442710932
 20
265.1432089059255
 30
0.0
 10
79.03868140085697
 20
265.3723445779113
 30
0.0
 10
78.8086459697133
 20
265.6783894340708
 30
0.0
 10
78.51726453009277
 20
265.947484345235
 30
0.0
 10
78.17685021738355
 20
266.1530986135294
 30
0.0
 10
77.80945985610485
 20
266.2849985532778
 30
0.0
 10
77.51492806835496
 20
266.331907498696
 30
0.0
 10
77.35049452156872
 20
266.3349297156356
 30
0.0
 10
77.31100724319849
 20
266.3356554746058
 30
0.0
  0
SPLINE
  5
346
330
1F
100
AcDbEntity
  8
0
  6
Continuous
 62
     7
370
    30
100
AcDbSpline
210
0.0
220
0.0
230
1.0
 70
     8
 71
     3
 72
    16
 73
    12
 74
     0
 42
0.000000001
 43
0.00000001
 40
0.0
 40
0.0
 40
0.0
 40
0.0
 40
0.0833154602451016
 40
0.2097029273182638
 40
0.3361598001717988
 40
0.4625811812780757
 40
0.5889944353196805
 40
0.7154184094000494
 40
0.841882230413564
 40
0.9619647527943979
 40
0.9999999999999999
 40
0.9999999999999999
 40
0.9999999999999999
 40
0.9999999999999999
 10
71.20008527542386
 20
266.3356554746058
 30
0.0
 10
71.11323962169577
 20
266.3322954209711
 30
0.0
 10
70.8946512857726
 20
266.3238382501042
 30
0.0
 10
70.55122964397428
 20
266.2406276475795
 30
0.0
 10
70.18937789350743
 20
266.0768310167624
 30
0.0
 10
69.86707209084175
 20
265.8437967026372
 30
0.0
 10
69.59713495894873
 20
265.5522500165313
 30
0.0
 10
69.38979798382238
 20
265.2131767377537
 30
0.0
 10
69.25633325865053
 20
264.8463370049093
 30
0.0
 10
69.20818051098838
 20
264.5520217276417
 30
0.0
 10
69.20451896205715
 20
264.3875511388832
 30
0.0
 10
69.20363817605111
 20
264.3479877203133
 30
0.0
  0
SPLINE
  5
347
330
1F
100
AcDbEntity
  8
0
  6
Continuous
 62
     7
370
    30
100
AcDbSpline
210
0.0
220
0.0
230
1.0
 70
     8
 71
     3
 72
    14
 73
    10
 74
     0
 42
0.000000001
 43
0.00000001
 40
0.0
 40
0.0
 40
0.0
 40
0.0
 40
0.1435372911353226
 40
0.3068075028965209
 40
0.4699781359233939
 40
0.6330962753143157
 40
0.7962117723550124
 40
0.9510620391588652
 40
1.0
 40
1.0
 40
1.0
 40
1.0
 10
69.33315254989002
 20
215.2716335892108
 30
0.0
 10
69.37753809151305
 20
215.1644344061764
 30
0.0
 10
69.47241111776538
 20
214.9352987341905
 30
0.0
 10
69.70244654890907
 20
214.6292538780311
 30
0.0
 10
69.99382798852959
 20
214.3601589668669
 30
0.0
 10
70.3342423012388
 20
214.1545446985724
 30
0.0
 10
70.70163266251751
 20
214.0226447588241
 30
0.0
 10
70.9961644502674
 20
213.9757358134059
 30
0.0
 10
71.16059799705364
 20
213.9727135964663
 30
0.0
 10
71.20008527542386
 20
213.971987837496
 30
0.0
  0
LINE
  5
348
330
1F
100
AcDbEntity
  8
0
  6
Continuous
 62
     7
370
    30
100
AcDbLine
 10
71.2000852754
 20
213.9719878375
 30
0.0
 11
77.3110072432
 21
213.9719878375
 31
0.0
  0
LINE
  5
349
330
1F
100
AcDbEntity
  8
0
  6
Continuous
 62
     7
370
    30
100
AcDbLine
 10
77.3110072432
 20
266.3356554746
 30
0.0
 11
71.2000852754
 21
266.3356554746
 31
0.0
  0
LINE
  5
34A
330
1F
100
AcDbEntity
  8
0
  6
Continuous
 62
     7
370
    30
100
AcDbLine
 10
79.3151158677
 20
262.3422485828
 30
0.0
 11
79.3074543426
 21
264.3479877203
 31
0.0
  0
LINE
  5
34B
330
1F
100
AcDbEntity
  8
0
  6
Continuous
 62
     7
370
    30
100
AcDbLine
 10
79.3074543426
 20
215.9596555918
 30
0.0
 11
79.3151158677
 21
217.9653947293
 31
0.0
  0
LINE
  5
34C
330
1F
100
AcDbEntity
  8
0
  6
Continuous
 62
     7
370
    30
100
AcDbLine
 10
69.1959766509
 20
217.9653947293
 30
0.0
 11
69.2036381761
 21
215.9596555918
 31
0.0
  0
LINE
  5
34D
330
1F
100
AcDbEntity
  8
0
  6
Continuous
 62
     7
370
    30
100
AcDbLine
 10
69.2036381761
 20
264.3479877203
 30
0.0
 11
69.1959766509
 21
262.3422485828
 31
0.0
  0
SPLINE
  5
34E
330
1F
100
AcDbEntity
  8
0
  6
Continuous
 62
     7
370
    30
100
AcDbSpline
210
0.0
220
0.0
230
1.0
 70
     8
 71
     3
 72
    15
 73
    11
 74
     0
 42
0.000000001
 43
0.00000001
 40
0.0
 40
0.0
 40
0.0
 40
0.0
 40
0.0701397644756513
 40
0.175659126392894
 40
0.3099794135357369
 40
0.4617437075347087
 40
0.6265451456273018
 40
0.7948347031704719
 40
0.9657482588955262
 40
1.0
 40
1.0
 40
1.0
 40
1.0
 10
79.36294161024425
 20
260.8709321408894
 30
0.0
 10
79.36240669849346
 20
260.8744417279195
 30
0.0
 10
79.3610670571139
 20
260.8832311927304
 30
0.0
 10
79.35332814468701
 20
260.9586191510094
 30
0.0
 10
79.34390347864932
 20
261.0995789477504
 30
0.0
 10
79.33371964966997
 20
261.3158546167972
 30
0.0
 10
79.32480530365662
 20
261.5973724392322
 30
0.0
 10
79.31849028630526
 20
261.9289201656774
 30
0.0
 10
79.31528542246733
 20
262.1921821801791
 30
0.0
 10
79.31530253499005
 20
262.339895344101
 30
0.0
 10
79.31530539187524
 20
262.3645556210902
 30
0.0
  0
SPLINE
  5
34F
330
1F
100
AcDbEntity
  8
0
  6
Continuous
 62
     7
370
    30
100
AcDbSpline
210
0.0
220
0.0
230
1.0
 70
     8
 71
     3
 72
    15
 73
    11
 74
     0
 42
0.000000001
 43
0.00000001
 40
0.0
 40
0.0
 40
0.0
 40
0.0
 40
0.0701397644756513
 40
0.175659126392894
 40
0.3099794135357369
 40
0.4617437075347087
 40
0.6265451456273018
 40
0.7948347031704719
 40
0.9657482588955262
 40
1.0
 40
1.0
 40
1.0
 40
1.0
 10
69.1481509083781
 20
219.4367111712124
 30
0.0
 10
69.1486858201289
 20
219.4332015841823
 30
0.0
 10
69.15002546150846
 20
219.4244121193714
 30
0.0
 10
69.15776437393535
 20
219.3490241610925
 30
0.0
 10
69.16718903997304
 20
219.2080643643515
 30
0.0
 10
69.17737286895239
 20
218.9917886953047
 30
0.0
 10
69.18628721496574
 20
218.7102708728696
 30
0.0
 10
69.1926022323171
 20
218.3787231464245
 30
0.0
 10
69.19580709615504
 20
218.1154611319227
 30
0.0
 10
69.19578998363231
 20
217.9677479680008
 30
0.0
 10
69.1957871267471
 20
217.9430876910117
 30
0.0
  0
SPLINE
  5
350
330
1F
100
AcDbEntity
  8
0
  6
Continuous
 62
     7
370
    30
100
AcDbSpline
210
0.0
220
0.0
230
1.0
 70
     8
 71
     3
 72
    14
 73
    10
 74
     0
 42
0.000000001
 43
0.00000001
 40
0.0
 40
0.0
 40
0.0
 40
0.0
 40
0.155653689340718
 40
0.3282050025153861
 40
0.5013275435134006
 40
0.6719163110000946
 40
0.81853593645137
 40
0.9362938164300602
 40
1.0
 40
1.0
 40
1.0
 40
1.0
 10
79.31527326124642
 20
217.9649774968054
 30
0.0
 10
79.31589062742708
 20
218.0749972083281
 30
0.0
 10
79.31719238050299
 20
218.3069802718196
 30
0.0
 10
79.3231737978291
 20
218.6392422994722
 30
0.0
 10
79.33186313056737
 20
218.9447961343285
 30
0.0
 10
79.34265052483744
 20
219.1871865645131
 30
0.0
 10
79.35276820030776
 20
219.3439222166649
 30
0.0
 10
79.36147914726934
 20
219.4275518110918
 30
0.0
 10
79.36211146887051
 20
219.4313560406163
 30
0.0
 10
79.36233345660303
 20
219.4326915829804
 30
0.0
  0
SPLINE
  5
351
330
1F
100
AcDbEntity
  8
0
  6
Continuous
 62
     7
370
    30
100
AcDbSpline
210
0.0
220
0.0
230
1.0
 70
     8
 71
     3
 72
    14
 73
    10
 74
     0
 42
0.000000001
 43
0.00000001
 40
0.0
 40
0.0
 40
0.0
 40
0.0
 40
0.1556604217101182
 40
0.3282103590521853
 40
0.5013315196629311
 40
0.671918926965322
 40
0.8185373833495126
 40
0.9362943243893601
 40
1.0
 40
1.0
 40
1.0
 40
1.0
 10
69.19581925737593
 20
262.3426825791028
 30
0.0
 10
69.1952019167813
 20
262.2326571949671
 30
0.0
 10
69.19390025271025
 20
262.0006684181459
 30
0.0
 10
69.18791871532977
 20
261.6684009864345
 30
0.0
 10
69.17922938950532
 20
261.3628471847271
 30
0.0
 10
69.16844199345566
 20
261.1204567460101
 30
0.0
 10
69.15832431838028
 20
260.963721095752
 30
0.0
 10
69.1496133713458
 20
260.8800915009754
 30
0.0
 10
69.14898104974996
 20
260.8762872714765
 30
0.0
 10
69.14875906201932
 20
260.8749517291214
 30
0.0
  0
SPLINE
  5
352
330
1F
100
AcDbEntity
  8
0
  6
Continuous
 62
     7
370
    30
100
AcDbSpline
210
0.0
220
0.0
230
1.0
 70
    24
 71
     3
 72
    12
 73
     8
 74
     0
 42
0.000000001
 43
0.00000001
 40
0.0
 40
0.0
 40
0.0
 40
0.0
 40
0.1023892943578227
 40
0.4215015875538111
 40
0.7406128553886666
 40
0.8798179522782337
 40
1.0
 40
1.0
 40
1.0
 40
1.0
 10
59.61653653773401
 20
235.4038180834975
 30
0.0
 10
59.63796732244572
 20
235.4038180834975
 30
0.0
 10
59.72619050862123
 20
235.4038180834975
 30
0.0
 10
59.86283648063701
 20
235.4038180834975
 30
0.0
 10
59.96393845280156
 20
235.4038180834975
 30
0.0
 10
60.00709821030784
 20
235.4038180834975
 30
0.0
 10
60.01189798621743
 20
235.4038180834975
 30
0.0
 10
60.01412187012766
 20
235.4038180834975
 30
0.0
  0
SPLINE
  5
353
330
1F
100
AcDbEntity
  8
0
  6
Continuous
 62
     7
370
    30
100
AcDbSpline
210
0.0
220
0.0
230
1.0
 70
    24
 71
     3
 72
    12
 73
     8
 74
     0
 42
0.000000001
 43
0.00000001
 40
0.0
 40
0.0
 40
0.0
 40
0.0
 40
0.1201820477217664
 40
0.2593871446113334
 40
0.5784984124461889
 40
0.8976107056421773
 40
1.0
 40
1.0
 40
1.0
 40
1.0
 10
60.01412187012766
 20
244.9038252286043
 30
0.0
 10
60.01189798621743
 20
244.9038252286043
 30
0.0
 10
60.00709821030784
 20
244.9038252286043
 30
0.0
 10
59.96393845280156
 20
244.9038252286043
 30
0.0
 10
59.86283648063702
 20
244.9038252286043
 30
0.0
 10
59.72619050862123
 20
244.9038252286043
 30
0.0
 10
59.63796732244572
 20
244.9038252286043
 30
0.0
 10
59.61653653773401
 20
244.9038252286043
 30
0.0
  0
SPLINE
  5
354
330
1F
100
AcDbEntity
  8
0
  6
Continuous
 62
     7
370
    30
100
AcDbSpline
210
0.0
220
0.0
230
1.0
 70
    24
 71
     3
 72
    12
 73
     8
 74
     0
 42
0.000000001
 43
0.00000001
 40
0.0
 40
0.0
 40
0.0
 40
0.0
 40
0.1201821884605727
 40
0.2593874483658277
 40
0.5784990898949227
 40
0.8976105857395185
 40
1.0
 40
1.0
 40
1.0
 40
1.0
 10
61.4969708794627
 20
244.9038252286043
 30
0.0
 10
61.49919476386312
 20
244.9038252286043
 30
0.0
 10
61.50399454083067
 20
244.9038252286043
 30
0.0
 10
61.54715428541884
 20
244.9038252286043
 30
0.0
 10
61.64825622312568
 20
244.9038252286043
 30
0.0
 10
61.78490152315892
 20
244.9038252286043
 30
0.0
 10
61.87312448964702
 20
244.9038252286043
 30
0.0
 10
61.89455528053377
 20
244.9038252286043
 30
0.0
  0
SPLINE
  5
355
330
1F
100
AcDbEntity
  8
0
  6
Continuous
 62
     7
370
    30
100
AcDbSpline
210
0.0
220
0.0
230
1.0
 70
    24
 71
     3
 72
    12
 73
     8
 74
     0
 42
0.000000001
 43
0.00000001
 40
0.0
 40
0.0
 40
0.0
 40
0.0
 40
0.1023894142604816
 40
0.4215009101050773
 40
0.7406125516341724
 40
0.8798178115394273
 40
1.0
 40
1.0
 40
1.0
 40
1.0
 10
61.89455528053377
 20
235.4038180834975
 30
0.0
 10
61.87312448964702
 20
235.4038180834975
 30
0.0
 10
61.78490152315892
 20
235.4038180834975
 30
0.0
 10
61.64825622312568
 20
235.4038180834975
 30
0.0
 10
61.54715428541884
 20
235.4038180834975
 30
0.0
 10
61.50399454083067
 20
235.4038180834975
 30
0.0
 10
61.49919476386311
 20
235.4038180834975
 30
0.0
 10
61.4969708794627
 20
235.4038180834975
 30
0.0
  0
SPLINE
  5
356
330
1F
100
AcDbEntity
  8
0
  6
Continuous
 62
     7
370
    30
100
AcDbSpline
210
0.0
220
0.0
230
1.0
 70
    24
 71
     3
 72
     9
 73
     5
 74
     0
 42
0.000000001
 43
0.00000001
 40
0.0
 40
0.0
 40
0.0
 40
0.0
 40
0.5001203599018444
 40
0.9999999999999999
 40
0.9999999999999999
 40
0.9999999999999999
 40
0.9999999999999999
 10
58.50554600599143
 20
234.4573326460447
 30
0.0
 10
58.50554600599143
 20
234.6151573978192
 30
0.0
 10
58.50554600599145
 20
234.9307309365679
 30
0.0
 10
58.50554600599143
 20
235.2461476768729
 30
0.0
 10
58.50554600599143
 20
235.4038180834975
 30
0.0
  0
SPLINE
  5
357
330
1F
100
AcDbEntity
  8
0
  6
Continuous
 62
     7
370
    30
100
AcDbSpline
210
0.0
220
0.0
230
1.0
 70
    24
 71
     3
 72
     9
 73
     5
 74
     0
 42
0.000000001
 43
0.00000001
 40
0.0
 40
0.0
 40
0.0
 40
0.0
 40
0.5001203599018444
 40
0.9999999999999999
 40
0.9999999999999999
 40
0.9999999999999999
 40
0.9999999999999999
 10
63.00554581227634
 20
245.8503106660571
 30
0.0
 10
63.00554581227634
 20
245.6924859142826
 30
0.0
 10
63.00554581227635
 20
245.3769123755339
 30
0.0
 10
63.00554581227635
 20
245.0614956352289
 30
0.0
 10
63.00554581227634
 20
244.9038252286043
 30
0.0
  0
SPLINE
  5
358
330
1F
100
AcDbEntity
  8
0
  6
Continuous
 62
     7
370
    30
100
AcDbSpline
210
0.0
220
0.0
230
1.0
 70
    24
 71
     3
 72
    10
 73
     6
 74
     0
 42
0.000000001
 43
0.00000001
 40
0.0
 40
0.0
 40
0.0
 40
0.0
 40
0.0261144760136467
 40
0.5126446325443436
 40
1.0
 40
1.0
 40
1.0
 40
1.0
 10
63.00554581227634
 20
235.4042022540596
 30
0.0
 10
63.00554581227634
 20
235.395939145752
 30
0.0
 10
63.00554581227632
 20
235.2337288023482
 30
0.0
 10
63.00554581227635
 20
234.9189447926444
 30
0.0
 10
63.00554581227635
 20
234.6112927402715
 30
0.0
 10
63.00554581227634
 20
234.457336371335
 30
0.0
  0
SPLINE
  5
359
330
1F
100
AcDbEntity
  8
0
  6
Continuous
 62
     7
370
    30
100
AcDbSpline
210
0.0
220
0.0
230
1.0
 70
    24
 71
     3
 72
    10
 73
     6
 74
     0
 42
0.000000001
 43
0.00000001
 40
0.0
 40
0.0
 40
0.0
 40
0.0
 40
0.0261144760136467
 40
0.5126446325443436
 40
1.0
 40
1.0
 40
1.0
 40
1.0
 10
58.50554600599143
 20
244.9034410580423
 30
0.0
 10
58.50554600599143
 20
244.9117041663498
 30
0.0
 10
58.50554600599142
 20
245.0739145097537
 30
0.0
 10
58.50554600599145
 20
245.3886985194575
 30
0.0
 10
58.50554600599145
 20
245.6963505718304
 30
0.0
 10
58.50554600599143
 20
245.8503069407668
 30
0.0
  0
LINE
  5
35A
330
1F
100
AcDbEntity
  8
0
  6
Continuous
 62
     7
370
    30
100
AcDbLine
 10
63.0055458123
 20
244.9038252286
 30
0.0
 11
63.0055458123
 21
235.4042022541
 31
0.0
  0
LINE
  5
35B
330
1F
100
AcDbEntity
  8
0
  6
Continuous
 62
     7
370
    30
100
AcDbLine
 10
58.505546006
 20
235.4038180835
 30
0.0
 11
58.505546006
 21
244.903441058
 31
0.0
  0
LINE
  5
35C
330
1F
100
AcDbEntity
  8
0
  6
Continuous
 62
     7
370
    30
100
AcDbLine
 10
58.505546006
 20
232.6538218237
 30
0.0
 11
58.505546006
 21
234.457332646
 31
0.0
  0
LINE
  5
35D
330
1F
100
AcDbEntity
  8
0
  6
Continuous
 62
     7
370
    30
100
AcDbLine
 10
63.0055458123
 20
247.6538214884
 30
0.0
 11
63.0055458123
 21
245.8503106661
 31
0.0
  0
LINE
  5
35E
330
1F
100
AcDbEntity
  8
0
  6
Continuous
 62
     7
370
    30
100
AcDbLine
 10
63.0055458123
 20
234.4573363713
 30
0.0
 11
63.0055458123
 21
232.6538218237
 31
0.0
  0
LINE
  5
35F
330
1F
100
AcDbEntity
  8
0
  6
Continuous
 62
     7
370
    30
100
AcDbLine
 10
58.505546006
 20
245.8503069408
 30
0.0
 11
58.505546006
 21
247.6538214884
 31
0.0
  0
ARC
  5
360
330
1F
100
AcDbEntity
  8
0
  6
Continuous
 62
     7
370
    30
100
AcDbCircle
 10
62.5055462593
 20
247.6538216561
 30
0.0
 40
0.5
100
AcDbArc
 50
0.0
 51
90.0
  0
ARC
  5
361
330
1F
100
AcDbEntity
  8
0
  6
Continuous
 62
     7
370
    30
100
AcDbCircle
 10
62.5055462593
 20
232.6538216561
 30
0.0
 40
0.5
100
AcDbArc
 50
270.0
 51
0.0
  0
LINE
  5
362
330
1F
100
AcDbEntity
  8
0
  6
Continuous
 62
     7
370
    30
100
AcDbLine
 10
59.0055460879
 20
248.153822036
 30
0.0
 11
62.5055466616
 21
248.153822036
 31
0.0
  0
LINE
  5
363
330
1F
100
AcDbEntity
  8
0
  6
Continuous
 62
     7
370
    30
100
AcDbLine
 10
62.5055466616
 20
232.1538212761
 30
0.0
 11
59.0055460879
 21
232.1538212761
 31
0.0
  0
ARC
  5
364
330
1F
100
AcDbEntity
  8
0
  6
Continuous
 62
     7
370
    30
100
AcDbCircle
 10
59.0055462593
 20
247.6538216561
 30
0.0
 40
0.5000000000000071
100
AcDbArc
 50
90.0
 51
180.0
  0
ARC
  5
365
330
1F
100
AcDbEntity
  8
0
  6
Continuous
 62
     7
370
    30
100
AcDbCircle
 10
59.0055462593
 20
232.6538216561
 30
0.0
 40
0.5000000000000071
100
AcDbArc
 50
180.0
 51
270.0
  0
ELLIPSE
  5
366
330
1F
100
AcDbEntity
  8
0
  6
Continuous
 62
     7
370
    30
100
AcDbEllipse
 10
77.3063048979
 20
215.9719885504
 30
0.0
 11
1.998976305229931
 21
0.07770535823760838
 31
0.0
210
0.0
220
0.0
230
1.0
 40
0.9940562705
 41
4.676117248530893
 42
6.239339075770383
  0
ELLIPSE
  5
367
330
1F
100
AcDbEntity
  8
0
  6
Continuous
 62
     7
370
    30
100
AcDbEllipse
 10
77.3063048979
 20
264.3356547617
 30
0.0
 11
1.998976305229945
 21
-0.07770535823766522
 31
0.0
210
0.0
220
0.0
230
1.0
 40
0.9940562705
 41
0.0438462314092456
 42
1.607068058648749
  0
ELLIPSE
  5
368
330
1F
100
AcDbEntity
  8
0
  6
Continuous
 62
     7
370
    30
100
AcDbEllipse
 10
71.2047876207
 20
264.3356547617
 30
0.0
 11
1.998976305229945
 21
0.07770535823760838
 31
0.0
210
0.0
220
0.0
230
1.0
 40
0.9940562705
 41
1.53452459494108
 42
3.097746422180575
  0
ELLIPSE
  5
369
330
1F
100
AcDbEntity
  8
0
  6
Continuous
 62
     7
370
    30
100
AcDbEllipse
 10
71.2047876207
 20
215.9719885504
 30
0.0
 11
1.998976305229959
 21
-0.07770535823757996
 31
0.0
210
0.0
220
0.0
230
1.0
 40
0.9940562705
 41
3.18543888499901
 42
4.748660712238521
  0
LINE
  5
36A
330
1F
100
AcDbEntity
  8
0
  6
Continuous
 62
     7
370
    30
100
AcDbLine
 10
79.3074543426
 20
215.9596555918
 30
0.0
 11
79.3067456061
 21
215.96252034
 31
0.0
  0
LINE
  5
36B
330
1F
100
AcDbEntity
  8
0
  6
Continuous
 62
     7
370
    30
100
AcDbLine
 10
79.3074543426
 20
264.3479877203
 30
0.0
 11
79.3067456061
 21
264.3451229721
 31
0.0
  0
LINE
  5
36C
330
1F
100
AcDbEntity
  8
0
  6
Continuous
 62
     7
370
    30
100
AcDbLine
 10
69.2043469125
 20
264.3451229721
 30
0.0
 11
69.2036381761
 21
264.3479877203
 31
0.0
  0
LINE
  5
36D
330
1F
100
AcDbEntity
  8
0
  6
Continuous
 62
     7
370
    30
100
AcDbLine
 10
69.2043469125
 20
215.96252034
 30
0.0
 11
69.2036381761
 21
215.9596555918
 31
0.0
  0
ARC
  5
36E
330
1F
100
AcDbEntity
  8
0
  6
Continuous
 62
     7
370
    30
100
AcDbCircle
 10
74.2555462593
 20
240.1538216561
 30
0.0
 40
17.50000000000002
100
AcDbArc
 50
245.577150366
 51
0.0
  0
ARC
  5
36F
330
1F
100
AcDbEntity
  8
0
  6
Continuous
 62
     7
370
    30
100
AcDbCircle
 10
74.2555462593
 20
240.1538216561
 30
0.0
 40
17.50000000000002
100
AcDbArc
 50
0.0
 51
114.422849634
  0
SPLINE
  5
370
330
1F
100
AcDbEntity
  8
0
  6
Continuous
 62
     7
370
    30
100
AcDbSpline
210
0.0
220
0.0
230
1.0
 70
     8
 71
     3
 72
    15
 73
    11
 74
     0
 42
0.000000001
 43
0.00000001
 40
0.0
 40
0.0
 40
0.0
 40
0.0
 40
0.1426190740992074
 40
0.2851459464915092
 40
0.4274830781258513
 40
0.5697331333796791
 40
0.6976599629580326
 40
0.8255506053072287
 40
0.9460560464070733
 40
1.0
 40
1.0
 40
1.0
 40
1.0
 10
85.02460520955655
 20
221.2569997697499
 30
0.0
 10
84.694079200344
 20
221.0754341879901
 30
0.0
 10
84.03324086345077
 20
220.7124204046784
 30
0.0
 10
83.03011054678032
 20
220.2428975453582
 30
0.0
 10
82.05913059735668
 20
219.8441186735874
 30
0.0
 10
81.18654124219371
 20
219.5316782709195
 30
0.0
 10
80.44454334441485
 20
219.2994409585835
 30
0.0
 10
79.86868148748243
 20
219.1384416538815
 30
0.0
 10
79.49490134758517
 20
219.0434278718082
 30
0.0
 10
79.37302838587672
 20
219.0146512500659
 30
0.0
 10
79.3353423314068
 20
219.00575282568
 30
0.0
  0
SPLINE
  5
371
330
1F
100
AcDbEntity
  8
0
  6
Continuous
 62
     7
370
    30
100
AcDbSpline
210
0.0
220
0.0
230
1.0
 70
     8
 71
     3
 72
    16
 73
    12
 74
     0
 42
0.000000001
 43
0.00000001
 40
0.0
 40
0.0
 40
0.0
 40
0.0
 40
0.0607068893875244
 40
0.180992607704157
 40
0.3012993040913869
 40
0.422913510302714
 40
0.544565532749514
 40
0.6694724464198516
 40
0.7944351532112239
 40
0.8972053963167529
 40
1.0
 40
1.0
 40
1.0
 40
1.0
 10
79.3350196281347
 20
261.3019631295826
 30
0.0
 10
79.37846322038727
 20
261.2916388721657
 30
0.0
 10
79.50798672470711
 20
261.2608579461232
 30
0.0
 10
79.88783966951011
 20
261.1640119084034
 30
0.0
 10
80.44240642056184
 20
261.0086865392271
 30
0.0
 10
81.11889011761102
 20
260.7969563189534
 30
0.0
 10
81.8845584333021
 20
260.5280962515603
 30
0.0
 10
82.71752937414787
 20
260.1971338044709
 30
0.0
 10
83.5370330376482
 20
259.8303413256683
 30
0.0
 10
84.31190164058124
 20
259.4464111684342
 30
0.0
 10
84.78701858523125
 20
259.1825765063377
 30
0.0
 10
85.02460520955657
 20
259.050643542352
 30
0.0
  0
SPLINE
  5
372
330
1F
100
AcDbEntity
  8
0
  6
Continuous
 62
     7
370
    30
100
AcDbSpline
210
0.0
220
0.0
230
1.0
 70
     8
 71
     3
 72
    15
 73
    11
 74
     0
 42
0.000000001
 43
0.00000001
 40
0.0
 40
0.0
 40
0.0
 40
0.0
 40
0.1419630055278668
 40
0.2838593666489386
 40
0.4253353366481719
 40
0.5667393480199121
 40
0.6971684255330579
 40
0.8275567924980232
 40
0.950828693035096
 40
1.0
 40
1.0
 40
1.0
 40
1.0
 10
64.97370887788865
 20
259.8238498955395
 30
0.0
 10
65.22256948006529
 20
259.9378380388824
 30
0.0
 10
65.72017385702998
 20
260.1657608139355
 30
0.0
 10
66.46398789287359
 20
260.4651480664844
 30
0.0
 10
67.17681011579316
 20
260.7237070530243
 30
0.0
 10
67.8176460250262
 20
260.9323886708477
 30
0.0
 10
68.36540628545704
 20
261.0929975063748
 30
0.0
 10
68.7922413735919
 20
261.2076671952969
 30
0.0
 10
69.06467197517773
 20
261.2757842479968
 30
0.0
 10
69.1511112994064
 20
261.2962575259144
 30
0.0
 10
69.17575903478
 20
261.3020953773882
 30
0.0
  0
SPLINE
  5
373
330
1F
100
AcDbEntity
  8
0
  6
Continuous
 62
     7
370
    30
100
AcDbSpline
210
0.0
220
0.0
230
1.0
 70
     8
 71
     3
 72
    15
 73
    11
 74
     0
 42
0.000000001
 43
0.00000001
 40
0.0
 40
0.0
 40
0.0
 40
0.0
 40
0.0603065066565569
 40
0.1824594230454055
 40
0.3046376318411851
 40
0.4286544160404467
 40
0.5527099646540826
 40
0.6807661403049405
 40
0.8088714362356145
 40
1.0
 40
1.0
 40
1.0
 40
1.0
 10
69.1760817380521
 20
219.0054920553591
 30
0.0
 10
69.1445258756195
 20
219.013008930784
 30
0.0
 10
69.04905252170852
 20
219.0357514975344
 30
0.0
 10
68.76828441090504
 20
219.1062393622039
 30
0.0
 10
68.35612954868007
 20
219.2173290791142
 30
0.0
 10
67.85150985054572
 20
219.3656008255822
 30
0.0
 10
67.2763158037305
 20
219.5505044398028
 30
0.0
 10
66.64614529910116
 20
219.7750140885475
 30
0.0
 10
65.8712183912875
 20
220.0760198327039
 30
0.0
 10
65.3098223854193
 20
220.3310839382751
 30
0.0
 10
64.97370887788865
 20
220.4837934165623
 30
0.0
  0
ARC
  5
374
330
1F
100
AcDbEntity
  8
0
  6
Continuous
 62
     7
370
    30
100
AcDbCircle
 10
74.2555462593
 20
240.1538216561
 30
0.0
 40
21.75000000000002
100
AcDbArc
 50
299.6782662468
 51
60.3217337532
  0
SPLINE
  5
375
330
1F
100
AcDbEntity
  8
0
  6
Continuous
 62
     7
370
    30
100
AcDbSpline
210
0.0
220
0.0
230
1.0
 70
     8
 71
     3
 72
    12
 73
     8
 74
     0
 42
0.000000001
 43
0.00000001
 40
0.0
 40
0.0
 40
0.0
 40
0.0
 40
0.082689525350649
 40
0.3088553804617973
 40
0.5415027144693912
 40
0.7674824778836503
 40
0.9999999999999999
 40
0.9999999999999999
 40
0.9999999999999999
 40
0.9999999999999999
 10
65.25554664674137
 20
226.7261059075024
 30
0.0
 10
65.25668948939743
 20
226.6648431971408
 30
0.0
 10
65.26095814497198
 20
226.4360195627493
 30
0.0
 10
65.3202132176434
 20
226.0367010660484
 30
0.0
 10
65.47639973796805
 20
225.5522119420086
 30
0.0
 10
65.70997909872206
 20
225.092322911823
 30
0.0
 10
65.92511396094635
 20
224.8282795903669
 30
0.0
 10
66.03421520682905
 20
224.6943754195597
 30
0.0
  0
SPLINE
  5
376
330
1F
100
AcDbEntity
  8
0
  6
Continuous
 62
     7
370
    30
100
AcDbSpline
210
0.0
220
0.0
230
1.0
 70
     8
 71
     3
 72
    12
 73
     8
 74
     0
 42
0.000000001
 43
0.00000001
 40
0.0
 40
0.0
 40
0.0
 40
0.0
 40
0.0807152812091715
 40
0.3071744130598731
 40
0.5402137380168412
 40
0.7668455445475564
 40
1.0
 40
1.0
 40
1.0
 40
1.0
 10
66.03421520682905
 20
255.6132678925421
 30
0.0
 10
65.99500065457805
 20
255.5680909449285
 30
0.0
 10
65.84576364653383
 20
255.3961631245806
 30
0.0
 10
65.62299105446061
 20
255.0605473141543
 30
0.0
 10
65.4147969899394
 20
254.5948971968421
 30
0.0
 10
65.28086247174181
 20
254.095541003971
 30
0.0
 10
65.26406468767011
 20
253.7544847091763
 30
0.0
 10
65.25554664674137
 20
253.5815374045994
 30
0.0
  0
ARC
  5
377
330
1F
100
AcDbEntity
  8
0
  6
Continuous
 62
     7
370
    30
100
AcDbCircle
 10
74.2555462593
 20
240.1538216561
 30
0.0
 40
21.74999999999999
100
AcDbArc
 50
115.2615563845
 51
244.7384436155
  0
LINE
  5
378
330
1F
100
AcDbEntity
  8
0
  6
Continuous
 62
     7
370
    30
100
AcDbLine
 10
65.2555466467
 20
253.5815374046
 30
0.0
 11
65.2555466467
 21
226.7261059075
 31
0.0
  0
SPLINE
  5
379
330
1F
100
AcDbEntity
  8
0
  6
Continuous
 62
     7
370
    30
100
AcDbSpline
210
0.0
220
0.0
230
1.0
 70
     8
 71
     3
 72
    12
 73
     8
 74
     0
 42
0.000000001
 43
0.00000001
 40
0.0
 40
0.0
 40
0.0
 40
0.0
 40
0.2390412501811983
 40
0.4850036303489258
 40
0.7240488249429133
 40
0.9700528542693413
 40
1.0
 40
1.0
 40
1.0
 40
1.0
 10
65.25554664674137
 20
226.9660313665297
 30
0.0
 10
65.26361637891308
 20
226.7984291804606
 30
0.0
 10
65.27998949190614
 20
226.4583721039672
 30
0.0
 10
65.41168407240026
 20
225.964729573931
 30
0.0
 10
65.62040682726521
 20
225.4954442404333
 30
0.0
 10
65.82173720372967
 20
225.1933777788985
 30
0.0
 10
65.94466626928617
 20
225.044255294754
 30
0.0
 10
65.95800694319341
 20
225.0280720233347
 30
0.0
  0
SPLINE
  5
37A
330
1F
100
AcDbEntity
  8
0
  6
Continuous
 62
     7
370
    30
100
AcDbSpline
210
0.0
220
0.0
230
1.0
 70
     8
 71
     3
 72
     9
 73
     5
 74
     0
 42
0.000000001
 43
0.00000001
 40
0.0
 40
0.0
 40
0.0
 40
0.0
 40
0.7091471559503096
 40
1.0
 40
1.0
 40
1.0
 40
1.0
 10
65.95800694319341
 20
225.0280720233347
 30
0.0
 10
66.18301216787604
 20
224.7992854011072
 30
0.0
 10
66.50030206010031
 20
224.4766631917281
 30
0.0
 10
66.90279691624264
 20
224.2776308834799
 30
0.0
 10
67.019863689867
 20
224.2197417705681
 30
0.0
  0
SPLINE
  5
37B
330
1F
100
AcDbEntity
  8
0
  6
Continuous
 62
     7
370
    30
100
AcDbSpline
210
0.0
220
0.0
230
1.0
 70
     8
 71
     3
 72
    10
 73
     6
 74
     0
 42
0.000000001
 43
0.00000001
 40
0.0
 40
0.0
 40
0.0
 40
0.0
 40
0.3709496330974605
 40
0.7526915451331989
 40
1.0
 40
1.0
 40
1.0
 40
1.0
 10
67.019863689867
 20
256.0879015415337
 30
0.0
 10
66.87185248416898
 20
256.0116227578191
 30
0.0
 10
66.57152388650032
 20
255.8568459621242
 30
0.0
 10
66.22010876000144
 20
255.5721872976218
 30
0.0
 10
66.03197207450995
 20
255.3621475249178
 30
0.0
 10
65.95800694319341
 20
255.2795712887671
 30
0.0
  0
SPLINE
  5
37C
330
1F
100
AcDbEntity
  8
0
  6
Continuous
 62
     7
370
    30
100
AcDbSpline
210
0.0
220
0.0
230
1.0
 70
     8
 71
     3
 72
    11
 73
     7
 74
     0
 42
0.000000001
 43
0.00000001
 40
0.0
 40
0.0
 40
0.0
 40
0.0
 40
0.3231655024745032
 40
0.5613476858004828
 40
0.806386582250958
 40
1.0
 40
1.0
 40
1.0
 40
1.0
 10
65.95800694319341
 20
255.2795712887671
 30
0.0
 10
65.82361079345759
 20
255.0961904971354
 30
0.0
 10
65.59016085199717
 20
254.7776528369752
 30
0.0
 10
65.38176473328916
 20
254.2487547980519
 30
0.0
 10
65.2728617654961
 20
253.7847523323671
 30
0.0
 10
65.26084890993774
 20
253.4773110994162
 30
0.0
 10
65.25554664674137
 20
253.3416119455721
 30
0.0
  0
LINE
  5
37D
330
1F
100
AcDbEntity
  8
0
  6
Continuous
 62
     7
370
     0
100
AcDbLine
 10
61.3744805405
 20
243.0235047411
 30
0.0
 11
61.3744805405
 21
237.284138571
 31
0.0
  0
LINE
  5
37E
330
1F
100
AcDbEntity
  8
0
  6
Continuous
 62
     7
370
     0
100
AcDbLine
 10
61.3744805405
 20
237.284138571
 30
0.0
 11
60.874556827
 21
237.284138571
 31
0.0
  0
LINE
  5
37F
330
1F
100
AcDbEntity
  8
0
  6
Continuous
 62
     7
370
     0
100
AcDbLine
 10
60.874556827
 20
237.284138571
 30
0.0
 11
60.874556827
 21
243.0235047411
 31
0.0
  0
LINE
  5
380
330
1F
100
AcDbEntity
  8
0
  6
Continuous
 62
     7
370
     0
100
AcDbLine
 10
61.3744805405
 20
243.0235047411
 30
0.0
 11
60.874556827
 21
243.0235047411
 31
0.0
  0
ELLIPSE
  5
381
330
1F
100
AcDbEntity
  8
0
  6
Continuous
 62
     7
370
     0
100
AcDbEllipse
 10
60.7745418755
 20
237.2846063075
 30
0.0
 11
0.006730811277456894
 21
-0.1033233307133798
 31
0.0
210
0.0
220
0.0
230
1.0
 40
0.9657885639
 41
6.220353573782542
 42
7.78663287004803
  0
ELLIPSE
  5
382
330
1F
100
AcDbEntity
  8
0
  6
Continuous
 62
     7
370
     0
100
AcDbEllipse
 10
60.7745418755
 20
237.2846063075
 30
0.0
 11
0.5987309470945021
 21
0.03900324334344419
 31
0.0
210
0.0
220
0.0
230
1.0
 40
0.9773943563
 41
4.649557246987586
 42
6.215836543253079
  0
LINE
  5
383
330
1F
100
AcDbEntity
  8
0
  6
Continuous
 62
     7
370
     0
100
AcDbLine
 10
60.7749937871
 20
237.1810786478
 30
0.0
 11
60.7749937871
 21
236.6981157153
 31
0.0
  0
ELLIPSE
  5
384
330
1F
100
AcDbEntity
  8
0
  6
Continuous
 62
     7
370
     0
100
AcDbEllipse
 10
60.7745418755
 20
243.0230370046
 30
0.0
 11
0.5987309470945021
 21
-0.03900324334344419
 31
0.0
210
0.0
220
0.0
230
1.0
 40
0.9773943563
 41
0.0673487639265211
 42
1.633628060192014
  0
ELLIPSE
  5
385
330
1F
100
AcDbEntity
  8
0
  6
Continuous
 62
     7
370
     0
100
AcDbEllipse
 10
60.7745418755
 20
243.0230370046
 30
0.0
 11
0.006730811277456894
 21
0.1033233307133798
 31
0.0
210
0.0
220
0.0
230
1.0
 40
0.9657885639
 41
4.779737744311161
 42
6.346017040576641
  0
LINE
  5
386
330
1F
100
AcDbEntity
  8
0
  6
Continuous
 62
     7
370
     0
100
AcDbLine
 10
60.7749937871
 20
243.6095275968
 30
0.0
 11
60.7749937871
 21
243.1265646643
 31
0.0
  0
ELLIPSE
  5
387
330
1F
100
AcDbEntity
  8
0
  6
Continuous
 62
     7
370
     0
100
AcDbEllipse
 10
60.7365506431
 20
237.2846063075
 30
0.0
 11
-0.006730811277456894
 21
-0.1033233307133798
 31
0.0
210
0.0
220
0.0
230
1.0
 40
0.9657885639
 41
4.779737744311159
 42
6.346017040576641
  0
LINE
  5
388
330
1F
100
AcDbEntity
  8
0
  6
Continuous
 62
     7
370
     0
100
AcDbLine
 10
60.6365349913
 20
243.0235047411
 30
0.0
 11
60.6365349913
 21
237.284138571
 31
0.0
  0
ELLIPSE
  5
389
330
1F
100
AcDbEntity
  8
0
  6
Continuous
 62
     7
370
     0
100
AcDbEllipse
 10
60.7365506431
 20
243.0230370046
 30
0.0
 11
-0.006730811277456894
 21
0.1033233307133798
 31
0.0
210
0.0
220
0.0
230
1.0
 40
0.9657885639
 41
6.220353573782543
 42
7.786632870048029
  0
LINE
  5
38A
330
1F
100
AcDbEntity
  8
0
  6
Continuous
 62
     7
370
     0
100
AcDbLine
 10
60.7749937871
 20
243.1265646643
 30
0.0
 11
60.7360989625
 21
243.1265646643
 31
0.0
  0
LINE
  5
38B
330
1F
100
AcDbEntity
  8
0
  6
Continuous
 62
     7
370
     0
100
AcDbLine
 10
60.7360989625
 20
237.1810786478
 30
0.0
 11
60.7749937871
 21
237.1810786478
 31
0.0
  0
LINE
  5
38C
330
1F
100
AcDbEntity
  8
0
  6
Continuous
 62
     7
370
     0
100
AcDbLine
 10
60.7360989625
 20
237.1810786478
 30
0.0
 11
60.7360989625
 21
236.6981157153
 31
0.0
  0
ELLIPSE
  5
38D
330
1F
100
AcDbEntity
  8
0
  6
Continuous
 62
     7
370
     0
100
AcDbEllipse
 10
60.7365506431
 20
237.2846063075
 30
0.0
 11
0.5987309470945164
 21
-0.0390032433434442
 31
0.0
210
0.0
220
0.0
230
1.0
 40
0.9773943563
 41
3.208941417516328
 42
4.775220713781817
  0
LINE
  5
38E
330
1F
100
AcDbEntity
  8
0
  6
Continuous
 62
     7
370
     0
100
AcDbLine
 10
60.6365349913
 20
237.284138571
 30
0.0
 11
60.1366112778
 21
237.284138571
 31
0.0
  0
LINE
  5
38F
330
1F
100
AcDbEntity
  8
0
  6
Continuous
 62
     7
370
     0
100
AcDbLine
 10
60.7749937871
 20
236.6981157153
 30
0.0
 11
60.7360989625
 21
236.6981157153
 31
0.0
  0
LINE
  5
390
330
1F
100
AcDbEntity
  8
0
  6
Continuous
 62
     7
370
     0
100
AcDbLine
 10
60.7360989625
 20
243.6095275968
 30
0.0
 11
60.7749937871
 21
243.6095275968
 31
0.0
  0
LINE
  5
391
330
1F
100
AcDbEntity
  8
0
  6
Continuous
 62
     7
370
     0
100
AcDbLine
 10
60.7360989625
 20
243.6095275968
 30
0.0
 11
60.7360989625
 21
243.1265646643
 31
0.0
  0
LINE
  5
392
330
1F
100
AcDbEntity
  8
0
  6
Continuous
 62
     7
370
     0
100
AcDbLine
 10
60.6365349913
 20
243.0235047411
 30
0.0
 11
60.1366112778
 21
243.0235047411
 31
0.0
  0
ELLIPSE
  5
393
330
1F
100
AcDbEntity
  8
0
  6
Continuous
 62
     7
370
     0
100
AcDbEllipse
 10
60.7365506431
 20
243.0230370046
 30
0.0
 11
0.5987309470945164
 21
0.0390032433434442
 31
0.0
210
0.0
220
0.0
230
1.0
 40
0.9773943563
 41
1.507964593397782
 42
3.074243889663272
  0
LINE
  5
394
330
1F
100
AcDbEntity
  8
0
  6
Continuous
 62
     7
370
     0
100
AcDbLine
 10
60.1366112778
 20
237.284138571
 30
0.0
 11
60.1366112778
 21
243.0235047411
 31
0.0
  0
LINE
  5
395
330
1F
100
AcDbEntity
  8
0
  6
Continuous
 62
     7
370
     0
100
AcDbLine
 10
61.3744805405
 20
237.284138571
 30
0.0
 11
61.4969708795
 21
235.4038180835
 31
0.0
  0
SPLINE
  5
396
330
1F
100
AcDbEntity
  8
0
  6
Continuous
 62
     7
370
     0
100
AcDbSpline
210
0.0
220
0.0
230
1.0
 70
     8
 71
     3
 72
    13
 73
     9
 74
     0
 42
0.000000001
 43
0.00000001
 40
0.0
 40
0.0
 40
0.0
 40
0.0
 40
0.1149499862705446
 40
0.2332672720558301
 40
0.3559050838915401
 40
0.4837187404093244
 40
0.7378720836983291
 40
1.0
 40
1.0
 40
1.0
 40
1.0
 10
60.90169649812315
 20
234.7531211614039
 30
0.0
 10
60.93956076230521
 20
234.755275949804
 30
0.0
 10
61.01639847147519
 20
234.7596486481249
 30
0.0
 10
61.12849905100859
 20
234.7969234613734
 30
0.0
 10
61.23424018588322
 20
234.8569656901089
 30
0.0
 10
61.35735159701986
 20
234.9674392582435
 30
0.0
 10
61.47212260643755
 20
235.1513351445128
 30
0.0
 10
61.48860326737191
 20
235.318794899358
 30
0.0
 10
61.4969708794627
 20
235.4038180834975
 30
0.0
  0
LINE
  5
397
330
1F
100
AcDbEntity
  8
0
  6
Continuous
 62
     7
370
     0
100
AcDbLine
 10
60.9016964981
 20
234.7531211614
 30
0.0
 11
60.7749937871
 21
236.6981157153
 31
0.0
  0
LINE
  5
398
330
1F
100
AcDbEntity
  8
0
  6
Continuous
 62
     7
370
     0
100
AcDbLine
 10
60.7749937871
 20
243.6095275968
 30
0.0
 11
60.9016964981
 21
245.5545221507
 31
0.0
  0
SPLINE
  5
399
330
1F
100
AcDbEntity
  8
0
  6
Continuous
 62
     7
370
     0
100
AcDbSpline
210
0.0
220
0.0
230
1.0
 70
     8
 71
     3
 72
    13
 73
     9
 74
     0
 42
0.000000001
 43
0.00000001
 40
0.0
 40
0.0
 40
0.0
 40
0.0
 40
0.2621276804982932
 40
0.5162807951576364
 40
0.6440805226303412
 40
0.7667127134291404
 40
0.8850348514517219
 40
1.0
 40
1.0
 40
1.0
 40
1.0
 10
61.4969708794627
 20
244.9038252286043
 30
0.0
 10
61.48860335947852
 20
244.9888484460152
 30
0.0
 10
61.47212287995527
 20
245.156308266391
 30
0.0
 10
61.35735322113084
 20
245.3401998072968
 30
0.0
 10
61.23425000380815
 20
245.4506711826865
 30
0.0
 10
61.1285146266182
 20
245.5107141277837
 30
0.0
 10
61.01641028319266
 20
245.5479939409307
 30
0.0
 10
60.93956583085743
 20
245.5523670570648
 30
0.0
 10
60.90169649812315
 20
245.5545221506979
 30
0.0
  0
LINE
  5
39A
330
1F
100
AcDbEntity
  8
0
  6
Continuous
 62
     7
370
     0
100
AcDbLine
 10
61.4969708795
 20
244.9038252286
 30
0.0
 11
61.3744805405
 21
243.0235047411
 31
0.0
  0
LINE
  5
39B
330
1F
100
AcDbEntity
  8
0
  6
Continuous
 62
     7
370
     0
100
AcDbLine
 10
60.1366112778
 20
243.0235047411
 30
0.0
 11
60.0141218701
 21
244.9038252286
 31
0.0
  0
SPLINE
  5
39C
330
1F
100
AcDbEntity
  8
0
  6
Continuous
 62
     7
370
     0
100
AcDbSpline
210
0.0
220
0.0
230
1.0
 70
     8
 71
     3
 72
    13
 73
     9
 74
     0
 42
0.000000001
 43
0.00000001
 40
0.0
 40
0.0
 40
0.0
 40
0.0
 40
0.1149500554425256
 40
0.2332674124260888
 40
0.3559044804023966
 40
0.4837189147204503
 40
0.7378719259609703
 40
1.0
 40
1.0
 40
1.0
 40
1.0
 10
60.60939532014464
 20
245.5545221506979
 30
0.0
 10
60.57153106622619
 20
245.5523673469289
 30
0.0
 10
60.49469337788406
 20
245.5479946174199
 30
0.0
 10
60.38259289420898
 20
245.5107201319123
 30
0.0
 10
60.27685240640817
 20
245.4506770231698
 30
0.0
 10
60.15373999466387
 20
245.3402048404578
 30
0.0
 10
60.03897048446149
 20
245.1563077297974
 30
0.0
 10
60.02248960236705
 20
244.9888483182918
 30
0.0
 10
60.01412187012766
 20
244.9038252286043
 30
0.0
  0
LINE
  5
39D
330
1F
100
AcDbEntity
  8
0
  6
Continuous
 62
     7
370
     0
100
AcDbLine
 10
60.6093953201
 20
245.5545221507
 30
0.0
 11
60.7360989625
 21
243.6095275968
 31
0.0
  0
LINE
  5
39E
330
1F
100
AcDbEntity
  8
0
  6
Continuous
 62
     7
370
     0
100
AcDbLine
 10
60.7360989625
 20
236.6981157153
 30
0.0
 11
60.6093953201
 21
234.7531211614
 31
0.0
  0
SPLINE
  5
39F
330
1F
100
AcDbEntity
  8
0
  6
Continuous
 62
     7
370
     0
100
AcDbSpline
210
0.0
220
0.0
230
1.0
 70
     8
 71
     3
 72
    13
 73
     9
 74
     0
 42
0.000000001
 43
0.00000001
 40
0.0
 40
0.0
 40
0.0
 40
0.0
 40
0.262127870234744
 40
0.5162806838715808
 40
0.6440812047217974
 40
0.7667134842857227
 40
0.8850357079536756
 40
1.0
 40
1.0
 40
1.0
 40
1.0
 10
60.01412187012766
 20
235.4038180834975
 30
0.0
 10
60.0224895053291
 20
235.3187949519707
 30
0.0
 10
60.03897019629994
 20
235.1513354580593
 30
0.0
 10
60.1537384154172
 20
234.9674427961331
 30
0.0
 10
60.27684271070638
 20
234.8569724150763
 30
0.0
 10
60.38257808146011
 20
234.796929140153
 30
0.0
 10
60.49468217927225
 20
234.7596494834726
 30
0.0
 10
60.57152630524239
 20
234.7552762861248
 30
0.0
 10
60.60939532014464
 20
234.7531211614039
 30
0.0
  0
LINE
  5
3A0
330
1F
100
AcDbEntity
  8
0
  6
Continuous
 62
     7
370
     0
100
AcDbLine
 10
60.0141218701
 20
235.4038180835
 30
0.0
 11
60.1366112778
 21
237.284138571
 31
0.0
  0
LINE
  5
3A1
330
1F
100
AcDbEntity
  8
0
  6
Continuous
 62
     7
370
     0
100
AcDbLine
 10
60.6093953201
 20
234.7531211614
 30
0.0
 11
60.9016964981
 21
234.7531211614
 31
0.0
  0
LINE
  5
3A2
330
1F
100
AcDbEntity
  8
0
  6
Continuous
 62
     7
370
     0
100
AcDbLine
 10
60.9016964981
 20
245.5545221507
 30
0.0
 11
60.6093953201
 21
245.5545221507
 31
0.0
  0
LINE
  5
3A3
330
1F
100
AcDbEntity
  8
0
  6
Continuous
 62
     7
370
     0
100
AcDbLine
 10
61.4969708795
 20
235.4038180835
 30
0.0
 11
61.4969708795
 21
244.9038252286
 31
0.0
  0
LINE
  5
3A4
330
1F
100
AcDbEntity
  8
0
  6
Continuous
 62
     7
370
     0
100
AcDbLine
 10
60.0141218701
 20
244.9038252286
 30
0.0
 11
60.0141218701
 21
235.4038180835
 31
0.0
  0
LINE
  5
3A5
330
1F
100
AcDbEntity
  8
0
  6
Continuous
 62
     7
370
     0
100
AcDbLine
 10
59.6165365377
 20
244.9038252286
 30
0.0
 11
59.6165365377
 21
235.4038180835
 31
0.0
  0
LINE
  5
3A6
330
1F
100
AcDbEntity
  8
0
  6
Continuous
 62
     7
370
     0
100
AcDbLine
 10
61.8945552805
 20
235.4038180835
 30
0.0
 11
61.8945552805
 21
244.9038252286
 31
0.0
  0
SPLINE
  5
3A7
330
1F
100
AcDbEntity
  8
0
  6
Continuous
 62
     7
370
     0
100
AcDbSpline
210
0.0
220
0.0
230
1.0
 70
    24
 71
     3
 72
    11
 73
     7
 74
     0
 42
0.000000001
 43
0.00000001
 40
0.0
 40
0.0
 40
0.0
 40
0.0
 40
0.2264305786618141
 40
0.5000000345846946
 40
0.7735691644890592
 40
1.0
 40
1.0
 40
1.0
 40
1.0
 10
60.60939532014464
 20
234.2701582289662
 30
0.0
 10
60.60939532014463
 20
234.3189237024422
 30
0.0
 10
60.60939532014463
 20
234.4266067661371
 30
0.0
 10
60.60939532014464
 20
234.5724523757667
 30
0.0
 10
60.60939532014464
 20
234.6944073634875
 30
0.0
 10
60.60939532014464
 20
234.7348198802615
 30
0.0
 10
60.60939532014464
 20
234.7531211614039
 30
0.0
  0
SPLINE
  5
3A8
330
1F
100
AcDbEntity
  8
0
  6
Continuous
 62
     7
370
     0
100
AcDbSpline
210
0.0
220
0.0
230
1.0
 70
     8
 71
     3
 72
    10
 73
     6
 74
     0
 42
0.000000001
 43
0.00000001
 40
0.0
 40
0.0
 40
0.0
 40
0.0
 40
0.3353835874719403
 40
0.6718118488750213
 40
1.0
 40
1.0
 40
1.0
 40
1.0
 10
60.60939532014464
 20
234.2701582289662
 30
0.0
 10
60.53770875154036
 20
234.2744027813377
 30
0.0
 10
60.3941123204909
 20
234.2829051072798
 30
0.0
 10
60.18772417730604
 20
234.3482083840489
 30
0.0
 10
60.06571521770933
 20
234.4212956452173
 30
0.0
 10
60.00546708944176
 20
234.4573861970928
 30
0.0
  0
SPLINE
  5
3A9
330
1F
100
AcDbEntity
  8
0
  6
Continuous
 62
     7
370
     0
100
AcDbSpline
210
0.0
220
0.0
230
1.0
 70
     8
 71
     3
 72
    12
 73
     8
 74
     0
 42
0.000000001
 43
0.00000001
 40
0.0
 40
0.0
 40
0.0
 40
0.0
 40
0.0000576289988839
 40
0.1669939910953515
 40
0.629684434020588
 40
0.9999420051647746
 40
1.0
 40
1.0
 40
1.0
 40
1.0
 10
59.61653653773401
 20
235.4038180834975
 30
0.0
 10
59.61653684806574
 20
235.4037980600631
 30
0.0
 10
59.61743610945905
 20
235.3457753059046
 30
0.0
 10
59.63119290110568
 20
235.1269031923621
 30
0.0
 10
59.7492648929091
 20
234.7900021193754
 30
0.0
 10
59.92227778838325
 20
234.5558083107607
 30
0.0
 10
60.00553321329271
 20
234.4576865485741
 30
0.0
 10
60.0055462518606
 20
234.4576711818006
 30
0.0
  0
SPLINE
  5
3AA
330
1F
100
AcDbEntity
  8
0
  6
Continuous
 62
     7
370
     0
100
AcDbSpline
210
0.0
220
0.0
230
1.0
 70
    24
 71
     3
 72
    11
 73
     7
 74
     0
 42
0.000000001
 43
0.00000001
 40
0.0
 40
0.0
 40
0.0
 40
0.0
 40
0.2264308355109408
 40
0.4999999654153055
 40
0.773569421338186
 40
1.0
 40
1.0
 40
1.0
 40
1.0
 10
60.90169649812315
 20
245.5545221506979
 30
0.0
 10
60.90169649812315
 20
245.5728234318403
 30
0.0
 10
60.90169649812315
 20
245.6132359486143
 30
0.0
 10
60.90169649812314
 20
245.7351909363351
 30
0.0
 10
60.90169649812316
 20
245.8810365459648
 30
0.0
 10
60.90169649812315
 20
245.9887196096597
 30
0.0
 10
60.90169649812315
 20
246.0374850831356
 30
0.0
  0
SPLINE
  5
3AB
330
1F
100
AcDbEntity
  8
0
  6
Continuous
 62
     7
370
     0
100
AcDbSpline
210
0.0
220
0.0
230
1.0
 70
     8
 71
     3
 72
    10
 73
     6
 74
     0
 42
0.000000001
 43
0.00000001
 40
0.0
 40
0.0
 40
0.0
 40
0.0
 40
0.3353845485522277
 40
0.6718123234572866
 40
1.0
 40
1.0
 40
1.0
 40
1.0
 10
60.90169649812315
 20
246.0374850831356
 30
0.0
 10
60.9733833805971
 20
246.033240557603
 30
0.0
 10
61.11698013031062
 20
246.0247383037802
 30
0.0
 10
61.32336857236632
 20
245.9594349269525
 30
0.0
 10
61.44537753190813
 20
245.8863476665208
 30
0.0
 10
61.5056256601486
 20
245.8502571150091
 30
0.0
  0
SPLINE
  5
3AC
330
1F
100
AcDbEntity
  8
0
  6
Continuous
 62
     7
370
     0
100
AcDbSpline
210
0.0
220
0.0
230
1.0
 70
     8
 71
     3
 72
    12
 73
     8
 74
     0
 42
0.000000001
 43
0.00000001
 40
0.0
 40
0.0
 40
0.0
 40
0.0
 40
0.0000576221037733
 40
0.1669941344285103
 40
0.6296848165367047
 40
0.9999425790816481
 40
1.0
 40
1.0
 40
1.0
 40
1.0
 10
61.89455528053377
 20
244.9038252286043
 30
0.0
 10
61.89455528070157
 20
244.9038452520399
 30
0.0
 10
61.89455576702213
 20
244.9618750022946
 30
0.0
 10
61.87861429023922
 20
245.1806673992714
 30
0.0
 10
61.76291326632704
 20
245.51823814701
 30
0.0
 10
61.58764450078412
 20
245.7508542924147
 30
0.0
 10
61.50555922583836
 20
245.8499567635133
 30
0.0
 10
61.50554649772976
 20
245.8499721303012
 30
0.0
  0
SPLINE
  5
3AD
330
1F
100
AcDbEntity
  8
0
  6
Continuous
 62
     7
370
     0
100
AcDbSpline
210
0.0
220
0.0
230
1.0
 70
    24
 71
     3
 72
    11
 73
     7
 74
     0
 42
0.000000001
 43
0.00000001
 40
0.0
 40
0.0
 40
0.0
 40
0.0
 40
0.2264305786618141
 40
0.5000000345846946
 40
0.7735691644890592
 40
1.0
 40
1.0
 40
1.0
 40
1.0
 10
60.90169649812315
 20
234.2701582289662
 30
0.0
 10
60.90169649812314
 20
234.3189237024422
 30
0.0
 10
60.90169649812314
 20
234.4266067661371
 30
0.0
 10
60.90169649812315
 20
234.5724523757667
 30
0.0
 10
60.90169649812315
 20
234.6944073634875
 30
0.0
 10
60.90169649812314
 20
234.7348198802615
 30
0.0
 10
60.90169649812315
 20
234.7531211614039
 30
0.0
  0
SPLINE
  5
3AE
330
1F
100
AcDbEntity
  8
0
  6
Continuous
 62
     7
370
     0
100
AcDbSpline
210
0.0
220
0.0
230
1.0
 70
     8
 71
     3
 72
    13
 73
     9
 74
     0
 42
0.000000001
 43
0.00000001
 40
0.0
 40
0.0
 40
0.0
 40
0.0
 40
0.000057399279594
 40
0.3578290467889935
 40
0.804890065151946
 40
0.9625778047837831
 40
0.9999423996108001
 40
1.0
 40
1.0
 40
1.0
 40
1.0
 10
61.50554649772976
 20
234.4576711818006
 30
0.0
 10
61.50555922583803
 20
234.4576865485895
 30
0.0
 10
61.58490668250312
 20
234.5534836297395
 30
0.0
 10
61.75471165206359
 20
234.7777580896246
 30
0.0
 10
61.8714275960518
 20
235.1003548599116
 30
0.0
 10
61.89323306999639
 20
235.322962326509
 30
0.0
 10
61.89455541092767
 20
235.390789104576
 30
0.0
 10
61.89455528073417
 20
235.4037980600624
 30
0.0
 10
61.89455528053377
 20
235.4038180834975
 30
0.0
  0
SPLINE
  5
3AF
330
1F
100
AcDbEntity
  8
0
  6
Continuous
 62
     7
370
     0
100
AcDbSpline
210
0.0
220
0.0
230
1.0
 70
     8
 71
     3
 72
    10
 73
     6
 74
     0
 42
0.000000001
 43
0.00000001
 40
0.0
 40
0.0
 40
0.0
 40
0.0
 40
0.3281826866998868
 40
0.6641951608365229
 40
1.0
 40
1.0
 40
1.0
 40
1.0
 10
61.50562472882603
 20
234.4573894567218
 30
0.0
 10
61.44537518514331
 20
234.4213042431678
 30
0.0
 10
61.3234386632656
 20
234.3482728944962
 30
0.0
 10
61.11708877841911
 20
234.2828383652963
 30
0.0
 10
60.97347913000058
 20
234.2743840701017
 30
0.0
 10
60.90169649812315
 20
234.2701582289662
 30
0.0
  0
SPLINE
  5
3B0
330
1F
100
AcDbEntity
  8
0
  6
Continuous
 62
     7
370
     0
100
AcDbSpline
210
0.0
220
0.0
230
1.0
 70
    24
 71
     3
 72
    11
 73
     7
 74
     0
 42
0.000000001
 43
0.00000001
 40
0.0
 40
0.0
 40
0.0
 40
0.0
 40
0.2264308355109408
 40
0.4999999654153055
 40
0.773569421338186
 40
1.0
 40
1.0
 40
1.0
 40
1.0
 10
60.60939532014464
 20
245.5545221506979
 30
0.0
 10
60.60939532014464
 20
245.5728234318403
 30
0.0
 10
60.60939532014464
 20
245.6132359486143
 30
0.0
 10
60.60939532014463
 20
245.7351909363351
 30
0.0
 10
60.60939532014464
 20
245.8810365459648
 30
0.0
 10
60.60939532014464
 20
245.9887196096597
 30
0.0
 10
60.60939532014464
 20
246.0374850831356
 30
0.0
  0
SPLINE
  5
3B1
330
1F
100
AcDbEntity
  8
0
  6
Continuous
 62
     7
370
     0
100
AcDbSpline
210
0.0
220
0.0
230
1.0
 70
     8
 71
     3
 72
    13
 73
     9
 74
     0
 42
0.000000001
 43
0.00000001
 40
0.0
 40
0.0
 40
0.0
 40
0.0
 40
0.0000579729942383
 40
0.3578290052129911
 40
0.804890199721537
 40
0.9625778081382392
 40
0.9999423927043283
 40
1.0
 40
1.0
 40
1.0
 40
1.0
 10
60.00554625186059
 20
245.8499721303012
 30
0.0
 10
60.00553321329443
 20
245.8499567635272
 30
0.0
 10
59.92505475570469
 20
245.755107816153
 30
0.0
 10
59.75691276187489
 20
245.5293119658685
 30
0.0
 10
59.64008365381561
 20
245.2073425816861
 30
0.0
 10
59.61745389500564
 20
244.9846821951299
 30
0.0
 10
59.61673854635506
 20
244.9168526456512
 30
0.0
 10
59.61653684822582
 20
244.9038452520378
 30
0.0
 10
59.61653653773401
 20
244.9038252286043
 30
0.0
  0
SPLINE
  5
3B2
330
1F
100
AcDbEntity
  8
0
  6
Continuous
 62
     7
370
     0
100
AcDbSpline
210
0.0
220
0.0
230
1.0
 70
     8
 71
     3
 72
    10
 73
     6
 74
     0
 42
0.000000001
 43
0.00000001
 40
0.0
 40
0.0
 40
0.0
 40
0.0
 40
0.3281831416644951
 40
0.6641946953052098
 40
1.0
 40
1.0
 40
1.0
 40
1.0
 10
60.00546802076433
 20
245.8502538553801
 30
0.0
 10
60.06571757083861
 20
245.8863390465698
 30
0.0
 10
60.18765385114508
 20
245.9593701975479
 30
0.0
 10
60.39400330364016
 20
246.0248050745624
 30
0.0
 10
60.53761267741913
 20
246.033259278763
 30
0.0
 10
60.60939532014464
 20
246.0374850831356
 30
0.0
  0
LINE
  5
3B3
330
1F
100
AcDbEntity
  8
0
  6
Continuous
 62
     7
370
     0
100
AcDbLine
 10
60.6093953201
 20
246.0374850831
 30
0.0
 11
60.9016964981
 21
246.0374850831
 31
0.0
  0
LINE
  5
3B4
330
1F
100
AcDbEntity
  8
0
  6
Continuous
 62
     7
370
     0
100
AcDbLine
 10
60.9016964981
 20
234.270158229
 30
0.0
 11
60.6093953201
 21
234.270158229
 31
0.0
  0
SPLINE
  5
3B5
330
1F
100
AcDbEntity
  8
0
  6
Continuous
 62
     7
370
     0
100
AcDbSpline
210
0.0
220
0.0
230
1.0
 70
    24
 71
     3
 72
    11
 73
     7
 74
     0
 42
0.000000001
 43
0.00000001
 40
0.0
 40
0.0
 40
0.0
 40
0.0
 40
0.2500000965403703
 40
0.5000001003693425
 40
0.7500000056516053
 40
1.0
 40
1.0
 40
1.0
 40
1.0
 10
58.50554600599143
 20
235.4038180834975
 30
0.0
 10
58.52108836202237
 20
235.4038180834975
 30
0.0
 10
58.55217306832042
 20
235.4038180834975
 30
0.0
 10
58.79628081365918
 20
235.4038180834975
 30
0.0
 10
59.15432561264145
 20
235.4038180834975
 30
0.0
 10
59.46246621107323
 20
235.4038180834975
 30
0.0
 10
59.61653653773401
 20
235.4038180834975
 30
0.0
  0
SPLINE
  5
3B6
330
1F
100
AcDbEntity
  8
0
  6
Continuous
 62
     7
370
     0
100
AcDbSpline
210
0.0
220
0.0
230
1.0
 70
     8
 71
     3
 72
    11
 73
     7
 74
     0
 42
0.000000001
 43
0.00000001
 40
0.0
 40
0.0
 40
0.0
 40
0.0
 40
0.249999902236416
 40
0.500000104367802
 40
0.7499999614440925
 40
0.9999999999999999
 40
0.9999999999999999
 40
0.9999999999999999
 40
0.9999999999999999
 10
58.50554600599143
 20
234.4573326460447
 30
0.0
 10
58.52809306833387
 20
234.4573608989469
 30
0.0
 10
58.57318722006574
 20
234.457417404785
 30
0.0
 10
58.92006245611304
 20
234.4575021134077
 30
0.0
 10
59.41587938537914
 20
234.4575870218854
 30
0.0
 10
59.80899058213898
 20
234.4576431284887
 30
0.0
 10
60.0055462518606
 20
234.4576711818006
 30
0.0
  0
SPLINE
  5
3B7
330
1F
100
AcDbEntity
  8
0
  6
Continuous
 62
     7
370
     0
100
AcDbSpline
210
0.0
220
0.0
230
1.0
 70
    24
 71
     3
 72
    11
 73
     7
 74
     0
 42
0.000000001
 43
0.00000001
 40
0.0
 40
0.0
 40
0.0
 40
0.0
 40
0.2500000938313235
 40
0.5000000061542624
 40
0.7500000425169246
 40
1.0
 40
1.0
 40
1.0
 40
1.0
 10
61.50554649772976
 20
245.8503106660571
 30
0.0
 10
61.70210214687962
 20
245.8503106660571
 30
0.0
 10
62.09521330247338
 20
245.8503106660571
 30
0.0
 10
62.59103039417213
 20
245.8503106660571
 30
0.0
 10
62.93790442152638
 20
245.8503106660571
 30
0.0
 10
62.98299868439771
 20
245.8503106660571
 30
0.0
 10
63.00554581227634
 20
245.8503106660571
 30
0.0
  0
SPLINE
  5
3B8
330
1F
100
AcDbEntity
  8
0
  6
Continuous
 62
     7
370
     0
100
AcDbSpline
210
0.0
220
0.0
230
1.0
 70
    24
 71
     3
 72
    11
 73
     7
 74
     0
 42
0.000000001
 43
0.00000001
 40
0.0
 40
0.0
 40
0.0
 40
0.0
 40
0.2499999136709892
 40
0.500000086045766
 40
0.7500000617474754
 40
1.0
 40
1.0
 40
1.0
 40
1.0
 10
61.89455528053377
 20
244.9038252286043
 30
0.0
 10
62.04862555742816
 20
244.9038252286043
 30
0.0
 10
62.35676627065125
 20
244.9038252286043
 30
0.0
 10
62.71481193478856
 20
244.9038252286043
 30
0.0
 10
62.95891984621521
 20
244.9038252286043
 30
0.0
 10
62.99000382436536
 20
244.9038252286043
 30
0.0
 10
63.00554581227634
 20
244.9038252286043
 30
0.0
  0
SPLINE
  5
3B9
330
1F
100
AcDbEntity
  8
0
  6
Continuous
 62
     7
370
     0
100
AcDbSpline
210
0.0
220
0.0
230
1.0
 70
     8
 71
     3
 72
    11
 73
     7
 74
     0
 42
0.000000001
 43
0.00000001
 40
0.0
 40
0.0
 40
0.0
 40
0.0
 40
0.2499999267967964
 40
0.5000001122973838
 40
0.7500000486216679
 40
1.0
 40
1.0
 40
1.0
 40
1.0
 10
61.89455528053377
 20
235.4038180834975
 30
0.0
 10
62.04862555861844
 20
235.4038500727761
 30
0.0
 10
62.35676627422208
 20
235.4039140513662
 30
0.0
 10
62.71481189544047
 20
235.4040097695734
 30
0.0
 10
62.95891986958863
 20
235.4041064858386
 30
0.0
 10
62.99000383106848
 20
235.4041703313186
 30
0.0
 10
63.00554581227634
 20
235.4042022540596
 30
0.0
  0
SPLINE
  5
3BA
330
1F
100
AcDbEntity
  8
0
  6
Continuous
 62
     7
370
     0
100
AcDbSpline
210
0.0
220
0.0
230
1.0
 70
    24
 71
     3
 72
    11
 73
     7
 74
     0
 42
0.000000001
 43
0.00000001
 40
0.0
 40
0.0
 40
0.0
 40
0.0
 40
0.2500000938313235
 40
0.5000000061542624
 40
0.7500000425169246
 40
1.0
 40
1.0
 40
1.0
 40
1.0
 10
61.50554649772976
 20
234.457336371335
 30
0.0
 10
61.70210214687962
 20
234.457336371335
 30
0.0
 10
62.09521330247338
 20
234.457336371335
 30
0.0
 10
62.59103039417213
 20
234.457336371335
 30
0.0
 10
62.93790442152638
 20
234.457336371335
 30
0.0
 10
62.98299868439771
 20
234.457336371335
 30
0.0
 10
63.00554581227634
 20
234.457336371335
 30
0.0
  0
SPLINE
  5
3BB
330
1F
100
AcDbEntity
  8
0
  6
Continuous
 62
     7
370
     0
100
AcDbSpline
210
0.0
220
0.0
230
1.0
 70
     8
 71
     3
 72
    11
 73
     7
 74
     0
 42
0.000000001
 43
0.00000001
 40
0.0
 40
0.0
 40
0.0
 40
0.0
 40
0.2500000965286382
 40
0.5000001003927952
 40
0.7500000056633332
 40
1.0
 40
1.0
 40
1.0
 40
1.0
 10
58.50554600599143
 20
244.9034410580423
 30
0.0
 10
58.52108836202835
 20
244.9034729807845
 30
0.0
 10
58.55217306834129
 20
244.9035368262571
 30
0.0
 10
58.79628081362402
 20
244.9036335424382
 30
0.0
 10
59.15432561264464
 20
244.9037292608249
 30
0.0
 10
59.46246621107429
 20
244.9037932393407
 30
0.0
 10
59.61653653773401
 20
244.9038252286043
 30
0.0
  0
SPLINE
  5
3BC
330
1F
100
AcDbEntity
  8
0
  6
Continuous
 62
     7
370
     0
100
AcDbSpline
210
0.0
220
0.0
230
1.0
 70
    24
 71
     3
 72
    11
 73
     7
 74
     0
 42
0.000000001
 43
0.00000001
 40
0.0
 40
0.0
 40
0.0
 40
0.0
 40
0.249999902229233
 40
0.5000001043534422
 40
0.7499999614225488
 40
0.9999999999999999
 40
0.9999999999999999
 40
0.9999999999999999
 40
0.9999999999999999
 10
58.50554600599143
 20
245.8503069407668
 30
0.0
 10
58.52809306833429
 20
245.8503069407668
 30
0.0
 10
58.57318722006699
 20
245.8503069407668
 30
0.0
 10
58.92006245610807
 20
245.8503069407668
 30
0.0
 10
59.41587938541676
 20
245.8503069407668
 30
0.0
 10
59.808990582144
 20
245.8503069407668
 30
0.0
 10
60.0055462518606
 20
245.8503069407668
 30
0.0
  0
LINE
  5
3BD
330
1F
100
AcDbEntity
  8
0
  6
Continuous
 62
     7
370
     0
100
AcDbLine
 10
60.0055462519
 20
234.457332646
 30
0.0
 11
60.0055462519
 21
233.6538215219
 31
0.0
  0
LINE
  5
3BE
330
1F
100
AcDbEntity
  8
0
  6
Continuous
 62
     7
370
     0
100
AcDbLine
 10
61.5055464977
 20
233.6538215219
 30
0.0
 11
61.5055464977
 21
234.4573363713
 31
0.0
  0
LINE
  5
3BF
330
1F
100
AcDbEntity
  8
0
  6
Continuous
 62
     7
370
     0
100
AcDbLine
 10
60.0055462519
 20
233.6538215219
 30
0.0
 11
61.5055464977
 21
233.6538215219
 31
0.0
  0
LWPOLYLINE
  5
3C0
330
1F
100
AcDbEntity
  8
0
  6
Continuous
 62
     7
370
     0
100
AcDbPolyline
 90
       10
 70
   128
 43
0.0
 10
58.505546006
 20
232.6538218237
 10
58.5283354694
 20
232.6690140232
 10
58.5960072303
 20
232.7141291513
 10
58.7065077225
 20
232.7877963013
 10
58.856479528
 20
232.8877770394
 10
59.0413647542
 20
233.0110338568
 10
59.2555465946
 20
233.15382144
 10
59.4925160358
 20
233.3118016883
 10
59.7450739542
 20
233.4801736339
 10
60.0055462519
 20
233.6538215219
  0
LINE
  5
3C1
330
1F
100
AcDbEntity
  8
0
  6
Continuous
 62
     7
370
     0
100
AcDbLine
 10
61.5055464977
 20
245.8503106661
 30
0.0
 11
61.5055464977
 21
246.6538217902
 31
0.0
  0
LWPOLYLINE
  5
3C2
330
1F
100
AcDbEntity
  8
0
  6
Continuous
 62
     7
370
     0
100
AcDbPolyline
 90
        9
 70
   128
 43
0.0
 10
61.5055464977
 20
246.6538217902
 10
61.7981820205
 20
246.8489119835
 10
62.0795718232
 20
247.03650503
 10
62.3389013881
 20
247.2093920275
 10
62.5662064949
 20
247.3609284549
 10
62.7527504066
 20
247.485291218
 10
62.8913656646
 20
247.5777012348
 10
62.9767241726
 20
247.6346069067
 10
63.0055458123
 20
247.6538214884
  0
LINE
  5
3C3
330
1F
100
AcDbEntity
  8
0
  6
Continuous
 62
     7
370
     0
100
AcDbLine
 10
60.0055462519
 20
246.6538217902
 30
0.0
 11
60.0055462519
 21
245.8503069408
 31
0.0
  0
LINE
  5
3C4
330
1F
100
AcDbEntity
  8
0
  6
Continuous
 62
     7
370
     0
100
AcDbLine
 10
61.5055464977
 20
246.6538217902
 30
0.0
 11
60.0055462519
 21
246.6538217902
 31
0.0
  0
LWPOLYLINE
  5
3C5
330
1F
100
AcDbEntity
  8
0
  6
Continuous
 62
     7
370
     0
100
AcDbPolyline
 90
        9
 70
   128
 43
0.0
 10
61.5055464977
 20
233.6538215219
 10
61.7981820205
 20
233.4587313286
 10
62.0795718232
 20
233.2711382821
 10
62.3389013881
 20
233.0982512846
 10
62.5662064949
 20
232.9467148572
 10
62.7527504066
 20
232.8223520941
 10
62.8913656646
 20
232.7299420773
 10
62.9767241726
 20
232.6730364054
 10
63.0055458123
 20
232.6538218237
  0
LWPOLYLINE
  5
3C6
330
1F
100
AcDbEntity
  8
0
  6
Continuous
 62
     7
370
     0
100
AcDbPolyline
 90
        9
 70
   128
 43
0.0
 10
58.505546006
 20
247.6538214884
 10
58.534368577
 20
247.6346069067
 10
58.6197261536
 20
247.5777012348
 10
58.7583414117
 20
247.485291218
 10
58.9448862547
 20
247.3609284549
 10
59.1721913615
 20
247.2093920275
 10
59.4315209264
 20
247.03650503
 10
59.7129107291
 20
246.8489119835
 10
60.0055462519
 20
246.6538217902
  0
LWPOLYLINE
  5
3C7
330
1F
100
AcDbEntity
  8
0
  6
Continuous
 62
     7
370
     0
100
AcDbPolyline
 90
        9
 70
   128
 43
0.0
 10
61.5055464977
 20
246.6538217902
 10
61.7006362254
 20
246.9464573129
 10
61.8882297376
 20
247.22784665
 10
62.0611167351
 20
247.4871771462
 10
62.2126531625
 20
247.7144817873
 10
62.3370154599
 20
247.9010261647
 10
62.4294259423
 20
248.0396409571
 10
62.4863316143
 20
248.124999465
 10
62.5055466616
 20
248.153822036
  0
LWPOLYLINE
  5
3C8
330
1F
100
AcDbEntity
  8
0
  6
Continuous
 62
     7
370
     0
100
AcDbPolyline
 90
        9
 70
   128
 43
0.0
 10
62.5055466616
 20
232.1538212761
 10
62.4863316143
 20
232.1826438471
 10
62.4294259423
 20
232.268002355
 10
62.3370154599
 20
232.4066171474
 10
62.2126531625
 20
232.5931615248
 10
62.0611167351
 20
232.8204661659
 10
61.8882297376
 20
233.0797966621
 10
61.7006362254
 20
233.3611859992
 10
61.5055464977
 20
233.6538215219
  0
LWPOLYLINE
  5
3C9
330
1F
100
AcDbEntity
  8
0
  6
Continuous
 62
     7
370
     0
100
AcDbPolyline
 90
        9
 70
   128
 43
0.0
 10
60.0055462519
 20
246.6538217902
 10
59.8104555929
 20
246.9464573129
 10
59.622863012
 20
247.22784665
 10
59.4499760145
 20
247.4871771462
 10
59.2984395871
 20
247.7144817873
 10
59.1740763584
 20
247.9010261647
 10
59.0816668073
 20
248.0396409571
 10
59.0247611353
 20
248.124999465
 10
59.0055460879
 20
248.153822036
  0
LWPOLYLINE
  5
3CA
330
1F
100
AcDbEntity
  8
0
  6
Continuous
 62
     7
370
     0
100
AcDbPolyline
 90
       10
 70
   128
 43
0.0
 10
59.0055460879
 20
232.1538212761
 10
59.0207387531
 20
232.1766098081
 10
59.0658538813
 20
232.2442825004
 10
59.1395205656
 20
232.3547834582
 10
59.2395017693
 20
232.5047547981
 10
59.3627585867
 20
232.6896400242
 10
59.5055461699
 20
232.9038218647
 10
59.6635264182
 20
233.1407913058
 10
59.8318983639
 20
233.3933492243
 10
60.0055462519
 20
233.6538215219
  0
SPLINE
  5
3CB
330
1F
100
AcDbEntity
  8
0
  6
Continuous
 62
     7
370
     0
100
AcDbSpline
210
0.0
220
0.0
230
1.0
 70
     8
 71
     3
 72
     9
 73
     5
 74
     0
 42
0.000000001
 43
0.00000001
 40
0.0
 40
0.0
 40
0.0
 40
0.0
 40
0.4952538706055859
 40
1.0
 40
1.0
 40
1.0
 40
1.0
 10
66.09191622826192
 20
254.8085064678814
 30
0.0
 10
66.06792270589123
 20
254.8746298618369
 30
0.0
 10
66.01947579049134
 20
255.008144000504
 30
0.0
 10
65.94119765768761
 20
255.1318072651657
 30
0.0
 10
65.90168707313869
 20
255.1942258193519
 30
0.0
  0
SPLINE
  5
3CC
330
1F
100
AcDbEntity
  8
0
  6
Continuous
 62
     7
370
     0
100
AcDbSpline
210
0.0
220
0.0
230
1.0
 70
     8
 71
     3
 72
     9
 73
     5
 74
     0
 42
0.000000001
 43
0.00000001
 40
0.0
 40
0.0
 40
0.0
 40
0.0
 40
0.4901502768351422
 40
1.0
 40
1.0
 40
1.0
 40
1.0
 10
66.09191622826192
 20
254.8085064678814
 30
0.0
 10
65.99071655823701
 20
254.7536421024009
 30
0.0
 10
65.7842499401248
 20
254.6417083382605
 30
0.0
 10
65.5726312566632
 20
254.495267730795
 30
0.0
 10
65.46473752948377
 20
254.4206050276186
 30
0.0
  0
SPLINE
  5
3CD
330
1F
100
AcDbEntity
  8
0
  6
Continuous
 62
     7
370
     0
100
AcDbSpline
210
0.0
220
0.0
230
1.0
 70
     8
 71
     3
 72
     9
 73
     5
 74
     0
 42
0.000000001
 43
0.00000001
 40
0.0
 40
0.0
 40
0.0
 40
0.0
 40
0.2653727800774274
 40
1.0
 40
1.0
 40
1.0
 40
1.0
 10
65.45413814726207
 20
225.9017401426461
 30
0.0
 10
65.51137556957468
 20
225.8586494432204
 30
0.0
 10
65.72706243201735
 20
225.696271450221
 30
0.0
 10
65.9373979969469
 20
225.582624780933
 30
0.0
 10
66.09191622826192
 20
225.4991368442204
 30
0.0
  0
SPLINE
  5
3CE
330
1F
100
AcDbEntity
  8
0
  6
Continuous
 62
     7
370
     0
100
AcDbSpline
210
0.0
220
0.0
230
1.0
 70
     8
 71
     3
 72
     9
 73
     5
 74
     0
 42
0.000000001
 43
0.00000001
 40
0.0
 40
0.0
 40
0.0
 40
0.0
 40
0.4869546510081807
 40
0.9999999999999999
 40
0.9999999999999999
 40
0.9999999999999999
 40
0.9999999999999999
 10
66.09191622826192
 20
225.4991368442204
 30
0.0
 10
66.06788184211068
 20
225.4330269420237
 30
0.0
 10
66.01852532379532
 20
225.297265014173
 30
0.0
 10
65.93882908063111
 20
225.1715219088106
 30
0.0
 10
65.89794129374359
 20
225.1070099934366
 30
0.0
  0
LINE
  5
3CF
330
1F
100
AcDbEntity
  8
0
  6
Continuous
 62
     7
370
     0
100
AcDbLine
 10
66.0919162283
 20
254.8085064679
 30
0.0
 11
66.0919162283
 21
225.4991368442
 31
0.0
  0
SPLINE
  5
3D0
330
1F
100
AcDbEntity
  8
0
  6
Continuous
 62
     7
370
     0
100
AcDbSpline
210
0.0
220
0.0
230
1.0
 70
     8
 71
     3
 72
    13
 73
     9
 74
     0
 42
0.000000001
 43
0.00000001
 40
0.0
 40
0.0
 40
0.0
 40
0.0
 40
0.1661361647783299
 40
0.337143896198283
 40
0.5115942573644812
 40
0.6879509833934317
 40
0.8646582547873596
 40
1.0
 40
1.0
 40
1.0
 40
1.0
 10
66.09191622826192
 20
225.4991368442204
 30
0.0
 10
66.75623653007294
 20
225.1251149523733
 30
0.0
 10
68.10435682149186
 20
224.3661038240676
 30
0.0
 10
70.24421720841947
 20
223.5862704939651
 30
0.0
 10
72.46739389937609
 20
223.066099526634
 30
0.0
 10
74.7414088443713
 20
222.8556139541589
 30
0.0
 10
76.85433512114885
 20
222.9060282686839
 30
0.0
 10
78.18831765693214
 20
223.1690654266933
 30
0.0
 10
78.76689190286133
 20
223.2831497728255
 30
0.0
  0
SPLINE
  5
3D1
330
1F
100
AcDbEntity
  8
0
  6
Continuous
 62
     7
370
     0
100
AcDbSpline
210
0.0
220
0.0
230
1.0
 70
     8
 71
     3
 72
    13
 73
     9
 74
     0
 42
0.000000001
 43
0.00000001
 40
0.0
 40
0.0
 40
0.0
 40
0.0
 40
0.1568568728284592
 40
0.3291671706508822
 40
0.5011356456622629
 40
0.6712451915267678
 40
0.8379977699490816
 40
0.9999999999999999
 40
0.9999999999999999
 40
0.9999999999999999
 40
0.9999999999999999
 10
79.09471791478727
 20
256.9681503861573
 30
0.0
 10
78.40716698468927
 20
257.1053258931838
 30
0.0
 10
76.96432810706966
 20
257.3931913383906
 30
0.0
 10
74.74152037921422
 20
257.453638910495
 30
0.0
 10
72.46736438636793
 20
257.2411178850376
 30
0.0
 10
70.24422487738451
 20
256.721483488506
 30
0.0
 10
68.10435498330264
 20
255.941512961237
 30
0.0
 10
66.7562359232742
 20
255.1825196030527
 30
0.0
 10
66.09191622826192
 20
254.8085064678814
 30
0.0
  0
LWPOLYLINE
  5
3D2
330
1F
100
AcDbEntity
  8
0
  6
Continuous
 62
     7
370
     0
100
AcDbPolyline
 90
       76
 70
   128
 43
0.0
 10
87.5058459887
 20
240.1538216561
 10
87.4740720564
 20
239.1086857585
 10
87.3789709831
 20
238.0708807665
 10
87.2212123895
 20
237.0476860139
 10
87.0019008243
 20
236.0462783887
 10
86.7225748325
 20
235.0736823916
 10
86.3851939166
 20
234.1367201931
 10
85.9921254987
 20
233.2419632054
 10
85.5461253622
 20
232.3956885427
 10
85.0503227511
 20
231.6038305923
 10
84.5081952238
 20
230.8719460904
 10
83.9235444391
 20
230.2051666244
 10
83.3004728729
 20
229.6081692963
 10
82.6433493594
 20
229.0851422637
 10
81.956784411
 20
228.6397549375
 10
81.245593431
 20
228.2751291111
 10
80.5147645833
 20
227.99382499
 10
79.7694243329
 20
227.7978141844
 10
79.014800659
 20
227.6884722575
 10
78.2561867336
 20
227.6665647566
 10
77.4989034353
 20
227.7322472125
 10
76.7482630281
 20
227.8850576892
 10
76.0095303949
 20
228.1239251658
 10
75.2878872981
 20
228.4471732616
 10
74.5883956215
 20
228.8525351375
 10
73.9159617178
 20
229.3371674656
 10
73.2753022412
 20
229.8976709186
 10
72.6709109103
 20
230.5301143839
 10
72.107027222
 20
231.2300610408
 10
71.5876062704
 20
231.9926009565
 10
71.1162916222
 20
232.8123860113
 10
70.696389007
 20
233.6836662195
 10
70.3308434995
 20
234.6003302425
 10
70.0222199621
 20
235.5559472978
 10
69.7726823227
 20
236.5438155881
 10
69.583981468
 20
237.5570053752
 10
69.4574403414
 20
238.5884100856
 10
69.3939474249
 20
239.6307949145
 10
69.3939474249
 20
240.6768483976
 10
69.4574403414
 20
241.7192332265
 10
69.583981468
 20
242.7506379369
 10
69.7726823227
 20
243.763827724
 10
70.0222199621
 20
244.7516960143
 10
70.3308434995
 20
245.7073130696
 10
70.696389007
 20
246.6239770926
 10
71.1162916222
 20
247.4952573008
 10
71.5876062704
 20
248.3150423556
 10
72.107027222
 20
249.0775822713
 10
72.6709109103
 20
249.7775289282
 10
73.2753022412
 20
250.4099723935
 10
73.9159617178
 20
250.9704758465
 10
74.5883956215
 20
251.4551081746
 10
75.2878872981
 20
251.8604700505
 10
76.0095303949
 20
252.1837181463
 10
76.7482630281
 20
252.4225856229
 10
77.4989034353
 20
252.5753960996
 10
78.2561867336
 20
252.6410785555
 10
79.014800659
 20
252.6191710546
 10
79.7694243329
 20
252.5098291277
 10
80.5147645833
 20
252.3138183221
 10
81.245593431
 20
252.032514201
 10
81.956784411
 20
251.6678883746
 10
82.6433493594
 20
251.2225010484
 10
83.3004728729
 20
250.6994740158
 10
83.9235444391
 20
250.1024766877
 10
84.5081952238
 20
249.4356972217
 10
85.0503227511
 20
248.7038127198
 10
85.5461253622
 20
247.9119547694
 10
85.9921254987
 20
247.0656801067
 10
86.3851939166
 20
246.170923119
 10
86.7225748325
 20
245.2339609205
 10
87.0019008243
 20
244.2613649234
 10
87.2212123895
 20
243.2599572982
 10
87.3789709831
 20
242.2367625456
 10
87.4740720564
 20
241.1989575536
 10
87.5058459887
 20
240.1538216561
  0
LWPOLYLINE
  5
3D3
330
1F
100
AcDbEntity
  8
0
  6
Continuous
 62
     7
370
     0
100
AcDbPolyline
 90
       69
 70
   128
 43
0.0
 10
70.657792904
 20
240.1538216561
 10
70.6894138666
 20
239.2109232075
 10
70.784007602
 20
238.2760691741
 10
70.9407664208
 20
237.3572355188
 10
71.1583534093
 20
236.4622613001
 10
71.434912209
 20
235.5987825483
 10
71.7680828484
 20
234.7741653263
 10
72.1550233966
 20
233.9954455435
 10
72.5924320822
 20
233.2692667893
 10
73.0765774451
 20
232.6018246874
 10
73.6033288367
 20
231.9988138094
 10
74.1681922109
 20
231.4653783157
 10
74.7663482861
 20
231.0060695797
 10
75.3926939169
 20
230.6248066067
 10
76.0418852396
 20
230.3248415753
 10
76.7083835626
 20
230.1087337598
 10
77.3865028122
 20
229.9783271789
 10
78.0704570306
 20
229.9347338318
 10
78.754411249
 20
229.9783271789
 10
79.4325304987
 20
230.1087337598
 10
80.0990291709
 20
230.3248415753
 10
80.7482201444
 20
230.6248066067
 10
81.3745657751
 20
231.0060695797
 10
81.9727221342
 20
231.4653783157
 10
82.5375855738
 20
231.9988138094
 10
83.0643369654
 20
232.6018246874
 10
83.5484822119
 20
233.2692667893
 10
83.9858908975
 20
233.9954455435
 10
84.3728312129
 20
234.7741653263
 10
84.7060016194
 20
235.5987825483
 10
84.9825606519
 20
236.4622613001
 10
85.2001474077
 20
237.3572355188
 10
85.3569066921
 20
238.2760691741
 10
85.4515001947
 20
239.2109232075
 10
85.4831213901
 20
240.1538216561
 10
85.4515001947
 20
241.0967201046
 10
85.3569066921
 20
242.031574138
 10
85.2001474077
 20
242.9504077933
 10
84.9825606519
 20
243.845382012
 10
84.7060016194
 20
244.7088607639
 10
84.3728312129
 20
245.5334779858
 10
83.9858908975
 20
246.3121977686
 10
83.5484822119
 20
247.0383765228
 10
83.0643369654
 20
247.7058186247
 10
82.5375855738
 20
248.3088295027
 10
81.9727221342
 20
248.8422649964
 10
81.3745657751
 20
249.3015737324
 10
80.7482201444
 20
249.6828367054
 10
80.0990291709
 20
249.9828017368
 10
79.4325304987
 20
250.1989095523
 10
78.754411249
 20
250.3293161332
 10
78.0704570306
 20
250.3729094803
 10
77.3865028122
 20
250.3293161332
 10
76.7083835626
 20
250.1989095523
 10
76.0418852396
 20
249.9828017368
 10
75.3926939169
 20
249.6828367054
 10
74.7663482861
 20
249.3015737324
 10
74.1681922109
 20
248.8422649964
 10
73.6033288367
 20
248.3088295027
 10
73.0765774451
 20
247.7058186247
 10
72.5924320822
 20
247.0383765228
 10
72.1550233966
 20
246.3121977686
 10
71.7680828484
 20
245.5334779858
 10
71.434912209
 20
244.7088607639
 10
71.1583534093
 20
243.845382012
 10
70.9407664208
 20
242.9504077933
 10
70.784007602
 20
242.031574138
 10
70.6894138666
 20
241.0967201046
 10
70.657792904
 20
240.1538216561
  0
ARC
  5
3D4
330
1F
100
AcDbEntity
  8
0
  6
Continuous
 62
     7
370
     0
100
AcDbCircle
 10
74.2555462593
 20
240.1538216561
 30
0.0
 40
23.83266207061153
100
AcDbArc
 50
102.2465599014
 51
257.7534400986
  0
ARC
  5
3D5
330
1F
100
AcDbEntity
  8
0
  6
Continuous
 62
     7
370
     0
100
AcDbCircle
 10
74.2555462593
 20
240.1538216561
 30
0.0
 40
23.83266207061152
100
AcDbArc
 50
282.2465599014
 51
77.7534400986
  0
SPLINE
  5
3D6
330
1F
100
AcDbEntity
  8
0
  6
Continuous
 62
     7
370
     0
100
AcDbSpline
210
0.0
220
0.0
230
1.0
 70
     8
 71
     3
 72
    12
 73
     8
 74
     0
 42
0.000000001
 43
0.00000001
 40
0.0
 40
0.0
 40
0.0
 40
0.0
 40
0.2332140298434629
 40
0.4664258366475568
 40
0.699194799264732
 40
0.9283967583209362
 40
1.0
 40
1.0
 40
1.0
 40
1.0
 10
79.29730292650792
 20
261.0889379918005
 30
0.0
 10
79.2980569670882
 20
260.9135422902987
 30
0.0
 10
79.29956504106109
 20
260.5627525591993
 30
0.0
 10
79.3112831548014
 20
260.0956328847884
 30
0.0
 10
79.32847488873709
 20
259.7447588963559
 30
0.0
 10
79.34502427829919
 20
259.5890482968893
 30
0.0
 10
79.3547671951605
 20
259.5594035957473
 30
0.0
 10
79.35708638521764
 20
259.5523470132973
 30
0.0
  0
ARC
  5
3D7
330
1F
100
AcDbEntity
  8
0
  6
Continuous
 62
     7
370
     0
100
AcDbCircle
 10
78.3545447426
 20
259.5595883777
 30
0.0
 40
1.002567794487782
100
AcDbArc
 50
258.3397000492
 51
359.5861594327
  0
SPLINE
  5
3D8
330
1F
100
AcDbEntity
  8
0
  6
Continuous
 62
     7
370
     0
100
AcDbSpline
210
0.0
220
0.0
230
1.0
 70
     8
 71
     3
 72
    12
 73
     8
 74
     0
 42
0.000000001
 43
0.00000001
 40
0.0
 40
0.0
 40
0.0
 40
0.0
 40
0.0721274352523393
 40
0.3023880715448279
 40
0.5351408203061723
 40
0.7675991809908811
 40
1.0
 40
1.0
 40
1.0
 40
1.0
 10
78.1519170222703
 20
258.5777104883816
 30
0.0
 10
78.15066621215693
 20
258.588912910075
 30
0.0
 10
78.14542229828804
 20
258.635878099959
 30
0.0
 10
78.15155761001299
 20
258.8873161100398
 30
0.0
 10
78.18342815428045
 20
259.4595521372963
 30
0.0
 10
78.23433237855906
 20
260.2251045552478
 30
0.0
 10
78.27694893409935
 20
260.8010172756893
 30
0.0
 10
78.29825457426641
 20
261.0889379918005
 30
0.0
  0
LINE
  5
3D9
330
1F
100
AcDbEntity
  8
0
  6
Continuous
 62
     7
370
     0
100
AcDbLine
 10
79.2973029265
 20
261.0889379918
 30
0.0
 11
78.2982545743
 21
261.0889379918
 31
0.0
  0
SPLINE
  5
3DA
330
1F
100
AcDbEntity
  8
0
  6
Continuous
 62
     7
370
     0
100
AcDbSpline
210
0.0
220
0.0
230
1.0
 70
     8
 71
     3
 72
    12
 73
     8
 74
     0
 42
0.000000001
 43
0.00000001
 40
0.0
 40
0.0
 40
0.0
 40
0.0
 40
0.0938009862832863
 40
0.3244106221479756
 40
0.5510014619139469
 40
0.7749239186813326
 40
1.0
 40
1.0
 40
1.0
 40
1.0
 10
78.29825457426641
 20
219.2187053203013
 30
0.0
 10
78.28959120721922
 20
219.3344026532293
 30
0.0
 10
78.25962896049839
 20
219.7345417694928
 30
0.0
 10
78.21284776056544
 20
220.3975687443841
 30
0.0
 10
78.1696765942796
 20
221.0781761132783
 30
0.0
 10
78.14510065817925
 20
221.5706545430205
 30
0.0
 10
78.14964101235346
 20
221.6767491994937
 30
0.0
 10
78.1519170222703
 20
221.7299328237202
 30
0.0
  0
ARC
  5
3DB
330
1F
100
AcDbEntity
  8
0
  6
Continuous
 62
     7
370
     0
100
AcDbCircle
 10
74.2555462593
 20
240.1538216561
 30
0.0
 40
21.32187954674723
100
AcDbArc
 50
259.0703397565
 51
280.9296602435
  0
SPLINE
  5
3DC
330
1F
100
AcDbEntity
  8
0
  6
Continuous
 62
     7
370
     0
100
AcDbSpline
210
0.0
220
0.0
230
1.0
 70
     8
 71
     3
 72
    12
 73
     8
 74
     0
 42
0.000000001
 43
0.00000001
 40
0.0
 40
0.0
 40
0.0
 40
0.0
 40
0.0721274352523393
 40
0.3023880715448279
 40
0.5351408203061723
 40
0.7675991809908811
 40
1.0
 40
1.0
 40
1.0
 40
1.0
 10
70.35917549635205
 20
221.7299328237202
 30
0.0
 10
70.36042630646541
 20
221.7187304020269
 30
0.0
 10
70.36567022033431
 20
221.6717652121428
 30
0.0
 10
70.35953490860939
 20
221.420327202062
 30
0.0
 10
70.32766436434191
 20
220.8480911748055
 30
0.0
 10
70.2767601400633
 20
220.082538756854
 30
0.0
 10
70.23414358452301
 20
219.5066260364126
 30
0.0
 10
70.21283794435594
 20
219.2187053203013
 30
0.0
  0
ARC
  5
3DD
330
1F
100
AcDbEntity
  8
0
  6
Continuous
 62
     7
370
     0
100
AcDbCircle
 10
74.2555462593
 20
240.1538216561
 30
0.0
 40
18.83139280151786
100
AcDbArc
 50
258.0587701028
 51
281.9412298972
  0
SPLINE
  5
3DE
330
1F
100
AcDbEntity
  8
0
  6
Continuous
 62
     7
370
     0
100
AcDbSpline
210
0.0
220
0.0
230
1.0
 70
     8
 71
     3
 72
    12
 73
     8
 74
     0
 42
0.000000001
 43
0.00000001
 40
0.0
 40
0.0
 40
0.0
 40
0.0
 40
0.0938009862832863
 40
0.3244106221479756
 40
0.5510014619139469
 40
0.7749239186813326
 40
1.0
 40
1.0
 40
1.0
 40
1.0
 10
70.21283794435594
 20
261.0889379918005
 30
0.0
 10
70.22150131140314
 20
260.9732406588725
 30
0.0
 10
70.25146355812396
 20
260.573101542609
 30
0.0
 10
70.29824475805694
 20
259.9100745677177
 30
0.0
 10
70.34141592434277
 20
259.2294671988236
 30
0.0
 10
70.3659918604431
 20
258.7369887690813
 30
0.0
 10
70.36145150626889
 20
258.6308941126082
 30
0.0
 10
70.35917549635205
 20
258.5777104883816
 30
0.0
  0
ARC
  5
3DF
330
1F
100
AcDbEntity
  8
0
  6
Continuous
 62
     7
370
     0
100
AcDbCircle
 10
74.2555462593
 20
240.1538216561
 30
0.0
 40
21.32187954674723
100
AcDbArc
 50
79.0703397565
 51
100.9296602435
  0
ARC
  5
3E0
330
1F
100
AcDbEntity
  8
0
  6
Continuous
 62
     7
370
     0
100
AcDbCircle
 10
74.2555462593
 20
240.1538216561
 30
0.0
 40
18.83139280151789
100
AcDbArc
 50
78.0587701028
 51
101.9412298972
  0
LINE
  5
3E1
330
1F
100
AcDbEntity
  8
0
  6
Continuous
 62
     7
370
     0
100
AcDbLine
 10
70.2128379444
 20
219.2187053203
 30
0.0
 11
69.2137895921
 21
219.2187053203
 31
0.0
  0
SPLINE
  5
3E2
330
1F
100
AcDbEntity
  8
0
  6
Continuous
 62
     7
370
     0
100
AcDbSpline
210
0.0
220
0.0
230
1.0
 70
     8
 71
     3
 72
    12
 73
     8
 74
     0
 42
0.000000001
 43
0.00000001
 40
0.0
 40
0.0
 40
0.0
 40
0.0
 40
0.2332140298434629
 40
0.4664258366475568
 40
0.699194799264732
 40
0.9283967583209362
 40
1.0
 40
1.0
 40
1.0
 40
1.0
 10
69.21378959211442
 20
219.2187053203013
 30
0.0
 10
69.21303555153416
 20
219.3941010218032
 30
0.0
 10
69.21152747756126
 20
219.7448907529025
 30
0.0
 10
69.19980936382096
 20
220.2120104273134
 30
0.0
 10
69.18261762988526
 20
220.5628844157459
 30
0.0
 10
69.16606824032316
 20
220.7185950152126
 30
0.0
 10
69.15632532346184
 20
220.7482397163545
 30
0.0
 10
69.1540061334047
 20
220.7552962988045
 30
0.0
  0
ARC
  5
3E3
330
1F
100
AcDbEntity
  8
0
  6
Continuous
 62
     7
370
     0
100
AcDbCircle
 10
70.156547776
 20
220.7480549344
 30
0.0
 40
1.002567794487806
100
AcDbArc
 50
78.3397000492
 51
179.5861594327
  0
ARC
  5
3E4
330
1F
100
AcDbEntity
  8
0
  6
Continuous
 62
     7
370
     0
100
AcDbCircle
 10
78.3545447426
 20
220.7480549344
 30
0.0
 40
1.002567794487809
100
AcDbArc
 50
0.4138405673
 51
101.6602999508
  0
SPLINE
  5
3E5
330
1F
100
AcDbEntity
  8
0
  6
Continuous
 62
     7
370
     0
100
AcDbSpline
210
0.0
220
0.0
230
1.0
 70
     8
 71
     3
 72
    12
 73
     8
 74
     0
 42
0.000000001
 43
0.00000001
 40
0.0
 40
0.0
 40
0.0
 40
0.0
 40
0.223725779339373
 40
0.4473121544991165
 40
0.6744348966655752
 40
0.9059172064708796
 40
1.0
 40
1.0
 40
1.0
 40
1.0
 10
79.35708638521764
 20
220.7552962988045
 30
0.0
 10
79.34985261204059
 20
220.7220523630313
 30
0.0
 10
79.33538957307148
 20
220.6555852058773
 30
0.0
 10
79.31696558599253
 20
220.3528761036369
 30
0.0
 10
79.30356321059787
 20
219.9369297306764
 30
0.0
 10
79.29787200221982
 20
219.5329878451575
 30
0.0
 10
79.29743051021109
 20
219.2891657661104
 30
0.0
 10
79.29730292650792
 20
219.2187053203013
 30
0.0
  0
LINE
  5
3E6
330
1F
100
AcDbEntity
  8
0
  6
Continuous
 62
     7
370
     0
100
AcDbLine
 10
78.2982545743
 20
219.2187053203
 30
0.0
 11
79.2973029265
 21
219.2187053203
 31
0.0
  0
SPLINE
  5
3E7
330
1F
100
AcDbEntity
  8
0
  6
Continuous
 62
     7
370
     0
100
AcDbSpline
210
0.0
220
0.0
230
1.0
 70
     8
 71
     3
 72
    12
 73
     8
 74
     0
 42
0.000000001
 43
0.00000001
 40
0.0
 40
0.0
 40
0.0
 40
0.0
 40
0.223725779339373
 40
0.4473121544991165
 40
0.6744348966655752
 40
0.9059172064708796
 40
1.0
 40
1.0
 40
1.0
 40
1.0
 10
69.1540061334047
 20
259.5523470132973
 30
0.0
 10
69.16123990658176
 20
259.5855909490706
 30
0.0
 10
69.17570294555088
 20
259.6520581062246
 30
0.0
 10
69.19412693262983
 20
259.954767208465
 30
0.0
 10
69.2075293080245
 20
260.3707135814254
 30
0.0
 10
69.21322051640256
 20
260.7746554669444
 30
0.0
 10
69.21366200841128
 20
261.0184775459915
 30
0.0
 10
69.21378959211442
 20
261.0889379918005
 30
0.0
  0
LINE
  5
3E8
330
1F
100
AcDbEntity
  8
0
  6
Continuous
 62
     7
370
     0
100
AcDbLine
 10
69.2137895921
 20
261.0889379918
 30
0.0
 11
70.2128379444
 21
261.0889379918
 31
0.0
  0
ARC
  5
3E9
330
1F
100
AcDbEntity
  8
0
  6
Continuous
 62
     7
370
     0
100
AcDbCircle
 10
70.156547776
 20
259.5595883777
 30
0.0
 40
1.002567794487796
100
AcDbArc
 50
180.4138405673
 51
281.6602999508
  0
LINE
  5
3EA
330
1F
100
AcDbEntity
  8
0
  6
Continuous
 62
     7
370
     0
100
AcDbLine
 10
78.2982545743
 20
216.0006561368
 30
0.0
 11
78.2982545743
 21
219.2187053203
 31
0.0
  0
LINE
  5
3EB
330
1F
100
AcDbEntity
  8
0
  6
Continuous
 62
     7
370
     0
100
AcDbLine
 10
79.2973029265
 20
219.2187053203
 30
0.0
 11
79.2973029265
 21
216.0006561368
 31
0.0
  0
LINE
  5
3EC
330
1F
100
AcDbEntity
  8
0
  6
Continuous
 62
     7
370
     0
100
AcDbLine
 10
78.2982545743
 20
216.0006561368
 30
0.0
 11
79.2973029265
 21
216.0006561368
 31
0.0
  0
ELLIPSE
  5
3ED
330
1F
100
AcDbEntity
  8
0
  6
Continuous
 62
     7
370
     0
100
AcDbEllipse
 10
77.2973018319
 20
264.299295413
 30
0.0
 11
0.4807728331067125
 21
1.941626003040426
 31
0.0
210
0.0
220
0.0
230
1.0
 40
0.9998682694
 41
4.958934714199566
 42
6.522156541439053
  0
LINE
  5
3EE
330
1F
100
AcDbEntity
  8
0
  6
Continuous
 62
     7
370
     0
100
AcDbLine
 10
79.2973029265
 20
264.3069871753
 30
0.0
 11
78.2982545743
 21
264.3069871753
 31
0.0
  0
ELLIPSE
  5
3EF
330
1F
100
AcDbEntity
  8
0
  6
Continuous
 62
     7
370
     0
100
AcDbEllipse
 10
77.2973018319
 20
264.299295413
 30
0.0
 11
-0.2442881166481214
 21
-0.9865702195617131
 31
0.0
210
0.0
220
0.0
230
1.0
 40
0.9838986587
 41
1.817342060609917
 42
3.380563887849457
  0
LINE
  5
3F0
330
1F
100
AcDbEntity
  8
0
  6
Continuous
 62
     7
370
     0
100
AcDbLine
 10
77.3048835644
 20
266.2995294719
 30
0.0
 11
77.3048835644
 21
265.3147229045
 31
0.0
  0
ELLIPSE
  5
3F1
330
1F
100
AcDbEntity
  8
0
  6
Continuous
 62
     7
370
     0
100
AcDbEllipse
 10
77.2973018319
 20
216.0083478991
 30
0.0
 11
-0.2442881166481214
 21
0.9865702195616564
 31
0.0
210
0.0
220
0.0
230
1.0
 40
0.9838986587
 41
2.902621419330127
 42
4.465843246569603
  0
ELLIPSE
  5
3F2
330
1F
100
AcDbEntity
  8
0
  6
Continuous
 62
     7
370
     0
100
AcDbEllipse
 10
77.2973018319
 20
216.0083478991
 30
0.0
 11
-0.4807728331071388
 21
1.941626003040313
 31
0.0
210
0.0
220
0.0
230
1.0
 40
0.9998682694
 41
2.9026214193301
 42
4.465843246569591
  0
LINE
  5
3F3
330
1F
100
AcDbEntity
  8
0
  6
Continuous
 62
     7
370
     0
100
AcDbLine
 10
77.3048835644
 20
214.9929204076
 30
0.0
 11
77.3048835644
 21
214.0081138402
 31
0.0
  0
LINE
  5
3F4
330
1F
100
AcDbEntity
  8
0
  6
Continuous
 62
     7
370
     0
100
AcDbLine
 10
79.2973029265
 20
264.3069871753
 30
0.0
 11
79.2973029265
 21
261.0889379918
 31
0.0
  0
LINE
  5
3F5
330
1F
100
AcDbEntity
  8
0
  6
Continuous
 62
     7
370
     0
100
AcDbLine
 10
78.2982545743
 20
261.0889379918
 30
0.0
 11
78.2982545743
 21
264.3069871753
 31
0.0
  0
LINE
  5
3F6
330
1F
100
AcDbEntity
  8
0
  6
Continuous
 62
     7
370
     0
100
AcDbLine
 10
71.2062089542
 20
214.9929204076
 30
0.0
 11
77.3048835644
 21
214.9929204076
 31
0.0
  0
ELLIPSE
  5
3F7
330
1F
100
AcDbEntity
  8
0
  6
Continuous
 62
     7
370
     0
100
AcDbEllipse
 10
71.2137906867
 20
216.0083478991
 30
0.0
 11
0.2442881166481214
 21
0.9865702195616564
 31
0.0
210
0.0
220
0.0
230
1.0
 40
0.9838986587
 41
1.817342060609997
 42
3.380563887849459
  0
LINE
  5
3F8
330
1F
100
AcDbEntity
  8
0
  6
Continuous
 62
     7
370
     0
100
AcDbLine
 10
70.2128379444
 20
219.2187053203
 30
0.0
 11
70.2128379444
 21
216.0006561368
 31
0.0
  0
LINE
  5
3F9
330
1F
100
AcDbEntity
  8
0
  6
Continuous
 62
     7
370
     0
100
AcDbLine
 10
70.2128379444
 20
264.3069871753
 30
0.0
 11
70.2128379444
 21
261.0889379918
 31
0.0
  0
ELLIPSE
  5
3FA
330
1F
100
AcDbEntity
  8
0
  6
Continuous
 62
     7
370
     0
100
AcDbEllipse
 10
71.2137906867
 20
264.299295413
 30
0.0
 11
0.2442881166481214
 21
-0.9865702195617131
 31
0.0
210
0.0
220
0.0
230
1.0
 40
0.9838986587
 41
2.902621419330138
 42
4.46584324656969
  0
LINE
  5
3FB
330
1F
100
AcDbEntity
  8
0
  6
Continuous
 62
     7
370
     0
100
AcDbLine
 10
77.3048835644
 20
265.3147229045
 30
0.0
 11
71.2062089542
 21
265.3147229045
 31
0.0
  0
LINE
  5
3FC
330
1F
100
AcDbEntity
  8
0
  6
Continuous
 62
     7
370
     0
100
AcDbLine
 10
77.3048835644
 20
214.0081138402
 30
0.0
 11
71.2062089542
 21
214.0081138402
 31
0.0
  0
LINE
  5
3FD
330
1F
100
AcDbEntity
  8
0
  6
Continuous
 62
     7
370
     0
100
AcDbLine
 10
71.2062089542
 20
214.9929204076
 30
0.0
 11
71.2062089542
 21
214.0081138402
 31
0.0
  0
LINE
  5
3FE
330
1F
100
AcDbEntity
  8
0
  6
Continuous
 62
     7
370
     0
100
AcDbLine
 10
71.2062089542
 20
266.2995294719
 30
0.0
 11
77.3048835644
 21
266.2995294719
 31
0.0
  0
LINE
  5
3FF
330
1F
100
AcDbEntity
  8
0
  6
Continuous
 62
     7
370
     0
100
AcDbLine
 10
71.2062089542
 20
266.2995294719
 30
0.0
 11
71.2062089542
 21
265.3147229045
 31
0.0
  0
ELLIPSE
  5
400
330
1F
100
AcDbEntity
  8
0
  6
Continuous
 62
     7
370
     0
100
AcDbEllipse
 10
71.2137906867
 20
216.0083478991
 30
0.0
 11
0.4807728331071247
 21
1.941626003040313
 31
0.0
210
0.0
220
0.0
230
1.0
 40
0.9998682694
 41
1.817342060610002
 42
3.380563887849487
  0
LINE
  5
401
330
1F
100
AcDbEntity
  8
0
  6
Continuous
 62
     7
370
     0
100
AcDbLine
 10
70.2128379444
 20
216.0006561368
 30
0.0
 11
69.2137895921
 21
216.0006561368
 31
0.0
  0
ELLIPSE
  5
402
330
1F
100
AcDbEntity
  8
0
  6
Continuous
 62
     7
370
     0
100
AcDbEllipse
 10
71.2137906867
 20
264.299295413
 30
0.0
 11
-0.4807728331067125
 21
1.941626003040426
 31
0.0
210
0.0
220
0.0
230
1.0
 40
0.9998682694
 41
6.044214072920134
 42
7.607435900159619
  0
LINE
  5
403
330
1F
100
AcDbEntity
  8
0
  6
Continuous
 62
     7
370
     0
100
AcDbLine
 10
69.2137895921
 20
264.3069871753
 30
0.0
 11
70.2128379444
 21
264.3069871753
 31
0.0
  0
LINE
  5
404
330
1F
100
AcDbEntity
  8
0
  6
Continuous
 62
     7
370
     0
100
AcDbLine
 10
69.2137895921
 20
261.0889379918
 30
0.0
 11
69.2137895921
 21
264.3069871753
 31
0.0
  0
LINE
  5
405
330
1F
100
AcDbEntity
  8
0
  6
Continuous
 62
     7
370
     0
100
AcDbLine
 10
69.2137895921
 20
216.0006561368
 30
0.0
 11
69.2137895921
 21
219.2187053203
 31
0.0
  0
LINE
  5
406
330
1F
100
AcDbEntity
  8
0
  6
Continuous
 62
     7
370
     0
100
AcDbLine
 10
77.3110072432
 20
213.9833835005
 30
0.0
 11
77.3048835644
 21
214.0081138402
 31
0.0
  0
LINE
  5
407
330
1F
100
AcDbEntity
  8
0
  6
Continuous
 62
     7
370
     0
100
AcDbLine
 10
79.2973029265
 20
216.0006561368
 30
0.0
 11
79.3067456061
 21
215.96252034
 31
0.0
  0
LINE
  5
408
330
1F
100
AcDbEntity
  8
0
  6
Continuous
 62
     7
370
     0
100
AcDbLine
 10
79.3067456061
 20
264.3451229721
 30
0.0
 11
79.2973029265
 21
264.3069871753
 31
0.0
  0
LINE
  5
409
330
1F
100
AcDbEntity
  8
0
  6
Continuous
 62
     7
370
     0
100
AcDbLine
 10
77.3048835644
 20
266.2995294719
 30
0.0
 11
77.3110072432
 21
266.3242598116
 31
0.0
  0
LINE
  5
40A
330
1F
100
AcDbEntity
  8
0
  6
Continuous
 62
     7
370
     0
100
AcDbLine
 10
71.2000852754
 20
266.3242598116
 30
0.0
 11
71.2062089542
 21
266.2995294719
 31
0.0
  0
LINE
  5
40B
330
1F
100
AcDbEntity
  8
0
  6
Continuous
 62
     7
370
     0
100
AcDbLine
 10
69.2137895921
 20
264.3069871753
 30
0.0
 11
69.2043469125
 21
264.3451229721
 31
0.0
  0
LINE
  5
40C
330
1F
100
AcDbEntity
  8
0
  6
Continuous
 62
     7
370
     0
100
AcDbLine
 10
69.2043469125
 20
215.96252034
 30
0.0
 11
69.2137895921
 21
216.0006561368
 31
0.0
  0
LINE
  5
40D
330
1F
100
AcDbEntity
  8
0
  6
Continuous
 62
     7
370
     0
100
AcDbLine
 10
71.2062089542
 20
214.0081138402
 30
0.0
 11
71.2000852754
 21
213.9833835005
 31
0.0
  0
LINE
  5
40E
330
1F
100
AcDbEntity
  8
0
  6
Continuous
 62
     7
370
     0
100
AcDbLine
 10
71.2000852754
 20
213.9833835005
 30
0.0
 11
77.3110072432
 21
213.9833835005
 31
0.0
  0
LINE
  5
40F
330
1F
100
AcDbEntity
  8
0
  6
Continuous
 62
     7
370
     0
100
AcDbLine
 10
77.3110072432
 20
266.3242598116
 30
0.0
 11
71.2000852754
 21
266.3242598116
 31
0.0
  0
LINE
  5
410
330
1F
100
AcDbEntity
  8
0
  6
Continuous
 62
     7
370
     0
100
AcDbLine
 10
79.3144071313
 20
262.3393838345
 30
0.0
 11
79.3067456061
 21
264.3451229721
 31
0.0
  0
SPLINE
  5
411
330
1F
100
AcDbEntity
  8
0
  6
Continuous
 62
     7
370
     0
100
AcDbSpline
210
0.0
220
0.0
230
1.0
 70
     8
 71
     3
 72
    12
 73
     8
 74
     0
 42
0.000000001
 43
0.00000001
 40
0.0
 40
0.0
 40
0.0
 40
0.0
 40
0.0718517900637681
 40
0.3008269148254897
 40
0.5335745579262531
 40
0.7667865678837003
 40
1.0
 40
1.0
 40
1.0
 40
1.0
 10
79.39086638632152
 20
260.6906839697983
 30
0.0
 10
79.38812489043751
 20
260.6934028546207
 30
0.0
 10
79.37664687787768
 20
260.7047861998672
 30
0.0
 10
79.3566786289078
 20
260.8472243940506
 30
0.0
 10
79.33510452237171
 20
261.2154309418277
 30
0.0
 10
79.31938271638577
 20
261.7319641173116
 30
0.0
 10
79.31606566300124
 20
262.136910183898
 30
0.0
 10
79.31440713125203
 20
262.3393838345435
 30
0.0
  0
ARC
  5
412
330
1F
100
AcDbEntity
  8
0
  6
Continuous
 62
     7
370
     0
100
AcDbCircle
 10
75.0048324255
 20
240.1538216561
 30
0.0
 40
21.0
100
AcDbArc
 50
77.198136066
 51
77.9445190756
  0
LINE
  5
413
330
1F
100
AcDbEntity
  8
0
  6
Continuous
 62
     7
370
     0
100
AcDbLine
 10
79.6580171982
 20
258.8672977924
 30
0.0
 11
79.6580171982
 21
260.6318076193
 31
0.0
  0
LINE
  5
414
330
1F
100
AcDbEntity
  8
0
  6
Continuous
 62
     7
370
     0
100
AcDbLine
 10
79.3570863852
 20
259.5523470133
 30
0.0
 11
79.6580171982
 21
258.8672977924
 31
0.0
  0
LINE
  5
415
330
1F
100
AcDbEntity
  8
0
  6
Continuous
 62
     7
370
     0
100
AcDbLine
 10
69.1966853874
 20
217.9682594776
 30
0.0
 11
69.2043469125
 21
215.96252034
 31
0.0
  0
SPLINE
  5
416
330
1F
100
AcDbEntity
  8
0
  6
Continuous
 62
     7
370
     0
100
AcDbSpline
210
0.0
220
0.0
230
1.0
 70
     8
 71
     3
 72
    12
 73
     8
 74
     0
 42
0.000000001
 43
0.00000001
 40
0.0
 40
0.0
 40
0.0
 40
0.0
 40
0.0718517900637681
 40
0.3008269148254897
 40
0.5335745579262531
 40
0.7667865678837003
 40
1.0
 40
1.0
 40
1.0
 40
1.0
 10
69.12022613230083
 20
219.6169593423035
 30
0.0
 10
69.12296762818485
 20
219.6142404574812
 30
0.0
 10
69.13444564074469
 20
219.6028571122347
 30
0.0
 10
69.15441388971456
 20
219.4604189180513
 30
0.0
 10
69.17598799625064
 20
219.0922123702741
 30
0.0
 10
69.19170980223657
 20
218.5756791947902
 30
0.0
 10
69.19502685562112
 20
218.1707331282039
 30
0.0
 10
69.19668538737032
 20
217.9682594775584
 30
0.0
  0
ARC
  5
417
330
1F
100
AcDbEntity
  8
0
  6
Continuous
 62
     7
370
     0
100
AcDbCircle
 10
73.5062600931
 20
240.1538216561
 30
0.0
 40
21.0
100
AcDbArc
 50
257.0228278703
 51
257.9445190756
  0
LINE
  5
418
330
1F
100
AcDbEntity
  8
0
  6
Continuous
 62
     7
370
     0
100
AcDbLine
 10
68.7904406177
 20
221.5842572092
 30
0.0
 11
68.7904406177
 21
219.6901706099
 31
0.0
  0
LINE
  5
419
330
1F
100
AcDbEntity
  8
0
  6
Continuous
 62
     7
370
     0
100
AcDbLine
 10
69.1540061334
 20
220.7552962988
 30
0.0
 11
68.7904406177
 21
221.5842572092
 31
0.0
  0
LINE
  5
41A
330
1F
100
AcDbEntity
  8
0
  6
Continuous
 62
     7
370
     0
100
AcDbLine
 10
79.6580171982
 20
221.4403455197
 30
0.0
 11
79.3570863852
 21
220.7552962988
 31
0.0
  0
LINE
  5
41B
330
1F
100
AcDbEntity
  8
0
  6
Continuous
 62
     7
370
     0
100
AcDbLine
 10
79.6580171982
 20
219.6758356928
 30
0.0
 11
79.6580171982
 21
221.4403455197
 31
0.0
  0
ARC
  5
41C
330
1F
100
AcDbEntity
  8
0
  6
Continuous
 62
     7
370
     0
100
AcDbCircle
 10
75.0048324255
 20
240.1538216561
 30
0.0
 40
21.0
100
AcDbArc
 50
282.0554809244
 51
282.801863934
  0
SPLINE
  5
41D
330
1F
100
AcDbEntity
  8
0
  6
Continuous
 62
     7
370
     0
100
AcDbSpline
210
0.0
220
0.0
230
1.0
 70
     8
 71
     3
 72
    12
 73
     8
 74
     0
 42
0.000000001
 43
0.00000001
 40
0.0
 40
0.0
 40
0.0
 40
0.0
 40
0.0956923498610758
 40
0.3270617005548533
 40
0.5538127070894006
 40
0.7768329787020855
 40
1.0
 40
1.0
 40
1.0
 40
1.0
 10
79.31440713125203
 20
217.9682594775584
 30
0.0
 10
79.3148796812418
 20
218.0514047725365
 30
0.0
 10
79.3164947842618
 20
218.3355825736687
 30
0.0
 10
79.32498302768835
 20
218.7931309089847
 30
0.0
 10
79.3424488551706
 20
219.2446716166632
 30
0.0
 10
79.36521803754492
 20
219.5526154758531
 30
0.0
 10
79.3823150623423
 20
219.595506684556
 30
0.0
 10
79.39086638632152
 20
219.6169593423035
 30
0.0
  0
LINE
  5
41E
330
1F
100
AcDbEntity
  8
0
  6
Continuous
 62
     7
370
     0
100
AcDbLine
 10
79.3067456061
 20
215.96252034
 30
0.0
 11
79.3144071313
 21
217.9682594776
 31
0.0
  0
LINE
  5
41F
330
1F
100
AcDbEntity
  8
0
  6
Continuous
 62
     7
370
     0
100
AcDbLine
 10
68.7904406177
 20
258.7233861029
 30
0.0
 11
69.1540061334
 21
259.5523470133
 31
0.0
  0
LINE
  5
420
330
1F
100
AcDbEntity
  8
0
  6
Continuous
 62
     7
370
     0
100
AcDbLine
 10
68.7904406177
 20
260.6174727022
 30
0.0
 11
68.7904406177
 21
258.7233861029
 31
0.0
  0
ARC
  5
421
330
1F
100
AcDbEntity
  8
0
  6
Continuous
 62
     7
370
     0
100
AcDbCircle
 10
73.5062600931
 20
240.1538216561
 30
0.0
 40
21.00000000000001
100
AcDbArc
 50
102.0554809244
 51
102.9771721297
  0
SPLINE
  5
422
330
1F
100
AcDbEntity
  8
0
  6
Continuous
 62
     7
370
     0
100
AcDbSpline
210
0.0
220
0.0
230
1.0
 70
     8
 71
     3
 72
    12
 73
     8
 74
     0
 42
0.000000001
 43
0.00000001
 40
0.0
 40
0.0
 40
0.0
 40
0.0
 40
0.0956923498610758
 40
0.3270617005548533
 40
0.5538127070894006
 40
0.7768329787020855
 40
1.0
 40
1.0
 40
1.0
 40
1.0
 10
69.19668538737032
 20
262.3393838345435
 30
0.0
 10
69.19621283738056
 20
262.2562385395653
 30
0.0
 10
69.19459773436056
 20
261.9720607384331
 30
0.0
 10
69.186109490934
 20
261.5145124031172
 30
0.0
 10
69.16864366345176
 20
261.0629716954386
 30
0.0
 10
69.14587448107744
 20
260.7550278362487
 30
0.0
 10
69.12877745628005
 20
260.7121366275458
 30
0.0
 10
69.12022613230083
 20
260.6906839697983
 30
0.0
  0
LINE
  5
423
330
1F
100
AcDbEntity
  8
0
  6
Continuous
 62
     7
370
     0
100
AcDbLine
 10
69.2043469125
 20
264.3451229721
 30
0.0
 11
69.1966853874
 21
262.3393838345
 31
0.0
  0
LINE
  5
424
330
1F
100
AcDbEntity
  8
0
  6
Continuous
 62
     7
370
     0
100
AcDbLine
 10
77.3110072432
 20
213.9833835005
 30
0.0
 11
77.3110072432
 21
213.9719878375
 31
0.0
  0
LINE
  5
425
330
1F
100
AcDbEntity
  8
0
  6
Continuous
 62
     7
370
     0
100
AcDbLine
 10
77.3110072432
 20
266.3356554746
 30
0.0
 11
77.3110072432
 21
266.3242598116
 31
0.0
  0
LINE
  5
426
330
1F
100
AcDbEntity
  8
0
  6
Continuous
 62
     7
370
     0
100
AcDbLine
 10
71.2000852754
 20
266.3356554746
 30
0.0
 11
71.2000852754
 21
266.3242598116
 31
0.0
  0
LINE
  5
427
330
1F
100
AcDbEntity
  8
0
  6
Continuous
 62
     7
370
     0
100
AcDbLine
 10
71.2000852754
 20
213.9833835005
 30
0.0
 11
71.2000852754
 21
213.9719878375
 31
0.0
  0
LINE
  5
428
330
1F
100
AcDbEntity
  8
0
  6
Continuous
 62
     7
370
     0
100
AcDbLine
 10
79.3151158677
 20
262.3422485828
 30
0.0
 11
79.3144071313
 21
262.3393838345
 31
0.0
  0
LINE
  5
429
330
1F
100
AcDbEntity
  8
0
  6
Continuous
 62
     7
370
     0
100
AcDbLine
 10
79.3151158677
 20
217.9653947293
 30
0.0
 11
79.3144071313
 21
217.9682594776
 31
0.0
  0
LINE
  5
42A
330
1F
100
AcDbEntity
  8
0
  6
Continuous
 62
     7
370
     0
100
AcDbLine
 10
69.1966853874
 20
217.9682594776
 30
0.0
 11
69.1959766509
 21
217.9653947293
 31
0.0
  0
LINE
  5
42B
330
1F
100
AcDbEntity
  8
0
  6
Continuous
 62
     7
370
     0
100
AcDbLine
 10
69.1966853874
 20
262.3393838345
 30
0.0
 11
69.1959766509
 21
262.3422485828
 31
0.0
  0
LWPOLYLINE
  5
42C
330
1F
100
AcDbEntity
  8
0
  6
Continuous
 62
     7
370
     0
100
AcDbPolyline
 90
        3
 70
   128
 43
0.0
 10
79.3664294133
 20
260.8809494465
 10
79.3801072823
 20
260.8176195114
 10
79.3908663863
 20
260.6906839698
  0
LWPOLYLINE
  5
42D
330
1F
100
AcDbEntity
  8
0
  6
Continuous
 62
     7
370
     0
100
AcDbPolyline
 90
        3
 70
   128
 43
0.0
 10
69.1202261323
 20
219.6169593423
 10
69.1309852363
 20
219.4900238007
 10
69.1445285292
 20
219.4272079557
  0
LWPOLYLINE
  5
42E
330
1F
100
AcDbEntity
  8
0
  6
Continuous
 62
     7
370
     0
100
AcDbPolyline
 90
        3
 70
   128
 43
0.0
 10
79.3662501337
 20
219.4260102748
 10
79.3801072823
 20
219.4900238007
 10
79.3908663863
 20
219.6169593423
  0
LWPOLYLINE
  5
42F
330
1F
100
AcDbEntity
  8
0
  6
Continuous
 62
     7
370
     0
100
AcDbPolyline
 90
        3
 70
   128
 43
0.0
 10
69.1202261323
 20
260.6906839698
 10
69.1309852363
 20
260.8176195114
 10
69.1447068775
 20
260.8811170846
  0
ARC
  5
430
330
1F
100
AcDbEntity
  8
0
  6
Continuous
 62
     7
370
     0
100
AcDbCircle
 10
78.6554207927
 20
258.8747241641
 30
0.0
 40
1.002623909155343
100
AcDbArc
 50
257.0533223117
 51
359.5756099134
  0
SPLINE
  5
431
330
1F
100
AcDbEntity
  8
0
  6
Continuous
 62
     7
370
     0
100
AcDbSpline
210
0.0
220
0.0
230
1.0
 70
     8
 71
     3
 72
     9
 73
     5
 74
     0
 42
0.000000001
 43
0.00000001
 40
0.0
 40
0.0
 40
0.0
 40
0.0
 40
0.2885363034582299
 40
1.0
 40
1.0
 40
1.0
 40
1.0
 10
78.4307887615535
 20
257.8975879638817
 30
0.0
 10
78.40402518228521
 20
257.9633899589104
 30
0.0
 10
78.31126881524395
 20
258.1914444333041
 30
0.0
 10
78.21816032962685
 20
258.4171378300487
 30
0.0
 10
78.1519170222703
 20
258.5777104883816
 30
0.0
  0
SPLINE
  5
432
330
1F
100
AcDbEntity
  8
0
  6
Continuous
 62
     7
370
     0
100
AcDbSpline
210
0.0
220
0.0
230
1.0
 70
     8
 71
     3
 72
     9
 73
     5
 74
     0
 42
0.000000001
 43
0.00000001
 40
0.0
 40
0.0
 40
0.0
 40
0.0
 40
0.2885363170493626
 40
0.9999999999999999
 40
0.9999999999999999
 40
0.9999999999999999
 40
0.9999999999999999
 10
78.1519170222703
 20
221.7299328237202
 30
0.0
 10
78.17879569905371
 20
221.7949633923479
 30
0.0
 10
78.27195096303672
 20
222.0203442708894
 30
0.0
 10
78.36475912490371
 20
222.2480505793626
 30
0.0
 10
78.4307887615535
 20
222.4100553482201
 30
0.0
  0
ARC
  5
433
330
1F
100
AcDbEntity
  8
0
  6
Continuous
 62
     7
370
     0
100
AcDbCircle
 10
78.6554207927
 20
221.432919148
 30
0.0
 40
1.002623909155343
100
AcDbArc
 50
0.4243900866
 51
102.9466776883
  0
SPLINE
  5
434
330
1F
100
AcDbEntity
  8
0
  6
Continuous
 62
     7
370
     0
100
AcDbSpline
210
0.0
220
0.0
230
1.0
 70
     8
 71
     3
 72
     9
 73
     5
 74
     0
 42
0.000000001
 43
0.00000001
 40
0.0
 40
0.0
 40
0.0
 40
0.0
 40
0.2388243319837107
 40
1.0
 40
1.0
 40
1.0
 40
1.0
 10
70.02243556323383
 20
222.5528326868441
 30
0.0
 10
70.04916983990597
 20
222.4868329113525
 30
0.0
 10
70.16111101629318
 20
222.2104801002991
 30
0.0
 10
70.2735725291654
 20
221.9376241408932
 30
0.0
 10
70.35917549635205
 20
221.7299328237202
 30
0.0
  0
ARC
  5
435
330
1F
100
AcDbEntity
  8
0
  6
Continuous
 62
     7
370
     0
100
AcDbCircle
 10
69.79304779
 20
221.576790607
 30
0.0
 40
1.002634974529196
100
AcDbArc
 50
76.7744538992
 51
179.5733155521
  0
SPLINE
  5
436
330
1F
100
AcDbEntity
  8
0
  6
Continuous
 62
     7
370
     0
100
AcDbSpline
210
0.0
220
0.0
230
1.0
 70
     8
 71
     3
 72
     9
 73
     5
 74
     0
 42
0.000000001
 43
0.00000001
 40
0.0
 40
0.0
 40
0.0
 40
0.0
 40
0.2388243520635549
 40
1.0
 40
1.0
 40
1.0
 40
1.0
 10
70.35917549635205
 20
258.5777104883816
 30
0.0
 10
70.33229675500907
 20
258.512680398194
 30
0.0
 10
70.21975068878616
 20
258.240387855052
 30
0.0
 10
70.10771466002122
 20
257.9646758723413
 30
0.0
 10
70.02243556323383
 20
257.7548106252577
 30
0.0
  0
ARC
  5
437
330
1F
100
AcDbEntity
  8
0
  6
Continuous
 62
     7
370
     0
100
AcDbCircle
 10
69.79304779
 20
258.7308527051
 30
0.0
 40
1.002634974529172
100
AcDbArc
 50
180.4266844479
 51
283.2255461008
  0
SPLINE
  5
438
330
1F
100
AcDbEntity
  8
0
  6
Continuous
 62
     7
370
     0
100
AcDbSpline
210
0.0
220
0.0
230
1.0
 70
     8
 71
     3
 72
     9
 73
     5
 74
     0
 42
0.000000001
 43
0.00000001
 40
0.0
 40
0.0
 40
0.0
 40
0.0
 40
0.4017803915287257
 40
1.0
 40
1.0
 40
1.0
 40
1.0
 10
67.0403173962507
 20
256.3648917763855
 30
0.0
 10
67.03761454860756
 20
256.3278691419447
 30
0.0
 10
67.03088737202023
 20
256.2357226977143
 30
0.0
 10
67.02398989554403
 20
256.1432315560733
 30
0.0
 10
67.019863689867
 20
256.0879015415337
 30
0.0
  0
SPLINE
  5
439
330
1F
100
AcDbEntity
  8
0
  6
Continuous
 62
     7
370
     0
100
AcDbSpline
210
0.0
220
0.0
230
1.0
 70
     8
 71
     3
 72
    14
 73
    10
 74
     0
 42
0.000000001
 43
0.00000001
 40
0.0
 40
0.0
 40
0.0
 40
0.0
 40
0.1486962646217627
 40
0.2885101547992612
 40
0.4283127299121943
 40
0.5726748079401536
 40
0.7170271238433652
 40
0.8585002821287715
 40
1.0
 40
1.0
 40
1.0
 40
1.0
 10
70.02243556323383
 20
257.7548106252577
 30
0.0
 10
69.99756170309128
 20
257.7241080607735
 30
0.0
 10
69.94929982335653
 20
257.6645369501297
 30
0.0
 10
69.70907337041022
 20
257.5361869540556
 30
0.0
 10
69.36493395171222
 20
257.3799067041746
 30
0.0
 10
68.90213416539676
 20
257.185569222749
 30
0.0
 10
68.34444963738498
 20
256.9516941441339
 30
0.0
 10
67.71736018867503
 20
256.6807936040135
 30
0.0
 10
67.2660124480931
 20
256.4701989743373
 30
0.0
 10
67.0403173962507
 20
256.3648917763855
 30
0.0
  0
SPLINE
  5
43A
330
1F
100
AcDbEntity
  8
0
  6
Continuous
 62
     7
370
     0
100
AcDbSpline
210
0.0
220
0.0
230
1.0
 70
     8
 71
     3
 72
    17
 73
    13
 74
     0
 42
0.000000001
 43
0.00000001
 40
0.0
 40
0.0
 40
0.0
 40
0.0
 40
0.0800710665957756
 40
0.160124439145615
 40
0.2660096665992055
 40
0.3718573001972617
 40
0.4757184409245922
 40
0.5795781048763937
 40
0.6839925265246906
 40
0.7884191234567095
 40
0.8942080962398358
 40
1.0
 40
1.0
 40
1.0
 40
1.0
 10
84.10001330318782
 20
254.895254509094
 30
0.0
 10
83.88766676424689
 20
255.0339563730261
 30
0.0
 10
83.46302061054843
 20
255.3113294506534
 30
0.0
 10
82.74606142981209
 20
255.7376201090296
 30
0.0
 10
81.96505795216889
 20
256.1649052732073
 30
0.0
 10
81.15246224718256
 20
256.5710740377407
 30
0.0
 10
80.40845114198663
 20
256.9149466978305
 30
0.0
 10
79.75423109566799
 20
257.2029114752406
 30
0.0
 10
79.21232182178575
 20
257.4395577538816
 30
0.0
 10
78.7979480148246
 20
257.6320870215462
 30
0.0
 10
78.51772581086173
 20
257.7878142725755
 30
0.0
 10
78.4597680456144
 20
257.8609963955217
 30
0.0
 10
78.4307887615535
 20
257.8975879638817
 30
0.0
  0
ARC
  5
43B
330
1F
100
AcDbEntity
  8
0
  6
Continuous
 62
     7
370
     0
100
AcDbCircle
 10
74.2555462593
 20
240.1538216561
 30
0.0
 40
17.72634679826641
100
AcDbArc
 50
303.7353717304
 51
56.2646282696
  0
SPLINE
  5
43C
330
1F
100
AcDbEntity
  8
0
  6
Continuous
 62
     7
370
     0
100
AcDbSpline
210
0.0
220
0.0
230
1.0
 70
     8
 71
     3
 72
    16
 73
    12
 74
     0
 42
0.000000001
 43
0.00000001
 40
0.0
 40
0.0
 40
0.0
 40
0.0
 40
0.0621397286242253
 40
0.1701158889121551
 40
0.2780839211570945
 40
0.3913261014166574
 40
0.5045538087935102
 40
0.6294886182494608
 40
0.7544606958188981
 40
0.8771835838505636
 40
0.9999999999999999
 40
0.9999999999999999
 40
0.9999999999999999
 40
0.9999999999999999
 10
78.4307887615535
 20
222.4100553482201
 30
0.0
 10
78.44408583077492
 20
222.4307471260433
 30
0.0
 10
78.48048835136214
 20
222.4873936588733
 30
0.0
 10
78.67366328796881
 20
222.6106976542737
 30
0.0
 10
79.04891667567217
 20
222.7954676482223
 30
0.0
 10
79.58905538935963
 20
223.0329248616931
 30
0.0
 10
80.29543291806787
 20
223.3413807896778
 30
0.0
 10
81.15389589835289
 20
223.7358311957494
 30
0.0
 10
82.11868756400109
 20
224.2209763957919
 30
0.0
 10
83.1190574741365
 20
224.7798378463354
 30
0.0
 10
83.77294500296739
 20
225.2014849477326
 30
0.0
 10
84.10001330318784
 20
225.4123888030078
 30
0.0
  0
SPLINE
  5
43D
330
1F
100
AcDbEntity
  8
0
  6
Continuous
 62
     7
370
     0
100
AcDbSpline
210
0.0
220
0.0
230
1.0
 70
     8
 71
     3
 72
    14
 73
    10
 74
     0
 42
0.000000001
 43
0.00000001
 40
0.0
 40
0.0
 40
0.0
 40
0.0
 40
0.1963506139203413
 40
0.3296110638257713
 40
0.4628713398446314
 40
0.5962600757733718
 40
0.7296606458143067
 40
0.8648295065152477
 40
0.9999999999999999
 40
0.9999999999999999
 40
0.9999999999999999
 40
0.9999999999999999
 10
67.0403173962507
 20
223.9427515357163
 30
0.0
 10
67.3529899676337
 20
223.7978983310913
 30
0.0
 10
67.87786909495081
 20
223.5547352570283
 30
0.0
 10
68.52943830197792
 20
223.2782115791015
 30
0.0
 10
69.025761669802
 20
223.0705733776548
 30
0.0
 10
69.43455366945894
 20
222.8970136385583
 30
0.0
 10
69.74632872473948
 20
222.7532796185019
 30
0.0
 10
69.95710372103571
 20
222.6357884229058
 30
0.0
 10
70.00065819481499
 20
222.580484710205
 30
0.0
 10
70.02243556323383
 20
222.5528326868441
 30
0.0
  0
SPLINE
  5
43E
330
1F
100
AcDbEntity
  8
0
  6
Continuous
 62
     7
370
     0
100
AcDbSpline
210
0.0
220
0.0
230
1.0
 70
     8
 71
     3
 72
     9
 73
     5
 74
     0
 42
0.000000001
 43
0.00000001
 40
0.0
 40
0.0
 40
0.0
 40
0.0
 40
0.5982194845976911
 40
1.0
 40
1.0
 40
1.0
 40
1.0
 10
67.019863689867
 20
224.2197417705681
 30
0.0
 10
67.0239898961623
 20
224.1644117475352
 30
0.0
 10
67.03088737510028
 20
224.0719205725441
 30
0.0
 10
67.0376145488959
 20
223.9797741663068
 30
0.0
 10
67.0403173962507
 20
223.9427515357163
 30
0.0
  0
ARC
  5
43F
330
1F
100
AcDbEntity
  8
0
  6
Continuous
 62
     7
370
     0
100
AcDbCircle
 10
78.9082413258
 20
219.6753510048
 30
0.0
 40
0.7497760290646813
100
AcDbArc
 50
305.0421390905
 51
0.0370385023
  0
ARC
  5
440
330
1F
100
AcDbEntity
  8
0
  6
Continuous
 62
     7
370
     0
100
AcDbCircle
 10
78.9082438295
 20
260.6322932112
 30
0.0
 40
0.7497735259563977
100
AcDbArc
 50
359.9628923043
 51
54.9716502025
  0
ARC
  5
441
330
1F
100
AcDbEntity
  8
0
  6
Continuous
 62
     7
370
     0
100
AcDbCircle
 10
69.5400429607
 20
219.6896026154
 30
0.0
 40
0.7496025582054455
100
AcDbArc
 50
179.9565854078
 51
240.1109400007
  0
ARC
  5
442
330
1F
100
AcDbEntity
  8
0
  6
Continuous
 62
     7
370
     0
100
AcDbCircle
 10
69.5400374723
 20
260.6180435271
 30
0.0
 40
0.7495970719769665
100
AcDbArc
 50
119.9067590972
 51
180.0436312579
  0
LWPOLYLINE
  5
443
330
1F
100
AcDbEntity
  8
0
  6
Continuous
 62
     7
370
     0
100
AcDbPolyline
 90
        9
 70
   128
 43
0.0
 10
84.1000133032
 20
225.412388803
 10
84.1184236878
 20
225.3848216548
 10
84.1551727453
 20
225.3297916665
 10
84.2090013275
 20
225.249186629
 10
84.278063553
 20
225.1457707077
 10
84.3599910686
 20
225.0230894476
 10
84.4519750053
 20
224.8853496327
 10
84.5508609736
 20
224.7372749313
 10
84.6532580281
 20
224.5839419826
  0
SPLINE
  5
444
330
1F
100
AcDbEntity
  8
0
  6
Continuous
 62
     7
370
     0
100
AcDbSpline
210
0.0
220
0.0
230
1.0
 70
     8
 71
     3
 72
    16
 73
    12
 74
     0
 42
0.000000001
 43
0.00000001
 40
0.0
 40
0.0
 40
0.0
 40
0.0
 40
0.1291848607672866
 40
0.2582495308286273
 40
0.3853194607650494
 40
0.512285948569195
 40
0.6233346779693631
 40
0.7343550582694782
 40
0.8376979284716783
 40
0.9410287003305196
 40
1.0
 40
1.0
 40
1.0
 40
1.0
 10
84.65325802805755
 20
224.5839419826295
 30
0.0
 10
84.36807117197235
 20
224.3632294456075
 30
0.0
 10
83.79796279127618
 20
223.922009717573
 30
0.0
 10
82.92109885478038
 20
223.33488101116
 30
0.0
 10
82.06933992401675
 20
222.8230647337661
 30
0.0
 10
81.31285215211255
 20
222.4088659326096
 30
0.0
 10
80.68565698518428
 20
222.0845801594299
 30
0.0
 10
80.20782123639884
 20
221.8371705614839
 30
0.0
 10
79.87461790939469
 20
221.6456152586378
 30
0.0
 10
79.7025779579327
 20
221.5188571093116
 30
0.0
 10
79.66989303258991
 20
221.4612695489104
 30
0.0
 10
79.65801719817254
 20
221.4403455197241
 30
0.0
  0
SPLINE
  5
445
330
1F
100
AcDbEntity
  8
0
  6
Continuous
 62
     7
370
     0
100
AcDbSpline
210
0.0
220
0.0
230
1.0
 70
     8
 71
     3
 72
    16
 73
    12
 74
     0
 42
0.000000001
 43
0.00000001
 40
0.0
 40
0.0
 40
0.0
 40
0.0
 40
0.0952174748926888
 40
0.1962680467141287
 40
0.3003475448340859
 40
0.4068120989151648
 40
0.516785321110903
 40
0.6348452658269725
 40
0.7572058435456005
 40
0.8769427091946939
 40
1.0
 40
1.0
 40
1.0
 40
1.0
 10
79.65801719817254
 20
219.6758356928256
 30
0.0
 10
79.6806343161851
 20
219.681731159121
 30
0.0
 10
79.72725409453601
 20
219.6938832525848
 30
0.0
 10
79.95730211026914
 20
219.7561228077664
 30
0.0
 10
80.31416550590974
 20
219.859998361006
 30
0.0
 10
80.80443849449802
 20
220.0171535329953
 30
0.0
 10
81.42278040148467
 20
220.2398882426895
 30
0.0
 10
82.15922388643287
 20
220.5418560383167
 30
0.0
 10
82.97293016663697
 20
220.92680070159
 30
0.0
 10
83.8207995876591
 20
221.3821259887403
 30
0.0
 10
84.37325344928456
 20
221.7315255535585
 30
0.0
 10
84.65325802805756
 20
221.9086145102408
 30
0.0
  0
LINE
  5
446
330
1F
100
AcDbEntity
  8
0
  6
Continuous
 62
     7
370
     0
100
AcDbLine
 10
84.6532580281
 20
224.5839419826
 30
0.0
 11
84.6532580281
 21
221.9086145102
 31
0.0
  0
LWPOLYLINE
  5
447
330
1F
100
AcDbEntity
  8
0
  6
Continuous
 62
     7
370
     0
100
AcDbPolyline
 90
        9
 70
   128
 43
0.0
 10
85.0246052096
 20
221.2569997697
 10
85.017469416
 20
221.2695204704
 10
84.9963377068
 20
221.3066020101
 10
84.9620221952
 20
221.3668176025
 10
84.9158397714
 20
221.4478538423
 10
84.8595673988
 20
221.546596387
 10
84.7953666771
 20
221.6592528909
 10
84.7257046798
 20
221.7814908415
 10
84.6532580281
 20
221.9086145102
  0
SPLINE
  5
448
330
1F
100
AcDbEntity
  8
0
  6
Continuous
 62
     7
370
     0
100
AcDbSpline
210
0.0
220
0.0
230
1.0
 70
     8
 71
     3
 72
    16
 73
    12
 74
     0
 42
0.000000001
 43
0.00000001
 40
0.0
 40
0.0
 40
0.0
 40
0.0
 40
0.1008171341046132
 40
0.2016454859731643
 40
0.3030638782913531
 40
0.4044971726385778
 40
0.5083564874607293
 40
0.6122514042810089
 40
0.7215695758362004
 40
0.8309526639764118
 40
1.0
 40
1.0
 40
1.0
 40
1.0
 10
79.65801719817254
 20
258.8672977923777
 30
0.0
 10
79.68405506992274
 20
258.8300448039778
 30
0.0
 10
79.73613371061616
 20
258.7555346820965
 30
0.0
 10
79.98492140189825
 20
258.5949915331358
 30
0.0
 10
80.35154484677508
 20
258.3953728248113
 30
0.0
 10
80.83199345188471
 20
258.147990286277
 30
0.0
 10
81.40859313265888
 20
257.8467708031188
 30
0.0
 10
82.0669760899565
 20
257.4847674561993
 30
0.0
 10
82.78036487019824
 20
257.0576127573966
 30
0.0
 10
83.66085544855163
 20
256.4858219700323
 30
0.0
 10
84.27834998288864
 20
256.0116138817326
 30
0.0
 10
84.65325802805755
 20
255.7237013294723
 30
0.0
  0
LWPOLYLINE
  5
449
330
1F
100
AcDbEntity
  8
0
  6
Continuous
 62
     7
370
     0
100
AcDbPolyline
 90
        9
 70
   128
 43
0.0
 10
84.1000133032
 20
254.8952545091
 10
84.1184236878
 20
254.9228216573
 10
84.1551727453
 20
254.9778516456
 10
84.2090013275
 20
255.0584566831
 10
84.278063553
 20
255.1618726044
 10
84.3599910686
 20
255.2845538645
 10
84.4519750053
 20
255.4222936794
 10
84.5508609736
 20
255.5703683808
 10
84.6532580281
 20
255.7237013295
  0
LWPOLYLINE
  5
44A
330
1F
100
AcDbEntity
  8
0
  6
Continuous
 62
     7
370
     0
100
AcDbPolyline
 90
        9
 70
   128
 43
0.0
 10
85.0246052096
 20
259.0506435424
 10
85.017469416
 20
259.0381228417
 10
84.9963377068
 20
259.001041302
 10
84.9620221952
 20
258.9408257096
 10
84.9158397714
 20
258.8597894698
 10
84.8595673988
 20
258.7610469251
 10
84.7953666771
 20
258.6483904212
 10
84.7257046798
 20
258.5261524707
 10
84.6532580281
 20
258.3990288019
  0
SPLINE
  5
44B
330
1F
100
AcDbEntity
  8
0
  6
Continuous
 62
     7
370
     0
100
AcDbSpline
210
0.0
220
0.0
230
1.0
 70
     8
 71
     3
 72
    17
 73
    13
 74
     0
 42
0.000000001
 43
0.00000001
 40
0.0
 40
0.0
 40
0.0
 40
0.0
 40
0.0876796561972136
 40
0.1753334613192677
 40
0.2810822552346335
 40
0.3867778335734413
 40
0.4895229961116986
 40
0.5922438823707749
 40
0.6943213144058235
 40
0.796395180661588
 40
0.8981971258351158
 40
1.0
 40
1.0
 40
1.0
 40
1.0
 10
84.65325802805755
 20
258.399028801861
 30
0.0
 10
84.4544224562773
 20
258.5260203478239
 30
0.0
 10
84.05680993650176
 20
258.7799659981335
 30
0.0
 10
83.40651469536041
 20
259.1506760451325
 30
0.0
 10
82.71770037798575
 20
259.5052605595865
 30
0.0
 10
82.01752775067908
 20
259.8253245429042
 30
0.0
 10
81.37336966235706
 20
260.085365171705
 30
0.0
 10
80.80631498364818
 20
260.2895465964435
 30
0.0
 10
80.33508478435601
 20
260.441179900387
 30
0.0
 10
79.97593300298188
 20
260.5462627490433
 30
0.0
 10
79.73387576793701
 20
260.612250556065
 30
0.0
 10
79.68330346500974
 20
260.6252885783762
 30
0.0
 10
79.65801719817254
 20
260.6318076192763
 30
0.0
  0
LINE
  5
44C
330
1F
100
AcDbEntity
  8
0
  6
Continuous
 62
     7
370
     0
100
AcDbLine
 10
84.6532580281
 20
258.3990288019
 30
0.0
 11
84.6532580281
 21
255.7237013295
 31
0.0
  0
SPLINE
  5
44D
330
1F
100
AcDbEntity
  8
0
  6
Continuous
 62
     7
370
     0
100
AcDbSpline
210
0.0
220
0.0
230
1.0
 70
     8
 71
     3
 72
    16
 73
    12
 74
     0
 42
0.000000001
 43
0.00000001
 40
0.0
 40
0.0
 40
0.0
 40
0.0
 40
0.0919168158386915
 40
0.194717092713404
 40
0.3006654295192316
 40
0.4087937466401272
 40
0.5204733910252292
 40
0.6376497887873995
 40
0.7588428775155609
 40
0.8777846569522962
 40
0.9999999999999999
 40
0.9999999999999999
 40
0.9999999999999999
 40
0.9999999999999999
 10
68.7904406176779
 20
260.6174727022078
 30
0.0
 10
68.77557327496552
 20
260.613319274965
 30
0.0
 10
68.74407821366567
 20
260.6045206316467
 30
0.0
 10
68.58727569948478
 20
260.5595775991585
 30
0.0
 10
68.3374355565686
 20
260.4839917765605
 30
0.0
 10
67.9927606881303
 20
260.3718020311076
 30
0.0
 10
67.5603285851832
 20
260.217745129146
 30
0.0
 10
67.04812582114829
 20
260.01582976535
 30
0.0
 10
66.48250814478321
 20
259.7663815897289
 30
0.0
 10
65.88751888182126
 20
259.4761169703925
 30
0.0
 10
65.49347051784052
 20
259.2567470966354
 30
0.0
 10
65.29377185049388
 20
259.1455732523825
 30
0.0
  0
LWPOLYLINE
  5
44E
330
1F
100
AcDbEntity
  8
0
  6
Continuous
 62
     7
370
     0
100
AcDbPolyline
 90
        9
 70
   128
 43
0.0
 10
65.2937718505
 20
259.1455732524
 10
65.2313303972
 20
259.2778974264
 10
65.1712889621
 20
259.4051384419
 10
65.1159544313
 20
259.5224031299
 10
65.0674530143
 20
259.6251857519
 10
65.0276492188
 20
259.7095393627
 10
64.9980722764
 20
259.7722192346
 10
64.9798584008
 20
259.8108169674
 10
64.9737088779
 20
259.8238498955
  0
SPLINE
  5
44F
330
1F
100
AcDbEntity
  8
0
  6
Continuous
 62
     7
370
     0
100
AcDbSpline
210
0.0
220
0.0
230
1.0
 70
     8
 71
     3
 72
    14
 73
    10
 74
     0
 42
0.000000001
 43
0.00000001
 40
0.0
 40
0.0
 40
0.0
 40
0.0
 40
0.147380479239175
 40
0.294680137110434
 40
0.4396807771006292
 40
0.5846268369297212
 40
0.7208880992524517
 40
0.8571221619720767
 40
1.0
 40
1.0
 40
1.0
 40
1.0
 10
66.33713718744848
 20
257.2750099986222
 30
0.0
 10
66.52049449872366
 20
257.3845675833555
 30
0.0
 10
66.88710857072086
 20
257.6036226729942
 30
0.0
 10
67.40196645903286
 20
257.8876921088382
 30
0.0
 10
67.86286736012917
 20
258.1333379665629
 30
0.0
 10
68.24457566696199
 20
258.3361313268953
 30
0.0
 10
68.52987894183235
 20
258.4988306209849
 30
0.0
 10
68.72914927070164
 20
258.6313216440981
 30
0.0
 10
68.76968851320447
 20
258.6922147979229
 30
0.0
 10
68.7904406176779
 20
258.7233861028578
 30
0.0
  0
SPLINE
  5
450
330
1F
100
AcDbEntity
  8
0
  6
Continuous
 62
     7
370
     0
100
AcDbSpline
210
0.0
220
0.0
230
1.0
 70
     8
 71
     3
 72
    10
 73
     6
 74
     0
 42
0.000000001
 43
0.00000001
 40
0.0
 40
0.0
 40
0.0
 40
0.0
 40
0.354598470943831
 40
0.7184500292942655
 40
1.0
 40
1.0
 40
1.0
 40
1.0
 10
65.29377185049388
 20
256.2823225795653
 30
0.0
 10
65.3986687340843
 20
256.4197791603748
 30
0.0
 10
65.61119973820234
 20
256.6982791895669
 30
0.0
 10
65.97012715552519
 20
257.031403815989
 30
0.0
 10
66.22566246221932
 20
257.2010176553316
 30
0.0
 10
66.33713718744848
 20
257.2750099986222
 30
0.0
  0
LINE
  5
451
330
1F
100
AcDbEntity
  8
0
  6
Continuous
 62
     7
370
     0
100
AcDbLine
 10
65.2937718505
 20
256.2823225796
 30
0.0
 11
65.2937718505
 21
259.1455732524
 31
0.0
  0
SPLINE
  5
452
330
1F
100
AcDbEntity
  8
0
  6
Continuous
 62
     7
370
     0
100
AcDbSpline
210
0.0
220
0.0
230
1.0
 70
     8
 71
     3
 72
    16
 73
    12
 74
     0
 42
0.000000001
 43
0.00000001
 40
0.0
 40
0.0
 40
0.0
 40
0.0
 40
0.1627028071761345
 40
0.2695464517943627
 40
0.3790590549368648
 40
0.4820694392217042
 40
0.5879413661522487
 40
0.6896414861581427
 40
0.7943279260407233
 40
0.8956544794373834
 40
1.0
 40
1.0
 40
1.0
 40
1.0
 10
65.29377185049388
 20
221.1620700597193
 30
0.0
 10
65.56055925568924
 20
221.0148770719477
 30
0.0
 10
66.00254055706888
 20
220.7710254244472
 30
0.0
 10
66.62034155297522
 20
220.4789418845773
 30
0.0
 10
67.11963777718793
 20
220.2631094311655
 30
0.0
 10
67.580680744523
 20
220.0827823138772
 30
0.0
 10
67.9791646181357
 20
219.9406806131361
 30
0.0
 10
68.3138689399058
 20
219.8311071745307
 30
0.0
 10
68.56468517016143
 20
219.7547140363089
 30
0.0
 10
68.73715791832183
 20
219.7050415856903
 30
0.0
 10
68.77250676134351
 20
219.6951758732667
 30
0.0
 10
68.7904406176779
 20
219.690170609894
 30
0.0
  0
LWPOLYLINE
  5
453
330
1F
100
AcDbEntity
  8
0
  6
Continuous
 62
     7
370
     0
100
AcDbPolyline
 90
        9
 70
   128
 43
0.0
 10
65.2937718505
 20
221.1620700597
 10
65.2313303972
 20
221.0297458857
 10
65.1712889621
 20
220.9025048702
 10
65.1159544313
 20
220.7852401822
 10
65.0674530143
 20
220.6824575602
 10
65.0276492188
 20
220.5981039494
 10
64.9980722764
 20
220.5354240775
 10
64.9798584008
 20
220.4968263447
 10
64.9737088779
 20
220.4837934166
  0
LINE
  5
454
330
1F
100
AcDbEntity
  8
0
  6
Continuous
 62
     7
370
     0
100
AcDbLine
 10
65.2937718505
 20
221.1620700597
 30
0.0
 11
65.2937718505
 21
224.0253207325
 31
0.0
  0
SPLINE
  5
455
330
1F
100
AcDbEntity
  8
0
  6
Continuous
 62
     7
370
     0
100
AcDbSpline
210
0.0
220
0.0
230
1.0
 70
     8
 71
     3
 72
    10
 73
     6
 74
     0
 42
0.000000001
 43
0.00000001
 40
0.0
 40
0.0
 40
0.0
 40
0.0
 40
0.34267958308054
 40
0.6970344140803092
 40
0.9999999999999999
 40
0.9999999999999999
 40
0.9999999999999999
 40
0.9999999999999999
 10
66.33713718744848
 20
223.0326333134797
 30
0.0
 10
66.20180554021863
 20
223.1239031870656
 30
0.0
 10
65.92653143551301
 20
223.3095525399866
 30
0.0
 10
65.57574477530581
 20
223.6518350067564
 30
0.0
 10
65.38273294346678
 20
223.9074877937984
 30
0.0
 10
65.29377185049388
 20
224.0253207325366
 30
0.0
  0
SPLINE
  5
456
330
1F
100
AcDbEntity
  8
0
  6
Continuous
 62
     7
370
     0
100
AcDbSpline
210
0.0
220
0.0
230
1.0
 70
     8
 71
     3
 72
    14
 73
    10
 74
     0
 42
0.000000001
 43
0.00000001
 40
0.0
 40
0.0
 40
0.0
 40
0.0
 40
0.1303116891589097
 40
0.2606443966959757
 40
0.3920306482810221
 40
0.5234443052582141
 40
0.6588978251350126
 40
0.7943999807752653
 40
1.0
 40
1.0
 40
1.0
 40
1.0
 10
68.7904406176779
 20
221.584257209244
 30
0.0
 10
68.77213719546683
 20
221.6124448585088
 30
0.0
 10
68.73552739882868
 20
221.6688247035119
 30
0.0
 10
68.56067925739912
 20
221.7900466070203
 30
0.0
 10
68.30315849798743
 20
221.9390202281535
 30
0.0
 10
67.96469049246956
 20
222.1204781145119
 30
0.0
 10
67.55658102596891
 20
222.3373147815958
 30
0.0
 10
67.01719468142373
 20
222.6291749439695
 30
0.0
 10
66.59288855509763
 20
222.8809034513638
 30
0.0
 10
66.33713718744848
 20
223.0326333134797
 30
0.0
  0
ARC
  5
457
330
1F
100
AcDbEntity
  8
0
  6
Continuous
 62
     7
370
     0
100
AcDbCircle
 10
67.776984214
 20
222.6468777798
 30
0.0
 40
1.490626308542558
100
AcDbArc
 50
119.6169801358
 51
165.0018680525
  0
ARC
  5
458
330
1F
100
AcDbEntity
  8
0
  6
Continuous
 62
     7
370
     0
100
AcDbCircle
 10
67.776984214
 20
257.6607655323
 30
0.0
 40
1.490626308542607
100
AcDbArc
 50
194.9981319475
 51
240.3830198642
  0
SPLINE
  5
459
330
1F
100
AcDbEntity
  8
0
  6
Continuous
 62
     7
370
     0
100
AcDbSpline
210
0.0
220
0.0
230
1.0
 70
     8
 71
     3
 72
    10
 73
     6
 74
     0
 42
0.000000001
 43
0.00000001
 40
0.0
 40
0.0
 40
0.0
 40
0.0
 40
0.289291826028542
 40
0.638431179490104
 40
1.0
 40
1.0
 40
1.0
 40
1.0
 10
66.03421520682905
 20
224.6943754195597
 30
0.0
 10
66.12065611520073
 20
224.6051016923286
 30
0.0
 10
66.31142047880391
 20
224.4080856488541
 30
0.0
 10
66.6538968929021
 20
224.1488177331105
 30
0.0
 10
66.91001747716668
 20
224.0122364844024
 30
0.0
 10
67.0403173962507
 20
223.9427515357163
 30
0.0
  0
LWPOLYLINE
  5
45A
330
1F
100
AcDbEntity
  8
0
  6
Continuous
 62
     7
370
     0
100
AcDbPolyline
 90
        9
 70
   128
 43
0.0
 10
66.0342152068
 20
224.6943754196
 10
66.0122192303
 20
224.6745000645
 10
65.9648158425
 20
224.6316666766
 10
65.8936814243
 20
224.5673905178
 10
65.8013314778
 20
224.4839449465
 10
65.6910321513
 20
224.3842785298
 10
65.5666838238
 20
224.2719200491
 10
65.4326842004
 20
224.1508388012
 10
65.2937718505
 20
224.0253207325
  0
SPLINE
  5
45B
330
1F
100
AcDbEntity
  8
0
  6
Continuous
 62
     7
370
     0
100
AcDbSpline
210
0.0
220
0.0
230
1.0
 70
     8
 71
     3
 72
    10
 73
     6
 74
     0
 42
0.000000001
 43
0.00000001
 40
0.0
 40
0.0
 40
0.0
 40
0.0
 40
0.295911591902581
 40
0.6422414120838469
 40
0.9999999999999999
 40
0.9999999999999999
 40
0.9999999999999999
 40
0.9999999999999999
 10
67.0403173962507
 20
256.3648917763855
 30
0.0
 10
66.93373676987297
 20
256.308888579785
 30
0.0
 10
66.70241601780131
 20
256.1873402084127
 30
0.0
 10
66.35430017689063
 20
255.938770936566
 30
0.0
 10
66.142058565931
 20
255.7229367147261
 30
0.0
 10
66.03421520682905
 20
255.6132678925421
 30
0.0
  0
LWPOLYLINE
  5
45C
330
1F
100
AcDbEntity
  8
0
  6
Continuous
 62
     7
370
     0
100
AcDbPolyline
 90
        9
 70
   128
 43
0.0
 10
65.2937718505
 20
256.2823225796
 10
65.4326842004
 20
256.1568045109
 10
65.5666838238
 20
256.035723263
 10
65.6910321513
 20
255.9233647823
 10
65.8013314778
 20
255.8236983656
 10
65.8936814243
 20
255.7402527943
 10
65.9648158425
 20
255.6759766355
 10
66.0122192303
 20
255.6331432476
 10
66.0342152068
 20
255.6132678925
  0
ARC
  5
45D
330
1F
100
AcDbEntity
  8
0
  6
Continuous
 62
     7
370
     0
100
AcDbCircle
 10
74.2555462593
 20
240.1538216561
 30
0.0
 40
21.00000000000002
100
AcDbArc
 50
299.6782662468
 51
60.3217337532
  0
ARC
  5
45E
330
1F
100
AcDbEntity
  8
0
  6
Continuous
 62
     7
370
     0
100
AcDbCircle
 10
74.2555462593
 20
240.1538216561
 30
0.0
 40
18.72254149635816
100
AcDbArc
 50
303.7353717304
 51
56.2646282696
  0
SPLINE
  5
45F
330
1F
100
AcDbEntity
  8
0
  6
Continuous
 62
     7
370
     0
100
AcDbSpline
210
0.0
220
0.0
230
1.0
 70
     8
 71
     3
 72
    12
 73
     8
 74
     0
 42
0.000000001
 43
0.00000001
 40
0.0
 40
0.0
 40
0.0
 40
0.0
 40
0.2260672875056323
 40
0.4587081234490119
 40
0.6847695468979915
 40
0.9173569753829052
 40
1.0
 40
1.0
 40
1.0
 40
1.0
 10
65.29377185049388
 20
224.0253207325366
 30
0.0
 10
65.15226212592111
 20
224.1980262262438
 30
0.0
 10
64.86512787963194
 20
224.5484591163886
 30
0.0
 10
64.55502596403238
 20
225.1535541747128
 30
0.0
 10
64.34327026015657
 20
225.8031411896431
 30
0.0
 10
64.26289052618182
 20
226.3340451830281
 30
0.0
 10
64.2570719274476
 20
226.6446702604473
 30
0.0
 10
64.25554648282859
 20
226.7261059075024
 30
0.0
  0
LINE
  5
460
330
1F
100
AcDbEntity
  8
0
  6
Continuous
 62
     7
370
     0
100
AcDbLine
 10
64.2555464828
 20
226.7261059075
 30
0.0
 11
65.2555466467
 21
226.7261059075
 31
0.0
  0
SPLINE
  5
461
330
1F
100
AcDbEntity
  8
0
  6
Continuous
 62
     7
370
     0
100
AcDbSpline
210
0.0
220
0.0
230
1.0
 70
     8
 71
     3
 72
    12
 73
     8
 74
     0
 42
0.000000001
 43
0.00000001
 40
0.0
 40
0.0
 40
0.0
 40
0.0
 40
0.2265131722380199
 40
0.4595840639893242
 40
0.6861004728590924
 40
0.9192107793238689
 40
1.0
 40
1.0
 40
1.0
 40
1.0
 10
64.25554648282859
 20
253.5815374045994
 30
0.0
 10
64.26631296271678
 20
253.8049906293406
 30
0.0
 10
64.28815761984194
 20
254.258366210652
 30
0.0
 10
64.46363309135319
 20
254.9166125700756
 30
0.0
 10
64.74233004267452
 20
255.5419605895596
 30
0.0
 10
65.03834997298846
 20
255.9889469442547
 30
0.0
 10
65.24148929989819
 20
256.222271237658
 30
0.0
 10
65.29377185049388
 20
256.2823225795653
 30
0.0
  0
LINE
  5
462
330
1F
100
AcDbEntity
  8
0
  6
Continuous
 62
     7
370
     0
100
AcDbLine
 10
64.2555464828
 20
253.5815374046
 30
0.0
 11
65.2555466467
 21
253.5815374046
 31
0.0
  0
ARC
  5
463
330
1F
100
AcDbEntity
  8
0
  6
Continuous
 62
     7
370
     0
100
AcDbCircle
 10
74.2555462593
 20
240.1538216561
 30
0.0
 40
20.99999999999999
100
AcDbArc
 50
115.2615563845
 51
244.7384436155
  0
LINE
  5
464
330
1F
100
AcDbEntity
  8
0
  6
Continuous
 62
     7
370
     0
100
AcDbLine
 10
64.2555464828
 20
226.7261059075
 30
0.0
 11
64.2555464828
 21
253.5815374046
 31
0.0
  0
DIMENSION
  5
465
330
1F
100
AcDbEntity
  8
DIMENSION_-_BEMAßUNG
100
AcDbDimension
  2
_D_2
 10
98.2555462593
 20
197.9719885504
 30
0.0
 11
73.6933474351
 21
197.9719885504
 31
0.0
 70
   160
  1
%%c<>
 71
     2
 42
-1.0
  3
SLDDIMSTYLE0
100
AcDbAlignedDimension
 13
50.2555462593
 23
240.1538216561
 33
0.0
 14
98.2555462593
 24
240.1538216561
 34
0.0
100
AcDbRotatedDimension
  0
ENDSEC
  0
SECTION
  2
OBJECTS
  0
DICTIONARY
  5
C
330
0
100
AcDbDictionary
281
     1
  3
ACAD_GROUP
350
D
  3
ACAD_LAYOUT
350
1A
  3
ACAD_MLINESTYLE
350
17
  3
ACAD_PLOTSETTINGS
350
19
  3
ACAD_PLOTSTYLENAME
350
E
  3
ACAD_SCALELIST
350
47
  0
DICTIONARY
  5
D
102
{ACAD_REACTORS
330
C
102
}
330
C
100
AcDbDictionary
281
     1
  0
DICTIONARY
  5
1A
102
{ACAD_REACTORS
330
C
102
}
330
C
100
AcDbDictionary
281
     1
  3
Layout1
350
1E
  3
Layout2
350
26
  3
Model
350
22
  0
DICTIONARY
  5
17
102
{ACAD_REACTORS
330
C
102
}
330
C
100
AcDbDictionary
281
     1
  3
Standard
350
18
  0
DICTIONARY
  5
19
102
{ACAD_REACTORS
330
C
102
}
330
C
100
AcDbDictionary
281
     1
  0
ACDBDICTIONARYWDFLT
  5
E
102
{ACAD_REACTORS
330
C
102
}
330
C
100
AcDbDictionary
281
     1
  3
Normal
350
F
100
AcDbDictionaryWithDefault
340
F
  0
DICTIONARY
  5
47
102
{ACAD_REACTORS
330
C
102
}
330
C
100
AcDbDictionary
281
     1
  3
A0
350
48
  3
A1
350
49
  3
A2
350
4A
  3
A3
350
4B
  3
A4
350
4C
  3
A5
350
4D
  3
A6
350
4E
  3
A7
350
4F
  3
A8
350
50
  3
A9
350
51
  3
B0
350
52
  3
B1
350
53
  3
B2
350
54
  3
B3
350
55
  3
B4
350
56
  3
B5
350
57
  3
B6
350
58
  3
B7
350
59
  3
B8
350
5A
  3
B9
350
5B
  3
C0
350
5C
  3
C1
350
5D
  3
C2
350
5E
  3
C3
350
5F
  3
C4
350
60
  3
C5
350
61
  3
C6
350
62
  3
C7
350
63
  3
C8
350
64
  3
C9
350
65
  3
D0
350
66
  3
D1
350
67
  3
D2
350
68
  0
LAYOUT
  5
1E
102
{ACAD_REACTORS
330
1A
102
}
330
1A
100
AcDbPlotSettings
  1

  2
none_device
  4

  6

 40
0.0
 41
0.0
 42
0.0
 43
0.0
 44
0.0
 45
0.0
 46
0.0
 47
0.0
 48
0.0
 49
0.0
140
0.0
141
0.0
142
1.0
143
1.0
 70
   688
 72
     1
 73
     0
 74
     5
  7

 75
    16
147
1.0
148
0.0
149
0.0
100
AcDbLayout
  1
Layout1
 70
     1
 71
     1
 10
0.0
 20
0.0
 11
420.0
 21
297.0
 12
0.0
 22
0.0
 32
0.0
 14
1.0000000000E+20
 24
1.0000000000E+20
 34
1.0000000000E+20
 15
-1.0000000000E+20
 25
-1.0000000000E+20
 35
-1.0000000000E+20
146
0.0
 13
0.0
 23
0.0
 33
0.0
 16
1.0
 26
0.0
 36
0.0
 17
0.0
 27
1.0
 37
0.0
 76
     0
330
1B
  0
LAYOUT
  5
26
102
{ACAD_REACTORS
330
1A
102
}
330
1A
100
AcDbPlotSettings
  1

  2
none_device
  4

  6

 40
0.0
 41
0.0
 42
0.0
 43
0.0
 44
0.0
 45
0.0
 46
0.0
 47
0.0
 48
0.0
 49
0.0
140
0.0
141
0.0
142
1.0
143
1.0
 70
   688
 72
     1
 73
     0
 74
     5
  7

 75
    16
147
1.0
148
0.0
149
0.0
100
AcDbLayout
  1
Layout2
 70
     1
 71
     2
 10
0.0
 20
0.0
 11
0.0
 21
0.0
 12
0.0
 22
0.0
 32
0.0
 14
0.0
 24
0.0
 34
0.0
 15
0.0
 25
0.0
 35
0.0
146
0.0
 13
0.0
 23
0.0
 33
0.0
 16
1.0
 26
0.0
 36
0.0
 17
0.0
 27
1.0
 37
0.0
 76
     0
330
23
  0
LAYOUT
  5
22
102
{ACAD_REACTORS
330
1A
102
}
330
1A
100
AcDbPlotSettings
  1

  2
none_device
  4
Letter_(8.50_x_11.00_Inches)
  6

 40
6.35
 41
6.35
 42
6.35000508
 43
6.35000508
 44
215.9
 45
279.4
 46
0.0
 47
0.0
 48
0.0
 49
0.0
140
0.0
141
0.0
142
1.0
143
1.0
 70
  1712
 72
     1
 73
     0
 74
     0
  7

 75
     0
147
1.0
148
0.0
149
0.0
100
AcDbLayout
  1
Model
 70
     1
 71
     0
 10
0.0
 20
0.0
 11
210.0
 21
297.0
 12
0.0
 22
0.0
 32
0.0
 14
0.0
 24
0.0
 34
0.0
 15
210.0
 25
297.0
 35
0.0
146
0.0
 13
0.0
 23
0.0
 33
0.0
 16
1.0
 26
0.0
 36
0.0
 17
0.0
 27
1.0
 37
0.0
 76
     0
330
1F
331
29
  0
MLINESTYLE
  5
18
102
{ACAD_REACTORS
330
17
102
}
330
17
100
AcDbMlineStyle
  2
Standard
 70
     0
  3

 62
   256
 51
90.0
 52
90.0
 71
     2
 49
0.5
 62
   256
  6
BYLAYER
 49
-0.5
 62
   256
  6
BYLAYER
  0
ACDBPLACEHOLDER
  5
F
102
{ACAD_REACTORS
330
E
102
}
330
E
  0
SCALE
  5
48
102
{ACAD_REACTORS
330
47
102
}
330
47
100
AcDbScale
 70
     0
300
1:1
140
1.0
141
1.0
290
     1
  0
SCALE
  5
49
102
{ACAD_REACTORS
330
47
102
}
330
47
100
AcDbScale
 70
     0
300
1:2
140
1.0
141
2.0
290
     0
  0
SCALE
  5
4A
102
{ACAD_REACTORS
330
47
102
}
330
47
100
AcDbScale
 70
     0
300
1:4
140
1.0
141
4.0
290
     0
  0
SCALE
  5
4B
102
{ACAD_REACTORS
330
47
102
}
330
47
100
AcDbScale
 70
     0
300
1:5
140
1.0
141
5.0
290
     0
  0
SCALE
  5
4C
102
{ACAD_REACTORS
330
47
102
}
330
47
100
AcDbScale
 70
     0
300
1:8
140
1.0
141
8.0
290
     0
  0
SCALE
  5
4D
102
{ACAD_REACTORS
330
47
102
}
330
47
100
AcDbScale
 70
     0
300
1:10
140
1.0
141
10.0
290
     0
  0
SCALE
  5
4E
102
{ACAD_REACTORS
330
47
102
}
330
47
100
AcDbScale
 70
     0
300
1:16
140
1.0
141
16.0
290
     0
  0
SCALE
  5
4F
102
{ACAD_REACTORS
330
47
102
}
330
47
100
AcDbScale
 70
     0
300
1:20
140
1.0
141
20.0
290
     0
  0
SCALE
  5
50
102
{ACAD_REACTORS
330
47
102
}
330
47
100
AcDbScale
 70
     0
300
1:30
140
1.0
141
30.0
290
     0
  0
SCALE
  5
51
102
{ACAD_REACTORS
330
47
102
}
330
47
100
AcDbScale
 70
     0
300
1:40
140
1.0
141
40.0
290
     0
  0
SCALE
  5
52
102
{ACAD_REACTORS
330
47
102
}
330
47
100
AcDbScale
 70
     0
300
1:50
140
1.0
141
50.0
290
     0
  0
SCALE
  5
53
102
{ACAD_REACTORS
330
47
102
}
330
47
100
AcDbScale
 70
     0
300
1:100
140
1.0
141
100.0
290
     0
  0
SCALE
  5
54
102
{ACAD_REACTORS
330
47
102
}
330
47
100
AcDbScale
 70
     0
300
2:1
140
2.0
141
1.0
290
     0
  0
SCALE
  5
55
102
{ACAD_REACTORS
330
47
102
}
330
47
100
AcDbScale
 70
     0
300
4:1
140
4.0
141
1.0
290
     0
  0
SCALE
  5
56
102
{ACAD_REACTORS
330
47
102
}
330
47
100
AcDbScale
 70
     0
300
8:1
140
8.0
141
1.0
290
     0
  0
SCALE
  5
57
102
{ACAD_REACTORS
330
47
102
}
330
47
100
AcDbScale
 70
     0
300
10:1
140
10.0
141
1.0
290
     0
  0
SCALE
  5
58
102
{ACAD_REACTORS
330
47
102
}
330
47
100
AcDbScale
 70
     0
300
100:1
140
100.0
141
1.0
290
     0
  0
SCALE
  5
59
102
{ACAD_REACTORS
330
47
102
}
330
47
100
AcDbScale
 70
     0
300
1/128" = 1'-0"
140
0.0078125
141
12.0
290
     0
  0
SCALE
  5
5A
102
{ACAD_REACTORS
330
47
102
}
330
47
100
AcDbScale
 70
     0
300
1/64" = 1'-0"
140
0.015625
141
12.0
290
     0
  0
SCALE
  5
5B
102
{ACAD_REACTORS
330
47
102
}
330
47
100
AcDbScale
 70
     0
300
1/32" = 1'-0"
140
0.03125
141
12.0
290
     0
  0
SCALE
  5
5C
102
{ACAD_REACTORS
330
47
102
}
330
47
100
AcDbScale
 70
     0
300
1/16" = 1'-0"
140
0.0625
141
12.0
290
     0
  0
SCALE
  5
5D
102
{ACAD_REACTORS
330
47
102
}
330
47
100
AcDbScale
 70
     0
300
3/32" = 1'-0"
140
0.09375
141
12.0
290
     0
  0
SCALE
  5
5E
102
{ACAD_REACTORS
330
47
102
}
330
47
100
AcDbScale
 70
     0
300
1/8" = 1'-0"
140
0.125
141
12.0
290
     0
  0
SCALE
  5
5F
102
{ACAD_REACTORS
330
47
102
}
330
47
100
AcDbScale
 70
     0
300
3/16" = 1'-0"
140
0.1875
141
12.0
290
     0
  0
SCALE
  5
60
102
{ACAD_REACTORS
330
47
102
}
330
47
100
AcDbScale
 70
     0
300
1/4" = 1'-0"
140
0.25
141
12.0
290
     0
  0
SCALE
  5
61
102
{ACAD_REACTORS
330
47
102
}
330
47
100
AcDbScale
 70
     0
300
3/8" = 1'-0"
140
0.375
141
12.0
290
     0
  0
SCALE
  5
62
102
{ACAD_REACTORS
330
47
102
}
330
47
100
AcDbScale
 70
     0
300
1/2" = 1'-0"
140
0.5
141
12.0
290
     0
  0
SCALE
  5
63
102
{ACAD_REACTORS
330
47
102
}
330
47
100
AcDbScale
 70
     0
300
3/4" = 1'-0"
140
0.75
141
12.0
290
     0
  0
SCALE
  5
64
102
{ACAD_REACTORS
330
47
102
}
330
47
100
AcDbScale
 70
     0
300
1" = 1'-0"
140
1.0
141
12.0
290
     0
  0
SCALE
  5
65
102
{ACAD_REACTORS
330
47
102
}
330
47
100
AcDbScale
 70
     0
300
1-1/2" = 1'-0"
140
1.5
141
12.0
290
     0
  0
SCALE
  5
66
102
{ACAD_REACTORS
330
47
102
}
330
47
100
AcDbScale
 70
     0
300
3" = 1'-0"
140
3.0
141
12.0
290
     0
  0
SCALE
  5
67
102
{ACAD_REACTORS
330
47
102
}
330
47
100
AcDbScale
 70
     0
300
6" = 1'-0"
140
6.0
141
12.0
290
     0
  0
SCALE
  5
68
102
{ACAD_REACTORS
330
47
102
}
330
47
100
AcDbScale
 70
     0
300
1'-0" = 1'-0"
140
12.0
141
12.0
290
     0
  0
ENDSEC
  0
EOF
