  0
SECTION
  2
HEADER
  9
$ACADVER
  1
AC1015
  9
$ACADMAINTVER
 70
    20
  9
$DWGCODEPAGE
  3
ANSI_1252
  9
$INSBASE
 10
0.0
 20
0.0
 30
0.0
  9
$EXTMIN
 10
23458.41570474772
 20
374.3460183537575
 30
0.0
  9
$EXTMAX
 10
24684.3324000717
 20
1466.288284827032
 30
0.0
  9
$LIMMIN
 10
0.0
 20
0.0
  9
$LIMMAX
 10
420.0
 20
297.0
  9
$ORTHOMODE
 70
     0
  9
$REGENMODE
 70
     1
  9
$FILLMODE
 70
     1
  9
$QTEXTMODE
 70
     0
  9
$MIRRTEXT
 70
     0
  9
$LTSCALE
 40
8.0
  9
$ATTMODE
 70
     1
  9
$TEXTSIZE
 40
2.5
  9
$TRACEWID
 40
1.0
  9
$TEXTSTYLE
  7
STANDARD
  9
$CLAYER
  8
0
  9
$CELTYPE
  6
ByLayer
  9
$CECOLOR
 62
   256
  9
$CELTSCALE
 40
1.0
  9
$DISPSILH
 70
     0
  9
$DIMSCALE
 40
1.0
  9
$DIMASZ
 40
65.0
  9
$DIMEXO
 40
1.0
  9
$DIMDLI
 40
10.0
  9
$DIMRND
 40
0.0
  9
$DIMDLE
 40
0.0
  9
$DIMEXE
 40
25.0
  9
$DIMTP
 40
0.1
  9
$DIMTM
 40
0.1
  9
$DIMTXT
 40
50.0
  9
$DIMCEN
 40
0.0
  9
$DIMTSZ
 40
0.0
  9
$DIMTOL
 70
     0
  9
$DIMLIM
 70
     0
  9
$DIMTIH
 70
     0
  9
$DIMTOH
 70
     0
  9
$DIMSE1
 70
     0
  9
$DIMSE2
 70
     0
  9
$DIMTAD
 70
     1
  9
$DIMZIN
 70
     8
  9
$DIMBLK
  1

  9
$DIMASO
 70
     1
  9
$DIMSHO
 70
     1
  9
$DIMPOST
  1

  9
$DIMAPOST
  1
"
  9
$DIMALT
 70
     0
  9
$DIMALTD
 70
     2
  9
$DIMALTF
 40
0.0393701
  9
$DIMLFAC
 40
1.0
  9
$DIMTOFL
 70
     1
  9
$DIMTVP
 40
0.0
  9
$DIMTIX
 70
     0
  9
$DIMSOXD
 70
     0
  9
$DIMSAH
 70
     0
  9
$DIMBLK1
  1

  9
$DIMBLK2
  1

  9
$DIMSTYLE
  2
AM_DIN
  9
$DIMCLRD
 70
   256
  9
$DIMCLRE
 70
   256
  9
$DIMCLRT
 70
     2
  9
$DIMTFAC
 40
0.71
  9
$DIMGAP
 40
15.0
  9
$DIMJUST
 70
     0
  9
$DIMSD1
 70
     0
  9
$DIMSD2
 70
     0
  9
$DIMTOLJ
 70
     0
  9
$DIMTZIN
 70
     8
  9
$DIMALTZ
 70
     0
  9
$DIMALTTZ
 70
     0
  9
$DIMUPT
 70
     0
  9
$DIMDEC
 70
     0
  9
$DIMTDEC
 70
     0
  9
$DIMALTU
 70
     2
  9
$DIMALTTD
 70
     2
  9
$DIMTXSTY
  7
STANDARD
  9
$DIMAUNIT
 70
     0
  9
$DIMADEC
 70
     0
  9
$DIMALTRND
 40
0.0
  9
$DIMAZIN
 70
     2
  9
$DIMDSEP
 70
    46
  9
$DIMATFIT
 70
     3
  9
$DIMFRAC
 70
     0
  9
$DIMLDRBLK
  1

  9
$DIMLUNIT
 70
     2
  9
$DIMLWD
 70
    -1
  9
$DIMLWE
 70
    -1
  9
$DIMTMOVE
 70
     0
  9
$LUNITS
 70
     2
  9
$LUPREC
 70
     2
  9
$SKETCHINC
 40
1.0
  9
$FILLETRAD
 40
2.5
  9
$AUNITS
 70
     0
  9
$AUPREC
 70
     0
  9
$MENU
  1
.
  9
$ELEVATION
 40
0.0
  9
$PELEVATION
 40
0.0
  9
$THICKNESS
 40
0.0
  9
$LIMCHECK
 70
     0
  9
$CHAMFERA
 40
2.5
  9
$CHAMFERB
 40
2.5
  9
$CHAMFERC
 40
20.0
  9
$CHAMFERD
 40
0.0
  9
$SKPOLY
 70
     0
  9
$TDCREATE
 40
2454167.376978160
  9
$TDUCREATE
 40
2454167.335311493
  9
$TDUPDATE
 40
2455940.687314271
  9
$TDUUPDATE
 40
2455940.645647604
  9
$TDINDWG
 40
0.7283747454
  9
$TDUSRTIMER
 40
0.7282145949
  9
$USRTIMER
 70
     1
  9
$ANGBASE
 50
0.0
  9
$ANGDIR
 70
     0
  9
$PDMODE
 70
     0
  9
$PDSIZE
 40
0.0
  9
$PLINEWID
 40
0.0
  9
$SPLFRAME
 70
     0
  9
$SPLINETYPE
 70
     6
  9
$SPLINESEGS
 70
     8
  9
$HANDSEED
  5
1BAB7
  9
$SURFTAB1
 70
     6
  9
$SURFTAB2
 70
     6
  9
$SURFTYPE
 70
     6
  9
$SURFU
 70
     6
  9
$SURFV
 70
     6
  9
$UCSBASE
  2

  9
$UCSNAME
  2

  9
$UCSORG
 10
0.0
 20
0.0
 30
0.0
  9
$UCSXDIR
 10
1.0
 20
0.0
 30
0.0
  9
$UCSYDIR
 10
0.0
 20
1.0
 30
0.0
  9
$UCSORTHOREF
  2

  9
$UCSORTHOVIEW
 70
     0
  9
$UCSORGTOP
 10
0.0
 20
0.0
 30
0.0
  9
$UCSORGBOTTOM
 10
0.0
 20
0.0
 30
0.0
  9
$UCSORGLEFT
 10
0.0
 20
0.0
 30
0.0
  9
$UCSORGRIGHT
 10
0.0
 20
0.0
 30
0.0
  9
$UCSORGFRONT
 10
0.0
 20
0.0
 30
0.0
  9
$UCSORGBACK
 10
0.0
 20
0.0
 30
0.0
  9
$PUCSBASE
  2

  9
$PUCSNAME
  2

  9
$PUCSORG
 10
0.0
 20
0.0
 30
0.0
  9
$PUCSXDIR
 10
1.0
 20
0.0
 30
0.0
  9
$PUCSYDIR
 10
0.0
 20
1.0
 30
0.0
  9
$PUCSORTHOREF
  2

  9
$PUCSORTHOVIEW
 70
     0
  9
$PUCSORGTOP
 10
0.0
 20
0.0
 30
0.0
  9
$PUCSORGBOTTOM
 10
0.0
 20
0.0
 30
0.0
  9
$PUCSORGLEFT
 10
0.0
 20
0.0
 30
0.0
  9
$PUCSORGRIGHT
 10
0.0
 20
0.0
 30
0.0
  9
$PUCSORGFRONT
 10
0.0
 20
0.0
 30
0.0
  9
$PUCSORGBACK
 10
0.0
 20
0.0
 30
0.0
  9
$USERI1
 70
     0
  9
$USERI2
 70
     0
  9
$USERI3
 70
     0
  9
$USERI4
 70
     0
  9
$USERI5
 70
     0
  9
$USERR1
 40
0.0
  9
$USERR2
 40
0.0
  9
$USERR3
 40
0.0
  9
$USERR4
 40
0.0
  9
$USERR5
 40
0.0
  9
$WORLDVIEW
 70
     1
  9
$SHADEDGE
 70
     3
  9
$SHADEDIF
 70
    70
  9
$TILEMODE
 70
     1
  9
$MAXACTVP
 70
    64
  9
$PINSBASE
 10
0.0
 20
0.0
 30
0.0
  9
$PLIMCHECK
 70
     0
  9
$PEXTMIN
 10
1.000000000000000E+20
 20
1.000000000000000E+20
 30
1.000000000000000E+20
  9
$PEXTMAX
 10
-1.000000000000000E+20
 20
-1.000000000000000E+20
 30
-1.000000000000000E+20
  9
$PLIMMIN
 10
0.0
 20
0.0
  9
$PLIMMAX
 10
420.0
 20
297.0
  9
$UNITMODE
 70
     0
  9
$VISRETAIN
 70
     1
  9
$PLINEGEN
 70
     0
  9
$PSLTSCALE
 70
     1
  9
$TREEDEPTH
 70
  3020
  9
$CMLSTYLE
  2
Standard
  9
$CMLJUST
 70
     0
  9
$CMLSCALE
 40
20.0
  9
$PROXYGRAPHICS
 70
     1
  9
$MEASUREMENT
 70
     1
  9
$CELWEIGHT
370
    -1
  9
$ENDCAPS
280
     0
  9
$JOINSTYLE
280
     0
  9
$LWDISPLAY
290
     0
  9
$INSUNITS
 70
     4
  9
$HYPERLINKBASE
  1

  9
$STYLESHEET
  1
MONOCHROME UW.CTB
  9
$XEDIT
290
     1
  9
$CEPSNTYPE
380
     0
  9
$PSTYLEMODE
290
     1
  9
$FINGERPRINTGUID
  2
{1344C3A2-CD10-4B1D-A761-DD320F23370E}
  9
$VERSIONGUID
  2
{CF2FF513-6578-45AF-9ECA-C1E9B70BCA50}
  9
$EXTNAMES
290
     1
  9
$PSVPSCALE
 40
0.0
  9
$OLESTARTUP
290
     0
  0
ENDSEC
  0
SECTION
  2
CLASSES
  0
CLASS
  1
ACDBDICTIONARYWDFLT
  2
AcDbDictionaryWithDefault
  3
ObjectDBX Classes
 90
        0
280
     0
281
     0
  0
CLASS
  1
ACDBPLACEHOLDER
  2
AcDbPlaceHolder
  3
ObjectDBX Classes
 90
        0
280
     0
281
     0
  0
CLASS
  1
LAYOUT
  2
AcDbLayout
  3
ObjectDBX Classes
 90
        0
280
     0
281
     0
  0
CLASS
  1
ACME_DOCUMENT
  2
AcMeDbDoc
  3
AcMeServices
 90
     1024
280
     0
281
     0
  0
CLASS
  1
AMGSETTINGSOBJ
  2
AmgSettingsObj
  3
"AcadM|Product Description: AutoCAD Mechanical|Company: Autodesk, Inc."
 90
     1024
280
     0
281
     0
  0
CLASS
  1
ACMESCOPE
  2
AcMeScope
  3
AcMeServices
 90
     1024
280
     0
281
     0
  0
CLASS
  1
ACMECOMMANDHISTORY
  2
AcMeCommandHistory
  3
AcMeServices
 90
     1024
280
     0
281
     0
  0
CLASS
  1
ACIMSYSVARMAN
  2
AcImSysVarManager
  3
AcMeServices
 90
     1024
280
     0
281
     0
  0
CLASS
  1
ACIMREALSYSVAR
  2
AcImRealSysVar
  3
AcMeServices
 90
     1024
280
     0
281
     0
  0
CLASS
  1
ACIMINTSYSVAR
  2
AcImIntSysVar
  3
AcMeServices
 90
     1024
280
     0
281
     0
  0
CLASS
  1
ACMEDRAWINGMAN
  2
AcMeDrawingMan
  3
AcMeServices
 90
     1024
280
     0
281
     0
  0
CLASS
  1
ACMEVIEW
  2
AcMeView
  3
AcMeServices
 90
     1024
280
     0
281
     0
  0
CLASS
  1
ACDBENTITYCACHE
  2
AcMeEntityCache
  3
AcMeServices
 90
     1024
280
     0
281
     0
  0
CLASS
  1
GSMANAGER
  2
AcMeGSManager
  3
AcMeServices
 90
    33792
280
     0
281
     0
  0
CLASS
  1
AMDTINTERNALREACTOR
  2
AmdtInternalReactor
  3
AcMeServices
 90
     1024
280
     0
281
     0
  0
CLASS
  1
ACMESTATEMGR
  2
AcMeStateMgr
  3
AcMeServices
 90
     1024
280
     0
281
     0
  0
CLASS
  1
ACGREFMASTER
  2
AcGrefMaster
  3
AcAttribServices
 90
     1024
280
     0
281
     0
  0
CLASS
  1
ACME_DATABASE
  2
AcMeDbDatabase
  3
AcMeServices
 90
     1024
280
     0
281
     0
  0
CLASS
  1
ACRFINSADJUSTERMGR
  2
AcRfInsAdjusterMgr
  3
AcMeServices
 90
     1024
280
     0
281
     0
  0
CLASS
  1
ACGREFACADMASTER
  2
AcGrefacadMaster
  3
AcGrefServices
 90
     1024
280
     0
281
     0
  0
CLASS
  1
AMIMASTER
  2
AmiMaster
  3
AmiServices
 90
     1024
280
     0
281
     0
  0
CLASS
  1
ACMDATADICTIONARY
  2
AcmDataDictionary
  3
"AcmSymBB|Product Description: AutoCAD Mechanical|Company: Autodesk, Inc."
 90
     1024
280
     0
281
     0
  0
CLASS
  1
ACMDATAENTRYBLOCK
  2
AcmDataEntryBlock
  3
AcmSymBB|Product Description: AutoCAD Mechanical|Company: Autodesk, Inc.
 90
    33792
280
     0
281
     0
  0
CLASS
  1
ACIMSTRSYSVAR
  2
AcImStrSysVar
  3
AcMeServices
 90
     1024
280
     0
281
     0
  0
CLASS
  1
ACMSTANDARDISO
  2
AcmStandardISO
  3
"Amdt_StdImp|Product Description: AutoCAD Mechanical|Company: Autodesk, Inc."
 90
    33792
280
     0
281
     0
  0
CLASS
  1
AMGOBJPROPCFG
  2
AmgObjPropCfg
  3
"AmgLay|Product Description: AutoCAD Mechanical|Company: Autodesk, Inc."
 90
     1025
280
     0
281
     0
  0
CLASS
  1
AMDTEDGESTANDARDISO
  2
AmdtEdgeStdISO
  3
"Amdt_StdImp|Product Description: AutoCAD Mechanical|Company: Autodesk, Inc."
 90
    33792
280
     0
281
     0
  0
CLASS
  1
ACMSURFSTANDARDISO
  2
AcmSurfTextStdISO
  3
"Amdt_StdImp|Product Description: AutoCAD Mechanical|Company: Autodesk, Inc."
 90
    33792
280
     0
281
     0
  0
CLASS
  1
ACMFCFSTANDARDISO
  2
AcmFCFStdISO
  3
"Amdt_StdImp|Product Description: AutoCAD Mechanical|Company: Autodesk, Inc."
 90
    33792
280
     0
281
     0
  0
CLASS
  1
ACMWELDSTANDARDISO
  2
AcmWeldingStdISO
  3
"Amdt_StdImp|Product Description: AutoCAD Mechanical|Company: Autodesk, Inc."
 90
    33792
280
     0
281
     0
  0
CLASS
  1
ACMIDSTANDARDISO
  2
AcmIdStdISO
  3
"Amdt_StdImp|Product Description: AutoCAD Mechanical|Company: Autodesk, Inc."
 90
    33792
280
     0
281
     0
  0
CLASS
  1
ACMDATUMSTANDARDISO
  2
AcmDatumStdISO
  3
"Amdt_StdImp|Product Description: AutoCAD Mechanical|Company: Autodesk, Inc."
 90
    33792
280
     0
281
     0
  0
CLASS
  1
ACMBOMSTANDARDISO
  2
AcmBOMStdISO
  3
"Amdt_StdImp|Product Description: AutoCAD Mechanical|Company: Autodesk, Inc."
 90
    33792
280
     0
281
     0
  0
CLASS
  1
ACMDETAILSTANDARDISO
  2
AmdtDetailSymStdISO
  3
"Amdt_StdImp|Product Description: AutoCAD Mechanical|Company: Autodesk, Inc."
 90
    33792
280
     0
281
     0
  0
CLASS
  1
ACMSECTIONSTANDARDISO
  2
AmdtSectionSymStdISO
  3
"Amdt_StdImp|Product Description: AutoCAD Mechanical|Company: Autodesk, Inc."
 90
    33792
280
     0
281
     0
  0
CLASS
  1
ACMCENTERLINESTANDARDISO
  2
AmdtCenterLineStdISO
  3
"Amdt_StdImp|Product Description: AutoCAD Mechanical|Company: Autodesk, Inc."
 90
    33792
280
     0
281
     0
  0
CLASS
  1
ACMNOTESTANDARDISO
  2
AmdtNoteStdISO
  3
"Amdt_StdImp|Product Description: AutoCAD Mechanical|Company: Autodesk, Inc."
 90
    33792
280
     0
281
     0
  0
CLASS
  1
ACAMGLAYSTD
  2
AcAmgLayStd
  3
"AmgLay|Product Description: AutoCAD Mechanical|Company: Autodesk, Inc."
 90
     1024
280
     0
281
     0
  0
CLASS
  1
ACAMGDIMSTD
  2
AcAmgDimStd
  3
"AmgDim|Product Description: AutoCAD Mechanical|Company: Autodesk, Inc."
 90
     1024
280
     0
281
     0
  0
CLASS
  1
ACAMGHOLECHARTSTDISO
  2
AcAmgHoleChartStdISO
  3
AmgDim|Product Description: AutoCAD Mechanical|Company: Autodesk, Inc.
 90
    33792
280
     0
281
     0
  0
CLASS
  1
ACAMGTITLESTD
  2
AcAmgTitleStd
  3
"AmgTitle|Product Description: AutoCAD Mechanical|Company: Autodesk, Inc."
 90
     4095
280
     0
281
     0
  0
CLASS
  1
LAYER_INDEX
  2
AcDbLayerIndex
  3
ObjectDBX Classes
 90
    32768
280
     0
281
     0
  0
CLASS
  1
IDBUFFER
  2
AcDbIdBuffer
  3
ObjectDBX Classes
 90
    32768
280
     0
281
     0
  0
CLASS
  1
DICTIONARYVAR
  2
AcDbDictionaryVar
  3
ObjectDBX Classes
 90
        0
280
     0
281
     0
  0
CLASS
  1
AM_DRAWING_MGR
  2
AcDmDwgMgr
  3
AcMechDwgViewMgmt
 90
     1024
280
     0
281
     0
  0
CLASS
  1
AM_DWG_DOCUMENT
  2
AcDmDwgDocument
  3
AcMechDwgViewMgmt
 90
     1024
280
     0
281
     0
  0
CLASS
  1
AM_DWG_SHEET
  2
AcDmSheet
  3
AcMechDwgViewMgmt
 90
     1024
280
     0
281
     0
  0
CLASS
  1
AM_VIEWDIMPARMAP
  2
AcDmViewDimParMap
  3
AcMechDwgViewMgmt
 90
     1024
280
     0
281
     0
  0
CLASS
  1
AM_DWGMGR_NAME
  2
AcDmDwgMgrName
  3
AcMechDwgViewMgmt
 90
     1024
280
     0
281
     0
  0
CLASS
  1
AMDTMENUSTATEMGR
  2
AmdtMenuStateMgr
  3
McadcomServices
 90
     1024
280
     0
281
     0
  0
CLASS
  1
AMDTMCOMMENUSTATE
  2
AmdtMcomMenuState
  3
McadcomServices
 90
     1024
280
     0
281
     0
  0
CLASS
  1
MAPIAMMOUDLE
  2
MApiAmModule
  3
MApiAmServices
 90
     1024
280
     0
281
     0
  0
CLASS
  1
AMDTADMENUSTATE
  2
AmdtAdMenuState
  3
DesignerServices
 90
    33792
280
     0
281
     0
  0
CLASS
  1
ADAPPL
  2
AcAdAppl
  3
DesignerAssemblies
 90
     1024
280
     0
281
     0
  0
CLASS
  1
DEPMGR
  2
AcAdDepMgr
  3
DesignerAssemblies
 90
     1024
280
     0
281
     0
  0
CLASS
  1
PARAMMGR
  2
AcAdParamMgr
  3
DesignerAssemblies
 90
     1024
280
     0
281
     0
  0
CLASS
  1
PARAMSCOPE
  2
AcAdParamScope
  3
DesignerAssemblies
 90
     1024
280
     0
281
     0
  0
CLASS
  1
NAMEDAPPL
  2
AcAdNamedAppl
  3
DesignerAssemblies
 90
     1024
280
     0
281
     0
  0
CLASS
  1
AMDTDMMENUSTATE
  2
AmdtDmMenuState
  3
AcMechDwgViewMgmt
 90
     1024
280
     0
281
     0
  0
CLASS
  1
AMDTAMMENUSTATE
  2
AmdtAmMenuState
  3
DesignerAssemblies
 90
     1024
280
     0
281
     0
  0
CLASS
  1
ACAMPROJECT
  2
AcAmProject
  3
DesignerAssemblies
 90
     1024
280
     0
281
     0
  0
CLASS
  1
ACAMGRCOMPDEF
  2
AcAmGrCompDef
  3
DesignerAssemblies
 90
     1024
280
     0
281
     0
  0
CLASS
  1
ACCMCONTEXT
  2
AcCmContext
  3
DesignerAssemblies
 90
     1024
280
     0
281
     0
  0
CLASS
  1
ACAMCOMPDEF
  2
AcAmCompDef
  3
DesignerAssemblies
 90
     1024
280
     0
281
     0
  0
CLASS
  1
ACAMCOMPDEFMGR
  2
AcAmCompDefMgr
  3
DesignerAssemblies
 90
     1024
280
     0
281
     0
  0
CLASS
  1
AMCONTEXTMGR
  2
AcAmContextMgr
  3
DesignerAssemblies
 90
     1024
280
     0
281
     0
  0
CLASS
  1
ACAMCONTEXTMODELER
  2
AcAmContextModeler
  3
DesignerAssemblies
 90
     1024
280
     0
281
     0
  0
CLASS
  1
ACMTHREADLINESTANDARDISO
  2
AmdtThreadLineStdISO
  3
"Amdt_StdImp|Product Description: AutoCAD Mechanical|Company: Autodesk, Inc."
 90
    33792
280
     0
281
     0
  0
CLASS
  1
CATALOGSTATE
  2
AcAmCatalogState
  3
DesignerAssemblies
 90
     1024
280
     0
281
     0
  0
CLASS
  1
ACAMGRCOMPDEFSET
  2
AcAmGrCompDefSet
  3
DesignerAssemblies
 90
     1024
280
     0
281
     0
  0
CLASS
  1
AMDTBROWSERDBTAB
  2
AmdtBrowserDbTab
  3
McadcomServices
 90
     1024
280
     0
281
     0
  0
CLASS
  1
CBROWSERAPPOBJECT
  2
CBrowserAppObject
  3
McadcomServices
 90
     1024
280
     0
281
     0
  0
CLASS
  1
DM_PLACEHOLDER
  2
AcDmSelsetPlaceholder
  3
AcMechDwgViewMgmt
 90
     1024
280
     0
281
     0
  0
CLASS
  1
TABLESTYLE
  2
AcDbTableStyle
  3
ObjectDBX Classes
 90
     4095
280
     0
281
     0
  0
CLASS
  1
VAACXREFPANELOBJECT
  2
VaAcXREFPanelObject
  3
VAAC_ADDIN
 90
    32768
280
     0
281
     0
  0
CLASS
  1
VAACIMAGEINVENTORY
  2
VaAcImageInventory
  3
VAAC_ADDIN
 90
    32768
280
     0
281
     0
  0
CLASS
  1
AMDTNOTETEMPLATEDB
  2
AmdtNoteTemplateDB
  3
AcmSymBB|Product Description: AutoCAD Mechanical|Company: Autodesk, Inc.
 90
     1024
280
     0
281
     0
  0
CLASS
  1
ACAMGFILTERDAT
  2
AcAmgFilterDat
  3
"AcadM|Product Description: AutoCAD Mechanical|Company: Autodesk, Inc."
 90
    33792
280
     0
281
     0
  0
CLASS
  1
ACMBOM
  2
AcmBom
  3
"AcmSymBB|Product Description: AutoCAD Mechanical|Company: Autodesk, Inc."
 90
    33792
280
     0
281
     0
  0
CLASS
  1
AMDTFORMULAUPDATEDISPATCHER
  2
AmdtFormulaUpdateDispatcher
  3
AcMeServices
 90
    33792
280
     0
281
     0
  0
CLASS
  1
ACMSTANDARDDIN
  2
AcmStandardDIN
  3
"Amdt_StdImp|Product Description: AutoCAD Mechanical|Company: Autodesk, Inc."
 90
     1024
280
     0
281
     0
  0
CLASS
  1
AMDTEDGESTANDARDDIN13715
  2
AmdtEdgeStdDIN13715
  3
"Amdt_StdImp|Product Description: AutoCAD Mechanical|Company: Autodesk, Inc."
 90
     1024
280
     0
281
     0
  0
CLASS
  1
ACMSURFSTANDARDDIN
  2
AcmSurfTextStdDIN
  3
"Amdt_StdImp|Product Description: AutoCAD Mechanical|Company: Autodesk, Inc."
 90
     1024
280
     0
281
     0
  0
CLASS
  1
ACMFCFSTANDARDDIN
  2
AcmFCFStdDIN
  3
"Amdt_StdImp|Product Description: AutoCAD Mechanical|Company: Autodesk, Inc."
 90
     1024
280
     0
281
     0
  0
CLASS
  1
ACMWELDSTANDARDDIN
  2
AcmWeldingStdDIN
  3
"Amdt_StdImp|Product Description: AutoCAD Mechanical|Company: Autodesk, Inc."
 90
     1024
280
     0
281
     0
  0
CLASS
  1
ACMIDSTANDARDDIN
  2
AcmIdStdDIN
  3
"Amdt_StdImp|Product Description: AutoCAD Mechanical|Company: Autodesk, Inc."
 90
     1024
280
     0
281
     0
  0
CLASS
  1
ACMDATUMSTANDARDDIN
  2
AcmDatumStdDIN
  3
"Amdt_StdImp|Product Description: AutoCAD Mechanical|Company: Autodesk, Inc."
 90
     1024
280
     0
281
     0
  0
CLASS
  1
ACMBOMSTANDARDDIN
  2
AcmBOMStdDIN
  3
"Amdt_StdImp|Product Description: AutoCAD Mechanical|Company: Autodesk, Inc."
 90
     1024
280
     0
281
     0
  0
CLASS
  1
ACMDETAILSTANDARDDIN
  2
AmdtDetailSymStdDIN
  3
"Amdt_StdImp|Product Description: AutoCAD Mechanical|Company: Autodesk, Inc."
 90
     1024
280
     0
281
     0
  0
CLASS
  1
ACMSECTIONSTANDARDDIN
  2
AmdtSectionSymStdDIN
  3
"Amdt_StdImp|Product Description: AutoCAD Mechanical|Company: Autodesk, Inc."
 90
     1024
280
     0
281
     0
  0
CLASS
  1
ACMCENTERLINESTANDARDDIN
  2
AmdtCenterLineStdDIN
  3
"Amdt_StdImp|Product Description: AutoCAD Mechanical|Company: Autodesk, Inc."
 90
     1024
280
     0
281
     0
  0
CLASS
  1
ACMTHREADLINESTANDARDDIN
  2
AmdtThreadLineStdDIN
  3
"Amdt_StdImp|Product Description: AutoCAD Mechanical|Company: Autodesk, Inc."
 90
     1024
280
     0
281
     0
  0
CLASS
  1
ACMNOTESTANDARDDIN
  2
AmdtNoteStdDIN
  3
"Amdt_StdImp|Product Description: AutoCAD Mechanical|Company: Autodesk, Inc."
 90
     1024
280
     0
281
     0
  0
CLASS
  1
ACAMGHOLECHARTSTDDIN
  2
AcAmgHoleChartStdDIN
  3
AmgDim|Product Description: AutoCAD Mechanical|Company: Autodesk, Inc.
 90
     1024
280
     0
281
     0
  0
CLASS
  1
ACRFATTGENMGR
  2
AcRfAttGeneralMgr
  3
AcAttribServices
 90
    33792
280
     0
281
     0
  0
CLASS
  1
SORTENTSTABLE
  2
AcDbSortentsTable
  3
ObjectDBX Classes
 90
        0
280
     0
281
     0
  0
CLASS
  1
DIMASSOC
  2
AcDbDimAssoc
  3
"AcDbDimAssoc|Product Desc:     AcDim ARX App For Dimension|Company:          Autodesk, Inc.|WEB Address:      www.autodesk.com"
 90
        0
280
     0
281
     0
  0
CLASS
  1
AC_AM_MVD_DEP_MGR
  2
AcAmMVDdepMgr
  3
DesignerAssemblies
 90
    33792
280
     0
281
     0
  0
CLASS
  1
AC_AM_MASTER_VIEW_DEF
  2
AcAmMasterViewDef
  3
DesignerAssemblies
 90
    33792
280
     0
281
     0
  0
CLASS
  1
AC_AM_DIRTY_NODES
  2
AcAmDirtyNodes
  3
DesignerAssemblies
 90
    33792
280
     0
281
     0
  0
CLASS
  1
AC_AM_MAPPER_CACHE
  2
AcAmMapperCache
  3
DesignerAssemblies
 90
    33792
280
     0
281
     0
  0
CLASS
  1
ACAMMVDBACKUPOBJECT
  2
AcAmMVDBackupObject
  3
DesignerAssemblies
 90
    33792
280
     0
281
     0
  0
CLASS
  1
AC_AM_2D_XREF_MGR
  2
AcAmXrefMgr2d
  3
DesignerAssemblies
 90
    33792
280
     0
281
     0
  0
CLASS
  1
AC_AM_HIDE_SITUATION
  2
AcAmHideSituation
  3
DesignerAssemblies
 90
    33792
280
     0
281
     0
  0
CLASS
  1
ACAMWBLOCKTEMPENTS
  2
AcAmStructInOutTempObjsHolder
  3
DesignerAssemblies
 90
    33792
280
     0
281
     0
  0
CLASS
  1
STDPART2D
  2
AmgStdPart
  3
AmgStdPart|Product Description: AutoCAD Mechanical|Company: Autodesk, Inc.
 90
     4095
280
     0
281
     1
  0
CLASS
  1
ACMDATAENTRYPART
  2
AcmDataEntryPart
  3
AcmSymBB|Product Description: AutoCAD Mechanical|Company: Autodesk, Inc.
 90
    33792
280
     0
281
     0
  0
CLASS
  1
ACMPARTREF
  2
AcmPartRef
  3
"AcmSymBB|Product Description: AutoCAD Mechanical|Company: Autodesk, Inc."
 90
    36863
280
     0
281
     1
  0
CLASS
  1
ACDBSTDPARTRES_LINE
  2
AcDbStdPartRes_Line
  3
AmgStdPart|Product Description: AutoCAD Mechanical|Company: Autodesk, Inc.
 90
    33792
280
     0
281
     0
  0
CLASS
  1
ACAD_EVALUATION_GRAPH
  2
AcDbEvalGraph
  3
ObjectDBX Classes
 90
    33921
280
     0
281
     0
  0
CLASS
  1
ACAECUSTOBJ
  2
AcAeEditorObj
  3
AcAeEditorObj
 90
    33792
280
     0
281
     0
  0
CLASS
  1
ACDB_DYNAMICBLOCKPURGEPREVENTER_VERSION
  2
AcDbDynamicBlockPurgePreventer
  3
ObjectDBX Classes
 90
    33921
280
     0
281
     0
  0
CLASS
  1
MATERIAL
  2
AcDbMaterial
  3
ObjectDBX Classes
 90
     1153
280
     0
281
     0
  0
CLASS
  1
VISUALSTYLE
  2
AcDbVisualStyle
  3
ObjectDBX Classes
 90
     4095
280
     0
281
     0
  0
CLASS
  1
SCALE
  2
AcDbScale
  3
ObjectDBX Classes
 90
     1153
280
     0
281
     0
  0
CLASS
  1
MLEADERSTYLE
  2
AcDbMLeaderStyle
  3
ACDB_MLEADERSTYLE_CLASS
 90
     4095
280
     0
281
     0
  0
CLASS
  1
ACMTAPERSTANDARDDIN
  2
AcmTaperStdDIN
  3
"Amdt_StdImp|Product Description: AutoCAD Mechanical|Company: Autodesk, Inc."
 90
     1024
280
     0
281
     0
  0
CLASS
  1
ACMANOOTATIONVIEWSTANDARDDIN
  2
AmdtAnViewStdDIN
  3
"Amdt_StdImp|Product Description: AutoCAD Mechanical|Company: Autodesk, Inc."
 90
     1024
280
     0
281
     0
  0
CLASS
  1
CAMSSTRUCTBTNSTATE
  2
StructBtnState
  3
DesignerAssemblies
 90
     1024
280
     0
281
     0
  0
CLASS
  1
CELLSTYLEMAP
  2
AcDbCellStyleMap
  3
ObjectDBX Classes
 90
     1152
280
     0
281
     0
  0
CLASS
  1
ACMSTANDARDANSI
  2
AcmStandardANSI
  3
"Amdt_StdImp|Product Description: AutoCAD Mechanical|Company: Autodesk, Inc."
 90
     1024
280
     0
281
     0
  0
CLASS
  1
ACMSURFSTANDARDANSI
  2
AcmSurfTextStdANSI
  3
"Amdt_StdImp|Product Description: AutoCAD Mechanical|Company: Autodesk, Inc."
 90
     1024
280
     0
281
     0
  0
CLASS
  1
ACMFCFSTANDARDANSI
  2
AcmFCFStdANSI
  3
"Amdt_StdImp|Product Description: AutoCAD Mechanical|Company: Autodesk, Inc."
 90
     1024
280
     0
281
     0
  0
CLASS
  1
ACMWELDSTANDARDANSI
  2
AcmWeldingStdANSI
  3
"Amdt_StdImp|Product Description: AutoCAD Mechanical|Company: Autodesk, Inc."
 90
     1024
280
     0
281
     0
  0
CLASS
  1
ACMIDSTANDARDANSI
  2
AcmIdStdANSI
  3
"Amdt_StdImp|Product Description: AutoCAD Mechanical|Company: Autodesk, Inc."
 90
     1024
280
     0
281
     0
  0
CLASS
  1
ACMDATUMSTANDARDANSI
  2
AcmDatumStdANSI
  3
"Amdt_StdImp|Product Description: AutoCAD Mechanical|Company: Autodesk, Inc."
 90
     1024
280
     0
281
     0
  0
CLASS
  1
ACMBOMSTANDARDANSI
  2
AcmBOMStdANSI
  3
"Amdt_StdImp|Product Description: AutoCAD Mechanical|Company: Autodesk, Inc."
 90
     1024
280
     0
281
     0
  0
CLASS
  1
ACMDETAILSTANDARDANSI
  2
AmdtDetailSymStdANSI
  3
"Amdt_StdImp|Product Description: AutoCAD Mechanical|Company: Autodesk, Inc."
 90
     1024
280
     0
281
     0
  0
CLASS
  1
ACMSECTIONSTANDARDANSI
  2
AmdtSectionSymStdANSI
  3
"Amdt_StdImp|Product Description: AutoCAD Mechanical|Company: Autodesk, Inc."
 90
     1024
280
     0
281
     0
  0
CLASS
  1
ACMCENTERLINESTANDARDANSI
  2
AmdtCenterLineStdANSI
  3
"Amdt_StdImp|Product Description: AutoCAD Mechanical|Company: Autodesk, Inc."
 90
     1024
280
     0
281
     0
  0
CLASS
  1
ACMTHREADLINESTANDARDANSI
  2
AmdtThreadLineStdANSI
  3
"Amdt_StdImp|Product Description: AutoCAD Mechanical|Company: Autodesk, Inc."
 90
     1024
280
     0
281
     0
  0
CLASS
  1
ACMNOTESTANDARDANSI
  2
AmdtNoteStdANSI
  3
"Amdt_StdImp|Product Description: AutoCAD Mechanical|Company: Autodesk, Inc."
 90
     1024
280
     0
281
     0
  0
CLASS
  1
ACMTAPERSTANDARDANSI
  2
AcmTaperStdANSI
  3
"Amdt_StdImp|Product Description: AutoCAD Mechanical|Company: Autodesk, Inc."
 90
     1024
280
     0
281
     0
  0
CLASS
  1
ACMANOOTATIONVIEWSTANDARDANSI
  2
AmdtAnViewStdANSI
  3
"Amdt_StdImp|Product Description: AutoCAD Mechanical|Company: Autodesk, Inc."
 90
     1024
280
     0
281
     0
  0
CLASS
  1
ACAMGHOLECHARTSTDANSI
  2
AcAmgHoleChartStdANSI
  3
AmgDim|Product Description: AutoCAD Mechanical|Company: Autodesk, Inc.
 90
     1024
280
     0
281
     0
  0
ENDSEC
  0
SECTION
  2
TABLES
  0
TABLE
  2
VPORT
  5
8
330
0
100
AcDbSymbolTable
 70
     1
  0
VPORT
  5
1A193
330
8
100
AcDbSymbolTableRecord
100
AcDbViewportTableRecord
  2
*Active
 70
     0
 10
0.0
 20
0.0
 11
1.0
 21
1.0
 12
24427.99681647728
 22
824.0878854806833
 13
0.0
 23
0.0
 14
2.5
 24
2.5
 15
10.0
 25
10.0
 16
0.0
 26
0.0
 36
1.0
 17
0.0
 27
0.0
 37
0.0
 40
1521.015729729444
 41
1.840464104423495
 42
50.0
 43
0.0
 44
0.0
 50
0.0
 51
0.0
 71
     0
 72
   100
 73
     1
 74
     3
 75
     0
 76
     0
 77
     0
 78
     0
281
     0
 65
     0
110
0.0
120
0.0
130
0.0
111
1.0
121
0.0
131
0.0
112
0.0
122
1.0
132
0.0
 79
     0
146
0.0
  0
ENDTAB
  0
TABLE
  2
LTYPE
  5
5
330
0
100
AcDbSymbolTable
 70
    19
  0
LTYPE
  5
14
330
5
100
AcDbSymbolTableRecord
100
AcDbLinetypeTableRecord
  2
ByBlock
 70
     0
  3

 72
    65
 73
     0
 40
0.0
  0
LTYPE
  5
15
330
5
100
AcDbSymbolTableRecord
100
AcDbLinetypeTableRecord
  2
ByLayer
 70
     0
  3

 72
    65
 73
     0
 40
0.0
  0
LTYPE
  5
16
330
5
100
AcDbSymbolTableRecord
100
AcDbLinetypeTableRecord
  2
Continuous
 70
     0
  3
Solid line
 72
    65
 73
     0
 40
0.0
  0
LTYPE
  5
67
330
5
100
AcDbSymbolTableRecord
100
AcDbLinetypeTableRecord
  2
Amconstr
 70
     0
  3
_______________________
 72
    65
 73
     2
 40
9999.0
 49
9999.0
 74
     0
 49
0.0
 74
     0
  0
LTYPE
  5
6C
330
5
100
AcDbSymbolTableRecord
100
AcDbLinetypeTableRecord
  2
Amzigzag
 70
     0
  3
/\/-/\/-/\/-/\/-/\/-/\/
 72
    65
 73
     2
 40
11.0001
 49
0.0001
 74
     4
 75
   136
340
22C
 46
0.04
 50
0.0
 44
0.0
 45
0.0
 49
-11.0
 74
     0
  0
LTYPE
  5
7E
330
5
100
AcDbSymbolTableRecord
100
AcDbLinetypeTableRecord
  2
CENTER
 70
     0
  3
__ . __
 72
    65
 73
     4
 40
7.0
 49
4.0
 74
     0
 49
-1.0
 74
     0
 49
1.0
 74
     0
 49
-1.0
 74
     0
  0
LTYPE
  5
D8
330
5
100
AcDbSymbolTableRecord
100
AcDbLinetypeTableRecord
  2
HIDDEN
 70
     0
  3
Hidden __ __ __ __ __ __ __ __ __ __ __ __ __ _
 72
    65
 73
     2
 40
9.524999999999996
 49
6.349999999999997
 74
     0
 49
-3.174999999999998
 74
     0
  0
LTYPE
  5
D9
330
5
100
AcDbSymbolTableRecord
100
AcDbLinetypeTableRecord
  2
PHANTOM2
 70
     0
  3
Phantom (.5x) ___ _ _ ___ _ _ ___ _ _ ___ _ _
 72
    65
 73
     6
 40
31.75
 49
15.875
 74
     0
 49
-3.174999999999998
 74
     0
 49
3.174999999999998
 74
     0
 49
-3.174999999999998
 74
     0
 49
3.174999999999998
 74
     0
 49
-3.174999999999998
 74
     0
  0
LTYPE
  5
2E3
330
5
100
AcDbSymbolTableRecord
100
AcDbLinetypeTableRecord
  2
ACDINWELD
 70
     0
  3
_ _ _ _ _
 72
    65
 73
     2
 40
2.0
 49
2.0
 74
     0
 49
-1.0
 74
     0
  0
LTYPE
  5
2E4
330
5
100
AcDbSymbolTableRecord
100
AcDbLinetypeTableRecord
  2
ACDINTGB
 70
     0
  3
__ . . __ . .
 72
    65
 73
     6
 40
9.0
 49
4.0
 74
     0
 49
-1.0
 74
     0
 49
1.0
 74
     0
 49
-1.0
 74
     0
 49
1.0
 74
     0
 49
-1.0
 74
     0
  0
LTYPE
  5
2E5
330
5
100
AcDbSymbolTableRecord
100
AcDbLinetypeTableRecord
  2
ACDINTGL
 70
     0
  3
_ _ _ _ _
 72
    65
 73
     2
 40
3.0
 49
2.0
 74
     0
 49
-1.0
 74
     0
  0
LTYPE
  5
31F
330
5
100
AcDbSymbolTableRecord
100
AcDbLinetypeTableRecord
  2
AM_DIN_F_W050
 70
     0
  3
__ __ __ __ __ __ __ __ __ __ __ __ __ __ __
 72
    65
 73
     2
 40
6.25
 49
4.75
 74
     0
 49
-1.5
 74
     0
  0
LTYPE
  5
320
330
5
100
AcDbSymbolTableRecord
100
AcDbLinetypeTableRecord
  2
AM_DIN_G_W050
 70
     0
  3
____ . ____ . ____ . ____ . ____ . ____ . ____
 72
    65
 73
     4
 40
13.75
 49
9.75
 74
     0
 49
-1.5
 74
     0
 49
1.0
 74
     0
 49
-1.5
 74
     0
  0
LTYPE
  5
321
330
5
100
AcDbSymbolTableRecord
100
AcDbLinetypeTableRecord
  2
AM_DIN_K_W050
 70
     0
  3
_____ . . _____ . . _____ . . ____ .. ____
 72
    65
 73
     6
 40
16.25
 49
9.75
 74
     0
 49
-1.5
 74
     0
 49
1.0
 74
     0
 49
-1.5
 74
     0
 49
1.0
 74
     0
 49
-1.5
 74
     0
  0
LTYPE
  5
322
330
5
100
AcDbSymbolTableRecord
100
AcDbLinetypeTableRecord
  2
AM_DIN_G_W050x2
 70
     0
  3
__ . __ . __ . __ . __ . __
 72
    65
 73
     4
 40
6.875
 49
4.75
 74
     0
 49
-0.875
 74
     0
 49
0.375
 74
     0
 49
-0.875
 74
     0
  0
LTYPE
  5
323
330
5
100
AcDbSymbolTableRecord
100
AcDbLinetypeTableRecord
  2
AM_DIN_F_W050x2
 70
     0
  3
 _ _ _ _ _ _ _ _ _ _ _ _
 72
    65
 73
     2
 40
3.125
 49
2.25
 74
     0
 49
-0.875
 74
     0
  0
LTYPE
  5
1AA02
330
5
100
AcDbSymbolTableRecord
100
AcDbLinetypeTableRecord
  2
CENTER2
 70
     0
  3
Center (.5x) ___ _ ___ _ ___ _ ___ _ ___ _ ___
 72
    65
 73
     4
 40
1.125
 49
0.75
 74
     0
 49
-0.125
 74
     0
 49
0.125
 74
     0
 49
-0.125
 74
     0
  0
LTYPE
  5
1AA03
330
5
100
AcDbSymbolTableRecord
100
AcDbLinetypeTableRecord
  2
HIDDEN2
 70
     0
  3
Hidden (.5x) _ _ _ _ _ _ _ _ _ _ _ _ _ _ _ _ _
 72
    65
 73
     2
 40
0.1875
 49
0.125
 74
     0
 49
-0.0625
 74
     0
  0
LTYPE
  5
1AA04
330
5
100
AcDbSymbolTableRecord
100
AcDbLinetypeTableRecord
  2
Amzigzag2
 70
     0
  3
/\/-/\/-/\/-/\/-/\/-/\/
 72
    65
 73
     2
 40
0.4401
 49
0.0001
 74
     4
 75
   136
340
22C
 46
0.0016
 50
0.0
 44
0.0
 45
0.0
 49
-0.4400000000000001
 74
     0
  0
LTYPE
  5
1AA05
330
5
100
AcDbSymbolTableRecord
100
AcDbLinetypeTableRecord
  2
ACANSTGB
 70
     0
  3
__ . . __ . .
 72
    65
 73
     6
 40
0.35433070866
 49
0.15748031496
 74
     0
 49
-0.03937007874
 74
     0
 49
0.03937007874
 74
     0
 49
-0.03937007874
 74
     0
 49
0.03937007874
 74
     0
 49
-0.03937007874
 74
     0
  0
LTYPE
  5
1AA06
330
5
100
AcDbSymbolTableRecord
100
AcDbLinetypeTableRecord
  2
ACANSTGL
 70
     0
  3
_ _ _ _ _
 72
    65
 73
     2
 40
0.11811023622
 49
0.07874015748
 74
     0
 49
-0.03937007874
 74
     0
  0
ENDTAB
  0
TABLE
  2
LAYER
  5
2
102
{ACAD_XDICTIONARY
360
5E1
102
}
330
0
100
AcDbSymbolTable
 70
     9
  0
LAYER
  5
10
102
{ACAD_XDICTIONARY
360
1A4F2
102
}
330
2
100
AcDbSymbolTableRecord
100
AcDbLayerTableRecord
  2
0
 70
     0
 62
     7
  6
Continuous
370
    -3
390
F
  0
LAYER
  5
1080A
102
{ACAD_XDICTIONARY
360
1A4F6
102
}
330
2
100
AcDbSymbolTableRecord
100
AcDbLayerTableRecord
  2
AM_5
 70
     0
 62
     3
  6
Continuous
370
    25
390
F
1001
AcAecLayerStandard
1000

1000

  0
LAYER
  5
1081A
330
2
100
AcDbSymbolTableRecord
100
AcDbLayerTableRecord
  2
Defpoints
 70
     0
 62
     7
  6
Continuous
290
     0
370
    -3
390
F
  0
LAYER
  5
1B8F1
330
2
100
AcDbSymbolTableRecord
100
AcDbLayerTableRecord
  2
AM_0
 70
     0
 62
     7
  6
Continuous
370
    50
390
F
1001
AcAecLayerStandard
1000

1000

  0
LAYER
  5
1B919
330
2
100
AcDbSymbolTableRecord
100
AcDbLayerTableRecord
  2
AM_0N
 70
     0
 62
     7
  6
Continuous
370
    50
390
F
1001
AcAecLayerStandard
1000

1000

  0
LAYER
  5
1B91A
330
2
100
AcDbSymbolTableRecord
100
AcDbLayerTableRecord
  2
AM_9
 70
     0
 62
  -253
  6
Continuous
370
     0
390
F
1001
AcAecLayerStandard
1000

1000

  0
LAYER
  5
1B91B
330
2
100
AcDbSymbolTableRecord
100
AcDbLayerTableRecord
  2
AM_7N
 70
     0
 62
     4
  6
AM_DIN_G_W050
370
    25
390
F
1001
AcAecLayerStandard
1000

1000

  0
LAYER
  5
1B91C
330
2
100
AcDbSymbolTableRecord
100
AcDbLayerTableRecord
  2
AM_4N
 70
     0
 62
     3
  6
Continuous
370
    25
390
F
1001
AcAecLayerStandard
1000

1000

  0
LAYER
  5
1B91D
330
2
100
AcDbSymbolTableRecord
100
AcDbLayerTableRecord
  2
AM_9N
 70
     0
 62
  -253
  6
Continuous
370
     0
390
F
1001
AcAecLayerStandard
1000

1000

  0
ENDTAB
  0
TABLE
  2
STYLE
  5
3
330
0
100
AcDbSymbolTable
 70
     5
  0
STYLE
  5
11
330
3
100
AcDbSymbolTableRecord
100
AcDbTextStyleTableRecord
  2
STANDARD
 70
     0
 40
0.0
 41
1.0
 50
0.0
 71
     0
 42
2.5
  3
ARIAL.TTF
  4

1001
ACAD
1000
Arial
1071
       34
  0
STYLE
  5
22C
330
3
100
AcDbSymbolTableRecord
100
AcDbTextStyleTableRecord
  2

 70
     1
 40
0.0
 41
1.0
 50
0.0
 71
     0
 42
2.5
  3
genltshp.shx
  4

  0
STYLE
  5
2D5
330
3
100
AcDbSymbolTableRecord
100
AcDbTextStyleTableRecord
  2
ACDINTS
 70
     0
 40
1.0
 41
1.0
 50
0.0
 71
     0
 42
2.5
  3
isocp.shx
  4

  0
STYLE
  5
2E2
330
3
100
AcDbSymbolTableRecord
100
AcDbTextStyleTableRecord
  2
ACDINGDT
 70
     0
 40
0.0
 41
1.0
 50
0.0
 71
     0
 42
2.5
  3
AMGDT
  4

  0
STYLE
  5
1AA09
330
3
100
AcDbSymbolTableRecord
100
AcDbTextStyleTableRecord
  2
ACANSGDT
 70
     0
 40
0.0
 41
1.0
 50
0.0
 71
     0
 42
0.2
  3
amgdt.shx
  4

  0
ENDTAB
  0
TABLE
  2
VIEW
  5
6
330
0
100
AcDbSymbolTable
 70
     0
  0
ENDTAB
  0
TABLE
  2
UCS
  5
7
330
0
100
AcDbSymbolTable
 70
     0
  0
ENDTAB
  0
TABLE
  2
APPID
  5
9
330
0
100
AcDbSymbolTable
 70
    77
  0
APPID
  5
12
330
9
100
AcDbSymbolTableRecord
100
AcDbRegAppTableRecord
  2
ACAD
 70
     0
  0
APPID
  5
46
330
9
100
AcDbSymbolTableRecord
100
AcDbRegAppTableRecord
  2
MCAD_NO_VIS
 70
     0
  0
APPID
  5
47
330
9
100
AcDbSymbolTableRecord
100
AcDbRegAppTableRecord
  2
ACAD_TEMP_GRAPHIC
 70
     0
  0
APPID
  5
58
330
9
100
AcDbSymbolTableRecord
100
AcDbRegAppTableRecord
  2
ACATTRIBSERVICES
 70
     0
  0
APPID
  5
EE
330
9
100
AcDbSymbolTableRecord
100
AcDbRegAppTableRecord
  2
AD_DRAW
 70
     0
  0
APPID
  5
10C
330
9
100
AcDbSymbolTableRecord
100
AcDbRegAppTableRecord
  2
DESIGNERASSEMBLIES
 70
     0
  0
APPID
  5
111
330
9
100
AcDbSymbolTableRecord
100
AcDbRegAppTableRecord
  2
ACADM_DIM_EDIT
 70
     0
  0
APPID
  5
112
330
9
100
AcDbSymbolTableRecord
100
AcDbRegAppTableRecord
  2
AMDT_DM_ADJ
 70
     0
  0
APPID
  5
1A3
330
9
100
AcDbSymbolTableRecord
100
AcDbRegAppTableRecord
  2
ACAD_DSTYLE_DIMARC_LENGTH_SYMBOL
 70
     0
  0
APPID
  5
1A4
330
9
100
AcDbSymbolTableRecord
100
AcDbRegAppTableRecord
  2
ACAD_DSTYLE_DIMJOGGED_JOGANGLE_SYMBOL
 70
     0
  0
APPID
  5
5D4
330
9
100
AcDbSymbolTableRecord
100
AcDbRegAppTableRecord
  2
ACAD_PSEXT
 70
     0
  0
APPID
  5
5D5
330
9
100
AcDbSymbolTableRecord
100
AcDbRegAppTableRecord
  2
GENIUS_GENOENT_13
 70
     0
  0
APPID
  5
5D6
330
9
100
AcDbSymbolTableRecord
100
AcDbRegAppTableRecord
  2
GENIUS_VERSION2
 70
     0
  0
APPID
  5
5D7
330
9
100
AcDbSymbolTableRecord
100
AcDbRegAppTableRecord
  2
GENIUS_GENREC_14
 70
     0
  0
APPID
  5
5D8
330
9
100
AcDbSymbolTableRecord
100
AcDbRegAppTableRecord
  2
GENIUS_GENODEF_13
 70
     0
  0
APPID
  5
5D9
330
9
100
AcDbSymbolTableRecord
100
AcDbRegAppTableRecord
  2
GENIUS_GENOBJ-N-REC_13
 70
     0
  0
APPID
  5
5DA
330
9
100
AcDbSymbolTableRecord
100
AcDbRegAppTableRecord
  2
GENIUS_GENTRA_14
 70
     0
  0
APPID
  5
5DB
330
9
100
AcDbSymbolTableRecord
100
AcDbRegAppTableRecord
  2
GENIUS_GENOBJ-N-TIT_13
 70
     0
  0
APPID
  5
5DC
330
9
100
AcDbSymbolTableRecord
100
AcDbRegAppTableRecord
  2
GENIUS_GENTITLE_13
 70
     0
  0
APPID
  5
5DD
330
9
100
AcDbSymbolTableRecord
100
AcDbRegAppTableRecord
  2
GENIUS_GENOREF_13
 70
     0
  0
APPID
  5
5DE
330
9
100
AcDbSymbolTableRecord
100
AcDbRegAppTableRecord
  2
GENIUS_GENOLIS_13
 70
     0
  0
APPID
  5
5DF
330
9
100
AcDbSymbolTableRecord
100
AcDbRegAppTableRecord
  2
GENIUS_GENOBJ-N-SDF_13
 70
     0
  0
APPID
  5
5E0
330
9
100
AcDbSymbolTableRecord
100
AcDbRegAppTableRecord
  2
GENIUS_GENSCREG_15
 70
     0
  0
APPID
  5
2FBB
330
9
100
AcDbSymbolTableRecord
100
AcDbRegAppTableRecord
  2
GENIUS_GENOBJ-N-CRS_13
 70
     0
  0
APPID
  5
2FBC
330
9
100
AcDbSymbolTableRecord
100
AcDbRegAppTableRecord
  2
GENIUS_GENOBJ-N-CEN_13
 70
     0
  0
APPID
  5
2FBD
330
9
100
AcDbSymbolTableRecord
100
AcDbRegAppTableRecord
  2
GENIUS_GENOBJ-N-HTC_13
 70
     0
  0
APPID
  5
2FBE
330
9
100
AcDbSymbolTableRecord
100
AcDbRegAppTableRecord
  2
GENIUS_GENHATCH_13
 70
     0
  0
APPID
  5
2FBF
330
9
100
AcDbSymbolTableRecord
100
AcDbRegAppTableRecord
  2
GENIUS_GENBH_13
 70
     0
  0
APPID
  5
2FC0
330
9
100
AcDbSymbolTableRecord
100
AcDbRegAppTableRecord
  2
GENIUS_GENOBJ-NBEHI-BHF_13
 70
     0
  0
APPID
  5
2FC1
330
9
100
AcDbSymbolTableRecord
100
AcDbRegAppTableRecord
  2
GENIUS_GENOBJ-F-PART_13
 70
     0
  0
APPID
  5
2FC2
330
9
100
AcDbSymbolTableRecord
100
AcDbRegAppTableRecord
  2
GENIUS_GEFSTDP_13
 70
     0
  0
APPID
  5
2FC3
330
9
100
AcDbSymbolTableRecord
100
AcDbRegAppTableRecord
  2
GEVPT
 70
     0
  0
APPID
  5
2FC4
330
9
100
AcDbSymbolTableRecord
100
AcDbRegAppTableRecord
  2
GEVIT
 70
     0
  0
APPID
  5
2FC5
330
9
100
AcDbSymbolTableRecord
100
AcDbRegAppTableRecord
  2
VCC
 70
     0
  0
APPID
  5
2FC6
330
9
100
AcDbSymbolTableRecord
100
AcDbRegAppTableRecord
  2
GENBH
 70
     0
  0
APPID
  5
2FC7
330
9
100
AcDbSymbolTableRecord
100
AcDbRegAppTableRecord
  2
GEVMK
 70
     0
  0
APPID
  5
2FC8
330
9
100
AcDbSymbolTableRecord
100
AcDbRegAppTableRecord
  2
GENIUS_GEFPARTINS_13
 70
     0
  0
APPID
  5
2FC9
330
9
100
AcDbSymbolTableRecord
100
AcDbRegAppTableRecord
  2
GENIUS_GENOBJ-N-CRC_13
 70
     0
  0
APPID
  5
2FCA
330
9
100
AcDbSymbolTableRecord
100
AcDbRegAppTableRecord
  2
GENIUS_GENCRC_14
 70
     0
  0
APPID
  5
2FCB
330
9
100
AcDbSymbolTableRecord
100
AcDbRegAppTableRecord
  2
GEVID978597865
 70
     0
  0
APPID
  5
2FCC
330
9
100
AcDbSymbolTableRecord
100
AcDbRegAppTableRecord
  2
GEVID978597866
 70
     0
  0
APPID
  5
2FCD
330
9
100
AcDbSymbolTableRecord
100
AcDbRegAppTableRecord
  2
GEVID978597868
 70
     0
  0
APPID
  5
2FCE
330
9
100
AcDbSymbolTableRecord
100
AcDbRegAppTableRecord
  2
GENIUS_GENCEN_19
 70
     0
  0
APPID
  5
2FCF
330
9
100
AcDbSymbolTableRecord
100
AcDbRegAppTableRecord
  2
AcAecLayerStandard
 70
     0
  0
APPID
  5
5580
330
9
100
AcDbSymbolTableRecord
100
AcDbRegAppTableRecord
  2
GENIUS_FIRSTVISTXT_14
 70
     0
  0
APPID
  5
5581
330
9
100
AcDbSymbolTableRecord
100
AcDbRegAppTableRecord
  2
GENIUS_SECONDVISTXT_14
 70
     0
  0
APPID
  5
5582
330
9
100
AcDbSymbolTableRecord
100
AcDbRegAppTableRecord
  2
GENIUS_GENOBJ-N-FIL_13
 70
     0
  0
APPID
  5
5583
330
9
100
AcDbSymbolTableRecord
100
AcDbRegAppTableRecord
  2
GENIUS_GEFWELD_13
 70
     0
  0
APPID
  5
5584
330
9
100
AcDbSymbolTableRecord
100
AcDbRegAppTableRecord
  2
GENIUS_GENOBJ-NBEHI-BHB_13
 70
     0
  0
APPID
  5
5585
330
9
100
AcDbSymbolTableRecord
100
AcDbRegAppTableRecord
  2
GENIUS_GENOBJ-F-WELS_13
 70
     0
  0
APPID
  5
5586
330
9
100
AcDbSymbolTableRecord
100
AcDbRegAppTableRecord
  2
AMG_2DHIDE
 70
     0
  0
APPID
  5
5587
330
9
100
AcDbSymbolTableRecord
100
AcDbRegAppTableRecord
  2
GEVID992928022
 70
     0
  0
APPID
  5
5588
330
9
100
AcDbSymbolTableRecord
100
AcDbRegAppTableRecord
  2
GENIUS_GENOBJ-F-DESC_13
 70
     0
  0
APPID
  5
5589
330
9
100
AcDbSymbolTableRecord
100
AcDbRegAppTableRecord
  2
GENIUS_GEFDESC_14
 70
     0
  0
APPID
  5
558A
330
9
100
AcDbSymbolTableRecord
100
AcDbRegAppTableRecord
  2
GEVID992928023
 70
     0
  0
APPID
  5
558B
330
9
100
AcDbSymbolTableRecord
100
AcDbRegAppTableRecord
  2
GENIUS_GENOBJ-F-FEAT_13
 70
     0
  0
APPID
  5
558C
330
9
100
AcDbSymbolTableRecord
100
AcDbRegAppTableRecord
  2
GENIUS_GEFFEAT_14
 70
     0
  0
APPID
  5
7580
330
9
100
AcDbSymbolTableRecord
100
AcDbRegAppTableRecord
  2
ACAD_EXEMPT_FROM_CAD_STANDARDS
 70
     0
  0
APPID
  5
9403
330
9
100
AcDbSymbolTableRecord
100
AcDbRegAppTableRecord
  2
AMG_2DSTRUCT_BTR
 70
     0
  0
APPID
  5
B4E8
330
9
100
AcDbSymbolTableRecord
100
AcDbRegAppTableRecord
  2
ACAD_DSTYLE_DIMEXT_LENGTH
 70
     0
  0
APPID
  5
B4E9
330
9
100
AcDbSymbolTableRecord
100
AcDbRegAppTableRecord
  2
ACAD_DSTYLE_DIMEXT_ENABLED
 70
     0
  0
APPID
  5
DE63
330
9
100
AcDbSymbolTableRecord
100
AcDbRegAppTableRecord
  2
GENIUS_GENDIMSH_14
 70
     0
  0
APPID
  5
E2FA
330
9
100
AcDbSymbolTableRecord
100
AcDbRegAppTableRecord
  2
GEVID1210230727
 70
     0
  0
APPID
  5
E2FB
330
9
100
AcDbSymbolTableRecord
100
AcDbRegAppTableRecord
  2
GEVDC
 70
     0
  0
APPID
  5
10068
330
9
100
AcDbSymbolTableRecord
100
AcDbRegAppTableRecord
  2
ACAUTHENVIRON
 70
     0
  0
APPID
  5
1011A
330
9
100
AcDbSymbolTableRecord
100
AcDbRegAppTableRecord
  2
AcDbDynamicBlockTrueName
 70
     0
  0
APPID
  5
1011B
330
9
100
AcDbSymbolTableRecord
100
AcDbRegAppTableRecord
  2
AcDbDynamicBlockGUID
 70
     0
  0
APPID
  5
1011D
330
9
100
AcDbSymbolTableRecord
100
AcDbRegAppTableRecord
  2
ACDBBLOCKREPETAG
 70
     0
  0
APPID
  5
107E4
330
9
100
AcDbSymbolTableRecord
100
AcDbRegAppTableRecord
  2
ACAD_DSTYLE_DIMTEXT_FILL
 70
     0
  0
APPID
  5
107E7
330
9
100
AcDbSymbolTableRecord
100
AcDbRegAppTableRecord
  2
ACAD_DSTYLE_DIM_LINETYPE
 70
     0
  0
APPID
  5
107E8
330
9
100
AcDbSymbolTableRecord
100
AcDbRegAppTableRecord
  2
ACAD_DSTYLE_DIM_EXT1_LINETYPE
 70
     0
  0
APPID
  5
107E9
330
9
100
AcDbSymbolTableRecord
100
AcDbRegAppTableRecord
  2
ACAD_DSTYLE_DIM_EXT2_LINETYPE
 70
     0
  0
APPID
  5
10B47
330
9
100
AcDbSymbolTableRecord
100
AcDbRegAppTableRecord
  2
GEVID1210230728
 70
     0
  0
APPID
  5
11657
330
9
100
AcDbSymbolTableRecord
100
AcDbRegAppTableRecord
  2
GENIUS_GENDTOL_13
 70
     0
  0
APPID
  5
1A1D2
330
9
100
AcDbSymbolTableRecord
100
AcDbRegAppTableRecord
  2
ACAD_MLEADERVER
 70
     0
  0
APPID
  5
1A346
330
9
100
AcDbSymbolTableRecord
100
AcDbRegAppTableRecord
  2
ACAD_DSTYLE_DIMINSPECT
 70
     0
  0
APPID
  5
1B91E
330
9
100
AcDbSymbolTableRecord
100
AcDbRegAppTableRecord
  2
GENIUS_GENOBJ-F-SCPASSM_13
 70
     0
  0
ENDTAB
  0
TABLE
  2
DIMSTYLE
  5
A
330
0
100
AcDbSymbolTable
 70
    16
100
AcDbDimStyleTable
 71
     2
340
2EE
340
1A089
  0
DIMSTYLE
105
2EE
330
A
100
AcDbSymbolTableRecord
100
AcDbDimStyleTableRecord
  2
AM_DIN
 70
     0
  4
"
 41
65.0
 42
1.0
 43
10.0
 44
25.0
 47
0.1
 48
0.1
 73
     0
 74
     0
 77
     1
 78
     8
 79
     2
140
50.0
141
0.0
143
0.0393701
146
0.71
147
15.0
172
     1
176
   256
177
   256
178
     2
271
     0
272
     0
283
     0
284
     8
340
11
371
    -1
372
    -1
1001
ACAD_DSTYLE_DIMJOGGED_JOGANGLE_SYMBOL
1070
   384
1040
1.570796326794896
  0
DIMSTYLE
105
2FF
330
A
100
AcDbSymbolTableRecord
100
AcDbDimStyleTableRecord
  2
AM_DIN$3
 70
     0
  4
"
 41
65.0
 42
1.0
 43
10.0
 44
25.0
 47
0.1
 48
0.1
 73
     0
 77
     1
 78
     8
 79
     2
140
50.0
141
0.0
143
0.0393701
146
0.71
147
15.0
176
   256
177
   256
178
     2
271
     0
272
     0
283
     0
284
     8
288
     1
289
     0
340
11
371
    -1
372
    -1
1001
ACAD_DSTYLE_DIMJOGGED_JOGANGLE_SYMBOL
1070
   384
1040
1.570796326794896
  0
DIMSTYLE
105
304
330
A
100
AcDbSymbolTableRecord
100
AcDbDimStyleTableRecord
  2
AM_DIN$4
 70
     0
  4
"
 41
65.0
 42
1.0
 43
10.0
 44
25.0
 47
0.1
 48
0.1
 73
     0
 77
     1
 78
     8
 79
     2
140
50.0
141
0.0
143
0.0393701
146
0.71
147
15.0
176
   256
177
   256
178
     2
271
     0
272
     0
283
     0
284
     8
288
     1
289
     0
340
11
371
    -1
372
    -1
1001
ACAD_DSTYLE_DIMJOGGED_JOGANGLE_SYMBOL
1070
   384
1040
1.570796326794896
  0
DIMSTYLE
105
309
330
A
100
AcDbSymbolTableRecord
100
AcDbDimStyleTableRecord
  2
AM_DIN$6
 70
     0
  4
"
 41
65.0
 42
1.0
 43
10.0
 44
25.0
 47
0.1
 48
0.1
 73
     0
 74
     0
 78
     8
 79
     2
140
50.0
141
0.0
143
0.0393701
146
0.71
147
15.0
172
     1
176
   256
177
   256
178
     2
271
     0
272
     0
283
     0
284
     8
340
11
371
    -1
372
    -1
1001
ACAD_DSTYLE_DIMJOGGED_JOGANGLE_SYMBOL
1070
   384
1040
1.570796326794896
  0
DIMSTYLE
105
30E
330
A
100
AcDbSymbolTableRecord
100
AcDbDimStyleTableRecord
  2
AM_DIN$7
 70
     0
  4
"
 41
65.0
 42
1.0
 43
10.0
 44
25.0
 47
0.1
 48
0.1
 73
     0
 74
     0
 77
     1
 78
     8
 79
     2
140
5.0
141
0.0
143
0.0393701
146
0.71
147
15.0
172
     1
176
   256
177
   256
178
     2
271
     0
272
     0
283
     0
284
     8
340
11
371
    -1
372
    -1
1001
ACAD_DSTYLE_DIMJOGGED_JOGANGLE_SYMBOL
1070
   384
1040
1.570796326794896
  0
DIMSTYLE
105
313
330
A
100
AcDbSymbolTableRecord
100
AcDbDimStyleTableRecord
  2
AM_DIN$SF
 70
     0
  4
"
 41
2.5
 42
1.0
 43
10.0
 44
1.0
 47
0.1
 48
0.1
 73
     0
 74
     0
 75
     1
 76
     1
 77
     1
 78
     8
 79
     2
140
3.5
141
0.0
143
0.0393701
146
0.71
147
1.5
172
     1
176
   256
177
   256
178
     2
271
     2
272
     3
274
     4
283
     0
284
     8
340
11
371
    -1
372
    -1
1001
ACAD_DSTYLE_DIMJOGGED_JOGANGLE_SYMBOL
1070
   384
1040
1.570796326794896
  0
DIMSTYLE
105
318
330
A
100
AcDbSymbolTableRecord
100
AcDbDimStyleTableRecord
  2
AM_DIN$SH
 70
     0
  4
"
 41
2.5
 42
1.0
 43
10.0
 44
1.0
 47
0.1
 48
0.1
 73
     0
 74
     0
 75
     1
 76
     1
 77
     1
 78
     8
 79
     2
140
3.5
141
0.0
143
0.0393701
144
2.0
146
0.71
147
1.5
172
     1
173
     1
176
   256
177
   256
178
     2
271
     2
272
     3
274
     4
283
     0
284
     8
340
11
343
87
371
    -1
372
    -1
1001
ACAD_DSTYLE_DIMJOGGED_JOGANGLE_SYMBOL
1070
   384
1040
1.570796326794896
  0
DIMSTYLE
105
7C7E
330
A
100
AcDbSymbolTableRecord
100
AcDbDimStyleTableRecord
  2
AM_DIN$0
 70
     0
  4
"
 41
65.0
 42
1.0
 43
10.0
 44
25.0
 47
0.1
 48
0.1
 73
     0
 74
     0
 77
     1
 78
     8
 79
     2
140
50.0
141
0.0
143
0.0393701
146
0.71
147
15.0
172
     1
176
   256
177
   256
178
     2
271
     0
272
     0
283
     0
284
     8
340
11
371
    -1
372
    -1
1001
ACAD_DSTYLE_DIMJOGGED_JOGANGLE_SYMBOL
1070
   384
1040
1.570796326794896
  0
DIMSTYLE
105
1A089
330
A
100
AcDbSymbolTableRecord
100
AcDbDimStyleTableRecord
  2
GEN-ISO
 70
     0
  4
"
 40
10.0
 41
2.5
 42
1.0
 43
7.0
 44
1.0
 47
0.1
 48
0.1
 73
     0
 74
     0
 77
     1
 78
     8
140
3.5
141
0.0
143
0.0393701
146
0.71
147
0.6
172
     1
176
     3
177
     3
178
     2
271
     2
272
     2
283
     0
340
11
  0
DIMSTYLE
105
1A08A
102
{ACAD_REACTORS
330
1B738
330
1B7D0
330
1B79E
330
1B76B
330
1B803
102
}
330
A
100
AcDbSymbolTableRecord
100
AcDbDimStyleTableRecord
  2
GEN-ISO$0
 70
     0
  4
"
 40
10.0
 41
2.5
 42
1.0
 43
7.0
 44
1.0
 47
0.1
 48
0.1
 73
     0
 74
     0
 77
     1
 78
     8
140
3.5
141
0.0
143
0.0393701
146
0.71
147
0.6
172
     1
176
     3
177
     3
178
     2
271
     2
272
     2
283
     0
340
11
  0
DIMSTYLE
105
1AA0B
102
{ACAD_REACTORS
330
1AAFC
102
}
330
A
100
AcDbSymbolTableRecord
100
AcDbDimStyleTableRecord
  2
AM_ANSI
 70
     0
  4
mm
 41
0.12
 42
0.05
 43
0.5
 44
0.1
 47
0.1
 48
0.1
 78
     7
 79
     2
140
0.12
141
0.0
146
0.71
147
0.06
176
   256
177
   256
178
     2
274
     4
284
     7
340
11
371
    -1
372
    -1
1001
ACAD_DSTYLE_DIMARC_LENGTH_SYMBOL
1070
   379
1070
     1
1001
ACAD_DSTYLE_DIM_LINETYPE
1070
   380
1005
14
1001
ACAD_DSTYLE_DIM_EXT1_LINETYPE
1070
   381
1005
14
1001
ACAD_DSTYLE_DIM_EXT2_LINETYPE
1070
   382
1005
14
  0
DIMSTYLE
105
1AA0C
330
A
100
AcDbSymbolTableRecord
100
AcDbDimStyleTableRecord
  2
AM_ANSI$3
 70
     0
  4
mm
 41
0.12
 42
0.05
 43
0.5
 44
0.1
 47
0.1
 48
0.1
 78
     7
 79
     2
140
0.12
141
0.0
146
0.71
147
0.06
176
   256
177
   256
178
     2
274
     4
284
     7
288
     1
289
     0
340
11
371
    -1
372
    -1
1001
ACAD_DSTYLE_DIMARC_LENGTH_SYMBOL
1070
   379
1070
     1
1001
ACAD_DSTYLE_DIM_LINETYPE
1070
   380
1005
14
1001
ACAD_DSTYLE_DIM_EXT1_LINETYPE
1070
   381
1005
14
1001
ACAD_DSTYLE_DIM_EXT2_LINETYPE
1070
   382
1005
14
  0
DIMSTYLE
105
1AA0D
330
A
100
AcDbSymbolTableRecord
100
AcDbDimStyleTableRecord
  2
AM_ANSI$4
 70
     0
  4
mm
 41
0.12
 42
0.05
 43
0.5
 44
0.1
 47
0.1
 48
0.1
 78
     7
 79
     2
140
0.12
141
0.0
146
0.71
147
0.06
176
   256
177
   256
178
     2
274
     4
284
     7
288
     1
289
     0
340
11
371
    -1
372
    -1
1001
ACAD_DSTYLE_DIMARC_LENGTH_SYMBOL
1070
   379
1070
     1
1001
ACAD_DSTYLE_DIM_LINETYPE
1070
   380
1005
14
1001
ACAD_DSTYLE_DIM_EXT1_LINETYPE
1070
   381
1005
14
1001
ACAD_DSTYLE_DIM_EXT2_LINETYPE
1070
   382
1005
14
  0
DIMSTYLE
105
1AA0E
330
A
100
AcDbSymbolTableRecord
100
AcDbDimStyleTableRecord
  2
AM_ANSI$7
 70
     0
  4
mm
 41
0.12
 42
0.05
 43
0.5
 44
0.1
 47
0.1
 48
0.1
 78
     7
 79
     2
140
0.12
141
0.0
146
0.71
147
0.06
176
   256
177
   256
178
     2
274
     4
284
     7
340
11
371
    -1
372
    -1
1001
ACAD_DSTYLE_DIMARC_LENGTH_SYMBOL
1070
   379
1070
     1
1001
ACAD_DSTYLE_DIM_LINETYPE
1070
   380
1005
14
1001
ACAD_DSTYLE_DIM_EXT1_LINETYPE
1070
   381
1005
14
1001
ACAD_DSTYLE_DIM_EXT2_LINETYPE
1070
   382
1005
14
  0
DIMSTYLE
105
1AA0F
330
A
100
AcDbSymbolTableRecord
100
AcDbDimStyleTableRecord
  2
AM_ANSI$SF
 70
     0
  4
mm
 41
0.12
 42
0.05
 43
0.5
 44
0.1
 47
0.1
 48
0.1
 75
     1
 76
     1
 78
     7
 79
     2
140
0.12
141
0.0
146
0.71
147
0.06
176
   256
177
   256
178
     2
274
     4
284
     7
340
11
371
    -1
372
    -1
1001
ACAD_DSTYLE_DIMARC_LENGTH_SYMBOL
1070
   379
1070
     1
1001
ACAD_DSTYLE_DIM_LINETYPE
1070
   380
1005
14
1001
ACAD_DSTYLE_DIM_EXT1_LINETYPE
1070
   381
1005
14
1001
ACAD_DSTYLE_DIM_EXT2_LINETYPE
1070
   382
1005
14
  0
DIMSTYLE
105
1AA10
330
A
100
AcDbSymbolTableRecord
100
AcDbDimStyleTableRecord
  2
AM_ANSI$SH
 70
     0
  4
mm
 41
0.12
 42
0.05
 43
0.5
 44
0.1
 47
0.1
 48
0.1
 75
     1
 76
     1
 78
     7
 79
     2
140
0.12
141
0.0
146
0.71
147
0.06
173
     1
176
   256
177
   256
178
     2
274
     4
284
     7
340
11
343
87
371
    -1
372
    -1
1001
ACAD_DSTYLE_DIMARC_LENGTH_SYMBOL
1070
   379
1070
     1
1001
ACAD_DSTYLE_DIM_LINETYPE
1070
   380
1005
14
1001
ACAD_DSTYLE_DIM_EXT1_LINETYPE
1070
   381
1005
14
1001
ACAD_DSTYLE_DIM_EXT2_LINETYPE
1070
   382
1005
14
  0
ENDTAB
  0
TABLE
  2
BLOCK_RECORD
  5
1
330
0
100
AcDbSymbolTable
 70
    25
  0
BLOCK_RECORD
  5
1F
102
{ACAD_XDICTIONARY
360
8F
102
}
330
1
100
AcDbSymbolTableRecord
100
AcDbBlockTableRecord
  2
*Model_Space
340
22
  0
BLOCK_RECORD
  5
1B
330
1
100
AcDbSymbolTableRecord
100
AcDbBlockTableRecord
  2
*Paper_Space
340
1E
  0
BLOCK_RECORD
  5
23
330
1
100
AcDbSymbolTableRecord
100
AcDbBlockTableRecord
  2
*Paper_Space0
340
26
  0
BLOCK_RECORD
  5
87
102
{ACAD_XDICTIONARY
360
10117
102
}
330
1
100
AcDbSymbolTableRecord
100
AcDbBlockTableRecord
  2
GENAXEH
340
0
1001
AcDbDynamicBlockGUID
1000
{D68C792B-0B99-4E0B-8B7B-1EAC83B216F4}
1001
ACDBBLOCKREPETAG
1070
     1
1071
        0
  0
BLOCK_RECORD
  5
1B739
330
1
100
AcDbSymbolTableRecord
100
AcDbBlockTableRecord
  2
*D3
340
0
  0
BLOCK_RECORD
  5
1B76C
330
1
100
AcDbSymbolTableRecord
100
AcDbBlockTableRecord
  2
*D4
340
0
  0
BLOCK_RECORD
  5
1B79F
330
1
100
AcDbSymbolTableRecord
100
AcDbBlockTableRecord
  2
*D5
340
0
  0
BLOCK_RECORD
  5
1B7D1
330
1
100
AcDbSymbolTableRecord
100
AcDbBlockTableRecord
  2
*D6
340
0
  0
BLOCK_RECORD
  5
1B804
330
1
100
AcDbSymbolTableRecord
100
AcDbBlockTableRecord
  2
*D7
340
0
  0
BLOCK_RECORD
  5
1B9D1
330
1
100
AcDbSymbolTableRecord
100
AcDbBlockTableRecord
  2
*U9
340
0
  0
BLOCK_RECORD
  5
1B9D9
330
1
100
AcDbSymbolTableRecord
100
AcDbBlockTableRecord
  2
*U10
340
0
  0
BLOCK_RECORD
  5
1B9E3
330
1
100
AcDbSymbolTableRecord
100
AcDbBlockTableRecord
  2
*U11
340
0
  0
BLOCK_RECORD
  5
1B9F7
330
1
100
AcDbSymbolTableRecord
100
AcDbBlockTableRecord
  2
*U12
340
0
  0
BLOCK_RECORD
  5
1B9FF
330
1
100
AcDbSymbolTableRecord
100
AcDbBlockTableRecord
  2
*U13
340
0
  0
BLOCK_RECORD
  5
1BA09
330
1
100
AcDbSymbolTableRecord
100
AcDbBlockTableRecord
  2
*U14
340
0
  0
BLOCK_RECORD
  5
1BA1D
330
1
100
AcDbSymbolTableRecord
100
AcDbBlockTableRecord
  2
*U15
340
0
  0
BLOCK_RECORD
  5
1BA21
330
1
100
AcDbSymbolTableRecord
100
AcDbBlockTableRecord
  2
*U16
340
0
  0
BLOCK_RECORD
  5
1BA6B
330
1
100
AcDbSymbolTableRecord
100
AcDbBlockTableRecord
  2
*U17
340
0
  0
BLOCK_RECORD
  5
1BA72
330
1
100
AcDbSymbolTableRecord
100
AcDbBlockTableRecord
  2
*U18
340
0
  0
BLOCK_RECORD
  5
1BA7B
330
1
100
AcDbSymbolTableRecord
100
AcDbBlockTableRecord
  2
*U19
340
0
  0
BLOCK_RECORD
  5
1BA8E
330
1
100
AcDbSymbolTableRecord
100
AcDbBlockTableRecord
  2
*U20
340
0
  0
BLOCK_RECORD
  5
1BA95
330
1
100
AcDbSymbolTableRecord
100
AcDbBlockTableRecord
  2
*U21
340
0
  0
BLOCK_RECORD
  5
1BA9E
330
1
100
AcDbSymbolTableRecord
100
AcDbBlockTableRecord
  2
*U22
340
0
  0
BLOCK_RECORD
  5
1BAB1
330
1
100
AcDbSymbolTableRecord
100
AcDbBlockTableRecord
  2
*U23
340
0
  0
BLOCK_RECORD
  5
1BAB4
330
1
100
AcDbSymbolTableRecord
100
AcDbBlockTableRecord
  2
*U24
340
0
  0
ENDTAB
  0
ENDSEC
  0
SECTION
  2
BLOCKS
  0
BLOCK
  5
20
330
1F
100
AcDbEntity
  8
0
100
AcDbBlockBegin
  2
*Model_Space
 70
     2
 10
0.0
 20
0.0
 30
0.0
  3
*Model_Space
  1

  0
ENDBLK
  5
21
330
1F
100
AcDbEntity
  8
0
100
AcDbBlockEnd
  0
BLOCK
  5
1C
330
1B
100
AcDbEntity
 67
     1
  8
0
100
AcDbBlockBegin
  2
*Paper_Space
 70
     0
 10
0.0
 20
0.0
 30
0.0
  3
*Paper_Space
  1

  0
ENDBLK
  5
1D
330
1B
100
AcDbEntity
 67
     1
  8
0
100
AcDbBlockEnd
  0
BLOCK
  5
24
330
23
100
AcDbEntity
 67
     1
  8
0
100
AcDbBlockBegin
  2
*Paper_Space0
 70
     0
 10
0.0
 20
0.0
 30
0.0
  3
*Paper_Space0
  1

  0
ENDBLK
  5
25
330
23
100
AcDbEntity
 67
     1
  8
0
100
AcDbBlockEnd
  0
BLOCK
  5
2ADE
330
87
100
AcDbEntity
  8
0
100
AcDbBlockBegin
  2
GENAXEH
 70
     0
 10
0.0
 20
0.0
 30
0.0
  3
GENAXEH
  1

  0
ENDBLK
  5
2AE0
330
87
100
AcDbEntity
  8
0
100
AcDbBlockEnd
  0
BLOCK
  5
1B73A
330
1B739
100
AcDbEntity
  8
0
100
AcDbBlockBegin
  2
*D3
 70
     1
 10
0.0
 20
0.0
 30
0.0
  3
*D3
  1

  0
LINE
  5
1B87F
330
1B739
100
AcDbEntity
  8
AM_5
 62
     3
370
    -2
100
AcDbLine
 10
23637.7330024522
 20
1220.039284827029
 30
0.0
 11
23499.29974294691
 21
1220.039284827029
 31
0.0
  0
LINE
  5
1B880
330
1B739
100
AcDbEntity
  8
AM_5
 62
     3
370
    -2
100
AcDbLine
 10
23637.7330024522
 20
789.4572848270319
 30
0.0
 11
23499.29974294691
 21
789.4572848270319
 31
0.0
  0
LINE
  5
1B881
330
1B739
100
AcDbEntity
  8
AM_5
 62
     3
370
    -2
100
AcDbLine
 10
23509.2997429469
 20
1195.039284827029
 30
0.0
 11
23509.2997429469
 21
814.4572848270319
 31
0.0
  0
SOLID
  5
1B882
330
1B739
100
AcDbEntity
  8
AM_5
 62
     3
100
AcDbTrace
 10
23505.13307628024
 20
1195.039284827029
 30
0.0
 11
23513.46640961357
 21
1195.039284827029
 31
0.0
 12
23509.2997429469
 22
1220.039284827029
 32
0.0
 13
23509.2997429469
 23
1220.039284827029
 33
0.0
  0
SOLID
  5
1B883
330
1B739
100
AcDbEntity
  8
AM_5
 62
     3
100
AcDbTrace
 10
23505.13307628024
 20
814.4572848270319
 30
0.0
 11
23513.46640961357
 21
814.4572848270319
 31
0.0
 12
23509.2997429469
 22
789.4572848270319
 32
0.0
 13
23509.2997429469
 23
789.4572848270319
 33
0.0
  0
MTEXT
  5
1B884
330
1B739
100
AcDbEntity
  8
AM_5
 62
     2
100
AcDbMText
 10
23485.41775113244
 20
1004.748284827034
 30
0.0
 40
35.0
 41
0.0
 71
     5
 72
     1
  1
430
 11
0.0000000000000001
 21
1.0
 31
0.0
 73
     1
 44
1.0
1001
ACAD
1000
MTEXTBEGIN
1070
    73
1070
     1
1070
    44
1040
1.0
1070
    74
1070
     0
1000
MTEXTEND
  0
POINT
  5
1B885
330
1B739
100
AcDbEntity
  8
Defpoints
 62
     0
100
AcDbPoint
 10
23647.7330024522
 20
1220.039284827029
 30
0.0
  0
POINT
  5
1B886
330
1B739
100
AcDbEntity
  8
Defpoints
 62
     0
100
AcDbPoint
 10
23647.7330024522
 20
789.4572848270319
 30
0.0
  0
POINT
  5
1B887
330
1B739
100
AcDbEntity
  8
Defpoints
 62
     0
100
AcDbPoint
 10
23509.2997429469
 20
789.4572848270319
 30
0.0
  0
ENDBLK
  5
1B73B
330
1B739
100
AcDbEntity
  8
0
100
AcDbBlockEnd
  0
BLOCK
  5
1B76D
330
1B76C
100
AcDbEntity
  8
0
100
AcDbBlockBegin
  2
*D4
 70
     1
 10
0.0
 20
0.0
 30
0.0
  3
*D4
  1

  0
LINE
  5
1B8D2
330
1B76C
100
AcDbEntity
  8
AM_5
 62
     3
370
    -2
100
AcDbLine
 10
23799.83431509493
 20
1007.952079859939
 30
0.0
 11
23799.83431509493
 21
589.4061110676402
 31
0.0
  0
LINE
  5
1B8D3
330
1B76C
100
AcDbEntity
  8
AM_5
 62
     3
370
    -2
100
AcDbLine
 10
23579.24803362196
 20
1007.952736047444
 30
0.0
 11
23579.24803362196
 21
589.4061110676402
 31
0.0
  0
LINE
  5
1B8D4
330
1B76C
100
AcDbEntity
  8
AM_5
 62
     3
370
    -2
100
AcDbLine
 10
23774.83431509493
 20
599.4061110676402
 30
0.0
 11
23604.24803362196
 21
599.4061110676402
 31
0.0
  0
SOLID
  5
1B8D5
330
1B76C
100
AcDbEntity
  8
AM_5
 62
     3
100
AcDbTrace
 10
23774.83431509493
 20
603.5727777343069
 30
0.0
 11
23774.83431509493
 21
595.2394444009736
 31
0.0
 12
23799.83431509493
 22
599.4061110676402
 32
0.0
 13
23799.83431509493
 23
599.4061110676402
 33
0.0
  0
SOLID
  5
1B8D6
330
1B76C
100
AcDbEntity
  8
AM_5
 62
     3
100
AcDbTrace
 10
23604.24803362196
 20
603.5727777343069
 30
0.0
 11
23604.24803362196
 21
595.2394444009736
 31
0.0
 12
23579.24803362196
 22
599.4061110676402
 32
0.0
 13
23579.24803362196
 23
599.4061110676402
 33
0.0
  0
MTEXT
  5
1B8D7
330
1B76C
100
AcDbEntity
  8
AM_5
 62
     2
100
AcDbMText
 10
23689.54117435845
 20
623.2761656378994
 30
0.0
 40
35.0
 41
0.0
 71
     5
 72
     1
  1
240
 73
     1
 44
1.0
1001
ACAD
1000
MTEXTBEGIN
1070
    73
1070
     1
1070
    44
1040
1.0
1070
    74
1070
     0
1000
MTEXTEND
  0
POINT
  5
1B8D8
330
1B76C
100
AcDbEntity
  8
Defpoints
 62
     0
100
AcDbPoint
 10
23799.83431509493
 20
1017.952079859939
 30
0.0
  0
POINT
  5
1B8D9
330
1B76C
100
AcDbEntity
  8
Defpoints
 62
     0
100
AcDbPoint
 10
23579.24803362196
 20
1017.952736047444
 30
0.0
  0
POINT
  5
1B8DA
330
1B76C
100
AcDbEntity
  8
Defpoints
 62
     0
100
AcDbPoint
 10
23579.24803362196
 20
599.4061110676402
 30
0.0
  0
ENDBLK
  5
1B76E
330
1B76C
100
AcDbEntity
  8
0
100
AcDbBlockEnd
  0
BLOCK
  5
1B7A0
330
1B79F
100
AcDbEntity
  8
0
100
AcDbBlockBegin
  2
*D5
 70
     1
 10
0.0
 20
0.0
 30
0.0
  3
*D5
  1

  0
LINE
  5
1B8B7
330
1B79F
100
AcDbEntity
  8
AM_5
 62
     3
370
    -2
100
AcDbLine
 10
23884.3830024522
 20
788.0332848270328
 30
0.0
 11
23884.3830024522
 21
665.6650164391002
 31
0.0
  0
LINE
  5
1B8B8
330
1B79F
100
AcDbEntity
  8
AM_5
 62
     3
370
    -2
100
AcDbLine
 10
23974.8630024522
 20
788.0332848270328
 30
0.0
 11
23974.8630024522
 21
665.6650164391002
 31
0.0
  0
LINE
  5
1B8B9
330
1B79F
100
AcDbEntity
  8
AM_5
 62
     3
370
    -2
100
AcDbLine
 10
23909.3830024522
 20
675.6650164391003
 30
0.0
 11
23949.8630024522
 21
675.6650164391003
 31
0.0
  0
SOLID
  5
1B8BA
330
1B79F
100
AcDbEntity
  8
AM_5
 62
     3
100
AcDbTrace
 10
23909.3830024522
 20
679.8316831057669
 30
0.0
 11
23909.3830024522
 21
671.4983497724337
 31
0.0
 12
23884.3830024522
 22
675.6650164391003
 32
0.0
 13
23884.3830024522
 23
675.6650164391003
 33
0.0
  0
SOLID
  5
1B8BB
330
1B79F
100
AcDbEntity
  8
AM_5
 62
     3
100
AcDbTrace
 10
23949.8630024522
 20
679.8316831057669
 30
0.0
 11
23949.8630024522
 21
671.4983497724337
 31
0.0
 12
23974.8630024522
 22
675.6650164391003
 32
0.0
 13
23974.8630024522
 23
675.6650164391003
 33
0.0
  0
MTEXT
  5
1B8BC
330
1B79F
100
AcDbEntity
  8
AM_5
 62
     2
100
AcDbMText
 10
23929.6230024522
 20
699.5350710093595
 30
0.0
 40
35.0
 41
0.0
 71
     5
 72
     1
  1
90
 73
     1
 44
1.0
1001
ACAD
1000
MTEXTBEGIN
1070
    73
1070
     1
1070
    44
1040
1.0
1070
    74
1070
     0
1000
MTEXTEND
  0
POINT
  5
1B8BD
330
1B79F
100
AcDbEntity
  8
Defpoints
 62
     0
100
AcDbPoint
 10
23884.3830024522
 20
798.0332848270328
 30
0.0
  0
POINT
  5
1B8BE
330
1B79F
100
AcDbEntity
  8
Defpoints
 62
     0
100
AcDbPoint
 10
23974.8630024522
 20
798.0332848270328
 30
0.0
  0
POINT
  5
1B8BF
330
1B79F
100
AcDbEntity
  8
Defpoints
 62
     0
100
AcDbPoint
 10
23974.8630024522
 20
675.6650164391003
 30
0.0
  0
ENDBLK
  5
1B7A1
330
1B79F
100
AcDbEntity
  8
0
100
AcDbBlockEnd
  0
BLOCK
  5
1B7D2
330
1B7D1
100
AcDbEntity
  8
0
100
AcDbBlockBegin
  2
*D6
 70
     1
 10
0.0
 20
0.0
 30
0.0
  3
*D6
  1

  0
LINE
  5
1B8E4
330
1B7D1
100
AcDbEntity
  8
AM_5
 62
     3
370
    -2
100
AcDbLine
 10
23884.3830024522
 20
788.0332848270328
 30
0.0
 11
23884.3830024522
 21
589.4061110676402
 31
0.0
  0
LINE
  5
1B8E5
330
1B7D1
100
AcDbEntity
  8
AM_5
 62
     3
370
    -2
100
AcDbLine
 10
24110.00589723438
 20
1452.724443434585
 30
0.0
 11
24110.00589723438
 21
589.4061110676402
 31
0.0
  0
LINE
  5
1B8E6
330
1B7D1
100
AcDbEntity
  8
AM_5
 62
     3
370
    -2
100
AcDbLine
 10
23909.3830024522
 20
599.4061110676402
 30
0.0
 11
24085.00589723438
 21
599.4061110676402
 31
0.0
  0
SOLID
  5
1B8E7
330
1B7D1
100
AcDbEntity
  8
AM_5
 62
     3
100
AcDbTrace
 10
23909.3830024522
 20
603.5727777343069
 30
0.0
 11
23909.3830024522
 21
595.2394444009736
 31
0.0
 12
23884.3830024522
 22
599.4061110676402
 32
0.0
 13
23884.3830024522
 23
599.4061110676402
 33
0.0
  0
SOLID
  5
1B8E8
330
1B7D1
100
AcDbEntity
  8
AM_5
 62
     3
100
AcDbTrace
 10
24085.00589723438
 20
603.5727777343069
 30
0.0
 11
24085.00589723438
 21
595.2394444009736
 31
0.0
 12
24110.00589723438
 22
599.4061110676402
 32
0.0
 13
24110.00589723438
 23
599.4061110676402
 33
0.0
  0
MTEXT
  5
1B8E9
330
1B7D1
100
AcDbEntity
  8
AM_5
 62
     2
100
AcDbMText
 10
23997.19444984329
 20
623.2761656378994
 30
0.0
 40
35.0
 41
0.0
 71
     5
 72
     1
  1
225
 73
     1
 44
1.0
1001
ACAD
1000
MTEXTBEGIN
1070
    73
1070
     1
1070
    44
1040
1.0
1070
    74
1070
     0
1000
MTEXTEND
  0
POINT
  5
1B8EA
330
1B7D1
100
AcDbEntity
  8
Defpoints
 62
     0
100
AcDbPoint
 10
23884.3830024522
 20
798.0332848270328
 30
0.0
  0
POINT
  5
1B8EB
330
1B7D1
100
AcDbEntity
  8
Defpoints
 62
     0
100
AcDbPoint
 10
24110.00589723438
 20
1462.724443434585
 30
0.0
  0
POINT
  5
1B8EC
330
1B7D1
100
AcDbEntity
  8
Defpoints
 62
     0
100
AcDbPoint
 10
24110.00589723438
 20
599.4061110676402
 30
0.0
  0
ENDBLK
  5
1B7D3
330
1B7D1
100
AcDbEntity
  8
0
100
AcDbBlockEnd
  0
BLOCK
  5
1B805
330
1B804
100
AcDbEntity
  8
0
100
AcDbBlockBegin
  2
*D7
 70
     1
 10
0.0
 20
0.0
 30
0.0
  3
*D7
  1

  0
LINE
  5
1B8A4
330
1B804
100
AcDbEntity
  8
AM_5
 62
     3
370
    -2
100
AcDbLine
 10
24068.19196561306
 20
1015.059912357008
 30
0.0
 11
24194.90322105574
 21
1003.976484537436
 31
0.0
  0
LINE
  5
1B8A5
330
1B804
100
AcDbEntity
  8
AM_5
 62
     3
370
    -2
100
AcDbLine
 10
24107.4788160531
 20
1464.206712668608
 30
0.0
 11
24234.19007149577
 21
1453.123284849035
 31
0.0
  0
LINE
  5
1B8A6
330
1B804
100
AcDbEntity
  8
AM_5
 62
     3
370
    -2
100
AcDbLine
 10
24187.11968906993
 20
1029.752764909628
 30
0.0
 11
24222.04967715985
 21
1429.089749416888
 31
0.0
  0
SOLID
  5
1B8A7
330
1B804
100
AcDbEntity
  8
AM_5
 62
     3
100
AcDbTrace
 10
24182.96887108623
 20
1030.115836772137
 30
0.0
 11
24191.27050705363
 21
1029.389693047118
 31
0.0
 12
24184.94125789487
 22
1004.847857007458
 32
0.0
 13
24184.94125789487
 23
1004.847857007458
 33
0.0
  0
SOLID
  5
1B8A8
330
1B804
100
AcDbEntity
  8
AM_5
 62
     3
100
AcDbTrace
 10
24217.89885917616
 20
1429.452821279397
 30
0.0
 11
24226.20049514355
 21
1428.726677554378
 31
0.0
 12
24224.22810833491
 22
1453.994657319058
 32
0.0
 13
24224.22810833491
 23
1453.994657319058
 33
0.0
  0
MTEXT
  5
1B8A9
330
1B804
100
AcDbEntity
  8
AM_5
 62
     2
100
AcDbMText
 10
24180.80542268721
 20
1231.501228004306
 30
0.0
 40
35.0
 41
0.0
 71
     5
 72
     1
  1
470
 11
0.0871372470022363
 21
0.9961963160867798
 31
0.0
 73
     1
 44
1.0
1001
ACAD
1000
MTEXTBEGIN
1070
    73
1070
     1
1070
    44
1040
1.0
1070
    74
1070
     0
1000
MTEXTEND
  0
POINT
  5
1B8AA
330
1B804
100
AcDbEntity
  8
Defpoints
 62
     0
100
AcDbPoint
 10
24058.2300024522
 20
1015.931284827031
 30
0.0
  0
POINT
  5
1B8AB
330
1B804
100
AcDbEntity
  8
Defpoints
 62
     0
100
AcDbPoint
 10
24097.51685289223
 20
1465.07808513863
 30
0.0
  0
POINT
  5
1B8AC
330
1B804
100
AcDbEntity
  8
Defpoints
 62
     0
100
AcDbPoint
 10
24224.22810833491
 20
1453.994657319058
 30
0.0
  0
ENDBLK
  5
1B806
330
1B804
100
AcDbEntity
  8
0
100
AcDbBlockEnd
  0
BLOCK
  5
1B9D6
330
1B9D1
100
AcDbEntity
  8
0
100
AcDbBlockBegin
  2
*U9
 70
     1
 10
0.0
 20
0.0
 30
0.0
  3
*U9
  1

  0
LINE
  5
1B9D2
330
1B9D1
100
AcDbEntity
  8
AM_0N
100
AcDbLine
 10
23913.55258002082
 20
393.8460183537575
 30
0.0
 11
23913.55258002083
 21
379.8460183537575
 31
0.0
  0
LINE
  5
1B9D3
330
1B9D1
100
AcDbEntity
  8
AM_0N
100
AcDbLine
 10
23912.35258002083
 20
379.8460183537575
 30
0.0
 11
23912.35258002083
 21
393.8460183537575
 31
0.0
  0
LINE
  5
1B9D4
330
1B9D1
100
AcDbEntity
  8
AM_0N
100
AcDbLine
 10
23913.55258002083
 20
379.8460183537575
 30
0.0
 11
23912.35258002083
 21
379.8460183537575
 31
0.0
  0
LINE
  5
1B9D5
330
1B9D1
100
AcDbEntity
  8
AM_0N
100
AcDbLine
 10
23912.35258002083
 20
393.8460183537575
 30
0.0
 11
23913.55258002082
 21
393.8460183537575
 31
0.0
  0
ENDBLK
  5
1B9D7
330
1B9D1
100
AcDbEntity
  8
0
100
AcDbBlockEnd
  0
BLOCK
  5
1B9E0
330
1B9D9
100
AcDbEntity
  8
0
100
AcDbBlockBegin
  2
*U10
 70
     1
 10
0.0
 20
0.0
 30
0.0
  3
*U10
  1

  0
LINE
  5
1B9DA
330
1B9D9
100
AcDbEntity
  8
AM_0N
100
AcDbLine
 10
23909.15948445704
 20
378.8460183537579
 30
0.0
 11
23909.15948445704
 21
381.0960183537579
 31
0.0
  0
LINE
  5
1B9DB
330
1B9D9
100
AcDbEntity
  8
AM_9N
100
AcDbLine
 10
23909.15948445704
 20
381.0960183537579
 30
0.0
 11
23909.15948445704
 21
392.5960183537579
 31
0.0
  0
LINE
  5
1B9DC
330
1B9D9
100
AcDbEntity
  8
AM_0N
100
AcDbLine
 10
23909.15948445704
 20
392.5960183537579
 30
0.0
 11
23909.15948445704
 21
394.8460183537579
 31
0.0
  0
LINE
  5
1B9DD
330
1B9D9
100
AcDbEntity
  8
AM_0N
100
AcDbLine
 10
23910.75948445704
 20
394.8460183537579
 30
0.0
 11
23910.75948445704
 21
378.8460183537579
 31
0.0
  0
LINE
  5
1B9DE
330
1B9D9
100
AcDbEntity
  8
AM_0N
100
AcDbLine
 10
23909.15948445704
 20
394.8460183537579
 30
0.0
 11
23910.75948445704
 21
394.8460183537579
 31
0.0
  0
LINE
  5
1B9DF
330
1B9D9
100
AcDbEntity
  8
AM_0N
100
AcDbLine
 10
23910.75948445704
 20
378.8460183537579
 30
0.0
 11
23909.15948445704
 21
378.8460183537579
 31
0.0
  0
ENDBLK
  5
1B9E1
330
1B9D9
100
AcDbEntity
  8
0
100
AcDbBlockEnd
  0
BLOCK
  5
1B9F4
330
1B9E3
100
AcDbEntity
  8
0
100
AcDbBlockBegin
  2
*U11
 70
     1
 10
0.0
 20
0.0
 30
0.0
  3
*U11
  1

  0
ARC
  5
1B9E4
330
1B9E3
100
AcDbEntity
  8
AM_0N
100
AcDbCircle
 10
-23906.41134018177
 20
392.4766433537586
 30
0.0
 40
3.318843022839327
210
0.0
220
0.0
230
-1.0
100
AcDbArc
 50
325.561530595271
 51
25.5615305952737
  0
ARC
  5
1B9E5
330
1B9E3
100
AcDbEntity
  8
AM_0N
100
AcDbCircle
 10
-23905.4076287323
 20
392.4766433537586
 30
0.0
 40
3.318843022839327
210
0.0
220
0.0
230
-1.0
100
AcDbArc
 50
154.4384694047366
 51
214.4384694047352
  0
LINE
  5
1B9E6
330
1B9E3
100
AcDbEntity
  8
AM_0N
100
AcDbLine
 10
23902.65948445704
 20
392.5960183537588
 30
0.0
 11
23902.65948445704
 21
381.0960183537588
 31
0.0
  0
LINE
  5
1B9E7
330
1B9E3
100
AcDbEntity
  8
AM_0N
100
AcDbLine
 10
23909.15948445704
 20
392.5960183537579
 30
0.0
 11
23909.15948445704
 21
381.0960183537579
 31
0.0
  0
ARC
  5
1B9E8
330
1B9E3
100
AcDbEntity
  8
AM_0N
100
AcDbCircle
 10
-23906.41134018177
 20
381.2153933537581
 30
0.0
 40
3.318843022839327
210
0.0
220
0.0
230
-1.0
100
AcDbArc
 50
334.4384694047373
 51
34.43846940473521
  0
ARC
  5
1B9E9
330
1B9E3
100
AcDbEntity
  8
AM_0N
100
AcDbCircle
 10
-23915.49534865597
 20
386.846018353757
 30
0.0
 40
12.40285149704451
210
0.0
220
0.0
230
-1.0
100
AcDbArc
 50
342.3830311596203
 51
17.61696884039392
  0
ARC
  5
1B9EA
330
1B9E3
100
AcDbEntity
  8
AM_0N
100
AcDbCircle
 10
-23896.32362025809
 20
386.8460183537597
 30
0.0
 40
12.40285149704458
210
0.0
220
0.0
230
-1.0
100
AcDbArc
 50
162.3830311596204
 51
197.6169688403938
  0
ARC
  5
1B9EB
330
1B9E3
100
AcDbEntity
  8
AM_0N
100
AcDbCircle
 10
-23905.4076287323
 20
381.2153933537591
 30
0.0
 40
3.318843022839327
210
0.0
220
0.0
230
-1.0
100
AcDbArc
 50
145.5615305952711
 51
205.5615305952743
  0
LINE
  5
1B9EC
330
1B9E3
100
AcDbEntity
  8
AM_0N
100
AcDbLine
 10
23903.67417755514
 20
379.3385183537591
 30
0.0
 11
23902.65948445704
 21
381.0960183537588
 31
0.0
  0
LINE
  5
1B9ED
330
1B9E3
100
AcDbEntity
  8
AM_0N
100
AcDbLine
 10
23908.14479135893
 20
390.5997683537587
 30
0.0
 11
23903.67417755514
 21
390.5997683537587
 31
0.0
  0
LINE
  5
1B9EE
330
1B9E3
100
AcDbEntity
  8
AM_0N
100
AcDbLine
 10
23908.14479135894
 20
379.3385183537582
 30
0.0
 11
23909.15948445704
 21
381.0960183537579
 31
0.0
  0
LINE
  5
1B9EF
330
1B9E3
100
AcDbEntity
  8
AM_0N
100
AcDbLine
 10
23908.14479135894
 20
379.3385183537582
 30
0.0
 11
23903.67417755514
 21
379.3385183537591
 31
0.0
  0
LINE
  5
1B9F0
330
1B9E3
100
AcDbEntity
  8
AM_0N
100
AcDbLine
 10
23908.14479135894
 20
383.0922683537581
 30
0.0
 11
23903.67417755514
 21
383.092268353759
 31
0.0
  0
LINE
  5
1B9F1
330
1B9E3
100
AcDbEntity
  8
AM_0N
100
AcDbLine
 10
23903.67417755514
 20
394.3535183537595
 30
0.0
 11
23902.65948445704
 21
392.5960183537588
 31
0.0
  0
LINE
  5
1B9F2
330
1B9E3
100
AcDbEntity
  8
AM_0N
100
AcDbLine
 10
23908.14479135893
 20
394.3535183537585
 30
0.0
 11
23909.15948445704
 21
392.5960183537579
 31
0.0
  0
LINE
  5
1B9F3
330
1B9E3
100
AcDbEntity
  8
AM_0N
100
AcDbLine
 10
23908.14479135893
 20
394.3535183537585
 30
0.0
 11
23903.67417755514
 21
394.3535183537595
 31
0.0
  0
ENDBLK
  5
1B9F5
330
1B9E3
100
AcDbEntity
  8
0
100
AcDbBlockEnd
  0
BLOCK
  5
1B9FC
330
1B9F7
100
AcDbEntity
  8
0
100
AcDbBlockBegin
  2
*U12
 70
     1
 10
0.0
 20
0.0
 30
0.0
  3
*U12
  1

  0
LINE
  5
1B9F8
330
1B9F7
100
AcDbEntity
  8
AM_0N
100
AcDbLine
 10
23913.55258002082
 20
420.6663450916189
 30
0.0
 11
23913.55258002083
 21
406.6663450916189
 31
0.0
  0
LINE
  5
1B9F9
330
1B9F7
100
AcDbEntity
  8
AM_0N
100
AcDbLine
 10
23912.35258002083
 20
406.6663450916189
 30
0.0
 11
23912.35258002083
 21
420.6663450916189
 31
0.0
  0
LINE
  5
1B9FA
330
1B9F7
100
AcDbEntity
  8
AM_0N
100
AcDbLine
 10
23913.55258002083
 20
406.6663450916189
 30
0.0
 11
23912.35258002083
 21
406.6663450916189
 31
0.0
  0
LINE
  5
1B9FB
330
1B9F7
100
AcDbEntity
  8
AM_0N
100
AcDbLine
 10
23912.35258002083
 20
420.6663450916189
 30
0.0
 11
23913.55258002082
 21
420.6663450916189
 31
0.0
  0
ENDBLK
  5
1B9FD
330
1B9F7
100
AcDbEntity
  8
0
100
AcDbBlockEnd
  0
BLOCK
  5
1BA06
330
1B9FF
100
AcDbEntity
  8
0
100
AcDbBlockBegin
  2
*U13
 70
     1
 10
0.0
 20
0.0
 30
0.0
  3
*U13
  1

  0
LINE
  5
1BA00
330
1B9FF
100
AcDbEntity
  8
AM_0N
100
AcDbLine
 10
23909.15948445704
 20
405.6663450916194
 30
0.0
 11
23909.15948445704
 21
407.9163450916194
 31
0.0
  0
LINE
  5
1BA01
330
1B9FF
100
AcDbEntity
  8
AM_9N
100
AcDbLine
 10
23909.15948445704
 20
407.9163450916194
 30
0.0
 11
23909.15948445704
 21
419.4163450916193
 31
0.0
  0
LINE
  5
1BA02
330
1B9FF
100
AcDbEntity
  8
AM_0N
100
AcDbLine
 10
23909.15948445704
 20
419.4163450916193
 30
0.0
 11
23909.15948445704
 21
421.6663450916193
 31
0.0
  0
LINE
  5
1BA03
330
1B9FF
100
AcDbEntity
  8
AM_0N
100
AcDbLine
 10
23910.75948445704
 20
421.6663450916193
 30
0.0
 11
23910.75948445704
 21
405.6663450916194
 31
0.0
  0
LINE
  5
1BA04
330
1B9FF
100
AcDbEntity
  8
AM_0N
100
AcDbLine
 10
23909.15948445704
 20
421.6663450916193
 30
0.0
 11
23910.75948445704
 21
421.6663450916193
 31
0.0
  0
LINE
  5
1BA05
330
1B9FF
100
AcDbEntity
  8
AM_0N
100
AcDbLine
 10
23910.75948445704
 20
405.6663450916194
 30
0.0
 11
23909.15948445704
 21
405.6663450916194
 31
0.0
  0
ENDBLK
  5
1BA07
330
1B9FF
100
AcDbEntity
  8
0
100
AcDbBlockEnd
  0
BLOCK
  5
1BA1A
330
1BA09
100
AcDbEntity
  8
0
100
AcDbBlockBegin
  2
*U14
 70
     1
 10
0.0
 20
0.0
 30
0.0
  3
*U14
  1

  0
ARC
  5
1BA0A
330
1BA09
100
AcDbEntity
  8
AM_0N
100
AcDbCircle
 10
-23906.41134018177
 20
419.2969700916201
 30
0.0
 40
3.318843022839327
210
0.0
220
0.0
230
-1.0
100
AcDbArc
 50
325.561530595271
 51
25.5615305952737
  0
ARC
  5
1BA0B
330
1BA09
100
AcDbEntity
  8
AM_0N
100
AcDbCircle
 10
-23905.4076287323
 20
419.2969700916201
 30
0.0
 40
3.318843022839327
210
0.0
220
0.0
230
-1.0
100
AcDbArc
 50
154.4384694047366
 51
214.4384694047352
  0
LINE
  5
1BA0C
330
1BA09
100
AcDbEntity
  8
AM_0N
100
AcDbLine
 10
23902.65948445704
 20
419.4163450916203
 30
0.0
 11
23902.65948445704
 21
407.9163450916203
 31
0.0
  0
LINE
  5
1BA0D
330
1BA09
100
AcDbEntity
  8
AM_0N
100
AcDbLine
 10
23909.15948445704
 20
419.4163450916193
 30
0.0
 11
23909.15948445704
 21
407.9163450916194
 31
0.0
  0
ARC
  5
1BA0E
330
1BA09
100
AcDbEntity
  8
AM_0N
100
AcDbCircle
 10
-23906.41134018177
 20
408.0357200916195
 30
0.0
 40
3.318843022839327
210
0.0
220
0.0
230
-1.0
100
AcDbArc
 50
334.4384694047373
 51
34.43846940473521
  0
ARC
  5
1BA0F
330
1BA09
100
AcDbEntity
  8
AM_0N
100
AcDbCircle
 10
-23915.49534865597
 20
413.6663450916184
 30
0.0
 40
12.40285149704451
210
0.0
220
0.0
230
-1.0
100
AcDbArc
 50
342.3830311596203
 51
17.61696884039392
  0
ARC
  5
1BA10
330
1BA09
100
AcDbEntity
  8
AM_0N
100
AcDbCircle
 10
-23896.32362025809
 20
413.6663450916212
 30
0.0
 40
12.40285149704458
210
0.0
220
0.0
230
-1.0
100
AcDbArc
 50
162.3830311596204
 51
197.6169688403938
  0
ARC
  5
1BA11
330
1BA09
100
AcDbEntity
  8
AM_0N
100
AcDbCircle
 10
-23905.4076287323
 20
408.0357200916205
 30
0.0
 40
3.318843022839327
210
0.0
220
0.0
230
-1.0
100
AcDbArc
 50
145.5615305952711
 51
205.5615305952743
  0
LINE
  5
1BA12
330
1BA09
100
AcDbEntity
  8
AM_0N
100
AcDbLine
 10
23903.67417755514
 20
406.1588450916206
 30
0.0
 11
23902.65948445704
 21
407.9163450916203
 31
0.0
  0
LINE
  5
1BA13
330
1BA09
100
AcDbEntity
  8
AM_0N
100
AcDbLine
 10
23908.14479135893
 20
417.4200950916201
 30
0.0
 11
23903.67417755514
 21
417.4200950916201
 31
0.0
  0
LINE
  5
1BA14
330
1BA09
100
AcDbEntity
  8
AM_0N
100
AcDbLine
 10
23908.14479135894
 20
406.1588450916197
 30
0.0
 11
23909.15948445704
 21
407.9163450916194
 31
0.0
  0
LINE
  5
1BA15
330
1BA09
100
AcDbEntity
  8
AM_0N
100
AcDbLine
 10
23908.14479135894
 20
406.1588450916197
 30
0.0
 11
23903.67417755514
 21
406.1588450916206
 31
0.0
  0
LINE
  5
1BA16
330
1BA09
100
AcDbEntity
  8
AM_0N
100
AcDbLine
 10
23908.14479135894
 20
409.9125950916195
 30
0.0
 11
23903.67417755514
 21
409.9125950916204
 31
0.0
  0
LINE
  5
1BA17
330
1BA09
100
AcDbEntity
  8
AM_0N
100
AcDbLine
 10
23903.67417755514
 20
421.1738450916209
 30
0.0
 11
23902.65948445704
 21
419.4163450916203
 31
0.0
  0
LINE
  5
1BA18
330
1BA09
100
AcDbEntity
  8
AM_0N
100
AcDbLine
 10
23908.14479135893
 20
421.1738450916199
 30
0.0
 11
23909.15948445704
 21
419.4163450916193
 31
0.0
  0
LINE
  5
1BA19
330
1BA09
100
AcDbEntity
  8
AM_0N
100
AcDbLine
 10
23908.14479135893
 20
421.1738450916199
 30
0.0
 11
23903.67417755514
 21
421.1738450916209
 31
0.0
  0
ENDBLK
  5
1BA1B
330
1BA09
100
AcDbEntity
  8
0
100
AcDbBlockEnd
  0
BLOCK
  5
1BA1E
330
1BA1D
100
AcDbEntity
  8
0
100
AcDbBlockBegin
  2
*U15
 70
     1
 10
0.0
 20
0.0
 30
0.0
  3
*U15
  1

  0
ENDBLK
  5
1BA1F
330
1BA1D
100
AcDbEntity
  8
0
100
AcDbBlockEnd
  0
BLOCK
  5
1BA22
330
1BA21
100
AcDbEntity
  8
0
100
AcDbBlockBegin
  2
*U16
 70
     1
 10
0.0
 20
0.0
 30
0.0
  3
*U16
  1

  0
ENDBLK
  5
1BA23
330
1BA21
100
AcDbEntity
  8
0
100
AcDbBlockEnd
  0
BLOCK
  5
1BA70
330
1BA6B
100
AcDbEntity
  8
0
100
AcDbBlockBegin
  2
*U17
 70
     1
 10
0.0
 20
0.0
 30
0.0
  3
*U17
  1

  0
LINE
  5
1BA6C
330
1BA6B
100
AcDbEntity
  8
AM_0N
100
AcDbLine
 10
47.693100120312
 20
31.99999684306476
 30
0.0
 11
47.69310012031929
 21
17.99999684306476
 31
0.0
  0
LINE
  5
1BA6D
330
1BA6B
100
AcDbEntity
  8
AM_0N
100
AcDbLine
 10
46.49310012031492
 20
17.99999684306476
 30
0.0
 11
46.49310012031492
 21
31.99999684306476
 31
0.0
  0
LINE
  5
1BA6E
330
1BA6B
100
AcDbEntity
  8
AM_0N
100
AcDbLine
 10
47.69310012031929
 20
17.99999684306476
 30
0.0
 11
46.49310012031492
 21
17.99999684306476
 31
0.0
  0
LINE
  5
1BA6F
330
1BA6B
100
AcDbEntity
  8
AM_0N
100
AcDbLine
 10
46.49310012031492
 20
31.99999684306476
 30
0.0
 11
47.693100120312
 21
31.99999684306476
 31
0.0
  0
ENDBLK
  5
1BA71
330
1BA6B
100
AcDbEntity
  8
0
100
AcDbBlockEnd
  0
BLOCK
  5
1BA79
330
1BA72
100
AcDbEntity
  8
0
100
AcDbBlockBegin
  2
*U18
 70
     1
 10
0.0
 20
0.0
 30
0.0
  3
*U18
  1

  0
LINE
  5
1BA73
330
1BA72
100
AcDbEntity
  8
AM_0N
100
AcDbLine
 10
38.90690899273614
 20
16.99999684306567
 30
0.0
 11
38.90690899273614
 21
19.24999684306567
 31
0.0
  0
LINE
  5
1BA74
330
1BA72
100
AcDbEntity
  8
AM_9N
100
AcDbLine
 10
38.90690899273614
 20
19.24999684306567
 30
0.0
 11
38.90690899273614
 21
30.74999684306567
 31
0.0
  0
LINE
  5
1BA75
330
1BA72
100
AcDbEntity
  8
AM_0N
100
AcDbLine
 10
38.90690899273614
 20
30.74999684306567
 30
0.0
 11
38.90690899273614
 21
32.99999684306567
 31
0.0
  0
LINE
  5
1BA76
330
1BA72
100
AcDbEntity
  8
AM_0N
100
AcDbLine
 10
40.50690899273468
 20
32.99999684306567
 30
0.0
 11
40.50690899273468
 21
16.99999684306567
 31
0.0
  0
LINE
  5
1BA77
330
1BA72
100
AcDbEntity
  8
AM_0N
100
AcDbLine
 10
38.90690899273614
 20
32.99999684306567
 30
0.0
 11
40.50690899273468
 21
32.99999684306567
 31
0.0
  0
LINE
  5
1BA78
330
1BA72
100
AcDbEntity
  8
AM_0N
100
AcDbLine
 10
40.50690899273468
 20
16.99999684306567
 30
0.0
 11
38.90690899273614
 21
16.99999684306567
 31
0.0
  0
ENDBLK
  5
1BA7A
330
1BA72
100
AcDbEntity
  8
0
100
AcDbBlockEnd
  0
BLOCK
  5
1BA8C
330
1BA7B
100
AcDbEntity
  8
0
100
AcDbBlockBegin
  2
*U19
 70
     1
 10
0.0
 20
0.0
 30
0.0
  3
*U19
  1

  0
ARC
  5
1BA7C
330
1BA7B
100
AcDbEntity
  8
AM_0N
100
AcDbCircle
 10
-36.15876471746742
 20
30.63062184306637
 30
0.0
 40
3.318843022839327
210
0.0
220
0.0
230
-1.0
100
AcDbArc
 50
325.561530595271
 51
25.5615305952737
  0
ARC
  5
1BA7D
330
1BA7B
100
AcDbEntity
  8
AM_0N
100
AcDbCircle
 10
-35.15505326800485
 20
30.63062184306637
 30
0.0
 40
3.318843022839327
210
0.0
220
0.0
230
-1.0
100
AcDbArc
 50
154.4384694047366
 51
214.4384694047352
  0
LINE
  5
1BA7E
330
1BA7B
100
AcDbEntity
  8
AM_0N
100
AcDbLine
 10
32.40690899273614
 20
30.74999684306658
 30
0.0
 11
32.40690899273614
 21
19.24999684306658
 31
0.0
  0
LINE
  5
1BA7F
330
1BA7B
100
AcDbEntity
  8
AM_0N
100
AcDbLine
 10
38.90690899273614
 20
30.74999684306567
 30
0.0
 11
38.90690899273614
 21
19.24999684306567
 31
0.0
  0
ARC
  5
1BA80
330
1BA7B
100
AcDbEntity
  8
AM_0N
100
AcDbCircle
 10
-36.15876471746742
 20
19.36937184306589
 30
0.0
 40
3.318843022839327
210
0.0
220
0.0
230
-1.0
100
AcDbArc
 50
334.4384694047373
 51
34.43846940473521
  0
ARC
  5
1BA81
330
1BA7B
100
AcDbEntity
  8
AM_0N
100
AcDbCircle
 10
-45.24277319166867
 20
24.99999684306477
 30
0.0
 40
12.40285149704451
210
0.0
220
0.0
230
-1.0
100
AcDbArc
 50
342.3830311596203
 51
17.61696884039392
  0
ARC
  5
1BA82
330
1BA7B
100
AcDbEntity
  8
AM_0N
100
AcDbCircle
 10
-26.07104479379632
 20
24.99999684306749
 30
0.0
 40
12.40285149704458
210
0.0
220
0.0
230
-1.0
100
AcDbArc
 50
162.3830311596204
 51
197.6169688403938
  0
ARC
  5
1BA83
330
1BA7B
100
AcDbEntity
  8
AM_0N
100
AcDbCircle
 10
-35.15505326800485
 20
19.3693718430668
 30
0.0
 40
3.318843022839327
210
0.0
220
0.0
230
-1.0
100
AcDbArc
 50
145.5615305952711
 51
205.5615305952743
  0
LINE
  5
1BA84
330
1BA7B
100
AcDbEntity
  8
AM_0N
100
AcDbLine
 10
33.42160209083522
 20
17.49249684306687
 30
0.0
 11
32.40690899273614
 21
19.24999684306658
 31
0.0
  0
LINE
  5
1BA85
330
1BA7B
100
AcDbEntity
  8
AM_0N
100
AcDbLine
 10
37.89221589462977
 20
28.75374684306644
 30
0.0
 11
33.42160209083522
 21
28.75374684306644
 31
0.0
  0
LINE
  5
1BA86
330
1BA7B
100
AcDbEntity
  8
AM_0N
100
AcDbLine
 10
37.89221589463705
 20
17.49249684306596
 30
0.0
 11
38.90690899273614
 21
19.24999684306567
 31
0.0
  0
LINE
  5
1BA87
330
1BA7B
100
AcDbEntity
  8
AM_0N
100
AcDbLine
 10
37.89221589463705
 20
17.49249684306596
 30
0.0
 11
33.42160209083522
 21
17.49249684306687
 31
0.0
  0
LINE
  5
1BA88
330
1BA7B
100
AcDbEntity
  8
AM_0N
100
AcDbLine
 10
37.89221589463705
 20
21.24624684306582
 30
0.0
 11
33.42160209083522
 21
21.24624684306673
 31
0.0
  0
LINE
  5
1BA89
330
1BA7B
100
AcDbEntity
  8
AM_0N
100
AcDbLine
 10
33.42160209083522
 20
32.5074968430672
 30
0.0
 11
32.40690899273614
 21
30.74999684306658
 31
0.0
  0
LINE
  5
1BA8A
330
1BA7B
100
AcDbEntity
  8
AM_0N
100
AcDbLine
 10
37.89221589462977
 20
32.50749684306629
 30
0.0
 11
38.90690899273614
 21
30.74999684306567
 31
0.0
  0
LINE
  5
1BA8B
330
1BA7B
100
AcDbEntity
  8
AM_0N
100
AcDbLine
 10
37.89221589462977
 20
32.50749684306629
 30
0.0
 11
33.42160209083522
 21
32.5074968430672
 31
0.0
  0
ENDBLK
  5
1BA8D
330
1BA7B
100
AcDbEntity
  8
0
100
AcDbBlockEnd
  0
BLOCK
  5
1BA93
330
1BA8E
100
AcDbEntity
  8
0
100
AcDbBlockBegin
  2
*U20
 70
     1
 10
0.0
 20
0.0
 30
0.0
  3
*U20
  1

  0
LINE
  5
1BA8F
330
1BA8E
100
AcDbEntity
  8
AM_0N
100
AcDbLine
 10
47.693100120312
 20
501.9999968430647
 30
0.0
 11
47.69310012031929
 21
487.9999968430647
 31
0.0
  0
LINE
  5
1BA90
330
1BA8E
100
AcDbEntity
  8
AM_0N
100
AcDbLine
 10
46.49310012031492
 20
487.9999968430647
 30
0.0
 11
46.49310012031492
 21
501.9999968430647
 31
0.0
  0
LINE
  5
1BA91
330
1BA8E
100
AcDbEntity
  8
AM_0N
100
AcDbLine
 10
47.69310012031929
 20
487.9999968430647
 30
0.0
 11
46.49310012031492
 21
487.9999968430647
 31
0.0
  0
LINE
  5
1BA92
330
1BA8E
100
AcDbEntity
  8
AM_0N
100
AcDbLine
 10
46.49310012031492
 20
501.9999968430647
 30
0.0
 11
47.693100120312
 21
501.9999968430647
 31
0.0
  0
ENDBLK
  5
1BA94
330
1BA8E
100
AcDbEntity
  8
0
100
AcDbBlockEnd
  0
BLOCK
  5
1BA9C
330
1BA95
100
AcDbEntity
  8
0
100
AcDbBlockBegin
  2
*U21
 70
     1
 10
0.0
 20
0.0
 30
0.0
  3
*U21
  1

  0
LINE
  5
1BA96
330
1BA95
100
AcDbEntity
  8
AM_0N
100
AcDbLine
 10
38.90690899273614
 20
486.9999968430656
 30
0.0
 11
38.90690899273614
 21
489.2499968430656
 31
0.0
  0
LINE
  5
1BA97
330
1BA95
100
AcDbEntity
  8
AM_9N
100
AcDbLine
 10
38.90690899273614
 20
489.2499968430656
 30
0.0
 11
38.90690899273614
 21
500.7499968430656
 31
0.0
  0
LINE
  5
1BA98
330
1BA95
100
AcDbEntity
  8
AM_0N
100
AcDbLine
 10
38.90690899273614
 20
500.7499968430656
 30
0.0
 11
38.90690899273614
 21
502.9999968430656
 31
0.0
  0
LINE
  5
1BA99
330
1BA95
100
AcDbEntity
  8
AM_0N
100
AcDbLine
 10
40.50690899273468
 20
502.9999968430656
 30
0.0
 11
40.50690899273468
 21
486.9999968430656
 31
0.0
  0
LINE
  5
1BA9A
330
1BA95
100
AcDbEntity
  8
AM_0N
100
AcDbLine
 10
38.90690899273614
 20
502.9999968430656
 30
0.0
 11
40.50690899273468
 21
502.9999968430656
 31
0.0
  0
LINE
  5
1BA9B
330
1BA95
100
AcDbEntity
  8
AM_0N
100
AcDbLine
 10
40.50690899273468
 20
486.9999968430656
 30
0.0
 11
38.90690899273614
 21
486.9999968430656
 31
0.0
  0
ENDBLK
  5
1BA9D
330
1BA95
100
AcDbEntity
  8
0
100
AcDbBlockEnd
  0
BLOCK
  5
1BAAF
330
1BA9E
100
AcDbEntity
  8
0
100
AcDbBlockBegin
  2
*U22
 70
     1
 10
0.0
 20
0.0
 30
0.0
  3
*U22
  1

  0
ARC
  5
1BA9F
330
1BA9E
100
AcDbEntity
  8
AM_0N
100
AcDbCircle
 10
-36.15876471746742
 20
500.6306218430664
 30
0.0
 40
3.318843022839327
210
0.0
220
0.0
230
-1.0
100
AcDbArc
 50
325.561530595271
 51
25.5615305952737
  0
ARC
  5
1BAA0
330
1BA9E
100
AcDbEntity
  8
AM_0N
100
AcDbCircle
 10
-35.15505326800485
 20
500.6306218430664
 30
0.0
 40
3.318843022839327
210
0.0
220
0.0
230
-1.0
100
AcDbArc
 50
154.4384694047366
 51
214.4384694047352
  0
LINE
  5
1BAA1
330
1BA9E
100
AcDbEntity
  8
AM_0N
100
AcDbLine
 10
32.40690899273614
 20
500.7499968430665
 30
0.0
 11
32.40690899273614
 21
489.2499968430666
 31
0.0
  0
LINE
  5
1BAA2
330
1BA9E
100
AcDbEntity
  8
AM_0N
100
AcDbLine
 10
38.90690899273614
 20
500.7499968430656
 30
0.0
 11
38.90690899273614
 21
489.2499968430656
 31
0.0
  0
ARC
  5
1BAA3
330
1BA9E
100
AcDbEntity
  8
AM_0N
100
AcDbCircle
 10
-36.15876471746742
 20
489.3693718430658
 30
0.0
 40
3.318843022839327
210
0.0
220
0.0
230
-1.0
100
AcDbArc
 50
334.4384694047373
 51
34.43846940473521
  0
ARC
  5
1BAA4
330
1BA9E
100
AcDbEntity
  8
AM_0N
100
AcDbCircle
 10
-45.24277319166867
 20
494.9999968430647
 30
0.0
 40
12.40285149704451
210
0.0
220
0.0
230
-1.0
100
AcDbArc
 50
342.3830311596203
 51
17.61696884039392
  0
ARC
  5
1BAA5
330
1BA9E
100
AcDbEntity
  8
AM_0N
100
AcDbCircle
 10
-26.07104479379632
 20
494.9999968430675
 30
0.0
 40
12.40285149704458
210
0.0
220
0.0
230
-1.0
100
AcDbArc
 50
162.3830311596204
 51
197.6169688403938
  0
ARC
  5
1BAA6
330
1BA9E
100
AcDbEntity
  8
AM_0N
100
AcDbCircle
 10
-35.15505326800485
 20
489.3693718430667
 30
0.0
 40
3.318843022839327
210
0.0
220
0.0
230
-1.0
100
AcDbArc
 50
145.5615305952711
 51
205.5615305952743
  0
LINE
  5
1BAA7
330
1BA9E
100
AcDbEntity
  8
AM_0N
100
AcDbLine
 10
33.42160209083522
 20
487.4924968430669
 30
0.0
 11
32.40690899273614
 21
489.2499968430666
 31
0.0
  0
LINE
  5
1BAA8
330
1BA9E
100
AcDbEntity
  8
AM_0N
100
AcDbLine
 10
37.89221589462977
 20
498.7537468430664
 30
0.0
 11
33.42160209083522
 21
498.7537468430664
 31
0.0
  0
LINE
  5
1BAA9
330
1BA9E
100
AcDbEntity
  8
AM_0N
100
AcDbLine
 10
37.89221589463705
 20
487.492496843066
 30
0.0
 11
38.90690899273614
 21
489.2499968430656
 31
0.0
  0
LINE
  5
1BAAA
330
1BA9E
100
AcDbEntity
  8
AM_0N
100
AcDbLine
 10
37.89221589463705
 20
487.492496843066
 30
0.0
 11
33.42160209083522
 21
487.4924968430669
 31
0.0
  0
LINE
  5
1BAAB
330
1BA9E
100
AcDbEntity
  8
AM_0N
100
AcDbLine
 10
37.89221589463705
 20
491.2462468430658
 30
0.0
 11
33.42160209083522
 21
491.2462468430667
 31
0.0
  0
LINE
  5
1BAAC
330
1BA9E
100
AcDbEntity
  8
AM_0N
100
AcDbLine
 10
33.42160209083522
 20
502.5074968430671
 30
0.0
 11
32.40690899273614
 21
500.7499968430665
 31
0.0
  0
LINE
  5
1BAAD
330
1BA9E
100
AcDbEntity
  8
AM_0N
100
AcDbLine
 10
37.89221589462977
 20
502.5074968430662
 30
0.0
 11
38.90690899273614
 21
500.7499968430656
 31
0.0
  0
LINE
  5
1BAAE
330
1BA9E
100
AcDbEntity
  8
AM_0N
100
AcDbLine
 10
37.89221589462977
 20
502.5074968430662
 30
0.0
 11
33.42160209083522
 21
502.5074968430671
 31
0.0
  0
ENDBLK
  5
1BAB0
330
1BA9E
100
AcDbEntity
  8
0
100
AcDbBlockEnd
  0
BLOCK
  5
1BAB2
330
1BAB1
100
AcDbEntity
  8
0
100
AcDbBlockBegin
  2
*U23
 70
     1
 10
0.0
 20
0.0
 30
0.0
  3
*U23
  1

  0
ENDBLK
  5
1BAB3
330
1BAB1
100
AcDbEntity
  8
0
100
AcDbBlockEnd
  0
BLOCK
  5
1BAB5
330
1BAB4
100
AcDbEntity
  8
0
100
AcDbBlockBegin
  2
*U24
 70
     1
 10
0.0
 20
0.0
 30
0.0
  3
*U24
  1

  0
ENDBLK
  5
1BAB6
330
1BAB4
100
AcDbEntity
  8
0
100
AcDbBlockEnd
  0
ENDSEC
  0
SECTION
  2
ENTITIES
  0
ARC
  5
1B4F0
330
1F
100
AcDbEntity
  8
AM_0
100
AcDbCircle
 10
23641.5140024522
 20
798.0332848270328
 30
0.0
 40
8.576
100
AcDbArc
 50
180.0
 51
270.0
  0
ARC
  5
1B4F1
330
1F
100
AcDbEntity
  8
AM_0
100
AcDbCircle
 10
23737.5690024522
 20
798.0332848270328
 30
0.0
 40
8.576
100
AcDbArc
 50
270.0
 51
0.0
  0
ARC
  5
1B4F2
330
1F
100
AcDbEntity
  8
AM_0
100
AcDbCircle
 10
23892.9590024522
 20
798.0332848270328
 30
0.0
 40
8.576
100
AcDbArc
 50
180.0
 51
270.0
  0
ARC
  5
1B4F3
330
1F
100
AcDbEntity
  8
AM_0
100
AcDbCircle
 10
23892.9590024522
 20
1211.46428482703
 30
0.0
 40
8.576
100
AcDbArc
 50
90.0
 51
180.0
  0
ARC
  5
1B4F4
330
1F
100
AcDbEntity
  8
AM_0
100
AcDbCircle
 10
23731.3500024522
 20
1211.463284827029
 30
0.0
 40
8.576
100
AcDbArc
 50
0.0
 51
90.0
  0
ARC
  5
1B4F5
102
{ACAD_REACTORS
330
1B746
102
}
330
1F
100
AcDbEntity
  8
AM_0
100
AcDbCircle
 10
23647.7330024522
 20
1211.463284827029
 30
0.0
 40
8.576
100
AcDbArc
 50
90.0
 51
180.0
  0
ARC
  5
1B4F6
330
1F
100
AcDbEntity
  8
AM_0
100
AcDbCircle
 10
24074.9660024522
 20
1065.223284827031
 30
0.0
 40
4.288
100
AcDbArc
 50
354.9999999999192
 51
84.99800000000098
  0
ARC
  5
1B4F7
330
1F
100
AcDbEntity
  8
AM_0
100
AcDbCircle
 10
24050.3090024522
 20
1067.380284827031
 30
0.0
 40
4.288
100
AcDbArc
 50
85.00300000006893
 51
174.9999999999193
  0
LINE
  5
1B4F8
330
1F
100
AcDbEntity
  8
AM_0
100
AcDbLine
 10
24077.32900245219
 20
1106.301284827029
 30
0.0
 11
24103.3050024522
 21
1403.153284827032
 31
0.0
  0
LINE
  5
1B4F9
330
1F
100
AcDbEntity
  8
AM_0
100
AcDbLine
 10
24074.1180024522
 20
1069.601284827032
 30
0.0
 11
24075.7390024522
 21
1088.12728482703
 31
0.0
  0
LINE
  5
1B4FA
330
1F
100
AcDbEntity
  8
AM_0
100
AcDbLine
 10
24055.1160024522
 20
1108.246284827032
 30
0.0
 11
24081.0920024522
 21
1405.097284827031
 31
0.0
  0
LINE
  5
1B4FB
330
1F
100
AcDbEntity
  8
AM_0
100
AcDbLine
 10
24051.9040024522
 20
1071.546284827032
 30
0.0
 11
24053.5250024522
 21
1090.071284827029
 31
0.0
  0
ARC
  5
1B4FC
330
1F
100
AcDbEntity
  8
AM_0
100
AcDbCircle
 10
24082.9980024522
 20
1409.23528482703
 30
0.0
 40
4.288
100
AcDbArc
 50
174.9999999999193
 51
264.9999999999216
  0
ARC
  5
1B4FD
330
1F
100
AcDbEntity
  8
AM_0
100
AcDbCircle
 10
24102.1360024522
 20
1407.560284827031
 30
0.0
 40
4.288
100
AcDbArc
 50
264.9990000000972
 51
354.9999999999192
  0
ARC
  5
1B4FE
102
{ACAD_REACTORS
330
1B7DE
102
}
330
1F
100
AcDbEntity
  8
AM_0
100
AcDbCircle
 10
24106.7210024522
 20
1459.96828482703
 30
0.0
 40
4.288
100
AcDbArc
 50
354.9999999999192
 51
84.99600000003772
  0
ARC
  5
1B4FF
330
1F
100
AcDbEntity
  8
AM_0
100
AcDbCircle
 10
24087.5830024522
 20
1461.642284827029
 30
0.0
 40
4.288
100
AcDbArc
 50
84.99999999992153
 51
174.9999999999193
  0
LINE
  5
1B508
330
1F
100
AcDbEntity
  8
AM_0
100
AcDbLine
 10
23998.40300245219
 20
1109.615284827031
 30
0.0
 11
24026.4590024522
 21
1109.615284827031
 31
0.0
  0
LINE
  5
1B509
330
1F
100
AcDbEntity
  8
AM_0
100
AcDbLine
 10
24026.4590024522
 20
1109.615284827031
 30
0.0
 11
24026.4590024522
 21
1094.193284827029
 31
0.0
  0
LINE
  5
1B50A
330
1F
100
AcDbEntity
  8
AM_0
100
AcDbLine
 10
24026.4590024522
 20
1094.193284827029
 30
0.0
 11
24021.1760024522
 21
1094.193284827029
 31
0.0
  0
LINE
  5
1B50B
330
1F
100
AcDbEntity
  8
AM_0
100
AcDbLine
 10
23960.9690024522
 20
900.1072848270297
 30
0.0
 11
23960.9690024522
 21
1015.93128482703
 31
0.0
  0
LINE
  5
1B50C
330
1F
100
AcDbEntity
  8
AM_0
100
AcDbLine
 10
23947.0760024522
 20
904.8702848270323
 30
0.0
 11
23947.0760024522
 21
1015.93128482703
 31
0.0
  0
LINE
  5
1B50D
330
1F
100
AcDbEntity
  8
AM_0
100
AcDbLine
 10
23974.8630024522
 20
895.3442848270308
 30
0.0
 11
23931.2710024522
 21
910.2882848270303
 31
0.0
  0
ARC
  5
1B50E
330
1F
100
AcDbEntity
  8
AM_0
100
AcDbCircle
 10
23932.39700245219
 20
913.5732848270301
 30
0.0
 40
3.472999999999999
100
AcDbArc
 50
180.0
 51
251.0769999998943
  0
ARC
  5
1B50F
102
{ACAD_REACTORS
330
1B7AE
102
}
330
1F
100
AcDbEntity
  8
AM_0
100
AcDbCircle
 10
23966.2870024522
 20
798.0332848270328
 30
0.0
 40
8.576
100
AcDbArc
 50
270.0
 51
0.0
  0
LINE
  5
1B510
330
1F
100
AcDbEntity
  8
AM_0
100
AcDbLine
 10
23974.8630024522
 20
798.0332848270328
 30
0.0
 11
23974.8630024522
 21
1015.93128482703
 31
0.0
  0
LINE
  5
1B511
330
1F
100
AcDbEntity
  8
AM_0
100
AcDbLine
 10
23966.2870024522
 20
789.4572848270319
 30
0.0
 11
23892.9590024522
 21
789.4572848270319
 31
0.0
  0
LINE
  5
1B512
330
1F
100
AcDbEntity
  8
AM_0
100
AcDbLine
 10
24078.7260024522
 20
1409.60828482703
 30
0.0
 11
24083.3110024522
 21
1462.016284827029
 31
0.0
  0
LINE
  5
1B513
330
1F
100
AcDbEntity
  8
AM_0
100
AcDbLine
 10
24106.4080024522
 20
1407.186284827031
 30
0.0
 11
24110.9930024522
 21
1459.59428482703
 31
0.0
  0
LINE
  5
1B514
330
1F
100
AcDbEntity
  8
AM_0
100
AcDbLine
 10
23960.9690024522
 20
1131.93028482703
 30
0.0
 11
23960.9690024522
 21
1015.93228482703
 31
0.0
  0
LINE
  5
1B515
330
1F
100
AcDbEntity
  8
AM_0
100
AcDbLine
 10
23947.0760024522
 20
1127.168284827031
 30
0.0
 11
23947.0760024522
 21
1015.93228482703
 31
0.0
  0
LINE
  5
1B516
330
1F
100
AcDbEntity
  8
AM_0
100
AcDbLine
 10
23974.8630024522
 20
1136.693284827029
 30
0.0
 11
23931.2710024522
 21
1121.749284827029
 31
0.0
  0
ARC
  5
1B517
330
1F
100
AcDbEntity
  8
AM_0
100
AcDbCircle
 10
23932.39700245219
 20
1118.463284827029
 30
0.0
 40
3.472999999999999
100
AcDbArc
 50
108.9230000001057
 51
180.0
  0
ARC
  5
1B518
330
1F
100
AcDbEntity
  8
AM_0
100
AcDbCircle
 10
23966.2870024522
 20
1211.46428482703
 30
0.0
 40
8.576
100
AcDbArc
 50
0.0
 51
90.0
  0
LINE
  5
1B519
330
1F
100
AcDbEntity
  8
AM_0
100
AcDbLine
 10
23966.2870024522
 20
1220.04028482703
 30
0.0
 11
23892.9590024522
 21
1220.04028482703
 31
0.0
  0
LINE
  5
1B51A
330
1F
100
AcDbEntity
  8
AM_0
100
AcDbLine
 10
23974.8630024522
 20
1211.46428482703
 30
0.0
 11
23974.8630024522
 21
1015.93228482703
 31
0.0
  0
LINE
  5
1B51B
330
1F
100
AcDbEntity
  8
AM_0
100
AcDbLine
 10
24021.1760024522
 20
934.1592848270293
 30
0.0
 11
24021.1760024522
 21
1015.93128482703
 31
0.0
  0
LINE
  5
1B51C
330
1F
100
AcDbEntity
  8
AM_0
100
AcDbLine
 10
24021.1760024522
 20
1015.93128482703
 30
0.0
 11
24021.1760024522
 21
1100.403284827031
 31
0.0
  0
LINE
  5
1B51D
102
{ACAD_REACTORS
330
1B7AE
330
1B7DE
102
}
330
1F
100
AcDbEntity
  8
AM_0
100
AcDbLine
 10
23884.3830024522
 20
1211.46428482703
 30
0.0
 11
23884.3830024522
 21
798.0332848270328
 31
0.0
  0
LINE
  5
1B51E
330
1F
100
AcDbEntity
  8
AM_0
100
AcDbLine
 10
23731.3500024522
 20
1220.03928482703
 30
0.0
 11
23700.6430024522
 21
1220.03928482703
 31
0.0
  0
LINE
  5
1B51F
330
1F
100
AcDbEntity
  8
AM_0
100
AcDbLine
 10
23700.6430024522
 20
1107.151284827031
 30
0.0
 11
23700.6430024522
 21
1402.91428482703
 31
0.0
  0
LINE
  5
1B520
330
1F
100
AcDbEntity
  8
AM_0
100
AcDbLine
 10
23678.4400024522
 20
1220.03928482703
 30
0.0
 11
23647.7330024522
 21
1220.03928482703
 31
0.0
  0
LINE
  5
1B521
330
1F
100
AcDbEntity
  8
AM_0
100
AcDbLine
 10
23678.4400024522
 20
1107.151284827031
 30
0.0
 11
23678.4400024522
 21
1402.91428482703
 31
0.0
  0
LINE
  5
1B522
330
1F
100
AcDbEntity
  8
AM_0
100
AcDbLine
 10
24077.8580024522
 20
1049.080284827031
 30
0.0
 11
24079.2380024522
 21
1064.849284827031
 31
0.0
  0
LINE
  5
1B523
330
1F
100
AcDbEntity
  8
AM_0
100
AcDbLine
 10
24050.6820024522
 20
1071.652284827031
 30
0.0
 11
24075.3400024522
 21
1069.494284827032
 31
0.0
  0
LINE
  5
1B524
330
1F
100
AcDbEntity
  8
AM_0
100
AcDbLine
 10
24044.6570024522
 20
1051.98528482703
 30
0.0
 11
24046.0370024522
 21
1067.75428482703
 31
0.0
  0
LINE
  5
1B525
330
1F
100
AcDbEntity
  8
AM_0
100
AcDbLine
 10
24082.6240024522
 20
1404.962284827029
 30
0.0
 11
24101.7620024522
 21
1403.28828482703
 31
0.0
  0
LINE
  5
1B526
102
{ACAD_REACTORS
330
1B811
102
}
330
1F
100
AcDbEntity
  8
AM_0
100
AcDbLine
 10
24087.9570024522
 20
1465.91428482703
 30
0.0
 11
24107.0950024522
 21
1464.240284827031
 31
0.0
  0
LINE
  5
1B527
330
1F
100
AcDbEntity
  8
AM_0
100
AcDbLine
 10
24026.4590024522
 20
1099.89728482703
 30
0.0
 11
24051.9820024522
 21
1097.032284827029
 31
0.0
  0
LINE
  5
1B528
330
1F
100
AcDbEntity
  8
AM_0
100
AcDbLine
 10
24026.4590024522
 20
1104.928284827029
 30
0.0
 11
24052.4120024522
 21
1101.944284827029
 31
0.0
  0
LINE
  5
1B529
330
1F
100
AcDbEntity
  8
AM_0
100
AcDbLine
 10
23884.3820024522
 20
1025.64428482703
 30
0.0
 11
23895.9600024522
 21
1025.64428482703
 31
0.0
  0
LINE
  5
1B52A
330
1F
100
AcDbEntity
  8
AM_0
100
AcDbLine
 10
23884.3820024522
 20
1006.21728482703
 30
0.0
 11
23895.9600024522
 21
1006.21728482703
 31
0.0
  0
ARC
  5
1B52B
330
1F
100
AcDbEntity
  8
AM_0
100
AcDbCircle
 10
24020.04332265338
 20
1100.369469242711
 30
0.0
 40
1.133155059654805
100
AcDbArc
 50
1.659488144733029
 51
40.02888690473048
  0
ARC
  5
1B52C
330
1F
100
AcDbEntity
  8
AM_0
100
AcDbCircle
 10
24019.14287334505
 20
1099.620693934174
 30
0.0
 40
2.30424724935946
100
AcDbArc
 50
39.88484404022113
 51
63.86121583654034
  0
ARC
  5
1B52D
330
1F
100
AcDbEntity
  8
AM_0
100
AcDbCircle
 10
24018.4063204522
 20
1098.322086827032
 30
0.0
 40
3.795577979745627
100
AcDbArc
 50
62.51567048832576
 51
69.84702851223866
  0
LINE
  5
1B52E
330
1F
100
AcDbEntity
  8
AM_0
100
AcDbLine
 10
23974.8630024522
 20
1118.154284827032
 30
0.0
 11
24019.7140024522
 21
1101.885284827031
 31
0.0
  0
CIRCLE
  5
1B52F
102
{ACAD_REACTORS
330
1B811
102
}
330
1F
100
AcDbEntity
  8
AM_0
100
AcDbCircle
 10
24058.2300024522
 20
1015.93128482703
 30
0.0
 40
11.578
  0
LINE
  5
1B530
330
1F
100
AcDbEntity
  8
AM_0
100
AcDbLine
 10
24037.3900024522
 20
1002.03728482703
 30
0.0
 11
24021.1750024522
 21
1002.03728482703
 31
0.0
  0
LINE
  5
1B531
330
1F
100
AcDbEntity
  8
AM_0
100
AcDbLine
 10
24021.1750024522
 20
1029.82528482703
 30
0.0
 11
24037.3900024522
 21
1029.82528482703
 31
0.0
  0
LINE
  5
1B532
330
1F
100
AcDbEntity
  8
AM_0
100
AcDbLine
 10
23639.1560024522
 20
1118.154284827032
 30
0.0
 11
23639.1560024522
 21
1211.463284827029
 31
0.0
  0
LINE
  5
1B533
330
1F
100
AcDbEntity
  8
AM_0
100
AcDbLine
 10
23746.1460024522
 20
798.0332848270328
 30
0.0
 11
23746.1460024522
 21
913.8832848270313
 31
0.0
  0
LINE
  5
1B534
330
1F
100
AcDbEntity
  8
AM_0
100
AcDbLine
 10
23739.9260024522
 20
1118.154284827032
 30
0.0
 11
23739.9260024522
 21
1211.463284827029
 31
0.0
  0
LINE
  5
1B535
330
1F
100
AcDbEntity
  8
AM_0
100
AcDbLine
 10
23700.6430024522
 20
1118.154284827032
 30
0.0
 11
23739.9260024522
 21
1118.154284827032
 31
0.0
  0
LINE
  5
1B536
330
1F
100
AcDbEntity
  8
AM_0
100
AcDbLine
 10
23739.9260024522
 20
1118.154284827032
 30
0.0
 11
23787.25315827844
 21
1054.18746105238
 31
0.0
  0
ARC
  5
1B537
102
{ACAD_REACTORS
330
1B779
102
}
330
1F
100
AcDbEntity
  8
AM_0
100
AcDbCircle
 10
23735.54392821428
 20
1015.931864859357
 30
0.0
 40
64.32211994261426
100
AcDbArc
 50
327.1048292344895
 51
36.49482923456516
  0
LINE
  5
1B538
330
1F
100
AcDbEntity
  8
AM_0
100
AcDbLine
 10
23789.5530024522
 20
980.9982848270292
 30
0.0
 11
23746.1460024522
 21
913.8832848270313
 31
0.0
  0
LINE
  5
1B539
330
1F
100
AcDbEntity
  8
AM_0
100
AcDbLine
 10
23746.1460024522
 20
913.8832848270313
 30
0.0
 11
23632.93800245219
 21
913.8832848270313
 31
0.0
  0
LINE
  5
1B53A
330
1F
100
AcDbEntity
  8
AM_0
100
AcDbLine
 10
23632.93800245219
 20
913.8832848270313
 30
0.0
 11
23632.93800245219
 21
798.0332848270328
 31
0.0
  0
LINE
  5
1B53B
330
1F
100
AcDbEntity
  8
AM_0
100
AcDbLine
 10
23632.93800245219
 20
913.8832848270313
 30
0.0
 11
23589.5290024522
 21
980.9982848270292
 31
0.0
  0
ARC
  5
1B53C
330
1F
100
AcDbEntity
  8
AM_0
100
AcDbCircle
 10
23643.53929891647
 20
1015.931642633
 30
0.0
 40
64.32302551776412
100
AcDbArc
 50
143.5044132786946
 51
212.8944132786676
  0
LINE
  5
1B53D
330
1F
100
AcDbEntity
  8
AM_0
100
AcDbLine
 10
23591.82984662596
 20
1054.18846105238
 30
0.0
 11
23639.1560024522
 21
1118.154284827032
 31
0.0
  0
LINE
  5
1B53E
330
1F
100
AcDbEntity
  8
AM_0
100
AcDbLine
 10
23639.1560024522
 20
1118.154284827032
 30
0.0
 11
23678.4400024522
 21
1118.154284827032
 31
0.0
  0
ARC
  5
1B53F
330
1F
100
AcDbEntity
  8
AM_0
100
AcDbCircle
 10
23678.4405024522
 20
1407.202784827032
 30
0.0
 40
4.288500029148401
100
AcDbArc
 50
179.9933198344359
 51
269.9933198344359
  0
LINE
  5
1B540
330
1F
100
AcDbEntity
  8
AM_0
100
AcDbLine
 10
23678.4400024522
 20
1402.91428482703
 30
0.0
 11
23700.6430024522
 21
1402.91528482703
 31
0.0
  0
ARC
  5
1B541
330
1F
100
AcDbEntity
  8
AM_0
100
AcDbCircle
 10
23700.64300245219
 20
1407.203284827031
 30
0.0
 40
4.288000000000693
100
AcDbArc
 50
270.0
 51
0.0
  0
LINE
  5
1B542
330
1F
100
AcDbEntity
  8
AM_0
100
AcDbLine
 10
23704.9310024522
 20
1407.203284827031
 30
0.0
 11
23704.9310024522
 21
1461.999284827029
 31
0.0
  0
ARC
  5
1B543
330
1F
100
AcDbEntity
  8
AM_0
100
AcDbCircle
 10
23700.64300245219
 20
1461.999284827029
 30
0.0
 40
4.288000000000693
100
AcDbArc
 50
0.0
 51
90.0
  0
LINE
  5
1B544
330
1F
100
AcDbEntity
  8
AM_0
100
AcDbLine
 10
23700.6430024522
 20
1466.28728482703
 30
0.0
 11
23678.4400024522
 21
1466.28828482703
 31
0.0
  0
ARC
  5
1B545
330
1F
100
AcDbEntity
  8
AM_0
100
AcDbCircle
 10
23678.4405024522
 20
1461.999784827031
 30
0.0
 40
4.288500029148515
100
AcDbArc
 50
90.0066801655641
 51
180.0066801653557
  0
LINE
  5
1B546
330
1F
100
AcDbEntity
  8
AM_0
100
AcDbLine
 10
23674.1520024522
 20
1461.999284827029
 30
0.0
 11
23674.1520024522
 21
1407.203284827031
 31
0.0
  0
LINE
  5
1B547
330
1F
100
AcDbEntity
  8
AM_0
100
AcDbLine
 10
23676.2960024522
 20
1105.864284827031
 30
0.0
 11
23676.2970024522
 21
1090.508284827031
 31
0.0
  0
ARC
  5
1B548
330
1F
100
AcDbEntity
  8
AM_0
100
AcDbCircle
 10
23677.5830024522
 20
1090.508284827031
 30
0.0
 40
1.286000000000228
100
AcDbArc
 50
180.0
 51
270.0
  0
LINE
  5
1B549
330
1F
100
AcDbEntity
  8
AM_0
100
AcDbLine
 10
23677.5830024522
 20
1089.222284827031
 30
0.0
 11
23701.5010024522
 21
1089.222284827031
 31
0.0
  0
ARC
  5
1B54A
330
1F
100
AcDbEntity
  8
AM_0
100
AcDbCircle
 10
23701.5010024522
 20
1090.508284827031
 30
0.0
 40
1.286000000000285
100
AcDbArc
 50
270.0
 51
0.0
  0
LINE
  5
1B54B
330
1F
100
AcDbEntity
  8
AM_0
100
AcDbLine
 10
23702.7870024522
 20
1090.508284827031
 30
0.0
 11
23702.7870024522
 21
1105.864284827031
 31
0.0
  0
ARC
  5
1B54C
330
1F
100
AcDbEntity
  8
AM_0
100
AcDbCircle
 10
23701.5010024522
 20
1105.864284827031
 30
0.0
 40
1.286000000000228
100
AcDbArc
 50
0.0
 51
90.0
  0
LINE
  5
1B54D
330
1F
100
AcDbEntity
  8
AM_0
100
AcDbLine
 10
23701.5010024522
 20
1107.150284827031
 30
0.0
 11
23677.5830024522
 21
1107.151284827031
 31
0.0
  0
ARC
  5
1B54E
330
1F
100
AcDbEntity
  8
AM_0
100
AcDbCircle
 10
23677.5830024522
 20
1105.864284827031
 30
0.0
 40
1.287000000000261
100
AcDbArc
 50
90.0
 51
180.0
  0
LINE
  5
1B54F
330
1F
100
AcDbEntity
  8
AM_0
100
AcDbLine
 10
24052.8670024522
 20
1107.151284827031
 30
0.0
 11
24051.50190585635
 21
1091.539478909401
 31
0.0
  0
ARC
  5
1B550
330
1F
100
AcDbEntity
  8
AM_0
100
AcDbCircle
 10
24052.78296609528
 20
1091.427358754451
 30
0.0
 40
1.285957334009131
100
AcDbArc
 50
174.9981399515237
 51
265.0051399515056
  0
LINE
  5
1B551
330
1F
100
AcDbEntity
  8
AM_0
100
AcDbLine
 10
24052.6710024522
 20
1090.14628482703
 30
0.0
 11
24076.59280836983
 21
1088.053188231191
 31
0.0
  0
ARC
  5
1B552
330
1F
100
AcDbEntity
  8
AM_0
100
AcDbCircle
 10
24076.70535711309
 20
1089.334833570297
 30
0.0
 40
1.286577628772747
100
AcDbArc
 50
264.9813979263121
 51
354.9813979262993
  0
LINE
  5
1B553
330
1F
100
AcDbEntity
  8
AM_0
100
AcDbLine
 10
24077.9870024522
 20
1089.222284827031
 30
0.0
 11
24079.3530024522
 21
1104.833284827032
 31
0.0
  0
ARC
  5
1B554
330
1F
100
AcDbEntity
  8
AM_0
100
AcDbCircle
 10
24078.07148722077
 20
1104.945880053786
 30
0.0
 40
1.286452087512168
100
AcDbArc
 50
354.9788286727546
 51
84.97282867274092
  0
LINE
  5
1B555
330
1F
100
AcDbEntity
  8
AM_0
100
AcDbLine
 10
24078.18421664687
 20
1106.227383487242
 30
0.0
 11
24054.2610024522
 21
1108.320284827029
 31
0.0
  0
ARC
  5
1B556
330
1F
100
AcDbEntity
  8
AM_0
100
AcDbCircle
 10
24054.14854325942
 20
1107.038736165551
 30
0.0
 40
1.286473490506342
100
AcDbArc
 50
84.98499429169953
 51
174.9809942916459
  0
LINE
  5
1B557
330
1F
100
AcDbEntity
  8
AM_0
100
AcDbLine
 10
23737.5690024522
 20
789.4572848270319
 30
0.0
 11
23720.4160024522
 21
789.4572848270319
 31
0.0
  0
LINE
  5
1B558
102
{ACAD_REACTORS
330
1B746
102
}
330
1F
100
AcDbEntity
  8
AM_0
100
AcDbLine
 10
23720.4160024522
 20
789.4572848270319
 30
0.0
 11
23641.5140024522
 21
789.4572848270319
 31
0.0
  0
LINE
  5
1B559
330
1F
100
AcDbEntity
  8
AM_0
100
AcDbLine
 10
23678.4400024522
 20
1089.222284827031
 30
0.0
 11
23678.4400024522
 21
1054.928284827029
 31
0.0
  0
LINE
  5
1B55A
330
1F
100
AcDbEntity
  8
AM_0
100
AcDbLine
 10
23678.4400024522
 20
1054.928284827029
 30
0.0
 11
23700.6430024522
 21
1054.928284827029
 31
0.0
  0
LINE
  5
1B55B
330
1F
100
AcDbEntity
  8
AM_0
100
AcDbLine
 10
23700.6430024522
 20
1054.928284827029
 30
0.0
 11
23700.6430024522
 21
1089.222284827031
 31
0.0
  0
LINE
  5
1B55C
330
1F
100
AcDbEntity
  8
AM_0
100
AcDbLine
 10
23884.3820024522
 20
969.618284827032
 30
0.0
 11
23895.9600024522
 21
969.618284827032
 31
0.0
  0
LINE
  5
1B55D
330
1F
100
AcDbEntity
  8
AM_0
100
AcDbLine
 10
23895.9600024522
 20
969.618284827032
 30
0.0
 11
23895.9600024522
 21
1015.93128482703
 31
0.0
  0
LINE
  5
1B55E
330
1F
100
AcDbEntity
  8
AM_0
100
AcDbLine
 10
23895.9600024522
 20
1015.93128482703
 30
0.0
 11
23895.9600024522
 21
1062.243284827032
 31
0.0
  0
LINE
  5
1B55F
330
1F
100
AcDbEntity
  8
AM_0
100
AcDbLine
 10
23895.9600024522
 20
1062.243284827032
 30
0.0
 11
23884.3820024522
 21
1062.243284827032
 31
0.0
  0
LINE
  5
1B560
330
1F
100
AcDbEntity
  8
AM_0
100
AcDbLine
 10
23974.8630024522
 20
913.8832848270313
 30
0.0
 11
24019.71472177446
 21
931.3277416206211
 31
0.0
  0
ARC
  5
1B561
330
1F
100
AcDbEntity
  8
AM_0
100
AcDbCircle
 10
24017.7020024522
 20
934.159284827033
 30
0.0
 40
3.473999999997151
100
AcDbArc
 50
305.4059999999763
 51
0.0
  0
LINE
  5
1B562
330
1F
100
AcDbEntity
  8
AM_0
100
AcDbLine
 10
24078.55869434676
 20
1049.019069013501
 30
0.0
 11
24043.95669434676
 21
1052.046069013499
 31
0.0
  0
ARC
  5
1B563
330
1F
100
AcDbEntity
  8
AM_0
100
AcDbCircle
 10
24043.65374049271
 20
1048.586330972982
 30
0.0
 40
3.472976871026131
100
AcDbArc
 50
84.99562839142019
 51
174.9956283914046
  0
LINE
  5
1B564
330
1F
100
AcDbEntity
  8
AM_0
100
AcDbLine
 10
24040.1940024522
 20
1048.889284827032
 30
0.0
 11
24035.31403134494
 21
993.1178294217998
 31
0.0
  0
ARC
  5
1B565
330
1F
100
AcDbEntity
  8
AM_0
100
AcDbCircle
 10
24041.08119056014
 20
992.613453099536
 30
0.0
 40
5.789172729142949
100
AcDbArc
 50
175.0018213246674
 51
233.6688213244573
  0
ARC
  5
1B566
330
1F
100
AcDbEntity
  8
AM_0
100
AcDbCircle
 10
24058.23071078069
 20
1015.931769760292
 30
0.0
 40
34.73481032075447
100
AcDbArc
 50
233.6675326537281
 51
296.3315326536962
  0
ARC
  5
1B567
330
1F
100
AcDbEntity
  8
AM_0
100
AcDbCircle
 10
24071.07042209626
 20
989.9890828317939
 30
0.0
 40
5.788632828837473
100
AcDbArc
 50
296.3291642093919
 51
354.9971642094009
  0
LINE
  5
1B568
330
1F
100
AcDbEntity
  8
AM_0
100
AcDbLine
 10
24076.8370024522
 20
989.48428482703
 30
0.0
 11
24081.7160024522
 21
1045.256284827031
 31
0.0
  0
ARC
  5
1B569
330
1F
100
AcDbEntity
  8
AM_0
100
AcDbCircle
 10
24078.25595630624
 20
1045.559022867545
 30
0.0
 40
3.4732649846083
100
AcDbArc
 50
354.9996182924413
 51
84.99961829244178
  0
ARC
  5
1B56A
330
1F
100
AcDbEntity
  8
AM_0
100
AcDbCircle
 10
23689.54200245217
 20
1018.389284827033
 30
0.0
 40
84.23099999999616
100
AcDbArc
 50
99.04699999998113
 51
262.4269999999889
  0
ARC
  5
1B56B
330
1F
100
AcDbEntity
  8
AM_0
100
AcDbCircle
 10
23689.54200245218
 20
1018.389284827036
 30
0.0
 40
84.23100000000024
100
AcDbArc
 50
262.4269999999889
 51
80.95300000001886
  0
LINE
  5
1B56C
330
1F
100
AcDbEntity
  8
AM_0
100
AcDbLine
 10
23720.4170024522
 20
1018.32428482703
 30
0.0
 11
23735.0270024522
 21
1018.32428482703
 31
0.0
  0
LINE
  5
1B56D
330
1F
100
AcDbEntity
  8
AM_0
100
AcDbLine
 10
23735.0270024522
 20
1018.32428482703
 30
0.0
 11
23735.0270024522
 21
981.1732848270322
 31
0.0
  0
LINE
  5
1B56E
330
1F
100
AcDbEntity
  8
AM_0
100
AcDbLine
 10
23735.0270024522
 20
981.1732848270322
 30
0.0
 11
23720.4160024522
 21
985.3032848270297
 31
0.0
  0
LINE
  5
1B56F
330
1F
100
AcDbEntity
  8
AM_0
100
AcDbLine
 10
23720.4160024522
 20
985.3032848270297
 30
0.0
 11
23658.6670024522
 21
985.3032848270297
 31
0.0
  0
LINE
  5
1B570
330
1F
100
AcDbEntity
  8
AM_0
100
AcDbLine
 10
23658.6670024522
 20
985.3032848270297
 30
0.0
 11
23644.0560024522
 21
981.1732848270322
 31
0.0
  0
LINE
  5
1B571
330
1F
100
AcDbEntity
  8
AM_0
100
AcDbLine
 10
23644.0560024522
 20
981.1732848270322
 30
0.0
 11
23644.0560024522
 21
1018.32428482703
 31
0.0
  0
LINE
  5
1B572
330
1F
100
AcDbEntity
  8
AM_0
100
AcDbLine
 10
23644.0560024522
 20
1018.32428482703
 30
0.0
 11
23658.6670024522
 21
1018.32428482703
 31
0.0
  0
LINE
  5
1B573
330
1F
100
AcDbEntity
  8
AM_0
100
AcDbLine
 10
23720.4160024522
 20
985.3032848270297
 30
0.0
 11
23720.4160024522
 21
1032.563284827031
 31
0.0
  0
LINE
  5
1B574
330
1F
100
AcDbEntity
  8
AM_0
100
AcDbLine
 10
23720.4160024522
 20
1032.563284827031
 30
0.0
 11
23700.6430024522
 21
1054.928284827029
 31
0.0
  0
LINE
  5
1B575
330
1F
100
AcDbEntity
  8
AM_0
100
AcDbLine
 10
23658.6670024522
 20
985.3032848270297
 30
0.0
 11
23658.6670024522
 21
1032.563284827031
 31
0.0
  0
LINE
  5
1B576
330
1F
100
AcDbEntity
  8
AM_0
100
AcDbLine
 10
23658.6670024522
 20
1032.563284827031
 30
0.0
 11
23678.4400024522
 21
1054.928284827029
 31
0.0
  0
DIMENSION
  5
1B738
102
{ACAD_XDICTIONARY
360
1B745
102
}
102
{ACAD_REACTORS
330
1B746
102
}
330
1F
100
AcDbEntity
  8
AM_5
100
AcDbDimension
  2
*D3
 10
23509.2997429469
 20
789.4572848270319
 30
0.0
 11
23485.41775113244
 21
1004.748284827034
 31
0.0
 70
    32
  1
430
 71
     5
 42
430.5819999999974
  3
GEN-ISO$0
100
AcDbAlignedDimension
 13
23647.7330024522
 23
1220.039284827029
 33
0.0
 14
23647.7330024522
 24
789.4572848270319
 34
0.0
 50
90.00000000000003
100
AcDbRotatedDimension
1001
ACAD_DSTYLE_DIMINSPECT
1070
   396
1000
100%
1070
   395
1000

1070
   394
1070
    33
1070
   393
1070
     0
  0
DIMENSION
  5
1B76B
102
{ACAD_XDICTIONARY
360
1B778
102
}
102
{ACAD_REACTORS
330
1B779
102
}
330
1F
100
AcDbEntity
  8
AM_5
100
AcDbDimension
  2
*D4
 10
23579.24803362196
 20
599.4061110676402
 30
0.0
 11
23689.54117435845
 21
599.4061110676402
 31
0.0
 70
   160
  1
240
 71
     5
 42
220.5862814729626
  3
GEN-ISO$0
100
AcDbAlignedDimension
 13
23799.83431509493
 23
1017.952079859939
 33
0.0
 14
23579.24803362196
 24
1017.952736047444
 34
0.0
 50
0.0000000000001132
100
AcDbRotatedDimension
1001
ACAD_DSTYLE_DIMINSPECT
1070
   396
1000
100%
1070
   395
1000

1070
   394
1070
    33
1070
   393
1070
     0
  0
DIMENSION
  5
1B79E
102
{ACAD_XDICTIONARY
360
1B7AD
102
}
102
{ACAD_REACTORS
330
1B7AE
102
}
330
1F
100
AcDbEntity
  8
AM_5
100
AcDbDimension
  2
*D5
 10
23974.8630024522
 20
675.6650164391003
 30
0.0
 11
23929.6230024522
 21
699.5350710093595
 31
0.0
 70
    32
  1
90
 71
     5
 42
90.48000000000319
  3
GEN-ISO$0
100
AcDbAlignedDimension
 13
23884.3830024522
 23
798.0332848270328
 33
0.0
 14
23974.8630024522
 24
798.0332848270328
 34
0.0
 50
0.0000000000001132
100
AcDbRotatedDimension
1001
ACAD_DSTYLE_DIMINSPECT
1070
   396
1000
100%
1070
   395
1000

1070
   394
1070
    33
1070
   393
1070
     0
  0
DIMENSION
  5
1B7D0
102
{ACAD_XDICTIONARY
360
1B7DD
102
}
102
{ACAD_REACTORS
330
1B7DE
102
}
330
1F
100
AcDbEntity
  8
AM_5
100
AcDbDimension
  2
*D6
 10
24110.00589723438
 20
599.4061110676402
 30
0.0
 11
23997.19444984329
 21
599.4061110676402
 31
0.0
 70
   160
  1
225
 71
     5
 42
225.6228947821801
  3
GEN-ISO$0
100
AcDbAlignedDimension
 13
23884.3830024522
 23
798.0332848270328
 33
0.0
 14
24110.00589723438
 24
1462.724443434585
 34
0.0
100
AcDbRotatedDimension
1001
ACAD_DSTYLE_DIMINSPECT
1070
   396
1000
100%
1070
   395
1000

1070
   394
1070
    33
1070
   393
1070
     0
  0
DIMENSION
  5
1B803
102
{ACAD_XDICTIONARY
360
1B810
102
}
102
{ACAD_REACTORS
330
1B811
102
}
330
1F
100
AcDbEntity
  8
AM_5
100
AcDbDimension
  2
*D7
 10
24224.22810833491
 20
1453.994657319058
 30
0.0
 11
24180.80542268721
 21
1231.501228004306
 31
0.0
 70
    33
  1
470
 71
     5
 42
450.861735843313
  3
GEN-ISO$0
100
AcDbAlignedDimension
 13
24058.2300024522
 23
1015.93128482703
 33
0.0
 14
24097.51685289224
 24
1465.07808513863
 34
0.0
1001
ACAD_DSTYLE_DIMINSPECT
1070
   396
1000
100%
1070
   395
1000

1070
   394
1070
    33
1070
   393
1070
     0
  0
LINE
  5
1B84B
330
1F
100
AcDbEntity
  8
AM_0
100
AcDbLine
 10
23548.35620567733
 20
660.309082641882
 30
0.0
 11
23554.60826431569
 21
689.0120639989208
 31
0.0
  0
LINE
  5
1B84C
330
1F
100
AcDbEntity
  8
AM_0
100
AcDbLine
 10
23544.33118184828
 20
733.842328179956
 30
0.0
 11
23535.47411544941
 21
693.1798477987749
 31
0.0
  0
LINE
  5
1B84D
330
1F
100
AcDbEntity
  8
AM_0
100
AcDbLine
 10
23536.34503680574
 20
735.5818634038232
 30
0.0
 11
23527.48797040687
 21
694.9193830226386
 31
0.0
  0
SPLINE
  5
1B84E
330
1F
100
AcDbEntity
  8
AM_0
100
AcDbSpline
210
0.0
220
0.0
230
1.0
 70
     8
 71
     3
 72
    36
 73
    32
 74
     0
 42
0.0000000001
 43
0.0000000001
 40
88.56804993670948
 40
88.56804993670948
 40
88.56804993670948
 40
88.56804993670948
 40
89.02158429503518
 40
89.02158429503518
 40
91.56505813203619
 40
91.56505813203619
 40
94.10853196903719
 40
94.10853196903719
 40
96.65200580603821
 40
96.65200580603821
 40
99.19547964303921
 40
99.19547964303921
 40
101.7389534800402
 40
101.7389534800402
 40
104.2824273170412
 40
104.2824273170412
 40
106.8259011540422
 40
106.8259011540422
 40
108.0976380725427
 40
108.0976380725427
 40
109.3693749910432
 40
109.3693749910432
 40
110.6411119095437
 40
110.6411119095437
 40
111.9128488280442
 40
111.9128488280442
 40
116.9997965020462
 40
116.9997965020462
 40
119.5432703390472
 40
119.5432703390472
 40
122.0867441760482
 40
122.0867441760482
 40
122.0867441760482
 40
122.0867441760482
 10
23705.701415369
 20
789.4572848270319
 30
0.0
 10
23705.6823661691
 20
788.3773138292958
 30
0.0
 10
23705.65004539488
 20
787.2996819862639
 30
0.0
 10
23705.35107663829
 20
780.2002939101612
 30
0.0
 10
23704.70615323313
 20
774.2780338529582
 30
0.0
 10
23702.63327109741
 20
762.2611431901141
 30
0.0
 10
23701.26125485622
 20
756.4927192126697
 30
0.0
 10
23697.83449912738
 20
745.0665891151829
 30
0.0
 10
23695.76693789276
 20
739.4127322247595
 30
0.0
 10
23691.02151087958
 20
728.5123149723577
 30
0.0
 10
23688.30924774482
 20
723.1790583145712
 30
0.0
 10
23682.22164375956
 20
712.9172863192934
 30
0.0
 10
23678.84856063018
 20
707.987431798917
 30
0.0
 10
23671.3836619003
 20
698.6305050754681
 30
0.0
 10
23667.27826391634
 20
694.1898059428377
 30
0.0
 10
23658.29627546818
 20
686.0238193175036
 30
0.0
 10
23653.4263720148
 20
682.2911796255056
 30
0.0
 10
23645.33179503492
 20
677.3494619094008
 30
0.0
 10
23642.57400055613
 20
675.8552905721708
 30
0.0
 10
23636.77325713144
 20
673.1249399540547
 30
0.0
 10
23633.72576037916
 20
671.8984331370311
 30
0.0
 10
23627.65242858896
 20
669.8629464233936
 30
0.0
 10
23624.60060107365
 20
669.0360904178078
 30
0.0
 10
23618.50359133423
 20
667.7202660010471
 30
0.0
 10
23615.4574863759
 20
667.2355768160823
 30
0.0
 10
23601.05597097491
 20
665.5749739447574
 30
0.0
 10
23589.86726882694
 20
666.3429220172375
 30
0.0
 10
23574.44051840975
 20
668.5116561048171
 30
0.0
 10
23569.56428767284
 20
669.396381591524
 30
0.0
 10
23560.11430200326
 20
671.2755507513766
 30
0.0
 10
23555.54121469003
 20
672.2733501986503
 30
0.0
 10
23551.16966124086
 20
673.2255581997951
 30
0.0
  0
SPLINE
  5
1B84F
330
1F
100
AcDbEntity
  8
AM_0
100
AcDbSpline
210
0.0
220
0.0
230
1.0
 70
     8
 71
     3
 72
     9
 73
     5
 74
     0
 42
0.0000000001
 43
0.0000000001
 40
88.67496780005195
 40
88.67496780005195
 40
88.67496780005195
 40
88.67496780005195
 40
109.0421280019296
 40
122.0867441760483
 40
122.0867441760483
 40
122.0867441760483
 40
122.0867441760483
 10
23673.38158953539
 20
789.4572848270318
 30
0.0
 10
23672.52010724849
 20
752.8362412742417
 30
0.0
 10
23637.92857992844
 20
687.3988040835147
 30
0.0
 10
23580.4770696122
 20
699.9128424996788
 30
0.0
 10
23558.04686739053
 20
704.7985697980429
 30
0.0
  0
LINE
  5
1B850
330
1F
100
AcDbEntity
  8
AM_0
100
AcDbLine
 10
23560.86032295407
 20
717.7150453559542
 30
0.0
 11
23541.72617408778
 21
721.8828291558102
 31
0.0
  0
LINE
  5
1B851
330
1F
100
AcDbEntity
  8
AM_0
100
AcDbLine
 10
23554.60826431569
 20
689.0120639989208
 30
0.0
 11
23560.86032295407
 21
717.7150453559542
 31
0.0
  0
LINE
  5
1B852
330
1F
100
AcDbEntity
  8
AM_0
100
AcDbLine
 10
23544.33118184828
 20
733.842328179956
 30
0.0
 11
23536.34503680574
 21
735.5818634038232
 31
0.0
  0
LINE
  5
1B853
330
1F
100
AcDbEntity
  8
AM_0
100
AcDbLine
 10
23548.35620567733
 20
660.309082641882
 30
0.0
 11
23529.22205681104
 21
664.4768664417361
 31
0.0
  0
LINE
  5
1B854
330
1F
100
AcDbEntity
  8
AM_0
100
AcDbLine
 10
23526.61703237838
 20
652.517290876306
 30
0.0
 11
23535.47411544941
 21
693.1798477987749
 31
0.0
  0
LINE
  5
1B855
330
1F
100
AcDbEntity
  8
AM_0
100
AcDbLine
 10
23518.63088733584
 20
654.2568261001715
 30
0.0
 11
23527.48797040687
 21
694.9193830226386
 31
0.0
  0
LINE
  5
1B856
330
1F
100
AcDbEntity
  8
AM_0
100
AcDbLine
 10
23526.61703237838
 20
652.517290876306
 30
0.0
 11
23518.63088733584
 21
654.2568261001715
 31
0.0
  0
LINE
  5
1B860
330
1F
100
AcDbEntity
  8
AM_5
 62
     3
100
AcDbLine
 10
23689.54200245219
 20
806.8957848270285
 30
0.0
 11
23689.54200245219
 21
833.8832848270314
 31
0.0
  0
SOLID
  5
1B861
330
1F
100
AcDbEntity
  8
AM_5
 62
     3
100
AcDbTrace
 10
23681.20866911886
 20
833.8832848270314
 30
0.0
 11
23697.87533578553
 21
833.8832848270314
 31
0.0
 12
23689.54200245219
 22
883.8832848270314
 32
0.0
 13
23689.54200245219
 23
883.8832848270314
 33
0.0
  0
LINE
  5
1B868
330
1F
100
AcDbEntity
  8
AM_0
100
AcDbLine
 10
23673.38158953539
 20
789.4572848270318
 30
0.0
 11
23705.701415369
 21
789.4572848270318
 31
0.0
  0
LINE
  5
1B872
330
1F
100
AcDbEntity
  8
AM_0
100
AcDbLine
 10
23830.72679922707
 20
1349.18748701218
 30
0.0
 11
23824.4747405887
 21
1320.484505655141
 31
0.0
  0
LINE
  5
1B873
330
1F
100
AcDbEntity
  8
AM_0
100
AcDbLine
 10
23834.75182305611
 20
1275.654241474106
 30
0.0
 11
23843.60888945499
 21
1316.316721855288
 31
0.0
  0
LINE
  5
1B874
330
1F
100
AcDbEntity
  8
AM_0
100
AcDbLine
 10
23842.73796809865
 20
1273.914706250239
 30
0.0
 11
23851.59503449753
 21
1314.577186631424
 31
0.0
  0
SPLINE
  5
1B875
330
1F
100
AcDbEntity
  8
AM_0
100
AcDbSpline
210
0.0
220
0.0
230
1.0
 70
     8
 71
     3
 72
    12
 73
     8
 74
     0
 42
0.0000000001
 43
0.0000000001
 40
88.56804993670948
 40
88.56804993670948
 40
88.56804993670948
 40
88.56804993670948
 40
89.02158429503518
 40
89.02158429503518
 40
91.56505813203619
 40
91.56505813203619
 40
93.54147944588824
 40
93.54147944588824
 40
93.54147944588824
 40
93.54147944588824
 10
23673.38158953539
 20
1220.039284827031
 30
0.0
 10
23673.40063873529
 20
1221.119255824766
 30
0.0
 10
23673.43295950951
 20
1222.196887667798
 30
0.0
 10
23673.7319282661
 20
1229.296275743901
 30
0.0
 10
23674.37685167127
 20
1235.218535801104
 30
0.0
 10
23676.21866537055
 20
1245.895878938111
 30
0.0
 10
23677.22666361006
 20
1250.419848046139
 30
0.0
 10
23678.4400024522
 20
1254.885531818879
 30
0.0
  0
SPLINE
  5
1B876
330
1F
100
AcDbEntity
  8
AM_0
100
AcDbSpline
210
0.0
220
0.0
230
1.0
 70
     8
 71
     3
 72
     9
 73
     5
 74
     0
 42
0.0000000001
 43
0.0000000001
 40
88.67496780005195
 40
88.67496780005195
 40
88.67496780005195
 40
88.67496780005195
 40
109.0421280019296
 40
122.0867441760483
 40
122.0867441760483
 40
122.0867441760483
 40
122.0867441760483
 10
23705.70141536901
 20
1220.039284827031
 30
0.0
 10
23706.5628976559
 20
1256.660328379821
 30
0.0
 10
23741.15442497595
 20
1322.097765570548
 30
0.0
 10
23798.60593529219
 20
1309.583727154383
 30
0.0
 10
23821.03613751387
 20
1304.697999856019
 30
0.0
  0
LINE
  5
1B877
330
1F
100
AcDbEntity
  8
AM_0
100
AcDbLine
 10
23818.22268195033
 20
1291.781524298108
 30
0.0
 11
23837.35683081661
 21
1287.613740498252
 31
0.0
  0
LINE
  5
1B878
330
1F
100
AcDbEntity
  8
AM_0
100
AcDbLine
 10
23824.4747405887
 20
1320.484505655141
 30
0.0
 11
23818.22268195033
 21
1291.781524298108
 31
0.0
  0
LINE
  5
1B879
330
1F
100
AcDbEntity
  8
AM_0
100
AcDbLine
 10
23834.75182305611
 20
1275.654241474106
 30
0.0
 11
23842.73796809865
 21
1273.914706250239
 31
0.0
  0
LINE
  5
1B87A
330
1F
100
AcDbEntity
  8
AM_0
100
AcDbLine
 10
23830.72679922707
 20
1349.18748701218
 30
0.0
 11
23849.86094809335
 21
1345.019703212326
 31
0.0
  0
LINE
  5
1B87B
330
1F
100
AcDbEntity
  8
AM_0
100
AcDbLine
 10
23852.46597252601
 20
1356.979278777756
 30
0.0
 11
23843.60888945499
 21
1316.316721855288
 31
0.0
  0
LINE
  5
1B87C
330
1F
100
AcDbEntity
  8
AM_0
100
AcDbLine
 10
23860.45211756856
 20
1355.239743553891
 30
0.0
 11
23851.59503449753
 21
1314.577186631424
 31
0.0
  0
LINE
  5
1B87D
330
1F
100
AcDbEntity
  8
AM_0
100
AcDbLine
 10
23852.46597252601
 20
1356.979278777756
 30
0.0
 11
23860.45211756856
 21
1355.239743553891
 31
0.0
  0
SPLINE
  5
1B87E
330
1F
100
AcDbEntity
  8
AM_0
100
AcDbSpline
210
0.0
220
0.0
230
1.0
 70
     8
 71
     3
 72
    26
 73
    22
 74
     0
 42
0.0000000001
 43
0.0000000001
 40
100.961231833649
 40
100.961231833649
 40
100.961231833649
 40
100.961231833649
 40
101.7389534800402
 40
101.7389534800402
 40
104.2824273170412
 40
104.2824273170412
 40
106.8259011540422
 40
106.8259011540422
 40
108.0976380725427
 40
108.0976380725427
 40
109.3693749910432
 40
109.3693749910432
 40
110.6411119095437
 40
110.6411119095437
 40
111.9128488280442
 40
111.9128488280442
 40
116.9997965020462
 40
116.9997965020462
 40
119.5432703390472
 40
119.5432703390472
 40
122.0867441760482
 40
122.0867441760482
 40
122.0867441760482
 40
122.0867441760482
 10
23700.64300245221
 20
1301.826907215742
 30
0.0
 10
23701.71794020532
 20
1303.30301618972
 30
0.0
 10
23702.82561723877
 20
1304.757060758647
 30
0.0
 10
23707.6993430041
 20
1310.866064578594
 30
0.0
 10
23711.80474098805
 20
1315.306763711225
 30
0.0
 10
23720.78672943621
 20
1323.472750336559
 30
0.0
 10
23725.6566328896
 20
1327.205390028557
 30
0.0
 10
23733.75120986948
 20
1332.147107744662
 30
0.0
 10
23736.50900434826
 20
1333.641279081892
 30
0.0
 10
23742.30974777296
 20
1336.371629700008
 30
0.0
 10
23745.35724452524
 20
1337.598136517031
 30
0.0
 10
23751.43057631543
 20
1339.633623230669
 30
0.0
 10
23754.48240383075
 20
1340.460479236255
 30
0.0
 10
23760.57941357017
 20
1341.776303653015
 30
0.0
 10
23763.62551852849
 20
1342.26099283798
 30
0.0
 10
23778.02703392948
 20
1343.921595709305
 30
0.0
 10
23789.21573607745
 20
1343.153647636825
 30
0.0
 10
23804.64248649465
 20
1340.984913549245
 30
0.0
 10
23809.51871723155
 20
1340.100188062538
 30
0.0
 10
23818.96870290113
 20
1338.221018902686
 30
0.0
 10
23823.54179021437
 20
1337.223219455412
 30
0.0
 10
23827.91334366353
 20
1336.271011454267
 30
0.0
  0
LINE
  5
1B97B
330
1F
100
AcDbEntity
  8
0
  6
Continuous
 62
     7
100
AcDbLine
 10
23889.70603223892
 20
381.8460183537575
 30
0.0
 11
23933.20603223894
 21
381.8460183537575
 31
0.0
  0
LINE
  5
1B97C
330
1F
100
AcDbEntity
  8
0
  6
Continuous
 62
     7
100
AcDbLine
 10
23930.20603223892
 20
381.8460183537575
 30
0.0
 11
23929.70603223892
 21
381.8460183537575
 31
0.0
  0
LINE
  5
1B97D
330
1F
100
AcDbEntity
  8
0
  6
Continuous
 62
     7
100
AcDbLine
 10
23889.70603223892
 20
391.8460183537575
 30
0.0
 11
23933.20603223894
 21
391.8460183537575
 31
0.0
  0
LINE
  5
1B97F
330
1F
100
AcDbEntity
  8
0
  6
Continuous
 62
     7
100
AcDbLine
 10
23933.20603223894
 20
391.8460183537575
 30
0.0
 11
23933.20603223894
 21
381.8460183537575
 31
0.0
  0
LINE
  5
1B980
330
1F
100
AcDbEntity
  8
0
  6
Continuous
 62
     7
100
AcDbLine
 10
23932.70603223891
 20
374.3460183537575
 30
0.0
 11
23932.70603223891
 21
381.8460183537575
 31
0.0
  0
LINE
  5
1B981
330
1F
100
AcDbEntity
  8
0
  6
Continuous
 62
     7
100
AcDbLine
 10
23932.70603223891
 20
391.8460183537575
 30
0.0
 11
23932.70603223891
 21
408.6663450916189
 31
0.0
  0
LINE
  5
1B982
330
1F
100
AcDbEntity
  8
0
  6
Continuous
 62
     7
100
AcDbLine
 10
23932.70603223891
 20
418.6663450916189
 30
0.0
 11
23932.70603223891
 21
426.1663450916189
 31
0.0
  0
LINE
  5
1B983
330
1F
100
AcDbEntity
  8
0
  6
Continuous
 62
     7
100
AcDbLine
 10
23890.20603223892
 20
374.3460183537575
 30
0.0
 11
23890.20603223891
 21
381.8460183537575
 31
0.0
  0
LINE
  5
1B984
330
1F
100
AcDbEntity
  8
0
  6
Continuous
 62
     7
100
AcDbLine
 10
23890.20603223892
 20
391.8460183537575
 30
0.0
 11
23890.20603223892
 21
408.6663450916189
 31
0.0
  0
LINE
  5
1B985
330
1F
100
AcDbEntity
  8
0
  6
Continuous
 62
     7
100
AcDbLine
 10
23890.20603223892
 20
418.6663450916189
 30
0.0
 11
23890.20603223892
 21
426.1663450916189
 31
0.0
  0
LINE
  5
1B986
330
1F
100
AcDbEntity
  8
0
  6
Continuous
 62
     7
100
AcDbLine
 10
23889.70603223892
 20
391.8460183537575
 30
0.0
 11
23889.70603223892
 21
381.8460183537575
 31
0.0
  0
LINE
  5
1B987
330
1F
100
AcDbEntity
  8
0
  6
Continuous
 62
     2
100
AcDbLine
 10
23933.20603223894
 20
391.7925183537593
 30
0.0
 11
23933.15253223891
 21
391.8460183537575
 31
0.0
  0
LINE
  5
1B988
330
1F
100
AcDbEntity
  8
0
  6
Continuous
 62
     7
100
AcDbLine
 10
23932.70603223891
 20
426.1663450916189
 30
0.0
 11
23890.20603223892
 21
426.1663450916189
 31
0.0
  0
LINE
  5
1B989
330
1F
100
AcDbEntity
  8
0
100
AcDbLine
 10
23932.70603223891
 20
374.3460183537575
 30
0.0
 11
23890.20603223892
 21
374.3460183537575
 31
0.0
  0
LINE
  5
1B98A
330
1F
100
AcDbEntity
  8
0
100
AcDbLine
 10
23912.95258002083
 20
391.8460183537575
 30
0.0
 11
23912.95258002083
 21
390.3460183537575
 31
0.0
1001
GENIUS_GENOREF_13
1005
1B9CE
1005
1B9CD
1005
1B9CC
1005
1B9CB
  0
LINE
  5
1B98B
330
1F
100
AcDbEntity
  8
0
100
AcDbLine
 10
23909.95948445703
 20
391.8460183537575
 30
0.0
 11
23909.95948445703
 21
390.8460183537579
 31
0.0
1001
GENIUS_GENOREF_13
1005
1B9CE
1005
1B9CD
1005
1B9CC
1005
1B9CB
  0
LINE
  5
1B98C
330
1F
100
AcDbEntity
  8
AM_0N
100
AcDbLine
 10
23917.15258002083
 20
390.096018353757
 30
0.0
 11
23913.55258002082
 21
390.0960183537575
 31
0.0
1001
GENIUS_GENOREF_13
1005
0
1005
1B9CD
1005
1B9CC
1005
1B9CB
1005
1B9C9
  0
LINE
  5
1B98D
330
1F
100
AcDbEntity
  8
AM_0N
100
AcDbLine
 10
23917.15258002083
 20
383.596018353757
 30
0.0
 11
23913.55258002083
 21
383.5960183537575
 31
0.0
1001
GENIUS_GENOREF_13
1005
0
1005
1B9CD
1005
1B9CC
1005
1B9CB
1005
1B9C9
  0
LINE
  5
1B98E
330
1F
100
AcDbEntity
  8
AM_0N
100
AcDbLine
 10
23917.55258002083
 20
383.9960183537566
 30
0.0
 11
23917.55258002083
 21
389.696018353757
 31
0.0
1001
GENIUS_GENOREF_13
1005
0
1005
1B9CD
1005
1B9CC
1005
1B9CB
1005
1B9C9
  0
ARC
  5
1B98F
330
1F
100
AcDbEntity
  8
AM_0N
100
AcDbCircle
 10
23917.15258002083
 20
383.9960183537566
 30
0.0
 40
0.4
100
AcDbArc
 50
270.0
 51
0.0
1001
GENIUS_GENOREF_13
1005
0
1005
1B9CD
1005
1B9CC
1005
1B9CB
1005
1B9C9
  0
ARC
  5
1B990
330
1F
100
AcDbEntity
  8
AM_0N
100
AcDbCircle
 10
23917.15258002083
 20
389.696018353757
 30
0.0
 40
0.4
100
AcDbArc
 50
0.0
 51
90.0
1001
GENIUS_GENOREF_13
1005
0
1005
1B9CD
1005
1B9CC
1005
1B9CB
1005
1B9C9
  0
LINE
  5
1B991
330
1F
100
AcDbEntity
  8
AM_4N
100
AcDbLine
 10
23903.55258002082
 20
385.2294246037589
 30
0.0
 11
23905.90948445704
 21
385.2294246037584
 31
0.0
1001
GENIUS_GENOREF_13
1005
0
1005
1B9CD
1005
1B9CC
1005
1B9CB
1005
1B9C9
  0
LINE
  5
1B992
330
1F
100
AcDbEntity
  8
AM_4N
100
AcDbLine
 10
23903.55258002082
 20
388.4626121037588
 30
0.0
 11
23905.90948445704
 21
388.4626121037584
 31
0.0
1001
GENIUS_GENOREF_13
1005
0
1005
1B9CD
1005
1B9CC
1005
1B9CB
1005
1B9C9
  0
LINE
  5
1B993
330
1F
100
AcDbEntity
  8
AM_0N
100
AcDbLine
 10
23903.93598627083
 20
384.8460183537588
 30
0.0
 11
23903.55258002082
 21
385.2294246037589
 31
0.0
1001
GENIUS_GENOREF_13
1005
0
1005
1B9CD
1005
1B9CC
1005
1B9CB
1005
1B9C9
  0
LINE
  5
1B994
330
1F
100
AcDbEntity
  8
AM_0N
100
AcDbLine
 10
23903.93598627083
 20
388.8460183537588
 30
0.0
 11
23903.55258002082
 21
388.4626121037588
 31
0.0
1001
GENIUS_GENOREF_13
1005
0
1005
1B9CD
1005
1B9CC
1005
1B9CB
1005
1B9C9
  0
LINE
  5
1B995
330
1F
100
AcDbEntity
  8
AM_0N
100
AcDbLine
 10
23905.90948445704
 20
384.8460183537584
 30
0.0
 11
23903.93598627083
 21
384.8460183537588
 31
0.0
1001
GENIUS_GENOREF_13
1005
0
1005
1B9CD
1005
1B9CC
1005
1B9CB
1005
1B9C9
  0
LINE
  5
1B996
330
1F
100
AcDbEntity
  8
AM_0N
100
AcDbLine
 10
23905.90948445704
 20
388.8460183537584
 30
0.0
 11
23903.93598627083
 21
388.8460183537588
 31
0.0
1001
GENIUS_GENOREF_13
1005
0
1005
1B9CD
1005
1B9CC
1005
1B9CB
1005
1B9C9
  0
LINE
  5
1B997
330
1F
100
AcDbEntity
  8
AM_0N
100
AcDbLine
 10
23903.93598627083
 20
388.8460183537588
 30
0.0
 11
23903.93598627083
 21
384.8460183537588
 31
0.0
1001
GENIUS_GENOREF_13
1005
0
1005
1B9CD
1005
1B9CC
1005
1B9CB
1005
1B9C9
  0
LINE
  5
1B998
330
1F
100
AcDbEntity
  8
AM_0N
100
AcDbLine
 10
23903.55258002082
 20
388.4626121037588
 30
0.0
 11
23903.55258002082
 21
385.2294246037589
 31
0.0
1001
GENIUS_GENOREF_13
1005
0
1005
1B9CD
1005
1B9CC
1005
1B9CB
1005
1B9C9
  0
LINE
  5
1B999
330
1F
100
AcDbEntity
  8
0
100
AcDbLine
 10
23911.95603223893
 20
391.8460183537575
 30
0.0
 11
23911.95603223893
 21
381.8460183537575
 31
0.0
1001
GENIUS_GENOREF_13
1005
1B9CE
1005
1B9CD
1005
1B9CC
1005
1B9CB
  0
INSERT
  5
1B99A
330
1F
100
AcDbEntity
  8
AM_0N
100
AcDbBlockReference
  2
*U9
 10
0.0
 20
0.0
 30
0.0
1001
GENIUS_GENOREF_13
1005
1B9CA
1005
1B9C9
  0
LINE
  5
1B99B
330
1F
100
AcDbEntity
  8
0
100
AcDbLine
 10
23912.95258002083
 20
383.3460183537575
 30
0.0
 11
23912.95258002083
 21
381.8460183537575
 31
0.0
1001
GENIUS_GENOREF_13
1005
1B9CE
1005
1B9CD
1005
1B9CC
1005
1B9CB
  0
INSERT
  5
1B99C
330
1F
100
AcDbEntity
  8
AM_0N
100
AcDbBlockReference
  2
*U10
 10
0.0
 20
0.0
 30
0.0
1001
GENIUS_GENOREF_13
1005
1B9C8
1005
1B9CB
1005
1B9C9
  0
LINE
  5
1B99D
330
1F
100
AcDbEntity
  8
0
100
AcDbLine
 10
23909.95948445703
 20
382.8460183537579
 30
0.0
 11
23909.95948445703
 21
381.8460183537575
 31
0.0
1001
GENIUS_GENOREF_13
1005
1B9CE
1005
1B9CD
1005
1B9CC
1005
1B9CB
  0
INSERT
  5
1B99E
330
1F
100
AcDbEntity
  8
AM_0N
100
AcDbBlockReference
  2
*U11
 10
0.0
 20
0.0
 30
0.0
1001
GENIUS_GENOREF_13
1005
1B9C7
1005
1B9C9
  0
LINE
  5
1B99F
330
1F
100
AcDbEntity
  8
0
100
AcDbLine
 10
23909.95948445703
 20
391.8460183537575
 30
0.0
 11
23909.95948445703
 21
390.3460183537575
 31
0.0
  0
LINE
  5
1B9A0
330
1F
100
AcDbEntity
  8
0
100
AcDbLine
 10
23909.95948445703
 20
383.3460183537575
 30
0.0
 11
23909.95948445703
 21
381.8460183537575
 31
0.0
  0
LINE
  5
1B9A1
330
1F
100
AcDbEntity
  8
0
100
AcDbLine
 10
23910.95603223893
 20
391.8460183537575
 30
0.0
 11
23910.95603223893
 21
381.8460183537575
 31
0.0
  0
LINE
  5
1B9A2
330
1F
100
AcDbEntity
  8
0
  6
Continuous
 62
     7
100
AcDbLine
 10
23889.70603223892
 20
408.6663450916189
 30
0.0
 11
23933.20603223894
 21
408.6663450916189
 31
0.0
  0
LINE
  5
1B9A3
330
1F
100
AcDbEntity
  8
0
  6
Continuous
 62
     7
100
AcDbLine
 10
23930.20603223892
 20
408.6663450916189
 30
0.0
 11
23929.70603223892
 21
408.6663450916189
 31
0.0
  0
LINE
  5
1B9A4
330
1F
100
AcDbEntity
  8
0
  6
Continuous
 62
     7
100
AcDbLine
 10
23889.70603223892
 20
418.6663450916189
 30
0.0
 11
23933.20603223894
 21
418.6663450916189
 31
0.0
  0
LINE
  5
1B9A5
330
1F
100
AcDbEntity
  8
0
  6
Continuous
 62
     7
100
AcDbLine
 10
23933.20603223894
 20
418.6663450916189
 30
0.0
 11
23933.20603223894
 21
408.6663450916189
 31
0.0
  0
LINE
  5
1B9A6
330
1F
100
AcDbEntity
  8
0
  6
Continuous
 62
     7
100
AcDbLine
 10
23889.70603223892
 20
418.6663450916189
 30
0.0
 11
23889.70603223892
 21
408.6663450916189
 31
0.0
  0
LINE
  5
1B9A7
330
1F
100
AcDbEntity
  8
0
  6
Continuous
 62
     2
100
AcDbLine
 10
23933.20603223894
 20
418.6128450916207
 30
0.0
 11
23933.15253223891
 21
418.6663450916189
 31
0.0
  0
LINE
  5
1B9A8
330
1F
100
AcDbEntity
  8
0
100
AcDbLine
 10
23912.95258002083
 20
418.6663450916189
 30
0.0
 11
23912.95258002083
 21
417.1663450916189
 31
0.0
1001
GENIUS_GENOREF_13
1005
1B9C6
1005
1B9C5
1005
1B9C4
  0
LINE
  5
1B9A9
330
1F
100
AcDbEntity
  8
0
100
AcDbLine
 10
23909.95948445703
 20
418.6663450916189
 30
0.0
 11
23909.95948445703
 21
417.6663450916193
 31
0.0
1001
GENIUS_GENOREF_13
1005
1B9C6
1005
1B9C5
1005
1B9C4
  0
LINE
  5
1B9AA
330
1F
100
AcDbEntity
  8
AM_0N
100
AcDbLine
 10
23917.15258002083
 20
416.9163450916185
 30
0.0
 11
23913.55258002082
 21
416.9163450916189
 31
0.0
1001
GENIUS_GENOREF_13
1005
1B9C6
1005
1B9C5
1005
1B9C4
1005
1B9C3
  0
LINE
  5
1B9AB
330
1F
100
AcDbEntity
  8
AM_0N
100
AcDbLine
 10
23917.15258002083
 20
410.4163450916185
 30
0.0
 11
23913.55258002083
 21
410.4163450916189
 31
0.0
1001
GENIUS_GENOREF_13
1005
1B9C6
1005
1B9C5
1005
1B9C4
1005
1B9C3
  0
LINE
  5
1B9AC
330
1F
100
AcDbEntity
  8
AM_0N
100
AcDbLine
 10
23917.55258002083
 20
410.8163450916181
 30
0.0
 11
23917.55258002083
 21
416.5163450916184
 31
0.0
1001
GENIUS_GENOREF_13
1005
1B9C6
1005
1B9C5
1005
1B9C4
1005
1B9C3
  0
ARC
  5
1B9AD
330
1F
100
AcDbEntity
  8
AM_0N
100
AcDbCircle
 10
23917.15258002083
 20
410.8163450916181
 30
0.0
 40
0.4
100
AcDbArc
 50
270.0
 51
0.0
1001
GENIUS_GENOREF_13
1005
1B9C6
1005
1B9C5
1005
1B9C4
1005
1B9C3
  0
ARC
  5
1B9AE
330
1F
100
AcDbEntity
  8
AM_0N
100
AcDbCircle
 10
23917.15258002083
 20
416.5163450916184
 30
0.0
 40
0.4
100
AcDbArc
 50
0.0
 51
90.0
1001
GENIUS_GENOREF_13
1005
1B9C6
1005
1B9C5
1005
1B9C4
1005
1B9C3
  0
LINE
  5
1B9AF
330
1F
100
AcDbEntity
  8
AM_4N
100
AcDbLine
 10
23903.55258002082
 20
412.0497513416203
 30
0.0
 11
23905.90948445704
 21
412.0497513416198
 31
0.0
1001
GENIUS_GENOREF_13
1005
1B9C6
1005
1B9C5
1005
1B9C4
1005
1B9C3
  0
LINE
  5
1B9B0
330
1F
100
AcDbEntity
  8
AM_4N
100
AcDbLine
 10
23903.55258002082
 20
415.2829388416202
 30
0.0
 11
23905.90948445704
 21
415.2829388416198
 31
0.0
1001
GENIUS_GENOREF_13
1005
1B9C6
1005
1B9C5
1005
1B9C4
1005
1B9C3
  0
LINE
  5
1B9B1
330
1F
100
AcDbEntity
  8
AM_0N
100
AcDbLine
 10
23903.93598627083
 20
411.6663450916203
 30
0.0
 11
23903.55258002082
 21
412.0497513416203
 31
0.0
1001
GENIUS_GENOREF_13
1005
1B9C6
1005
1B9C5
1005
1B9C4
1005
1B9C3
  0
LINE
  5
1B9B2
330
1F
100
AcDbEntity
  8
AM_0N
100
AcDbLine
 10
23903.93598627083
 20
415.6663450916203
 30
0.0
 11
23903.55258002082
 21
415.2829388416202
 31
0.0
1001
GENIUS_GENOREF_13
1005
1B9C6
1005
1B9C5
1005
1B9C4
1005
1B9C3
  0
LINE
  5
1B9B3
330
1F
100
AcDbEntity
  8
AM_0N
100
AcDbLine
 10
23905.90948445704
 20
411.6663450916198
 30
0.0
 11
23903.93598627083
 21
411.6663450916203
 31
0.0
1001
GENIUS_GENOREF_13
1005
1B9C6
1005
1B9C5
1005
1B9C4
1005
1B9C3
  0
LINE
  5
1B9B4
330
1F
100
AcDbEntity
  8
AM_0N
100
AcDbLine
 10
23905.90948445704
 20
415.6663450916198
 30
0.0
 11
23903.93598627083
 21
415.6663450916203
 31
0.0
1001
GENIUS_GENOREF_13
1005
1B9C6
1005
1B9C5
1005
1B9C4
1005
1B9C3
  0
LINE
  5
1B9B5
330
1F
100
AcDbEntity
  8
AM_0N
100
AcDbLine
 10
23903.93598627083
 20
415.6663450916203
 30
0.0
 11
23903.93598627083
 21
411.6663450916203
 31
0.0
1001
GENIUS_GENOREF_13
1005
1B9C6
1005
1B9C5
1005
1B9C4
1005
1B9C3
  0
LINE
  5
1B9B6
330
1F
100
AcDbEntity
  8
AM_0N
100
AcDbLine
 10
23903.55258002082
 20
415.2829388416202
 30
0.0
 11
23903.55258002082
 21
412.0497513416203
 31
0.0
1001
GENIUS_GENOREF_13
1005
1B9C6
1005
1B9C5
1005
1B9C4
1005
1B9C3
  0
LINE
  5
1B9B7
330
1F
100
AcDbEntity
  8
0
100
AcDbLine
 10
23911.95603223893
 20
418.6663450916189
 30
0.0
 11
23911.95603223893
 21
408.6663450916189
 31
0.0
1001
GENIUS_GENOREF_13
1005
1B9C6
1005
1B9C5
1005
1B9C4
  0
INSERT
  5
1B9B8
330
1F
100
AcDbEntity
  8
AM_0N
100
AcDbBlockReference
  2
*U12
 10
0.0
 20
0.0
 30
0.0
1001
GENIUS_GENOREF_13
1005
1B9C2
1005
1B9C3
  0
LINE
  5
1B9B9
330
1F
100
AcDbEntity
  8
0
100
AcDbLine
 10
23912.95258002083
 20
410.166345091619
 30
0.0
 11
23912.95258002083
 21
408.6663450916189
 31
0.0
1001
GENIUS_GENOREF_13
1005
1B9C6
1005
1B9C5
1005
1B9C4
  0
INSERT
  5
1B9BA
330
1F
100
AcDbEntity
  8
AM_0N
100
AcDbBlockReference
  2
*U13
 10
0.0
 20
0.0
 30
0.0
1001
GENIUS_GENOREF_13
1005
1B9C1
1005
1B9C4
1005
1B9C3
  0
LINE
  5
1B9BB
330
1F
100
AcDbEntity
  8
0
100
AcDbLine
 10
23909.95948445703
 20
409.6663450916194
 30
0.0
 11
23909.95948445703
 21
408.6663450916189
 31
0.0
1001
GENIUS_GENOREF_13
1005
1B9C6
1005
1B9C5
1005
1B9C4
  0
INSERT
  5
1B9BC
330
1F
100
AcDbEntity
  8
AM_0N
100
AcDbBlockReference
  2
*U14
 10
0.0
 20
0.0
 30
0.0
1001
GENIUS_GENOREF_13
1005
1B9C0
1005
1B9C3
  0
LINE
  5
1B9BD
330
1F
100
AcDbEntity
  8
0
100
AcDbLine
 10
23909.95948445703
 20
418.6663450916189
 30
0.0
 11
23909.95948445703
 21
417.1663450916189
 31
0.0
  0
LINE
  5
1B9BE
330
1F
100
AcDbEntity
  8
0
100
AcDbLine
 10
23909.95948445703
 20
410.166345091619
 30
0.0
 11
23909.95948445703
 21
408.6663450916189
 31
0.0
  0
LINE
  5
1B9BF
330
1F
100
AcDbEntity
  8
0
100
AcDbLine
 10
23910.95603223893
 20
418.6663450916189
 30
0.0
 11
23910.95603223893
 21
408.6663450916189
 31
0.0
  0
POINT
  5
1B9C0
330
1F
100
AcDbEntity
  8
0
 60
     1
100
AcDbPoint
 10
-8988.276956466892
 20
-4951.16334993788
 30
0.0
1001
GENIUS_GENODEF_13
1002
{
1000
HIER
1070
     1
1002
}
1002
{
1000
MANEDIT
1070
     0
1002
}
1002
{
1000
NOSEL
1070
     1
1002
}
1002
{
1000
BEHIND
1070
     0
1002
}
1002
{
1000
OTHER
1070
     0
1002
}
1002
{
1000
REACTOR
1002
}
1001
GENIUS_GENOENT_13
1002
{
1000
MYREF
1005
1B9C0
1002
}
1002
{
1000
GRP
1005
0
1002
}
1001
GENIUS_GENOBJ-NBEHI-BHF_13
1002
{
1000
OWNER
1000
genbehi
1002
}
1001
GENIUS_GENOLIS_13
1002
{
1000
ENT
1005
1B9BC
1002
}
1001
GENIUS_GENBH_13
1002
{
1000
BGZLEVEL
1070
    -1
1002
}
1002
{
1000
FGZLEVEL
1070
    -1
1002
}
1002
{
1000
OIUMAP
1000
OIU
1002
}
1002
{
1000
FLAGS
1070
    32
1002
}
1002
{
1000
BGO
1005
1B9C4
1002
}
  0
POINT
  5
1B9C1
330
1F
100
AcDbEntity
  8
0
 60
     1
100
AcDbPoint
 10
-8988.276956466892
 20
-4951.16334993788
 30
0.0
1001
GENIUS_GENODEF_13
1002
{
1000
HIER
1070
     1
1002
}
1002
{
1000
MANEDIT
1070
     0
1002
}
1002
{
1000
NOSEL
1070
     1
1002
}
1002
{
1000
BEHIND
1070
     0
1002
}
1002
{
1000
OTHER
1070
     0
1002
}
1002
{
1000
REACTOR
1002
}
1001
GENIUS_GENOLIS_13
1002
{
1000
ENT
1005
1B9BA
1002
}
1001
GENIUS_GENOBJ-NBEHI-BHF_13
1002
{
1000
OWNER
1000
genbehi
1002
}
1001
GENIUS_GENOENT_13
1002
{
1000
MYREF
1005
1B9C1
1002
}
1002
{
1000
GRP
1005
0
1002
}
1001
GENIUS_GENBH_13
1002
{
1000
BGZLEVEL
1070
    -1
1002
}
1002
{
1000
FGZLEVEL
1070
    -1
1002
}
1002
{
1000
OIUMAP
1000
OIU
1002
}
1002
{
1000
FLAGS
1070
    32
1002
}
1002
{
1000
BGO
1005
1B9C5
1002
}
  0
POINT
  5
1B9C2
330
1F
100
AcDbEntity
  8
0
 60
     1
100
AcDbPoint
 10
-8988.276956466892
 20
-4951.16334993788
 30
0.0
1001
GENIUS_GENODEF_13
1002
{
1000
HIER
1070
     1
1002
}
1002
{
1000
MANEDIT
1070
     0
1002
}
1002
{
1000
NOSEL
1070
     1
1002
}
1002
{
1000
BEHIND
1070
     0
1002
}
1002
{
1000
OTHER
1070
     0
1002
}
1002
{
1000
REACTOR
1002
}
1001
GENIUS_GENOBJ-NBEHI-BHF_13
1002
{
1000
OWNER
1000
genbehi
1002
}
1001
GENIUS_GENOENT_13
1002
{
1000
MYREF
1005
1B9C2
1002
}
1002
{
1000
GRP
1005
0
1002
}
1001
GENIUS_GENOLIS_13
1002
{
1000
ENT
1005
1B9B8
1002
}
1001
GENIUS_GENBH_13
1002
{
1000
BGZLEVEL
1070
    -1
1002
}
1002
{
1000
FGZLEVEL
1070
    -1
1002
}
1002
{
1000
OIUMAP
1000
OIU
1002
}
1002
{
1000
FLAGS
1070
    32
1002
}
1002
{
1000
BGO
1005
1B9C6
1002
}
  0
POINT
  5
1B9C3
330
1F
100
AcDbEntity
  8
0
 60
     1
100
AcDbPoint
 10
-8988.276956466892
 20
-4951.16334993788
 30
0.0
1001
GENIUS_GENOBJ-F-SCPASSM_13
1002
{
1000
OWNER
1000
GEF
1002
}
1001
GENIUS_GENOLIS_13
1002
{
1000
ENT
1005
1B9BA
1005
1B9B8
1005
0
1005
1B9BC
1005
1B9CF
1002
}
1001
GENIUS_GENOENT_13
1002
{
1000
MYREF
1005
1B9C3
1002
}
1002
{
1000
GRP
1005
0
1002
}
1001
GENIUS_GENODEF_13
1002
{
1000
HIER
1070
   200
1002
}
1002
{
1000
MANEDIT
1070
     1
1002
}
1002
{
1000
NOSEL
1070
     0
1002
}
1002
{
1000
BEHIND
1070
     0
1002
}
1002
{
1000
OTHER
1070
     0
1002
}
1002
{
1000
REACTOR
1002
}
  0
POINT
  5
1B9C4
330
1F
100
AcDbEntity
  8
0
 60
     1
100
AcDbPoint
 10
-8988.276956466892
 20
-4951.16334993788
 30
0.0
1001
GENIUS_GENOLIS_13
1002
{
1000
ENT
1005
1B9BA
1005
1B9BB
1005
0
1005
1B9B9
1005
0
1005
0
1005
1B9B7
1005
0
1005
0
1005
0
1005
0
1005
0
1005
0
1005
0
1005
0
1005
1B9A8
1005
0
1005
1B9A9
1002
}
1001
GENIUS_GENOENT_13
1002
{
1000
MYREF
1005
1B9C4
1002
}
1002
{
1000
GRP
1005
0
1002
}
1001
GENIUS_GENOBJ-NBEHI-BHB_13
1002
{
1000
OWNER
1000
genbehi
1002
}
1001
GENIUS_GENBH_13
1002
{
1000
FGO
1005
1B9C0
1002
}
1001
GENIUS_GENODEF_13
1002
{
1000
HIER
1070
     1
1002
}
1002
{
1000
MANEDIT
1070
     1
1002
}
1002
{
1000
NOSEL
1070
     1
1002
}
1002
{
1000
BEHIND
1070
     0
1002
}
1002
{
1000
OTHER
1070
     1
1002
}
1002
{
1000
REACTOR
1002
}
  0
POINT
  5
1B9C5
330
1F
100
AcDbEntity
  8
0
 60
     1
100
AcDbPoint
 10
-8988.276956466892
 20
-4951.16334993788
 30
0.0
1001
GENIUS_GENOLIS_13
1002
{
1000
ENT
1005
1B9BB
1005
0
1005
1B9B9
1005
0
1005
0
1005
1B9B7
1005
0
1005
0
1005
0
1005
0
1005
0
1005
0
1005
0
1005
0
1005
1B9A8
1005
0
1005
1B9A9
1002
}
1001
GENIUS_GENOBJ-NBEHI-BHB_13
1002
{
1000
OWNER
1000
genbehi
1002
}
1001
GENIUS_GENOENT_13
1002
{
1000
MYREF
1005
1B9C5
1002
}
1002
{
1000
GRP
1005
0
1002
}
1001
GENIUS_GENBH_13
1002
{
1000
FGO
1005
1B9C1
1002
}
1001
GENIUS_GENODEF_13
1002
{
1000
HIER
1070
     1
1002
}
1002
{
1000
MANEDIT
1070
     1
1002
}
1002
{
1000
NOSEL
1070
     1
1002
}
1002
{
1000
BEHIND
1070
     0
1002
}
1002
{
1000
OTHER
1070
     1
1002
}
1002
{
1000
REACTOR
1002
}
  0
POINT
  5
1B9C6
330
1F
100
AcDbEntity
  8
0
 60
     1
100
AcDbPoint
 10
-8988.276956466892
 20
-4951.16334993788
 30
0.0
1001
GENIUS_GENOLIS_13
1002
{
1000
ENT
1005
1B9BB
1005
0
1005
1B9B9
1005
0
1005
0
1005
1B9B7
1005
0
1005
0
1005
0
1005
0
1005
0
1005
0
1005
0
1005
0
1005
1B9A8
1005
0
1005
1B9A9
1002
}
1001
GENIUS_GENOBJ-NBEHI-BHB_13
1002
{
1000
OWNER
1000
genbehi
1002
}
1001
GENIUS_GENOENT_13
1002
{
1000
MYREF
1005
1B9C6
1002
}
1002
{
1000
GRP
1005
0
1002
}
1001
GENIUS_GENBH_13
1002
{
1000
FGO
1005
1B9C2
1002
}
1001
GENIUS_GENODEF_13
1002
{
1000
HIER
1070
     1
1002
}
1002
{
1000
MANEDIT
1070
     1
1002
}
1002
{
1000
NOSEL
1070
     1
1002
}
1002
{
1000
BEHIND
1070
     1
1002
}
1002
{
1000
OTHER
1070
     1
1002
}
1002
{
1000
REACTOR
1002
}
  0
POINT
  5
1B9C7
330
1F
100
AcDbEntity
  8
0
 60
     1
100
AcDbPoint
 10
-8988.276956466892
 20
-4951.16334993788
 30
0.0
1001
GENIUS_GENODEF_13
1002
{
1000
HIER
1070
     1
1002
}
1002
{
1000
MANEDIT
1070
     0
1002
}
1002
{
1000
NOSEL
1070
     1
1002
}
1002
{
1000
BEHIND
1070
     0
1002
}
1002
{
1000
OTHER
1070
     0
1002
}
1002
{
1000
REACTOR
1002
}
1001
GENIUS_GENOENT_13
1002
{
1000
MYREF
1005
1B9C7
1002
}
1002
{
1000
GRP
1005
0
1002
}
1001
GENIUS_GENOBJ-NBEHI-BHF_13
1002
{
1000
OWNER
1000
genbehi
1002
}
1001
GENIUS_GENOLIS_13
1002
{
1000
ENT
1005
1B99E
1002
}
1001
GENIUS_GENBH_13
1002
{
1000
BGZLEVEL
1070
    -1
1002
}
1002
{
1000
FGZLEVEL
1070
    -1
1002
}
1002
{
1000
OIUMAP
1000
OIU
1002
}
1002
{
1000
FLAGS
1070
    32
1002
}
1002
{
1000
BGO
1005
1B9CB
1002
}
  0
POINT
  5
1B9C8
330
1F
100
AcDbEntity
  8
0
 60
     1
100
AcDbPoint
 10
-8988.276956466892
 20
-4951.16334993788
 30
0.0
1001
GENIUS_GENODEF_13
1002
{
1000
HIER
1070
     1
1002
}
1002
{
1000
MANEDIT
1070
     0
1002
}
1002
{
1000
NOSEL
1070
     1
1002
}
1002
{
1000
BEHIND
1070
     0
1002
}
1002
{
1000
OTHER
1070
     0
1002
}
1002
{
1000
REACTOR
1002
}
1001
GENIUS_GENOLIS_13
1002
{
1000
ENT
1005
1B99C
1002
}
1001
GENIUS_GENOBJ-NBEHI-BHF_13
1002
{
1000
OWNER
1000
genbehi
1002
}
1001
GENIUS_GENOENT_13
1002
{
1000
MYREF
1005
1B9C8
1002
}
1002
{
1000
GRP
1005
0
1002
}
1001
GENIUS_GENBH_13
1002
{
1000
BGZLEVEL
1070
    -1
1002
}
1002
{
1000
FGZLEVEL
1070
    -1
1002
}
1002
{
1000
OIUMAP
1000
OIU
1002
}
1002
{
1000
FLAGS
1070
    32
1002
}
1002
{
1000
BGO
1005
1B9CC
1002
}
  0
POINT
  5
1B9C9
330
1F
100
AcDbEntity
  8
0
 60
     1
100
AcDbPoint
 10
-8988.276956466892
 20
-4951.16334993788
 30
0.0
1001
GENIUS_GENOBJ-F-SCPASSM_13
1002
{
1000
OWNER
1000
GEF
1002
}
1001
GENIUS_GENOLIS_13
1002
{
1000
ENT
1005
1B99C
1005
1B99A
1005
0
1005
1B99E
1005
1B9D0
1002
}
1001
GENIUS_GENOENT_13
1002
{
1000
MYREF
1005
1B9C9
1002
}
1002
{
1000
GRP
1005
0
1002
}
1001
GENIUS_GENODEF_13
1002
{
1000
HIER
1070
   200
1002
}
1002
{
1000
MANEDIT
1070
     1
1002
}
1002
{
1000
NOSEL
1070
     0
1002
}
1002
{
1000
BEHIND
1070
     0
1002
}
1002
{
1000
OTHER
1070
     0
1002
}
1002
{
1000
REACTOR
1002
}
  0
POINT
  5
1B9CA
330
1F
100
AcDbEntity
  8
0
 60
     1
100
AcDbPoint
 10
-8988.276956466892
 20
-4951.16334993788
 30
0.0
1001
GENIUS_GENODEF_13
1002
{
1000
HIER
1070
     1
1002
}
1002
{
1000
MANEDIT
1070
     0
1002
}
1002
{
1000
NOSEL
1070
     1
1002
}
1002
{
1000
BEHIND
1070
     0
1002
}
1002
{
1000
OTHER
1070
     0
1002
}
1002
{
1000
REACTOR
1002
}
1001
GENIUS_GENOBJ-NBEHI-BHF_13
1002
{
1000
OWNER
1000
genbehi
1002
}
1001
GENIUS_GENOENT_13
1002
{
1000
MYREF
1005
1B9CA
1002
}
1002
{
1000
GRP
1005
0
1002
}
1001
GENIUS_GENOLIS_13
1002
{
1000
ENT
1005
1B99A
1002
}
1001
GENIUS_GENBH_13
1002
{
1000
BGZLEVEL
1070
    -1
1002
}
1002
{
1000
FGZLEVEL
1070
    -1
1002
}
1002
{
1000
OIUMAP
1000
OIU
1002
}
1002
{
1000
FLAGS
1070
    32
1002
}
1002
{
1000
BGO
1005
1B9CD
1002
}
  0
POINT
  5
1B9CB
330
1F
100
AcDbEntity
  8
0
 60
     1
100
AcDbPoint
 10
-8988.276956466892
 20
-4951.16334993788
 30
0.0
1001
GENIUS_GENOLIS_13
1002
{
1000
ENT
1005
1B99C
1005
1B99D
1005
0
1005
1B99B
1005
0
1005
0
1005
1B999
1005
0
1005
0
1005
0
1005
0
1005
0
1005
0
1005
0
1005
0
1005
1B98A
1005
0
1005
1B98B
1002
}
1001
GENIUS_GENOENT_13
1002
{
1000
MYREF
1005
1B9CB
1002
}
1002
{
1000
GRP
1005
0
1002
}
1001
GENIUS_GENOBJ-NBEHI-BHB_13
1002
{
1000
OWNER
1000
genbehi
1002
}
1001
GENIUS_GENBH_13
1002
{
1000
FGO
1005
1B9C7
1002
}
1001
GENIUS_GENODEF_13
1002
{
1000
HIER
1070
     1
1002
}
1002
{
1000
MANEDIT
1070
     1
1002
}
1002
{
1000
NOSEL
1070
     1
1002
}
1002
{
1000
BEHIND
1070
     0
1002
}
1002
{
1000
OTHER
1070
     1
1002
}
1002
{
1000
REACTOR
1002
}
  0
POINT
  5
1B9CC
330
1F
100
AcDbEntity
  8
0
 60
     1
100
AcDbPoint
 10
-8988.276956466892
 20
-4951.16334993788
 30
0.0
1001
GENIUS_GENOLIS_13
1002
{
1000
ENT
1005
1B99D
1005
0
1005
1B99B
1005
0
1005
0
1005
1B999
1005
0
1005
0
1005
0
1005
0
1005
0
1005
0
1005
0
1005
0
1005
1B98A
1005
0
1005
1B98B
1002
}
1001
GENIUS_GENOBJ-NBEHI-BHB_13
1002
{
1000
OWNER
1000
genbehi
1002
}
1001
GENIUS_GENOENT_13
1002
{
1000
MYREF
1005
1B9CC
1002
}
1002
{
1000
GRP
1005
0
1002
}
1001
GENIUS_GENBH_13
1002
{
1000
FGO
1005
1B9C8
1002
}
1001
GENIUS_GENODEF_13
1002
{
1000
HIER
1070
     1
1002
}
1002
{
1000
MANEDIT
1070
     1
1002
}
1002
{
1000
NOSEL
1070
     1
1002
}
1002
{
1000
BEHIND
1070
     0
1002
}
1002
{
1000
OTHER
1070
     1
1002
}
1002
{
1000
REACTOR
1002
}
  0
POINT
  5
1B9CD
330
1F
100
AcDbEntity
  8
0
 60
     1
100
AcDbPoint
 10
-8988.276956466892
 20
-4951.16334993788
 30
0.0
1001
GENIUS_GENOLIS_13
1002
{
1000
ENT
1005
1B99D
1005
0
1005
1B99B
1005
0
1005
0
1005
1B999
1005
0
1005
0
1005
0
1005
0
1005
0
1005
0
1005
0
1005
0
1005
1B98A
1005
0
1005
1B98B
1002
}
1001
GENIUS_GENOBJ-NBEHI-BHB_13
1002
{
1000
OWNER
1000
genbehi
1002
}
1001
GENIUS_GENOENT_13
1002
{
1000
MYREF
1005
1B9CD
1002
}
1002
{
1000
GRP
1005
0
1002
}
1001
GENIUS_GENBH_13
1002
{
1000
FGO
1005
1B9CA
1002
}
1001
GENIUS_GENODEF_13
1002
{
1000
HIER
1070
     1
1002
}
1002
{
1000
MANEDIT
1070
     1
1002
}
1002
{
1000
NOSEL
1070
     1
1002
}
1002
{
1000
BEHIND
1070
     1
1002
}
1002
{
1000
OTHER
1070
     1
1002
}
1002
{
1000
REACTOR
1002
}
  0
POINT
  5
1B9CE
330
1F
100
AcDbEntity
  8
0
 60
     1
100
AcDbPoint
 10
-8988.276956466892
 20
-4951.16334993788
 30
0.0
1001
GENIUS_GENOENT_13
1002
{
1000
MYREF
1005
1B9CE
1002
}
1002
{
1000
GRP
1005
0
1002
}
1001
GENIUS_GENOBJ-NBEHI-BHB_13
1002
{
1000
OWNER
1000
genbehi
1002
}
1001
GENIUS_GENOLIS_13
1002
{
1000
ENT
1005
1B99D
1005
0
1005
1B99B
1005
0
1005
1B999
1005
0
1005
0
1005
0
1005
0
1005
0
1005
0
1005
0
1005
0
1005
1B98A
1005
0
1005
1B98B
1002
}
1001
GENIUS_GENBH_13
1002
{
1000
FGO
1005
0
1002
}
1001
GENIUS_GENODEF_13
1002
{
1000
HIER
1070
     1
1002
}
1002
{
1000
MANEDIT
1070
     1
1002
}
1002
{
1000
NOSEL
1070
     1
1002
}
1002
{
1000
BEHIND
1070
     1
1002
}
1002
{
1000
OTHER
1070
     1
1002
}
1002
{
1000
REACTOR
1002
}
  0
INSERT
  5
1B9CF
330
1F
100
AcDbEntity
  8
AM_0N
100
AcDbBlockReference
  2
*U15
 10
0.0
 20
0.0
 30
0.0
1001
GENIUS_GENOREF_13
1005
1B9C3
  0
INSERT
  5
1B9D0
330
1F
100
AcDbEntity
  8
AM_0N
100
AcDbBlockReference
  2
*U16
 10
0.0
 20
0.0
 30
0.0
1001
GENIUS_GENOREF_13
1005
0
1005
1B9C9
  0
ENDSEC
  0
SECTION
  2
OBJECTS
  0
DICTIONARY
  5
C
330
0
100
AcDbDictionary
281
     1
  3
ACAD_2007HEADERVARS_RT
350
1BA2A
  3
ACAD_COLOR
350
BE
  3
ACAD_GROUP
350
D
  3
ACAD_LAYOUT
350
1A
  3
ACAD_MATERIAL
350
BD
  3
ACAD_MLEADERSTYLE
350
1A1D0
  3
ACAD_MLINESTYLE
350
17
  3
ACAD_PLOTSETTINGS
350
19
  3
ACAD_PLOTSTYLENAME
350
E
  3
ACAD_SCALELIST
350
1A1BE
  3
ACAD_TABLESTYLE
350
11A
  3
ACAD_VISUALSTYLE
350
1A1AD
  3
ACDB_RECOMPOSE_DATA
350
1BA28
  3
AcDbVariableDictionary
350
94
  3
AcmDictionary
350
5B
  3
AMG
350
41
  3
AMGSNAPSETTINGS
350
26B
  3
DWGPROPS
350
1BA29
  0
DICTIONARY
  5
5E1
330
2
100
AcDbDictionary
280
     1
281
     1
  3
ACAD_LAYERFILTERS
360
10B7F
  3
ACAD_LAYERSTATES
360
5E2
  3
ACLYDICTIONARY
360
10B7E
  3
AMLAYER_GROUPCOLORS
360
1A4EA
  0
DICTIONARY
  5
1A4F2
330
10
100
AcDbDictionary
280
     1
281
     1
  3
ADSK_XREC_LAYER_RECONCILED
360
1A4F3
  0
DICTIONARY
  5
1A4F6
330
1080A
100
AcDbDictionary
280
     1
281
     1
  3
ADSK_XREC_LAYER_RECONCILED
360
1A4F7
  0
DICTIONARY
  5
8F
330
1F
100
AcDbDictionary
280
     1
281
     1
  3
ACAD_SORTENTS
360
9429
  0
DICTIONARY
  5
10117
330
87
100
AcDbDictionary
280
     1
281
     1
  0
DICTIONARY
  5
1B745
330
1B738
100
AcDbDictionary
280
     1
281
     1
  3
ACAD_DIMASSOC
360
1B746
  0
DICTIONARY
  5
1B778
330
1B76B
100
AcDbDictionary
280
     1
281
     1
  3
ACAD_DIMASSOC
360
1B779
  0
DICTIONARY
  5
1B7AD
330
1B79E
100
AcDbDictionary
280
     1
281
     1
  3
ACAD_DIMASSOC
360
1B7AE
  0
DICTIONARY
  5
1B7DD
330
1B7D0
100
AcDbDictionary
280
     1
281
     1
  3
ACAD_DIMASSOC
360
1B7DE
  0
DICTIONARY
  5
1B810
330
1B803
100
AcDbDictionary
280
     1
281
     1
  3
ACAD_DIMASSOC
360
1B811
  0
DICTIONARY
  5
1BA2A
102
{ACAD_REACTORS
330
C
102
}
330
C
100
AcDbDictionary
281
     1
  3
DIMJOGANG
350
1BA2B
  3
INTERFEREVPVS
350
1BA2C
  0
DICTIONARY
  5
BE
102
{ACAD_REACTORS
330
C
102
}
330
C
100
AcDbDictionary
281
     1
  0
DICTIONARY
  5
D
102
{ACAD_REACTORS
330
C
102
}
330
C
100
AcDbDictionary
281
     1
  0
DICTIONARY
  5
1A
102
{ACAD_REACTORS
330
C
102
}
330
C
100
AcDbDictionary
281
     1
  3
Layout1
350
1E
  3
Layout2
350
26
  3
Model
350
22
  0
DICTIONARY
  5
BD
102
{ACAD_REACTORS
330
C
102
}
330
C
100
AcDbDictionary
281
     1
  3
ByBlock
350
1A19D
  3
ByLayer
350
1A195
  3
Global
350
1A1A5
  0
DICTIONARY
  5
1A1D0
102
{ACAD_REACTORS
330
C
102
}
330
C
100
AcDbDictionary
281
     1
  3
Standard
350
1A1D1
  0
DICTIONARY
  5
17
102
{ACAD_REACTORS
330
C
102
}
330
C
100
AcDbDictionary
281
     1
  3
Standard
350
18
  0
DICTIONARY
  5
19
102
{ACAD_REACTORS
330
C
102
}
330
C
100
AcDbDictionary
281
     1
  0
ACDBDICTIONARYWDFLT
  5
E
102
{ACAD_REACTORS
330
C
102
}
330
C
100
AcDbDictionary
281
     1
  3
Normal
350
F
100
AcDbDictionaryWithDefault
340
F
  0
DICTIONARY
  5
1A1BE
102
{ACAD_REACTORS
330
C
102
}
330
C
100
AcDbDictionary
281
     1
  3
A0
350
1A1BF
  3
A1
350
1A1C0
  3
A2
350
1A1C1
  3
A3
350
1A1C2
  3
A4
350
1A1C3
  3
A5
350
1A1C4
  3
A6
350
1A1C5
  3
A7
350
1A1C6
  3
A8
350
1A1C7
  3
A9
350
1A1C8
  3
B0
350
1A1C9
  3
B1
350
1A1CA
  3
B2
350
1A1CB
  3
B3
350
1A1CC
  3
B4
350
1A1CD
  3
B5
350
1A1CE
  3
B6
350
1A1CF
  0
DICTIONARY
  5
11A
102
{ACAD_REACTORS
330
C
102
}
330
C
100
AcDbDictionary
281
     1
  3
Standard
350
11B
  0
DICTIONARY
  5
1A1AD
102
{ACAD_REACTORS
330
C
102
}
330
C
100
AcDbDictionary
281
     1
  3
2dWireframe
350
1A1B3
  3
3D Hidden
350
1A1B5
  3
3dWireframe
350
1A1B4
  3
Basic
350
1A1B2
  3
Brighten
350
1A1B9
  3
ColorChange
350
1A1BD
  3
Conceptual
350
1A1B6
  3
Dim
350
1A1B8
  3
EdgeColorOff
350
1B901
  3
Facepattern
350
1A1BC
  3
Flat
350
1A1AE
  3
FlatWithEdges
350
1A1AF
  3
Gouraud
350
1A1B0
  3
GouraudWithEdges
350
1A1B1
  3
Hidden
350
1B8F9
  3
JitterOff
350
1B8FF
  3
Linepattern
350
1A1BB
  3
OverhangOff
350
1B900
  3
Realistic
350
1A1B7
  3
Shaded
350
1B8FE
  3
Shaded with edges
350
1B8FD
  3
Shades of Gray
350
1B8FA
  3
Sketchy
350
1B8FB
  3
Thicken
350
1A1BA
  3
Wireframe
350
1B8F8
  3
X-Ray
350
1B8FC
  0
XRECORD
  5
1BA28
102
{ACAD_REACTORS
330
C
102
}
330
C
100
AcDbXrecord
280
     1
 90
        1
330
11B
  0
DICTIONARY
  5
94
102
{ACAD_REACTORS
330
C
102
}
330
C
100
AcDbDictionary
281
     1
  3
CANNOSCALE
350
1A6D1
  3
CMLEADERSTYLE
350
1A6CF
  3
CTABLESTYLE
350
138
  3
DIMASSOC
350
96
  3
INDEXCTL
350
95
  3
LAYEREVAL
350
1A6D3
  3
LAYERNOTIFY
350
1A6D4
  3
LIGHTINGUNITS
350
1A6D2
  3
MSLTSCALE
350
1A6D0
  3
PROJECTNAME
350
B168
  3
SORTENTS
350
1BA25
  3
XCLIPFRAME
350
1BA26
  0
DICTIONARY
  5
5B
102
{ACAD_REACTORS
330
C
102
}
330
C
100
AcDbDictionary
281
     1
  3
AcmBOM
350
272
  3
AcmStdDictionary
350
61
  3
AMDTSECTSYM_ARROWCOLOR
350
123
  0
DICTIONARY
  5
41
102
{ACAD_REACTORS
330
C
102
}
330
C
100
AcDbDictionary
281
     1
  0
DICTIONARY
  5
26B
102
{ACAD_REACTORS
330
C
102
}
330
C
100
AcDbDictionary
281
     1
  0
XRECORD
  5
1BA29
102
{ACAD_REACTORS
330
C
102
}
330
C
100
AcDbXrecord
280
     1
  1
DWGPROPS COOKIE
  2

  3

  4

  6

  7

  8
Weis
  9

300
AmdtFileType=84
301
=
302
=
303
=
304
=
305
=
306
=
307
=
308
=
309
=
 40
0.7283745370370371
 41
2454167.37697816
 42
2455940.687314271
  1

 90
        1
  0
DICTIONARY
  5
10B7F
102
{ACAD_REACTORS
330
5E1
102
}
330
5E1
100
AcDbDictionary
281
     1
  0
DICTIONARY
  5
5E2
102
{ACAD_REACTORS
330
5E1
102
}
330
5E1
100
AcDbDictionary
281
     1
  0
DICTIONARY
  5
10B7E
102
{ACAD_REACTORS
330
5E1
102
}
330
5E1
100
AcDbDictionary
281
     1
1001
ACAD
1000
<All
  0
DICTIONARY
  5
1A4EA
102
{ACAD_REACTORS
330
5E1
102
}
330
5E1
100
AcDbDictionary
280
     1
281
     1
  0
XRECORD
  5
1A4F3
102
{ACAD_REACTORS
330
1A4F2
102
}
330
1A4F2
100
AcDbXrecord
280
     1
290
     1
  0
XRECORD
  5
1A4F7
102
{ACAD_REACTORS
330
1A4F6
102
}
330
1A4F6
100
AcDbXrecord
280
     1
290
     1
  0
SORTENTSTABLE
  5
9429
102
{ACAD_REACTORS
330
8F
102
}
330
8F
100
AcDbSortentsTable
330
1F
331
1B535
  5
1B535
331
1B531
  5
1B531
331
1B52D
  5
1B52D
331
1B56C
  5
1B56C
331
1B568
  5
1B568
331
1B529
  5
1B529
331
1B564
  5
1B564
331
1B525
  5
1B525
331
1B560
  5
1B560
331
1B856
  5
1B856
331
1B521
  5
1B521
331
1B51D
  5
1B51D
331
1B55C
  5
1B55C
331
1B852
  5
1B852
331
1B519
  5
1B519
331
1B84E
  5
1B84E
331
1B558
  5
1B558
331
1B554
  5
1B554
331
1B515
  5
1B515
331
1B550
  5
1B550
331
1B511
  5
1B511
331
1B76B
  5
1B76B
331
1B50D
  5
1B50D
331
1B54C
  5
1B54C
331
1B509
  5
1B509
331
1B548
  5
1B548
331
1B87D
  5
1B87E
331
1B879
  5
1B87A
331
1B544
  5
1B544
331
1B4FD
  5
1B4FD
331
1B4F9
  5
1B4F9
331
1B540
  5
1B540
331
1B53C
  5
1B53C
331
1B4F5
  5
1B4F5
331
1B875
  5
1B875
331
1B538
  5
1B538
331
1B4F1
  5
1B4F1
331
1B573
  5
1B573
331
1B534
  5
1B534
331
1B56F
  5
1B56F
331
1B530
  5
1B530
331
1B56B
  5
1B56B
331
1B52C
  5
1B52C
331
1B528
  5
1B528
331
1B861
  5
1B861
331
1B567
  5
1B567
331
1B563
  5
1B563
331
1B524
  5
1B524
331
1B55F
  5
1B55F
331
1B79E
  5
1B79E
331
1B855
  5
1B855
331
1B520
  5
1B520
331
1B51C
  5
1B51C
331
1B55B
  5
1B55B
331
1B851
  5
1B851
331
1B518
  5
1B518
331
1B84D
  5
1B84D
331
1B557
  5
1B557
331
1B553
  5
1B553
331
1B514
  5
1B514
331
1B510
  5
1B510
331
1B54F
  5
1B54F
331
1B50C
  5
1B50C
331
1B54B
  5
1B54B
331
1B508
  5
1B508
331
1B87C
  5
1B87D
331
1B878
  5
1B879
331
1B547
  5
1B547
331
1B543
  5
1B543
331
1B4FC
  5
1B4FC
331
1B53F
  5
1B53F
331
1B4F8
  5
1B4F8
331
1B53B
  5
1B53B
331
1B4F4
  5
1B4F4
331
1B874
  5
1B874
331
1B576
  5
1B576
331
1B4F0
  5
1B4F0
331
1B572
  5
1B572
331
1B868
  5
1B868
331
1B537
  5
1B537
331
1B533
  5
1B533
331
1B56E
  5
1B56E
331
1B52F
  5
1B52F
331
1B56A
  5
1B56A
331
1B52B
  5
1B52B
331
1B860
  5
1B860
331
1B566
  5
1B566
331
1B527
  5
1B527
331
1B562
  5
1B562
331
1B523
  5
1B523
331
1B51F
  5
1B51F
331
1B55E
  5
1B55E
331
1B854
  5
1B854
331
1B51B
  5
1B51B
331
1B55A
  5
1B55A
331
1B850
  5
1B850
331
1B84C
  5
1B84C
331
1B517
  5
1B517
331
1B556
  5
1B556
331
1B552
  5
1B552
331
1B513
  5
1B513
331
1B50F
  5
1B50F
331
1B54E
  5
1B54E
331
1B50B
  5
1B50B
331
1B54A
  5
1B54A
331
1B87B
  5
1B87C
331
1B4FF
  5
1B4FF
331
1B546
  5
1B546
331
1B542
  5
1B542
331
1B4FB
  5
1B4FB
331
1B53E
  5
1B53E
331
1B4F7
  5
1B4F7
331
1B877
  5
1B878
331
1B53A
  5
1B53A
331
1B4F3
  5
1B4F3
331
1B873
  5
1B873
331
1B575
  5
1B575
331
1B7D0
  5
1B7D0
331
1B571
  5
1B571
331
1B536
  5
1B536
331
1B532
  5
1B532
331
1B52E
  5
1B52E
331
1B56D
  5
1B56D
331
1B569
  5
1B569
331
1B52A
  5
1B52A
331
1B565
  5
1B565
331
1B526
  5
1B526
331
1B561
  5
1B561
331
1B522
  5
1B522
331
1B51E
  5
1B51E
331
1B55D
  5
1B55D
331
1B853
  5
1B853
331
1B51A
  5
1B51A
331
1B84F
  5
1B84F
331
1B559
  5
1B559
331
1B84B
  5
1B84B
331
1B555
  5
1B555
331
1B516
  5
1B516
331
1B551
  5
1B551
331
1B512
  5
1B512
331
1B50E
  5
1B50E
331
1B54D
  5
1B54D
331
1B50A
  5
1B50A
331
1B549
  5
1B549
331
1B87E
  5
1B876
331
1B803
  5
1B803
331
1B87A
  5
1B87B
331
1B545
  5
1B545
331
1B4FE
  5
1B4FE
331
1B541
  5
1B541
331
1B4FA
  5
1B4FA
331
1B53D
  5
1B53D
331
1B4F6
  5
1B4F6
331
1B876
  5
1B877
331
1B539
  5
1B539
331
1B738
  5
1B738
331
1B4F2
  5
1B4F2
331
1B872
  5
1B872
331
1B574
  5
1B574
331
1B570
  5
1B570
  0
DIMASSOC
  5
1B746
102
{ACAD_REACTORS
330
1B745
102
}
330
1B745
100
AcDbDimAssoc
330
1B738
 90
        3
 70
     0
 71
     0
  1
AcDbOsnapPointRef
 72
    13
331
1B4F5
 73
     0
 91
        0
 40
0.0
 10
0.0
 20
0.0
 30
2.000000000000000E+50
 75
     0
  1
AcDbOsnapPointRef
 72
     8
331
1B558
 73
     0
 91
        0
 40
0.9211807051785619
 10
0.0
 20
0.0
 30
0.0
 75
     1
  1
AcDbOsnapPointRef
 72
    13
331
1B4F5
 73
     0
 91
        0
 40
0.0
 10
0.0
 20
0.0
 30
2.000000000000000E+50
 75
     0
  0
DIMASSOC
  5
1B779
102
{ACAD_REACTORS
330
1B778
102
}
330
1B778
100
AcDbDimAssoc
330
1B76B
 90
        1
 70
     0
 71
     0
  1
AcDbOsnapPointRef
 72
     2
331
1B537
 73
     0
 91
        0
 40
0.0
 10
0.0
 20
0.0
 30
0.0
 75
     0
  0
DIMASSOC
  5
1B7AE
102
{ACAD_REACTORS
330
1B7AD
102
}
330
1B7AD
100
AcDbDimAssoc
330
1B79E
 90
        3
 70
     0
 71
     0
  1
AcDbOsnapPointRef
 72
     1
331
1B51D
 73
     0
 91
        0
 40
0.0
 10
0.0
 20
0.0
 30
2.000000000000000E+50
 75
     0
  1
AcDbOsnapPointRef
 72
     1
331
1B50F
 73
     0
 91
        0
 40
0.0
 10
0.0
 20
0.0
 30
2.000000000000000E+50
 75
     0
  0
DIMASSOC
  5
1B7DE
102
{ACAD_REACTORS
330
1B7DD
102
}
330
1B7DD
100
AcDbDimAssoc
330
1B7D0
 90
        3
 70
     0
 71
     0
  1
AcDbOsnapPointRef
 72
     1
331
1B51D
 73
     0
 91
        0
 40
0.0
 10
0.0
 20
0.0
 30
2.000000000000000E+50
 75
     0
  1
AcDbOsnapPointRef
 72
     2
331
1B4FE
 73
     0
 91
        0
 40
0.0
 10
0.0
 20
0.0
 30
0.0
 75
     0
  0
DIMASSOC
  5
1B811
102
{ACAD_REACTORS
330
1B810
102
}
330
1B810
100
AcDbDimAssoc
330
1B803
 90
        3
 70
     0
 71
     0
  1
AcDbOsnapPointRef
 72
     3
331
1B52F
 73
     0
 91
        0
 40
0.0
 10
0.0
 20
0.0
 30
0.0
 75
     0
  1
AcDbOsnapPointRef
 72
     8
331
1B526
 73
     0
 91
        0
 40
0.4995219166074641
 10
0.0
 20
0.0
 30
0.0
 75
     1
  1
AcDbOsnapPointRef
 72
     3
331
1B52F
 73
     0
 91
        0
 40
0.0
 10
0.0
 20
0.0
 30
0.0
 75
     0
  0
XRECORD
  5
1BA2B
102
{ACAD_REACTORS
330
1BA2A
102
}
330
1BA2A
100
AcDbXrecord
280
     1
 40
1.570796326794896
  0
XRECORD
  5
1BA2C
102
{ACAD_REACTORS
330
1BA2A
102
}
330
1BA2A
100
AcDbXrecord
280
     1
340
1A1B4
  0
LAYOUT
  5
1E
102
{ACAD_XDICTIONARY
360
1BA2D
102
}
102
{ACAD_REACTORS
330
1A
102
}
330
1A
100
AcDbPlotSettings
  1

  2

  4

  6

 40
0.0
 41
0.0
 42
0.0
 43
0.0
 44
0.0
 45
0.0
 46
0.0
 47
0.0
 48
0.0
 49
0.0
140
0.0
141
0.0
142
1.0
143
1.0
 70
   688
 72
     0
 73
     0
 74
     5
  7
monochrome uw.ctb
 75
    16
147
1.0
148
0.0
149
0.0
100
AcDbLayout
  1
Layout1
 70
     1
 71
     1
 10
0.0
 20
0.0
 11
420.0
 21
297.0
 12
0.0
 22
0.0
 32
0.0
 14
1.000000000000000E+20
 24
1.000000000000000E+20
 34
1.000000000000000E+20
 15
-1.000000000000000E+20
 25
-1.000000000000000E+20
 35
-1.000000000000000E+20
146
0.0
 13
0.0
 23
0.0
 33
0.0
 16
1.0
 26
0.0
 36
0.0
 17
0.0
 27
1.0
 37
0.0
 76
     0
330
1B
  0
LAYOUT
  5
26
102
{ACAD_XDICTIONARY
360
1BA31
102
}
102
{ACAD_REACTORS
330
1A
102
}
330
1A
100
AcDbPlotSettings
  1

  2

  4

  6

 40
0.0
 41
0.0
 42
0.0
 43
0.0
 44
0.0
 45
0.0
 46
0.0
 47
0.0
 48
0.0
 49
0.0
140
0.0
141
0.0
142
1.0
143
1.0
 70
   688
 72
     0
 73
     0
 74
     5
  7
monochrome uw.ctb
 75
    16
147
1.0
148
0.0
149
0.0
100
AcDbLayout
  1
Layout2
 70
     1
 71
     2
 10
0.0
 20
0.0
 11
12.0
 21
9.0
 12
0.0
 22
0.0
 32
0.0
 14
0.0
 24
0.0
 34
0.0
 15
0.0
 25
0.0
 35
0.0
146
0.0
 13
0.0
 23
0.0
 33
0.0
 16
1.0
 26
0.0
 36
0.0
 17
0.0
 27
1.0
 37
0.0
 76
     0
330
23
  0
LAYOUT
  5
22
102
{ACAD_XDICTIONARY
360
1BA2F
102
}
102
{ACAD_REACTORS
330
1A
102
}
330
1A
100
AcDbPlotSettings
  1

  2
hp LaserJet 3030 PCL 6
  4
A4
  6

 40
5.027083396911621
 41
5.069413185119628
 42
5.027084350585936
 43
5.027069091796875
 44
209.9733276367186
 45
296.9683227539062
 46
0.0
 47
6.570546449500766
 48
386.441488024062
 49
270.3185561904811
140
5391.603947773525
141
3967.108854977561
142
1.0
143
15.16134737736338
 70
 11956
 72
     1
 73
     0
 74
     1
  7
monochrome uw.ctb
 75
     0
147
0.0659571985991857
148
-13746.70549999406
149
498.9832370772091
100
AcDbLayout
  1
Model
 70
     1
 71
     0
 10
0.0
 20
0.0
 11
12.0
 21
9.0
 12
0.0
 22
0.0
 32
0.0
 14
0.0
 24
0.0
 34
0.0
 15
0.0
 25
0.0
 35
0.0
146
0.0
 13
0.0
 23
0.0
 33
0.0
 16
1.0
 26
0.0
 36
0.0
 17
0.0
 27
1.0
 37
0.0
 76
     0
330
1F
331
1A193
1001
ACAD_PSEXT
1000
hp LaserJet 3030 PCL 6
1000
hp LaserJet 3030 PCL 6
1000
DOT4_001
1000

1070
     0
  0
MATERIAL
  5
1A19D
102
{ACAD_XDICTIONARY
360
1A19E
102
}
102
{ACAD_REACTORS
330
BD
102
}
330
BD
100
AcDbMaterial
  1
ByBlock
 72
     0
 43
0.0008202099737533
 43
0.0
 43
0.0
 43
0.0
 43
0.0
 43
0.0008202099737533
 43
0.0
 43
0.0
 43
0.0
 43
0.0
 43
1.0
 43
0.0
 43
0.0
 43
0.0
 43
0.0
 43
1.0
 77
     0
 47
0.0008202099737533
 47
0.0
 47
0.0
 47
0.0
 47
0.0
 47
0.0008202099737533
 47
0.0
 47
0.0
 47
0.0
 47
0.0
 47
1.0
 47
0.0
 47
0.0
 47
0.0
 47
0.0
 47
1.0
171
     0
 49
0.0008202099737533
 49
0.0
 49
0.0
 49
0.0
 49
0.0
 49
0.0008202099737533
 49
0.0
 49
0.0
 49
0.0
 49
0.0
 49
1.0
 49
0.0
 49
0.0
 49
0.0
 49
0.0
 49
1.0
175
     0
142
0.0008202099737533
142
0.0
142
0.0
142
0.0
142
0.0
142
0.0008202099737533
142
0.0
142
0.0
142
0.0
142
0.0
142
1.0
142
0.0
142
0.0
142
0.0
142
0.0
142
1.0
179
     0
144
0.0008202099737533
144
0.0
144
0.0
144
0.0
144
0.0
144
0.0008202099737533
144
0.0
144
0.0
144
0.0
144
0.0
144
1.0
144
0.0
144
0.0
144
0.0
144
0.0
144
1.0
147
0.0008202099737533
147
0.0
147
0.0
147
0.0
147
0.0
147
0.0008202099737533
147
0.0
147
0.0
147
0.0
147
0.0
147
1.0
147
0.0
147
0.0
147
0.0
147
0.0
147
1.0
  0
MATERIAL
  5
1A195
102
{ACAD_XDICTIONARY
360
1A196
102
}
102
{ACAD_REACTORS
330
BD
102
}
330
BD
100
AcDbMaterial
  1
ByLayer
 72
     0
 43
0.0008202099737533
 43
0.0
 43
0.0
 43
0.0
 43
0.0
 43
0.0008202099737533
 43
0.0
 43
0.0
 43
0.0
 43
0.0
 43
1.0
 43
0.0
 43
0.0
 43
0.0
 43
0.0
 43
1.0
 77
     0
 47
0.0008202099737533
 47
0.0
 47
0.0
 47
0.0
 47
0.0
 47
0.0008202099737533
 47
0.0
 47
0.0
 47
0.0
 47
0.0
 47
1.0
 47
0.0
 47
0.0
 47
0.0
 47
0.0
 47
1.0
171
     0
 49
0.0008202099737533
 49
0.0
 49
0.0
 49
0.0
 49
0.0
 49
0.0008202099737533
 49
0.0
 49
0.0
 49
0.0
 49
0.0
 49
1.0
 49
0.0
 49
0.0
 49
0.0
 49
0.0
 49
1.0
175
     0
142
0.0008202099737533
142
0.0
142
0.0
142
0.0
142
0.0
142
0.0008202099737533
142
0.0
142
0.0
142
0.0
142
0.0
142
1.0
142
0.0
142
0.0
142
0.0
142
0.0
142
1.0
179
     0
144
0.0008202099737533
144
0.0
144
0.0
144
0.0
144
0.0
144
0.0008202099737533
144
0.0
144
0.0
144
0.0
144
0.0
144
1.0
144
0.0
144
0.0
144
0.0
144
0.0
144
1.0
147
0.0008202099737533
147
0.0
147
0.0
147
0.0
147
0.0
147
0.0008202099737533
147
0.0
147
0.0
147
0.0
147
0.0
147
1.0
147
0.0
147
0.0
147
0.0
147
0.0
147
1.0
  0
MATERIAL
  5
1A1A5
102
{ACAD_XDICTIONARY
360
1A1A6
102
}
102
{ACAD_REACTORS
330
BD
102
}
330
BD
100
AcDbMaterial
  1
Global
 72
     0
 43
0.0008202099737533
 43
0.0
 43
0.0
 43
0.0
 43
0.0
 43
0.0008202099737533
 43
0.0
 43
0.0
 43
0.0
 43
0.0
 43
1.0
 43
0.0
 43
0.0
 43
0.0
 43
0.0
 43
1.0
 77
     0
 47
0.0008202099737533
 47
0.0
 47
0.0
 47
0.0
 47
0.0
 47
0.0008202099737533
 47
0.0
 47
0.0
 47
0.0
 47
0.0
 47
1.0
 47
0.0
 47
0.0
 47
0.0
 47
0.0
 47
1.0
171
     0
 49
0.0008202099737533
 49
0.0
 49
0.0
 49
0.0
 49
0.0
 49
0.0008202099737533
 49
0.0
 49
0.0
 49
0.0
 49
0.0
 49
1.0
 49
0.0
 49
0.0
 49
0.0
 49
0.0
 49
1.0
175
     0
142
0.0008202099737533
142
0.0
142
0.0
142
0.0
142
0.0
142
0.0008202099737533
142
0.0
142
0.0
142
0.0
142
0.0
142
1.0
142
0.0
142
0.0
142
0.0
142
0.0
142
1.0
179
     0
144
0.0008202099737533
144
0.0
144
0.0
144
0.0
144
0.0
144
0.0008202099737533
144
0.0
144
0.0
144
0.0
144
0.0
144
1.0
144
0.0
144
0.0
144
0.0
144
0.0
144
1.0
147
0.0008202099737533
147
0.0
147
0.0
147
0.0
147
0.0
147
0.0008202099737533
147
0.0
147
0.0
147
0.0
147
0.0
147
1.0
147
0.0
147
0.0
147
0.0
147
0.0
147
1.0
  0
MLEADERSTYLE
  5
1A1D1
102
{ACAD_REACTORS
330
1A1D0
102
}
330
1A1D0
100
AcDbMLeaderStyle
170
     2
171
     1
172
     0
 90
        2
 40
0.0
 41
0.0
173
     1
 91
-1056964608
340
14
 92
       -2
290
     1
 42
2.0
291
     1
 43
0.36
  3
Standard
 44
4.0
300

342
11
174
     1
178
     6
175
     1
176
     0
 93
-1056964608
 45
4.0
292
     0
297
     0
 46
4.0
 94
-1056964608
 47
1.0
 49
1.0
140
1.0
293
     1
141
0.0
294
     1
177
     0
142
1.0
295
     0
296
     0
143
0.125
1001
ACAD_MLEADERVER
1070
     2
  0
MLINESTYLE
  5
18
102
{ACAD_REACTORS
330
17
102
}
330
17
100
AcDbMlineStyle
  2
STANDARD
 70
     0
  3

 62
   256
 51
90.0
 52
90.0
 71
     2
 49
0.5
 62
   256
  6
BYLAYER
 49
-0.5
 62
   256
  6
BYLAYER
  0
ACDBPLACEHOLDER
  5
F
102
{ACAD_REACTORS
330
E
102
}
330
E
  0
SCALE
  5
1A1BF
102
{ACAD_REACTORS
330
1A1BE
102
}
330
1A1BE
100
AcDbScale
 70
     0
300
1:1
140
1.0
141
1.0
290
     1
  0
SCALE
  5
1A1C0
102
{ACAD_REACTORS
330
1A1BE
102
}
330
1A1BE
100
AcDbScale
 70
     0
300
1:2
140
1.0
141
2.0
290
     0
  0
SCALE
  5
1A1C1
102
{ACAD_REACTORS
330
1A1BE
102
}
330
1A1BE
100
AcDbScale
 70
     0
300
1:4
140
1.0
141
4.0
290
     0
  0
SCALE
  5
1A1C2
102
{ACAD_REACTORS
330
1A1BE
102
}
330
1A1BE
100
AcDbScale
 70
     0
300
1:5
140
1.0
141
5.0
290
     0
  0
SCALE
  5
1A1C3
102
{ACAD_REACTORS
330
1A1BE
102
}
330
1A1BE
100
AcDbScale
 70
     0
300
1:8
140
1.0
141
8.0
290
     0
  0
SCALE
  5
1A1C4
102
{ACAD_REACTORS
330
1A1BE
102
}
330
1A1BE
100
AcDbScale
 70
     0
300
1:10
140
1.0
141
10.0
290
     0
  0
SCALE
  5
1A1C5
102
{ACAD_REACTORS
330
1A1BE
102
}
330
1A1BE
100
AcDbScale
 70
     0
300
1:16
140
1.0
141
16.0
290
     0
  0
SCALE
  5
1A1C6
102
{ACAD_REACTORS
330
1A1BE
102
}
330
1A1BE
100
AcDbScale
 70
     0
300
1:20
140
1.0
141
20.0
290
     0
  0
SCALE
  5
1A1C7
102
{ACAD_REACTORS
330
1A1BE
102
}
330
1A1BE
100
AcDbScale
 70
     0
300
1:30
140
1.0
141
30.0
290
     0
  0
SCALE
  5
1A1C8
102
{ACAD_REACTORS
330
1A1BE
102
}
330
1A1BE
100
AcDbScale
 70
     0
300
1:40
140
1.0
141
40.0
290
     0
  0
SCALE
  5
1A1C9
102
{ACAD_REACTORS
330
1A1BE
102
}
330
1A1BE
100
AcDbScale
 70
     0
300
1:50
140
1.0
141
50.0
290
     0
  0
SCALE
  5
1A1CA
102
{ACAD_REACTORS
330
1A1BE
102
}
330
1A1BE
100
AcDbScale
 70
     0
300
1:100
140
1.0
141
100.0
290
     0
  0
SCALE
  5
1A1CB
102
{ACAD_REACTORS
330
1A1BE
102
}
330
1A1BE
100
AcDbScale
 70
     0
300
2:1
140
2.0
141
1.0
290
     0
  0
SCALE
  5
1A1CC
102
{ACAD_REACTORS
330
1A1BE
102
}
330
1A1BE
100
AcDbScale
 70
     0
300
4:1
140
4.0
141
1.0
290
     0
  0
SCALE
  5
1A1CD
102
{ACAD_REACTORS
330
1A1BE
102
}
330
1A1BE
100
AcDbScale
 70
     0
300
8:1
140
8.0
141
1.0
290
     0
  0
SCALE
  5
1A1CE
102
{ACAD_REACTORS
330
1A1BE
102
}
330
1A1BE
100
AcDbScale
 70
     0
300
10:1
140
10.0
141
1.0
290
     0
  0
SCALE
  5
1A1CF
102
{ACAD_REACTORS
330
1A1BE
102
}
330
1A1BE
100
AcDbScale
 70
     0
300
100:1
140
100.0
141
1.0
290
     0
  0
TABLESTYLE
  5
11B
102
{ACAD_XDICTIONARY
360
1A6CC
102
}
102
{ACAD_REACTORS
330
11A
102
}
330
11A
100
AcDbTableStyle
  3
Standard
 70
     0
 71
     0
 40
1.5
 41
1.5
280
     0
281
     0
  7
STANDARD
140
4.5
170
     2
 62
     0
 63
     7
283
     0
274
    -2
284
     1
 64
     0
275
    -2
285
     1
 65
     0
276
    -2
286
     1
 66
     0
277
    -2
287
     1
 67
     0
278
    -2
288
     1
 68
     0
279
    -2
289
     1
 69
     0
  7
STANDARD
140
6.0
170
     5
 62
     0
 63
     7
283
     0
274
    -2
284
     1
 64
     0
275
    -2
285
     1
 65
     0
276
    -2
286
     1
 66
     0
277
    -2
287
     1
 67
     0
278
    -2
288
     1
 68
     0
279
    -2
289
     1
 69
     0
  7
STANDARD
140
4.5
170
     5
 62
     0
 63
     7
283
     0
274
    -2
284
     1
 64
     0
275
    -2
285
     1
 65
     0
276
    -2
286
     1
 66
     0
277
    -2
287
     1
 67
     0
278
    -2
288
     1
 68
     0
279
    -2
289
     1
 69
     0
  0
VISUALSTYLE
  5
1A1B3
102
{ACAD_XDICTIONARY
360
1BA41
102
}
102
{ACAD_REACTORS
330
1A1AD
102
}
330
1A1AD
100
AcDbVisualStyle
  2
2dWireframe
 70
     4
 71
     0
 72
     2
 73
     0
 90
        0
 40
-0.6
 41
-30.0
 62
     5
 63
     7
 74
     1
 91
        4
 64
     7
 65
   257
 75
     1
175
     1
 42
1.0
 92
        0
 66
   257
 43
1.0
 76
     1
 77
     6
 78
     2
 67
     7
 79
     5
170
     0
171
     0
290
     0
174
     0
 93
        1
 44
0.0
173
     0
291
     0
 45
0.0
1001
ACAD
1000
AcDbSavedByObjectVersion
1070
     0
  0
VISUALSTYLE
  5
1A1B5
102
{ACAD_XDICTIONARY
360
1BA45
102
}
102
{ACAD_REACTORS
330
1A1AD
102
}
330
1A1AD
100
AcDbVisualStyle
  2
3D Hidden
 70
     6
 71
     1
 72
     2
 73
     2
 90
        0
 40
-0.6
 41
-30.0
 62
     5
 63
     7
 74
     2
 91
        2
 64
     7
 65
   257
 75
     2
175
     1
 42
40.0
 92
        0
 66
   257
 43
1.0
 76
     1
 77
     6
 78
     2
 67
     7
 79
     3
170
     0
171
     0
290
     0
174
     0
 93
        1
 44
0.0
173
     0
291
     0
 45
0.0
1001
ACAD
1000
AcDbSavedByObjectVersion
1070
     0
  0
VISUALSTYLE
  5
1A1B4
102
{ACAD_XDICTIONARY
360
1BA43
102
}
102
{ACAD_REACTORS
330
1A1AD
102
}
330
1A1AD
100
AcDbVisualStyle
  2
3dWireframe
 70
     5
 71
     0
 72
     2
 73
     0
 90
        0
 40
-0.6
 41
-30.0
 62
     5
 63
     7
 74
     1
 91
        4
 64
     7
 65
   257
 75
     1
175
     1
 42
1.0
 92
        0
 66
   257
 43
1.0
 76
     1
 77
     6
 78
     2
 67
     7
 79
     5
170
     0
171
     0
290
     0
174
     0
 93
        1
 44
0.0
173
     0
291
     0
 45
0.0
1001
ACAD
1000
AcDbSavedByObjectVersion
1070
     0
  0
VISUALSTYLE
  5
1A1B2
102
{ACAD_XDICTIONARY
360
1BA3F
102
}
102
{ACAD_REACTORS
330
1A1AD
102
}
330
1A1AD
100
AcDbVisualStyle
  2
Basic
 70
     7
 71
     1
 72
     0
 73
     1
 90
        0
 40
-0.6
 41
-30.0
 62
     5
 63
     7
 74
     0
 91
        4
 64
     7
 65
   257
 75
     1
175
     1
 42
1.0
 92
        8
 66
     7
 43
1.0
 76
     1
 77
     6
 78
     2
 67
     7
 79
     5
170
     0
171
     0
290
     0
174
     0
 93
        1
 44
0.0
173
     0
291
     1
 45
0.0
1001
ACAD
1000
AcDbSavedByObjectVersion
1070
     0
  0
VISUALSTYLE
  5
1A1B9
102
{ACAD_XDICTIONARY
360
1BA4D
102
}
102
{ACAD_REACTORS
330
1A1AD
102
}
330
1A1AD
100
AcDbVisualStyle
  2
Brighten
 70
    12
 71
     2
 72
     2
 73
     0
 90
        0
 40
-0.6
 41
-30.0
 62
     5
 63
     7
 74
     1
 91
        4
 64
     7
 65
   257
 75
     1
175
     1
 42
1.0
 92
        8
 66
     7
 43
1.0
 76
     1
 77
     6
 78
     2
 67
     7
 79
     5
170
     0
171
     0
290
     0
174
     0
 93
        1
 44
50.0
173
     0
291
     1
 45
0.0
1001
ACAD
1000
AcDbSavedByObjectVersion
1070
     0
  0
VISUALSTYLE
  5
1A1BD
102
{ACAD_XDICTIONARY
360
1BA55
102
}
102
{ACAD_REACTORS
330
1A1AD
102
}
330
1A1AD
100
AcDbVisualStyle
  2
ColorChange
 70
    16
 71
     2
 72
     2
 73
     3
 90
        0
 40
-0.6
 41
-30.0
 62
     5
 63
     8
 74
     1
 91
        4
 64
     7
 65
   257
 75
     1
175
     1
 42
1.0
 92
        8
 66
     8
 43
1.0
 76
     1
 77
     6
 78
     2
 67
     7
 79
     5
170
     0
171
     0
290
     0
174
     0
 93
        1
 44
0.0
173
     0
291
     1
 45
0.0
1001
ACAD
1000
AcDbSavedByObjectVersion
1070
     0
  0
VISUALSTYLE
  5
1A1B6
102
{ACAD_XDICTIONARY
360
1BA47
102
}
102
{ACAD_REACTORS
330
1A1AD
102
}
330
1A1AD
100
AcDbVisualStyle
  2
Conceptual
 70
     9
 71
     3
 72
     2
 73
     0
 90
        0
 40
-0.6
 41
-30.0
 62
     5
 63
     7
 74
     2
 91
        2
 64
     7
 65
   257
 75
     1
175
     1
 42
40.0
 92
        8
 66
     7
 43
1.0
 76
     1
 77
     6
 78
     2
 67
     7
 79
     3
170
     0
171
     0
290
     0
174
     0
 93
        1
 44
0.0
173
     0
291
     0
 45
0.0
1001
ACAD
1000
AcDbSavedByObjectVersion
1070
     0
  0
VISUALSTYLE
  5
1A1B8
102
{ACAD_XDICTIONARY
360
1BA4B
102
}
102
{ACAD_REACTORS
330
1A1AD
102
}
330
1A1AD
100
AcDbVisualStyle
  2
Dim
 70
    11
 71
     2
 72
     2
 73
     0
 90
        0
 40
-0.6
 41
-30.0
 62
     5
 63
     7
 74
     1
 91
        4
 64
     7
 65
   257
 75
     1
175
     1
 42
1.0
 92
        8
 66
     7
 43
1.0
 76
     1
 77
     6
 78
     2
 67
     7
 79
     5
170
     0
171
     0
290
     0
174
     0
 93
        1
 44
-50.0
173
     0
291
     1
 45
0.0
1001
ACAD
1000
AcDbSavedByObjectVersion
1070
     0
  0
VISUALSTYLE
  5
1B901
102
{ACAD_XDICTIONARY
360
1BA69
102
}
102
{ACAD_REACTORS
330
1A1AD
102
}
330
1A1AD
100
AcDbVisualStyle
  2
EdgeColorOff
 70
    22
 71
     2
 72
     2
 73
     0
 90
        0
 40
-0.6
 41
-30.0
 62
     5
 63
     7
 74
     1
 91
        4
 64
     7
 65
   257
 75
     1
175
     1
 42
1.0
 92
        8
 66
     7
 43
1.0
 76
     1
 77
     6
 78
     2
 67
     7
 79
     5
170
     0
171
     0
290
     0
174
     0
 93
        1
 44
0.0
173
     0
291
     1
 45
0.0
1001
ACAD
1000
AcDbSavedByObjectVersion
1070
     0
  0
VISUALSTYLE
  5
1A1BC
102
{ACAD_XDICTIONARY
360
1BA53
102
}
102
{ACAD_REACTORS
330
1A1AD
102
}
330
1A1AD
100
AcDbVisualStyle
  2
Facepattern
 70
    15
 71
     2
 72
     2
 73
     0
 90
        0
 40
-0.6
 41
-30.0
 62
     5
 63
     7
 74
     1
 91
        4
 64
     7
 65
   257
 75
     1
175
     1
 42
1.0
 92
        8
 66
     7
 43
1.0
 76
     1
 77
     6
 78
     2
 67
     7
 79
     5
170
     0
171
     0
290
     0
174
     0
 93
        1
 44
0.0
173
     0
291
     1
 45
0.0
1001
ACAD
1000
AcDbSavedByObjectVersion
1070
     0
  0
VISUALSTYLE
  5
1A1AE
102
{ACAD_XDICTIONARY
360
1BA37
102
}
102
{ACAD_REACTORS
330
1A1AD
102
}
330
1A1AD
100
AcDbVisualStyle
  2
Flat
 70
     0
 71
     2
 72
     1
 73
     1
 90
        2
 40
-0.6
 41
30.0
 62
     5
 63
     7
 74
     0
 91
        4
 64
     7
 65
   257
 75
     1
175
     1
 42
1.0
 92
        8
 66
     7
 43
1.0
 76
     1
 77
     6
 78
     2
 67
     7
 79
     5
170
     0
171
     0
290
     0
174
     0
 93
       13
 44
0.0
173
     0
291
     1
 45
0.0
1001
ACAD
1000
AcDbSavedByObjectVersion
1070
     0
  0
VISUALSTYLE
  5
1A1AF
102
{ACAD_XDICTIONARY
360
1BA39
102
}
102
{ACAD_REACTORS
330
1A1AD
102
}
330
1A1AD
100
AcDbVisualStyle
  2
FlatWithEdges
 70
     1
 71
     2
 72
     1
 73
     1
 90
        2
 40
-0.6
 41
30.0
 62
     5
 63
     7
 74
     1
 91
        4
 64
     7
 65
   257
 75
     1
175
     1
 42
1.0
 92
        0
 66
   257
 43
1.0
 76
     1
 77
     6
 78
     2
 67
     7
 79
     5
170
     0
171
     0
290
     0
174
     0
 93
       13
 44
0.0
173
     0
291
     1
 45
0.0
1001
ACAD
1000
AcDbSavedByObjectVersion
1070
     0
  0
VISUALSTYLE
  5
1A1B0
102
{ACAD_XDICTIONARY
360
1BA3B
102
}
102
{ACAD_REACTORS
330
1A1AD
102
}
330
1A1AD
100
AcDbVisualStyle
  2
Gouraud
 70
     2
 71
     2
 72
     2
 73
     1
 90
        2
 40
-0.6
 41
30.0
 62
     5
 63
     7
 74
     0
 91
        4
 64
     7
 65
   257
 75
     1
175
     1
 42
1.0
 92
        0
 66
     7
 43
1.0
 76
     1
 77
     6
 78
     2
 67
     7
 79
     5
170
     0
171
     0
290
     0
174
     0
 93
       13
 44
0.0
173
     0
291
     1
 45
0.0
1001
ACAD
1000
AcDbSavedByObjectVersion
1070
     0
  0
VISUALSTYLE
  5
1A1B1
102
{ACAD_XDICTIONARY
360
1BA3D
102
}
102
{ACAD_REACTORS
330
1A1AD
102
}
330
1A1AD
100
AcDbVisualStyle
  2
GouraudWithEdges
 70
     3
 71
     2
 72
     2
 73
     1
 90
        2
 40
-0.6
 41
30.0
 62
     5
 63
     7
 74
     1
 91
        4
 64
     7
 65
   257
 75
     1
175
     1
 42
1.0
 92
        0
 66
   257
 43
1.0
 76
     1
 77
     6
 78
     2
 67
     7
 79
     5
170
     0
171
     0
290
     0
174
     0
 93
       13
 44
0.0
173
     0
291
     1
 45
0.0
1001
ACAD
1000
AcDbSavedByObjectVersion
1070
     0
  0
VISUALSTYLE
  5
1B8F9
102
{ACAD_XDICTIONARY
360
1BA59
102
}
102
{ACAD_REACTORS
330
1A1AD
102
}
330
1A1AD
100
AcDbVisualStyle
  2
Hidden
 70
     6
 71
     1
 72
     2
 73
     2
 90
        0
 40
-0.6
 41
-30.0
 62
     5
 63
     7
 74
     2
 91
        2
 64
     7
 65
   257
 75
     2
175
     1
 42
40.0
 92
        0
 66
   257
 43
1.0
 76
     1
 77
     6
 78
     2
 67
     7
 79
     3
170
     0
171
     0
290
     0
174
     0
 93
        1
 44
0.0
173
     0
291
     0
 45
0.0
1001
ACAD
1000
AcDbSavedByObjectVersion
1070
     0
  0
VISUALSTYLE
  5
1B8FF
102
{ACAD_XDICTIONARY
360
1BA65
102
}
102
{ACAD_REACTORS
330
1A1AD
102
}
330
1A1AD
100
AcDbVisualStyle
  2
JitterOff
 70
    20
 71
     2
 72
     2
 73
     0
 90
        0
 40
-0.6
 41
-30.0
 62
     5
 63
     7
 74
     1
 91
        4
 64
     7
 65
   257
 75
     1
175
     1
 42
1.0
 92
       10
 66
     7
 43
1.0
 76
     1
 77
     6
 78
     2
 67
     7
 79
     5
170
     0
171
     0
290
     0
174
     0
 93
        1
 44
0.0
173
     0
291
     1
 45
0.0
1001
ACAD
1000
AcDbSavedByObjectVersion
1070
     0
  0
VISUALSTYLE
  5
1A1BB
102
{ACAD_XDICTIONARY
360
1BA51
102
}
102
{ACAD_REACTORS
330
1A1AD
102
}
330
1A1AD
100
AcDbVisualStyle
  2
Linepattern
 70
    14
 71
     2
 72
     2
 73
     0
 90
        0
 40
-0.6
 41
-30.0
 62
     5
 63
     7
 74
     1
 91
        4
 64
     7
 65
   257
 75
     7
175
     7
 42
1.0
 92
        8
 66
     7
 43
1.0
 76
     1
 77
     6
 78
     2
 67
     7
 79
     5
170
     0
171
     0
290
     0
174
     0
 93
        1
 44
0.0
173
     0
291
     1
 45
0.0
1001
ACAD
1000
AcDbSavedByObjectVersion
1070
     0
  0
VISUALSTYLE
  5
1B900
102
{ACAD_XDICTIONARY
360
1BA67
102
}
102
{ACAD_REACTORS
330
1A1AD
102
}
330
1A1AD
100
AcDbVisualStyle
  2
OverhangOff
 70
    21
 71
     2
 72
     2
 73
     0
 90
        0
 40
-0.6
 41
-30.0
 62
     5
 63
     7
 74
     1
 91
        4
 64
     7
 65
   257
 75
     1
175
     1
 42
1.0
 92
        9
 66
     7
 43
1.0
 76
     1
 77
     6
 78
     2
 67
     7
 79
     5
170
     0
171
     0
290
     0
174
     0
 93
        1
 44
0.0
173
     0
291
     1
 45
0.0
1001
ACAD
1000
AcDbSavedByObjectVersion
1070
     0
  0
VISUALSTYLE
  5
1A1B7
102
{ACAD_XDICTIONARY
360
1BA49
102
}
102
{ACAD_REACTORS
330
1A1AD
102
}
330
1A1AD
100
AcDbVisualStyle
  2
Realistic
 70
     8
 71
     2
 72
     2
 73
     0
 90
        0
 40
-0.6
 41
-30.0
 62
     5
 63
     7
 74
     1
 91
        0
 64
     7
 65
   257
 75
     1
175
     1
 42
1.0
 92
        8
 66
     8
 43
1.0
 76
     1
 77
     6
 78
     2
 67
     7
 79
     5
170
     0
171
     0
290
     0
174
     0
 93
       13
 44
0.0
173
     0
291
     0
 45
0.0
1001
ACAD
1000
AcDbSavedByObjectVersion
1070
     0
  0
VISUALSTYLE
  5
1B8FE
102
{ACAD_XDICTIONARY
360
1BA63
102
}
102
{ACAD_REACTORS
330
1A1AD
102
}
330
1A1AD
100
AcDbVisualStyle
  2
Shaded
 70
    27
 71
     2
 72
     2
 73
     1
 90
        2
 40
-0.6
 41
30.0
 62
     5
 63
     7
 74
     0
 91
        4
 64
     7
 65
   257
 75
     1
175
     1
 42
1.0
 92
        8
 66
   257
 43
1.0
 76
     1
 77
     6
 78
     2
 67
     8
 79
     3
170
     0
171
     0
290
     0
174
     0
 93
        5
 44
0.0
173
     0
291
     0
 45
0.0
1001
ACAD
1000
AcDbSavedByObjectVersion
1070
     0
  0
VISUALSTYLE
  5
1B8FD
102
{ACAD_XDICTIONARY
360
1BA61
102
}
102
{ACAD_REACTORS
330
1A1AD
102
}
330
1A1AD
100
AcDbVisualStyle
  2
Shaded with edges
 70
    26
 71
     2
 72
     2
 73
     1
 90
        2
 40
-0.6
 41
30.0
 62
     5
 63
     7
 74
     1
 91
       10
 64
     7
 65
   257
 75
     2
175
     1
 42
1.0
 92
        8
 66
   257
 43
1.0
 76
     1
 77
     6
 78
     2
 67
     7
 79
     3
170
     0
171
     0
290
     0
174
     0
 93
        5
 44
0.0
173
     0
291
     0
 45
0.0
1001
ACAD
1000
AcDbSavedByObjectVersion
1070
     0
  0
VISUALSTYLE
  5
1B8FA
102
{ACAD_XDICTIONARY
360
1BA5B
102
}
102
{ACAD_REACTORS
330
1A1AD
102
}
330
1A1AD
100
AcDbVisualStyle
  2
Shades of Gray
 70
    23
 71
     2
 72
     2
 73
     3
 90
        0
 40
-0.6
 41
-30.0
 62
     5
 63
     7
 74
     2
 91
        2
 64
     7
 65
     7
 75
     1
175
     1
 42
40.0
 92
        8
 66
     7
 43
1.0
 76
     1
 77
     6
 78
     2
 67
     7
 79
     3
170
     0
171
     0
290
     0
174
     0
 93
        1
 44
0.0
173
     0
291
     0
 45
0.0
1001
ACAD
1000
AcDbSavedByObjectVersion
1070
     0
  0
VISUALSTYLE
  5
1B8FB
102
{ACAD_XDICTIONARY
360
1BA5D
102
}
102
{ACAD_REACTORS
330
1A1AD
102
}
330
1A1AD
100
AcDbVisualStyle
  2
Sketchy
 70
    24
 71
     1
 72
     2
 73
     2
 90
        0
 40
-0.6
 41
-30.0
 62
     5
 63
     7
 74
     2
 91
        2
 64
     7
 65
     7
 75
     1
175
     1
 42
40.0
 92
       11
 66
     7
 43
1.0
 76
     1
 77
     6
 78
     2
 67
     7
 79
     6
170
     0
171
     0
290
     0
174
     0
 93
        1
 44
0.0
173
     0
291
     0
 45
0.0
1001
ACAD
1000
AcDbSavedByObjectVersion
1070
     0
  0
VISUALSTYLE
  5
1A1BA
102
{ACAD_XDICTIONARY
360
1BA4F
102
}
102
{ACAD_REACTORS
330
1A1AD
102
}
330
1A1AD
100
AcDbVisualStyle
  2
Thicken
 70
    13
 71
     2
 72
     2
 73
     0
 90
        0
 40
-0.6
 41
-30.0
 62
     5
 63
     7
 74
     1
 91
        4
 64
     7
 65
   257
 75
     1
175
     1
 42
1.0
 92
       12
 66
     7
 43
1.0
 76
     1
 77
     6
 78
     2
 67
     7
 79
     5
170
     0
171
     0
290
     0
174
     0
 93
        1
 44
0.0
173
     0
291
     1
 45
0.0
1001
ACAD
1000
AcDbSavedByObjectVersion
1070
     0
  0
VISUALSTYLE
  5
1B8F8
102
{ACAD_XDICTIONARY
360
1BA57
102
}
102
{ACAD_REACTORS
330
1A1AD
102
}
330
1A1AD
100
AcDbVisualStyle
  2
Wireframe
 70
     5
 71
     0
 72
     2
 73
     0
 90
        0
 40
-0.6
 41
-30.0
 62
     5
 63
     7
 74
     1
 91
        4
 64
     7
 65
   257
 75
     1
175
     1
 42
1.0
 92
        0
 66
   257
 43
1.0
 76
     1
 77
     6
 78
     2
 67
     7
 79
     3
170
     0
171
     0
290
     0
174
     0
 93
        1
 44
0.0
173
     0
291
     0
 45
0.0
1001
ACAD
1000
AcDbSavedByObjectVersion
1070
     0
  0
VISUALSTYLE
  5
1B8FC
102
{ACAD_XDICTIONARY
360
1BA5F
102
}
102
{ACAD_REACTORS
330
1A1AD
102
}
330
1A1AD
100
AcDbVisualStyle
  2
X-Ray
 70
    25
 71
     2
 72
     2
 73
     1
 90
        1
 40
0.5
 41
-30.0
 62
     5
 63
     7
 74
     1
 91
        0
 64
     7
 65
   257
 75
     1
175
     1
 42
1.0
 92
        8
 66
     7
 43
1.0
 76
     1
 77
     6
 78
     2
 67
     7
 79
     3
170
     0
171
     0
290
     0
174
     0
 93
       13
 44
0.0
173
     0
291
     0
 45
0.0
1001
ACAD
1000
AcDbSavedByObjectVersion
1070
     0
  0
DICTIONARYVAR
  5
1A6D1
102
{ACAD_REACTORS
330
94
102
}
330
94
100
DictionaryVariables
280
     0
  1
1:1
  0
DICTIONARYVAR
  5
1A6CF
102
{ACAD_REACTORS
330
94
102
}
330
94
100
DictionaryVariables
280
     0
  1
STANDARD
  0
DICTIONARYVAR
  5
138
102
{ACAD_REACTORS
330
94
102
}
330
94
100
DictionaryVariables
280
     0
  1
STANDARD
  0
DICTIONARYVAR
  5
96
102
{ACAD_REACTORS
330
94
102
}
330
94
100
DictionaryVariables
280
     0
  1
2
  0
DICTIONARYVAR
  5
95
102
{ACAD_REACTORS
330
94
102
}
330
94
100
DictionaryVariables
280
     0
  1
0
  0
DICTIONARYVAR
  5
1A6D3
102
{ACAD_REACTORS
330
94
102
}
330
94
100
DictionaryVariables
280
     0
  1
1
  0
DICTIONARYVAR
  5
1A6D4
102
{ACAD_REACTORS
330
94
102
}
330
94
100
DictionaryVariables
280
     0
  1
15
  0
DICTIONARYVAR
  5
1A6D2
102
{ACAD_REACTORS
330
94
102
}
330
94
100
DictionaryVariables
280
     0
  1
0
  0
DICTIONARYVAR
  5
1A6D0
102
{ACAD_REACTORS
330
94
102
}
330
94
100
DictionaryVariables
280
     0
  1
0
  0
DICTIONARYVAR
  5
B168
102
{ACAD_REACTORS
330
94
102
}
330
94
100
DictionaryVariables
280
     0
  1

  0
DICTIONARYVAR
  5
1BA25
102
{ACAD_REACTORS
330
94
102
}
330
94
100
DictionaryVariables
280
     0
  1
127
  0
DICTIONARYVAR
  5
1BA26
102
{ACAD_REACTORS
330
94
102
}
330
94
100
DictionaryVariables
280
     0
  1
0
  0
DICTIONARY
  5
272
102
{ACAD_REACTORS
330
5B
102
}
330
5B
100
AcDbDictionary
281
     1
  0
DICTIONARY
  5
61
102
{ACAD_REACTORS
330
5B
102
}
330
5B
100
AcDbDictionary
281
     1
  0
XRECORD
  5
123
102
{ACAD_REACTORS
330
5B
102
}
330
5B
100
AcDbXrecord
280
     1
 90
-1023410169
  0
DICTIONARY
  5
1BA2D
330
1E
100
AcDbDictionary
280
     1
281
     1
  3
ACAD_XREC_ROUNDTRIP
360
1BA2E
  0
DICTIONARY
  5
1BA31
330
26
100
AcDbDictionary
280
     1
281
     1
  3
ACAD_XREC_ROUNDTRIP
360
1BA32
  0
DICTIONARY
  5
1BA2F
330
22
100
AcDbDictionary
280
     1
281
     1
  3
ACAD_XREC_ROUNDTRIP
360
1BA30
  0
DICTIONARY
  5
1A19E
330
1A19D
100
AcDbDictionary
280
     1
281
     1
  3
ACAD_XREC_ROUNDTRIP
360
1BA35
  3
BUMPTILE
360
1A1A0
  3
DIFFUSETILE
360
1A19F
  3
OPACITYTILE
360
1A1A3
  3
REFLECTIONTILE
360
1A1A2
  3
REFRACTIONTILE
360
1A1A4
  3
SPECULARTILE
360
1A1A1
  0
DICTIONARY
  5
1A196
330
1A195
100
AcDbDictionary
280
     1
281
     1
  3
ACAD_XREC_ROUNDTRIP
360
1BA34
  3
BUMPTILE
360
1A198
  3
DIFFUSETILE
360
1A197
  3
OPACITYTILE
360
1A19B
  3
REFLECTIONTILE
360
1A19A
  3
REFRACTIONTILE
360
1A19C
  3
SPECULARTILE
360
1A199
  0
DICTIONARY
  5
1A1A6
330
1A1A5
100
AcDbDictionary
280
     1
281
     1
  3
ACAD_XREC_ROUNDTRIP
360
1BA36
  3
BUMPTILE
360
1A1A8
  3
DIFFUSETILE
360
1A1A7
  3
OPACITYTILE
360
1A1AB
  3
REFLECTIONTILE
360
1A1AA
  3
REFRACTIONTILE
360
1A1AC
  3
SPECULARTILE
360
1A1A9
  0
DICTIONARY
  5
1A6CC
330
11B
100
AcDbDictionary
280
     1
281
     1
  3
ACAD_ROUNDTRIP_2008_TABLESTYLE_CELLSTYLEMAP
360
1BA27
  3
ACAD_XREC_ROUNDTRIP
360
1BA33
  0
DICTIONARY
  5
1BA41
330
1A1B3
100
AcDbDictionary
280
     1
281
     1
  3
ACAD_XREC_ROUNDTRIP
360
1BA42
  0
DICTIONARY
  5
1BA45
330
1A1B5
100
AcDbDictionary
280
     1
281
     1
  3
ACAD_XREC_ROUNDTRIP
360
1BA46
  0
DICTIONARY
  5
1BA43
330
1A1B4
100
AcDbDictionary
280
     1
281
     1
  3
ACAD_XREC_ROUNDTRIP
360
1BA44
  0
DICTIONARY
  5
1BA3F
330
1A1B2
100
AcDbDictionary
280
     1
281
     1
  3
ACAD_XREC_ROUNDTRIP
360
1BA40
  0
DICTIONARY
  5
1BA4D
330
1A1B9
100
AcDbDictionary
280
     1
281
     1
  3
ACAD_XREC_ROUNDTRIP
360
1BA4E
  0
DICTIONARY
  5
1BA55
330
1A1BD
100
AcDbDictionary
280
     1
281
     1
  3
ACAD_XREC_ROUNDTRIP
360
1BA56
  0
DICTIONARY
  5
1BA47
330
1A1B6
100
AcDbDictionary
280
     1
281
     1
  3
ACAD_XREC_ROUNDTRIP
360
1BA48
  0
DICTIONARY
  5
1BA4B
330
1A1B8
100
AcDbDictionary
280
     1
281
     1
  3
ACAD_XREC_ROUNDTRIP
360
1BA4C
  0
DICTIONARY
  5
1BA69
330
1B901
100
AcDbDictionary
280
     1
281
     1
  3
ACAD_XREC_ROUNDTRIP
360
1BA6A
  0
DICTIONARY
  5
1BA53
330
1A1BC
100
AcDbDictionary
280
     1
281
     1
  3
ACAD_XREC_ROUNDTRIP
360
1BA54
  0
DICTIONARY
  5
1BA37
330
1A1AE
100
AcDbDictionary
280
     1
281
     1
  3
ACAD_XREC_ROUNDTRIP
360
1BA38
  0
DICTIONARY
  5
1BA39
330
1A1AF
100
AcDbDictionary
280
     1
281
     1
  3
ACAD_XREC_ROUNDTRIP
360
1BA3A
  0
DICTIONARY
  5
1BA3B
330
1A1B0
100
AcDbDictionary
280
     1
281
     1
  3
ACAD_XREC_ROUNDTRIP
360
1BA3C
  0
DICTIONARY
  5
1BA3D
330
1A1B1
100
AcDbDictionary
280
     1
281
     1
  3
ACAD_XREC_ROUNDTRIP
360
1BA3E
  0
DICTIONARY
  5
1BA59
330
1B8F9
100
AcDbDictionary
280
     1
281
     1
  3
ACAD_XREC_ROUNDTRIP
360
1BA5A
  0
DICTIONARY
  5
1BA65
330
1B8FF
100
AcDbDictionary
280
     1
281
     1
  3
ACAD_XREC_ROUNDTRIP
360
1BA66
  0
DICTIONARY
  5
1BA51
330
1A1BB
100
AcDbDictionary
280
     1
281
     1
  3
ACAD_XREC_ROUNDTRIP
360
1BA52
  0
DICTIONARY
  5
1BA67
330
1B900
100
AcDbDictionary
280
     1
281
     1
  3
ACAD_XREC_ROUNDTRIP
360
1BA68
  0
DICTIONARY
  5
1BA49
330
1A1B7
100
AcDbDictionary
280
     1
281
     1
  3
ACAD_XREC_ROUNDTRIP
360
1BA4A
  0
DICTIONARY
  5
1BA63
330
1B8FE
100
AcDbDictionary
280
     1
281
     1
  3
ACAD_XREC_ROUNDTRIP
360
1BA64
  0
DICTIONARY
  5
1BA61
330
1B8FD
100
AcDbDictionary
280
     1
281
     1
  3
ACAD_XREC_ROUNDTRIP
360
1BA62
  0
DICTIONARY
  5
1BA5B
330
1B8FA
100
AcDbDictionary
280
     1
281
     1
  3
ACAD_XREC_ROUNDTRIP
360
1BA5C
  0
DICTIONARY
  5
1BA5D
330
1B8FB
100
AcDbDictionary
280
     1
281
     1
  3
ACAD_XREC_ROUNDTRIP
360
1BA5E
  0
DICTIONARY
  5
1BA4F
330
1A1BA
100
AcDbDictionary
280
     1
281
     1
  3
ACAD_XREC_ROUNDTRIP
360
1BA50
  0
DICTIONARY
  5
1BA57
330
1B8F8
100
AcDbDictionary
280
     1
281
     1
  3
ACAD_XREC_ROUNDTRIP
360
1BA58
  0
DICTIONARY
  5
1BA5F
330
1B8FC
100
AcDbDictionary
280
     1
281
     1
  3
ACAD_XREC_ROUNDTRIP
360
1BA60
  0
XRECORD
  5
1BA2E
102
{ACAD_REACTORS
330
1BA2D
102
}
330
1BA2D
100
AcDbXrecord
280
     1
102
SHADEPLOT
 70
     0
102
SHADEPLOTRESLEVEL
 70
     2
102
SHADEPLOTCUSTOMDPI
 70
   300
  0
XRECORD
  5
1BA32
102
{ACAD_REACTORS
330
1BA31
102
}
330
1BA31
100
AcDbXrecord
280
     1
102
SHADEPLOT
 70
     0
102
SHADEPLOTRESLEVEL
 70
     2
102
SHADEPLOTCUSTOMDPI
 70
   300
  0
XRECORD
  5
1BA30
102
{ACAD_REACTORS
330
1BA2F
102
}
330
1BA2F
100
AcDbXrecord
280
     1
102
SHADEPLOT
 70
     0
102
SHADEPLOTRESLEVEL
 70
     2
102
SHADEPLOTCUSTOMDPI
 70
   300
  0
XRECORD
  5
1BA35
102
{ACAD_REACTORS
330
1A19E
102
}
330
1A19E
100
AcDbXrecord
280
     1
102
MATERIAL
148
0.0
149
0.0
149
0.0
 93
        0
 94
      127
282
     0
 72
     0
 77
     0
171
     0
175
     0
179
     0
273
     0
  0
XRECORD
  5
1A1A0
102
{ACAD_REACTORS
330
1A19E
102
}
330
1A19E
100
AcDbXrecord
280
     1
270
     1
271
     1
  0
XRECORD
  5
1A19F
102
{ACAD_REACTORS
330
1A19E
102
}
330
1A19E
100
AcDbXrecord
280
     1
270
     1
271
     1
  0
XRECORD
  5
1A1A3
102
{ACAD_REACTORS
330
1A19E
102
}
330
1A19E
100
AcDbXrecord
280
     1
270
     1
271
     1
  0
XRECORD
  5
1A1A2
102
{ACAD_REACTORS
330
1A19E
102
}
330
1A19E
100
AcDbXrecord
280
     1
270
     1
271
     1
  0
XRECORD
  5
1A1A4
102
{ACAD_REACTORS
330
1A19E
102
}
330
1A19E
100
AcDbXrecord
280
     1
270
     1
271
     1
  0
XRECORD
  5
1A1A1
102
{ACAD_REACTORS
330
1A19E
102
}
330
1A19E
100
AcDbXrecord
280
     1
270
     1
271
     1
  0
XRECORD
  5
1BA34
102
{ACAD_REACTORS
330
1A196
102
}
330
1A196
100
AcDbXrecord
280
     1
102
MATERIAL
148
0.0
149
0.0
149
0.0
 93
        0
 94
      127
282
     0
 72
     0
 77
     0
171
     0
175
     0
179
     0
273
     0
  0
XRECORD
  5
1A198
102
{ACAD_REACTORS
330
1A196
102
}
330
1A196
100
AcDbXrecord
280
     1
270
     1
271
     1
  0
XRECORD
  5
1A197
102
{ACAD_REACTORS
330
1A196
102
}
330
1A196
100
AcDbXrecord
280
     1
270
     1
271
     1
  0
XRECORD
  5
1A19B
102
{ACAD_REACTORS
330
1A196
102
}
330
1A196
100
AcDbXrecord
280
     1
270
     1
271
     1
  0
XRECORD
  5
1A19A
102
{ACAD_REACTORS
330
1A196
102
}
330
1A196
100
AcDbXrecord
280
     1
270
     1
271
     1
  0
XRECORD
  5
1A19C
102
{ACAD_REACTORS
330
1A196
102
}
330
1A196
100
AcDbXrecord
280
     1
270
     1
271
     1
  0
XRECORD
  5
1A199
102
{ACAD_REACTORS
330
1A196
102
}
330
1A196
100
AcDbXrecord
280
     1
270
     1
271
     1
  0
XRECORD
  5
1BA36
102
{ACAD_REACTORS
330
1A1A6
102
}
330
1A1A6
100
AcDbXrecord
280
     1
102
MATERIAL
148
0.0
149
0.0
149
0.0
 93
        0
 94
      127
282
     0
 72
     0
 77
     0
171
     0
175
     0
179
     0
273
     0
  0
XRECORD
  5
1A1A8
102
{ACAD_REACTORS
330
1A1A6
102
}
330
1A1A6
100
AcDbXrecord
280
     1
270
     1
271
     1
  0
XRECORD
  5
1A1A7
102
{ACAD_REACTORS
330
1A1A6
102
}
330
1A1A6
100
AcDbXrecord
280
     1
270
     1
271
     1
  0
XRECORD
  5
1A1AB
102
{ACAD_REACTORS
330
1A1A6
102
}
330
1A1A6
100
AcDbXrecord
280
     1
270
     1
271
     1
  0
XRECORD
  5
1A1AA
102
{ACAD_REACTORS
330
1A1A6
102
}
330
1A1A6
100
AcDbXrecord
280
     1
270
     1
271
     1
  0
XRECORD
  5
1A1AC
102
{ACAD_REACTORS
330
1A1A6
102
}
330
1A1A6
100
AcDbXrecord
280
     1
270
     1
271
     1
  0
XRECORD
  5
1A1A9
102
{ACAD_REACTORS
330
1A1A6
102
}
330
1A1A6
100
AcDbXrecord
280
     1
270
     1
271
     1
  0
CELLSTYLEMAP
  5
1BA27
102
{ACAD_REACTORS
330
1A6CC
102
}
330
1A6CC
100
AcDbCellStyleMap
 90
        3
300
CELLSTYLE
  1
TABLEFORMAT_BEGIN
 90
        5
170
     1
 91
        0
 92
    32768
 62
   257
 93
        1
300
CONTENTFORMAT
  1
CONTENTFORMAT_BEGIN
 90
        0
 91
        0
 92
        4
 93
        0
300

 40
0.0
140
1.0
 94
        5
 62
     0
340
11
144
6.0
309
CONTENTFORMAT_END
171
     1
301
MARGIN
  1
CELLMARGIN_BEGIN
 40
1.5
 40
1.5
 40
1.5
 40
1.5
 40
0.18
 40
0.18
309
CELLMARGIN_END
 94
        6
 95
        1
302
GRIDFORMAT
  1
GRIDFORMAT_BEGIN
 90
        0
 91
        1
 62
     0
 92
       -2
340
0
 93
        0
 40
0.045
309
GRIDFORMAT_END
 95
        2
302
GRIDFORMAT
  1
GRIDFORMAT_BEGIN
 90
        0
 91
        1
 62
     0
 92
       -2
340
0
 93
        0
 40
0.045
309
GRIDFORMAT_END
 95
        4
302
GRIDFORMAT
  1
GRIDFORMAT_BEGIN
 90
        0
 91
        1
 62
     0
 92
       -2
340
0
 93
        0
 40
0.045
309
GRIDFORMAT_END
 95
        8
302
GRIDFORMAT
  1
GRIDFORMAT_BEGIN
 90
        0
 91
        1
 62
     0
 92
       -2
340
0
 93
        0
 40
0.045
309
GRIDFORMAT_END
 95
       16
302
GRIDFORMAT
  1
GRIDFORMAT_BEGIN
 90
        0
 91
        1
 62
     0
 92
       -2
340
0
 93
        0
 40
0.045
309
GRIDFORMAT_END
 95
       32
302
GRIDFORMAT
  1
GRIDFORMAT_BEGIN
 90
        0
 91
        1
 62
     0
 92
       -2
340
0
 93
        0
 40
0.045
309
GRIDFORMAT_END
309
TABLEFORMAT_END
  1
CELLSTYLE_BEGIN
 90
        1
 91
        1
300
_TITLE
309
CELLSTYLE_END
300
CELLSTYLE
  1
TABLEFORMAT_BEGIN
 90
        5
170
     1
 91
        0
 92
        0
 62
   257
 93
        1
300
CONTENTFORMAT
  1
CONTENTFORMAT_BEGIN
 90
        0
 91
        0
 92
        4
 93
        0
300

 40
0.0
140
1.0
 94
        5
 62
     0
340
11
144
4.5
309
CONTENTFORMAT_END
171
     1
301
MARGIN
  1
CELLMARGIN_BEGIN
 40
1.5
 40
1.5
 40
1.5
 40
1.5
 40
0.18
 40
0.18
309
CELLMARGIN_END
 94
        6
 95
        1
302
GRIDFORMAT
  1
GRIDFORMAT_BEGIN
 90
        0
 91
        1
 62
     0
 92
       -2
340
0
 93
        0
 40
0.045
309
GRIDFORMAT_END
 95
        2
302
GRIDFORMAT
  1
GRIDFORMAT_BEGIN
 90
        0
 91
        1
 62
     0
 92
       -2
340
0
 93
        0
 40
0.045
309
GRIDFORMAT_END
 95
        4
302
GRIDFORMAT
  1
GRIDFORMAT_BEGIN
 90
        0
 91
        1
 62
     0
 92
       -2
340
0
 93
        0
 40
0.045
309
GRIDFORMAT_END
 95
        8
302
GRIDFORMAT
  1
GRIDFORMAT_BEGIN
 90
        0
 91
        1
 62
     0
 92
       -2
340
0
 93
        0
 40
0.045
309
GRIDFORMAT_END
 95
       16
302
GRIDFORMAT
  1
GRIDFORMAT_BEGIN
 90
        0
 91
        1
 62
     0
 92
       -2
340
0
 93
        0
 40
0.045
309
GRIDFORMAT_END
 95
       32
302
GRIDFORMAT
  1
GRIDFORMAT_BEGIN
 90
        0
 91
        1
 62
     0
 92
       -2
340
0
 93
        0
 40
0.045
309
GRIDFORMAT_END
309
TABLEFORMAT_END
  1
CELLSTYLE_BEGIN
 90
        2
 91
        1
300
_HEADER
309
CELLSTYLE_END
300
CELLSTYLE
  1
TABLEFORMAT_BEGIN
 90
        5
170
     1
 91
        0
 92
        0
 62
   257
 93
        1
300
CONTENTFORMAT
  1
CONTENTFORMAT_BEGIN
 90
        0
 91
        0
 92
        4
 93
        0
300

 40
0.0
140
1.0
 94
        2
 62
     0
340
11
144
4.5
309
CONTENTFORMAT_END
171
     1
301
MARGIN
  1
CELLMARGIN_BEGIN
 40
1.5
 40
1.5
 40
1.5
 40
1.5
 40
0.18
 40
0.18
309
CELLMARGIN_END
 94
        6
 95
        1
302
GRIDFORMAT
  1
GRIDFORMAT_BEGIN
 90
        0
 91
        1
 62
     0
 92
       -2
340
0
 93
        0
 40
0.045
309
GRIDFORMAT_END
 95
        2
302
GRIDFORMAT
  1
GRIDFORMAT_BEGIN
 90
        0
 91
        1
 62
     0
 92
       -2
340
0
 93
        0
 40
0.045
309
GRIDFORMAT_END
 95
        4
302
GRIDFORMAT
  1
GRIDFORMAT_BEGIN
 90
        0
 91
        1
 62
     0
 92
       -2
340
0
 93
        0
 40
0.045
309
GRIDFORMAT_END
 95
        8
302
GRIDFORMAT
  1
GRIDFORMAT_BEGIN
 90
        0
 91
        1
 62
     0
 92
       -2
340
0
 93
        0
 40
0.045
309
GRIDFORMAT_END
 95
       16
302
GRIDFORMAT
  1
GRIDFORMAT_BEGIN
 90
        0
 91
        1
 62
     0
 92
       -2
340
0
 93
        0
 40
0.045
309
GRIDFORMAT_END
 95
       32
302
GRIDFORMAT
  1
GRIDFORMAT_BEGIN
 90
        0
 91
        1
 62
     0
 92
       -2
340
0
 93
        0
 40
0.045
309
GRIDFORMAT_END
309
TABLEFORMAT_END
  1
CELLSTYLE_BEGIN
 90
        3
 91
        2
300
_DATA
309
CELLSTYLE_END
  0
XRECORD
  5
1BA33
102
{ACAD_REACTORS
330
1A6CC
102
}
330
1A6CC
100
AcDbXrecord
280
     1
102
ACAD_ROUNDTRIP_PRE2007_TABLESTYLE
 90
        4
 91
        0
  1

 92
        4
 93
        0
  2

 94
        4
 95
        0
  3

  0
XRECORD
  5
1BA42
102
{ACAD_REACTORS
330
1BA41
102
}
330
1BA41
100
AcDbXrecord
280
     1
102
RTVSPropertyOp0
 70
     1
102
RTVSPropertyOp1
 70
     1
102
RTVSPropertyOp2
 70
     1
102
RTVSPropertyOp3
 70
     1
102
RTVSPropertyOp4
 70
     1
102
RTVSPropertyOp5
 70
     1
102
RTVSPropertyOp6
 70
     1
102
RTVSPropertyOp7
 70
     1
102
RTVSPropertyOp8
 70
     1
102
RTVSPropertyOp9
 70
     1
102
RTVSPropertyOp10
 70
     1
102
RTVSPropertyOp11
 70
     1
102
RTVSPropertyOp12
 70
     1
102
RTVSPropertyOp13
 70
     1
102
RTVSPropertyOp14
 70
     1
102
RTVSPropertyOp15
 70
     1
102
RTVSPropertyOp16
 70
     1
102
RTVSPropertyOp17
 70
     1
102
RTVSPropertyOp18
 70
     1
102
RTVSPropertyOp19
 70
     1
102
RTVSPropertyOp20
 70
     1
102
RTVSPropertyOp21
 70
     1
102
RTVSPropertyOp22
 70
     1
102
RTVSPropertyOp23
 70
     1
102
RTVSPropertyOp24
 70
     1
102
RTVSPropertyOp25
 70
     1
102
RTVSPropertyOp26
 70
     1
102
RTVSPropertyOp27
 70
     1
102
RTVSPropertyOp28
 70
     1
102
RTVSPropertyOp29
 70
     1
102
RTVSPropertyOp30
 70
     1
102
RTVSPropertyOp31
 70
     1
102
RTVSPropertyOp32
 70
     1
  0
XRECORD
  5
1BA46
102
{ACAD_REACTORS
330
1BA45
102
}
330
1BA45
100
AcDbXrecord
280
     1
102
RTVSPropertyOp0
 70
     1
102
RTVSPropertyOp1
 70
     1
102
RTVSPropertyOp2
 70
     1
102
RTVSPropertyOp3
 70
     1
102
RTVSPropertyOp4
 70
     1
102
RTVSPropertyOp5
 70
     1
102
RTVSPropertyOp6
 70
     1
102
RTVSPropertyOp7
 70
     1
102
RTVSPropertyOp8
 70
     1
102
RTVSPropertyOp9
 70
     1
102
RTVSPropertyOp10
 70
     1
102
RTVSPropertyOp11
 70
     1
102
RTVSPropertyOp12
 70
     1
102
RTVSPropertyOp13
 70
     1
102
RTVSPropertyOp14
 70
     1
102
RTVSPropertyOp15
 70
     1
102
RTVSPropertyOp16
 70
     1
102
RTVSPropertyOp17
 70
     1
102
RTVSPropertyOp18
 70
     1
102
RTVSPropertyOp19
 70
     1
102
RTVSPropertyOp20
 70
     1
102
RTVSPropertyOp21
 70
     1
102
RTVSPropertyOp22
 70
     1
102
RTVSPropertyOp23
 70
     1
102
RTVSPropertyOp24
 70
     1
102
RTVSPropertyOp25
 70
     1
102
RTVSPropertyOp26
 70
     1
102
RTVSPropertyOp27
 70
     1
102
RTVSPropertyOp28
 70
     1
102
RTVSPropertyOp29
 70
     1
102
RTVSPropertyOp30
 70
     1
102
RTVSPropertyOp31
 70
     1
102
RTVSPropertyOp32
 70
     1
  0
XRECORD
  5
1BA44
102
{ACAD_REACTORS
330
1BA43
102
}
330
1BA43
100
AcDbXrecord
280
     1
102
RTVSPropertyOp0
 70
     1
102
RTVSPropertyOp1
 70
     1
102
RTVSPropertyOp2
 70
     1
102
RTVSPropertyOp3
 70
     1
102
RTVSPropertyOp4
 70
     1
102
RTVSPropertyOp5
 70
     1
102
RTVSPropertyOp6
 70
     1
102
RTVSPropertyOp7
 70
     1
102
RTVSPropertyOp8
 70
     1
102
RTVSPropertyOp9
 70
     1
102
RTVSPropertyOp10
 70
     1
102
RTVSPropertyOp11
 70
     1
102
RTVSPropertyOp12
 70
     1
102
RTVSPropertyOp13
 70
     1
102
RTVSPropertyOp14
 70
     1
102
RTVSPropertyOp15
 70
     1
102
RTVSPropertyOp16
 70
     1
102
RTVSPropertyOp17
 70
     1
102
RTVSPropertyOp18
 70
     1
102
RTVSPropertyOp19
 70
     1
102
RTVSPropertyOp20
 70
     1
102
RTVSPropertyOp21
 70
     1
102
RTVSPropertyOp22
 70
     1
102
RTVSPropertyOp23
 70
     1
102
RTVSPropertyOp24
 70
     1
102
RTVSPropertyOp25
 70
     1
102
RTVSPropertyOp26
 70
     1
102
RTVSPropertyOp27
 70
     1
102
RTVSPropertyOp28
 70
     1
102
RTVSPropertyOp29
 70
     1
102
RTVSPropertyOp30
 70
     1
102
RTVSPropertyOp31
 70
     1
102
RTVSPropertyOp32
 70
     1
  0
XRECORD
  5
1BA40
102
{ACAD_REACTORS
330
1BA3F
102
}
330
1BA3F
100
AcDbXrecord
280
     1
102
RTVSPropertyOp0
 70
     1
102
RTVSPropertyOp1
 70
     1
102
RTVSPropertyOp2
 70
     1
102
RTVSPropertyOp3
 70
     1
102
RTVSPropertyOp4
 70
     1
102
RTVSPropertyOp5
 70
     1
102
RTVSPropertyOp6
 70
     1
102
RTVSPropertyOp7
 70
     1
102
RTVSPropertyOp8
 70
     1
102
RTVSPropertyOp9
 70
     1
102
RTVSPropertyOp10
 70
     1
102
RTVSPropertyOp11
 70
     1
102
RTVSPropertyOp12
 70
     1
102
RTVSPropertyOp13
 70
     1
102
RTVSPropertyOp14
 70
     1
102
RTVSPropertyOp15
 70
     1
102
RTVSPropertyOp16
 70
     1
102
RTVSPropertyOp17
 70
     1
102
RTVSPropertyOp18
 70
     1
102
RTVSPropertyOp19
 70
     1
102
RTVSPropertyOp20
 70
     1
102
RTVSPropertyOp21
 70
     1
102
RTVSPropertyOp22
 70
     1
102
RTVSPropertyOp23
 70
     1
102
RTVSPropertyOp24
 70
     1
102
RTVSPropertyOp25
 70
     1
102
RTVSPropertyOp26
 70
     1
102
RTVSPropertyOp27
 70
     1
102
RTVSPropertyOp28
 70
     1
102
RTVSPropertyOp29
 70
     1
102
RTVSPropertyOp30
 70
     1
102
RTVSPropertyOp31
 70
     1
102
RTVSPropertyOp32
 70
     1
  0
XRECORD
  5
1BA4E
102
{ACAD_REACTORS
330
1BA4D
102
}
330
1BA4D
100
AcDbXrecord
280
     1
102
RTVSPropertyOp0
 70
     1
102
RTVSPropertyOp1
 70
     1
102
RTVSPropertyOp2
 70
     1
102
RTVSPropertyOp3
 70
     1
102
RTVSPropertyOp4
 70
     1
102
RTVSPropertyOp5
 70
     1
102
RTVSPropertyOp6
 70
     1
102
RTVSPropertyOp7
 70
     1
102
RTVSPropertyOp8
 70
     1
102
RTVSPropertyOp9
 70
     1
102
RTVSPropertyOp10
 70
     1
102
RTVSPropertyOp11
 70
     1
102
RTVSPropertyOp12
 70
     1
102
RTVSPropertyOp13
 70
     1
102
RTVSPropertyOp14
 70
     1
102
RTVSPropertyOp15
 70
     1
102
RTVSPropertyOp16
 70
     1
102
RTVSPropertyOp17
 70
     1
102
RTVSPropertyOp18
 70
     1
102
RTVSPropertyOp19
 70
     1
102
RTVSPropertyOp20
 70
     1
102
RTVSPropertyOp21
 70
     1
102
RTVSPropertyOp22
 70
     1
102
RTVSPropertyOp23
 70
     1
102
RTVSPropertyOp24
 70
     1
102
RTVSPropertyOp25
 70
     1
102
RTVSPropertyOp26
 70
     1
102
RTVSPropertyOp27
 70
     1
102
RTVSPropertyOp28
 70
     1
102
RTVSPropertyOp29
 70
     1
102
RTVSPropertyOp30
 70
     1
102
RTVSPropertyOp31
 70
     1
102
RTVSPropertyOp32
 70
     1
  0
XRECORD
  5
1BA56
102
{ACAD_REACTORS
330
1BA55
102
}
330
1BA55
100
AcDbXrecord
280
     1
102
RTVSPropertyOp0
 70
     1
102
RTVSPropertyOp1
 70
     1
102
RTVSPropertyOp2
 70
     1
102
RTVSPropertyOp3
 70
     1
102
RTVSPropertyOp4
 70
     1
102
RTVSPropertyOp5
 70
     1
102
RTVSPropertyOp6
 70
     1
102
RTVSPropertyOp7
 70
     1
102
RTVSPropertyOp8
 70
     1
102
RTVSPropertyOp9
 70
     1
102
RTVSPropertyOp10
 70
     1
102
RTVSPropertyOp11
 70
     1
102
RTVSPropertyOp12
 70
     1
102
RTVSPropertyOp13
 70
     1
102
RTVSPropertyOp14
 70
     1
102
RTVSPropertyOp15
 70
     1
102
RTVSPropertyOp16
 70
     1
102
RTVSPropertyOp17
 70
     1
102
RTVSPropertyOp18
 70
     1
102
RTVSPropertyOp19
 70
     1
102
RTVSPropertyOp20
 70
     1
102
RTVSPropertyOp21
 70
     1
102
RTVSPropertyOp22
 70
     1
102
RTVSPropertyOp23
 70
     1
102
RTVSPropertyOp24
 70
     1
102
RTVSPropertyOp25
 70
     1
102
RTVSPropertyOp26
 70
     1
102
RTVSPropertyOp27
 70
     1
102
RTVSPropertyOp28
 70
     1
102
RTVSPropertyOp29
 70
     1
102
RTVSPropertyOp30
 70
     1
102
RTVSPropertyOp31
 70
     1
102
RTVSPropertyOp32
 70
     1
  0
XRECORD
  5
1BA48
102
{ACAD_REACTORS
330
1BA47
102
}
330
1BA47
100
AcDbXrecord
280
     1
102
RTVSPropertyOp0
 70
     1
102
RTVSPropertyOp1
 70
     1
102
RTVSPropertyOp2
 70
     1
102
RTVSPropertyOp3
 70
     1
102
RTVSPropertyOp4
 70
     1
102
RTVSPropertyOp5
 70
     1
102
RTVSPropertyOp6
 70
     1
102
RTVSPropertyOp7
 70
     1
102
RTVSPropertyOp8
 70
     1
102
RTVSPropertyOp9
 70
     1
102
RTVSPropertyOp10
 70
     1
102
RTVSPropertyOp11
 70
     1
102
RTVSPropertyOp12
 70
     1
102
RTVSPropertyOp13
 70
     1
102
RTVSPropertyOp14
 70
     1
102
RTVSPropertyOp15
 70
     1
102
RTVSPropertyOp16
 70
     1
102
RTVSPropertyOp17
 70
     1
102
RTVSPropertyOp18
 70
     1
102
RTVSPropertyOp19
 70
     1
102
RTVSPropertyOp20
 70
     1
102
RTVSPropertyOp21
 70
     1
102
RTVSPropertyOp22
 70
     1
102
RTVSPropertyOp23
 70
     1
102
RTVSPropertyOp24
 70
     1
102
RTVSPropertyOp25
 70
     1
102
RTVSPropertyOp26
 70
     1
102
RTVSPropertyOp27
 70
     1
102
RTVSPropertyOp28
 70
     1
102
RTVSPropertyOp29
 70
     1
102
RTVSPropertyOp30
 70
     1
102
RTVSPropertyOp31
 70
     1
102
RTVSPropertyOp32
 70
     1
  0
XRECORD
  5
1BA4C
102
{ACAD_REACTORS
330
1BA4B
102
}
330
1BA4B
100
AcDbXrecord
280
     1
102
RTVSPropertyOp0
 70
     1
102
RTVSPropertyOp1
 70
     1
102
RTVSPropertyOp2
 70
     1
102
RTVSPropertyOp3
 70
     1
102
RTVSPropertyOp4
 70
     1
102
RTVSPropertyOp5
 70
     1
102
RTVSPropertyOp6
 70
     1
102
RTVSPropertyOp7
 70
     1
102
RTVSPropertyOp8
 70
     1
102
RTVSPropertyOp9
 70
     1
102
RTVSPropertyOp10
 70
     1
102
RTVSPropertyOp11
 70
     1
102
RTVSPropertyOp12
 70
     1
102
RTVSPropertyOp13
 70
     1
102
RTVSPropertyOp14
 70
     1
102
RTVSPropertyOp15
 70
     1
102
RTVSPropertyOp16
 70
     1
102
RTVSPropertyOp17
 70
     1
102
RTVSPropertyOp18
 70
     1
102
RTVSPropertyOp19
 70
     1
102
RTVSPropertyOp20
 70
     1
102
RTVSPropertyOp21
 70
     1
102
RTVSPropertyOp22
 70
     1
102
RTVSPropertyOp23
 70
     1
102
RTVSPropertyOp24
 70
     1
102
RTVSPropertyOp25
 70
     1
102
RTVSPropertyOp26
 70
     1
102
RTVSPropertyOp27
 70
     1
102
RTVSPropertyOp28
 70
     1
102
RTVSPropertyOp29
 70
     1
102
RTVSPropertyOp30
 70
     1
102
RTVSPropertyOp31
 70
     1
102
RTVSPropertyOp32
 70
     1
  0
XRECORD
  5
1BA6A
102
{ACAD_REACTORS
330
1BA69
102
}
330
1BA69
100
AcDbXrecord
280
     1
102
RTVSPropertyOp0
 70
     0
102
RTVSPropertyOp1
 70
     0
102
RTVSPropertyOp2
 70
     0
102
RTVSPropertyOp3
 70
     0
102
RTVSPropertyOp4
 70
     0
102
RTVSPropertyOp5
 70
     0
102
RTVSPropertyOp6
 70
     0
102
RTVSPropertyOp7
 70
     0
102
RTVSPropertyOp8
 70
     0
102
RTVSPropertyOp9
 70
     0
102
RTVSPropertyOp10
 70
     0
102
RTVSPropertyOp11
 70
     0
102
RTVSPropertyOp12
 70
     0
102
RTVSPropertyOp13
 70
     0
102
RTVSPropertyOp14
 70
     2
102
RTVSPropertyOp15
 70
     0
102
RTVSPropertyOp16
 70
     0
102
RTVSPropertyOp17
 70
     0
102
RTVSPropertyOp18
 70
     0
102
RTVSPropertyOp19
 70
     0
102
RTVSPropertyOp20
 70
     0
102
RTVSPropertyOp21
 70
     0
102
RTVSPropertyOp22
 70
     0
102
RTVSPropertyOp23
 70
     0
102
RTVSPropertyOp24
 70
     0
102
RTVSPropertyOp25
 70
     0
102
RTVSPropertyOp26
 70
     0
102
RTVSPropertyOp27
 70
     0
102
RTVSPropertyOp28
 70
     0
102
RTVSPropertyOp29
 70
     0
102
RTVSPropertyOp30
 70
     0
102
RTVSPropertyOp31
 70
     0
102
RTVSPropertyOp32
 70
     0
  0
XRECORD
  5
1BA54
102
{ACAD_REACTORS
330
1BA53
102
}
330
1BA53
100
AcDbXrecord
280
     1
102
RTVSPropertyOp0
 70
     1
102
RTVSPropertyOp1
 70
     1
102
RTVSPropertyOp2
 70
     1
102
RTVSPropertyOp3
 70
     1
102
RTVSPropertyOp4
 70
     1
102
RTVSPropertyOp5
 70
     1
102
RTVSPropertyOp6
 70
     1
102
RTVSPropertyOp7
 70
     1
102
RTVSPropertyOp8
 70
     1
102
RTVSPropertyOp9
 70
     1
102
RTVSPropertyOp10
 70
     1
102
RTVSPropertyOp11
 70
     1
102
RTVSPropertyOp12
 70
     1
102
RTVSPropertyOp13
 70
     1
102
RTVSPropertyOp14
 70
     1
102
RTVSPropertyOp15
 70
     1
102
RTVSPropertyOp16
 70
     1
102
RTVSPropertyOp17
 70
     1
102
RTVSPropertyOp18
 70
     1
102
RTVSPropertyOp19
 70
     1
102
RTVSPropertyOp20
 70
     1
102
RTVSPropertyOp21
 70
     1
102
RTVSPropertyOp22
 70
     1
102
RTVSPropertyOp23
 70
     1
102
RTVSPropertyOp24
 70
     1
102
RTVSPropertyOp25
 70
     1
102
RTVSPropertyOp26
 70
     1
102
RTVSPropertyOp27
 70
     1
102
RTVSPropertyOp28
 70
     1
102
RTVSPropertyOp29
 70
     1
102
RTVSPropertyOp30
 70
     1
102
RTVSPropertyOp31
 70
     1
102
RTVSPropertyOp32
 70
     1
  0
XRECORD
  5
1BA38
102
{ACAD_REACTORS
330
1BA37
102
}
330
1BA37
100
AcDbXrecord
280
     1
102
RTVSPropertyOp0
 70
     1
102
RTVSPropertyOp1
 70
     1
102
RTVSPropertyOp2
 70
     1
102
RTVSPropertyOp3
 70
     1
102
RTVSPropertyOp4
 70
     1
102
RTVSPropertyOp5
 70
     1
102
RTVSPropertyOp6
 70
     1
102
RTVSPropertyOp7
 70
     1
102
RTVSPropertyOp8
 70
     1
102
RTVSPropertyOp9
 70
     1
102
RTVSPropertyOp10
 70
     1
102
RTVSPropertyOp11
 70
     1
102
RTVSPropertyOp12
 70
     1
102
RTVSPropertyOp13
 70
     1
102
RTVSPropertyOp14
 70
     1
102
RTVSPropertyOp15
 70
     1
102
RTVSPropertyOp16
 70
     1
102
RTVSPropertyOp17
 70
     1
102
RTVSPropertyOp18
 70
     1
102
RTVSPropertyOp19
 70
     1
102
RTVSPropertyOp20
 70
     1
102
RTVSPropertyOp21
 70
     1
102
RTVSPropertyOp22
 70
     1
102
RTVSPropertyOp23
 70
     1
102
RTVSPropertyOp24
 70
     1
102
RTVSPropertyOp25
 70
     1
102
RTVSPropertyOp26
 70
     1
102
RTVSPropertyOp27
 70
     1
102
RTVSPropertyOp28
 70
     1
102
RTVSPropertyOp29
 70
     1
102
RTVSPropertyOp30
 70
     1
102
RTVSPropertyOp31
 70
     1
102
RTVSPropertyOp32
 70
     1
  0
XRECORD
  5
1BA3A
102
{ACAD_REACTORS
330
1BA39
102
}
330
1BA39
100
AcDbXrecord
280
     1
102
RTVSPropertyOp0
 70
     1
102
RTVSPropertyOp1
 70
     1
102
RTVSPropertyOp2
 70
     1
102
RTVSPropertyOp3
 70
     1
102
RTVSPropertyOp4
 70
     1
102
RTVSPropertyOp5
 70
     1
102
RTVSPropertyOp6
 70
     1
102
RTVSPropertyOp7
 70
     1
102
RTVSPropertyOp8
 70
     1
102
RTVSPropertyOp9
 70
     1
102
RTVSPropertyOp10
 70
     1
102
RTVSPropertyOp11
 70
     1
102
RTVSPropertyOp12
 70
     1
102
RTVSPropertyOp13
 70
     1
102
RTVSPropertyOp14
 70
     1
102
RTVSPropertyOp15
 70
     1
102
RTVSPropertyOp16
 70
     1
102
RTVSPropertyOp17
 70
     1
102
RTVSPropertyOp18
 70
     1
102
RTVSPropertyOp19
 70
     1
102
RTVSPropertyOp20
 70
     1
102
RTVSPropertyOp21
 70
     1
102
RTVSPropertyOp22
 70
     1
102
RTVSPropertyOp23
 70
     1
102
RTVSPropertyOp24
 70
     1
102
RTVSPropertyOp25
 70
     1
102
RTVSPropertyOp26
 70
     1
102
RTVSPropertyOp27
 70
     1
102
RTVSPropertyOp28
 70
     1
102
RTVSPropertyOp29
 70
     1
102
RTVSPropertyOp30
 70
     1
102
RTVSPropertyOp31
 70
     1
102
RTVSPropertyOp32
 70
     1
  0
XRECORD
  5
1BA3C
102
{ACAD_REACTORS
330
1BA3B
102
}
330
1BA3B
100
AcDbXrecord
280
     1
102
RTVSPropertyOp0
 70
     1
102
RTVSPropertyOp1
 70
     1
102
RTVSPropertyOp2
 70
     1
102
RTVSPropertyOp3
 70
     1
102
RTVSPropertyOp4
 70
     1
102
RTVSPropertyOp5
 70
     1
102
RTVSPropertyOp6
 70
     1
102
RTVSPropertyOp7
 70
     1
102
RTVSPropertyOp8
 70
     1
102
RTVSPropertyOp9
 70
     1
102
RTVSPropertyOp10
 70
     1
102
RTVSPropertyOp11
 70
     1
102
RTVSPropertyOp12
 70
     1
102
RTVSPropertyOp13
 70
     1
102
RTVSPropertyOp14
 70
     1
102
RTVSPropertyOp15
 70
     1
102
RTVSPropertyOp16
 70
     1
102
RTVSPropertyOp17
 70
     1
102
RTVSPropertyOp18
 70
     1
102
RTVSPropertyOp19
 70
     1
102
RTVSPropertyOp20
 70
     1
102
RTVSPropertyOp21
 70
     1
102
RTVSPropertyOp22
 70
     1
102
RTVSPropertyOp23
 70
     1
102
RTVSPropertyOp24
 70
     1
102
RTVSPropertyOp25
 70
     1
102
RTVSPropertyOp26
 70
     1
102
RTVSPropertyOp27
 70
     1
102
RTVSPropertyOp28
 70
     1
102
RTVSPropertyOp29
 70
     1
102
RTVSPropertyOp30
 70
     1
102
RTVSPropertyOp31
 70
     1
102
RTVSPropertyOp32
 70
     1
  0
XRECORD
  5
1BA3E
102
{ACAD_REACTORS
330
1BA3D
102
}
330
1BA3D
100
AcDbXrecord
280
     1
102
RTVSPropertyOp0
 70
     1
102
RTVSPropertyOp1
 70
     1
102
RTVSPropertyOp2
 70
     1
102
RTVSPropertyOp3
 70
     1
102
RTVSPropertyOp4
 70
     1
102
RTVSPropertyOp5
 70
     1
102
RTVSPropertyOp6
 70
     1
102
RTVSPropertyOp7
 70
     1
102
RTVSPropertyOp8
 70
     1
102
RTVSPropertyOp9
 70
     1
102
RTVSPropertyOp10
 70
     1
102
RTVSPropertyOp11
 70
     1
102
RTVSPropertyOp12
 70
     1
102
RTVSPropertyOp13
 70
     1
102
RTVSPropertyOp14
 70
     1
102
RTVSPropertyOp15
 70
     1
102
RTVSPropertyOp16
 70
     1
102
RTVSPropertyOp17
 70
     1
102
RTVSPropertyOp18
 70
     1
102
RTVSPropertyOp19
 70
     1
102
RTVSPropertyOp20
 70
     1
102
RTVSPropertyOp21
 70
     1
102
RTVSPropertyOp22
 70
     1
102
RTVSPropertyOp23
 70
     1
102
RTVSPropertyOp24
 70
     1
102
RTVSPropertyOp25
 70
     1
102
RTVSPropertyOp26
 70
     1
102
RTVSPropertyOp27
 70
     1
102
RTVSPropertyOp28
 70
     1
102
RTVSPropertyOp29
 70
     1
102
RTVSPropertyOp30
 70
     1
102
RTVSPropertyOp31
 70
     1
102
RTVSPropertyOp32
 70
     1
  0
XRECORD
  5
1BA5A
102
{ACAD_REACTORS
330
1BA59
102
}
330
1BA59
100
AcDbXrecord
280
     1
102
RTVSPropertyOp0
 70
     1
102
RTVSPropertyOp1
 70
     1
102
RTVSPropertyOp2
 70
     1
102
RTVSPropertyOp3
 70
     1
102
RTVSPropertyOp4
 70
     1
102
RTVSPropertyOp5
 70
     1
102
RTVSPropertyOp6
 70
     1
102
RTVSPropertyOp7
 70
     1
102
RTVSPropertyOp8
 70
     1
102
RTVSPropertyOp9
 70
     1
102
RTVSPropertyOp10
 70
     1
102
RTVSPropertyOp11
 70
     1
102
RTVSPropertyOp12
 70
     1
102
RTVSPropertyOp13
 70
     1
102
RTVSPropertyOp14
 70
     1
102
RTVSPropertyOp15
 70
     1
102
RTVSPropertyOp16
 70
     1
102
RTVSPropertyOp17
 70
     1
102
RTVSPropertyOp18
 70
     1
102
RTVSPropertyOp19
 70
     1
102
RTVSPropertyOp20
 70
     1
102
RTVSPropertyOp21
 70
     1
102
RTVSPropertyOp22
 70
     1
102
RTVSPropertyOp23
 70
     1
102
RTVSPropertyOp24
 70
     1
102
RTVSPropertyOp25
 70
     1
102
RTVSPropertyOp26
 70
     1
102
RTVSPropertyOp27
 70
     1
102
RTVSPropertyOp28
 70
     1
102
RTVSPropertyOp29
 70
     1
102
RTVSPropertyOp30
 70
     1
102
RTVSPropertyOp31
 70
     1
102
RTVSPropertyOp32
 70
     1
  0
XRECORD
  5
1BA66
102
{ACAD_REACTORS
330
1BA65
102
}
330
1BA65
100
AcDbXrecord
280
     1
102
RTVSPropertyOp0
 70
     0
102
RTVSPropertyOp1
 70
     0
102
RTVSPropertyOp2
 70
     0
102
RTVSPropertyOp3
 70
     0
102
RTVSPropertyOp4
 70
     0
102
RTVSPropertyOp5
 70
     0
102
RTVSPropertyOp6
 70
     0
102
RTVSPropertyOp7
 70
     0
102
RTVSPropertyOp8
 70
     0
102
RTVSPropertyOp9
 70
     0
102
RTVSPropertyOp10
 70
     0
102
RTVSPropertyOp11
 70
     0
102
RTVSPropertyOp12
 70
     0
102
RTVSPropertyOp13
 70
     0
102
RTVSPropertyOp14
 70
     2
102
RTVSPropertyOp15
 70
     0
102
RTVSPropertyOp16
 70
     0
102
RTVSPropertyOp17
 70
     0
102
RTVSPropertyOp18
 70
     0
102
RTVSPropertyOp19
 70
     0
102
RTVSPropertyOp20
 70
     0
102
RTVSPropertyOp21
 70
     0
102
RTVSPropertyOp22
 70
     0
102
RTVSPropertyOp23
 70
     0
102
RTVSPropertyOp24
 70
     0
102
RTVSPropertyOp25
 70
     0
102
RTVSPropertyOp26
 70
     0
102
RTVSPropertyOp27
 70
     0
102
RTVSPropertyOp28
 70
     0
102
RTVSPropertyOp29
 70
     0
102
RTVSPropertyOp30
 70
     0
102
RTVSPropertyOp31
 70
     0
102
RTVSPropertyOp32
 70
     0
  0
XRECORD
  5
1BA52
102
{ACAD_REACTORS
330
1BA51
102
}
330
1BA51
100
AcDbXrecord
280
     1
102
RTVSPropertyOp0
 70
     1
102
RTVSPropertyOp1
 70
     1
102
RTVSPropertyOp2
 70
     1
102
RTVSPropertyOp3
 70
     1
102
RTVSPropertyOp4
 70
     1
102
RTVSPropertyOp5
 70
     1
102
RTVSPropertyOp6
 70
     1
102
RTVSPropertyOp7
 70
     1
102
RTVSPropertyOp8
 70
     1
102
RTVSPropertyOp9
 70
     1
102
RTVSPropertyOp10
 70
     1
102
RTVSPropertyOp11
 70
     1
102
RTVSPropertyOp12
 70
     1
102
RTVSPropertyOp13
 70
     1
102
RTVSPropertyOp14
 70
     1
102
RTVSPropertyOp15
 70
     1
102
RTVSPropertyOp16
 70
     1
102
RTVSPropertyOp17
 70
     1
102
RTVSPropertyOp18
 70
     1
102
RTVSPropertyOp19
 70
     1
102
RTVSPropertyOp20
 70
     1
102
RTVSPropertyOp21
 70
     1
102
RTVSPropertyOp22
 70
     1
102
RTVSPropertyOp23
 70
     1
102
RTVSPropertyOp24
 70
     1
102
RTVSPropertyOp25
 70
     1
102
RTVSPropertyOp26
 70
     1
102
RTVSPropertyOp27
 70
     1
102
RTVSPropertyOp28
 70
     1
102
RTVSPropertyOp29
 70
     1
102
RTVSPropertyOp30
 70
     1
102
RTVSPropertyOp31
 70
     1
102
RTVSPropertyOp32
 70
     1
  0
XRECORD
  5
1BA68
102
{ACAD_REACTORS
330
1BA67
102
}
330
1BA67
100
AcDbXrecord
280
     1
102
RTVSPropertyOp0
 70
     0
102
RTVSPropertyOp1
 70
     0
102
RTVSPropertyOp2
 70
     0
102
RTVSPropertyOp3
 70
     0
102
RTVSPropertyOp4
 70
     0
102
RTVSPropertyOp5
 70
     0
102
RTVSPropertyOp6
 70
     0
102
RTVSPropertyOp7
 70
     0
102
RTVSPropertyOp8
 70
     0
102
RTVSPropertyOp9
 70
     0
102
RTVSPropertyOp10
 70
     0
102
RTVSPropertyOp11
 70
     0
102
RTVSPropertyOp12
 70
     0
102
RTVSPropertyOp13
 70
     0
102
RTVSPropertyOp14
 70
     2
102
RTVSPropertyOp15
 70
     0
102
RTVSPropertyOp16
 70
     0
102
RTVSPropertyOp17
 70
     0
102
RTVSPropertyOp18
 70
     0
102
RTVSPropertyOp19
 70
     0
102
RTVSPropertyOp20
 70
     0
102
RTVSPropertyOp21
 70
     0
102
RTVSPropertyOp22
 70
     0
102
RTVSPropertyOp23
 70
     0
102
RTVSPropertyOp24
 70
     0
102
RTVSPropertyOp25
 70
     0
102
RTVSPropertyOp26
 70
     0
102
RTVSPropertyOp27
 70
     0
102
RTVSPropertyOp28
 70
     0
102
RTVSPropertyOp29
 70
     0
102
RTVSPropertyOp30
 70
     0
102
RTVSPropertyOp31
 70
     0
102
RTVSPropertyOp32
 70
     0
  0
XRECORD
  5
1BA4A
102
{ACAD_REACTORS
330
1BA49
102
}
330
1BA49
100
AcDbXrecord
280
     1
102
RTVSPropertyOp0
 70
     1
102
RTVSPropertyOp1
 70
     1
102
RTVSPropertyOp2
 70
     1
102
RTVSPropertyOp3
 70
     1
102
RTVSPropertyOp4
 70
     1
102
RTVSPropertyOp5
 70
     1
102
RTVSPropertyOp6
 70
     1
102
RTVSPropertyOp7
 70
     1
102
RTVSPropertyOp8
 70
     1
102
RTVSPropertyOp9
 70
     1
102
RTVSPropertyOp10
 70
     1
102
RTVSPropertyOp11
 70
     1
102
RTVSPropertyOp12
 70
     1
102
RTVSPropertyOp13
 70
     1
102
RTVSPropertyOp14
 70
     1
102
RTVSPropertyOp15
 70
     1
102
RTVSPropertyOp16
 70
     1
102
RTVSPropertyOp17
 70
     1
102
RTVSPropertyOp18
 70
     1
102
RTVSPropertyOp19
 70
     1
102
RTVSPropertyOp20
 70
     1
102
RTVSPropertyOp21
 70
     1
102
RTVSPropertyOp22
 70
     1
102
RTVSPropertyOp23
 70
     1
102
RTVSPropertyOp24
 70
     1
102
RTVSPropertyOp25
 70
     1
102
RTVSPropertyOp26
 70
     1
102
RTVSPropertyOp27
 70
     1
102
RTVSPropertyOp28
 70
     1
102
RTVSPropertyOp29
 70
     1
102
RTVSPropertyOp30
 70
     1
102
RTVSPropertyOp31
 70
     1
102
RTVSPropertyOp32
 70
     1
  0
XRECORD
  5
1BA64
102
{ACAD_REACTORS
330
1BA63
102
}
330
1BA63
100
AcDbXrecord
280
     1
102
RTVSPropertyOp0
 70
     1
102
RTVSPropertyOp1
 70
     1
102
RTVSPropertyOp2
 70
     1
102
RTVSPropertyOp3
 70
     1
102
RTVSPropertyOp4
 70
     1
102
RTVSPropertyOp5
 70
     1
102
RTVSPropertyOp6
 70
     1
102
RTVSPropertyOp7
 70
     1
102
RTVSPropertyOp8
 70
     1
102
RTVSPropertyOp9
 70
     1
102
RTVSPropertyOp10
 70
     1
102
RTVSPropertyOp11
 70
     1
102
RTVSPropertyOp12
 70
     1
102
RTVSPropertyOp13
 70
     1
102
RTVSPropertyOp14
 70
     1
102
RTVSPropertyOp15
 70
     1
102
RTVSPropertyOp16
 70
     1
102
RTVSPropertyOp17
 70
     1
102
RTVSPropertyOp18
 70
     1
102
RTVSPropertyOp19
 70
     1
102
RTVSPropertyOp20
 70
     1
102
RTVSPropertyOp21
 70
     1
102
RTVSPropertyOp22
 70
     1
102
RTVSPropertyOp23
 70
     1
102
RTVSPropertyOp24
 70
     1
102
RTVSPropertyOp25
 70
     1
102
RTVSPropertyOp26
 70
     1
102
RTVSPropertyOp27
 70
     1
102
RTVSPropertyOp28
 70
     1
102
RTVSPropertyOp29
 70
     1
102
RTVSPropertyOp30
 70
     1
102
RTVSPropertyOp31
 70
     1
102
RTVSPropertyOp32
 70
     1
  0
XRECORD
  5
1BA62
102
{ACAD_REACTORS
330
1BA61
102
}
330
1BA61
100
AcDbXrecord
280
     1
102
RTVSPropertyOp0
 70
     1
102
RTVSPropertyOp1
 70
     1
102
RTVSPropertyOp2
 70
     1
102
RTVSPropertyOp3
 70
     1
102
RTVSPropertyOp4
 70
     1
102
RTVSPropertyOp5
 70
     1
102
RTVSPropertyOp6
 70
     1
102
RTVSPropertyOp7
 70
     1
102
RTVSPropertyOp8
 70
     1
102
RTVSPropertyOp9
 70
     1
102
RTVSPropertyOp10
 70
     1
102
RTVSPropertyOp11
 70
     1
102
RTVSPropertyOp12
 70
     1
102
RTVSPropertyOp13
 70
     1
102
RTVSPropertyOp14
 70
     1
102
RTVSPropertyOp15
 70
     1
102
RTVSPropertyOp16
 70
     1
102
RTVSPropertyOp17
 70
     1
102
RTVSPropertyOp18
 70
     1
102
RTVSPropertyOp19
 70
     1
102
RTVSPropertyOp20
 70
     1
102
RTVSPropertyOp21
 70
     1
102
RTVSPropertyOp22
 70
     1
102
RTVSPropertyOp23
 70
     1
102
RTVSPropertyOp24
 70
     1
102
RTVSPropertyOp25
 70
     1
102
RTVSPropertyOp26
 70
     1
102
RTVSPropertyOp27
 70
     1
102
RTVSPropertyOp28
 70
     1
102
RTVSPropertyOp29
 70
     1
102
RTVSPropertyOp30
 70
     1
102
RTVSPropertyOp31
 70
     1
102
RTVSPropertyOp32
 70
     1
  0
XRECORD
  5
1BA5C
102
{ACAD_REACTORS
330
1BA5B
102
}
330
1BA5B
100
AcDbXrecord
280
     1
102
RTVSPropertyOp0
 70
     1
102
RTVSPropertyOp1
 70
     1
102
RTVSPropertyOp2
 70
     1
102
RTVSPropertyOp3
 70
     1
102
RTVSPropertyOp4
 70
     1
102
RTVSPropertyOp5
 70
     1
102
RTVSPropertyOp6
 70
     1
102
RTVSPropertyOp7
 70
     1
102
RTVSPropertyOp8
 70
     1
102
RTVSPropertyOp9
 70
     1
102
RTVSPropertyOp10
 70
     1
102
RTVSPropertyOp11
 70
     1
102
RTVSPropertyOp12
 70
     1
102
RTVSPropertyOp13
 70
     1
102
RTVSPropertyOp14
 70
     1
102
RTVSPropertyOp15
 70
     1
102
RTVSPropertyOp16
 70
     1
102
RTVSPropertyOp17
 70
     1
102
RTVSPropertyOp18
 70
     1
102
RTVSPropertyOp19
 70
     1
102
RTVSPropertyOp20
 70
     1
102
RTVSPropertyOp21
 70
     1
102
RTVSPropertyOp22
 70
     1
102
RTVSPropertyOp23
 70
     1
102
RTVSPropertyOp24
 70
     1
102
RTVSPropertyOp25
 70
     1
102
RTVSPropertyOp26
 70
     1
102
RTVSPropertyOp27
 70
     1
102
RTVSPropertyOp28
 70
     1
102
RTVSPropertyOp29
 70
     1
102
RTVSPropertyOp30
 70
     1
102
RTVSPropertyOp31
 70
     1
102
RTVSPropertyOp32
 70
     1
  0
XRECORD
  5
1BA5E
102
{ACAD_REACTORS
330
1BA5D
102
}
330
1BA5D
100
AcDbXrecord
280
     1
102
RTVSPropertyOp0
 70
     1
102
RTVSPropertyOp1
 70
     1
102
RTVSPropertyOp2
 70
     1
102
RTVSPropertyOp3
 70
     1
102
RTVSPropertyOp4
 70
     1
102
RTVSPropertyOp5
 70
     1
102
RTVSPropertyOp6
 70
     1
102
RTVSPropertyOp7
 70
     1
102
RTVSPropertyOp8
 70
     1
102
RTVSPropertyOp9
 70
     1
102
RTVSPropertyOp10
 70
     1
102
RTVSPropertyOp11
 70
     1
102
RTVSPropertyOp12
 70
     1
102
RTVSPropertyOp13
 70
     1
102
RTVSPropertyOp14
 70
     1
102
RTVSPropertyOp15
 70
     1
102
RTVSPropertyOp16
 70
     1
102
RTVSPropertyOp17
 70
     1
102
RTVSPropertyOp18
 70
     1
102
RTVSPropertyOp19
 70
     1
102
RTVSPropertyOp20
 70
     1
102
RTVSPropertyOp21
 70
     1
102
RTVSPropertyOp22
 70
     1
102
RTVSPropertyOp23
 70
     1
102
RTVSPropertyOp24
 70
     1
102
RTVSPropertyOp25
 70
     1
102
RTVSPropertyOp26
 70
     1
102
RTVSPropertyOp27
 70
     1
102
RTVSPropertyOp28
 70
     1
102
RTVSPropertyOp29
 70
     1
102
RTVSPropertyOp30
 70
     1
102
RTVSPropertyOp31
 70
     1
102
RTVSPropertyOp32
 70
     1
  0
XRECORD
  5
1BA50
102
{ACAD_REACTORS
330
1BA4F
102
}
330
1BA4F
100
AcDbXrecord
280
     1
102
RTVSPropertyOp0
 70
     1
102
RTVSPropertyOp1
 70
     1
102
RTVSPropertyOp2
 70
     1
102
RTVSPropertyOp3
 70
     1
102
RTVSPropertyOp4
 70
     1
102
RTVSPropertyOp5
 70
     1
102
RTVSPropertyOp6
 70
     1
102
RTVSPropertyOp7
 70
     1
102
RTVSPropertyOp8
 70
     1
102
RTVSPropertyOp9
 70
     1
102
RTVSPropertyOp10
 70
     1
102
RTVSPropertyOp11
 70
     1
102
RTVSPropertyOp12
 70
     1
102
RTVSPropertyOp13
 70
     1
102
RTVSPropertyOp14
 70
     1
102
RTVSPropertyOp15
 70
     1
102
RTVSPropertyOp16
 70
     1
102
RTVSPropertyOp17
 70
     1
102
RTVSPropertyOp18
 70
     1
102
RTVSPropertyOp19
 70
     1
102
RTVSPropertyOp20
 70
     1
102
RTVSPropertyOp21
 70
     1
102
RTVSPropertyOp22
 70
     1
102
RTVSPropertyOp23
 70
     1
102
RTVSPropertyOp24
 70
     1
102
RTVSPropertyOp25
 70
     1
102
RTVSPropertyOp26
 70
     1
102
RTVSPropertyOp27
 70
     1
102
RTVSPropertyOp28
 70
     1
102
RTVSPropertyOp29
 70
     1
102
RTVSPropertyOp30
 70
     1
102
RTVSPropertyOp31
 70
     1
102
RTVSPropertyOp32
 70
     1
  0
XRECORD
  5
1BA58
102
{ACAD_REACTORS
330
1BA57
102
}
330
1BA57
100
AcDbXrecord
280
     1
102
RTVSPropertyOp0
 70
     1
102
RTVSPropertyOp1
 70
     1
102
RTVSPropertyOp2
 70
     1
102
RTVSPropertyOp3
 70
     1
102
RTVSPropertyOp4
 70
     1
102
RTVSPropertyOp5
 70
     1
102
RTVSPropertyOp6
 70
     1
102
RTVSPropertyOp7
 70
     1
102
RTVSPropertyOp8
 70
     1
102
RTVSPropertyOp9
 70
     1
102
RTVSPropertyOp10
 70
     1
102
RTVSPropertyOp11
 70
     1
102
RTVSPropertyOp12
 70
     1
102
RTVSPropertyOp13
 70
     1
102
RTVSPropertyOp14
 70
     1
102
RTVSPropertyOp15
 70
     1
102
RTVSPropertyOp16
 70
     1
102
RTVSPropertyOp17
 70
     1
102
RTVSPropertyOp18
 70
     1
102
RTVSPropertyOp19
 70
     1
102
RTVSPropertyOp20
 70
     1
102
RTVSPropertyOp21
 70
     1
102
RTVSPropertyOp22
 70
     1
102
RTVSPropertyOp23
 70
     1
102
RTVSPropertyOp24
 70
     1
102
RTVSPropertyOp25
 70
     1
102
RTVSPropertyOp26
 70
     1
102
RTVSPropertyOp27
 70
     1
102
RTVSPropertyOp28
 70
     1
102
RTVSPropertyOp29
 70
     1
102
RTVSPropertyOp30
 70
     1
102
RTVSPropertyOp31
 70
     1
102
RTVSPropertyOp32
 70
     1
  0
XRECORD
  5
1BA60
102
{ACAD_REACTORS
330
1BA5F
102
}
330
1BA5F
100
AcDbXrecord
280
     1
102
RTVSPropertyOp0
 70
     1
102
RTVSPropertyOp1
 70
     1
102
RTVSPropertyOp2
 70
     1
102
RTVSPropertyOp3
 70
     1
102
RTVSPropertyOp4
 70
     1
102
RTVSPropertyOp5
 70
     1
102
RTVSPropertyOp6
 70
     1
102
RTVSPropertyOp7
 70
     1
102
RTVSPropertyOp8
 70
     1
102
RTVSPropertyOp9
 70
     1
102
RTVSPropertyOp10
 70
     1
102
RTVSPropertyOp11
 70
     1
102
RTVSPropertyOp12
 70
     1
102
RTVSPropertyOp13
 70
     1
102
RTVSPropertyOp14
 70
     1
102
RTVSPropertyOp15
 70
     1
102
RTVSPropertyOp16
 70
     1
102
RTVSPropertyOp17
 70
     1
102
RTVSPropertyOp18
 70
     1
102
RTVSPropertyOp19
 70
     1
102
RTVSPropertyOp20
 70
     1
102
RTVSPropertyOp21
 70
     1
102
RTVSPropertyOp22
 70
     1
102
RTVSPropertyOp23
 70
     1
102
RTVSPropertyOp24
 70
     1
102
RTVSPropertyOp25
 70
     1
102
RTVSPropertyOp26
 70
     1
102
RTVSPropertyOp27
 70
     1
102
RTVSPropertyOp28
 70
     1
102
RTVSPropertyOp29
 70
     1
102
RTVSPropertyOp30
 70
     1
102
RTVSPropertyOp31
 70
     1
102
RTVSPropertyOp32
 70
     1
  0
ENDSEC
  0
EOF
