  0
SECTION
  2
HEADER
  9
$ACADVER
  1
AC1015
  9
$ACADMAINTVER
 70
    20
  9
$DWGCODEPAGE
  3
ANSI_1252
  9
$INSBASE
 10
0.0
 20
0.0
 30
0.0
  9
$EXTMIN
 10
-40007.96193766539
 20
45244.4516933285
 30
-0.0000000349181948
  9
$EXTMAX
 10
-39479.10974233151
 20
46255.1770509177
 30
0.0000000814935746
  9
$LIMMIN
 10
0.0
 20
0.0
  9
$LIMMAX
 10
420.0
 20
297.0
  9
$ORTHOMODE
 70
     0
  9
$REGENMODE
 70
     1
  9
$FILLMODE
 70
     1
  9
$QTEXTMODE
 70
     0
  9
$MIRRTEXT
 70
     0
  9
$LTSCALE
 40
1.0
  9
$ATTMODE
 70
     1
  9
$TEXTSIZE
 40
2.5
  9
$TRACEWID
 40
1.0
  9
$TEXTSTYLE
  7
STANDARD
  9
$CLAYER
  8
AM_0
  9
$CELTYPE
  6
ByLayer
  9
$CECOLOR
 62
   256
  9
$CELTSCALE
 40
1.0
  9
$DISPSILH
 70
     0
  9
$DIMSCALE
 40
1.0
  9
$DIMASZ
 40
3.5
  9
$DIMEXO
 40
1.0
  9
$DIMDLI
 40
10.0
  9
$DIMRND
 40
0.0
  9
$DIMDLE
 40
0.0
  9
$DIMEXE
 40
1.0
  9
$DIMTP
 40
0.1
  9
$DIMTM
 40
0.1
  9
$DIMTXT
 40
3.5
  9
$DIMCEN
 40
0.0
  9
$DIMTSZ
 40
0.0
  9
$DIMTOL
 70
     0
  9
$DIMLIM
 70
     0
  9
$DIMTIH
 70
     0
  9
$DIMTOH
 70
     0
  9
$DIMSE1
 70
     0
  9
$DIMSE2
 70
     0
  9
$DIMTAD
 70
     1
  9
$DIMZIN
 70
     8
  9
$DIMBLK
  1

  9
$DIMASO
 70
     1
  9
$DIMSHO
 70
     1
  9
$DIMPOST
  1

  9
$DIMAPOST
  1
"
  9
$DIMALT
 70
     0
  9
$DIMALTD
 70
     2
  9
$DIMALTF
 40
0.0393701
  9
$DIMLFAC
 40
1.0
  9
$DIMTOFL
 70
     1
  9
$DIMTVP
 40
0.0
  9
$DIMTIX
 70
     0
  9
$DIMSOXD
 70
     0
  9
$DIMSAH
 70
     0
  9
$DIMBLK1
  1

  9
$DIMBLK2
  1

  9
$DIMSTYLE
  2
AM_ISO
  9
$DIMCLRD
 70
   256
  9
$DIMCLRE
 70
   256
  9
$DIMCLRT
 70
   140
  9
$DIMTFAC
 40
0.71
  9
$DIMGAP
 40
1.5
  9
$DIMJUST
 70
     0
  9
$DIMSD1
 70
     0
  9
$DIMSD2
 70
     0
  9
$DIMTOLJ
 70
     0
  9
$DIMTZIN
 70
     8
  9
$DIMALTZ
 70
     0
  9
$DIMALTTZ
 70
     0
  9
$DIMUPT
 70
     0
  9
$DIMDEC
 70
     2
  9
$DIMTDEC
 70
     3
  9
$DIMALTU
 70
     2
  9
$DIMALTTD
 70
     4
  9
$DIMTXSTY
  7
STANDARD
  9
$DIMAUNIT
 70
     0
  9
$DIMADEC
 70
     0
  9
$DIMALTRND
 40
0.0
  9
$DIMAZIN
 70
     2
  9
$DIMDSEP
 70
    46
  9
$DIMATFIT
 70
     3
  9
$DIMFRAC
 70
     0
  9
$DIMLDRBLK
  1

  9
$DIMLUNIT
 70
     2
  9
$DIMLWD
 70
    -1
  9
$DIMLWE
 70
    -1
  9
$DIMTMOVE
 70
     0
  9
$LUNITS
 70
     2
  9
$LUPREC
 70
     2
  9
$SKETCHINC
 40
1.0
  9
$FILLETRAD
 40
0.0
  9
$AUNITS
 70
     0
  9
$AUPREC
 70
     0
  9
$MENU
  1
.
  9
$ELEVATION
 40
0.0
  9
$PELEVATION
 40
0.0
  9
$THICKNESS
 40
0.0
  9
$LIMCHECK
 70
     0
  9
$CHAMFERA
 40
2.5
  9
$CHAMFERB
 40
2.5
  9
$CHAMFERC
 40
20.0
  9
$CHAMFERD
 40
0.0
  9
$SKPOLY
 70
     0
  9
$TDCREATE
 40
2455009.590126262
  9
$TDUCREATE
 40
2455009.548459595
  9
$TDUPDATE
 40
2455239.634354561
  9
$TDUUPDATE
 40
2455239.592687894
  9
$TDINDWG
 40
3.0878985185
  9
$TDUSRTIMER
 40
3.0878981597
  9
$USRTIMER
 70
     1
  9
$ANGBASE
 50
0.0
  9
$ANGDIR
 70
     0
  9
$PDMODE
 70
     0
  9
$PDSIZE
 40
0.0
  9
$PLINEWID
 40
0.0
  9
$SPLFRAME
 70
     0
  9
$SPLINETYPE
 70
     6
  9
$SPLINESEGS
 70
     8
  9
$HANDSEED
  5
16BA89
  9
$SURFTAB1
 70
     6
  9
$SURFTAB2
 70
     6
  9
$SURFTYPE
 70
     6
  9
$SURFU
 70
     6
  9
$SURFV
 70
     6
  9
$UCSBASE
  2

  9
$UCSNAME
  2

  9
$UCSORG
 10
0.0
 20
0.0
 30
0.0
  9
$UCSXDIR
 10
1.0
 20
0.0
 30
0.0
  9
$UCSYDIR
 10
0.0
 20
1.0
 30
0.0
  9
$UCSORTHOREF
  2

  9
$UCSORTHOVIEW
 70
     0
  9
$UCSORGTOP
 10
0.0
 20
0.0
 30
0.0
  9
$UCSORGBOTTOM
 10
0.0
 20
0.0
 30
0.0
  9
$UCSORGLEFT
 10
0.0
 20
0.0
 30
0.0
  9
$UCSORGRIGHT
 10
0.0
 20
0.0
 30
0.0
  9
$UCSORGFRONT
 10
0.0
 20
0.0
 30
0.0
  9
$UCSORGBACK
 10
0.0
 20
0.0
 30
0.0
  9
$PUCSBASE
  2

  9
$PUCSNAME
  2

  9
$PUCSORG
 10
0.0
 20
0.0
 30
0.0
  9
$PUCSXDIR
 10
1.0
 20
0.0
 30
0.0
  9
$PUCSYDIR
 10
0.0
 20
1.0
 30
0.0
  9
$PUCSORTHOREF
  2

  9
$PUCSORTHOVIEW
 70
     0
  9
$PUCSORGTOP
 10
0.0
 20
0.0
 30
0.0
  9
$PUCSORGBOTTOM
 10
0.0
 20
0.0
 30
0.0
  9
$PUCSORGLEFT
 10
0.0
 20
0.0
 30
0.0
  9
$PUCSORGRIGHT
 10
0.0
 20
0.0
 30
0.0
  9
$PUCSORGFRONT
 10
0.0
 20
0.0
 30
0.0
  9
$PUCSORGBACK
 10
0.0
 20
0.0
 30
0.0
  9
$USERI1
 70
     0
  9
$USERI2
 70
     0
  9
$USERI3
 70
     0
  9
$USERI4
 70
     0
  9
$USERI5
 70
     0
  9
$USERR1
 40
0.0
  9
$USERR2
 40
0.0
  9
$USERR3
 40
0.0
  9
$USERR4
 40
0.0
  9
$USERR5
 40
0.0
  9
$WORLDVIEW
 70
     1
  9
$SHADEDGE
 70
     3
  9
$SHADEDIF
 70
    70
  9
$TILEMODE
 70
     1
  9
$MAXACTVP
 70
    64
  9
$PINSBASE
 10
0.0
 20
0.0
 30
0.0
  9
$PLIMCHECK
 70
     0
  9
$PEXTMIN
 10
1.000000000000000E+20
 20
1.000000000000000E+20
 30
1.000000000000000E+20
  9
$PEXTMAX
 10
-1.000000000000000E+20
 20
-1.000000000000000E+20
 30
-1.000000000000000E+20
  9
$PLIMMIN
 10
0.0
 20
0.0
  9
$PLIMMAX
 10
420.0
 20
297.0
  9
$UNITMODE
 70
     0
  9
$VISRETAIN
 70
     1
  9
$PLINEGEN
 70
     0
  9
$PSLTSCALE
 70
     1
  9
$TREEDEPTH
 70
  3020
  9
$CMLSTYLE
  2
Standard
  9
$CMLJUST
 70
     0
  9
$CMLSCALE
 40
20.0
  9
$PROXYGRAPHICS
 70
     1
  9
$MEASUREMENT
 70
     1
  9
$CELWEIGHT
370
    -1
  9
$ENDCAPS
280
     0
  9
$JOINSTYLE
280
     0
  9
$LWDISPLAY
290
     0
  9
$INSUNITS
 70
     4
  9
$HYPERLINKBASE
  1

  9
$STYLESHEET
  1
MONOCHROME 09+15.CTB
  9
$XEDIT
290
     1
  9
$CEPSNTYPE
380
     0
  9
$PSTYLEMODE
290
     1
  9
$FINGERPRINTGUID
  2
{5217D76C-F2AB-4E28-B321-82C552B74943}
  9
$VERSIONGUID
  2
{02D8E3E4-C6FC-47E6-AD7F-BF42889E83B5}
  9
$EXTNAMES
290
     1
  9
$PSVPSCALE
 40
0.0
  9
$OLESTARTUP
290
     0
  0
ENDSEC
  0
SECTION
  2
CLASSES
  0
CLASS
  1
ACDBDICTIONARYWDFLT
  2
AcDbDictionaryWithDefault
  3
ObjectDBX Classes
 90
        0
280
     0
281
     0
  0
CLASS
  1
ACDBPLACEHOLDER
  2
AcDbPlaceHolder
  3
ObjectDBX Classes
 90
        0
280
     0
281
     0
  0
CLASS
  1
LAYOUT
  2
AcDbLayout
  3
ObjectDBX Classes
 90
        0
280
     0
281
     0
  0
CLASS
  1
ACME_DOCUMENT
  2
AcMeDbDoc
  3
AcMeServices
 90
     1024
280
     0
281
     0
  0
CLASS
  1
AMGSETTINGSOBJ
  2
AmgSettingsObj
  3
"AcadM|Product Description: AutoCAD Mechanical|Company: Autodesk, Inc."
 90
     1024
280
     0
281
     0
  0
CLASS
  1
ACMESCOPE
  2
AcMeScope
  3
AcMeServices
 90
     1024
280
     0
281
     0
  0
CLASS
  1
ACMECOMMANDHISTORY
  2
AcMeCommandHistory
  3
AcMeServices
 90
     1024
280
     0
281
     0
  0
CLASS
  1
ACIMSYSVARMAN
  2
AcImSysVarManager
  3
AcMeServices
 90
     1024
280
     0
281
     0
  0
CLASS
  1
ACIMREALSYSVAR
  2
AcImRealSysVar
  3
AcMeServices
 90
     1024
280
     0
281
     0
  0
CLASS
  1
ACIMINTSYSVAR
  2
AcImIntSysVar
  3
AcMeServices
 90
     1024
280
     0
281
     0
  0
CLASS
  1
ACMEDRAWINGMAN
  2
AcMeDrawingMan
  3
AcMeServices
 90
     1024
280
     0
281
     0
  0
CLASS
  1
ACMEVIEW
  2
AcMeView
  3
AcMeServices
 90
     1024
280
     0
281
     0
  0
CLASS
  1
ACDBENTITYCACHE
  2
AcMeEntityCache
  3
AcMeServices
 90
     1024
280
     0
281
     0
  0
CLASS
  1
GSMANAGER
  2
AcMeGSManager
  3
AcMeServices
 90
    33792
280
     0
281
     0
  0
CLASS
  1
AMDTINTERNALREACTOR
  2
AmdtInternalReactor
  3
AcMeServices
 90
     1024
280
     0
281
     0
  0
CLASS
  1
ACMESTATEMGR
  2
AcMeStateMgr
  3
AcMeServices
 90
     1024
280
     0
281
     0
  0
CLASS
  1
ACGREFMASTER
  2
AcGrefMaster
  3
AcAttribServices
 90
     1024
280
     0
281
     0
  0
CLASS
  1
ACME_DATABASE
  2
AcMeDbDatabase
  3
AcMeServices
 90
     1024
280
     0
281
     0
  0
CLASS
  1
ACRFINSADJUSTERMGR
  2
AcRfInsAdjusterMgr
  3
AcMeServices
 90
     1024
280
     0
281
     0
  0
CLASS
  1
ACGREFACADMASTER
  2
AcGrefacadMaster
  3
AcGrefServices
 90
     1024
280
     0
281
     0
  0
CLASS
  1
AMIMASTER
  2
AmiMaster
  3
AmiServices
 90
     1024
280
     0
281
     0
  0
CLASS
  1
ACMDATADICTIONARY
  2
AcmDataDictionary
  3
"AcmSymBB|Product Description: AutoCAD Mechanical|Company: Autodesk, Inc."
 90
     1024
280
     0
281
     0
  0
CLASS
  1
ACMDATAENTRYBLOCK
  2
AcmDataEntryBlock
  3
AcmSymBB|Product Description: AutoCAD Mechanical|Company: Autodesk, Inc.
 90
    33792
280
     0
281
     0
  0
CLASS
  1
ACIMSTRSYSVAR
  2
AcImStrSysVar
  3
AcMeServices
 90
     1024
280
     0
281
     0
  0
CLASS
  1
ACMSTANDARDISO
  2
AcmStandardISO
  3
"Amdt_StdImp|Product Description: AutoCAD Mechanical|Company: Autodesk, Inc."
 90
    33792
280
     0
281
     0
  0
CLASS
  1
AMGOBJPROPCFG
  2
AmgObjPropCfg
  3
"AmgLay|Product Description: AutoCAD Mechanical|Company: Autodesk, Inc."
 90
     1025
280
     0
281
     0
  0
CLASS
  1
AMDTEDGESTANDARDISO
  2
AmdtEdgeStdISO
  3
"Amdt_StdImp|Product Description: AutoCAD Mechanical|Company: Autodesk, Inc."
 90
    33792
280
     0
281
     0
  0
CLASS
  1
ACMSURFSTANDARDISO
  2
AcmSurfTextStdISO
  3
"Amdt_StdImp|Product Description: AutoCAD Mechanical|Company: Autodesk, Inc."
 90
    33792
280
     0
281
     0
  0
CLASS
  1
ACMFCFSTANDARDISO
  2
AcmFCFStdISO
  3
"Amdt_StdImp|Product Description: AutoCAD Mechanical|Company: Autodesk, Inc."
 90
    33792
280
     0
281
     0
  0
CLASS
  1
ACMWELDSTANDARDISO
  2
AcmWeldingStdISO
  3
"Amdt_StdImp|Product Description: AutoCAD Mechanical|Company: Autodesk, Inc."
 90
    33792
280
     0
281
     0
  0
CLASS
  1
ACMIDSTANDARDISO
  2
AcmIdStdISO
  3
"Amdt_StdImp|Product Description: AutoCAD Mechanical|Company: Autodesk, Inc."
 90
    33792
280
     0
281
     0
  0
CLASS
  1
ACMDATUMSTANDARDISO
  2
AcmDatumStdISO
  3
"Amdt_StdImp|Product Description: AutoCAD Mechanical|Company: Autodesk, Inc."
 90
    33792
280
     0
281
     0
  0
CLASS
  1
ACMBOMSTANDARDISO
  2
AcmBOMStdISO
  3
"Amdt_StdImp|Product Description: AutoCAD Mechanical|Company: Autodesk, Inc."
 90
    33792
280
     0
281
     0
  0
CLASS
  1
ACMDETAILSTANDARDISO
  2
AmdtDetailSymStdISO
  3
"Amdt_StdImp|Product Description: AutoCAD Mechanical|Company: Autodesk, Inc."
 90
    33792
280
     0
281
     0
  0
CLASS
  1
ACMSECTIONSTANDARDISO
  2
AmdtSectionSymStdISO
  3
"Amdt_StdImp|Product Description: AutoCAD Mechanical|Company: Autodesk, Inc."
 90
    33792
280
     0
281
     0
  0
CLASS
  1
ACMCENTERLINESTANDARDISO
  2
AmdtCenterLineStdISO
  3
"Amdt_StdImp|Product Description: AutoCAD Mechanical|Company: Autodesk, Inc."
 90
    33792
280
     0
281
     0
  0
CLASS
  1
ACMNOTESTANDARDISO
  2
AmdtNoteStdISO
  3
"Amdt_StdImp|Product Description: AutoCAD Mechanical|Company: Autodesk, Inc."
 90
    33792
280
     0
281
     0
  0
CLASS
  1
ACAMGLAYSTD
  2
AcAmgLayStd
  3
"AmgLay|Product Description: AutoCAD Mechanical|Company: Autodesk, Inc."
 90
     1024
280
     0
281
     0
  0
CLASS
  1
ACAMGDIMSTD
  2
AcAmgDimStd
  3
"AmgDim|Product Description: AutoCAD Mechanical|Company: Autodesk, Inc."
 90
     1024
280
     0
281
     0
  0
CLASS
  1
ACAMGHOLECHARTSTDISO
  2
AcAmgHoleChartStdISO
  3
AmgDim|Product Description: AutoCAD Mechanical|Company: Autodesk, Inc.
 90
    33792
280
     0
281
     0
  0
CLASS
  1
ACAMGTITLESTD
  2
AcAmgTitleStd
  3
"AmgTitle|Product Description: AutoCAD Mechanical|Company: Autodesk, Inc."
 90
     4095
280
     0
281
     0
  0
CLASS
  1
LAYER_INDEX
  2
AcDbLayerIndex
  3
ObjectDBX Classes
 90
    32768
280
     0
281
     0
  0
CLASS
  1
IDBUFFER
  2
AcDbIdBuffer
  3
ObjectDBX Classes
 90
    32768
280
     0
281
     0
  0
CLASS
  1
DICTIONARYVAR
  2
AcDbDictionaryVar
  3
ObjectDBX Classes
 90
        0
280
     0
281
     0
  0
CLASS
  1
AM_DRAWING_MGR
  2
AcDmDwgMgr
  3
AcMechDwgViewMgmt
 90
     1024
280
     0
281
     0
  0
CLASS
  1
AM_DWG_DOCUMENT
  2
AcDmDwgDocument
  3
AcMechDwgViewMgmt
 90
     1024
280
     0
281
     0
  0
CLASS
  1
AM_DWG_SHEET
  2
AcDmSheet
  3
AcMechDwgViewMgmt
 90
     1024
280
     0
281
     0
  0
CLASS
  1
AM_VIEWDIMPARMAP
  2
AcDmViewDimParMap
  3
AcMechDwgViewMgmt
 90
     1024
280
     0
281
     0
  0
CLASS
  1
AM_DWGMGR_NAME
  2
AcDmDwgMgrName
  3
AcMechDwgViewMgmt
 90
     1024
280
     0
281
     0
  0
CLASS
  1
AMDTMENUSTATEMGR
  2
AmdtMenuStateMgr
  3
McadcomServices
 90
     1024
280
     0
281
     0
  0
CLASS
  1
AMDTMCOMMENUSTATE
  2
AmdtMcomMenuState
  3
McadcomServices
 90
     1024
280
     0
281
     0
  0
CLASS
  1
MAPIAMMOUDLE
  2
MApiAmModule
  3
MApiAmServices
 90
     1024
280
     0
281
     0
  0
CLASS
  1
AMDTADMENUSTATE
  2
AmdtAdMenuState
  3
DesignerServices
 90
     1024
280
     0
281
     0
  0
CLASS
  1
ADAPPL
  2
AcAdAppl
  3
DesignerServices
 90
     1024
280
     0
281
     0
  0
CLASS
  1
DEPMGR
  2
AcAdDepMgr
  3
DesignerServices
 90
     1024
280
     0
281
     0
  0
CLASS
  1
PARAMMGR
  2
AcAdParamMgr
  3
DesignerServices
 90
     1024
280
     0
281
     0
  0
CLASS
  1
PARAMSCOPE
  2
AcAdParamScope
  3
DesignerServices
 90
     1024
280
     0
281
     0
  0
CLASS
  1
NAMEDAPPL
  2
AcAdNamedAppl
  3
DesignerServices
 90
     1024
280
     0
281
     0
  0
CLASS
  1
AMDTDMMENUSTATE
  2
AmdtDmMenuState
  3
AcMechDwgViewMgmt
 90
     1024
280
     0
281
     0
  0
CLASS
  1
AMDTAMMENUSTATE
  2
AmdtAmMenuState
  3
DesignerAssemblies
 90
     1024
280
     0
281
     0
  0
CLASS
  1
ACAMPROJECT
  2
AcAmProject
  3
DesignerAssemblies
 90
     1024
280
     0
281
     0
  0
CLASS
  1
ACAMGRCOMPDEF
  2
AcAmGrCompDef
  3
DesignerAssemblies
 90
     1024
280
     0
281
     0
  0
CLASS
  1
ACCMCONTEXT
  2
AcCmContext
  3
DesignerAssemblies
 90
    33792
280
     0
281
     0
  0
CLASS
  1
ACAMCOMPDEF
  2
AcAmCompDef
  3
DesignerAssemblies
 90
     1024
280
     0
281
     0
  0
CLASS
  1
ACAMCOMPDEFMGR
  2
AcAmCompDefMgr
  3
DesignerAssemblies
 90
     1024
280
     0
281
     0
  0
CLASS
  1
AMCONTEXTMGR
  2
AcAmContextMgr
  3
DesignerAssemblies
 90
     1024
280
     0
281
     0
  0
CLASS
  1
ACAMCONTEXTMODELER
  2
AcAmContextModeler
  3
DesignerAssemblies
 90
     1024
280
     0
281
     0
  0
CLASS
  1
ACMTHREADLINESTANDARDISO
  2
AmdtThreadLineStdISO
  3
"Amdt_StdImp|Product Description: AutoCAD Mechanical|Company: Autodesk, Inc."
 90
    33792
280
     0
281
     0
  0
CLASS
  1
CATALOGSTATE
  2
AcAmCatalogState
  3
DesignerAssemblies
 90
     1024
280
     0
281
     0
  0
CLASS
  1
ACAMGRCOMPDEFSET
  2
AcAmGrCompDefSet
  3
DesignerAssemblies
 90
     1024
280
     0
281
     0
  0
CLASS
  1
AMDTBROWSERDBTAB
  2
AmdtBrowserDbTab
  3
McadcomServices
 90
     1024
280
     0
281
     0
  0
CLASS
  1
CBROWSERAPPOBJECT
  2
CBrowserAppObject
  3
McadcomServices
 90
     1024
280
     0
281
     0
  0
CLASS
  1
DM_PLACEHOLDER
  2
AcDmSelsetPlaceholder
  3
AcMechDwgViewMgmt
 90
     1024
280
     0
281
     0
  0
CLASS
  1
TABLESTYLE
  2
AcDbTableStyle
  3
ObjectDBX Classes
 90
     4095
280
     0
281
     0
  0
CLASS
  1
VAACXREFPANELOBJECT
  2
VaAcXREFPanelObject
  3
VAAC_ADDIN
 90
    32768
280
     0
281
     0
  0
CLASS
  1
VAACIMAGEINVENTORY
  2
VaAcImageInventory
  3
VAAC_ADDIN
 90
    32768
280
     0
281
     0
  0
CLASS
  1
AMDTNOTETEMPLATEDB
  2
AmdtNoteTemplateDB
  3
AcmSymBB|Product Description: AutoCAD Mechanical|Company: Autodesk, Inc.
 90
     1024
280
     0
281
     0
  0
CLASS
  1
MATERIAL
  2
AcDbMaterial
  3
ObjectDBX Classes
 90
     1153
280
     0
281
     0
  0
CLASS
  1
VISUALSTYLE
  2
AcDbVisualStyle
  3
ObjectDBX Classes
 90
     4095
280
     0
281
     0
  0
CLASS
  1
ACRFATTGENMGR
  2
AcRfAttGeneralMgr
  3
AcAttribServices
 90
    33792
280
     0
281
     0
  0
CLASS
  1
ACRFOBJATTMGR
  2
AcRfObjAttGroupMgr
  3
AcAttribServices
 90
    33792
280
     0
281
     0
  0
CLASS
  1
ACRFMCADAPIATTHOLDER
  2
AcRfMCADAPIAttHolder
  3
AcAttribServices
 90
    33792
280
     0
281
     0
  0
CLASS
  1
AMDTSYSATTR
  2
AmdtSystemAttribute
  3
AcAttribServices
 90
    33792
280
     0
281
     0
  0
CLASS
  1
ACMTAPERSTANDARDISO
  2
AcmTaperStdISO
  3
"Amdt_StdImp|Product Description: AutoCAD Mechanical|Company: Autodesk, Inc."
 90
    33792
280
     0
281
     0
  0
CLASS
  1
CAMSSTRUCTBTNSTATE
  2
StructBtnState
  3
DesignerAssemblies
 90
     1024
280
     0
281
     0
  0
CLASS
  1
SCALE
  2
AcDbScale
  3
ObjectDBX Classes
 90
     1153
280
     0
281
     0
  0
CLASS
  1
MLEADERSTYLE
  2
AcDbMLeaderStyle
  3
ACDB_MLEADERSTYLE_CLASS
 90
     4095
280
     0
281
     0
  0
CLASS
  1
ACMANOOTATIONVIEWSTANDARDISO
  2
AmdtAnViewStdISO
  3
"Amdt_StdImp|Product Description: AutoCAD Mechanical|Company: Autodesk, Inc."
 90
    33792
280
     0
281
     0
  0
CLASS
  1
ACMSURFSTANDARDISO2002
  2
AcmSurfTextStdISO2002
  3
"Amdt_StdImp|Product Description: AutoCAD Mechanical|Company: Autodesk, Inc."
 90
    33792
280
     0
281
     0
  0
CLASS
  1
CELLSTYLEMAP
  2
AcDbCellStyleMap
  3
ObjectDBX Classes
 90
     1152
280
     0
281
     0
  0
CLASS
  1
ACMSECTIONSTANDARDISO2001
  2
AmdtSectionSymStdISO2001
  3
"Amdt_StdImp|Product Description: AutoCAD Mechanical|Company: Autodesk, Inc."
 90
    33792
280
     0
281
     0
  0
CLASS
  1
EXACXREFPANELOBJECT
  2
ExAcXREFPanelObject
  3
EXAC_ESW
 90
    33793
280
     0
281
     0
  0
CLASS
  1
NPOCOLLECTION
  2
AcDbImpNonPersistentObjectsCollection
  3
ObjectDBX Classes
 90
    33921
280
     0
281
     0
  0
CLASS
  1
AMDTEDGESTANDARDISO13715
  2
AmdtEdgeStdISO13715
  3
"Amdt_StdImp|Product Description: AutoCAD Mechanical|Company: Autodesk, Inc."
 90
    33792
280
     0
281
     0
  0
CLASS
  1
ACAMGFILTERDAT
  2
AcAmgFilterDat
  3
"AcadM|Product Description: AutoCAD Mechanical|Company: Autodesk, Inc."
 90
    33792
280
     0
281
     0
  0
CLASS
  1
ACMBOM
  2
AcmBom
  3
"AcmSymBB|Product Description: AutoCAD Mechanical|Company: Autodesk, Inc."
 90
    33792
280
     0
281
     0
  0
CLASS
  1
AMDTFORMULAUPDATEDISPATCHER
  2
AmdtFormulaUpdateDispatcher
  3
AcMeServices
 90
    33792
280
     0
281
     0
  0
CLASS
  1
DIMASSOC
  2
AcDbDimAssoc
  3
"AcDbDimAssoc|Product Desc:     AcDim ARX App For Dimension|Company:          Autodesk, Inc.|WEB Address:      www.autodesk.com"
 90
        0
280
     0
281
     0
  0
CLASS
  1
SORTENTSTABLE
  2
AcDbSortentsTable
  3
ObjectDBX Classes
 90
        0
280
     0
281
     0
  0
CLASS
  1
ACMSTANDARDDIN
  2
AcmStandardDIN
  3
"Amdt_StdImp|Product Description: AutoCAD Mechanical|Company: Autodesk, Inc."
 90
     1024
280
     0
281
     0
  0
CLASS
  1
AMDTEDGESTANDARDDIN
  2
AmdtEdgeStdDIN
  3
"Amdt_StdImp|Product Description: AutoCAD Mechanical|Company: Autodesk, Inc."
 90
    33792
280
     0
281
     0
  0
CLASS
  1
ACMSURFSTANDARDDIN
  2
AcmSurfTextStdDIN
  3
"Amdt_StdImp|Product Description: AutoCAD Mechanical|Company: Autodesk, Inc."
 90
    33792
280
     0
281
     0
  0
CLASS
  1
ACMFCFSTANDARDDIN
  2
AcmFCFStdDIN
  3
"Amdt_StdImp|Product Description: AutoCAD Mechanical|Company: Autodesk, Inc."
 90
     1024
280
     0
281
     0
  0
CLASS
  1
ACMWELDSTANDARDDIN
  2
AcmWeldingStdDIN
  3
"Amdt_StdImp|Product Description: AutoCAD Mechanical|Company: Autodesk, Inc."
 90
     1024
280
     0
281
     0
  0
CLASS
  1
ACMIDSTANDARDDIN
  2
AcmIdStdDIN
  3
"Amdt_StdImp|Product Description: AutoCAD Mechanical|Company: Autodesk, Inc."
 90
     1024
280
     0
281
     0
  0
CLASS
  1
ACMDATUMSTANDARDDIN
  2
AcmDatumStdDIN
  3
"Amdt_StdImp|Product Description: AutoCAD Mechanical|Company: Autodesk, Inc."
 90
     1024
280
     0
281
     0
  0
CLASS
  1
ACMBOMSTANDARDDIN
  2
AcmBOMStdDIN
  3
"Amdt_StdImp|Product Description: AutoCAD Mechanical|Company: Autodesk, Inc."
 90
     1024
280
     0
281
     0
  0
CLASS
  1
ACMDETAILSTANDARDDIN
  2
AmdtDetailSymStdDIN
  3
"Amdt_StdImp|Product Description: AutoCAD Mechanical|Company: Autodesk, Inc."
 90
     1024
280
     0
281
     0
  0
CLASS
  1
ACMSECTIONSTANDARDDIN
  2
AmdtSectionSymStdDIN
  3
"Amdt_StdImp|Product Description: AutoCAD Mechanical|Company: Autodesk, Inc."
 90
     1024
280
     0
281
     0
  0
CLASS
  1
ACMCENTERLINESTANDARDDIN
  2
AmdtCenterLineStdDIN
  3
"Amdt_StdImp|Product Description: AutoCAD Mechanical|Company: Autodesk, Inc."
 90
     1024
280
     0
281
     0
  0
CLASS
  1
ACMNOTESTANDARDDIN
  2
AmdtNoteStdDIN
  3
"Amdt_StdImp|Product Description: AutoCAD Mechanical|Company: Autodesk, Inc."
 90
     1024
280
     0
281
     0
  0
CLASS
  1
ACAMGHOLECHARTSTDDIN
  2
AcAmgHoleChartStdDIN
  3
AmgDim|Product Description: AutoCAD Mechanical|Company: Autodesk, Inc.
 90
     1024
280
     0
281
     0
  0
CLASS
  1
ACMTHREADLINESTANDARDDIN
  2
AmdtThreadLineStdDIN
  3
"Amdt_StdImp|Product Description: AutoCAD Mechanical|Company: Autodesk, Inc."
 90
     1024
280
     0
281
     0
  0
CLASS
  1
ACMTAPERSTANDARDDIN
  2
AcmTaperStdDIN
  3
"Amdt_StdImp|Product Description: AutoCAD Mechanical|Company: Autodesk, Inc."
 90
     1024
280
     0
281
     0
  0
CLASS
  1
ACMANOOTATIONVIEWSTANDARDDIN
  2
AmdtAnViewStdDIN
  3
"Amdt_StdImp|Product Description: AutoCAD Mechanical|Company: Autodesk, Inc."
 90
     1024
280
     0
281
     0
  0
CLASS
  1
AC_AM_MVD_DEP_MGR
  2
AcAmMVDdepMgr
  3
DesignerAssemblies
 90
    33792
280
     0
281
     0
  0
CLASS
  1
AC_AM_MASTER_VIEW_DEF
  2
AcAmMasterViewDef
  3
DesignerAssemblies
 90
    33792
280
     0
281
     0
  0
CLASS
  1
AC_AM_DIRTY_NODES
  2
AcAmDirtyNodes
  3
DesignerAssemblies
 90
    33792
280
     0
281
     0
  0
CLASS
  1
ACAMMVDBACKUPOBJECT
  2
AcAmMVDBackupObject
  3
DesignerAssemblies
 90
    33792
280
     0
281
     0
  0
CLASS
  1
AC_AM_MAPPER_CACHE
  2
AcAmMapperCache
  3
DesignerAssemblies
 90
    33792
280
     0
281
     0
  0
CLASS
  1
AC_AM_2D_XREF_MGR
  2
AcAmXrefMgr2d
  3
DesignerAssemblies
 90
    33792
280
     0
281
     0
  0
CLASS
  1
AC_AM_HIDE_SITUATION
  2
AcAmHideSituation
  3
DesignerAssemblies
 90
    33792
280
     0
281
     0
  0
CLASS
  1
AMDTEDGESTANDARDDIN13715
  2
AmdtEdgeStdDIN13715
  3
"Amdt_StdImp|Product Description: AutoCAD Mechanical|Company: Autodesk, Inc."
 90
     1024
280
     0
281
     0
  0
CLASS
  1
ACMSURFSTANDARDDIN2002
  2
AcmSurfTextStdDIN2002
  3
"Amdt_StdImp|Product Description: AutoCAD Mechanical|Company: Autodesk, Inc."
 90
     1024
280
     0
281
     0
  0
CLASS
  1
AEC_REFEDIT_STATUS_TRACKER
  2
AecDbRefEditStatusTracker
  3
AecArchBase60|Product Desc: Autodesk Architectural Desktop 2007 |Company: Autodesk,Inc. |WEB Address: www.autodesk.com
 90
    32897
280
     0
281
     0
  0
CLASS
  1
STDPART2D
  2
AmgStdPart
  3
AmgStdPart|Product Description: AutoCAD Mechanical|Company: Autodesk, Inc.
 90
    36863
280
     0
281
     1
  0
CLASS
  1
ACMDATAENTRYPART
  2
AcmDataEntryPart
  3
AcmSymBB|Product Description: AutoCAD Mechanical|Company: Autodesk, Inc.
 90
    33792
280
     0
281
     0
  0
CLASS
  1
ACMPARTREF
  2
AcmPartRef
  3
"AcmSymBB|Product Description: AutoCAD Mechanical|Company: Autodesk, Inc."
 90
    36863
280
     0
281
     1
  0
CLASS
  1
ACDBSTDPARTRES_LINE
  2
AcDbStdPartRes_Line
  3
AmgStdPart|Product Description: AutoCAD Mechanical|Company: Autodesk, Inc.
 90
    33792
280
     0
281
     0
  0
CLASS
  1
ACMSTANDARDANSI
  2
AcmStandardANSI
  3
"Amdt_StdImp|Product Description: AutoCAD Mechanical|Company: Autodesk, Inc."
 90
     1024
280
     0
281
     0
  0
CLASS
  1
ACMSURFSTANDARDANSI
  2
AcmSurfTextStdANSI
  3
"Amdt_StdImp|Product Description: AutoCAD Mechanical|Company: Autodesk, Inc."
 90
     1024
280
     0
281
     0
  0
CLASS
  1
ACMFCFSTANDARDANSI
  2
AcmFCFStdANSI
  3
"Amdt_StdImp|Product Description: AutoCAD Mechanical|Company: Autodesk, Inc."
 90
     1024
280
     0
281
     0
  0
CLASS
  1
ACMWELDSTANDARDANSI
  2
AcmWeldingStdANSI
  3
"Amdt_StdImp|Product Description: AutoCAD Mechanical|Company: Autodesk, Inc."
 90
     1024
280
     0
281
     0
  0
CLASS
  1
ACMIDSTANDARDANSI
  2
AcmIdStdANSI
  3
"Amdt_StdImp|Product Description: AutoCAD Mechanical|Company: Autodesk, Inc."
 90
     1024
280
     0
281
     0
  0
CLASS
  1
ACMDATUMSTANDARDANSI
  2
AcmDatumStdANSI
  3
"Amdt_StdImp|Product Description: AutoCAD Mechanical|Company: Autodesk, Inc."
 90
     1024
280
     0
281
     0
  0
CLASS
  1
ACMBOMSTANDARDANSI
  2
AcmBOMStdANSI
  3
"Amdt_StdImp|Product Description: AutoCAD Mechanical|Company: Autodesk, Inc."
 90
     1024
280
     0
281
     0
  0
CLASS
  1
ACMDETAILSTANDARDANSI
  2
AmdtDetailSymStdANSI
  3
"Amdt_StdImp|Product Description: AutoCAD Mechanical|Company: Autodesk, Inc."
 90
     1024
280
     0
281
     0
  0
CLASS
  1
ACMSECTIONSTANDARDANSI
  2
AmdtSectionSymStdANSI
  3
"Amdt_StdImp|Product Description: AutoCAD Mechanical|Company: Autodesk, Inc."
 90
     1024
280
     0
281
     0
  0
CLASS
  1
ACMCENTERLINESTANDARDANSI
  2
AmdtCenterLineStdANSI
  3
"Amdt_StdImp|Product Description: AutoCAD Mechanical|Company: Autodesk, Inc."
 90
     1024
280
     0
281
     0
  0
CLASS
  1
ACMTHREADLINESTANDARDANSI
  2
AmdtThreadLineStdANSI
  3
"Amdt_StdImp|Product Description: AutoCAD Mechanical|Company: Autodesk, Inc."
 90
     1024
280
     0
281
     0
  0
CLASS
  1
ACMNOTESTANDARDANSI
  2
AmdtNoteStdANSI
  3
"Amdt_StdImp|Product Description: AutoCAD Mechanical|Company: Autodesk, Inc."
 90
     1024
280
     0
281
     0
  0
CLASS
  1
ACMTAPERSTANDARDANSI
  2
AcmTaperStdANSI
  3
"Amdt_StdImp|Product Description: AutoCAD Mechanical|Company: Autodesk, Inc."
 90
     1024
280
     0
281
     0
  0
CLASS
  1
ACMANOOTATIONVIEWSTANDARDANSI
  2
AmdtAnViewStdANSI
  3
"Amdt_StdImp|Product Description: AutoCAD Mechanical|Company: Autodesk, Inc."
 90
     1024
280
     0
281
     0
  0
CLASS
  1
ACAMGHOLECHARTSTDANSI
  2
AcAmgHoleChartStdANSI
  3
AmgDim|Product Description: AutoCAD Mechanical|Company: Autodesk, Inc.
 90
     1024
280
     0
281
     0
  0
CLASS
  1
ACDBLINERES
  2
AcDbLineRes
  3
AcGrefServices
 90
    33792
280
     0
281
     0
  0
CLASS
  1
AMDTNOTE
  2
AmdtNote
  3
"AcmSymBB|Product Description: AutoCAD Mechanical|Company: Autodesk, Inc."
 90
    36863
280
     0
281
     1
  0
ENDSEC
  0
SECTION
  2
TABLES
  0
TABLE
  2
VPORT
  5
8
330
0
100
AcDbSymbolTable
 70
     1
  0
VPORT
  5
269
330
8
100
AcDbSymbolTableRecord
100
AcDbViewportTableRecord
  2
*Active
 70
     0
 10
0.0
 20
0.0
 11
1.0
 21
1.0
 12
-39743.53583999846
 22
45749.8143721231
 13
0.0
 23
0.0
 14
2.5
 24
2.5
 15
10.0
 25
10.0
 16
0.0
 26
0.0
 36
1.0
 17
0.0
 27
0.0
 37
0.0
 40
1018.023013600672
 41
1.515662650602409
 42
50.0
 43
0.0
 44
0.0
 50
0.0
 51
0.0
 71
     0
 72
   100
 73
     1
 74
     3
 75
     0
 76
     0
 77
     0
 78
     0
281
     0
 65
     0
110
0.0
120
0.0
130
0.0
111
1.0
121
0.0
131
0.0
112
0.0
122
1.0
132
0.0
 79
     0
146
0.0
  0
ENDTAB
  0
TABLE
  2
LTYPE
  5
5
330
0
100
AcDbSymbolTable
 70
    28
  0
LTYPE
  5
14
330
5
100
AcDbSymbolTableRecord
100
AcDbLinetypeTableRecord
  2
ByBlock
 70
     0
  3

 72
    65
 73
     0
 40
0.0
  0
LTYPE
  5
15
330
5
100
AcDbSymbolTableRecord
100
AcDbLinetypeTableRecord
  2
ByLayer
 70
     0
  3

 72
    65
 73
     0
 40
0.0
  0
LTYPE
  5
16
330
5
100
AcDbSymbolTableRecord
100
AcDbLinetypeTableRecord
  2
Continuous
 70
     0
  3
Solid line
 72
    65
 73
     0
 40
0.0
  0
LTYPE
  5
67
330
5
100
AcDbSymbolTableRecord
100
AcDbLinetypeTableRecord
  2
Amconstr
 70
     0
  3
_______________________
 72
    65
 73
     2
 40
9999.0
 49
9999.0
 74
     0
 49
0.0
 74
     0
  0
LTYPE
  5
6C
330
5
100
AcDbSymbolTableRecord
100
AcDbLinetypeTableRecord
  2
Amzigzag
 70
     0
  3
/\/-/\/-/\/-/\/-/\/-/\/
 72
    65
 73
     2
 40
11.0001
 49
0.0001
 74
     4
 75
   136
340
22C
 46
0.04
 50
0.0
 44
0.0
 45
0.0
 49
-11.0
 74
     0
  0
LTYPE
  5
7E
330
5
100
AcDbSymbolTableRecord
100
AcDbLinetypeTableRecord
  2
CENTER
 70
     0
  3
__ . __
 72
    65
 73
     4
 40
7.0
 49
4.0
 74
     0
 49
-1.0
 74
     0
 49
1.0
 74
     0
 49
-1.0
 74
     0
  0
LTYPE
  5
D8
330
5
100
AcDbSymbolTableRecord
100
AcDbLinetypeTableRecord
  2
HIDDEN
 70
     0
  3
Hidden __ __ __ __ __ __ __ __ __ __ __ __ __ _
 72
    65
 73
     2
 40
9.524999999999996
 49
6.349999999999998
 74
     0
 49
-3.174999999999998
 74
     0
  0
LTYPE
  5
D9
330
5
100
AcDbSymbolTableRecord
100
AcDbLinetypeTableRecord
  2
PHANTOM2
 70
     0
  3
Phantom (.5x) ___ _ _ ___ _ _ ___ _ _ ___ _ _
 72
    65
 73
     6
 40
31.75
 49
15.875
 74
     0
 49
-3.174999999999998
 74
     0
 49
3.174999999999998
 74
     0
 49
-3.174999999999998
 74
     0
 49
3.174999999999998
 74
     0
 49
-3.174999999999998
 74
     0
  0
LTYPE
  5
AA5
330
5
100
AcDbSymbolTableRecord
100
AcDbLinetypeTableRecord
  2
AM_DIN_F_W050
 70
     0
  3
__ __ __ __ __ __ __ __ __ __ __ __ __ __ __
 72
    65
 73
     2
 40
6.25
 49
4.75
 74
     0
 49
-1.5
 74
     0
  0
LTYPE
  5
AA6
330
5
100
AcDbSymbolTableRecord
100
AcDbLinetypeTableRecord
  2
AM_DIN_G_W050
 70
     0
  3
____ . ____ . ____ . ____ . ____ . ____ . ____
 72
    65
 73
     4
 40
13.75
 49
9.75
 74
     0
 49
-1.5
 74
     0
 49
1.0
 74
     0
 49
-1.5
 74
     0
  0
LTYPE
  5
AA7
330
5
100
AcDbSymbolTableRecord
100
AcDbLinetypeTableRecord
  2
AM_DIN_K_W050
 70
     0
  3
_____ . . _____ . . _____ . . ____ .. ____
 72
    65
 73
     6
 40
16.25
 49
9.75
 74
     0
 49
-1.5
 74
     0
 49
1.0
 74
     0
 49
-1.5
 74
     0
 49
1.0
 74
     0
 49
-1.5
 74
     0
  0
LTYPE
  5
AA8
330
5
100
AcDbSymbolTableRecord
100
AcDbLinetypeTableRecord
  2
AM_DIN_G_W050x2
 70
     0
  3
__ . __ . __ . __ . __ . __
 72
    65
 73
     4
 40
6.875
 49
4.75
 74
     0
 49
-0.875
 74
     0
 49
0.375
 74
     0
 49
-0.875
 74
     0
  0
LTYPE
  5
AA9
330
5
100
AcDbSymbolTableRecord
100
AcDbLinetypeTableRecord
  2
AM_DIN_F_W050x2
 70
     0
  3
 _ _ _ _ _ _ _ _ _ _ _ _
 72
    65
 73
     2
 40
3.125
 49
2.25
 74
     0
 49
-0.875
 74
     0
  0
LTYPE
  5
AAA
330
5
100
AcDbSymbolTableRecord
100
AcDbLinetypeTableRecord
  2
ACDINWELD
 70
     0
  3
_ _ _ _ _
 72
    65
 73
     2
 40
2.0
 49
2.0
 74
     0
 49
-1.0
 74
     0
  0
LTYPE
  5
AAB
330
5
100
AcDbSymbolTableRecord
100
AcDbLinetypeTableRecord
  2
ACDINTGB
 70
     0
  3
__ . . __ . .
 72
    65
 73
     6
 40
9.0
 49
4.0
 74
     0
 49
-1.0
 74
     0
 49
1.0
 74
     0
 49
-1.0
 74
     0
 49
1.0
 74
     0
 49
-1.0
 74
     0
  0
LTYPE
  5
AAC
330
5
100
AcDbSymbolTableRecord
100
AcDbLinetypeTableRecord
  2
ACDINTGL
 70
     0
  3
_ _ _ _ _
 72
    65
 73
     2
 40
3.0
 49
2.0
 74
     0
 49
-1.0
 74
     0
  0
LTYPE
  5
1688C9
330
5
100
AcDbSymbolTableRecord
100
AcDbLinetypeTableRecord
  2
CENTER2
 70
     0
  3
Center (.5x) ___ _ ___ _ ___ _ ___ _ ___ _ ___
 72
    65
 73
     4
 40
1.125
 49
0.75
 74
     0
 49
-0.125
 74
     0
 49
0.125
 74
     0
 49
-0.125
 74
     0
  0
LTYPE
  5
1688CA
330
5
100
AcDbSymbolTableRecord
100
AcDbLinetypeTableRecord
  2
HIDDEN2
 70
     0
  3
Hidden (.5x) _ _ _ _ _ _ _ _ _ _ _ _ _ _ _ _ _
 72
    65
 73
     2
 40
0.1875
 49
0.125
 74
     0
 49
-0.0625
 74
     0
  0
LTYPE
  5
1688CB
330
5
100
AcDbSymbolTableRecord
100
AcDbLinetypeTableRecord
  2
Amzigzag2
 70
     0
  3
/\/-/\/-/\/-/\/-/\/-/\/
 72
    65
 73
     2
 40
0.4401
 49
0.0001
 74
     4
 75
   136
340
22C
 46
0.0016
 50
0.0
 44
0.0
 45
0.0
 49
-0.4400000000000001
 74
     0
  0
LTYPE
  5
1688CC
330
5
100
AcDbSymbolTableRecord
100
AcDbLinetypeTableRecord
  2
ACANSTGB
 70
     0
  3
__ . . __ . .
 72
    65
 73
     6
 40
0.35433070866
 49
0.15748031496
 74
     0
 49
-0.03937007874
 74
     0
 49
0.03937007874
 74
     0
 49
-0.03937007874
 74
     0
 49
0.03937007874
 74
     0
 49
-0.03937007874
 74
     0
  0
LTYPE
  5
1688CD
330
5
100
AcDbSymbolTableRecord
100
AcDbLinetypeTableRecord
  2
ACANSTGL
 70
     0
  3
_ _ _ _ _
 72
    65
 73
     2
 40
0.11811023622
 49
0.07874015748
 74
     0
 49
-0.03937007874
 74
     0
  0
ENDTAB
  0
TABLE
  2
LAYER
  5
2
102
{ACAD_XDICTIONARY
360
AD9
102
}
330
0
100
AcDbSymbolTable
 70
    20
  0
LAYER
  5
10
102
{ACAD_XDICTIONARY
360
1EA6D
102
}
330
2
100
AcDbSymbolTableRecord
100
AcDbLayerTableRecord
  2
0
 70
     0
 62
     7
  6
Continuous
370
    -3
390
F
  0
LAYER
  5
AB0
330
2
100
AcDbSymbolTableRecord
100
AcDbLayerTableRecord
  2
DEFPOINTS
 70
     0
 62
     7
  6
Continuous
290
     0
370
    -3
390
F
  0
LAYER
  5
AB1
102
{ACAD_XDICTIONARY
360
AB2
102
}
330
2
100
AcDbSymbolTableRecord
100
AcDbLayerTableRecord
  2
AM_5
 70
     0
 62
     3
  6
Continuous
370
    25
390
F
  0
LAYER
  5
2B363
330
2
100
AcDbSymbolTableRecord
100
AcDbLayerTableRecord
  2
anbauteile dünn
 70
     0
 62
     3
  6
Continuous
370
    25
390
F
1001
AcAecLayerStandard
1000

1000

  0
LAYER
  5
A8747
330
2
100
AcDbSymbolTableRecord
100
AcDbLayerTableRecord
  2
AM_0
 70
     0
 62
     7
  6
Continuous
370
    50
390
F
1001
AcAecLayerStandard
1000

1000

  0
LAYER
  5
1684D0
330
2
100
AcDbSymbolTableRecord
100
AcDbLayerTableRecord
  2
AM_0N
 70
     0
 62
     7
  6
Continuous
370
    50
390
F
1001
AcAecLayerStandard
1000

1000

  0
LAYER
  5
168523
330
2
100
AcDbSymbolTableRecord
100
AcDbLayerTableRecord
  2
AM_4
 70
     0
 62
     3
  6
Continuous
370
    25
390
F
  0
ENDTAB
  0
TABLE
  2
STYLE
  5
3
330
0
100
AcDbSymbolTable
 70
     6
  0
STYLE
  5
11
330
3
100
AcDbSymbolTableRecord
100
AcDbTextStyleTableRecord
  2
STANDARD
 70
     0
 40
0.0
 41
1.0
 50
0.0
 71
     0
 42
2.5
  3
ARIAL.TTF
  4

1001
ACAD
1000
Arial
1071
       34
  0
STYLE
  5
22C
330
3
100
AcDbSymbolTableRecord
100
AcDbTextStyleTableRecord
  2

 70
     1
 40
0.0
 41
1.0
 50
0.0
 71
     0
 42
2.5
  3
genltshp.shx
  4

  0
STYLE
  5
ABC
330
3
100
AcDbSymbolTableRecord
100
AcDbTextStyleTableRecord
  2
ACDINGDT
 70
     0
 40
0.0
 41
1.0
 50
0.0
 71
     0
 42
3.5
  3
amgdt.shx
  4

  0
STYLE
  5
1688CE
330
3
100
AcDbSymbolTableRecord
100
AcDbTextStyleTableRecord
  2
ACANSGDT
 70
     0
 40
0.0
 41
1.0
 50
0.0
 71
     0
 42
0.2
  3
amgdt.shx
  4

  0
ENDTAB
  0
TABLE
  2
VIEW
  5
6
330
0
100
AcDbSymbolTable
 70
     0
  0
ENDTAB
  0
TABLE
  2
UCS
  5
7
330
0
100
AcDbSymbolTable
 70
     0
  0
ENDTAB
  0
TABLE
  2
APPID
  5
9
330
0
100
AcDbSymbolTable
 70
    71
  0
APPID
  5
12
330
9
100
AcDbSymbolTableRecord
100
AcDbRegAppTableRecord
  2
ACAD
 70
     0
  0
APPID
  5
46
330
9
100
AcDbSymbolTableRecord
100
AcDbRegAppTableRecord
  2
MCAD_NO_VIS
 70
     0
  0
APPID
  5
47
330
9
100
AcDbSymbolTableRecord
100
AcDbRegAppTableRecord
  2
ACAD_TEMP_GRAPHIC
 70
     0
  0
APPID
  5
58
330
9
100
AcDbSymbolTableRecord
100
AcDbRegAppTableRecord
  2
ACATTRIBSERVICES
 70
     0
  0
APPID
  5
EE
330
9
100
AcDbSymbolTableRecord
100
AcDbRegAppTableRecord
  2
AD_DRAW
 70
     0
  0
APPID
  5
10C
330
9
100
AcDbSymbolTableRecord
100
AcDbRegAppTableRecord
  2
DESIGNERASSEMBLIES
 70
     0
  0
APPID
  5
111
330
9
100
AcDbSymbolTableRecord
100
AcDbRegAppTableRecord
  2
ACADM_DIM_EDIT
 70
     0
  0
APPID
  5
112
330
9
100
AcDbSymbolTableRecord
100
AcDbRegAppTableRecord
  2
AMDT_DM_ADJ
 70
     0
  0
APPID
  5
1A3
330
9
100
AcDbSymbolTableRecord
100
AcDbRegAppTableRecord
  2
ACAD_DSTYLE_DIMARC_LENGTH_SYMBOL
 70
     0
  0
APPID
  5
1A4
330
9
100
AcDbSymbolTableRecord
100
AcDbRegAppTableRecord
  2
ACAD_DSTYLE_DIMJOGGED_JOGANGLE_SYMBOL
 70
     0
  0
APPID
  5
2C6
330
9
100
AcDbSymbolTableRecord
100
AcDbRegAppTableRecord
  2
ACAD_MLEADERVER
 70
     0
  0
APPID
  5
368
330
9
100
AcDbSymbolTableRecord
100
AcDbRegAppTableRecord
  2
ACAD_DSTYLE_DIMJAG
 70
     0
  0
APPID
  5
369
330
9
100
AcDbSymbolTableRecord
100
AcDbRegAppTableRecord
  2
ACAD_DSTYLE_DIMBREAK
 70
     0
  0
APPID
  5
38D
330
9
100
AcDbSymbolTableRecord
100
AcDbRegAppTableRecord
  2
ACAD_EXEMPT_FROM_CAD_STANDARDS
 70
     0
  0
APPID
  5
3C2
330
9
100
AcDbSymbolTableRecord
100
AcDbRegAppTableRecord
  2
ACAD_PSEXT
 70
     0
  0
APPID
  5
AC7
330
9
100
AcDbSymbolTableRecord
100
AcDbRegAppTableRecord
  2
GENIUS_GENOENT_13
 70
     0
  0
APPID
  5
AC8
330
9
100
AcDbSymbolTableRecord
100
AcDbRegAppTableRecord
  2
GENIUS_GENREC_14
 70
     0
  0
APPID
  5
AC9
330
9
100
AcDbSymbolTableRecord
100
AcDbRegAppTableRecord
  2
GENIUS_GENODEF_13
 70
     0
  0
APPID
  5
ACA
330
9
100
AcDbSymbolTableRecord
100
AcDbRegAppTableRecord
  2
GENIUS_GENOBJ-N-REC_13
 70
     0
  0
APPID
  5
ACB
330
9
100
AcDbSymbolTableRecord
100
AcDbRegAppTableRecord
  2
GENIUS_GENOLIS_13
 70
     0
  0
APPID
  5
ACC
330
9
100
AcDbSymbolTableRecord
100
AcDbRegAppTableRecord
  2
GENIUS_GENOREF_13
 70
     0
  0
APPID
  5
ACD
330
9
100
AcDbSymbolTableRecord
100
AcDbRegAppTableRecord
  2
GENIUS_GENOBJ-N-CEN_13
 70
     0
  0
APPID
  5
ACE
330
9
100
AcDbSymbolTableRecord
100
AcDbRegAppTableRecord
  2
GENIUS_GENCEN_19
 70
     0
  0
APPID
  5
ACF
330
9
100
AcDbSymbolTableRecord
100
AcDbRegAppTableRecord
  2
AcAecLayerStandard
 70
     0
  0
APPID
  5
AD0
330
9
100
AcDbSymbolTableRecord
100
AcDbRegAppTableRecord
  2
GENIUS_GENBH_13
 70
     0
  0
APPID
  5
AD1
330
9
100
AcDbSymbolTableRecord
100
AcDbRegAppTableRecord
  2
GENIUS_GENOBJ-NBEHI-BHB_13
 70
     0
  0
APPID
  5
AD2
330
9
100
AcDbSymbolTableRecord
100
AcDbRegAppTableRecord
  2
GENIUS_GENOBJ-N-CRS_13
 70
     0
  0
APPID
  5
AD3
330
9
100
AcDbSymbolTableRecord
100
AcDbRegAppTableRecord
  2
GENIUS_GENOBJ-N-FIL_13
 70
     0
  0
APPID
  5
AD4
330
9
100
AcDbSymbolTableRecord
100
AcDbRegAppTableRecord
  2
GENIUS_GENFIL_13
 70
     0
  0
APPID
  5
AD5
330
9
100
AcDbSymbolTableRecord
100
AcDbRegAppTableRecord
  2
GENIUS_GENOBJ-N-CHA_13
 70
     0
  0
APPID
  5
AD6
330
9
100
AcDbSymbolTableRecord
100
AcDbRegAppTableRecord
  2
GENIUS_GEFWELD_13
 70
     0
  0
APPID
  5
AD7
330
9
100
AcDbSymbolTableRecord
100
AcDbRegAppTableRecord
  2
GENIUS_GENOBJ-F-WELS_13
 70
     0
  0
APPID
  5
AD8
330
9
100
AcDbSymbolTableRecord
100
AcDbRegAppTableRecord
  2
ACAD_DSTYLE_DIMINSPECT
 70
     0
  0
APPID
  5
1F78F
330
9
100
AcDbSymbolTableRecord
100
AcDbRegAppTableRecord
  2
GENIUS_GENDTOL_13
 70
     0
  0
APPID
  5
1F97B
330
9
100
AcDbSymbolTableRecord
100
AcDbRegAppTableRecord
  2
GENIUS_GENDIMSH_14
 70
     0
  0
APPID
  5
204BE
330
9
100
AcDbSymbolTableRecord
100
AcDbRegAppTableRecord
  2
GENIUS_GENOBJ-N-HTC_13
 70
     0
  0
APPID
  5
204BF
330
9
100
AcDbSymbolTableRecord
100
AcDbRegAppTableRecord
  2
GENIUS_GENHATCH_13
 70
     0
  0
APPID
  5
204C0
330
9
100
AcDbSymbolTableRecord
100
AcDbRegAppTableRecord
  2
GENIUS_GENOBJ-NBEHI-BHF_13
 70
     0
  0
APPID
  5
204C1
330
9
100
AcDbSymbolTableRecord
100
AcDbRegAppTableRecord
  2
AcDbDynamicBlockGUID
 70
     0
  0
APPID
  5
204C2
330
9
100
AcDbSymbolTableRecord
100
AcDbRegAppTableRecord
  2
ACDBBLOCKREPETAG
 70
     0
  0
APPID
  5
292D0
330
9
100
AcDbSymbolTableRecord
100
AcDbRegAppTableRecord
  2
AMG_2DHIDE
 70
     0
  0
APPID
  5
2ED5F
330
9
100
AcDbSymbolTableRecord
100
AcDbRegAppTableRecord
  2
GENIUS_GENTRA_14
 70
     0
  0
APPID
  5
2ED60
330
9
100
AcDbSymbolTableRecord
100
AcDbRegAppTableRecord
  2
GENIUS_FIRSTVISTXT_14
 70
     0
  0
APPID
  5
2ED61
330
9
100
AcDbSymbolTableRecord
100
AcDbRegAppTableRecord
  2
GENIUS_SECONDVISTXT_14
 70
     0
  0
APPID
  5
2ED62
330
9
100
AcDbSymbolTableRecord
100
AcDbRegAppTableRecord
  2
GENIUS_GENOBJ-F-PART_13
 70
     0
  0
APPID
  5
2ED63
330
9
100
AcDbSymbolTableRecord
100
AcDbRegAppTableRecord
  2
GENIUS_GEFSTDP_13
 70
     0
  0
APPID
  5
2ED64
330
9
100
AcDbSymbolTableRecord
100
AcDbRegAppTableRecord
  2
GEVPT
 70
     0
  0
APPID
  5
2ED65
330
9
100
AcDbSymbolTableRecord
100
AcDbRegAppTableRecord
  2
GEVIT
 70
     0
  0
APPID
  5
2ED66
330
9
100
AcDbSymbolTableRecord
100
AcDbRegAppTableRecord
  2
VCC
 70
     0
  0
APPID
  5
2ED67
330
9
100
AcDbSymbolTableRecord
100
AcDbRegAppTableRecord
  2
GENBH
 70
     0
  0
APPID
  5
2ED68
330
9
100
AcDbSymbolTableRecord
100
AcDbRegAppTableRecord
  2
GENIUS_GEFPARTINS_13
 70
     0
  0
APPID
  5
2ED69
330
9
100
AcDbSymbolTableRecord
100
AcDbRegAppTableRecord
  2
GENIUS_GENOBJ-F-DESC_13
 70
     0
  0
APPID
  5
2ED6A
330
9
100
AcDbSymbolTableRecord
100
AcDbRegAppTableRecord
  2
GENIUS_GEFDESC_14
 70
     0
  0
APPID
  5
2ED6B
330
9
100
AcDbSymbolTableRecord
100
AcDbRegAppTableRecord
  2
GENIUS_GENOBJ-F-FEAT_13
 70
     0
  0
APPID
  5
2ED6C
330
9
100
AcDbSymbolTableRecord
100
AcDbRegAppTableRecord
  2
GENIUS_GEFFEAT_14
 70
     0
  0
APPID
  5
2ED6D
330
9
100
AcDbSymbolTableRecord
100
AcDbRegAppTableRecord
  2
GEVID992928022
 70
     0
  0
APPID
  5
2ED6E
330
9
100
AcDbSymbolTableRecord
100
AcDbRegAppTableRecord
  2
GEVID992928023
 70
     0
  0
APPID
  5
316E4
330
9
100
AcDbSymbolTableRecord
100
AcDbRegAppTableRecord
  2
DCO15
 70
     0
  0
APPID
  5
42BF7
330
9
100
AcDbSymbolTableRecord
100
AcDbRegAppTableRecord
  2
AcadAnnoPO
 70
     0
  0
APPID
  5
9BF7B
330
9
100
AcDbSymbolTableRecord
100
AcDbRegAppTableRecord
  2
GEVMK
 70
     0
  0
APPID
  5
9BF7C
330
9
100
AcDbSymbolTableRecord
100
AcDbRegAppTableRecord
  2
GENIUS_GENOBJ-N-CRC_13
 70
     0
  0
APPID
  5
9BF7D
330
9
100
AcDbSymbolTableRecord
100
AcDbRegAppTableRecord
  2
GENIUS_GENCRC_14
 70
     0
  0
APPID
  5
9BF7E
330
9
100
AcDbSymbolTableRecord
100
AcDbRegAppTableRecord
  2
GEVID978597865
 70
     0
  0
APPID
  5
9BF7F
330
9
100
AcDbSymbolTableRecord
100
AcDbRegAppTableRecord
  2
GEVID978597866
 70
     0
  0
APPID
  5
9BF80
330
9
100
AcDbSymbolTableRecord
100
AcDbRegAppTableRecord
  2
GEVID978597868
 70
     0
  0
APPID
  5
166AE2
330
9
100
AcDbSymbolTableRecord
100
AcDbRegAppTableRecord
  2
ACAD_DSTYLE_DIM_LINETYPE
 70
     0
  0
APPID
  5
166AE3
330
9
100
AcDbSymbolTableRecord
100
AcDbRegAppTableRecord
  2
ACAD_DSTYLE_DIM_EXT1_LINETYPE
 70
     0
  0
APPID
  5
166AE4
330
9
100
AcDbSymbolTableRecord
100
AcDbRegAppTableRecord
  2
ACAD_DSTYLE_DIM_EXT2_LINETYPE
 70
     0
  0
APPID
  5
1684CE
330
9
100
AcDbSymbolTableRecord
100
AcDbRegAppTableRecord
  2
GEVID1265798273
 70
     0
  0
APPID
  5
168B0E
330
9
100
AcDbSymbolTableRecord
100
AcDbRegAppTableRecord
  2
GENIUS_GENOBJ-N-DIM_13
 70
     0
  0
APPID
  5
168B0F
330
9
100
AcDbSymbolTableRecord
100
AcDbRegAppTableRecord
  2
GENIUS_GENDIM_13
 70
     0
  0
ENDTAB
  0
TABLE
  2
DIMSTYLE
  5
A
330
0
100
AcDbSymbolTable
 70
    25
100
AcDbDimStyleTable
 71
     2
340
81
340
ABD
  0
DIMSTYLE
105
81
330
A
100
AcDbSymbolTableRecord
100
AcDbDimStyleTableRecord
  2
AM_ISO
 70
     0
  4
"
 41
3.5
 42
1.0
 43
10.0
 44
1.0
 47
0.1
 48
0.1
 73
     0
 74
     0
 77
     1
 78
     8
 79
     2
140
3.5
141
0.0
143
0.0393701
146
0.71
147
1.5
172
     1
176
   256
177
   256
178
   140
271
     2
272
     3
274
     4
283
     0
284
     8
340
11
371
    -1
372
    -1
1001
ACAD_DSTYLE_DIMJOGGED_JOGANGLE_SYMBOL
1070
   384
1040
0.7853981633974483
1001
ACAD_DSTYLE_DIMJAG
1070
   388
1040
1.5
1001
ACAD_DSTYLE_DIMBREAK
1070
   391
1040
3.75
1001
ACAD_DSTYLE_DIMARC_LENGTH_SYMBOL
1070
   379
1070
     1
1001
ACAD_DSTYLE_DIM_LINETYPE
1070
   380
1005
14
1001
ACAD_DSTYLE_DIM_EXT1_LINETYPE
1070
   381
1005
14
1001
ACAD_DSTYLE_DIM_EXT2_LINETYPE
1070
   382
1005
14
  0
DIMSTYLE
105
ABD
102
{ACAD_REACTORS
330
166B72
102
}
330
A
100
AcDbSymbolTableRecord
100
AcDbDimStyleTableRecord
  2
AM_DIN
 70
     0
  4
"
 41
2.5
 42
1.0
 43
10.0
 44
1.0
 47
0.1
 48
0.1
 73
     0
 74
     0
 77
     1
 78
     8
 79
     2
140
3.5
141
0.0
143
0.0393701
146
0.71
147
1.5
172
     1
176
   256
177
   256
178
     2
271
     2
272
     3
274
     4
283
     0
284
     8
340
11
371
    -1
372
    -1
1001
ACAD_DSTYLE_DIMJOGGED_JOGANGLE_SYMBOL
1070
   384
1040
1.570796326794896
  0
DIMSTYLE
105
ABE
330
A
100
AcDbSymbolTableRecord
100
AcDbDimStyleTableRecord
  2
AM_DIN$3
 70
     0
  4
"
 41
2.5
 42
1.0
 43
10.0
 44
1.0
 47
0.1
 48
0.1
 73
     0
 77
     1
 78
     8
 79
     2
140
3.5
141
0.0
143
0.0393701
146
0.71
147
1.5
176
   256
177
   256
178
     2
271
     2
272
     3
274
     4
283
     0
284
     8
288
     1
289
     0
340
11
371
    -1
372
    -1
1001
ACAD_DSTYLE_DIMJOGGED_JOGANGLE_SYMBOL
1070
   384
1040
1.570796326794896
  0
DIMSTYLE
105
ABF
330
A
100
AcDbSymbolTableRecord
100
AcDbDimStyleTableRecord
  2
AM_DIN$4
 70
     0
  4
"
 41
2.5
 42
1.0
 43
10.0
 44
1.0
 47
0.1
 48
0.1
 73
     0
 77
     1
 78
     8
 79
     2
140
3.5
141
0.0
143
0.0393701
146
0.71
147
1.5
176
   256
177
   256
178
     2
271
     2
272
     3
274
     4
283
     0
284
     8
288
     1
289
     0
340
11
371
    -1
372
    -1
1001
ACAD_DSTYLE_DIMJOGGED_JOGANGLE_SYMBOL
1070
   384
1040
1.570796326794896
  0
DIMSTYLE
105
AC0
330
A
100
AcDbSymbolTableRecord
100
AcDbDimStyleTableRecord
  2
AM_DIN$6
 70
     0
  4
"
 41
2.5
 42
1.0
 43
10.0
 44
1.0
 47
0.1
 48
0.1
 73
     0
 74
     0
 78
     8
 79
     2
140
3.5
141
0.0
143
0.0393701
146
0.71
147
1.5
172
     1
176
   256
177
   256
178
     2
271
     2
272
     3
274
     4
283
     0
284
     8
340
11
371
    -1
372
    -1
1001
ACAD_DSTYLE_DIMJOGGED_JOGANGLE_SYMBOL
1070
   384
1040
1.570796326794896
  0
DIMSTYLE
105
AC1
330
A
100
AcDbSymbolTableRecord
100
AcDbDimStyleTableRecord
  2
AM_DIN$7
 70
     0
  4
"
 41
2.5
 42
1.0
 43
10.0
 44
1.0
 47
0.1
 48
0.1
 73
     0
 74
     0
 77
     1
 78
     8
 79
     2
140
5.0
141
0.0
143
0.0393701
146
0.71
147
1.5
172
     1
176
   256
177
   256
178
     2
271
     2
272
     3
274
     4
283
     0
284
     8
340
11
371
    -1
372
    -1
1001
ACAD_DSTYLE_DIMJOGGED_JOGANGLE_SYMBOL
1070
   384
1040
1.570796326794896
  0
DIMSTYLE
105
AC2
330
A
100
AcDbSymbolTableRecord
100
AcDbDimStyleTableRecord
  2
AM_DIN$SF
 70
     0
  4
"
 41
2.5
 42
1.0
 43
10.0
 44
1.0
 47
0.1
 48
0.1
 73
     0
 74
     0
 75
     1
 76
     1
 77
     1
 78
     8
 79
     2
140
3.5
141
0.0
143
0.0393701
146
0.71
147
1.5
172
     1
176
   256
177
   256
178
     2
271
     2
272
     3
274
     4
283
     0
284
     8
340
11
371
    -1
372
    -1
1001
ACAD_DSTYLE_DIMJOGGED_JOGANGLE_SYMBOL
1070
   384
1040
1.570796326794896
  0
DIMSTYLE
105
AC3
330
A
100
AcDbSymbolTableRecord
100
AcDbDimStyleTableRecord
  2
AM_DIN$SH
 70
     0
  4
"
 41
2.5
 42
1.0
 43
10.0
 44
1.0
 47
0.1
 48
0.1
 73
     0
 74
     0
 75
     1
 76
     1
 77
     1
 78
     8
 79
     2
140
3.5
141
0.0
143
0.0393701
144
2.0
146
0.71
147
1.5
172
     1
173
     1
176
   256
177
   256
178
     2
271
     2
272
     3
274
     4
283
     0
284
     8
340
11
343
87
371
    -1
372
    -1
1001
ACAD_DSTYLE_DIMJOGGED_JOGANGLE_SYMBOL
1070
   384
1040
1.570796326794896
  0
DIMSTYLE
105
204BD
102
{ACAD_REACTORS
330
16B614
330
16B6CD
102
}
330
A
100
AcDbSymbolTableRecord
100
AcDbDimStyleTableRecord
  2
AM_DIN$0
 70
     0
  4
"
 41
65.0
 42
1.0
 43
10.0
 44
25.0
 47
0.1
 48
0.1
 73
     0
 74
     0
 77
     1
 78
     8
 79
     2
140
50.0
141
0.0
143
0.0393701
146
0.71
147
15.0
172
     1
176
   256
177
   256
178
     2
271
     0
272
     0
283
     0
284
     8
340
11
371
    -1
372
    -1
1001
ACAD_DSTYLE_DIMJOGGED_JOGANGLE_SYMBOL
1070
   384
1040
1.570796326794896
  0
DIMSTYLE
105
1688D0
102
{ACAD_REACTORS
330
16891A
102
}
330
A
100
AcDbSymbolTableRecord
100
AcDbDimStyleTableRecord
  2
AM_ANSI
 70
     0
  4
mm
 41
0.12
 42
0.05
 43
0.5
 44
0.1
 47
0.1
 48
0.1
 78
     7
 79
     2
140
0.12
141
0.0
146
0.71
147
0.06
176
   256
177
   256
178
     2
274
     4
284
     7
340
11
371
    -1
372
    -1
1001
ACAD_DSTYLE_DIMJAG
1070
   388
1040
1.5
1001
ACAD_DSTYLE_DIMBREAK
1070
   391
1040
0.125
1001
ACAD_DSTYLE_DIMARC_LENGTH_SYMBOL
1070
   379
1070
     1
1001
ACAD_DSTYLE_DIM_LINETYPE
1070
   380
1005
14
1001
ACAD_DSTYLE_DIM_EXT1_LINETYPE
1070
   381
1005
14
1001
ACAD_DSTYLE_DIM_EXT2_LINETYPE
1070
   382
1005
14
  0
DIMSTYLE
105
1688D1
330
A
100
AcDbSymbolTableRecord
100
AcDbDimStyleTableRecord
  2
AM_ANSI$3
 70
     0
  4
mm
 41
0.12
 42
0.05
 43
0.5
 44
0.1
 47
0.1
 48
0.1
 78
     7
 79
     2
140
0.12
141
0.0
146
0.71
147
0.06
176
   256
177
   256
178
     2
274
     4
284
     7
288
     1
289
     0
340
11
371
    -1
372
    -1
1001
ACAD_DSTYLE_DIMBREAK
1070
   391
1040
0.125
1001
ACAD_DSTYLE_DIMJAG
1070
   388
1040
1.5
1001
ACAD_DSTYLE_DIMARC_LENGTH_SYMBOL
1070
   379
1070
     1
1001
ACAD_DSTYLE_DIM_LINETYPE
1070
   380
1005
14
1001
ACAD_DSTYLE_DIM_EXT1_LINETYPE
1070
   381
1005
14
1001
ACAD_DSTYLE_DIM_EXT2_LINETYPE
1070
   382
1005
14
  0
DIMSTYLE
105
1688D2
330
A
100
AcDbSymbolTableRecord
100
AcDbDimStyleTableRecord
  2
AM_ANSI$4
 70
     0
  4
mm
 41
0.12
 42
0.05
 43
0.5
 44
0.1
 47
0.1
 48
0.1
 78
     7
 79
     2
140
0.12
141
0.0
146
0.71
147
0.06
176
   256
177
   256
178
     2
274
     4
284
     7
288
     1
289
     0
340
11
371
    -1
372
    -1
1001
ACAD_DSTYLE_DIMBREAK
1070
   391
1040
0.125
1001
ACAD_DSTYLE_DIMJAG
1070
   388
1040
1.5
1001
ACAD_DSTYLE_DIMARC_LENGTH_SYMBOL
1070
   379
1070
     1
1001
ACAD_DSTYLE_DIM_LINETYPE
1070
   380
1005
14
1001
ACAD_DSTYLE_DIM_EXT1_LINETYPE
1070
   381
1005
14
1001
ACAD_DSTYLE_DIM_EXT2_LINETYPE
1070
   382
1005
14
  0
DIMSTYLE
105
1688D3
330
A
100
AcDbSymbolTableRecord
100
AcDbDimStyleTableRecord
  2
AM_ANSI$7
 70
     0
  4
mm
 41
0.12
 42
0.05
 43
0.5
 44
0.1
 47
0.1
 48
0.1
 78
     7
 79
     2
140
0.12
141
0.0
146
0.71
147
0.06
176
   256
177
   256
178
     2
274
     4
284
     7
340
11
371
    -1
372
    -1
1001
ACAD_DSTYLE_DIMBREAK
1070
   391
1040
0.125
1001
ACAD_DSTYLE_DIMJAG
1070
   388
1040
1.5
1001
ACAD_DSTYLE_DIMARC_LENGTH_SYMBOL
1070
   379
1070
     1
1001
ACAD_DSTYLE_DIM_LINETYPE
1070
   380
1005
14
1001
ACAD_DSTYLE_DIM_EXT1_LINETYPE
1070
   381
1005
14
1001
ACAD_DSTYLE_DIM_EXT2_LINETYPE
1070
   382
1005
14
  0
DIMSTYLE
105
1688D4
330
A
100
AcDbSymbolTableRecord
100
AcDbDimStyleTableRecord
  2
AM_ANSI$SF
 70
     0
  4
mm
 41
0.12
 42
0.05
 43
0.5
 44
0.1
 47
0.1
 48
0.1
 75
     1
 76
     1
 78
     7
 79
     2
140
0.12
141
0.0
146
0.71
147
0.06
176
   256
177
   256
178
     2
274
     4
284
     7
340
11
371
    -1
372
    -1
1001
ACAD_DSTYLE_DIMBREAK
1070
   391
1040
0.125
1001
ACAD_DSTYLE_DIMJAG
1070
   388
1040
1.5
1001
ACAD_DSTYLE_DIMARC_LENGTH_SYMBOL
1070
   379
1070
     1
1001
ACAD_DSTYLE_DIM_LINETYPE
1070
   380
1005
14
1001
ACAD_DSTYLE_DIM_EXT1_LINETYPE
1070
   381
1005
14
1001
ACAD_DSTYLE_DIM_EXT2_LINETYPE
1070
   382
1005
14
  0
DIMSTYLE
105
1688D5
330
A
100
AcDbSymbolTableRecord
100
AcDbDimStyleTableRecord
  2
AM_ANSI$SH
 70
     0
  4
mm
 41
0.12
 42
0.05
 43
0.5
 44
0.1
 47
0.1
 48
0.1
 75
     1
 76
     1
 78
     7
 79
     2
140
0.12
141
0.0
146
0.71
147
0.06
173
     1
176
   256
177
   256
178
     2
274
     4
284
     7
340
11
343
87
371
    -1
372
    -1
1001
ACAD_DSTYLE_DIMBREAK
1070
   391
1040
0.125
1001
ACAD_DSTYLE_DIMJAG
1070
   388
1040
1.5
1001
ACAD_DSTYLE_DIMARC_LENGTH_SYMBOL
1070
   379
1070
     1
1001
ACAD_DSTYLE_DIM_LINETYPE
1070
   380
1005
14
1001
ACAD_DSTYLE_DIM_EXT1_LINETYPE
1070
   381
1005
14
1001
ACAD_DSTYLE_DIM_EXT2_LINETYPE
1070
   382
1005
14
  0
ENDTAB
  0
TABLE
  2
BLOCK_RECORD
  5
1
330
0
100
AcDbSymbolTable
 70
   101
  0
BLOCK_RECORD
  5
1F
102
{ACAD_XDICTIONARY
360
8F
102
}
330
1
100
AcDbSymbolTableRecord
100
AcDbBlockTableRecord
  2
*Model_Space
340
22
  0
BLOCK_RECORD
  5
1B
330
1
100
AcDbSymbolTableRecord
100
AcDbBlockTableRecord
  2
*Paper_Space
340
1E
  0
BLOCK_RECORD
  5
23
330
1
100
AcDbSymbolTableRecord
100
AcDbBlockTableRecord
  2
*Paper_Space0
340
26
  0
BLOCK_RECORD
  5
87
330
1
100
AcDbSymbolTableRecord
100
AcDbBlockTableRecord
  2
GENAXEH
340
0
  0
BLOCK_RECORD
  5
16B674
330
1
100
AcDbSymbolTableRecord
100
AcDbBlockTableRecord
  2
*D96
340
0
  0
BLOCK_RECORD
  5
16B6CE
330
1
100
AcDbSymbolTableRecord
100
AcDbBlockTableRecord
  2
*D98
340
0
  0
ENDTAB
  0
ENDSEC
  0
SECTION
  2
BLOCKS
  0
BLOCK
  5
20
330
1F
100
AcDbEntity
  8
0
100
AcDbBlockBegin
  2
*Model_Space
 70
     0
 10
0.0
 20
0.0
 30
0.0
  3
*Model_Space
  1

  0
ENDBLK
  5
21
330
1F
100
AcDbEntity
  8
0
100
AcDbBlockEnd
  0
BLOCK
  5
1C
330
1B
100
AcDbEntity
 67
     1
  8
0
100
AcDbBlockBegin
  2
*Paper_Space
 70
     0
 10
0.0
 20
0.0
 30
0.0
  3
*Paper_Space
  1

  0
ENDBLK
  5
1D
330
1B
100
AcDbEntity
 67
     1
  8
0
100
AcDbBlockEnd
  0
BLOCK
  5
24
330
23
100
AcDbEntity
 67
     1
  8
0
100
AcDbBlockBegin
  2
*Paper_Space0
 70
     0
 10
0.0
 20
0.0
 30
0.0
  3
*Paper_Space0
  1

  0
ENDBLK
  5
25
330
23
100
AcDbEntity
 67
     1
  8
0
100
AcDbBlockEnd
  0
BLOCK
  5
89
330
87
100
AcDbEntity
  8
0
100
AcDbBlockBegin
  2
GENAXEH
 70
     0
 10
0.0
 20
0.0
 30
0.0
  3
GENAXEH
  1

  0
LINE
  5
88
330
87
100
AcDbEntity
  8
0
100
AcDbLine
 10
-1.0
 20
0.0
 30
0.0
 11
1.0
 21
0.0
 31
0.0
  0
ENDBLK
  5
8A
330
87
100
AcDbEntity
  8
0
100
AcDbBlockEnd
  0
BLOCK
  5
16B675
330
16B674
100
AcDbEntity
  8
0
100
AcDbBlockBegin
  2
*D96
 70
     1
 10
0.0
 20
0.0
 30
0.0
  3
*D96
  1

  0
LINE
  5
16B739
330
16B674
100
AcDbEntity
  8
AM_5
100
AcDbLine
 10
-39714.84284564454
 20
45246.44735439732
 30
0.0
 11
-39481.6481398792
 21
45246.44735439732
 31
0.0
  0
LINE
  5
16B73A
330
16B674
100
AcDbEntity
  8
AM_5
100
AcDbLine
 10
-39704.34284564453
 20
46254.19735439733
 30
0.0
 11
-39481.6481398792
 21
46254.19735439733
 31
0.0
  0
LINE
  5
16B73B
330
16B674
100
AcDbEntity
  8
AM_5
100
AcDbLine
 10
-39506.6481398792
 20
45281.44735439732
 30
0.0
 11
-39506.6481398792
 21
46219.19735439733
 31
0.0
  0
SOLID
  5
16B73C
330
16B674
100
AcDbEntity
  8
AM_5
100
AcDbTrace
 10
-39512.48147321254
 20
45281.44735439732
 30
0.0
 11
-39500.81480654587
 21
45281.44735439732
 31
0.0
 12
-39506.6481398792
 22
45246.44735439732
 32
0.0
 13
-39506.6481398792
 23
45246.44735439732
 33
0.0
  0
SOLID
  5
16B73D
330
16B674
100
AcDbEntity
  8
AM_5
100
AcDbTrace
 10
-39512.48147321254
 20
46219.19735439733
 30
0.0
 11
-39500.81480654587
 21
46219.19735439733
 31
0.0
 12
-39506.6481398792
 22
46254.19735439733
 32
0.0
 13
-39506.6481398792
 23
46254.19735439733
 33
0.0
  0
MTEXT
  5
16B73E
330
16B674
100
AcDbEntity
  8
AM_5
 62
     2
100
AcDbMText
 10
-39534.51819444947
 20
45721.44735439731
 30
0.0
 40
35.0
 41
0.0
 71
     5
 72
     1
  1
1000
 11
0.0000000000000001
 21
1.0
 31
0.0
 73
     1
 44
1.0
1001
ACAD
1000
MTEXTBEGIN
1070
    73
1070
     1
1070
    44
1040
1.0
1070
    74
1070
     0
1000
MTEXTEND
  0
POINT
  5
16B73F
330
16B674
100
AcDbEntity
  8
DEFPOINTS
 62
     0
100
AcDbPoint
 10
-39715.84284564453
 20
45246.44735439732
 30
0.0
  0
POINT
  5
16B740
330
16B674
100
AcDbEntity
  8
DEFPOINTS
 62
     0
100
AcDbPoint
 10
-39705.34284564454
 20
46254.19735439733
 30
0.0
  0
POINT
  5
16B741
330
16B674
100
AcDbEntity
  8
DEFPOINTS
 62
     0
100
AcDbPoint
 10
-39506.6481398792
 20
46254.19735439733
 30
0.0
  0
ENDBLK
  5
16B676
330
16B674
100
AcDbEntity
  8
0
100
AcDbBlockEnd
  0
BLOCK
  5
16B6CF
330
16B6CE
100
AcDbEntity
  8
0
100
AcDbBlockBegin
  2
*D98
 70
     1
 10
0.0
 20
0.0
 30
0.0
  3
*D98
  1

  0
LINE
  5
16B714
330
16B6CE
100
AcDbEntity
  8
AM_5
100
AcDbLine
 10
-39806.34329683059
 20
46058.85946917104
 30
0.0
 11
-39806.34329683059
 21
45967.54397092828
 31
0.0
  0
LINE
  5
16B715
330
16B6CE
100
AcDbEntity
  8
AM_5
100
AcDbLine
 10
-39654.19072734026
 20
46142.44735439732
 30
0.0
 11
-39654.19072734026
 21
45967.54397092828
 31
0.0
  0
LINE
  5
16B716
330
16B6CE
100
AcDbEntity
  8
AM_5
100
AcDbLine
 10
-39771.34329683059
 20
45992.54397092828
 30
0.0
 11
-39689.19072734026
 21
45992.54397092828
 31
0.0
  0
LINE
  5
16B717
330
16B6CE
100
AcDbEntity
  8
AM_5
100
AcDbLine
 10
-39654.19072734026
 20
45992.54397092828
 30
0.0
 11
-39525.27531124204
 21
45992.54397092828
 31
0.0
  0
SOLID
  5
16B718
330
16B6CE
100
AcDbEntity
  8
AM_5
100
AcDbTrace
 10
-39771.34329683059
 20
45998.37730426162
 30
0.0
 11
-39771.34329683059
 21
45986.71063759494
 31
0.0
 12
-39806.34329683059
 22
45992.54397092828
 32
0.0
 13
-39806.34329683059
 23
45992.54397092828
 33
0.0
  0
SOLID
  5
16B719
330
16B6CE
100
AcDbEntity
  8
AM_5
100
AcDbTrace
 10
-39689.19072734026
 20
45998.37730426162
 30
0.0
 11
-39689.19072734026
 21
45986.71063759494
 31
0.0
 12
-39654.19072734026
 22
45992.54397092828
 32
0.0
 13
-39654.19072734026
 23
45992.54397092828
 33
0.0
  0
MTEXT
  5
16B71A
330
16B6CE
100
AcDbEntity
  8
AM_5
 62
     2
100
AcDbMText
 10
-39572.23301929115
 20
46020.41402549854
 30
0.0
 40
35.0
 41
0.0
 71
     5
 72
     1
  1
150
 73
     1
 44
1.0
1001
ACAD
1000
MTEXTBEGIN
1070
    73
1070
     1
1070
    44
1040
1.0
1070
    74
1070
     0
1000
MTEXTEND
  0
POINT
  5
16B71B
330
16B6CE
100
AcDbEntity
  8
DEFPOINTS
 62
     0
100
AcDbPoint
 10
-39806.34329683059
 20
46059.85946917105
 30
0.0
  0
POINT
  5
16B71C
330
16B6CE
100
AcDbEntity
  8
DEFPOINTS
 62
     0
100
AcDbPoint
 10
-39654.19072734026
 20
46143.44735439732
 30
0.0
  0
POINT
  5
16B71D
330
16B6CE
100
AcDbEntity
  8
DEFPOINTS
 62
     0
100
AcDbPoint
 10
-39654.19072734026
 20
45992.54397092828
 30
0.0
  0
ENDBLK
  5
16B6D0
330
16B6CE
100
AcDbEntity
  8
0
100
AcDbBlockEnd
  0
ENDSEC
  0
SECTION
  2
ENTITIES
  0
LINE
  5
16B398
330
1F
100
AcDbEntity
  8
AM_0
100
AcDbLine
 10
-39745.84284564453
 20
45364.44735439732
 30
0.0
 11
-39745.84284564453
 21
45262.69735439732
 31
0.0
  0
LINE
  5
16B399
330
1F
100
AcDbEntity
  8
AM_0
100
AcDbLine
 10
-39745.84284564453
 20
45261.19735439732
 30
0.0
 11
-39745.84284564453
 21
45246.44735439732
 31
0.0
  0
LINE
  5
16B39A
330
1F
100
AcDbEntity
  8
AM_0
100
AcDbLine
 10
-39745.84284564453
 20
45246.44735439732
 30
0.0
 11
-39715.84284564453
 21
45246.44735439732
 31
0.0
  0
LINE
  5
16B39B
102
{ACAD_REACTORS
330
16B616
102
}
330
1F
100
AcDbEntity
  8
AM_0
100
AcDbLine
 10
-39715.84284564453
 20
45246.44735439732
 30
0.0
 11
-39715.84284564453
 21
45261.19735439732
 31
0.0
  0
LINE
  5
16B39C
330
1F
100
AcDbEntity
  8
AM_0
100
AcDbLine
 10
-39715.84284564453
 20
45262.69735439732
 30
0.0
 11
-39715.84284564453
 21
45364.44735439732
 31
0.0
  0
LINE
  5
16B39D
330
1F
100
AcDbEntity
  8
AM_0
100
AcDbLine
 10
-39736.84284564453
 20
45246.44735439732
 30
0.0
 11
-39736.84284564453
 21
45335.94735439732
 31
0.0
  0
LINE
  5
16B39E
330
1F
100
AcDbEntity
  8
AM_0
100
AcDbLine
 10
-39736.84284564453
 20
45335.94735439732
 30
0.0
 11
-39724.84284564453
 21
45335.94735439732
 31
0.0
  0
LINE
  5
16B39F
330
1F
100
AcDbEntity
  8
AM_0
100
AcDbLine
 10
-39724.84284564453
 20
45335.94735439732
 30
0.0
 11
-39724.84284564453
 21
45246.44735439732
 31
0.0
  0
LINE
  5
16B3A0
330
1F
100
AcDbEntity
  8
AM_0
100
AcDbLine
 10
-39745.09284564454
 20
45261.94735439732
 30
0.0
 11
-39736.84284564453
 21
45261.94735439732
 31
0.0
  0
LINE
  5
16B3A1
330
1F
100
AcDbEntity
  8
AM_0
100
AcDbLine
 10
-39724.84284564453
 20
45261.94735439732
 30
0.0
 11
-39716.59284564453
 21
45261.94735439732
 31
0.0
  0
LINE
  5
16B3A2
330
1F
100
AcDbEntity
  8
AM_0
100
AcDbLine
 10
-39745.84284564453
 20
45261.19735439732
 30
0.0
 11
-39736.84284564453
 21
45261.19735439732
 31
0.0
  0
LINE
  5
16B3A3
330
1F
100
AcDbEntity
  8
AM_0
100
AcDbLine
 10
-39724.84284564453
 20
45261.19735439732
 30
0.0
 11
-39715.84284564453
 21
45261.19735439732
 31
0.0
  0
LINE
  5
16B3A4
330
1F
100
AcDbEntity
  8
AM_0
100
AcDbLine
 10
-39745.84284564453
 20
45262.69735439732
 30
0.0
 11
-39736.84284564453
 21
45262.69735439732
 31
0.0
  0
LINE
  5
16B3A5
330
1F
100
AcDbEntity
  8
AM_0
100
AcDbLine
 10
-39724.84284564453
 20
45262.69735439732
 30
0.0
 11
-39715.84284564453
 21
45262.69735439732
 31
0.0
  0
LINE
  5
16B3A6
330
1F
100
AcDbEntity
  8
AM_0
100
AcDbLine
 10
-39745.84284564453
 20
45262.69735439732
 30
0.0
 11
-39745.09284564454
 21
45261.94735439732
 31
0.0
  0
LINE
  5
16B3A7
330
1F
100
AcDbEntity
  8
AM_0
100
AcDbLine
 10
-39745.09284564454
 20
45261.94735439732
 30
0.0
 11
-39745.84284564453
 21
45261.19735439732
 31
0.0
  0
LINE
  5
16B3A8
330
1F
100
AcDbEntity
  8
AM_0
100
AcDbLine
 10
-39715.84284564453
 20
45262.69735439732
 30
0.0
 11
-39716.59284564454
 21
45261.94735439732
 31
0.0
  0
LINE
  5
16B3A9
330
1F
100
AcDbEntity
  8
AM_0
100
AcDbLine
 10
-39716.59284564454
 20
45261.94735439732
 30
0.0
 11
-39715.84284564453
 21
45261.19735439732
 31
0.0
  0
CIRCLE
  5
16B3AA
330
1F
100
AcDbEntity
  8
AM_0
100
AcDbCircle
 10
-39730.84284564453
 20
45256.44735439732
 30
0.0
 40
3.75
  0
CIRCLE
  5
16B3AB
330
1F
100
AcDbEntity
  8
AM_0
100
AcDbCircle
 10
-39730.84284564453
 20
45271.44735439732
 30
0.0
 40
3.75
  0
CIRCLE
  5
16B3AC
330
1F
100
AcDbEntity
  8
AM_0
100
AcDbCircle
 10
-39730.84284564453
 20
45286.44735439732
 30
0.0
 40
3.75
  0
CIRCLE
  5
16B3AD
330
1F
100
AcDbEntity
  8
AM_0
100
AcDbCircle
 10
-39730.84284564453
 20
45301.44735439732
 30
0.0
 40
3.75
  0
CIRCLE
  5
16B3AE
330
1F
100
AcDbEntity
  8
AM_0
100
AcDbCircle
 10
-39730.84284564453
 20
45316.44735439732
 30
0.0
 40
3.75
  0
LINE
  5
16B3AF
330
1F
100
AcDbEntity
  8
AM_0
100
AcDbLine
 10
-39747.09284564454
 20
45364.44735439732
 30
0.0
 11
-39714.59284564454
 21
45364.44735439732
 31
0.0
  0
LINE
  5
16B3B0
330
1F
100
AcDbEntity
  8
AM_0
100
AcDbLine
 10
-39714.59284564454
 20
46196.44735439731
 30
0.0
 11
-39747.09284564454
 21
46196.44735439731
 31
0.0
  0
LINE
  5
16B3B1
330
1F
100
AcDbEntity
  8
AM_0
100
AcDbLine
 10
-39747.09284564454
 20
46196.44735439731
 30
0.0
 11
-39747.09284564454
 21
46176.44735439731
 31
0.0
  0
LINE
  5
16B3B2
330
1F
100
AcDbEntity
  8
AM_0
100
AcDbLine
 10
-39747.09284564454
 20
46077.44735439731
 30
0.0
 11
-39747.09284564454
 21
45955.17401482626
 31
0.0
  0
LINE
  5
16B3B3
330
1F
100
AcDbEntity
  8
AM_0
100
AcDbLine
 10
-39747.09284564454
 20
45876.27380671593
 30
0.0
 11
-39747.09284564454
 21
45607.19735439731
 31
0.0
  0
LINE
  5
16B3B4
330
1F
100
AcDbEntity
  8
AM_0
100
AcDbLine
 10
-39747.09284564454
 20
45605.69735439732
 30
0.0
 11
-39747.09284564454
 21
45487.19735439732
 31
0.0
  0
LINE
  5
16B3B5
330
1F
100
AcDbEntity
  8
AM_0
100
AcDbLine
 10
-39747.09284564454
 20
45485.69735439732
 30
0.0
 11
-39747.09284564454
 21
45432.19735439732
 31
0.0
  0
LINE
  5
16B3B6
330
1F
100
AcDbEntity
  8
AM_0
100
AcDbLine
 10
-39747.09284564454
 20
45430.69735439732
 30
0.0
 11
-39747.09284564454
 21
45364.44735439732
 31
0.0
  0
LINE
  5
16B3B7
330
1F
100
AcDbEntity
  8
AM_0
100
AcDbLine
 10
-39714.59284564454
 20
45364.44735439732
 30
0.0
 11
-39714.59284564454
 21
45430.69735439732
 31
0.0
  0
LINE
  5
16B3B8
330
1F
100
AcDbEntity
  8
AM_0
100
AcDbLine
 10
-39714.59284564454
 20
45432.19735439732
 30
0.0
 11
-39714.59284564454
 21
45485.69735439732
 31
0.0
  0
LINE
  5
16B3B9
330
1F
100
AcDbEntity
  8
AM_0
100
AcDbLine
 10
-39714.59284564454
 20
45487.19735439732
 30
0.0
 11
-39714.59284564453
 21
45605.69735439732
 31
0.0
  0
LINE
  5
16B3BA
330
1F
100
AcDbEntity
  8
AM_0
100
AcDbLine
 10
-39714.59284564454
 20
45607.19735439731
 30
0.0
 11
-39714.59284564454
 21
45876.27380671593
 31
0.0
  0
LINE
  5
16B3BB
330
1F
100
AcDbEntity
  8
AM_0
100
AcDbLine
 10
-39714.59284564454
 20
45955.17401482625
 30
0.0
 11
-39714.59284564454
 21
46077.44735439731
 31
0.0
  0
LINE
  5
16B3BC
330
1F
100
AcDbEntity
  8
AM_0
100
AcDbLine
 10
-39714.59284564454
 20
46176.44735439731
 30
0.0
 11
-39714.59284564454
 21
46196.44735439731
 31
0.0
  0
LINE
  5
16B3BD
330
1F
100
AcDbEntity
  8
anbauteile dünn
100
AcDbLine
 10
-39752.34284564456
 20
45955.17401482626
 30
0.0
 11
-39709.34284564456
 21
45955.17401482625
 31
0.0
  0
LINE
  5
16B3BE
330
1F
100
AcDbEntity
  8
anbauteile dünn
100
AcDbLine
 10
-39709.34284564456
 20
45947.17401482627
 30
0.0
 11
-39752.34284564456
 21
45947.17401482627
 31
0.0
  0
LINE
  5
16B3BF
330
1F
100
AcDbEntity
  8
anbauteile dünn
100
AcDbLine
 10
-39745.34284564456
 20
45953.92401482626
 30
0.0
 11
-39745.34284564456
 21
45948.42401482626
 31
0.0
  0
LINE
  5
16B3C0
330
1F
100
AcDbEntity
  8
anbauteile dünn
100
AcDbLine
 10
-39716.34284564456
 20
45953.92401482626
 30
0.0
 11
-39716.34284564456
 21
45948.42401482626
 31
0.0
  0
LINE
  5
16B3C1
330
1F
100
AcDbEntity
  8
anbauteile dünn
100
AcDbLine
 10
-39759.34284564456
 20
45953.92401482626
 30
0.0
 11
-39759.34284564456
 21
45948.42401482626
 31
0.0
  0
LINE
  5
16B3C2
330
1F
100
AcDbEntity
  8
anbauteile dünn
100
AcDbLine
 10
-39702.34284564456
 20
45953.92401482626
 30
0.0
 11
-39702.34284564456
 21
45948.42401482626
 31
0.0
  0
ARC
  5
16B3C3
330
1F
100
AcDbEntity
  8
anbauteile dünn
100
AcDbCircle
 10
-39730.84284564457
 20
45870.44901482626
 30
0.0
 40
84.72499999999856
100
AcDbArc
 50
80.14578010471314
 51
99.85421989528688
  0
ARC
  5
16B3C4
330
1F
100
AcDbEntity
  8
anbauteile dünn
100
AcDbCircle
 10
-39752.34284564456
 20
45934.94901482626
 30
0.0
 40
20.22499999999864
100
AcDbArc
 50
69.75065668920703
 51
110.2493433107929
  0
ARC
  5
16B3C5
330
1F
100
AcDbEntity
  8
anbauteile dünn
100
AcDbCircle
 10
-39709.34284564456
 20
45934.94901482626
 30
0.0
 40
20.22499999999864
100
AcDbArc
 50
69.75065668948508
 51
110.2493433105149
  0
ARC
  5
16B3C6
330
1F
100
AcDbEntity
  8
anbauteile dünn
100
AcDbCircle
 10
-39730.84284564457
 20
46031.89901482625
 30
0.0
 40
84.72499999999856
100
AcDbArc
 50
260.1457801046603
 51
279.8542198953397
  0
ARC
  5
16B3C7
330
1F
100
AcDbEntity
  8
anbauteile dünn
100
AcDbCircle
 10
-39752.34284564456
 20
45967.39901482625
 30
0.0
 40
20.22499999999864
100
AcDbArc
 50
249.750656689346
 51
290.249343310654
  0
ARC
  5
16B3C8
330
1F
100
AcDbEntity
  8
anbauteile dünn
100
AcDbCircle
 10
-39709.34284564456
 20
45967.39901482625
 30
0.0
 40
20.22499999999864
100
AcDbArc
 50
249.7506566895683
 51
290.2493433104317
  0
LINE
  5
16B3C9
330
1F
100
AcDbEntity
  8
anbauteile dünn
100
AcDbLine
 10
-39752.34284564459
 20
45936.17401482626
 30
0.0
 11
-39709.34284564459
 21
45936.17401482625
 31
0.0
  0
LINE
  5
16B3CA
330
1F
100
AcDbEntity
  8
anbauteile dünn
100
AcDbLine
 10
-39709.34284564459
 20
45928.17401482627
 30
0.0
 11
-39752.34284564459
 21
45928.17401482627
 31
0.0
  0
LINE
  5
16B3CB
330
1F
100
AcDbEntity
  8
anbauteile dünn
100
AcDbLine
 10
-39745.34284564459
 20
45934.92401482626
 30
0.0
 11
-39745.34284564459
 21
45929.42401482626
 31
0.0
  0
LINE
  5
16B3CC
330
1F
100
AcDbEntity
  8
anbauteile dünn
100
AcDbLine
 10
-39716.34284564459
 20
45934.92401482626
 30
0.0
 11
-39716.34284564459
 21
45929.42401482626
 31
0.0
  0
LINE
  5
16B3CD
330
1F
100
AcDbEntity
  8
anbauteile dünn
100
AcDbLine
 10
-39759.34284564459
 20
45934.92401482626
 30
0.0
 11
-39759.34284564459
 21
45929.42401482626
 31
0.0
  0
LINE
  5
16B3CE
330
1F
100
AcDbEntity
  8
anbauteile dünn
100
AcDbLine
 10
-39702.34284564459
 20
45934.92401482626
 30
0.0
 11
-39702.34284564459
 21
45929.42401482626
 31
0.0
  0
ARC
  5
16B3CF
330
1F
100
AcDbEntity
  8
anbauteile dünn
100
AcDbCircle
 10
-39730.84284564459
 20
45851.44901482626
 30
0.0
 40
84.72499999999856
100
AcDbArc
 50
80.14578010471314
 51
99.85421989528688
  0
ARC
  5
16B3D0
330
1F
100
AcDbEntity
  8
anbauteile dünn
100
AcDbCircle
 10
-39752.34284564459
 20
45915.94901482626
 30
0.0
 40
20.22499999999864
100
AcDbArc
 50
69.75065668920703
 51
110.2493433107929
  0
ARC
  5
16B3D1
330
1F
100
AcDbEntity
  8
anbauteile dünn
100
AcDbCircle
 10
-39709.34284564459
 20
45915.94901482626
 30
0.0
 40
20.22499999999864
100
AcDbArc
 50
69.75065668948508
 51
110.2493433105149
  0
ARC
  5
16B3D2
330
1F
100
AcDbEntity
  8
anbauteile dünn
100
AcDbCircle
 10
-39730.84284564459
 20
46012.89901482625
 30
0.0
 40
84.72499999999856
100
AcDbArc
 50
260.1457801046603
 51
279.8542198953397
  0
ARC
  5
16B3D3
330
1F
100
AcDbEntity
  8
anbauteile dünn
100
AcDbCircle
 10
-39752.34284564459
 20
45948.39901482626
 30
0.0
 40
20.22499999999864
100
AcDbArc
 50
249.750656689346
 51
290.249343310654
  0
ARC
  5
16B3D4
330
1F
100
AcDbEntity
  8
anbauteile dünn
100
AcDbCircle
 10
-39709.34284564459
 20
45948.39901482626
 30
0.0
 40
20.22499999999864
100
AcDbArc
 50
249.7506566895683
 51
290.2493433104317
  0
LINE
  5
16B3D5
330
1F
100
AcDbEntity
  8
anbauteile dünn
100
AcDbLine
 10
-39757.84284564459
 20
45912.42401482626
 30
0.0
 11
-39757.84284564459
 21
45906.92401482626
 31
0.0
  0
ARC
  5
16B3D6
330
1F
100
AcDbEntity
  8
anbauteile dünn
100
AcDbCircle
 10
-39730.84284564459
 20
45690.55156016491
 30
0.0
 40
222.1207692617926
100
AcDbArc
 50
87.29052816291924
 51
92.70947183708077
  0
ARC
  5
16B3D7
330
1F
100
AcDbEntity
  8
anbauteile dünn
100
AcDbCircle
 10
-39752.59284564458
 20
45875.01505960874
 30
0.0
 40
37.7755533442721
100
AcDbArc
 50
82.01124352032522
 51
97.98875647967477
  0
ARC
  5
16B3D8
330
1F
100
AcDbEntity
  8
anbauteile dünn
100
AcDbCircle
 10
-39730.84284564458
 20
46128.79646949414
 30
0.0
 40
222.1207692683194
100
AcDbArc
 50
267.2905281629974
 51
272.7094718370025
  0
ARC
  5
16B3D9
330
1F
100
AcDbEntity
  8
anbauteile dünn
100
AcDbCircle
 10
-39752.59284564461
 20
45944.33297004404
 30
0.0
 40
37.775553344543
100
AcDbArc
 50
262.0112435204833
 51
277.9887564796486
  0
LINE
  5
16B3DA
330
1F
100
AcDbEntity
  8
anbauteile dünn
100
AcDbLine
 10
-39747.34284564458
 20
45912.42401482626
 30
0.0
 11
-39747.34284564458
 21
45906.92401482626
 31
0.0
  0
LINE
  5
16B3DB
330
1F
100
AcDbEntity
  8
anbauteile dünn
100
AcDbLine
 10
-39703.84284564458
 20
45912.42401482626
 30
0.0
 11
-39703.84284564458
 21
45906.92401482626
 31
0.0
  0
ARC
  5
16B3DC
330
1F
100
AcDbEntity
  8
anbauteile dünn
100
AcDbCircle
 10
-39709.09284564458
 20
45875.01505960874
 30
0.0
 40
37.7755533442721
100
AcDbArc
 50
82.01124352050943
 51
97.98875647949058
  0
ARC
  5
16B3DD
330
1F
100
AcDbEntity
  8
anbauteile dünn
100
AcDbCircle
 10
-39709.09284564456
 20
45944.33297004404
 30
0.0
 40
37.775553344543
100
AcDbArc
 50
262.0112435205094
 51
277.9887564794905
  0
LINE
  5
16B3DE
330
1F
100
AcDbEntity
  8
anbauteile dünn
100
AcDbLine
 10
-39714.34284564459
 20
45912.42401482626
 30
0.0
 11
-39714.34284564459
 21
45906.92401482626
 31
0.0
  0
LINE
  5
16B3DF
330
1F
100
AcDbEntity
  8
anbauteile dünn
100
AcDbLine
 10
-39720.34284564458
 20
45912.42401482626
 30
0.0
 11
-39720.34284564458
 21
45906.92401482626
 31
0.0
  0
LINE
  5
16B3E0
330
1F
100
AcDbEntity
  8
anbauteile dünn
100
AcDbLine
 10
-39741.34284564458
 20
45912.42401482626
 30
0.0
 11
-39741.34284564458
 21
45906.92401482626
 31
0.0
  0
LINE
  5
16B3E1
330
1F
100
AcDbEntity
  8
anbauteile dünn
100
AcDbLine
 10
-39752.59284564458
 20
45912.79061295302
 30
0.0
 11
-39709.09284564458
 21
45912.79061295302
 31
0.0
  0
LINE
  5
16B3E2
330
1F
100
AcDbEntity
  8
anbauteile dünn
100
AcDbLine
 10
-39752.59284564455
 20
45906.5574166995
 30
0.0
 11
-39709.09284564456
 21
45906.5574166995
 31
0.0
  0
ARC
  5
16B3E3
330
1F
100
AcDbEntity
  8
anbauteile dünn
100
AcDbCircle
 10
-39744.34284564459
 20
45900.33229208352
 30
0.0
 40
12.45832086948962
100
AcDbArc
 50
76.06606602285004
 51
103.93393397715
  0
ARC
  5
16B3E4
330
1F
100
AcDbEntity
  8
anbauteile dünn
100
AcDbCircle
 10
-39744.34284564459
 20
45919.01573756899
 30
0.0
 40
12.45832086948962
100
AcDbArc
 50
256.0660660229298
 51
283.9339339770702
  0
ARC
  5
16B3E5
330
1F
100
AcDbEntity
  8
anbauteile dünn
100
AcDbCircle
 10
-39717.34284564459
 20
45900.33229208352
 30
0.0
 40
12.45832086948962
100
AcDbArc
 50
76.06606602287619
 51
103.9339339771238
  0
ARC
  5
16B3E6
330
1F
100
AcDbEntity
  8
anbauteile dünn
100
AcDbCircle
 10
-39717.34284564459
 20
45919.01573756899
 30
0.0
 40
12.45832086948962
100
AcDbArc
 50
256.0660660228764
 51
283.9339339771235
  0
LINE
  5
16B3E7
330
1F
100
AcDbEntity
  8
anbauteile dünn
100
AcDbLine
 10
-39755.84284564459
 20
45912.79061295302
 30
0.0
 11
-39755.84284564459
 21
45926.29061295301
 31
0.0
  0
LINE
  5
16B3E8
330
1F
100
AcDbEntity
  8
anbauteile dünn
100
AcDbLine
 10
-39755.84284564459
 20
45926.29061295301
 30
0.0
 11
-39705.84284564458
 21
45926.29061295301
 31
0.0
  0
LINE
  5
16B3E9
330
1F
100
AcDbEntity
  8
anbauteile dünn
100
AcDbLine
 10
-39705.84284564458
 20
45926.29061295301
 30
0.0
 11
-39705.84284564459
 21
45912.79061295302
 31
0.0
  0
LINE
  5
16B3EA
330
1F
100
AcDbEntity
  8
anbauteile dünn
100
AcDbLine
 10
-39753.84284564459
 20
45926.29061295301
 30
0.0
 11
-39753.84284564459
 21
45928.17401482625
 31
0.0
  0
LINE
  5
16B3EB
330
1F
100
AcDbEntity
  8
anbauteile dünn
100
AcDbLine
 10
-39707.84284564459
 20
45926.29061295301
 30
0.0
 11
-39707.84284564459
 21
45928.17401482625
 31
0.0
  0
LINE
  5
16B3EC
330
1F
100
AcDbEntity
  8
anbauteile dünn
100
AcDbLine
 10
-39750.59284564455
 20
45905.05741669949
 30
0.0
 11
-39750.59284564455
 21
45895.30741669949
 31
0.0
  0
LINE
  5
16B3ED
330
1F
100
AcDbEntity
  8
anbauteile dünn
100
AcDbLine
 10
-39749.84284564456
 20
45906.5574166995
 30
0.0
 11
-39749.84284564456
 21
45894.5574166995
 31
0.0
  0
LINE
  5
16B3EE
330
1F
100
AcDbEntity
  8
anbauteile dünn
100
AcDbLine
 10
-39749.84284564456
 20
45894.55741669951
 30
0.0
 11
-39711.84284564456
 21
45894.55741669949
 31
0.0
  0
LINE
  5
16B3EF
330
1F
100
AcDbEntity
  8
anbauteile dünn
100
AcDbLine
 10
-39750.59284564455
 20
45895.3074166995
 30
0.0
 11
-39711.09284564456
 21
45895.3074166995
 31
0.0
  0
LINE
  5
16B3F0
330
1F
100
AcDbEntity
  8
anbauteile dünn
100
AcDbLine
 10
-39711.09284564456
 20
45895.30741669949
 30
0.0
 11
-39711.09284564455
 21
45905.05741669949
 31
0.0
  0
LINE
  5
16B3F1
330
1F
100
AcDbEntity
  8
anbauteile dünn
100
AcDbLine
 10
-39711.84284564456
 20
45894.5574166995
 30
0.0
 11
-39711.84284564455
 21
45906.5574166995
 31
0.0
  0
LINE
  5
16B3F2
330
1F
100
AcDbEntity
  8
anbauteile dünn
100
AcDbLine
 10
-39711.09284564455
 20
45905.05741669949
 30
0.0
 11
-39750.59284564455
 21
45905.05741669949
 31
0.0
  0
LINE
  5
16B3F3
330
1F
100
AcDbEntity
  8
anbauteile dünn
100
AcDbLine
 10
-39750.59284564455
 20
45895.3074166995
 30
0.0
 11
-39749.84284564456
 21
45894.5574166995
 31
0.0
  0
LINE
  5
16B3F4
330
1F
100
AcDbEntity
  8
anbauteile dünn
100
AcDbLine
 10
-39711.84284564456
 20
45894.5574166995
 30
0.0
 11
-39711.09284564456
 21
45895.3074166995
 31
0.0
  0
LINE
  5
16B3F5
330
1F
100
AcDbEntity
  8
anbauteile dünn
100
AcDbLine
 10
-39752.34284564456
 20
45884.27380671591
 30
0.0
 11
-39709.34284564456
 21
45884.2738067159
 31
0.0
  0
LINE
  5
16B3F6
330
1F
100
AcDbEntity
  8
anbauteile dünn
100
AcDbLine
 10
-39709.34284564456
 20
45876.27380671592
 30
0.0
 11
-39752.34284564456
 21
45876.27380671592
 31
0.0
  0
LINE
  5
16B3F7
330
1F
100
AcDbEntity
  8
anbauteile dünn
100
AcDbLine
 10
-39745.34284564456
 20
45883.0238067159
 30
0.0
 11
-39745.34284564456
 21
45877.52380671591
 31
0.0
  0
LINE
  5
16B3F8
330
1F
100
AcDbEntity
  8
anbauteile dünn
100
AcDbLine
 10
-39716.34284564456
 20
45883.0238067159
 30
0.0
 11
-39716.34284564456
 21
45877.52380671591
 31
0.0
  0
LINE
  5
16B3F9
330
1F
100
AcDbEntity
  8
anbauteile dünn
100
AcDbLine
 10
-39759.34284564456
 20
45883.0238067159
 30
0.0
 11
-39759.34284564456
 21
45877.52380671591
 31
0.0
  0
LINE
  5
16B3FA
330
1F
100
AcDbEntity
  8
anbauteile dünn
100
AcDbLine
 10
-39702.34284564456
 20
45883.0238067159
 30
0.0
 11
-39702.34284564456
 21
45877.52380671591
 31
0.0
  0
ARC
  5
16B3FB
330
1F
100
AcDbEntity
  8
anbauteile dünn
100
AcDbCircle
 10
-39730.84284564457
 20
45799.54880671591
 30
0.0
 40
84.72499999999856
100
AcDbArc
 50
80.14578010471314
 51
99.85421989528688
  0
ARC
  5
16B3FC
330
1F
100
AcDbEntity
  8
anbauteile dünn
100
AcDbCircle
 10
-39752.34284564456
 20
45864.04880671591
 30
0.0
 40
20.22499999999864
100
AcDbArc
 50
69.75065668920703
 51
110.2493433107929
  0
ARC
  5
16B3FD
330
1F
100
AcDbEntity
  8
anbauteile dünn
100
AcDbCircle
 10
-39709.34284564456
 20
45864.04880671591
 30
0.0
 40
20.22499999999864
100
AcDbArc
 50
69.75065668948509
 51
110.2493433105149
  0
ARC
  5
16B3FE
330
1F
100
AcDbEntity
  8
anbauteile dünn
100
AcDbCircle
 10
-39730.84284564457
 20
45960.9988067159
 30
0.0
 40
84.72499999999856
100
AcDbArc
 50
260.1457801046603
 51
279.8542198953397
  0
ARC
  5
16B3FF
330
1F
100
AcDbEntity
  8
anbauteile dünn
100
AcDbCircle
 10
-39752.34284564456
 20
45896.49880671591
 30
0.0
 40
20.22499999999864
100
AcDbArc
 50
249.750656689346
 51
290.2493433106539
  0
ARC
  5
16B400
330
1F
100
AcDbEntity
  8
anbauteile dünn
100
AcDbCircle
 10
-39709.34284564456
 20
45896.49880671591
 30
0.0
 40
20.22499999999864
100
AcDbArc
 50
249.7506566895683
 51
290.2493433104317
  0
LWPOLYLINE
  5
16B401
330
1F
100
AcDbEntity
  8
anbauteile dünn
100
AcDbPolyline
 90
        2
 70
     0
 43
0.0
 10
-39708.09284564456
 20
45936.42401482626
 10
-39753.59284564456
 20
45936.42401482626
1001
GENIUS_GENREC_14
1002
{
1000
PYDIR
1011
-39758.84284564456
1021
45936.42401482626
1031
0.0
1002
}
1002
{
1000
PXDIR
1011
-39702.84284564456
1021
45946.92401482626
1031
0.0
1002
}
1002
{
1000
PORI
1011
-39758.84284564456
1021
45946.92401482626
1031
0.0
1002
}
1002
{
1000
PINS
1011
-39758.84284564456
1021
45946.92401482626
1031
0.0
1002
}
1002
{
1000
PINS2
1011
-39702.84284564456
1021
45936.42401482626
1031
0.0
1002
}
1002
{
1000
C
1070
     1
1002
}
1001
GENIUS_GENOBJ-N-REC_13
1002
{
1000
OWNER
1000
GEN
1002
}
1001
GENIUS_GENODEF_13
1002
{
1000
HIER
1070
     0
1002
}
1002
{
1000
MANEDIT
1070
     0
1002
}
1002
{
1000
NOSEL
1070
     0
1002
}
1002
{
1000
BEHIND
1070
     0
1002
}
1002
{
1000
OTHER
1070
     0
1002
}
1002
{
1000
REACTOR
1002
}
  0
LWPOLYLINE
  5
16B402
330
1F
100
AcDbEntity
  8
anbauteile dünn
100
AcDbPolyline
 90
        2
 70
     0
 43
0.0
 10
-39753.59284564456
 20
45946.92401482626
 10
-39708.09284564456
 20
45946.92401482626
1001
GENIUS_GENREC_14
1002
{
1000
PYDIR
1011
-39758.84284564456
1021
45936.42401482626
1031
0.0
1002
}
1002
{
1000
PXDIR
1011
-39702.84284564456
1021
45946.92401482626
1031
0.0
1002
}
1002
{
1000
PORI
1011
-39758.84284564456
1021
45946.92401482626
1031
0.0
1002
}
1002
{
1000
PINS
1011
-39758.84284564456
1021
45946.92401482626
1031
0.0
1002
}
1002
{
1000
PINS2
1011
-39702.84284564456
1021
45936.42401482626
1031
0.0
1002
}
1002
{
1000
C
1070
     1
1002
}
1001
GENIUS_GENOBJ-N-REC_13
1002
{
1000
OWNER
1000
GEN
1002
}
1001
GENIUS_GENODEF_13
1002
{
1000
HIER
1070
     0
1002
}
1002
{
1000
MANEDIT
1070
     0
1002
}
1002
{
1000
NOSEL
1070
     0
1002
}
1002
{
1000
BEHIND
1070
     0
1002
}
1002
{
1000
OTHER
1070
     0
1002
}
1002
{
1000
REACTOR
1002
}
  0
ARC
  5
16B403
330
1F
100
AcDbEntity
  8
anbauteile dünn
100
AcDbCircle
 10
-39753.59284564456
 20
45941.67401482626
 30
0.0
 40
5.25
100
AcDbArc
 50
90.0
 51
270.0
  0
ARC
  5
16B404
330
1F
100
AcDbEntity
  8
anbauteile dünn
100
AcDbCircle
 10
-39708.09284564456
 20
45941.67401482626
 30
0.0
 40
5.25
100
AcDbArc
 50
270.0
 51
90.0
  0
CIRCLE
  5
16B405
330
1F
100
AcDbEntity
  8
anbauteile dünn
100
AcDbCircle
 10
-39753.84284564457
 20
45941.67401482626
 30
0.0
 40
4.45
  0
ARC
  5
16B406
330
1F
100
AcDbEntity
  8
anbauteile dünn
100
AcDbCircle
 10
-39752.17243087253
 20
45943.3444295983
 30
0.0
 40
1.26
100
AcDbArc
 50
204.6243183521555
 51
245.3756816478441
  0
ARC
  5
16B407
330
1F
100
AcDbEntity
  8
anbauteile dünn
100
AcDbCircle
 10
-39752.17243087253
 20
45940.00360005422
 30
0.0
 40
1.26
100
AcDbArc
 50
114.6243183521558
 51
155.3756816478444
  0
ARC
  5
16B408
330
1F
100
AcDbEntity
  8
anbauteile dünn
100
AcDbCircle
 10
-39753.84284564457
 20
45941.67401482626
 30
0.0
 40
1.26
100
AcDbArc
 50
335.3756816478445
 51
24.62431835215555
  0
ARC
  5
16B409
330
1F
100
AcDbEntity
  8
anbauteile dünn
100
AcDbCircle
 10
-39755.5132604166
 20
45940.00360005422
 30
0.0
 40
1.26
100
AcDbArc
 50
24.62431835215555
 51
65.37568164784413
  0
ARC
  5
16B40A
330
1F
100
AcDbEntity
  8
anbauteile dünn
100
AcDbCircle
 10
-39755.5132604166
 20
45943.3444295983
 30
0.0
 40
1.26
100
AcDbArc
 50
294.6243183521559
 51
335.3756816478445
  0
ARC
  5
16B40B
330
1F
100
AcDbEntity
  8
anbauteile dünn
100
AcDbCircle
 10
-39753.84284564457
 20
45941.67401482626
 30
0.0
 40
1.26
100
AcDbArc
 50
155.3756816478444
 51
204.6243183521555
  0
ARC
  5
16B40C
330
1F
100
AcDbEntity
  8
anbauteile dünn
100
AcDbCircle
 10
-39753.84284564457
 20
45941.67401482626
 30
0.0
 40
1.26
100
AcDbArc
 50
245.3756816478441
 51
294.6243183521559
  0
ARC
  5
16B40D
330
1F
100
AcDbEntity
  8
anbauteile dünn
100
AcDbCircle
 10
-39753.84284564457
 20
45941.67401482626
 30
0.0
 40
1.26
100
AcDbArc
 50
65.37568164784413
 51
114.6243183521558
  0
LINE
  5
16B40E
330
1F
100
AcDbEntity
  8
anbauteile dünn
100
AcDbLine
 10
-39754.36784564457
 20
45944.54401482626
 30
0.0
 11
-39753.31784564456
 21
45944.54401482626
 31
0.0
  0
LINE
  5
16B40F
330
1F
100
AcDbEntity
  8
anbauteile dünn
100
AcDbLine
 10
-39754.36784564457
 20
45938.80401482626
 30
0.0
 11
-39753.31784564456
 21
45938.80401482626
 31
0.0
  0
LINE
  5
16B410
330
1F
100
AcDbEntity
  8
anbauteile dünn
100
AcDbLine
 10
-39754.36784564457
 20
45942.81942959829
 30
0.0
 11
-39754.36784564457
 21
45944.54401482626
 31
0.0
  0
LINE
  5
16B411
330
1F
100
AcDbEntity
  8
anbauteile dünn
100
AcDbLine
 10
-39754.36784564457
 20
45940.52860005422
 30
0.0
 11
-39754.36784564457
 21
45938.80401482626
 31
0.0
  0
LINE
  5
16B412
330
1F
100
AcDbEntity
  8
anbauteile dünn
100
AcDbLine
 10
-39750.97284564456
 20
45941.14901482626
 30
0.0
 11
-39750.97284564456
 21
45942.19901482626
 31
0.0
  0
LINE
  5
16B413
330
1F
100
AcDbEntity
  8
anbauteile dünn
100
AcDbLine
 10
-39753.31784564456
 20
45942.81942959829
 30
0.0
 11
-39753.31784564456
 21
45944.54401482626
 31
0.0
  0
LINE
  5
16B414
330
1F
100
AcDbEntity
  8
anbauteile dünn
100
AcDbLine
 10
-39753.31784564456
 20
45940.52860005422
 30
0.0
 11
-39753.31784564456
 21
45938.80401482626
 31
0.0
  0
LINE
  5
16B415
330
1F
100
AcDbEntity
  8
anbauteile dünn
100
AcDbLine
 10
-39752.69743087253
 20
45942.19901482626
 30
0.0
 11
-39750.97284564456
 21
45942.19901482626
 31
0.0
  0
LINE
  5
16B416
330
1F
100
AcDbEntity
  8
anbauteile dünn
100
AcDbLine
 10
-39752.69743087253
 20
45941.14901482626
 30
0.0
 11
-39750.97284564456
 21
45941.14901482626
 31
0.0
  0
LINE
  5
16B417
330
1F
100
AcDbEntity
  8
anbauteile dünn
100
AcDbLine
 10
-39756.71284564457
 20
45941.14901482626
 30
0.0
 11
-39756.71284564457
 21
45942.19901482626
 31
0.0
  0
LINE
  5
16B418
330
1F
100
AcDbEntity
  8
anbauteile dünn
100
AcDbLine
 10
-39754.9882604166
 20
45941.14901482626
 30
0.0
 11
-39756.71284564457
 21
45941.14901482626
 31
0.0
  0
LINE
  5
16B419
330
1F
100
AcDbEntity
  8
anbauteile dünn
100
AcDbLine
 10
-39754.9882604166
 20
45942.19901482626
 30
0.0
 11
-39756.71284564457
 21
45942.19901482626
 31
0.0
  0
CIRCLE
  5
16B41A
330
1F
100
AcDbEntity
  8
anbauteile dünn
100
AcDbCircle
 10
-39707.84284564457
 20
45941.67401482626
 30
0.0
 40
4.45
  0
ARC
  5
16B41B
330
1F
100
AcDbEntity
  8
anbauteile dünn
100
AcDbCircle
 10
-39709.5132604166
 20
45943.3444295983
 30
0.0
 40
1.26
100
AcDbArc
 50
294.6243183524128
 51
335.3756816477885
  0
ARC
  5
16B41C
330
1F
100
AcDbEntity
  8
anbauteile dünn
100
AcDbCircle
 10
-39709.5132604166
 20
45940.00360005422
 30
0.0
 40
1.26
100
AcDbArc
 50
24.62431835221147
 51
65.37568164758718
  0
ARC
  5
16B41D
330
1F
100
AcDbEntity
  8
anbauteile dünn
100
AcDbCircle
 10
-39707.84284564457
 20
45941.67401482626
 30
0.0
 40
1.26
100
AcDbArc
 50
155.3756816477885
 51
204.6243183522115
  0
ARC
  5
16B41E
330
1F
100
AcDbEntity
  8
anbauteile dünn
100
AcDbCircle
 10
-39706.17243087253
 20
45940.00360005422
 30
0.0
 40
1.26
100
AcDbArc
 50
114.6243183524128
 51
155.3756816477885
  0
ARC
  5
16B41F
330
1F
100
AcDbEntity
  8
anbauteile dünn
100
AcDbCircle
 10
-39706.17243087253
 20
45943.3444295983
 30
0.0
 40
1.26
100
AcDbArc
 50
204.6243183522115
 51
245.3756816475872
  0
ARC
  5
16B420
330
1F
100
AcDbEntity
  8
anbauteile dünn
100
AcDbCircle
 10
-39707.84284564457
 20
45941.67401482626
 30
0.0
 40
1.26
100
AcDbArc
 50
335.3756816477885
 51
24.62431835221147
  0
ARC
  5
16B421
330
1F
100
AcDbEntity
  8
anbauteile dünn
100
AcDbCircle
 10
-39707.84284564457
 20
45941.67401482626
 30
0.0
 40
1.26
100
AcDbArc
 50
245.3756816475872
 51
294.6243183524128
  0
ARC
  5
16B422
330
1F
100
AcDbEntity
  8
anbauteile dünn
100
AcDbCircle
 10
-39707.84284564457
 20
45941.67401482626
 30
0.0
 40
1.26
100
AcDbArc
 50
65.37568164758718
 51
114.6243183524128
  0
LINE
  5
16B423
330
1F
100
AcDbEntity
  8
anbauteile dünn
100
AcDbLine
 10
-39707.31784564456
 20
45944.54401482626
 30
0.0
 11
-39708.36784564456
 21
45944.54401482626
 31
0.0
  0
LINE
  5
16B424
330
1F
100
AcDbEntity
  8
anbauteile dünn
100
AcDbLine
 10
-39707.31784564456
 20
45938.80401482626
 30
0.0
 11
-39708.36784564456
 21
45938.80401482626
 31
0.0
  0
LINE
  5
16B425
330
1F
100
AcDbEntity
  8
anbauteile dünn
100
AcDbLine
 10
-39707.31784564456
 20
45942.81942959829
 30
0.0
 11
-39707.31784564456
 21
45944.54401482626
 31
0.0
  0
LINE
  5
16B426
330
1F
100
AcDbEntity
  8
anbauteile dünn
100
AcDbLine
 10
-39707.31784564456
 20
45940.52860005422
 30
0.0
 11
-39707.31784564456
 21
45938.80401482626
 31
0.0
  0
LINE
  5
16B427
330
1F
100
AcDbEntity
  8
anbauteile dünn
100
AcDbLine
 10
-39710.71284564457
 20
45941.14901482626
 30
0.0
 11
-39710.71284564457
 21
45942.19901482626
 31
0.0
  0
LINE
  5
16B428
330
1F
100
AcDbEntity
  8
anbauteile dünn
100
AcDbLine
 10
-39708.36784564456
 20
45942.81942959829
 30
0.0
 11
-39708.36784564456
 21
45944.54401482626
 31
0.0
  0
LINE
  5
16B429
330
1F
100
AcDbEntity
  8
anbauteile dünn
100
AcDbLine
 10
-39708.36784564456
 20
45940.52860005422
 30
0.0
 11
-39708.36784564456
 21
45938.80401482626
 31
0.0
  0
LINE
  5
16B42A
330
1F
100
AcDbEntity
  8
anbauteile dünn
100
AcDbLine
 10
-39708.9882604166
 20
45942.19901482626
 30
0.0
 11
-39710.71284564457
 21
45942.19901482626
 31
0.0
  0
LINE
  5
16B42B
330
1F
100
AcDbEntity
  8
anbauteile dünn
100
AcDbLine
 10
-39708.9882604166
 20
45941.14901482626
 30
0.0
 11
-39710.71284564457
 21
45941.14901482626
 31
0.0
  0
LINE
  5
16B42C
330
1F
100
AcDbEntity
  8
anbauteile dünn
100
AcDbLine
 10
-39704.97284564456
 20
45941.14901482626
 30
0.0
 11
-39704.97284564456
 21
45942.19901482626
 31
0.0
  0
LINE
  5
16B42D
330
1F
100
AcDbEntity
  8
anbauteile dünn
100
AcDbLine
 10
-39706.69743087253
 20
45941.14901482626
 30
0.0
 11
-39704.97284564456
 21
45941.14901482626
 31
0.0
  0
LINE
  5
16B42E
330
1F
100
AcDbEntity
  8
anbauteile dünn
100
AcDbLine
 10
-39706.69743087253
 20
45942.19901482626
 30
0.0
 11
-39704.97284564456
 21
45942.19901482626
 31
0.0
  0
LINE
  5
16B42F
330
1F
100
AcDbEntity
  8
anbauteile dünn
100
AcDbLine
 10
-39747.84284564456
 20
45939.17401482626
 30
0.0
 11
-39713.84284564456
 21
45939.17401482626
 31
0.0
  0
LINE
  5
16B430
330
1F
100
AcDbEntity
  8
anbauteile dünn
100
AcDbLine
 10
-39747.84284564456
 20
45944.17401482626
 30
0.0
 11
-39713.84284564456
 21
45944.17401482626
 31
0.0
  0
LINE
  5
16B431
330
1F
100
AcDbEntity
  8
AM_4
100
AcDbLine
 10
-39790.34284564453
 20
46142.44735439732
 30
0.0
 11
-39800.93915164216
 21
46142.44735439732
 31
0.0
  0
LINE
  5
16B432
330
1F
100
AcDbEntity
  8
AM_4
100
AcDbLine
 10
-39790.34284564453
 20
46141.44735439732
 30
0.0
 11
-39800.93915164216
 21
46141.44735439732
 31
0.0
  0
LINE
  5
16B433
330
1F
100
AcDbEntity
  8
AM_4
100
AcDbLine
 10
-39790.34284564453
 20
46140.44735439732
 30
0.0
 11
-39800.86513291479
 21
46140.44735439732
 31
0.0
  0
LINE
  5
16B434
330
1F
100
AcDbEntity
  8
AM_4
100
AcDbLine
 10
-39790.34284564453
 20
46139.44735439732
 30
0.0
 11
-39800.77232299102
 21
46139.44735439732
 31
0.0
  0
LINE
  5
16B435
330
1F
100
AcDbEntity
  8
AM_4
100
AcDbLine
 10
-39790.34284564453
 20
46138.44735439732
 30
0.0
 11
-39800.64184833183
 21
46138.44735439732
 31
0.0
  0
LINE
  5
16B436
330
1F
100
AcDbEntity
  8
AM_4
100
AcDbLine
 10
-39790.34284564453
 20
46137.44735439732
 30
0.0
 11
-39800.47315451596
 21
46137.44735439732
 31
0.0
  0
LINE
  5
16B437
330
1F
100
AcDbEntity
  8
AM_4
100
AcDbLine
 10
-39790.34284564453
 20
46134.44735439732
 30
0.0
 11
-39800.79260559289
 21
46134.44735439732
 31
0.0
  0
LINE
  5
16B438
330
1F
100
AcDbEntity
  8
AM_4
100
AcDbLine
 10
-39790.34284564453
 20
46133.44735439732
 30
0.0
 11
-39800.93915164216
 21
46133.44735439732
 31
0.0
  0
LINE
  5
16B439
330
1F
100
AcDbEntity
  8
AM_4
100
AcDbLine
 10
-39790.34284564453
 20
46132.44735439732
 30
0.0
 11
-39800.86008999561
 21
46132.44735439733
 31
0.0
  0
LINE
  5
16B43A
330
1F
100
AcDbEntity
  8
AM_4
100
AcDbLine
 10
-39790.34284564453
 20
46143.44735439732
 30
0.0
 11
-39800.93915164216
 21
46143.44735439732
 31
0.0
  0
LINE
  5
16B43B
330
1F
100
AcDbEntity
  8
AM_4
100
AcDbLine
 10
-39790.34284564453
 20
46144.44735439731
 30
0.0
 11
-39800.86513291479
 21
46144.44735439731
 31
0.0
  0
LINE
  5
16B43C
330
1F
100
AcDbEntity
  8
AM_4
100
AcDbLine
 10
-39790.34284564453
 20
46145.44735439732
 30
0.0
 11
-39800.77232299102
 21
46145.44735439732
 31
0.0
  0
LINE
  5
16B43D
330
1F
100
AcDbEntity
  8
AM_4
100
AcDbLine
 10
-39790.34284564453
 20
46146.44735439732
 30
0.0
 11
-39800.64184833183
 21
46146.44735439732
 31
0.0
  0
LINE
  5
16B43E
330
1F
100
AcDbEntity
  8
AM_4
100
AcDbLine
 10
-39790.34284564453
 20
46147.44735439732
 30
0.0
 11
-39800.47315451596
 21
46147.44735439732
 31
0.0
  0
LINE
  5
16B43F
330
1F
100
AcDbEntity
  8
AM_4
100
AcDbLine
 10
-39790.34284564453
 20
46150.44735439732
 30
0.0
 11
-39800.79260559289
 21
46150.44735439732
 31
0.0
  0
LINE
  5
16B440
330
1F
100
AcDbEntity
  8
AM_4
100
AcDbLine
 10
-39790.34284564453
 20
46151.44735439732
 30
0.0
 11
-39800.93666185297
 21
46151.44735439732
 31
0.0
  0
LINE
  5
16B441
330
1F
100
AcDbEntity
  8
AM_4
100
AcDbLine
 10
-39790.34284564453
 20
46152.44735439732
 30
0.0
 11
-39800.86008999561
 21
46152.44735439732
 31
0.0
  0
LINE
  5
16B442
330
1F
100
AcDbEntity
  8
AM_0N
100
AcDbLine
 10
-39780.34284564453
 20
46135.24985439731
 30
0.0
 11
-39785.34284564453
 21
46135.24985439731
 31
0.0
  0
LINE
  5
16B443
330
1F
100
AcDbEntity
  8
AM_0N
100
AcDbLine
 10
-39780.34284564453
 20
46149.64485439731
 30
0.0
 11
-39785.34284564453
 21
46149.64485439731
 31
0.0
  0
LINE
  5
16B444
330
1F
100
AcDbEntity
  8
AM_0N
100
AcDbLine
 10
-39780.34284564453
 20
46130.05235439731
 30
0.0
 11
-39785.34284564453
 21
46130.05235439731
 31
0.0
  0
LINE
  5
16B445
330
1F
100
AcDbEntity
  8
AM_0
100
AcDbLine
 10
-39790.34284564453
 20
46142.44735439732
 30
0.0
 11
-39790.34284564453
 21
46151.94735439732
 31
0.0
  0
LINE
  5
16B446
330
1F
100
AcDbEntity
  8
AM_0
100
AcDbLine
 10
-39790.34284564453
 20
46151.94735439732
 30
0.0
 11
-39785.34284564453
 21
46151.94735439732
 31
0.0
  0
LINE
  5
16B447
330
1F
100
AcDbEntity
  8
AM_4
100
AcDbLine
 10
-39790.34284564453
 20
46150.94735439732
 30
0.0
 11
-39785.34284564453
 21
46150.94735439732
 31
0.0
  0
LINE
  5
16B448
330
1F
100
AcDbEntity
  8
AM_0
100
AcDbLine
 10
-39790.34284564453
 20
46142.44735439731
 30
0.0
 11
-39790.34284564453
 21
46132.94735439732
 31
0.0
  0
LINE
  5
16B449
330
1F
100
AcDbEntity
  8
AM_0
100
AcDbLine
 10
-39790.34284564453
 20
46132.94735439732
 30
0.0
 11
-39785.34284564453
 21
46132.94735439732
 31
0.0
  0
LINE
  5
16B44A
330
1F
100
AcDbEntity
  8
AM_4
100
AcDbLine
 10
-39790.34284564453
 20
46133.94735439731
 30
0.0
 11
-39785.34284564453
 21
46133.94735439732
 31
0.0
  0
ARC
  5
16B44B
330
1F
100
AcDbEntity
  8
AM_0N
100
AcDbCircle
 10
-39796.34383053361
 20
46133.29610439731
 30
0.0
 40
4.595321108539105
100
AcDbArc
 50
145.5615305952099
 51
205.5615305951598
  0
LINE
  5
16B44C
330
1F
100
AcDbEntity
  8
AM_0N
100
AcDbLine
 10
-39801.34329683059
 20
46132.79235439732
 30
0.0
 11
-39801.34329683059
 21
46152.10235439731
 31
0.0
  0
ARC
  5
16B44D
330
1F
100
AcDbEntity
  8
AM_0N
100
AcDbCircle
 10
-39796.3438305336
 20
46151.59860439732
 30
0.0
 40
4.595321108546793
100
AcDbArc
 50
154.4384694048401
 51
214.43846940479
  0
ARC
  5
16B44E
330
1F
100
AcDbEntity
  8
AM_0N
100
AcDbCircle
 10
-39773.88195332015
 20
46142.44735439732
 30
0.0
 40
27.05719832200605
100
AcDbArc
 50
165.9852218106053
 51
194.0147781893946
  0
LINE
  5
16B44F
330
1F
100
AcDbEntity
  8
AM_0N
100
AcDbLine
 10
-39800.13374801663
 20
46154.19735439732
 30
0.0
 11
-39801.34329683059
 21
46152.10235439731
 31
0.0
  0
LINE
  5
16B450
330
1F
100
AcDbEntity
  8
AM_0N
100
AcDbLine
 10
-39790.34284564453
 20
46134.89485439731
 30
0.0
 11
-39800.13374801663
 21
46134.89485439731
 31
0.0
  0
LINE
  5
16B451
330
1F
100
AcDbEntity
  8
AM_0N
100
AcDbLine
 10
-39790.34284564453
 20
46136.89485439731
 30
0.0
 11
-39800.13374801663
 21
46136.89485439731
 31
0.0
  0
LINE
  5
16B452
330
1F
100
AcDbEntity
  8
AM_0N
100
AcDbLine
 10
-39790.34284564453
 20
46154.19735439732
 30
0.0
 11
-39800.13374801663
 21
46154.19735439732
 31
0.0
  0
LINE
  5
16B453
330
1F
100
AcDbEntity
  8
AM_0N
100
AcDbLine
 10
-39790.34284564453
 20
46147.99985439731
 30
0.0
 11
-39800.13374801663
 21
46147.99985439731
 31
0.0
  0
LINE
  5
16B454
330
1F
100
AcDbEntity
  8
AM_0N
100
AcDbLine
 10
-39790.34284564453
 20
46149.99985439731
 30
0.0
 11
-39800.13374801663
 21
46149.99985439731
 31
0.0
  0
LINE
  5
16B455
330
1F
100
AcDbEntity
  8
AM_0N
100
AcDbLine
 10
-39800.13374801663
 20
46130.69735439732
 30
0.0
 11
-39801.34329683059
 21
46132.79235439732
 31
0.0
  0
LINE
  5
16B456
330
1F
100
AcDbEntity
  8
AM_0N
100
AcDbLine
 10
-39790.34284564453
 20
46130.69735439732
 30
0.0
 11
-39800.13374801663
 21
46130.69735439732
 31
0.0
  0
LINE
  5
16B457
330
1F
100
AcDbEntity
  8
AM_0
100
AcDbLine
 10
-39790.34284564453
 20
46154.19735439732
 30
0.0
 11
-39790.34284564453
 21
46130.69735439732
 31
0.0
  0
LINE
  5
16B458
330
1F
100
AcDbEntity
  8
AM_0
100
AcDbLine
 10
-39801.34329683059
 20
46152.10235439731
 30
0.0
 11
-39803.84329683059
 21
46152.10235439731
 31
0.0
  0
LINE
  5
16B459
330
1F
100
AcDbEntity
  8
AM_0
100
AcDbLine
 10
-39806.34329683059
 20
46149.60235439732
 30
0.0
 11
-39806.34329683059
 21
46135.29235439732
 31
0.0
  0
ARC
  5
16B45A
330
1F
100
AcDbEntity
  8
AM_0
100
AcDbCircle
 10
-39803.84329683059
 20
46135.29235439732
 30
0.0
 40
2.5
100
AcDbArc
 50
180.0
 51
270.0
1001
GENIUS_GENOBJ-N-FIL_13
1002
{
1000
OWNER
1000
GEN
1002
}
1001
GENIUS_GENODEF_13
1002
{
1000
HIER
1070
     0
1002
}
1002
{
1000
MANEDIT
1070
     0
1002
}
1002
{
1000
NOSEL
1070
     0
1002
}
1002
{
1000
BEHIND
1070
     0
1002
}
1002
{
1000
OTHER
1070
     0
1002
}
1002
{
1000
REACTOR
1002
}
  0
ARC
  5
16B45B
330
1F
100
AcDbEntity
  8
AM_0
100
AcDbCircle
 10
-39803.84329683059
 20
46149.60235439732
 30
0.0
 40
2.5
100
AcDbArc
 50
90.0
 51
180.0
1001
GENIUS_GENODEF_13
1002
{
1000
HIER
1070
     0
1002
}
1002
{
1000
MANEDIT
1070
     0
1002
}
1002
{
1000
NOSEL
1070
     0
1002
}
1002
{
1000
BEHIND
1070
     0
1002
}
1002
{
1000
OTHER
1070
     0
1002
}
1002
{
1000
REACTOR
1002
}
1001
GENIUS_GENOBJ-N-FIL_13
1002
{
1000
OWNER
1000
GEN
1002
}
  0
LINE
  5
16B45C
330
1F
100
AcDbEntity
  8
AM_0
100
AcDbLine
 10
-39803.84329683059
 20
46132.79235439732
 30
0.0
 11
-39801.34329683059
 21
46132.79235439732
 31
0.0
  0
LWPOLYLINE
  5
16B45D
330
1F
100
AcDbEntity
  8
AM_0
100
AcDbPolyline
 90
        4
 70
     1
 43
0.0
 10
-39780.34284564453
 20
46176.44735439731
 10
-39681.34284564453
 20
46176.44735439731
 10
-39681.34284564453
 20
46077.44735439731
 10
-39780.34284564453
 20
46077.44735439731
1001
GENIUS_GENREC_14
1002
{
1000
PYDIR
1011
-39780.34284564453
1021
46077.44735439731
1031
0.0
1002
}
1002
{
1000
PXDIR
1011
-39681.34284564453
1021
46176.44735439731
1031
0.0
1002
}
1002
{
1000
PORI
1011
-39780.34284564453
1021
46176.44735439731
1031
0.0
1002
}
1002
{
1000
PINS
1011
-39780.34284564453
1021
46176.44735439731
1031
0.0
1002
}
1002
{
1000
PINS2
1011
-39681.34284564453
1021
46077.44735439731
1031
0.0
1002
}
1002
{
1000
C
1070
     1
1002
}
1001
GENIUS_GENODEF_13
1002
{
1000
HIER
1070
     0
1002
}
1002
{
1000
MANEDIT
1070
     0
1002
}
1002
{
1000
NOSEL
1070
     0
1002
}
1002
{
1000
BEHIND
1070
     0
1002
}
1002
{
1000
OTHER
1070
     0
1002
}
1002
{
1000
REACTOR
1002
}
1001
GENIUS_GENOBJ-N-REC_13
1002
{
1000
OWNER
1000
GEN
1002
}
  0
LWPOLYLINE
  5
16B45E
330
1F
100
AcDbEntity
  8
anbauteile dünn
100
AcDbPolyline
 90
        2
 70
     0
 43
0.0
 10
-39768.09284564454
 20
46080.44735439731
 10
-39768.09284564454
 20
46173.44735439731
1001
GENIUS_GENREC_14
1002
{
1000
PYDIR
1011
-39768.09284564454
1021
46080.44735439731
1031
0.0
1002
}
1002
{
1000
PXDIR
1011
-39693.59284564454
1021
46173.44735439731
1031
0.0
1002
}
1002
{
1000
PORI
1011
-39768.09284564454
1021
46173.44735439731
1031
0.0
1002
}
1002
{
1000
PINS
1011
-39768.09284564454
1021
46173.44735439731
1031
0.0
1002
}
1002
{
1000
PINS2
1011
-39693.59284564454
1021
46080.44735439731
1031
0.0
1002
}
1002
{
1000
C
1070
     1
1002
}
1001
GENIUS_GENOBJ-N-REC_13
1002
{
1000
OWNER
1000
GEN
1002
}
1001
GENIUS_GENODEF_13
1002
{
1000
HIER
1070
     0
1002
}
1002
{
1000
MANEDIT
1070
     0
1002
}
1002
{
1000
NOSEL
1070
     0
1002
}
1002
{
1000
BEHIND
1070
     0
1002
}
1002
{
1000
OTHER
1070
     0
1002
}
1002
{
1000
REACTOR
1002
}
  0
LWPOLYLINE
  5
16B45F
330
1F
100
AcDbEntity
  8
anbauteile dünn
100
AcDbPolyline
 90
        2
 70
     0
 43
0.0
 10
-39693.59284564454
 20
46173.44735439731
 10
-39693.59284564454
 20
46080.44735439731
1001
GENIUS_GENREC_14
1002
{
1000
PYDIR
1011
-39768.09284564454
1021
46080.44735439731
1031
0.0
1002
}
1002
{
1000
PXDIR
1011
-39693.59284564454
1021
46173.44735439731
1031
0.0
1002
}
1002
{
1000
PORI
1011
-39768.09284564454
1021
46173.44735439731
1031
0.0
1002
}
1002
{
1000
PINS
1011
-39768.09284564454
1021
46173.44735439731
1031
0.0
1002
}
1002
{
1000
PINS2
1011
-39693.59284564454
1021
46080.44735439731
1031
0.0
1002
}
1002
{
1000
C
1070
     1
1002
}
1001
GENIUS_GENOBJ-N-REC_13
1002
{
1000
OWNER
1000
GEN
1002
}
1001
GENIUS_GENODEF_13
1002
{
1000
HIER
1070
     0
1002
}
1002
{
1000
MANEDIT
1070
     0
1002
}
1002
{
1000
NOSEL
1070
     0
1002
}
1002
{
1000
BEHIND
1070
     0
1002
}
1002
{
1000
OTHER
1070
     0
1002
}
1002
{
1000
REACTOR
1002
}
  0
LWPOLYLINE
  5
16B460
330
1F
100
AcDbEntity
  8
anbauteile dünn
100
AcDbPolyline
 90
        4
 70
     1
 43
0.0
 10
-39766.59284564453
 20
46171.94735439731
 10
-39695.09284564453
 20
46171.94735439731
 10
-39695.09284564453
 20
46081.94735439731
 10
-39766.59284564453
 20
46081.94735439731
1001
GENIUS_GENREC_14
1002
{
1000
PYDIR
1011
-39766.59284564453
1021
46081.94735439731
1031
0.0
1002
}
1002
{
1000
PXDIR
1011
-39695.09284564453
1021
46171.94735439731
1031
0.0
1002
}
1002
{
1000
PORI
1011
-39766.59284564453
1021
46171.94735439731
1031
0.0
1002
}
1002
{
1000
PINS
1011
-39766.59284564453
1021
46171.94735439731
1031
0.0
1002
}
1002
{
1000
PINS2
1011
-39695.09284564453
1021
46081.94735439731
1031
0.0
1002
}
1002
{
1000
C
1070
     1
1002
}
1001
GENIUS_GENOBJ-N-REC_13
1002
{
1000
OWNER
1000
GEN
1002
}
1001
GENIUS_GENODEF_13
1002
{
1000
HIER
1070
     0
1002
}
1002
{
1000
MANEDIT
1070
     0
1002
}
1002
{
1000
NOSEL
1070
     0
1002
}
1002
{
1000
BEHIND
1070
     0
1002
}
1002
{
1000
OTHER
1070
     0
1002
}
1002
{
1000
REACTOR
1002
}
  0
CIRCLE
  5
16B461
330
1F
100
AcDbEntity
  8
anbauteile dünn
100
AcDbCircle
 10
-39686.84284564453
 20
46170.94735439731
 30
0.0
 40
3.5
  0
ARC
  5
16B462
330
1F
100
AcDbEntity
  8
anbauteile dünn
100
AcDbCircle
 10
-39686.84284564453
 20
46170.94735439731
 30
0.0
 40
4.0
100
AcDbArc
 50
308.6821874536576
 51
141.3178125463402
  0
LINE
  5
16B463
330
1F
100
AcDbEntity
  8
anbauteile dünn
100
AcDbLine
 10
-39695.09284564453
 20
46171.94735439731
 30
0.0
 11
-39693.59284564454
 21
46173.44735439731
 31
0.0
  0
LINE
  5
16B464
330
1F
100
AcDbEntity
  8
anbauteile dünn
100
AcDbLine
 10
-39693.59284564454
 20
46173.44735439731
 30
0.0
 11
-39689.96534464372
 21
46173.44735439731
 31
0.0
  0
LINE
  5
16B465
330
1F
100
AcDbEntity
  8
anbauteile dünn
100
AcDbLine
 10
-39684.34284564434
 20
46086.06985339651
 30
0.0
 11
-39684.34284564451
 21
46167.82485539811
 31
0.0
  0
CIRCLE
  5
16B466
330
1F
100
AcDbEntity
  8
anbauteile dünn
100
AcDbCircle
 10
-39686.84284564453
 20
46170.94735439731
 30
0.0
 40
3.3375
  0
ARC
  5
16B467
330
1F
100
AcDbEntity
  8
anbauteile dünn
100
AcDbCircle
 10
-39688.09565672356
 20
46172.20016547634
 30
0.0
 40
0.9450000000000001
100
AcDbArc
 50
294.6243183524681
 51
335.3756816478469
  0
ARC
  5
16B468
330
1F
100
AcDbEntity
  8
anbauteile dünn
100
AcDbCircle
 10
-39688.09565672356
 20
46169.69454331828
 30
0.0
 40
0.9450000000000001
100
AcDbArc
 50
24.62431835215307
 51
65.37568164753193
  0
ARC
  5
16B469
330
1F
100
AcDbEntity
  8
anbauteile dünn
100
AcDbCircle
 10
-39686.84284564453
 20
46170.94735439731
 30
0.0
 40
0.9450000000000001
100
AcDbArc
 50
155.3756816478469
 51
204.6243183521531
  0
ARC
  5
16B46A
330
1F
100
AcDbEntity
  8
anbauteile dünn
100
AcDbCircle
 10
-39685.5900345655
 20
46169.69454331828
 30
0.0
 40
0.9450000000000001
100
AcDbArc
 50
114.624318352468
 51
155.3756816478469
  0
ARC
  5
16B46B
330
1F
100
AcDbEntity
  8
anbauteile dünn
100
AcDbCircle
 10
-39685.5900345655
 20
46172.20016547634
 30
0.0
 40
0.9450000000000001
100
AcDbArc
 50
204.6243183521531
 51
245.3756816475319
  0
ARC
  5
16B46C
330
1F
100
AcDbEntity
  8
anbauteile dünn
100
AcDbCircle
 10
-39686.84284564453
 20
46170.94735439731
 30
0.0
 40
0.9450000000000001
100
AcDbArc
 50
335.3756816478469
 51
24.62431835215307
  0
ARC
  5
16B46D
330
1F
100
AcDbEntity
  8
anbauteile dünn
100
AcDbCircle
 10
-39686.84284564453
 20
46170.94735439731
 30
0.0
 40
0.9450000000000001
100
AcDbArc
 50
245.3756816475319
 51
294.6243183524681
  0
ARC
  5
16B46E
330
1F
100
AcDbEntity
  8
anbauteile dünn
100
AcDbCircle
 10
-39686.84284564453
 20
46170.94735439731
 30
0.0
 40
0.9450000000000001
100
AcDbArc
 50
65.37568164753193
 51
114.624318352468
  0
LINE
  5
16B46F
330
1F
100
AcDbEntity
  8
anbauteile dünn
100
AcDbLine
 10
-39686.44909564453
 20
46173.0998543973
 30
0.0
 11
-39687.23659564453
 21
46173.0998543973
 31
0.0
  0
LINE
  5
16B470
330
1F
100
AcDbEntity
  8
anbauteile dünn
100
AcDbLine
 10
-39686.44909564453
 20
46168.7948543973
 30
0.0
 11
-39687.23659564453
 21
46168.7948543973
 31
0.0
  0
LINE
  5
16B471
330
1F
100
AcDbEntity
  8
anbauteile dünn
100
AcDbLine
 10
-39686.44909564453
 20
46171.80641547633
 30
0.0
 11
-39686.44909564453
 21
46173.0998543973
 31
0.0
  0
LINE
  5
16B472
330
1F
100
AcDbEntity
  8
anbauteile dünn
100
AcDbLine
 10
-39686.44909564453
 20
46170.08829331828
 30
0.0
 11
-39686.44909564453
 21
46168.7948543973
 31
0.0
  0
LINE
  5
16B473
330
1F
100
AcDbEntity
  8
anbauteile dünn
100
AcDbLine
 10
-39688.99534564453
 20
46170.55360439731
 30
0.0
 11
-39688.99534564453
 21
46171.34110439731
 31
0.0
  0
LINE
  5
16B474
330
1F
100
AcDbEntity
  8
anbauteile dünn
100
AcDbLine
 10
-39687.23659564453
 20
46171.80641547633
 30
0.0
 11
-39687.23659564453
 21
46173.0998543973
 31
0.0
  0
LINE
  5
16B475
330
1F
100
AcDbEntity
  8
anbauteile dünn
100
AcDbLine
 10
-39687.23659564453
 20
46170.08829331828
 30
0.0
 11
-39687.23659564453
 21
46168.7948543973
 31
0.0
  0
LINE
  5
16B476
330
1F
100
AcDbEntity
  8
anbauteile dünn
100
AcDbLine
 10
-39687.70190672355
 20
46171.34110439731
 30
0.0
 11
-39688.99534564453
 21
46171.34110439731
 31
0.0
  0
LINE
  5
16B477
330
1F
100
AcDbEntity
  8
anbauteile dünn
100
AcDbLine
 10
-39687.70190672355
 20
46170.55360439731
 30
0.0
 11
-39688.99534564453
 21
46170.55360439731
 31
0.0
  0
LINE
  5
16B478
330
1F
100
AcDbEntity
  8
anbauteile dünn
100
AcDbLine
 10
-39684.69034564452
 20
46170.55360439731
 30
0.0
 11
-39684.69034564452
 21
46171.34110439731
 31
0.0
  0
LINE
  5
16B479
330
1F
100
AcDbEntity
  8
anbauteile dünn
100
AcDbLine
 10
-39685.9837845655
 20
46170.55360439731
 30
0.0
 11
-39684.69034564452
 21
46170.55360439731
 31
0.0
  0
LINE
  5
16B47A
330
1F
100
AcDbEntity
  8
anbauteile dünn
100
AcDbLine
 10
-39685.9837845655
 20
46171.34110439731
 30
0.0
 11
-39684.69034564452
 21
46171.34110439731
 31
0.0
  0
CIRCLE
  5
16B47B
330
1F
100
AcDbEntity
  8
anbauteile dünn
100
AcDbCircle
 10
-39686.84284564453
 20
46082.94735439732
 30
0.0
 40
3.5
  0
ARC
  5
16B47C
330
1F
100
AcDbEntity
  8
anbauteile dünn
100
AcDbCircle
 10
-39686.84284564453
 20
46082.94735439732
 30
0.0
 40
4.0
100
AcDbArc
 50
218.6821874535497
 51
51.31781254620616
  0
LINE
  5
16B47D
330
1F
100
AcDbEntity
  8
anbauteile dünn
100
AcDbLine
 10
-39695.09284564453
 20
46081.94735439731
 30
0.0
 11
-39693.59284564454
 21
46080.44735439731
 31
0.0
  0
LINE
  5
16B47E
330
1F
100
AcDbEntity
  8
anbauteile dünn
100
AcDbLine
 10
-39693.59284564454
 20
46080.44735439731
 30
0.0
 11
-39689.96534464372
 21
46080.44735439731
 31
0.0
  0
CIRCLE
  5
16B47F
330
1F
100
AcDbEntity
  8
anbauteile dünn
100
AcDbCircle
 10
-39686.84284564453
 20
46082.94735439732
 30
0.0
 40
3.3375
  0
ARC
  5
16B480
330
1F
100
AcDbEntity
  8
anbauteile dünn
100
AcDbCircle
 10
-39688.09565672356
 20
46081.69454331829
 30
0.0
 40
0.9450000000000001
100
AcDbArc
 50
24.62431835241089
 51
65.37568164755713
  0
ARC
  5
16B481
330
1F
100
AcDbEntity
  8
anbauteile dünn
100
AcDbCircle
 10
-39688.09565672356
 20
46084.20016547635
 30
0.0
 40
0.9450000000000001
100
AcDbArc
 50
294.6243183524428
 51
335.375681647589
  0
ARC
  5
16B482
330
1F
100
AcDbEntity
  8
anbauteile dünn
100
AcDbCircle
 10
-39686.84284564453
 20
46082.94735439732
 30
0.0
 40
0.9450000000000001
100
AcDbArc
 50
155.375681647589
 51
204.6243183524109
  0
ARC
  5
16B483
330
1F
100
AcDbEntity
  8
anbauteile dünn
100
AcDbCircle
 10
-39685.5900345655
 20
46084.20016547635
 30
0.0
 40
0.9450000000000001
100
AcDbArc
 50
204.6243183524109
 51
245.3756816475571
  0
ARC
  5
16B484
330
1F
100
AcDbEntity
  8
anbauteile dünn
100
AcDbCircle
 10
-39685.5900345655
 20
46081.69454331829
 30
0.0
 40
0.9450000000000001
100
AcDbArc
 50
114.6243183524429
 51
155.375681647589
  0
ARC
  5
16B485
330
1F
100
AcDbEntity
  8
anbauteile dünn
100
AcDbCircle
 10
-39686.84284564453
 20
46082.94735439732
 30
0.0
 40
0.9450000000000001
100
AcDbArc
 50
335.375681647589
 51
24.62431835241089
  0
ARC
  5
16B486
330
1F
100
AcDbEntity
  8
anbauteile dünn
100
AcDbCircle
 10
-39686.84284564453
 20
46082.94735439732
 30
0.0
 40
0.9450000000000001
100
AcDbArc
 50
65.37568164755713
 51
114.6243183524429
  0
ARC
  5
16B487
330
1F
100
AcDbEntity
  8
anbauteile dünn
100
AcDbCircle
 10
-39686.84284564453
 20
46082.94735439732
 30
0.0
 40
0.9450000000000001
100
AcDbArc
 50
245.3756816475571
 51
294.6243183524428
  0
LINE
  5
16B488
330
1F
100
AcDbEntity
  8
anbauteile dünn
100
AcDbLine
 10
-39686.44909564453
 20
46080.79485439732
 30
0.0
 11
-39687.23659564453
 21
46080.79485439732
 31
0.0
  0
LINE
  5
16B489
330
1F
100
AcDbEntity
  8
anbauteile dünn
100
AcDbLine
 10
-39686.44909564453
 20
46085.09985439733
 30
0.0
 11
-39687.23659564453
 21
46085.09985439733
 31
0.0
  0
LINE
  5
16B48A
330
1F
100
AcDbEntity
  8
anbauteile dünn
100
AcDbLine
 10
-39686.44909564453
 20
46082.08829331829
 30
0.0
 11
-39686.44909564453
 21
46080.79485439732
 31
0.0
  0
LINE
  5
16B48B
330
1F
100
AcDbEntity
  8
anbauteile dünn
100
AcDbLine
 10
-39686.44909564453
 20
46083.80641547634
 30
0.0
 11
-39686.44909564453
 21
46085.09985439733
 31
0.0
  0
LINE
  5
16B48C
330
1F
100
AcDbEntity
  8
anbauteile dünn
100
AcDbLine
 10
-39688.99534564453
 20
46083.34110439733
 30
0.0
 11
-39688.99534564453
 21
46082.55360439732
 31
0.0
  0
LINE
  5
16B48D
330
1F
100
AcDbEntity
  8
anbauteile dünn
100
AcDbLine
 10
-39687.23659564453
 20
46082.08829331829
 30
0.0
 11
-39687.23659564453
 21
46080.79485439732
 31
0.0
  0
LINE
  5
16B48E
330
1F
100
AcDbEntity
  8
anbauteile dünn
100
AcDbLine
 10
-39687.23659564453
 20
46083.80641547634
 30
0.0
 11
-39687.23659564453
 21
46085.09985439733
 31
0.0
  0
LINE
  5
16B48F
330
1F
100
AcDbEntity
  8
anbauteile dünn
100
AcDbLine
 10
-39687.70190672355
 20
46082.55360439732
 30
0.0
 11
-39688.99534564453
 21
46082.55360439732
 31
0.0
  0
LINE
  5
16B490
330
1F
100
AcDbEntity
  8
anbauteile dünn
100
AcDbLine
 10
-39687.70190672355
 20
46083.34110439733
 30
0.0
 11
-39688.99534564453
 21
46083.34110439733
 31
0.0
  0
LINE
  5
16B491
330
1F
100
AcDbEntity
  8
anbauteile dünn
100
AcDbLine
 10
-39684.69034564452
 20
46083.34110439733
 30
0.0
 11
-39684.69034564452
 21
46082.55360439732
 31
0.0
  0
LINE
  5
16B492
330
1F
100
AcDbEntity
  8
anbauteile dünn
100
AcDbLine
 10
-39685.9837845655
 20
46083.34110439733
 30
0.0
 11
-39684.69034564452
 21
46083.34110439733
 31
0.0
  0
LINE
  5
16B493
330
1F
100
AcDbEntity
  8
anbauteile dünn
100
AcDbLine
 10
-39685.9837845655
 20
46082.55360439732
 30
0.0
 11
-39684.69034564452
 21
46082.55360439732
 31
0.0
  0
CIRCLE
  5
16B494
330
1F
100
AcDbEntity
  8
anbauteile dünn
100
AcDbCircle
 10
-39774.84284564454
 20
46170.94735439731
 30
0.0
 40
3.5
  0
ARC
  5
16B495
330
1F
100
AcDbEntity
  8
anbauteile dünn
100
AcDbCircle
 10
-39774.84284564454
 20
46170.94735439731
 30
0.0
 40
4.0
100
AcDbArc
 50
38.68218745379405
 51
231.3178125464464
  0
LINE
  5
16B496
330
1F
100
AcDbEntity
  8
anbauteile dünn
100
AcDbLine
 10
-39766.59284564453
 20
46171.94735439731
 30
0.0
 11
-39768.09284564454
 21
46173.44735439731
 31
0.0
  0
LINE
  5
16B497
330
1F
100
AcDbEntity
  8
anbauteile dünn
100
AcDbLine
 10
-39768.09284564454
 20
46173.44735439731
 30
0.0
 11
-39771.72034664534
 21
46173.44735439731
 31
0.0
  0
LINE
  5
16B498
330
1F
100
AcDbEntity
  8
anbauteile dünn
100
AcDbLine
 10
-39777.34284564472
 20
46086.06985339651
 30
0.0
 11
-39777.34284564455
 21
46167.82485539811
 31
0.0
  0
CIRCLE
  5
16B499
330
1F
100
AcDbEntity
  8
anbauteile dünn
100
AcDbCircle
 10
-39774.84284564454
 20
46170.94735439731
 30
0.0
 40
3.3375
  0
ARC
  5
16B49A
330
1F
100
AcDbEntity
  8
anbauteile dünn
100
AcDbCircle
 10
-39773.59003456551
 20
46172.20016547634
 30
0.0
 40
0.9450000000000001
100
AcDbArc
 50
204.6243183521899
 51
245.3756816475308
  0
ARC
  5
16B49B
330
1F
100
AcDbEntity
  8
anbauteile dünn
100
AcDbCircle
 10
-39773.59003456551
 20
46169.69454331828
 30
0.0
 40
0.9450000000000001
100
AcDbArc
 50
114.6243183524691
 51
155.37568164781
  0
ARC
  5
16B49C
330
1F
100
AcDbEntity
  8
anbauteile dünn
100
AcDbCircle
 10
-39774.84284564454
 20
46170.94735439731
 30
0.0
 40
0.9450000000000001
100
AcDbArc
 50
335.37568164781
 51
24.62431835218998
  0
ARC
  5
16B49D
330
1F
100
AcDbEntity
  8
anbauteile dünn
100
AcDbCircle
 10
-39776.09565672357
 20
46169.69454331828
 30
0.0
 40
0.9450000000000001
100
AcDbArc
 50
24.62431835218998
 51
65.37568164753084
  0
ARC
  5
16B49E
330
1F
100
AcDbEntity
  8
anbauteile dünn
100
AcDbCircle
 10
-39776.09565672357
 20
46172.20016547634
 30
0.0
 40
0.9450000000000001
100
AcDbArc
 50
294.6243183524692
 51
335.37568164781
  0
ARC
  5
16B49F
330
1F
100
AcDbEntity
  8
anbauteile dünn
100
AcDbCircle
 10
-39774.84284564454
 20
46170.94735439731
 30
0.0
 40
0.9450000000000001
100
AcDbArc
 50
155.37568164781
 51
204.6243183521899
  0
ARC
  5
16B4A0
330
1F
100
AcDbEntity
  8
anbauteile dünn
100
AcDbCircle
 10
-39774.84284564454
 20
46170.94735439731
 30
0.0
 40
0.9450000000000001
100
AcDbArc
 50
245.3756816475308
 51
294.6243183524692
  0
ARC
  5
16B4A1
330
1F
100
AcDbEntity
  8
anbauteile dünn
100
AcDbCircle
 10
-39774.84284564454
 20
46170.94735439731
 30
0.0
 40
0.9450000000000001
100
AcDbArc
 50
65.37568164753084
 51
114.6243183524691
  0
LINE
  5
16B4A2
330
1F
100
AcDbEntity
  8
anbauteile dünn
100
AcDbLine
 10
-39775.23659564454
 20
46173.0998543973
 30
0.0
 11
-39774.44909564454
 21
46173.0998543973
 31
0.0
  0
LINE
  5
16B4A3
330
1F
100
AcDbEntity
  8
anbauteile dünn
100
AcDbLine
 10
-39775.23659564454
 20
46168.7948543973
 30
0.0
 11
-39774.44909564454
 21
46168.7948543973
 31
0.0
  0
LINE
  5
16B4A4
330
1F
100
AcDbEntity
  8
anbauteile dünn
100
AcDbLine
 10
-39775.23659564454
 20
46171.80641547633
 30
0.0
 11
-39775.23659564454
 21
46173.0998543973
 31
0.0
  0
LINE
  5
16B4A5
330
1F
100
AcDbEntity
  8
anbauteile dünn
100
AcDbLine
 10
-39775.23659564454
 20
46170.08829331828
 30
0.0
 11
-39775.23659564454
 21
46168.7948543973
 31
0.0
  0
LINE
  5
16B4A6
330
1F
100
AcDbEntity
  8
anbauteile dünn
100
AcDbLine
 10
-39772.69034564454
 20
46170.55360439731
 30
0.0
 11
-39772.69034564454
 21
46171.34110439731
 31
0.0
  0
LINE
  5
16B4A7
330
1F
100
AcDbEntity
  8
anbauteile dünn
100
AcDbLine
 10
-39774.44909564454
 20
46171.80641547633
 30
0.0
 11
-39774.44909564454
 21
46173.0998543973
 31
0.0
  0
LINE
  5
16B4A8
330
1F
100
AcDbEntity
  8
anbauteile dünn
100
AcDbLine
 10
-39774.44909564454
 20
46170.08829331828
 30
0.0
 11
-39774.44909564454
 21
46168.7948543973
 31
0.0
  0
LINE
  5
16B4A9
330
1F
100
AcDbEntity
  8
anbauteile dünn
100
AcDbLine
 10
-39773.98378456551
 20
46171.34110439731
 30
0.0
 11
-39772.69034564454
 21
46171.34110439731
 31
0.0
  0
LINE
  5
16B4AA
330
1F
100
AcDbEntity
  8
anbauteile dünn
100
AcDbLine
 10
-39773.98378456551
 20
46170.55360439731
 30
0.0
 11
-39772.69034564454
 21
46170.55360439731
 31
0.0
  0
LINE
  5
16B4AB
330
1F
100
AcDbEntity
  8
anbauteile dünn
100
AcDbLine
 10
-39776.99534564454
 20
46170.55360439731
 30
0.0
 11
-39776.99534564454
 21
46171.34110439731
 31
0.0
  0
LINE
  5
16B4AC
330
1F
100
AcDbEntity
  8
anbauteile dünn
100
AcDbLine
 10
-39775.70190672357
 20
46170.55360439731
 30
0.0
 11
-39776.99534564454
 21
46170.55360439731
 31
0.0
  0
LINE
  5
16B4AD
330
1F
100
AcDbEntity
  8
anbauteile dünn
100
AcDbLine
 10
-39775.70190672357
 20
46171.34110439731
 30
0.0
 11
-39776.99534564454
 21
46171.34110439731
 31
0.0
  0
CIRCLE
  5
16B4AE
330
1F
100
AcDbEntity
  8
anbauteile dünn
100
AcDbCircle
 10
-39774.84284564454
 20
46082.94735439732
 30
0.0
 40
3.5
  0
ARC
  5
16B4AF
330
1F
100
AcDbEntity
  8
anbauteile dünn
100
AcDbCircle
 10
-39774.84284564454
 20
46082.94735439732
 30
0.0
 40
4.0
100
AcDbArc
 50
128.6821874536209
 51
321.3178125462495
  0
LINE
  5
16B4B0
330
1F
100
AcDbEntity
  8
anbauteile dünn
100
AcDbLine
 10
-39766.59284564453
 20
46081.94735439731
 30
0.0
 11
-39768.09284564454
 21
46080.44735439731
 31
0.0
  0
LINE
  5
16B4B1
330
1F
100
AcDbEntity
  8
anbauteile dünn
100
AcDbLine
 10
-39768.09284564454
 20
46080.44735439731
 30
0.0
 11
-39771.72034664534
 21
46080.44735439731
 31
0.0
  0
CIRCLE
  5
16B4B2
330
1F
100
AcDbEntity
  8
anbauteile dünn
100
AcDbCircle
 10
-39774.84284564454
 20
46082.94735439732
 30
0.0
 40
3.3375
  0
ARC
  5
16B4B3
330
1F
100
AcDbEntity
  8
anbauteile dünn
100
AcDbCircle
 10
-39773.59003456551
 20
46081.69454331829
 30
0.0
 40
0.9450000000000001
100
AcDbArc
 50
114.6243183524691
 51
155.3756816475893
  0
ARC
  5
16B4B4
330
1F
100
AcDbEntity
  8
anbauteile dünn
100
AcDbCircle
 10
-39773.59003456551
 20
46084.20016547635
 30
0.0
 40
0.9450000000000001
100
AcDbArc
 50
204.6243183524106
 51
245.3756816475308
  0
ARC
  5
16B4B5
330
1F
100
AcDbEntity
  8
anbauteile dünn
100
AcDbCircle
 10
-39774.84284564454
 20
46082.94735439732
 30
0.0
 40
0.9450000000000001
100
AcDbArc
 50
335.3756816475894
 51
24.62431835241063
  0
ARC
  5
16B4B6
330
1F
100
AcDbEntity
  8
anbauteile dünn
100
AcDbCircle
 10
-39776.09565672357
 20
46084.20016547635
 30
0.0
 40
0.9450000000000001
100
AcDbArc
 50
294.6243183524691
 51
335.3756816475894
  0
ARC
  5
16B4B7
330
1F
100
AcDbEntity
  8
anbauteile dünn
100
AcDbCircle
 10
-39776.09565672357
 20
46081.69454331829
 30
0.0
 40
0.9450000000000001
100
AcDbArc
 50
24.62431835241063
 51
65.37568164753088
  0
ARC
  5
16B4B8
330
1F
100
AcDbEntity
  8
anbauteile dünn
100
AcDbCircle
 10
-39774.84284564454
 20
46082.94735439732
 30
0.0
 40
0.9450000000000001
100
AcDbArc
 50
155.3756816475893
 51
204.6243183524106
  0
ARC
  5
16B4B9
330
1F
100
AcDbEntity
  8
anbauteile dünn
100
AcDbCircle
 10
-39774.84284564454
 20
46082.94735439732
 30
0.0
 40
0.9450000000000001
100
AcDbArc
 50
65.37568164753088
 51
114.6243183524691
  0
ARC
  5
16B4BA
330
1F
100
AcDbEntity
  8
anbauteile dünn
100
AcDbCircle
 10
-39774.84284564454
 20
46082.94735439732
 30
0.0
 40
0.9450000000000001
100
AcDbArc
 50
245.3756816475308
 51
294.6243183524691
  0
LINE
  5
16B4BB
330
1F
100
AcDbEntity
  8
anbauteile dünn
100
AcDbLine
 10
-39775.23659564454
 20
46080.79485439732
 30
0.0
 11
-39774.44909564454
 21
46080.79485439732
 31
0.0
  0
LINE
  5
16B4BC
330
1F
100
AcDbEntity
  8
anbauteile dünn
100
AcDbLine
 10
-39775.23659564454
 20
46085.09985439733
 30
0.0
 11
-39774.44909564454
 21
46085.09985439733
 31
0.0
  0
LINE
  5
16B4BD
330
1F
100
AcDbEntity
  8
anbauteile dünn
100
AcDbLine
 10
-39775.23659564454
 20
46082.08829331829
 30
0.0
 11
-39775.23659564454
 21
46080.79485439732
 31
0.0
  0
LINE
  5
16B4BE
330
1F
100
AcDbEntity
  8
anbauteile dünn
100
AcDbLine
 10
-39775.23659564454
 20
46083.80641547634
 30
0.0
 11
-39775.23659564454
 21
46085.09985439733
 31
0.0
  0
LINE
  5
16B4BF
330
1F
100
AcDbEntity
  8
anbauteile dünn
100
AcDbLine
 10
-39772.69034564454
 20
46083.34110439733
 30
0.0
 11
-39772.69034564454
 21
46082.55360439732
 31
0.0
  0
LINE
  5
16B4C0
330
1F
100
AcDbEntity
  8
anbauteile dünn
100
AcDbLine
 10
-39774.44909564454
 20
46082.08829331829
 30
0.0
 11
-39774.44909564454
 21
46080.79485439732
 31
0.0
  0
LINE
  5
16B4C1
330
1F
100
AcDbEntity
  8
anbauteile dünn
100
AcDbLine
 10
-39774.44909564454
 20
46083.80641547634
 30
0.0
 11
-39774.44909564454
 21
46085.09985439733
 31
0.0
  0
LINE
  5
16B4C2
330
1F
100
AcDbEntity
  8
anbauteile dünn
100
AcDbLine
 10
-39773.98378456551
 20
46082.55360439732
 30
0.0
 11
-39772.69034564454
 21
46082.55360439732
 31
0.0
  0
LINE
  5
16B4C3
330
1F
100
AcDbEntity
  8
anbauteile dünn
100
AcDbLine
 10
-39773.98378456551
 20
46083.34110439733
 30
0.0
 11
-39772.69034564454
 21
46083.34110439733
 31
0.0
  0
LINE
  5
16B4C4
330
1F
100
AcDbEntity
  8
anbauteile dünn
100
AcDbLine
 10
-39776.99534564454
 20
46083.34110439733
 30
0.0
 11
-39776.99534564454
 21
46082.55360439732
 31
0.0
  0
LINE
  5
16B4C5
330
1F
100
AcDbEntity
  8
anbauteile dünn
100
AcDbLine
 10
-39775.70190672357
 20
46083.34110439733
 30
0.0
 11
-39776.99534564454
 21
46083.34110439733
 31
0.0
  0
LINE
  5
16B4C6
330
1F
100
AcDbEntity
  8
anbauteile dünn
100
AcDbLine
 10
-39775.70190672357
 20
46082.55360439732
 30
0.0
 11
-39776.99534564454
 21
46082.55360439732
 31
0.0
  0
LINE
  5
16B4C7
330
1F
100
AcDbEntity
  8
AM_0
100
AcDbLine
 10
-39785.34284564453
 20
46154.84235439732
 30
0.0
 11
-39785.34284564453
 21
46130.05235439731
 31
0.0
  0
LINE
  5
16B4C8
330
1F
100
AcDbEntity
  8
AM_0
100
AcDbLine
 10
-39785.34284564453
 20
46154.84235439732
 30
0.0
 11
-39780.34284564453
 21
46154.84235439732
 31
0.0
  0
LINE
  5
16B4C9
330
1F
100
AcDbEntity
  8
AM_0
100
AcDbLine
 10
-39780.34284564453
 20
46154.84235439732
 30
0.0
 11
-39780.34284564453
 21
46130.05235439731
 31
0.0
  0
LINE
  5
16B4CA
330
1F
100
AcDbEntity
  8
AM_4
100
AcDbLine
 10
-39790.34284564453
 20
46153.44735439732
 30
0.0
 11
-39800.56676071852
 21
46153.44735439732
 31
0.0
  0
LINE
  5
16B4CB
330
1F
100
AcDbEntity
  8
AM_4
100
AcDbLine
 10
-39790.34284564453
 20
46131.44735439732
 30
0.0
 11
-39800.55086030866
 21
46131.44735439732
 31
0.0
  0
LINE
  5
16B4CC
330
1F
100
AcDbEntity
  8
AM_4
100
AcDbLine
 10
-39673.84284564453
 20
46105.4473543973
 30
0.0
 11
-39665.89561614632
 21
46105.4473543973
 31
0.0
  0
LINE
  5
16B4CD
330
1F
100
AcDbEntity
  8
AM_4
100
AcDbLine
 10
-39673.84284564453
 20
46106.1973543973
 30
0.0
 11
-39665.89561614632
 21
46106.1973543973
 31
0.0
  0
LINE
  5
16B4CE
330
1F
100
AcDbEntity
  8
AM_4
100
AcDbLine
 10
-39673.84284564453
 20
46106.9473543973
 30
0.0
 11
-39665.95113019185
 21
46106.9473543973
 31
0.0
  0
LINE
  5
16B4CF
330
1F
100
AcDbEntity
  8
AM_4
100
AcDbLine
 10
-39673.84284564453
 20
46107.69735439729
 30
0.0
 11
-39666.02073763468
 21
46107.69735439729
 31
0.0
  0
LINE
  5
16B4D0
330
1F
100
AcDbEntity
  8
AM_4
100
AcDbLine
 10
-39673.84284564453
 20
46108.4473543973
 30
0.0
 11
-39666.11859362906
 21
46108.4473543973
 31
0.0
  0
LINE
  5
16B4D1
330
1F
100
AcDbEntity
  8
AM_4
100
AcDbLine
 10
-39673.84284564453
 20
46109.1973543973
 30
0.0
 11
-39666.24511399096
 21
46109.1973543973
 31
0.0
  0
LINE
  5
16B4D2
330
1F
100
AcDbEntity
  8
AM_4
100
AcDbLine
 10
-39673.84284564453
 20
46111.44735439729
 30
0.0
 11
-39666.00552568327
 21
46111.44735439729
 31
0.0
  0
LINE
  5
16B4D3
330
1F
100
AcDbEntity
  8
AM_4
100
AcDbLine
 10
-39673.84284564453
 20
46112.1973543973
 30
0.0
 11
-39665.89561614632
 21
46112.1973543973
 31
0.0
  0
LINE
  5
16B4D4
330
1F
100
AcDbEntity
  8
AM_4
100
AcDbLine
 10
-39673.84284564453
 20
46112.9473543973
 30
0.0
 11
-39665.95491238122
 21
46112.9473543973
 31
0.0
  0
LINE
  5
16B4D5
330
1F
100
AcDbEntity
  8
AM_4
100
AcDbLine
 10
-39673.84284564453
 20
46104.6973543973
 30
0.0
 11
-39665.89561614632
 21
46104.6973543973
 31
0.0
  0
LINE
  5
16B4D6
330
1F
100
AcDbEntity
  8
AM_4
100
AcDbLine
 10
-39673.84284564453
 20
46103.94735439729
 30
0.0
 11
-39665.95113019185
 21
46103.94735439729
 31
0.0
  0
LINE
  5
16B4D7
330
1F
100
AcDbEntity
  8
AM_4
100
AcDbLine
 10
-39673.84284564453
 20
46103.1973543973
 30
0.0
 11
-39666.02073763468
 21
46103.1973543973
 31
0.0
  0
LINE
  5
16B4D8
330
1F
100
AcDbEntity
  8
AM_4
100
AcDbLine
 10
-39673.84284564453
 20
46102.4473543973
 30
0.0
 11
-39666.11859362906
 21
46102.4473543973
 31
0.0
  0
LINE
  5
16B4D9
330
1F
100
AcDbEntity
  8
AM_4
100
AcDbLine
 10
-39673.84284564453
 20
46101.6973543973
 30
0.0
 11
-39666.24511399096
 21
46101.6973543973
 31
0.0
  0
LINE
  5
16B4DA
330
1F
100
AcDbEntity
  8
AM_4
100
AcDbLine
 10
-39673.84284564453
 20
46099.4473543973
 30
0.0
 11
-39666.00552568327
 21
46099.4473543973
 31
0.0
  0
LINE
  5
16B4DB
330
1F
100
AcDbEntity
  8
AM_4
100
AcDbLine
 10
-39673.84284564453
 20
46098.6973543973
 30
0.0
 11
-39665.89748348821
 21
46098.6973543973
 31
0.0
  0
LINE
  5
16B4DC
330
1F
100
AcDbEntity
  8
AM_4
100
AcDbLine
 10
-39673.84284564453
 20
46097.9473543973
 30
0.0
 11
-39665.95491238122
 21
46097.9473543973
 31
0.0
  0
LINE
  5
16B4DD
330
1F
100
AcDbEntity
  8
AM_0N
100
AcDbLine
 10
-39681.34284564453
 20
46110.8454793973
 30
0.0
 11
-39677.59284564453
 21
46110.8454793973
 31
0.0
  0
LINE
  5
16B4DE
330
1F
100
AcDbEntity
  8
AM_0N
100
AcDbLine
 10
-39681.34284564453
 20
46100.0492293973
 30
0.0
 11
-39677.59284564453
 21
46100.0492293973
 31
0.0
  0
LINE
  5
16B4DF
330
1F
100
AcDbEntity
  8
AM_0N
100
AcDbLine
 10
-39681.34284564453
 20
46114.7436043973
 30
0.0
 11
-39677.59284564453
 21
46114.7436043973
 31
0.0
  0
LINE
  5
16B4E0
330
1F
100
AcDbEntity
  8
AM_0
100
AcDbLine
 10
-39673.84284564453
 20
46105.4473543973
 30
0.0
 11
-39673.84284564453
 21
46098.32235439729
 31
0.0
  0
LINE
  5
16B4E1
330
1F
100
AcDbEntity
  8
AM_0
100
AcDbLine
 10
-39673.84284564453
 20
46098.32235439729
 30
0.0
 11
-39677.59284564453
 21
46098.32235439729
 31
0.0
  0
LINE
  5
16B4E2
330
1F
100
AcDbEntity
  8
AM_4
100
AcDbLine
 10
-39673.84284564453
 20
46099.0723543973
 30
0.0
 11
-39677.59284564453
 21
46099.0723543973
 31
0.0
  0
LINE
  5
16B4E3
330
1F
100
AcDbEntity
  8
AM_0
100
AcDbLine
 10
-39673.84284564453
 20
46105.44735439731
 30
0.0
 11
-39673.84284564453
 21
46112.5723543973
 31
0.0
  0
LINE
  5
16B4E4
330
1F
100
AcDbEntity
  8
AM_0
100
AcDbLine
 10
-39673.84284564453
 20
46112.5723543973
 30
0.0
 11
-39677.59284564453
 21
46112.5723543973
 31
0.0
  0
LINE
  5
16B4E5
330
1F
100
AcDbEntity
  8
AM_4
100
AcDbLine
 10
-39673.84284564453
 20
46111.82235439731
 30
0.0
 11
-39677.59284564453
 21
46111.8223543973
 31
0.0
  0
ARC
  5
16B4E6
330
1F
100
AcDbEntity
  8
AM_0N
100
AcDbCircle
 10
-39669.34210697772
 20
46112.3107918973
 30
0.0
 40
3.446490831404329
100
AcDbArc
 50
325.561530595151
 51
25.56153059524193
  0
LINE
  5
16B4E7
330
1F
100
AcDbEntity
  8
AM_0N
100
AcDbLine
 10
-39665.592507255
 20
46112.6886043973
 30
0.0
 11
-39665.592507255
 21
46098.20610439729
 31
0.0
  0
ARC
  5
16B4E8
330
1F
100
AcDbEntity
  8
AM_0N
100
AcDbCircle
 10
-39669.34210697774
 20
46098.5839168973
 30
0.0
 40
3.446490831410095
100
AcDbArc
 50
334.4384694047581
 51
34.43846940484903
  0
ARC
  5
16B4E9
330
1F
100
AcDbEntity
  8
AM_0N
100
AcDbCircle
 10
-39686.18851488783
 20
46105.4473543973
 30
0.0
 40
20.29289874150454
100
AcDbArc
 50
345.985221810688
 51
14.01477818931206
  0
LINE
  5
16B4EA
330
1F
100
AcDbEntity
  8
AM_0N
100
AcDbLine
 10
-39666.49966886546
 20
46096.6348543973
 30
0.0
 11
-39665.592507255
 21
46098.20610439729
 31
0.0
  0
LINE
  5
16B4EB
330
1F
100
AcDbEntity
  8
AM_0N
100
AcDbLine
 10
-39673.84284564453
 20
46111.11172939731
 30
0.0
 11
-39666.49966886546
 21
46111.11172939731
 31
0.0
  0
LINE
  5
16B4EC
330
1F
100
AcDbEntity
  8
AM_0N
100
AcDbLine
 10
-39673.84284564453
 20
46109.6117293973
 30
0.0
 11
-39666.49966886546
 21
46109.6117293973
 31
0.0
  0
LINE
  5
16B4ED
330
1F
100
AcDbEntity
  8
AM_0N
100
AcDbLine
 10
-39673.84284564453
 20
46096.6348543973
 30
0.0
 11
-39666.49966886546
 21
46096.6348543973
 31
0.0
  0
LINE
  5
16B4EE
330
1F
100
AcDbEntity
  8
AM_0N
100
AcDbLine
 10
-39673.84284564453
 20
46101.28297939731
 30
0.0
 11
-39666.49966886546
 21
46101.28297939731
 31
0.0
  0
LINE
  5
16B4EF
330
1F
100
AcDbEntity
  8
AM_0N
100
AcDbLine
 10
-39673.84284564453
 20
46099.7829793973
 30
0.0
 11
-39666.49966886546
 21
46099.7829793973
 31
0.0
  0
LINE
  5
16B4F0
330
1F
100
AcDbEntity
  8
AM_0N
100
AcDbLine
 10
-39666.49966886546
 20
46114.2598543973
 30
0.0
 11
-39665.592507255
 21
46112.6886043973
 31
0.0
  0
LINE
  5
16B4F1
330
1F
100
AcDbEntity
  8
AM_0N
100
AcDbLine
 10
-39673.84284564453
 20
46114.2598543973
 30
0.0
 11
-39666.49966886546
 21
46114.2598543973
 31
0.0
  0
LINE
  5
16B4F2
330
1F
100
AcDbEntity
  8
AM_0
100
AcDbLine
 10
-39673.84284564453
 20
46096.6348543973
 30
0.0
 11
-39673.84284564453
 21
46114.2598543973
 31
0.0
  0
LINE
  5
16B4F3
330
1F
100
AcDbEntity
  8
AM_0
100
AcDbLine
 10
-39665.592507255
 20
46098.20610439729
 30
0.0
 11
-39663.717507255
 21
46098.20610439729
 31
0.0
  0
LINE
  5
16B4F4
330
1F
100
AcDbEntity
  8
AM_0
100
AcDbLine
 10
-39661.842507255
 20
46100.08110439729
 30
0.0
 11
-39661.842507255
 21
46110.8136043973
 31
0.0
  0
ARC
  5
16B4F5
330
1F
100
AcDbEntity
  8
AM_0
100
AcDbCircle
 10
-39663.717507255
 20
46110.8136043973
 30
0.0
 40
1.875
100
AcDbArc
 50
0.0
 51
90.0
1001
GENIUS_GENOBJ-N-FIL_13
1002
{
1000
OWNER
1000
GEN
1002
}
1001
GENIUS_GENODEF_13
1002
{
1000
HIER
1070
     0
1002
}
1002
{
1000
MANEDIT
1070
     0
1002
}
1002
{
1000
NOSEL
1070
     0
1002
}
1002
{
1000
BEHIND
1070
     0
1002
}
1002
{
1000
OTHER
1070
     0
1002
}
1002
{
1000
REACTOR
1002
}
  0
ARC
  5
16B4F6
330
1F
100
AcDbEntity
  8
AM_0
100
AcDbCircle
 10
-39663.717507255
 20
46100.08110439729
 30
0.0
 40
1.875
100
AcDbArc
 50
270.0
 51
0.0
1001
GENIUS_GENODEF_13
1002
{
1000
HIER
1070
     0
1002
}
1002
{
1000
MANEDIT
1070
     0
1002
}
1002
{
1000
NOSEL
1070
     0
1002
}
1002
{
1000
BEHIND
1070
     0
1002
}
1002
{
1000
OTHER
1070
     0
1002
}
1002
{
1000
REACTOR
1002
}
1001
GENIUS_GENOBJ-N-FIL_13
1002
{
1000
OWNER
1000
GEN
1002
}
  0
LINE
  5
16B4F7
330
1F
100
AcDbEntity
  8
AM_0
100
AcDbLine
 10
-39663.717507255
 20
46112.6886043973
 30
0.0
 11
-39665.592507255
 21
46112.6886043973
 31
0.0
  0
LINE
  5
16B4F8
330
1F
100
AcDbEntity
  8
AM_0
100
AcDbLine
 10
-39677.59284564453
 20
46096.1511043973
 30
0.0
 11
-39677.59284564453
 21
46114.7436043973
 31
0.0
  0
LINE
  5
16B4F9
330
1F
100
AcDbEntity
  8
AM_0
100
AcDbLine
 10
-39677.59284564453
 20
46096.1511043973
 30
0.0
 11
-39681.34284564453
 21
46096.1511043973
 31
0.0
  0
LINE
  5
16B4FA
330
1F
100
AcDbEntity
  8
AM_0
100
AcDbLine
 10
-39681.34284564453
 20
46096.1511043973
 30
0.0
 11
-39681.34284564453
 21
46114.74360439731
 31
0.0
  0
LINE
  5
16B4FB
330
1F
100
AcDbEntity
  8
AM_4
100
AcDbLine
 10
-39673.84284564453
 20
46097.1973543973
 30
0.0
 11
-39666.17490933903
 21
46097.1973543973
 31
0.0
  0
LINE
  5
16B4FC
330
1F
100
AcDbEntity
  8
AM_4
100
AcDbLine
 10
-39673.84284564453
 20
46113.6973543973
 30
0.0
 11
-39666.18683464644
 21
46113.6973543973
 31
0.0
  0
LINE
  5
16B4FD
330
1F
100
AcDbEntity
  8
AM_4
100
AcDbLine
 10
-39671.34284564453
 20
46142.44735439732
 30
0.0
 11
-39660.74653964692
 21
46142.44735439732
 31
0.0
  0
LINE
  5
16B4FE
330
1F
100
AcDbEntity
  8
AM_4
100
AcDbLine
 10
-39671.34284564453
 20
46141.44735439732
 30
0.0
 11
-39660.74653964692
 21
46141.44735439732
 31
0.0
  0
LINE
  5
16B4FF
330
1F
100
AcDbEntity
  8
AM_4
100
AcDbLine
 10
-39671.34284564453
 20
46140.44735439732
 30
0.0
 11
-39660.82055837429
 21
46140.44735439732
 31
0.0
  0
LINE
  5
16B500
330
1F
100
AcDbEntity
  8
AM_4
100
AcDbLine
 10
-39671.34284564453
 20
46139.44735439732
 30
0.0
 11
-39660.91336829805
 21
46139.44735439732
 31
0.0
  0
LINE
  5
16B501
330
1F
100
AcDbEntity
  8
AM_4
100
AcDbLine
 10
-39671.34284564453
 20
46138.44735439732
 30
0.0
 11
-39661.04384295724
 21
46138.44735439732
 31
0.0
  0
LINE
  5
16B502
330
1F
100
AcDbEntity
  8
AM_4
100
AcDbLine
 10
-39671.34284564453
 20
46137.44735439732
 30
0.0
 11
-39661.21253677311
 21
46137.44735439732
 31
0.0
  0
LINE
  5
16B503
330
1F
100
AcDbEntity
  8
AM_4
100
AcDbLine
 10
-39671.34284564453
 20
46134.44735439732
 30
0.0
 11
-39660.89308569618
 21
46134.44735439732
 31
0.0
  0
LINE
  5
16B504
330
1F
100
AcDbEntity
  8
AM_4
100
AcDbLine
 10
-39671.34284564453
 20
46133.44735439732
 30
0.0
 11
-39660.74653964692
 21
46133.44735439732
 31
0.0
  0
LINE
  5
16B505
330
1F
100
AcDbEntity
  8
AM_4
100
AcDbLine
 10
-39671.34284564453
 20
46132.44735439732
 30
0.0
 11
-39660.82560129346
 21
46132.44735439733
 31
0.0
  0
LINE
  5
16B506
102
{ACAD_REACTORS
330
16B6DB
102
}
330
1F
100
AcDbEntity
  8
AM_4
100
AcDbLine
 10
-39671.34284564453
 20
46143.44735439732
 30
0.0
 11
-39660.74653964692
 21
46143.44735439732
 31
0.0
  0
LINE
  5
16B507
330
1F
100
AcDbEntity
  8
AM_4
100
AcDbLine
 10
-39671.34284564453
 20
46144.44735439731
 30
0.0
 11
-39660.82055837429
 21
46144.44735439731
 31
0.0
  0
LINE
  5
16B508
330
1F
100
AcDbEntity
  8
AM_4
100
AcDbLine
 10
-39671.34284564453
 20
46145.44735439732
 30
0.0
 11
-39660.91336829805
 21
46145.44735439732
 31
0.0
  0
LINE
  5
16B509
330
1F
100
AcDbEntity
  8
AM_4
100
AcDbLine
 10
-39671.34284564453
 20
46146.44735439732
 30
0.0
 11
-39661.04384295724
 21
46146.44735439732
 31
0.0
  0
LINE
  5
16B50A
330
1F
100
AcDbEntity
  8
AM_4
100
AcDbLine
 10
-39671.34284564453
 20
46147.44735439732
 30
0.0
 11
-39661.21253677311
 21
46147.44735439732
 31
0.0
  0
LINE
  5
16B50B
330
1F
100
AcDbEntity
  8
AM_4
100
AcDbLine
 10
-39671.34284564453
 20
46150.44735439732
 30
0.0
 11
-39660.89308569618
 21
46150.44735439732
 31
0.0
  0
LINE
  5
16B50C
330
1F
100
AcDbEntity
  8
AM_4
100
AcDbLine
 10
-39671.34284564453
 20
46151.44735439732
 30
0.0
 11
-39660.7490294361
 21
46151.44735439732
 31
0.0
  0
LINE
  5
16B50D
330
1F
100
AcDbEntity
  8
AM_4
100
AcDbLine
 10
-39671.34284564453
 20
46152.44735439732
 30
0.0
 11
-39660.82560129346
 21
46152.44735439732
 31
0.0
  0
LINE
  5
16B50E
330
1F
100
AcDbEntity
  8
AM_0N
100
AcDbLine
 10
-39681.34284564453
 20
46135.24985439731
 30
0.0
 11
-39676.34284564454
 21
46135.24985439731
 31
0.0
  0
LINE
  5
16B50F
330
1F
100
AcDbEntity
  8
AM_0N
100
AcDbLine
 10
-39681.34284564453
 20
46149.64485439731
 30
0.0
 11
-39676.34284564454
 21
46149.64485439731
 31
0.0
  0
LINE
  5
16B510
330
1F
100
AcDbEntity
  8
AM_0N
100
AcDbLine
 10
-39681.34284564453
 20
46130.05235439731
 30
0.0
 11
-39676.34284564454
 21
46130.05235439731
 31
0.0
  0
LINE
  5
16B511
330
1F
100
AcDbEntity
  8
AM_0
100
AcDbLine
 10
-39671.34284564453
 20
46142.44735439732
 30
0.0
 11
-39671.34284564453
 21
46151.94735439732
 31
0.0
  0
LINE
  5
16B512
330
1F
100
AcDbEntity
  8
AM_0
100
AcDbLine
 10
-39671.34284564453
 20
46151.94735439732
 30
0.0
 11
-39676.34284564454
 21
46151.94735439732
 31
0.0
  0
LINE
  5
16B513
330
1F
100
AcDbEntity
  8
AM_4
100
AcDbLine
 10
-39671.34284564453
 20
46150.94735439732
 30
0.0
 11
-39676.34284564454
 21
46150.94735439732
 31
0.0
  0
LINE
  5
16B514
330
1F
100
AcDbEntity
  8
AM_0
100
AcDbLine
 10
-39671.34284564453
 20
46142.44735439731
 30
0.0
 11
-39671.34284564453
 21
46132.94735439732
 31
0.0
  0
LINE
  5
16B515
330
1F
100
AcDbEntity
  8
AM_0
100
AcDbLine
 10
-39671.34284564453
 20
46132.94735439732
 30
0.0
 11
-39676.34284564454
 21
46132.94735439732
 31
0.0
  0
LINE
  5
16B516
330
1F
100
AcDbEntity
  8
AM_4
100
AcDbLine
 10
-39671.34284564453
 20
46133.94735439731
 30
0.0
 11
-39676.34284564454
 21
46133.94735439732
 31
0.0
  0
ARC
  5
16B517
330
1F
100
AcDbEntity
  8
AM_0N
100
AcDbCircle
 10
-39665.34186075546
 20
46133.29610439731
 30
0.0
 40
4.595321108539105
100
AcDbArc
 50
334.4384694049562
 51
34.43846940488364
  0
LINE
  5
16B518
330
1F
100
AcDbEntity
  8
AM_0N
100
AcDbLine
 10
-39660.34239445848
 20
46132.79235439732
 30
0.0
 11
-39660.34239445848
 21
46152.10235439731
 31
0.0
  0
ARC
  5
16B519
330
1F
100
AcDbEntity
  8
AM_0N
100
AcDbCircle
 10
-39665.34186075546
 20
46151.59860439732
 30
0.0
 40
4.595321108546793
100
AcDbArc
 50
325.5615305951164
 51
25.56153059504373
  0
ARC
  5
16B51A
330
1F
100
AcDbEntity
  8
AM_0N
100
AcDbCircle
 10
-39687.80373796892
 20
46142.44735439732
 30
0.0
 40
27.05719832200605
100
AcDbArc
 50
345.9852218104991
 51
14.01477818950085
  0
LINE
  5
16B51B
330
1F
100
AcDbEntity
  8
AM_0N
100
AcDbLine
 10
-39661.55194327243
 20
46154.19735439732
 30
0.0
 11
-39660.34239445848
 21
46152.10235439731
 31
0.0
  0
LINE
  5
16B51C
330
1F
100
AcDbEntity
  8
AM_0N
100
AcDbLine
 10
-39671.34284564453
 20
46134.89485439731
 30
0.0
 11
-39661.55194327243
 21
46134.89485439731
 31
0.0
  0
LINE
  5
16B51D
330
1F
100
AcDbEntity
  8
AM_0N
100
AcDbLine
 10
-39671.34284564453
 20
46136.89485439731
 30
0.0
 11
-39661.55194327243
 21
46136.89485439731
 31
0.0
  0
LINE
  5
16B51E
330
1F
100
AcDbEntity
  8
AM_0N
100
AcDbLine
 10
-39671.34284564453
 20
46154.19735439732
 30
0.0
 11
-39661.55194327243
 21
46154.19735439732
 31
0.0
  0
LINE
  5
16B51F
330
1F
100
AcDbEntity
  8
AM_0N
100
AcDbLine
 10
-39671.34284564453
 20
46147.99985439731
 30
0.0
 11
-39661.55194327243
 21
46147.99985439731
 31
0.0
  0
LINE
  5
16B520
330
1F
100
AcDbEntity
  8
AM_0N
100
AcDbLine
 10
-39671.34284564453
 20
46149.99985439731
 30
0.0
 11
-39661.55194327243
 21
46149.99985439731
 31
0.0
  0
LINE
  5
16B521
102
{ACAD_REACTORS
330
16B6DB
102
}
330
1F
100
AcDbEntity
  8
AM_0N
100
AcDbLine
 10
-39661.55194327243
 20
46130.69735439732
 30
0.0
 11
-39660.34239445848
 21
46132.79235439732
 31
0.0
  0
LINE
  5
16B522
330
1F
100
AcDbEntity
  8
AM_0N
100
AcDbLine
 10
-39671.34284564453
 20
46130.69735439732
 30
0.0
 11
-39661.55194327243
 21
46130.69735439732
 31
0.0
  0
LINE
  5
16B523
330
1F
100
AcDbEntity
  8
AM_0
100
AcDbLine
 10
-39671.34284564453
 20
46154.19735439732
 30
0.0
 11
-39671.34284564453
 21
46130.69735439732
 31
0.0
  0
LINE
  5
16B524
330
1F
100
AcDbEntity
  8
AM_0
100
AcDbLine
 10
-39660.34239445848
 20
46152.10235439731
 30
0.0
 11
-39657.84239445848
 21
46152.10235439731
 31
0.0
  0
LINE
  5
16B525
330
1F
100
AcDbEntity
  8
AM_0
100
AcDbLine
 10
-39655.34239445848
 20
46149.60235439732
 30
0.0
 11
-39655.34239445848
 21
46135.29235439732
 31
0.0
  0
ARC
  5
16B526
330
1F
100
AcDbEntity
  8
AM_0
100
AcDbCircle
 10
-39657.84239445848
 20
46135.29235439732
 30
0.0
 40
2.5
100
AcDbArc
 50
270.0
 51
0.0
1001
GENIUS_GENOBJ-N-FIL_13
1002
{
1000
OWNER
1000
GEN
1002
}
1001
GENIUS_GENODEF_13
1002
{
1000
HIER
1070
     0
1002
}
1002
{
1000
MANEDIT
1070
     0
1002
}
1002
{
1000
NOSEL
1070
     0
1002
}
1002
{
1000
BEHIND
1070
     0
1002
}
1002
{
1000
OTHER
1070
     0
1002
}
1002
{
1000
REACTOR
1002
}
  0
ARC
  5
16B527
330
1F
100
AcDbEntity
  8
AM_0
100
AcDbCircle
 10
-39657.84239445848
 20
46149.60235439732
 30
0.0
 40
2.5
100
AcDbArc
 50
0.0
 51
90.0
1001
GENIUS_GENODEF_13
1002
{
1000
HIER
1070
     0
1002
}
1002
{
1000
MANEDIT
1070
     0
1002
}
1002
{
1000
NOSEL
1070
     0
1002
}
1002
{
1000
BEHIND
1070
     0
1002
}
1002
{
1000
OTHER
1070
     0
1002
}
1002
{
1000
REACTOR
1002
}
1001
GENIUS_GENOBJ-N-FIL_13
1002
{
1000
OWNER
1000
GEN
1002
}
  0
LINE
  5
16B528
330
1F
100
AcDbEntity
  8
AM_0
100
AcDbLine
 10
-39657.84239445848
 20
46132.79235439732
 30
0.0
 11
-39660.34239445848
 21
46132.79235439732
 31
0.0
  0
LINE
  5
16B529
330
1F
100
AcDbEntity
  8
AM_0
100
AcDbLine
 10
-39676.34284564454
 20
46154.84235439732
 30
0.0
 11
-39676.34284564454
 21
46130.05235439731
 31
0.0
  0
LINE
  5
16B52A
330
1F
100
AcDbEntity
  8
AM_0
100
AcDbLine
 10
-39676.34284564454
 20
46154.84235439732
 30
0.0
 11
-39681.34284564453
 21
46154.84235439732
 31
0.0
  0
LINE
  5
16B52B
330
1F
100
AcDbEntity
  8
AM_0
100
AcDbLine
 10
-39681.34284564453
 20
46154.84235439732
 30
0.0
 11
-39681.34284564453
 21
46130.05235439731
 31
0.0
  0
LINE
  5
16B52C
330
1F
100
AcDbEntity
  8
AM_4
100
AcDbLine
 10
-39671.34284564453
 20
46153.44735439732
 30
0.0
 11
-39661.11893057054
 21
46153.44735439732
 31
0.0
  0
LINE
  5
16B52D
330
1F
100
AcDbEntity
  8
AM_4
100
AcDbLine
 10
-39671.34284564453
 20
46131.44735439732
 30
0.0
 11
-39661.13483098041
 21
46131.44735439732
 31
0.0
  0
LINE
  5
16B52E
330
1F
100
AcDbEntity
  8
AM_0
100
AcDbLine
 10
-39717.34284564453
 20
46218.44735439731
 30
0.0
 11
-39744.34284564453
 21
46218.44735439731
 31
0.0
  0
LINE
  5
16B52F
330
1F
100
AcDbEntity
  8
AM_0
100
AcDbLine
 10
-39744.34284564453
 20
46218.44735439731
 30
0.0
 11
-39744.34284564453
 21
46217.19735439731
 31
0.0
  0
LINE
  5
16B530
330
1F
100
AcDbEntity
  8
AM_0
100
AcDbLine
 10
-39744.34284564453
 20
46199.69735439731
 30
0.0
 11
-39744.34284564453
 21
46198.44735439731
 31
0.0
  0
LINE
  5
16B531
330
1F
100
AcDbEntity
  8
AM_0
100
AcDbLine
 10
-39744.34284564453
 20
46198.44735439731
 30
0.0
 11
-39717.34284564453
 21
46198.44735439731
 31
0.0
  0
LINE
  5
16B532
330
1F
100
AcDbEntity
  8
anbauteile dünn
100
AcDbLine
 10
-39730.34284564453
 20
46217.19735439731
 30
0.0
 11
-39731.34284564453
 21
46217.19735439731
 31
0.0
  0
LINE
  5
16B533
330
1F
100
AcDbEntity
  8
anbauteile dünn
100
AcDbLine
 10
-39730.34284564453
 20
46199.69735439731
 30
0.0
 11
-39731.34284564453
 21
46199.69735439731
 31
0.0
  0
ARC
  5
16B534
330
1F
100
AcDbEntity
  8
anbauteile dünn
100
AcDbCircle
 10
-39768.1240956445
 20
46208.44735439731
 30
0.0
 40
38.78124999997165
100
AcDbArc
 50
346.9603964966172
 51
13.03960350338286
  0
ARC
  5
16B535
330
1F
100
AcDbEntity
  8
anbauteile dünn
100
AcDbCircle
 10
-39693.56159564456
 20
46208.44735439731
 30
0.0
 40
38.78124999997165
100
AcDbArc
 50
166.9603964965603
 51
193.0396035034396
  0
LINE
  5
16B536
330
1F
100
AcDbEntity
  8
anbauteile dünn
100
AcDbLine
 10
-39735.47708265632
 20
46217.19735439731
 30
0.0
 11
-39737.05432375842
 21
46217.19735439731
 31
0.0
  0
LINE
  5
16B537
330
1F
100
AcDbEntity
  8
anbauteile dünn
100
AcDbLine
 10
-39735.47708265632
 20
46199.69735439731
 30
0.0
 11
-39737.05432375842
 21
46199.69735439731
 31
0.0
  0
ARC
  5
16B538
330
1F
100
AcDbEntity
  8
anbauteile dünn
100
AcDbCircle
 10
-39778.8026897175
 20
46208.44735439732
 30
0.0
 40
43.63467992516144
100
AcDbArc
 50
348.4321298951075
 51
11.5678701048673
  0
ARC
  5
16B539
330
1F
100
AcDbEntity
  8
anbauteile dünn
100
AcDbCircle
 10
-39699.27307375844
 20
46208.44735439731
 30
0.0
 40
38.78124999997165
100
AcDbArc
 50
166.9603964965603
 51
193.0396035034396
  0
ARC
  5
16B53A
330
1F
100
AcDbEntity
  8
anbauteile dünn
100
AcDbCircle
 10
-39778.2254486154
 20
46208.44735439732
 30
0.0
 40
43.63467992516144
100
AcDbArc
 50
348.4321298951075
 51
11.5678701048673
  0
LINE
  5
16B53B
330
1F
100
AcDbEntity
  8
anbauteile dünn
100
AcDbLine
 10
-39739.82967862505
 20
46217.19735439731
 30
0.0
 11
-39741.89628110414
 21
46217.19735439731
 31
0.0
  0
LINE
  5
16B53C
330
1F
100
AcDbEntity
  8
anbauteile dünn
100
AcDbLine
 10
-39739.82967862505
 20
46199.69735439731
 30
0.0
 11
-39741.89628110414
 21
46199.69735439731
 31
0.0
  0
ARC
  5
16B53D
330
1F
100
AcDbEntity
  8
anbauteile dünn
100
AcDbCircle
 10
-39808.89483353353
 20
46208.44735439732
 30
0.0
 40
68.55921260117476
100
AcDbArc
 50
352.6675184315565
 51
7.332481568443298
  0
ARC
  5
16B53E
330
1F
100
AcDbEntity
  8
anbauteile dünn
100
AcDbCircle
 10
-39673.89772867504
 20
46208.44735439731
 30
0.0
 40
68.55921260087002
100
AcDbArc
 50
172.6675184314758
 51
187.3324815684952
  0
ARC
  5
16B53F
330
1F
100
AcDbEntity
  8
anbauteile dünn
100
AcDbCircle
 10
-39807.82823105444
 20
46208.44735439732
 30
0.0
 40
68.55921260117476
100
AcDbArc
 50
352.6675184315565
 51
7.332481568443298
  0
LINE
  5
16B540
330
1F
100
AcDbEntity
  8
anbauteile dünn
100
AcDbLine
 10
-39742.73799027084
 20
46217.19735439731
 30
0.0
 11
-39745.13157356827
 21
46217.19735439731
 31
0.0
  0
LINE
  5
16B541
330
1F
100
AcDbEntity
  8
anbauteile dünn
100
AcDbLine
 10
-39742.73799027084
 20
46199.69735439731
 30
0.0
 11
-39745.13157356827
 21
46199.69735439731
 31
0.0
  0
ARC
  5
16B542
330
1F
100
AcDbEntity
  8
anbauteile dünn
100
AcDbCircle
 10
-40261.23300309496
 20
46208.44735439731
 30
0.0
 40
517.1754546752563
100
AcDbArc
 50
359.0305765925115
 51
0.9694234074884453
  0
ARC
  5
16B543
330
1F
100
AcDbEntity
  8
anbauteile dünn
100
AcDbCircle
 10
-39228.03014403601
 20
46208.44735439731
 30
0.0
 40
517.1754546808005
100
AcDbArc
 50
179.0305765925376
 51
180.9694234074624
  0
ARC
  5
16B544
330
1F
100
AcDbEntity
  8
anbauteile dünn
100
AcDbCircle
 10
-40259.83941979753
 20
46208.44735439731
 30
0.0
 40
517.1754546752563
100
AcDbArc
 50
359.0305765925115
 51
0.9694234074884453
  0
LINE
  5
16B545
330
1F
100
AcDbEntity
  8
anbauteile dünn
100
AcDbLine
 10
-39745.13157356827
 20
46217.19735439731
 30
0.0
 11
-39745.76765720113
 21
46217.19735439732
 31
0.0
  0
LINE
  5
16B546
330
1F
100
AcDbEntity
  8
anbauteile dünn
100
AcDbLine
 10
-39745.76765720113
 20
46217.19735439732
 30
0.0
 11
-39745.76765720113
 21
46199.69735439727
 31
0.0
  0
LINE
  5
16B547
330
1F
100
AcDbEntity
  8
anbauteile dünn
100
AcDbLine
 10
-39745.76765720113
 20
46199.69735439727
 30
0.0
 11
-39745.13157356826
 21
46199.69735439727
 31
0.0
  0
LINE
  5
16B548
330
1F
100
AcDbEntity
  8
AM_0
100
AcDbLine
 10
-39717.34284564453
 20
46218.44735439731
 30
0.0
 11
-39717.34284564453
 21
46217.19735439731
 31
0.0
  0
LINE
  5
16B549
330
1F
100
AcDbEntity
  8
AM_0
100
AcDbLine
 10
-39717.34284564453
 20
46199.69735439731
 30
0.0
 11
-39717.34284564453
 21
46198.44735439731
 31
0.0
  0
LINE
  5
16B54A
330
1F
100
AcDbEntity
  8
anbauteile dünn
100
AcDbLine
 10
-39726.20860863275
 20
46217.19735439731
 30
0.0
 11
-39724.63136753065
 21
46217.19735439731
 31
0.0
  0
LINE
  5
16B54B
330
1F
100
AcDbEntity
  8
anbauteile dünn
100
AcDbLine
 10
-39726.20860863275
 20
46199.69735439731
 30
0.0
 11
-39724.63136753065
 21
46199.69735439731
 31
0.0
  0
ARC
  5
16B54C
330
1F
100
AcDbEntity
  8
anbauteile dünn
100
AcDbCircle
 10
-39682.88300157158
 20
46208.44735439732
 30
0.0
 40
43.63467992516144
100
AcDbArc
 50
168.4321298951078
 51
191.5678701048928
  0
ARC
  5
16B54D
330
1F
100
AcDbEntity
  8
anbauteile dünn
100
AcDbCircle
 10
-39762.41261753062
 20
46208.44735439731
 30
0.0
 40
38.78124999997165
100
AcDbArc
 50
346.9603964965094
 51
13.03960350349061
  0
ARC
  5
16B54E
330
1F
100
AcDbEntity
  8
anbauteile dünn
100
AcDbCircle
 10
-39683.46024267367
 20
46208.44735439732
 30
0.0
 40
43.63467992516144
100
AcDbArc
 50
168.4321298951078
 51
191.5678701048928
  0
LINE
  5
16B54F
330
1F
100
AcDbEntity
  8
anbauteile dünn
100
AcDbLine
 10
-39721.85601266403
 20
46217.19735439731
 30
0.0
 11
-39719.78941018493
 21
46217.19735439731
 31
0.0
  0
LINE
  5
16B550
330
1F
100
AcDbEntity
  8
anbauteile dünn
100
AcDbLine
 10
-39721.85601266403
 20
46199.69735439731
 30
0.0
 11
-39719.78941018493
 21
46199.69735439731
 31
0.0
  0
ARC
  5
16B551
330
1F
100
AcDbEntity
  8
anbauteile dünn
100
AcDbCircle
 10
-39652.79085775554
 20
46208.44735439732
 30
0.0
 40
68.55921260117476
100
AcDbArc
 50
172.6675184315566
 51
187.3324815684435
  0
ARC
  5
16B552
330
1F
100
AcDbEntity
  8
anbauteile dünn
100
AcDbCircle
 10
-39787.78796261402
 20
46208.44735439731
 30
0.0
 40
68.55921260087002
100
AcDbArc
 50
352.6675184315047
 51
7.332481568524185
  0
ARC
  5
16B553
330
1F
100
AcDbEntity
  8
anbauteile dünn
100
AcDbCircle
 10
-39653.85746023463
 20
46208.44735439732
 30
0.0
 40
68.55921260117476
100
AcDbArc
 50
172.6675184315566
 51
187.3324815684435
  0
LINE
  5
16B554
330
1F
100
AcDbEntity
  8
anbauteile dünn
100
AcDbLine
 10
-39718.94770101823
 20
46217.19735439731
 30
0.0
 11
-39716.5541177208
 21
46217.19735439731
 31
0.0
  0
LINE
  5
16B555
330
1F
100
AcDbEntity
  8
anbauteile dünn
100
AcDbLine
 10
-39718.94770101823
 20
46199.69735439731
 30
0.0
 11
-39716.5541177208
 21
46199.69735439731
 31
0.0
  0
ARC
  5
16B556
330
1F
100
AcDbEntity
  8
anbauteile dünn
100
AcDbCircle
 10
-39200.4526881941
 20
46208.44735439731
 30
0.0
 40
517.1754546752563
100
AcDbArc
 50
179.0305765925376
 51
180.9694234074624
  0
ARC
  5
16B557
330
1F
100
AcDbEntity
  8
anbauteile dünn
100
AcDbCircle
 10
-40233.65554725305
 20
46208.44735439731
 30
0.0
 40
517.1754546808005
100
AcDbArc
 50
359.0305765925376
 51
0.9694234074623942
  0
ARC
  5
16B558
330
1F
100
AcDbEntity
  8
anbauteile dünn
100
AcDbCircle
 10
-39201.84627149153
 20
46208.44735439731
 30
0.0
 40
517.1754546752563
100
AcDbArc
 50
179.0305765925376
 51
180.9694234074624
  0
LINE
  5
16B559
330
1F
100
AcDbEntity
  8
anbauteile dünn
100
AcDbLine
 10
-39716.5541177208
 20
46217.19735439731
 30
0.0
 11
-39715.91803408793
 21
46217.19735439732
 31
0.0
  0
LINE
  5
16B55A
330
1F
100
AcDbEntity
  8
anbauteile dünn
100
AcDbLine
 10
-39715.91803408793
 20
46217.19735439732
 30
0.0
 11
-39715.91803408793
 21
46199.69735439727
 31
0.0
  0
LINE
  5
16B55B
330
1F
100
AcDbEntity
  8
anbauteile dünn
100
AcDbLine
 10
-39715.91803408793
 20
46199.69735439727
 30
0.0
 11
-39716.55411772081
 21
46199.69735439727
 31
0.0
  0
LINE
  5
16B55C
330
1F
100
AcDbEntity
  8
AM_0
100
AcDbLine
 10
-39715.84284564453
 20
46223.44735439732
 30
0.0
 11
-39745.84284564453
 21
46223.44735439732
 31
0.0
  0
LINE
  5
16B55D
330
1F
100
AcDbEntity
  8
AM_0
100
AcDbLine
 10
-39745.84284564453
 20
46223.44735439732
 30
0.0
 11
-39745.84284564453
 21
46219.44735439732
 31
0.0
  0
LINE
  5
16B55E
330
1F
100
AcDbEntity
  8
AM_0
100
AcDbLine
 10
-39745.84284564453
 20
46219.44735439732
 30
0.0
 11
-39715.84284564453
 21
46219.44735439731
 31
0.0
  0
LINE
  5
16B55F
330
1F
100
AcDbEntity
  8
AM_0
100
AcDbLine
 10
-39715.84284564453
 20
46219.44735439731
 30
0.0
 11
-39715.84284564453
 21
46223.44735439732
 31
0.0
  0
LINE
  5
16B560
330
1F
100
AcDbEntity
  8
AM_0
100
AcDbLine
 10
-39723.34284564453
 20
46219.44735439731
 30
0.0
 11
-39723.34284564453
 21
46223.44735439732
 31
0.0
  0
LINE
  5
16B561
330
1F
100
AcDbEntity
  8
AM_0
100
AcDbLine
 10
-39738.34284564453
 20
46219.44735439731
 30
0.0
 11
-39738.34284564453
 21
46223.44735439732
 31
0.0
  0
LINE
  5
16B562
330
1F
100
AcDbEntity
  8
AM_0
100
AcDbLine
 10
-39715.84284564453
 20
46234.44735439733
 30
0.0
 11
-39745.84284564453
 21
46234.44735439733
 31
0.0
  0
LINE
  5
16B563
330
1F
100
AcDbEntity
  8
AM_0
100
AcDbLine
 10
-39745.84284564453
 20
46234.44735439733
 30
0.0
 11
-39745.84284564453
 21
46224.44735439732
 31
0.0
  0
LINE
  5
16B564
330
1F
100
AcDbEntity
  8
AM_0
100
AcDbLine
 10
-39745.84284564453
 20
46224.44735439732
 30
0.0
 11
-39715.84284564453
 21
46224.44735439731
 31
0.0
  0
LINE
  5
16B565
330
1F
100
AcDbEntity
  8
AM_0
100
AcDbLine
 10
-39715.84284564453
 20
46224.44735439731
 30
0.0
 11
-39715.84284564453
 21
46234.44735439733
 31
0.0
  0
LINE
  5
16B566
330
1F
100
AcDbEntity
  8
AM_0
100
AcDbLine
 10
-39723.34284564453
 20
46224.44735439731
 30
0.0
 11
-39723.34284564453
 21
46234.44735439733
 31
0.0
  0
LINE
  5
16B567
330
1F
100
AcDbEntity
  8
AM_0
100
AcDbLine
 10
-39738.34284564453
 20
46224.44735439731
 30
0.0
 11
-39738.34284564453
 21
46234.44735439733
 31
0.0
  0
LINE
  5
16B568
330
1F
100
AcDbEntity
  8
AM_0
100
AcDbLine
 10
-39719.84284564453
 20
46218.44735439731
 30
0.0
 11
-39719.84284564453
 21
46219.44735439731
 31
0.0
  0
LINE
  5
16B569
330
1F
100
AcDbEntity
  8
AM_0
100
AcDbLine
 10
-39741.84284564453
 20
46218.44735439731
 30
0.0
 11
-39741.84284564453
 21
46219.44735439731
 31
0.0
  0
LINE
  5
16B56A
330
1F
100
AcDbEntity
  8
AM_0
100
AcDbLine
 10
-39719.84284564453
 20
46223.44735439732
 30
0.0
 11
-39719.84284564453
 21
46224.44735439731
 31
0.0
  0
LINE
  5
16B56B
330
1F
100
AcDbEntity
  8
AM_0
100
AcDbLine
 10
-39741.84284564453
 20
46223.44735439732
 30
0.0
 11
-39741.84284564453
 21
46224.44735439731
 31
0.0
  0
LINE
  5
16B56C
330
1F
100
AcDbEntity
  8
AM_0
100
AcDbLine
 10
-39730.84284564453
 20
46252.44735439733
 30
0.0
 11
-39741.84284564453
 21
46252.44735439733
 31
0.0
  0
LINE
  5
16B56D
330
1F
100
AcDbEntity
  8
AM_0
100
AcDbLine
 10
-39730.84284564453
 20
46252.44735439733
 30
0.0
 11
-39719.84284564453
 21
46252.44735439733
 31
0.0
  0
LINE
  5
16B56E
330
1F
100
AcDbEntity
  8
AM_0
100
AcDbLine
 10
-39741.84284564453
 20
46252.44735439733
 30
0.0
 11
-39741.84284564453
 21
46234.44735439733
 31
0.0
  0
LINE
  5
16B56F
330
1F
100
AcDbEntity
  8
AM_0
100
AcDbLine
 10
-39710.84284564454
 20
46252.44735439733
 30
0.0
 11
-39719.84284564453
 21
46252.44735439733
 31
0.0
  0
LINE
  5
16B570
330
1F
100
AcDbEntity
  8
AM_0
100
AcDbLine
 10
-39710.84284564454
 20
46252.44735439733
 30
0.0
 11
-39710.84284564454
 21
46230.44735439733
 31
0.0
  0
LINE
  5
16B571
330
1F
100
AcDbEntity
  8
AM_0
100
AcDbLine
 10
-39710.84284564454
 20
46230.44735439733
 30
0.0
 11
-39713.84284564453
 21
46234.44735439733
 31
0.0
  0
LINE
  5
16B572
330
1F
100
AcDbEntity
  8
AM_0
100
AcDbLine
 10
-39713.84284564453
 20
46234.44735439733
 30
0.0
 11
-39715.84284564453
 21
46234.44735439733
 31
0.0
  0
LINE
  5
16B573
330
1F
100
AcDbEntity
  8
AM_0
100
AcDbLine
 10
-39720.84284564454
 20
46251.44735439732
 30
0.0
 11
-39730.84284564453
 21
46241.44735439733
 31
0.0
  0
LINE
  5
16B574
330
1F
100
AcDbEntity
  8
AM_0
100
AcDbLine
 10
-39730.84284564453
 20
46241.44735439733
 30
0.0
 11
-39723.84284564453
 21
46234.44735439733
 31
0.0
  0
LINE
  5
16B575
330
1F
100
AcDbEntity
  8
AM_0
100
AcDbLine
 10
-39710.84284564454
 20
46250.94735439732
 30
0.0
 11
-39707.84284564453
 21
46250.94735439732
 31
0.0
  0
LINE
  5
16B576
330
1F
100
AcDbEntity
  8
AM_0
100
AcDbLine
 10
-39710.84284564454
 20
46249.94735439733
 30
0.0
 11
-39707.84284564453
 21
46249.94735439733
 31
0.0
  0
LINE
  5
16B577
330
1F
100
AcDbEntity
  8
AM_0
100
AcDbLine
 10
-39710.84284564454
 20
46231.94735439732
 30
0.0
 11
-39707.84284564453
 21
46231.94735439732
 31
0.0
  0
LINE
  5
16B578
330
1F
100
AcDbEntity
  8
AM_0
100
AcDbLine
 10
-39710.84284564454
 20
46232.94735439732
 30
0.0
 11
-39707.84284564453
 21
46232.94735439732
 31
0.0
  0
LINE
  5
16B579
330
1F
100
AcDbEntity
  8
AM_0
100
AcDbLine
 10
-39707.84284564453
 20
46254.19735439733
 30
0.0
 11
-39707.84284564453
 21
46228.69735439732
 31
0.0
  0
LINE
  5
16B57A
330
1F
100
AcDbEntity
  8
AM_0
100
AcDbLine
 10
-39707.84284564453
 20
46228.69735439732
 30
0.0
 11
-39702.84284564453
 21
46228.69735439732
 31
0.0
  0
LINE
  5
16B57B
330
1F
100
AcDbEntity
  8
AM_0
100
AcDbLine
 10
-39702.84284564453
 20
46228.69735439732
 30
0.0
 11
-39702.84284564453
 21
46254.19735439732
 31
0.0
  0
LINE
  5
16B57C
330
1F
100
AcDbEntity
  8
AM_0
100
AcDbLine
 10
-39702.84284564453
 20
46254.19735439732
 30
0.0
 11
-39707.84284564453
 21
46254.19735439733
 31
0.0
  0
LINE
  5
16B57D
330
1F
100
AcDbEntity
  8
AM_0
100
AcDbLine
 10
-39702.84284564453
 20
46253.94735439733
 30
0.0
 11
-39694.34284564453
 21
46253.94735439733
 31
0.0
  0
LINE
  5
16B57E
330
1F
100
AcDbEntity
  8
AM_0
100
AcDbLine
 10
-39702.84284564453
 20
46228.94735439732
 30
0.0
 11
-39694.34284564453
 21
46228.94735439732
 31
0.0
  0
LINE
  5
16B57F
330
1F
100
AcDbEntity
  8
AM_0
100
AcDbLine
 10
-39694.34284564453
 20
46253.94735439733
 30
0.0
 11
-39694.34284564453
 21
46228.94735439732
 31
0.0
  0
LINE
  5
16B580
330
1F
100
AcDbEntity
  8
AM_0
100
AcDbLine
 10
-39694.34284564453
 20
46253.94735439733
 30
0.0
 11
-39689.34284564453
 21
46253.94735439733
 31
0.0
  0
LINE
  5
16B581
330
1F
100
AcDbEntity
  8
AM_0
100
AcDbLine
 10
-39694.34284564453
 20
46241.44735439733
 30
0.0
 11
-39689.34284564453
 21
46241.44735439733
 31
0.0
  0
LINE
  5
16B582
330
1F
100
AcDbEntity
  8
AM_0
100
AcDbLine
 10
-39694.34284564453
 20
46228.94735439732
 30
0.0
 11
-39689.34284564453
 21
46228.94735439732
 31
0.0
  0
ARC
  5
16B583
330
1F
100
AcDbEntity
  8
AM_0
100
AcDbCircle
 10
-39698.10847064454
 20
46247.69735439732
 30
0.0
 40
10.76562500000592
100
AcDbArc
 50
324.510656749935
 51
35.48934325006495
  0
ARC
  5
16B584
330
1F
100
AcDbEntity
  8
AM_0
100
AcDbCircle
 10
-39698.10847064454
 20
46235.19735439733
 30
0.0
 40
10.76562500000592
100
AcDbArc
 50
324.510656749935
 51
35.48934325006495
  0
LINE
  5
16B585
330
1F
100
AcDbEntity
  8
AM_0
100
AcDbLine
 10
-39687.34284564453
 20
46235.19735439733
 30
0.0
 11
-39687.34284564453
 21
46247.69735439732
 31
0.0
  0
LINE
  5
16B586
330
1F
100
AcDbEntity
  8
AM_0
100
AcDbLine
 10
-39740.84284564453
 20
46223.44735439732
 30
0.0
 11
-39740.84284564453
 21
46224.44735439731
 31
0.0
  0
LINE
  5
16B587
330
1F
100
AcDbEntity
  8
AM_0
100
AcDbLine
 10
-39720.84284564454
 20
46223.44735439732
 30
0.0
 11
-39720.84284564454
 21
46224.44735439731
 31
0.0
  0
LINE
  5
16B588
330
1F
100
AcDbEntity
  8
AM_0
100
AcDbLine
 10
-39719.84284564453
 20
46196.44735439731
 30
0.0
 11
-39719.84284564453
 21
46198.4473543973
 31
0.0
  0
LINE
  5
16B589
330
1F
100
AcDbEntity
  8
AM_0
100
AcDbLine
 10
-39741.84284564453
 20
46196.44735439731
 30
0.0
 11
-39741.84284564453
 21
46198.4473543973
 31
0.0
  0
LINE
  5
16B58A
330
1F
100
AcDbEntity
  8
AM_0
100
AcDbLine
 10
-39740.84284564453
 20
46196.44735439731
 30
0.0
 11
-39740.84284564453
 21
46198.4473543973
 31
0.0
  0
LINE
  5
16B58B
330
1F
100
AcDbEntity
  8
AM_0
100
AcDbLine
 10
-39720.84284564454
 20
46196.44735439731
 30
0.0
 11
-39720.84284564454
 21
46198.4473543973
 31
0.0
  0
LINE
  5
16B58C
330
1F
100
AcDbEntity
  8
anbauteile dünn
100
AcDbLine
 10
-39755.34284564458
 20
45886.70992842827
 30
0.0
 11
-39755.34284564458
 21
45889.70992842827
 31
0.0
  0
LINE
  5
16B58D
330
1F
100
AcDbEntity
  8
anbauteile dünn
100
AcDbLine
 10
-39706.34284564453
 20
45886.70992842827
 30
0.0
 11
-39706.34284564453
 21
45889.70992842827
 31
0.0
  0
LINE
  5
16B58E
330
1F
100
AcDbEntity
  8
anbauteile dünn
100
AcDbLine
 10
-39755.34284564458
 20
45889.70992842827
 30
0.0
 11
-39706.34284564453
 21
45889.70992842827
 31
0.0
  0
LINE
  5
16B58F
330
1F
100
AcDbEntity
  8
anbauteile dünn
100
AcDbLine
 10
-39706.34284564453
 20
45886.70992842827
 30
0.0
 11
-39755.34284564458
 21
45886.70992842827
 31
0.0
  0
LINE
  5
16B590
330
1F
100
AcDbEntity
  8
AM_0
100
AcDbLine
 10
-39687.34284564453
 20
46244.69735439733
 30
0.0
 11
-39687.34284564453
 21
46238.19735439733
 31
0.0
  0
LINE
  5
16B591
330
1F
100
AcDbEntity
  8
AM_0
100
AcDbLine
 10
-39661.842507255
 20
46108.6973543973
 30
0.0
 11
-39661.842507255
 21
46102.1973543973
 31
0.0
  0
SPLINE
  5
16B592
330
1F
100
AcDbEntity
  8
AM_0
100
AcDbSpline
210
0.0
220
0.0
230
1.0
 70
     8
 71
     3
 72
    13
 73
     9
 74
     7
 42
0.0000000001
 43
0.0000000001
 44
0.00001
 40
0.0
 40
0.0
 40
0.0
 40
0.0
 40
40.73495303027497
 40
77.00963333264049
 40
135.5571338546823
 40
187.3591487765626
 40
217.4064323201071
 40
244.1086135932375
 40
244.1086135932375
 40
244.1086135932375
 40
244.1086135932375
 10
-39687.34284564453
 20
46244.69735439733
 30
0.0
 10
-39673.87079401863
 20
46244.37398119059
 30
0.0
 10
-39648.40181274404
 20
46243.76264251884
 30
0.0
 10
-39602.77430713998
 20
46223.91378983817
 30
0.0
 10
-39598.29803563735
 20
46170.99194761444
 30
0.0
 10
-39596.43916341008
 20
46117.11271280015
 30
0.0
 10
-39634.35472966429
 20
46102.41748871322
 30
0.0
 10
-39653.04719099205
 20
46102.26779119134
 30
0.0
 10
-39661.842507255
 20
46102.1973543973
 30
0.0
 11
-39687.34284564453
 21
46244.69735439733
 31
0.0
 11
-39646.80025610908
 21
46240.74326383959
 31
0.0
 11
-39614.51843016222
 21
46224.19829044658
 31
0.0
 11
-39598.6291472927
 21
46167.84813066623
 31
0.0
 11
-39608.03664984707
 21
46116.90750203194
 31
0.0
 11
-39635.20652246616
 21
46104.0763964596
 31
0.0
 11
-39661.842507255
 21
46102.1973543973
 31
0.0
  0
SPLINE
  5
16B593
330
1F
100
AcDbEntity
  8
AM_0
100
AcDbSpline
210
0.0
220
0.0
230
1.0
 70
     8
 71
     3
 72
    62
 73
    58
 74
     0
 42
0.0000000001
 43
0.0000000001
 40
0.0
 40
0.0
 40
0.0
 40
0.0
 40
19.0771443515713
 40
19.0771443515713
 40
38.1542887031426
 40
38.1542887031426
 40
43.67168076709877
 40
43.67168076709877
 40
49.18907283105495
 40
49.18907283105495
 40
60.22385695896729
 40
60.22385695896729
 40
71.25864108687963
 40
71.25864108687963
 40
76.95140900926094
 40
76.95140900926094
 40
85.67411109445963
 40
85.67411109445963
 40
94.39681317965833
 40
94.39681317965833
 40
103.119515264857
 40
103.119515264857
 40
111.8422173500557
 40
111.8422173500557
 40
127.1195712495499
 40
127.1195712495499
 40
133.4385336221535
 40
133.4385336221535
 40
137.6399868074674
 40
137.6399868074674
 40
141.8414399927813
 40
141.8414399927813
 40
150.2443463634091
 40
150.2443463634091
 40
160.917902638331
 40
160.917902638331
 40
171.5914589132529
 40
171.5914589132529
 40
178.935158328639
 40
178.935158328639
 40
186.2788577440251
 40
186.2788577440251
 40
188.8089873051363
 40
188.8089873051363
 40
191.3391168662475
 40
191.3391168662475
 40
196.3993759884699
 40
196.3993759884699
 40
206.944135237849
 40
206.944135237849
 40
217.488894487228
 40
217.488894487228
 40
228.033653736607
 40
228.033653736607
 40
238.578412985986
 40
238.578412985986
 40
244.1086135932375
 40
244.1086135932375
 40
244.1086135932375
 40
244.1086135932375
 10
-39687.49882193117
 20
46238.19922609773
 30
0.0
 10
-39681.18954072522
 20
46238.04778275767
 30
0.0
 10
-39674.98607533126
 20
46237.89640101631
 30
0.0
 10
-39662.75713226967
 20
46237.01061367639
 30
0.0
 10
-39656.73384151515
 20
46236.27771941097
 30
0.0
 10
-39649.03083554264
 20
46234.60972252
 30
0.0
 10
-39647.30438785965
 20
46234.18793570489
 30
0.0
 10
-39643.86704473975
 20
46233.24107476897
 30
0.0
 10
-39642.15877459647
 20
46232.71675234809
 30
0.0
 10
-39637.11589734863
 20
46230.9901196127
 30
0.0
 10
-39633.86366545706
 20
46229.63307338719
 30
0.0
 10
-39627.84330767767
 20
46226.52246743602
 30
0.0
 10
-39625.07690424523
 20
46224.76892486876
 30
0.0
 10
-39621.42669774924
 20
46221.84885329901
 30
0.0
 10
-39620.27940514894
 20
46220.80949739334
 30
0.0
 10
-39617.64166380354
 20
46218.07169394476
 30
0.0
 10
-39616.2429966855
 20
46216.26639567874
 30
0.0
 10
-39613.75741194236
 20
46212.33343423424
 30
0.0
 10
-39612.67226951608
 20
46210.20570409806
 30
0.0
 10
-39610.77464684577
 20
46205.63519868235
 30
0.0
 10
-39609.96298655842
 20
46203.19287968209
 30
0.0
 10
-39608.57610963556
 20
46198.03185459139
 30
0.0
 10
-39608.00105004021
 20
46195.3136641085
 30
0.0
 10
-39606.67979463622
 20
46187.5274151983
 30
0.0
 10
-39606.13131900327
 20
46182.22965410553
 30
0.0
 10
-39605.54453179553
 20
46174.46367135401
 30
0.0
 10
-39605.39527467472
 20
46172.15776200506
 30
0.0
 10
-39605.16321432915
 20
46168.2787219023
 30
0.0
 10
-39605.07347415385
 20
46166.71526045362
 30
0.0
 10
-39604.90426912211
 20
46163.60789059837
 30
0.0
 10
-39604.82585698487
 20
46162.06086951439
 30
0.0
 10
-39604.62676016936
 20
46157.45456327211
 30
0.0
 10
-39604.54250361388
 20
46154.42975503457
 30
0.0
 10
-39604.56142095641
 20
46147.76466689713
 30
0.0
 10
-39604.72268868445
 20
46144.17906127234
 30
0.0
 10
-39605.49540364961
 20
46137.48676753732
 30
0.0
 10
-39606.10766409955
 20
46134.38326384158
 30
0.0
 10
-39607.59228574634
 20
46129.69053134312
 30
0.0
 10
-39608.32212127927
 20
46127.93105134765
 30
0.0
 10
-39610.05170101683
 20
46124.72545496514
 30
0.0
 10
-39611.04932894443
 20
46123.27856693615
 30
0.0
 10
-39612.6151390046
 20
46121.51343162292
 30
0.0
 10
-39613.03587453061
 20
46121.07787607685
 30
0.0
 10
-39613.93836298245
 20
46120.21840210079
 30
0.0
 10
-39614.41761317276
 20
46119.79696898357
 30
0.0
 10
-39615.93550907651
 20
46118.56057353071
 30
0.0
 10
-39617.05468918905
 20
46117.77364803038
 30
0.0
 10
-39620.78601454953
 20
46115.48724672729
 30
0.0
 10
-39623.7028624135
 20
46114.14365091604
 30
0.0
 10
-39629.92515232839
 20
46111.93677592292
 30
0.0
 10
-39633.22827921329
 20
46111.07187832211
 30
0.0
 10
-39639.79196995296
 20
46109.81783891738
 30
0.0
 10
-39643.07602582027
 20
46109.42186903281
 30
0.0
 10
-39649.71517289855
 20
46108.91765468118
 30
0.0
 10
-39653.06976240852
 20
46108.81007453951
 30
0.0
 10
-39658.26904660299
 20
46108.72625160759
 30
0.0
 10
-39660.07299155524
 20
46108.71173389989
 30
0.0
 10
-39661.89456046905
 20
46108.69714596803
 30
0.0
  0
CIRCLE
  5
16B594
330
1F
100
AcDbEntity
  8
anbauteile dünn
100
AcDbCircle
 10
-39751.59284564453
 20
46097.94735439731
 30
0.0
 40
2.75
  0
CIRCLE
  5
16B595
330
1F
100
AcDbEntity
  8
anbauteile dünn
100
AcDbCircle
 10
-39751.59284564453
 20
46106.94735439731
 30
0.0
 40
2.75
  0
CIRCLE
  5
16B596
330
1F
100
AcDbEntity
  8
anbauteile dünn
100
AcDbCircle
 10
-39751.59284564453
 20
46115.94735439731
 30
0.0
 40
2.75
  0
CIRCLE
  5
16B597
330
1F
100
AcDbEntity
  8
anbauteile dünn
100
AcDbCircle
 10
-39751.59284564453
 20
46124.94735439732
 30
0.0
 40
2.75
  0
LWPOLYLINE
  5
16B598
330
1F
100
AcDbEntity
  8
anbauteile dünn
100
AcDbPolyline
 90
        8
 70
     1
 43
0.0
 10
-39720.09284564453
 20
46109.44735439731
 10
-39710.09284564453
 20
46109.44735439731
 42
-0.4142135623730951
 10
-39707.59284564453
 20
46106.94735439731
 10
-39707.59284564453
 20
46096.94735439731
 42
-0.4142135623730951
 10
-39710.09284564453
 20
46094.44735439732
 10
-39720.09284564453
 20
46094.44735439732
 42
-0.4142135623730951
 10
-39722.59284564453
 20
46096.94735439731
 10
-39722.59284564453
 20
46106.94735439731
 42
-0.4142135623730951
1001
GENIUS_GENREC_14
1002
{
1000
PYDIR
1011
-39722.59284564453
1021
46094.44735439732
1031
0.0
1002
}
1002
{
1000
PXDIR
1011
-39707.59284564453
1021
46109.44735439731
1031
0.0
1002
}
1002
{
1000
PORI
1011
-39722.59284564453
1021
46109.44735439731
1031
0.0
1002
}
1002
{
1000
PINS
1011
-39722.59284564453
1021
46109.44735439731
1031
0.0
1002
}
1002
{
1000
PINS2
1011
-39707.59284564453
1021
46094.44735439732
1031
0.0
1002
}
1002
{
1000
C
1070
     1
1002
}
1001
GENIUS_GENODEF_13
1002
{
1000
HIER
1070
     0
1002
}
1002
{
1000
MANEDIT
1070
     0
1002
}
1002
{
1000
NOSEL
1070
     0
1002
}
1002
{
1000
BEHIND
1070
     0
1002
}
1002
{
1000
OTHER
1070
     0
1002
}
1002
{
1000
REACTOR
1002
}
1001
GENIUS_GENOBJ-N-REC_13
1002
{
1000
OWNER
1000
GEN
1002
}
  0
LWPOLYLINE
  5
16B599
330
1F
100
AcDbEntity
  8
anbauteile dünn
100
AcDbPolyline
 90
        8
 70
     1
 43
0.0
 10
-39720.09284564453
 20
46127.44735439731
 10
-39710.09284564453
 20
46127.44735439731
 42
-0.4142135623730951
 10
-39707.59284564453
 20
46124.94735439732
 10
-39707.59284564453
 20
46114.94735439731
 42
-0.4142135623730951
 10
-39710.09284564453
 20
46112.44735439731
 10
-39720.09284564453
 20
46112.44735439731
 42
-0.4142135623730951
 10
-39722.59284564453
 20
46114.94735439731
 10
-39722.59284564453
 20
46124.94735439732
 42
-0.4142135623730951
1001
GENIUS_GENREC_14
1002
{
1000
PYDIR
1011
-39722.59284564453
1021
46112.44735439731
1031
0.0
1002
}
1002
{
1000
PXDIR
1011
-39707.59284564453
1021
46127.44735439731
1031
0.0
1002
}
1002
{
1000
PORI
1011
-39722.59284564453
1021
46127.44735439731
1031
0.0
1002
}
1002
{
1000
PINS
1011
-39722.59284564453
1021
46127.44735439731
1031
0.0
1002
}
1002
{
1000
PINS2
1011
-39707.59284564453
1021
46112.44735439731
1031
0.0
1002
}
1002
{
1000
C
1070
     1
1002
}
1001
GENIUS_GENODEF_13
1002
{
1000
HIER
1070
     0
1002
}
1002
{
1000
MANEDIT
1070
     0
1002
}
1002
{
1000
NOSEL
1070
     0
1002
}
1002
{
1000
BEHIND
1070
     0
1002
}
1002
{
1000
OTHER
1070
     0
1002
}
1002
{
1000
REACTOR
1002
}
1001
GENIUS_GENOBJ-N-REC_13
1002
{
1000
OWNER
1000
GEN
1002
}
  0
LINE
  5
16B59A
330
1F
100
AcDbEntity
  8
AM_0
100
AcDbLine
 10
-39747.09284564454
 20
45884.27380671591
 30
0.0
 11
-39747.09284564454
 21
45886.70992842827
 31
0.0
  0
LINE
  5
16B59B
330
1F
100
AcDbEntity
  8
AM_0
100
AcDbLine
 10
-39747.09284564454
 20
45889.70992842827
 30
0.0
 11
-39747.09284564454
 21
45894.55741669951
 31
0.0
  0
LINE
  5
16B59C
330
1F
100
AcDbEntity
  8
AM_0
100
AcDbLine
 10
-39714.59284564458
 20
45884.27380671591
 30
0.0
 11
-39714.59284564458
 21
45886.70992842827
 31
0.0
  0
LINE
  5
16B59D
330
1F
100
AcDbEntity
  8
AM_0
100
AcDbLine
 10
-39714.59284564458
 20
45889.70992842827
 30
0.0
 11
-39714.59284564458
 21
45894.55741669951
 31
0.0
  0
LINE
  5
16B59E
330
1F
100
AcDbEntity
  8
0
100
AcDbLine
 10
-39999.66581194917
 20
45952.46796287888
 30
0.0
 11
-39980.62026659714
 21
45944.77963220824
 31
0.0
  0
LINE
  5
16B59F
330
1F
100
AcDbEntity
  8
0
100
AcDbLine
 10
-39980.62026659714
 20
45944.77963220824
 30
0.0
 11
-39966.59918740268
 21
45979.51267259406
 31
0.0
  0
LINE
  5
16B5A0
330
1F
100
AcDbEntity
  8
0
100
AcDbLine
 10
-39966.59918740268
 20
45979.51267259406
 30
0.0
 11
-39987.9709053465
 21
45988.14003566056
 31
0.0
  0
LINE
  5
16B5A1
330
1F
100
AcDbEntity
  8
0
100
AcDbLine
 10
-39987.9709053465
 20
45988.14003566056
 30
0.0
 11
-39986.68026232266
 21
45991.33721867691
 31
0.0
  0
LINE
  5
16B5A2
330
1F
100
AcDbEntity
  8
0
100
AcDbLine
 10
-39986.68026232266
 20
45991.33721867691
 30
0.0
 11
-39999.61960154262
 21
45996.56058806559
 31
0.0
  0
LINE
  5
16B5A3
330
1F
100
AcDbEntity
  8
0
100
AcDbLine
 10
-39999.61960154262
 20
45996.56058806559
 30
0.0
 11
-40007.95011705566
 21
45975.92422136828
 31
0.0
  0
LINE
  5
16B5A4
330
1F
100
AcDbEntity
  8
0
100
AcDbLine
 10
-40007.95011705566
 20
45975.92422136828
 30
0.0
 11
-39999.66581194917
 21
45952.46796287888
 31
0.0
  0
LINE
  5
16B5A5
330
1F
100
AcDbEntity
  8
0
100
AcDbLine
 10
-39977.10033035255
 20
45953.49922404873
 30
0.0
 11
-39988.44042569576
 21
45958.07700857649
 31
0.0
  0
LINE
  5
16B5A6
330
1F
100
AcDbEntity
  8
0
100
AcDbLine
 10
-39988.44042569576
 20
45958.07700857649
 30
0.0
 11
-39981.51788430525
 21
45975.22553946726
 31
0.0
  0
LINE
  5
16B5A7
330
1F
100
AcDbEntity
  8
0
100
AcDbLine
 10
-39981.51788430525
 20
45975.22553946726
 30
0.0
 11
-39970.17778896205
 21
45970.64775493951
 31
0.0
  0
LINE
  5
16B5A8
330
1F
100
AcDbEntity
  8
0
100
AcDbLine
 10
-39987.9709053465
 20
45988.14003566056
 30
0.0
 11
-39998.94137316026
 21
45960.96397479237
 31
0.0
  0
LINE
  5
16B5A9
330
1F
100
AcDbEntity
  8
0
100
AcDbLine
 10
-39998.94137316026
 20
45960.96397479237
 30
0.0
 11
-39988.44042569576
 21
45958.07700857649
 31
0.0
  0
LINE
  5
16B5AA
330
1F
100
AcDbEntity
  8
0
100
AcDbLine
 10
-39996.85727136998
 20
45995.44548700673
 30
0.0
 11
-40004.42513403783
 21
45976.6983651888
 31
0.0
  0
LINE
  5
16B5AB
330
1F
100
AcDbEntity
  8
0
100
AcDbLine
 10
-40004.42513403783
 20
45976.6983651888
 30
0.0
 11
-39998.94137316026
 21
45960.96397479237
 31
0.0
  0
LINE
  5
16B5AC
330
1F
100
AcDbEntity
  8
0
100
AcDbLine
 10
-40004.42513403783
 20
45976.6983651888
 30
0.0
 11
-39999.77278709504
 21
45974.8202996869
 31
0.0
  0
LINE
  5
16B5AD
330
1F
100
AcDbEntity
  8
0
100
AcDbLine
 10
-39999.77278709504
 20
45974.8202996869
 30
0.0
 11
-39994.55154827749
 21
45987.75436105253
 31
0.0
  0
LINE
  5
16B5AE
330
1F
100
AcDbEntity
  8
0
100
AcDbLine
 10
-39994.55154827749
 20
45987.75436105253
 30
0.0
 11
-39999.2038952203
 21
45989.63242655445
 31
0.0
  0
LINE
  5
16B5AF
330
1F
100
AcDbEntity
  8
anbauteile dünn
100
AcDbLine
 10
-39980.99953071662
 20
46004.68593147088
 30
0.0
 11
-39982.64216797477
 21
46000.61678775979
 31
0.0
  0
LINE
  5
16B5B0
330
1F
100
AcDbEntity
  8
anbauteile dünn
100
AcDbLine
 10
-39982.64216797477
 20
46000.61678775979
 30
0.0
 11
-39996.08385656051
 21
46006.04294619781
 31
0.0
  0
LINE
  5
16B5B1
330
1F
100
AcDbEntity
  8
anbauteile dünn
100
AcDbLine
 10
-39996.08385656051
 20
46006.04294619781
 30
0.0
 11
-39994.44121930235
 21
46010.1120899089
 31
0.0
  0
LINE
  5
16B5B2
330
1F
100
AcDbEntity
  8
anbauteile dünn
100
AcDbLine
 10
-39994.44121930235
 20
46010.1120899089
 30
0.0
 11
-39980.99953071662
 21
46004.68593147088
 31
0.0
  0
LINE
  5
16B5B3
330
1F
100
AcDbEntity
  8
anbauteile dünn
100
AcDbLine
 10
-39983.14829724581
 20
45999.36300349915
 30
0.0
 11
-39996.58998583153
 21
46004.78916193718
 31
0.0
  0
LINE
  5
16B5B4
330
1F
100
AcDbEntity
  8
anbauteile dünn
100
AcDbLine
 10
-39996.58998583153
 20
46004.78916193718
 30
0.0
 11
-39997.17745335849
 21
46003.33388641551
 31
0.0
  0
LINE
  5
16B5B5
330
1F
100
AcDbEntity
  8
anbauteile dünn
100
AcDbLine
 10
-39997.17745335849
 20
46003.33388641551
 30
0.0
 11
-39983.73576477276
 21
45997.90772797748
 31
0.0
  0
LINE
  5
16B5B6
330
1F
100
AcDbEntity
  8
anbauteile dünn
100
AcDbLine
 10
-39983.73576477276
 20
45997.90772797748
 30
0.0
 11
-39983.14829724581
 21
45999.36300349915
 31
0.0
  0
LINE
  5
16B5B7
330
1F
100
AcDbEntity
  8
anbauteile dünn
100
AcDbLine
 10
-39995.1466883732
 20
46005.66462891759
 30
0.0
 11
-39995.65281764423
 21
46004.41084465695
 31
0.0
  0
LINE
  5
16B5B8
330
1F
100
AcDbEntity
  8
anbauteile dünn
100
AcDbLine
 10
-39994.29324602345
 20
46005.32011019303
 30
0.0
 11
-39994.79937529448
 21
46004.06632593239
 31
0.0
  0
LINE
  5
16B5B9
330
1F
100
AcDbEntity
  8
anbauteile dünn
100
AcDbLine
 10
-39993.29330273278
 20
46003.45835258984
 30
0.0
 11
-39993.88077025973
 21
46002.00307706818
 31
0.0
  0
LINE
  5
16B5BA
330
1F
100
AcDbEntity
  8
anbauteile dünn
100
AcDbLine
 10
-39992.78717346175
 20
46004.71213685048
 30
0.0
 11
-39991.14453620358
 21
46008.78128056157
 31
0.0
  0
LINE
  5
16B5BB
330
1F
100
AcDbEntity
  8
0
100
AcDbLine
 10
-39987.9709053465
 20
45988.14003566056
 30
0.0
 11
-39990.85515233641
 21
45989.30435225977
 31
0.0
  0
LINE
  5
16B5BC
330
1F
100
AcDbEntity
  8
0
100
AcDbLine
 10
-39990.85515233641
 20
45989.30435225977
 30
0.0
 11
-39989.56450931256
 21
45992.50153527611
 31
0.0
  0
ARC
  5
16B5BD
330
1F
100
AcDbEntity
  8
0
100
AcDbCircle
 10
-39958.49880054738
 20
45956.0461538367
 30
0.0
 40
2.717923499999999
100
AcDbArc
 50
248.0169910913218
 51
68.01699109132179
  0
LINE
  5
16B5BE
330
1F
100
AcDbEntity
  8
0
100
AcDbLine
 10
-39959.51620525451
 20
45953.52583722687
 30
0.0
 11
-39974.62713170704
 21
45959.62583579132
 31
0.0
  0
LINE
  5
16B5BF
330
1F
100
AcDbEntity
  8
0
100
AcDbLine
 10
-39957.48139584025
 20
45958.56647044652
 30
0.0
 11
-39972.59232229278
 21
45964.66646901097
 31
0.0
  0
LINE
  5
16B5C0
330
1F
100
AcDbEntity
  8
0
100
AcDbLine
 10
-39972.90515595381
 20
45963.89151695256
 30
0.0
 11
-39979.23216237522
 21
45966.44561118425
 31
0.0
  0
LINE
  5
16B5C1
330
1F
100
AcDbEntity
  8
0
100
AcDbLine
 10
-39974.314298046
 20
45960.40078784974
 30
0.0
 11
-39980.64130446739
 21
45962.95488208143
 31
0.0
  0
LINE
  5
16B5C2
330
1F
100
AcDbEntity
  8
anbauteile dünn
100
AcDbLine
 10
-39983.57933616209
 20
46000.99510504001
 30
0.0
 11
-39984.08546543313
 21
45999.74132077938
 31
0.0
  0
LINE
  5
16B5C3
330
1F
100
AcDbEntity
  8
anbauteile dünn
100
AcDbLine
 10
-39984.43277851185
 20
46001.33962376457
 30
0.0
 11
-39984.93890778287
 21
46000.08583950393
 31
0.0
  0
LINE
  5
16B5C4
330
1F
100
AcDbEntity
  8
anbauteile dünn
100
AcDbLine
 10
-39986.44498034458
 20
46000.69381284649
 30
0.0
 11
-39987.03244787153
 21
45999.23853732482
 31
0.0
  0
LINE
  5
16B5C5
330
1F
100
AcDbEntity
  8
anbauteile dünn
100
AcDbLine
 10
-39984.24189404379
 20
45996.65394371684
 30
0.0
 11
-39997.68358262952
 21
46002.08010215487
 31
0.0
  0
LINE
  5
16B5C6
330
1F
100
AcDbEntity
  8
anbauteile dünn
100
AcDbLine
 10
-39997.68358262952
 20
46002.08010215487
 30
0.0
 11
-39998.27105015648
 21
46000.6248266332
 31
0.0
  0
LINE
  5
16B5C7
330
1F
100
AcDbEntity
  8
anbauteile dünn
100
AcDbLine
 10
-39998.27105015648
 20
46000.6248266332
 30
0.0
 11
-39984.82936157076
 21
45995.19866819517
 31
0.0
  0
LINE
  5
16B5C8
330
1F
100
AcDbEntity
  8
anbauteile dünn
100
AcDbLine
 10
-39984.82936157076
 20
45995.19866819517
 30
0.0
 11
-39984.24189404379
 21
45996.65394371684
 31
0.0
  0
LINE
  5
16B5C9
330
1F
100
AcDbEntity
  8
anbauteile dünn
100
AcDbLine
 10
-39996.24028517119
 20
46002.95556913528
 30
0.0
 11
-39996.74641444222
 21
46001.70178487464
 31
0.0
  0
LINE
  5
16B5CA
330
1F
100
AcDbEntity
  8
anbauteile dünn
100
AcDbLine
 10
-39995.38684282144
 20
46002.61105041073
 30
0.0
 11
-39995.89297209247
 21
46001.35726615008
 31
0.0
  0
LINE
  5
16B5CB
330
1F
100
AcDbEntity
  8
anbauteile dünn
100
AcDbLine
 10
-39994.38689953076
 20
46000.74929280753
 30
0.0
 11
-39994.97436705772
 21
45999.29401728585
 31
0.0
  0
LINE
  5
16B5CC
330
1F
100
AcDbEntity
  8
anbauteile dünn
100
AcDbLine
 10
-39984.67293296008
 20
45998.28604525771
 30
0.0
 11
-39985.17906223112
 21
45997.03226099707
 31
0.0
  0
LINE
  5
16B5CD
330
1F
100
AcDbEntity
  8
anbauteile dünn
100
AcDbLine
 10
-39985.52637530982
 20
45998.63056398227
 30
0.0
 11
-39986.03250458086
 21
45997.37677972163
 31
0.0
  0
LINE
  5
16B5CE
330
1F
100
AcDbEntity
  8
anbauteile dünn
100
AcDbLine
 10
-39987.53857714257
 20
45997.98475306418
 30
0.0
 11
-39988.12604466953
 21
45996.5294775425
 31
0.0
  0
LINE
  5
16B5CF
330
1F
100
AcDbEntity
  8
anbauteile dünn
100
AcDbLine
 10
-39985.33549084178
 20
45993.94488393454
 30
0.0
 11
-39998.77717942751
 21
45999.37104237256
 31
0.0
  0
LINE
  5
16B5D0
330
1F
100
AcDbEntity
  8
anbauteile dünn
100
AcDbLine
 10
-39998.77717942751
 20
45999.37104237256
 30
0.0
 11
-39999.36464695447
 21
45997.91576685089
 31
0.0
  0
LINE
  5
16B5D1
330
1F
100
AcDbEntity
  8
anbauteile dünn
100
AcDbLine
 10
-39999.36464695447
 20
45997.91576685089
 30
0.0
 11
-39985.92295836873
 21
45992.48960841286
 31
0.0
  0
LINE
  5
16B5D2
330
1F
100
AcDbEntity
  8
anbauteile dünn
100
AcDbLine
 10
-39985.92295836873
 20
45992.48960841286
 30
0.0
 11
-39985.33549084178
 21
45993.94488393454
 31
0.0
  0
LINE
  5
16B5D3
330
1F
100
AcDbEntity
  8
anbauteile dünn
100
AcDbLine
 10
-39997.33388196917
 20
46000.24650935297
 30
0.0
 11
-39997.84001124019
 21
45998.99272509232
 31
0.0
  0
LINE
  5
16B5D4
330
1F
100
AcDbEntity
  8
anbauteile dünn
100
AcDbLine
 10
-39996.48043961943
 20
45999.90199062841
 30
0.0
 11
-39996.98656889045
 21
45998.64820636777
 31
0.0
  0
LINE
  5
16B5D5
330
1F
100
AcDbEntity
  8
anbauteile dünn
100
AcDbLine
 10
-39995.48049632874
 20
45998.04023302522
 30
0.0
 11
-39996.0679638557
 21
45996.58495750356
 31
0.0
  0
LINE
  5
16B5D6
330
1F
100
AcDbEntity
  8
anbauteile dünn
100
AcDbLine
 10
-39985.76652975807
 20
45995.57698547539
 30
0.0
 11
-39986.2726590291
 21
45994.32320121477
 31
0.0
  0
LINE
  5
16B5D7
330
1F
100
AcDbEntity
  8
anbauteile dünn
100
AcDbLine
 10
-39986.61997210781
 20
45995.92150419996
 30
0.0
 11
-39987.12610137885
 21
45994.66771993932
 31
0.0
  0
LINE
  5
16B5D8
330
1F
100
AcDbEntity
  8
anbauteile dünn
100
AcDbLine
 10
-39988.63217394056
 20
45995.27569328188
 30
0.0
 11
-39989.21964146751
 21
45993.82041776021
 31
0.0
  0
LINE
  5
16B5D9
330
1F
100
AcDbEntity
  8
anbauteile dünn
100
AcDbLine
 10
-39998.42747876716
 20
45997.53744957067
 30
0.0
 11
-39998.93360803818
 21
45996.28366531002
 31
0.0
  0
LINE
  5
16B5DA
330
1F
100
AcDbEntity
  8
anbauteile dünn
100
AcDbLine
 10
-39997.57403641742
 20
45997.1929308461
 30
0.0
 11
-39998.08016568844
 21
45995.93914658547
 31
0.0
  0
LINE
  5
16B5DB
330
1F
100
AcDbEntity
  8
anbauteile dünn
100
AcDbLine
 10
-39986.86012655606
 20
45992.86792569309
 30
0.0
 11
-39987.36625582708
 21
45991.61414143246
 31
0.0
  0
LINE
  5
16B5DC
330
1F
100
AcDbEntity
  8
anbauteile dünn
100
AcDbLine
 10
-39987.71356890581
 20
45993.21244441765
 30
0.0
 11
-39988.21969817683
 21
45991.95866015702
 31
0.0
  0
LINE
  5
16B5DD
330
1F
100
AcDbEntity
  8
anbauteile dünn
100
AcDbLine
 10
-39985.93885107355
 20
46001.94759710713
 30
0.0
 11
-39984.29621381539
 21
46006.01674081822
 31
0.0
  0
LINE
  5
16B5DE
330
1F
100
AcDbEntity
  8
0
100
AcDbLine
 10
-39980.64130446739
 20
45962.95488208143
 30
0.0
 11
-39979.23216237522
 21
45966.44561118425
 31
0.0
  0
LINE
  5
16B5DF
330
1F
100
AcDbEntity
  8
AM_0
100
AcDbLine
 10
-39806.34329683059
 20
46145.19735439732
 30
0.0
 11
-39806.34329683059
 21
46139.69735439732
 31
0.0
  0
ELLIPSE
  5
16B5E0
330
1F
100
AcDbEntity
  8
AM_0
100
AcDbEllipse
 10
-39888.18844567222
 20
46110.39761116509
 30
0.0
 11
-63.78525845180357
 21
-20.30886363931593
 31
0.0
210
0.0
220
0.0
230
1.0
 40
0.319268560888933
 41
3.795854803685917
 42
9.141915101653383
  0
SPLINE
  5
16B5E1
330
1F
100
AcDbEntity
  8
AM_0
100
AcDbSpline
210
0.0
220
0.0
230
1.0
 70
     8
 71
     3
 72
    16
 73
    12
 74
     0
 42
0.0000000001
 43
0.0000000001
 40
3.295877904433504
 40
3.295877904433504
 40
3.295877904433504
 40
3.295877904433504
 40
3.310652062208395
 40
3.310652062208395
 40
3.424651122339163
 40
3.424651122339163
 40
3.53865018246993
 40
3.53865018246993
 40
3.652649242600697
 40
3.652649242600697
 40
3.749016056119697
 40
3.749016056119697
 40
3.749016056119697
 40
3.749016056119697
 10
-39830.11266950754
 20
46129.82415872449
 30
0.0
 10
-39830.14429544728
 20
46129.85721295285
 30
0.0
 10
-39830.17800751225
 20
46129.89121807743
 30
0.0
 10
-39830.49151855368
 20
46130.19618779762
 30
0.0
 10
-39830.90541976549
 20
46130.5187915954
 30
0.0
 10
-39832.06483543134
 20
46131.18828397065
 30
0.0
 10
-39832.80802959106
 20
46131.53328299936
 30
0.0
 10
-39834.60837608318
 20
46132.17519760571
 30
0.0
 10
-39835.66446365473
 20
46132.47238010693
 30
0.0
 10
-39837.87085853756
 20
46132.94113907156
 30
0.0
 10
-39838.98103511037
 20
46133.12428335651
 30
0.0
 10
-39840.18044421256
 20
46133.27151713906
 30
0.0
  0
SPLINE
  5
16B5E2
330
1F
100
AcDbEntity
  8
AM_0
100
AcDbSpline
210
0.0
220
0.0
230
1.0
 70
     8
 71
     3
 72
    57
 73
    53
 74
     0
 42
0.0000000001
 43
0.0000000001
 40
4.102280365923453
 40
4.102280365923453
 40
4.102280365923453
 40
4.102280365923453
 40
4.12399034533011
 40
4.12399034533011
 40
4.359660896694816
 40
4.359660896694816
 40
4.698414015898384
 40
4.698414015898384
 40
5.037167135101952
 40
5.037167135101952
 40
5.375920254305521
 40
5.375920254305521
 40
5.614934068060012
 40
5.614934068060012
 40
5.804026177500555
 40
5.804026177500555
 40
5.954570842422291
 40
5.954570842422291
 40
6.076069584918828
 40
6.076069584918828
 40
6.197568327415365
 40
6.197568327415365
 40
6.283185307179586
 40
6.283185307179586
 40
6.283185307179586
 40
6.386182647442183
 40
6.386182647442183
 40
6.489179987704779
 40
6.489179987704779
 40
6.592177327967376
 40
6.592177327967376
 40
6.695174668229972
 40
6.695174668229972
 40
6.900604315924634
 40
6.900604315924634
 40
7.106033963619295
 40
7.106033963619295
 40
7.311463611313957
 40
7.311463611313957
 40
7.63462722501583
 40
7.63462722501583
 40
7.957790838717704
 40
7.957790838717704
 40
8.280954452419576
 40
8.280954452419576
 40
8.604118066121451
 40
8.604118066121451
 40
8.821511971538637
 40
8.821511971538637
 40
8.997315574666835
 40
8.997315574666835
 40
9.005910576871279
 40
9.005910576871279
 40
9.005910576871279
 40
9.005910576871279
 10
-39856.47262346715
 20
46133.28087214523
 30
0.0
 10
-39856.85998877035
 20
46133.24647393179
 30
0.0
 10
-39857.25004640161
 20
46133.20990650229
 30
0.0
 10
-39861.90493952955
 20
46132.75059324561
 30
0.0
 10
-39866.47170905091
 20
46132.07452654886
 30
0.0
 10
-39877.99457883103
 20
46129.84348274731
 30
0.0
 10
-39885.12173630252
 20
46128.03141026129
 30
0.0
 10
-39899.16971490384
 20
46123.6275531617
 30
0.0
 10
-39906.08830846253
 20
46121.0365092229
 30
0.0
 10
-39918.87613787016
 20
46115.39725827744
 30
0.0
 10
-39924.74351074672
 20
46112.34834039764
 30
0.0
 10
-39933.21856455647
 20
46107.11900265755
 30
0.0
 10
-39936.27825439018
 20
46104.9468868745
 30
0.0
 10
-39940.76296635729
 20
46101.2260543543
 30
0.0
 10
-39942.39521420595
 20
46099.64095021093
 30
0.0
 10
-39944.63257726867
 20
46097.0459494047
 30
0.0
 10
-39945.37746885478
 20
46095.98513748539
 30
0.0
 10
-39946.29253048427
 20
46094.34930489906
 30
0.0
 10
-39946.54501951375
 20
46093.72270582593
 30
0.0
 10
-39946.82032220146
 20
46092.74263080395
 30
0.0
 10
-39946.84644190937
 20
46092.39533456086
 30
0.0
 10
-39946.82764421403
 20
46091.98367103306
 30
0.0
 10
-39946.80331929382
 20
46091.86241831049
 30
0.0
 10
-39946.7664751249
 20
46091.74669963332
 30
0.0
 10
-39946.72215154083
 20
46091.60748991111
 30
0.0
 10
-39946.65925600244
 20
46091.47046959135
 30
0.0
 10
-39946.39197416414
 20
46091.09714149716
 30
0.0
 10
-39946.18262546817
 20
46090.8623532064
 30
0.0
 10
-39945.51708509531
 20
46090.32081949652
 30
0.0
 10
-39945.06136225405
 20
46090.01720385159
 30
0.0
 10
-39943.88061350268
 20
46089.40663836825
 30
0.0
 10
-39943.15689561001
 20
46089.10030493132
 30
0.0
 10
-39940.61185106421
 20
46088.24921548706
 30
0.0
 10
-39938.41628518125
 20
46087.77574583166
 30
0.0
 10
-39933.22406458429
 20
46087.17953655806
 30
0.0
 10
-39930.22814222954
 20
46087.0525794984
 30
0.0
 10
-39923.62891564651
 20
46087.18637446595
 30
0.0
 10
-39920.02520444903
 20
46087.44598594508
 30
0.0
 10
-39910.21166343086
 20
46088.61035957724
 30
0.0
 10
-39903.6911083294
 20
46089.80175625283
 30
0.0
 10
-39890.35596693441
 20
46093.02536154922
 30
0.0
 10
-39883.54274694601
 20
46095.0566285209
 30
0.0
 10
-39870.37706216134
 20
46099.73598973037
 30
0.0
 10
-39864.02636982116
 20
46102.38371293829
 30
0.0
 10
-39852.49612891533
 20
46107.98893526618
 30
0.0
 10
-39847.31784649087
 20
46110.94793942672
 30
0.0
 10
-39840.15209835515
 20
46115.82317055277
 30
0.0
 10
-39837.674333
 20
46117.76398962768
 30
0.0
 10
-39834.0622272501
 20
46121.07678219977
 30
0.0
 10
-39832.76274760565
 20
46122.48730125447
 30
0.0
 10
-39831.75375106273
 20
46123.81109732091
 30
0.0
 10
-39831.7075342106
 20
46123.87244146011
 30
0.0
 10
-39831.66212603493
 20
46123.93341294691
 30
0.0
  0
ELLIPSE
  5
16B5E3
330
1F
100
AcDbEntity
  8
AM_0
100
AcDbEllipse
 10
-39878.3197459372
 20
46094.06855728912
 30
0.0
 11
53.18285404349219
 21
42.92862754028582
 31
0.0
210
0.0
220
0.0
230
1.0
 40
0.3097478582620555
 41
-0.489355750409225
 42
2.069750543426833
  0
ELLIPSE
  5
16B5E4
330
1F
100
AcDbEntity
  8
AM_0
100
AcDbEllipse
 10
-39878.3197459372
 20
46094.06855728912
 30
0.0
 11
52.0047273891152
 21
42.14875404169759
 31
0.0
210
0.0
220
0.0
230
1.0
 40
0.319268560888933
 41
8.49907391549749
 42
9.033413885774683
  0
ELLIPSE
  5
16B5E5
330
1F
100
AcDbEntity
  8
AM_0
100
AcDbEllipse
 10
-39878.3197459372
 20
46094.06855728912
 30
0.0
 11
52.0047273891152
 21
42.14875404169759
 31
0.0
210
0.0
220
0.0
230
1.0
 40
0.319268560888933
 41
9.248668526323005
 42
11.99329463316417
  0
SPLINE
  5
16B5E6
330
1F
100
AcDbEntity
  8
AM_0
100
AcDbSpline
210
0.0
220
0.0
230
1.0
 70
     8
 71
     3
 72
    37
 73
    33
 74
     0
 42
0.0000000001
 43
0.0000000001
 40
5.756197262249607
 40
5.756197262249607
 40
5.756197262249607
 40
5.756197262249607
 40
5.804026177500555
 40
5.804026177500555
 40
5.954570842422291
 40
5.954570842422291
 40
6.076069584918828
 40
6.076069584918828
 40
6.197568327415365
 40
6.197568327415365
 40
6.283185307179586
 40
6.283185307179586
 40
6.283185307179586
 40
6.386182647442183
 40
6.386182647442183
 40
6.489179987704779
 40
6.489179987704779
 40
6.592177327967376
 40
6.592177327967376
 40
6.695174668229972
 40
6.695174668229972
 40
6.900604315924634
 40
6.900604315924634
 40
7.106033963619295
 40
7.106033963619295
 40
7.311463611313957
 40
7.311463611313957
 40
7.63462722501583
 40
7.63462722501583
 40
7.957790838717704
 40
7.957790838717704
 40
8.251339063366449
 40
8.251339063366449
 40
8.251339063366449
 40
8.251339063366449
 10
-39831.66212603493
 20
46124.21552004154
 30
0.0
 10
-39831.46238076413
 20
46124.7039068909
 30
0.0
 10
-39831.2823103312
 20
46125.17638105909
 30
0.0
 10
-39830.61742847152
 20
46127.06394744964
 30
0.0
 10
-39830.31014236609
 20
46128.32321733832
 30
0.0
 10
-39830.05384295889
 20
46130.17998782769
 30
0.0
 10
-39830.04695527748
 20
46130.85550960256
 30
0.0
 10
-39830.14758328839
 20
46131.86853113342
 30
0.0
 10
-39830.24976898078
 20
46132.20148008428
 30
0.0
 10
-39830.41723318162
 20
46132.57801156355
 30
0.0
 10
-39830.48405592354
 20
46132.68207234211
 30
0.0
 10
-39830.56052183716
 20
46132.77641887935
 30
0.0
 10
-39830.65251043271
 20
46132.88991788881
 30
0.0
 10
-39830.76099740105
 20
46132.99461265699
 30
0.0
 10
-39831.14590833656
 20
46133.24492649739
 30
0.0
 10
-39831.42640023644
 20
46133.38732281791
 30
0.0
 10
-39832.2434790117
 20
46133.64921023999
 30
0.0
 10
-39832.77848917087
 20
46133.76595739202
 30
0.0
 10
-39834.10052385943
 20
46133.90445687042
 30
0.0
 10
-39834.88610570397
 20
46133.92611162288
 30
0.0
 10
-39837.56631471822
 20
46133.79163254624
 30
0.0
 10
-39839.78350019607
 20
46133.43278492143
 30
0.0
 10
-39844.83615721849
 20
46132.09664224966
 30
0.0
 10
-39847.67248302425
 20
46131.12354165148
 30
0.0
 10
-39853.76955246645
 20
46128.5950170215
 30
0.0
 10
-39857.03109058135
 20
46127.04050692502
 30
0.0
 10
-39865.74621321488
 20
46122.38132343937
 30
0.0
 10
-39871.38476040293
 20
46118.89652065038
 30
0.0
 10
-39882.6293983045
 20
46111.03676584543
 30
0.0
 10
-39888.23455960659
 20
46106.66318848837
 30
0.0
 10
-39898.30737952083
 20
46097.9288631344
 30
0.0
 10
-39902.83095710873
 20
46093.60448777297
 30
0.0
 10
-39906.87868334969
 20
46089.31657671573
 30
0.0
  0
SPLINE
  5
16B5E7
330
1F
100
AcDbEntity
  8
AM_0
100
AcDbSpline
210
0.0
220
0.0
230
1.0
 70
     8
 71
     3
 72
    12
 73
     8
 74
     0
 42
0.0000000001
 43
0.0000000001
 40
8.400194056427382
 40
8.400194056427382
 40
8.400194056427382
 40
8.400194056427382
 40
8.604118066121451
 40
8.604118066121451
 40
8.821511971538637
 40
8.821511971538637
 40
8.889123323482905
 40
8.889123323482905
 40
8.889123323482905
 40
8.889123323482905
 10
-39912.64487263774
 20
46082.84917872301
 30
0.0
 10
-39915.08928253635
 20
46079.93438640532
 30
0.0
 10
-39917.2620597809
 20
46077.0906556745
 30
0.0
 10
-39921.07922851701
 20
46071.51741523952
 30
0.0
 10
-39922.67976305878
 20
46068.8073619158
 30
0.0
 10
-39924.24336121368
 20
46065.61736212059
 30
0.0
 10
-39924.5746355974
 20
46064.88733869333
 30
0.0
 10
-39924.86670144194
 20
46064.18862475503
 30
0.0
  0
SPLINE
  5
16B5E8
330
1F
100
AcDbEntity
  8
AM_0
100
AcDbSpline
210
0.0
220
0.0
230
1.0
 70
     8
 71
     3
 72
    32
 73
    28
 74
     0
 42
0.0000000001
 43
0.0000000001
 40
9.165255314614464
 40
9.165255314614464
 40
9.165255314614464
 40
9.165255314614464
 40
9.25184018899568
 40
9.25184018899568
 40
9.365839249126448
 40
9.365839249126448
 40
9.479838309257214
 40
9.479838309257214
 40
9.593837369387982
 40
9.593837369387982
 40
9.707836429518749
 40
9.707836429518749
 40
9.821835489649515
 40
9.821835489649515
 40
9.935834549780283
 40
9.935834549780283
 40
10.17150510114499
 40
10.17150510114499
 40
10.40717565250969
 40
10.40717565250969
 40
10.6428462038744
 40
10.6428462038744
 40
10.98159932307797
 40
10.98159932307797
 40
11.32035244228154
 40
11.32035244228154
 40
11.61219685271618
 40
11.61219685271618
 40
11.61219685271618
 40
11.61219685271618
 10
-39926.57169395834
 20
46057.52340361608
 30
0.0
 10
-39926.57729368166
 20
46057.06126255751
 30
0.0
 10
-39926.54227879679
 20
46056.68236073238
 30
0.0
 10
-39926.41719743394
 20
46055.9967681942
 30
0.0
 10
-39926.3190839555
 20
46055.75281806429
 30
0.0
 10
-39926.13428730134
 20
46055.41321212109
 30
0.0
 10
-39926.04935744524
 20
46055.30760099629
 30
0.0
 10
-39925.76430845336
 20
46055.05822299263
 30
0.0
 10
-39925.55398117552
 20
46054.91350560658
 30
0.0
 10
-39924.84034259876
 20
46054.61284639895
 30
0.0
 10
-39924.33736371325
 20
46054.46318122529
 30
0.0
 10
-39923.01373086117
 20
46054.26203252503
 30
0.0
 10
-39922.19592607856
 20
46054.2114634988
 30
0.0
 10
-39920.28544527709
 20
46054.26947178131
 30
0.0
 10
-39919.19366362846
 20
46054.37741264227
 30
0.0
 10
-39915.49435275627
 20
46054.98773724203
 30
0.0
 10
-39912.51601594264
 20
46055.79169167272
 30
0.0
 10
-39905.91347221286
 20
46058.19367924264
 30
0.0
 10
-39902.28717272468
 20
46059.78842241289
 30
0.0
 10
-39894.65477090005
 20
46063.67702125511
 30
0.0
 10
-39890.64804774647
 20
46065.97018928428
 30
0.0
 10
-39880.72960031813
 20
46072.24541717061
 30
0.0
 10
-39874.75222481591
 20
46076.52921950309
 30
0.0
 10
-39863.27366156638
 20
46085.74780105683
 30
0.0
 10
-39857.77427853031
 20
46090.68107904876
 30
0.0
 10
-39848.60163526355
 20
46099.90498875564
 30
0.0
 10
-39844.78243519551
 20
46104.19000165687
 30
0.0
 10
-39841.56117015284
 20
46108.27819247374
 30
0.0
  0
ELLIPSE
  5
16B5E9
330
1F
100
AcDbEntity
  8
AM_0
100
AcDbEllipse
 10
-39908.5819287802
 20
46091.04434307916
 30
0.0
 11
56.40359450029493
 21
36.05057094598997
 31
0.0
210
0.0
220
0.0
230
0.9999999999999998
 40
0.3192685608887523
 41
-0.573075981195046
 42
0.0950620438561864
  0
ELLIPSE
  5
16B5EA
330
1F
100
AcDbEntity
  8
AM_0
100
AcDbEllipse
 10
-39908.5819287802
 20
46091.04434307916
 30
0.0
 11
56.40359450029493
 21
36.05057094598997
 31
0.0
210
0.0
220
0.0
230
0.9999999999999998
 40
0.3192685608887523
 41
0.3840546284192921
 42
2.057671228419412
  0
ELLIPSE
  5
16B5EB
330
1F
100
AcDbEntity
  8
AM_0
100
AcDbEllipse
 10
-39908.5819287802
 20
46091.04434307916
 30
0.0
 11
56.40359450028367
 21
36.05057094598193
 31
0.0
210
0.0
220
0.0
230
1.0
 40
0.319268560888933
 41
8.435928911854443
 42
11.54088942124657
  0
ELLIPSE
  5
16B5EC
330
1F
100
AcDbEntity
  8
AM_0
100
AcDbEllipse
 10
-39908.5819287802
 20
46091.04434307916
 30
0.0
 11
56.40359450028367
 21
36.05057094598193
 31
0.0
210
0.0
220
0.0
230
1.0
 40
0.319268560888933
 41
11.79331648826609
 42
11.99329463316417
  0
SPLINE
  5
16B5ED
330
1F
100
AcDbEntity
  8
AM_0
100
AcDbSpline
210
0.0
220
0.0
230
1.0
 70
     8
 71
     3
 72
    25
 73
    21
 74
     0
 42
0.0000000001
 43
0.0000000001
 40
5.756197262249607
 40
5.756197262249607
 40
5.756197262249607
 40
5.756197262249607
 40
5.804026177500555
 40
5.804026177500555
 40
5.954570842422291
 40
5.954570842422291
 40
6.076069584918828
 40
6.076069584918828
 40
6.197568327415365
 40
6.197568327415365
 40
6.283185307179586
 40
6.283185307179586
 40
6.283185307179586
 40
6.386182647442183
 40
6.386182647442183
 40
6.489179987704779
 40
6.489179987704779
 40
6.592177327967376
 40
6.592177327967376
 40
6.604547371244122
 40
6.604547371244122
 40
6.604547371244122
 40
6.604547371244122
 10
-39865.9636115179
 20
46105.8825218854
 30
0.0
 10
-39858.58444168331
 20
46116.23141516353
 30
0.0
 10
-39858.35251969419
 20
46116.68071394091
 30
0.0
 10
-39857.48014345259
 20
46118.48180651468
 30
0.0
 10
-39857.03356991728
 20
46119.69867030356
 30
0.0
 10
-39856.5706522737
 20
46121.51498340751
 30
0.0
 10
-39856.4880488886
 20
46122.18547113241
 30
0.0
 10
-39856.47443262932
 20
46123.20338724684
 30
0.0
 10
-39856.53863374876
 20
46123.54569578583
 30
0.0
 10
-39856.66281381899
 20
46123.93863283376
 30
0.0
 10
-39856.71754468027
 20
46124.04953124357
 30
0.0
 10
-39856.78294732164
 20
46124.15185816835
 30
0.0
 10
-39856.86162678593
 20
46124.27495759462
 30
0.0
 10
-39856.95768792898
 20
46124.3911585997
 30
0.0
 10
-39857.31209814138
 20
46124.68306072087
 30
0.0
 10
-39857.57485090911
 20
46124.85601563129
 30
0.0
 10
-39858.35740461661
 20
46125.20788555283
 30
0.0
 10
-39858.8759465185
 20
46125.38389709762
 30
0.0
 10
-39859.60298248442
 20
46125.54401028944
 30
0.0
 10
-39859.68279989678
 20
46125.56069743094
 30
0.0
 10
-39859.76445738466
 20
46125.57686830109
 30
0.0
  0
SPLINE
  5
16B5EE
330
1F
100
AcDbEntity
  8
AM_0
100
AcDbSpline
210
0.0
220
0.0
230
1.0
 70
     8
 71
     3
 72
    18
 73
    14
 74
     0
 42
0.0000000001
 43
0.0000000001
 40
6.978804188883716
 40
6.978804188883716
 40
6.978804188883716
 40
6.978804188883716
 40
7.106033963619295
 40
7.106033963619295
 40
7.311463611313957
 40
7.311463611313957
 40
7.63462722501583
 40
7.63462722501583
 40
7.957790838717704
 40
7.957790838717704
 40
8.280954452419576
 40
8.280954452419576
 40
8.290130192130227
 40
8.290130192130227
 40
8.290130192130227
 40
8.290130192130227
 10
-39871.55519762943
 20
46124.90683955411
 30
0.0
 10
-39873.30889050187
 20
46124.54488890849
 30
0.0
 10
-39875.1794468962
 20
46124.08042064856
 30
0.0
 10
-39880.31450168421
 20
46122.59970690965
 30
0.0
 10
-39883.7298009302
 20
46121.42078215586
 30
0.0
 10
-39892.91246647201
 20
46117.76838474898
 30
0.0
 10
-39898.90625974804
 20
46114.93792417973
 30
0.0
 10
-39910.96142401057
 20
46108.38882945341
 30
0.0
 10
-39917.0217172822
 20
46104.67145705039
 30
0.0
 10
-39928.53823738121
 20
46096.7593497466
 30
0.0
 10
-39933.99284708974
 20
46092.56542982447
 30
0.0
 10
-39938.97942494625
 20
46088.25360206799
 30
0.0
 10
-39939.11661249745
 20
46088.13455445696
 30
0.0
 10
-39939.2533048155
 20
46088.01551310991
 30
0.0
  0
SPLINE
  5
16B5EF
330
1F
100
AcDbEntity
  8
AM_0
100
AcDbSpline
210
0.0
220
0.0
230
1.0
 70
     8
 71
     3
 72
    38
 73
    34
 74
     0
 42
0.0000000001
 43
0.0000000001
 40
8.402927278792198
 40
8.402927278792198
 40
8.402927278792198
 40
8.402927278792198
 40
8.604118066121451
 40
8.604118066121451
 40
8.821511971538637
 40
8.821511971538637
 40
8.997315574666835
 40
8.997315574666835
 40
9.137841128864913
 40
9.137841128864913
 40
9.25184018899568
 40
9.25184018899568
 40
9.365839249126448
 40
9.365839249126448
 40
9.479838309257214
 40
9.479838309257214
 40
9.593837369387982
 40
9.593837369387982
 40
9.707836429518749
 40
9.707836429518749
 40
9.821835489649515
 40
9.821835489649515
 40
9.935834549780283
 40
9.935834549780283
 40
10.17150510114499
 40
10.17150510114499
 40
10.40717565250969
 40
10.40717565250969
 40
10.6428462038744
 40
10.6428462038744
 40
10.98159932307797
 40
10.98159932307797
 40
11.31405290469891
 40
11.31405290469891
 40
11.31405290469891
 40
11.31405290469891
 10
-39944.05941727884
 20
46083.63985707368
 30
0.0
 10
-39946.77099996934
 20
46081.0538120092
 30
0.0
 10
-39949.21128883618
 20
46078.50774353079
 30
0.0
 10
-39953.60074866581
 20
46073.43090462033
 30
0.0
 10
-39955.49511608735
 20
46070.91744646296
 30
0.0
 10
-39958.13223569998
 20
46066.78616303977
 30
0.0
 10
-39959.02463026289
 20
46065.08856376605
 30
0.0
 10
-39960.11230889232
 20
46062.44847703822
 30
0.0
 10
-39960.41011479297
 20
46061.42445856775
 30
0.0
 10
-39960.67767441862
 20
46059.9315093797
 30
0.0
 10
-39960.69955137986
 20
46059.3971421188
 30
0.0
 10
-39960.64566893667
 20
46058.60681964891
 30
0.0
 10
-39960.57553320397
 20
46058.3534051672
 30
0.0
 10
-39960.42998885866
 20
46057.99521688769
 30
0.0
 10
-39960.35743898383
 20
46057.88074721568
 30
0.0
 10
-39960.10215577189
 20
46057.60097445403
 30
0.0
 10
-39959.90938529042
 20
46057.43358201962
 30
0.0
 10
-39959.23396743828
 20
46057.05478563316
 30
0.0
 10
-39958.75094646358
 20
46056.84965601198
 30
0.0
 10
-39957.4582225382
 20
46056.50133205436
 30
0.0
 10
-39956.65124823668
 20
46056.35936598248
 30
0.0
 10
-39954.74631433519
 20
46056.20274962144
 30
0.0
 10
-39953.64931484024
 20
46056.1875672024
 30
0.0
 10
-39949.90489412261
 20
46056.37916713823
 30
0.0
 10
-39946.85518370988
 20
46056.84403195795
 30
0.0
 10
-39940.02491211571
 20
46058.49039702665
 30
0.0
 10
-39936.24264053049
 20
46059.66839338175
 30
0.0
 10
-39928.22228570537
 20
46062.67649362075
 30
0.0
 10
-39923.98366268337
 20
46064.50584457586
 30
0.0
 10
-39913.42402573613
 20
46069.62913960503
 30
0.0
 10
-39907.00393460592
 20
46073.21555985343
 30
0.0
 10
-39894.67959826946
 20
46081.01546930309
 30
0.0
 10
-39888.76986986861
 20
46085.21481526263
 30
0.0
 10
-39883.39862418665
 20
46089.50146395823
 30
0.0
  0
SPLINE
  5
16B5F0
330
1F
100
AcDbEntity
  8
AM_0
100
AcDbSpline
210
0.0
220
0.0
230
1.0
 70
     8
 71
     3
 72
    10
 73
     6
 74
     0
 42
0.0000000001
 43
0.0000000001
 40
11.56015595149137
 40
11.56015595149137
 40
11.56015595149137
 40
11.56015595149137
 40
11.65910556148511
 40
11.65910556148511
 40
11.74189393656594
 40
11.74189393656594
 40
11.74189393656594
 40
11.74189393656594
 10
-39872.47694880419
 20
46099.0507941798
 30
0.0
 10
-39871.16380856846
 20
46100.31912916554
 30
0.0
 10
-39869.91751477141
 20
46101.57663221209
 30
0.0
 10
-39867.76519978536
 20
46103.85259090866
 30
0.0
 10
-39866.83675402975
 20
46104.87660604958
 30
0.0
 10
-39865.96361151792
 20
46105.8825218854
 30
0.0
  0
SPLINE
  5
16B5F1
330
1F
100
AcDbEntity
  8
AM_0
100
AcDbSpline
210
0.0
220
0.0
230
1.0
 70
     8
 71
     3
 72
    10
 73
     6
 74
     4
 42
0.0000000001
 43
0.0000000001
 44
0.00001
 40
0.0
 40
0.0
 40
0.0
 40
0.0
 40
14.7833173390568
 40
24.40456596880432
 40
35.82051921676703
 40
35.82051921676703
 40
35.82051921676703
 40
35.82051921676703
 10
-39806.34329683059
 20
46145.19735439732
 30
0.0
 10
-39811.24586670244
 20
46144.71085311507
 30
0.0
 10
-39819.33911716243
 20
46143.9077280543
 30
0.0
 10
-39831.16409875129
 20
46142.08299418019
 30
0.0
 10
-39837.87778589761
 20
46140.02357420635
 30
0.0
 10
-39841.5210051351
 20
46138.90601863618
 30
0.0
 11
-39806.34329683059
 21
46145.19735439732
 31
0.0
 11
-39821.03747523979
 21
46143.5763693802
 31
0.0
 11
-39830.52330540467
 21
46141.9678137304
 31
0.0
 11
-39841.5210051351
 21
46138.90601863618
 31
0.0
  0
SPLINE
  5
16B5F2
330
1F
100
AcDbEntity
  8
AM_0
100
AcDbSpline
210
0.0
220
0.0
230
1.0
 70
     8
 71
     3
 72
    14
 73
    10
 74
     0
 42
0.0000000001
 43
0.0000000001
 40
0.0
 40
0.0
 40
0.0
 40
0.0
 40
7.101587394571029
 40
7.101587394571029
 40
13.77742092659466
 40
13.77742092659466
 40
17.46655150238769
 40
17.46655150238769
 40
20.17969365433633
 40
20.17969365433633
 40
20.17969365433633
 40
20.17969365433633
 10
-39806.34329683059
 20
46139.69735439732
 30
0.0
 10
-39808.1552668287
 20
46139.4905315559
 30
0.0
 10
-39810.49650199917
 20
46139.25814857608
 30
0.0
 10
-39815.00891224639
 20
46138.77575873619
 30
0.0
 10
-39817.18186173702
 20
46138.52765043741
 30
0.0
 10
-39820.53291510901
 20
46138.09821527305
 30
0.0
 10
-39821.72041600389
 20
46137.93750013834
 30
0.0
 10
-39823.75192139777
 20
46137.63641225921
 30
0.0
 10
-39824.6050368162
 20
46137.50157452323
 30
0.0
 10
-39825.44944281872
 20
46137.35686277599
 30
0.0
  0
SPLINE
  5
16B5F3
330
1F
100
AcDbEntity
  8
AM_0
100
AcDbSpline
210
0.0
220
0.0
230
1.0
 70
     8
 71
     3
 72
     9
 73
     5
 74
     0
 42
0.0000000001
 43
0.0000000001
 40
27.87280537585683
 40
27.87280537585683
 40
27.87280537585683
 40
27.87280537585683
 40
40.36960629702896
 40
88.47266952529464
 40
88.47266952529464
 40
88.47266952529464
 40
88.47266952529464
 10
-39965.45815677792
 20
46063.53795898494
 30
0.0
 10
-39967.7252805621
 20
46060.05249790492
 30
0.0
 10
-39978.18835364004
 20
46042.86456775263
 30
0.0
 10
-39984.92389027158
 20
46023.66705609696
 30
0.0
 10
-39990.27043599428
 20
46008.42842264524
 30
0.0
  0
SPLINE
  5
16B5F4
330
1F
100
AcDbEntity
  8
AM_0
100
AcDbSpline
210
0.0
220
0.0
230
1.0
 70
     8
 71
     3
 72
    12
 73
     8
 74
     0
 42
0.0000000001
 43
0.0000000001
 40
7.81401066776603
 40
7.81401066776603
 40
7.81401066776603
 40
7.81401066776603
 40
13.02145391908223
 40
13.02145391908223
 40
24.43206457104461
 40
24.43206457104461
 40
27.1072308901337
 40
27.1072308901337
 40
27.1072308901337
 40
27.1072308901337
 10
-39944.05941727885
 20
46083.63985707367
 30
0.0
 10
-39950.50956667391
 20
46075.30943055648
 30
0.0
 10
-39951.53272932634
 20
46073.91822983835
 30
0.0
 10
-39954.76181921775
 20
46069.47443338987
 30
0.0
 10
-39956.92481367483
 20
46066.41690826695
 30
0.0
 10
-39959.48385413915
 20
46062.61197283964
 30
0.0
 10
-39959.96492073112
 20
46061.88798173125
 30
0.0
 10
-39960.44060006981
 20
46061.16239695902
 30
0.0
  0
SPLINE
  5
16B5F5
330
1F
100
AcDbEntity
  8
AM_0
100
AcDbSpline
210
0.0
220
0.0
230
1.0
 70
     8
 71
     3
 72
    14
 73
    10
 74
     0
 42
0.0000000001
 43
0.0000000001
 40
35.25461804190574
 40
35.25461804190574
 40
35.25461804190574
 40
35.25461804190574
 40
40.33371222976302
 40
40.33371222976302
 40
51.26787995967351
 40
51.26787995967351
 40
74.10850014221179
 40
74.10850014221179
 40
88.47266952529464
 40
88.47266952529464
 40
88.47266952529464
 40
88.47266952529464
 10
-39964.62434953228
 20
46054.48197922382
 30
0.0
 10
-39965.45740177632
 20
46053.08181433449
 30
0.0
 10
-39966.26621217247
 20
46051.67332643711
 30
0.0
 10
-39968.73062776904
 20
46047.20126589845
 30
0.0
 10
-39970.30396743176
 20
46044.07122770869
 30
0.0
 10
-39974.90418008248
 20
46034.20437970973
 30
0.0
 10
-39977.64679043846
 20
46027.25177645286
 30
0.0
 10
-39981.89613933693
 20
46015.68324459379
 30
0.0
 10
-39983.48405492385
 20
46011.15798864301
 30
0.0
 10
-39985.08059957655
 20
46006.33338268872
 30
0.0
  0
LINE
  5
16B5F6
330
1F
100
AcDbEntity
  8
AM_0
100
AcDbLine
 10
-39746.34284564453
 20
45431.44735439732
 30
0.0
 11
-39715.34284564453
 21
45431.44735439732
 31
0.0
  0
LINE
  5
16B5F7
330
1F
100
AcDbEntity
  8
AM_0
100
AcDbLine
 10
-39747.09284564454
 20
45430.69735439732
 30
0.0
 11
-39714.59284564453
 21
45430.69735439732
 31
0.0
  0
LINE
  5
16B5F8
330
1F
100
AcDbEntity
  8
AM_0
100
AcDbLine
 10
-39747.09284564454
 20
45432.19735439732
 30
0.0
 11
-39714.59284564454
 21
45432.19735439732
 31
0.0
  0
LINE
  5
16B5F9
330
1F
100
AcDbEntity
  8
AM_0
100
AcDbLine
 10
-39747.09284564454
 20
45432.19735439732
 30
0.0
 11
-39746.34284564453
 21
45431.44735439732
 31
0.0
  0
LINE
  5
16B5FA
330
1F
100
AcDbEntity
  8
AM_0
100
AcDbLine
 10
-39746.34284564453
 20
45431.44735439732
 30
0.0
 11
-39747.09284564454
 21
45430.69735439732
 31
0.0
  0
LINE
  5
16B5FB
330
1F
100
AcDbEntity
  8
AM_0
100
AcDbLine
 10
-39714.59284564454
 20
45432.19735439732
 30
0.0
 11
-39715.34284564453
 21
45431.44735439732
 31
0.0
  0
LINE
  5
16B5FC
330
1F
100
AcDbEntity
  8
AM_0
100
AcDbLine
 10
-39715.34284564453
 20
45431.44735439732
 30
0.0
 11
-39714.59284564454
 21
45430.69735439732
 31
0.0
  0
LINE
  5
16B5FD
330
1F
100
AcDbEntity
  8
AM_0
100
AcDbLine
 10
-39746.34284564453
 20
45486.44735439732
 30
0.0
 11
-39715.34284564453
 21
45486.44735439732
 31
0.0
  0
LINE
  5
16B5FE
330
1F
100
AcDbEntity
  8
AM_0
100
AcDbLine
 10
-39747.09284564454
 20
45485.69735439732
 30
0.0
 11
-39714.59284564453
 21
45485.69735439732
 31
0.0
  0
LINE
  5
16B5FF
330
1F
100
AcDbEntity
  8
AM_0
100
AcDbLine
 10
-39747.09284564454
 20
45487.19735439732
 30
0.0
 11
-39714.59284564454
 21
45487.19735439732
 31
0.0
  0
LINE
  5
16B600
330
1F
100
AcDbEntity
  8
AM_0
100
AcDbLine
 10
-39747.09284564454
 20
45487.19735439732
 30
0.0
 11
-39746.34284564453
 21
45486.44735439732
 31
0.0
  0
LINE
  5
16B601
330
1F
100
AcDbEntity
  8
AM_0
100
AcDbLine
 10
-39746.34284564453
 20
45486.44735439732
 30
0.0
 11
-39747.09284564454
 21
45485.69735439732
 31
0.0
  0
LINE
  5
16B602
330
1F
100
AcDbEntity
  8
AM_0
100
AcDbLine
 10
-39714.59284564454
 20
45487.19735439732
 30
0.0
 11
-39715.34284564453
 21
45486.44735439732
 31
0.0
  0
LINE
  5
16B603
330
1F
100
AcDbEntity
  8
AM_0
100
AcDbLine
 10
-39715.34284564453
 20
45486.44735439732
 30
0.0
 11
-39714.59284564454
 21
45485.69735439732
 31
0.0
  0
LINE
  5
16B604
330
1F
100
AcDbEntity
  8
AM_0
100
AcDbLine
 10
-39746.34284564453
 20
45606.44735439732
 30
0.0
 11
-39715.34284564453
 21
45606.44735439732
 31
0.0
  0
LINE
  5
16B605
330
1F
100
AcDbEntity
  8
AM_0
100
AcDbLine
 10
-39747.09284564454
 20
45605.69735439732
 30
0.0
 11
-39714.59284564453
 21
45605.69735439732
 31
0.0
  0
LINE
  5
16B606
330
1F
100
AcDbEntity
  8
AM_0
100
AcDbLine
 10
-39747.09284564454
 20
45607.19735439731
 30
0.0
 11
-39714.59284564454
 21
45607.19735439731
 31
0.0
  0
LINE
  5
16B607
330
1F
100
AcDbEntity
  8
AM_0
100
AcDbLine
 10
-39747.09284564454
 20
45607.19735439731
 30
0.0
 11
-39746.34284564453
 21
45606.44735439732
 31
0.0
  0
LINE
  5
16B608
330
1F
100
AcDbEntity
  8
AM_0
100
AcDbLine
 10
-39746.34284564453
 20
45606.44735439732
 30
0.0
 11
-39747.09284564454
 21
45605.69735439732
 31
0.0
  0
LINE
  5
16B609
330
1F
100
AcDbEntity
  8
AM_0
100
AcDbLine
 10
-39714.59284564454
 20
45607.19735439731
 30
0.0
 11
-39715.34284564453
 21
45606.44735439732
 31
0.0
  0
LINE
  5
16B60A
330
1F
100
AcDbEntity
  8
AM_0
100
AcDbLine
 10
-39715.34284564453
 20
45606.44735439732
 30
0.0
 11
-39714.59284564454
 21
45605.69735439732
 31
0.0
  0
DIMENSION
  5
16B614
102
{ACAD_XDICTIONARY
360
16B615
102
}
102
{ACAD_REACTORS
330
16B616
102
}
330
1F
100
AcDbEntity
  8
AM_5
100
AcDbDimension
  2
*D96
 10
-39506.6481398792
 20
46254.19735439733
 30
0.0
 11
-39506.64813987921
 21
45721.44735439731
 31
0.0
 70
   160
  1
1000
 71
     5
 42
1007.750000000007
  3
AM_DIN$0
100
AcDbAlignedDimension
 13
-39715.84284564453
 23
45246.44735439732
 33
0.0
 14
-39705.34284564454
 24
46254.19735439733
 34
0.0
 50
90.0
100
AcDbRotatedDimension
1001
ACAD
1000
DSTYLE
1002
{
1070
   147
1040
10.0
1070
   140
1040
35.0
1070
    41
1040
35.0
1002
}
1001
GENIUS_GENOBJ-N-DIM_13
1002
{
1000
OWNER
1000
GEN
1002
}
1001
GENIUS_GENODEF_13
1002
{
1000
HIER
1070
     0
1002
}
1002
{
1000
MANEDIT
1070
     0
1002
}
1002
{
1000
NOSEL
1070
     0
1002
}
1002
{
1000
BEHIND
1070
     0
1002
}
1002
{
1000
OTHER
1070
     0
1002
}
1002
{
1000
REACTOR
1002
}
1001
GENIUS_GENDIM_13
1000
8
1000
1
1001
ACAD_DSTYLE_DIMINSPECT
1070
   396
1000
100%
1070
   395
1000

1070
   394
1070
    33
1070
   393
1070
     0
  0
DIMENSION
  5
16B6CD
102
{ACAD_XDICTIONARY
360
16B6DA
102
}
102
{ACAD_REACTORS
330
16B6DB
102
}
330
1F
100
AcDbEntity
  8
AM_5
100
AcDbDimension
  2
*D98
 10
-39654.19072734026
 20
45992.54397092828
 30
0.0
 11
-39572.23301929115
 21
45992.54397092828
 31
0.0
 70
   160
  1
150
 71
     5
 42
152.1525694903248
  3
AM_DIN$0
100
AcDbAlignedDimension
 13
-39806.34329683059
 23
46059.85946917105
 33
0.0
 14
-39654.19072734026
 24
46143.44735439732
 34
0.0
 50
0.0000000000001132
100
AcDbRotatedDimension
1001
ACAD
1000
DSTYLE
1002
{
1070
    41
1040
35.0
1070
   140
1040
35.0
1070
   147
1040
10.0
1002
}
1001
ACAD_DSTYLE_DIMINSPECT
1070
   396
1000
100%
1070
   395
1000

1070
   394
1070
    33
1070
   393
1070
     0
  0
ENDSEC
  0
SECTION
  2
OBJECTS
  0
DICTIONARY
  5
C
330
0
100
AcDbDictionary
281
     1
  3
ACAD_2007HEADERVARS_RT
350
16BA57
  3
ACAD_COLOR
350
BE
  3
ACAD_GROUP
350
D
  3
ACAD_LAYOUT
350
1A
  3
ACAD_MATERIAL
350
BD
  3
ACAD_MLEADERSTYLE
350
2C4
  3
ACAD_MLINESTYLE
350
17
  3
ACAD_PLOTSETTINGS
350
19
  3
ACAD_PLOTSTYLENAME
350
E
  3
ACAD_SCALELIST
350
2A2
  3
ACAD_TABLESTYLE
350
11A
  3
ACAD_VISUALSTYLE
350
26E
  3
ACDB_RECOMPOSE_DATA
350
16BA55
  3
AcDbVariableDictionary
350
94
  3
AcmDictionary
350
5B
  3
AEC_PROPERTY_SET_DEFS
350
1672D7
  3
AMG
350
41
  3
AMGSNAPSETTINGS
350
383
  3
ASE_INDEX_DICTIONARY
350
9893A
  3
DWGPROPS
350
16BA56
  0
DICTIONARY
  5
AD9
330
2
100
AcDbDictionary
280
     1
281
     1
  3
ACAD_LAYERSTATES
360
ADA
  3
AMLAYER_GROUPCOLORS
360
28862
  0
DICTIONARY
  5
1EA6D
330
10
100
AcDbDictionary
280
     1
281
     1
  3
ADSK_XREC_LAYER_RECONCILED
360
1EA6E
  0
DICTIONARY
  5
AB2
330
AB1
100
AcDbDictionary
280
     1
281
     1
  3
ADSK_XREC_LAYER_RECONCILED
360
1EA70
  0
DICTIONARY
  5
8F
330
1F
100
AcDbDictionary
280
     1
281
     1
  3
ACAD_SORTENTS
360
2A0F3
  0
DICTIONARY
  5
16B615
330
16B614
100
AcDbDictionary
280
     1
281
     1
  3
ACAD_DIMASSOC
360
16B616
  0
DICTIONARY
  5
16B6DA
330
16B6CD
100
AcDbDictionary
280
     1
281
     1
  3
ACAD_DIMASSOC
360
16B6DB
  0
DICTIONARY
  5
16BA57
102
{ACAD_REACTORS
330
C
102
}
330
C
100
AcDbDictionary
281
     1
  3
DIMARCSYM
350
16BA58
  3
DIMJOGANG
350
16BA59
  3
DIMLTEX1
350
16BA5B
  3
DIMLTEX2
350
16BA5C
  3
DIMLTYPE
350
16BA5A
  0
DICTIONARY
  5
BE
102
{ACAD_REACTORS
330
C
102
}
330
C
100
AcDbDictionary
281
     1
  0
DICTIONARY
  5
D
102
{ACAD_REACTORS
330
C
102
}
330
C
100
AcDbDictionary
281
     1
  0
DICTIONARY
  5
1A
102
{ACAD_REACTORS
330
C
102
}
330
C
100
AcDbDictionary
281
     1
  3
Layout1
350
1E
  3
Layout2
350
26
  3
Model
350
22
  0
DICTIONARY
  5
BD
102
{ACAD_REACTORS
330
C
102
}
330
C
100
AcDbDictionary
281
     1
  3
ByBlock
350
26C
  3
ByLayer
350
26B
  3
Global
350
26D
  0
DICTIONARY
  5
2C4
102
{ACAD_REACTORS
330
C
102
}
330
C
100
AcDbDictionary
281
     1
  3
Standard
350
2C5
  0
DICTIONARY
  5
17
102
{ACAD_REACTORS
330
C
102
}
330
C
100
AcDbDictionary
281
     1
  3
Standard
350
18
  0
DICTIONARY
  5
19
102
{ACAD_REACTORS
330
C
102
}
330
C
100
AcDbDictionary
281
     1
  0
ACDBDICTIONARYWDFLT
  5
E
102
{ACAD_REACTORS
330
C
102
}
330
C
100
AcDbDictionary
281
     1
  3
Normal
350
F
100
AcDbDictionaryWithDefault
340
F
  0
DICTIONARY
  5
2A2
102
{ACAD_REACTORS
330
C
102
}
330
C
100
AcDbDictionary
281
     1
  3
A0
350
2A3
  3
A1
350
2A4
  3
A2
350
2A5
  3
A3
350
2A6
  3
A4
350
2A7
  3
A5
350
2A8
  3
A6
350
2A9
  3
A7
350
2AA
  3
A8
350
2AB
  3
A9
350
2AC
  3
B0
350
2AD
  3
B1
350
2AE
  3
B2
350
2AF
  3
B3
350
2B0
  3
B4
350
2B1
  3
B5
350
2B2
  3
B6
350
2B3
  3
B7
350
2B4
  3
B8
350
2B5
  3
B9
350
2B6
  3
C0
350
2B7
  3
C1
350
2B8
  3
C2
350
2B9
  3
C3
350
2BA
  3
C4
350
2BB
  3
C5
350
2BC
  3
C6
350
2BD
  3
C7
350
2BE
  3
C8
350
2BF
  3
C9
350
2C0
  3
D0
350
2C1
  3
D1
350
2C2
  3
D2
350
2C3
  0
DICTIONARY
  5
11A
102
{ACAD_REACTORS
330
C
102
}
330
C
100
AcDbDictionary
281
     1
  3
Standard
350
11B
  0
DICTIONARY
  5
26E
102
{ACAD_REACTORS
330
C
102
}
330
C
100
AcDbDictionary
281
     1
  3
2dWireframe
350
274
  3
3D Hidden
350
276
  3
3dWireframe
350
275
  3
Basic
350
273
  3
Brighten
350
27A
  3
ColorChange
350
27E
  3
Conceptual
350
277
  3
Dim
350
279
  3
EdgeColorOff
350
34B
  3
Facepattern
350
27D
  3
Flat
350
26F
  3
FlatWithEdges
350
270
  3
Gouraud
350
271
  3
GouraudWithEdges
350
272
  3
JitterOff
350
349
  3
Linepattern
350
27C
  3
OverhangOff
350
34A
  3
Realistic
350
278
  3
Thicken
350
27B
  0
XRECORD
  5
16BA55
102
{ACAD_REACTORS
330
C
102
}
330
C
100
AcDbXrecord
280
     1
 90
        1
330
11B
  0
DICTIONARY
  5
94
102
{ACAD_REACTORS
330
C
102
}
330
C
100
AcDbDictionary
281
     1
  3
CANNOSCALE
350
2E9
  3
CMLEADERSTYLE
350
2E7
  3
CTABLESTYLE
350
138
  3
DIMASSOC
350
96
  3
INDEXCTL
350
95
  3
LAYEREVAL
350
346
  3
LAYERNOTIFY
350
347
  3
LIGHTINGUNITS
350
2EA
  3
MSLTSCALE
350
2E8
  3
SORTENTS
350
166AD3
  3
XCLIPFRAME
350
16BA53
  0
DICTIONARY
  5
5B
102
{ACAD_REACTORS
330
C
102
}
330
C
100
AcDbDictionary
281
     1
  3
AcmBOM
350
38A
  3
AcmStdDictionary
350
61
  3
AMDTSECTSYM_ARROWCOLOR
350
123
  0
DICTIONARY
  5
1672D7
102
{ACAD_REACTORS
330
C
102
}
330
C
100
AcDbDictionary
281
     1
  0
DICTIONARY
  5
41
102
{ACAD_REACTORS
330
C
102
}
330
C
100
AcDbDictionary
281
     1
  0
DICTIONARY
  5
383
102
{ACAD_REACTORS
330
C
102
}
330
C
100
AcDbDictionary
281
     1
  0
DICTIONARY
  5
9893A
102
{ACAD_REACTORS
330
C
102
}
330
C
100
AcDbDictionary
281
     1
  3
ASEBlockHierarchyIndexRecord
350
9893B
1001
DCO15
1040
1669638074.421
  0
XRECORD
  5
16BA56
102
{ACAD_REACTORS
330
C
102
}
330
C
100
AcDbXrecord
280
     1
  1
DWGPROPS COOKIE
  2

  3

  4

  6

  7

  8
Administrator
  9

300
AmdtFileType=84
301
=
302
=
303
=
304
=
305
=
306
=
307
=
308
=
309
=
 40
3.087898159722222
 41
2455009.590126262
 42
2455239.634354561
  1

 90
        1
  0
DICTIONARY
  5
ADA
102
{ACAD_REACTORS
330
AD9
102
}
330
AD9
100
AcDbDictionary
281
     1
  0
DICTIONARY
  5
28862
102
{ACAD_REACTORS
330
AD9
102
}
330
AD9
100
AcDbDictionary
280
     1
281
     1
  0
XRECORD
  5
1EA6E
102
{ACAD_REACTORS
330
1EA6D
102
}
330
1EA6D
100
AcDbXrecord
280
     1
290
     1
  0
XRECORD
  5
1EA70
102
{ACAD_REACTORS
330
AB2
102
}
330
AB2
100
AcDbXrecord
280
     1
290
     1
  0
SORTENTSTABLE
  5
2A0F3
102
{ACAD_REACTORS
330
8F
102
}
330
8F
100
AcDbSortentsTable
330
1F
  0
DIMASSOC
  5
16B616
102
{ACAD_REACTORS
330
16B615
102
}
330
16B615
100
AcDbDimAssoc
330
16B614
 90
        1
 70
     0
 71
     0
  1
AcDbOsnapPointRef
 72
    13
331
16B39B
 73
     0
 91
        0
 40
0.0
 10
0.0
 20
0.0
 30
2.000000000000000E+50
 75
     0
  0
DIMASSOC
  5
16B6DB
102
{ACAD_REACTORS
330
16B6DA
102
}
330
16B6DA
100
AcDbDimAssoc
330
16B6CD
 90
        2
 70
     0
 71
     0
  1
AcDbOsnapPointRef
 72
     6
331
16B506
 73
     0
 91
        0
 40
1.618688466350778
 10
0.0
 20
0.0
 30
0.0
332
16B521
 74
     0
 92
        0
 75
     0
  0
XRECORD
  5
16BA58
102
{ACAD_REACTORS
330
16BA57
102
}
330
16BA57
100
AcDbXrecord
280
     1
 70
     1
  0
XRECORD
  5
16BA59
102
{ACAD_REACTORS
330
16BA57
102
}
330
16BA57
100
AcDbXrecord
280
     1
 40
1.570796326794896
  0
XRECORD
  5
16BA5B
102
{ACAD_REACTORS
330
16BA57
102
}
330
16BA57
100
AcDbXrecord
280
     1
340
14
  0
XRECORD
  5
16BA5C
102
{ACAD_REACTORS
330
16BA57
102
}
330
16BA57
100
AcDbXrecord
280
     1
340
14
  0
XRECORD
  5
16BA5A
102
{ACAD_REACTORS
330
16BA57
102
}
330
16BA57
100
AcDbXrecord
280
     1
340
14
  0
LAYOUT
  5
1E
102
{ACAD_XDICTIONARY
360
16BA5D
102
}
102
{ACAD_REACTORS
330
1A
102
}
330
1A
100
AcDbPlotSettings
  1

  2

  4

  6

 40
0.0
 41
0.0
 42
0.0
 43
0.0
 44
0.0
 45
0.0
 46
0.0
 47
0.0
 48
0.0
 49
0.0
140
0.0
141
0.0
142
1.0
143
1.0
 70
   688
 72
     0
 73
     0
 74
     5
  7
monochrome 09+15.ctb
 75
    16
147
1.0
148
0.0
149
0.0
100
AcDbLayout
  1
Layout1
 70
     1
 71
     1
 10
0.0
 20
0.0
 11
420.0
 21
297.0
 12
0.0
 22
0.0
 32
0.0
 14
1.000000000000000E+20
 24
1.000000000000000E+20
 34
1.000000000000000E+20
 15
-1.000000000000000E+20
 25
-1.000000000000000E+20
 35
-1.000000000000000E+20
146
0.0
 13
0.0
 23
0.0
 33
0.0
 16
1.0
 26
0.0
 36
0.0
 17
0.0
 27
1.0
 37
0.0
 76
     0
330
1B
  0
LAYOUT
  5
26
102
{ACAD_XDICTIONARY
360
16BA60
102
}
102
{ACAD_REACTORS
330
1A
102
}
330
1A
100
AcDbPlotSettings
  1

  2

  4

  6

 40
0.0
 41
0.0
 42
0.0
 43
0.0
 44
0.0
 45
0.0
 46
0.0
 47
0.0
 48
0.0
 49
0.0
140
0.0
141
0.0
142
1.0
143
1.0
 70
   688
 72
     0
 73
     0
 74
     5
  7
monochrome 09+15.ctb
 75
    16
147
1.0
148
0.0
149
0.0
100
AcDbLayout
  1
Layout2
 70
     1
 71
     2
 10
0.0
 20
0.0
 11
12.0
 21
9.0
 12
0.0
 22
0.0
 32
0.0
 14
0.0
 24
0.0
 34
0.0
 15
0.0
 25
0.0
 35
0.0
146
0.0
 13
0.0
 23
0.0
 33
0.0
 16
1.0
 26
0.0
 36
0.0
 17
0.0
 27
1.0
 37
0.0
 76
     0
330
23
  0
LAYOUT
  5
22
102
{ACAD_XDICTIONARY
360
1F5DF
102
}
102
{ACAD_REACTORS
330
1A
102
}
330
1A
100
AcDbPlotSettings
  1

  2
HP LAserjet 3030
  4
A4
  6

 40
4.233333110809326
 41
4.233306884765625
 42
4.233322143554686
 43
4.23333740234375
 44
209.9733276367186
 45
296.9683227539062
 46
-0.0000000000000142
 47
43.49750304222104
 48
11476.21544241288
 49
-8457.031914730453
140
17476.21544241288
141
-2457.031914730453
142
1.0
143
29.7756889589002
 70
 11956
 72
     1
 73
     0
 74
     4
  7
monochrome 09+15.ctb
 75
     0
147
0.0335844453970591
148
-11476.21544241288
149
8457.031914730453
100
AcDbLayout
  1
Model
 70
     1
 71
     0
 10
0.0
 20
0.0
 11
12.0
 21
9.0
 12
0.0
 22
0.0
 32
0.0
 14
0.0
 24
0.0
 34
0.0
 15
0.0
 25
0.0
 35
0.0
146
0.0
 13
0.0
 23
0.0
 33
0.0
 16
1.0
 26
0.0
 36
0.0
 17
0.0
 27
1.0
 37
0.0
 76
     0
330
1F
331
269
1001
ACAD_PSEXT
1000
HP LAserjet 3030
1000
HP Universal Printing PCL 6 (v4.7)
1000
DOT4_001
1000

1070
     0
  0
MATERIAL
  5
26C
102
{ACAD_XDICTIONARY
360
166AE8
102
}
102
{ACAD_REACTORS
330
BD
102
}
330
BD
100
AcDbMaterial
  1
ByBlock
 73
     1
 78
     1
172
     1
176
     1
270
     1
274
     1
  0
MATERIAL
  5
26B
102
{ACAD_XDICTIONARY
360
166AE6
102
}
102
{ACAD_REACTORS
330
BD
102
}
330
BD
100
AcDbMaterial
  1
ByLayer
 73
     1
 78
     1
172
     1
176
     1
270
     1
274
     1
  0
MATERIAL
  5
26D
102
{ACAD_XDICTIONARY
360
166AEA
102
}
102
{ACAD_REACTORS
330
BD
102
}
330
BD
100
AcDbMaterial
  1
Global
 73
     1
 78
     1
172
     1
176
     1
270
     1
274
     1
  0
MLEADERSTYLE
  5
2C5
102
{ACAD_REACTORS
330
2C4
102
}
330
2C4
100
AcDbMLeaderStyle
170
     2
171
     1
172
     0
 90
        2
 40
0.0
 41
0.0
173
     1
 91
-1056964608
340
14
 92
       -2
290
     1
 42
2.0
291
     1
 43
0.36
  3
Standard
 44
4.0
300

342
11
174
     1
178
     6
175
     1
176
     0
 93
-1056964608
 45
4.0
292
     0
297
     0
 46
4.0
 94
-1056964608
 47
1.0
 49
1.0
140
1.0
293
     1
141
0.0
294
     1
177
     0
142
1.0
295
     0
296
     0
143
0.125
1001
ACAD_MLEADERVER
1070
     2
  0
MLINESTYLE
  5
18
102
{ACAD_REACTORS
330
17
102
}
330
17
100
AcDbMlineStyle
  2
STANDARD
 70
     0
  3

 62
   256
 51
90.0
 52
90.0
 71
     2
 49
0.5
 62
   256
  6
BYLAYER
 49
-0.5
 62
   256
  6
BYLAYER
  0
ACDBPLACEHOLDER
  5
F
102
{ACAD_REACTORS
330
E
102
}
330
E
  0
SCALE
  5
2A3
102
{ACAD_REACTORS
330
2A2
102
}
330
2A2
100
AcDbScale
 70
     0
300
1:1
140
1.0
141
1.0
290
     1
  0
SCALE
  5
2A4
102
{ACAD_REACTORS
330
2A2
102
}
330
2A2
100
AcDbScale
 70
     0
300
1:2
140
1.0
141
2.0
290
     0
  0
SCALE
  5
2A5
102
{ACAD_REACTORS
330
2A2
102
}
330
2A2
100
AcDbScale
 70
     0
300
1:4
140
1.0
141
4.0
290
     0
  0
SCALE
  5
2A6
102
{ACAD_REACTORS
330
2A2
102
}
330
2A2
100
AcDbScale
 70
     0
300
1:5
140
1.0
141
5.0
290
     0
  0
SCALE
  5
2A7
102
{ACAD_REACTORS
330
2A2
102
}
330
2A2
100
AcDbScale
 70
     0
300
1:8
140
1.0
141
8.0
290
     0
  0
SCALE
  5
2A8
102
{ACAD_REACTORS
330
2A2
102
}
330
2A2
100
AcDbScale
 70
     0
300
1:10
140
1.0
141
10.0
290
     0
  0
SCALE
  5
2A9
102
{ACAD_REACTORS
330
2A2
102
}
330
2A2
100
AcDbScale
 70
     0
300
1:16
140
1.0
141
16.0
290
     0
  0
SCALE
  5
2AA
102
{ACAD_REACTORS
330
2A2
102
}
330
2A2
100
AcDbScale
 70
     0
300
1:20
140
1.0
141
20.0
290
     0
  0
SCALE
  5
2AB
102
{ACAD_REACTORS
330
2A2
102
}
330
2A2
100
AcDbScale
 70
     0
300
1:30
140
1.0
141
30.0
290
     0
  0
SCALE
  5
2AC
102
{ACAD_REACTORS
330
2A2
102
}
330
2A2
100
AcDbScale
 70
     0
300
1:40
140
1.0
141
40.0
290
     0
  0
SCALE
  5
2AD
102
{ACAD_REACTORS
330
2A2
102
}
330
2A2
100
AcDbScale
 70
     0
300
1:50
140
1.0
141
50.0
290
     0
  0
SCALE
  5
2AE
102
{ACAD_REACTORS
330
2A2
102
}
330
2A2
100
AcDbScale
 70
     0
300
1:100
140
1.0
141
100.0
290
     0
  0
SCALE
  5
2AF
102
{ACAD_REACTORS
330
2A2
102
}
330
2A2
100
AcDbScale
 70
     0
300
2:1
140
2.0
141
1.0
290
     0
  0
SCALE
  5
2B0
102
{ACAD_REACTORS
330
2A2
102
}
330
2A2
100
AcDbScale
 70
     0
300
4:1
140
4.0
141
1.0
290
     0
  0
SCALE
  5
2B1
102
{ACAD_REACTORS
330
2A2
102
}
330
2A2
100
AcDbScale
 70
     0
300
8:1
140
8.0
141
1.0
290
     0
  0
SCALE
  5
2B2
102
{ACAD_REACTORS
330
2A2
102
}
330
2A2
100
AcDbScale
 70
     0
300
10:1
140
10.0
141
1.0
290
     0
  0
SCALE
  5
2B3
102
{ACAD_REACTORS
330
2A2
102
}
330
2A2
100
AcDbScale
 70
     0
300
100:1
140
100.0
141
1.0
290
     0
  0
SCALE
  5
2B4
102
{ACAD_REACTORS
330
2A2
102
}
330
2A2
100
AcDbScale
 70
     0
300
1/128" = 1'-0"
140
0.0078125
141
12.0
290
     0
  0
SCALE
  5
2B5
102
{ACAD_REACTORS
330
2A2
102
}
330
2A2
100
AcDbScale
 70
     0
300
1/64" = 1'-0"
140
0.015625
141
12.0
290
     0
  0
SCALE
  5
2B6
102
{ACAD_REACTORS
330
2A2
102
}
330
2A2
100
AcDbScale
 70
     0
300
1/32" = 1'-0"
140
0.03125
141
12.0
290
     0
  0
SCALE
  5
2B7
102
{ACAD_REACTORS
330
2A2
102
}
330
2A2
100
AcDbScale
 70
     0
300
1/16" = 1'-0"
140
0.0625
141
12.0
290
     0
  0
SCALE
  5
2B8
102
{ACAD_REACTORS
330
2A2
102
}
330
2A2
100
AcDbScale
 70
     0
300
3/32" = 1'-0"
140
0.09375
141
12.0
290
     0
  0
SCALE
  5
2B9
102
{ACAD_REACTORS
330
2A2
102
}
330
2A2
100
AcDbScale
 70
     0
300
1/8" = 1'-0"
140
0.125
141
12.0
290
     0
  0
SCALE
  5
2BA
102
{ACAD_REACTORS
330
2A2
102
}
330
2A2
100
AcDbScale
 70
     0
300
3/16" = 1'-0"
140
0.1875
141
12.0
290
     0
  0
SCALE
  5
2BB
102
{ACAD_REACTORS
330
2A2
102
}
330
2A2
100
AcDbScale
 70
     0
300
1/4" = 1'-0"
140
0.25
141
12.0
290
     0
  0
SCALE
  5
2BC
102
{ACAD_REACTORS
330
2A2
102
}
330
2A2
100
AcDbScale
 70
     0
300
3/8" = 1'-0"
140
0.375
141
12.0
290
     0
  0
SCALE
  5
2BD
102
{ACAD_REACTORS
330
2A2
102
}
330
2A2
100
AcDbScale
 70
     0
300
1/2" = 1'-0"
140
0.5
141
12.0
290
     0
  0
SCALE
  5
2BE
102
{ACAD_REACTORS
330
2A2
102
}
330
2A2
100
AcDbScale
 70
     0
300
3/4" = 1'-0"
140
0.75
141
12.0
290
     0
  0
SCALE
  5
2BF
102
{ACAD_REACTORS
330
2A2
102
}
330
2A2
100
AcDbScale
 70
     0
300
1" = 1'-0"
140
1.0
141
12.0
290
     0
  0
SCALE
  5
2C0
102
{ACAD_REACTORS
330
2A2
102
}
330
2A2
100
AcDbScale
 70
     0
300
1-1/2" = 1'-0"
140
1.5
141
12.0
290
     0
  0
SCALE
  5
2C1
102
{ACAD_REACTORS
330
2A2
102
}
330
2A2
100
AcDbScale
 70
     0
300
3" = 1'-0"
140
3.0
141
12.0
290
     0
  0
SCALE
  5
2C2
102
{ACAD_REACTORS
330
2A2
102
}
330
2A2
100
AcDbScale
 70
     0
300
6" = 1'-0"
140
6.0
141
12.0
290
     0
  0
SCALE
  5
2C3
102
{ACAD_REACTORS
330
2A2
102
}
330
2A2
100
AcDbScale
 70
     0
300
1'-0" = 1'-0"
140
12.0
141
12.0
290
     0
  0
TABLESTYLE
  5
11B
102
{ACAD_XDICTIONARY
360
2E4
102
}
102
{ACAD_REACTORS
330
11A
102
}
330
11A
100
AcDbTableStyle
  3
Standard
 70
     0
 71
     0
 40
1.5
 41
1.5
280
     0
281
     0
  7
STANDARD
140
4.5
170
     2
 62
     0
 63
     7
283
     0
274
    -2
284
     1
 64
     0
275
    -2
285
     1
 65
     0
276
    -2
286
     1
 66
     0
277
    -2
287
     1
 67
     0
278
    -2
288
     1
 68
     0
279
    -2
289
     1
 69
     0
  7
STANDARD
140
6.0
170
     5
 62
     0
 63
     7
283
     0
274
    -2
284
     1
 64
     0
275
    -2
285
     1
 65
     0
276
    -2
286
     1
 66
     0
277
    -2
287
     1
 67
     0
278
    -2
288
     1
 68
     0
279
    -2
289
     1
 69
     0
  7
STANDARD
140
4.5
170
     5
 62
     0
 63
     7
283
     0
274
    -2
284
     1
 64
     0
275
    -2
285
     1
 65
     0
276
    -2
286
     1
 66
     0
277
    -2
287
     1
 67
     0
278
    -2
288
     1
 68
     0
279
    -2
289
     1
 69
     0
  0
VISUALSTYLE
  5
274
102
{ACAD_XDICTIONARY
360
16BA6D
102
}
102
{ACAD_REACTORS
330
26E
102
}
330
26E
100
AcDbVisualStyle
  2

 70
     4
 71
     0
 72
     2
 73
     0
 90
        0
 40
-0.6
 41
-30.0
 62
     5
 63
     7
 74
     1
 91
        4
 64
     7
 65
   257
 75
     1
175
     1
 42
1.0
 92
        0
 66
   257
 43
1.0
 76
     1
 77
     6
 78
     2
 67
     7
 79
     5
170
     0
171
     0
290
     0
174
     0
 93
        1
 44
0.0
173
     0
291
     0
 45
0.0
1001
ACAD
1000
AcDbSavedByObjectVersion
1070
     0
  0
VISUALSTYLE
  5
276
102
{ACAD_XDICTIONARY
360
16BA71
102
}
102
{ACAD_REACTORS
330
26E
102
}
330
26E
100
AcDbVisualStyle
  2

 70
     6
 71
     1
 72
     2
 73
     2
 90
        0
 40
-0.6
 41
-30.0
 62
     5
 63
     7
 74
     2
 91
        2
 64
     7
 65
   257
 75
     2
175
     1
 42
40.0
 92
        0
 66
   257
 43
1.0
 76
     1
 77
     6
 78
     2
 67
     7
 79
     3
170
     0
171
     0
290
     0
174
     0
 93
        1
 44
0.0
173
     0
291
     0
 45
0.0
1001
ACAD
1000
AcDbSavedByObjectVersion
1070
     0
  0
VISUALSTYLE
  5
275
102
{ACAD_XDICTIONARY
360
16BA6F
102
}
102
{ACAD_REACTORS
330
26E
102
}
330
26E
100
AcDbVisualStyle
  2

 70
     5
 71
     0
 72
     2
 73
     0
 90
        0
 40
-0.6
 41
-30.0
 62
     5
 63
     7
 74
     1
 91
        4
 64
     7
 65
   257
 75
     1
175
     1
 42
1.0
 92
        0
 66
   257
 43
1.0
 76
     1
 77
     6
 78
     2
 67
     7
 79
     5
170
     0
171
     0
290
     0
174
     0
 93
        1
 44
0.0
173
     0
291
     0
 45
0.0
1001
ACAD
1000
AcDbSavedByObjectVersion
1070
     0
  0
VISUALSTYLE
  5
273
102
{ACAD_XDICTIONARY
360
16BA6B
102
}
102
{ACAD_REACTORS
330
26E
102
}
330
26E
100
AcDbVisualStyle
  2

 70
     7
 71
     1
 72
     0
 73
     1
 90
        0
 40
-0.6
 41
-30.0
 62
     5
 63
     7
 74
     0
 91
        4
 64
     7
 65
   257
 75
     1
175
     1
 42
1.0
 92
        8
 66
     7
 43
1.0
 76
     1
 77
     6
 78
     2
 67
     7
 79
     5
170
     0
171
     0
290
     0
174
     0
 93
        1
 44
0.0
173
     0
291
     1
 45
0.0
1001
ACAD
1000
AcDbSavedByObjectVersion
1070
     0
  0
VISUALSTYLE
  5
27A
102
{ACAD_XDICTIONARY
360
16BA79
102
}
102
{ACAD_REACTORS
330
26E
102
}
330
26E
100
AcDbVisualStyle
  2

 70
    12
 71
     2
 72
     2
 73
     0
 90
        0
 40
-0.6
 41
-30.0
 62
     5
 63
     7
 74
     1
 91
        4
 64
     7
 65
   257
 75
     1
175
     1
 42
1.0
 92
        8
 66
     7
 43
1.0
 76
     1
 77
     6
 78
     2
 67
     7
 79
     5
170
     0
171
     0
290
     0
174
     0
 93
        1
 44
50.0
173
     0
291
     1
 45
0.0
1001
ACAD
1000
AcDbSavedByObjectVersion
1070
     0
  0
VISUALSTYLE
  5
27E
102
{ACAD_XDICTIONARY
360
16BA81
102
}
102
{ACAD_REACTORS
330
26E
102
}
330
26E
100
AcDbVisualStyle
  2

 70
    16
 71
     2
 72
     2
 73
     3
 90
        0
 40
-0.6
 41
-30.0
 62
     5
 63
     8
 74
     1
 91
        4
 64
     7
 65
   257
 75
     1
175
     1
 42
1.0
 92
        8
 66
     8
 43
1.0
 76
     1
 77
     6
 78
     2
 67
     7
 79
     5
170
     0
171
     0
290
     0
174
     0
 93
        1
 44
0.0
173
     0
291
     1
 45
0.0
1001
ACAD
1000
AcDbSavedByObjectVersion
1070
     0
  0
VISUALSTYLE
  5
277
102
{ACAD_XDICTIONARY
360
16BA73
102
}
102
{ACAD_REACTORS
330
26E
102
}
330
26E
100
AcDbVisualStyle
  2

 70
     9
 71
     3
 72
     2
 73
     0
 90
        0
 40
-0.6
 41
-30.0
 62
     5
 63
     7
 74
     2
 91
        2
 64
     7
 65
   257
 75
     1
175
     1
 42
40.0
 92
        8
 66
     7
 43
1.0
 76
     1
 77
     6
 78
     2
 67
     7
 79
     3
170
     0
171
     0
290
     0
174
     0
 93
        1
 44
0.0
173
     0
291
     0
 45
0.0
1001
ACAD
1000
AcDbSavedByObjectVersion
1070
     0
  0
VISUALSTYLE
  5
279
102
{ACAD_XDICTIONARY
360
16BA77
102
}
102
{ACAD_REACTORS
330
26E
102
}
330
26E
100
AcDbVisualStyle
  2

 70
    11
 71
     2
 72
     2
 73
     0
 90
        0
 40
-0.6
 41
-30.0
 62
     5
 63
     7
 74
     1
 91
        4
 64
     7
 65
   257
 75
     1
175
     1
 42
1.0
 92
        8
 66
     7
 43
1.0
 76
     1
 77
     6
 78
     2
 67
     7
 79
     5
170
     0
171
     0
290
     0
174
     0
 93
        1
 44
-50.0
173
     0
291
     1
 45
0.0
1001
ACAD
1000
AcDbSavedByObjectVersion
1070
     0
  0
VISUALSTYLE
  5
34B
102
{ACAD_XDICTIONARY
360
16BA87
102
}
102
{ACAD_REACTORS
330
26E
102
}
330
26E
100
AcDbVisualStyle
  2

 70
    22
 71
     2
 72
     2
 73
     0
 90
        0
 40
-0.6
 41
-30.0
 62
     5
 63
     7
 74
     1
 91
        4
 64
     7
 65
   257
 75
     1
175
     1
 42
1.0
 92
        8
 66
     7
 43
1.0
 76
     1
 77
     6
 78
     2
 67
     7
 79
     5
170
     0
171
     0
290
     0
174
     0
 93
        1
 44
0.0
173
     0
291
     1
 45
0.0
1001
ACAD
1000
AcDbSavedByObjectVersion
1070
     0
  0
VISUALSTYLE
  5
27D
102
{ACAD_XDICTIONARY
360
16BA7F
102
}
102
{ACAD_REACTORS
330
26E
102
}
330
26E
100
AcDbVisualStyle
  2

 70
    15
 71
     2
 72
     2
 73
     0
 90
        0
 40
-0.6
 41
-30.0
 62
     5
 63
     7
 74
     1
 91
        4
 64
     7
 65
   257
 75
     1
175
     1
 42
1.0
 92
        8
 66
     7
 43
1.0
 76
     1
 77
     6
 78
     2
 67
     7
 79
     5
170
     0
171
     0
290
     0
174
     0
 93
        1
 44
0.0
173
     0
291
     1
 45
0.0
1001
ACAD
1000
AcDbSavedByObjectVersion
1070
     0
  0
VISUALSTYLE
  5
26F
102
{ACAD_XDICTIONARY
360
16BA63
102
}
102
{ACAD_REACTORS
330
26E
102
}
330
26E
100
AcDbVisualStyle
  2

 70
     0
 71
     2
 72
     1
 73
     1
 90
        2
 40
-0.6
 41
30.0
 62
     5
 63
     7
 74
     0
 91
        4
 64
     7
 65
   257
 75
     1
175
     1
 42
1.0
 92
        8
 66
     7
 43
1.0
 76
     1
 77
     6
 78
     2
 67
     7
 79
     5
170
     0
171
     0
290
     0
174
     0
 93
       13
 44
0.0
173
     0
291
     1
 45
0.0
1001
ACAD
1000
AcDbSavedByObjectVersion
1070
     0
  0
VISUALSTYLE
  5
270
102
{ACAD_XDICTIONARY
360
16BA65
102
}
102
{ACAD_REACTORS
330
26E
102
}
330
26E
100
AcDbVisualStyle
  2

 70
     1
 71
     2
 72
     1
 73
     1
 90
        2
 40
-0.6
 41
30.0
 62
     5
 63
     7
 74
     1
 91
        4
 64
     7
 65
   257
 75
     1
175
     1
 42
1.0
 92
        0
 66
   257
 43
1.0
 76
     1
 77
     6
 78
     2
 67
     7
 79
     5
170
     0
171
     0
290
     0
174
     0
 93
       13
 44
0.0
173
     0
291
     1
 45
0.0
1001
ACAD
1000
AcDbSavedByObjectVersion
1070
     0
  0
VISUALSTYLE
  5
271
102
{ACAD_XDICTIONARY
360
16BA67
102
}
102
{ACAD_REACTORS
330
26E
102
}
330
26E
100
AcDbVisualStyle
  2

 70
     2
 71
     2
 72
     2
 73
     1
 90
        2
 40
-0.6
 41
30.0
 62
     5
 63
     7
 74
     0
 91
        4
 64
     7
 65
   257
 75
     1
175
     1
 42
1.0
 92
        0
 66
     7
 43
1.0
 76
     1
 77
     6
 78
     2
 67
     7
 79
     5
170
     0
171
     0
290
     0
174
     0
 93
       13
 44
0.0
173
     0
291
     1
 45
0.0
1001
ACAD
1000
AcDbSavedByObjectVersion
1070
     0
  0
VISUALSTYLE
  5
272
102
{ACAD_XDICTIONARY
360
16BA69
102
}
102
{ACAD_REACTORS
330
26E
102
}
330
26E
100
AcDbVisualStyle
  2

 70
     3
 71
     2
 72
     2
 73
     1
 90
        2
 40
-0.6
 41
30.0
 62
     5
 63
     7
 74
     1
 91
        4
 64
     7
 65
   257
 75
     1
175
     1
 42
1.0
 92
        0
 66
   257
 43
1.0
 76
     1
 77
     6
 78
     2
 67
     7
 79
     5
170
     0
171
     0
290
     0
174
     0
 93
       13
 44
0.0
173
     0
291
     1
 45
0.0
1001
ACAD
1000
AcDbSavedByObjectVersion
1070
     0
  0
VISUALSTYLE
  5
349
102
{ACAD_XDICTIONARY
360
16BA83
102
}
102
{ACAD_REACTORS
330
26E
102
}
330
26E
100
AcDbVisualStyle
  2

 70
    20
 71
     2
 72
     2
 73
     0
 90
        0
 40
-0.6
 41
-30.0
 62
     5
 63
     7
 74
     1
 91
        4
 64
     7
 65
   257
 75
     1
175
     1
 42
1.0
 92
       10
 66
     7
 43
1.0
 76
     1
 77
     6
 78
     2
 67
     7
 79
     5
170
     0
171
     0
290
     0
174
     0
 93
        1
 44
0.0
173
     0
291
     1
 45
0.0
1001
ACAD
1000
AcDbSavedByObjectVersion
1070
     0
  0
VISUALSTYLE
  5
27C
102
{ACAD_XDICTIONARY
360
16BA7D
102
}
102
{ACAD_REACTORS
330
26E
102
}
330
26E
100
AcDbVisualStyle
  2

 70
    14
 71
     2
 72
     2
 73
     0
 90
        0
 40
-0.6
 41
-30.0
 62
     5
 63
     7
 74
     1
 91
        4
 64
     7
 65
   257
 75
     7
175
     7
 42
1.0
 92
        8
 66
     7
 43
1.0
 76
     1
 77
     6
 78
     2
 67
     7
 79
     5
170
     0
171
     0
290
     0
174
     0
 93
        1
 44
0.0
173
     0
291
     1
 45
0.0
1001
ACAD
1000
AcDbSavedByObjectVersion
1070
     0
  0
VISUALSTYLE
  5
34A
102
{ACAD_XDICTIONARY
360
16BA85
102
}
102
{ACAD_REACTORS
330
26E
102
}
330
26E
100
AcDbVisualStyle
  2

 70
    21
 71
     2
 72
     2
 73
     0
 90
        0
 40
-0.6
 41
-30.0
 62
     5
 63
     7
 74
     1
 91
        4
 64
     7
 65
   257
 75
     1
175
     1
 42
1.0
 92
        9
 66
     7
 43
1.0
 76
     1
 77
     6
 78
     2
 67
     7
 79
     5
170
     0
171
     0
290
     0
174
     0
 93
        1
 44
0.0
173
     0
291
     1
 45
0.0
1001
ACAD
1000
AcDbSavedByObjectVersion
1070
     0
  0
VISUALSTYLE
  5
278
102
{ACAD_XDICTIONARY
360
16BA75
102
}
102
{ACAD_REACTORS
330
26E
102
}
330
26E
100
AcDbVisualStyle
  2

 70
     8
 71
     2
 72
     2
 73
     0
 90
        0
 40
-0.6
 41
-30.0
 62
     5
 63
     7
 74
     1
 91
        0
 64
     7
 65
   257
 75
     1
175
     1
 42
1.0
 92
        8
 66
     8
 43
1.0
 76
     1
 77
     6
 78
     2
 67
     7
 79
     5
170
     0
171
     0
290
     0
174
     0
 93
       13
 44
0.0
173
     0
291
     0
 45
0.0
1001
ACAD
1000
AcDbSavedByObjectVersion
1070
     0
  0
VISUALSTYLE
  5
27B
102
{ACAD_XDICTIONARY
360
16BA7B
102
}
102
{ACAD_REACTORS
330
26E
102
}
330
26E
100
AcDbVisualStyle
  2

 70
    13
 71
     2
 72
     2
 73
     0
 90
        0
 40
-0.6
 41
-30.0
 62
     5
 63
     7
 74
     1
 91
        4
 64
     7
 65
   257
 75
     1
175
     1
 42
1.0
 92
       12
 66
     7
 43
1.0
 76
     1
 77
     6
 78
     2
 67
     7
 79
     5
170
     0
171
     0
290
     0
174
     0
 93
        1
 44
0.0
173
     0
291
     1
 45
0.0
1001
ACAD
1000
AcDbSavedByObjectVersion
1070
     0
  0
DICTIONARYVAR
  5
2E9
102
{ACAD_REACTORS
330
94
102
}
330
94
100
DictionaryVariables
280
     0
  1
1:1
  0
DICTIONARYVAR
  5
2E7
102
{ACAD_REACTORS
330
94
102
}
330
94
100
DictionaryVariables
280
     0
  1
STANDARD
  0
DICTIONARYVAR
  5
138
102
{ACAD_REACTORS
330
94
102
}
330
94
100
DictionaryVariables
280
     0
  1
STANDARD
  0
DICTIONARYVAR
  5
96
102
{ACAD_REACTORS
330
94
102
}
330
94
100
DictionaryVariables
280
     0
  1
2
  0
DICTIONARYVAR
  5
95
102
{ACAD_REACTORS
330
94
102
}
330
94
100
DictionaryVariables
280
     0
  1
0
  0
DICTIONARYVAR
  5
346
102
{ACAD_REACTORS
330
94
102
}
330
94
100
DictionaryVariables
280
     0
  1
1
  0
DICTIONARYVAR
  5
347
102
{ACAD_REACTORS
330
94
102
}
330
94
100
DictionaryVariables
280
     0
  1
15
  0
DICTIONARYVAR
  5
2EA
102
{ACAD_REACTORS
330
94
102
}
330
94
100
DictionaryVariables
280
     0
  1
0
  0
DICTIONARYVAR
  5
2E8
102
{ACAD_REACTORS
330
94
102
}
330
94
100
DictionaryVariables
280
     0
  1
0
  0
DICTIONARYVAR
  5
166AD3
102
{ACAD_REACTORS
330
94
102
}
330
94
100
DictionaryVariables
280
     0
  1
127
  0
DICTIONARYVAR
  5
16BA53
102
{ACAD_REACTORS
330
94
102
}
330
94
100
DictionaryVariables
280
     0
  1
2
  0
DICTIONARY
  5
38A
102
{ACAD_REACTORS
330
5B
102
}
330
5B
100
AcDbDictionary
281
     1
  0
DICTIONARY
  5
61
102
{ACAD_REACTORS
330
5B
102
}
330
5B
100
AcDbDictionary
281
     1
  0
XRECORD
  5
123
102
{ACAD_REACTORS
330
5B
102
}
330
5B
100
AcDbXrecord
280
     1
 90
-1023410169
  0
XRECORD
  5
9893B
102
{ACAD_REACTORS
330
9893A
102
}
330
9893A
100
AcDbXrecord
280
     1
  0
DICTIONARY
  5
16BA5D
330
1E
100
AcDbDictionary
280
     1
281
     1
  3
ACAD_XREC_ROUNDTRIP
360
16BA5E
  0
DICTIONARY
  5
16BA60
330
26
100
AcDbDictionary
280
     1
281
     1
  3
ACAD_XREC_ROUNDTRIP
360
16BA61
  0
DICTIONARY
  5
1F5DF
330
22
100
AcDbDictionary
280
     1
281
     1
  3
ACAD_XREC_ROUNDTRIP
360
16BA5F
  3
ADSK_XREC_LAYOUTTHUMBNAIL
360
1F5E0
  0
DICTIONARY
  5
166AE8
330
26C
100
AcDbDictionary
280
     1
281
     1
  3
ACAD_XREC_ROUNDTRIP
360
166AE9
  0
DICTIONARY
  5
166AE6
330
26B
100
AcDbDictionary
280
     1
281
     1
  3
ACAD_XREC_ROUNDTRIP
360
166AE7
  0
DICTIONARY
  5
166AEA
330
26D
100
AcDbDictionary
280
     1
281
     1
  3
ACAD_XREC_ROUNDTRIP
360
166AEB
  0
DICTIONARY
  5
2E4
330
11B
100
AcDbDictionary
280
     1
281
     1
  3
ACAD_ROUNDTRIP_2008_TABLESTYLE_CELLSTYLEMAP
360
16BA54
  3
ACAD_XREC_ROUNDTRIP
360
16BA62
  0
DICTIONARY
  5
16BA6D
330
274
100
AcDbDictionary
280
     1
281
     1
  3
ACAD_XREC_ROUNDTRIP
360
16BA6E
  0
DICTIONARY
  5
16BA71
330
276
100
AcDbDictionary
280
     1
281
     1
  3
ACAD_XREC_ROUNDTRIP
360
16BA72
  0
DICTIONARY
  5
16BA6F
330
275
100
AcDbDictionary
280
     1
281
     1
  3
ACAD_XREC_ROUNDTRIP
360
16BA70
  0
DICTIONARY
  5
16BA6B
330
273
100
AcDbDictionary
280
     1
281
     1
  3
ACAD_XREC_ROUNDTRIP
360
16BA6C
  0
DICTIONARY
  5
16BA79
330
27A
100
AcDbDictionary
280
     1
281
     1
  3
ACAD_XREC_ROUNDTRIP
360
16BA7A
  0
DICTIONARY
  5
16BA81
330
27E
100
AcDbDictionary
280
     1
281
     1
  3
ACAD_XREC_ROUNDTRIP
360
16BA82
  0
DICTIONARY
  5
16BA73
330
277
100
AcDbDictionary
280
     1
281
     1
  3
ACAD_XREC_ROUNDTRIP
360
16BA74
  0
DICTIONARY
  5
16BA77
330
279
100
AcDbDictionary
280
     1
281
     1
  3
ACAD_XREC_ROUNDTRIP
360
16BA78
  0
DICTIONARY
  5
16BA87
330
34B
100
AcDbDictionary
280
     1
281
     1
  3
ACAD_XREC_ROUNDTRIP
360
16BA88
  0
DICTIONARY
  5
16BA7F
330
27D
100
AcDbDictionary
280
     1
281
     1
  3
ACAD_XREC_ROUNDTRIP
360
16BA80
  0
DICTIONARY
  5
16BA63
330
26F
100
AcDbDictionary
280
     1
281
     1
  3
ACAD_XREC_ROUNDTRIP
360
16BA64
  0
DICTIONARY
  5
16BA65
330
270
100
AcDbDictionary
280
     1
281
     1
  3
ACAD_XREC_ROUNDTRIP
360
16BA66
  0
DICTIONARY
  5
16BA67
330
271
100
AcDbDictionary
280
     1
281
     1
  3
ACAD_XREC_ROUNDTRIP
360
16BA68
  0
DICTIONARY
  5
16BA69
330
272
100
AcDbDictionary
280
     1
281
     1
  3
ACAD_XREC_ROUNDTRIP
360
16BA6A
  0
DICTIONARY
  5
16BA83
330
349
100
AcDbDictionary
280
     1
281
     1
  3
ACAD_XREC_ROUNDTRIP
360
16BA84
  0
DICTIONARY
  5
16BA7D
330
27C
100
AcDbDictionary
280
     1
281
     1
  3
ACAD_XREC_ROUNDTRIP
360
16BA7E
  0
DICTIONARY
  5
16BA85
330
34A
100
AcDbDictionary
280
     1
281
     1
  3
ACAD_XREC_ROUNDTRIP
360
16BA86
  0
DICTIONARY
  5
16BA75
330
278
100
AcDbDictionary
280
     1
281
     1
  3
ACAD_XREC_ROUNDTRIP
360
16BA76
  0
DICTIONARY
  5
16BA7B
330
27B
100
AcDbDictionary
280
     1
281
     1
  3
ACAD_XREC_ROUNDTRIP
360
16BA7C
  0
XRECORD
  5
16BA5E
102
{ACAD_REACTORS
330
16BA5D
102
}
330
16BA5D
100
AcDbXrecord
280
     1
102
SHADEPLOT
 70
     0
102
SHADEPLOTRESLEVEL
 70
     2
102
SHADEPLOTCUSTOMDPI
 70
   300
  0
XRECORD
  5
16BA61
102
{ACAD_REACTORS
330
16BA60
102
}
330
16BA60
100
AcDbXrecord
280
     1
102
SHADEPLOT
 70
     0
102
SHADEPLOTRESLEVEL
 70
     2
102
SHADEPLOTCUSTOMDPI
 70
   300
  0
XRECORD
  5
16BA5F
102
{ACAD_REACTORS
330
1F5DF
102
}
330
1F5DF
100
AcDbXrecord
280
     1
102
SHADEPLOT
 70
     0
102
SHADEPLOTRESLEVEL
 70
     2
102
SHADEPLOTCUSTOMDPI
 70
   300
  0
XRECORD
  5
1F5E0
102
{ACAD_REACTORS
330
1F5DF
102
}
330
1F5DF
100
AcDbXrecord
280
     1
310
2800000000010000A8000000010008000000000000A80000000000000000000000010000000000000000000000000000FFFFFF000000000000000000000000000000000000000000000000000000000000000000330000006600000099000000CC000000FF00000000330000333300006633000099330000CC330000FF3300
310
0000660000336600006666000099660000CC660000FF66000000990000339900006699000099990000CC990000FF99000000CC000033CC000066CC000099CC0000CCCC0000FFCC000000FF000033FF000066FF000099FF0000CCFF0000FFFF000000003300330033006600330099003300CC003300FF003300003333003333
310
33006633330099333300CC333300FF33330000663300336633006666330099663300CC663300FF66330000993300339933006699330099993300CC993300FF99330000CC330033CC330066CC330099CC3300CCCC3300FFCC330000FF330033FF330066FF330099FF3300CCFF3300FFFF330000006600330066006600660099
310
006600CC006600FF00660000336600333366006633660099336600CC336600FF33660000666600336666006666660099666600CC666600FF66660000996600339966006699660099996600CC996600FF99660000CC660033CC660066CC660099CC6600CCCC6600FFCC660000FF660033FF660066FF660099FF6600CCFF6600
310
FFFF660000009900330099006600990099009900CC009900FF00990000339900333399006633990099339900CC339900FF33990000669900336699006666990099669900CC669900FF66990000999900339999006699990099999900CC999900FF99990000CC990033CC990066CC990099CC9900CCCC9900FFCC990000FF99
310
0033FF990066FF990099FF9900CCFF9900FFFF99000000CC003300CC006600CC009900CC00CC00CC00FF00CC000033CC003333CC006633CC009933CC00CC33CC00FF33CC000066CC003366CC006666CC009966CC00CC66CC00FF66CC000099CC003399CC006699CC009999CC00CC99CC00FF99CC0000CCCC0033CCCC0066CC
310
CC0099CCCC00CCCCCC00FFCCCC0000FFCC0033FFCC0066FFCC0099FFCC00CCFFCC00FFFFCC000000FF003300FF006600FF009900FF00CC00FF00FF00FF000033FF003333FF006633FF009933FF00CC33FF00FF33FF000066FF003366FF006666FF009966FF00CC66FF00FF66FF000099FF003399FF006699FF009999FF00CC
310
99FF00FF99FF0000CCFF0033CCFF0066CCFF0099CCFF00CCCCFF00FFCCFF0000FFFF0033FFFF0066FFFF0099FFFF00CCFFFF00FFFFFF00000000000D0D0D001A1A1A00282828003535350043434300505050005D5D5D006B6B6B00787878008686860093939300A1A1A100AEAEAE00BBBBBB00C9C9C900D6D6D600E4E4E400
310
F1F1F100FFFFFF0000000000000000000000000000000000000000000000000000000000000000000000000000000000E2E2E2E2E2E2E2E2E2E2E2E2E2E2E2E2E2E2E2E2E2E2E2E2E2E2E2E2E2E2E2E2E2E2E2E2E2E2E2E2E2E2E2E2E2E2E2E2E2E2E2E2E2E2E2E2E2E2E2E2E2E2E2E2E2E2E2E2E2E2E2E2E2E2E2E2E2E2E2
310
E2E2E2E2E2E2E2E2E2E2E2E2E2E2E2E2E2E2E2E2E2E2E2E2E2E2E2E2E2E2E2E2E2E2E2E2E2E2E2E2E2E2E2E2E2E2E2E2E2E2E2E2E2E2E2E2E2E2E2E2E2E2E2E2E2E2E2E2E2E2E2E2E2E2E2E2E2E2E2E2E2E2E2E2E2E2E2E2E2E2E2E2E2E2E2E2E2E2E2E2E2E2E2E2E2E2E2E2E2E2E2E2E2E2E2E2E2E2E2E2E2E2E2E2E2E2E2
310
E2E2E2E2E2E2E2E2E2E2E2E2E2E2E2E2E2E2E2E2E2E2E2E2E2E2E2E2E2E2E2E2E2E2E2E2E2E2E2E2E2E2E2E2E2E2E2E2E2E2E2E2E2E2E2E2E2E2E2E2E2E2E2E2E2E2E2E2E2E2E2E2E2E2E2E2E2E2E2E2E2E2E2E2E2E2E2E2E2E2E2E2E2E2E2E2E2E2E2E2E2E2E2E2E2E2E2E2E2E2E2E2E2E2E2E2E2E2E2E2E2E2E2E2E2E2E2
310
E2E2E2E2E2E2E2E2E2E2E2E2E2E2E2E2E2E2E2E2E2E2E2E2E2E2E2E2E2E2E2E2E2E2E2E2E2E2E2E2E2E2E2E2E2E2E2E2E2E2E2E2E2E2E2E2E2E2E2E2E2E2E2E2E2E2E2E2E2E2E2E2E2E2E2E2E2E2E2E2E2E2E2E2E2E2E2E2E2E2E2E2E2E2E2E2E2E2E2E2E2E2E2E2E2E2E2E2E2E2E2E2E2E2E2E2E2E2E2E2E2E2E2E2E2E2E2
310
E2E2E2E2E2E2E2E2E2E2E2E2E2E2E2E2E2E2E2E2E2E2E2E2E2E2E2E2E2E2E2E2E2E2E2E2E2E2E2E2E2E2E2E2E2E2E2E2E2E2E2E2E2E2E2E2E2E2E2E2E2E2E2E2E2E2E2E2E2E2E2E2E2E2E2E2E2E2E2E2E2E2E2E2E2E2E2E2E2E2E2E2E2E2E2E2E2E2E2E2E2E2E2E2E2E2E2E2E2E2E2E2E2E2E2E2E2E2E2E2E2E2E2E2E2E2E2
310
E2E2E2E2E2E2E2E2E2E2E2E2E2E2E2E2E2E2E2E2E2E2E2E2E2E2E2E2E2E2E2E2E2E2E2E2E2E2E2E2E2E2E2E2E2E2E2E2E2E2E2E2E2E2E2E2E2E2E2E2E2E2E2E2E2E2E2E2E2E2E2E2E2E2E2E2E2E2E2E2E2E2E2E2E2E2E2E2E2E2E2E2E2E2E2E2E2E2E2E2E2E2E2E2E2E2E2E2E2E2E2E2E2E2E2E2E2E2E2E2E2E2E2E2E2E2E2
310
E2E2E2E2E2E2E2E2E2E2E2E2E2E2E2E2E2E2E2E2E2E2E2E2E2E2E2E2E2E2E2E2E2E2E2E2E2E2E2E2E2E2E2E2E2E2E2E2E2E2E2E2E2E2E2E2E2E2E2E2E2E2E2E2E2E2E2E2E2E2E2E2E2E2E2E2E2E2E2E2E2E2E2E2E2E2E2E2E2E2E2E2E2E2E2E2E2E2E2E2E2E2E2E2E2E2E2E2E2E2E2E2E2E2E2E2E2E2E2E2E2E2E2E2E2E2E2
310
E2E2E2E2E2E2E2E2E2E2E2E2E2E2E2E2E2E2E2E2E2E2E2E2E2E2E2E2E2E2E2E2E2E2E2E2E2E2E2E2E2E2E2E2E2E2E2E2E2E2E2E2E2E2E2E2E2E2E2E2E2E2E2E2E2E2E2E2E2E2E2E2E2E2E2E2E2E2E2E2E2E2E2E2E2E2E2E2E2E2E2E2E2E2E2E2E2E2E2E2E2E2E2E2E2E2E2E2E2E2E2E2E2E2E2E2E2E2E2E2E2E2E2E2E2E2E2
310
E2E2E2E2E2E2E2E2E2E2E2E2E2E2E2E2E2E2E2E2E2E2E2E2E2E2E2E2E2E2E2E2E2E2E2E2E2E2E2E2E2E2E2E2E2E2E2E2E2E2E2E2E2E2E2E2E2E2E2E2E2E2E2E2E2E2E2E2E2E2E2E2E2E2E2E2E2E2E2E2E2E2E2E2E2E2E2E2E2E2E2E2E2E2E2E2E2E2E2E2E2E2E2E2E2E2E2E2E2E2E2E2E2E2E2E2E2E2E2E2E2E2E2E2E2E2E2
310
E2E2E2E2E2E2E2E2E2E2E2E2E2E2E2E2E2E2E2E2E2E2E2E2E2E2E2E2E2E2E2E2E2E2E2E2E2E2E2E2E2E2E2E2E2E2E2E2E2E2E2E2E2E2E2E2E2E2E2E2E2E2E2E2E2E2E2E2E2E2E2E2E2E2E2E2E2E2E2E2E2E2E2E2E2E2E2E2E2E2E2E2E2E2E2E2E2E2E2E2E2E2E2E2E2E2E2E2E2E2E2E2E2E2E2E2E2E2E2E2E2E2E2E2E2E2E2
310
E2E2E2E2E2E2E2E2E2E2E2E2E2E2E2E2E2E2E2E2E2E2E2E2E2E2E2E2E2E2E2E2E2E2E2E2E2E2E2E2E2E2E2E2E2E2E2E2E2E2E2E2E2E2E2E2E2E2E2E2E2E2E2E2E2E2E2E2E2E2E2E2E2E2E2E2E2E2E2E2E2E2E2E2E2E2E2E2E2E2E2E2E2E2E2E2E2E2E2E2E2E2E2E2E2E2E2E2E2E2E2E2E2E2E2E2E2E2E2E2E2E2E2E2E2E2E2
310
E2E2E2E2E2E2E2E2E2E2E2E2E2E2E2E2E2E2E2E2E2E2E2E2E2E2E2E2E2E2E2E2E2E2E2E2E2E2E2E2E2E2E2E2E2E2E2E2E2E2E2E2E2E2E2E2E2E2E2E2E2E2E2E2E2E2E2E2E2E2E2E2E2E2E2E2E2E2E2E2E2E2E2E2E2E2E2E2E2E2E2E2E2E2E2E2E2E2E2E2E2E2E2E2E2E2E2E2E2E2E2E2E2E2E2E2E2E2E2E2E2E2E2E2E2E2E2
310
E2E2E2E2E2E2E2E2E2E2E2E2E2E2E2E2E2E2E2E2E2E2E2E2E2E2E2E2E2E2E2E2E2E2E2E2E2E2E2E2E2E2E2E2E2E2E2E2E2E2E2E2E2E2E2E2E2E2E2E2E2E2E2E2E2E2E2E2E2E2E2E2E2E2E2E2E2E2E2E2E2E2E2E2E2E2E2E2E2E2E2E2E2E2E2E2E2E2E2E2E2E2E2E2E2E2E2E2E2E2E2E2E2E2E2E2E2E2E2E2E2E2E2E2E2E2E2
310
E2E2E2E2E2E2E2E2E2E2E2E2E2E2E2E2E2E2E2E2E2E2E2E2E2E2E2E2E2E2E2E2E2E2E2E2E2E2E2E2E2E2E2E2E2E2E2E2E2E2E2E2E2E2E2E2E2E2E2E2E2E2E2E2E2E2E2E2E2E2E2E2E2E2E2E2E2E2E2E2E2E2E2E2E2E2E2E2E2E2E2E2E2E2E2E2E2E2E2E2E2E2E2E2E2E2E2E2E2E2E2E2E2E2E2E2E2E2E2E2E2E2E2E2E2E2E2
310
E2E2E2E2E2E2E2E2E2E2E2E2E2E2E2E2E2E2E2E2E2E2E2E2E2E2E2E2E2E2E2E2E2E2E2E2E2E2E2E2E2E2E2E2E2E2E2E2E2E2E2E2E2E2E2E2E2E2E2E2E2E2E2E2E2E2E2E2E2E2E2E2E2E2E2E2E2E2E2E2E2E2E2E2E2E2E2E2E2E2E2E2E2E2E2E2E2E2E2E2E2E2E2E2E2E2E2E2E2E2E2E2E2E2E2E2E2E2E2E2E2E2E2E2E2E2E2
310
E2E2E2E2E2E2E2E2E2E2E2E2E2E2E2E2E2E2E2E2E2E2E2E2E2E2E2E2E2E2E2E2E2E2E2E2E2E2E2E2E2E2E2E2E2E2E2E2E2E2E2E2E2E2E2E2E2E2E2E2E2E2E2E2E2E2E2E2E2E2E2E2E2E2E2E2E2E2E2E2E2E2E2E2E2E2E2E2E2E2E2E2E2E2E2E2E2E2E2E2E2E2E2E2E2E2E2E2E2E2E2E2E2E2E2E2E2E2E2E2E2E2E2E2E2E2E2
310
E2E2E2E2E2E2E2E2E2E2E2E2E2E2E2E2E2E2E2E2E2E2E2E2E2E2E2E2E2E2E2E2E2E2E2E2E2E2E2E2E2E2E2E2E2E2E2E2E2E2E2E2E2E2E2E2E2E2E2E2E2E2E2E2E2E2E2E2E2E2E2E2E2E2E2E2E2E2E2E2E2E2E2E2E2E2E2E2E2E2E2E2E2E2E2E2E2E2E2E2E2E2E2E2E2E2E2E2E2E2E2E2E2E2E2E2E2E2E2E2E2E2E2E2E2E2E2
310
E2E2E2E2E2E2E2E2E2E2E2E2E2E2E2E2E2E2E2E2E2E2E2E2E2E2E2E2E2E2E2E2E2E2E2E2E2E2E2E2E2E2E2E2E2E2E2E2E2E2E2E2E2E2E2E2E2E2E2E2E2E2E2E2E2E2E2E2E2E2E2E2E2E2E2E2E2E2E2E2E2E2E2E2E2E2E2E2E2E2E2E2E2E2E2E2E2E2E2E2E2E2E2E2E2E2E2E2E2E2E2E2E2E2E2E2E2E2E2E2E2E2E2E2E2E2E2
310
E2E2E2E2E2E2E2E2E2E2E2E2E2E2E2E2E2E2E2E2E2E2E2E2E2E2E2E2E2E2E2E2E2E2E2E2E2E2E2E2E2E2E2E2E2E2E2E2E2E2E2E2E2E2E2E2E2E2E2E2E2E2E2E2E2E2E2E2E2E2E2E2E2E2E2E2E2E2E2E2E2E2E2E2E2E2E2E2E2E2E2E2E2E2E2E2E2E2E2E2E2E2E2E2E2E2E2E2E2E2E2E2E2E2E2E2E2E2E2E2E2E2E2E2E2E2E2
310
E2E2E2E2E2E2E2E2E2E2E2E2E2E2E2E2E2E2E2E2E2E2E2E2E2E2E2E2E2E2E2E2E2E2E2E2E2E2E2E2E2E2E2E2E2E2E2E2E2E2E2E2E2E2E2E2E2E2E2E2E2E2E2E2E2E2E2E2E2E2E2E2E2E2E2E2E2E2E2E2E2E2E2E2E2E2E2E2E2E2E2E2E2E2E2E2E2E2E2E2E2E2E2E2E2E2E2E2E2E2E2E2E2E2E2E2E2E2E2E2E2E2E2E2E2E2E2
310
E2E2E2E2E2E2E2E2E2E2E2E2E2E2E2E2E2E2E2E2E2E2E2E2E2E2E2E2E2E2E2E2E2E2E2E2E2E2E2E2E2E2E2E2E2E2E2E2E2E2E2E2E2E2E2E2E2E2E2E2E2E2E2E2E2E2E2E2E2E2E2E2E2E2E2E2E2E2E2E2E2E2E2E2E2E2E2E2E2E2E2E2E2E2E2E2E2E2E2E2E2E2E2E2E2E2E2E2E2E2E2E2E2E2E2E2E2E2E2E2E2E2E2E2E2E2E2
310
E2E2E2E2E2E2E2E2E2E2E2E2E2E2E2E2E2E2E2E2E2E2E2E2E2E2E2E2E2E2E2E2E2E2E2E2E2E2E2E2E2E2E2E2E2E2E2E2E2E2E2E2E2E2E2E2E2E2E2E2E2E2E2E2E2E2E2E2E2E2E2E2E2E2E2E2E2E2E2E2E2E2E2E2E2E2E2E2E2E2E2E2E2E2E2E2E2E2E2E2E2E2E2E2E2E2E2E2E2E2E2E2E2E2E2E2E2E2E2E2E2E2E2E2E2E2E2
310
E2E2E2E2E2E2E2E2E2E2E2E2E2E2E2E2E2E2E2E2E2E2E2E2E2E2E2E2E2E2E2E2E2E2E2E2E2E2E2E2E2E2E2E2E2E2E2E2E2E2E2E2E2E2E2E2E2E2E2E2E2E2E2E2E2E2E2E2E2E2E2E2E2E2E2E2E2E2E2E2E2E2E2E2E2E2E2E2E2E2E2E2E2E2E2E2E2E2E2E2E2E2E2E2E2E2E2E2E2E2E2E2E2E2E2E2E2E2E2E2E2E2E2E2E2E2E2
310
E2E2E2E2E2E2E2E2E2E2E2E2E2E2E2E2E2E2E2E2E2E2E2E2E2E2E2E2E2E2E2E2E2E2E2E2E2E2E2E2E2E2E2E2E2E2E2E2E2E2E2E2E2E2E2E2E2E2E2E2E2E2E2E2E2E2E2E2E2E2E2E2E2E2E2E2E2E2E2E2E2E2E2E2E2E2E2E2E2E2E2E2E2E2E2E2E2E2E2E2E2E2E2E2E2E2E2E2E2E2E2E2E2E2E2E2E2E2E2E2E2E2E2E2E2E2E2
310
E2E2E2E2E2E2E2E2E2E2E2E2E2E2E2E2E2E2E2E2E2E2E2E2E2E2E2E2E2E2E2E2E2E2E2E2E2E2E2E2E2E2E2E2E2E2E2E2E2E2E2E2E2E2E2E2E2E2E2E2E2E2E2E2E2E2E2E2E2E2E2E2E2E2E2E2E2E2E2E2E2E2E2E2E2E2E2E2E2E2E2E2E2E2E2E2E2E2E2E2E2E2E2E2E2E2E2E2E2E2E2E2E2E2E2E2E2E2E2E2E2E2E2E2E2E2E2
310
E2E2E2E2E2E2E2E2E2E2E2E2E2E2E2E2E2E2E2E2E2E2E2E2E2E2E2E2E2E2E2E2E2E2E2E2E2E2E2E2E2E2E2E2E2E2E2E2E2E2E2E2E2E2E2E2E2E2E2E2E2E2E2E2E2E2E2E2E2E2E2E2E2E2E2E2E2E2E2E2E2E2E2E2E2E2E2E2E2E2E2E2E2E2E2E2E2E2E2E2E2E2E2E2E2E2E2E2E2E2E2E2E2E2E2E2E2E2E2E2E2E2E2E2E2E2E2
310
E2E2E2E2E2E2E2E2E2E2E2E2E2E2E2E2E2E2E2E2E2E2E2E2E2E2E2E2E2E2E2E2E2E2E2E2E2E2E2E2E2E2E2E2E2E2E2E2E2E2E2E2E2E2E2E2E2E2E2E2E2E2E2E2E2E2E2E2E2E2E2E2E2E2E2E2E2E2E2E2E2E2E2E2E2E2E2E2E2E2E2E2E2E2E2E2E2E2E2E2E2E2E2E2E2E2E2E2E2E2E2E2E2E2E2E2E2E2E2E2E2E2E2E2E2E2E2
310
E2E2E2E2E2E2E2E2E2E2E2E2E2E2E2E2E2E2E2E2E2E2E2E2E2E2E2E2E2E2E2E2E2E2E2E2E2E2E2E2E2E2E2E2E2E2E2E2E2E2E2E2E2E2E2E2E2E2E2E2E2E2E2E2E2E2E2E2E2E2E2E2E2E2E2E2E2E2E2E2E2E2E2E2E2E2E2E2E2E2E2E2E2E2E2E2E2E2E2E2E2E2E2E2E2E2E2E2E2E2E2E2E2E2E2E2E2E2E2E2E2E2E2E2E2E2E2
310
E2E2E2E2E2E2E2E2E2E2E2E2E2E2E2E2E2E2E2E2E2E2E2E2E2E2E2E2E2E2E2E2E2E2E2E2E2E2E2E2E2E2E2E2E2E2E2E2E2E2E2E2E2E2E2E2E2E2E2E2E2E2E2E2E2E2E2E2E2E2E2E2E2E2E2E2E2E2E2E2E2E2E2E2E2E2E2E2E2E2E2E2E2E2E2E2E2E2E2E2E2E2E2E2E2E2E2E2E2E2E2E2E2E2E2E2E2E2E2E2E2E2E2E2E2E2E2
310
E2E2E2E2E2E2E2E2E2E2E2E2E2E2E2E2E2E2E2E2E2E2E2E2E2E2E2E2E2E2E2E2E2E2E2E2E2E2E2E2E2E2E2E2E2E2E2E2E2E2E2E2E2E2E2E2E2E2E2E2E2E2E2E2E2E2E2E2E2E2E2E2E2E2E2E2E2E2E2E2E2E2E2E2E2E2E2E2E2E2E2E2E2E2E2E2E2E2E2E2E2E2E2E2E2E2E2E2E2E2E2E2E2E2E2E2E2E2E2E2E2E2E2E2E2E2E2
310
E2E2E2E2E2E2E2E2E2E2E2E2E2E2E2E2E2E2E2E2E2E2E2E2E2E2E2E2E2E2E2E2E2E2E2E2E2E2E2E2E2E2E2E2E2E2E2E2E2E2E2E2E2E2E2E2E2E2E2E2E2E2E2E2E2E2E2E2E2E2E2E2E2E2E2E2E2E2E2E2E2E2E2E2E2E2E2E2E2E2E2E2E2E2E2E2E2E2E2E2E2E2E2E2E2E2E2E2E2E2E2E2E2E2E2E2E2E2E2E2E2E2E2E2E2E2E2
310
E2E2E2E2E2E2E2E2E2E2E2E2E2E2E2E2E2E2E2E2E2E2E2E2E2E2E2E2E2E2E2E2E2E2E2E2E2E2E2E2E2E2E2E2E2E2E2E2E2E2E2E2E2E2E2E2E2E2E2E2E2E2E2E2E2E2E2E2E2E2E2E2E2E2E2E2E2E2E2E2E2E2E2E2E2E2E2E2E2E2E2E2E2E2E2E2E2E2E2E2E2E2E2E2E2E2E2E2E2E2E2E2E2E2E2E2E2E2E2E2E2E2E2E2E2E2E2
310
E2E2E2E2E2E2E2E2E2E2E2E2E2E2E2E2E2E2E2E2E2E2E2E2E2E2E2E2E2E2E2E2E2E2E2E2E2E2E2E2E2E2E2E2E2E2E2E2E2E2E2E2E2E2E2E2E2E2E2E2E2E2E2E2E2E2E2E2E2E2E2E2E2E2E2E2E2E2E2E2E2E2E2E2E2E2E2E2E2E2E2E2E2E2E2E2E2E2E2E2E2E2E2E2E2E2E2E2E2E2E2E2E2E2E2E2E2E2E2E2E2E2E2E2E2E2E2
310
E2E2E2E2E2E2E2E2E2E2E2E2E2E2E2E2E2E2E2E2E2E2E2E2E2E2E2E2E2E2E2E2E2E2E2E2E2E2E2E2E2E2E2E2E2E2E2E2E2E2E2E2E2E2E2E2E2E2E2E2E2E2E2E2E2E2E2E2E2E2E2E2E2E2E2E2E2E2E2E2E2E2E2E2E2E2E2E2E2E2E2E2E2E2E2E2E2E2E2E2E2E2E2E2E2E2E2E2E2E2E2E2E2E2E2E2E2E2E2E2E2E2E2E2E2E2E2
310
E2E2E2E2E2E2E2E2E2E2E2E2E2E2E2E2E2E2E2E2E2E2E2E2E2E2E2E2E2E2E2E2E2E2E2E2E2E2E2E2E2E2E2E2E2E2E2E2E2E2E2E2E2E2E2E2E2E2E2E2E2E2E2E2E2E2E2E2E2E2E2E2E2E2E2E2E2E2E2E2E2E2E2E2E2E2E2E2E2E2E2E2E2E2E2E2E2E2E2E2E2E2E2E2E2E2E2E2E2E2E2E2E2E2E2E2E2E2E2E2E2E2E2E2E2E2E2
310
E2E2E2E2E2E2E2E2E2E2E2E2E2E2E2E2E2E2E2E2E2E2E2E2E2E2E2E2E2E2E2E2E2E2E2E2E2E2E2E2E2E2E2E2E2E2E2E2E2E2E2E2E2E2E2E2E2E2E2E2E2E2E2E2E2E2E2E2E2E2E2E2E2E2E2E2E2E2E2E2E2E2E2E2E2E2E2E2E2E2E2E2E2E2E2E2E2E2E2E2E2E2E2E2E2E2E2E2E2E2E2E2E2E2E2E2E2E2E2E2E2E2E2E2E2E2E2
310
E2E2E2E2E2E2E2E2E2E2E2E2E2E2E2E2E2E2E2E2E2E2E2E2E2E2E2E2E2E2E2E2E2E2E2E2E2E2E2E2E2E2E2E2E2E2E2E2E2E2E2E2E2E2E2E2E2E2E2E2E2E2E2E2E2E2E2E2E2E2E2E2E2E2E2E2E2E2E2E2E2E2E2E2E2E2E2E2E2E2E2E2E2E2E2E2E2E2E2E2E2E2E2E2E2E2E2E2E2E2E2E2E2E2E2E2E2E2E2E2E2E2E2E2E2E2E2
310
E2E2E2E2E2E2E2E2E2E2E2E2E2E2E2E2E2E2E2E2E2E2E2E2E2E2E2E2E2E2E2E2E2E2E2E2E2E2E2E2E2E2E2E2E2E2E2E2E2E2E2E2E2E2E2E2E2E2E2E2E2E2E2E2E2E2E2E2E2E2E2E2E2E2E2E2E2E2E2E2E2E2E2E2E2E2E2E2E2E2E2E2E2E2E2E2E2E2E2E2E2E2E2E2E2E2E2E2E2E2E2E2E2E2E2E2E2E2E2E2E2E2E2E2E2E2E2
310
E2E2E2E2E2E2E2E2E2E2E2E2E2E2E2E2E2E2E2E2E2E2E2E2E2E2E2E2E2E2E2E2E2E2E2E2E2E2E2E2E2E2E2E2E2E2E2E2E2E2E2E2E2E2E2E2E2E2E2E2E2E2E2E2E2E2E2E2E2E2E2E2E2E2E2E2E2E2E2E2E2E2E2E2E2E2E2E2E2E2E2E2E2E2E2E2E2E2E2E2E2E2E2E2E2E2E2E2E2E2E2E2E2E2E2E2E2E2E2E2E2E2E2E2E2E2E2
310
E2E2E2E2E2E2E2E2E2E2E2E2E2E2E2E2E2E2E2E2E2E2E2E2E2E2E2E2E2E2E2E2E2E2E2E2E2E2E2E2E2E2E2E2E2E2E2E2E2E2E2E2E2E2E2E2E2E2E2E2E2E2E2E2E2E2E2E2E2E2E2E2E2E2E2E2E2E2E2E2E2E2E2E2E2E2E2E2E2E2E2E2E2E2E2E2E2E2E2E2E2E2E2E2E2E2E2E2E2E2E2E2E2E2E2E2E2E2E2E2E2E2E2E2E2E2E2
310
E2E2E2E2E2E2E2E2E2E2E2E2E2E2E2E2E2E2E2E2E2E2E2E2E2E2E2E2E2E2E2E2E2E2E2E2E2E2E2E2E2E2E2E2E2E2E2E2E2E2E2E2E2E2E2E2E2E2E2E2E2E2E2E2E2E2E2E2E2E2E2E2E2E2E2E2E2E2E2E2E2E2E2E2E2E2E2E2E2E2E2E2E2E2E2E2E2E2E2E2E2E2E2E2E2E2E2E2E2E2E2E2E2E2E2E2E2E2E2E2E2E2E2E2E2E2E2
310
E2E2E2E2E2E2E2E2E2E2E2E2E2E2E2E2E2E2E2E2E2E2E2E2E2E2E2E2E2E2E2E2E2E2E2E2E2E2E2E2E2E2E2E2E2E2E2E2E2E2E2E2E2E2E2E2E2E2E2E2E2E2E2E2E2E2E2E2E2E2E2E2E2E2E2E2E2E2E2E2E2E2E2E2E2E2E2E2E2E2E2E2E2E2E2E2E2E2E2E2E2E2E2E2E2E2E2E2E2E2E2E2E2E2E2E2E2E2E2E2E2E2E2E2E2E2E2
310
E2E2E2E2E2E2E2E2E2E2E2E2E2E2E2E2E2E2E2E2E2E2E2E2E2E2E2E2E2E2E2E2E2E2E2E2E2E2E2E2E2E2E2E2E2E2E2E2E2E2E2E2E2E2E2E2E2E2E2E2E2E2E2E2E2E2E2E2E2E2E2E2E2E2E2E2E2E2E2E2E2E2E2E2E2E2E2E2E2E2E2E2E2E2E2E2E2E2E2E2E2E2E2E2E2E2E2E2E2E2E2E2E2E2E2E2E2E2E2E2E2E2E2E2E2E2E2
310
E2E2E2E2E2E2E2E2E2E2E2E2E2E2E2E2E2E2E2E2E2E2E2E2E2E2E2E2E2E2E2E2E2E2E2E2E2E2E2E2E2E2E2E2E2E2E2E2E2E2E2E2E2E2E2E2E2E2E2E2E2E2E2E2E2E2E2E2E2E2E2E2E2E2E2E2E2E2E2E2E2E2E2E2E2E2E2E2E2E2E2E2E2E2E2E2E2E2E2E2E2E2E2E2E2E2E2E2E2E2E2E2E2E2E2E2E2E2E2E2E2E2E2E2E2E2E2
310
E2E2E2E2E2E2E2E2E2E2E2E2E2E2E2E2E2E2E2E2E2E2E2E2E2E2E2E2E2E2E2E2E2E2E2E2E2E2E2E2E2E2E2E2E2E2E2E2E2E2E2E2E2E2E2E2E2E2E2E2E2E2E2E2E2E2E2E2E2E2E2E2E2E2E2E2E2E2E2E2E2E2E2E2E2E2E2E2E2E2E2E2E2E2E2E2E2E2E2E2E2E2E2E2E2E2E2E2E2E2E2E2E2E2E2E2E2E2E2E2E2E2E2E2E2E2E2
310
E2E2E2E2E2E2E2E2E2E2E2E2E2E2E2E2E2E2E2E2E2E2E2E2E2E2E2E2E2E2E2E2E2E2E2E2E2E2E2E2E2E2E2E2E2E2E2E2E2E2E2E2E2E2E2E2E2E2E2E2E2E2E2E2E2E2E2E2E2E2E2E2E2E2E2E2E2E2E2E2E2E2E2E2E2E2E2E2E2E2E2E2E2E2E2E2E2E2E2E2E2E2E2E2E2E2E2E2E2E2E2E2E2E2E2E2E2E2E2E2E2E2E2E2E2E2E2
310
E2E2E2E2E2E2E2E2E2E2E2E2E2E2E2E2E2E2E2E2E2E2E2E2E2E2E2E2E2E2E2E2E2E2E2E2E2E2E2E2E2E2E2E2E2E2E2E2E2E2E2E2E2E2E2E2E2E2E2E2E2E2E2E2E2E2E2E2E2E2E2E2E2E2E2E2E2E2E2E2E2E2E2E2E2E2E2E2E2E2E2E2E2E2E2E2E2E2E2E2E2E2E2E2E2E2E2E2E2E2E2E2E2E2E2E2E2E2E2E2E2E2E2E2E2E2E2
310
E2E2E2E2E2E2E2E2E2E2E2E2E2E2E2E2E2E2E2E2E2E2E2E2E2E2E2E2E2E2E2E2E2E2E2E2E2E2E2E2E2E2E2E2E2E2E2E2E2E2E2E2E2E2E2E2E2E2E2E2E2E2E2E2E2E2E2E2E2E2E2E2E2E2E2E2E2E2E2E2E2E2E2E2E2E2E2E2E2E2E2E2E2E2E2E2E2E2E2E2E2E2E2E2E2E2E2E2E2E2E2E2E2E2E2E2E2E2E2E2E2E2E2E2E2E2E2
310
E2E2E2E2E2E2E2E2E2E2E2E2E2E2E2E2E2E2E2E2E2E2E2E2E2E2E2E2E2E2E2E2E2E2E2E2E2E2E2E2E2E2E2E2E2E2E2E2E2E2E2E2E2E2E2E2E2E2E2E2E2E2E2E2E2E2E2E2E2E2E2E2E2E2E2E2E2E2E2E2E2E2E2E2E2E2E2E2E2E2E2E2E2E2E2E2E2E2E2E2E2E2E2E2E2E2E2E2E2E2E2E2E2E2E2E2E2E2E2E2E2E2E2E2E2E2E2
310
E2E2E2E2E2E2E2E2E2E2E2E2E2E2E2E2E2E2E2E2E2E2E2E2E2E2E2E2E2E2E2E2E2E2E2E2E2E2E2E2E2E2E2E2E2E2E2E2E2E2E2E2E2E2E2E2E2E2E2E2E2E2E2E2E2E2E2E2E2E2E2E2E2E2E2E2E2E2E2E2E2E2E2E2E2E2E2E2E2E2E2E2E2E2E2E2E2E2E2E2E2E2E2E2E2E2E2E2E2E2E2E2E2E2E2E2E2E2E2E2E2E2E2E2E2E2E2
310
E2E2E2E2E2E2E2E2E2E2E2E2E2E2E2E2E2E2E2E2E2E2E2E2E2E2E2E2E2E2E2E2E2E2E2E2E2E2E2E2E2E2E2E2E2E2E2E2E2E2E2E2E2E2E2E2E2E2E2E2E2E2E2E2E2E2E2E2E2E2E2E2E2E2E2E2E2E2E2E2E2E2E2E2E2E2E2E2E2E2E2E2E2E2E2E2E2E2E2E2E2E2E2E2E2E2E2E2E2E2E2E2E2E2E2E2E2E2E2E2E2E2E2E2E2E2E2
310
E2E2E2E2E2E2E2E2E2E2E2E2E2E2E2E2E2E2E2E2E2E2E2E2E2E2E2E2E2E2E2E2E2E2E2E2E2E2E2E2E2E2E2E2E2E2E2E2E2E2E2E2E2E2E2E2E2E2E2E2E2E2E2E2E2E2E2E2E2E2E2E2E2E2E2E2E2E2E2E2E2E2E2E2E2E2E2E2E2E2E2E2E2E2E2E2E2E2E2E2E2E2E2E2E2E2E2E2E2E2E2E2E2E2E2E2E2E2E2E2E2E2E2E2E2E2E2
310
E2E2E2E2E2E2E2E2E2E2E2E2E2E2E2E2E2E2E2E2E2E2E2E2E2E2E2E2E2E2E2E2E2E2E2E2E2E2E2E2E2E2E2E2E2E2E2E2E2E2E2E2E2E2E2E2E2E2E2E2E2E2E2E2E2E2E2E2E2E2E2E2E2E2E2E2E2E2E2E2E2E2E2E2E2E2E2E2E2E2E2E2E2E2E2E2E2E2E2E2E2E2E2E2E2E2E2E2E2E2E2E2E2E2E2E2E2E2E2E2E2E2E2E2E2E2E2
310
E2E2E2E2E2E2E2E2E2E2E2E2E2E2E2E2E2E2E2E2E2E2E2E2E2E2E2E2E2E2E2E2E2E2E2E2E2E2E2E2E2E2E2E2E2E2E2E2E2E2E2E2E2E2E2E2E2E2E2E2E2E2E2E2E2E2E2E2E2E2E2E2E2E2E2E2E2E2E2E2E2E2E2E2E2E2E2E2E2E2E2E2E2E2E2E2E2E2E2E2E2E2E2E2E2E2E2E2E2E2E2E2E2E2E2E2E2E2E2E2E2E2E2E2E2E2E2
310
E2E2E2E2E2E2E2E2E2E2E2E2E2E2E2E2E2E2E2E2E2E2E2E2E2E2E2E2E2E2E2E2E2E2E2E2E2E2E2E2E2E2E2E2E2E2E2E2E2E2E2E2E2E2E2E2E2E2E2E2E2E2E2E2E2E2E2E2E2E2E2E2E2E2E2E2E2E2E2E2E2E2E2E2E2E2E2E2E2E2E2E2E2E2E2E2E2E2E2E2E2E2E2E2E2E2E2E2E2E2E2E2E2E2E2E2E2E2E2E2E2E2E2E2E2E2E2
310
E2E2E2E2E2E2E2E2E2E2E2E2E2E2E2E2E2E2E2E2E2E2E2E2E2E2E2E2E2E2E2E2E2E2E2E2E2E2E2E2E2E2E2E2E2E2E2E2E2E2E2E2E2E2E2E2E2E2E2E2E2E2E2E2E2E2E2E2E2E2E2E2E2E2E2E2E2E2E2E2E2E2E2E2E2E2E2E2E2E2E2E2E2E2E2E2E2E2E2E2E2E2E2E2E2E2E2E2E2E2E2E2E2E2E2E2E2E2E2E2E2E2E2E2E2E2E2
310
E2E2E2E2E2E2E2E2E2E2E2E2E2E2E2E2E2E2E2E2E2E2E2E2E2E2E2E2E2E2E2E2E2E2E2E2E2E2E2E2E2E2E2E2E2E2E2E2E2E2E2E2E2E2E2E2E2E2E2E2E2E2E2E2E2E2E2E2E2E2E2E2E2E2E2E2E2E2E2E2E2E2E2E2E2E2E2E2E2E2E2E2E2E2E2E2E2E2E2E2E2E2E2E2E2E2E2E2E2E2E2E2E2E2E2E2E2E2E2E2E2E2E2E2E2E2E2
310
E2E2E2E2E2E2E2E2E2E2E2E2E2E2E2E2E2E2E2E2E2E2E2E2E2E2E2E2E2E2E2E2E2E2E2E2E2E2E2E2E2E2E2E2E2E2E2E2E2E2E2E2E2E2E2E2E2E2E2E2E2E2E2E2E2E2E2E2E2E2E2E2E2E2E2E2E2E2E2E2E2E2E2E2E2E2E2E2E2E2E2E2E2E2E2E2E2E2E2E2E2E2E2E2E2E2E2E2E2E2E2E2E2E2E2E2E2E2E2E2E2E2E2E2E2E2E2
310
E2E2E2E2E2E2E2E2E2E2E2E2E2E2E2E2E2E2E2E2E2E2E2E2E2E2E2E2E2E2E2E2E2E2E2E2E2E2E2E2E2E2E2E2E2E2E2E2E2E2E2E2E2E2E2E2E2E2E2E2E2E2E2E2E2E2E2E2E2E2E2E2E2E2E2E2E2E2E2E2E2E2E2E2E2E2E2E2E2E2E2E2E2E2E2E2E2E2E2E2E2E2E2E2E2E2E2E2E2E2E2E2E2E2E2E2E2E2E2E2E2E2E2E2E2E2E2
310
E2E2E2E2E2E2E2E2E2E2E2E2E2E2E2E2E2E2E2E2E2E2E2E2E2E2E2E2E2E2E2E2E2E2E2E2E2E2E2E2E2E2E2E2E2E2E2E2E2E2E2E2E2E2E2E2E2E2E2E2E2E2E2E2E2E2E2E2E2E2E2E2E2E2E2E2E2E2E2E2E2E2E2E2E2E2E2E2E2E2E2E2E2E2E2E2E2E2E2E2E2E2E2E2E2E2E2E2E2E2E2E2E2E2E2E2E2E2E2E2E2E2E2E2E2E2E2
310
E2E2E2E2E2E2E2E2E2E2E2E2E2E2E2E2E2E2E2E2E2E2E2E2E2E2E2E2E2E2E2E2E2E2E2E2E2E2E2E2E2E2E2E2E2E2E2E2E2E2E2E2E2E2E2E2E2E2E2E2E2E2E2E2E2E2E2E2E2E2E2E2E2E2E2E2E2E2E2E2E2E2E2E2E2E2E2E2E2E2E2E2E2E2E2E2E2E2E2E2E2E2E2E2E2E2E2E2E2E2E2E2E2E2E2E2E2E2E2E2E2E2E2E2E2E2E2
310
E2E2E2E2E2E2E2E2E2E2E2E2E2E2E2E2E2E2E2E2E2E2E2E2E2E2E2E2E2E2E2E2E2E2E2E2E2E2E2E2E2E2E2E2E2E2E2E2E2E2E2E2E2E2E2E2E2E2E2E2E2E2E2E2E2E2E2E2E2E2E2E2E2E2E2E2E2E2E2E2E2E2E2E2E2E2E2E2E2E2E2E2E2E2E2E2E2E2E2E2E2E2E2E2E2E2E2E2E2E2E2E2E2E2E2E2E2E2E2E2E2E2E2E2E2E2E2
310
E2E2E2E2E2E2E2E2E2E2E2E2E2E2E2E2E2E2E2E2E2E2E2E2E2E2E2E2E2E2E2E2E2E2E2E2E2E2E2E2E2E2E2E2E2E2E2E2E2E2E2E2E2E2E2E2E2E2E2E2E2E2E2E2E2E2E2E2E2E2E2E2E2E2E2E2E2E2E2E2E2E2E2E2E2E2E2E2E2E2E2E2E2E2E2E2E2E2E2E2E2E2E2E2E2E2E2E2E2E2E2E2E2E2E2E2E2E2E2E2E2E2E2E2E2E2E2
310
E2E2E2E2E2E2E2E2E2E2E2E2E2E2E2E2E2E2E2E2E2E2E2E2E2E2E2E2E2E2E2E2E2E2E2E2E2E2E2E2E2E2E2E2E2E2E2E2E2E2E2E2E2E2E2E2E2E2E2E2E2E2E2E2E2E2E2E2E2E2E2E2E2E2E2E2E2E2E2E2E2E2E2E2E2E2E2E2E2E2E2E2E2E2E2E2E2E2E2E2E2E2E2E2E2E2E2E2E2E2E2E2E2E2E2E2E2E2E2E2E2E2E2E2E2E2E2
310
E2E2E2E2E2E2E2E2E2E2E2E2E2E2E2E2E2E2E2E2E2E2E2E2E2E2E2E2E2E2E2E2E2E2E2E2E2E2E2E2E2E2E2E2E2E2E2E2E2E2E2E2E2E2E2E2E2E2E2E2E2E2E2E2E2E2E2E2E2E2E2E2E2E2E2E2E2E2E2E2E2E2E2E2E2E2E2E2E2E2E2E2E2E2E2E2E2E2E2E2E2E2E2E2E2E2E2E2E2E2E2E2E2E2E2E2E2E2E2E2E2E2E2E2E2E2E2
310
E2E2E2E2E2E2E2E2E2E2E2E2E2E2E2E2E2E2E2E2E2E2E2E2E2E2E2E2E2E2E2E2E2E2E2E2E2E2E2E2E2E2E2E2E2E2E2E2E2E2E2E2E2E2E2E2E2E2E2E2E2E2E2E2E2E2E2E2E2E2E2E2E2E2E2E2E2E2E2E2E2E2E2E2E2E2E2E2E2E2E2E2E2E2E2E2E2E2E2E2E2E2E2E2E2E2E2E2E2E2E2E2E2E2E2E2E2E2E2E2E2E2E2E2E2E2E2
310
E2E2E2E2E2E2E2E2E2E2E2E2E2E2E2E2E2E2E2E2E2E2E2E2E2E2E2E2E2E2E2E2E2E2E2E2E2E2E2E2E2E2E2E2E2E2E2E2E2E2E2E2E2E2E2E2E2E2E2E2E2E2E2E2E2E2E2E2E2E2E2E2E2E2E2E2E2E2E2E2E2E2E2E2E2E2E2E2E2E2E2E2E2E2E2E2E2E2E2E2E2E2E2E2E2E2E2E2E2E2E2E2E2E2E2E2E2E2E2E2E2E2E2E2E2E2E2
310
E2E2E2E2E2E2E2E2E2E2E2E2E2E2E2E2E2E2E2E2E2E2E2E2E2E2E2E2E2E2E2E2E2E2E2E2E2E2E2E2E2E2E2E2E2E2E2E2E2E2E2E2E2E2E2E2E2E2E2E2E2E2E2E2E2E2E2E2E2E2E2E2E2E2E2E2E2E2E2E2E2E2E2E2E2E2E2E2E2E2E2E2E2E2E2E2E2E2E2E2E2E2E2E2E2E2E2E2E2E2E2E2E2E2E2E2E2E2E2E2E2E2E2E2E2E2E2
310
E2E2E2E2E2E2E2E2E2E2E2E2E2E2E2E2E2E2E2E2E2E2E2E2E2E2E2E2E2E2E2E2E2E2E2E2E2E2E2E2E2E2E2E2E2E2E2E2E2E2E2E2E2E2E2E2E2E2E2E2E2E2E2E2E2E2E2E2E2E2E2E2E2E2E2E2E2E2E2E2E2E2E2E2E2E2E2E2E2E2E2E2E2E2E2E2E2E2E2E2E2E2E2E2E2E2E2E2E2E2E2E2E2E2E2E2E2E2E2E2E2E2E2E2E2E2E2
310
E2E2E2E2E2E2E2E2E2E2E2E2E2E2E2E2E2E2E2E2E2E2E2E2E2E2E2E2E2E2E2E2E2E2E2E2E2E2E2E2E2E2E2E2E2E2E2E2E2E2E2E2E2E2E2E2E2E2E2E2E2E2E2E2E2E2E2E2E2E2E2E2E2E2E2E2E2E2E2E2E2E2E2E2E2E2E2E2E2E2E2E2E2E2E2E2E2E2E2E2E2E2E2E2E2E2E2E2E2E2E2E2E2E2E2E2E2E2E2E2E2E2E2E2E2E2E2
310
E2E2E2E2E2E2E2E2E2E2E2E2E2E2E2E2E2E2E2E2E2E2E2E2E2E2E2E2E2E2E2E2E2E2E2E2E2E2E2E2E2E2E2E2E2E2E2E2E2E2E2E2E2E2E2E2E2E2E2E2E2E2E2E2E2E2E2E2E2E2E2E2E2E2E2E2E2E2E2E2E2E2E2E2E2E2E2E2E2E2E2E2E2E2E2E2E2E2E2E2E2E2E2E2E2E2E2E2E2E2E2E2E2E2E2E2E2E2E2E2E2E2E2E2E2E2E2
310
E2E2E2E2E2E2E2E2E2E2E2E2E2E2E2E2E2E2E2E2E2E2E2E2E2E2E2E2E2E2E2E2E2E2E2E2E2E2E2E2E2E2E2E2E2E2E2E2E2E2E2E2E2E2E2E2E2E2E2E2E2E2E2E2E2E2E2E2E2E2E2E2E2E2E2E2E2E2E2E2E2E2E2E2E2E2E2E2E2E2E2E2E2E2E2E2E2E2E2E2E2E2E2E2E2E2E2E2E2E2E2E2E2E2E2E2E2E2E2E2E2E2E2E2E2E2E2
310
E2E2E2E2E2E2E2E2E2E2E2E2E2E2E2E2E2E2E2E2E2E2E2E2E2E2E2E2E2E2E2E2E2E2E2E2E2E2E2E2E2E2E2E2E2E2E2E2E2E2E2E2E2E2E2E2E2E2E2E2E2E2E2E2E2E2E2E2E2E2E2E2E2E2E2E2E2E2E2E2E2E2E2E2E2E2E2E2E2E2E2E2E2E2E2E2E2E2E2E2E2E2E2E2E2E2E2E2E2E2E2E2E2E2E2E2E2E2E2E2E2E2E2E2E2E2E2
310
E2E2E2E2E2E2E2E2E2E2E2E2E2E2E2E2E2E2E2E2E2E2E2E2E2E2E2E2E2E2E2E2E2E2E2E2E2E2E2E2E2E2E2E2E2E2E2E2E2E2E2E2E2E2E2E2E2E2E2E2E2E2E2E2E2E2E2E2E2E2E2E2E2E2E2E2E2E2E2E2E2E2E2E2E2E2E2E2E2E2E2E2E2E2E2E2E2E2E2E2E2E2E2E2E2E2E2E2E2E2E2E2E2E2E2E2E2E2E2E2E2E2E2E2E2E2E2
310
E2E2E2E2E2E2E2E2E2E2E2E2E2E2E2E2E2E2E2E2E2E2E2E2E2E2E2E2E2E2E2E2E2E2E2E2E2E2E2E2E2E2E2E2E2E2E2E2E2E2E2E2E2E2E2E2E2E2E2E2E2E2E2E2E2E2E2E2E2E2E2E2E2E2E2E2E2E2E2E2E2E2E2E2E2E2E2E2E2E2E2E2E2E2E2E2E2E2E2E2E2E2E2E2E2E2E2E2E2E2E2E2E2E2E2E2E2E2E2E2E2E2E2E2E2E2E2
310
E2E2E2E2E2E2E2E2E2E2E2E2E2E2E2E2E2E2E2E2E2E2E2E2E2E2E2E2E2E2E2E2E2E2E2E2E2E2E2E2E2E2E2E2E2E2E2E2E2E2E2E2E2E2E2E2E2E2E2E2E2E2E2E2E2E2E2E2E2E2E2E2E2E2E2E2E2E2E2E2E2E2E2E2E2E2E2E2E2E2E2E2E2E2E2E2E2E2E2E2E2E2E2E2E2E2E2E2E2E2E2E2E2E2E2E2E2E2E2E2E2E2E2E2E2E2E2
310
E2E2E2E2E2E2E2E2E2E2E2E2E2E2E2E2E2E2E2E2E2E2E2E2E2E2E2E2E2E2E2E2E2E2E2E2E2E2E2E2E2E2E2E2E2E2E2E2E2E2E2E2E2E2E2E2E2E2E2E2E2E2E2E2E2E2E2E2E2E2E2E2E2E2E2E2E2E2E2E2E2E2E2E2E2E2E2E2E2E2E2E2E2E2E2E2E2E2E2E2E2E2E2E2E2E2E2E2E2E2E2E2E2E2E2E2E2E2E2E2E2E2E2E2E2E2E2
310
E2E2E2E2E2E2E2E2E2E2E2E2E2E2E2E2E2E2E2E2E2E2E2E2E2E2E2E2E2E2E2E2E2E2E2E2E2E2E2E2E2E2E2E2E2E2E2E2E2E2E2E2E2E2E2E2E2E2E2E2E2E2E2E2E2E2E2E2E2E2E2E2E2E2E2E2E2E2E2E2E2E2E2E2E2E2E2E2E2E2E2E2E2E2E2E2E2E2E2E2E2E2E2E2E2E2E2E2E2E2E2E2E2E2E2E2E2E2E2E2E2E2E2E2E2E2E2
310
E2E2E2E2E2E2E2E2E2E2E2E2E2E2E2E2E2E2E2E2E2E2E2E2E2E2E2E2E2E2E2E2E2E2E2E2E2E2E2E2E2E2E2E2E2E2E2E2E2E2E2E2E2E2E2E2E2E2E2E2E2E2E2E2E2E2E2E2E2E2E2E2E2E2E2E2E2E2E2E2E2E2E2E2E2E2E2E2E2E2E2E2E2E2E2E2E2E2E2E2E2E2E2E2E2E2E2E2E2E2E2E2E2E2E2E2E2E2E2E2E2E2E2E2E2E2E2
310
E2E2E2E2E2E2E2E2E2E2E2E2E2E2E2E2E2E2E2E2E2E2E2E2E2E2E2E2E2E2E2E2E2E2E2E2E2E2E2E2E2E2E2E2E2E2E2E2E2E2E2E2E2E2E2E2E2E2E2E2E2E2E2E2E2E2E2E2E2E2E2E2E2E2E2E2E2E2E2E2E2E2E2E2E2E2E2E2E2E2E2E2E2E2E2E2E2E2E2E2E2E2E2E2E2E2E2E2E2E2E2E2E2E2E2E2E2E2E2E2E2E2E2E2E2E2E2
310
E2E2E2E2E2E2E2E2E2E2E2E2E2E2E2E2E2E2E2E2E2E2E2E2E2E2E2E2E2E2E2E2E2E2E2E2E2E2E2E2E2E2E2E2E2E2E2E2E2E2E2E2E2E2E2E2E2E2E2E2E2E2E2E2E2E2E2E2E2E2E2E2E2E2E2E2E2E2E2E2E2E2E2E2E2E2E2E2E2E2E2E2E2E2E2E2E2E2E2E2E2E2E2E2E2E2E2E2E2E2E2E2E2E2E2E2E2E2E2E2E2E2E2E2E2E2E2
310
E2E2E2E2E2E2E2E2E2E2E2E2E2E2E2E2E2E2E2E2E2E2E2E2E2E2E2E2E2E2E2E2E2E2E2E2E2E2E2E2E2E2E2E2E2E2E2E2E2E2E2E2E2E2E2E2E2E2E2E2E2E2E2E2E2E2E2E2E2E2E2E2E2E2E2E2E2E2E2E2E2E2E2E2E2E2E2E2E2E2E2E2E2E2E2E2E2E2E2E2E2E2E2E2E2E2E2E2E2E2E2E2E2E2E2E2E2E2E2E2E2E2E2E2E2E2E2
310
E2E2E2E2E2E2E2E2E2E2E2E2E2E2E2E2E2E2E2E2E2E2E2E2E2E2E2E2E2E2E2E2E2E2E2E2E2E2E2E2E2E2E2E2E2E2E2E2E2E2E2E2E2E2E2E2E2E2E2E2E2E2E2E2E2E2E2E2E2E2E2E2E2E2E2E2E2E2E2E2E2E2E2E2E2E2E2E2E2E2E2E2E2E2E2E2E2E2E2E2E2E2E2E2E2E2E2E2E2E2E2E2E2E2E2E2E2E2E2E2E2E2E2E2E2E2E2
310
E2E2E2E2E2E2E2E2E2E2E2E2E2E2E2E2E2E2E2E2E2E2E2E2E2E2E2E2E2E2E2E2E2E2E2E2E2E2E2E2E2E2E2E2E2E2E2E2E2E2E2E2E2E2E2E2E2E2E2E2E2E2E2E2E2E2E2E2E2E2E2E2E2E2E2E2E2E2E2E2E2E2E2E2E2E2E2E2E2E2E2E2E2E2E2E2E2E2E2E2E2E2E2E2E2E2E2E2E2E2E2E2E2E2E2E2E2E2E2E2E2E2E2E2E2E2E2
310
E2E2E2E2E2E2E2E2E2E2E2E2E2E2E2E2E2E2E2E2E2E2E2E2E2E2E2E2E2E2E2E2E2E2E2E2E2E2E2E2E2E2E2E2E2E2E2E2E2E2E2E2E2E2E2E2E2E2E2E2E2E2E2E2E2E2E2E2E2E2E2E2E2E2E2E2E2E2E2E2E2E2E2E2E2E2E2E2E2E2E2E2E2E2E2E2E2E2E2E2E2E2E2E2E2E2E2E2E2E2E2E2E2E2E2E2E2E2E2E2E2E2E2E2E2E2E2
310
E2E2E2E2E2E2E2E2E2E2E2E2E2E2E2E2E2E2E2E2E2E2E2E2E2E2E2E2E2E2E2E2E2E2E2E2E2E2E2E2E2E2E2E2E2E2E2E2E2E2E2E2E2E2E2E2E2E2E2E2E2E2E2E2E2E2E2E2E2E2E2E2E2E2E2E2E2E2E2E2E2E2E2E2E2E2E2E2E2E2E2E2E2E2E2E2E2E2E2E2E2E2E2E2E2E2E2E2E2E2E2E2E2E2E2E2E2E2E2E2E2E2E2E2E2E2E2
310
E2E2E2E2E2E2E2E2E2E2E2E2E2E2E2E2E2E2E2E2E2E2E2E2E2E2E2E2E2E2E2E2E2E2E2E2E2E2E2E2E2E2E2E2E2E2E2E2E2E2E2E2E2E2E2E2E2E2E2E2E2E2E2E2E2E2E2E2E2E2E2E2E2E2E2E2E2E2E2E2E2E2E2E2E2E2E2E2E2E2E2E2E2E2E2E2E2E2E2E2E2E2E2E2E2E2E2E2E2E2E2E2E2E2E2E2E2E2E2E2E2E2E2E2E2E2E2
310
E2E2E2E2E2E2E2E2E2E2E2E2E2E2E2E2E2E2E2E2E2E2E2E2E2E2E2E2E2E2E2E2E2E2E2E2E2E2E2E2E2E2E2E2E2E2E2E2E2E2E2E2E2E2E2E2E2E2E2E2E2E2E2E2E2E2E2E2E2E2E2E2E2E2E2E2E2E2E2E2E2E2E2E2E2E2E2E2E2E2E2E2E2E2E2E2E2E2E2E2E2E2E2E2E2E2E2E2E2E2E2E2E2E2E2E2E2E2E2E2E2E2E2E2E2E2E2
310
E2E2E2E2E2E2E2E2E2E2E2E2E2E2E2E2E2E2E2E2E2E2E2E2E2E2E2E2E2E2E2E2E2E2E2E2E2E2E2E2E2E2E2E2E2E2E2E2E2E2E2E2E2E2E2E2E2E2E2E2E2E2E2E2E2E2E2E2E2E2E2E2E2E2E2E2E2E2E2E2E2E2E2E2E2E2E2E2E2E2E2E2E2E2E2E2E2E2E2E2E2E2E2E2E2E2E2E2E2E2E2E2E2E2E2E2E2E2E2E2E2E2E2E2E2E2E2
310
E2E2E2E2E2E2E2E2E2E2E2E2E2E2E2E2E2E2E2E2E2E2E2E2E2E2E2E2E2E2E2E2E2E2E2E2E2E2E2E2E2E2E2E2E2E2E2E2E2E2E2E2E2E2E2E2E2E2E2E2E2E2E2E2E2E2E2E2E2E2E2E2E2E2E2E2E2E2E2E2E2E2E2E2E2E2E2E2E2E2E2E2E2E2E2E2E2E2E2E2E2E2E2E2E2E2E2E2E2E2E2E2E2E2E2E2E2E2E2E2E2E2E2E2E2E2E2
310
E2E2E2E2E2E2E2E2E2E2E2E2E2E2E2E2E2E2E2E2E2E2E2E2E2E2E2E2E2E2E2E2E2E2E2E2E2E2E2E2E2E2E2E2E2E2E2E2E2E2E2E2E2E2E2E2E2E2E2E2E2E2E2E2E2E2E2E2E2E2E2E2E2E2E2E2E2E2E2E2E2E2E2E2E2E2E2E2E2E2E2E2E2E2E2E2E2E2E2E2E2E2E2E2E2E2E2E2E2E2E2E2E2E2E2E2E2E2E2E2E2E2E2E2E2E2E2
310
E2E2E2E2E2E2E2E2E2E2E2E2E2E2E2E2E2E2E2E2E2E2E2E2E2E2E2E2E2E2E2E2E2E2E2E2E2E2E2E2E2E2E2E2E2E2E2E2E2E2E2E2E2E2E2E2E2E2E2E2E2E2E2E2E2E2E2E2E2E2E2E2E2E2E2E2E2E2E2E2E2E2E2E2E2E2E2E2E2E2E2E2E2E2E2E2E2E2E2E2E2E2E2E2E2E2E2E2E2E2E2E2E2E2E2E2E2E2E2E2E2E2E2E2E2E2E2
310
E2E2E2E2E2E2E2E2E2E2E2E2E2E2E2E2E2E2E2E2E2E2E2E2E2E2E2E2E2E2E2E2E2E2E2E2E2E2E2E2E2E2E2E2E2E2E2E2E2E2E2E2E2E2E2E2E2E2E2E2E2E2E2E2E2E2E2E2E2E2E2E2E2E2E2E2E2E2E2E2E2E2E2E2E2E2E2E2E2E2E2E2E2E2E2E2E2E2E2E2E2E2E2E2E2E2E2E2E2E2E2E2E2E2E2E2E2E2E2E2E2E2E2E2E2E2E2
310
E2E2E2E2E2E2E2E2E2E2E2E2E2E2E2E2E2E2E2E2E2E2E2E2E2E2E2E2E2E2E2E2E2E2E2E2E2E2E2E2E2E2E2E2E2E2E2E2E2E2E2E2E2E2E2E2E2E2E2E2E2E2E2E2E2E2E2E2E2E2E2E2E2E2E2E2E2E2E2E2E2E2E2E2E2E2E2E2E2E2E2E2E2E2E2E2E2E2E2E2E2E2E2E2E2E2E2E2E2E2E2E2E2E2E2E2E2E2E2E2E2E2E2E2E2E2E2
310
E2E2E2E2E2E2E2E2E2E2E2E2E2E2E2E2E2E2E2E2E2E2E2E2E2E2E2E2E2E2E2E2E2E2E2E2E2E2E2E2E2E2E2E2E2E2E2E2E2E2E2E2E2E2E2E2E2E2E2E2E2E2E2E2E2E2E2E2E2E2E2E2E2E2E2E2E2E2E2E2E2E2E2E2E2E2E2E2E2E2E2E2E2E2E2E2E2E2E2E2E2E2E2E2E2E2E2E2E2E2E2E2E2E2E2E2E2E2E2E2E2E2E2E2E2E2E2
310
E2E2E2E2E2E2E2E2E2E2E2E2E2E2E2E2E2E2E2E2E2E2E2E2E2E2E2E2E2E2E2E2E2E2E2E2E2E2E2E2E2E2E2E2E2E2E2E2E2E2E2E2E2E2E2E2E2E2E2E2E2E2E2E2E2E2E2E2E2E2E2E2E2E2E2E2E2E2E2E2E2E2E2E2E2E2E2E2E2E2E2E2E2E2E2E2E2E2E2E2E2E2E2E2E2E2E2E2E2E2E2E2E2E2E2E2E2E2E2E2E2E2E2E2E2E2E2
310
E2E2E2E2E2E2E2E2E2E2E2E2E2E2E2E2E2E2E2E2E2E2E2E2E2E2E2E2E2E2E2E2E2E2E2E2E2E2E2E2E2E2E2E2E2E2E2E2E2E2E2E2E2E2E2E2E2E2E2E2E2E2E2E2E2E2E2E2E2E2E2E2E2E2E2E2E2E2E2E2E2E2E2E2E2E2E2E2E2E2E2E2E2E2E2E2E2E2E2E2E2E2E2E2E2E2E2E2E2E2E2E2E2E2E2E2E2E2E2E2E2E2E2E2E2E2E2
310
E2E2E2E2E2E2E2E2E2E2E2E2E2E2E2E2E2E2E2E2E2E2E2E2E2E2E2E2E2E2E2E2E2E2E2E2E2E2E2E2E2E2E2E2E2E2E2E2E2E2E2E2E2E2E2E2E2E2E2E2E2E2E2E2E2E2E2E2E2E2E2E2E2E2E2E2E2E2E2E2E2E2E2E2E2E2E2E2E2E2E2E2E2E2E2E2E2E2E2E2E2E2E2E2E2E2E2E2E2E2E2E2E2E2E2E2E2E2E2E2E2E2E2E2E2E2E2
310
E2E2E2E2E2E2E2E2E2E2E2E2E2E2E2E2E2E2E2E2E2E2E2E2E2E2E2E2E2E2E2E2E2E2E2E2E2E2E2E2E2E2E2E2E2E2E2E2E2E2E2E2E2E2E2E2E2E2E2E2E2E2E2E2E2E2E2E2E2E2E2E2E2E2E2E2E2E2E2E2E2E2E2E2E2E2E2E2E2E2E2E2E2E2E2E2E2E2E2E2E2E2E2E2E2E2E2E2E2E2E2E2E2E2E2E2E2E2E2E2E2E2E2E2E2E2E2
310
E2E2E2E2E2E2E2E2E2E2E2E2E2E2E2E2E2E2E2E2E2E2E2E2E2E2E2E2E2E2E2E2E2E2E2E2E2E2E2E2E2E2E2E2E2E2E2E2E2E2E2E2E2E2E2E2E2E2E2E2E2E2E2E2E2E2E2E2E2E2E2E2E2E2E2E2E2E2E2E2E2E2E2E2E2E2E2E2E2E2E2E2E2E2E2E2E2E2E2E2E2E2E2E2E2E2E2E2E2E2E2E2E2E2E2E2E2E2E2E2E2E2E2E2E2E2E2
310
E2E2E2E2E2E2E2E2E2E2E2E2E2E2E2E2E2E2E2E2E2E2E2E2E2E2E2E2E2E2E2E2E2E2E2E2E2E2E2E2E2E2E2E2E2E2E2E2E2E2E2E2E2E2E2E2E2E2E2E2E2E2E2E2E2E2E2E2E2E2E2E2E2E2E2E2E2E2E2E2E2E2E2E2E2E2E2E2E2E2E2E2E2E2E2E2E2E2E2E2E2E2E2E2E2E2E2E2E2E2E2E2E2E2E2E2E2E2E2E2E2E2E2E2E2E2E2
310
E2E2E2E2E2E2E2E2E2E2E2E2E2E2E2E2E2E2E2E2E2E2E2E2E2E2E2E2E2E2E2E2E2E2E2E2E2E2E2E2E2E2E2E2E2E2E2E2E2E2E2E2E2E2E2E2E2E2E2E2E2E2E2E2E2E2E2E2E2E2E2E2E2E2E2E2E2E2E2E2E2E2E2E2E2E2E2E2E2E2E2E2E2E2E2E2E2E2E2E2E2E2E2E2E2E2E2E2E2E2E2E2E2E2E2E2E2E2E2E2E2E2E2E2E2E2E2
310
E2E2E2E2E2E2E2E2E2E2E2E2E2E2E2E2E2E2E2E2E2E2E2E2E2E2E2E2E2E2E2E2E2E2E2E2E2E2E2E2E2E2E2E2E2E2E2E2E2E2E2E2E2E2E2E2E2E2E2E2E2E2E2E2E2E2E2E2E2E2E2E2E2E2E2E2E2E2E2E2E2E2E2E2E2E2E2E2E2E2E2E2E2E2E2E2E2E2E2E2E2E2E2E2E2E2E2E2E2E2E2E2E2E2E2E2E2E2E2E2E2E2E2E2E2E2E2
310
E2E2E2E2E2E2E2E2E2E2E2E2E2E2E2E2E2E2E2E2E2E2E2E2E2E2E2E2E2E2E2E2E2E2E2E2E2E2E2E2E2E2E2E2E2E2E2E2E2E2E2E2E22828F5F5F5F5F5F5F5DCDC28282828E2E2E2E2E2E2E2E228F5F5F5F5F5F5F5F5282828282828E2E2E2E2E2E2E22828F5F5F5F5F5F5F528282828282828E2E2E2E2E2E2E22828F5F5F5F5
310
F5F5F528282828282828E2E2E2E2E2E2E22828F5F5F5F5F5F528282828282828E2E2E2E2E2E2E2E2E2E2E2E2E2E2E2E2E2E2E2E2E2E2E2E2E2E2E2E2E2E2E2E2E2E2E2E2E2E2E2E2E2E2E2E2E2E2E2E2E2E2E2E2E2E2E2E2E2E2E2E2E2E2E2E2E2E2E2E2E2E2E2E2E2E2E2E2E2E2E2E2E2E2E2E2E2E2E2E2E2E2E2E2E2E2E2
310
E2E2E2E2E2E2E2E2E2E2E2E2E2E2E2E2E2E2E2E2E2E2E2E2E2E2E2E2E2E2E2E2E2E2E2E2E2E2E2E2E2E2E2E2E2E2E2E2E2E2E2E2E2E2DC28DCDCDCDCDCE2E2F5DCDC28E22828E2E2E2E2E2E2E2DC28F5F5DCDCDCE2F5F5DC2828E22828E2E2E2E2E2E2E2E2DCDCF5DCDCDCE2F5F5DC28E2E228E2E2E2E2E2E2E2DCDCDCDCF5
310
DCDCDCE2F5F5DC28E2E228E2E2E2E2E2E2E2E228DCDCDCDCDCDCE2F5E2E228E2E228E2E2E2E2E2E2E2E2E2E2E2E2E2E2E2E2E2E2E2E2E2E2E2E2E2E2E2E2E2E2E2E2E2E2E2E2E2E2E2E2E2E2E2E2E2E2E2E2E2E2E2E2E2E2E2E2E2E2E2E2E2E2E2E2E2E2E2E2E2E2E2E2E2E2E2E2E2E2E2E2E2E2E2E2E2E2E2E2E2E2E2E2E2
310
E2E2E2E2E2E2E2E2E2E2E2E2E2E2E2E2E2E2E2E2E2E2E2E2E2E2E2E2E2E2E2E2E2E2E2E2E2E2E2E2E2E2E2E2E2E2E2E2E2E2E2E2E2E2E2E2DC28E2E2E2E2E2E2F5F5DCDC28E2E228E2E2E2E2E2E2E2DC28E2E2E2E2E2E2F5F5DC28E2E228E2E2E2E2E2E2E2E2DC28E2E2E2E2E2E2F5F5DC28E2E228E2E2E2E2E2E2E2DCDC28
310
E2E2E2E2E2E2F5F5DC28E2E228E2E2E2E2E2E2E2DCDC28E2E2E2E2E2E2F5E2E228E2E228E2E2E2E2E2E2E2E2E2E2E2E2E2E2E2E2E2E2E2E2E2E2E2E2E2E2E2E2E2E2E2E2E2E2E2E2E2E2E2E2E2E2E2E2E2E2E2E2E2E2E2E2E2E2E2E2E2E2E2E2E2E2E2E2E2E2E2E2E2E2E2E2E2E2E2E2E2E2E2E2E2E2E2E2E2E2E2E2E2E2E2
310
E2E2E2E2E2E2E2E2E2E2E2E2E2E2E2E2E2E2E2E2E2E2E2E2E2E2E2E2E2E2E2E2E2E2E2E2E2E2E2E2E2E2E2E2E2E2E2E2E2E2E2E2E2E2E2E2E2E2E22828F5F5F5F5F5F528282828E2E228E2E2E2E2E2E2E2E228E2E2E2E2E2E2F5F5E22828E228E2E2E2E2E2E2E2E2DC28E2E2E2E2E2E2F5F5E228E2E228E2E2E2E2E2E2E2E2
310
E228E2E2E2E2E2E2F5F5E228E2E228E2E2E2E2E2E2E2DCDC28E2E2E2E2E2E2F5E2DC28E2E228E2E2E2E2E2E2E2E2E2E2E2E2E2E2E2E2E2E2E2E2E2E2E2E2E2E2E2E2E2E2E2E2E2E2E2E2E2E2E2E2E2E2E2E2E2E2E2E2E2E2E2E2E2E2E2E2E2E2E2E2E2E2E2E2E2E2E2E2E2E2E2E2E2E2E2E2E2E2E2E2E2E2E2E2E2E2E2E2E2
310
E2E2E2E2E2E2E2E2E2E2E2E2E2E2E2E2E2E2E2E2E2E2E2E2E2E2E2E2E2E2E2E2E2E2E2E2E2E2E2E2E2E2E2E2E2E2E2E2E2E2E2E2E2E2E2E2E2E2E2E2E228E2DCF5F5E2E2F528282828E2E228E2E2E2E2E2E2E2E22828F5F5F5F5F5F528282828E228E2E2E2E2E2E2E2E2282828F5F5F5F5F5F528282828E228E2E2E2E2E2E2
310
E2E2282828F5F5F5F5F5F528282828E228E2E2E2E2E2E2E2E2E228E2E2E2E2E2E2F5E2DC28E2E228E2E2E2E2E2E2E2E2E2E2E2E2E2E2E2E2E2E2E2E2E2E2E2E2E2E2E2E2E2E2E2E2E2E2E2E2E2E2E2E2E2E2E2E2E2E2E2E2E2E2E2E2E2E2E2E2E2E2E2E2E2E2E2E2E2E2E2E2E2E2E2E2E2E2E2E2E2E2E2E2E2E2E2E2E2E2E2
310
E2E2E2E2E2E2E2E2E2E2E2E2E2E2E2E2E2E2E2E2E2E2E2E2E2E2E2E2E2E2E2E2E2E2E2E2E2E2E2E2E2E2E2E2E2E2E2E2E2E2E2E2E2E2E2E2E2E2E2E2E2E2E228E2DCDCDCDCE2F5F5E2E2E2E2E228E2E2E2E2E2E2E2E228E2DCF5F5E2E2F528282828E228E2E2E2E2E2E2E2E2E228E2DCDCF5E2E2F5282828E2E228E2E2E2E2
310
E2E2E2E2E228E2DCDCF5E2E2F5282828E2E228E2E2E2E2E2E2E2E22828E2E2E2E2E2E2F5E2E228E2E228E2E2E2E2E2E2E2E2E2E2E2E2E2E2E2E2E2E2E2E2E2E2E2E2E2E2E2E2E2E2E2E2E2E2E2E2E2E2E2E2E2E2E2E2E2E2E2E2E2E2E2E2E2E2E2E2E2E2E2E2E2E2E2E2E2E2E2E2E2E2E2E2E2E2E2E2E2E2E2E2E2E2E2E2E2
310
E2E2E2E2E2E2E2E2E2E2E2E2E2E2E2E2E2E2E2E2E2E2E2E2E2E2E2E2E2E2E2E2E2E2E2E2E2E2E2E2E2E2E2E2E2E2E2E2E2E2E2E2E2E2E2E2E2E2E2E2E2E2E2E2DC28E2E2E2E2E2E2F5F5E2E2E2E2E228E2E2E2E2E2E2E2DC28E2DCDCDCDCE2F5F5E2E2E2E228E2E2E2E2E2E2E2E2DC28E2DCDCDCDCE2F5F5E2E2E2E228E2E2
310
E2E2E2E2E2E2E228E2DCDCDCE2E2F5F5E2E2E2E228E2E2E2E2E2E2E2E2282828F5F5F5F5F528282828E2E228E2E2E2E2E2E2E2E2E2E2E2E2E2E2E2E2E2E2E2E2E2E2E2E2E2E2E2E2E2E2E2E2E2E2E2E2E2E2E2E2E2E2E2E2E2E2E2E2E2E2E2E2E2E2E2E2E2E2E2E2E2E2E2E2E2E2E2E2E2E2E2E2E2E2E2E2E2E2E2E2E2E2E2
310
E2E2E2E2E2E2E2E2E2E2E2E2E2E2E2E2E2E2E2E2E2E2E2E2E2E2E2E2E2E2E2E2E2E2E2E2E2E2E2E2E2E2E2E2E2E2E2E2E2E2E2E2E2E2E2E2E2E2E2E2E2E2E2E2E2E2DC28E2E2E2E2E2E2F5F5E2E2E2DCDC28E2E2E2E2E2E2E2DC28E2E2E2E2E2E2F5F5E2E2E2DC28E2E2E2E2E2E2E2E2DC28E2E2E2E2E2E2F5F5E2E2E2DC28
310
E2E2E2E2E2E2E2DCDC28E2E2E2E2E2E2F5F5E2E2E2DC28E2E2E2E2E2E2E2E22828E2DCDCF5E2E2F5282828E2DC28E2E2E2E2E2E2E2E2E2E2E2E2E2E2E2E2E2E2E2E2E2E2E2E2E2E2E2E2E2E2E2E2E2E2E2E2E2E2E2E2E2E2E2E2E2E2E2E2E2E2E2E2E2E2E2E2E2E2E2E2E2E2E2E2E2E2E2E2E2E2E2E2E2E2E2E2E2E2E2E2E2
310
E2E2E2E2E2E2E2E2E2E2E2E2E2E2E2E2E2E2E2E2E2E2E2E2E2E2E2E2E2E2E2E2E2E2E2E2E2E2E2E2E2E2E2E2E2E2E2E2E2E2E2E2E2E2E2E2E2E2E2E2E2E2E2E2E2E2E2E2E228E2E2E2E2E2E2F5F5E2E2E2DCDC28E2E2E2E2E2E2E2E228E2E2E2E2E2E2F5F5E2E2E2DC28E2E2E2E2E2E2E2E2E228E2E2E2E2E2E2F5F5E2E2E2
310
DC28E2E2E2E2E2E2E2DCDC28E2E2E2E2E2E2F5F5E2E2E2DC28E2E2E2E2E2E2E2E2E228E2DCDCDCE2E2F5E2E2E2E2DC28E2E2E2E2E2E2E2E2E2E2E2E2E2E2E2E2E2E2E2E2E2E2E2E2E2E2E2E2E2E2E2E2E2E2E2E2E2E2E2E2E2E2E2E2E2E2E2E2E2E2E2E2E2E2E2E2E2E2E2E2E2E2E2E2E2E2E2E2E2E2E2E2E2E2E2E2E2E2E2
310
E2E2E2E2E2E2E2E2E2E2E2E2E2E2E2E2E2E2E2E2E2E2E2E2E2E2E2E2E2E2E2E2E2E2E2E2E2E2E2E2E2E2E2E2E2E2E2E2E2E2E2E2E2E2E2E2E2E2E2E2E2E2E2E2E2E2E2E2E2E2E228E2E2E2E2E2E22828E2E2E2E2E228E2E2E2E2E2E2E2E228E2E2E2E2E2E2F5F5E2E2E2E228E2E2E2E2E2E2E2F52828282828F5F5F5F5F5F5
310
F5E2E228E2E2E2E2E2E2E2E2E228E2E2E2E2E2E2F5F5E2E2E2E228E2E2E2E2E2E2E2DCDC28E2E2E2E2E2E2F5E2E2E2E2E228E2E2E2E2E2E2E2E2E2E2E2E2E2E2E2E2E2E2E2E2E2E2E2E2E2E2E2E2E2E2E2E2E2E2E2E2E2E2E2E2E2E2E2E2E2E2E2E2E2E2E2E2E2E2E2E2E2E2E2E2E2E2E2E2E2E2E2E2E2E2E2E2E2E2E2E2E2
310
E2E2E2E2E2E2E2E2E2E2E2E2E2E2E2E2E2E2E2E2E2E2E2E2E2E2E2E2E2E2E2E2E2E2E2E2E2E2E2E2E2E2E2E2E2E2E2E2E2E2E2E2E2E2E2E2E2E2E2E2E2E2E2E2E2E2E2E2E2E2E2E2F5F5F5F5F5F5F5F52828F5F5F5E2E228E2E2E2E2E2E2E2E228E2E2E2E2E2E2F5F5E2E2E2E228E2E2E2E2E2E2E2E2E2E22828E2E2E2E228
310
28E2E2E2E228E2E2E2E2E2E2E2E2E228E2E2E2E2E2E22828E2E2E2E228E2E2E2E2E2E2E2DCDC28E2E2E2E2E2E2F5E2E2E228E228E2E2E2E2E2E2E2E2E2E2E2E2E2E2E2E2E2E2E2E2E2E2E2E2E2E2E2E2E2E2E2E2E2E2E2E2E2E2E2E2E2E2E2E2E2E2E2E2E2E2E2E2E2E2E2E2E2E2E2E2E2E2E2E2E2E2E2E2E2E2E2E2E2E2E2
310
E2E2E2E2E2E2E2E2E2E2E2E2E2E2E2E2E2E2E2E2E2E2E2E2E2E2E2E2E2E2E2E2E2E2E2E2E2E2E2E2E2E2E2E2E2E2E2E2E2E2E2E2E2E2E2E2E2E2E2E2E2E2E2E2E2E2E2E2E2E2E2E2E2E2E2E2E228E2E2E2E2F5F5E2E2E2E2E228E2E2E2E2E2E2E2F5F5F5F5F5F5F5F52828F5F5E2E228E2E2E2E2E2E2E2E2E2DCDC28E2E2E2
310
E2F5F5E2E2E2E228E2E2E2E2E2E2E2F52828282828F5F5F5F5F5F5F5E2E228E2E2E2E2E2E2E2E2E228E2E2E2E2E2E2F5E2DCDC28E228E2E2E2E2E2E2E2E2E2E2E2E2E2E2E2E2E2E2E2E2E2E2E2E2E2E2E2E2E2E2E2E2E2E2E2E2E2E2E2E2E2E2E2E2E2E2E2E2E2E2E2E2E2E2E2E2E2E2E2E2E2E2E2E2E2E2E2E2E2E2E2E2E2
310
E2E2E2E2E2E2E2E2E2E2E2E2E2E2E2E2E2E2E2E2E2E2E2E2E2E2E2E2E2E2E2E2E2E2E2E2E2E2E2E2E2E2E2E2E2E2E2E2E2E2E2E2E2E2E2E2E2E2E2E2E2E2E2E2E2E2E2E2E2E2E2E2E2E2E2E2E2E2E228F5F5E2E2F5F5E2E2E2E2E228E2E2E2E2E2E2E2E2E2E228F5F5E2E22828E2E2E2E228E2E2E2E2E2E2E2E2E2DCDC28F5
310
E2E2E2F5F5E2E2E2E228E2E2E2E2E2E2E2E2E2E22828F5E2E2E22828E2E2E2E228E2E2E2E2E2E2E2E22828E2F5F5E2E2E22828E2E228E228E2E2E2E2E2E2E2E2E2E2E2E2E2E2E2E2E2E2E2E2E2E2E2E2E2E2E2E2E2E2E2E2E2E2E2E2E2E2E2E2E2E2E2E2E2E2E2E2E2E2E2E2E2E2E2E2E2E2E2E2E2E2E2E2E2E2E2E2E2E2E2
310
E2E2E2E2E2E2E2E2E2E2E2E2E2E2E2E2E2E2E2E2E2E2E2E2E2E2E2E2E2E2E2E2E2E2E2E2E2E2E2E2E2E2E2E2E2E2E2E2E2E2E2E2E2E2E2E2E2E2E2E2E2E2E2E2E2E2E2E2E2E2E2E2E2E2E2E2E2E2E2E2E228F5F5E2E2F5F5E2E2E2E2E228E2E2E2E2E2E2E2E2DCDC28F5E2E2E2F5F5E2E2E2E228E2E2E2E2E2E2E2E2E2E2E2
310
28F5E2E2E2F5F5E2E2E2E228E2E2E2E2E2E2E2E2E2DC28F5F5E2E2E2F5F5E2E2E2E228E2E2E2E2E2E2E2F528282828F5F5F5F5F5F5F5F528E228E2E2E2E2E2E2E2E2E2E2E2E2E2E2E2E2E2E2E2E2E2E2E2E2E2E2E2E2E2E2E2E2E2E2E2E2E2E2E2E2E2E2E2E2E2E2E2E2E2E2E2E2E2E2E2E2E2E2E2E2E2E2E2E2E2E2E2E2E2
310
E2E2E2E2E2E2E2E2E2E2E2E2E2E2E2E2E2E2E2E2E2E2E2E2E2E2E2E2E2E2E2E2E2E2E2E2E2E2E2E2E2E2E2E2E2E2E2E2E2E2E2E2E2E2E2E2E2E2E2E2E2E2E2E2E2E2E2E2E2E2E2E2E2E2E2E2E2E2E2E2E2E2DC28E2F5F5E2F5F5E2E2E2E2E228E2E2E2E2E2E2E2E2DCDC28F5F5F5E2F5F5E2E2E2E228E2E2E2E2E2E2E2E2E2
310
E2E228F5F5F5E2F5F5E2E2E2E228E2E2E2E2E2E2E2E2E2DC28E2F5F5F5E2F5F5E2E2E2E228E2E2E2E2E2E2E2E2E2DC28E2F5F5F5E22828282828E228E2E2E2E2E2E2E2E2E2E2E2E2E2E2E2E2E2E2E2E2E2E2E2E2E2E2E2E2E2E2E2E2E2E2E2E2E2E2E2E2E2E2E2E2E2E2E2E2E2E2E2E2E2E2E2E2E2E2E2E2E2E2E2E2E2E2E2
310
E2E2E2E2E2E2E2E2E2E2E2E2E2E2E2E2E2E2E2E2E2E2E2E2E2E2E2E2E2E2E2E2E2E2E2E2E2E2E2E2E2E2E2E2E2E2E2E2E2E2E2E2E2E2E2E2E2E2E2E2E2E2E2E2E2E2E2E2E2E2E2E2E2E2E2E2E2E2E2E2E2E2E2E2DC28E2F5F5F5F5F5F5F5E2E2E228E2E2E2E2E2E2E2E2E2E228E2F5F5F5F5F5F5F5E2E228E2E2E2E2E2E2E2
310
E2E2E2E228F5F5F5F5F5F5F5F5E2E228E2E2E2E2E2E2E2E2E2E228E2F5F5F5F5F5F5F5E2E2E228E2E2E2E2E2E2E2E2E2DC28E2F5F5F528F528282828E228E2E2E2E2E2E2E2E2E2E2E2E2E2E2E2E2E2E2E2E2E2E2E2E2E2E2E2E2E2E2E2E2E2E2E2E2E2E2E2E2E2E2E2E2E2E2E2E2E2E2E2E2E2E2E2E2E2E2E2E2E2E2E2E2E2
310
E2E2E2E2E2E2E2E2E2E2E2E2E2E2E2E2E2E2E2E2E2E2E2E2E2E2E2E2E2E2E2E2E2E2E2E2E2E2E2E2E2E2E2E2E2E2E2E2E2E2E2E2E2E2E2E2E2E2E2E2E2E2E2E2E2E2E2E2E2E2E2E2E2E2E2E2E2E2E2E2E2E2E2E2E2E2E228E2E2F5F5F5F5F5F5E2E22828E2E2E2E2E2E2E2E2E2E228E2E2F5F5F5F528F5E2E22828E2E2E2E2
310
E2E2E2E2E22828E2E2F5F5F52828F5E2E228E2E2E2E2E2E2E2E2E2E22828E2E2F5F5F528F5F5E2E228E2E2E2E2E2E2E2E2E2E228E2E2E2F5F5F528F5E228E228E2E2E2E2E2E2E2E2E2E2E2E2E2E2E2E2E2E2E2E2E2E2E2E2E2E2E2E2E2E2E2E2E2E2E2E2E2E2E2E2E2E2E2E2E2E2E2E2E2E2E2E2E2E2E2E2E2E2E2E2E2E2E2
310
E2E2E2E2E2E2E2E2E2E2E2E2E2E2E2E2E2E2E2E2E2E2E2E2E2E2E2E2E2E2E2E2E2E2E2E2E2E2E2E2E2E2E2E2E2E2E2E2E2E2E2E2E2E2E2E2E2E2E2E2E2E2E2E2E2E2E2E2E2E2E2E2E2E2E2E2E2E2E2E2E2E2E2E2E2E2E2E2E2282828282828F5282828282828E2E2E2E2E2E2E2E2E228282828282828F5F5F528282828E2E2
310
E2E2E2E2E2E2E22828282828282828282828282828E2E2E2E2E2E2E2E2E22828282828282828282828282828E2E2E2E2E2E2E2E2E228282828282828282828282828E2E2E2E2E2E2E2E2E2E2E2E2E2E2E2E2E2E2E2E2E2E2E2E2E2E2E2E2E2E2E2E2E2E2E2E2E2E2E2E2E2E2E2E2E2E2E2E2E2E2E2E2E2E2E2E2E2E2E2E2E2
310
E2E2E2E2E2E2E2E2E2E2E2E2E2E2E2E2E2E2E2E2E2E2E2E2E2E2E2E2E2E2E2E2E2E2E2E2E2E2E2E2E2E2E2E2E2E2E2E2E2E2E2E2E2E2E2E2E2E2E2E2E2E2E2E2E2E2E2E2E2E2E2E2E2E2E2E2E2E2E2E2E2E2E2E2E2E2E2E2E2E2E2E2E2E2E2E2E2F5F5E2E2E2E2E2E2E2E2E2E2E2E2E2E2E2E2E2E2E2E2F5F5E2E2E2E2E2E2
310
E2E2E2E2E2E2E2E2E2E2E2E2E2E2E2F5F5E2E2E2E2E2E2E2E2E2E2E2E2E2E2E2E2E2E2E2E2E2F5F5E2E2E2E2E2E2E2E2E2E2E2E2E2E2E2E2E2E2E2E2E2F5F5E2E2E2E2E2E2E2E2E2E2E2E2E2E2E2E2E2E2E2E2E2E2E2E2E2E2E2E2E2E2E2E2E2E2E2E2E2E2E2E2E2E2E2E2E2E2E2E2E2E2E2E2E2E2E2E2E2E2E2E2E2E2E2E2
310
E2E2E2E2E2E2E2E2E2E2E2E2E2E2E2E2E2E2E2E2E2E2E2E2E2E2E2E2E2E2E2E2E2E2E2E2E2E2E2E2E2E2E2E2E2E2E2E2E2E2E2E2E2E2E2E2E2E2E2E2E2E2E2E2E2E2E2E2E2E2E2E2E2E2E2E2E2E2E2E2E2E2E2E2E2E2E2E2E2E2E2E2E2E2E2E2E2E2E2E2E2E2E2E2E2E2E2E2E2E2E2E2E2E2E2E2E2E2E2E2E2E2E2E2E2E2E2
310
E2E2E2E2E2E2E2E2E2E2E2E2E2E2E2E2E2E2E2E2E2E2E2E2E2E2E2E2E2E2E2E2E2E2E2E2E2E2E2E2E2E2E2E2E2E2E2E2E2E2E2E2E2E2E2E2E2E2E2E2E2E2E2E2E2E2E2E2E2E2E2E2E2E2E2E2E2E2E2E2E2E2E2E2E2E2E2E2E2E2E2E2E2E2E2E2E2E2E2E2E2E2E2E2E2E2E2E2E2E2E2E2E2E2E2E2E2E2E2E2E2E2E2E2E2E2E2
310
E2E2E2E2E2E2E2E2E2E2E2E2E2E2E2E2E2E2E2E2E2E2E2E2E2E2E2E2E2E2E2E2E2E2E2E2E2E2E2E2E2E2E2E2E2E2E2E2E2E2E2E2E2E2E2E2E2E2E2E2E2E2E2E2E2E2E2E2E2E2E2E2E2E2E2E2E2E2E2E2E2E2E2E2E2E2E2E2E2E2E2E2E2E2E2E2E2E2E2E2E2E2E2E2E2E2E2E2E2E2E2E2E2E2E2E2E2E2E2E2E2E2E2E2E2E2E2
310
E2E2E2E2E2E2E2E2E2E2E2E2E2E2E2E2E2E2E2E2E2E2E2E2E2E2E2E2E2E2E2E2E2E2E2E2E2E2E2E2E2E2E2E2E2E2E2E2E2E2E2E2E2E2E2E2E2E2E2E2E2E2E2E2E2E2E2E2E2E2E2E2E2E2E2E2E2E2E2E2E2E2E2E2E2E2E2E2E2E2E2E2E2E2E2E2E2E2E2E2E2E2E2E2E2E2E2E2E2E2E2E2E2E2E2E2E2E2E2E2E2E2E2E2E2E2E2
310
E2E2E2E2E2E2E2E2E2E2E2E2E2E2E2E2E2E2E2E2E2E2E2E2E2E2E2E2E2E2E2E2E2E2E2E2E2E2E2E2E2E2E2E2E2E2E2E2E2E2E2E2E2E2E2E2E2E2E2E2E2E2E2E2E2E2E2E2E2E2E2E2E2E2E2E2E2E2E2E2E2E2E2E2E2E2E2E2E2E2E2E2E2E2DCDCDCDCDCDCDCDCDCDCDCDCDCDCE2E2E2E2E2E2E2E2E2DCDCDCDCDCDCDCDCDCDC
310
DCDCDCDCDCE2E2E2E2E2E2E2E2DCDCDCDCDCDCDCDCDCDCDCDCDCDCE2E2E2E2E2E2E2E2E2DCDCDCDCDCDCDCDCDCDCDCDCDCDCDCE2E2E2E2E2E2E2E2DCDCDCDCDCDCDCDCDCDCDCDCDCDCDCDCE2E2E2E2E2E2E2E2E2E2E2E2E2E2E2E2E2E2E2E2E2E2E2E2E2E2E2E2E2E2E2E2E2E2E2E2E2E2E2E2E2E2E2E2E2E2E2E2E2E2E2E2
310
E2E2E2E2E2E2E2E2E2E2E2E2E2E2E2E2E2E2E2E2E2E2E2E2E2E2E2E2E2E2E2E2E2E2E2E2E2E2E2E2E2E2E2E2E2E2E2E2E2E2E2E2E2E2E2E2E2E2E2E2E2E2E2E2E2E2E2E2E2E2E2E2E2E2E2E2E2E2E2E2E2E2E2E2E2E2E2E2E2E2E2E2E2E2E2E2DCDCDCDCDCDCDCDCDCDCDCDCDCDCE2E2E2E2E2E2E2E2E2DCDCDCDCDCDCDCDC
310
DCDCDCDCDCDCDCE2E2E2E2E2E2E2E2DCDCDCDCDCDCDCDCDCDCDCDCDCDCE2E2E2E2E2E2E2E2E2DCDCDCDCDCDCDCDCDCDCDCDCDCDCDCE2E2E2E2E2E2E2E2DCDCDCDCDCDCDCDCDCDCDCDCDCDCDCDCE2E2E2E2E2E2E2E2E2E2E2E2E2E2E2E2E2E2E2E2E2E2E2E2E2E2E2E2E2E2E2E2E2E2E2E2E2E2E2E2E2E2E2E2E2E2E2E2E2E2
310
E2E2E2E2E2E2E2E2E2E2E2E2E2E2E2E2E2E2E2E2E2E2E2E2E2E2E2E2E2E2E2E2E2E2E2E2E2E2E2E2E2E2E2E2E2E2E2E2E2E2E2E2E2E2E2E2E2E2E2E2E2E2E2E2E2E2E2E2E2E2E2E2E2E2E2E2E2E2E2E2E2E2E2E2E2E2E2E2E2E2E2E2E2E2E2E2E2E2E2E2E2E2E2E2E2E2E2E2E2E2E2E2E2E2E2E2E2E2E2E2E2E2E2E2E2E2E2
310
E2E2E2E2E2E2E2E2E2E2E2E2E2E2E2E2E2E2E2E2E2E2E2E2E2E2E2E2E2E2E2E2E2E2E2E2E2E2E2E2E2E2E2E2E2E2E2E2E2E2E2E2E2E2E2E2E2E2E2E2E2E2E2E2E2E2E2E2E2E2E2E2E2E2E2E2E2E2E2E2E2E2E2E2E2E2E2E2E2E2E2E2E2E2E2E2E2E2E2E2E2E2E2E2E2E2E2E2E2E2E2E2E2E2E2E2E2E2E2E2E2E2E2E2E2E2E2
310
E2E2E2E2E2E2E2E2E2E2E2E2E2E2E2E2E2E2E2E2E2E2E2E2E2E2E2E2E2E2E2E2E2E2E2E2E2E2E2E2E2E2E2E2E2E2E2E2E2E2E2E2E2E2E2E2E2E2E2E2E2E2E2E2E2E2E2E2E2E2E2E2E2E2E2E2E2E2E2E2E2E2E2E2E2E2E2E2E2E2E2E2E2E2E2E2E2E2E2E2E2E2E2E2E2E2E2E2E2E2E2E2E2E2E2E2E2E2E2E2E2E2E2E2E2E2E2
310
E2E2E2E2E2E2E2E2E2E2E2E2E2E2E2E2E2E2E2E2E2E2E2E2E2E2E2E2E2E2E2E2E2E2E2E2E2E2E2E2E2E2E2E2E2E2E2E2E2E2E2E2E2E2E2E2E2E2E2E2E2E2E2E2E2E2E2E2E2E2E2E2E2E2E2E2E2E2E2E2E2E2E2E2E2E2E2E2E2E2E2E2E2E2E2E2E2E2E2E2E2E2E2E2E2E2E2E2E2E2E2E2E2E2E2E2E2E2E2E2E2E2E2E2E2E2E2
310
E2E2E2E2E2E2E2E2E2E2E2E2E2E2E2E2E2E2E2E2E2E2E2E2E2E2E2E2E2E2E2E2E2E2E2E2E2E2E2E2E2E2E2E2E2E2E2E2E2E2E2E2E2E2E2E2E2E2E2E2E2E2E2E2E2E2E2E2E2E2E2E2E2E2E2E2E2E2E2E2E2E2E2E2E2E2E2E2E2E2E2E2E2E2E2E2E2E2E2E2E2E2E2E2E2E2E2E2E2E2E2E2E2E2E2E2E2E2E2E2E2E2E2E2E2E2E2
310
E2E2E2E2E2E2E2E2E2E2E2E2E2E2E2E2E2E2E2E2E2E2E2E2E2E2E2E2E2E2E2E2E2E2E2E2E2E2E2E2E2E2E2E2E2E2E2E2E2E2E2E2E2E2E2E2E2E2E2E2E2E2E2E2E2E2E2E2E2E2E2E2E2E2E2E2E2E2E2E2E2E2E2E2E2E2E2E2E2E2E2E2E2E2E2E2E2E2E2E2E2E2E2E2E2E2E2E2E2E2E2E2E2E2E2E2E2E2E2E2E2E2E2E2E2E2E2
310
E2E2E2E2E2E2E2E2E2E2E2E2E2E2E2E2E2E2E2E2E2E2E2E2E2E2E2E2E2E2E2E2E2E2E2E2E2E2E2E2E2E2E2E2E2E2E2E2E2E2E2E2E2E2E2E2E2E2E2E2E2E2E2E2E2E2E2E2E2E2E2E2E2E2E2E2E2E2E2E2E2E2E2E2E2E2E2E2E2E2E2E2E2E2E2E2E2E2E2E2E2E2E2E2E2E2E2E2E2E2E2E2E2E2E2E2E2E2E2E2E2E2E2E2E2E2E2
310
E2E2E2E2E2E2E2E2E2E2E2E2E2E2E2E2E2E2E2E2E2E2E2E2E2E2E2E2E2E2E2E2E2E2E2E2E2E2E2E2E2E2E2E2E2E2E2E2E2E2E2E2E2E2E2E2E2E2E2E2E2E2E2E2E2E2E2E2E2E2E2E2E2E2E2E2E2E2E2E2E2E2E2E2E2E2E2E2E2E2E2E2E2E2E2E2E2E2E2E2E2E2E2E2E2E2E2E2E2E2E2E2E2E2E2E2E2E2E2E2E2E2E2E2E2E2E2
310
E2E2E2E2E2E2E2E2E2E2E2E2E2E2E2E2E2E2E2E2E2E2E2E2E2E2E2E2E2E2E2E2E2E2E2E2E2E2E2E2E2E2E2E2E2E2E2E2E2E2E2E2E2E2E2E2E2E2E2E2E2E2E2E2E2E2E2E2E2E2E2E2E2E2E2E2E2E2E2E2E2E2E2E2E2E2E2E2E2E2E2E2E2E2E2E2E2E2E2E2E2E2E2E2E2E2E2E2E2E2E2E2E2E2E2E2E2E2E2E2E2E2E2E2E2E2E2
310
E2E2E2E2E2E2E2E2E2E2E2E2E2E2E2E2E2E2E2E2E2E2E2E2E2E2E2E2E2E2E2E2E2E2E2E2E2E2E2E2E2E2E2E2E2E2E2E2E2E2E2E2E2E2E2E2E2E2E2E2E2E2E2E2E2E2E2E2E2E2E2E2E2E2E2E2E2E2E2E2E2E2E2E2E2E2E2E2E2E2E2E2E2E2E2E2E2E2E2E2E2E2E2E2E2E2E2E2E2E2E2E2E2E2E2E2E2E2E2E2E2E2E2E2E2E2E2
310
E2E2E2E2E2E2E2E2E2E2E2E2E2E2E2E2E2E2E2E2E2E2E2E2E2E2E2E2E2E2E2E2E2E2E2E2E2E2E2E2E2E2E2E2E2E2E2E2E2E2E2E2E2E2E2E2E2E2E2E2E2E2E2E2E2E2E2E2E2E2E2E2E2E2E2E2E2E2E2E2E2E2E2E2E2E2E2E2E2E2E2E2E2E2E2E2E2E2E2E2E2E2E2E2E2E2E2E2E2E2E2E2E2E2E2E2E2E2E2E2E2E2E2E2E2E2E2
310
E2E2E2E2E2E2E2E2E2E2E2E2E2E2E2E2E2E2E2E2E2E2E2E2E2E2E2E2E2E2E2E2E2E2E2E2E2E2E2E2E2E2E2E2E2E2E2E2E2E2E2E2E2E2E2E2E2E2E2E2E2E2E2E2E2E2E2E2E2E2E2E2E2E2E2E2E2E2E2E2E2E2E2E2E2E2E2E2E2E2E2E2E2E2E2E2E2E2E2E2E2E2E2E2E2E2E2E2E2E2E2E2E2E2E2E2E2E2E2E2E2E2E2E2E2E2E2
310
E2E2E2E2E2E2E2E2E2E2E2E2E2E2E2E2E2E2E2E2E2E2E2E2E2E2E2E2E2E2E2E2E2E2E2E2E2E2E2E2E2E2E2E2E2E2E2E2E2E2E2E2E2E2E2E2E2E2E2E2E2E2E2E2E2E2E2E2E2E2E2E2E2E2E2E2E2E2E2E2E2E2E2E2E2E2E2E2E2E2E2E2E2E2E2E2E2E2E2E2E2E2E2E2E2E2E2E2E2E2E2E2E2E2E2E2E2E2E2E2E2E2E2E2E2E2E2
310
E2E2E2E2E2E2E2E2E2E2E2E2E2E2E2E2E2E2E2E2E2E2E2E2E2E2E2E2E2E2E2E2E2E2E2E2E2E2E2E2E2E2E2E2E2E2E2E2E2E2E2E2E2E2E2E2E2E2E2E2E2E2E2E2E2E2E2E2E2E2E2E2E2E2E2E2E2E2E2E2E2E2E2E2E2E2E2E2E2E2E2E2E2E2E2E2E2E2E2E2E2E2E2E2E2E2E2E2E2E2E2E2E2E2E2E2E2E2E2E2E2E2E2E2E2E2E2
310
E2E2E2E2E2E2E2E2E2E2E2E2E2E2E2E2E2E2E2E2E2E2E2E2E2E2E2E2E2E2E2E2E2E2E2E2E2E2E2E2E2E2E2E2E2E2E2E2E2E2E2E2E2E2E2E2E2E2E2E2E2E2E2E2E2E2E2E2E2E2E2E2E2E2E2E2E2E2E2E2E2E2E2E2E2E2E2E2E2E2E2E2E2E2E2E2E2E2E2E2E2E2E2E2E2E2E2E2E2E2E2E2E2E2E2E2E2E2E2E2E2E2E2E2E2E2E2
310
E2E2E2E2E2E2E2E2E228F5F5E2E2E2E2E2E2E2E2E2E2E2E2E2E2E2E2E2E2E2E2E2E2E2E2E2E2E2E2E2E2E2E2E2E2E2E2E2E2E2E2E2E2E2E2E2E2E2E2E2E2E2E2E2E2E2E2E2E2E2E2E2E2E2E2E2E2E2E2E2E2E2E2E2E2E2E2E2E2E2E2E2E2E2E2E2E2E2E2E2E2E2E2E2E2E2E2E2E2E2E2E2E2E2E2E2E2E2E2E2E2E2E2E2E2E2
310
E2E2E2E2E2E2E2E2E2E2E2E2E2E2E2E2E2E2E2E2E2E2E2E2E2E2E2E2E2E2E2E2E2E2E2E2E2E2E2E2E2E2E2E2E2E2E2E2E2E2E2E2E2E2E2E2E2E2E2E2E2E2E2E2E2E2E2E2E2E2E2E2E2E2E2E2E2E2E2E2E2E2E2E2E2E2E2E2E2E2E2E2E2E2E2E2E2E2E2E2E2E2E2E2E2E2E2E2E2E2E2E2E2E2DC28F5F5F5F5F5F5F528282828
310
282828E2E2E2E2E2E2E2DCDCDCF5F5F5F5F5F528282828282828E2E2E2E2E2E2E2282828F5F5F5F5F5F5F5282828282828E2E2E2E2E2E2E228F5F5F5F5F5F5F5F5F5282828282828E2E2E2E2E2E2E228F5F5F5F5F5F5F528282828282828E2E2E2E2E2E2E2E2E2E2E2E2E2E2E2E2E2E2E2E2E2E2E2E2E2E2E2E2E2E2E2E2E2
310
E2E2E2E2E2E2E2E2E2E2E2E2E2E2E2E2E2E2E2E2E2E2E2E2E2E2E2E2E2E2E2E2E2E2E2E2E2E2E2E2E2E2E2E2E2E2E2E2E2E2E2E2E2E2E2E2E2E2E2E2E2E2E2E2E2E2E2E2E2E2E2E2E2E2E2E2E2E2E2E2E2E2E2E2E2E2E2E2E2E2E2E2E2E2E2E2E2E2E2E2E2E2E2E2E2E2E2E2E2E2E2E2E2E2E2E2DC28E2E2DCDCDCE2E2F5DC
310
DC28E2E228E2E2E2E2E2E2E2DC28E2E2DCDCDCE2F5F5DC2828E228E2E2E2E2E2E2E2E2DC28DCF5DCDCDCE2F5F5DC28E2E228E2E2E2E2E2E2E2DCDC28E2E2DCDCDCE2F5F5DC28E2E228E2E2E2E2E2E2E2E2E228E2DCDCDCDCE2F5E2E228E2E228E2E2E2E2E2E2E2E2E2E2E2E2E2E2E2E2E2E2E2E2E2E2E2E2E2E2E2E2E2E2E2
310
E2E2E2E2E2E2E2E2E2E2E2E2E2E2E2E2E2E2E2E2E2E2E2E2E2E2E2E2E2E2E2E2E2E2E2E2E2E2E2E2E2E2E2E2E2E2E2E2E2E2E2E2E2E2E2E2E2E2E2E2E2E2E2E2E2E2E2E2E2E2E2E2E2E2E2E2E2E2E2E2E2E2E2E2E2E2E2E2E2E2E2E2E2E2E2E2E2E2E2E2E2E2E2E2E2E2E2E2E2E2E2E2E2E2E2E2E2E2E228E2E2E2E2E2E2F5
310
F5E22828E2E228E2E2E2E2E2E2E2E228E2E2E2E2E2E2F5F5DC28E2E228E2E2E2E2E2E2E2E2DC28E2E2E2E2E2E2F5F5DC28E2E228E2E2E2E2E2E2E2DCDC28E2E2E2E2E2E2F5F5DC28E2E228E2E2E2E2E2E2E2DCDC28E2E2E2E2E2E2F5E2E228E2E228E2E2E2E2E2E2E2E2E2E2E2E2E2E2E2E2E2E2E2E2E2E2E2E2E2E2E2E2E2
310
E2E2E2E2E2E2E2E2E2E2E2E2E2E2E2E2E2E2E2E2E2E2E2E2E2E2E2E2E2E2E2E2E2E2E2E2E2E2E2E2E2E2E2E2E2E2E2E2E2E2E2E2E2E2E2E2E2E2E2E2E2E2E2E2E2E2E2E2E2E2E2E2E2E2E2E2E2E2E2E2E2E2E2E2E2E2E2E2E2E2E2E2E2E2E2E2E2E2E2E2E2E2E2E2E2E2E2E2E2E2E2E2E2E2E2E2E2E2E2E2E22828F5F5F5F5
310
F5F528DCDC28E2E228E2E2E2E2E2E2E2E228E2E2E2E2E2E2F5F5E22828E228E2E2E2E2E2E2E2E2E228E2E2E2E2E2E2F5F5E228E2E228E2E2E2E2E2E2E2E2E228E2E2E2E2E2E2F5F5E228E2E228E2E2E2E2E2E2E2DCDC28E2E2E2E2E2E2F5E2DC28E2E228E2E2E2E2E2E2E2E2E2E2E2E2E2E2E2E2E2E2E2E2E2E2E2E2E2E2E2
310
E2E2E2E2E2E2E2E2E2E2E2E2E2E2E2E2E2E2E2E2E2E2E2E2E2E2E2E2E2E2E2E2E2E2E2E2E2E2E2E2E2E2E2E2E2E2E2E2E2E2E2E2E2E2E2E2E2E2E2E2E2E2E2E2E2E2E2E2E2E2E2E2E2E2E2E2E2E2E2E2E2E2E2E2E2E2E2E2E2E2E2E2E2E2E2E2E2E2E2E2E2E2E2E2E2E2E2E2E2E2E2E2E2E2E2E2E2E2E2E2E2E2DC28E2DCDC
310
DCE2E2F5F5E2E2E2E2E228E2E2E2E2E2E2E2E22828F5F5F5F5F5F5DCDCDC28E228E2E2E2E2E2E2E2E2282828F5F5F5F5F5F5DCDC2828E228E2E2E2E2E2E2E2E2282828F5F5F5F5F5F5DCDC2828E228E2E2E2E2E2E2E2E2E228E2E2E2E2E2E2F5E2DC28E2E228E2E2E2E2E2E2E2E2E2E2E2E2E2E2E2E2E2E2E2E2E2E2E2E2E2
310
E2E2E2E2E2E2E2E2E2E2E2E2E2E2E2E2E2E2E2E2E2E2E2E2E2E2E2E2E2E2E2E2E2E2E2E2E2E2E2E2E2E2E2E2E2E2E2E2E2E2E2E2E2E2E2E2E2E2E2E2E2E2E2E2E2E2E2E2E2E2E2E2E2E2E2E2E2E2E2E2E2E2E2E2E2E2E2E2E2E2E2E2E2E2E2E2E2E2E2E2E2E2E2E2E2E2E2E2E2E2E2E2E2E2E2E2E2E2E2E2E2E2E2E2DC28E2
310
E2E2E2E2E2F5F5E2E2E2E2E228E2E2E2E2E2E2E2DC28E2DCDCF5E2E2F5F5E2E2E2E228E2E2E2E2E2E2E2E2DC28E2DCF5F5E2E2F5F5E2E2E2E228E2E2E2E2E2E2E2E2E228E2DCF5F5E2E2F5F5E2E2E2E228E2E2E2E2E2E2E2E22828E2E2E2E2E2E2F5E2E228E2E228E2E2E2E2E2E2E2E2E2E2E2E2E2E2E2E2E2E2E2E2E2E2E2
310
E2E2E2E2E2E2E2E2E2E2E2E2E2E2E2E2E2E2E2E2E2E2E2E2E2E2E2E2E2E2E2E2E2E2E2E2E2E2E2E2E2E2E2E2E2E2E2E2E2E2E2E2E2E2E2E2E2E2E2E2E2E2E2E2E2E2E2E2E2E2E2E2E2E2E2E2E2E2E2E2E2E2E2E2E2E2E2E2E2E2E2E2E2E2E2E2E2E2E2E2E2E2E2E2E2E2E2E2E2E2E2E2E2E2E2E2E2E2E2E2E2E2E2E2E2E2E2
310
28E2E2E2E2E2E2F5F5E2E2E2E2E228E2E2E2E2E2E2E2DC28E2E2E2E2E2E2F5F5E2E2E2E228E2E2E2E2E2E2E2E2DC28E2E2E2E2E2E2F5F5E2E2E2E228E2E2E2E2E2E2E2DCDC28E2E2E2E2E2E2F5F5E2E2E2E228E2E2E2E2E2E2E2E2282828F5F5F5F5F528DCDC28E2E228E2E2E2E2E2E2E2E2E2E2E2E2E2E2E2E2E2E2E2E2E2
310
E2E2E2E2E2E2E2E2E2E2E2E2E2E2E2E2E2E2E2E2E2E2E2E2E2E2E2E2E2E2E2E2E2E2E2E2E2E2E2E2E2E2E2E2E2E2E2E2E2E2E2E2E2E2E2E2E2E2E2E2E2E2E2E2E2E2E2E2E2E2E2E2E2E2E2E2E2E2E2E2E2E2E2E2E2E2E2E2E2E2E2E2E2E2E2E2E2E2E2E2E2E2E2E2E2E2E2E2E2E2E2E2E2E2E2E2E2E2E2E2E2E2E2E2E2E2E2
310
E2F528F5F5F5F5F5F5F5F5E2E2E2DCDC28E2E2E2E2E2E2E2E228E2E2E2E2E2E2F5F5E2E2E2DC28E2E2E2E2E2E2E2E2E228E2E2E2E2E2E22828E2E2E2DC28E2E2E2E2E2E2E2DCDC28E2E2E2E2E2E2F5F5E2E2E2DC28E2E2E2E2E2E2E2E22828E2DCDCF5E2E2F5E2E2E2E2DC28E2E2E2E2E2E2E2E2E2E2E2E2E2E2E2E2E2E2E2
310
E2E2E2E2E2E2E2E2E2E2E2E2E2E2E2E2E2E2E2E2E2E2E2E2E2E2E2E2E2E2E2E2E2E2E2E2E2E2E2E2E2E2E2E2E2E2E2E2E2E2E2E2E2E2E2E2E2E2E2E2E2E2E2E2E2E2E2E2E2E2E2E2E2E2E2E2E2E2E2E2E2E2E2E2E2E2E2E2E2E2E2E2E2E2E2E2E2E2E2E2E2E2E2E2E2E2E2E2E2E2E2E2E2E2E2E2E2E2E2E2E2E2E2E2E2E2E2
310
E2E2E2F528282828F5F5F52828F5F5F5DCDC28E2E2E2E2E2E2E2E228E2E2E2E2E2E2F5F5E2E2E2DC28E2E2E2E2E2E2E2F52828282828F5F5F52828F5F5E2DC28E2E2E2E2E2E2E2E2E228E2E2E2E2E2E2F5F5E2E2E2DC28E2E2E2E2E2E2E2DCDC28E2E2E2E2E2E2F5E2E2E2E2DC28E2E2E2E2E2E2E2E2E2E2E2E2E2E2E2E2E2
310
E2E2E2E2E2E2E2E2E2E2E2E2E2E2E2E2E2E2E2E2E2E2E2E2E2E2E2E2E2E2E2E2E2E2E2E2E2E2E2E2E2E2E2E2E2E2E2E2E2E2E2E2E2E2E2E2E2E2E2E2E2E2E2E2E2E2E2E2E2E2E2E2E2E2E2E2E2E2E2E2E2E2E2E2E2E2E2E2E2E2E2E2E2E2E2E2E2E2E2E2E2E2E2E2E2E2E2E2E2E2E2E2E2E2E2E2E2E2E2E2E2E2E2E2E2E2E2
310
E2E2E2E2E2E2E2E228E2E2E2E2F5F5E2E2E2E2E228E2E2E2E2E2E2E2F528282828F5F5F52828F5F5E2E228E2E2E2E2E2E2E2E2E2E22828E2E2E2E22828E2E2E2E228E2E2E2E2E2E2E2E2E228E2E2E2E2E2E22828E2E2E2E228E2E2E2E2E2E2E2DCDC28E2E2E2E2E2E2F5E2E2E2E2E228E2E2E2E2E2E2E2E2E2E2E2E2E2E2E2
310
E2E2E2E2E2E2E2E2E2E2E2E2E2E2E2E2E2E2E2E2E2E2E2E2E2E2E2E2E2E2E2E2E2E2E2E2E2E2E2E2E2E2E2E2E2E2E2E2E2E2E2E2E2E2E2E2E2E2E2E2E2E2E2E2E2E2E2E2E2E2E2E2E2E2E2E2E2E2E2E2E2E2E2E2E2E2E2E2E2E2E2E2E2E2E2E2E2E2E2E2E2E2E2E2E2E2E2E2E2E2E2E2E2E2E2E2E2E2E2E2E2E2E2E2E2E2E2
310
E2E2E2E2E2E2E2E2E2E228E2E2E2E2F5F5E2E2E2E2E228E2E2E2E2E2E2E2E2E2E228E2E2E2E22828E2E2E2E228E2E2E2E2E2E2E2E2E2DCDC28E2E2E2E2F5F5E2E2E2E228E2E2E2E2E2E2E2F5F5F5F5F5F5F5F5F52828F5F5E2E228E2E2E2E2E2E2E2E2E228E2E2E2E2E2E2F5E2DCDC28E228E2E2E2E2E2E2E2E2E2E2E2E2E2
310
E2E2E2E2E2E2E2E2E2E2E2E2E2E2E2E2E2E2E2E2E2E2E2E2E2E2E2E2E2E2E2E2E2E2E2E2E2E2E2E2E2E2E2E2E2E2E2E2E2E2E2E2E2E2E2E2E2E2E2E2E2E2E2E2E2E2E2E2E2E2E2E2E2E2E2E2E2E2E2E2E2E2E2E2E2E2E2E2E2E2E2E2E2E2E2E2E2E2E2E2E2E2E2E2E2E2E2E2E2E2E2E2E2E2E2E2E2E2E2E2E2E2E2E2E2E2E2
310
E2E2E2E2E2E2E2E2E2E2E2E228E2E2E2E2F5F5E2E2E2E2E228E2E2E2E2E2E2E2E2E2E228E2E2E2E2F5F5E2E2E2E228E2E2E2E2E2E2E2E2E2DCDC28E2E2E2E2F5F5E2E2E2E228E2E2E2E2E2E2E2E2E2E22828E2E2E2E22828E2E2E2E228E2E2E2E2E2E2E2E2E228E2E2E2E2E2E2F5E2E2E228E228E2E2E2E2E2E2E2E2E2E2E2
310
E2E2E2E2E2E2E2E2E2E2E2E2E2E2E2E2E2E2E2E2E2E2E2E2E2E2E2E2E2E2E2E2E2E2E2E2E2E2E2E2E2E2E2E2E2E2E2E2E2E2E2E2E2E2E2E2E2E2E2E2E2E2E2E2E2E2E2E2E2E2E2E2E2E2E2E2E2E2E2E2E2E2E2E2E2E2E2E2E2E2E2E2E2E2E2E2E2E2E2E2E2E2E2E2E2E2E2E2E2E2E2E2E2E2E2E2E2E2E2E2E2E2E2E2E2E2E2
310
E2E2E2E2E2E2E2E2E2E2E2E2E2DC28F5F5E2E2F5F5E2E2E2E2E228E2E2E2E2E2E2E2E2DCDC28F5F5E2E2F5F5E2E2E2E228E2E2E2E2E2E2E2E2E2E2E228F5E2E2E2F5F5E2E2E2E228E2E2E2E2E2E2E2E2E2DC28F5F5E2E2E2F5F5E2E2E2E228E2E2E2E2E2E2E2F52828F5F5F5F5F5F5F5F5E2E228E228E2E2E2E2E2E2E2E2E2
310
E2E2E2E2E2E2E2E2E2E2E2E2E2E2E2E2E2E2E2E2E2E2E2E2E2E2E2E2E2E2E2E2E2E2E2E2E2E2E2E2E2E2E2E2E2E2E2E2E2E2E2E2E2E2E2E2E2E2E2E2E2E2E2E2E2E2E2E2E2E2E2E2E2E2E2E2E2E2E2E2E2E2E2E2E2E2E2E2E2E2E2E2E2E2E2E2E2E2E2E2E2E2E2E2E2E2E2E2E2E2E2E2E2E2E2E2E2E2E2E2E2E2E2E2E2E2E2
310
E2E2E2E2E2E2E2E2E2E2E2E2E2E2E2DC28F5F5E2E2F5F5E2E2E2E2E228E2E2E2E2E2E2E2E2DCDC28F5E2E2E2F5F5E2E2E2E228E2E2E2E2E2E2E2E2E2E2E228F5E2E2E2F5F5E2E2E2E228E2E2E2E2E2E2E2E2E2DC28E2F5E2E2E2F5F5E2E2E2E228E2E2E2E2E2E2E2F528DC2828F5F5F5F52828282828E228E2E2E2E2E2E2E2
310
E2E2E2E2E2E2E2E2E2E2E2E2E2E2E2E2E2E2E2E2E2E2E2E2E2E2E2E2E2E2E2E2E2E2E2E2E2E2E2E2E2E2E2E2E2E2E2E2E2E2E2E2E2E2E2E2E2E2E2E2E2E2E2E2E2E2E2E2E2E2E2E2E2E2E2E2E2E2E2E2E2E2E2E2E2E2E2E2E2E2E2E2E2E2E2E2E2E2E2E2E2E2E2E2E2E2E2E2E2E2E2E2E2E2E2E2E2E2E2E2E2E2E2E2E2E2E2
310
E2E2E2E2E2E2E2E2E2E2E2E2E2E2E2E2E2E228E2F5F5F5F5F5F5F5E2E2E228E2E2E2E2E2E2E2E2E2E228F5F5F5F5F5F5F5E2E2E228E2E2E2E2E2E2E2E2E2E2E228F5F5F5F5F5F5F5E2E2E228E2E2E2E2E2E2E2E2E2E228E2F5F5F5F5F5F5F5E2E2E228E2E2E2E2E2E2E2E2E2DC28E2F5F5F5F5F528282828E228E2E2E2E2E2
310
E2E2E2E2E2E2E2E2E2E2E2E2E2E2E2E2E2E2E2E2E2E2E2E2E2E2E2E2E2E2E2E2E2E2E2E2E2E2E2E2E2E2E2E2E2E2E2E2E2E2E2E2E2E2E2E2E2E2E2E2E2E2E2E2E2E2E2E2E2E2E2E2E2E2E2E2E2E2E2E2E2E2E2E2E2E2E2E2E2E2E2E2E2E2E2E2E2E2E2E2E2E2E2E2E2E2E2E2E2E2E2E2E2E2E2E2E2E2E2E2E2E2E2E2E2E2E2
310
E2E2E2E2E2E2E2E2E2E2E2E2E2E2E2E2E2E2E2E228E2F5F5F5F5F5F5F5E2E22828E2E2E2E2E2E2E2E2E2E228E2F5F5F5F5F5F5F5E2E22828E2E2E2E2E2E2E2E2E22828E2F5F528F5F5F5F5E2E228E2E2E2E2E2E2E2E2E2E22828E2F5F5F5F5F5F5F5E2E228E2E2E2E2E2E2E2E2E2E228E2F5F5F5F5F5F5F5E228E228E2E2E2
310
E2E2E2E2E2E2E2E2E2E2E2E2E2E2E2E2E2E2E2E2E2E2E2E2E2E2E2E2E2E2E2E2E2E2E2E2E2E2E2E2E2E2E2E2E2E2E2E2E2E2E2E2E2E2E2E2E2E2E2E2E2E2E2E2E2E2E2E2E2E2E2E2E2E2E2E2E2E2E2E2E2E2E2E2E2E2E2E2E2E2E2E2E2E2E2E2E2E2E2E2E2E2E2E2E2E2E2E2E2E2E2E2E2E2E2E2E2E2E2E2E2E2E2E2E2E2E2
310
E2E2E2E2E2E2E2E2E2E2E2E2E2E2E2E2E2E2E2E2E2E228282828282828282828282828E2E2E2E2E2E2E2E2E22828282828282828282828282828E2E2E2E2E2E2E2E2E228282828282828F5282828282828E2E2E2E2E2E2E2E2E228282828282828F5282828282828E2E2E2E2E2E2E2E2E228282828282828282828282828E2
310
E2E2E2E2E2E2E2E2E2E2E2E2E2E2E2E2E2E2E2E2E2E2E2E2E2E2E2E2E2E2E2E2E2E2E2E2E2E2E2E2E2E2E2E2E2E2E2E2E2E2E2E2E2E2E2E2E2E2E2E2E2E2E2E2E2E2E2E2E2E2E2E2E2E2E2E2E2E2E2E2E2E2E2E2E2E2E2E2E2E2E2E2E2E2E2E2E2E2E2E2E2E2E2E2E2E2E2E2E2E2E2E2E2E2E2E2E2E2E2E2E2E2E2E2E2E2E2
310
E2E2E2E2E2E2E2E2E2E2E2E2E2E2E2E2E2E2E2E2E2E2E2E2E2E2E2E2E2E2F5F5F5E2E2E2E2E2E2E2E2E2E2E2E2E2E2E2E2E2E2E2F5F5F5E2E2E2E2E2E2E2E2E2E2E2E2E2E2E2E2E2E2E2E2F5F5F5E2E2E2E2E2E2E2E2E2E2E2E2E2E2E2E2E2E2E2E2F5F5F5E2E2E2E2E2E2E2E2E2E2E2E2E2E2E2E2E2E2E2E2F5F5F5E2E2E2
310
E2E2E2E2E2E2E2E2E2E2E2E2E2E2E2E2E2E2E2E2E2E2E2E2E2E2E2E2E2E2E2E2E2E2E2E2E2E2E2E2E2E2E2E2E2E2E2E2E2E2E2E2E2E2E2E2E2E2E2E2E2E2E2E2E2E2E2E2E2E2E2E2E2E2E2E2E2E2E2E2E2E2E2E2E2E2E2E2E2E2E2E2E2E2E2E2E2E2E2E2E2E2E2E2E2E2E2E2E2E2E2E2E2E2E2E2E2E2E2E2E2E2E2E2E2E2E2
310
E2E2E2E2E2E2E2E2E2E2E2E2E2E2E2E2E2E2E2E2E2E2E2E2E2E2E2E2E2E2E2E2E2E2E2E2E2E2E2E2E2E2E2E2E2E2E2E2E2E2E2E2E2E2E2E2E2E2E2E2E2E2E2E2E2E2E2E2E2E2E2E2E2E2E2E2E2E2E2E2E2E2E2E2E2E2E2E2E2E2E2E2E2E2E2E2E2E2E2E2E2E2E2E2E2E2E2E2E2E2E2E2E2E2E2E2E2E2E2E2E2E2E2E2E2E2E2
310
E2E2E2E2E2E2E2E2E2E2E2E2E2E2E2E2E2E2E2E2E2E2E2E2E2E2E2E2E2E2E2E2E2E2E2E2E2E2E2E2E2E2E2E2E2E2E2E2E2E2E2E2E2E2E2E2E2E2E2E2E2E2E2E2E2E2E2E2E2E2E2E2E2E2E2E2E2E2E2E2E2E2E2E2E2E2E2E2E2E2E2E2E2E2E2E2E2E2E2E2E2E2E2E2E2E2E2E2E2E2E2E2E2E2E2E2E2E2E2E2E2E2E2E2E2E2E2
310
E2E2E2E2E2E2E2E2E2E2E2E2E2E2E2E2E2E2E2E2E2E2E2E2E2E2E2E2E2E2E2E2E2E2E2E2E2E2E2E2E2E2E2E2E2E2E2E2E2E2E2E2E2E2E2E2E2E2E2E2E2E2E2E2E2E2E2E2E2E2E2E2E2E2E2E2E2E2E2E2E2E2E2E2E2E2E2E2E2E2E2E2E2E2E2E2E2E2E2E2E2E2E2E2E2E2E2E2E2E2E2E2E2E2E2E2E2E2E2E2E2E2E2E2E2E2E2
310
E2E2E2E2E2E2E2E2E2E2E2E2E2E2E2E2E2E2E2E2E2E2E2E2E2E2E2E2E2E2E2E2E2E2E2E2E2E2E2E2E2E2E2E2E2E2E2E2E2E2E2E2E2E2E2E2E2E2E2E2E2E2E2E2E2E2E2E2E2E2E2E2E2E2E2E2E2E2E2E2E2E2E2E2E2E2E2E2E2E2E2E2E2E2E2E2E2E2E2E2E2E2E2E2E2E2E2E2E2E2E2E2E2E2E2E2E2E2E2E2E2E2E2E2E2E2E2
310
E2E2E2E2E2E2E2E2E2E2E2E2E2E2E2E2E2E2E2E2E2E2E2E2E2E2E2E2DCDCDCDCDCDCDCDCDCDCDCDCDCE2E2E2E2E2E2E2E2E2DCDCDCDCDCDCDCDCDCDCDCDCDCDCDCE2E2E2E2E2E2E2E2DCDCDCDCDCDCDCDCDCDCDCDCDCDCE2E2E2E2E2E2E2E2E2DCDCDCDCDCDCDCDCDCDCDCDCDCDCDCE2E2E2E2E2E2E2E2DCDCDCDCDCDCDCDC
310
DCDCDCDCDCDCDCDCE2E2E2E2E2E2E2E2E2E2E2E2E2E2E2E2E2E2E2E2E2E2E2E2E2E2E2E2E2E2E2E2E2E2E2E2E2E2E2E2E2E2E2E2E2E2E2E2E2E2E2E2E2E2E2E2E2E2E2E2E2E2E2E2E2E2E2E2E2E2E2E2E2E2E2E2E2E2E2E2E2E2E2E2E2E2E2E2E2E2E2E2E2E2E2E2E2E2E2E2E2E2E2E2E2E2E2E2E2E2E2E2E2E2E2E2E2E2E2
310
E2E2E2E2E2E2E2E2E2E2E2E2E2E2E2E2E2E2E2E2E2E2E2E2E2E2E2E2E2E2DCDCDCDCDCDCDCDCDCDCDCDCDCE2E2E2E2E2E2E2E2E2DCDCDCDCDCDCDCDCDCDCDCDCDCDCDCE2E2E2E2E2E2E2E2DCDCDCDCDCDCDCDCDCDCDCDCDCDCE2E2E2E2E2E2E2E2E2DCDCDCDCDCDCDCDCDCDCDCDCDCDCDCE2E2E2E2E2E2E2E2DCDCDCDCDCDC
310
DCDCDCDCDCDCDCDCDCDCE2E2E2E2E2E2E2E2E2E2E2E2E2E2E2E2E2E2E2E2E2E2E2E2E2E2E2E2E2E2E2E2E2E2E2E2E2E2E2E2E2E2E2E2E2E2E2E2E2E2E2E2E2E2E2E2E2E2E2E2E2E2E2E2E2E2E2E2E2E2E2E2E2E2E2E2E2E2E2E2E2E2E2E2E2E2E2E2E2E2E2E2E2E2E2E2E2E2E2E2E2E2E2E2E2E2E2E2E2E2E2E2E2E2E2E2E2
310
E2E2E2E2E2E2E2E2E2E2E2E2E2E2E2E2E2E2E2E2E2E2E2E2E2E2E2E2E2E2E2E2E2E2E2E2E2E2E2E2E2E2E2E2E2E2E2E2E2E2E2E2E2E2E2E2E2E2E2E2E2E2E2E2E2E2E2E2E2E2E2E2E2E2E2E2E2E2E2E2E2E2E2E2E2E2E2E2E2E2E2E2E2E2E2E2E2E2E2E2E2E2E2E2E2E2E2E2E2E2E2E2E2E2E2E2E2E2E2E2E2E2E2E2E2E2E2
310
E2E2E2E2E2E2E2E2E2E2E2E2E2E2E2E2E2E2E2E2E2E2E2E2E2E2E2E2E2E2E2E2E2E2E2E2E2E2E2E2E2E2E2E2E2E2E2E2E2E2E2E2E2E2E2E2E2E2E2E2E2E2E2E2E2E2E2E2E2E2E2E2E2E2E2E2E2E2E2E2E2E2E2E2E2E2E2E2E2E2E2E2E2E2E2E2E2E2E2E2E2E2E2E2E2E2E2E2E2E2E2E2E2E2E2E2E2E2E2E2E2E2E2E2E2E2E2
310
E2E2E2E2E2E2E2E2E2E2E2E2E2E2E2E2E2E2E2E2E2E2E2E2E2E2E2E2E2E2E2E2E2E2E2E2E2E2E2E2E2E2E2E2E2E2E2E2E2E2E2E2E2E2E2E2E2E2E2E2E2E2E2E2E2E2E2E2E2E2E2E2E2E2E2E2E2E2E2E2E2E2E2E2E2E2E2E2E2E2E2E2E2E2E2E2E2E2E2E2E2E2E2E2E2E2E2E2E2E2E2E2E2E2E2E2E2E2E2E2E2E2E2E2E2E2E2
310
E2E2E2E2E2E2E2E2E2E2E2E2E2E2E2E2E2E2E2E2E2E2E2E2E2E2E2E2E2E2E2E2E2E2E2E2E2E2E2E2E2E2E2E2E2E2E2E2E2E2E2E2E2E2E2E2E2E2E2E2E2E2E2E2E2E2E2E2E2E2E2E2E2E2E2E2E2E2E2E2E2E2E2E2E2E2E2E2E2E2E2E2E2E2E2E2E2E2E2E2E2E2E2E2E2E2E2E2E2E2E2E2E2E2E2E2E2E2E2E2E2E2E2E2E2E2E2
310
E2E2E2E2E2E2E2E2E2E2E2E2E2E2E2E2E2E2E2E2E2E2E2E2E2E2E2E2E2E2E2E2E2E2E2E2E2E2E2E2E2E2E2E2E2E2E2E2E2E2E2E2E2E2E2E2E2E2E2E2E2E2E2E2E2E2E2E2E2E2E2E2E2E2E2E2E2E2E2E2E2E2E2E2E2E2E2E2E2E2E2E2E2E2E2E2E2E2E2E2E2E2E2E2E2E2E2E2E2E2E2E2E2E2E2E2E2E2E2E2E2E2E2E2E2E2E2
310
E2E2E2E2E2E2E2E2E2E2E2E2E2E2E2E2E2E2E2E2E2E2E2E2E2E2E2E2E2E2E2E2E2E2E2E2E2E2E2E2E2E2E2E2E2E2E2E2E2E2E2E2E2E2E2E2E2E2E2E2E2E2E2E2E2E2E2E2E2E2E2E2E2E2E2E2E2E2E2E2E2E2E2E2E2E2E2E2E2E2E2E2E2E2E2E2E2E2E2E2E2E2E2E2E2E2E2E2E2E2E2E2E2E2E2E2E2E2E2E2E2E2E2E2E2E2E2
310
E2E2E2E2E2E2E2E2E2E2E2E2E2E2E2E2E2E2E2E2E2E2E2E2E2E2E2E2E2E2E2E2E2E2E2E2E2E2E2E2E2E2E2E2E2E2E2E2E2E2E2E2E2E2E2E2E2E2E2E2E2E2E2E2E2E2E2E2E2E2E2E2E2E2E2E2E2E2E2E2E2E2E2E2E2E2E2E2E2E2E2E2E2E2E2E2E2E2E2E2E2E2E2E2E2E2E2E2E2E2E2E2E2E2E2E2E2E2E2E2E2E2E2E2E2E2E2
310
E2E2E2E2E2E2E2E2E2E2E2E2E2E2E2E2E2E2E2E2E2E2E2E2E2E2E2E2E2E2E2E2E2E2E2E2E2E2E2E2E2E2E2E2E2E2E2E2E2E2E2E2E2E2E2E2E2E2E2E2E2E2E2E2E2E2E2E2E2E2E2E2E2E2E2E2E2E2E2E2E2E2E2E2E2E2E2E2E2E2E2E2E2E2E2E2E2E2E2E2E2E2E2E2E2E2E2E2E2E2E2E2E2E2E2E2E2E2E2E2E2E2E2E2E2E2E2
310
E2E2E2E2E2E2E2E2E2E2E2E2E2E2E2E2E2E2E2E2E2E2E2E2E2E2E2E2E2E2E2E2E2E2E2E2E2E2E2E2E2E2E2E2E2E2E2E2E2E2E2E2E2E2E2E2E2E2E2E2E2E2E2E2E2E2E2E2E2E2E2E2E2E2E2E2E2E2E2E2E2E2E2E2E2E2E2E2E2E2E2E2E2E2E2E2E2E2E2E2E2E2E2E2E2E2E2E2E2E2E2E2E2E2E2E2E2E2E2E2E2E2E2E2E2E2E2
310
E2E2E2E2E2E2E2E2E2E2E2E2E2E2E2E2E2E2E2E2E2E2E2E2E2E2E2E2E2E2E2E2E2E2E2E2E2E2E2E2E2E2E2E2E2E2E2E2E2E2E2E2E2E2E2E2E2E2E2E2E2E2E2E2E2E2E2E2E2E2E2E2E2E2E2E2E2E2E2E2E2E2E2E2E2E2E2E2E2E2E2E2E2E2E2E2E2E2E2E2E2E2E2E2E2E2E2E2E2E2E2E2E2E2E2E2E2E2E2E2E2E2E2E2E2E2E2
310
E2E2E2E2E2E2E2E2E2E2E2E2E2E2E2E2E2E2E2E2E2E2E2E2E2E2E2E2E2E2E2E2E2E2E2E2E2E2E2E2E2DCDCDCDCDCDCDCDCDCDCDCDCDCDCDCDCDCDCDCDCDCDCDCDCDCDCDCDCDCDCDCDCDCDCDCDCDCDCDCDCDCDCDCDCDCDCDCDCDCDCDCDCDCDCDCDCDCDCDCDCDCDCDCDCDCDCDCDCDCDCDCDCDCDCDCDCDCDCDCDCDCDCDCDCDCDC
310
DCDCDCDCDCDCDCDCDCDCDCDCDCDCDCDCDCDCDCE2E2E2E2E2E2E2E2E2E2E2E2E2E2E2E2E2E2E2E2E2E2E2E2E2E2E2E2E2E2E2E2E2E2E2E2E2E2E2E2E2E2E2E2E2E2E2E2E2E2E2E2E2E2E2E2E2E2E2E2E2E2E2E2E2E2E2E2E2E2E2E2E2E2E2E2E2E2E2E2E2E2E2E2E2E2E2E2E2E2E2E2E2E2E2E2E2E2E2E2E2E2E2E2E2E2E2E2
310
E2E2E2E2E2E2E2E2E2E2E2E2E2E2E2E2E2E2E2E2E2E2E2E2E2E2E2E2E2E2E2E2E2E2E2E2E2E2E2E2E2E2E2DCDCDCDCDCDCDCDCDCDCDCDCDCDCDCDCDCDCDCDCDCDCDCDCDCDCDCDCDCDCDCDCDCDCDCDCDCDCDCDCDCDCDCDCDCDCDCDCDCDCDCDCDCDCDCDCDCDCDCDCDCDCDCDCDCDCDCDCDCDCDCDCDCDCDCDCDCDCDCDCDCDCDCDC
310
DCDCDCDCDCDCDCDCDCDCDCDCDCDCDCDCDCDCDCDCDCE2E2E2E2E2E2E2E2E2E2E2E2E2E2E2E2E2E2E2E2E2E2E2E2E2E2E2E2E2E2E2E2E2E2E2E2E2E2E2E2E2E2E2E2E2E2E2E2E2E2E2E2E2E2E2E2E2E2E2E2E2E2E2E2E2E2E2E2E2E2E2E2E2E2E2E2E2E2E2E2E2E2E2E2E2E2E2E2E2E2E2E2E2E2E2E2E2E2E2E2E2E2E2E2E2E2
310
E2E2E2E2E2E2E2E2E2E2E2E2E2E2E2E2E2E2E2E2E2E2E2E2E2E2E2E2E2E2E2E2E2E2E2E2E2E2E2E2E2E2E2E2E2E2E2E2E2E2E2E2E2E2E2E2E2E2E2E2E2E2E2E2E2E2E2E2E2E2E2E2E2E2E2E2E2E2E2E2E2E2E2E2E2E2E2E2E2E2E2E2E2E2E2E2E2E2E2E2E2E2E2E2E2E2E2E2E2E2E2E2E2E2E2E2E2E2E2E2E2E2E2E2E2E2E2
310
E2E2E2E2E2E2E2E2E2E2E2E2E2E2E2E2E2E2E2E2E2E2E2E2E2E2E2E2E2E2E2E2E2E2E2E2E2E2E2E2E2E2E2E2E2E2E2E2E2E2E2E2E2E2E2E2E2E2E2E2E2E2E2E2E2E2E2E2E2E2E2E2E2E2E2E2E2E2E2E2E2E2E2E2E2E2E2E2E2E2E2E2E2E2E2E2E2E2E2E2E2E2E2E2E2E2E2E2E2E2E2E2E2E2E2E2E2E2E2E2E2E2E2E2E2E2E2
310
E2E2E2E2E2E2E2E2E2E2E2E2E2E2E2E2E2E2E2E2E2E2E2E2E2E2E2E2E2E2E2E2E2E2E2E2E2E2E2E2E2E2E2E2E2E2E2DCDCDCDCDCDCDCDCDCDCDCDCDCDCDCDCDCDCE2E2E2E2E2E2E2E2E2E2E2E2E2E2E2E2E2E2E2E2E2E2E2E2E2E2E2E2E2E2E2E2E2E2E2E2E2E2E2E2E2E2E2E2E2E2E2E2E2E2E2E2E2E2E2E2E2E2E2E2E2E2
310
E2E2E2E2E2E2E2E2E2E2E2E2E2E2E2E2E2E2E2E2E2E2E2E2E2E2E2E2E2E2E2E2E2E2E2E2E2E2E2E2E2E2E2E2E2E2E2E2E2E2E2E2E2E2E2E2E2E2E2E2E2E2E2E2E2E2E2E2E2E2E2E2E2E2E2E2E2E2E2E2E2E2E2E2E2E2E2E2E2E2E2E2E2E2E2E2E2E2E2E2E2E2E2E2E2E2E2E2E2E2E2E2E2E2E2E2E2E2E2E2E2E2E2E2E2E2E2
310
E2E2E2E2E2E2E2E2E2E2E2E2E2E2E2E2E2E2E2E2E2E2E2E2E2E2E2E2E2E2E2E2E2E2E2E2E2E2E2E2E2E2E2E2E2E2E2E2E2DCDCDCDCDCDCDCDCDCDCDCDCDCDCDCDCDCDCE2E2E2E2E2E2E2E2E2E2E2E2E2E2E2E2E2E2E2E2E2E2E2E2E2E2E2E2E2E2E2E2E2E2E2E2E2E2E2E2E2E2E2E2E2E2E2E2E2E2E2E2E2E2E2E2E2E2E2E2
310
E2E2E2E2E2E2E2E2E2E2E2E2E2E2E2E2E2E2E2E2E2E2E2E2E2E2E2E2E2E2E2E2E2E2E2E2E2E2E2E2E2E2E2E2E2E2E2E2E2E2E2E2E2E2E2E2E2E2E2E2E2E2E2E2E2E2E2E2E2E2E2E2E2E2E2E2E2E2E2E2E2E2E2E2E2E2E2E2E2E2E2E2E2E2E2E2E2E2E2E2E2E2E2E2E2E2E2E2E2E2E2E2E2E2E2E2E2E2E2E2E2E2E2E2E2E2E2
310
E2E2E2E2E2E2E2E2E2E2E2E2E2E2E2E2E2E2E2E2E2E2E2E2E2E2E2E2E2E2E2E2E2E2E2E2E2E2E2E2E2E2E2E2E2E2E2E2E2E2E2E2E2E2E2E2E2E2E2E2E2E2E2E2E2E2E2E2E2E2E2E2E2E2E2E2E2E2E2E2E2E2E2E2E2E2E2E2E2E2E2E2E2E2E2E2E2E2E2E2E2E2E2E2E2E2E2E2E2E2E2E2E2E2E2E2E2E2E2E2E2E2E2E2E2E2E2
310
E2E2E2E2E2E2E2E2E2E2E2E2E2E2E2E2E2E2E2E2E2E2E2E2E2E2E2E2E2E2E2E2E2E2E2E2E2E2E2E2E2E2E2E2E2E2E2E2E2E2E2E2E2E2E2E2E2E2E2E2E2E2E2E2E2E2E2E2E2E2E2E2E2E2E2E2E2E2E2E2E2E2E2E2E2E2E2E2E2E2E2E2E2E2E2E2E2E2E2E2E2E2E2E2E2E2E2E2E2E2E2E2E2E2E2E2E2E2E2E2E2E2E2E2E2E2E2
310
E2E2E2E2E2E2E2E2E2E2E2E2E2E2E2E2E2E2E2E2E2E2E2E2E2E2E2E2E2E2E2E2E2E2E2E2E2E2E2E2E2E2E2E2E2E2E2E2E2E2E2E2E2E2E2E2E2E2E2E2E2E2E2E2E2E2E2E2E2E2E2E2E2E2E2E2E2E2E2E2E2E2E2E2E2E2E2E2E2E2E2E2E2E2E2E2E2E2E2E2E2E2E2E2E2E2E2E2E2E2E2E2E2E2E2E2E2E2E2E2E2E2E2E2E2E2E2
310
E2E2E2E2E2E2E2E2E2E2E2E2E2E2E2E2E2E2E2E2E2E2E2E2E2E2E2E2E2E2E2E2E2E2E2E2E2E2E2E2E2E2E2E2E2E2E2E2E2E2E2E2E2E2E2E2E2E2E2E2E2E2E2E2E2E2E2E2E2E2E2E2E2E2E2E2E2E2E2E2E2E2E2E2E2E2E2E2E2E2E2E2E2E2E2E2E2E2E2E2E2E2E2E2E2E2E2E2E2E2E2E2E2E2E2E2E2E2E2E2E2E2E2E2E2E2E2
310
E2E2E2E2E2E2E2E2E2E2E2E2E2E2E2E2E2E2E2E2E2E2E2E2E2E2E2E2E2E2E2E2E2E2E2E2E2E2E2E2E2E2E2E2E2E2E2E2E2E2E2E2E2E2E2E2E2E2E2E2E2E2E2E2E2E2E2E2E2E2E2E2E2E2E2E2E2E2E2E2E2E2E2E2E2E2E2E2E2E2E2E2E2E2E2E2E2E2E2E2E2E2E2E2E2E2E2E2E2E2E2E2E2E2E2E2E2E2E2E2E2E2E2E2E2E2E2
310
E2E2E2E2E2E2E2E2E2E2E2E2E2E2E2E2E2E2E2E2E2E2E2E2E2E2E2E2E2E2E2E2E2E2E2E2E2E2E2E2E2E2E2E2E2E2E2E2E2E2E2E2E2E2E2E2E2E2E2E2E2E2E2E2E2E2E2E2E2E2E2E2E2E2E2E2E2E2E2E2E2E2E2E2E2E2E2E2E2E2E2E2E2E2E2E2E2E2E2E2E2E2E2E2E2E2E2E2E2E2E2E2E2E2E2E2E2E2E2E2E2E2E2E2E2E2E2
310
E2E2E2E2E2E2E2E2E2E2E2E2E2E2E2E2E2E2E2E2E2E2E2E2E2E2E2E2E2E2E2E2E2E2E2E2E2E2E2E2E2E2E2E2E2E2E2E2E2E2E2E2E2E2E2E2E2E2E2E2E2E2E2E2E2E2E2E2E2E2E2E2E2E2E2E2E2E2E2E2E2E2E2E2E2E2E2E2E2E2E2E2E2E2E2E2E2E2E2E2E2E2E2E2E2E2E2E2E2E2E2E2E2E2E2E2E2E2E2E2E2E2E2E2E2E2E2
310
E2E2E2E2E2E2E2E2E2E2E2E2E2E2E2E2E2E2E2E2E2E2E2E2E2E2E2E2E2E2E2E2E2E2E2E2E2E2E2E2E2E2E2E2E2E2E2E2E2E2E2E2E2E2E2E2E2E2E2E2E2E2E2E2E2E2E2E2E2E2E2E2E2E2E2E2E2E2E2E2E2E2E2E2E2E2E2E2E2E2E2E2E2E2E2E2E2E2E2E2E2E2E2E2E2E2E2E2E2E2E2E2E2E2E2E2E2E2E2E2E2E2E2E2E2E2E2
310
E2E2E2E2E2E2E2E2E2E2E2E2E2E2E2E2E2E2E2E2E2E2E2E2E2E2E2E2E2E2E2E2E2E2E2E2E2E2E2E2E2E2E2E2E2E2E2E2E2E2E2E2E2E2E2E2E2E2E2E2E2E2E2E2E2E2E2E2E2E2E2E2E2E2E2E2E2E2E2E2E2E2E2E2E2E2E2E2E2E2E2E2E2E2E2E2E2E2E2E2E2E2E2E2E2E2E2E2E2E2E2E2E2E2E2E2E2E2E2E2E2E2E2E2E2E2E2
310
E2E2E2E2E2E2E2E2E2E2E2E2E2E2E2E2E2E2E2E2E2E2E2E2E2E2E2E2E2E2E2E2E2E2E2E2E2E2E2E2E2E2E2E2E2E2E2E2E2E2E2E2E2E2E2E2E2E2E2E2E2E2E2E2E2E2E2E2E2E2E2E2E2E2E2E2E2E2E2E2E2E2E2E2E2E2E2E2E2E2E2E2E2E2E2E2E2E2E2E2E2E2E2E2E2E2E2E2E2E2E2E2E2E2E2E2E2E2E2E2E2E2E2E2E2E2E2
310
E2E2E2E2E2E2E2E2E2E2E2E2E2E2E2E2E2E2E2E2E2E2E2E2E2E2E2E2E2E2E2E2E2E2E2E2E2E2E2E2E2E2E2E2E2E2E2E2E2E2E2E2E2E2E2E2E2E2E2E2E2E2E2E2E2E2E2E2E2E2E2E2E2E2E2E2E2E2E2E2E2E2E2E2E2E2E2E2E2E2E2E2E2E2E2E2E2E2E2E2E2E2E2E2E2E2E2E2E2E2E2E2E2E2E2E2E2E2E2E2E2E2E2E2E2E2E2
310
E2E2E2E2E2E2E2E2E2E2E2E2E2E2E2E2E2E2E2E2E2E2E2E2E2E2E2E2E2E2E2E2E2E2E2E2E2E2E2E2E2E2E2E2E2E2E2E2E2E2E2E2E2E2E2E2E2E2E2E2E2E2E2E2E2E2E2E2E2E2E2E2E2E2E2E2E2E2E2E2E2E2E2E2E2E2E2E2E2E2E2E2E2E2E2E2E2E2E2E2E2E2E2E2E2E2E2E2E2E2E2E2E2E2E2E2E2E2E2E2E2E2E2E2E2E2E2
310
E2E2E2E2E2E2E2E2E2E2E2E2E2E2E2E2E2E2E2E2E2E2E2E2E2E2E2E2E2E2E2E2E2E2E2E2E2E2E2E2E2E2E2E2E2E2E2E2E2E2E2E2E2E2E2E2E2E2E2E2E2E2E2E2E2E2E2E2E2E2E2E2E2E2E2E2E2E2E2E2E2E2E2E2E2E2E2E2E2E2E2E2E2E2E2E2E2E2E2E2E2E2E2E2E2E2E2E2E2E2E2E2E2E2E2E2E2E2E2E2E2E2E2E2E2E2E2
310
E2E2E2E2E2E2E2E2E2E2E2E2E2E2E2E2E2E2E2E2E2E2E2E2E2E2E2E2E2E2E2E2E2E2E2E2E2E2E2E2E2E2E2E2E2E2E2E2E2E2E2E2E2E2E2E2E2E2E2E2E2E2E2E2E2E2E2E2E2E2E2E2E2E2E2E2E2E2E2E2E2E2E2E2E2E2E2E2E2E2E2E2E2E2E2E2E2E2E2E2E2E2E2E2E2E2E2E2E2E2E2E2E2E2E2E2E2E2E2E2E2E2E2E2E2E2E2
310
E2E2E2E2E2E2E2E2E2E2E2E2E2E2E2E2E2E2E2E2E2E2E2E2E2E2E2E2E2E2E2E2E2E2E2E2E2E2E2E2E2E2E2E2E2E2E2E2E2E2E2E2E2E2E2E2E2E2E2E2E2E2E2E2E2E2E2E2E2E2E2E2E2E2E2E2E2E2E2E2E2E2E2E2E2E2E2E2E2E2E2E2E2E2E2E2E2E2E2E2E2E2E2E2E2E2E2E2E2E2E2E2E2E2E2E2E2E2E2E2E2E2E2E2E2E2E2
310
E2E2E2E2E2E2E2E2E2E2E2E2E2E2E2E2E2E2E2E2E2E2E2E2E2E2E2E2E2E2E2E2E2E2E2E2E2E2E2E2E2E2E2E2E2E2E2E2E2E2E2E2E2E2E2E2E2E2E2E2E2E2E2E2E2E2E2E2E2E2E2E2E2E2E2E2E2E2E2E2E2E2E2E2E2E2E2E2E2E2E2E2E2E2E2E2E2E2E2E2E2E2E2E2E2E2E2E2E2E2E2E2E2E2E2E2E2E2E2E2E2E2E2E2E2E2E2
310
E2E2E2E2E2E2E2E2E2E2E2E2E2E2E2E2E2E2E2E2E2E2E2E2E2E2E2E2E2E2E2E2E2E2E2E2E2E2E2E2E2E2E2E2E2E2E2E2E2E2E2E2E2E2E2E2E2E2E2E2E2E2E2E2E2E2E2E2E2E2E2E2E2E2E2E2E2E2E2E2E2E2E2E2E2E2E2E2E2E2E2E2E2E2E2E2E2E2E2E2E2E2E2E2E2E2E2E2E2E2E2E2E2E2E2E2E2E2E2E2E2E2E2E2E2E2E2
310
E2E2E2E2E2E2E2E2E2E2E2E2E2E2E2E2E2E2E2E2E2E2E2E2E2E2E2E2E2E2E2E2E2E2E2E2E2E2E2E2E2E2E2E2E2E2E2E2E2E2E2E2E2E2E2E2E2E2E2E2E2E2E2E2E2E2E2E2E2E2E2E2E2E2E2E2E2E2E2E2E2E2E2E2E2E2E2E2E2E2E2E2E2E2E2E2E2E2E2E2E2E2E2E2E2E2E2E2E2E2E2E2E2E2E2E2E2E2E2E2E2E2E2E2E2E2E2
310
E2E2E2E2E2E2E2E2E2E2E2E2E2E2E2E2E2E2E2E2E2E2E2E2E2E2E2E2E2E2E2E2E2E2E2E2E2E2E2E2E2E2E2E2E2E2E2E2E2E2E2E2E2E2E2E2E2E2E2E2E2E2E2E2E2E2E2E2E2E2E2E2E2E2E2E2E2E2E2E2E2E2E2E2E2E2E2E2E2E2E2E2E2E2E2E2E2E2E2E2E2E2E2E2E2E2E2E2E2E2E2E2E2E2E2E2E2E2E2E2E2E2E2E2E2E2E2
310
E2E2E2E2E2E2E2E2E2E2E2E2E2E2E2E2E2E2E2E2E2E2E2E2E2E2E2E2E2E2E2E2E2E2E2E2E2E2E2E2E2E2E2E2E2E2E2E2E2E2E2E2E2E2E2E2E2E2E2E2E2E2E2E2E2E2E2E2E2E2E2E2E2E2E2E2E2E2E2E2E2E2E2E2E2E2E2E2E2E2E2E2E2E2E2E2E2E2E2E2E2E2E2E2E2E2E2E2E2E2E2E2E2E2E2E2E2E2E2E2E2E2E2E2E2E2E2
310
E2E2E2E2E2E2E2E2E2E2E2E2E2E2E2E2E2E2E2E2E2E2E2E2E2E2E2E2E2E2E2E2E2E2E2E2E2E2E2E2E2E2E2E2E2E2E2E2E2E2E2E2E2E2E2E2E2E2E2E2E2E2E2E2E2E2E2E2E2E2E2E2E2E2E2E2E2E2E2E2E2E2E2E2E2E2E2E2E2E2E2E2E2E2E2E2E2E2E2E2E2E2E2E2E2E2E2E2E2E2E2E2E2E2E2E2E2E2E2E2E2E2E2E2E2E2E2
310
E2E2E2E2E2E2E2E2E2E2E2E2E2E2E2E2E2E2E2E2E2E2E2E2E2E2E2E2E2E2E2E2E2E2E2E2E2E2E2E2E2E2E2E2E2E2E2E2E2E2E2E2E2E2E2E2E2E2E2E2E2E2E2E2E2E2E2E2E2E2E2E2E2E2E2E2E2E2E2E2E2E2E2E2E2E2E2E2E2E2E2E2E2E2E2E2E2E2E2E2E2E2E2E2E2E2E2E2E2E2E2E2E2E2E2E2E2E2E2E2E2E2E2E2E2E2E2
310
E2E2E2E2E2E2E2E2E2E2E2E2E2E2E2E2E2E2E2E2E2E2E2E2E2E2E2E2E2E2E2E2E2E2E2E2E2E2E2E2E2E2E2E2E2E2E2E2E2E2E2E2E2E2E2E2E2E2E2E2E2E2E2E2E2E2E2E2E2E2E2E2E2E2E2E2E2E2E2E2E2E2E2E2E2E2E2E2E2E2E2E2E2E2E2E2E2E2E2E2E2E2E2E2E2E2E2E2E2E2E2E2E2E2E2E2E2E2E2E2E2E2E2E2E2E2E2
310
E2E2E2E2E2E2E2E2E2E2E2E2E2E2E2E2E2E2E2E2E2E2E2E2E2E2E2E2E2E2E2E2E2E2E2E2E2E2E2E2E2E2E2E2E2E2E2E2E2E2E2E2E2E2E2E2E2E2E2E2E2E2E2E2E2E2E2E2E2E2E2E2E2E2E2E2E2E2E2E2E2E2E2E2E2E2E2E2E2E2E2E2E2E2E2E2E2E2E2E2E2E2E2E2E2E2E2E2E2E2E2E2E2E2E2E2E2E2E2E2E2E2E2E2E2E2E2
310
E2E2E2E2E2E2E2E2E2E2E2E2E2E2E2E2E2E2E2E2E2E2E2E2E2E2E2E2E2E2E2E2E2E2E2E2E2E2E2E2E2E2E2E2E2E2E2E2E2E2E2E2E2E2E2E2E2E2E2E2E2E2E2E2E2E2E2E2E2E2E2E2E2E2E2E2E2E2E2E2E2E2E2E2E2E2E2E2E2E2E2E2E2E2E2E2E2E2E2E2E2E2E2E2E2E2E2E2E2E2E2E2E2E2E2E2E2E2E2E2E2E2E2E2E2E2E2
310
E2E2E2E2E2E2E2E2E2E2E2E2E2E2E2E2E2E2E2E2E2E2E2E2E2E2E2E2E2E2E2E2E2E2E2E2E2E2E2E2E2E2E2E2E2E2E2E2E2E2E2E2E2E2E2E2E2E2E2E2E2E2E2E2E2E2E2E2E2E2E2E2E2E2E2E2E2E2E2E2E2E2E2E2E2E2E2E2E2E2E2E2E2E2E2E2E2E2E2E2E2E2E2E2E2E2E2E2E2E2E2E2E2E2E2E2E2E2E2E2E2E2E2E2E2E2E2
310
E2E2E2E2E2E2E2E2E2E2E2E2E2E2E2E2E2E2E2E2E2E2E2E2E2E2E2E2E2E2E2E2E2E2E2E2E2E2E2E2E2E2E2E2E2E2E2E2E2E2E2E2E2E2E2E2E2E2E2E2E2E2E2E2E2E2E2E2E2E2E2E2E2E2E2E2E2E2E2E2E2E2E2E2E2E2E2E2E2E2E2E2E2E2E2E2E2E2E2E2E2E2E2E2E2E2E2E2E2E2E2E2E2E2E2E2E2E2E2E2E2E2E2E2E2E2E2
310
E2E2E2E2E2E2E2E2E2E2E2E2E2E2E2E2E2E2E2E2E2E2E2E2E2E2E2E2E2E2E2E2E2E2E2E2E2E2E2E2E2E2E2E2E2E2E2E2E2E2E2E2E2E2E2E2E2E2E2E2E2E2E2E2E2E2E2E2E2E2E2E2E2E2E2E2E2E2E2E2E2E2E2E2E2E2E2E2E2E2E2E2E2E2E2E2E2E2E2E2E2E2E2E2E2E2E2E2E2E2E2E2E2E2E2E2E2E2E2E2E2E2E2E2E2E2E2
310
E2E2E2E2E2E2E2E2E2E2E2E2E2E2E2E2E2E2E2E2E2E2E2E2E2E2E2E2E2E2E2E2E2E2E2E2E2E2E2E2E2E2E2E2E2E2E2E2E2E2E2E2E2E2E2E2E2E2E2E2E2E2E2E2E2E2E2E2E2E2E2E2E2E2E2E2E2E2E2E2E2E2E2E2E2E2E2E2E2E2E2E2E2E2E2E2E2E2E2E2E2E2E2E2E2E2E2E2E2E2E2E2E2E2E2E2E2E2E2E2E2E2E2E2E2E2E2
310
E2E2E2E2E2E2E2E2E2E2E2E2E2E2E2E2E2E2E2E2E2E2E2E2E2E2E2E2E2E2E2E2E2E2E2E2E2E2E2E2E2E2E2E2E2E2E2E2E2E2E2E2E2E2E2E2E2E2E2E2E2E2E2E2E2E2E2E2E2E2E2E2E2E2E2E2E2E2E2E2E2E2E2E2E2E2E2E2E2E2E2E2E2E2E2E2E2E2E2E2E2E2E2E2E2E2E2E2E2E2E2E2E2E2E2E2E2E2E2E2E2E2E2E2E2E2E2
310
E2E2E2E2E2E2E2E2E2E2E2E2E2E2E2E2E2E2E2E2E2E2E2E2E2E2E2E2E2E2E2E2E2E2E2E2E2E2E2E2E2E2E2E2E2E2E2E2E2E2E2E2E2E2E2E2E2E2E2E2E2E2E2E2E2E2E2E2E2E2E2E2E2E2E2E2E2E2E2E2E2E2E2E2E2E2E2E2E2E2E2E2E2E2E2E2E2E2E2E2E2E2E2E2E2E2E2E2E2E2E2E2E2E2E2E2E2E2E2E2E2E2E2E2E2E2E2
310
E2E2E2E2E2E2E2E2E2E2E2E2E2E2E2E2E2E2E2E2E2E2E2E2E2E2E2E2E2E2E2E2E2E2E2E2E2E2E2E2E2E2E2E2E2E2E2E2E2E2E2E2E2E2E2E2E2E2E2E2E2E2E2E2E2E2E2E2E2E2E2E2E2E2E2E2E2E2E2E2E2E2E2E2E2E2E2E2E2E2E2E2E2E2E2E2E2E2E2E2E2E2E2E2E2E2E2E2E2E2E2E2E2E2E2E2E2E2E2E2E2E2E2E2E2E2E2
310
E2E2E2E2E2E2E2E2E2E2E2E2E2E2E2E2E2E2E2E2E2E2E2E2E2E2E2E2E2E2E2E2E2E2E2E2E2E2E2E2E2E2E2E2E2E2E2E2E2E2E2E2E2E2E2E2E2E2E2E2E2E2E2E2E2E2E2E2E2E2E2E2E2E2E2E2E2E2E2E2E2E2E2E2E2E2E2E2E2E2E2E2E2E2E2E2E2E2E2E2E2E2E2E2E2E2E2E2E2E2E2E2E2E2E2E2E2E2E2E2E2E2E2E2E2E2E2
310
E2E2E2E2E2E2E2E2E2E2E2E2E2E2E2E2E2E2E2E2E2E2E2E2E2E2E2E2E2E2E2E2E2E2E2E2E2E2E2E2E2E2E2E2E2E2E2E2E2E2E2E2E2E2E2E2E2E2E2E2E2E2E2E2E2E2E2E2E2E2E2E2E2E2E2E2E2E2E2E2E2E2E2E2E2E2E2E2E2E2E2E2E2E2E2E2E2E2E2E2E2E2E2E2E2E2E2E2E2E2E2E2E2E2E2E2E2E2E2E2E2E2E2E2E2E2E2
310
E2E2E2E2E2E2E2E2E2E2E2E2E2E2E2E2E2E2E2E2E2E2E2E2E2E2E2E2E2E2E2E2E2E2E2E2E2E2E2E2E2E2E2E2E2E2E2E2E2E2E2E2E2E2E2E2E2E2E2E2E2E2E2E2E2E2E2E2E2E2E2E2E2E2E2E2E2E2E2E2E2E2E2E2E2E2E2E2E2E2E2E2E2E2E2E2E2E2E2E2E2E2E2E2E2E2E2E2E2E2E2E2E2E2E2E2E2E2E2E2E2E2E2E2E2E2E2
310
E2E2E2E2E2E2E2E2E2E2E2E2E2E2E2E2E2E2E2E2E2E2E2E2E2E2E2E2E2E2E2E2E2E2E2E2E2E2E2E2E2E2E2E2E2E2E2E2E2E2E2E2E2E2E2E2E2E2E2E2E2E2E2E2E2E2E2E2E2E2E2E2E2E2E2E2E2E2E2E2E2E2E2E2E2E2E2E2E2E2E2E2E2E2E2E2E2E2E2E2E2E2E2E2E2E2E2E2E2E2E2E2E2E2E2E2E2E2E2E2E2E2E2E2E2E2E2
310
E2E2E2E2E2E2E2E2E2E2E2E2E2E2E2E2E2E2E2E2E2E2E2E2E2E2E2E2E2E2E2E2E2E2E2E2E2E2E2E2E2E2E2E2E2E2E2E2E2E2E2E2E2E2E2E2E2E2E2E2E2E2E2E2E2E2E2E2E2E2E2E2E2E2E2E2E2E2E2E2E2E2E2E2E2E2E2E2E2E2E2E2E2E2E2E2E2E2E2E2E2E2E2E2E2E2E2E2E2E2E2E2E2E2E2E2E2E2E2E2E2E2E2E2E2E2E2
310
E2E2E2E2E2E2E2E2E2E2E2E2E2E2E2E2E2E2E2E2E2E2E2E2E2E2E2E2E2E2E2E2E2E2E2E2E2E2E2E2E2E2E2E2E2E2E2E2E2E2E2E2E2E2E2E2E2E2E2E2E2E2E2E2E2E2E2E2E2E2E2E2E2E2E2E2E2E2E2E2E2E2E2E2E2E2E2E2E2E2E2E2E2E2E2E2E2E2E2E2E2E2E2E2E2E2E2E2E2E2E2E2E2E2E2E2E2E2E2E2E2E2E2E2E2E2E2
310
E2E2E2E2E2E2E2E2E2E2E2E2E2E2E2E2E2E2E2E2E2E2E2E2E2E2E2E2E2E2E2E2E2E2E2E2E2E2E2E2E2E2E2E2E2E2E2E2E2E2E2E2E2E2E2E2E2E2E2E2E2E2E2E2E2E2E2E2E2E2E2E2E2E2E2E2E2E2E2E2E2E2E2E2E2E2E2E2E2E2E2E2E2E2E2E2E2E2E2E2E2E2E2E2E2E2E2E2E2E2E2E2E2E2E2E2E2E2E2E2E2E2E2E2E2E2E2
310
E2E2E2E2E2E2E2E2E2E2E2E2E2E2E2E2E2E2E2E2E2E2E2E2E2E2E2E2E2E2E2E2E2E2E2E2E2E2E2E2E2E2E2E2E2E2E2E2E2E2E2E2E2E2E2E2E2E2E2E2E2E2E2E2E2E2E2E2E2E2E2E2E2E2E2E2E2E2E2E2E2E2E2E2E2E2E2E2E2E2E2E2E2E2E2E2E2E2E2E2E2E2E2E2E2E2E2E2E2E2E2E2E2E2E2E2E2E2E2E2E2E2E2E2E2E2E2
310
E2E2E2E2E2E2E2E2E2E2E2E2E2E2E2E2E2E2E2E2E2E2E2E2E2E2E2E2E2E2E2E2E2E2E2E2E2E2E2E2E2E2E2E2E2E2E2E2E2E2E2E2E2E2E2E2E2E2E2E2E2E2E2E2E2E2E2E2E2E2E2E2E2E2E2E2E2E2E2E2E2E2E2E2E2E2E2E2E2E2E2E2E2E2E2E2E2E2E2E2E2E2E2E2E2E2E2E2E2E2E2E2E2E2E2E2E2E2E2E2E2E2E2E2E2E2E2
310
E2E2E2E2E2E2E2E2E2E2E2E2E2E2E2E2E2E2E2E2E2E2E2E2E2E2E2E2E2E2E2E2E2E2E2E2E2E2E2E2E2E2E2E2E2E2E2E2E2E2E2E2E2E2E2E2E2E2E2E2E2E2E2E2E2E2E2E2E2E2E2E2E2E2E2E2E2E2E2E2E2E2E2E2E2E2E2E2E2E2E2E2E2E2E2E2E2E2E2E2E2E2E2E2E2E2E2E2E2E2E2E2E2E2E2E2E2E2E2E2E2E2E2E2E2E2E2
310
E2E2E2E2E2E2E2E2E2E2E2E2E2E2E2E2E2E2E2E2E2E2E2E2E2E2E2E2E2E2E2E2E2E2E2E2E2E2E2E2E2E2E2E2E2E2E2E2E2E2E2E2E2E2E2E2E2E2E2E2E2E2E2E2E2E2E2E2E2E2E2E2E2E2E2E2E2E2E2E2E2E2E2E2E2E2E2E2E2E2E2E2E2E2E2E2E2E2E2E2E2E2E2E2E2E2E2E2E2E2E2E2E2E2E2E2E2E2E2E2E2E2E2E2E2E2E2
310
E2E2E2E2E2E2E2E2E2E2E2E2E2E2E2E2E2E2E2E2E2E2E2E2E2E2E2E2E2E2E2E2E2E2E2E2E2E2E2E2E2E2E2E2E2E2E2E2E2E2E2E2E2E2E2E2E2E2E2E2E2E2E2E2E2E2E2E2E2E2E2E2E2E2E2E2E2E2E2E2E2E2E2E2E2E2E2E2E2E2E2E2E2E2E2E2E2E2E2E2E2E2E2E2E2E2E2E2E2E2E2E2E2E2E2E2E2E2E2E2E2E2E2E2E2E2E2
310
E2E2E2E2E2E2E2E2E2E2E2E2E2E2E2E2E2E2E2E2E2E2E2E2E2E2E2E2E2E2E2E2E2E2E2E2E2E2E2E2E2E2E2E2E2E2E2E2E2E2E2E2E2E2E2E2E2E2E2E2E2E2E2E2E2E2E2E2E2E2E2E2E2E2E2E2E2E2E2E2E2E2E2E2E2E2E2E2E2E2E2E2E2E2E2E2E2E2E2E2E2E2E2E2E2E2E2E2E2E2E2E2E2E2E2E2E2E2E2E2E2E2E2E2E2E2E2
310
E2E2E2E2E2E2E2E2E2E2E2E2E2E2E2E2E2E2E2E2E2E2E2E2E2E2E2E2E2E2E2E2E2E2E2E2E2E2E2E2E2E2E2E2E2E2E2E2E2E2E2E2E2E2E2E2E2E2E2E2E2E2E2E2E2E2E2E2E2E2E2E2E2E2E2E2E2E2E2E2E2E2E2E2E2E2E2E2E2E2E2E2E2E2E2E2E2E2E2E2E2E2E2E2E2E2E2E2E2E2E2E2E2E2E2E2E2E2E2E2E2E2E2E2E2E2E2
310
E2E2E2E2E2E2E2E2E2E2E2E2E2E2E2E2E2E2E2E2E2E2E2E2E2E2E2E2E2E2E2E2E2E2E2E2E2E2E2E2E2E2E2E2E2E2E2E2E2E2E2E2E2E2E2E2E2E2E2E2E2E2E2E2E2E2E2E2E2E2E2E2E2E2E2E2E2E2E2E2E2E2E2E2E2E2E2E2E2E2E2E2E2E2E2E2E2E2E2E2E2E2E2E2E2E2E2E2E2E2E2E2E2E2E2E2E2E2E2E2E2E2E2E2E2E2E2
310
E2E2E2E2E2E2E2E2E2E2E2E2E2E2E2E2E2E2E2E2E2E2E2E2E2E2E2E2E2E2E2E2E2E2E2E2E2E2E2E2E2E2E2E2E2E2E2E2E2E2E2E2E2E2E2E2E2E2E2E2E2E2E2E2E2E2E2E2E2E2E2E2E2E2E2E2E2E2E2E2E2E2E2E2E2E2E2E2E2E2E2E2E2E2E2E2E2E2E2E2E2E2E2E2E2E2E2E2E2E2E2E2E2E2E2E2E2E2E2E2E2E2E2E2E2E2E2
310
E2E2E2E2E2E2E2E2E2E2E2E2E2E2E2E2E2E2E2E2E2E2E2E2E2E2E2E2E2E2E2E2E2E2E2E2E2E2E2E2E2E2E2E2E2E2E2E2E2E2E2E2E2E2E2E2E2E2E2E2E2E2E2E2E2E2E2E2E2E2E2E2E2E2E2E2E2E2E2E2E2E2E2E2E2E2E2E2E2E2E2E2E2E2E2E2E2E2E2E2E2E2E2E2E2E2E2E2E2E2E2E2E2E2E2E2E2E2E2E2E2E2E2E2E2E2E2
310
E2E2E2E2E2E2E2E2E2E2E2E2E2E2E2E2E2E2E2E2E2E2E2E2E2E2E2E2E2E2E2E2E2E2E2E2E2E2E2E2E2E2E2E2E2E2E2E2E2E2E2E2E2E2E2E2E2E2E2E2E2E2E2E2E2E2E2E2E2E2E2E2E2E2E2E2E2E2E2E2E2E2E2E2E2E2E2E2E2E2E2E2E2E2E2E2E2E2E2E2E2E2E2E2E2E2E2E2E2E2E2E2E2E2E2E2E2E2E2E2E2E2E2E2E2E2E2
310
E2E2E2E2E2E2E2E2E2E2E2E2E2E2E2E2E2E2E2E2E2E2E2E2E2E2E2E2E2E2E2E2E2E2E2E2E2E2E2E2E2E2E2E2E2E2E2E2E2E2E2E2E2E2E2E2E2E2E2E2E2E2E2E2E2E2E2E2E2E2E2E2E2E2E2E2E2E2E2E2E2E2E2E2E2E2E2E2E2E2E2E2E2E2E2E2E2E2E2E2E2E2E2E2E2E2E2E2E2E2E2E2E2E2E2E2E2E2E2E2E2E2E2E2E2E2E2
310
E2E2E2E2E2E2E2E2E2E2E2E2E2E2E2E2E2E2E2E2E2E2E2E2E2E2E2E2E2E2E2E2E2E2E2E2E2E2E2E2E2E2E2E2E2E2E2E2E2E2E2E2E2E2E2E2E2E2E2E2E2E2E2E2E2E2E2E2E2E2E2E2E2E2E2E2E2E2E2E2E2E2E2E2E2E2E2E2E2E2E2E2E2E2E2E2E2E2E2E2E2E2E2E2E2E2E2E2E2E2E2E2E2E2E2E2E2E2E2E2E2E2E2E2E2E2E2
310
E2E2E2E2E2E2E2E2E2E2E2E2E2E2E2E2E2E2E2E2E2E2E2E2E2E2E2E2E2E2E2E2E2E2E2E2E2E2E2E2E2E2E2E2E2E2E2E2E2E2E2E2E2E2E2E2E2E2E2E2E2E2E2E2E2E2E2E2E2E2E2E2E2E2E2E2E2E2E2E2E2E2E2E2E2E2E2E2E2E2E2E2E2E2E2E2E2E2E2E2E2E2E2E2E2E2E2E2E2E2E2E2E2E2E2E2E2E2E2E2E2E2E2E2E2E2E2
310
E2E2E2E2E2E2E2E2E2E2E2E2E2E2E2E2E2E2E2E2E2E2E2E2E2E2E2E2E2E2E2E2E2E2E2E2E2E2E2E2E2E2E2E2E2E2E2E2E2E2E2E2E2E2E2E2E2E2E2E2E2E2E2E2E2E2E2E2E2E2E2E2E2E2E2E2E2E2E2E2E2E2E2E2E2E2E2E2E2E2E2E2E2E2E2E2E2E2E2E2E2E2E2E2E2E2E2E2E2E2E2E2E2E2E2E2E2E2E2E2E2E2E2E2E2E2E2
310
E2E2E2E2E2E2E2E2E2E2E2E2E2E2E2E2E2E2E2E2E2E2E2E2E2E2E2E2E2E2E2E2E2E2E2E2E2E2E2E2E2E2E2E2E2E2E2E2E2E2E2E2E2E2E2E2E2E2E2E2E2E2E2E2E2E2E2E2E2E2E2E2E2E2E2E2E2E2E2E2E2E2E2E2E2E2E2E2E2E2E2E2E2E2E2E2E2E2E2E2E2E2E2E2E2E2E2E2E2E2E2E2E2E2E2E2E2E2E2E2E2E2E2E2E2E2E2
310
E2E2E2E2E2E2E2E2E2E2E2E2E2E2E2E2E2E2E2E2E2E2E2E2E2E2E2E2E2E2E2E2E2E2E2E2E2E2E2E2E2E2E2E2E2E2E2E2E2E2E2E2E2E2E2E2E2E2E2E2E2E2E2E2E2E2E2E2E2E2E2E2E2E2E2E2E2E2E2E2E2E2E2E2E2E2E2E2E2E2E2E2E2E2E2E2E2E2E2E2E2E2E2E2E2E2E2E2E2E2E2E2E2E2E2E2E2E2E2E2E2E2E2E2E2E2E2
310
E2E2E2E2E2E2E2E2E2E2E2E2E2E2E2E2E2E2E2E2E2E2E2E2E2E2E2E2E2E2E2E2E2E2E2E2E2E2E2E2E2E2E2E2E2E2E2E2E2E2E2E2E2E2E2E2E2E2E2E2E2E2E2E2E2E2E2E2E2E2E2E2E2E2E2E2E2E2E2E2E2E2E2E2E2E2E2E2E2E2E2E2E2E2E2E2E2E2E2E2E2E2E2E2E2E2E2E2E2E2E2E2E2E2E2E2E2E2E2E2E2E2E2E2E2E2E2
310
E2E2E2E2E2E2E2E2E2E2E2E2E2E2E2E2E2E2E2E2E2E2E2E2E2E2E2E2E2E2E2E2E2E2E2E2E2E2E2E2E2E2E2E2E2E2E2E2E2E2E2E2E2E2E2E2E2E2E2E2E2E2E2E2E2E2E2E2E2E2E2E2E2E2E2E2E2E2E2E2E2E2E2E2E2E2E2E2E2E2E2E2E2E2E2E2E2E2E2E2E2E2E2E2E2E2E2E2E2E2E2E2E2E2E2E2E2E2E2E2E2E2E2E2E2E2E2
310
E2E2E2E2E2E2E2E2E2E2E2E2E2E2E2E2E2E2E2E2E2E2E2E2E2E2E2E2E2E2E2E2E2E2E2E2E2E2E2E2E2E2E2E2E2E2E2E2E2E2E2E2E2E2E2E2E2E2E2E2E2E2E2E2E2E2E2E2E2E2E2E2E2E2E2E2E2E2E2E2E2E2E2E2E2E2E2E2E2E2E2E2E2E2E2E2E2E2E2E2E2E2E2E2E2E2E2E2E2E2E2E2E2E2E2E2E2E2E2E2E2E2E2E2E2E2E2
310
E2E2E2E2E2E2E2E2E2E2E2E2E2E2E2E2E2E2E2E2E2E2E2E2E2E2E2E2E2E2E2E2E2E2E2E2E2E2E2E2E2E2E2E2E2E2E2E2E2E2E2E2E2E2E2E2E2E2E2E2E2E2E2E2E2E2E2E2E2E2E2E2E2E2E2E2E2E2E2E2E2E2E2E2E2E2E2E2E2E2E2E2E2E2E2E2E2E2E2E2E2E2E2E2E2E2E2E2E2E2E2E2E2E2E2E2E2E2E2E2E2E2E2E2E2E2E2
310
E2E2E2E2E2E2E2E2E2E2E2E2E2E2E2E2E2E2E2E2E2E2E2E2E2E2E2E2E2E2E2E2E2E2E2E2E2E2E2E2E2E2E2E2E2E2E2E2E2E2E2E2E2E2E2E2E2E2E2E2E2E2E2E2E2E2E2E2E2E2E2E2E2E2E2E2E2E2E2E2E2E2E2E2E2E2E2E2E2E2E2E2E2E2E2E2E2E2E2E2E2E2E2E2E2E2E2E2E2E2E2E2E2E2E2E2E2E2E2E2E2E2E2E2E2E2E2
310
E2E2E2E2E2E2E2E2E2E2E2E2E2E2E2E2E2E2E2E2E2E2E2E2E2E2E2E2E2E2E2E2E2E2E2E2E2E2E2E2E2E2E2E2E2E2E2E2E2E2E2E2E2E2E2E2E2E2E2E2E2E2E2E2E2E2E2E2E2E2E2E2E2E2E2E2E2E2E2E2E2E2E2E2E2E2E2E2E2E2E2E2E2E2E2E2E2E2E2E2E2E2E2E2E2E2E2E2E2E2E2E2E2E2E2E2E2E2E2E2E2E2E2E2E2E2E2
310
E2E2E2E2E2E2E2E2E2E2E2E2E2E2E2E2E2E2E2E2E2E2E2E2E2E2E2E2E2E2E2E2E2E2E2E2E2E2E2E2E2E2E2E2E2E2E2E2E2E2E2E2E2E2E2E2E2E2E2E2E2E2E2E2E2E2E2E2E2E2E2E2E2E2E2E2E2E2E2E2E2E2E2E2E2E2E2E2E2E2E2E2E2E2E2E2E2E2E2E2E2E2E2E2E2E2E2E2E2E2E2E2E2E2E2E2E2E2E2E2E2E2E2E2E2E2E2
310
E2E2E2E2E2E2E2E2E2E2E2E2E2E2E2E2E2E2E2E2E2E2E2E2E2E2E2E2E2E2E2E2E2E2E2E2E2E2E2E2E2E2E2E2E2E2E2E2E2E2E2E2E2E2E2E2E2E2E2E2E2E2E2E2E2E2E2E2E2E2E2E2E2E2E2E2E2E2E2E2E2E2E2E2E2E2E2E2E2E2E2E2E2E2E2E2E2E2E2E2E2E2E2E2E2E2E2E2E2E2E2E2E2E2E2E2E2E2E2E2E2E2E2E2E2E2E2
310
E2E2E2E2E2E2E2E2E2E2E2E2E2E2E2E2E2E2E2E2E2E2E2E2E2E2E2E2E2E2E2E2E2E2E2E2E2E2E2E2E2E2E2E2E2E2E2E2E2E2E2E2E2E2E2E2E2E2E2E2E2E2E2E2E2E2E2E2E2E2E2E2E2E2E2E2E2E2E2E2E2E2E2E2E2E2E2E2E2E2E2E2E2E2E2E2E2E2E2E2E2E2E2E2E2E2E2E2E2E2E2E2E2E2E2E2E2E2E2E2E2E2E2E2E2E2E2
310
E2E2E2E2E2E2E2E2E2E2E2E2E2E2E2E2E2E2E2E2E2E2E2E2E2E2E2E2E2E2E2E2E2E2E2E2E2E2E2E2E2E2E2E2E2E2E2E2E2E2E2E2E2E2E2E2E2E2E2E2E2E2E2E2E2E2E2E2E2E2E2E2E2E2E2E2E2E2E2E2E2E2E2E2E2E2E2E2E2E2E2E2E2E2E2E2E2E2E2E2E2E2E2E2E2E2E2E2E2E2E2E2E2E2E2E2E2E2E2E2E2E2E2E2E2E2E2
310
E2E2E2E2E2E2E2E2E2E2E2E2E2E2E2E2E2E2E2E2E2E2E2E2E2E2E2E2E2E2E2E2E2E2E2E2E2E2E2E2E2E2E2E2E2E2E2E2E2E2E2E2E2E2E2E2E2E2E2E2E2E2E2E2E2E2E2E2E2E2E2E2E2E2E2E2E2E2E2E2E2E2E2E2E2E2E2E2E2E2E2E2E2E2E2E2E2E2E2E2E2E2E2E2E2E2E2E2E2E2E2E2E2E2E2E2E2E2E2E2E2E2E2E2E2E2E2
310
E2E2E2E2E2E2E2E2E2E2E2E2E2E2E2E2E2E2E2E2E2E2E2E2E2E2E2E2E2E2E2E2E2E2E2E2E2E2E2E2E2E2E2E2E2E2E2E2E2E2E2E2E2E2E2E2E2E2E2E2E2E2E2E2E2E2E2E2E2E2E2E2E2E2E2E2E2E2E2E2E2E2E2E2E2E2E2E2E2E2E2E2E2E2E2E2E2E2E2E2E2E2E2E2E2E2E2E2E2E2E2E2E2E2E2E2E2E2E2E2E2E2E2E2E2E2E2
310
E2E2E2E2E2E2E2E2E2E2E2E2E2E2E2E2E2E2E2E2E2E2E2E2E2E2E2E2E2E2E2E2E2E2E2E2E2E2E2E2E2E2E2E2E2E2E2E2E2E2E2E2E2E2E2E2E2E2E2E2E2E2E2E2E2E2E2E2E2E2E2E2E2E2E2E2E2E2E2E2E2E2E2E2E2E2E2E2E2E2E2E2E2E2E2E2E2E2E2E2E2E2E2E2E2E2E2E2E2E2E2E2E2E2E2E2E2E2E2E2E2E2E2E2E2E2E2
310
E2E2E2E2E2E2E2E2E2E2E2E2E2E2E2E2E2E2E2E2E2E2E2E2E2E2E2E2E2E2E2E2E2E2E2E2E2E2E2E2E2E2E2E2E2E2E2E2E2E2E2E2E2E2E2E2E2E2E2E2E2E2E2E2E2E2E2E2E2E2E2E2E2E2E2E2E2E2E2E2E2E2E2E2E2E228E2E2E2E2E2E2E2E2E2E2E2E2E2E2E2E2E2E2E2E2E2E2E2E2E2E2E2E2E2E2E2E2E2E2E2E2E2E2E2E2
310
E2E2E2E2E2E2E2E2E2E2E2E2E2E2E2E2E2E2E2E2E2E2E2E2E2E2E2E2E2E2E2E2E2E2E2E2E2E2E2E2E2E2E2E2E2E2E2E2E2E2E2E2E2E2E2E2E2E2E2E2E2E2E2E2E2E2E2E2E2E2E2E2E2E2E2E2E2E2E2E2E2E2E2E2E2E2E2E2E2E2E2E2E2E2E2E2E2E2E2E2E2E2E2E2E2E2E2E2E2E2E2E2E2E2E2E2E2E2E2E2E2E2E2E2E2E2E2
310
E2E2E2E2E2E2E2E2E2F528282828E2E2E2E2E2E2E2E2E2E2E2E2E2E2E2E2E2E2E2E2E2E2E2E2E2E2E2E2E2E2F52828282828E2E2E2E2E2E2E2E2E2E2E2E2E2E2E2E2E2E2E2E2E2E2E2E2E2E2E2E2E2E2E2E2E2E2E2F528282828282828282828E2E2E2E2E2E2E2E2E2E2E2E2E2E2E2E2E2E2E2E2E2E2E2E2E2E2E2E2E2E2E2
310
E2E2E2E2E2E2E2E2E2E2E2E2E2E2E2E2E2E2E2E2E2E2E2E2E2E2E2E2E2E2E2E2E2E2E2E2E2E2E2E2E2E2E2E2E2E2E2E2E2E2E2E2E2E2E2E2E2E2E2E2E2E2E2E2E2E2E2E2E2E2E2E2E2E2E2E2E2E2E2E2E2E2E2E2E2E2E2E2E2E2E2E2E2E2E2E2E2E2E2E2E2E2E2E2E2E2E2E2E2E2E2E2E2E2E2E2E2E2E2E2E2E2E2E2E2E2E2
310
E2E2E2E2E2E2E2E2E2E2E2F5E2E2E228E2E2E2E2E2E2E2E2E2E2E2E2E2E2E2E2E2E2E2E2E2E2E2E2E2E2E2E2E2E2F5F5E2E2E228E2E2E2E2E2E2E2E2E2E2E2E2E2E2E2E2E2E2E2E2E2E2E2E2E2E2E2E2E2E2E2E2E2E2E2F5282828DC2828E228E228E2E2E2E2E2E2E2E2E2E2E2E2E2E2E2E2E2E2E2E2E2E2E2E2E2E2E2E2E2
310
E2E2E2E2E2E2E2E2E2E2E2E2E2E2E2E2E2E2E2E2E2E2E2E2E2E2E2E2E2E2E2E2E2E2E2E2E2E2E2E2E2E2E2E2E2E2E2E2E2E2E2E2E2E2E2E2E2E2E2E2E2E2E2E2E2E2E2E2E2E2E2E2E2E2E2E2E2E2E2E2E2E2E2E2E2E2E2E2E2E2E2E2E2E2E2E2E2E2E2E2E2E2E2E2E2E2E2E2E2E2E2E2E2E2E2E2E2E2E2E2E2E2E2E2E2E2E2
310
E2E2E2E2E2E2E2E2E2E2E2E2E228E2E2E228E2E2E2E2E2E2E2E2E2E2E2E2E2E2E2E2E2E2E2E2E2E2E2E2E2E2E2E2E2E2F5F5E2E2E228E2E2E2E2E2E2E2E2E2E2E2E2E2E2E2E2E2E2E2E2E2E2E2E2E2E2E2E2E2E2E2E2E2E2E2F5F5DC28DCDC28E228E228E2E2E2E2E2E2E2E2E2E2E2E2E2E2E2E2E2E2E2E2E2E2E2E2E2E2E2
310
E2E2E2E2E2E2E2E2E2E2E2E2E2E2E2E2E2E2E2E2E2E2E2E2E2E2E2E2E2E2E2E2E2E2E2E2E2E2E2E2E2E2E2E2E2E2E2E2E2E2E2E2E2E2E2E2E2E2E2E2E2E2E2E2E2E2E2E2E2E2E2E2E2E2E2E2E2E2E2E2E2E2E2E2E2E2E2E2E2E2E2E2E2E2E2E2E2E2E2E2E2E2E2E2E2E2E2E2E2E2E2E2E2E2E2E2E2E2E2E2E2E2E2E2E2E2E2
310
E2E2E2E2E2E2E2E2E2E2E2E2E2E228F5E2E2E228E2E2E2E2E2E2E2E2E2E2E2E2E2E2E2E2E2E2E2E2E2E2E2E2E2E2E2E2E2E2F5F5E2E2E228E2E2E2E2E2E2E2E2E2E2E2E2E2E2E2E2E2E2E2E2E2E2E2E2E2E2E2E2E2E2E2E2E2E2E2F5F5E228282828DC28E228E2E2E2E2E2E2E2E2E2E2E2E2E2E2E2E2E2E2E2E2E2E2E2E2E2
310
E2E2E2E2E2E2E2E2E2E2E2E2E2E2E2E2E2E2E2E2E2E2E2E2E2E2E2E2E2E2E2E2E2E2E2E2E2E2E2E2E2E2E2E2E2E2E2E2E2E2E2E2E2E2E2E2E2E2E2E2E2E2E2E2E2E2E2E2E2E2E2E2E2E2E2E2E2E2E2E2E2E2E2E2E2E2E2E2E2E2E2E2E2E2E2E2E2E2E2E2E2E2E2E2E2E2E2E2E2E2E2E2E2E2E2E2E2E2E2E2E2E2E2E2E2E2E2
310
E2E2E2E2E2E2E2E2E2E2E2E2E2E2E2E2E2F5E2E2E228E2E2E2E2E2E2E2E2E2E2E2E2E2E2E2E2E2E2E2E2E2E2E2E2E2E2E2E2E2E2F5F5E2E2E228E2E2E2E2E2E2E2E2E2E2E2E2E2E2E2E2E2E2E2E2E2E2E2E2E2E2E2E2E2E2E2E2E2E2E2F5282828282828E228E228E2E2E2E2E2E2E2E2E2E2E2E2E2E2E2E2E2E2E2E2E2E2E2
310
E2E2E2E2E2E2E2E2E2E2E2E2E2E2E2E2E2E2E2E2E2E2E2E2E2E2E2E2E2E2E2E2E2E2E2E2E2E2E2E2E2E2E2E2E2E2E2E2E2E2E2E2E2E2E2E2E2E2E2E2E2E2E2E2E2E2E2E2E2E2E2E2E2E2E2E2E2E2E2E2E2E2E2E2E2E2E2E2E2E2E2E2E2E2E2E2E2E2E2E2E2E2E2E2E2E2E2E2E2E2E2E2E2E2E2E2E2E2E2E2E2E2E2E2E2E2E2
310
E2E2E2E2E2E2E2E2E2E2E2E2E2E2E2E2E2E2E2F5E2E2E228E2E2E2E2E2E2E2E2E2E2E2E2E2E2E2E2E2E2E2E2E2E2E2E2E2E2E2E2E2E2F5F5E2E2E228E2E2E2E2E2E2E2E2E2E2E2E2E2E2E2E2E2E2E2E2E2E2E2E2E2E2E2E2E2E2E2E2E2E2E2F52828282828282828E228E2E2E2E2E2E2E2E2E2E2E2E2E2E2E2E2E2E2E2E2E2
310
E2E2E2E2E2E2E2E2E2E2E2E2E2E2E2E2E2E2E2E2E2E2E2E2E2E2E2E2E2E2E2E2E2E2E2E2E2E2E2E2E2E2E2E2E2E2E2E2E2E2E2E2E2E2E2E2E2E2E2E2E2E2E2E2E2E2E2E2E2E2E2E2E2E2E2E2E2E2E2E2E2E2E2E2E2E2E2E2E2E2E2E2E2E2E2E2E2E2E2E2E2E2E2E2E2E2E2E2E2E2E2E2E2E2E2E2E2E2E2E2E2E2E2E2E2E2E2
310
E2E2E2E2E2E2E2E2E2E2E2E2E2E2E2E2E2E2E2E2E2F5E2E2E228E2E2E2E2E2E2E2E2E2E2E2E2E2E2E2E2E2E2E2E2E2E2E2E2E2E2E2E2E2E2F5F5E2E2E228E2E2E2E2E2E2E2E2E2E2E2E2E2E2E2E2E2E2E2E2E2E2E2E2E2E2E2E2E2E2E2E2E2E2E2F5F5E2E2E2E2E2E228E228E2E2E2E2E2E2E2E2E2E2E2E2E2E2E2E2E2E2E2
310
E2E2E2E2E2E2E2E2E2E2E2E2E2E2E2E2E2E2E2E2E2E2E2E2E2E2E2E2E2E2E2E2E2E2E2E2E2E2E2E2E2E2E2E2E2E2E2E2E2E2E2E2E2E2E2E2E2E2E2E2E2E2E2E2E2E2E2E2E2E2E2E2E2E2E2E2E2E2E2E2E2E2E2E2E2E2E2E2E2E2E2E2E2E2E2E2E2E2E2E2E2E2E2E2E2E2E2E2E2E2E2E2E2E2E2E2E2E2E2E2E2E2E2E2E2E2E2
310
E2E2E2E2E2E2E2E2E2E2E2E2E2E2E2E2E2E2E2E2E2E2E2F5E2E2E228E2E2E2E2E2E2E2E2E2E2E2E2E2E2E2E2E2E2E2E2E2E2E2E2E2E2E2E2E2E2F5F5E2E2E228E2E2E2E2E2E2E2E2E2E2E2E2E2E2E2E2E2E2E2E2E2E2E2E2E2E2E2E2E2E2E2E2E2E2E2F528282828282828282828E2E2E2E2E2E2E2E2E2E2E2E2E2E2E2E2E2
310
E2E2E2E2E2E2E2E2E2E2E2E2E2E2E2E2E2E2E2E2E2E2E2E2E2E2E2E2E2E2E2E2E2E2E2E2E2E2E2E2E2E2E2E2E2E2E2E2E2E2E2E2E2E2E2E2E2E2E2E2E2E2E2E2E2E2E2E2E2E2E2E2E2E2E2E2E2E2E2E2E2E2E2E2E2E2E2E2E2E2E2E2E2E2E2E2E2E2E2E2E2E2E2E2E2E2E2E2E2E2E2E2E2E2E2E2E2E2E2E2E2E2E2E2E2E2E2
310
E2E2E2E2E2E2E2E2E2E2E2E2E2E2E2E2E2E2E2E2E2E2E2E2E2F5E2E2DC28E2E2E2E2E2E2E2E2E2E2E2E2E2E2E2E2E2E2E2E2E2E2E2E2E2E2E2E2E2E2F5F5E2E2DC28E2E2E2E2E2E2E2E2E2E2E2E2E2E2E2E2E2E2E2E2E2E2E2E2E2E2E2E2E2E2E2E2E2E2E2F5F5E2E2E2E2E2E2E2DC28E2E2E2E2E2E2E2E2E2E2E2E2E2E2E2
310
E2E2E2E2E2E2E2E2E2E2E2E2E2E2E2E2E2E2E2E2E2E2E2E2E2E2E2E2E2E2E2E2E2E2E2E2E2E2E2E2E2E2E2E2E2E2E2E2E2E2E2E2E2E2E2E2E2E2E2E2E2E2E2E2E2E2E2E2E2E2E2E2E2E2E2E2E2E2E2E2E2E2E2E2E2E2E2E2E2E2E2E2E2E2E2E2E2E2E2E2E2E2E2E2E2E2E2E2E2E2E2E2E2E2E2E2E2E2E2E2E2E2E2E2E2E2E2
310
E2E2E2E2E2E2E2E2E2E2E2E2E2E2E2E2E2E2E2E2DCDCDCDCE2E2E2F5E2E2DC28E2E2E2E2E2E2E2E2E2E2E2E2E2E2E2E2E2E2E2E2E2E2E2E2E2E2E2E2E2E2F5F5E2E2DC28E2E2E2E2E2E2E2E2E2E2E2E2E2E2E2E2E2E2E2E2E2E2E2E2E2E2E2E2E2E2E2E2E2E2E2F5F5E2E2E2E2E2E2E2E228E2E2E2E2E2E2E2E2E2E2E2E2E2
310
E2E2E2E2E2E2E2E2E2E2E2E2E2E2E2E2E2E2E2E2E2E2E2E2E2E2E2E2E2E2E2E2E2E2E2E2E2E2E2E2E2E2E2E2E2E2E2E2E2E2E2E2E2E2E2E2E2E2E2E2E2E2E2E2E2E2E2E2E2E2E2E2E2E2E2E2E2E2E2E2E2E2E2E2E2E2E2E2E2E2E2E2E2E2E2E2E2E2E2E2E2E2E2E2E2E2E2E2E2E2E2E2E2E2E2E2E2E2E2E2E2E2E2E2E2E2E2
310
E2E2E2E2E2E2E2E2E2E2E2E2E2E2E2E2E2E2E2E2E2E2DCDCDCDCDCE2E2F5E2E2E228E2E2E2E2E2E2E2E2E2E2E2E2E2E2E2E2E2E2E2E2E2E2E2E2E2E2E2E2E2E2F5F5E2E2E228E2E2E2E2E2E2E2E2E2E2E2E2E2E2E2E2E2E2E2E2E2E2E2E2E2E2E2E2E2E2E2E2E2E2E2F5F5E2E2E2E2E2E2E2E228E2E2E2E2E2E2E2E2E2E2E2
310
E2E2E2E2E2E2E2E2E2E2E2E2E2E2E2E2E2E2E2E2E2E2E2E2E2E2E2E2E2E2E2E2E2E2E2E2E2E2E2E2E2E2E2E2E2E2E2E2E2E2E2E2E2E2E2E2E2E2E2E2E2E2E2E2E2E2E2E2E2E2E2E2E2E2E2E2E2E2E2E2E2E2E2E2E2E2E2E2E2E2E2E2E2E2E2E2E2E2E2E2E2E2E2E2E2E2E2E2E2E2E2E2E2E2E2E2E2E2E2E2E2E2E2E2E2E2E2
310
E2E2E2E2E2E2E2E2E2E2E2E2E2E2E2E2E2E2E2E2E2E2E2E2E2E2E2E2E2E22828E2E2E228E2E2E2E2E2E2E2E2E2E2E2E2E2E2E2E2E2E2E2E2E2E2E2E2E2E2E2E2E2E2F5F5E2E2E228E2E2E2E2E2E2E2E2E2E2E2E2E2E2E2E2E2E2E2E2E2E2E2E2E2E2E2E2E2E2E2E2E2E2E2F5F5E2E2E2E2E2E2E2E228E2E2E2E2E2E2E2E2E2
310
E2E2E2E2E2E2E2E2E2E2E2E2E2E2E2E2E2E2E2E2E2E2E2E2E2E2E2E2E2E2E2E2E2E2E2E2E2E2E2E2E2E2E2E2E2E2E2E2E2E2E2E2E2E2E2E2E2E2E2E2E2E2E2E2E2E2E2E2E2E2E2E2E2E2E2E2E2E2E2E2E2E2E2E2E2E2E2E2E2E2E2E2E2E2E2E2E2E2E2E2E2E2E2E2E2E2E2E2E2E2E2E2E2E2E2E2E2E2E2E2E2E2E2E2E2E2E2
310
E2E2E2E2E2E2E2E2E2E2E2E2E2E2E2E2E2E2E2E2E2E2E2E2E2E2E2E2E2F5E2E22828E2E2E228E2E2E2E2E2E2E2E2E2E2E2E2E2E2E2E2E2E2E2E2E2E2E2E2E2E2F5E2E2E2F5F5E2E2E228E2E2E2E2E2E2E2E2E2E2E2E2E2E2E2E2E2E2E2E2E2E2E2E2E2E2E2E2E2E2E2E2E2E2E2F5F5E2E2E2E2E2E2E2E228E2E2E2E2E2E2E2
310
E2E2E2E2E2E2E2E2E2E2E2E2E2E2E2E2E2E2E2E2E2E2E2E2E2E2E2E2E2E2E2E2E2E2E2E2E2E2E2E2E2E2E2E2E2E2E2E2E2E2E2E2E2E2E2E2E2E2E2E2E2E2E2E2E2E2E2E2E2E2E2E2E2E2E2E2E2E2E2E2E2E2E2E2E2E2E2E2E2E2E2E2E2E2E2E2E2E2E2E2E2E2E2E2E2E2E2E2E2E2E2E2E2E2E2E2E2E2E2E2E2E2E2E2E2E2E2
310
E2E2E2E2E2E2E2E2E2E2E2E2E2E2E2E2E2E2E2E2E2E2E2E2E2E2E2E2E2E228F5E2E2282828DC2828E2E2E2E2E2E2E2E2E2E2E2E2E2E2E2E2E2E2E2E2E2E2E2E2E2E2F5F5E228282828DC2828E2E2E2E2E2E2E2E2E2E2E2E2E2E2E2E2E2E2E2E2E2E2E2E2E2E2E2E2E2E2E2F5F5E2E22828E2E2E2E2E2E2E2E228E2E2E2E2E2
310
E2E2E2E2E2E2E2E2E2E2E2E2E2E2E2E2E2E2E2E2E2E2E2E2E2E2E2E2E2E2E2E2E2E2E2E2E2E2E2E2E2E2E2E2E2E2E2E2E2E2E2E2E2E2E2E2E2E2E2E2E2E2E2E2E2E2E2E2E2E2E2E2E2E2E2E2E2E2E2E2E2E2E2E2E2E2E2E2E2E2E2E2E2E2E2E2E2E2E2E2E2E2E2E2E2E2E2E2E2E2E2E2E2E2E2E2E2E2E2E2E2E2E2E2E2E2E2
310
E2E2E2E2E2E2E2E2E2E2E2E2E2E2E2E2E2E2E2E2E2E2E2E2E2E2E2E2E2E2E2E2F5F5F5E228F528E2E228E2E2E2E2E2E2E2E2E2E2E2E2E2E2E2E2E2E2E2E2E2E2E2E2E2E2F5F5F528F5F528E2E228E2E2E2E2E2E2E2E2E2E2E2E2E2E2E2E2E2E2E2E2E2E2E2E2E2E2E2E2E2E2E2F5F5F5E2F5F5E2E2E2E2E2E2E2E228E2E2E2
310
E2E2E2E2E2E2E2E2E2E2E2E2E2E2E2E2E2E2E2E2E2E2E2E2E2E2E2E2E2E2E2E2E2E2E2E2E2E2E2E2E2E2E2E2E2E2E2E2E2E2E2E2E2E2E2E2E2E2E2E2E2E2E2E2E2E2E2E2E2E2E2E2E2E2E2E2E2E2E2E2E2E2E2E2E2E2E2E2E2E2E2E2E2E2E2E2E2E2E2E2E2E2E2E2E2E2E2E2E2E2E2E2E2E2E2E2E2E2E2E2E2E2E2E2E2E2E2
310
E2E2E2E2E2E2E2E2E2E2E2E2E2E2E2E2E2E2E2E2E2E2E2E2E2E2E2E2E2E2E2E2E2E2E2F5F5F5282828F5E228E2E2E2E2E2E2E2E2E2E2E2E2E2E2E2E2E2E2E2E2E2E2E2E2E2E2E2F5F528282828F5E228E2E2E2E2E2E2E2E2E2E2E2E2E2E2E2E2E2E2E2E2E2E2E2E2E2E2E2E2E2E2E2F5F5F5F52828F5F5E2E2E2E2E2E228E2
310
E2E2E2E2E2E2E2E2E2E2E2E2E2E2E2E2E2E2E2E2E2E2E2E2E2E2E2E2E2E2E2E2E2E2E2E2E2E2E2E2E2E2E2E2E2E2E2E2E2E2E2E2E2E2E2E2E2E2E2E2E2E2E2E2E2E2E2E2E2E2E2E2E2E2E2E2E2E2E2E2E2E2E2E2E2E2E2E2E2E2E2E2E2E2E2E2E2E2E2E2E2E2E2E2E2E2E2E2E2E2E2E2E2E2E2E2E2E2E2E2E2E2E2E2E2E2E2
310
E2E2E2E2E2E2E2E2E2E2E2E2E2E2E2E2E2E2E2E2E2E2E2E2E2E2E2E2E2E2E2E2E2E2E2E2E2E2F5F5282828F5E228E2E2E2E2E2E2E2E2E2E2E2E2E2E2E2E2E2E2E2E2E2E2E2E2E2E2E2F5F5F5282828F5E228E2E2E2E2E2E2E2E2E2E2E2E2E2E2E2E2E2E2E2E2E2E2E2E2E2E2E2E2E2E2E2E2F5F5F5282828F5E2E2E2E2E2E2
310
28E2E2E2E2E2E2E2E2E2E2E2E2E2E2E2E2E2E2E2E2E2E2E2E2E2E2E2E2E2E2E2E2E2E2E2E2E2E2E2E2E2E2E2E2E2E2E2E2E2E2E2E2E2E2E2E2E2E2E2E2E2E2E2E2E2E2E2E2E2E2E2E2E2E2E2E2E2E2E2E2E2E2E2E2E2E2E2E2E2E2E2E2E2E2E2E2E2E2E2E2E2E2E2E2E2E2E2E2E2E2E2E2E2E2E2E2E2E2E2E2E2E2E2E2E2E2
310
E2E2E2E2E2E2E2E2E2E2E2E2E2E2E2E2E2E2E2E2E2E2E2E2E2E2E2E2E2E2E2E2E2E2E2E2E2E2E2E2E2E2282828F5E228E2E2E2E2E2E2E2E2E2E2E2E2E2E2E2E2E2E2E2E2E2E2E2E2E2E2E2E2E2E2F5F5F5F5E228E2E2E2E2E2E2E2E2E2E2E2E2E2E2E2E2E2E2E2E2E2E2E2E2E2E2E2E2E2E2E2E2E2E2E2F528282828282828
310
282828E2E2E2E2E2E2E2E2E2E2E2E2E2E2E2E2E2E2E2E2E2E2E2E2E2E2E2E2E2E2E2E2E2E2E2E2E2E2E2E2E2E2E2E2E2E2E2E2E2E2E2E2E2E2E2E2E2E2E2E2E2E2E2E2E2E2E2E2E2E2E2E2E2E2E2E2E2E2E2E2E2E2E2E2E2E2E2E2E2E2E2E2E2E2E2E2E2E2E2E2E2E2E2E2E2E2E2E2E2E2E2E2E2E2E2E2E2E2E2E2E2E2E2E2
310
E2E2E2E2E2E2E2E2E2E2E2E2E2E2E2E2E2E2E2E2E2E2E2E2E2E2E2E2E2E2E2E2E2E2E2E2E2E2DCDCDCDCE2E2E22828282828E2E2E2E2E2E2E2E2E2E2E2E2E2E2E2E2E2E2E2E2E2E2E2E2E2E2E2E2E2E2F52828282828E2E2E2E2E2E2E2E2E2E2E2E2E2E2E2E2E2E2E2E2E2E2E2E2E2E2E2E2E2E2E2E2E2E2E2F5F5F5E2E2E2
310
E2E2E2E2E2E2E2E2E2E2E2E2E2E2E2E2E2E2E2E2E2E2E2E2E2E2E2E2E2E2E2E2E2E2E2E2E2E2E2E2E2E2E2E2E2E2E2E2E2E2E2E2E2E2E2E2E2E2E2E2E2E2E2E2E2E2E2E2E2E2E2E2E2E2E2E2E2E2E2E2E2E2E2E2E2E2E2E2E2E2E2E2E2E2E2E2E2E2E2E2E2E2E2E2E2E2E2E2E2E2E2E2E2E2E2E2E2E2E2E2E2E2E2E2E2E2E2
310
E2E2E2
  0
XRECORD
  5
166AE9
102
{ACAD_REACTORS
330
166AE8
102
}
330
166AE8
100
AcDbXrecord
280
     1
102
MATERIAL
148
0.0
149
0.0
149
0.0
 93
        0
 94
      127
282
     0
 72
     1
 77
     1
171
     1
175
     1
179
     1
273
     0
  0
XRECORD
  5
166AE7
102
{ACAD_REACTORS
330
166AE6
102
}
330
166AE6
100
AcDbXrecord
280
     1
102
MATERIAL
148
0.0
149
0.0
149
0.0
 93
        0
 94
      127
282
     0
 72
     1
 77
     1
171
     1
175
     1
179
     1
273
     0
  0
XRECORD
  5
166AEB
102
{ACAD_REACTORS
330
166AEA
102
}
330
166AEA
100
AcDbXrecord
280
     1
102
MATERIAL
148
0.0
149
0.0
149
0.0
 93
        0
 94
      127
282
     0
 72
     1
 77
     1
171
     1
175
     1
179
     1
273
     0
  0
CELLSTYLEMAP
  5
16BA54
102
{ACAD_REACTORS
330
2E4
102
}
330
2E4
100
AcDbCellStyleMap
 90
        3
300
CELLSTYLE
  1
TABLEFORMAT_BEGIN
 90
        5
170
     1
 91
        0
 92
    32768
 62
   257
 93
        1
300
CONTENTFORMAT
  1
CONTENTFORMAT_BEGIN
 90
        0
 91
        0
 92
      512
 93
        0
300

 40
0.0
140
1.0
 94
        5
 62
     0
340
11
144
6.0
309
CONTENTFORMAT_END
171
     1
301
MARGIN
  1
CELLMARGIN_BEGIN
 40
1.5
 40
1.5
 40
1.5
 40
1.5
 40
0.18
 40
0.18
309
CELLMARGIN_END
 94
        6
 95
        1
302
GRIDFORMAT
  1
GRIDFORMAT_BEGIN
 90
        0
 91
        1
 62
     0
 92
       -2
340
0
 93
        0
 40
0.045
309
GRIDFORMAT_END
 95
        2
302
GRIDFORMAT
  1
GRIDFORMAT_BEGIN
 90
        0
 91
        1
 62
     0
 92
       -2
340
0
 93
        0
 40
0.045
309
GRIDFORMAT_END
 95
        4
302
GRIDFORMAT
  1
GRIDFORMAT_BEGIN
 90
        0
 91
        1
 62
     0
 92
       -2
340
0
 93
        0
 40
0.045
309
GRIDFORMAT_END
 95
        8
302
GRIDFORMAT
  1
GRIDFORMAT_BEGIN
 90
        0
 91
        1
 62
     0
 92
       -2
340
0
 93
        0
 40
0.045
309
GRIDFORMAT_END
 95
       16
302
GRIDFORMAT
  1
GRIDFORMAT_BEGIN
 90
        0
 91
        1
 62
     0
 92
       -2
340
0
 93
        0
 40
0.045
309
GRIDFORMAT_END
 95
       32
302
GRIDFORMAT
  1
GRIDFORMAT_BEGIN
 90
        0
 91
        1
 62
     0
 92
       -2
340
0
 93
        0
 40
0.045
309
GRIDFORMAT_END
309
TABLEFORMAT_END
  1
CELLSTYLE_BEGIN
 90
        1
 91
        1
300
_TITLE
309
CELLSTYLE_END
300
CELLSTYLE
  1
TABLEFORMAT_BEGIN
 90
        5
170
     1
 91
        0
 92
        0
 62
   257
 93
        1
300
CONTENTFORMAT
  1
CONTENTFORMAT_BEGIN
 90
        0
 91
        0
 92
      512
 93
        0
300

 40
0.0
140
1.0
 94
        5
 62
     0
340
11
144
4.5
309
CONTENTFORMAT_END
171
     1
301
MARGIN
  1
CELLMARGIN_BEGIN
 40
1.5
 40
1.5
 40
1.5
 40
1.5
 40
0.18
 40
0.18
309
CELLMARGIN_END
 94
        6
 95
        1
302
GRIDFORMAT
  1
GRIDFORMAT_BEGIN
 90
        0
 91
        1
 62
     0
 92
       -2
340
0
 93
        0
 40
0.045
309
GRIDFORMAT_END
 95
        2
302
GRIDFORMAT
  1
GRIDFORMAT_BEGIN
 90
        0
 91
        1
 62
     0
 92
       -2
340
0
 93
        0
 40
0.045
309
GRIDFORMAT_END
 95
        4
302
GRIDFORMAT
  1
GRIDFORMAT_BEGIN
 90
        0
 91
        1
 62
     0
 92
       -2
340
0
 93
        0
 40
0.045
309
GRIDFORMAT_END
 95
        8
302
GRIDFORMAT
  1
GRIDFORMAT_BEGIN
 90
        0
 91
        1
 62
     0
 92
       -2
340
0
 93
        0
 40
0.045
309
GRIDFORMAT_END
 95
       16
302
GRIDFORMAT
  1
GRIDFORMAT_BEGIN
 90
        0
 91
        1
 62
     0
 92
       -2
340
0
 93
        0
 40
0.045
309
GRIDFORMAT_END
 95
       32
302
GRIDFORMAT
  1
GRIDFORMAT_BEGIN
 90
        0
 91
        1
 62
     0
 92
       -2
340
0
 93
        0
 40
0.045
309
GRIDFORMAT_END
309
TABLEFORMAT_END
  1
CELLSTYLE_BEGIN
 90
        2
 91
        1
300
_HEADER
309
CELLSTYLE_END
300
CELLSTYLE
  1
TABLEFORMAT_BEGIN
 90
        5
170
     1
 91
        0
 92
        0
 62
   257
 93
        1
300
CONTENTFORMAT
  1
CONTENTFORMAT_BEGIN
 90
        0
 91
        0
 92
      512
 93
        0
300

 40
0.0
140
1.0
 94
        2
 62
     0
340
11
144
4.5
309
CONTENTFORMAT_END
171
     1
301
MARGIN
  1
CELLMARGIN_BEGIN
 40
1.5
 40
1.5
 40
1.5
 40
1.5
 40
0.18
 40
0.18
309
CELLMARGIN_END
 94
        6
 95
        1
302
GRIDFORMAT
  1
GRIDFORMAT_BEGIN
 90
        0
 91
        1
 62
     0
 92
       -2
340
0
 93
        0
 40
0.045
309
GRIDFORMAT_END
 95
        2
302
GRIDFORMAT
  1
GRIDFORMAT_BEGIN
 90
        0
 91
        1
 62
     0
 92
       -2
340
0
 93
        0
 40
0.045
309
GRIDFORMAT_END
 95
        4
302
GRIDFORMAT
  1
GRIDFORMAT_BEGIN
 90
        0
 91
        1
 62
     0
 92
       -2
340
0
 93
        0
 40
0.045
309
GRIDFORMAT_END
 95
        8
302
GRIDFORMAT
  1
GRIDFORMAT_BEGIN
 90
        0
 91
        1
 62
     0
 92
       -2
340
0
 93
        0
 40
0.045
309
GRIDFORMAT_END
 95
       16
302
GRIDFORMAT
  1
GRIDFORMAT_BEGIN
 90
        0
 91
        1
 62
     0
 92
       -2
340
0
 93
        0
 40
0.045
309
GRIDFORMAT_END
 95
       32
302
GRIDFORMAT
  1
GRIDFORMAT_BEGIN
 90
        0
 91
        1
 62
     0
 92
       -2
340
0
 93
        0
 40
0.045
309
GRIDFORMAT_END
309
TABLEFORMAT_END
  1
CELLSTYLE_BEGIN
 90
        3
 91
        2
300
_DATA
309
CELLSTYLE_END
  0
XRECORD
  5
16BA62
102
{ACAD_REACTORS
330
2E4
102
}
330
2E4
100
AcDbXrecord
280
     1
102
ACAD_ROUNDTRIP_PRE2007_TABLESTYLE
 90
      512
 91
        0
  1

 92
      512
 93
        0
  2

 94
      512
 95
        0
  3

  0
XRECORD
  5
16BA6E
102
{ACAD_REACTORS
330
16BA6D
102
}
330
16BA6D
100
AcDbXrecord
280
     1
102
RTVSPropertyOp0
 70
     1
102
RTVSPropertyOp1
 70
     1
102
RTVSPropertyOp2
 70
     1
102
RTVSPropertyOp3
 70
     1
102
RTVSPropertyOp4
 70
     1
102
RTVSPropertyOp5
 70
     1
102
RTVSPropertyOp6
 70
     1
102
RTVSPropertyOp7
 70
     1
102
RTVSPropertyOp8
 70
     1
102
RTVSPropertyOp9
 70
     1
102
RTVSPropertyOp10
 70
     1
102
RTVSPropertyOp11
 70
     1
102
RTVSPropertyOp12
 70
     1
102
RTVSPropertyOp13
 70
     1
102
RTVSPropertyOp14
 70
     1
102
RTVSPropertyOp15
 70
     1
102
RTVSPropertyOp16
 70
     1
102
RTVSPropertyOp17
 70
     1
102
RTVSPropertyOp18
 70
     1
102
RTVSPropertyOp19
 70
     1
102
RTVSPropertyOp20
 70
     1
102
RTVSPropertyOp21
 70
     1
102
RTVSPropertyOp22
 70
     1
102
RTVSPropertyOp23
 70
     1
102
RTVSPropertyOp24
 70
     1
102
RTVSPropertyOp25
 70
     1
102
RTVSPropertyOp26
 70
     1
102
RTVSPropertyOp27
 70
     1
  0
XRECORD
  5
16BA72
102
{ACAD_REACTORS
330
16BA71
102
}
330
16BA71
100
AcDbXrecord
280
     1
102
RTVSPropertyOp0
 70
     1
102
RTVSPropertyOp1
 70
     1
102
RTVSPropertyOp2
 70
     1
102
RTVSPropertyOp3
 70
     1
102
RTVSPropertyOp4
 70
     1
102
RTVSPropertyOp5
 70
     1
102
RTVSPropertyOp6
 70
     1
102
RTVSPropertyOp7
 70
     1
102
RTVSPropertyOp8
 70
     1
102
RTVSPropertyOp9
 70
     1
102
RTVSPropertyOp10
 70
     1
102
RTVSPropertyOp11
 70
     1
102
RTVSPropertyOp12
 70
     1
102
RTVSPropertyOp13
 70
     1
102
RTVSPropertyOp14
 70
     1
102
RTVSPropertyOp15
 70
     1
102
RTVSPropertyOp16
 70
     1
102
RTVSPropertyOp17
 70
     1
102
RTVSPropertyOp18
 70
     1
102
RTVSPropertyOp19
 70
     1
102
RTVSPropertyOp20
 70
     1
102
RTVSPropertyOp21
 70
     1
102
RTVSPropertyOp22
 70
     1
102
RTVSPropertyOp23
 70
     1
102
RTVSPropertyOp24
 70
     1
102
RTVSPropertyOp25
 70
     1
102
RTVSPropertyOp26
 70
     1
102
RTVSPropertyOp27
 70
     1
  0
XRECORD
  5
16BA70
102
{ACAD_REACTORS
330
16BA6F
102
}
330
16BA6F
100
AcDbXrecord
280
     1
102
RTVSPropertyOp0
 70
     1
102
RTVSPropertyOp1
 70
     1
102
RTVSPropertyOp2
 70
     1
102
RTVSPropertyOp3
 70
     1
102
RTVSPropertyOp4
 70
     1
102
RTVSPropertyOp5
 70
     1
102
RTVSPropertyOp6
 70
     1
102
RTVSPropertyOp7
 70
     1
102
RTVSPropertyOp8
 70
     1
102
RTVSPropertyOp9
 70
     1
102
RTVSPropertyOp10
 70
     1
102
RTVSPropertyOp11
 70
     1
102
RTVSPropertyOp12
 70
     1
102
RTVSPropertyOp13
 70
     1
102
RTVSPropertyOp14
 70
     1
102
RTVSPropertyOp15
 70
     1
102
RTVSPropertyOp16
 70
     1
102
RTVSPropertyOp17
 70
     1
102
RTVSPropertyOp18
 70
     1
102
RTVSPropertyOp19
 70
     1
102
RTVSPropertyOp20
 70
     1
102
RTVSPropertyOp21
 70
     1
102
RTVSPropertyOp22
 70
     1
102
RTVSPropertyOp23
 70
     1
102
RTVSPropertyOp24
 70
     1
102
RTVSPropertyOp25
 70
     1
102
RTVSPropertyOp26
 70
     1
102
RTVSPropertyOp27
 70
     1
  0
XRECORD
  5
16BA6C
102
{ACAD_REACTORS
330
16BA6B
102
}
330
16BA6B
100
AcDbXrecord
280
     1
102
RTVSPropertyOp0
 70
     1
102
RTVSPropertyOp1
 70
     1
102
RTVSPropertyOp2
 70
     1
102
RTVSPropertyOp3
 70
     1
102
RTVSPropertyOp4
 70
     1
102
RTVSPropertyOp5
 70
     1
102
RTVSPropertyOp6
 70
     1
102
RTVSPropertyOp7
 70
     1
102
RTVSPropertyOp8
 70
     1
102
RTVSPropertyOp9
 70
     1
102
RTVSPropertyOp10
 70
     1
102
RTVSPropertyOp11
 70
     1
102
RTVSPropertyOp12
 70
     1
102
RTVSPropertyOp13
 70
     1
102
RTVSPropertyOp14
 70
     1
102
RTVSPropertyOp15
 70
     1
102
RTVSPropertyOp16
 70
     1
102
RTVSPropertyOp17
 70
     1
102
RTVSPropertyOp18
 70
     1
102
RTVSPropertyOp19
 70
     1
102
RTVSPropertyOp20
 70
     1
102
RTVSPropertyOp21
 70
     1
102
RTVSPropertyOp22
 70
     1
102
RTVSPropertyOp23
 70
     1
102
RTVSPropertyOp24
 70
     1
102
RTVSPropertyOp25
 70
     1
102
RTVSPropertyOp26
 70
     1
102
RTVSPropertyOp27
 70
     1
  0
XRECORD
  5
16BA7A
102
{ACAD_REACTORS
330
16BA79
102
}
330
16BA79
100
AcDbXrecord
280
     1
102
RTVSPropertyOp0
 70
     1
102
RTVSPropertyOp1
 70
     1
102
RTVSPropertyOp2
 70
     1
102
RTVSPropertyOp3
 70
     1
102
RTVSPropertyOp4
 70
     1
102
RTVSPropertyOp5
 70
     1
102
RTVSPropertyOp6
 70
     1
102
RTVSPropertyOp7
 70
     1
102
RTVSPropertyOp8
 70
     1
102
RTVSPropertyOp9
 70
     1
102
RTVSPropertyOp10
 70
     1
102
RTVSPropertyOp11
 70
     1
102
RTVSPropertyOp12
 70
     1
102
RTVSPropertyOp13
 70
     1
102
RTVSPropertyOp14
 70
     1
102
RTVSPropertyOp15
 70
     1
102
RTVSPropertyOp16
 70
     1
102
RTVSPropertyOp17
 70
     1
102
RTVSPropertyOp18
 70
     1
102
RTVSPropertyOp19
 70
     1
102
RTVSPropertyOp20
 70
     1
102
RTVSPropertyOp21
 70
     1
102
RTVSPropertyOp22
 70
     1
102
RTVSPropertyOp23
 70
     1
102
RTVSPropertyOp24
 70
     1
102
RTVSPropertyOp25
 70
     1
102
RTVSPropertyOp26
 70
     1
102
RTVSPropertyOp27
 70
     1
  0
XRECORD
  5
16BA82
102
{ACAD_REACTORS
330
16BA81
102
}
330
16BA81
100
AcDbXrecord
280
     1
102
RTVSPropertyOp0
 70
     1
102
RTVSPropertyOp1
 70
     1
102
RTVSPropertyOp2
 70
     1
102
RTVSPropertyOp3
 70
     1
102
RTVSPropertyOp4
 70
     1
102
RTVSPropertyOp5
 70
     1
102
RTVSPropertyOp6
 70
     1
102
RTVSPropertyOp7
 70
     1
102
RTVSPropertyOp8
 70
     1
102
RTVSPropertyOp9
 70
     1
102
RTVSPropertyOp10
 70
     1
102
RTVSPropertyOp11
 70
     1
102
RTVSPropertyOp12
 70
     1
102
RTVSPropertyOp13
 70
     1
102
RTVSPropertyOp14
 70
     1
102
RTVSPropertyOp15
 70
     1
102
RTVSPropertyOp16
 70
     1
102
RTVSPropertyOp17
 70
     1
102
RTVSPropertyOp18
 70
     1
102
RTVSPropertyOp19
 70
     1
102
RTVSPropertyOp20
 70
     1
102
RTVSPropertyOp21
 70
     1
102
RTVSPropertyOp22
 70
     1
102
RTVSPropertyOp23
 70
     1
102
RTVSPropertyOp24
 70
     1
102
RTVSPropertyOp25
 70
     1
102
RTVSPropertyOp26
 70
     1
102
RTVSPropertyOp27
 70
     1
  0
XRECORD
  5
16BA74
102
{ACAD_REACTORS
330
16BA73
102
}
330
16BA73
100
AcDbXrecord
280
     1
102
RTVSPropertyOp0
 70
     1
102
RTVSPropertyOp1
 70
     1
102
RTVSPropertyOp2
 70
     1
102
RTVSPropertyOp3
 70
     1
102
RTVSPropertyOp4
 70
     1
102
RTVSPropertyOp5
 70
     1
102
RTVSPropertyOp6
 70
     1
102
RTVSPropertyOp7
 70
     1
102
RTVSPropertyOp8
 70
     1
102
RTVSPropertyOp9
 70
     1
102
RTVSPropertyOp10
 70
     1
102
RTVSPropertyOp11
 70
     1
102
RTVSPropertyOp12
 70
     1
102
RTVSPropertyOp13
 70
     1
102
RTVSPropertyOp14
 70
     1
102
RTVSPropertyOp15
 70
     1
102
RTVSPropertyOp16
 70
     1
102
RTVSPropertyOp17
 70
     1
102
RTVSPropertyOp18
 70
     1
102
RTVSPropertyOp19
 70
     1
102
RTVSPropertyOp20
 70
     1
102
RTVSPropertyOp21
 70
     1
102
RTVSPropertyOp22
 70
     1
102
RTVSPropertyOp23
 70
     1
102
RTVSPropertyOp24
 70
     1
102
RTVSPropertyOp25
 70
     1
102
RTVSPropertyOp26
 70
     1
102
RTVSPropertyOp27
 70
     1
  0
XRECORD
  5
16BA78
102
{ACAD_REACTORS
330
16BA77
102
}
330
16BA77
100
AcDbXrecord
280
     1
102
RTVSPropertyOp0
 70
     1
102
RTVSPropertyOp1
 70
     1
102
RTVSPropertyOp2
 70
     1
102
RTVSPropertyOp3
 70
     1
102
RTVSPropertyOp4
 70
     1
102
RTVSPropertyOp5
 70
     1
102
RTVSPropertyOp6
 70
     1
102
RTVSPropertyOp7
 70
     1
102
RTVSPropertyOp8
 70
     1
102
RTVSPropertyOp9
 70
     1
102
RTVSPropertyOp10
 70
     1
102
RTVSPropertyOp11
 70
     1
102
RTVSPropertyOp12
 70
     1
102
RTVSPropertyOp13
 70
     1
102
RTVSPropertyOp14
 70
     1
102
RTVSPropertyOp15
 70
     1
102
RTVSPropertyOp16
 70
     1
102
RTVSPropertyOp17
 70
     1
102
RTVSPropertyOp18
 70
     1
102
RTVSPropertyOp19
 70
     1
102
RTVSPropertyOp20
 70
     1
102
RTVSPropertyOp21
 70
     1
102
RTVSPropertyOp22
 70
     1
102
RTVSPropertyOp23
 70
     1
102
RTVSPropertyOp24
 70
     1
102
RTVSPropertyOp25
 70
     1
102
RTVSPropertyOp26
 70
     1
102
RTVSPropertyOp27
 70
     1
  0
XRECORD
  5
16BA88
102
{ACAD_REACTORS
330
16BA87
102
}
330
16BA87
100
AcDbXrecord
280
     1
102
RTVSPropertyOp0
 70
     0
102
RTVSPropertyOp1
 70
     0
102
RTVSPropertyOp2
 70
     0
102
RTVSPropertyOp3
 70
     0
102
RTVSPropertyOp4
 70
     0
102
RTVSPropertyOp5
 70
     0
102
RTVSPropertyOp6
 70
     0
102
RTVSPropertyOp7
 70
     0
102
RTVSPropertyOp8
 70
     0
102
RTVSPropertyOp9
 70
     0
102
RTVSPropertyOp10
 70
     0
102
RTVSPropertyOp11
 70
     0
102
RTVSPropertyOp12
 70
     0
102
RTVSPropertyOp13
 70
     0
102
RTVSPropertyOp14
 70
     2
102
RTVSPropertyOp15
 70
     0
102
RTVSPropertyOp16
 70
     0
102
RTVSPropertyOp17
 70
     0
102
RTVSPropertyOp18
 70
     0
102
RTVSPropertyOp19
 70
     0
102
RTVSPropertyOp20
 70
     0
102
RTVSPropertyOp21
 70
     0
102
RTVSPropertyOp22
 70
     0
102
RTVSPropertyOp23
 70
     0
102
RTVSPropertyOp24
 70
     0
102
RTVSPropertyOp25
 70
     0
102
RTVSPropertyOp26
 70
     0
102
RTVSPropertyOp27
 70
     0
  0
XRECORD
  5
16BA80
102
{ACAD_REACTORS
330
16BA7F
102
}
330
16BA7F
100
AcDbXrecord
280
     1
102
RTVSPropertyOp0
 70
     1
102
RTVSPropertyOp1
 70
     1
102
RTVSPropertyOp2
 70
     1
102
RTVSPropertyOp3
 70
     1
102
RTVSPropertyOp4
 70
     1
102
RTVSPropertyOp5
 70
     1
102
RTVSPropertyOp6
 70
     1
102
RTVSPropertyOp7
 70
     1
102
RTVSPropertyOp8
 70
     1
102
RTVSPropertyOp9
 70
     1
102
RTVSPropertyOp10
 70
     1
102
RTVSPropertyOp11
 70
     1
102
RTVSPropertyOp12
 70
     1
102
RTVSPropertyOp13
 70
     1
102
RTVSPropertyOp14
 70
     1
102
RTVSPropertyOp15
 70
     1
102
RTVSPropertyOp16
 70
     1
102
RTVSPropertyOp17
 70
     1
102
RTVSPropertyOp18
 70
     1
102
RTVSPropertyOp19
 70
     1
102
RTVSPropertyOp20
 70
     1
102
RTVSPropertyOp21
 70
     1
102
RTVSPropertyOp22
 70
     1
102
RTVSPropertyOp23
 70
     1
102
RTVSPropertyOp24
 70
     1
102
RTVSPropertyOp25
 70
     1
102
RTVSPropertyOp26
 70
     1
102
RTVSPropertyOp27
 70
     1
  0
XRECORD
  5
16BA64
102
{ACAD_REACTORS
330
16BA63
102
}
330
16BA63
100
AcDbXrecord
280
     1
102
RTVSPropertyOp0
 70
     1
102
RTVSPropertyOp1
 70
     1
102
RTVSPropertyOp2
 70
     1
102
RTVSPropertyOp3
 70
     1
102
RTVSPropertyOp4
 70
     1
102
RTVSPropertyOp5
 70
     1
102
RTVSPropertyOp6
 70
     1
102
RTVSPropertyOp7
 70
     1
102
RTVSPropertyOp8
 70
     1
102
RTVSPropertyOp9
 70
     1
102
RTVSPropertyOp10
 70
     1
102
RTVSPropertyOp11
 70
     1
102
RTVSPropertyOp12
 70
     1
102
RTVSPropertyOp13
 70
     1
102
RTVSPropertyOp14
 70
     1
102
RTVSPropertyOp15
 70
     1
102
RTVSPropertyOp16
 70
     1
102
RTVSPropertyOp17
 70
     1
102
RTVSPropertyOp18
 70
     1
102
RTVSPropertyOp19
 70
     1
102
RTVSPropertyOp20
 70
     1
102
RTVSPropertyOp21
 70
     1
102
RTVSPropertyOp22
 70
     1
102
RTVSPropertyOp23
 70
     1
102
RTVSPropertyOp24
 70
     1
102
RTVSPropertyOp25
 70
     1
102
RTVSPropertyOp26
 70
     1
102
RTVSPropertyOp27
 70
     1
  0
XRECORD
  5
16BA66
102
{ACAD_REACTORS
330
16BA65
102
}
330
16BA65
100
AcDbXrecord
280
     1
102
RTVSPropertyOp0
 70
     1
102
RTVSPropertyOp1
 70
     1
102
RTVSPropertyOp2
 70
     1
102
RTVSPropertyOp3
 70
     1
102
RTVSPropertyOp4
 70
     1
102
RTVSPropertyOp5
 70
     1
102
RTVSPropertyOp6
 70
     1
102
RTVSPropertyOp7
 70
     1
102
RTVSPropertyOp8
 70
     1
102
RTVSPropertyOp9
 70
     1
102
RTVSPropertyOp10
 70
     1
102
RTVSPropertyOp11
 70
     1
102
RTVSPropertyOp12
 70
     1
102
RTVSPropertyOp13
 70
     1
102
RTVSPropertyOp14
 70
     1
102
RTVSPropertyOp15
 70
     1
102
RTVSPropertyOp16
 70
     1
102
RTVSPropertyOp17
 70
     1
102
RTVSPropertyOp18
 70
     1
102
RTVSPropertyOp19
 70
     1
102
RTVSPropertyOp20
 70
     1
102
RTVSPropertyOp21
 70
     1
102
RTVSPropertyOp22
 70
     1
102
RTVSPropertyOp23
 70
     1
102
RTVSPropertyOp24
 70
     1
102
RTVSPropertyOp25
 70
     1
102
RTVSPropertyOp26
 70
     1
102
RTVSPropertyOp27
 70
     1
  0
XRECORD
  5
16BA68
102
{ACAD_REACTORS
330
16BA67
102
}
330
16BA67
100
AcDbXrecord
280
     1
102
RTVSPropertyOp0
 70
     1
102
RTVSPropertyOp1
 70
     1
102
RTVSPropertyOp2
 70
     1
102
RTVSPropertyOp3
 70
     1
102
RTVSPropertyOp4
 70
     1
102
RTVSPropertyOp5
 70
     1
102
RTVSPropertyOp6
 70
     1
102
RTVSPropertyOp7
 70
     1
102
RTVSPropertyOp8
 70
     1
102
RTVSPropertyOp9
 70
     1
102
RTVSPropertyOp10
 70
     1
102
RTVSPropertyOp11
 70
     1
102
RTVSPropertyOp12
 70
     1
102
RTVSPropertyOp13
 70
     1
102
RTVSPropertyOp14
 70
     1
102
RTVSPropertyOp15
 70
     1
102
RTVSPropertyOp16
 70
     1
102
RTVSPropertyOp17
 70
     1
102
RTVSPropertyOp18
 70
     1
102
RTVSPropertyOp19
 70
     1
102
RTVSPropertyOp20
 70
     1
102
RTVSPropertyOp21
 70
     1
102
RTVSPropertyOp22
 70
     1
102
RTVSPropertyOp23
 70
     1
102
RTVSPropertyOp24
 70
     1
102
RTVSPropertyOp25
 70
     1
102
RTVSPropertyOp26
 70
     1
102
RTVSPropertyOp27
 70
     1
  0
XRECORD
  5
16BA6A
102
{ACAD_REACTORS
330
16BA69
102
}
330
16BA69
100
AcDbXrecord
280
     1
102
RTVSPropertyOp0
 70
     1
102
RTVSPropertyOp1
 70
     1
102
RTVSPropertyOp2
 70
     1
102
RTVSPropertyOp3
 70
     1
102
RTVSPropertyOp4
 70
     1
102
RTVSPropertyOp5
 70
     1
102
RTVSPropertyOp6
 70
     1
102
RTVSPropertyOp7
 70
     1
102
RTVSPropertyOp8
 70
     1
102
RTVSPropertyOp9
 70
     1
102
RTVSPropertyOp10
 70
     1
102
RTVSPropertyOp11
 70
     1
102
RTVSPropertyOp12
 70
     1
102
RTVSPropertyOp13
 70
     1
102
RTVSPropertyOp14
 70
     1
102
RTVSPropertyOp15
 70
     1
102
RTVSPropertyOp16
 70
     1
102
RTVSPropertyOp17
 70
     1
102
RTVSPropertyOp18
 70
     1
102
RTVSPropertyOp19
 70
     1
102
RTVSPropertyOp20
 70
     1
102
RTVSPropertyOp21
 70
     1
102
RTVSPropertyOp22
 70
     1
102
RTVSPropertyOp23
 70
     1
102
RTVSPropertyOp24
 70
     1
102
RTVSPropertyOp25
 70
     1
102
RTVSPropertyOp26
 70
     1
102
RTVSPropertyOp27
 70
     1
  0
XRECORD
  5
16BA84
102
{ACAD_REACTORS
330
16BA83
102
}
330
16BA83
100
AcDbXrecord
280
     1
102
RTVSPropertyOp0
 70
     0
102
RTVSPropertyOp1
 70
     0
102
RTVSPropertyOp2
 70
     0
102
RTVSPropertyOp3
 70
     0
102
RTVSPropertyOp4
 70
     0
102
RTVSPropertyOp5
 70
     0
102
RTVSPropertyOp6
 70
     0
102
RTVSPropertyOp7
 70
     0
102
RTVSPropertyOp8
 70
     0
102
RTVSPropertyOp9
 70
     0
102
RTVSPropertyOp10
 70
     0
102
RTVSPropertyOp11
 70
     0
102
RTVSPropertyOp12
 70
     0
102
RTVSPropertyOp13
 70
     0
102
RTVSPropertyOp14
 70
     2
102
RTVSPropertyOp15
 70
     0
102
RTVSPropertyOp16
 70
     0
102
RTVSPropertyOp17
 70
     0
102
RTVSPropertyOp18
 70
     0
102
RTVSPropertyOp19
 70
     0
102
RTVSPropertyOp20
 70
     0
102
RTVSPropertyOp21
 70
     0
102
RTVSPropertyOp22
 70
     0
102
RTVSPropertyOp23
 70
     0
102
RTVSPropertyOp24
 70
     0
102
RTVSPropertyOp25
 70
     0
102
RTVSPropertyOp26
 70
     0
102
RTVSPropertyOp27
 70
     0
  0
XRECORD
  5
16BA7E
102
{ACAD_REACTORS
330
16BA7D
102
}
330
16BA7D
100
AcDbXrecord
280
     1
102
RTVSPropertyOp0
 70
     1
102
RTVSPropertyOp1
 70
     1
102
RTVSPropertyOp2
 70
     1
102
RTVSPropertyOp3
 70
     1
102
RTVSPropertyOp4
 70
     1
102
RTVSPropertyOp5
 70
     1
102
RTVSPropertyOp6
 70
     1
102
RTVSPropertyOp7
 70
     1
102
RTVSPropertyOp8
 70
     1
102
RTVSPropertyOp9
 70
     1
102
RTVSPropertyOp10
 70
     1
102
RTVSPropertyOp11
 70
     1
102
RTVSPropertyOp12
 70
     1
102
RTVSPropertyOp13
 70
     1
102
RTVSPropertyOp14
 70
     1
102
RTVSPropertyOp15
 70
     1
102
RTVSPropertyOp16
 70
     1
102
RTVSPropertyOp17
 70
     1
102
RTVSPropertyOp18
 70
     1
102
RTVSPropertyOp19
 70
     1
102
RTVSPropertyOp20
 70
     1
102
RTVSPropertyOp21
 70
     1
102
RTVSPropertyOp22
 70
     1
102
RTVSPropertyOp23
 70
     1
102
RTVSPropertyOp24
 70
     1
102
RTVSPropertyOp25
 70
     1
102
RTVSPropertyOp26
 70
     1
102
RTVSPropertyOp27
 70
     1
  0
XRECORD
  5
16BA86
102
{ACAD_REACTORS
330
16BA85
102
}
330
16BA85
100
AcDbXrecord
280
     1
102
RTVSPropertyOp0
 70
     0
102
RTVSPropertyOp1
 70
     0
102
RTVSPropertyOp2
 70
     0
102
RTVSPropertyOp3
 70
     0
102
RTVSPropertyOp4
 70
     0
102
RTVSPropertyOp5
 70
     0
102
RTVSPropertyOp6
 70
     0
102
RTVSPropertyOp7
 70
     0
102
RTVSPropertyOp8
 70
     0
102
RTVSPropertyOp9
 70
     0
102
RTVSPropertyOp10
 70
     0
102
RTVSPropertyOp11
 70
     0
102
RTVSPropertyOp12
 70
     0
102
RTVSPropertyOp13
 70
     0
102
RTVSPropertyOp14
 70
     2
102
RTVSPropertyOp15
 70
     0
102
RTVSPropertyOp16
 70
     0
102
RTVSPropertyOp17
 70
     0
102
RTVSPropertyOp18
 70
     0
102
RTVSPropertyOp19
 70
     0
102
RTVSPropertyOp20
 70
     0
102
RTVSPropertyOp21
 70
     0
102
RTVSPropertyOp22
 70
     0
102
RTVSPropertyOp23
 70
     0
102
RTVSPropertyOp24
 70
     0
102
RTVSPropertyOp25
 70
     0
102
RTVSPropertyOp26
 70
     0
102
RTVSPropertyOp27
 70
     0
  0
XRECORD
  5
16BA76
102
{ACAD_REACTORS
330
16BA75
102
}
330
16BA75
100
AcDbXrecord
280
     1
102
RTVSPropertyOp0
 70
     1
102
RTVSPropertyOp1
 70
     1
102
RTVSPropertyOp2
 70
     1
102
RTVSPropertyOp3
 70
     1
102
RTVSPropertyOp4
 70
     1
102
RTVSPropertyOp5
 70
     1
102
RTVSPropertyOp6
 70
     1
102
RTVSPropertyOp7
 70
     1
102
RTVSPropertyOp8
 70
     1
102
RTVSPropertyOp9
 70
     1
102
RTVSPropertyOp10
 70
     1
102
RTVSPropertyOp11
 70
     1
102
RTVSPropertyOp12
 70
     1
102
RTVSPropertyOp13
 70
     1
102
RTVSPropertyOp14
 70
     1
102
RTVSPropertyOp15
 70
     1
102
RTVSPropertyOp16
 70
     1
102
RTVSPropertyOp17
 70
     1
102
RTVSPropertyOp18
 70
     1
102
RTVSPropertyOp19
 70
     1
102
RTVSPropertyOp20
 70
     1
102
RTVSPropertyOp21
 70
     1
102
RTVSPropertyOp22
 70
     1
102
RTVSPropertyOp23
 70
     1
102
RTVSPropertyOp24
 70
     1
102
RTVSPropertyOp25
 70
     1
102
RTVSPropertyOp26
 70
     1
102
RTVSPropertyOp27
 70
     1
  0
XRECORD
  5
16BA7C
102
{ACAD_REACTORS
330
16BA7B
102
}
330
16BA7B
100
AcDbXrecord
280
     1
102
RTVSPropertyOp0
 70
     1
102
RTVSPropertyOp1
 70
     1
102
RTVSPropertyOp2
 70
     1
102
RTVSPropertyOp3
 70
     1
102
RTVSPropertyOp4
 70
     1
102
RTVSPropertyOp5
 70
     1
102
RTVSPropertyOp6
 70
     1
102
RTVSPropertyOp7
 70
     1
102
RTVSPropertyOp8
 70
     1
102
RTVSPropertyOp9
 70
     1
102
RTVSPropertyOp10
 70
     1
102
RTVSPropertyOp11
 70
     1
102
RTVSPropertyOp12
 70
     1
102
RTVSPropertyOp13
 70
     1
102
RTVSPropertyOp14
 70
     1
102
RTVSPropertyOp15
 70
     1
102
RTVSPropertyOp16
 70
     1
102
RTVSPropertyOp17
 70
     1
102
RTVSPropertyOp18
 70
     1
102
RTVSPropertyOp19
 70
     1
102
RTVSPropertyOp20
 70
     1
102
RTVSPropertyOp21
 70
     1
102
RTVSPropertyOp22
 70
     1
102
RTVSPropertyOp23
 70
     1
102
RTVSPropertyOp24
 70
     1
102
RTVSPropertyOp25
 70
     1
102
RTVSPropertyOp26
 70
     1
102
RTVSPropertyOp27
 70
     1
  0
ENDSEC
  0
EOF
