  0
SECTION
  2
HEADER
  9
$ACADVER
  1
AC1015
  9
$ACADMAINTVER
 70
    20
  9
$DWGCODEPAGE
  3
ANSI_1252
  9
$INSBASE
 10
0.0
 20
0.0
 30
0.0
  9
$EXTMIN
 10
-291.5582494248229
 20
270.9852471263719
 30
0.0
  9
$EXTMAX
 10
843.5333683799976
 20
612.6876065343717
 30
0.0
  9
$LIMMIN
 10
0.0
 20
0.0
  9
$LIMMAX
 10
420.0
 20
297.0
  9
$ORTHOMODE
 70
     0
  9
$REGENMODE
 70
     1
  9
$FILLMODE
 70
     1
  9
$QTEXTMODE
 70
     0
  9
$MIRRTEXT
 70
     0
  9
$LTSCALE
 40
23.1
  9
$ATTMODE
 70
     1
  9
$TEXTSIZE
 40
0.2
  9
$TRACEWID
 40
0.05
  9
$TEXTSTYLE
  7
STANDARD
  9
$CLAYER
  8
0
  9
$CELTYPE
  6
BYLAYER
  9
$CECOLOR
 62
   256
  9
$CELTSCALE
 40
1.0
  9
$DISPSILH
 70
     0
  9
$DIMSCALE
 40
1.0
  9
$DIMASZ
 40
3.5
  9
$DIMEXO
 40
1.5
  9
$DIMDLI
 40
15.96
  9
$DIMRND
 40
0.0
  9
$DIMDLE
 40
0.0
  9
$DIMEXE
 40
1.5
  9
$DIMTP
 40
0.005
  9
$DIMTM
 40
0.005
  9
$DIMTXT
 40
3.5
  9
$DIMCEN
 40
3.779999999999998
  9
$DIMTSZ
 40
0.0
  9
$DIMTOL
 70
     1
  9
$DIMLIM
 70
     0
  9
$DIMTIH
 70
     1
  9
$DIMTOH
 70
     1
  9
$DIMSE1
 70
     0
  9
$DIMSE2
 70
     0
  9
$DIMTAD
 70
     0
  9
$DIMZIN
 70
     0
  9
$DIMBLK
  1
_FILLED
  9
$DIMASO
 70
     1
  9
$DIMSHO
 70
     1
  9
$DIMPOST
  1

  9
$DIMAPOST
  1

  9
$DIMALT
 70
     0
  9
$DIMALTD
 70
     2
  9
$DIMALTF
 40
25.4
  9
$DIMLFAC
 40
1.0
  9
$DIMTOFL
 70
     0
  9
$DIMTVP
 40
0.0
  9
$DIMTIX
 70
     0
  9
$DIMSOXD
 70
     0
  9
$DIMSAH
 70
     0
  9
$DIMBLK1
  1

  9
$DIMBLK2
  1

  9
$DIMSTYLE
  2
STANDARD
  9
$DIMCLRD
 70
     0
  9
$DIMCLRE
 70
     0
  9
$DIMCLRT
 70
     0
  9
$DIMTFAC
 40
1.0
  9
$DIMGAP
 40
0.625
  9
$DIMJUST
 70
     0
  9
$DIMSD1
 70
     0
  9
$DIMSD2
 70
     0
  9
$DIMTOLJ
 70
     1
  9
$DIMTZIN
 70
     0
  9
$DIMALTZ
 70
     0
  9
$DIMALTTZ
 70
     0
  9
$DIMUPT
 70
     0
  9
$DIMDEC
 70
     0
  9
$DIMTDEC
 70
     4
  9
$DIMALTU
 70
     2
  9
$DIMALTTD
 70
     2
  9
$DIMTXSTY
  7
STANDARD
  9
$DIMAUNIT
 70
     0
  9
$DIMADEC
 70
     0
  9
$DIMALTRND
 40
0.0
  9
$DIMAZIN
 70
     0
  9
$DIMDSEP
 70
    46
  9
$DIMATFIT
 70
     3
  9
$DIMFRAC
 70
     0
  9
$DIMLDRBLK
  1

  9
$DIMLUNIT
 70
     2
  9
$DIMLWD
 70
    -2
  9
$DIMLWE
 70
    -2
  9
$DIMTMOVE
 70
     0
  9
$LUNITS
 70
     2
  9
$LUPREC
 70
     2
  9
$SKETCHINC
 40
0.1
  9
$FILLETRAD
 40
2.0
  9
$AUNITS
 70
     0
  9
$AUPREC
 70
     0
  9
$MENU
  1
.
  9
$ELEVATION
 40
0.0
  9
$PELEVATION
 40
0.0
  9
$THICKNESS
 40
0.0
  9
$LIMCHECK
 70
     0
  9
$CHAMFERA
 40
0.0
  9
$CHAMFERB
 40
0.0
  9
$CHAMFERC
 40
0.0
  9
$CHAMFERD
 40
0.0
  9
$SKPOLY
 70
     0
  9
$TDCREATE
 40
2456699.665989410
  9
$TDUCREATE
 40
2456699.624322743
  9
$TDUPDATE
 40
2456702.347491898
  9
$TDUUPDATE
 40
2456702.305825232
  9
$TDINDWG
 40
0.1225298958
  9
$TDUSRTIMER
 40
0.1225298958
  9
$USRTIMER
 70
     1
  9
$ANGBASE
 50
0.0
  9
$ANGDIR
 70
     0
  9
$PDMODE
 70
     3
  9
$PDSIZE
 40
0.3125
  9
$PLINEWID
 40
0.0
  9
$SPLFRAME
 70
     0
  9
$SPLINETYPE
 70
     6
  9
$SPLINESEGS
 70
     8
  9
$HANDSEED
  5
17EC
  9
$SURFTAB1
 70
     6
  9
$SURFTAB2
 70
     6
  9
$SURFTYPE
 70
     6
  9
$SURFU
 70
     6
  9
$SURFV
 70
     6
  9
$UCSBASE
  2

  9
$UCSNAME
  2

  9
$UCSORG
 10
0.0
 20
0.0
 30
0.0
  9
$UCSXDIR
 10
1.0
 20
0.0
 30
0.0
  9
$UCSYDIR
 10
0.0
 20
1.0
 30
0.0
  9
$UCSORTHOREF
  2

  9
$UCSORTHOVIEW
 70
     0
  9
$UCSORGTOP
 10
0.0
 20
0.0
 30
0.0
  9
$UCSORGBOTTOM
 10
0.0
 20
0.0
 30
0.0
  9
$UCSORGLEFT
 10
0.0
 20
0.0
 30
0.0
  9
$UCSORGRIGHT
 10
0.0
 20
0.0
 30
0.0
  9
$UCSORGFRONT
 10
0.0
 20
0.0
 30
0.0
  9
$UCSORGBACK
 10
0.0
 20
0.0
 30
0.0
  9
$PUCSBASE
  2

  9
$PUCSNAME
  2

  9
$PUCSORG
 10
0.0
 20
0.0
 30
0.0
  9
$PUCSXDIR
 10
1.0
 20
0.0
 30
0.0
  9
$PUCSYDIR
 10
0.0
 20
1.0
 30
0.0
  9
$PUCSORTHOREF
  2

  9
$PUCSORTHOVIEW
 70
     0
  9
$PUCSORGTOP
 10
0.0
 20
0.0
 30
0.0
  9
$PUCSORGBOTTOM
 10
0.0
 20
0.0
 30
0.0
  9
$PUCSORGLEFT
 10
0.0
 20
0.0
 30
0.0
  9
$PUCSORGRIGHT
 10
0.0
 20
0.0
 30
0.0
  9
$PUCSORGFRONT
 10
0.0
 20
0.0
 30
0.0
  9
$PUCSORGBACK
 10
0.0
 20
0.0
 30
0.0
  9
$USERI1
 70
     0
  9
$USERI2
 70
     0
  9
$USERI3
 70
     0
  9
$USERI4
 70
     0
  9
$USERI5
 70
     0
  9
$USERR1
 40
0.0
  9
$USERR2
 40
0.0
  9
$USERR3
 40
0.0
  9
$USERR4
 40
0.0
  9
$USERR5
 40
0.0
  9
$WORLDVIEW
 70
     1
  9
$SHADEDGE
 70
     3
  9
$SHADEDIF
 70
    70
  9
$TILEMODE
 70
     1
  9
$MAXACTVP
 70
    64
  9
$PINSBASE
 10
0.0
 20
0.0
 30
0.0
  9
$PLIMCHECK
 70
     0
  9
$PEXTMIN
 10
1.000000000000000E+20
 20
1.000000000000000E+20
 30
1.000000000000000E+20
  9
$PEXTMAX
 10
-1.000000000000000E+20
 20
-1.000000000000000E+20
 30
-1.000000000000000E+20
  9
$PLIMMIN
 10
0.0
 20
0.0
  9
$PLIMMAX
 10
12.0
 20
9.0
  9
$UNITMODE
 70
     0
  9
$VISRETAIN
 70
     1
  9
$PLINEGEN
 70
     0
  9
$PSLTSCALE
 70
     1
  9
$TREEDEPTH
 70
  3020
  9
$CMLSTYLE
  2
Standard
  9
$CMLJUST
 70
     0
  9
$CMLSCALE
 40
1.0
  9
$PROXYGRAPHICS
 70
     1
  9
$MEASUREMENT
 70
     1
  9
$CELWEIGHT
370
    -1
  9
$ENDCAPS
280
     0
  9
$JOINSTYLE
280
     0
  9
$LWDISPLAY
290
     0
  9
$INSUNITS
 70
     4
  9
$HYPERLINKBASE
  1

  9
$STYLESHEET
  1

  9
$XEDIT
290
     1
  9
$CEPSNTYPE
380
     0
  9
$PSTYLEMODE
290
     1
  9
$FINGERPRINTGUID
  2
{87E77964-71D9-49B4-856B-F5F84872C714}
  9
$VERSIONGUID
  2
{8AFA23A7-6690-475E-9E14-1C37DFE64982}
  9
$EXTNAMES
290
     1
  9
$PSVPSCALE
 40
0.0
  9
$OLESTARTUP
290
     0
  0
ENDSEC
  0
SECTION
  2
CLASSES
  0
CLASS
  1
ACDBDICTIONARYWDFLT
  2
AcDbDictionaryWithDefault
  3
ObjectDBX Classes
 90
        0
280
     0
281
     0
  0
CLASS
  1
ACDBPLACEHOLDER
  2
AcDbPlaceHolder
  3
ObjectDBX Classes
 90
        0
280
     0
281
     0
  0
CLASS
  1
LAYOUT
  2
AcDbLayout
  3
ObjectDBX Classes
 90
        0
280
     0
281
     0
  0
CLASS
  1
RASTERVARIABLES
  2
AcDbRasterVariables
  3
ISM
 90
        0
280
     0
281
     0
  0
CLASS
  1
IMAGEDEF
  2
AcDbRasterImageDef
  3
ISM
 90
        0
280
     0
281
     0
  0
CLASS
  1
IMAGEDEF_REACTOR
  2
AcDbRasterImageDefReactor
  3
ISM
 90
    32769
280
     0
281
     0
  0
CLASS
  1
IMAGE
  2
AcDbRasterImage
  3
ISM
 90
    34943
280
     0
281
     1
  0
CLASS
  1
TABLESTYLE
  2
AcDbTableStyle
  3
ObjectDBX Classes
 90
     4095
280
     0
281
     0
  0
CLASS
  1
ACAD_TABLE
  2
AcDbTable
  3
ObjectDBX Classes
 90
    33793
280
     0
281
     1
  0
CLASS
  1
MATERIAL
  2
AcDbMaterial
  3
ObjectDBX Classes
 90
     1153
280
     0
281
     0
  0
CLASS
  1
VISUALSTYLE
  2
AcDbVisualStyle
  3
ObjectDBX Classes
 90
     4095
280
     0
281
     0
  0
CLASS
  1
SCALE
  2
AcDbScale
  3
ObjectDBX Classes
 90
     1153
280
     0
281
     0
  0
CLASS
  1
MLEADERSTYLE
  2
AcDbMLeaderStyle
  3
ACDB_MLEADERSTYLE_CLASS
 90
     4095
280
     0
281
     0
  0
CLASS
  1
AMGSETTINGSOBJ
  2
AmgSettingsObj
  3
"AcadM|Product Description: AutoCAD Mechanical|Company: Autodesk, Inc."
 90
     1024
280
     0
281
     0
  0
CLASS
  1
ACME_DOCUMENT
  2
AcMeDbDoc
  3
AcMeServices
 90
     1024
280
     0
281
     0
  0
CLASS
  1
ACMESCOPE
  2
AcMeScope
  3
AcMeServices
 90
     1024
280
     0
281
     0
  0
CLASS
  1
ACMECOMMANDHISTORY
  2
AcMeCommandHistory
  3
AcMeServices
 90
     1024
280
     0
281
     0
  0
CLASS
  1
ACIMSYSVARMAN
  2
AcImSysVarManager
  3
AcMeServices
 90
     1024
280
     0
281
     0
  0
CLASS
  1
ACIMINTSYSVAR
  2
AcImIntSysVar
  3
AcMeServices
 90
     1024
280
     0
281
     0
  0
CLASS
  1
ACMEDRAWINGMAN
  2
AcMeDrawingMan
  3
AcMeServices
 90
     1024
280
     0
281
     0
  0
CLASS
  1
ACMEVIEW
  2
AcMeView
  3
AcMeServices
 90
     1024
280
     0
281
     0
  0
CLASS
  1
ACDBENTITYCACHE
  2
AcMeEntityCache
  3
AcMeServices
 90
     1024
280
     0
281
     0
  0
CLASS
  1
ACMESTATEMGR
  2
AcMeStateMgr
  3
AcMeServices
 90
     1024
280
     0
281
     0
  0
CLASS
  1
ACGREFMASTER
  2
AcGrefMaster
  3
AcAttribServices
 90
     1024
280
     0
281
     0
  0
CLASS
  1
AM_DRAWING_MGR
  2
AcDmDwgMgr
  3
AcMechDwgViewMgmt
 90
     1024
280
     0
281
     0
  0
CLASS
  1
AM_DWG_DOCUMENT
  2
AcDmDwgDocument
  3
AcMechDwgViewMgmt
 90
     1024
280
     0
281
     0
  0
CLASS
  1
AM_DWG_SHEET
  2
AcDmSheet
  3
AcMechDwgViewMgmt
 90
     1024
280
     0
281
     0
  0
CLASS
  1
AM_VIEWDIMPARMAP
  2
AcDmViewDimParMap
  3
AcMechDwgViewMgmt
 90
     1024
280
     0
281
     0
  0
CLASS
  1
AMDTINTERNALREACTOR
  2
AmdtInternalReactor
  3
AcMeServices
 90
     1024
280
     0
281
     0
  0
CLASS
  1
ACIMREALSYSVAR
  2
AcImRealSysVar
  3
AcMeServices
 90
     1024
280
     0
281
     0
  0
CLASS
  1
AM_DWGMGR_NAME
  2
AcDmDwgMgrName
  3
AcMechDwgViewMgmt
 90
     1024
280
     0
281
     0
  0
CLASS
  1
ACME_DATABASE
  2
AcMeDbDatabase
  3
AcMeServices
 90
     1024
280
     0
281
     0
  0
CLASS
  1
ACRFINSADJUSTERMGR
  2
AcRfInsAdjusterMgr
  3
AcMeServices
 90
     1024
280
     0
281
     0
  0
CLASS
  1
ACGREFACADMASTER
  2
AcGrefacadMaster
  3
AcGrefServices
 90
     1024
280
     0
281
     0
  0
CLASS
  1
AMDTMENUSTATEMGR
  2
AmdtMenuStateMgr
  3
McadcomServices
 90
     1024
280
     0
281
     0
  0
CLASS
  1
AMDTMCOMMENUSTATE
  2
AmdtMcomMenuState
  3
McadcomServices
 90
     1024
280
     0
281
     0
  0
CLASS
  1
AMIMASTER
  2
AmiMaster
  3
AmiServices
 90
     1024
280
     0
281
     0
  0
CLASS
  1
MAPIAMMOUDLE
  2
MApiAmModule
  3
MApiAmServices
 90
     1024
280
     0
281
     0
  0
CLASS
  1
ACIMSTRSYSVAR
  2
AcImStrSysVar
  3
AcMeServices
 90
     1024
280
     0
281
     0
  0
CLASS
  1
AMDTADMENUSTATE
  2
AmdtAdMenuState
  3
DesignerServices
 90
     1024
280
     0
281
     0
  0
CLASS
  1
ADAPPL
  2
AcAdAppl
  3
DesignerServices
 90
     1024
280
     0
281
     0
  0
CLASS
  1
DEPMGR
  2
AcAdDepMgr
  3
DesignerServices
 90
     1024
280
     0
281
     0
  0
CLASS
  1
PARAMMGR
  2
AcAdParamMgr
  3
DesignerServices
 90
     1024
280
     0
281
     0
  0
CLASS
  1
PARAMSCOPE
  2
AcAdParamScope
  3
DesignerServices
 90
     1024
280
     0
281
     0
  0
CLASS
  1
NAMEDAPPL
  2
AcAdNamedAppl
  3
DesignerServices
 90
     1024
280
     0
281
     0
  0
CLASS
  1
AMDTDMMENUSTATE
  2
AmdtDmMenuState
  3
AcMechDwgViewMgmt
 90
     1024
280
     0
281
     0
  0
CLASS
  1
AMDTAMMENUSTATE
  2
AmdtAmMenuState
  3
DesignerAssemblies
 90
     1024
280
     0
281
     0
  0
CLASS
  1
ACAMPROJECT
  2
AcAmProject
  3
DesignerAssemblies
 90
     1024
280
     0
281
     0
  0
CLASS
  1
ACAMGRCOMPDEF
  2
AcAmGrCompDef
  3
DesignerAssemblies
 90
     1024
280
     0
281
     0
  0
CLASS
  1
ACAMCOMPDEF
  2
AcAmCompDef
  3
DesignerAssemblies
 90
     1024
280
     0
281
     0
  0
CLASS
  1
ACAMCOMPDEFMGR
  2
AcAmCompDefMgr
  3
DesignerAssemblies
 90
     1024
280
     0
281
     0
  0
CLASS
  1
AMCONTEXTMGR
  2
AcAmContextMgr
  3
DesignerAssemblies
 90
     1024
280
     0
281
     0
  0
CLASS
  1
ACAMCONTEXTMODELER
  2
AcAmContextModeler
  3
DesignerAssemblies
 90
     1024
280
     0
281
     0
  0
CLASS
  1
ACMDATADICTIONARY
  2
AcmDataDictionary
  3
"AcmSymBB|Product Description: AutoCAD Mechanical|Company: Autodesk, Inc."
 90
     1024
280
     0
281
     0
  0
CLASS
  1
CATALOGSTATE
  2
AcAmCatalogState
  3
DesignerAssemblies
 90
     1024
280
     0
281
     0
  0
CLASS
  1
ACAMGRCOMPDEFSET
  2
AcAmGrCompDefSet
  3
DesignerAssemblies
 90
     1024
280
     0
281
     0
  0
CLASS
  1
AMDTBROWSERDBTAB
  2
AmdtBrowserDbTab
  3
McadcomServices
 90
     1024
280
     0
281
     0
  0
CLASS
  1
CBROWSERAPPOBJECT
  2
CBrowserAppObject
  3
McadcomServices
 90
     1024
280
     0
281
     0
  0
CLASS
  1
DM_PLACEHOLDER
  2
AcDmSelsetPlaceholder
  3
AcMechDwgViewMgmt
 90
     1024
280
     0
281
     0
  0
CLASS
  1
EXACXREFPANELOBJECT
  2
ExAcXREFPanelObject
  3
EXAC_ESW
 90
     1025
280
     0
281
     0
  0
CLASS
  1
NPOCOLLECTION
  2
AcDbImpNonPersistentObjectsCollection
  3
ObjectDBX Classes
 90
     1153
280
     0
281
     0
  0
CLASS
  1
ACMSTANDARDDIN
  2
AcmStandardDIN
  3
"Amdt_StdImp|Product Description: AutoCAD Mechanical|Company: Autodesk, Inc."
 90
     1024
280
     0
281
     0
  0
CLASS
  1
AMDTEDGESTANDARDDIN13715
  2
AmdtEdgeStdDIN13715
  3
"Amdt_StdImp|Product Description: AutoCAD Mechanical|Company: Autodesk, Inc."
 90
     1024
280
     0
281
     0
  0
CLASS
  1
ACMSURFSTANDARDDIN2002
  2
AcmSurfTextStdDIN2002
  3
"Amdt_StdImp|Product Description: AutoCAD Mechanical|Company: Autodesk, Inc."
 90
     1024
280
     0
281
     0
  0
CLASS
  1
ACMFCFSTANDARDDIN
  2
AcmFCFStdDIN
  3
"Amdt_StdImp|Product Description: AutoCAD Mechanical|Company: Autodesk, Inc."
 90
     1024
280
     0
281
     0
  0
CLASS
  1
ACMWELDSTANDARDDIN
  2
AcmWeldingStdDIN
  3
"Amdt_StdImp|Product Description: AutoCAD Mechanical|Company: Autodesk, Inc."
 90
     1024
280
     0
281
     0
  0
CLASS
  1
ACMIDSTANDARDDIN
  2
AcmIdStdDIN
  3
"Amdt_StdImp|Product Description: AutoCAD Mechanical|Company: Autodesk, Inc."
 90
     1024
280
     0
281
     0
  0
CLASS
  1
ACMDATUMSTANDARDDIN
  2
AcmDatumStdDIN
  3
"Amdt_StdImp|Product Description: AutoCAD Mechanical|Company: Autodesk, Inc."
 90
     1024
280
     0
281
     0
  0
CLASS
  1
ACMBOMSTANDARDDIN
  2
AcmBOMStdDIN
  3
"Amdt_StdImp|Product Description: AutoCAD Mechanical|Company: Autodesk, Inc."
 90
     1024
280
     0
281
     0
  0
CLASS
  1
ACMDETAILSTANDARDDIN
  2
AmdtDetailSymStdDIN
  3
"Amdt_StdImp|Product Description: AutoCAD Mechanical|Company: Autodesk, Inc."
 90
     1024
280
     0
281
     0
  0
CLASS
  1
ACMSECTIONSTANDARDDIN
  2
AmdtSectionSymStdDIN
  3
"Amdt_StdImp|Product Description: AutoCAD Mechanical|Company: Autodesk, Inc."
 90
     1024
280
     0
281
     0
  0
CLASS
  1
ACMCENTERLINESTANDARDDIN
  2
AmdtCenterLineStdDIN
  3
"Amdt_StdImp|Product Description: AutoCAD Mechanical|Company: Autodesk, Inc."
 90
     1024
280
     0
281
     0
  0
CLASS
  1
ACMTHREADLINESTANDARDDIN
  2
AmdtThreadLineStdDIN
  3
"Amdt_StdImp|Product Description: AutoCAD Mechanical|Company: Autodesk, Inc."
 90
     1024
280
     0
281
     0
  0
CLASS
  1
ACMNOTESTANDARDDIN
  2
AmdtNoteStdDIN
  3
"Amdt_StdImp|Product Description: AutoCAD Mechanical|Company: Autodesk, Inc."
 90
     1024
280
     0
281
     0
  0
CLASS
  1
ACMTAPERSTANDARDDIN
  2
AcmTaperStdDIN
  3
"Amdt_StdImp|Product Description: AutoCAD Mechanical|Company: Autodesk, Inc."
 90
     1024
280
     0
281
     0
  0
CLASS
  1
ACMANOOTATIONVIEWSTANDARDDIN
  2
AmdtAnViewStdDIN
  3
"Amdt_StdImp|Product Description: AutoCAD Mechanical|Company: Autodesk, Inc."
 90
     1024
280
     0
281
     0
  0
CLASS
  1
ACAMGLAYSTD
  2
AcAmgLayStd
  3
"AmgLay|Product Description: AutoCAD Mechanical|Company: Autodesk, Inc."
 90
     1024
280
     0
281
     0
  0
CLASS
  1
ACAMGDIMSTD
  2
AcAmgDimStd
  3
"AmgDim|Product Description: AutoCAD Mechanical|Company: Autodesk, Inc."
 90
     1024
280
     0
281
     0
  0
CLASS
  1
AMGOBJPROPCFG
  2
AmgObjPropCfg
  3
"AmgLay|Product Description: AutoCAD Mechanical|Company: Autodesk, Inc."
 90
     1025
280
     0
281
     0
  0
CLASS
  1
ACAMGHOLECHARTSTDDIN
  2
AcAmgHoleChartStdDIN
  3
AmgDim|Product Description: AutoCAD Mechanical|Company: Autodesk, Inc.
 90
     1024
280
     0
281
     0
  0
CLASS
  1
ACAMGTITLESTD
  2
AcAmgTitleStd
  3
"AmgTitle|Product Description: AutoCAD Mechanical|Company: Autodesk, Inc."
 90
     4095
280
     0
281
     0
  0
CLASS
  1
AMDTNOTETEMPLATEDB
  2
AmdtNoteTemplateDB
  3
AcmSymBB|Product Description: AutoCAD Mechanical|Company: Autodesk, Inc.
 90
     1024
280
     0
281
     0
  0
CLASS
  1
ACAMGFILTERDAT
  2
AcAmgFilterDat
  3
"AcadM|Product Description: AutoCAD Mechanical|Company: Autodesk, Inc."
 90
    33792
280
     0
281
     0
  0
CLASS
  1
DIMASSOC
  2
AcDbDimAssoc
  3
"AcDbDimAssoc|Product Desc:     AcDim ARX App For Dimension|Company:          Autodesk, Inc.|WEB Address:      www.autodesk.com"
 90
        0
280
     0
281
     0
  0
CLASS
  1
CAMSSTRUCTBTNSTATE
  2
StructBtnState
  3
DesignerAssemblies
 90
    33792
280
     0
281
     0
  0
CLASS
  1
DICTIONARYVAR
  2
AcDbDictionaryVar
  3
ObjectDBX Classes
 90
        0
280
     0
281
     0
  0
CLASS
  1
CELLSTYLEMAP
  2
AcDbCellStyleMap
  3
ObjectDBX Classes
 90
     1152
280
     0
281
     0
  0
CLASS
  1
ACDBDATATABLE
  2
AcDbDataTable
  3
AcMapAnnotObj|Product Desc:     AutoCAD MAP DBX App for Annotation Entity|Company:          Autodesk,Inc.|WEB Address:      www.autodesk.com
 90
    32768
280
     0
281
     0
  0
CLASS
  1
SORTENTSTABLE
  2
AcDbSortentsTable
  3
ObjectDBX Classes
 90
        0
280
     0
281
     0
  0
CLASS
  1
LARGE_RADIAL_DIMENSION
  2
AcDbRadialDimensionLarge
  3
ObjectDBX Classes
 90
    33793
280
     0
281
     1
  0
ENDSEC
  0
SECTION
  2
TABLES
  0
TABLE
  2
VPORT
  5
8
330
0
100
AcDbSymbolTable
 70
     1
  0
VPORT
  5
1F4
330
8
100
AcDbSymbolTableRecord
100
AcDbViewportTableRecord
  2
*ACTIVE
 70
     0
 10
0.0
 20
0.0
 11
1.0
 21
1.0
 12
333.8587346327395
 22
252.4089630685663
 13
0.0
 23
0.0
 14
1.0
 24
1.0
 15
0.0
 25
0.0
 16
0.0
 26
0.0
 36
1.0
 17
0.0
 27
0.0
 37
0.0
 40
1378.261013844207
 41
2.087105038428693
 42
50.0
 43
0.0
 44
0.0
 50
0.0
 51
0.0
 71
     0
 72
   100
 73
     1
 74
     1
 75
     0
 76
     0
 77
     0
 78
     0
281
     0
 65
     0
110
0.0
120
0.0
130
0.0
111
1.0
121
0.0
131
0.0
112
0.0
122
1.0
132
0.0
 79
     0
146
0.0
  0
ENDTAB
  0
TABLE
  2
LTYPE
  5
5
330
0
100
AcDbSymbolTable
 70
    22
  0
LTYPE
  5
14
330
5
100
AcDbSymbolTableRecord
100
AcDbLinetypeTableRecord
  2
BYBLOCK
 70
     0
  3

 72
    65
 73
     0
 40
0.0
  0
LTYPE
  5
15
330
5
100
AcDbSymbolTableRecord
100
AcDbLinetypeTableRecord
  2
BYLAYER
 70
     0
  3

 72
    65
 73
     0
 40
0.0
  0
LTYPE
  5
16
330
5
100
AcDbSymbolTableRecord
100
AcDbLinetypeTableRecord
  2
CONTINUOUS
 70
     0
  3
Solid line
 72
    65
 73
     0
 40
0.0
  0
LTYPE
  5
1F5
330
5
100
AcDbSymbolTableRecord
100
AcDbLinetypeTableRecord
  2
CENTER
 70
     0
  3
____ _ ____ _ ____ _ ____ _ ____ _ ____ _ ____
 72
    65
 73
     4
 40
0.6
 49
0.375
 74
     0
 49
-0.075
 74
     0
 49
0.075
 74
     0
 49
-0.075
 74
     0
  0
LTYPE
  5
1F6
330
5
100
AcDbSymbolTableRecord
100
AcDbLinetypeTableRecord
  2
HIDDEN
 70
     0
  3
- - - - - - - - - - - - - - - - - - - -
 72
    65
 73
     2
 40
0.2
 49
0.1
 74
     0
 49
-0.1
 74
     0
  0
LTYPE
  5
1F7
330
5
100
AcDbSymbolTableRecord
100
AcDbLinetypeTableRecord
  2
PHANTOM
 70
     0
  3
_____ _ _ _____ _ _ _____ _ _ _____
 72
    65
 73
     6
 40
0.8
 49
0.45
 74
     0
 49
-0.05
 74
     0
 49
0.1
 74
     0
 49
-0.05
 74
     0
 49
0.1
 74
     0
 49
-0.05
 74
     0
  0
LTYPE
  5
1F8
330
5
100
AcDbSymbolTableRecord
100
AcDbLinetypeTableRecord
  2
DOT
 70
     0
  3
. . . . . . . . . . . . . . . . . . . .
 72
    65
 73
     2
 40
0.2
 49
0.1
 74
     0
 49
-0.1
 74
     0
  0
LTYPE
  5
1F9
330
5
100
AcDbSymbolTableRecord
100
AcDbLinetypeTableRecord
  2
DASHED
 70
     0
  3
- - - - - - - - - - - - - - - - - - - -
 72
    65
 73
     2
 40
0.2
 49
0.1
 74
     0
 49
-0.1
 74
     0
  0
LTYPE
  5
819
330
5
100
AcDbSymbolTableRecord
100
AcDbLinetypeTableRecord
  2
PHANTOM2
 70
     0
  3
Phantom (.5x) ___ _ _ ___ _ _ ___ _ _ ___ _ _
 72
    65
 73
     6
 40
31.75
 49
15.875
 74
     0
 49
-3.174999999999998
 74
     0
 49
3.174999999999998
 74
     0
 49
-3.174999999999998
 74
     0
 49
3.174999999999998
 74
     0
 49
-3.174999999999998
 74
     0
  0
LTYPE
  5
861
330
5
100
AcDbSymbolTableRecord
100
AcDbLinetypeTableRecord
  2
AM_ISO02W050
 70
     0
  3
__ __ __ __ __ __ __ __ __ __ __ __ __ __ __
 72
    65
 73
     2
 40
7.5
 49
6.0
 74
     0
 49
-1.5
 74
     0
  0
LTYPE
  5
862
330
5
100
AcDbSymbolTableRecord
100
AcDbLinetypeTableRecord
  2
AM_ISO08W050
 70
     0
  3
____ . ____ . ____ . ____ . ____ . ____ . ____
 72
    65
 73
     4
 40
18.0
 49
12.0
 74
     0
 49
-1.5
 74
     0
 49
3.0
 74
     0
 49
-1.5
 74
     0
  0
LTYPE
  5
863
330
5
100
AcDbSymbolTableRecord
100
AcDbLinetypeTableRecord
  2
AM_ISO09W050
 70
     0
  3
_____ . . _____ . . _____ . . ____ .. ____
 72
    65
 73
     6
 40
22.5
 49
12.0
 74
     0
 49
-1.5
 74
     0
 49
3.0
 74
     0
 49
-1.5
 74
     0
 49
3.0
 74
     0
 49
-1.5
 74
     0
  0
LTYPE
  5
864
330
5
100
AcDbSymbolTableRecord
100
AcDbLinetypeTableRecord
  2
Amconstr
 70
     0
  3
_______________________
 72
    65
 73
     2
 40
9999.0
 49
9999.0
 74
     0
 49
0.0
 74
     0
  0
LTYPE
  5
865
330
5
100
AcDbSymbolTableRecord
100
AcDbLinetypeTableRecord
  2
AM_ISO08W050x2
 70
     0
  3
__ . __ . __ . __ . __ . __
 72
    65
 73
     4
 40
9.0
 49
6.0
 74
     0
 49
-0.75
 74
     0
 49
1.5
 74
     0
 49
-0.75
 74
     0
  0
LTYPE
  5
866
330
5
100
AcDbSymbolTableRecord
100
AcDbLinetypeTableRecord
  2
AM_ISO02W050x2
 70
     0
  3
 _ _ _ _ _ _ _ _ _ _ _ _
 72
    65
 73
     2
 40
3.75
 49
3.0
 74
     0
 49
-0.75
 74
     0
  0
LTYPE
  5
869
330
5
100
AcDbSymbolTableRecord
100
AcDbLinetypeTableRecord
  2
Amzigzag
 70
     0
  3
/\/-/\/-/\/-/\/-/\/-/\/
 72
    65
 73
     2
 40
11.0001
 49
0.0001
 74
     4
 75
   136
340
868
 46
0.04
 50
0.0
 44
0.0
 45
0.0
 49
-11.0
 74
     0
  0
LTYPE
  5
86A
330
5
100
AcDbSymbolTableRecord
100
AcDbLinetypeTableRecord
  2
AM_DIN_F_W050
 70
     0
  3
__ __ __ __ __ __ __ __ __ __ __ __ __ __ __
 72
    65
 73
     2
 40
6.25
 49
4.75
 74
     0
 49
-1.5
 74
     0
  0
LTYPE
  5
86B
330
5
100
AcDbSymbolTableRecord
100
AcDbLinetypeTableRecord
  2
AM_DIN_G_W050
 70
     0
  3
____ . ____ . ____ . ____ . ____ . ____ . ____
 72
    65
 73
     4
 40
13.75
 49
9.75
 74
     0
 49
-1.5
 74
     0
 49
1.0
 74
     0
 49
-1.5
 74
     0
  0
LTYPE
  5
86C
330
5
100
AcDbSymbolTableRecord
100
AcDbLinetypeTableRecord
  2
AM_DIN_K_W050
 70
     0
  3
_____ . . _____ . . _____ . . ____ .. ____
 72
    65
 73
     6
 40
16.25
 49
9.75
 74
     0
 49
-1.5
 74
     0
 49
1.0
 74
     0
 49
-1.5
 74
     0
 49
1.0
 74
     0
 49
-1.5
 74
     0
  0
LTYPE
  5
86D
330
5
100
AcDbSymbolTableRecord
100
AcDbLinetypeTableRecord
  2
AM_DIN_G_W050x2
 70
     0
  3
__ . __ . __ . __ . __ . __
 72
    65
 73
     4
 40
6.875
 49
4.75
 74
     0
 49
-0.875
 74
     0
 49
0.375
 74
     0
 49
-0.875
 74
     0
  0
LTYPE
  5
86E
330
5
100
AcDbSymbolTableRecord
100
AcDbLinetypeTableRecord
  2
AM_DIN_F_W050x2
 70
     0
  3
 _ _ _ _ _ _ _ _ _ _ _ _
 72
    65
 73
     2
 40
3.125
 49
2.25
 74
     0
 49
-0.875
 74
     0
  0
LTYPE
  5
87D
330
5
100
AcDbSymbolTableRecord
100
AcDbLinetypeTableRecord
  2
ACDINWELD
 70
     0
  3
_ _ _ _ _
 72
    65
 73
     2
 40
2.0
 49
2.0
 74
     0
 49
-1.0
 74
     0
  0
LTYPE
  5
87E
330
5
100
AcDbSymbolTableRecord
100
AcDbLinetypeTableRecord
  2
ACDINTGB
 70
     0
  3
__ . . __ . .
 72
    65
 73
     6
 40
9.0
 49
4.0
 74
     0
 49
-1.0
 74
     0
 49
1.0
 74
     0
 49
-1.0
 74
     0
 49
1.0
 74
     0
 49
-1.0
 74
     0
  0
LTYPE
  5
87F
330
5
100
AcDbSymbolTableRecord
100
AcDbLinetypeTableRecord
  2
ACDINTGL
 70
     0
  3
_ _ _ _ _
 72
    65
 73
     2
 40
3.0
 49
2.0
 74
     0
 49
-1.0
 74
     0
  0
ENDTAB
  0
TABLE
  2
LAYER
  5
2
102
{ACAD_XDICTIONARY
360
B43
102
}
330
0
100
AcDbSymbolTable
 70
    16
  0
LAYER
  5
10
330
2
100
AcDbSymbolTableRecord
100
AcDbLayerTableRecord
  2
0
 70
     0
 62
     7
  6
CONTINUOUS
370
    -3
390
F
  0
LAYER
  5
1FA
330
2
100
AcDbSymbolTableRecord
100
AcDbLayerTableRecord
  2
DEFAULT_1
 70
     0
 62
     7
  6
CENTER
370
    -3
390
F
  0
LAYER
  5
1FB
330
2
100
AcDbSymbolTableRecord
100
AcDbLayerTableRecord
  2
DEFAULT_2
 70
     0
 62
     8
  6
HIDDEN
370
    -3
390
F
  0
LAYER
  5
1FC
330
2
100
AcDbSymbolTableRecord
100
AcDbLayerTableRecord
  2
DEFAULT_3
 70
     0
 62
     7
  6
PHANTOM
370
    -3
390
F
  0
LAYER
  5
1FD
330
2
100
AcDbSymbolTableRecord
100
AcDbLayerTableRecord
  2
BEZUGSACHSEN
 70
     0
 62
     7
  6
CONTINUOUS
370
    -3
390
F
  0
LAYER
  5
1FE
330
2
100
AcDbSymbolTableRecord
100
AcDbLayerTableRecord
  2
BEZUGSEBENEN
 70
     0
 62
     7
  6
CONTINUOUS
370
    -3
390
F
  0
LAYER
  5
1FF
330
2
100
AcDbSymbolTableRecord
100
AcDbLayerTableRecord
  2
HILFEN
 70
     0
 62
     7
  6
CONTINUOUS
370
    -3
390
F
  0
LAYER
  5
200
330
2
100
AcDbSymbolTableRecord
100
AcDbLayerTableRecord
  2
PLATZIERUNG
 70
     0
 62
     7
  6
CONTINUOUS
370
    -3
390
F
  0
LAYER
  5
201
330
2
100
AcDbSymbolTableRecord
100
AcDbLayerTableRecord
  2
RUNDUNGEN
 70
     0
 62
     7
  6
CONTINUOUS
370
    -3
390
F
  0
LAYER
  5
202
330
2
100
AcDbSymbolTableRecord
100
AcDbLayerTableRecord
  2
TEIL_STARTBEZUEGE
 70
     0
 62
     7
  6
CONTINUOUS
370
    -3
390
F
  0
LAYER
  5
203
330
2
100
AcDbSymbolTableRecord
100
AcDbLayerTableRecord
  2
ZEICHNUNGSBEMASSUNGEN
 70
     0
 62
     7
  6
CONTINUOUS
370
    -3
390
F
  0
LAYER
  5
88D
330
2
100
AcDbSymbolTableRecord
100
AcDbLayerTableRecord
  2
AM_5
 70
     0
 62
     3
  6
CONTINUOUS
370
    25
390
F
1001
AcAecLayerStandard
1000

1000

  0
LAYER
  5
892
330
2
100
AcDbSymbolTableRecord
100
AcDbLayerTableRecord
  2
Defpoints
 70
     0
 62
     7
  6
CONTINUOUS
290
     0
370
    -3
390
F
  0
LAYER
  5
B3F
330
2
100
AcDbSymbolTableRecord
100
AcDbLayerTableRecord
  2
FASEN
 70
     0
 62
     7
  6
CONTINUOUS
370
    -3
390
F
  0
LAYER
  5
B40
330
2
100
AcDbSymbolTableRecord
100
AcDbLayerTableRecord
  2
P-0000
 70
     0
 62
     7
  6
CONTINUOUS
370
    -3
390
F
  0
LAYER
  5
EEF
330
2
100
AcDbSymbolTableRecord
100
AcDbLayerTableRecord
  2
AM_CL
 70
     0
 62
     1
  6
Amconstr
370
    25
390
F
1001
AcAecLayerStandard
1000

1000

  0
ENDTAB
  0
TABLE
  2
STYLE
  5
3
330
0
100
AcDbSymbolTable
 70
    14
  0
STYLE
  5
11
330
3
100
AcDbSymbolTableRecord
100
AcDbTextStyleTableRecord
  2
STANDARD
 70
     0
 40
0.0
 41
0.7
 50
0.0
 71
     0
 42
0.2
  3
txt
  4

  0
STYLE
  5
204
330
3
100
AcDbSymbolTableRecord
100
AcDbTextStyleTableRecord
  2
TEXTSTYLE_1
 70
     0
 40
0.0
 41
0.8
 50
0.0
 71
     0
 42
0.2
  3
gdt
  4

  0
STYLE
  5
205
330
3
100
AcDbSymbolTableRecord
100
AcDbTextStyleTableRecord
  2
TEXTSTYLE_2
 70
     0
 40
0.0
 41
0.7857142857
 50
0.0
 71
     0
 42
0.2
  3
txt
  4

  0
STYLE
  5
206
330
3
100
AcDbSymbolTableRecord
100
AcDbTextStyleTableRecord
  2
TEXTSTYLE_3
 70
     0
 40
0.0
 41
0.8333333333
 50
0.0
 71
     0
 42
0.2
  3
txt
  4

  0
STYLE
  5
207
330
3
100
AcDbSymbolTableRecord
100
AcDbTextStyleTableRecord
  2
TEXTSTYLE_4
 70
     0
 40
0.0
 41
0.9047619047999999
 50
0.0
 71
     0
 42
0.2
  3
txt
  4

  0
STYLE
  5
208
330
3
100
AcDbSymbolTableRecord
100
AcDbTextStyleTableRecord
  2
TEXTSTYLE_5
 70
     0
 40
0.0
 41
0.7142857143000001
 50
0.0
 71
     0
 42
0.2
  3
txt
  4

  0
STYLE
  5
209
330
3
100
AcDbSymbolTableRecord
100
AcDbTextStyleTableRecord
  2
TEXTSTYLE_6
 70
     0
 40
0.0
 41
0.5714285714000003
 50
0.0
 71
     0
 42
0.2
  3
txt
  4

  0
STYLE
  5
20A
330
3
100
AcDbSymbolTableRecord
100
AcDbTextStyleTableRecord
  2
TEXTSTYLE_7
 70
     0
 40
0.0
 41
0.8571428570999998
 50
0.0
 71
     0
 42
0.2
  3
txt
  4

  0
STYLE
  5
20B
330
3
100
AcDbSymbolTableRecord
100
AcDbTextStyleTableRecord
  2
TEXTSTYLE_8
 70
     0
 40
0.0
 41
0.7
 50
0.0
 71
     0
 42
0.2
  3
gdt
  4

  0
STYLE
  5
20C
330
3
100
AcDbSymbolTableRecord
100
AcDbTextStyleTableRecord
  2
TEXTSTYLE_9
 70
     0
 40
0.0
 41
1.0
 50
0.0
 71
     0
 42
0.2
  3
trium.ttf
  4

  0
STYLE
  5
20D
330
3
100
AcDbSymbolTableRecord
100
AcDbTextStyleTableRecord
  2
TEXTSTYLE_10
 70
     0
 40
0.0
 41
1.0
 50
0.0
 71
     0
 42
0.2
  3
trium.ttf
  4

  0
STYLE
  5
868
330
3
100
AcDbSymbolTableRecord
100
AcDbTextStyleTableRecord
  2

 70
     1
 40
0.0
 41
1.0
 50
0.0
 71
     0
 42
0.2
  3
genltshp.shx
  4

  0
STYLE
  5
87B
330
3
100
AcDbSymbolTableRecord
100
AcDbTextStyleTableRecord
  2
ACDINTS
 70
     0
 40
1.0
 41
1.0
 50
0.0
 71
     0
 42
0.2
  3
isocp.shx
  4

  0
STYLE
  5
87C
330
3
100
AcDbSymbolTableRecord
100
AcDbTextStyleTableRecord
  2
ACDINGDT
 70
     0
 40
0.0
 41
1.0
 50
0.0
 71
     0
 42
0.2
  3
amgdt.shx
  4

  0
ENDTAB
  0
TABLE
  2
VIEW
  5
6
330
0
100
AcDbSymbolTable
 70
     0
  0
ENDTAB
  0
TABLE
  2
UCS
  5
7
330
0
100
AcDbSymbolTable
 70
     0
  0
ENDTAB
  0
TABLE
  2
APPID
  5
9
330
0
100
AcDbSymbolTable
 70
    25
  0
APPID
  5
20E
330
9
100
AcDbSymbolTableRecord
100
AcDbRegAppTableRecord
  2
ACAD
 70
     0
  0
APPID
  5
7EE
330
9
100
AcDbSymbolTableRecord
100
AcDbRegAppTableRecord
  2
MCAD_NO_VIS
 70
     0
  0
APPID
  5
7EF
330
9
100
AcDbSymbolTableRecord
100
AcDbRegAppTableRecord
  2
ACAD_TEMP_GRAPHIC
 70
     0
  0
APPID
  5
81B
330
9
100
AcDbSymbolTableRecord
100
AcDbRegAppTableRecord
  2
AD_DRAW
 70
     0
  0
APPID
  5
81E
330
9
100
AcDbSymbolTableRecord
100
AcDbRegAppTableRecord
  2
ACATTRIBSERVICES
 70
     0
  0
APPID
  5
83E
330
9
100
AcDbSymbolTableRecord
100
AcDbRegAppTableRecord
  2
DESIGNERASSEMBLIES
 70
     0
  0
APPID
  5
844
330
9
100
AcDbSymbolTableRecord
100
AcDbRegAppTableRecord
  2
ACADM_DIM_EDIT
 70
     0
  0
APPID
  5
845
330
9
100
AcDbSymbolTableRecord
100
AcDbRegAppTableRecord
  2
AMDT_DM_ADJ
 70
     0
  0
APPID
  5
85E
330
9
100
AcDbSymbolTableRecord
100
AcDbRegAppTableRecord
  2
ACAD_DSTYLE_DIMJAG
 70
     0
  0
APPID
  5
85F
330
9
100
AcDbSymbolTableRecord
100
AcDbRegAppTableRecord
  2
ACAD_DSTYLE_DIMBREAK
 70
     0
  0
APPID
  5
88E
330
9
100
AcDbSymbolTableRecord
100
AcDbRegAppTableRecord
  2
AcAecLayerStandard
 70
     0
  0
APPID
  5
8AC
330
9
100
AcDbSymbolTableRecord
100
AcDbRegAppTableRecord
  2
GENIUS_GENDTOL_13
 70
     0
  0
APPID
  5
8AD
330
9
100
AcDbSymbolTableRecord
100
AcDbRegAppTableRecord
  2
ACAD_DSTYLE_DIMINSPECT
 70
     0
  0
APPID
  5
B42
330
9
100
AcDbSymbolTableRecord
100
AcDbRegAppTableRecord
  2
ACAD_DSTYLE_DIMJOGGED_JOGANGLE_SYMBOL
 70
     0
  0
APPID
  5
F99
330
9
100
AcDbSymbolTableRecord
100
AcDbRegAppTableRecord
  2
ACAD_MLEADERVER
 70
     0
  0
APPID
  5
F9A
330
9
100
AcDbSymbolTableRecord
100
AcDbRegAppTableRecord
  2
ACAD_DSTYLE_DIM_LINETYPE
 70
     0
  0
APPID
  5
F9B
330
9
100
AcDbSymbolTableRecord
100
AcDbRegAppTableRecord
  2
ACAD_DSTYLE_DIM_EXT1_LINETYPE
 70
     0
  0
APPID
  5
F9C
330
9
100
AcDbSymbolTableRecord
100
AcDbRegAppTableRecord
  2
ACAD_DSTYLE_DIM_EXT2_LINETYPE
 70
     0
  0
APPID
  5
1447
330
9
100
AcDbSymbolTableRecord
100
AcDbRegAppTableRecord
  2
ACAD_DSTYLE_DIMANGULAR_EXTENSION
 70
     0
  0
APPID
  5
147B
330
9
100
AcDbSymbolTableRecord
100
AcDbRegAppTableRecord
  2
ACAD_DSTYLE_DIMRADIAL_EXTENSION
 70
     0
  0
APPID
  5
15C7
330
9
100
AcDbSymbolTableRecord
100
AcDbRegAppTableRecord
  2
GENIUS_GENFIL_13
 70
     0
  0
APPID
  5
15C8
330
9
100
AcDbSymbolTableRecord
100
AcDbRegAppTableRecord
  2
GENIUS_GENODEF_13
 70
     0
  0
APPID
  5
15C9
330
9
100
AcDbSymbolTableRecord
100
AcDbRegAppTableRecord
  2
GENIUS_GENOBJ-N-CHA_13
 70
     0
  0
APPID
  5
15CB
330
9
100
AcDbSymbolTableRecord
100
AcDbRegAppTableRecord
  2
GENIUS_GENOBJ-N-FIL_13
 70
     0
  0
APPID
  5
16CC
330
9
100
AcDbSymbolTableRecord
100
AcDbRegAppTableRecord
  2
ACAD_EXEMPT_FROM_CAD_STANDARDS
 70
     0
  0
ENDTAB
  0
TABLE
  2
DIMSTYLE
  5
A
330
0
100
AcDbSymbolTable
 70
    26
100
AcDbDimStyleTable
 71
     2
340
22E
340
B41
  0
DIMSTYLE
105
22E
330
A
100
AcDbSymbolTableRecord
100
AcDbDimStyleTableRecord
  2
STANDARD
 70
     0
 41
3.5
 42
1.5
 44
1.5
 47
0.005
 48
0.005
 71
     1
 73
     0
 74
     0
 77
     1
 78
     8
140
3.5
147
0.625
178
     5
271
     3
272
     3
284
     8
340
11
341
211
342
211
343
211
344
211
  0
DIMSTYLE
105
22F
330
A
100
AcDbSymbolTableRecord
100
AcDbDimStyleTableRecord
  2
DIMSTYLE_1
 70
     0
 41
3.5
 42
1.5
 44
1.5
 47
0.1
 48
0.1
 73
     0
 74
     0
 77
     1
 78
     8
140
3.5
144
0.5
147
0.875
178
     5
271
     3
272
     3
284
     8
340
11
341
211
342
211
343
211
344
211
  0
DIMSTYLE
105
230
330
A
100
AcDbSymbolTableRecord
100
AcDbDimStyleTableRecord
  2
DIMSTYLE_2
 70
     0
 41
3.5
 42
1.5
 44
1.5
 47
0.3
 48
0.3
 73
     0
 74
     0
 77
     1
 78
     8
140
3.5
144
0.5
147
0.875
178
     5
271
     3
272
     3
284
     8
340
11
341
211
342
211
343
211
344
211
  0
DIMSTYLE
105
231
330
A
100
AcDbSymbolTableRecord
100
AcDbDimStyleTableRecord
  2
DIMSTYLE_3
 70
     0
 41
3.5
 42
1.5
 44
1.5
 47
0.5
 48
0.5
 71
     1
 73
     0
 74
     0
 77
     1
 78
     8
140
3.5
144
0.5
147
0.875
178
     5
271
     3
272
     3
284
     8
340
11
341
211
342
211
343
211
344
211
  0
DIMSTYLE
105
232
330
A
100
AcDbSymbolTableRecord
100
AcDbDimStyleTableRecord
  2
DIMSTYLE_4
 70
     0
 41
3.5
 42
1.5
 44
1.5
 47
0.5
 71
     1
 73
     0
 74
     0
 77
     1
 78
     8
140
3.5
144
0.5
146
0.6
147
0.875
178
     5
271
     3
272
     3
284
     8
340
11
341
211
342
211
343
211
344
211
  0
DIMSTYLE
105
233
330
A
100
AcDbSymbolTableRecord
100
AcDbDimStyleTableRecord
  2
DIMSTYLE_5
 70
     0
 41
3.5
 42
1.5
 44
1.5
 47
0.2
 48
0.2
 73
     0
 74
     0
 77
     1
 78
     8
140
3.5
144
5.0
147
0.875
178
     5
271
     3
272
     3
284
     8
340
11
341
211
342
211
343
211
344
211
  0
DIMSTYLE
105
234
330
A
100
AcDbSymbolTableRecord
100
AcDbDimStyleTableRecord
  2
DIMSTYLE_6
 70
     0
 41
3.5
 42
1.5
 44
1.5
 47
1.0
 48
1.0
 71
     1
 73
     0
 74
     0
 77
     1
 78
     8
140
3.5
144
0.5
147
0.875
178
     5
271
     3
272
     3
284
     8
340
11
341
211
342
211
343
211
344
211
  0
DIMSTYLE
105
235
330
A
100
AcDbSymbolTableRecord
100
AcDbDimStyleTableRecord
  2
DIMSTYLE_7
 70
     0
 41
3.5
 42
1.5
 44
1.5
 47
0.2
 48
0.2
 73
     0
 74
     0
 77
     1
 78
     8
140
3.5
144
0.5
147
0.875
178
     5
271
     3
272
     3
284
     8
340
11
341
211
342
211
343
211
344
211
  0
DIMSTYLE
105
236
330
A
100
AcDbSymbolTableRecord
100
AcDbDimStyleTableRecord
  2
DIMSTYLE_8
 70
     0
 41
3.5
 42
1.5
 44
1.5
 47
0.2
 48
0.2
 73
     0
 74
     0
 77
     1
 78
     8
140
3.5
144
0.5
147
0.875
178
     5
271
     1
272
     1
284
     8
340
11
341
211
342
211
343
211
344
211
  0
DIMSTYLE
105
237
330
A
100
AcDbSymbolTableRecord
100
AcDbDimStyleTableRecord
  2
DIMSTYLE_9
 70
     0
 41
3.5
 42
1.5
 44
1.5
 47
1.199999999999999
 48
1.199999999999999
 73
     0
 74
     0
 77
     1
 78
     8
140
3.5
144
5.0
147
0.875
178
     5
271
     3
272
     3
284
     8
340
11
341
211
342
211
343
211
344
211
  0
DIMSTYLE
105
238
330
A
100
AcDbSymbolTableRecord
100
AcDbDimStyleTableRecord
  2
DIMSTYLE_10
 70
     0
 41
3.5
 42
1.5
 44
1.5
 47
0.2
 48
0.2
 73
     0
 74
     0
 77
     1
 78
     8
140
3.5
144
0.5
147
0.875
178
     5
271
     0
272
     0
284
     8
340
11
341
211
342
211
343
211
344
211
  0
DIMSTYLE
105
239
330
A
100
AcDbSymbolTableRecord
100
AcDbDimStyleTableRecord
  2
DIMSTYLE_11
 70
     0
 41
3.5
 42
1.5
 44
1.5
 47
1.0
 48
1.0
 73
     0
 74
     0
 77
     1
 78
     8
140
3.5
144
0.5
147
0.625
178
     5
271
     1
272
     1
284
     8
340
11
341
211
342
211
343
211
344
211
  0
DIMSTYLE
105
23A
330
A
100
AcDbSymbolTableRecord
100
AcDbDimStyleTableRecord
  2
DIMSTYLE_12
 70
     0
 41
3.5
 42
1.5
 44
1.5
 47
0.3
 48
0.3
 73
     0
 74
     0
 77
     1
 78
     8
140
3.5
144
5.0
147
0.875
178
     5
271
     3
272
     3
284
     8
340
11
341
211
342
211
343
211
344
211
  0
DIMSTYLE
105
23B
330
A
100
AcDbSymbolTableRecord
100
AcDbDimStyleTableRecord
  2
DIMSTYLE_13
 70
     0
 41
3.5
 42
1.5
 44
1.5
 47
1.0
 48
1.0
 71
     1
 73
     0
 74
     0
 77
     1
 78
     8
140
3.5
144
0.5
147
0.625
178
     5
271
     1
272
     1
284
     8
340
11
341
211
342
211
343
211
344
211
  0
DIMSTYLE
105
23C
330
A
100
AcDbSymbolTableRecord
100
AcDbDimStyleTableRecord
  2
DIMSTYLE_14
 70
     0
 41
3.5
 42
1.5
 44
1.5
 47
0.1
 48
0.1
 73
     0
 74
     0
 77
     1
 78
     8
140
3.5
144
5.0
147
0.625
178
     5
271
     3
272
     3
284
     8
340
11
341
211
342
211
343
211
344
211
  0
DIMSTYLE
105
23D
330
A
100
AcDbSymbolTableRecord
100
AcDbDimStyleTableRecord
  2
DIMSTYLE_15
 70
     0
 41
3.5
 42
1.5
 44
1.5
 47
0.1
 48
0.1
 73
     0
 74
     0
 77
     1
 78
     8
140
3.5
147
0.875
178
     5
271
     3
272
     3
284
     8
340
11
341
211
342
211
343
211
344
211
  0
DIMSTYLE
105
85D
102
{ACAD_REACTORS
330
179C
102
}
330
A
100
AcDbSymbolTableRecord
100
AcDbDimStyleTableRecord
  2
AM_DIN
 70
     0
  4
"
 41
3.5
 42
1.0
 43
10.0
 44
1.0
 47
0.1
 48
0.1
 73
     0
 74
     0
 77
     1
 78
     8
 79
     2
140
3.5
141
0.0
143
0.0393701
146
0.71
147
1.5
172
     1
176
   256
177
   256
178
     2
271
     2
272
     3
274
     4
283
     0
284
     8
340
11
371
    -1
372
    -1
1001
ACAD_DSTYLE_DIMJAG
1070
   388
1040
1.5
1001
ACAD_DSTYLE_DIMBREAK
1070
   391
1040
3.75
1001
ACAD_DSTYLE_DIMJOGGED_JOGANGLE_SYMBOL
1070
   384
1040
1.570796326794896
1001
ACAD_DSTYLE_DIM_LINETYPE
1070
   380
1005
14
1001
ACAD_DSTYLE_DIM_EXT1_LINETYPE
1070
   381
1005
14
1001
ACAD_DSTYLE_DIM_EXT2_LINETYPE
1070
   382
1005
14
  0
DIMSTYLE
105
86F
330
A
100
AcDbSymbolTableRecord
100
AcDbDimStyleTableRecord
  2
AM_DIN$3
 70
     0
  4
"
 41
3.5
 42
1.0
 43
10.0
 44
1.0
 47
0.1
 48
0.1
 73
     0
 77
     1
 78
     8
 79
     2
140
3.5
141
0.0
143
0.0393701
146
0.71
147
1.5
176
   256
177
   256
178
     2
271
     2
272
     3
274
     4
283
     0
284
     8
288
     1
289
     0
340
11
371
    -1
372
    -1
1001
ACAD_DSTYLE_DIMBREAK
1070
   391
1040
3.75
1001
ACAD_DSTYLE_DIMJAG
1070
   388
1040
1.5
1001
ACAD_DSTYLE_DIMJOGGED_JOGANGLE_SYMBOL
1070
   384
1040
1.570796326794896
1001
ACAD_DSTYLE_DIM_LINETYPE
1070
   380
1005
14
1001
ACAD_DSTYLE_DIM_EXT1_LINETYPE
1070
   381
1005
14
1001
ACAD_DSTYLE_DIM_EXT2_LINETYPE
1070
   382
1005
14
  0
DIMSTYLE
105
870
330
A
100
AcDbSymbolTableRecord
100
AcDbDimStyleTableRecord
  2
AM_DIN$4
 70
     0
  4
"
 41
3.5
 42
1.0
 43
10.0
 44
1.0
 47
0.1
 48
0.1
 73
     0
 77
     1
 78
     8
 79
     2
140
3.5
141
0.0
143
0.0393701
146
0.71
147
1.5
176
   256
177
   256
178
     2
271
     2
272
     3
274
     4
283
     0
284
     8
288
     1
289
     0
340
11
371
    -1
372
    -1
1001
ACAD_DSTYLE_DIMBREAK
1070
   391
1040
3.75
1001
ACAD_DSTYLE_DIMJAG
1070
   388
1040
1.5
1001
ACAD_DSTYLE_DIMJOGGED_JOGANGLE_SYMBOL
1070
   384
1040
1.570796326794896
1001
ACAD_DSTYLE_DIM_LINETYPE
1070
   380
1005
14
1001
ACAD_DSTYLE_DIM_EXT1_LINETYPE
1070
   381
1005
14
1001
ACAD_DSTYLE_DIM_EXT2_LINETYPE
1070
   382
1005
14
  0
DIMSTYLE
105
871
330
A
100
AcDbSymbolTableRecord
100
AcDbDimStyleTableRecord
  2
AM_DIN$6
 70
     0
  4
"
 41
3.5
 42
1.0
 43
10.0
 44
1.0
 47
0.1
 48
0.1
 73
     0
 74
     0
 78
     8
 79
     2
140
3.5
141
0.0
143
0.0393701
146
0.71
147
1.5
172
     1
176
   256
177
   256
178
     2
271
     2
272
     3
274
     4
283
     0
284
     8
340
11
371
    -1
372
    -1
1001
ACAD_DSTYLE_DIMBREAK
1070
   391
1040
3.75
1001
ACAD_DSTYLE_DIMJAG
1070
   388
1040
1.5
1001
ACAD_DSTYLE_DIMJOGGED_JOGANGLE_SYMBOL
1070
   384
1040
1.570796326794896
1001
ACAD_DSTYLE_DIM_LINETYPE
1070
   380
1005
14
1001
ACAD_DSTYLE_DIM_EXT1_LINETYPE
1070
   381
1005
14
1001
ACAD_DSTYLE_DIM_EXT2_LINETYPE
1070
   382
1005
14
  0
DIMSTYLE
105
872
330
A
100
AcDbSymbolTableRecord
100
AcDbDimStyleTableRecord
  2
AM_DIN$7
 70
     0
  4
"
 41
3.5
 42
1.0
 43
10.0
 44
1.0
 47
0.1
 48
0.1
 73
     0
 74
     0
 77
     1
 78
     8
 79
     2
140
3.5
141
0.0
143
0.0393701
146
0.71
147
1.5
172
     1
176
   256
177
   256
178
     2
271
     2
272
     3
274
     4
283
     0
284
     8
340
11
371
    -1
372
    -1
1001
ACAD_DSTYLE_DIMBREAK
1070
   391
1040
3.75
1001
ACAD_DSTYLE_DIMJAG
1070
   388
1040
1.5
1001
ACAD_DSTYLE_DIMJOGGED_JOGANGLE_SYMBOL
1070
   384
1040
1.570796326794896
1001
ACAD_DSTYLE_DIM_LINETYPE
1070
   380
1005
14
1001
ACAD_DSTYLE_DIM_EXT1_LINETYPE
1070
   381
1005
14
1001
ACAD_DSTYLE_DIM_EXT2_LINETYPE
1070
   382
1005
14
  0
DIMSTYLE
105
873
330
A
100
AcDbSymbolTableRecord
100
AcDbDimStyleTableRecord
  2
AM_DIN$SF
 70
     0
  4
"
 41
3.5
 42
1.0
 43
10.0
 44
1.0
 47
0.1
 48
0.1
 73
     0
 74
     0
 75
     1
 76
     1
 77
     1
 78
     8
 79
     2
140
3.5
141
0.0
143
0.0393701
146
0.71
147
1.5
172
     1
176
   256
177
   256
178
     2
271
     2
272
     3
274
     4
283
     0
284
     8
340
11
371
    -1
372
    -1
1001
ACAD_DSTYLE_DIMBREAK
1070
   391
1040
3.75
1001
ACAD_DSTYLE_DIMJAG
1070
   388
1040
1.5
1001
ACAD_DSTYLE_DIMJOGGED_JOGANGLE_SYMBOL
1070
   384
1040
1.570796326794896
1001
ACAD_DSTYLE_DIM_LINETYPE
1070
   380
1005
14
1001
ACAD_DSTYLE_DIM_EXT1_LINETYPE
1070
   381
1005
14
1001
ACAD_DSTYLE_DIM_EXT2_LINETYPE
1070
   382
1005
14
  0
DIMSTYLE
105
878
330
A
100
AcDbSymbolTableRecord
100
AcDbDimStyleTableRecord
  2
AM_DIN$SH
 70
     0
  4
"
 41
3.5
 42
1.0
 43
10.0
 44
1.0
 47
0.1
 48
0.1
 73
     0
 74
     0
 75
     1
 76
     1
 77
     1
 78
     8
 79
     2
140
3.5
141
0.0
143
0.0393701
144
2.0
146
0.71
147
1.5
172
     1
173
     1
176
   256
177
   256
178
     2
271
     2
272
     3
274
     4
283
     0
284
     8
340
11
343
874
371
    -1
372
    -1
1001
ACAD_DSTYLE_DIMBREAK
1070
   391
1040
3.75
1001
ACAD_DSTYLE_DIMJAG
1070
   388
1040
1.5
1001
ACAD_DSTYLE_DIMJOGGED_JOGANGLE_SYMBOL
1070
   384
1040
1.570796326794896
1001
ACAD_DSTYLE_DIM_LINETYPE
1070
   380
1005
14
1001
ACAD_DSTYLE_DIM_EXT1_LINETYPE
1070
   381
1005
14
1001
ACAD_DSTYLE_DIM_EXT2_LINETYPE
1070
   382
1005
14
  0
DIMSTYLE
105
88F
330
A
100
AcDbSymbolTableRecord
100
AcDbDimStyleTableRecord
  2
STANDARD$0
 70
     0
 41
3.5
 42
1.5
 44
1.5
 47
0.005
 48
0.005
 71
     1
 73
     0
 74
     0
 77
     1
 78
     8
140
3.5
147
0.625
178
     5
271
     3
272
     3
284
     8
340
11
341
211
342
211
343
211
344
211
1001
ACAD_DSTYLE_DIMBREAK
1070
   391
1040
3.75
1001
ACAD_DSTYLE_DIMJAG
1070
   388
1040
1.5
  0
DIMSTYLE
105
B41
102
{ACAD_REACTORS
330
14C3
330
1560
330
15CD
102
}
330
A
100
AcDbSymbolTableRecord
100
AcDbDimStyleTableRecord
  2
883N99122_001_00149479900
 70
     0
 40
2.0
 41
3.149999999999999
 42
0.0
 43
3.75
 44
2.0
 73
     0
 74
     0
 77
     1
 78
     8
 79
     2
140
3.5
141
0.0
143
0.03937007874016
145
2.0
147
2.0
171
     3
172
     1
173
     1
176
     3
177
     3
178
     2
179
     2
271
     2
272
     2
274
     3
283
     0
284
     8
340
11
341
B30
  0
DIMSTYLE
105
1418
330
A
100
AcDbSymbolTableRecord
100
AcDbDimStyleTableRecord
  2
STANDARD$2
 70
     0
 41
3.5
 42
1.5
 44
1.5
 47
0.005
 48
0.005
 71
     1
 73
     0
 74
     0
 77
     1
 78
     8
140
3.5
147
0.625
178
     5
271
     3
272
     3
284
     8
340
11
341
211
342
211
343
211
344
211
1001
ACAD_DSTYLE_DIMBREAK
1070
   391
1040
3.75
1001
ACAD_DSTYLE_DIMJAG
1070
   388
1040
1.5
  0
ENDTAB
  0
TABLE
  2
BLOCK_RECORD
  5
1
330
0
100
AcDbSymbolTable
 70
    31
  0
BLOCK_RECORD
  5
20F
102
{ACAD_XDICTIONARY
360
15C5
102
}
330
1
100
AcDbSymbolTableRecord
100
AcDbBlockTableRecord
  2
*Model_Space
340
79C
  0
BLOCK_RECORD
  5
210
330
1
100
AcDbSymbolTableRecord
100
AcDbBlockTableRecord
  2
*Paper_Space
340
79D
  0
BLOCK_RECORD
  5
211
330
1
100
AcDbSymbolTableRecord
100
AcDbBlockTableRecord
  2
_FILLED
340
0
102
{BLKREFS
331
916
331
917
331
920
331
921
331
929
331
92A
331
932
331
933
331
93A
331
94D
331
94E
331
1455
331
1456
331
1522
331
1523
102
}
  0
BLOCK_RECORD
  5
216
330
1
100
AcDbSymbolTableRecord
100
AcDbBlockTableRecord
  2
*D1
340
0
  0
BLOCK_RECORD
  5
218
330
1
100
AcDbSymbolTableRecord
100
AcDbBlockTableRecord
  2
*D2
340
0
  0
BLOCK_RECORD
  5
21C
330
1
100
AcDbSymbolTableRecord
100
AcDbBlockTableRecord
  2
*D3
340
0
  0
BLOCK_RECORD
  5
21F
330
1
100
AcDbSymbolTableRecord
100
AcDbBlockTableRecord
  2
*D4
340
0
  0
BLOCK_RECORD
  5
224
330
1
100
AcDbSymbolTableRecord
100
AcDbBlockTableRecord
  2
*D5
340
0
  0
BLOCK_RECORD
  5
229
330
1
100
AcDbSymbolTableRecord
100
AcDbBlockTableRecord
  2
SYMBOL_1_BL0
340
0
  0
BLOCK_RECORD
  5
874
330
1
100
AcDbSymbolTableRecord
100
AcDbBlockTableRecord
  2
GENAXEH
340
0
  0
BLOCK_RECORD
  5
893
330
1
100
AcDbSymbolTableRecord
100
AcDbBlockTableRecord
  2
*D8
340
0
  0
BLOCK_RECORD
  5
8E1
330
1
100
AcDbSymbolTableRecord
100
AcDbBlockTableRecord
  2
*D9
340
0
  0
BLOCK_RECORD
  5
A99
330
1
100
AcDbSymbolTableRecord
100
AcDbBlockTableRecord
  2
*D10
340
0
  0
BLOCK_RECORD
  5
ACB
330
1
100
AcDbSymbolTableRecord
100
AcDbBlockTableRecord
  2
*D11
340
0
  0
BLOCK_RECORD
  5
B00
330
1
100
AcDbSymbolTableRecord
100
AcDbBlockTableRecord
  2
*D12
340
0
  0
BLOCK_RECORD
  5
B0C
330
1
100
AcDbSymbolTableRecord
100
AcDbBlockTableRecord
  2
*D13
340
0
  0
BLOCK_RECORD
  5
B18
330
1
100
AcDbSymbolTableRecord
100
AcDbBlockTableRecord
  2
*D14
340
0
  0
BLOCK_RECORD
  5
B24
330
1
100
AcDbSymbolTableRecord
100
AcDbBlockTableRecord
  2
*D15
340
0
  0
BLOCK_RECORD
  5
B30
330
1
100
AcDbSymbolTableRecord
100
AcDbBlockTableRecord
  2
_None
340
0
  0
BLOCK_RECORD
  5
B33
330
1
100
AcDbSymbolTableRecord
100
AcDbBlockTableRecord
  2
*D17
340
0
  0
BLOCK_RECORD
  5
D29
330
1
100
AcDbSymbolTableRecord
100
AcDbBlockTableRecord
  2
*D18
340
0
  0
BLOCK_RECORD
  5
D35
330
1
100
AcDbSymbolTableRecord
100
AcDbBlockTableRecord
  2
*D19
340
0
  0
BLOCK_RECORD
  5
D41
330
1
100
AcDbSymbolTableRecord
100
AcDbBlockTableRecord
  2
*D20
340
0
  0
BLOCK_RECORD
  5
D56
330
1
100
AcDbSymbolTableRecord
100
AcDbBlockTableRecord
  2
*D21
340
0
  0
BLOCK_RECORD
  5
D62
330
1
100
AcDbSymbolTableRecord
100
AcDbBlockTableRecord
  2
*D22
340
0
  0
BLOCK_RECORD
  5
1018
330
1
100
AcDbSymbolTableRecord
100
AcDbBlockTableRecord
  2
*D23
340
0
  0
BLOCK_RECORD
  5
1222
330
1
100
AcDbSymbolTableRecord
100
AcDbBlockTableRecord
  2
*D24
340
0
  0
BLOCK_RECORD
  5
141B
330
1
100
AcDbSymbolTableRecord
100
AcDbBlockTableRecord
  2
*D25
340
0
  0
BLOCK_RECORD
  5
14C4
330
1
100
AcDbSymbolTableRecord
100
AcDbBlockTableRecord
  2
*D26
340
0
  0
BLOCK_RECORD
  5
14FB
330
1
100
AcDbSymbolTableRecord
100
AcDbBlockTableRecord
  2
*D27
340
0
  0
BLOCK_RECORD
  5
1561
330
1
100
AcDbSymbolTableRecord
100
AcDbBlockTableRecord
  2
*D28
340
0
  0
BLOCK_RECORD
  5
15CE
330
1
100
AcDbSymbolTableRecord
100
AcDbBlockTableRecord
  2
*D29
340
0
  0
ENDTAB
  0
ENDSEC
  0
SECTION
  2
BLOCKS
  0
BLOCK
  5
20
330
20F
100
AcDbEntity
  8
0
100
AcDbBlockBegin
  2
*Model_Space
 70
     0
 10
0.0
 20
0.0
 30
0.0
  3
*Model_Space
  1

  0
ENDBLK
  5
21
330
20F
100
AcDbEntity
  8
0
100
AcDbBlockEnd
  0
BLOCK
  5
1C
330
210
100
AcDbEntity
 67
     1
  8
0
100
AcDbBlockBegin
  2
*Paper_Space
 70
     0
 10
0.0
 20
0.0
 30
0.0
  3
*Paper_Space
  1

  0
ENDBLK
  5
1D
330
210
100
AcDbEntity
 67
     1
  8
0
100
AcDbBlockEnd
  0
BLOCK
  5
249
330
211
100
AcDbEntity
  8
0
100
AcDbBlockBegin
  2
_FILLED
 70
     0
 10
0.0
 20
0.0
 30
0.0
  3
_FILLED
  1

  0
SOLID
  5
24A
330
211
100
AcDbEntity
  8
0
  6
ByBlock
 62
     0
100
AcDbTrace
 10
0.0
 20
0.0
 30
0.0
 11
-1.0
 21
0.125
 31
0.0
 12
-1.0
 22
-0.125
 32
0.0
 13
-1.0
 23
-0.125
 33
0.0
  0
ENDBLK
  5
24B
330
211
100
AcDbEntity
  8
0
  6
ByBlock
 62
     0
100
AcDbBlockEnd
  0
BLOCK
  5
274
330
216
100
AcDbEntity
  8
ZEICHNUNGSBEMASSUNGEN
  6
Continuous
 62
     2
100
AcDbBlockBegin
  2
*D1
 70
     1
 10
0.0
 20
0.0
 30
0.0
  3
*D1
  1

  0
LINE
  5
912
330
216
100
AcDbEntity
  8
ZEICHNUNGSBEMASSUNGEN
  6
Continuous
 62
     0
370
    -2
100
AcDbLine
 10
-152.4917773227203
 20
296.008687794872
 30
0.0
 11
-152.4917773227203
 21
210.693063917872
 31
0.0
  0
LINE
  5
913
330
216
100
AcDbEntity
  8
ZEICHNUNGSBEMASSUNGEN
  6
Continuous
 62
     0
370
    -2
100
AcDbLine
 10
-159.4917773227204
 20
287.852990135872
 30
0.0
 11
-159.4917773227204
 21
210.693063917872
 31
0.0
  0
LINE
  5
914
330
216
100
AcDbEntity
  8
ZEICHNUNGSBEMASSUNGEN
  6
Continuous
 62
     0
370
    -2
100
AcDbLine
 10
-148.9917773227204
 20
212.193063917872
 30
0.0
 11
-145.4917773227203
 21
212.193063917872
 31
0.0
  0
LINE
  5
915
330
216
100
AcDbEntity
  8
ZEICHNUNGSBEMASSUNGEN
  6
Continuous
 62
     0
370
    -2
100
AcDbLine
 10
-162.9917773227204
 20
212.193063917872
 30
0.0
 11
-179.975336835887
 21
212.193063917872
 31
0.0
  0
INSERT
  5
916
330
216
100
AcDbEntity
  8
ZEICHNUNGSBEMASSUNGEN
  6
Continuous
 62
     0
370
    -2
100
AcDbBlockReference
  2
_FILLED
 10
-152.4917773227203
 20
212.193063917872
 30
0.0
 41
3.5
 42
3.5
 43
3.5
 50
180.0
  0
INSERT
  5
917
330
216
100
AcDbEntity
  8
ZEICHNUNGSBEMASSUNGEN
  6
Continuous
 62
     0
370
    -2
100
AcDbBlockReference
  2
_FILLED
 10
-159.4917773227204
 20
212.193063917872
 30
0.0
 41
3.5
 42
3.5
 43
3.5
  0
MTEXT
  5
918
330
216
100
AcDbEntity
  8
ZEICHNUNGSBEMASSUNGEN
  6
Continuous
 62
     5
100
AcDbMText
 10
-177.4670035025536
 20
216.568063917872
 30
0.0
 40
3.5
 41
0.0
 71
     3
 72
     1
  1
\A1;a
 73
     1
 44
1.0
1001
ACAD
1000
MTEXTBEGIN
1070
    73
1070
     1
1070
    44
1040
1.0
1070
    74
1070
     0
1000
MTEXTEND
  0
POINT
  5
919
330
216
100
AcDbEntity
  8
Defpoints
  6
Continuous
 62
     0
100
AcDbPoint
 10
-152.4917773227203
 20
297.508687794872
 30
0.0
  0
POINT
  5
91A
330
216
100
AcDbEntity
  8
Defpoints
  6
Continuous
 62
     0
100
AcDbPoint
 10
-159.4917773227204
 20
289.352990135872
 30
0.0
  0
POINT
  5
91B
330
216
100
AcDbEntity
  8
Defpoints
  6
Continuous
 62
     0
100
AcDbPoint
 10
-159.4917773227204
 20
212.193063917872
 30
0.0
  0
ENDBLK
  5
27E
330
216
100
AcDbEntity
  8
0
  6
ByBlock
 62
     0
100
AcDbBlockEnd
  0
BLOCK
  5
28A
330
218
100
AcDbEntity
  8
ZEICHNUNGSBEMASSUNGEN
  6
Continuous
 62
     2
100
AcDbBlockBegin
  2
*D2
 70
     1
 10
0.0
 20
0.0
 30
0.0
  3
*D2
  1

  0
LINE
  5
91C
330
218
100
AcDbEntity
  8
ZEICHNUNGSBEMASSUNGEN
  6
Continuous
 62
     0
370
    -2
100
AcDbLine
 10
-152.4917773227203
 20
311.4854689923718
 30
0.0
 11
-152.4917773227203
 21
388.8665292413719
 31
0.0
  0
LINE
  5
91D
330
218
100
AcDbEntity
  8
ZEICHNUNGSBEMASSUNGEN
  6
Continuous
 62
     0
370
    -2
100
AcDbLine
 10
-124.4917773227204
 20
311.4854689923718
 30
0.0
 11
-124.4917773227204
 21
388.8665292413719
 31
0.0
  0
LINE
  5
91E
330
218
100
AcDbEntity
  8
ZEICHNUNGSBEMASSUNGEN
  6
Continuous
 62
     0
370
    -2
100
AcDbLine
 10
-148.9917773227204
 20
387.3665292413718
 30
0.0
 11
-127.9917773227204
 21
387.3665292413718
 31
0.0
  0
LINE
  5
91F
330
218
100
AcDbEntity
  8
ZEICHNUNGSBEMASSUNGEN
  6
Continuous
 62
     0
370
    -2
100
AcDbLine
 10
-124.4917773227204
 20
387.3665292413718
 30
0.0
 11
-85.14816754555369
 21
387.3665292413718
 31
0.0
  0
INSERT
  5
920
330
218
100
AcDbEntity
  8
ZEICHNUNGSBEMASSUNGEN
  6
Continuous
 62
     0
370
    -2
100
AcDbBlockReference
  2
_FILLED
 10
-152.4917773227203
 20
387.3665292413718
 30
0.0
 41
3.5
 42
3.5
 43
3.5
 50
180.0
  0
INSERT
  5
921
330
218
100
AcDbEntity
  8
ZEICHNUNGSBEMASSUNGEN
  6
Continuous
 62
     0
370
    -2
100
AcDbBlockReference
  2
_FILLED
 10
-124.4917773227204
 20
387.3665292413718
 30
0.0
 41
3.5
 42
3.5
 43
3.5
  0
MTEXT
  5
922
330
218
100
AcDbEntity
  8
ZEICHNUNGSBEMASSUNGEN
  6
Continuous
 62
     5
100
AcDbMText
 10
-87.65650087888703
 20
391.7415292413719
 30
0.0
 40
3.5
 41
0.0
 71
     1
 72
     1
  1
\A1;b
 73
     1
 44
1.0
1001
ACAD
1000
MTEXTBEGIN
1070
    73
1070
     1
1070
    44
1040
1.0
1070
    74
1070
     0
1000
MTEXTEND
  0
POINT
  5
923
330
218
100
AcDbEntity
  8
Defpoints
  6
Continuous
 62
     0
100
AcDbPoint
 10
-152.4917773227203
 20
309.9854689923718
 30
0.0
  0
POINT
  5
924
330
218
100
AcDbEntity
  8
Defpoints
  6
Continuous
 62
     0
100
AcDbPoint
 10
-124.4917773227204
 20
309.9854689923718
 30
0.0
  0
POINT
  5
925
330
218
100
AcDbEntity
  8
Defpoints
  6
Continuous
 62
     0
100
AcDbPoint
 10
-124.4917773227204
 20
387.3665292413718
 30
0.0
  0
ENDBLK
  5
294
330
218
100
AcDbEntity
  8
0
  6
ByBlock
 62
     0
100
AcDbBlockEnd
  0
BLOCK
  5
2B2
330
21C
100
AcDbEntity
  8
ZEICHNUNGSBEMASSUNGEN
  6
Continuous
 62
     2
100
AcDbBlockBegin
  2
*D3
 70
     1
 10
0.0
 20
0.0
 30
0.0
  3
*D3
  1

  0
LINE
  5
926
330
21C
100
AcDbEntity
  8
ZEICHNUNGSBEMASSUNGEN
  6
Continuous
 62
     0
370
    -2
100
AcDbLine
 10
-152.4917773227203
 20
311.4854689923718
 30
0.0
 11
-152.4917773227203
 21
447.8876213203718
 31
0.0
  0
LINE
  5
927
330
21C
100
AcDbEntity
  8
ZEICHNUNGSBEMASSUNGEN
  6
Continuous
 62
     0
370
    -2
100
AcDbLine
 10
1303.50822267728
 20
311.4854689923718
 30
0.0
 11
1303.50822267728
 21
447.8876213203718
 31
0.0
  0
LINE
  5
928
330
21C
100
AcDbEntity
  8
ZEICHNUNGSBEMASSUNGEN
  6
Continuous
 62
     0
370
    -2
100
AcDbLine
 10
-148.9917773227204
 20
446.3876213203716
 30
0.0
 11
1300.00822267728
 21
446.3876213203716
 31
0.0
  0
INSERT
  5
929
330
21C
100
AcDbEntity
  8
ZEICHNUNGSBEMASSUNGEN
  6
Continuous
 62
     0
370
    -2
100
AcDbBlockReference
  2
_FILLED
 10
-152.4917773227203
 20
446.3876213203716
 30
0.0
 41
3.5
 42
3.5
 43
3.5
 50
180.0
  0
INSERT
  5
92A
330
21C
100
AcDbEntity
  8
ZEICHNUNGSBEMASSUNGEN
  6
Continuous
 62
     0
370
    -2
100
AcDbBlockReference
  2
_FILLED
 10
1303.50822267728
 20
446.3876213203716
 30
0.0
 41
3.5
 42
3.5
 43
3.5
  0
MTEXT
  5
92B
330
21C
100
AcDbEntity
  8
ZEICHNUNGSBEMASSUNGEN
  6
Continuous
 62
     5
100
AcDbMText
 10
575.5082226772797
 20
450.7626213203717
 30
0.0
 40
3.5
 41
0.0
 71
     2
 72
     1
  1
\A1;N x b=(7280)
 73
     1
 44
1.0
1001
ACAD
1000
MTEXTBEGIN
1070
    73
1070
     1
1070
    44
1040
1.0
1070
    74
1070
     0
1000
MTEXTEND
  0
POINT
  5
92C
330
21C
100
AcDbEntity
  8
Defpoints
  6
Continuous
 62
     0
100
AcDbPoint
 10
-152.4917773227203
 20
309.9854689923718
 30
0.0
  0
POINT
  5
92D
330
21C
100
AcDbEntity
  8
Defpoints
  6
Continuous
 62
     0
100
AcDbPoint
 10
1303.50822267728
 20
309.9854689923718
 30
0.0
  0
POINT
  5
92E
330
21C
100
AcDbEntity
  8
Defpoints
  6
Continuous
 62
     0
100
AcDbPoint
 10
1303.50822267728
 20
446.3876213203716
 30
0.0
  0
ENDBLK
  5
2BA
330
21C
100
AcDbEntity
  8
0
  6
ByBlock
 62
     0
100
AcDbBlockEnd
  0
BLOCK
  5
2CD
330
21F
100
AcDbEntity
  8
ZEICHNUNGSBEMASSUNGEN
  6
Continuous
 62
     2
100
AcDbBlockBegin
  2
*D4
 70
     1
 10
0.0
 20
0.0
 30
0.0
  3
*D4
  1

  0
LINE
  5
92F
330
21F
100
AcDbEntity
  8
ZEICHNUNGSBEMASSUNGEN
  6
Continuous
 62
     0
370
    -2
100
AcDbLine
 10
-159.4917773227204
 20
318.4854689923718
 30
0.0
 11
-159.4917773227204
 21
493.1263815363719
 31
0.0
  0
LINE
  5
930
330
21F
100
AcDbEntity
  8
ZEICHNUNGSBEMASSUNGEN
  6
Continuous
 62
     0
370
    -2
100
AcDbLine
 10
1330.508222677279
 20
318.4854689923718
 30
0.0
 11
1330.508222677279
 21
493.1263815363719
 31
0.0
  0
LINE
  5
931
330
21F
100
AcDbEntity
  8
ZEICHNUNGSBEMASSUNGEN
  6
Continuous
 62
     0
370
    -2
100
AcDbLine
 10
-155.9917773227204
 20
491.6263815363718
 30
0.0
 11
1327.008222677279
 21
491.6263815363718
 31
0.0
  0
INSERT
  5
932
330
21F
100
AcDbEntity
  8
ZEICHNUNGSBEMASSUNGEN
  6
Continuous
 62
     0
370
    -2
100
AcDbBlockReference
  2
_FILLED
 10
-159.4917773227204
 20
491.6263815363718
 30
0.0
 41
3.5
 42
3.5
 43
3.5
 50
180.0
  0
INSERT
  5
933
330
21F
100
AcDbEntity
  8
ZEICHNUNGSBEMASSUNGEN
  6
Continuous
 62
     0
370
    -2
100
AcDbBlockReference
  2
_FILLED
 10
1330.508222677279
 20
491.6263815363718
 30
0.0
 41
3.5
 42
3.5
 43
3.5
  0
MTEXT
  5
934
330
21F
100
AcDbEntity
  8
ZEICHNUNGSBEMASSUNGEN
  6
Continuous
 62
     5
100
AcDbMText
 10
585.5082226772797
 20
496.0013815363716
 30
0.0
 40
3.5
 41
0.0
 71
     2
 72
     1
  1
\A1;L%%p1
 73
     1
 44
1.0
1001
ACAD
1000
MTEXTBEGIN
1070
    73
1070
     1
1070
    44
1040
1.0
1070
    74
1070
     0
1000
MTEXTEND
  0
POINT
  5
935
330
21F
100
AcDbEntity
  8
Defpoints
  6
Continuous
 62
     0
100
AcDbPoint
 10
-159.4917773227204
 20
316.9854689923718
 30
0.0
  0
POINT
  5
936
330
21F
100
AcDbEntity
  8
Defpoints
  6
Continuous
 62
     0
100
AcDbPoint
 10
1330.508222677279
 20
316.9854689923718
 30
0.0
  0
POINT
  5
937
330
21F
100
AcDbEntity
  8
Defpoints
  6
Continuous
 62
     0
100
AcDbPoint
 10
1330.508222677279
 20
491.6263815363718
 30
0.0
  0
ENDBLK
  5
2D5
330
21F
100
AcDbEntity
  8
0
  6
ByBlock
 62
     0
100
AcDbBlockEnd
  0
BLOCK
  5
300
330
224
100
AcDbEntity
  8
ZEICHNUNGSBEMASSUNGEN
  6
Continuous
 62
     2
100
AcDbBlockBegin
  2
*D5
 70
     1
 10
0.0
 20
0.0
 30
0.0
  3
*D5
  1

  0
LINE
  5
938
330
224
100
AcDbEntity
  8
ZEICHNUNGSBEMASSUNGEN
  6
Continuous
 62
     0
370
    -2
100
AcDbLine
 10
-199.0428391825917
 20
354.4248165290709
 30
0.0
 11
-161.4809115144679
 21
318.7718668054877
 31
0.0
  0
MTEXT
  5
939
330
224
100
AcDbEntity
  8
ZEICHNUNGSBEMASSUNGEN
  6
Continuous
 62
     5
100
AcDbMText
 10
-191.8996112097139
 20
353.331947107804
 30
0.0
 40
3.5
 41
0.0
 71
     3
 72
     1
  1
\A1;R10
 11
0.7252971257850099
 21
-0.6884359660331553
 31
0.0
 73
     1
 44
1.0
1001
ACAD
1000
MTEXTBEGIN
1070
    73
1070
     1
1070
    44
1040
1.0
1070
    74
1070
     0
1000
MTEXTEND
  0
INSERT
  5
93A
330
224
100
AcDbEntity
  8
ZEICHNUNGSBEMASSUNGEN
  6
Continuous
 62
     0
370
    -2
100
AcDbBlockReference
  2
_FILLED
 10
-158.9423715742204
 20
316.3623409243716
 30
0.0
 41
3.5
 42
3.5
 43
3.5
 50
316.4935708078
  0
LINE
  5
93B
330
224
100
AcDbEntity
  8
ZEICHNUNGSBEMASSUNGEN
  6
Continuous
 62
     0
370
    -2
100
AcDbLine
 10
-157.5817773227203
 20
314.9854689923718
 30
0.0
 11
-157.4017773227203
 21
314.9854689923718
 31
0.0
  0
LINE
  5
93C
330
224
100
AcDbEntity
  8
ZEICHNUNGSBEMASSUNGEN
  6
Continuous
 62
     0
370
    -2
100
AcDbLine
 10
-157.4917773227203
 20
314.8954689923718
 30
0.0
 11
-157.4917773227203
 21
315.0754689923717
 31
0.0
  0
POINT
  5
93D
330
224
100
AcDbEntity
  8
Defpoints
  6
Continuous
 62
     0
100
AcDbPoint
 10
-158.9423715742204
 20
316.3623409243716
 30
0.0
  0
POINT
  5
93E
330
224
100
AcDbEntity
  8
Defpoints
  6
Continuous
 62
     0
100
AcDbPoint
 10
-157.4917773227203
 20
314.9854689923718
 30
0.0
  0
ENDBLK
  5
304
330
224
100
AcDbEntity
  8
0
  6
ByBlock
 62
     0
100
AcDbBlockEnd
  0
BLOCK
  5
23E
330
229
100
AcDbEntity
  8
0
  6
Continuous
 62
     2
100
AcDbBlockBegin
  2
SYMBOL_1_BL0
 70
     0
 10
316.3999935624
 20
37.62500189999999
 30
0.0
  3
SYMBOL_1_BL0
  1

  0
LINE
  5
23F
330
229
100
AcDbEntity
  8
0
  6
Continuous
 62
     7
100
AcDbLine
 10
410.0
 20
65.25000379999998
 30
0.0
 11
222.7999871247
 21
65.25000379999998
 31
0.0
  0
LINE
  5
240
330
229
100
AcDbEntity
  8
0
  6
Continuous
 62
     7
100
AcDbLine
 10
222.7999871247
 20
65.25000379999998
 30
0.0
 11
222.7999871247
 21
10.0
 31
0.0
  0
LINE
  5
241
330
229
100
AcDbEntity
  8
0
  6
Continuous
 62
     7
100
AcDbLine
 10
222.7999871247
 20
10.0
 30
0.0
 11
410.0
 21
10.0
 31
0.0
  0
LINE
  5
242
330
229
100
AcDbEntity
  8
0
  6
Continuous
 62
     7
100
AcDbLine
 10
410.0
 20
10.0
 30
0.0
 11
410.0
 21
65.25000379999998
 31
0.0
  0
LINE
  5
243
330
229
100
AcDbEntity
  8
0
  6
Continuous
 62
     7
100
AcDbLine
 10
277.39999088
 20
65.25000379999998
 30
0.0
 11
277.39999088
 21
10.0
 31
0.0
  0
LINE
  5
244
330
229
100
AcDbEntity
  8
0
  6
Continuous
 62
     7
100
AcDbLine
 10
321.59999392
 20
65.25000379999998
 30
0.0
 11
321.59999392
 21
10.0
 31
0.0
  0
LINE
  5
245
330
229
100
AcDbEntity
  8
0
  6
Continuous
 62
     7
100
AcDbLine
 10
222.7999871247
 20
48.25000263079999
 30
0.0
 11
410.0
 21
48.25000263079999
 31
0.0
  0
LINE
  5
246
330
229
100
AcDbEntity
  8
0
  6
Continuous
 62
     7
100
AcDbLine
 10
396.9999991059
 20
27.0000011692
 30
0.0
 11
396.9999991059
 21
14.2500002923
 31
0.0
  0
LINE
  5
247
330
229
100
AcDbEntity
  8
0
  6
Continuous
 62
     7
100
AcDbLine
 10
277.39999088
 20
27.0000011692
 30
0.0
 11
410.0
 21
27.0000011692
 31
0.0
  0
ENDBLK
  5
248
330
229
100
AcDbEntity
  8
0
  6
ByBlock
 62
     0
100
AcDbBlockEnd
  0
BLOCK
  5
876
330
874
100
AcDbEntity
  8
0
100
AcDbBlockBegin
  2
GENAXEH
 70
     0
 10
0.0
 20
0.0
 30
0.0
  3
GENAXEH
  1

  0
LINE
  5
875
330
874
100
AcDbEntity
  8
0
100
AcDbLine
 10
-1.0
 20
0.0
 30
0.0
 11
1.0
 21
0.0
 31
0.0
  0
ENDBLK
  5
877
330
874
100
AcDbEntity
  8
0
100
AcDbBlockEnd
  0
BLOCK
  5
894
330
893
100
AcDbEntity
  8
0
100
AcDbBlockBegin
  2
*D8
 70
     1
 10
0.0
 20
0.0
 30
0.0
  3
*D8
  1

  0
LINE
  5
15BB
330
893
100
AcDbEntity
  8
P-0000
  6
Continuous
 62
     3
370
    -2
100
AcDbLine
 10
-159.4917773227204
 20
600.0876065343717
 30
0.0
 11
-218.62451923986
 21
600.0876065343717
 31
0.0
  0
LINE
  5
15BC
330
893
100
AcDbEntity
  8
P-0000
  6
Continuous
 62
     3
370
    -2
100
AcDbLine
 10
-157.477638867145
 20
570.0820539251679
 30
0.0
 11
-218.62451923986
 21
570.0820539251679
 31
0.0
  0
LINE
  5
15BD
330
893
100
AcDbEntity
  8
P-0000
  6
Continuous
 62
     3
370
    -2
100
AcDbLine
 10
-214.62451923986
 20
593.7876065343718
 30
0.0
 11
-214.62451923986
 21
576.3820539251677
 31
0.0
  0
LINE
  5
15BE
330
893
100
AcDbEntity
  8
P-0000
  6
Continuous
 62
     3
370
    -2
100
AcDbLine
 10
-214.62451923986
 20
570.0820539251679
 30
0.0
 11
-214.62451923986
 21
516.5731147560591
 31
0.0
  0
SOLID
  5
15BF
330
893
100
AcDbEntity
  8
P-0000
  6
Continuous
 62
     3
100
AcDbTrace
 10
-215.67451923986
 20
593.7876065343718
 30
0.0
 11
-213.5745192398599
 21
593.7876065343718
 31
0.0
 12
-214.62451923986
 22
600.0876065343717
 32
0.0
 13
-214.62451923986
 23
600.0876065343717
 33
0.0
  0
SOLID
  5
15C0
330
893
100
AcDbEntity
  8
P-0000
  6
Continuous
 62
     3
100
AcDbTrace
 10
-215.67451923986
 20
576.3820539251677
 30
0.0
 11
-213.5745192398599
 21
576.3820539251677
 31
0.0
 12
-214.62451923986
 22
570.0820539251679
 32
0.0
 13
-214.62451923986
 23
570.0820539251679
 33
0.0
  0
MTEXT
  5
15C1
330
893
100
AcDbEntity
  8
P-0000
  6
Continuous
 62
     2
100
AcDbMText
 10
-233.62451923986
 20
536.3231147560591
 30
0.0
 40
30.0
 41
0.0
 71
     5
 72
     1
  1
30
 11
0.0000000000000001
 21
1.0
 31
0.0
 73
     1
 44
1.0
1001
ACAD
1000
MTEXTBEGIN
1070
    73
1070
     1
1070
    44
1040
1.0
1070
    74
1070
     0
1000
MTEXTEND
  0
POINT
  5
15C2
330
893
100
AcDbEntity
  8
Defpoints
  6
Continuous
 62
     0
100
AcDbPoint
 10
-159.4917773227204
 20
600.0876065343717
 30
0.0
  0
POINT
  5
15C3
330
893
100
AcDbEntity
  8
Defpoints
  6
Continuous
 62
     0
100
AcDbPoint
 10
-157.477638867145
 20
570.0820539251679
 30
0.0
  0
POINT
  5
15C4
330
893
100
AcDbEntity
  8
Defpoints
  6
Continuous
 62
     0
100
AcDbPoint
 10
-214.62451923986
 20
570.0820539251679
 30
0.0
  0
ENDBLK
  5
895
330
893
100
AcDbEntity
  8
0
100
AcDbBlockEnd
  0
BLOCK
  5
8E2
330
8E1
100
AcDbEntity
  8
0
100
AcDbBlockBegin
  2
*D9
 70
     1
 10
0.0
 20
0.0
 30
0.0
  3
*D9
  1

  0
LINE
  5
949
330
8E1
100
AcDbEntity
  8
AM_5
 62
     0
370
    -2
100
AcDbLine
 10
-69.99177732272039
 20
289.9854689923718
 30
0.0
 11
-238.1704166952324
 21
289.9854689923719
 31
0.0
  0
LINE
  5
94A
330
8E1
100
AcDbEntity
  8
AM_5
 62
     0
370
    -2
100
AcDbLine
 10
-69.99177732272039
 20
309.9854689923718
 30
0.0
 11
-238.1704166952324
 21
309.9854689923719
 31
0.0
  0
LINE
  5
94B
330
8E1
100
AcDbEntity
  8
AM_5
 62
     0
370
    -2
100
AcDbLine
 10
-236.6704166952325
 20
293.4854689923719
 30
0.0
 11
-236.6704166952325
 21
297.6104689923719
 31
0.0
  0
LINE
  5
94C
330
8E1
100
AcDbEntity
  8
AM_5
 62
     0
370
    -2
100
AcDbLine
 10
-236.6704166952325
 20
306.4854689923719
 30
0.0
 11
-236.6704166952325
 21
302.3604689923719
 31
0.0
  0
INSERT
  5
94D
330
8E1
100
AcDbEntity
  8
AM_5
 62
     0
370
    -2
100
AcDbBlockReference
  2
_FILLED
 10
-236.6704166952325
 20
289.9854689923719
 30
0.0
 41
3.5
 42
3.5
 43
3.5
 50
270.0
  0
INSERT
  5
94E
330
8E1
100
AcDbEntity
  8
AM_5
 62
     0
370
    -2
100
AcDbBlockReference
  2
_FILLED
 10
-236.6704166952325
 20
309.9854689923719
 30
0.0
 41
3.5
 42
3.5
 43
3.5
 50
90.0
  0
MTEXT
  5
94F
330
8E1
100
AcDbEntity
  8
AM_5
 62
     0
100
AcDbMText
 10
-236.6704166952325
 20
299.9854689923718
 30
0.0
 40
3.5
 41
0.0
 71
     5
 72
     1
  1
\A1;20
 73
     1
 44
1.0
1001
ACAD
1000
MTEXTBEGIN
1070
    73
1070
     1
1070
    44
1040
1.0
1070
    74
1070
     0
1000
MTEXTEND
  0
POINT
  5
950
330
8E1
100
AcDbEntity
  8
Defpoints
 62
     0
100
AcDbPoint
 10
-68.49177732272039
 20
289.9854689923718
 30
0.0
  0
POINT
  5
951
330
8E1
100
AcDbEntity
  8
Defpoints
 62
     0
100
AcDbPoint
 10
-68.49177732272039
 20
309.9854689923718
 30
0.0
  0
POINT
  5
952
330
8E1
100
AcDbEntity
  8
Defpoints
 62
     0
100
AcDbPoint
 10
-236.6704166952325
 20
309.9854689923719
 30
0.0
  0
ENDBLK
  5
8E3
330
8E1
100
AcDbEntity
  8
0
100
AcDbBlockEnd
  0
BLOCK
  5
A9A
330
A99
100
AcDbEntity
  8
0
100
AcDbBlockBegin
  2
*D10
 70
     1
 10
0.0
 20
0.0
 30
0.0
  3
*D10
  1

  0
LINE
  5
134B
330
A99
100
AcDbEntity
  8
P-0000
  6
Continuous
 62
     3
370
    -2
100
AcDbLine
 10
1330.508222677279
 20
600.0876065343717
 30
0.0
 11
1338.819112933209
 21
600.0876065343717
 31
0.0
  0
LINE
  5
134C
330
A99
100
AcDbEntity
  8
P-0000
  6
Continuous
 62
     3
370
    -2
100
AcDbLine
 10
1330.508222677279
 20
590.0876065343717
 30
0.0
 11
1338.819112933209
 21
590.0876065343717
 31
0.0
  0
LINE
  5
134D
330
A99
100
AcDbEntity
  8
P-0000
  6
Continuous
 62
     3
370
    -2
100
AcDbLine
 10
1334.819112933209
 20
606.3876065343716
 30
0.0
 11
1334.819112933209
 21
612.6876065343717
 31
0.0
  0
LINE
  5
134E
330
A99
100
AcDbEntity
  8
P-0000
  6
Continuous
 62
     3
370
    -2
100
AcDbLine
 10
1334.819112933209
 20
583.7876065343717
 30
0.0
 11
1334.819112933209
 21
506.3997658998048
 31
0.0
  0
LINE
  5
134F
330
A99
100
AcDbEntity
  8
P-0000
  6
Continuous
 62
     3
370
    -2
100
AcDbLine
 10
1334.819112933209
 20
600.0876065343717
 30
0.0
 11
1334.819112933209
 21
590.0876065343717
 31
0.0
  0
SOLID
  5
1350
330
A99
100
AcDbEntity
  8
P-0000
  6
Continuous
 62
     3
100
AcDbTrace
 10
1333.769112933209
 20
606.3876065343716
 30
0.0
 11
1335.869112933209
 21
606.3876065343716
 31
0.0
 12
1334.819112933209
 22
600.0876065343717
 32
0.0
 13
1334.819112933209
 23
600.0876065343717
 33
0.0
  0
SOLID
  5
1351
330
A99
100
AcDbEntity
  8
P-0000
  6
Continuous
 62
     3
100
AcDbTrace
 10
1333.769112933209
 20
583.7876065343717
 30
0.0
 11
1335.869112933209
 21
583.7876065343717
 31
0.0
 12
1334.819112933209
 22
590.0876065343717
 32
0.0
 13
1334.819112933209
 23
590.0876065343717
 33
0.0
  0
MTEXT
  5
1352
330
A99
100
AcDbEntity
  8
P-0000
  6
Continuous
 62
     2
100
AcDbMText
 10
1315.819112933209
 20
522.6497658998048
 30
0.0
 40
30.0
 41
0.0
 71
     5
 72
     1
  1
10
 11
0.0000000000000001
 21
1.0
 31
0.0
 73
     1
 44
1.0
1001
ACAD
1000
MTEXTBEGIN
1070
    73
1070
     1
1070
    44
1040
1.0
1070
    74
1070
     0
1000
MTEXTEND
  0
POINT
  5
1353
330
A99
100
AcDbEntity
  8
Defpoints
  6
Continuous
 62
     0
100
AcDbPoint
 10
1330.508222677279
 20
600.0876065343717
 30
0.0
  0
POINT
  5
1354
330
A99
100
AcDbEntity
  8
Defpoints
  6
Continuous
 62
     0
100
AcDbPoint
 10
1330.508222677279
 20
590.0876065343717
 30
0.0
  0
POINT
  5
1355
330
A99
100
AcDbEntity
  8
Defpoints
  6
Continuous
 62
     0
100
AcDbPoint
 10
1334.819112933209
 20
590.0876065343717
 30
0.0
  0
ENDBLK
  5
A9B
330
A99
100
AcDbEntity
  8
0
100
AcDbBlockEnd
  0
BLOCK
  5
ACC
330
ACB
100
AcDbEntity
  8
0
100
AcDbBlockBegin
  2
*D11
 70
     1
 10
0.0
 20
0.0
 30
0.0
  3
*D11
  1

  0
LINE
  5
1237
330
ACB
100
AcDbEntity
  8
P-0000
  6
Continuous
 62
     3
370
    -2
100
AcDbLine
 10
-159.4917773227203
 20
314.9854689923718
 30
0.0
 11
-159.4917773227203
 21
381.8815914239895
 31
0.0
  0
LINE
  5
1238
330
ACB
100
AcDbEntity
  8
P-0000
  6
Continuous
 62
     3
370
    -2
100
AcDbLine
 10
1330.508222677279
 20
314.6382023260843
 30
0.0
 11
1330.508222677279
 21
381.8815914239895
 31
0.0
  0
LINE
  5
1239
330
ACB
100
AcDbEntity
  8
P-0000
  6
Continuous
 62
     3
370
    -2
100
AcDbLine
 10
-153.1917773227203
 20
377.8815914239895
 30
0.0
 11
1324.208222677279
 21
377.8815914239895
 31
0.0
  0
SOLID
  5
123A
330
ACB
100
AcDbEntity
  8
P-0000
  6
Continuous
 62
     3
100
AcDbTrace
 10
-153.1917773227203
 20
378.9315914239895
 30
0.0
 11
-153.1917773227203
 21
376.8315914239895
 31
0.0
 12
-159.4917773227203
 22
377.8815914239895
 32
0.0
 13
-159.4917773227203
 23
377.8815914239895
 33
0.0
  0
SOLID
  5
123B
330
ACB
100
AcDbEntity
  8
P-0000
  6
Continuous
 62
     3
100
AcDbTrace
 10
1324.208222677279
 20
378.9315914239895
 30
0.0
 11
1324.208222677279
 21
376.8315914239895
 31
0.0
 12
1330.508222677279
 22
377.8815914239895
 32
0.0
 13
1330.508222677279
 23
377.8815914239895
 33
0.0
  0
MTEXT
  5
123C
330
ACB
100
AcDbEntity
  8
P-0000
  6
Continuous
 62
     2
100
AcDbMText
 10
585.5082226772792
 20
396.8815914239895
 30
0.0
 40
30.0
 41
0.0
 71
     5
 72
     1
  1
1490
 73
     1
 44
1.0
1001
ACAD
1000
MTEXTBEGIN
1070
    73
1070
     1
1070
    44
1040
1.0
1070
    74
1070
     0
1000
MTEXTEND
  0
POINT
  5
123D
330
ACB
100
AcDbEntity
  8
Defpoints
  6
Continuous
 62
     0
100
AcDbPoint
 10
-159.4917773227203
 20
314.9854689923718
 30
0.0
  0
POINT
  5
123E
330
ACB
100
AcDbEntity
  8
Defpoints
  6
Continuous
 62
     0
100
AcDbPoint
 10
1330.508222677279
 20
314.6382023260843
 30
0.0
  0
POINT
  5
123F
330
ACB
100
AcDbEntity
  8
Defpoints
  6
Continuous
 62
     0
100
AcDbPoint
 10
1330.508222677279
 20
377.8815914239895
 30
0.0
  0
ENDBLK
  5
ACD
330
ACB
100
AcDbEntity
  8
0
100
AcDbBlockEnd
  0
BLOCK
  5
B01
330
B00
100
AcDbEntity
  8
0
100
AcDbBlockBegin
  2
*D12
 70
     1
 10
0.0
 20
0.0
 30
0.0
  3
*D12
  1

  0
LINE
  5
B02
330
B00
100
AcDbEntity
  8
P-0000
  6
Continuous
 62
     3
370
    -2
100
AcDbLine
 10
249.1547051675
 20
142.7084107862
 30
0.0
 11
249.1547051675
 21
104.596244187649
 31
0.0
  0
LINE
  5
B03
330
B00
100
AcDbEntity
  8
P-0000
  6
Continuous
 62
     3
370
    -2
100
AcDbLine
 10
199.1547051675
 20
142.7084107862
 30
0.0
 11
199.1547051675
 21
104.596244187649
 31
0.0
  0
LINE
  5
B04
330
B00
100
AcDbEntity
  8
P-0000
  6
Continuous
 62
     3
370
    -2
100
AcDbLine
 10
242.8547051675
 20
108.596244187649
 30
0.0
 11
205.4547051675
 21
108.596244187649
 31
0.0
  0
SOLID
  5
B05
330
B00
100
AcDbEntity
  8
P-0000
  6
Continuous
 62
     3
100
AcDbTrace
 10
242.8547051675
 20
109.646244187649
 30
0.0
 11
242.8547051675
 21
107.546244187649
 31
0.0
 12
249.1547051675
 22
108.596244187649
 32
0.0
 13
249.1547051675
 23
108.596244187649
 33
0.0
  0
SOLID
  5
B06
330
B00
100
AcDbEntity
  8
P-0000
  6
Continuous
 62
     3
100
AcDbTrace
 10
205.4547051675
 20
109.646244187649
 30
0.0
 11
205.4547051675
 21
107.546244187649
 31
0.0
 12
199.1547051675
 22
108.596244187649
 32
0.0
 13
199.1547051675
 23
108.596244187649
 33
0.0
  0
MTEXT
  5
B07
330
B00
100
AcDbEntity
  8
P-0000
  6
Continuous
 62
     2
100
AcDbMText
 10
224.1547051675
 20
116.096244187649
 30
0.0
 40
7.0
 41
0.0
 71
     5
 72
     1
  1
%%c50
 73
     1
 44
1.0
1001
ACAD
1000
MTEXTBEGIN
1070
    73
1070
     1
1070
    44
1040
1.0
1070
    74
1070
     0
1000
MTEXTEND
  0
POINT
  5
B08
330
B00
100
AcDbEntity
  8
Defpoints
  6
Continuous
 62
     0
100
AcDbPoint
 10
249.1547051675
 20
142.7084107862
 30
0.0
  0
POINT
  5
B09
330
B00
100
AcDbEntity
  8
Defpoints
  6
Continuous
 62
     0
100
AcDbPoint
 10
199.1547051675
 20
142.7084107862
 30
0.0
  0
POINT
  5
B0A
330
B00
100
AcDbEntity
  8
Defpoints
  6
Continuous
 62
     0
100
AcDbPoint
 10
199.1547051675
 20
108.596244187649
 30
0.0
  0
ENDBLK
  5
B0B
330
B00
100
AcDbEntity
  8
0
100
AcDbBlockEnd
  0
BLOCK
  5
B0D
330
B0C
100
AcDbEntity
  8
0
100
AcDbBlockBegin
  2
*D13
 70
     1
 10
0.0
 20
0.0
 30
0.0
  3
*D13
  1

  0
LINE
  5
B0E
330
B0C
100
AcDbEntity
  8
P-0000
  6
Continuous
 62
     3
370
    -2
100
AcDbLine
 10
-65.8452948325
 20
256.522859025
 30
0.0
 11
-92.92801986088241
 21
256.522859025
 31
0.0
  0
LINE
  5
B0F
330
B0C
100
AcDbEntity
  8
P-0000
  6
Continuous
 62
     3
370
    -2
100
AcDbLine
 10
-68.3452948325
 20
192.4351354376
 30
0.0
 11
-92.92801986088241
 21
192.4351354376
 31
0.0
  0
LINE
  5
B10
330
B0C
100
AcDbEntity
  8
P-0000
  6
Continuous
 62
     3
370
    -2
100
AcDbLine
 10
-88.92801986088242
 20
250.222859025
 30
0.0
 11
-88.92801986088242
 21
198.7351354375999
 31
0.0
  0
SOLID
  5
B11
330
B0C
100
AcDbEntity
  8
P-0000
  6
Continuous
 62
     3
100
AcDbTrace
 10
-89.97801986088239
 20
250.222859025
 30
0.0
 11
-87.87801986088238
 21
250.222859025
 31
0.0
 12
-88.92801986088242
 22
256.522859025
 32
0.0
 13
-88.92801986088242
 23
256.522859025
 33
0.0
  0
SOLID
  5
B12
330
B0C
100
AcDbEntity
  8
P-0000
  6
Continuous
 62
     3
100
AcDbTrace
 10
-89.97801986088239
 20
198.7351354375999
 30
0.0
 11
-87.87801986088242
 21
198.7351354375999
 31
0.0
 12
-88.92801986088242
 22
192.4351354376
 32
0.0
 13
-88.92801986088242
 23
192.4351354376
 33
0.0
  0
MTEXT
  5
B13
330
B0C
100
AcDbEntity
  8
P-0000
  6
Continuous
 62
     2
100
AcDbMText
 10
-96.42801986088244
 20
224.4789972313
 30
0.0
 40
7.0
 41
0.0
 71
     5
 72
     1
  1
64
 11
0.0000000000000001
 21
1.0
 31
0.0
 73
     1
 44
1.0
1001
ACAD
1000
MTEXTBEGIN
1070
    73
1070
     1
1070
    44
1040
1.0
1070
    74
1070
     0
1000
MTEXTEND
  0
POINT
  5
B14
330
B0C
100
AcDbEntity
  8
Defpoints
  6
Continuous
 62
     0
100
AcDbPoint
 10
-65.8452948325
 20
256.522859025
 30
0.0
  0
POINT
  5
B15
330
B0C
100
AcDbEntity
  8
Defpoints
  6
Continuous
 62
     0
100
AcDbPoint
 10
-68.3452948325
 20
192.4351354376
 30
0.0
  0
POINT
  5
B16
330
B0C
100
AcDbEntity
  8
Defpoints
  6
Continuous
 62
     0
100
AcDbPoint
 10
-88.92801986088242
 20
192.4351354376
 30
0.0
  0
ENDBLK
  5
B17
330
B0C
100
AcDbEntity
  8
0
100
AcDbBlockEnd
  0
BLOCK
  5
B19
330
B18
100
AcDbEntity
  8
0
100
AcDbBlockBegin
  2
*D14
 70
     1
 10
0.0
 20
0.0
 30
0.0
  3
*D14
  1

  0
LINE
  5
B1A
330
B18
100
AcDbEntity
  8
P-0000
  6
Continuous
 62
     3
370
    -2
100
AcDbLine
 10
-68.3452948325
 20
259.4351354376
 30
0.0
 11
-111.6504213667963
 21
259.4351354376
 31
0.0
  0
LINE
  5
B1B
330
B18
100
AcDbEntity
  8
P-0000
  6
Continuous
 62
     3
370
    -2
100
AcDbLine
 10
-65.8452948325
 20
189.522859025
 30
0.0
 11
-111.6504213667963
 21
189.522859025
 31
0.0
  0
LINE
  5
B1C
330
B18
100
AcDbEntity
  8
P-0000
  6
Continuous
 62
     3
370
    -2
100
AcDbLine
 10
-107.6504213667963
 20
253.1351354376
 30
0.0
 11
-107.6504213667963
 21
195.822859025
 31
0.0
  0
SOLID
  5
B1D
330
B18
100
AcDbEntity
  8
P-0000
  6
Continuous
 62
     3
100
AcDbTrace
 10
-108.7004213667963
 20
253.1351354376
 30
0.0
 11
-106.6004213667963
 21
253.1351354376
 31
0.0
 12
-107.6504213667963
 22
259.4351354376
 32
0.0
 13
-107.6504213667963
 23
259.4351354376
 33
0.0
  0
SOLID
  5
B1E
330
B18
100
AcDbEntity
  8
P-0000
  6
Continuous
 62
     3
100
AcDbTrace
 10
-108.7004213667963
 20
195.822859025
 30
0.0
 11
-106.6004213667963
 21
195.822859025
 31
0.0
 12
-107.6504213667963
 22
189.522859025
 32
0.0
 13
-107.6504213667963
 23
189.522859025
 33
0.0
  0
MTEXT
  5
B1F
330
B18
100
AcDbEntity
  8
P-0000
  6
Continuous
 62
     2
100
AcDbMText
 10
-115.1504213667963
 20
224.4789972313
 30
0.0
 40
7.0
 41
0.0
 71
     5
 72
     1
  1
70
 11
0.0000000000000001
 21
1.0
 31
0.0
 73
     1
 44
1.0
1001
ACAD
1000
MTEXTBEGIN
1070
    73
1070
     1
1070
    44
1040
1.0
1070
    74
1070
     0
1000
MTEXTEND
  0
POINT
  5
B20
330
B18
100
AcDbEntity
  8
Defpoints
  6
Continuous
 62
     0
100
AcDbPoint
 10
-68.3452948325
 20
259.4351354376
 30
0.0
  0
POINT
  5
B21
330
B18
100
AcDbEntity
  8
Defpoints
  6
Continuous
 62
     0
100
AcDbPoint
 10
-65.8452948325
 20
189.522859025
 30
0.0
  0
POINT
  5
B22
330
B18
100
AcDbEntity
  8
Defpoints
  6
Continuous
 62
     0
100
AcDbPoint
 10
-107.6504213667963
 20
189.522859025
 30
0.0
  0
ENDBLK
  5
B23
330
B18
100
AcDbEntity
  8
0
100
AcDbBlockEnd
  0
BLOCK
  5
B25
330
B24
100
AcDbEntity
  8
0
100
AcDbBlockBegin
  2
*D15
 70
     1
 10
0.0
 20
0.0
 30
0.0
  3
*D15
  1

  0
LINE
  5
B26
330
B24
100
AcDbEntity
  8
P-0000
  6
Continuous
 62
     3
370
    -2
100
AcDbLine
 10
-65.8452948325
 20
259.3474118504
 30
0.0
 11
-65.8452948325
 21
295.2466386298153
 31
0.0
  0
LINE
  5
B27
330
B24
100
AcDbEntity
  8
P-0000
  6
Continuous
 62
     3
370
    -2
100
AcDbLine
 10
514.1547051675002
 20
256.4351354376
 30
0.0
 11
514.1547051675002
 21
295.2466386298153
 31
0.0
  0
LINE
  5
B28
330
B24
100
AcDbEntity
  8
P-0000
  6
Continuous
 62
     3
370
    -2
100
AcDbLine
 10
-59.54529483249999
 20
291.2466386298153
 30
0.0
 11
507.8547051675001
 21
291.2466386298153
 31
0.0
  0
SOLID
  5
B29
330
B24
100
AcDbEntity
  8
P-0000
  6
Continuous
 62
     3
100
AcDbTrace
 10
-59.54529483249999
 20
292.2966386298153
 30
0.0
 11
-59.54529483249999
 21
290.1966386298153
 31
0.0
 12
-65.8452948325
 22
291.2466386298153
 32
0.0
 13
-65.8452948325
 23
291.2466386298153
 33
0.0
  0
SOLID
  5
B2A
330
B24
100
AcDbEntity
  8
P-0000
  6
Continuous
 62
     3
100
AcDbTrace
 10
507.8547051675001
 20
292.2966386298153
 30
0.0
 11
507.8547051675001
 21
290.1966386298153
 31
0.0
 12
514.1547051675002
 22
291.2466386298153
 32
0.0
 13
514.1547051675002
 23
291.2466386298153
 33
0.0
  0
MTEXT
  5
B2B
330
B24
100
AcDbEntity
  8
P-0000
  6
Continuous
 62
     2
100
AcDbMText
 10
224.1547051675001
 20
298.7466386298153
 30
0.0
 40
7.0
 41
0.0
 71
     5
 72
     1
  1
580
 73
     1
 44
1.0
1001
ACAD
1000
MTEXTBEGIN
1070
    73
1070
     1
1070
    44
1040
1.0
1070
    74
1070
     0
1000
MTEXTEND
  0
POINT
  5
B2C
330
B24
100
AcDbEntity
  8
Defpoints
  6
Continuous
 62
     0
100
AcDbPoint
 10
-65.8452948325
 20
259.3474118504
 30
0.0
  0
POINT
  5
B2D
330
B24
100
AcDbEntity
  8
Defpoints
  6
Continuous
 62
     0
100
AcDbPoint
 10
514.1547051675002
 20
256.4351354376
 30
0.0
  0
POINT
  5
B2E
330
B24
100
AcDbEntity
  8
Defpoints
  6
Continuous
 62
     0
100
AcDbPoint
 10
514.1547051675002
 20
291.2466386298153
 30
0.0
  0
ENDBLK
  5
B2F
330
B24
100
AcDbEntity
  8
0
100
AcDbBlockEnd
  0
BLOCK
  5
B31
330
B30
100
AcDbEntity
  8
0
100
AcDbBlockBegin
  2
_None
 70
     0
 10
0.0
 20
0.0
 30
0.0
  3
_None
  1

  0
ENDBLK
  5
B32
330
B30
100
AcDbEntity
  8
0
100
AcDbBlockEnd
  0
BLOCK
  5
B34
330
B33
100
AcDbEntity
  8
0
100
AcDbBlockBegin
  2
*D17
 70
     1
 10
0.0
 20
0.0
 30
0.0
  3
*D17
  1

  0
LINE
  5
B35
330
B33
100
AcDbEntity
  8
P-0000
  6
Continuous
 62
     3
370
    -2
100
AcDbLine
 10
-67.8452948325
 20
256.522859025
 30
0.0
 11
-67.8452948325
 21
331.6802760260198
 31
0.0
  0
LINE
  5
B36
330
B33
100
AcDbEntity
  8
P-0000
  6
Continuous
 62
     3
370
    -2
100
AcDbLine
 10
516.1547051675001
 20
259.4351354376001
 30
0.0
 11
516.1547051675001
 21
331.6802760260198
 31
0.0
  0
LINE
  5
B37
330
B33
100
AcDbEntity
  8
P-0000
  6
Continuous
 62
     3
370
    -2
100
AcDbLine
 10
-61.54529483250001
 20
327.6802760260198
 30
0.0
 11
509.8547051675001
 21
327.6802760260198
 31
0.0
  0
SOLID
  5
B38
330
B33
100
AcDbEntity
  8
P-0000
  6
Continuous
 62
     3
100
AcDbTrace
 10
-61.54529483250001
 20
328.7302760260198
 30
0.0
 11
-61.54529483250001
 21
326.6302760260198
 31
0.0
 12
-67.8452948325
 22
327.6802760260198
 32
0.0
 13
-67.8452948325
 23
327.6802760260198
 33
0.0
  0
SOLID
  5
B39
330
B33
100
AcDbEntity
  8
P-0000
  6
Continuous
 62
     3
100
AcDbTrace
 10
509.8547051675001
 20
328.7302760260198
 30
0.0
 11
509.8547051675001
 21
326.6302760260198
 31
0.0
 12
516.1547051675001
 22
327.6802760260198
 32
0.0
 13
516.1547051675001
 23
327.6802760260198
 33
0.0
  0
MTEXT
  5
B3A
330
B33
100
AcDbEntity
  8
P-0000
  6
Continuous
 62
     2
100
AcDbMText
 10
224.1547051675001
 20
335.1802760260198
 30
0.0
 40
7.0
 41
0.0
 71
     5
 72
     1
  1
584
 73
     1
 44
1.0
1001
ACAD
1000
MTEXTBEGIN
1070
    73
1070
     1
1070
    44
1040
1.0
1070
    74
1070
     0
1000
MTEXTEND
  0
POINT
  5
B3B
330
B33
100
AcDbEntity
  8
Defpoints
  6
Continuous
 62
     0
100
AcDbPoint
 10
-67.8452948325
 20
256.522859025
 30
0.0
  0
POINT
  5
B3C
330
B33
100
AcDbEntity
  8
Defpoints
  6
Continuous
 62
     0
100
AcDbPoint
 10
516.1547051675001
 20
259.4351354376001
 30
0.0
  0
POINT
  5
B3D
330
B33
100
AcDbEntity
  8
Defpoints
  6
Continuous
 62
     0
100
AcDbPoint
 10
516.1547051675001
 20
327.6802760260198
 30
0.0
  0
ENDBLK
  5
B3E
330
B33
100
AcDbEntity
  8
0
100
AcDbBlockEnd
  0
BLOCK
  5
D2A
330
D29
100
AcDbEntity
  8
0
100
AcDbBlockBegin
  2
*D18
 70
     1
 10
0.0
 20
0.0
 30
0.0
  3
*D18
  1

  0
LINE
  5
D4D
330
D29
100
AcDbEntity
  8
P-0000
  6
Continuous
 62
     3
370
    -2
100
AcDbLine
 10
977.5343591370356
 20
-199.9270271205339
 30
0.0
 11
934.2292326027394
 21
-199.9270271205338
 31
0.0
  0
LINE
  5
D4E
330
D29
100
AcDbEntity
  8
P-0000
  6
Continuous
 62
     3
370
    -2
100
AcDbLine
 10
980.0343591370356
 20
-269.8393035331339
 30
0.0
 11
934.2292326027394
 21
-269.8393035331339
 31
0.0
  0
LINE
  5
D4F
330
D29
100
AcDbEntity
  8
P-0000
  6
Continuous
 62
     3
370
    -2
100
AcDbLine
 10
938.2292326027394
 20
-206.2270271205338
 30
0.0
 11
938.2292326027393
 21
-263.5393035331338
 31
0.0
  0
SOLID
  5
D50
330
D29
100
AcDbEntity
  8
P-0000
  6
Continuous
 62
     3
100
AcDbTrace
 10
937.1792326027394
 20
-206.2270271205338
 30
0.0
 11
939.2792326027393
 21
-206.2270271205338
 31
0.0
 12
938.2292326027394
 22
-199.9270271205338
 32
0.0
 13
938.2292326027394
 23
-199.9270271205338
 33
0.0
  0
SOLID
  5
D51
330
D29
100
AcDbEntity
  8
P-0000
  6
Continuous
 62
     3
100
AcDbTrace
 10
937.1792326027394
 20
-263.5393035331338
 30
0.0
 11
939.2792326027393
 21
-263.5393035331338
 31
0.0
 12
938.2292326027393
 22
-269.8393035331339
 32
0.0
 13
938.2292326027393
 23
-269.8393035331339
 33
0.0
  0
MTEXT
  5
D52
330
D29
100
AcDbEntity
  8
P-0000
  6
Continuous
 62
     2
100
AcDbMText
 10
930.7292326027392
 20
-234.8831653268337
 30
0.0
 40
7.0
 41
0.0
 71
     5
 72
     1
  1
70
 11
0.0000000000000001
 21
1.0
 31
0.0
 73
     1
 44
1.0
1001
ACAD
1000
MTEXTBEGIN
1070
    73
1070
     1
1070
    44
1040
1.0
1070
    74
1070
     0
1000
MTEXTEND
  0
POINT
  5
D53
330
D29
100
AcDbEntity
  8
Defpoints
  6
Continuous
 62
     0
100
AcDbPoint
 10
977.5343591370356
 20
-199.9270271205339
 30
0.0
  0
POINT
  5
D54
330
D29
100
AcDbEntity
  8
Defpoints
  6
Continuous
 62
     0
100
AcDbPoint
 10
980.0343591370356
 20
-269.8393035331339
 30
0.0
  0
POINT
  5
D55
330
D29
100
AcDbEntity
  8
Defpoints
  6
Continuous
 62
     0
100
AcDbPoint
 10
938.2292326027393
 20
-269.8393035331339
 30
0.0
  0
ENDBLK
  5
D2B
330
D29
100
AcDbEntity
  8
0
100
AcDbBlockEnd
  0
BLOCK
  5
D36
330
D35
100
AcDbEntity
  8
0
100
AcDbBlockBegin
  2
*D19
 70
     1
 10
0.0
 20
0.0
 30
0.0
  3
*D19
  1

  0
LINE
  5
D38
330
D35
100
AcDbEntity
  8
P-0000
  6
Continuous
 62
     3
370
    -2
100
AcDbLine
 10
1295.034359137035
 20
-316.6537517719338
 30
0.0
 11
1295.034359137035
 21
-354.7659183704848
 31
0.0
  0
LINE
  5
D39
330
D35
100
AcDbEntity
  8
P-0000
  6
Continuous
 62
     3
370
    -2
100
AcDbLine
 10
1245.034359137035
 20
-316.6537517719338
 30
0.0
 11
1245.034359137035
 21
-354.7659183704848
 31
0.0
  0
LINE
  5
D3A
330
D35
100
AcDbEntity
  8
P-0000
  6
Continuous
 62
     3
370
    -2
100
AcDbLine
 10
1288.734359137035
 20
-350.7659183704848
 30
0.0
 11
1251.334359137035
 21
-350.7659183704848
 31
0.0
  0
SOLID
  5
D3B
330
D35
100
AcDbEntity
  8
P-0000
  6
Continuous
 62
     3
100
AcDbTrace
 10
1288.734359137035
 20
-349.7159183704849
 30
0.0
 11
1288.734359137035
 21
-351.8159183704848
 31
0.0
 12
1295.034359137035
 22
-350.7659183704848
 32
0.0
 13
1295.034359137035
 23
-350.7659183704848
 33
0.0
  0
SOLID
  5
D3C
330
D35
100
AcDbEntity
  8
P-0000
  6
Continuous
 62
     3
100
AcDbTrace
 10
1251.334359137035
 20
-349.7159183704849
 30
0.0
 11
1251.334359137035
 21
-351.8159183704848
 31
0.0
 12
1245.034359137035
 22
-350.7659183704848
 32
0.0
 13
1245.034359137035
 23
-350.7659183704848
 33
0.0
  0
MTEXT
  5
D3D
330
D35
100
AcDbEntity
  8
P-0000
  6
Continuous
 62
     2
100
AcDbMText
 10
1270.034359137035
 20
-343.2659183704848
 30
0.0
 40
7.0
 41
0.0
 71
     5
 72
     1
  1
%%c50
 73
     1
 44
1.0
1001
ACAD
1000
MTEXTBEGIN
1070
    73
1070
     1
1070
    44
1040
1.0
1070
    74
1070
     0
1000
MTEXTEND
  0
POINT
  5
D3E
330
D35
100
AcDbEntity
  8
Defpoints
  6
Continuous
 62
     0
100
AcDbPoint
 10
1295.034359137035
 20
-316.6537517719338
 30
0.0
  0
POINT
  5
D3F
330
D35
100
AcDbEntity
  8
Defpoints
  6
Continuous
 62
     0
100
AcDbPoint
 10
1245.034359137035
 20
-316.6537517719338
 30
0.0
  0
POINT
  5
D40
330
D35
100
AcDbEntity
  8
Defpoints
  6
Continuous
 62
     0
100
AcDbPoint
 10
1245.034359137035
 20
-350.7659183704848
 30
0.0
  0
ENDBLK
  5
D37
330
D35
100
AcDbEntity
  8
0
100
AcDbBlockEnd
  0
BLOCK
  5
D42
330
D41
100
AcDbEntity
  8
0
100
AcDbBlockBegin
  2
*D20
 70
     1
 10
0.0
 20
0.0
 30
0.0
  3
*D20
  1

  0
LINE
  5
D44
330
D41
100
AcDbEntity
  8
P-0000
  6
Continuous
 62
     3
370
    -2
100
AcDbLine
 10
980.0343591370356
 20
-202.8393035331338
 30
0.0
 11
952.9516341086534
 21
-202.8393035331338
 31
0.0
  0
LINE
  5
D45
330
D41
100
AcDbEntity
  8
P-0000
  6
Continuous
 62
     3
370
    -2
100
AcDbLine
 10
977.5343591370356
 20
-266.9270271205338
 30
0.0
 11
952.9516341086532
 21
-266.9270271205338
 31
0.0
  0
LINE
  5
D46
330
D41
100
AcDbEntity
  8
P-0000
  6
Continuous
 62
     3
370
    -2
100
AcDbLine
 10
956.9516341086533
 20
-209.1393035331338
 30
0.0
 11
956.9516341086533
 21
-260.6270271205338
 31
0.0
  0
SOLID
  5
D47
330
D41
100
AcDbEntity
  8
P-0000
  6
Continuous
 62
     3
100
AcDbTrace
 10
955.9016341086534
 20
-209.1393035331338
 30
0.0
 11
958.0016341086531
 21
-209.1393035331338
 31
0.0
 12
956.9516341086533
 22
-202.8393035331338
 32
0.0
 13
956.9516341086533
 23
-202.8393035331338
 33
0.0
  0
SOLID
  5
D48
330
D41
100
AcDbEntity
  8
P-0000
  6
Continuous
 62
     3
100
AcDbTrace
 10
955.9016341086532
 20
-260.6270271205338
 30
0.0
 11
958.0016341086531
 21
-260.6270271205338
 31
0.0
 12
956.9516341086533
 22
-266.9270271205338
 32
0.0
 13
956.9516341086533
 23
-266.9270271205338
 33
0.0
  0
MTEXT
  5
D49
330
D41
100
AcDbEntity
  8
P-0000
  6
Continuous
 62
     2
100
AcDbMText
 10
949.4516341086534
 20
-234.8831653268336
 30
0.0
 40
7.0
 41
0.0
 71
     5
 72
     1
  1
64
 11
0.0000000000000001
 21
1.0
 31
0.0
 73
     1
 44
1.0
1001
ACAD
1000
MTEXTBEGIN
1070
    73
1070
     1
1070
    44
1040
1.0
1070
    74
1070
     0
1000
MTEXTEND
  0
POINT
  5
D4A
330
D41
100
AcDbEntity
  8
Defpoints
  6
Continuous
 62
     0
100
AcDbPoint
 10
980.0343591370356
 20
-202.8393035331338
 30
0.0
  0
POINT
  5
D4B
330
D41
100
AcDbEntity
  8
Defpoints
  6
Continuous
 62
     0
100
AcDbPoint
 10
977.5343591370356
 20
-266.9270271205338
 30
0.0
  0
POINT
  5
D4C
330
D41
100
AcDbEntity
  8
Defpoints
  6
Continuous
 62
     0
100
AcDbPoint
 10
956.9516341086533
 20
-266.9270271205338
 30
0.0
  0
ENDBLK
  5
D43
330
D41
100
AcDbEntity
  8
0
100
AcDbBlockEnd
  0
BLOCK
  5
D57
330
D56
100
AcDbEntity
  8
0
100
AcDbBlockBegin
  2
*D21
 70
     1
 10
0.0
 20
0.0
 30
0.0
  3
*D21
  1

  0
LINE
  5
D59
330
D56
100
AcDbEntity
  8
P-0000
  6
Continuous
 62
     3
370
    -2
100
AcDbLine
 10
980.0343591370356
 20
-200.0147507077338
 30
0.0
 11
980.0343591370356
 21
-164.1155239283185
 31
0.0
  0
LINE
  5
D5A
330
D56
100
AcDbEntity
  8
P-0000
  6
Continuous
 62
     3
370
    -2
100
AcDbLine
 10
1560.034359137036
 20
-202.9270271205338
 30
0.0
 11
1560.034359137036
 21
-164.1155239283185
 31
0.0
  0
LINE
  5
D5B
330
D56
100
AcDbEntity
  8
P-0000
  6
Continuous
 62
     3
370
    -2
100
AcDbLine
 10
986.3343591370357
 20
-168.1155239283185
 30
0.0
 11
1553.734359137036
 21
-168.1155239283185
 31
0.0
  0
SOLID
  5
D5C
330
D56
100
AcDbEntity
  8
P-0000
  6
Continuous
 62
     3
100
AcDbTrace
 10
986.3343591370357
 20
-167.0655239283185
 30
0.0
 11
986.3343591370357
 21
-169.1655239283185
 31
0.0
 12
980.0343591370356
 22
-168.1155239283185
 32
0.0
 13
980.0343591370356
 23
-168.1155239283185
 33
0.0
  0
SOLID
  5
D5D
330
D56
100
AcDbEntity
  8
P-0000
  6
Continuous
 62
     3
100
AcDbTrace
 10
1553.734359137036
 20
-167.0655239283185
 30
0.0
 11
1553.734359137036
 21
-169.1655239283185
 31
0.0
 12
1560.034359137036
 22
-168.1155239283185
 32
0.0
 13
1560.034359137036
 23
-168.1155239283185
 33
0.0
  0
MTEXT
  5
D5E
330
D56
100
AcDbEntity
  8
P-0000
  6
Continuous
 62
     2
100
AcDbMText
 10
1270.034359137035
 20
-160.6155239283185
 30
0.0
 40
7.0
 41
0.0
 71
     5
 72
     1
  1
580
 73
     1
 44
1.0
1001
ACAD
1000
MTEXTBEGIN
1070
    73
1070
     1
1070
    44
1040
1.0
1070
    74
1070
     0
1000
MTEXTEND
  0
POINT
  5
D5F
330
D56
100
AcDbEntity
  8
Defpoints
  6
Continuous
 62
     0
100
AcDbPoint
 10
980.0343591370356
 20
-200.0147507077338
 30
0.0
  0
POINT
  5
D60
330
D56
100
AcDbEntity
  8
Defpoints
  6
Continuous
 62
     0
100
AcDbPoint
 10
1560.034359137036
 20
-202.9270271205338
 30
0.0
  0
POINT
  5
D61
330
D56
100
AcDbEntity
  8
Defpoints
  6
Continuous
 62
     0
100
AcDbPoint
 10
1560.034359137036
 20
-168.1155239283185
 30
0.0
  0
ENDBLK
  5
D58
330
D56
100
AcDbEntity
  8
0
100
AcDbBlockEnd
  0
BLOCK
  5
D63
330
D62
100
AcDbEntity
  8
0
100
AcDbBlockBegin
  2
*D22
 70
     1
 10
0.0
 20
0.0
 30
0.0
  3
*D22
  1

  0
LINE
  5
D65
330
D62
100
AcDbEntity
  8
P-0000
  6
Continuous
 62
     3
370
    -2
100
AcDbLine
 10
978.0343591370357
 20
-202.8393035331338
 30
0.0
 11
978.0343591370357
 21
-127.681886532114
 31
0.0
  0
LINE
  5
D66
330
D62
100
AcDbEntity
  8
P-0000
  6
Continuous
 62
     3
370
    -2
100
AcDbLine
 10
1562.034359137036
 20
-199.9270271205336
 30
0.0
 11
1562.034359137036
 21
-127.681886532114
 31
0.0
  0
LINE
  5
D67
330
D62
100
AcDbEntity
  8
P-0000
  6
Continuous
 62
     3
370
    -2
100
AcDbLine
 10
984.3343591370356
 20
-131.681886532114
 30
0.0
 11
1555.734359137036
 21
-131.681886532114
 31
0.0
  0
SOLID
  5
D68
330
D62
100
AcDbEntity
  8
P-0000
  6
Continuous
 62
     3
100
AcDbTrace
 10
984.3343591370356
 20
-130.631886532114
 30
0.0
 11
984.3343591370356
 21
-132.731886532114
 31
0.0
 12
978.0343591370357
 22
-131.681886532114
 32
0.0
 13
978.0343591370357
 23
-131.681886532114
 33
0.0
  0
SOLID
  5
D69
330
D62
100
AcDbEntity
  8
P-0000
  6
Continuous
 62
     3
100
AcDbTrace
 10
1555.734359137036
 20
-130.631886532114
 30
0.0
 11
1555.734359137036
 21
-132.731886532114
 31
0.0
 12
1562.034359137036
 22
-131.681886532114
 32
0.0
 13
1562.034359137036
 23
-131.681886532114
 33
0.0
  0
MTEXT
  5
D6A
330
D62
100
AcDbEntity
  8
P-0000
  6
Continuous
 62
     2
100
AcDbMText
 10
1270.034359137035
 20
-124.181886532114
 30
0.0
 40
7.0
 41
0.0
 71
     5
 72
     1
  1
584
 73
     1
 44
1.0
1001
ACAD
1000
MTEXTBEGIN
1070
    73
1070
     1
1070
    44
1040
1.0
1070
    74
1070
     0
1000
MTEXTEND
  0
POINT
  5
D6B
330
D62
100
AcDbEntity
  8
Defpoints
  6
Continuous
 62
     0
100
AcDbPoint
 10
978.0343591370357
 20
-202.8393035331338
 30
0.0
  0
POINT
  5
D6C
330
D62
100
AcDbEntity
  8
Defpoints
  6
Continuous
 62
     0
100
AcDbPoint
 10
1562.034359137036
 20
-199.9270271205336
 30
0.0
  0
POINT
  5
D6D
330
D62
100
AcDbEntity
  8
Defpoints
  6
Continuous
 62
     0
100
AcDbPoint
 10
1562.034359137036
 20
-131.681886532114
 30
0.0
  0
ENDBLK
  5
D64
330
D62
100
AcDbEntity
  8
0
100
AcDbBlockEnd
  0
BLOCK
  5
1019
330
1018
100
AcDbEntity
  8
0
100
AcDbBlockBegin
  2
*D23
 70
     1
 10
0.0
 20
0.0
 30
0.0
  3
*D23
  1

  0
LINE
  5
101A
330
1018
100
AcDbEntity
  8
P-0000
  6
Continuous
 62
     3
370
    -2
100
AcDbLine
 10
-159.4917773227203
 20
314.9854689923718
 30
0.0
 11
-159.4917773227203
 21
381.8815914239895
 31
0.0
  0
LINE
  5
101B
330
1018
100
AcDbEntity
  8
P-0000
  6
Continuous
 62
     3
370
    -2
100
AcDbLine
 10
1330.508222677279
 20
314.6382023260843
 30
0.0
 11
1330.508222677279
 21
381.8815914239895
 31
0.0
  0
LINE
  5
101C
330
1018
100
AcDbEntity
  8
P-0000
  6
Continuous
 62
     3
370
    -2
100
AcDbLine
 10
-153.1917773227203
 20
377.8815914239895
 30
0.0
 11
1324.208222677279
 21
377.8815914239895
 31
0.0
  0
SOLID
  5
101D
330
1018
100
AcDbEntity
  8
P-0000
  6
Continuous
 62
     3
100
AcDbTrace
 10
-153.1917773227203
 20
378.9315914239895
 30
0.0
 11
-153.1917773227203
 21
376.8315914239895
 31
0.0
 12
-159.4917773227203
 22
377.8815914239895
 32
0.0
 13
-159.4917773227203
 23
377.8815914239895
 33
0.0
  0
SOLID
  5
101E
330
1018
100
AcDbEntity
  8
P-0000
  6
Continuous
 62
     3
100
AcDbTrace
 10
1324.208222677279
 20
378.9315914239895
 30
0.0
 11
1324.208222677279
 21
376.8315914239895
 31
0.0
 12
1330.508222677279
 22
377.8815914239895
 32
0.0
 13
1330.508222677279
 23
377.8815914239895
 33
0.0
  0
MTEXT
  5
101F
330
1018
100
AcDbEntity
  8
P-0000
  6
Continuous
 62
     2
100
AcDbMText
 10
585.5082226772792
 20
396.8815914239895
 30
0.0
 40
30.0
 41
0.0
 71
     5
 72
     1
  1
1490
 73
     1
 44
1.0
1001
ACAD
1000
MTEXTBEGIN
1070
    73
1070
     1
1070
    44
1040
1.0
1070
    74
1070
     0
1000
MTEXTEND
  0
POINT
  5
1020
330
1018
100
AcDbEntity
  8
Defpoints
  6
Continuous
 62
     0
100
AcDbPoint
 10
-159.4917773227203
 20
314.9854689923718
 30
0.0
  0
POINT
  5
1021
330
1018
100
AcDbEntity
  8
Defpoints
  6
Continuous
 62
     0
100
AcDbPoint
 10
1330.508222677279
 20
314.6382023260843
 30
0.0
  0
POINT
  5
1022
330
1018
100
AcDbEntity
  8
Defpoints
  6
Continuous
 62
     0
100
AcDbPoint
 10
1330.508222677279
 20
377.8815914239895
 30
0.0
  0
ENDBLK
  5
1023
330
1018
100
AcDbEntity
  8
0
100
AcDbBlockEnd
  0
BLOCK
  5
1223
330
1222
100
AcDbEntity
  8
0
100
AcDbBlockBegin
  2
*D24
 70
     1
 10
0.0
 20
0.0
 30
0.0
  3
*D24
  1

  0
LINE
  5
122E
330
1222
100
AcDbEntity
  8
P-0000
  6
Continuous
 62
     3
370
    -2
100
AcDbLine
 10
208.4425929946496
 20
3.688121267857241
 30
0.0
 11
208.4425929946496
 21
70.58424369947494
 31
0.0
  0
LINE
  5
122F
330
1222
100
AcDbEntity
  8
P-0000
  6
Continuous
 62
     3
370
    -2
100
AcDbLine
 10
1698.442592994649
 20
3.340854601569787
 30
0.0
 11
1698.442592994649
 21
70.58424369947494
 31
0.0
  0
LINE
  5
1230
330
1222
100
AcDbEntity
  8
P-0000
  6
Continuous
 62
     3
370
    -2
100
AcDbLine
 10
214.7425929946496
 20
66.58424369947494
 30
0.0
 11
1692.142592994649
 21
66.58424369947494
 31
0.0
  0
SOLID
  5
1231
330
1222
100
AcDbEntity
  8
P-0000
  6
Continuous
 62
     3
100
AcDbTrace
 10
214.7425929946496
 20
67.63424369947492
 30
0.0
 11
214.7425929946496
 21
65.53424369947494
 31
0.0
 12
208.4425929946496
 22
66.58424369947494
 32
0.0
 13
208.4425929946496
 23
66.58424369947494
 33
0.0
  0
SOLID
  5
1232
330
1222
100
AcDbEntity
  8
P-0000
  6
Continuous
 62
     3
100
AcDbTrace
 10
1692.142592994649
 20
67.63424369947492
 30
0.0
 11
1692.142592994649
 21
65.53424369947494
 31
0.0
 12
1698.442592994649
 22
66.58424369947494
 32
0.0
 13
1698.442592994649
 23
66.58424369947494
 33
0.0
  0
MTEXT
  5
1233
330
1222
100
AcDbEntity
  8
P-0000
  6
Continuous
 62
     2
100
AcDbMText
 10
953.4425929946491
 20
85.58424369947493
 30
0.0
 40
30.0
 41
0.0
 71
     5
 72
     1
  1
1490
 73
     1
 44
1.0
1001
ACAD
1000
MTEXTBEGIN
1070
    73
1070
     1
1070
    44
1040
1.0
1070
    74
1070
     0
1000
MTEXTEND
  0
POINT
  5
1234
330
1222
100
AcDbEntity
  8
Defpoints
  6
Continuous
 62
     0
100
AcDbPoint
 10
208.4425929946496
 20
3.688121267857241
 30
0.0
  0
POINT
  5
1235
330
1222
100
AcDbEntity
  8
Defpoints
  6
Continuous
 62
     0
100
AcDbPoint
 10
1698.442592994649
 20
3.340854601569787
 30
0.0
  0
POINT
  5
1236
330
1222
100
AcDbEntity
  8
Defpoints
  6
Continuous
 62
     0
100
AcDbPoint
 10
1698.442592994649
 20
66.58424369947494
 30
0.0
  0
ENDBLK
  5
1224
330
1222
100
AcDbEntity
  8
0
100
AcDbBlockEnd
  0
BLOCK
  5
141C
330
141B
100
AcDbEntity
  8
0
100
AcDbBlockBegin
  2
*D25
 70
     1
 10
0.0
 20
0.0
 30
0.0
  3
*D25
  1

  0
ARC
  5
1452
330
141B
100
AcDbEntity
  8
AM_5
  6
ByBlock
 62
     0
370
    -2
100
AcDbCircle
 10
-157.5005444419983
 20
570.0874887433167
 30
0.0
 40
2.000000000000014
100
AcDbArc
 50
0.0000000000008142
 51
180.0000000000008
  0
LINE
  5
1453
330
141B
100
AcDbEntity
  8
AM_5
  6
ByBlock
 62
     0
370
    -2
100
AcDbLine
 10
-155.5005444419983
 20
570.0874887433167
 30
0.0
 11
-159.0005444419982
 21
570.0874887433167
 31
0.0
  0
ARC
  5
1454
330
141B
100
AcDbEntity
  8
AM_5
  6
ByBlock
 62
     0
370
    -2
100
AcDbCircle
 10
-157.5005444419983
 20
570.0874887433167
 30
0.0
 40
2.000000000000014
100
AcDbArc
 50
302.0899512562797
 51
148.9097394121206
  0
INSERT
  5
1455
330
141B
100
AcDbEntity
  8
AM_5
 62
     0
370
    -2
100
AcDbBlockReference
  2
_FILLED
 10
-159.5005444419982
 20
570.0874887433167
 30
0.0
 41
3.5
 42
3.5
 43
3.5
 50
151.0449756281402
  0
INSERT
  5
1456
330
141B
100
AcDbEntity
  8
AM_5
 62
     0
370
    -2
100
AcDbBlockReference
  2
_FILLED
 10
-157.4656504251895
 20
568.0877931645867
 30
0.0
 41
3.5
 42
3.5
 43
3.5
 50
299.9547150402602
  0
MTEXT
  5
1457
330
141B
100
AcDbEntity
  8
AM_5
 62
     0
100
AcDbMText
 10
-162.0755444419984
 20
570.0874887433167
 30
0.0
 40
3.5
 41
0.0
 71
     5
 72
     1
  1
\A1;91°
 73
     1
 44
1.0
1001
ACAD
1000
MTEXTBEGIN
1070
    73
1070
     1
1070
    44
1040
1.0
1070
    74
1070
     0
1000
MTEXTEND
  0
POINT
  5
1458
330
141B
100
AcDbEntity
  8
Defpoints
 62
     0
100
AcDbPoint
 10
-157.5005444419983
 20
570.0874887433167
 30
0.0
  0
POINT
  5
1459
330
141B
100
AcDbEntity
  8
Defpoints
 62
     0
100
AcDbPoint
 10
-159.5005444419982
 20
570.0874887433167
 30
0.0
  0
POINT
  5
145A
330
141B
100
AcDbEntity
  8
Defpoints
 62
     0
100
AcDbPoint
 10
-157.4656504251895
 20
568.0877931645871
 30
0.0
  0
POINT
  5
145B
330
141B
100
AcDbEntity
  8
Defpoints
 62
     0
100
AcDbPoint
 10
-158.4803301539848
 20
568.3439234423921
 30
0.0
  0
ENDBLK
  5
141D
330
141B
100
AcDbEntity
  8
0
100
AcDbBlockEnd
  0
BLOCK
  5
14C5
330
14C4
100
AcDbEntity
  8
0
100
AcDbBlockBegin
  2
*D26
 70
     1
 10
0.0
 20
0.0
 30
0.0
  3
*D26
  1

  0
LINE
  5
14F1
330
14C4
100
AcDbEntity
  8
P-0000
  6
Continuous
 62
     3
370
    -2
100
AcDbLine
 10
-159.4917773227204
 20
312.5683324682573
 30
0.0
 11
-159.4917773227204
 21
395.5841016953741
 31
0.0
  0
LINE
  5
14F2
330
14C4
100
AcDbEntity
  8
P-0000
  6
Continuous
 62
     3
370
    -2
100
AcDbLine
 10
830.5082226772796
 20
312.5683324682573
 30
0.0
 11
830.5082226772796
 21
395.5841016953741
 31
0.0
  0
LINE
  5
14F3
330
14C4
100
AcDbEntity
  8
P-0000
  6
Continuous
 62
     3
370
    -2
100
AcDbLine
 10
-153.1917773227204
 20
391.5841016953742
 30
0.0
 11
824.2082226772796
 21
391.5841016953742
 31
0.0
  0
SOLID
  5
14F4
330
14C4
100
AcDbEntity
  8
P-0000
  6
Continuous
 62
     3
100
AcDbTrace
 10
-153.1917773227204
 20
392.6341016953742
 30
0.0
 11
-153.1917773227204
 21
390.5341016953741
 31
0.0
 12
-159.4917773227204
 22
391.5841016953742
 32
0.0
 13
-159.4917773227204
 23
391.5841016953742
 33
0.0
  0
SOLID
  5
14F5
330
14C4
100
AcDbEntity
  8
P-0000
  6
Continuous
 62
     3
100
AcDbTrace
 10
824.2082226772796
 20
392.6341016953742
 30
0.0
 11
824.2082226772796
 21
390.5341016953741
 31
0.0
 12
830.5082226772796
 22
391.5841016953742
 32
0.0
 13
830.5082226772796
 23
391.5841016953742
 33
0.0
  0
MTEXT
  5
14F6
330
14C4
100
AcDbEntity
  8
P-0000
  6
Continuous
 62
     2
100
AcDbMText
 10
335.5082226772796
 20
410.5841016953741
 30
0.0
 40
30.0
 41
0.0
 71
     5
 72
     1
  1
990
 73
     1
 44
1.0
1001
ACAD
1000
MTEXTBEGIN
1070
    73
1070
     1
1070
    44
1040
1.0
1070
    74
1070
     0
1000
MTEXTEND
  0
POINT
  5
14F7
330
14C4
100
AcDbEntity
  8
Defpoints
  6
Continuous
 62
     0
100
AcDbPoint
 10
-159.4917773227204
 20
312.5683324682573
 30
0.0
  0
POINT
  5
14F8
330
14C4
100
AcDbEntity
  8
Defpoints
  6
Continuous
 62
     0
100
AcDbPoint
 10
830.5082226772796
 20
312.5683324682573
 30
0.0
  0
POINT
  5
14F9
330
14C4
100
AcDbEntity
  8
Defpoints
  6
Continuous
 62
     0
100
AcDbPoint
 10
830.5082226772796
 20
391.5841016953742
 30
0.0
  0
ENDBLK
  5
14C6
330
14C4
100
AcDbEntity
  8
0
100
AcDbBlockEnd
  0
BLOCK
  5
14FC
330
14FB
100
AcDbEntity
  8
0
100
AcDbBlockBegin
  2
*D27
 70
     1
 10
0.0
 20
0.0
 30
0.0
  3
*D27
  1

  0
LINE
  5
151E
330
14FB
100
AcDbEntity
  8
AM_5
  6
ByBlock
 62
     0
370
    -2
100
AcDbLine
 10
832.0082226772795
 20
600.0876065343717
 30
0.0
 11
844.0082226772798
 21
600.0876065343717
 31
0.0
  0
LINE
  5
151F
330
14FB
100
AcDbEntity
  8
AM_5
  6
ByBlock
 62
     0
370
    -2
100
AcDbLine
 10
832.0082226772795
 20
583.3652467572298
 30
0.0
 11
844.0082226772798
 21
583.3652467572298
 31
0.0
  0
LINE
  5
1520
330
14FB
100
AcDbEntity
  8
AM_5
  6
ByBlock
 62
     0
370
    -2
100
AcDbLine
 10
842.5082226772795
 20
596.5876065343717
 30
0.0
 11
842.5082226772795
 21
594.1014266458007
 31
0.0
  0
LINE
  5
1521
330
14FB
100
AcDbEntity
  8
AM_5
  6
ByBlock
 62
     0
370
    -2
100
AcDbLine
 10
842.5082226772795
 20
586.8652467572299
 30
0.0
 11
842.5082226772795
 21
589.3514266458009
 31
0.0
  0
INSERT
  5
1522
330
14FB
100
AcDbEntity
  8
AM_5
 62
     0
370
    -2
100
AcDbBlockReference
  2
_FILLED
 10
842.5082226772795
 20
600.0876065343717
 30
0.0
 41
3.5
 42
3.5
 43
3.5
 50
90.0
  0
INSERT
  5
1523
330
14FB
100
AcDbEntity
  8
AM_5
 62
     0
370
    -2
100
AcDbBlockReference
  2
_FILLED
 10
842.5082226772795
 20
583.3652467572298
 30
0.0
 41
3.5
 42
3.5
 43
3.5
 50
270.0
  0
MTEXT
  5
1524
330
14FB
100
AcDbEntity
  8
AM_5
 62
     0
100
AcDbMText
 10
842.5082226772795
 20
591.7264266458012
 30
0.0
 40
3.5
 41
0.0
 71
     5
 72
     1
  1
\A1;17
 73
     1
 44
1.0
1001
ACAD
1000
MTEXTBEGIN
1070
    73
1070
     1
1070
    44
1040
1.0
1070
    74
1070
     0
1000
MTEXTEND
  0
POINT
  5
1525
330
14FB
100
AcDbEntity
  8
Defpoints
 62
     0
100
AcDbPoint
 10
830.5082226772796
 20
600.0876065343717
 30
0.0
  0
POINT
  5
1526
330
14FB
100
AcDbEntity
  8
Defpoints
 62
     0
100
AcDbPoint
 10
830.5082226772796
 20
583.3652467572298
 30
0.0
  0
POINT
  5
1527
330
14FB
100
AcDbEntity
  8
Defpoints
 62
     0
100
AcDbPoint
 10
842.5082226772795
 20
583.3652467572298
 30
0.0
  0
ENDBLK
  5
14FD
330
14FB
100
AcDbEntity
  8
0
100
AcDbBlockEnd
  0
BLOCK
  5
1562
330
1561
100
AcDbEntity
  8
0
100
AcDbBlockBegin
  2
*D28
 70
     1
 10
0.0
 20
0.0
 30
0.0
  3
*D28
  1

  0
LINE
  5
16FA
330
1561
100
AcDbEntity
  8
P-0000
  6
Continuous
 62
     3
370
    -2
100
AcDbLine
 10
830.5082226772796
 20
600.0876065343717
 30
0.0
 11
843.5333683799976
 21
600.0876065343717
 31
0.0
  0
LINE
  5
16FB
330
1561
100
AcDbEntity
  8
P-0000
  6
Continuous
 62
     3
370
    -2
100
AcDbLine
 10
830.5843641991257
 20
587.5876065343716
 30
0.0
 11
843.5333683799976
 21
587.5876065343716
 31
0.0
  0
LINE
  5
16FC
330
1561
100
AcDbEntity
  8
P-0000
  6
Continuous
 62
     3
370
    -2
100
AcDbLine
 10
839.5333683799977
 20
606.3876065343716
 30
0.0
 11
839.5333683799977
 21
612.6876065343717
 31
0.0
  0
LINE
  5
16FD
330
1561
100
AcDbEntity
  8
P-0000
  6
Continuous
 62
     3
370
    -2
100
AcDbLine
 10
839.5333683799977
 20
581.2876065343718
 30
0.0
 11
839.5333683799977
 21
510.9876065343716
 31
0.0
  0
LINE
  5
16FE
330
1561
100
AcDbEntity
  8
P-0000
  6
Continuous
 62
     3
370
    -2
100
AcDbLine
 10
839.5333683799977
 20
600.0876065343717
 30
0.0
 11
839.5333683799977
 21
587.5876065343716
 31
0.0
  0
SOLID
  5
16FF
330
1561
100
AcDbEntity
  8
P-0000
  6
Continuous
 62
     3
100
AcDbTrace
 10
838.4833683799977
 20
606.3876065343716
 30
0.0
 11
840.5833683799976
 21
606.3876065343716
 31
0.0
 12
839.5333683799977
 22
600.0876065343717
 32
0.0
 13
839.5333683799977
 23
600.0876065343717
 33
0.0
  0
SOLID
  5
1700
330
1561
100
AcDbEntity
  8
P-0000
  6
Continuous
 62
     3
100
AcDbTrace
 10
838.4833683799977
 20
581.2876065343718
 30
0.0
 11
840.5833683799976
 21
581.2876065343718
 31
0.0
 12
839.5333683799977
 22
587.5876065343716
 32
0.0
 13
839.5333683799977
 23
587.5876065343716
 33
0.0
  0
MTEXT
  5
1701
330
1561
100
AcDbEntity
  8
P-0000
  6
Continuous
 62
     2
100
AcDbMText
 10
820.5333683799976
 20
542.9876065343718
 30
0.0
 40
30.0
 41
0.0
 71
     5
 72
     1
  1
12.5
 11
0.0000000000000001
 21
1.0
 31
0.0
 73
     1
 44
1.0
1001
ACAD
1000
MTEXTBEGIN
1070
    73
1070
     1
1070
    44
1040
1.0
1070
    74
1070
     0
1000
MTEXTEND
  0
POINT
  5
1702
330
1561
100
AcDbEntity
  8
Defpoints
  6
Continuous
 62
     0
100
AcDbPoint
 10
830.5082226772796
 20
600.0876065343717
 30
0.0
  0
POINT
  5
1703
330
1561
100
AcDbEntity
  8
Defpoints
  6
Continuous
 62
     0
100
AcDbPoint
 10
830.5843641991257
 20
587.5876065343716
 30
0.0
  0
POINT
  5
1704
330
1561
100
AcDbEntity
  8
Defpoints
  6
Continuous
 62
     0
100
AcDbPoint
 10
839.5333683799977
 20
587.5876065343716
 30
0.0
  0
ENDBLK
  5
1563
330
1561
100
AcDbEntity
  8
0
100
AcDbBlockEnd
  0
BLOCK
  5
15CF
330
15CE
100
AcDbEntity
  8
0
100
AcDbBlockBegin
  2
*D29
 70
     1
 10
0.0
 20
0.0
 30
0.0
  3
*D29
  1

  0
LINE
  5
1610
330
15CE
100
AcDbEntity
  8
P-0000
  6
Continuous
 62
     3
370
    -2
100
AcDbLine
 10
-159.4917773227204
 20
600.0876065343717
 30
0.0
 11
-261.5582494248228
 21
600.0876065343717
 31
0.0
  0
LINE
  5
1611
330
15CE
100
AcDbEntity
  8
P-0000
  6
Continuous
 62
     3
370
    -2
100
AcDbLine
 10
-157.4513156415703
 20
570.0962631037881
 30
0.0
 11
-261.5582494248228
 21
570.0962631037882
 31
0.0
  0
LINE
  5
1612
330
15CE
100
AcDbEntity
  8
P-0000
  6
Continuous
 62
     3
370
    -2
100
AcDbLine
 10
-257.5582494248228
 20
593.7876065343719
 30
0.0
 11
-257.5582494248228
 21
576.3962631037882
 31
0.0
  0
LINE
  5
1613
330
15CE
100
AcDbEntity
  8
P-0000
  6
Continuous
 62
     3
370
    -2
100
AcDbLine
 10
-257.5582494248228
 20
570.0962631037882
 30
0.0
 11
-257.5582494248228
 21
519.435543817303
 31
0.0
  0
SOLID
  5
1614
330
15CE
100
AcDbEntity
  8
P-0000
  6
Continuous
 62
     3
100
AcDbTrace
 10
-258.6082494248228
 20
593.7876065343719
 30
0.0
 11
-256.5082494248228
 21
593.7876065343719
 31
0.0
 12
-257.5582494248228
 22
600.0876065343717
 32
0.0
 13
-257.5582494248228
 23
600.0876065343717
 33
0.0
  0
SOLID
  5
1615
330
15CE
100
AcDbEntity
  8
P-0000
  6
Continuous
 62
     3
100
AcDbTrace
 10
-258.6082494248228
 20
576.3962631037882
 30
0.0
 11
-256.5082494248228
 21
576.3962631037882
 31
0.0
 12
-257.5582494248228
 22
570.0962631037882
 32
0.0
 13
-257.5582494248228
 23
570.0962631037882
 33
0.0
  0
MTEXT
  5
1616
330
15CE
100
AcDbEntity
  8
P-0000
  6
Continuous
 62
     2
100
AcDbMText
 10
-276.5582494248229
 20
539.1855438173028
 30
0.0
 40
30.0
 41
0.0
 71
     5
 72
     1
  1
30
 11
0.0000000000000001
 21
1.0
 31
0.0
 73
     1
 44
1.0
1001
ACAD
1000
MTEXTBEGIN
1070
    73
1070
     1
1070
    44
1040
1.0
1070
    74
1070
     0
1000
MTEXTEND
  0
POINT
  5
1617
330
15CE
100
AcDbEntity
  8
Defpoints
  6
Continuous
 62
     0
100
AcDbPoint
 10
-159.4917773227204
 20
600.0876065343717
 30
0.0
  0
POINT
  5
1618
330
15CE
100
AcDbEntity
  8
Defpoints
  6
Continuous
 62
     0
100
AcDbPoint
 10
-157.4513156415703
 20
570.0962631037881
 30
0.0
  0
POINT
  5
1619
330
15CE
100
AcDbEntity
  8
Defpoints
  6
Continuous
 62
     0
100
AcDbPoint
 10
-257.5582494248228
 20
570.0962631037882
 30
0.0
  0
ENDBLK
  5
15D0
330
15CE
100
AcDbEntity
  8
0
100
AcDbBlockEnd
  0
ENDSEC
  0
SECTION
  2
ENTITIES
  0
LINE
  5
466
102
{ACAD_REACTORS
330
14D2
102
}
330
20F
100
AcDbEntity
  8
RUNDUNGEN
  6
Continuous
 62
     0
100
AcDbLine
 10
-159.4917773227204
 20
314.9854689923718
 30
0.0
 11
-159.4917773227204
 21
283.3917774933718
 31
0.0
  0
LINE
  5
467
330
20F
100
AcDbEntity
  8
RUNDUNGEN
  6
Continuous
 62
     0
100
AcDbLine
 10
-159.4917773227204
 20
283.3917774933718
 30
0.0
 11
-159.4917773227204
 21
270.9852471263719
 31
0.0
  0
LINE
  5
468
330
20F
100
AcDbEntity
  8
RUNDUNGEN
  6
Continuous
 62
     0
100
AcDbLine
 10
-157.4917773227203
 20
314.9854689923718
 30
0.0
 11
-157.4917773227203
 21
314.3604689923718
 31
0.0
  0
LINE
  5
469
330
20F
100
AcDbEntity
  8
RUNDUNGEN
  6
Continuous
 62
     0
100
AcDbLine
 10
-157.4917773227203
 20
311.7563024248718
 30
0.0
 11
-157.4917773227203
 21
311.027135559872
 31
0.0
  0
LINE
  5
46A
330
20F
100
AcDbEntity
  8
RUNDUNGEN
  6
Continuous
 62
     0
100
AcDbLine
 10
-155.2577347377204
 20
314.3604689923718
 30
0.0
 11
-155.2577347377204
 21
312.5896357088718
 31
0.0
  0
LINE
  5
46B
330
20F
100
AcDbEntity
  8
RUNDUNGEN
  6
Continuous
 62
     0
100
AcDbLine
 10
-154.6194369417204
 20
312.3813024248718
 30
0.0
 11
-154.6194369417204
 21
314.3604689923718
 31
0.0
  0
LINE
  5
46C
330
20F
100
AcDbEntity
  8
RUNDUNGEN
  6
Continuous
 62
     0
100
AcDbLine
 10
-153.0236921527204
 20
314.3604689923718
 30
0.0
 11
-153.0236921527204
 21
312.3813024248718
 31
0.0
  0
LINE
  5
46D
330
20F
100
AcDbEntity
  8
RUNDUNGEN
  6
Continuous
 62
     0
100
AcDbLine
 10
-152.4917773227203
 20
309.9854689923718
 30
0.0
 11
-152.4917773227203
 21
289.9854689923718
 31
0.0
  0
LINE
  5
46E
330
20F
100
AcDbEntity
  8
RUNDUNGEN
  6
Continuous
 62
     0
100
AcDbLine
 10
-152.4917773227203
 20
312.4854689923718
 30
0.0
 11
-152.4917773227203
 21
314.9854689923718
 31
0.0
  0
LINE
  5
46F
330
20F
100
AcDbEntity
  8
RUNDUNGEN
  6
Continuous
 62
     0
100
AcDbLine
 10
-132.4917773227204
 20
289.9854689923718
 30
0.0
 11
-132.4917773227204
 21
309.9854689923718
 31
0.0
  0
LINE
  5
470
330
20F
100
AcDbEntity
  8
RUNDUNGEN
  6
Continuous
 62
     0
100
AcDbLine
 10
-124.4917773227204
 20
309.9854689923718
 30
0.0
 11
-124.4917773227204
 21
289.9854689923718
 31
0.0
  0
LINE
  5
471
330
20F
100
AcDbEntity
  8
RUNDUNGEN
  6
Continuous
 62
     0
100
AcDbLine
 10
-104.4917773227204
 20
289.9854689923718
 30
0.0
 11
-104.4917773227204
 21
309.9854689923718
 31
0.0
  0
LINE
  5
472
330
20F
100
AcDbEntity
  8
RUNDUNGEN
  6
Continuous
 62
     0
100
AcDbLine
 10
-152.5981602887203
 20
311.964635559872
 30
0.0
 11
-152.4917773227203
 21
312.4854689923718
 31
0.0
  0
LINE
  5
473
330
20F
100
AcDbEntity
  8
RUNDUNGEN
  6
Continuous
 62
     0
100
AcDbLine
 10
-153.0236921527204
 20
312.3813024248718
 30
0.0
 11
-153.1300751192204
 21
312.0688024248718
 31
0.0
  0
LINE
  5
474
330
20F
100
AcDbEntity
  8
RUNDUNGEN
  6
Continuous
 62
     0
100
AcDbLine
 10
-154.5130539757203
 20
312.0688024248718
 30
0.0
 11
-154.6194369417204
 21
312.3813024248718
 31
0.0
  0
LINE
  5
475
330
20F
100
AcDbEntity
  8
RUNDUNGEN
  6
Continuous
 62
     0
100
AcDbLine
 10
-96.49177732272042
 20
309.9854689923718
 30
0.0
 11
-96.49177732272042
 21
289.9854689923718
 31
0.0
  0
LINE
  5
476
330
20F
100
AcDbEntity
  8
RUNDUNGEN
  6
Continuous
 62
     0
100
AcDbLine
 10
-76.49177732272041
 20
289.9854689923718
 30
0.0
 11
-76.49177732272041
 21
309.9854689923718
 31
0.0
  0
LINE
  5
477
330
20F
100
AcDbEntity
  8
RUNDUNGEN
  6
Continuous
 62
     0
100
AcDbLine
 10
-68.49177732272039
 20
309.9854689923718
 30
0.0
 11
-68.49177732272039
 21
289.9854689923718
 31
0.0
  0
LINE
  5
478
330
20F
100
AcDbEntity
  8
RUNDUNGEN
  6
Continuous
 62
     0
100
AcDbLine
 10
-155.0449688057204
 20
311.964635559872
 30
0.0
 11
-154.8322028737203
 21
311.5479689923718
 31
0.0
  0
LINE
  5
479
330
20F
100
AcDbEntity
  8
RUNDUNGEN
  6
Continuous
 62
     0
100
AcDbLine
 10
-48.49177732272039
 20
289.9854689923718
 30
0.0
 11
-48.49177732272039
 21
309.9854689923718
 31
0.0
  0
LINE
  5
47A
330
20F
100
AcDbEntity
  8
RUNDUNGEN
  6
Continuous
 62
     0
100
AcDbLine
 10
-40.49177732272038
 20
309.9854689923718
 30
0.0
 11
-40.49177732272038
 21
289.9854689923718
 31
0.0
  0
LINE
  5
47B
330
20F
100
AcDbEntity
  8
RUNDUNGEN
  6
Continuous
 62
     0
100
AcDbLine
 10
-20.4917773227204
 20
289.9854689923718
 30
0.0
 11
-20.4917773227204
 21
309.9854689923718
 31
0.0
  0
LINE
  5
47C
330
20F
100
AcDbEntity
  8
RUNDUNGEN
  6
Continuous
 62
     0
100
AcDbLine
 10
-12.49177732272039
 20
309.9854689923718
 30
0.0
 11
-12.49177732272039
 21
289.9854689923718
 31
0.0
  0
LINE
  5
47D
330
20F
100
AcDbEntity
  8
RUNDUNGEN
  6
Continuous
 62
     0
100
AcDbLine
 10
-152.9173091867203
 20
311.5479689923718
 30
0.0
 11
-152.5981602887203
 21
311.964635559872
 31
0.0
  0
LINE
  5
47E
330
20F
100
AcDbEntity
  8
RUNDUNGEN
  6
Continuous
 62
     0
100
AcDbLine
 10
7.508222677279602
 20
289.9854689923718
 30
0.0
 11
7.508222677279602
 21
309.9854689923718
 31
0.0
  0
LINE
  5
47F
330
20F
100
AcDbEntity
  8
RUNDUNGEN
  6
Continuous
 62
     0
100
AcDbLine
 10
15.5082226772796
 20
309.9854689923718
 30
0.0
 11
15.5082226772796
 21
289.9854689923718
 31
0.0
  0
LINE
  5
480
330
20F
100
AcDbEntity
  8
RUNDUNGEN
  6
Continuous
 62
     0
100
AcDbLine
 10
35.50822267727961
 20
289.9854689923718
 30
0.0
 11
35.50822267727961
 21
309.9854689923718
 31
0.0
  0
LINE
  5
481
330
20F
100
AcDbEntity
  8
RUNDUNGEN
  6
Continuous
 62
     0
100
AcDbLine
 10
43.5082226772796
 20
309.9854689923718
 30
0.0
 11
43.5082226772796
 21
289.9854689923718
 31
0.0
  0
LINE
  5
482
330
20F
100
AcDbEntity
  8
RUNDUNGEN
  6
Continuous
 62
     0
100
AcDbLine
 10
63.5082226772796
 20
289.9854689923718
 30
0.0
 11
63.5082226772796
 21
309.9854689923718
 31
0.0
  0
LINE
  5
483
330
20F
100
AcDbEntity
  8
RUNDUNGEN
  6
Continuous
 62
     0
100
AcDbLine
 10
71.50822267727959
 20
309.9854689923718
 30
0.0
 11
71.50822267727959
 21
289.9854689923718
 31
0.0
  0
LINE
  5
484
330
20F
100
AcDbEntity
  8
RUNDUNGEN
  6
Continuous
 62
     0
100
AcDbLine
 10
91.50822267727958
 20
289.9854689923718
 30
0.0
 11
91.50822267727958
 21
309.9854689923718
 31
0.0
  0
LINE
  5
485
330
20F
100
AcDbEntity
  8
RUNDUNGEN
  6
Continuous
 62
     0
100
AcDbLine
 10
-153.1300751192204
 20
312.0688024248718
 30
0.0
 11
-153.3428410512204
 21
311.8604689923718
 31
0.0
  0
LINE
  5
486
330
20F
100
AcDbEntity
  8
RUNDUNGEN
  6
Continuous
 62
     0
100
AcDbLine
 10
-154.3002880432204
 20
311.8604689923718
 30
0.0
 11
-154.5130539757203
 21
312.0688024248718
 31
0.0
  0
LINE
  5
487
330
20F
100
AcDbEntity
  8
RUNDUNGEN
  6
Continuous
 62
     0
100
AcDbLine
 10
99.50822267727959
 20
309.9854689923718
 30
0.0
 11
99.50822267727959
 21
289.9854689923718
 31
0.0
  0
LINE
  5
488
330
20F
100
AcDbEntity
  8
RUNDUNGEN
  6
Continuous
 62
     0
100
AcDbLine
 10
119.5082226772796
 20
289.9854689923718
 30
0.0
 11
119.5082226772796
 21
309.9854689923718
 31
0.0
  0
LINE
  5
489
330
20F
100
AcDbEntity
  8
RUNDUNGEN
  6
Continuous
 62
     0
100
AcDbLine
 10
127.5082226772796
 20
309.9854689923718
 30
0.0
 11
127.5082226772796
 21
289.9854689923718
 31
0.0
  0
LINE
  5
48A
330
20F
100
AcDbEntity
  8
RUNDUNGEN
  6
Continuous
 62
     0
100
AcDbLine
 10
-153.3428410512204
 20
311.2354689923718
 30
0.0
 11
-152.9173091867203
 21
311.5479689923718
 31
0.0
  0
LINE
  5
48B
330
20F
100
AcDbEntity
  8
RUNDUNGEN
  6
Continuous
 62
     0
100
AcDbLine
 10
147.5082226772796
 20
289.9854689923718
 30
0.0
 11
147.5082226772796
 21
309.9854689923718
 31
0.0
  0
LINE
  5
48C
330
20F
100
AcDbEntity
  8
RUNDUNGEN
  6
Continuous
 62
     0
100
AcDbLine
 10
155.5082226772795
 20
309.9854689923718
 30
0.0
 11
155.5082226772795
 21
289.9854689923718
 31
0.0
  0
LINE
  5
48D
330
20F
100
AcDbEntity
  8
RUNDUNGEN
  6
Continuous
 62
     0
100
AcDbLine
 10
175.5082226772796
 20
289.9854689923718
 30
0.0
 11
175.5082226772796
 21
309.9854689923718
 31
0.0
  0
LINE
  5
48E
330
20F
100
AcDbEntity
  8
RUNDUNGEN
  6
Continuous
 62
     0
100
AcDbLine
 10
183.5082226772795
 20
309.9854689923718
 30
0.0
 11
183.5082226772795
 21
289.9854689923718
 31
0.0
  0
LINE
  5
48F
330
20F
100
AcDbEntity
  8
RUNDUNGEN
  6
Continuous
 62
     0
100
AcDbLine
 10
-154.8322028737203
 20
311.5479689923718
 30
0.0
 11
-154.4066710097204
 21
311.2354689923718
 31
0.0
  0
LINE
  5
490
330
20F
100
AcDbEntity
  8
RUNDUNGEN
  6
Continuous
 62
     0
100
AcDbLine
 10
203.5082226772796
 20
289.9854689923718
 30
0.0
 11
203.5082226772796
 21
309.9854689923718
 31
0.0
  0
LINE
  5
491
330
20F
100
AcDbEntity
  8
RUNDUNGEN
  6
Continuous
 62
     0
100
AcDbLine
 10
211.5082226772796
 20
309.9854689923718
 30
0.0
 11
211.5082226772796
 21
289.9854689923718
 31
0.0
  0
LINE
  5
492
330
20F
100
AcDbEntity
  8
RUNDUNGEN
  6
Continuous
 62
     0
100
AcDbLine
 10
231.5082226772796
 20
289.9854689923718
 30
0.0
 11
231.5082226772796
 21
309.9854689923718
 31
0.0
  0
LINE
  5
493
330
20F
100
AcDbEntity
  8
RUNDUNGEN
  6
Continuous
 62
     0
100
AcDbLine
 10
239.5082226772795
 20
309.9854689923718
 30
0.0
 11
239.5082226772795
 21
289.9854689923718
 31
0.0
  0
LINE
  5
494
330
20F
100
AcDbEntity
  8
RUNDUNGEN
  6
Continuous
 62
     0
100
AcDbLine
 10
259.5082226772795
 20
289.9854689923718
 30
0.0
 11
259.5082226772795
 21
309.9854689923718
 31
0.0
  0
LINE
  5
495
330
20F
100
AcDbEntity
  8
RUNDUNGEN
  6
Continuous
 62
     0
100
AcDbLine
 10
267.5082226772797
 20
309.9854689923718
 30
0.0
 11
267.5082226772797
 21
289.9854689923718
 31
0.0
  0
LINE
  5
496
330
20F
100
AcDbEntity
  8
RUNDUNGEN
  6
Continuous
 62
     0
100
AcDbLine
 10
287.5082226772797
 20
289.9854689923718
 30
0.0
 11
287.5082226772797
 21
309.9854689923718
 31
0.0
  0
LINE
  5
497
330
20F
100
AcDbEntity
  8
RUNDUNGEN
  6
Continuous
 62
     0
100
AcDbLine
 10
295.5082226772796
 20
309.9854689923718
 30
0.0
 11
295.5082226772796
 21
289.9854689923718
 31
0.0
  0
LINE
  5
498
330
20F
100
AcDbEntity
  8
RUNDUNGEN
  6
Continuous
 62
     0
100
AcDbLine
 10
315.5082226772796
 20
289.9854689923718
 30
0.0
 11
315.5082226772796
 21
309.9854689923718
 31
0.0
  0
LINE
  5
499
330
20F
100
AcDbEntity
  8
RUNDUNGEN
  6
Continuous
 62
     0
100
AcDbLine
 10
323.5082226772796
 20
309.9854689923718
 30
0.0
 11
323.5082226772796
 21
289.9854689923718
 31
0.0
  0
LINE
  5
49A
330
20F
100
AcDbEntity
  8
RUNDUNGEN
  6
Continuous
 62
     0
100
AcDbLine
 10
343.5082226772796
 20
289.9854689923718
 30
0.0
 11
343.5082226772796
 21
309.9854689923718
 31
0.0
  0
LINE
  5
49B
330
20F
100
AcDbEntity
  8
RUNDUNGEN
  6
Continuous
 62
     0
100
AcDbLine
 10
-157.4917773227203
 20
311.027135559872
 30
0.0
 11
-155.0449688057204
 21
311.964635559872
 31
0.0
  0
LINE
  5
49C
330
20F
100
AcDbEntity
  8
RUNDUNGEN
  6
Continuous
 62
     0
100
AcDbLine
 10
-155.2577347377204
 20
312.5896357088718
 30
0.0
 11
-157.4917773227203
 21
311.7563024248718
 31
0.0
  0
LINE
  5
49D
330
20F
100
AcDbEntity
  8
RUNDUNGEN
  6
Continuous
 62
     0
100
AcDbLine
 10
-153.3428410512204
 20
311.8604689923718
 30
0.0
 11
-153.6619899492203
 21
311.7563024248718
 31
0.0
  0
LINE
  5
49E
330
20F
100
AcDbEntity
  8
RUNDUNGEN
  6
Continuous
 62
     0
100
AcDbLine
 10
-153.6619899492203
 20
311.1313024248718
 30
0.0
 11
-153.3428410512204
 21
311.2354689923718
 31
0.0
  0
LINE
  5
49F
330
20F
100
AcDbEntity
  8
RUNDUNGEN
  6
Continuous
 62
     0
100
AcDbLine
 10
351.5082226772797
 20
309.9854689923718
 30
0.0
 11
351.5082226772797
 21
289.9854689923718
 31
0.0
  0
LINE
  5
4A0
330
20F
100
AcDbEntity
  8
RUNDUNGEN
  6
Continuous
 62
     0
100
AcDbLine
 10
371.5082226772797
 20
289.9854689923718
 30
0.0
 11
371.5082226772797
 21
309.9854689923718
 31
0.0
  0
LINE
  5
4A1
330
20F
100
AcDbEntity
  8
RUNDUNGEN
  6
Continuous
 62
     0
100
AcDbLine
 10
379.5082226772795
 20
309.9854689923718
 30
0.0
 11
379.5082226772795
 21
289.9854689923718
 31
0.0
  0
LINE
  5
4A2
330
20F
100
AcDbEntity
  8
RUNDUNGEN
  6
Continuous
 62
     0
100
AcDbLine
 10
-154.4066710097204
 20
311.2354689923718
 30
0.0
 11
-154.0875221112204
 21
311.1313024248718
 31
0.0
  0
LINE
  5
4A3
330
20F
100
AcDbEntity
  8
RUNDUNGEN
  6
Continuous
 62
     0
100
AcDbLine
 10
-153.9811391452204
 20
311.7563024248718
 30
0.0
 11
-154.3002880432204
 21
311.8604689923718
 31
0.0
  0
LINE
  5
4A4
330
20F
100
AcDbEntity
  8
RUNDUNGEN
  6
Continuous
 62
     0
100
AcDbLine
 10
399.5082226772795
 20
289.9854689923718
 30
0.0
 11
399.5082226772795
 21
309.9854689923718
 31
0.0
  0
LINE
  5
4A5
330
20F
100
AcDbEntity
  8
RUNDUNGEN
  6
Continuous
 62
     0
100
AcDbLine
 10
407.5082226772797
 20
309.9854689923718
 30
0.0
 11
407.5082226772797
 21
289.9854689923718
 31
0.0
  0
LINE
  5
4A6
330
20F
100
AcDbEntity
  8
RUNDUNGEN
  6
Continuous
 62
     0
100
AcDbLine
 10
427.5082226772796
 20
289.9854689923718
 30
0.0
 11
427.5082226772796
 21
309.9854689923718
 31
0.0
  0
LINE
  5
4A7
330
20F
100
AcDbEntity
  8
RUNDUNGEN
  6
Continuous
 62
     0
100
AcDbLine
 10
435.5082226772796
 20
309.9854689923718
 30
0.0
 11
435.5082226772796
 21
289.9854689923718
 31
0.0
  0
LINE
  5
4A8
330
20F
100
AcDbEntity
  8
RUNDUNGEN
  6
Continuous
 62
     0
100
AcDbLine
 10
455.5082226772793
 20
289.9854689923718
 30
0.0
 11
455.5082226772793
 21
309.9854689923718
 31
0.0
  0
LINE
  5
4A9
330
20F
100
AcDbEntity
  8
RUNDUNGEN
  6
Continuous
 62
     0
100
AcDbLine
 10
463.5082226772796
 20
309.9854689923718
 30
0.0
 11
463.5082226772796
 21
289.9854689923718
 31
0.0
  0
LINE
  5
4AA
330
20F
100
AcDbEntity
  8
RUNDUNGEN
  6
Continuous
 62
     0
100
AcDbLine
 10
483.5082226772796
 20
289.9854689923718
 30
0.0
 11
483.5082226772796
 21
309.9854689923718
 31
0.0
  0
LINE
  5
4AB
330
20F
100
AcDbEntity
  8
RUNDUNGEN
  6
Continuous
 62
     0
100
AcDbLine
 10
491.5082226772796
 20
309.9854689923718
 30
0.0
 11
491.5082226772796
 21
289.9854689923718
 31
0.0
  0
LINE
  5
4AC
330
20F
100
AcDbEntity
  8
RUNDUNGEN
  6
Continuous
 62
     0
100
AcDbLine
 10
511.5082226772797
 20
289.9854689923718
 30
0.0
 11
511.5082226772797
 21
309.9854689923718
 31
0.0
  0
LINE
  5
4AD
330
20F
100
AcDbEntity
  8
RUNDUNGEN
  6
Continuous
 62
     0
100
AcDbLine
 10
519.5082226772797
 20
309.9854689923718
 30
0.0
 11
519.5082226772797
 21
289.9854689923718
 31
0.0
  0
LINE
  5
4AE
330
20F
100
AcDbEntity
  8
RUNDUNGEN
  6
Continuous
 62
     0
100
AcDbLine
 10
539.5082226772797
 20
289.9854689923718
 30
0.0
 11
539.5082226772797
 21
309.9854689923718
 31
0.0
  0
LINE
  5
4AF
330
20F
100
AcDbEntity
  8
RUNDUNGEN
  6
Continuous
 62
     0
100
AcDbLine
 10
547.5082226772797
 20
309.9854689923718
 30
0.0
 11
547.5082226772797
 21
289.9854689923718
 31
0.0
  0
LINE
  5
4B0
330
20F
100
AcDbEntity
  8
RUNDUNGEN
  6
Continuous
 62
     0
100
AcDbLine
 10
567.5082226772797
 20
289.9854689923718
 30
0.0
 11
567.5082226772797
 21
309.9854689923718
 31
0.0
  0
LINE
  5
4B1
330
20F
100
AcDbEntity
  8
RUNDUNGEN
  6
Continuous
 62
     0
100
AcDbLine
 10
575.5082226772797
 20
309.9854689923718
 30
0.0
 11
575.5082226772797
 21
289.9854689923718
 31
0.0
  0
LINE
  5
4B3
330
20F
100
AcDbEntity
  8
RUNDUNGEN
  6
Continuous
 62
     0
100
AcDbLine
 10
-159.4917773227204
 20
270.9852471263719
 30
0.0
 11
830.5082226772796
 21
270.9852471263719
 31
0.0
  0
LINE
  5
4B4
330
20F
100
AcDbEntity
  8
0
  6
Continuous
 62
     9
100
AcDbLine
 10
-159.4917773227204
 20
272.9852471263718
 30
0.0
 11
830.5082226772796
 21
272.9852471263718
 31
0.0
  0
LINE
  5
4B5
330
20F
100
AcDbEntity
  8
0
  6
Continuous
 62
     9
100
AcDbLine
 10
-159.4917773227204
 20
280.9927386253719
 30
0.0
 11
830.5082226772796
 21
280.9927386253719
 31
0.0
  0
LINE
  5
4B6
330
20F
100
AcDbEntity
  8
RUNDUNGEN
  6
Continuous
 62
     0
100
AcDbLine
 10
-159.4917773227204
 20
282.9927386253719
 30
0.0
 11
830.5082226772796
 21
282.9927386253719
 31
0.0
  0
LINE
  5
4B7
330
20F
100
AcDbEntity
  8
RUNDUNGEN
  6
Continuous
 62
     0
100
AcDbLine
 10
830.5082226772796
 20
283.3917774933718
 30
0.0
 11
-159.4917773227204
 21
283.3917774933718
 31
0.0
  0
LINE
  5
4B8
330
20F
100
AcDbEntity
  8
RUNDUNGEN
  6
Continuous
 62
     0
100
AcDbLine
 10
-152.4917773227203
 20
289.9854689923718
 30
0.0
 11
-132.4917773227204
 21
289.9854689923718
 31
0.0
  0
LINE
  5
4B9
330
20F
100
AcDbEntity
  8
RUNDUNGEN
  6
Continuous
 62
     0
100
AcDbLine
 10
-124.4917773227204
 20
289.9854689923718
 30
0.0
 11
-104.4917773227204
 21
289.9854689923718
 31
0.0
  0
LINE
  5
4BA
330
20F
100
AcDbEntity
  8
RUNDUNGEN
  6
Continuous
 62
     0
100
AcDbLine
 10
-96.49177732272042
 20
289.9854689923718
 30
0.0
 11
-76.49177732272041
 21
289.9854689923718
 31
0.0
  0
LINE
  5
4BB
330
20F
100
AcDbEntity
  8
RUNDUNGEN
  6
Continuous
 62
     0
100
AcDbLine
 10
-68.49177732272039
 20
289.9854689923718
 30
0.0
 11
-48.49177732272039
 21
289.9854689923718
 31
0.0
  0
LINE
  5
4BC
330
20F
100
AcDbEntity
  8
RUNDUNGEN
  6
Continuous
 62
     0
100
AcDbLine
 10
-40.49177732272038
 20
289.9854689923718
 30
0.0
 11
-20.4917773227204
 21
289.9854689923718
 31
0.0
  0
LINE
  5
4BD
330
20F
100
AcDbEntity
  8
RUNDUNGEN
  6
Continuous
 62
     0
100
AcDbLine
 10
-12.49177732272039
 20
289.9854689923718
 30
0.0
 11
7.508222677279602
 21
289.9854689923718
 31
0.0
  0
LINE
  5
4BE
330
20F
100
AcDbEntity
  8
RUNDUNGEN
  6
Continuous
 62
     0
100
AcDbLine
 10
15.5082226772796
 20
289.9854689923718
 30
0.0
 11
35.50822267727961
 21
289.9854689923718
 31
0.0
  0
LINE
  5
4BF
330
20F
100
AcDbEntity
  8
RUNDUNGEN
  6
Continuous
 62
     0
100
AcDbLine
 10
43.5082226772796
 20
289.9854689923718
 30
0.0
 11
63.5082226772796
 21
289.9854689923718
 31
0.0
  0
LINE
  5
4C0
330
20F
100
AcDbEntity
  8
RUNDUNGEN
  6
Continuous
 62
     0
100
AcDbLine
 10
71.50822267727959
 20
289.9854689923718
 30
0.0
 11
91.50822267727958
 21
289.9854689923718
 31
0.0
  0
LINE
  5
4C1
330
20F
100
AcDbEntity
  8
RUNDUNGEN
  6
Continuous
 62
     0
100
AcDbLine
 10
99.50822267727959
 20
289.9854689923718
 30
0.0
 11
119.5082226772796
 21
289.9854689923718
 31
0.0
  0
LINE
  5
4C2
330
20F
100
AcDbEntity
  8
RUNDUNGEN
  6
Continuous
 62
     0
100
AcDbLine
 10
127.5082226772796
 20
289.9854689923718
 30
0.0
 11
147.5082226772796
 21
289.9854689923718
 31
0.0
  0
LINE
  5
4C3
330
20F
100
AcDbEntity
  8
RUNDUNGEN
  6
Continuous
 62
     0
100
AcDbLine
 10
155.5082226772795
 20
289.9854689923718
 30
0.0
 11
175.5082226772796
 21
289.9854689923718
 31
0.0
  0
LINE
  5
4C4
330
20F
100
AcDbEntity
  8
RUNDUNGEN
  6
Continuous
 62
     0
100
AcDbLine
 10
183.5082226772795
 20
289.9854689923718
 30
0.0
 11
203.5082226772796
 21
289.9854689923718
 31
0.0
  0
LINE
  5
4C5
330
20F
100
AcDbEntity
  8
RUNDUNGEN
  6
Continuous
 62
     0
100
AcDbLine
 10
211.5082226772796
 20
289.9854689923718
 30
0.0
 11
231.5082226772796
 21
289.9854689923718
 31
0.0
  0
LINE
  5
4C6
330
20F
100
AcDbEntity
  8
RUNDUNGEN
  6
Continuous
 62
     0
100
AcDbLine
 10
239.5082226772795
 20
289.9854689923718
 30
0.0
 11
259.5082226772795
 21
289.9854689923718
 31
0.0
  0
LINE
  5
4C7
330
20F
100
AcDbEntity
  8
RUNDUNGEN
  6
Continuous
 62
     0
100
AcDbLine
 10
267.5082226772797
 20
289.9854689923718
 30
0.0
 11
287.5082226772797
 21
289.9854689923718
 31
0.0
  0
LINE
  5
4C8
330
20F
100
AcDbEntity
  8
RUNDUNGEN
  6
Continuous
 62
     0
100
AcDbLine
 10
295.5082226772796
 20
289.9854689923718
 30
0.0
 11
315.5082226772796
 21
289.9854689923718
 31
0.0
  0
LINE
  5
4C9
330
20F
100
AcDbEntity
  8
RUNDUNGEN
  6
Continuous
 62
     0
100
AcDbLine
 10
323.5082226772796
 20
289.9854689923718
 30
0.0
 11
343.5082226772796
 21
289.9854689923718
 31
0.0
  0
LINE
  5
4CA
330
20F
100
AcDbEntity
  8
RUNDUNGEN
  6
Continuous
 62
     0
100
AcDbLine
 10
351.5082226772797
 20
289.9854689923718
 30
0.0
 11
371.5082226772797
 21
289.9854689923718
 31
0.0
  0
LINE
  5
4CB
330
20F
100
AcDbEntity
  8
RUNDUNGEN
  6
Continuous
 62
     0
100
AcDbLine
 10
379.5082226772795
 20
289.9854689923718
 30
0.0
 11
399.5082226772795
 21
289.9854689923718
 31
0.0
  0
LINE
  5
4CC
330
20F
100
AcDbEntity
  8
RUNDUNGEN
  6
Continuous
 62
     0
100
AcDbLine
 10
407.5082226772797
 20
289.9854689923718
 30
0.0
 11
427.5082226772796
 21
289.9854689923718
 31
0.0
  0
LINE
  5
4CD
330
20F
100
AcDbEntity
  8
RUNDUNGEN
  6
Continuous
 62
     0
100
AcDbLine
 10
435.5082226772796
 20
289.9854689923718
 30
0.0
 11
455.5082226772793
 21
289.9854689923718
 31
0.0
  0
LINE
  5
4CE
330
20F
100
AcDbEntity
  8
RUNDUNGEN
  6
Continuous
 62
     0
100
AcDbLine
 10
463.5082226772796
 20
289.9854689923718
 30
0.0
 11
483.5082226772796
 21
289.9854689923718
 31
0.0
  0
LINE
  5
4CF
330
20F
100
AcDbEntity
  8
RUNDUNGEN
  6
Continuous
 62
     0
100
AcDbLine
 10
491.5082226772796
 20
289.9854689923718
 30
0.0
 11
511.5082226772797
 21
289.9854689923718
 31
0.0
  0
LINE
  5
4D0
330
20F
100
AcDbEntity
  8
RUNDUNGEN
  6
Continuous
 62
     0
100
AcDbLine
 10
519.5082226772797
 20
289.9854689923718
 30
0.0
 11
539.5082226772797
 21
289.9854689923718
 31
0.0
  0
LINE
  5
4D1
330
20F
100
AcDbEntity
  8
RUNDUNGEN
  6
Continuous
 62
     0
100
AcDbLine
 10
547.5082226772797
 20
289.9854689923718
 30
0.0
 11
567.5082226772797
 21
289.9854689923718
 31
0.0
  0
LINE
  5
4D2
330
20F
100
AcDbEntity
  8
RUNDUNGEN
  6
Continuous
 62
     0
100
AcDbLine
 10
575.5082226772797
 20
289.9854689923718
 30
0.0
 11
595.5082226772796
 21
289.9854689923718
 31
0.0
  0
LINE
  5
4D3
330
20F
100
AcDbEntity
  8
RUNDUNGEN
  6
Continuous
 62
     0
100
AcDbLine
 10
603.5082226772797
 20
289.9854689923718
 30
0.0
 11
623.5082226772797
 21
289.9854689923718
 31
0.0
  0
LINE
  5
4D4
330
20F
100
AcDbEntity
  8
RUNDUNGEN
  6
Continuous
 62
     0
100
AcDbLine
 10
631.5082226772797
 20
289.9854689923718
 30
0.0
 11
651.5082226772797
 21
289.9854689923718
 31
0.0
  0
LINE
  5
4D5
330
20F
100
AcDbEntity
  8
RUNDUNGEN
  6
Continuous
 62
     0
100
AcDbLine
 10
659.5082226772797
 20
289.9854689923718
 30
0.0
 11
679.5082226772797
 21
289.9854689923718
 31
0.0
  0
LINE
  5
4D6
330
20F
100
AcDbEntity
  8
RUNDUNGEN
  6
Continuous
 62
     0
100
AcDbLine
 10
687.5082226772796
 20
289.9854689923718
 30
0.0
 11
707.5082226772798
 21
289.9854689923718
 31
0.0
  0
LINE
  5
4D7
330
20F
100
AcDbEntity
  8
RUNDUNGEN
  6
Continuous
 62
     0
100
AcDbLine
 10
715.5082226772798
 20
289.9854689923718
 30
0.0
 11
735.5082226772798
 21
289.9854689923718
 31
0.0
  0
LINE
  5
4D8
330
20F
100
AcDbEntity
  8
RUNDUNGEN
  6
Continuous
 62
     0
100
AcDbLine
 10
743.5082226772798
 20
289.9854689923718
 30
0.0
 11
763.5082226772798
 21
289.9854689923718
 31
0.0
  0
LINE
  5
4D9
330
20F
100
AcDbEntity
  8
RUNDUNGEN
  6
Continuous
 62
     0
100
AcDbLine
 10
771.5082226772798
 20
289.9854689923718
 30
0.0
 11
791.5082226772796
 21
289.9854689923718
 31
0.0
  0
LINE
  5
4DA
330
20F
100
AcDbEntity
  8
RUNDUNGEN
  6
Continuous
 62
     0
100
AcDbLine
 10
799.5082226772798
 20
289.9854689923718
 30
0.0
 11
819.5082226772798
 21
289.9854689923718
 31
0.0
  0
LINE
  5
4ED
330
20F
100
AcDbEntity
  8
RUNDUNGEN
  6
Continuous
 62
     0
100
AcDbLine
 10
595.5082226772796
 20
289.9854689923718
 30
0.0
 11
595.5082226772796
 21
309.9854689923718
 31
0.0
  0
LINE
  5
4EE
330
20F
100
AcDbEntity
  8
RUNDUNGEN
  6
Continuous
 62
     0
100
AcDbLine
 10
603.5082226772797
 20
309.9854689923718
 30
0.0
 11
603.5082226772797
 21
289.9854689923718
 31
0.0
  0
LINE
  5
4EF
330
20F
100
AcDbEntity
  8
RUNDUNGEN
  6
Continuous
 62
     0
100
AcDbLine
 10
623.5082226772797
 20
289.9854689923718
 30
0.0
 11
623.5082226772797
 21
309.9854689923718
 31
0.0
  0
LINE
  5
4F0
330
20F
100
AcDbEntity
  8
RUNDUNGEN
  6
Continuous
 62
     0
100
AcDbLine
 10
631.5082226772797
 20
309.9854689923718
 30
0.0
 11
631.5082226772797
 21
289.9854689923718
 31
0.0
  0
LINE
  5
503
330
20F
100
AcDbEntity
  8
RUNDUNGEN
  6
Continuous
 62
     0
100
AcDbLine
 10
819.5082226772798
 20
309.9854689923718
 30
0.0
 11
799.5082226772798
 21
309.9854689923718
 31
0.0
  0
LINE
  5
504
330
20F
100
AcDbEntity
  8
RUNDUNGEN
  6
Continuous
 62
     0
100
AcDbLine
 10
791.5082226772796
 20
309.9854689923718
 30
0.0
 11
771.5082226772798
 21
309.9854689923718
 31
0.0
  0
LINE
  5
505
330
20F
100
AcDbEntity
  8
RUNDUNGEN
  6
Continuous
 62
     0
100
AcDbLine
 10
763.5082226772798
 20
309.9854689923718
 30
0.0
 11
743.5082226772798
 21
309.9854689923718
 31
0.0
  0
LINE
  5
506
330
20F
100
AcDbEntity
  8
RUNDUNGEN
  6
Continuous
 62
     0
100
AcDbLine
 10
735.5082226772798
 20
309.9854689923718
 30
0.0
 11
715.5082226772798
 21
309.9854689923718
 31
0.0
  0
LINE
  5
507
330
20F
100
AcDbEntity
  8
RUNDUNGEN
  6
Continuous
 62
     0
100
AcDbLine
 10
707.5082226772798
 20
309.9854689923718
 30
0.0
 11
687.5082226772796
 21
309.9854689923718
 31
0.0
  0
LINE
  5
508
330
20F
100
AcDbEntity
  8
RUNDUNGEN
  6
Continuous
 62
     0
100
AcDbLine
 10
679.5082226772797
 20
309.9854689923718
 30
0.0
 11
659.5082226772797
 21
309.9854689923718
 31
0.0
  0
LINE
  5
509
330
20F
100
AcDbEntity
  8
RUNDUNGEN
  6
Continuous
 62
     0
100
AcDbLine
 10
651.5082226772797
 20
309.9854689923718
 30
0.0
 11
631.5082226772797
 21
309.9854689923718
 31
0.0
  0
LINE
  5
50A
330
20F
100
AcDbEntity
  8
RUNDUNGEN
  6
Continuous
 62
     0
100
AcDbLine
 10
623.5082226772797
 20
309.9854689923718
 30
0.0
 11
603.5082226772797
 21
309.9854689923718
 31
0.0
  0
LINE
  5
50B
330
20F
100
AcDbEntity
  8
RUNDUNGEN
  6
Continuous
 62
     0
100
AcDbLine
 10
595.5082226772796
 20
309.9854689923718
 30
0.0
 11
575.5082226772797
 21
309.9854689923718
 31
0.0
  0
LINE
  5
50C
330
20F
100
AcDbEntity
  8
RUNDUNGEN
  6
Continuous
 62
     0
100
AcDbLine
 10
567.5082226772797
 20
309.9854689923718
 30
0.0
 11
547.5082226772797
 21
309.9854689923718
 31
0.0
  0
LINE
  5
50D
330
20F
100
AcDbEntity
  8
RUNDUNGEN
  6
Continuous
 62
     0
100
AcDbLine
 10
539.5082226772797
 20
309.9854689923718
 30
0.0
 11
519.5082226772797
 21
309.9854689923718
 31
0.0
  0
LINE
  5
50E
330
20F
100
AcDbEntity
  8
RUNDUNGEN
  6
Continuous
 62
     0
100
AcDbLine
 10
511.5082226772797
 20
309.9854689923718
 30
0.0
 11
491.5082226772796
 21
309.9854689923718
 31
0.0
  0
LINE
  5
50F
330
20F
100
AcDbEntity
  8
RUNDUNGEN
  6
Continuous
 62
     0
100
AcDbLine
 10
483.5082226772796
 20
309.9854689923718
 30
0.0
 11
463.5082226772796
 21
309.9854689923718
 31
0.0
  0
LINE
  5
510
330
20F
100
AcDbEntity
  8
RUNDUNGEN
  6
Continuous
 62
     0
100
AcDbLine
 10
455.5082226772793
 20
309.9854689923718
 30
0.0
 11
435.5082226772796
 21
309.9854689923718
 31
0.0
  0
LINE
  5
511
330
20F
100
AcDbEntity
  8
RUNDUNGEN
  6
Continuous
 62
     0
100
AcDbLine
 10
427.5082226772796
 20
309.9854689923718
 30
0.0
 11
407.5082226772797
 21
309.9854689923718
 31
0.0
  0
LINE
  5
512
330
20F
100
AcDbEntity
  8
RUNDUNGEN
  6
Continuous
 62
     0
100
AcDbLine
 10
399.5082226772795
 20
309.9854689923718
 30
0.0
 11
379.5082226772795
 21
309.9854689923718
 31
0.0
  0
LINE
  5
513
330
20F
100
AcDbEntity
  8
RUNDUNGEN
  6
Continuous
 62
     0
100
AcDbLine
 10
371.5082226772797
 20
309.9854689923718
 30
0.0
 11
351.5082226772797
 21
309.9854689923718
 31
0.0
  0
LINE
  5
514
330
20F
100
AcDbEntity
  8
RUNDUNGEN
  6
Continuous
 62
     0
100
AcDbLine
 10
343.5082226772796
 20
309.9854689923718
 30
0.0
 11
323.5082226772796
 21
309.9854689923718
 31
0.0
  0
LINE
  5
515
330
20F
100
AcDbEntity
  8
RUNDUNGEN
  6
Continuous
 62
     0
100
AcDbLine
 10
315.5082226772796
 20
309.9854689923718
 30
0.0
 11
295.5082226772796
 21
309.9854689923718
 31
0.0
  0
LINE
  5
516
330
20F
100
AcDbEntity
  8
RUNDUNGEN
  6
Continuous
 62
     0
100
AcDbLine
 10
287.5082226772797
 20
309.9854689923718
 30
0.0
 11
267.5082226772797
 21
309.9854689923718
 31
0.0
  0
LINE
  5
517
330
20F
100
AcDbEntity
  8
RUNDUNGEN
  6
Continuous
 62
     0
100
AcDbLine
 10
259.5082226772795
 20
309.9854689923718
 30
0.0
 11
239.5082226772795
 21
309.9854689923718
 31
0.0
  0
LINE
  5
518
330
20F
100
AcDbEntity
  8
RUNDUNGEN
  6
Continuous
 62
     0
100
AcDbLine
 10
231.5082226772796
 20
309.9854689923718
 30
0.0
 11
211.5082226772796
 21
309.9854689923718
 31
0.0
  0
LINE
  5
519
330
20F
100
AcDbEntity
  8
RUNDUNGEN
  6
Continuous
 62
     0
100
AcDbLine
 10
203.5082226772796
 20
309.9854689923718
 30
0.0
 11
183.5082226772795
 21
309.9854689923718
 31
0.0
  0
LINE
  5
51A
330
20F
100
AcDbEntity
  8
RUNDUNGEN
  6
Continuous
 62
     0
100
AcDbLine
 10
175.5082226772796
 20
309.9854689923718
 30
0.0
 11
155.5082226772795
 21
309.9854689923718
 31
0.0
  0
LINE
  5
51B
330
20F
100
AcDbEntity
  8
RUNDUNGEN
  6
Continuous
 62
     0
100
AcDbLine
 10
147.5082226772796
 20
309.9854689923718
 30
0.0
 11
127.5082226772796
 21
309.9854689923718
 31
0.0
  0
LINE
  5
51C
330
20F
100
AcDbEntity
  8
RUNDUNGEN
  6
Continuous
 62
     0
100
AcDbLine
 10
119.5082226772796
 20
309.9854689923718
 30
0.0
 11
99.50822267727959
 21
309.9854689923718
 31
0.0
  0
LINE
  5
51D
330
20F
100
AcDbEntity
  8
RUNDUNGEN
  6
Continuous
 62
     0
100
AcDbLine
 10
91.50822267727958
 20
309.9854689923718
 30
0.0
 11
71.50822267727959
 21
309.9854689923718
 31
0.0
  0
LINE
  5
51E
330
20F
100
AcDbEntity
  8
RUNDUNGEN
  6
Continuous
 62
     0
100
AcDbLine
 10
63.5082226772796
 20
309.9854689923718
 30
0.0
 11
43.5082226772796
 21
309.9854689923718
 31
0.0
  0
LINE
  5
51F
330
20F
100
AcDbEntity
  8
RUNDUNGEN
  6
Continuous
 62
     0
100
AcDbLine
 10
35.50822267727961
 20
309.9854689923718
 30
0.0
 11
15.5082226772796
 21
309.9854689923718
 31
0.0
  0
LINE
  5
520
330
20F
100
AcDbEntity
  8
RUNDUNGEN
  6
Continuous
 62
     0
100
AcDbLine
 10
7.508222677279602
 20
309.9854689923718
 30
0.0
 11
-12.49177732272039
 21
309.9854689923718
 31
0.0
  0
LINE
  5
521
330
20F
100
AcDbEntity
  8
RUNDUNGEN
  6
Continuous
 62
     0
100
AcDbLine
 10
-20.4917773227204
 20
309.9854689923718
 30
0.0
 11
-40.49177732272038
 21
309.9854689923718
 31
0.0
  0
LINE
  5
522
330
20F
100
AcDbEntity
  8
RUNDUNGEN
  6
Continuous
 62
     0
100
AcDbLine
 10
-48.49177732272039
 20
309.9854689923718
 30
0.0
 11
-68.49177732272039
 21
309.9854689923718
 31
0.0
  0
LINE
  5
523
330
20F
100
AcDbEntity
  8
RUNDUNGEN
  6
Continuous
 62
     0
100
AcDbLine
 10
-76.49177732272041
 20
309.9854689923718
 30
0.0
 11
-96.49177732272042
 21
309.9854689923718
 31
0.0
  0
LINE
  5
524
330
20F
100
AcDbEntity
  8
RUNDUNGEN
  6
Continuous
 62
     0
100
AcDbLine
 10
-104.4917773227204
 20
309.9854689923718
 30
0.0
 11
-124.4917773227204
 21
309.9854689923718
 31
0.0
  0
LINE
  5
525
330
20F
100
AcDbEntity
  8
RUNDUNGEN
  6
Continuous
 62
     0
100
AcDbLine
 10
-132.4917773227204
 20
309.9854689923718
 30
0.0
 11
-152.4917773227203
 21
309.9854689923718
 31
0.0
  0
LINE
  5
526
330
20F
100
AcDbEntity
  8
RUNDUNGEN
  6
Continuous
 62
     0
100
AcDbLine
 10
-154.0875221112204
 20
311.1313024248718
 30
0.0
 11
-153.6619899492203
 21
311.1313024248718
 31
0.0
  0
LINE
  5
527
330
20F
100
AcDbEntity
  8
RUNDUNGEN
  6
Continuous
 62
     0
100
AcDbLine
 10
-153.6619899492203
 20
311.7563024248718
 30
0.0
 11
-153.9811391452204
 21
311.7563024248718
 31
0.0
  0
LINE
  5
528
330
20F
100
AcDbEntity
  8
RUNDUNGEN
  6
Continuous
 62
     0
100
AcDbLine
 10
-157.4917773227203
 20
314.3604689923718
 30
0.0
 11
-155.2577347377204
 21
314.3604689923718
 31
0.0
  0
LINE
  5
529
330
20F
100
AcDbEntity
  8
RUNDUNGEN
  6
Continuous
 62
     0
100
AcDbLine
 10
-154.6194369417204
 20
314.3604689923718
 30
0.0
 11
-153.0236921527204
 21
314.3604689923718
 31
0.0
  0
LINE
  5
52A
330
20F
100
AcDbEntity
  8
RUNDUNGEN
  6
Continuous
 62
     0
100
AcDbLine
 10
-152.4917773227203
 20
314.9854689923718
 30
0.0
 11
-157.4917773227203
 21
314.9854689923718
 31
0.0
  0
LINE
  5
52B
330
20F
100
AcDbEntity
  8
RUNDUNGEN
  6
Continuous
 62
     0
100
AcDbLine
 10
830.5082226772796
 20
316.9854689923718
 30
0.0
 11
-157.4917773227203
 21
316.9854689923718
 31
0.0
  0
LINE
  5
52C
330
20F
100
AcDbEntity
  8
RUNDUNGEN
  6
Continuous
 62
     0
100
AcDbLine
 10
651.5082226772797
 20
289.9854689923718
 30
0.0
 11
651.5082226772797
 21
309.9854689923718
 31
0.0
  0
LINE
  5
52D
330
20F
100
AcDbEntity
  8
RUNDUNGEN
  6
Continuous
 62
     0
100
AcDbLine
 10
659.5082226772797
 20
309.9854689923718
 30
0.0
 11
659.5082226772797
 21
289.9854689923718
 31
0.0
  0
LINE
  5
52E
330
20F
100
AcDbEntity
  8
RUNDUNGEN
  6
Continuous
 62
     0
100
AcDbLine
 10
679.5082226772797
 20
289.9854689923718
 30
0.0
 11
679.5082226772797
 21
309.9854689923718
 31
0.0
  0
LINE
  5
52F
330
20F
100
AcDbEntity
  8
RUNDUNGEN
  6
Continuous
 62
     0
100
AcDbLine
 10
687.5082226772796
 20
309.9854689923718
 30
0.0
 11
687.5082226772796
 21
289.9854689923718
 31
0.0
  0
LINE
  5
530
330
20F
100
AcDbEntity
  8
RUNDUNGEN
  6
Continuous
 62
     0
100
AcDbLine
 10
707.5082226772798
 20
289.9854689923718
 30
0.0
 11
707.5082226772798
 21
309.9854689923718
 31
0.0
  0
LINE
  5
531
330
20F
100
AcDbEntity
  8
RUNDUNGEN
  6
Continuous
 62
     0
100
AcDbLine
 10
715.5082226772798
 20
309.9854689923718
 30
0.0
 11
715.5082226772798
 21
289.9854689923718
 31
0.0
  0
LINE
  5
532
330
20F
100
AcDbEntity
  8
RUNDUNGEN
  6
Continuous
 62
     0
100
AcDbLine
 10
735.5082226772798
 20
289.9854689923718
 30
0.0
 11
735.5082226772798
 21
309.9854689923718
 31
0.0
  0
LINE
  5
533
330
20F
100
AcDbEntity
  8
RUNDUNGEN
  6
Continuous
 62
     0
100
AcDbLine
 10
743.5082226772798
 20
309.9854689923718
 30
0.0
 11
743.5082226772798
 21
289.9854689923718
 31
0.0
  0
LINE
  5
534
330
20F
100
AcDbEntity
  8
RUNDUNGEN
  6
Continuous
 62
     0
100
AcDbLine
 10
763.5082226772798
 20
289.9854689923718
 30
0.0
 11
763.5082226772798
 21
309.9854689923718
 31
0.0
  0
LINE
  5
535
330
20F
100
AcDbEntity
  8
RUNDUNGEN
  6
Continuous
 62
     0
100
AcDbLine
 10
771.5082226772798
 20
309.9854689923718
 30
0.0
 11
771.5082226772798
 21
289.9854689923718
 31
0.0
  0
LINE
  5
536
330
20F
100
AcDbEntity
  8
RUNDUNGEN
  6
Continuous
 62
     0
100
AcDbLine
 10
791.5082226772796
 20
289.9854689923718
 30
0.0
 11
791.5082226772796
 21
309.9854689923718
 31
0.0
  0
LINE
  5
537
330
20F
100
AcDbEntity
  8
RUNDUNGEN
  6
Continuous
 62
     0
100
AcDbLine
 10
799.5082226772798
 20
309.9854689923718
 30
0.0
 11
799.5082226772798
 21
289.9854689923718
 31
0.0
  0
LINE
  5
538
330
20F
100
AcDbEntity
  8
RUNDUNGEN
  6
Continuous
 62
     0
100
AcDbLine
 10
819.5082226772798
 20
289.9854689923718
 30
0.0
 11
819.5082226772798
 21
309.9854689923718
 31
0.0
  0
LINE
  5
581
330
20F
100
AcDbEntity
  8
RUNDUNGEN
  6
Continuous
 62
     0
100
AcDbLine
 10
-159.4917773227204
 20
600.0876065343717
 30
0.0
 11
-159.4917773227204
 21
598.0876065343717
 31
0.0
  0
LINE
  5
582
330
20F
100
AcDbEntity
  8
RUNDUNGEN
  6
Continuous
 62
     0
100
AcDbLine
 10
-159.4917773227204
 20
598.0876065343717
 30
0.0
 11
-159.4917773227205
 21
572.0958537749902
 31
0.0
1001
GENIUS_GENFIL_13
1070
     0
1040
0.0
1040
0.0
1040
0.0
1040
0.0
1002
{
1002
}
1001
GENIUS_GENODEF_13
1002
{
1000
HIER
1070
     0
1002
}
1002
{
1000
MANEDIT
1070
     0
1002
}
1002
{
1000
NOSEL
1070
     0
1002
}
1002
{
1000
BEHIND
1070
     0
1002
}
1002
{
1000
OTHER
1070
     0
1002
}
1002
{
1000
REACTOR
1002
}
1001
GENIUS_GENOBJ-N-CHA_13
1002
{
1000
OWNER
1000
GEN
1002
}
  0
LINE
  5
583
102
{ACAD_REACTORS
330
1570
102
}
330
20F
100
AcDbEntity
  8
RUNDUNGEN
  6
Continuous
 62
     0
100
AcDbLine
 10
830.5843641991257
 20
587.5876065343716
 30
0.0
 11
-157.4513156415704
 21
570.0962631037881
 31
0.0
  0
LINE
  5
585
330
20F
100
AcDbEntity
  8
0
  6
Continuous
 62
     9
100
AcDbLine
 10
-159.4917773227204
 20
598.0876065343717
 30
0.0
 11
830.5082226772796
 21
598.0876065343717
 31
0.0
  0
LINE
  5
586
102
{ACAD_REACTORS
330
15DC
102
}
330
20F
100
AcDbEntity
  8
RUNDUNGEN
  6
Continuous
 62
     0
100
AcDbLine
 10
-159.4917773227204
 20
600.0876065343717
 30
0.0
 11
830.5082226772796
 21
600.0876065343717
 31
0.0
  0
ARC
  5
77B
330
20F
100
AcDbEntity
  8
RUNDUNGEN
  6
Continuous
 62
     0
100
AcDbCircle
 10
-157.4917773227203
 20
314.9854689923718
 30
0.0
 40
2.0
100
AcDbArc
 50
90.0
 51
180.0
  0
LINE
  5
14BF
102
{ACAD_REACTORS
330
14D2
102
}
330
20F
100
AcDbEntity
  8
0
100
AcDbLine
 10
830.5082226772796
 20
270.9852471263719
 30
0.0
 11
830.5082226772796
 21
316.9854689923718
 31
0.0
  0
LINE
  5
14C1
330
20F
100
AcDbEntity
  8
0
100
AcDbLine
 10
830.5082226772796
 20
587.5876065343716
 30
0.0
 11
830.5082226772796
 21
598.0876065343717
 31
0.0
  0
LINE
  5
14C2
102
{ACAD_REACTORS
330
1570
102
}
330
20F
100
AcDbEntity
  8
0
100
AcDbLine
 10
830.5082226772796
 20
598.0876065343717
 30
0.0
 11
830.5082226772796
 21
600.0876065343717
 31
0.0
  0
DIMENSION
  5
14C3
102
{ACAD_XDICTIONARY
360
14D1
102
}
102
{ACAD_REACTORS
330
14D2
102
}
330
20F
100
AcDbEntity
  8
P-0000
  6
Continuous
100
AcDbDimension
  2
*D26
 10
830.5082226772796
 20
391.5841016953742
 30
0.0
 11
335.5082226772796
 21
410.5841016953741
 31
0.0
 70
    32
 71
     5
 42
990.0
  3
883N99122_001_00149479900
100
AcDbAlignedDimension
 13
-159.4917773227204
 23
312.5683324682573
 33
0.0
 14
830.5082226772796
 24
312.5683324682573
 34
0.0
100
AcDbRotatedDimension
1001
ACAD_DSTYLE_DIMINSPECT
1070
   396
1000
100%
1070
   395
1000

1070
   394
1070
    33
1070
   393
1070
     0
1001
ACAD
1000
DSTYLE
1002
{
1070
    77
1070
     3
1070
   140
1040
15.0
1070
   271
1070
     0
1070
   288
1070
     1
1002
}
  0
DIMENSION
  5
1560
102
{ACAD_XDICTIONARY
360
156F
102
}
102
{ACAD_REACTORS
330
1570
102
}
330
20F
100
AcDbEntity
  8
P-0000
  6
Continuous
100
AcDbDimension
  2
*D28
 10
839.5333683799977
 20
587.5876065343716
 30
0.0
 11
820.5333683799976
 21
542.9876065343718
 31
0.0
 70
    32
 71
     5
 42
12.5
  3
883N99122_001_00149479900
100
AcDbAlignedDimension
 13
830.5082226772796
 23
600.0876065343717
 33
0.0
 14
830.5843641991257
 24
587.5876065343716
 34
0.0
 50
90.0
100
AcDbRotatedDimension
1001
ACAD_DSTYLE_DIMINSPECT
1070
   396
1000
100%
1070
   395
1000

1070
   394
1070
    33
1070
   393
1070
     0
1001
ACAD
1000
DSTYLE
1002
{
1070
    77
1070
     3
1070
   140
1040
15.0
1070
   271
1070
     1
1070
   288
1070
     1
1002
}
  0
ARC
  5
15CA
102
{ACAD_REACTORS
330
15DC
102
}
330
20F
100
AcDbEntity
  8
RUNDUNGEN
  6
Continuous
 62
     0
100
AcDbCircle
 10
-157.4917773227204
 20
572.0958537749902
 30
0.0
 40
2.0
100
AcDbArc
 50
179.9999999999999
 51
271.1592208657768
1001
GENIUS_GENODEF_13
1002
{
1000
HIER
1070
     0
1002
}
1002
{
1000
MANEDIT
1070
     0
1002
}
1002
{
1000
NOSEL
1070
     0
1002
}
1002
{
1000
BEHIND
1070
     0
1002
}
1002
{
1000
OTHER
1070
     0
1002
}
1002
{
1000
REACTOR
1002
}
1001
GENIUS_GENOBJ-N-FIL_13
1002
{
1000
OWNER
1000
GEN
1002
}
  0
DIMENSION
  5
15CD
102
{ACAD_XDICTIONARY
360
15DB
102
}
102
{ACAD_REACTORS
330
15DC
102
}
330
20F
100
AcDbEntity
  8
P-0000
  6
Continuous
100
AcDbDimension
  2
*D29
 10
-257.5582494248228
 20
570.0962631037882
 30
0.0
 11
-257.5582494248229
 21
539.1855438173028
 31
0.0
 70
   160
 71
     5
 42
29.99134343058358
  3
883N99122_001_00149479900
100
AcDbAlignedDimension
 13
-159.4917773227204
 23
600.0876065343717
 33
0.0
 14
-157.4513156415703
 24
570.0962631037881
 34
0.0
 50
90.00000000000005
100
AcDbRotatedDimension
1001
ACAD_DSTYLE_DIMINSPECT
1070
   396
1000
100%
1070
   395
1000

1070
   394
1070
    33
1070
   393
1070
     0
1001
ACAD
1000
DSTYLE
1002
{
1070
    77
1070
     3
1070
   140
1040
15.0
1070
   271
1070
     0
1070
   288
1070
     1
1002
}
  0
LINE
  5
16E1
330
20F
100
AcDbEntity
  8
0
100
AcDbLine
 10
774.0972405106665
 20
586.5876065343717
 30
0.0
 11
830.5082465326352
 21
586.587608025267
 31
0.0
  0
LINE
  5
16E2
330
20F
100
AcDbEntity
  8
0
100
AcDbLine
 10
830.5082465326709
 20
586.5876065343717
 30
0.0
 11
830.5082226772796
 21
587.5876065343716
 31
0.0
  0
ENDSEC
  0
SECTION
  2
OBJECTS
  0
DICTIONARY
  5
C
330
0
100
AcDbDictionary
281
     1
  3
ACAD_2007HEADERVARS_RT
350
17BB
  3
ACAD_COLOR
350
7D2
  3
ACAD_GROUP
350
D
  3
ACAD_IMAGE_DICT
350
799
  3
ACAD_IMAGE_VARS
350
79A
  3
ACAD_LAYOUT
350
1A
  3
ACAD_MATERIAL
350
7A5
  3
ACAD_MLEADERSTYLE
350
7E5
  3
ACAD_MLINESTYLE
350
17
  3
ACAD_PLOTSETTINGS
350
19
  3
ACAD_PLOTSTYLENAME
350
E
  3
ACAD_SCALELIST
350
7D3
  3
ACAD_TABLESTYLE
350
79B
  3
ACAD_VISUALSTYLE
350
7BE
  3
ACDB_RECOMPOSE_DATA
350
17B9
  3
AcDbVariableDictionary
350
9E5
  3
AcmDictionary
350
83F
  3
AMG
350
7E9
  3
AMGSNAPSETTINGS
350
886
  3
DWGPROPS
350
17BA
  0
DICTIONARY
  5
B43
330
2
100
AcDbDictionary
280
     1
281
     1
  3
ACAD_LAYERSTATES
360
B44
  0
DICTIONARY
  5
15C5
330
20F
100
AcDbDictionary
280
     1
281
     1
  3
ACAD_SORTENTS
360
15C6
  0
DICTIONARY
  5
14D1
330
14C3
100
AcDbDictionary
280
     1
281
     1
  3
ACAD_DIMASSOC
360
14D2
  0
DICTIONARY
  5
156F
330
1560
100
AcDbDictionary
280
     1
281
     1
  3
ACAD_DIMASSOC
360
1570
  0
DICTIONARY
  5
15DB
330
15CD
100
AcDbDictionary
280
     1
281
     1
  3
ACAD_DIMASSOC
360
15DC
  0
DICTIONARY
  5
17BB
102
{ACAD_REACTORS
330
C
102
}
330
C
100
AcDbDictionary
281
     1
  3
DIMJOGANG
350
17BC
  3
DIMLTEX1
350
17BE
  3
DIMLTEX2
350
17BF
  3
DIMLTYPE
350
17BD
  0
DICTIONARY
  5
7D2
102
{ACAD_REACTORS
330
C
102
}
330
C
100
AcDbDictionary
281
     1
  0
DICTIONARY
  5
D
102
{ACAD_REACTORS
330
C
102
}
330
C
100
AcDbDictionary
281
     1
  0
DICTIONARY
  5
799
330
C
100
AcDbDictionary
281
     1
  3
01550591_img_1
350
79E
  0
RASTERVARIABLES
  5
79A
330
C
100
AcDbRasterVariables
 90
        0
 70
     0
 71
     1
 72
     1
  0
DICTIONARY
  5
1A
102
{ACAD_REACTORS
330
C
102
}
330
C
100
AcDbDictionary
281
     1
  3
Layout1
350
79D
  3
Model
350
79C
  0
DICTIONARY
  5
7A5
102
{ACAD_REACTORS
330
C
102
}
330
C
100
AcDbDictionary
281
     1
  3
ByBlock
350
7AE
  3
ByLayer
350
7A6
  3
Global
350
7B6
  0
DICTIONARY
  5
7E5
102
{ACAD_REACTORS
330
C
102
}
330
C
100
AcDbDictionary
281
     1
  3
Standard
350
7E6
  0
DICTIONARY
  5
17
102
{ACAD_REACTORS
330
C
102
}
330
C
100
AcDbDictionary
281
     1
  3
Standard
350
18
  0
DICTIONARY
  5
19
102
{ACAD_REACTORS
330
C
102
}
330
C
100
AcDbDictionary
281
     1
  0
ACDBDICTIONARYWDFLT
  5
E
102
{ACAD_REACTORS
330
C
102
}
330
C
100
AcDbDictionary
281
     1
  3
Normal
350
F
100
AcDbDictionaryWithDefault
340
F
  0
DICTIONARY
  5
7D3
102
{ACAD_REACTORS
330
C
102
}
330
C
100
AcDbDictionary
281
     1
  3
A0
350
7D4
  3
A1
350
7D5
  3
A2
350
7D6
  3
A3
350
7D7
  3
A4
350
7D8
  3
A5
350
7D9
  3
A6
350
7DA
  3
A7
350
7DB
  3
A8
350
7DC
  3
A9
350
7DD
  3
B0
350
7DE
  3
B1
350
7DF
  3
B2
350
7E0
  3
B3
350
7E1
  3
B4
350
7E2
  3
B5
350
7E3
  3
B6
350
7E4
  0
DICTIONARY
  5
79B
330
C
100
AcDbDictionary
281
     1
  3
Standard
350
79F
  3
Standard1
350
7A0
  0
DICTIONARY
  5
7BE
102
{ACAD_REACTORS
330
C
102
}
330
C
100
AcDbDictionary
281
     1
  3
2dWireframe
350
7C4
  3
3D Hidden
350
7C6
  3
3dWireframe
350
7C5
  3
Basic
350
7C3
  3
Brighten
350
7CA
  3
ColorChange
350
7CE
  3
Conceptual
350
7C7
  3
Dim
350
7C9
  3
EdgeColorOff
350
7D1
  3
Facepattern
350
7CD
  3
Flat
350
7BF
  3
FlatWithEdges
350
7C0
  3
Gouraud
350
7C1
  3
GouraudWithEdges
350
7C2
  3
JitterOff
350
7CF
  3
Linepattern
350
7CC
  3
OverhangOff
350
7D0
  3
Realistic
350
7C8
  3
Thicken
350
7CB
  0
XRECORD
  5
17B9
102
{ACAD_REACTORS
330
C
102
}
330
C
100
AcDbXrecord
280
     1
 90
        1
330
79F
330
7A0
  0
DICTIONARY
  5
9E5
102
{ACAD_REACTORS
330
C
102
}
330
C
100
AcDbDictionary
281
     1
  3
CANNOSCALE
350
9E8
  3
CMLEADERSTYLE
350
9E7
  3
CTABLESTYLE
350
9E6
  3
DIMASSOC
350
F62
  3
HIDETEXT
350
F61
  3
INDEXCTL
350
F60
  3
LAYEREVAL
350
F5D
  3
LAYERNOTIFY
350
F5E
  3
LIGHTINGUNITS
350
F5C
  3
MSLTSCALE
350
F5B
  3
SORTENTS
350
F5F
  3
XCLIPFRAME
350
17B6
  0
DICTIONARY
  5
83F
102
{ACAD_REACTORS
330
C
102
}
330
C
100
AcDbDictionary
281
     1
  3
AcmStdDictionary
350
84B
  0
DICTIONARY
  5
7E9
102
{ACAD_REACTORS
330
C
102
}
330
C
100
AcDbDictionary
281
     1
  0
DICTIONARY
  5
886
102
{ACAD_REACTORS
330
C
102
}
330
C
100
AcDbDictionary
281
     1
  0
XRECORD
  5
17BA
102
{ACAD_REACTORS
330
C
102
}
330
C
100
AcDbXrecord
280
     1
  1
DWGPROPS COOKIE
  2

  3

  4

  6

  7

  8
MAlaie
  9

300
=
301
=
302
=
303
=
304
=
305
=
306
=
307
=
308
=
309
=
 40
0.1225297106481481
 41
2456699.66598941
 42
2456702.347491898
  1

 90
        0
  0
DICTIONARY
  5
B44
102
{ACAD_REACTORS
330
B43
102
}
330
B43
100
AcDbDictionary
281
     1
  0
SORTENTSTABLE
  5
15C6
102
{ACAD_REACTORS
330
15C5
102
}
330
15C5
100
AcDbSortentsTable
330
20F
331
49C
  5
49C
331
526
  5
526
331
498
  5
498
331
4D7
  5
4D7
331
522
  5
522
331
494
  5
494
331
4D3
  5
4D3
331
51E
  5
51E
331
51A
  5
51A
331
490
  5
490
331
4CF
  5
4CF
331
48C
  5
48C
331
4CB
  5
4CB
331
516
  5
516
331
488
  5
488
331
4C7
  5
4C7
331
1560
  5
155F
331
512
  5
512
331
484
  5
484
331
4C3
  5
4C3
331
50E
  5
50E
331
50A
  5
50A
331
480
  5
480
331
4BF
  5
4BF
331
4BB
  5
4BB
331
506
  5
506
331
585
  5
583
331
47C
  5
47C
331
478
  5
478
331
4B7
  5
4B7
331
581
  5
581
331
474
  5
474
331
4B3
  5
4B3
331
470
  5
470
331
4AF
  5
4AF
331
4AB
  5
4AB
331
4EE
  5
4EE
331
535
  5
535
331
46C
  5
46C
331
468
  5
468
331
4A7
  5
4A7
331
531
  5
531
331
52D
  5
52D
331
4A3
  5
4A3
331
4DA
  5
4DA
331
529
  5
529
331
49F
  5
49F
331
49B
  5
49B
331
525
  5
525
331
497
  5
497
331
4D6
  5
4D6
331
521
  5
521
331
51D
  5
51D
331
493
  5
493
331
4D2
  5
4D2
331
519
  5
519
331
4CE
  5
4CE
331
48F
  5
48F
331
48B
  5
48B
331
4CA
  5
4CA
331
515
  5
515
331
487
  5
487
331
4C6
  5
4C6
331
511
  5
511
331
483
  5
483
331
4C2
  5
4C2
331
50D
  5
50D
331
509
  5
509
331
14C3
  5
14C2
331
4BE
  5
4BE
331
47F
  5
47F
331
47B
  5
47B
331
4BA
  5
4BA
331
505
  5
505
331
477
  5
477
331
4B6
  5
4B6
331
473
  5
473
331
538
  5
538
331
4AE
  5
4AE
331
46F
  5
46F
331
4AA
  5
4AA
331
4ED
  5
4ED
331
534
  5
534
331
46B
  5
46B
331
467
  5
467
331
4A6
  5
4A6
331
530
  5
530
331
52C
  5
52C
331
4A2
  5
4A2
331
4D9
  5
4D9
331
528
  5
528
331
14BF
  5
891
331
49E
  5
49E
331
49A
  5
49A
331
524
  5
524
331
496
  5
496
331
4D5
  5
4D5
331
520
  5
520
331
51C
  5
51C
331
77B
  5
586
331
492
  5
492
331
4D1
  5
4D1
331
518
  5
518
331
4CD
  5
4CD
331
48E
  5
48E
331
48A
  5
48A
331
4C9
  5
4C9
331
514
  5
514
331
486
  5
486
331
4C5
  5
4C5
331
510
  5
510
331
50C
  5
50C
331
482
  5
482
331
4C1
  5
4C1
331
508
  5
508
331
14C2
  5
14C1
331
4BD
  5
4BD
331
47E
  5
47E
331
47A
  5
47A
331
4B9
  5
4B9
331
504
  5
504
331
583
  5
1560
331
476
  5
476
331
4B5
  5
4B5
331
472
  5
472
331
4B1
  5
4B1
331
4F0
  5
4F0
331
4AD
  5
4AD
331
537
  5
537
331
46E
  5
46E
331
46A
  5
46A
331
4A9
  5
4A9
331
533
  5
533
331
466
  5
466
331
4A5
  5
4A5
331
52F
  5
52F
331
52B
  5
52B
331
4A1
  5
4A1
331
4D8
  5
4D8
331
49D
  5
49D
331
527
  5
527
331
499
  5
499
331
523
  5
523
331
495
  5
495
331
4D4
  5
4D4
331
51F
  5
51F
331
4D0
  5
4D0
331
51B
  5
51B
331
491
  5
491
331
4CC
  5
4CC
331
517
  5
517
331
48D
  5
48D
331
489
  5
489
331
4C8
  5
4C8
331
513
  5
513
331
485
  5
485
331
4C4
  5
4C4
331
50F
  5
50F
331
50B
  5
50B
331
481
  5
481
331
4C0
  5
4C0
331
14C1
  5
14BF
331
4BC
  5
4BC
331
507
  5
507
331
586
  5
585
331
47D
  5
47D
331
479
  5
479
331
4B8
  5
4B8
331
503
  5
503
331
582
  5
582
331
475
  5
475
331
4B4
  5
4B4
331
471
  5
471
331
4B0
  5
4B0
331
4AC
  5
4AC
331
4EF
  5
4EF
331
536
  5
536
331
46D
  5
46D
331
469
  5
469
331
4A8
  5
4A8
331
532
  5
532
331
52E
  5
52E
331
4A4
  5
4A4
331
52A
  5
52A
331
4A0
  5
4A0
  0
DIMASSOC
  5
14D2
102
{ACAD_REACTORS
330
14D1
102
}
330
14D1
100
AcDbDimAssoc
330
14C3
 90
        3
 70
     0
 71
     0
  1
AcDbOsnapPointRef
 72
    10
331
466
 73
     0
 91
        0
 40
0.0765069357023711
 10
0.0
 20
0.0
 30
0.0
 75
     0
  1
AcDbOsnapPointRef
 72
     8
331
14BF
 73
     0
 91
        0
 40
0.9039757560956596
 10
0.0
 20
0.0
 30
0.0
 75
     1
  1
AcDbOsnapPointRef
 72
    10
331
466
 73
     0
 91
        0
 40
0.0765069357023711
 10
0.0
 20
0.0
 30
0.0
 75
     0
  0
DIMASSOC
  5
1570
102
{ACAD_REACTORS
330
156F
102
}
330
156F
100
AcDbDimAssoc
330
1560
 90
        3
 70
     0
 71
     0
  1
AcDbOsnapPointRef
 72
     1
331
14C2
 73
     0
 91
        0
 40
0.0
 10
0.0
 20
0.0
 30
2.000000000000000E+50
 75
     0
  1
AcDbOsnapPointRef
 72
    13
331
583
 73
     0
 91
        0
 40
0.0
 10
0.0
 20
0.0
 30
2.000000000000000E+50
 75
     0
  0
DIMASSOC
  5
15DC
102
{ACAD_REACTORS
330
15DB
102
}
330
15DB
100
AcDbDimAssoc
330
15CD
 90
        3
 70
     0
 71
     0
  1
AcDbOsnapPointRef
 72
    13
331
586
 73
     0
 91
        0
 40
0.0
 10
0.0
 20
0.0
 30
2.000000000000000E+50
 75
     0
  1
AcDbOsnapPointRef
 72
     1
331
15CA
 73
     0
 91
        0
 40
0.0
 10
0.0
 20
0.0
 30
2.000000000000000E+50
 75
     0
  0
XRECORD
  5
17BC
102
{ACAD_REACTORS
330
17BB
102
}
330
17BB
100
AcDbXrecord
280
     1
 40
1.570796326794896
  0
XRECORD
  5
17BE
102
{ACAD_REACTORS
330
17BB
102
}
330
17BB
100
AcDbXrecord
280
     1
340
14
  0
XRECORD
  5
17BF
102
{ACAD_REACTORS
330
17BB
102
}
330
17BB
100
AcDbXrecord
280
     1
340
14
  0
XRECORD
  5
17BD
102
{ACAD_REACTORS
330
17BB
102
}
330
17BB
100
AcDbXrecord
280
     1
340
14
  0
IMAGEDEF
  5
79E
102
{ACAD_REACTORS
330
799
102
}
330
799
100
AcDbRasterImageDef
 90
        0
  1
01550591_img_1.jpg
 10
230.0
 20
73.0
 11
0.1693333333
 21
0.1693333333
280
     1
281
     0
  0
LAYOUT
  5
79D
102
{ACAD_XDICTIONARY
360
17C2
102
}
102
{ACAD_REACTORS
330
1A
102
}
330
1A
100
AcDbPlotSettings
  1

  2
none_device
  4
ISO_A3_(420.00_x_297.00_MM)
  6

 40
0.0
 41
0.0
 42
0.0
 43
0.0
 44
420.0
 45
297.0
 46
0.0
 47
0.0
 48
0.0
 49
0.0
140
0.0
141
0.0
142
1.0
143
1.0
 70
     0
 72
     1
 73
     0
 74
     0
  7

 75
     0
147
1.0
148
0.0
149
0.0
100
AcDbLayout
  1
Layout1
 70
     1
 71
     1
 10
0.0
 20
0.0
 11
12.0
 21
9.0
 12
0.0
 22
0.0
 32
0.0
 14
1.000000000000000E+20
 24
1.000000000000000E+20
 34
1.000000000000000E+20
 15
-1.000000000000000E+20
 25
-1.000000000000000E+20
 35
-1.000000000000000E+20
146
0.0
 13
0.0
 23
0.0
 33
0.0
 16
1.0
 26
0.0
 36
0.0
 17
0.0
 27
1.0
 37
0.0
 76
     0
330
210
  0
LAYOUT
  5
79C
102
{ACAD_XDICTIONARY
360
17C0
102
}
102
{ACAD_REACTORS
330
1A
102
}
330
1A
100
AcDbPlotSettings
  1

  2
none_device
  4
ISO_A3_(420.00_x_297.00_MM)
  6

 40
0.0
 41
0.0
 42
0.0
 43
0.0
 44
420.0
 45
297.0
 46
0.0
 47
0.0
 48
0.0
 49
0.0
140
0.0
141
0.0
142
1.0
143
1.0
 70
  1024
 72
     1
 73
     0
 74
     0
  7

 75
     0
147
1.0
148
0.0
149
0.0
100
AcDbLayout
  1
Model
 70
     0
 71
     0
 10
0.0
 20
0.0
 11
420.0
 21
297.0
 12
0.0
 22
0.0
 32
0.0
 14
0.0
 24
0.0
 34
0.0
 15
0.0
 25
0.0
 35
0.0
146
0.0
 13
0.0
 23
0.0
 33
0.0
 16
1.0
 26
0.0
 36
0.0
 17
0.0
 27
1.0
 37
0.0
 76
     0
330
20F
331
1F4
  0
MATERIAL
  5
7AE
102
{ACAD_XDICTIONARY
360
7AF
102
}
102
{ACAD_REACTORS
330
7A5
102
}
330
7A5
100
AcDbMaterial
  1
ByBlock
 72
     0
 43
0.0008202099737533
 43
0.0
 43
0.0
 43
0.0
 43
0.0
 43
0.0008202099737533
 43
0.0
 43
0.0
 43
0.0
 43
0.0
 43
1.0
 43
0.0
 43
0.0
 43
0.0
 43
0.0
 43
1.0
 77
     0
 47
0.0008202099737533
 47
0.0
 47
0.0
 47
0.0
 47
0.0
 47
0.0008202099737533
 47
0.0
 47
0.0
 47
0.0
 47
0.0
 47
1.0
 47
0.0
 47
0.0
 47
0.0
 47
0.0
 47
1.0
171
     0
 49
0.0008202099737533
 49
0.0
 49
0.0
 49
0.0
 49
0.0
 49
0.0008202099737533
 49
0.0
 49
0.0
 49
0.0
 49
0.0
 49
1.0
 49
0.0
 49
0.0
 49
0.0
 49
0.0
 49
1.0
175
     0
142
0.0008202099737533
142
0.0
142
0.0
142
0.0
142
0.0
142
0.0008202099737533
142
0.0
142
0.0
142
0.0
142
0.0
142
1.0
142
0.0
142
0.0
142
0.0
142
0.0
142
1.0
179
     0
144
0.0008202099737533
144
0.0
144
0.0
144
0.0
144
0.0
144
0.0008202099737533
144
0.0
144
0.0
144
0.0
144
0.0
144
1.0
144
0.0
144
0.0
144
0.0
144
0.0
144
1.0
147
0.0008202099737533
147
0.0
147
0.0
147
0.0
147
0.0
147
0.0008202099737533
147
0.0
147
0.0
147
0.0
147
0.0
147
1.0
147
0.0
147
0.0
147
0.0
147
0.0
147
1.0
  0
MATERIAL
  5
7A6
102
{ACAD_XDICTIONARY
360
7A7
102
}
102
{ACAD_REACTORS
330
7A5
102
}
330
7A5
100
AcDbMaterial
  1
ByLayer
 72
     0
 43
0.0008202099737533
 43
0.0
 43
0.0
 43
0.0
 43
0.0
 43
0.0008202099737533
 43
0.0
 43
0.0
 43
0.0
 43
0.0
 43
1.0
 43
0.0
 43
0.0
 43
0.0
 43
0.0
 43
1.0
 77
     0
 47
0.0008202099737533
 47
0.0
 47
0.0
 47
0.0
 47
0.0
 47
0.0008202099737533
 47
0.0
 47
0.0
 47
0.0
 47
0.0
 47
1.0
 47
0.0
 47
0.0
 47
0.0
 47
0.0
 47
1.0
171
     0
 49
0.0008202099737533
 49
0.0
 49
0.0
 49
0.0
 49
0.0
 49
0.0008202099737533
 49
0.0
 49
0.0
 49
0.0
 49
0.0
 49
1.0
 49
0.0
 49
0.0
 49
0.0
 49
0.0
 49
1.0
175
     0
142
0.0008202099737533
142
0.0
142
0.0
142
0.0
142
0.0
142
0.0008202099737533
142
0.0
142
0.0
142
0.0
142
0.0
142
1.0
142
0.0
142
0.0
142
0.0
142
0.0
142
1.0
179
     0
144
0.0008202099737533
144
0.0
144
0.0
144
0.0
144
0.0
144
0.0008202099737533
144
0.0
144
0.0
144
0.0
144
0.0
144
1.0
144
0.0
144
0.0
144
0.0
144
0.0
144
1.0
147
0.0008202099737533
147
0.0
147
0.0
147
0.0
147
0.0
147
0.0008202099737533
147
0.0
147
0.0
147
0.0
147
0.0
147
1.0
147
0.0
147
0.0
147
0.0
147
0.0
147
1.0
  0
MATERIAL
  5
7B6
102
{ACAD_XDICTIONARY
360
7B7
102
}
102
{ACAD_REACTORS
330
7A5
102
}
330
7A5
100
AcDbMaterial
  1
Global
 72
     0
 43
0.0008202099737533
 43
0.0
 43
0.0
 43
0.0
 43
0.0
 43
0.0008202099737533
 43
0.0
 43
0.0
 43
0.0
 43
0.0
 43
1.0
 43
0.0
 43
0.0
 43
0.0
 43
0.0
 43
1.0
 77
     0
 47
0.0008202099737533
 47
0.0
 47
0.0
 47
0.0
 47
0.0
 47
0.0008202099737533
 47
0.0
 47
0.0
 47
0.0
 47
0.0
 47
1.0
 47
0.0
 47
0.0
 47
0.0
 47
0.0
 47
1.0
171
     0
 49
0.0008202099737533
 49
0.0
 49
0.0
 49
0.0
 49
0.0
 49
0.0008202099737533
 49
0.0
 49
0.0
 49
0.0
 49
0.0
 49
1.0
 49
0.0
 49
0.0
 49
0.0
 49
0.0
 49
1.0
175
     0
142
0.0008202099737533
142
0.0
142
0.0
142
0.0
142
0.0
142
0.0008202099737533
142
0.0
142
0.0
142
0.0
142
0.0
142
1.0
142
0.0
142
0.0
142
0.0
142
0.0
142
1.0
179
     0
144
0.0008202099737533
144
0.0
144
0.0
144
0.0
144
0.0
144
0.0008202099737533
144
0.0
144
0.0
144
0.0
144
0.0
144
1.0
144
0.0
144
0.0
144
0.0
144
0.0
144
1.0
147
0.0008202099737533
147
0.0
147
0.0
147
0.0
147
0.0
147
0.0008202099737533
147
0.0
147
0.0
147
0.0
147
0.0
147
1.0
147
0.0
147
0.0
147
0.0
147
0.0
147
1.0
  0
MLEADERSTYLE
  5
7E6
102
{ACAD_REACTORS
330
7E5
102
}
330
7E5
100
AcDbMLeaderStyle
170
     2
171
     1
172
     0
 90
        2
 40
0.0
 41
0.0
173
     1
 91
-1056964608
340
14
 92
       -2
290
     1
 42
2.0
291
     1
 43
0.36
  3
Standard
 44
4.0
300

342
11
174
     1
178
     6
175
     1
176
     0
 93
-1056964608
 45
4.0
292
     0
297
     0
 46
4.0
 94
-1056964608
 47
1.0
 49
1.0
140
1.0
293
     1
141
0.0
294
     1
177
     0
142
1.0
295
     0
296
     0
143
0.125
1001
ACAD_MLEADERVER
1070
     2
  0
MLINESTYLE
  5
18
102
{ACAD_REACTORS
330
17
102
}
330
17
100
AcDbMlineStyle
  2
STANDARD
 70
     0
  3

 62
   256
 51
90.0
 52
90.0
 71
     2
 49
0.5
 62
   256
  6
BYLAYER
 49
-0.5
 62
   256
  6
BYLAYER
  0
ACDBPLACEHOLDER
  5
F
102
{ACAD_REACTORS
330
E
102
}
330
E
  0
SCALE
  5
7D4
102
{ACAD_REACTORS
330
7D3
102
}
330
7D3
100
AcDbScale
 70
     0
300
1:1
140
1.0
141
1.0
290
     1
  0
SCALE
  5
7D5
102
{ACAD_REACTORS
330
7D3
102
}
330
7D3
100
AcDbScale
 70
     0
300
1:2
140
1.0
141
2.0
290
     0
  0
SCALE
  5
7D6
102
{ACAD_REACTORS
330
7D3
102
}
330
7D3
100
AcDbScale
 70
     0
300
1:4
140
1.0
141
4.0
290
     0
  0
SCALE
  5
7D7
102
{ACAD_REACTORS
330
7D3
102
}
330
7D3
100
AcDbScale
 70
     0
300
1:5
140
1.0
141
5.0
290
     0
  0
SCALE
  5
7D8
102
{ACAD_REACTORS
330
7D3
102
}
330
7D3
100
AcDbScale
 70
     0
300
1:8
140
1.0
141
8.0
290
     0
  0
SCALE
  5
7D9
102
{ACAD_REACTORS
330
7D3
102
}
330
7D3
100
AcDbScale
 70
     0
300
1:10
140
1.0
141
10.0
290
     0
  0
SCALE
  5
7DA
102
{ACAD_REACTORS
330
7D3
102
}
330
7D3
100
AcDbScale
 70
     0
300
1:16
140
1.0
141
16.0
290
     0
  0
SCALE
  5
7DB
102
{ACAD_REACTORS
330
7D3
102
}
330
7D3
100
AcDbScale
 70
     0
300
1:20
140
1.0
141
20.0
290
     0
  0
SCALE
  5
7DC
102
{ACAD_REACTORS
330
7D3
102
}
330
7D3
100
AcDbScale
 70
     0
300
1:30
140
1.0
141
30.0
290
     0
  0
SCALE
  5
7DD
102
{ACAD_REACTORS
330
7D3
102
}
330
7D3
100
AcDbScale
 70
     0
300
1:40
140
1.0
141
40.0
290
     0
  0
SCALE
  5
7DE
102
{ACAD_REACTORS
330
7D3
102
}
330
7D3
100
AcDbScale
 70
     0
300
1:50
140
1.0
141
50.0
290
     0
  0
SCALE
  5
7DF
102
{ACAD_REACTORS
330
7D3
102
}
330
7D3
100
AcDbScale
 70
     0
300
1:100
140
1.0
141
100.0
290
     0
  0
SCALE
  5
7E0
102
{ACAD_REACTORS
330
7D3
102
}
330
7D3
100
AcDbScale
 70
     0
300
2:1
140
2.0
141
1.0
290
     0
  0
SCALE
  5
7E1
102
{ACAD_REACTORS
330
7D3
102
}
330
7D3
100
AcDbScale
 70
     0
300
4:1
140
4.0
141
1.0
290
     0
  0
SCALE
  5
7E2
102
{ACAD_REACTORS
330
7D3
102
}
330
7D3
100
AcDbScale
 70
     0
300
8:1
140
8.0
141
1.0
290
     0
  0
SCALE
  5
7E3
102
{ACAD_REACTORS
330
7D3
102
}
330
7D3
100
AcDbScale
 70
     0
300
10:1
140
10.0
141
1.0
290
     0
  0
SCALE
  5
7E4
102
{ACAD_REACTORS
330
7D3
102
}
330
7D3
100
AcDbScale
 70
     0
300
100:1
140
100.0
141
1.0
290
     0
  0
TABLESTYLE
  5
79F
102
{ACAD_XDICTIONARY
360
F64
102
}
102
{ACAD_REACTORS
330
79B
102
}
330
79B
100
AcDbTableStyle
  3
Standard
 70
     0
 71
     0
 40
0.06
 41
0.06
280
     0
281
     0
  7
STANDARD
140
0.18
170
     1
 62
     0
 63
     7
283
     0
274
    -2
284
     1
 64
     0
275
    -2
285
     1
 65
     0
276
    -2
286
     1
 66
     0
277
    -2
287
     1
 67
     0
278
    -2
288
     1
 68
     0
279
    -2
289
     1
 69
     0
  7
STANDARD
140
0.18
170
     1
 62
     0
 63
     7
283
     0
274
    -2
284
     1
 64
     0
275
    -2
285
     1
 65
     0
276
    -2
286
     1
 66
     0
277
    -2
287
     1
 67
     0
278
    -2
288
     1
 68
     0
279
    -2
289
     1
 69
     0
  7
STANDARD
140
0.18
170
     1
 62
     0
 63
     7
283
     0
274
    -2
284
     1
 64
     0
275
    -2
285
     1
 65
     0
276
    -2
286
     1
 66
     0
277
    -2
287
     1
 67
     0
278
    -2
288
     1
 68
     0
279
    -2
289
     1
 69
     0
  0
TABLESTYLE
  5
7A0
102
{ACAD_XDICTIONARY
360
F66
102
}
102
{ACAD_REACTORS
330
79B
102
}
330
79B
100
AcDbTableStyle
  3
Standard1
 70
     1
 71
     0
 40
0.06
 41
0.06
280
     0
281
     0
  7
STANDARD
140
0.18
170
     1
 62
     0
 63
     7
283
     0
274
    -2
284
     1
 64
     0
275
    -2
285
     1
 65
     0
276
    -2
286
     1
 66
     0
277
    -2
287
     1
 67
     0
278
    -2
288
     1
 68
     0
279
    -2
289
     1
 69
     0
  7
STANDARD
140
0.18
170
     1
 62
     0
 63
     7
283
     0
274
    -2
284
     1
 64
     0
275
    -2
285
     1
 65
     0
276
    -2
286
     1
 66
     0
277
    -2
287
     1
 67
     0
278
    -2
288
     1
 68
     0
279
    -2
289
     1
 69
     0
  7
STANDARD
140
0.18
170
     1
 62
     0
 63
     7
283
     0
274
    -2
284
     1
 64
     0
275
    -2
285
     1
 65
     0
276
    -2
286
     1
 66
     0
277
    -2
287
     1
 67
     0
278
    -2
288
     1
 68
     0
279
    -2
289
     1
 69
     0
  0
VISUALSTYLE
  5
7C4
102
{ACAD_XDICTIONARY
360
17D0
102
}
102
{ACAD_REACTORS
330
7BE
102
}
330
7BE
100
AcDbVisualStyle
  2

 70
     4
 71
     0
 72
     2
 73
     0
 90
        0
 40
-0.6
 41
-30.0
 62
     5
 63
     7
 74
     1
 91
        4
 64
     7
 65
   257
 75
     1
175
     1
 42
1.0
 92
        0
 66
   257
 43
1.0
 76
     1
 77
     6
 78
     2
 67
     7
 79
     5
170
     0
171
     0
290
     0
174
     0
 93
        1
 44
0.0
173
     0
291
     0
 45
0.0
1001
ACAD
1000
AcDbSavedByObjectVersion
1070
     0
  0
VISUALSTYLE
  5
7C6
102
{ACAD_XDICTIONARY
360
17D4
102
}
102
{ACAD_REACTORS
330
7BE
102
}
330
7BE
100
AcDbVisualStyle
  2

 70
     6
 71
     1
 72
     2
 73
     2
 90
        0
 40
-0.6
 41
-30.0
 62
     5
 63
     7
 74
     2
 91
        2
 64
     7
 65
   257
 75
     2
175
     1
 42
179.0
 92
        0
 66
   257
 43
1.0
 76
     1
 77
     6
 78
     2
 67
     7
 79
     3
170
     0
171
     0
290
     0
174
     0
 93
        1
 44
0.0
173
     0
291
     0
 45
0.0
1001
ACAD
1000
AcDbSavedByObjectVersion
1070
     0
  0
VISUALSTYLE
  5
7C5
102
{ACAD_XDICTIONARY
360
17D2
102
}
102
{ACAD_REACTORS
330
7BE
102
}
330
7BE
100
AcDbVisualStyle
  2

 70
     5
 71
     0
 72
     2
 73
     0
 90
        0
 40
-0.6
 41
-30.0
 62
     5
 63
     7
 74
     1
 91
        4
 64
     7
 65
   257
 75
     1
175
     1
 42
1.0
 92
        0
 66
   257
 43
1.0
 76
     1
 77
     6
 78
     2
 67
     7
 79
     5
170
     0
171
     0
290
     0
174
     0
 93
        1
 44
0.0
173
     0
291
     0
 45
0.0
1001
ACAD
1000
AcDbSavedByObjectVersion
1070
     0
  0
VISUALSTYLE
  5
7C3
102
{ACAD_XDICTIONARY
360
17CE
102
}
102
{ACAD_REACTORS
330
7BE
102
}
330
7BE
100
AcDbVisualStyle
  2

 70
     7
 71
     1
 72
     0
 73
     1
 90
        0
 40
-0.6
 41
-30.0
 62
     5
 63
     7
 74
     0
 91
        4
 64
     7
 65
   257
 75
     1
175
     1
 42
1.0
 92
        8
 66
     7
 43
1.0
 76
     1
 77
     6
 78
     2
 67
     7
 79
     5
170
     0
171
     0
290
     0
174
     0
 93
        1
 44
0.0
173
     0
291
     1
 45
0.0
1001
ACAD
1000
AcDbSavedByObjectVersion
1070
     0
  0
VISUALSTYLE
  5
7CA
102
{ACAD_XDICTIONARY
360
17DC
102
}
102
{ACAD_REACTORS
330
7BE
102
}
330
7BE
100
AcDbVisualStyle
  2

 70
    12
 71
     2
 72
     2
 73
     0
 90
        0
 40
-0.6
 41
-30.0
 62
     5
 63
     7
 74
     1
 91
        4
 64
     7
 65
   257
 75
     1
175
     1
 42
1.0
 92
        8
 66
     7
 43
1.0
 76
     1
 77
     6
 78
     2
 67
     7
 79
     5
170
     0
171
     0
290
     0
174
     0
 93
        1
 44
50.0
173
     0
291
     1
 45
0.0
1001
ACAD
1000
AcDbSavedByObjectVersion
1070
     0
  0
VISUALSTYLE
  5
7CE
102
{ACAD_XDICTIONARY
360
17E4
102
}
102
{ACAD_REACTORS
330
7BE
102
}
330
7BE
100
AcDbVisualStyle
  2

 70
    16
 71
     2
 72
     2
 73
     3
 90
        0
 40
-0.6
 41
-30.0
 62
     5
 63
     8
 74
     1
 91
        4
 64
     7
 65
   257
 75
     1
175
     1
 42
1.0
 92
        8
 66
     8
 43
1.0
 76
     1
 77
     6
 78
     2
 67
     7
 79
     5
170
     0
171
     0
290
     0
174
     0
 93
        1
 44
0.0
173
     0
291
     1
 45
0.0
1001
ACAD
1000
AcDbSavedByObjectVersion
1070
     0
  0
VISUALSTYLE
  5
7C7
102
{ACAD_XDICTIONARY
360
17D6
102
}
102
{ACAD_REACTORS
330
7BE
102
}
330
7BE
100
AcDbVisualStyle
  2

 70
     9
 71
     3
 72
     2
 73
     0
 90
        0
 40
-0.6
 41
-30.0
 62
     5
 63
     7
 74
     2
 91
        2
 64
     7
 65
   257
 75
     1
175
     1
 42
179.0
 92
        8
 66
     7
 43
1.0
 76
     1
 77
     6
 78
     2
 67
     7
 79
     3
170
     0
171
     0
290
     0
174
     0
 93
        1
 44
0.0
173
     0
291
     0
 45
0.0
1001
ACAD
1000
AcDbSavedByObjectVersion
1070
     0
  0
VISUALSTYLE
  5
7C9
102
{ACAD_XDICTIONARY
360
17DA
102
}
102
{ACAD_REACTORS
330
7BE
102
}
330
7BE
100
AcDbVisualStyle
  2

 70
    11
 71
     2
 72
     2
 73
     0
 90
        0
 40
-0.6
 41
-30.0
 62
     5
 63
     7
 74
     1
 91
        4
 64
     7
 65
   257
 75
     1
175
     1
 42
1.0
 92
        8
 66
     7
 43
1.0
 76
     1
 77
     6
 78
     2
 67
     7
 79
     5
170
     0
171
     0
290
     0
174
     0
 93
        1
 44
-50.0
173
     0
291
     1
 45
0.0
1001
ACAD
1000
AcDbSavedByObjectVersion
1070
     0
  0
VISUALSTYLE
  5
7D1
102
{ACAD_XDICTIONARY
360
17EA
102
}
102
{ACAD_REACTORS
330
7BE
102
}
330
7BE
100
AcDbVisualStyle
  2

 70
    22
 71
     2
 72
     2
 73
     0
 90
        0
 40
-0.6
 41
-30.0
 62
     5
 63
     7
 74
     1
 91
        4
 64
     7
 65
   257
 75
     1
175
     1
 42
1.0
 92
        8
 66
     7
 43
1.0
 76
     1
 77
     6
 78
     2
 67
     7
 79
     5
170
     0
171
     0
290
     0
174
     0
 93
        1
 44
0.0
173
     0
291
     1
 45
0.0
1001
ACAD
1000
AcDbSavedByObjectVersion
1070
     0
  0
VISUALSTYLE
  5
7CD
102
{ACAD_XDICTIONARY
360
17E2
102
}
102
{ACAD_REACTORS
330
7BE
102
}
330
7BE
100
AcDbVisualStyle
  2

 70
    15
 71
     2
 72
     2
 73
     0
 90
        0
 40
-0.6
 41
-30.0
 62
     5
 63
     7
 74
     1
 91
        4
 64
     7
 65
   257
 75
     1
175
     1
 42
1.0
 92
        8
 66
     7
 43
1.0
 76
     1
 77
     6
 78
     2
 67
     7
 79
     5
170
     0
171
     0
290
     0
174
     0
 93
        1
 44
0.0
173
     0
291
     1
 45
0.0
1001
ACAD
1000
AcDbSavedByObjectVersion
1070
     0
  0
VISUALSTYLE
  5
7BF
102
{ACAD_XDICTIONARY
360
17C6
102
}
102
{ACAD_REACTORS
330
7BE
102
}
330
7BE
100
AcDbVisualStyle
  2

 70
     0
 71
     2
 72
     1
 73
     1
 90
        2
 40
-0.6
 41
30.0
 62
     5
 63
     7
 74
     0
 91
        4
 64
     7
 65
   257
 75
     1
175
     1
 42
1.0
 92
        8
 66
     7
 43
1.0
 76
     1
 77
     6
 78
     2
 67
     7
 79
     5
170
     0
171
     0
290
     0
174
     0
 93
       13
 44
0.0
173
     0
291
     1
 45
0.0
1001
ACAD
1000
AcDbSavedByObjectVersion
1070
     0
  0
VISUALSTYLE
  5
7C0
102
{ACAD_XDICTIONARY
360
17C8
102
}
102
{ACAD_REACTORS
330
7BE
102
}
330
7BE
100
AcDbVisualStyle
  2

 70
     1
 71
     2
 72
     1
 73
     1
 90
        2
 40
-0.6
 41
30.0
 62
     5
 63
     7
 74
     1
 91
        4
 64
     7
 65
   257
 75
     1
175
     1
 42
1.0
 92
        0
 66
   257
 43
1.0
 76
     1
 77
     6
 78
     2
 67
     7
 79
     5
170
     0
171
     0
290
     0
174
     0
 93
       13
 44
0.0
173
     0
291
     1
 45
0.0
1001
ACAD
1000
AcDbSavedByObjectVersion
1070
     0
  0
VISUALSTYLE
  5
7C1
102
{ACAD_XDICTIONARY
360
17CA
102
}
102
{ACAD_REACTORS
330
7BE
102
}
330
7BE
100
AcDbVisualStyle
  2

 70
     2
 71
     2
 72
     2
 73
     1
 90
        2
 40
-0.6
 41
30.0
 62
     5
 63
     7
 74
     0
 91
        4
 64
     7
 65
   257
 75
     1
175
     1
 42
1.0
 92
        0
 66
     7
 43
1.0
 76
     1
 77
     6
 78
     2
 67
     7
 79
     5
170
     0
171
     0
290
     0
174
     0
 93
       13
 44
0.0
173
     0
291
     1
 45
0.0
1001
ACAD
1000
AcDbSavedByObjectVersion
1070
     0
  0
VISUALSTYLE
  5
7C2
102
{ACAD_XDICTIONARY
360
17CC
102
}
102
{ACAD_REACTORS
330
7BE
102
}
330
7BE
100
AcDbVisualStyle
  2

 70
     3
 71
     2
 72
     2
 73
     1
 90
        2
 40
-0.6
 41
30.0
 62
     5
 63
     7
 74
     1
 91
        4
 64
     7
 65
   257
 75
     1
175
     1
 42
1.0
 92
        0
 66
   257
 43
1.0
 76
     1
 77
     6
 78
     2
 67
     7
 79
     5
170
     0
171
     0
290
     0
174
     0
 93
       13
 44
0.0
173
     0
291
     1
 45
0.0
1001
ACAD
1000
AcDbSavedByObjectVersion
1070
     0
  0
VISUALSTYLE
  5
7CF
102
{ACAD_XDICTIONARY
360
17E6
102
}
102
{ACAD_REACTORS
330
7BE
102
}
330
7BE
100
AcDbVisualStyle
  2

 70
    20
 71
     2
 72
     2
 73
     0
 90
        0
 40
-0.6
 41
-30.0
 62
     5
 63
     7
 74
     1
 91
        4
 64
     7
 65
   257
 75
     1
175
     1
 42
1.0
 92
       10
 66
     7
 43
1.0
 76
     1
 77
     6
 78
     2
 67
     7
 79
     5
170
     0
171
     0
290
     0
174
     0
 93
        1
 44
0.0
173
     0
291
     1
 45
0.0
1001
ACAD
1000
AcDbSavedByObjectVersion
1070
     0
  0
VISUALSTYLE
  5
7CC
102
{ACAD_XDICTIONARY
360
17E0
102
}
102
{ACAD_REACTORS
330
7BE
102
}
330
7BE
100
AcDbVisualStyle
  2

 70
    14
 71
     2
 72
     2
 73
     0
 90
        0
 40
-0.6
 41
-30.0
 62
     5
 63
     7
 74
     1
 91
        4
 64
     7
 65
   257
 75
     7
175
     7
 42
1.0
 92
        8
 66
     7
 43
1.0
 76
     1
 77
     6
 78
     2
 67
     7
 79
     5
170
     0
171
     0
290
     0
174
     0
 93
        1
 44
0.0
173
     0
291
     1
 45
0.0
1001
ACAD
1000
AcDbSavedByObjectVersion
1070
     0
  0
VISUALSTYLE
  5
7D0
102
{ACAD_XDICTIONARY
360
17E8
102
}
102
{ACAD_REACTORS
330
7BE
102
}
330
7BE
100
AcDbVisualStyle
  2

 70
    21
 71
     2
 72
     2
 73
     0
 90
        0
 40
-0.6
 41
-30.0
 62
     5
 63
     7
 74
     1
 91
        4
 64
     7
 65
   257
 75
     1
175
     1
 42
1.0
 92
        9
 66
     7
 43
1.0
 76
     1
 77
     6
 78
     2
 67
     7
 79
     5
170
     0
171
     0
290
     0
174
     0
 93
        1
 44
0.0
173
     0
291
     1
 45
0.0
1001
ACAD
1000
AcDbSavedByObjectVersion
1070
     0
  0
VISUALSTYLE
  5
7C8
102
{ACAD_XDICTIONARY
360
17D8
102
}
102
{ACAD_REACTORS
330
7BE
102
}
330
7BE
100
AcDbVisualStyle
  2

 70
     8
 71
     2
 72
     2
 73
     0
 90
        0
 40
-0.6
 41
-30.0
 62
     5
 63
     7
 74
     1
 91
        0
 64
     7
 65
   257
 75
     1
175
     1
 42
1.0
 92
        8
 66
     8
 43
1.0
 76
     1
 77
     6
 78
     2
 67
     7
 79
     5
170
     0
171
     0
290
     0
174
     0
 93
       13
 44
0.0
173
     0
291
     0
 45
0.0
1001
ACAD
1000
AcDbSavedByObjectVersion
1070
     0
  0
VISUALSTYLE
  5
7CB
102
{ACAD_XDICTIONARY
360
17DE
102
}
102
{ACAD_REACTORS
330
7BE
102
}
330
7BE
100
AcDbVisualStyle
  2

 70
    13
 71
     2
 72
     2
 73
     0
 90
        0
 40
-0.6
 41
-30.0
 62
     5
 63
     7
 74
     1
 91
        4
 64
     7
 65
   257
 75
     1
175
     1
 42
1.0
 92
       12
 66
     7
 43
1.0
 76
     1
 77
     6
 78
     2
 67
     7
 79
     5
170
     0
171
     0
290
     0
174
     0
 93
        1
 44
0.0
173
     0
291
     1
 45
0.0
1001
ACAD
1000
AcDbSavedByObjectVersion
1070
     0
  0
DICTIONARYVAR
  5
9E8
102
{ACAD_REACTORS
330
9E5
102
}
330
9E5
100
DictionaryVariables
280
     0
  1
1:1
  0
DICTIONARYVAR
  5
9E7
102
{ACAD_REACTORS
330
9E5
102
}
330
9E5
100
DictionaryVariables
280
     0
  1
STANDARD
  0
DICTIONARYVAR
  5
9E6
102
{ACAD_REACTORS
330
9E5
102
}
330
9E5
100
DictionaryVariables
280
     0
  1
STANDARD
  0
DICTIONARYVAR
  5
F62
102
{ACAD_REACTORS
330
9E5
102
}
330
9E5
100
DictionaryVariables
280
     0
  1
2
  0
DICTIONARYVAR
  5
F61
102
{ACAD_REACTORS
330
9E5
102
}
330
9E5
100
DictionaryVariables
280
     0
  1
1
  0
DICTIONARYVAR
  5
F60
102
{ACAD_REACTORS
330
9E5
102
}
330
9E5
100
DictionaryVariables
280
     0
  1
0
  0
DICTIONARYVAR
  5
F5D
102
{ACAD_REACTORS
330
9E5
102
}
330
9E5
100
DictionaryVariables
280
     0
  1
0
  0
DICTIONARYVAR
  5
F5E
102
{ACAD_REACTORS
330
9E5
102
}
330
9E5
100
DictionaryVariables
280
     0
  1
0
  0
DICTIONARYVAR
  5
F5C
102
{ACAD_REACTORS
330
9E5
102
}
330
9E5
100
DictionaryVariables
280
     0
  1
2
  0
DICTIONARYVAR
  5
F5B
102
{ACAD_REACTORS
330
9E5
102
}
330
9E5
100
DictionaryVariables
280
     0
  1
1
  0
DICTIONARYVAR
  5
F5F
102
{ACAD_REACTORS
330
9E5
102
}
330
9E5
100
DictionaryVariables
280
     0
  1
127
  0
DICTIONARYVAR
  5
17B6
102
{ACAD_REACTORS
330
9E5
102
}
330
9E5
100
DictionaryVariables
280
     0
  1
2
  0
DICTIONARY
  5
84B
102
{ACAD_REACTORS
330
83F
102
}
330
83F
100
AcDbDictionary
281
     1
  0
DICTIONARY
  5
17C2
330
79D
100
AcDbDictionary
280
     1
281
     1
  3
ACAD_XREC_ROUNDTRIP
360
17C3
  0
DICTIONARY
  5
17C0
330
79C
100
AcDbDictionary
280
     1
281
     1
  3
ACAD_XREC_ROUNDTRIP
360
17C1
  0
DICTIONARY
  5
7AF
330
7AE
100
AcDbDictionary
280
     1
281
     1
  3
ACAD_XREC_ROUNDTRIP
360
F71
  3
BUMPTILE
360
7B1
  3
DIFFUSETILE
360
7B0
  3
OPACITYTILE
360
7B4
  3
REFLECTIONTILE
360
7B3
  3
REFRACTIONTILE
360
7B5
  3
SPECULARTILE
360
7B2
  0
DICTIONARY
  5
7A7
330
7A6
100
AcDbDictionary
280
     1
281
     1
  3
ACAD_XREC_ROUNDTRIP
360
F70
  3
BUMPTILE
360
7A9
  3
DIFFUSETILE
360
7A8
  3
OPACITYTILE
360
7AC
  3
REFLECTIONTILE
360
7AB
  3
REFRACTIONTILE
360
7AD
  3
SPECULARTILE
360
7AA
  0
DICTIONARY
  5
7B7
330
7B6
100
AcDbDictionary
280
     1
281
     1
  3
ACAD_XREC_ROUNDTRIP
360
F72
  3
BUMPTILE
360
7B9
  3
DIFFUSETILE
360
7B8
  3
OPACITYTILE
360
7BC
  3
REFLECTIONTILE
360
7BB
  3
REFRACTIONTILE
360
7BD
  3
SPECULARTILE
360
7BA
  0
DICTIONARY
  5
F64
330
79F
100
AcDbDictionary
280
     1
281
     1
  3
ACAD_ROUNDTRIP_2008_TABLESTYLE_CELLSTYLEMAP
360
17B7
  3
ACAD_XREC_ROUNDTRIP
360
17C4
  0
DICTIONARY
  5
F66
330
7A0
100
AcDbDictionary
280
     1
281
     1
  3
ACAD_ROUNDTRIP_2008_TABLESTYLE_CELLSTYLEMAP
360
17B8
  3
ACAD_XREC_ROUNDTRIP
360
17C5
  0
DICTIONARY
  5
17D0
330
7C4
100
AcDbDictionary
280
     1
281
     1
  3
ACAD_XREC_ROUNDTRIP
360
17D1
  0
DICTIONARY
  5
17D4
330
7C6
100
AcDbDictionary
280
     1
281
     1
  3
ACAD_XREC_ROUNDTRIP
360
17D5
  0
DICTIONARY
  5
17D2
330
7C5
100
AcDbDictionary
280
     1
281
     1
  3
ACAD_XREC_ROUNDTRIP
360
17D3
  0
DICTIONARY
  5
17CE
330
7C3
100
AcDbDictionary
280
     1
281
     1
  3
ACAD_XREC_ROUNDTRIP
360
17CF
  0
DICTIONARY
  5
17DC
330
7CA
100
AcDbDictionary
280
     1
281
     1
  3
ACAD_XREC_ROUNDTRIP
360
17DD
  0
DICTIONARY
  5
17E4
330
7CE
100
AcDbDictionary
280
     1
281
     1
  3
ACAD_XREC_ROUNDTRIP
360
17E5
  0
DICTIONARY
  5
17D6
330
7C7
100
AcDbDictionary
280
     1
281
     1
  3
ACAD_XREC_ROUNDTRIP
360
17D7
  0
DICTIONARY
  5
17DA
330
7C9
100
AcDbDictionary
280
     1
281
     1
  3
ACAD_XREC_ROUNDTRIP
360
17DB
  0
DICTIONARY
  5
17EA
330
7D1
100
AcDbDictionary
280
     1
281
     1
  3
ACAD_XREC_ROUNDTRIP
360
17EB
  0
DICTIONARY
  5
17E2
330
7CD
100
AcDbDictionary
280
     1
281
     1
  3
ACAD_XREC_ROUNDTRIP
360
17E3
  0
DICTIONARY
  5
17C6
330
7BF
100
AcDbDictionary
280
     1
281
     1
  3
ACAD_XREC_ROUNDTRIP
360
17C7
  0
DICTIONARY
  5
17C8
330
7C0
100
AcDbDictionary
280
     1
281
     1
  3
ACAD_XREC_ROUNDTRIP
360
17C9
  0
DICTIONARY
  5
17CA
330
7C1
100
AcDbDictionary
280
     1
281
     1
  3
ACAD_XREC_ROUNDTRIP
360
17CB
  0
DICTIONARY
  5
17CC
330
7C2
100
AcDbDictionary
280
     1
281
     1
  3
ACAD_XREC_ROUNDTRIP
360
17CD
  0
DICTIONARY
  5
17E6
330
7CF
100
AcDbDictionary
280
     1
281
     1
  3
ACAD_XREC_ROUNDTRIP
360
17E7
  0
DICTIONARY
  5
17E0
330
7CC
100
AcDbDictionary
280
     1
281
     1
  3
ACAD_XREC_ROUNDTRIP
360
17E1
  0
DICTIONARY
  5
17E8
330
7D0
100
AcDbDictionary
280
     1
281
     1
  3
ACAD_XREC_ROUNDTRIP
360
17E9
  0
DICTIONARY
  5
17D8
330
7C8
100
AcDbDictionary
280
     1
281
     1
  3
ACAD_XREC_ROUNDTRIP
360
17D9
  0
DICTIONARY
  5
17DE
330
7CB
100
AcDbDictionary
280
     1
281
     1
  3
ACAD_XREC_ROUNDTRIP
360
17DF
  0
XRECORD
  5
17C3
102
{ACAD_REACTORS
330
17C2
102
}
330
17C2
100
AcDbXrecord
280
     1
102
SHADEPLOT
 70
     0
102
SHADEPLOTRESLEVEL
 70
     2
102
SHADEPLOTCUSTOMDPI
 70
   300
  0
XRECORD
  5
17C1
102
{ACAD_REACTORS
330
17C0
102
}
330
17C0
100
AcDbXrecord
280
     1
102
SHADEPLOT
 70
     0
102
SHADEPLOTRESLEVEL
 70
     2
102
SHADEPLOTCUSTOMDPI
 70
   300
  0
XRECORD
  5
F71
102
{ACAD_REACTORS
330
7AF
102
}
330
7AF
100
AcDbXrecord
280
     1
102
MATERIAL
148
0.0
149
0.0
149
0.0
 93
        0
 94
      127
282
     0
 72
     0
 77
     0
171
     0
175
     0
179
     0
273
     0
  0
XRECORD
  5
7B1
102
{ACAD_REACTORS
330
7AF
102
}
330
7AF
100
AcDbXrecord
280
     1
270
     1
271
     1
  0
XRECORD
  5
7B0
102
{ACAD_REACTORS
330
7AF
102
}
330
7AF
100
AcDbXrecord
280
     1
270
     1
271
     1
  0
XRECORD
  5
7B4
102
{ACAD_REACTORS
330
7AF
102
}
330
7AF
100
AcDbXrecord
280
     1
270
     1
271
     1
  0
XRECORD
  5
7B3
102
{ACAD_REACTORS
330
7AF
102
}
330
7AF
100
AcDbXrecord
280
     1
270
     1
271
     1
  0
XRECORD
  5
7B5
102
{ACAD_REACTORS
330
7AF
102
}
330
7AF
100
AcDbXrecord
280
     1
270
     1
271
     1
  0
XRECORD
  5
7B2
102
{ACAD_REACTORS
330
7AF
102
}
330
7AF
100
AcDbXrecord
280
     1
270
     1
271
     1
  0
XRECORD
  5
F70
102
{ACAD_REACTORS
330
7A7
102
}
330
7A7
100
AcDbXrecord
280
     1
102
MATERIAL
148
0.0
149
0.0
149
0.0
 93
        0
 94
      127
282
     0
 72
     0
 77
     0
171
     0
175
     0
179
     0
273
     0
  0
XRECORD
  5
7A9
102
{ACAD_REACTORS
330
7A7
102
}
330
7A7
100
AcDbXrecord
280
     1
270
     1
271
     1
  0
XRECORD
  5
7A8
102
{ACAD_REACTORS
330
7A7
102
}
330
7A7
100
AcDbXrecord
280
     1
270
     1
271
     1
  0
XRECORD
  5
7AC
102
{ACAD_REACTORS
330
7A7
102
}
330
7A7
100
AcDbXrecord
280
     1
270
     1
271
     1
  0
XRECORD
  5
7AB
102
{ACAD_REACTORS
330
7A7
102
}
330
7A7
100
AcDbXrecord
280
     1
270
     1
271
     1
  0
XRECORD
  5
7AD
102
{ACAD_REACTORS
330
7A7
102
}
330
7A7
100
AcDbXrecord
280
     1
270
     1
271
     1
  0
XRECORD
  5
7AA
102
{ACAD_REACTORS
330
7A7
102
}
330
7A7
100
AcDbXrecord
280
     1
270
     1
271
     1
  0
XRECORD
  5
F72
102
{ACAD_REACTORS
330
7B7
102
}
330
7B7
100
AcDbXrecord
280
     1
102
MATERIAL
148
0.0
149
0.0
149
0.0
 93
        0
 94
      127
282
     0
 72
     0
 77
     0
171
     0
175
     0
179
     0
273
     0
  0
XRECORD
  5
7B9
102
{ACAD_REACTORS
330
7B7
102
}
330
7B7
100
AcDbXrecord
280
     1
270
     1
271
     1
  0
XRECORD
  5
7B8
102
{ACAD_REACTORS
330
7B7
102
}
330
7B7
100
AcDbXrecord
280
     1
270
     1
271
     1
  0
XRECORD
  5
7BC
102
{ACAD_REACTORS
330
7B7
102
}
330
7B7
100
AcDbXrecord
280
     1
270
     1
271
     1
  0
XRECORD
  5
7BB
102
{ACAD_REACTORS
330
7B7
102
}
330
7B7
100
AcDbXrecord
280
     1
270
     1
271
     1
  0
XRECORD
  5
7BD
102
{ACAD_REACTORS
330
7B7
102
}
330
7B7
100
AcDbXrecord
280
     1
270
     1
271
     1
  0
XRECORD
  5
7BA
102
{ACAD_REACTORS
330
7B7
102
}
330
7B7
100
AcDbXrecord
280
     1
270
     1
271
     1
  0
CELLSTYLEMAP
  5
17B7
102
{ACAD_REACTORS
330
F64
102
}
330
F64
100
AcDbCellStyleMap
 90
        3
300
CELLSTYLE
  1
TABLEFORMAT_BEGIN
 90
        5
170
     1
 91
        0
 92
    32768
 62
   257
 93
        1
300
CONTENTFORMAT
  1
CONTENTFORMAT_BEGIN
 90
        0
 91
        0
 92
      512
 93
        0
300

 40
0.0
140
1.0
 94
        1
 62
     0
340
11
144
0.18
309
CONTENTFORMAT_END
171
     1
301
MARGIN
  1
CELLMARGIN_BEGIN
 40
0.06
 40
0.06
 40
0.06
 40
0.06
 40
0.18
 40
0.18
309
CELLMARGIN_END
 94
        6
 95
        1
302
GRIDFORMAT
  1
GRIDFORMAT_BEGIN
 90
        0
 91
        1
 62
     0
 92
       -2
340
0
 93
        0
 40
0.045
309
GRIDFORMAT_END
 95
        2
302
GRIDFORMAT
  1
GRIDFORMAT_BEGIN
 90
        0
 91
        1
 62
     0
 92
       -2
340
0
 93
        0
 40
0.045
309
GRIDFORMAT_END
 95
        4
302
GRIDFORMAT
  1
GRIDFORMAT_BEGIN
 90
        0
 91
        1
 62
     0
 92
       -2
340
0
 93
        0
 40
0.045
309
GRIDFORMAT_END
 95
        8
302
GRIDFORMAT
  1
GRIDFORMAT_BEGIN
 90
        0
 91
        1
 62
     0
 92
       -2
340
0
 93
        0
 40
0.045
309
GRIDFORMAT_END
 95
       16
302
GRIDFORMAT
  1
GRIDFORMAT_BEGIN
 90
        0
 91
        1
 62
     0
 92
       -2
340
0
 93
        0
 40
0.045
309
GRIDFORMAT_END
 95
       32
302
GRIDFORMAT
  1
GRIDFORMAT_BEGIN
 90
        0
 91
        1
 62
     0
 92
       -2
340
0
 93
        0
 40
0.045
309
GRIDFORMAT_END
309
TABLEFORMAT_END
  1
CELLSTYLE_BEGIN
 90
        1
 91
        1
300
_TITLE
309
CELLSTYLE_END
300
CELLSTYLE
  1
TABLEFORMAT_BEGIN
 90
        5
170
     1
 91
        0
 92
        0
 62
   257
 93
        1
300
CONTENTFORMAT
  1
CONTENTFORMAT_BEGIN
 90
        0
 91
        0
 92
      512
 93
        0
300

 40
0.0
140
1.0
 94
        1
 62
     0
340
11
144
0.18
309
CONTENTFORMAT_END
171
     1
301
MARGIN
  1
CELLMARGIN_BEGIN
 40
0.06
 40
0.06
 40
0.06
 40
0.06
 40
0.18
 40
0.18
309
CELLMARGIN_END
 94
        6
 95
        1
302
GRIDFORMAT
  1
GRIDFORMAT_BEGIN
 90
        0
 91
        1
 62
     0
 92
       -2
340
0
 93
        0
 40
0.045
309
GRIDFORMAT_END
 95
        2
302
GRIDFORMAT
  1
GRIDFORMAT_BEGIN
 90
        0
 91
        1
 62
     0
 92
       -2
340
0
 93
        0
 40
0.045
309
GRIDFORMAT_END
 95
        4
302
GRIDFORMAT
  1
GRIDFORMAT_BEGIN
 90
        0
 91
        1
 62
     0
 92
       -2
340
0
 93
        0
 40
0.045
309
GRIDFORMAT_END
 95
        8
302
GRIDFORMAT
  1
GRIDFORMAT_BEGIN
 90
        0
 91
        1
 62
     0
 92
       -2
340
0
 93
        0
 40
0.045
309
GRIDFORMAT_END
 95
       16
302
GRIDFORMAT
  1
GRIDFORMAT_BEGIN
 90
        0
 91
        1
 62
     0
 92
       -2
340
0
 93
        0
 40
0.045
309
GRIDFORMAT_END
 95
       32
302
GRIDFORMAT
  1
GRIDFORMAT_BEGIN
 90
        0
 91
        1
 62
     0
 92
       -2
340
0
 93
        0
 40
0.045
309
GRIDFORMAT_END
309
TABLEFORMAT_END
  1
CELLSTYLE_BEGIN
 90
        2
 91
        1
300
_HEADER
309
CELLSTYLE_END
300
CELLSTYLE
  1
TABLEFORMAT_BEGIN
 90
        5
170
     1
 91
        0
 92
        0
 62
   257
 93
        1
300
CONTENTFORMAT
  1
CONTENTFORMAT_BEGIN
 90
        0
 91
        0
 92
      512
 93
        0
300

 40
0.0
140
1.0
 94
        1
 62
     0
340
11
144
0.18
309
CONTENTFORMAT_END
171
     1
301
MARGIN
  1
CELLMARGIN_BEGIN
 40
0.06
 40
0.06
 40
0.06
 40
0.06
 40
0.18
 40
0.18
309
CELLMARGIN_END
 94
        6
 95
        1
302
GRIDFORMAT
  1
GRIDFORMAT_BEGIN
 90
        0
 91
        1
 62
     0
 92
       -2
340
0
 93
        0
 40
0.045
309
GRIDFORMAT_END
 95
        2
302
GRIDFORMAT
  1
GRIDFORMAT_BEGIN
 90
        0
 91
        1
 62
     0
 92
       -2
340
0
 93
        0
 40
0.045
309
GRIDFORMAT_END
 95
        4
302
GRIDFORMAT
  1
GRIDFORMAT_BEGIN
 90
        0
 91
        1
 62
     0
 92
       -2
340
0
 93
        0
 40
0.045
309
GRIDFORMAT_END
 95
        8
302
GRIDFORMAT
  1
GRIDFORMAT_BEGIN
 90
        0
 91
        1
 62
     0
 92
       -2
340
0
 93
        0
 40
0.045
309
GRIDFORMAT_END
 95
       16
302
GRIDFORMAT
  1
GRIDFORMAT_BEGIN
 90
        0
 91
        1
 62
     0
 92
       -2
340
0
 93
        0
 40
0.045
309
GRIDFORMAT_END
 95
       32
302
GRIDFORMAT
  1
GRIDFORMAT_BEGIN
 90
        0
 91
        1
 62
     0
 92
       -2
340
0
 93
        0
 40
0.045
309
GRIDFORMAT_END
309
TABLEFORMAT_END
  1
CELLSTYLE_BEGIN
 90
        3
 91
        2
300
_DATA
309
CELLSTYLE_END
  0
XRECORD
  5
17C4
102
{ACAD_REACTORS
330
F64
102
}
330
F64
100
AcDbXrecord
280
     1
102
ACAD_ROUNDTRIP_PRE2007_TABLESTYLE
 90
      512
 91
        0
  1

 92
      512
 93
        0
  2

 94
      512
 95
        0
  3

  0
CELLSTYLEMAP
  5
17B8
102
{ACAD_REACTORS
330
F66
102
}
330
F66
100
AcDbCellStyleMap
 90
        3
300
CELLSTYLE
  1
TABLEFORMAT_BEGIN
 90
        5
170
     1
 91
        0
 92
    32768
 62
   257
 93
        1
300
CONTENTFORMAT
  1
CONTENTFORMAT_BEGIN
 90
        0
 91
        0
 92
      512
 93
        0
300

 40
0.0
140
1.0
 94
        1
 62
     0
340
11
144
0.18
309
CONTENTFORMAT_END
171
     1
301
MARGIN
  1
CELLMARGIN_BEGIN
 40
0.06
 40
0.06
 40
0.06
 40
0.06
 40
0.18
 40
0.18
309
CELLMARGIN_END
 94
        6
 95
        1
302
GRIDFORMAT
  1
GRIDFORMAT_BEGIN
 90
        0
 91
        1
 62
     0
 92
       -2
340
0
 93
        0
 40
0.045
309
GRIDFORMAT_END
 95
        2
302
GRIDFORMAT
  1
GRIDFORMAT_BEGIN
 90
        0
 91
        1
 62
     0
 92
       -2
340
0
 93
        0
 40
0.045
309
GRIDFORMAT_END
 95
        4
302
GRIDFORMAT
  1
GRIDFORMAT_BEGIN
 90
        0
 91
        1
 62
     0
 92
       -2
340
0
 93
        0
 40
0.045
309
GRIDFORMAT_END
 95
        8
302
GRIDFORMAT
  1
GRIDFORMAT_BEGIN
 90
        0
 91
        1
 62
     0
 92
       -2
340
0
 93
        0
 40
0.045
309
GRIDFORMAT_END
 95
       16
302
GRIDFORMAT
  1
GRIDFORMAT_BEGIN
 90
        0
 91
        1
 62
     0
 92
       -2
340
0
 93
        0
 40
0.045
309
GRIDFORMAT_END
 95
       32
302
GRIDFORMAT
  1
GRIDFORMAT_BEGIN
 90
        0
 91
        1
 62
     0
 92
       -2
340
0
 93
        0
 40
0.045
309
GRIDFORMAT_END
309
TABLEFORMAT_END
  1
CELLSTYLE_BEGIN
 90
        1
 91
        1
300
_TITLE
309
CELLSTYLE_END
300
CELLSTYLE
  1
TABLEFORMAT_BEGIN
 90
        5
170
     1
 91
        0
 92
        0
 62
   257
 93
        1
300
CONTENTFORMAT
  1
CONTENTFORMAT_BEGIN
 90
        0
 91
        0
 92
      512
 93
        0
300

 40
0.0
140
1.0
 94
        1
 62
     0
340
11
144
0.18
309
CONTENTFORMAT_END
171
     1
301
MARGIN
  1
CELLMARGIN_BEGIN
 40
0.06
 40
0.06
 40
0.06
 40
0.06
 40
0.18
 40
0.18
309
CELLMARGIN_END
 94
        6
 95
        1
302
GRIDFORMAT
  1
GRIDFORMAT_BEGIN
 90
        0
 91
        1
 62
     0
 92
       -2
340
0
 93
        0
 40
0.045
309
GRIDFORMAT_END
 95
        2
302
GRIDFORMAT
  1
GRIDFORMAT_BEGIN
 90
        0
 91
        1
 62
     0
 92
       -2
340
0
 93
        0
 40
0.045
309
GRIDFORMAT_END
 95
        4
302
GRIDFORMAT
  1
GRIDFORMAT_BEGIN
 90
        0
 91
        1
 62
     0
 92
       -2
340
0
 93
        0
 40
0.045
309
GRIDFORMAT_END
 95
        8
302
GRIDFORMAT
  1
GRIDFORMAT_BEGIN
 90
        0
 91
        1
 62
     0
 92
       -2
340
0
 93
        0
 40
0.045
309
GRIDFORMAT_END
 95
       16
302
GRIDFORMAT
  1
GRIDFORMAT_BEGIN
 90
        0
 91
        1
 62
     0
 92
       -2
340
0
 93
        0
 40
0.045
309
GRIDFORMAT_END
 95
       32
302
GRIDFORMAT
  1
GRIDFORMAT_BEGIN
 90
        0
 91
        1
 62
     0
 92
       -2
340
0
 93
        0
 40
0.045
309
GRIDFORMAT_END
309
TABLEFORMAT_END
  1
CELLSTYLE_BEGIN
 90
        2
 91
        1
300
_HEADER
309
CELLSTYLE_END
300
CELLSTYLE
  1
TABLEFORMAT_BEGIN
 90
        5
170
     1
 91
        0
 92
        0
 62
   257
 93
        1
300
CONTENTFORMAT
  1
CONTENTFORMAT_BEGIN
 90
        0
 91
        0
 92
      512
 93
        0
300

 40
0.0
140
1.0
 94
        1
 62
     0
340
11
144
0.18
309
CONTENTFORMAT_END
171
     1
301
MARGIN
  1
CELLMARGIN_BEGIN
 40
0.06
 40
0.06
 40
0.06
 40
0.06
 40
0.18
 40
0.18
309
CELLMARGIN_END
 94
        6
 95
        1
302
GRIDFORMAT
  1
GRIDFORMAT_BEGIN
 90
        0
 91
        1
 62
     0
 92
       -2
340
0
 93
        0
 40
0.045
309
GRIDFORMAT_END
 95
        2
302
GRIDFORMAT
  1
GRIDFORMAT_BEGIN
 90
        0
 91
        1
 62
     0
 92
       -2
340
0
 93
        0
 40
0.045
309
GRIDFORMAT_END
 95
        4
302
GRIDFORMAT
  1
GRIDFORMAT_BEGIN
 90
        0
 91
        1
 62
     0
 92
       -2
340
0
 93
        0
 40
0.045
309
GRIDFORMAT_END
 95
        8
302
GRIDFORMAT
  1
GRIDFORMAT_BEGIN
 90
        0
 91
        1
 62
     0
 92
       -2
340
0
 93
        0
 40
0.045
309
GRIDFORMAT_END
 95
       16
302
GRIDFORMAT
  1
GRIDFORMAT_BEGIN
 90
        0
 91
        1
 62
     0
 92
       -2
340
0
 93
        0
 40
0.045
309
GRIDFORMAT_END
 95
       32
302
GRIDFORMAT
  1
GRIDFORMAT_BEGIN
 90
        0
 91
        1
 62
     0
 92
       -2
340
0
 93
        0
 40
0.045
309
GRIDFORMAT_END
309
TABLEFORMAT_END
  1
CELLSTYLE_BEGIN
 90
        3
 91
        2
300
_DATA
309
CELLSTYLE_END
  0
XRECORD
  5
17C5
102
{ACAD_REACTORS
330
F66
102
}
330
F66
100
AcDbXrecord
280
     1
102
ACAD_ROUNDTRIP_PRE2007_TABLESTYLE
 90
      512
 91
        0
  1

 92
      512
 93
        0
  2

 94
      512
 95
        0
  3

  0
XRECORD
  5
17D1
102
{ACAD_REACTORS
330
17D0
102
}
330
17D0
100
AcDbXrecord
280
     1
102
RTVSPropertyOp0
 70
     1
102
RTVSPropertyOp1
 70
     1
102
RTVSPropertyOp2
 70
     1
102
RTVSPropertyOp3
 70
     1
102
RTVSPropertyOp4
 70
     1
102
RTVSPropertyOp5
 70
     1
102
RTVSPropertyOp6
 70
     1
102
RTVSPropertyOp7
 70
     1
102
RTVSPropertyOp8
 70
     1
102
RTVSPropertyOp9
 70
     1
102
RTVSPropertyOp10
 70
     1
102
RTVSPropertyOp11
 70
     1
102
RTVSPropertyOp12
 70
     1
102
RTVSPropertyOp13
 70
     1
102
RTVSPropertyOp14
 70
     1
102
RTVSPropertyOp15
 70
     1
102
RTVSPropertyOp16
 70
     1
102
RTVSPropertyOp17
 70
     1
102
RTVSPropertyOp18
 70
     1
102
RTVSPropertyOp19
 70
     1
102
RTVSPropertyOp20
 70
     1
102
RTVSPropertyOp21
 70
     1
102
RTVSPropertyOp22
 70
     1
102
RTVSPropertyOp23
 70
     1
102
RTVSPropertyOp24
 70
     1
102
RTVSPropertyOp25
 70
     1
102
RTVSPropertyOp26
 70
     1
102
RTVSPropertyOp27
 70
     1
  0
XRECORD
  5
17D5
102
{ACAD_REACTORS
330
17D4
102
}
330
17D4
100
AcDbXrecord
280
     1
102
RTVSPropertyOp0
 70
     1
102
RTVSPropertyOp1
 70
     1
102
RTVSPropertyOp2
 70
     1
102
RTVSPropertyOp3
 70
     1
102
RTVSPropertyOp4
 70
     1
102
RTVSPropertyOp5
 70
     1
102
RTVSPropertyOp6
 70
     1
102
RTVSPropertyOp7
 70
     1
102
RTVSPropertyOp8
 70
     1
102
RTVSPropertyOp9
 70
     1
102
RTVSPropertyOp10
 70
     1
102
RTVSPropertyOp11
 70
     1
102
RTVSPropertyOp12
 70
     1
102
RTVSPropertyOp13
 70
     1
102
RTVSPropertyOp14
 70
     1
102
RTVSPropertyOp15
 70
     1
102
RTVSPropertyOp16
 70
     1
102
RTVSPropertyOp17
 70
     1
102
RTVSPropertyOp18
 70
     1
102
RTVSPropertyOp19
 70
     1
102
RTVSPropertyOp20
 70
     1
102
RTVSPropertyOp21
 70
     1
102
RTVSPropertyOp22
 70
     1
102
RTVSPropertyOp23
 70
     1
102
RTVSPropertyOp24
 70
     1
102
RTVSPropertyOp25
 70
     1
102
RTVSPropertyOp26
 70
     1
102
RTVSPropertyOp27
 70
     1
  0
XRECORD
  5
17D3
102
{ACAD_REACTORS
330
17D2
102
}
330
17D2
100
AcDbXrecord
280
     1
102
RTVSPropertyOp0
 70
     1
102
RTVSPropertyOp1
 70
     1
102
RTVSPropertyOp2
 70
     1
102
RTVSPropertyOp3
 70
     1
102
RTVSPropertyOp4
 70
     1
102
RTVSPropertyOp5
 70
     1
102
RTVSPropertyOp6
 70
     1
102
RTVSPropertyOp7
 70
     1
102
RTVSPropertyOp8
 70
     1
102
RTVSPropertyOp9
 70
     1
102
RTVSPropertyOp10
 70
     1
102
RTVSPropertyOp11
 70
     1
102
RTVSPropertyOp12
 70
     1
102
RTVSPropertyOp13
 70
     1
102
RTVSPropertyOp14
 70
     1
102
RTVSPropertyOp15
 70
     1
102
RTVSPropertyOp16
 70
     1
102
RTVSPropertyOp17
 70
     1
102
RTVSPropertyOp18
 70
     1
102
RTVSPropertyOp19
 70
     1
102
RTVSPropertyOp20
 70
     1
102
RTVSPropertyOp21
 70
     1
102
RTVSPropertyOp22
 70
     1
102
RTVSPropertyOp23
 70
     1
102
RTVSPropertyOp24
 70
     1
102
RTVSPropertyOp25
 70
     1
102
RTVSPropertyOp26
 70
     1
102
RTVSPropertyOp27
 70
     1
  0
XRECORD
  5
17CF
102
{ACAD_REACTORS
330
17CE
102
}
330
17CE
100
AcDbXrecord
280
     1
102
RTVSPropertyOp0
 70
     1
102
RTVSPropertyOp1
 70
     1
102
RTVSPropertyOp2
 70
     1
102
RTVSPropertyOp3
 70
     1
102
RTVSPropertyOp4
 70
     1
102
RTVSPropertyOp5
 70
     1
102
RTVSPropertyOp6
 70
     1
102
RTVSPropertyOp7
 70
     1
102
RTVSPropertyOp8
 70
     1
102
RTVSPropertyOp9
 70
     1
102
RTVSPropertyOp10
 70
     1
102
RTVSPropertyOp11
 70
     1
102
RTVSPropertyOp12
 70
     1
102
RTVSPropertyOp13
 70
     1
102
RTVSPropertyOp14
 70
     1
102
RTVSPropertyOp15
 70
     1
102
RTVSPropertyOp16
 70
     1
102
RTVSPropertyOp17
 70
     1
102
RTVSPropertyOp18
 70
     1
102
RTVSPropertyOp19
 70
     1
102
RTVSPropertyOp20
 70
     1
102
RTVSPropertyOp21
 70
     1
102
RTVSPropertyOp22
 70
     1
102
RTVSPropertyOp23
 70
     1
102
RTVSPropertyOp24
 70
     1
102
RTVSPropertyOp25
 70
     1
102
RTVSPropertyOp26
 70
     1
102
RTVSPropertyOp27
 70
     1
  0
XRECORD
  5
17DD
102
{ACAD_REACTORS
330
17DC
102
}
330
17DC
100
AcDbXrecord
280
     1
102
RTVSPropertyOp0
 70
     1
102
RTVSPropertyOp1
 70
     1
102
RTVSPropertyOp2
 70
     1
102
RTVSPropertyOp3
 70
     1
102
RTVSPropertyOp4
 70
     1
102
RTVSPropertyOp5
 70
     1
102
RTVSPropertyOp6
 70
     1
102
RTVSPropertyOp7
 70
     1
102
RTVSPropertyOp8
 70
     1
102
RTVSPropertyOp9
 70
     1
102
RTVSPropertyOp10
 70
     1
102
RTVSPropertyOp11
 70
     1
102
RTVSPropertyOp12
 70
     1
102
RTVSPropertyOp13
 70
     1
102
RTVSPropertyOp14
 70
     1
102
RTVSPropertyOp15
 70
     1
102
RTVSPropertyOp16
 70
     1
102
RTVSPropertyOp17
 70
     1
102
RTVSPropertyOp18
 70
     1
102
RTVSPropertyOp19
 70
     1
102
RTVSPropertyOp20
 70
     1
102
RTVSPropertyOp21
 70
     1
102
RTVSPropertyOp22
 70
     1
102
RTVSPropertyOp23
 70
     1
102
RTVSPropertyOp24
 70
     1
102
RTVSPropertyOp25
 70
     1
102
RTVSPropertyOp26
 70
     1
102
RTVSPropertyOp27
 70
     1
  0
XRECORD
  5
17E5
102
{ACAD_REACTORS
330
17E4
102
}
330
17E4
100
AcDbXrecord
280
     1
102
RTVSPropertyOp0
 70
     1
102
RTVSPropertyOp1
 70
     1
102
RTVSPropertyOp2
 70
     1
102
RTVSPropertyOp3
 70
     1
102
RTVSPropertyOp4
 70
     1
102
RTVSPropertyOp5
 70
     1
102
RTVSPropertyOp6
 70
     1
102
RTVSPropertyOp7
 70
     1
102
RTVSPropertyOp8
 70
     1
102
RTVSPropertyOp9
 70
     1
102
RTVSPropertyOp10
 70
     1
102
RTVSPropertyOp11
 70
     1
102
RTVSPropertyOp12
 70
     1
102
RTVSPropertyOp13
 70
     1
102
RTVSPropertyOp14
 70
     1
102
RTVSPropertyOp15
 70
     1
102
RTVSPropertyOp16
 70
     1
102
RTVSPropertyOp17
 70
     1
102
RTVSPropertyOp18
 70
     1
102
RTVSPropertyOp19
 70
     1
102
RTVSPropertyOp20
 70
     1
102
RTVSPropertyOp21
 70
     1
102
RTVSPropertyOp22
 70
     1
102
RTVSPropertyOp23
 70
     1
102
RTVSPropertyOp24
 70
     1
102
RTVSPropertyOp25
 70
     1
102
RTVSPropertyOp26
 70
     1
102
RTVSPropertyOp27
 70
     1
  0
XRECORD
  5
17D7
102
{ACAD_REACTORS
330
17D6
102
}
330
17D6
100
AcDbXrecord
280
     1
102
RTVSPropertyOp0
 70
     1
102
RTVSPropertyOp1
 70
     1
102
RTVSPropertyOp2
 70
     1
102
RTVSPropertyOp3
 70
     1
102
RTVSPropertyOp4
 70
     1
102
RTVSPropertyOp5
 70
     1
102
RTVSPropertyOp6
 70
     1
102
RTVSPropertyOp7
 70
     1
102
RTVSPropertyOp8
 70
     1
102
RTVSPropertyOp9
 70
     1
102
RTVSPropertyOp10
 70
     1
102
RTVSPropertyOp11
 70
     1
102
RTVSPropertyOp12
 70
     1
102
RTVSPropertyOp13
 70
     1
102
RTVSPropertyOp14
 70
     1
102
RTVSPropertyOp15
 70
     1
102
RTVSPropertyOp16
 70
     1
102
RTVSPropertyOp17
 70
     1
102
RTVSPropertyOp18
 70
     1
102
RTVSPropertyOp19
 70
     1
102
RTVSPropertyOp20
 70
     1
102
RTVSPropertyOp21
 70
     1
102
RTVSPropertyOp22
 70
     1
102
RTVSPropertyOp23
 70
     1
102
RTVSPropertyOp24
 70
     1
102
RTVSPropertyOp25
 70
     1
102
RTVSPropertyOp26
 70
     1
102
RTVSPropertyOp27
 70
     1
  0
XRECORD
  5
17DB
102
{ACAD_REACTORS
330
17DA
102
}
330
17DA
100
AcDbXrecord
280
     1
102
RTVSPropertyOp0
 70
     1
102
RTVSPropertyOp1
 70
     1
102
RTVSPropertyOp2
 70
     1
102
RTVSPropertyOp3
 70
     1
102
RTVSPropertyOp4
 70
     1
102
RTVSPropertyOp5
 70
     1
102
RTVSPropertyOp6
 70
     1
102
RTVSPropertyOp7
 70
     1
102
RTVSPropertyOp8
 70
     1
102
RTVSPropertyOp9
 70
     1
102
RTVSPropertyOp10
 70
     1
102
RTVSPropertyOp11
 70
     1
102
RTVSPropertyOp12
 70
     1
102
RTVSPropertyOp13
 70
     1
102
RTVSPropertyOp14
 70
     1
102
RTVSPropertyOp15
 70
     1
102
RTVSPropertyOp16
 70
     1
102
RTVSPropertyOp17
 70
     1
102
RTVSPropertyOp18
 70
     1
102
RTVSPropertyOp19
 70
     1
102
RTVSPropertyOp20
 70
     1
102
RTVSPropertyOp21
 70
     1
102
RTVSPropertyOp22
 70
     1
102
RTVSPropertyOp23
 70
     1
102
RTVSPropertyOp24
 70
     1
102
RTVSPropertyOp25
 70
     1
102
RTVSPropertyOp26
 70
     1
102
RTVSPropertyOp27
 70
     1
  0
XRECORD
  5
17EB
102
{ACAD_REACTORS
330
17EA
102
}
330
17EA
100
AcDbXrecord
280
     1
102
RTVSPropertyOp0
 70
     0
102
RTVSPropertyOp1
 70
     0
102
RTVSPropertyOp2
 70
     0
102
RTVSPropertyOp3
 70
     0
102
RTVSPropertyOp4
 70
     0
102
RTVSPropertyOp5
 70
     0
102
RTVSPropertyOp6
 70
     0
102
RTVSPropertyOp7
 70
     0
102
RTVSPropertyOp8
 70
     0
102
RTVSPropertyOp9
 70
     0
102
RTVSPropertyOp10
 70
     0
102
RTVSPropertyOp11
 70
     0
102
RTVSPropertyOp12
 70
     0
102
RTVSPropertyOp13
 70
     0
102
RTVSPropertyOp14
 70
     2
102
RTVSPropertyOp15
 70
     0
102
RTVSPropertyOp16
 70
     0
102
RTVSPropertyOp17
 70
     0
102
RTVSPropertyOp18
 70
     0
102
RTVSPropertyOp19
 70
     0
102
RTVSPropertyOp20
 70
     0
102
RTVSPropertyOp21
 70
     0
102
RTVSPropertyOp22
 70
     0
102
RTVSPropertyOp23
 70
     0
102
RTVSPropertyOp24
 70
     0
102
RTVSPropertyOp25
 70
     0
102
RTVSPropertyOp26
 70
     0
102
RTVSPropertyOp27
 70
     0
  0
XRECORD
  5
17E3
102
{ACAD_REACTORS
330
17E2
102
}
330
17E2
100
AcDbXrecord
280
     1
102
RTVSPropertyOp0
 70
     1
102
RTVSPropertyOp1
 70
     1
102
RTVSPropertyOp2
 70
     1
102
RTVSPropertyOp3
 70
     1
102
RTVSPropertyOp4
 70
     1
102
RTVSPropertyOp5
 70
     1
102
RTVSPropertyOp6
 70
     1
102
RTVSPropertyOp7
 70
     1
102
RTVSPropertyOp8
 70
     1
102
RTVSPropertyOp9
 70
     1
102
RTVSPropertyOp10
 70
     1
102
RTVSPropertyOp11
 70
     1
102
RTVSPropertyOp12
 70
     1
102
RTVSPropertyOp13
 70
     1
102
RTVSPropertyOp14
 70
     1
102
RTVSPropertyOp15
 70
     1
102
RTVSPropertyOp16
 70
     1
102
RTVSPropertyOp17
 70
     1
102
RTVSPropertyOp18
 70
     1
102
RTVSPropertyOp19
 70
     1
102
RTVSPropertyOp20
 70
     1
102
RTVSPropertyOp21
 70
     1
102
RTVSPropertyOp22
 70
     1
102
RTVSPropertyOp23
 70
     1
102
RTVSPropertyOp24
 70
     1
102
RTVSPropertyOp25
 70
     1
102
RTVSPropertyOp26
 70
     1
102
RTVSPropertyOp27
 70
     1
  0
XRECORD
  5
17C7
102
{ACAD_REACTORS
330
17C6
102
}
330
17C6
100
AcDbXrecord
280
     1
102
RTVSPropertyOp0
 70
     1
102
RTVSPropertyOp1
 70
     1
102
RTVSPropertyOp2
 70
     1
102
RTVSPropertyOp3
 70
     1
102
RTVSPropertyOp4
 70
     1
102
RTVSPropertyOp5
 70
     1
102
RTVSPropertyOp6
 70
     1
102
RTVSPropertyOp7
 70
     1
102
RTVSPropertyOp8
 70
     1
102
RTVSPropertyOp9
 70
     1
102
RTVSPropertyOp10
 70
     1
102
RTVSPropertyOp11
 70
     1
102
RTVSPropertyOp12
 70
     1
102
RTVSPropertyOp13
 70
     1
102
RTVSPropertyOp14
 70
     1
102
RTVSPropertyOp15
 70
     1
102
RTVSPropertyOp16
 70
     1
102
RTVSPropertyOp17
 70
     1
102
RTVSPropertyOp18
 70
     1
102
RTVSPropertyOp19
 70
     1
102
RTVSPropertyOp20
 70
     1
102
RTVSPropertyOp21
 70
     1
102
RTVSPropertyOp22
 70
     1
102
RTVSPropertyOp23
 70
     1
102
RTVSPropertyOp24
 70
     1
102
RTVSPropertyOp25
 70
     1
102
RTVSPropertyOp26
 70
     1
102
RTVSPropertyOp27
 70
     1
  0
XRECORD
  5
17C9
102
{ACAD_REACTORS
330
17C8
102
}
330
17C8
100
AcDbXrecord
280
     1
102
RTVSPropertyOp0
 70
     1
102
RTVSPropertyOp1
 70
     1
102
RTVSPropertyOp2
 70
     1
102
RTVSPropertyOp3
 70
     1
102
RTVSPropertyOp4
 70
     1
102
RTVSPropertyOp5
 70
     1
102
RTVSPropertyOp6
 70
     1
102
RTVSPropertyOp7
 70
     1
102
RTVSPropertyOp8
 70
     1
102
RTVSPropertyOp9
 70
     1
102
RTVSPropertyOp10
 70
     1
102
RTVSPropertyOp11
 70
     1
102
RTVSPropertyOp12
 70
     1
102
RTVSPropertyOp13
 70
     1
102
RTVSPropertyOp14
 70
     1
102
RTVSPropertyOp15
 70
     1
102
RTVSPropertyOp16
 70
     1
102
RTVSPropertyOp17
 70
     1
102
RTVSPropertyOp18
 70
     1
102
RTVSPropertyOp19
 70
     1
102
RTVSPropertyOp20
 70
     1
102
RTVSPropertyOp21
 70
     1
102
RTVSPropertyOp22
 70
     1
102
RTVSPropertyOp23
 70
     1
102
RTVSPropertyOp24
 70
     1
102
RTVSPropertyOp25
 70
     1
102
RTVSPropertyOp26
 70
     1
102
RTVSPropertyOp27
 70
     1
  0
XRECORD
  5
17CB
102
{ACAD_REACTORS
330
17CA
102
}
330
17CA
100
AcDbXrecord
280
     1
102
RTVSPropertyOp0
 70
     1
102
RTVSPropertyOp1
 70
     1
102
RTVSPropertyOp2
 70
     1
102
RTVSPropertyOp3
 70
     1
102
RTVSPropertyOp4
 70
     1
102
RTVSPropertyOp5
 70
     1
102
RTVSPropertyOp6
 70
     1
102
RTVSPropertyOp7
 70
     1
102
RTVSPropertyOp8
 70
     1
102
RTVSPropertyOp9
 70
     1
102
RTVSPropertyOp10
 70
     1
102
RTVSPropertyOp11
 70
     1
102
RTVSPropertyOp12
 70
     1
102
RTVSPropertyOp13
 70
     1
102
RTVSPropertyOp14
 70
     1
102
RTVSPropertyOp15
 70
     1
102
RTVSPropertyOp16
 70
     1
102
RTVSPropertyOp17
 70
     1
102
RTVSPropertyOp18
 70
     1
102
RTVSPropertyOp19
 70
     1
102
RTVSPropertyOp20
 70
     1
102
RTVSPropertyOp21
 70
     1
102
RTVSPropertyOp22
 70
     1
102
RTVSPropertyOp23
 70
     1
102
RTVSPropertyOp24
 70
     1
102
RTVSPropertyOp25
 70
     1
102
RTVSPropertyOp26
 70
     1
102
RTVSPropertyOp27
 70
     1
  0
XRECORD
  5
17CD
102
{ACAD_REACTORS
330
17CC
102
}
330
17CC
100
AcDbXrecord
280
     1
102
RTVSPropertyOp0
 70
     1
102
RTVSPropertyOp1
 70
     1
102
RTVSPropertyOp2
 70
     1
102
RTVSPropertyOp3
 70
     1
102
RTVSPropertyOp4
 70
     1
102
RTVSPropertyOp5
 70
     1
102
RTVSPropertyOp6
 70
     1
102
RTVSPropertyOp7
 70
     1
102
RTVSPropertyOp8
 70
     1
102
RTVSPropertyOp9
 70
     1
102
RTVSPropertyOp10
 70
     1
102
RTVSPropertyOp11
 70
     1
102
RTVSPropertyOp12
 70
     1
102
RTVSPropertyOp13
 70
     1
102
RTVSPropertyOp14
 70
     1
102
RTVSPropertyOp15
 70
     1
102
RTVSPropertyOp16
 70
     1
102
RTVSPropertyOp17
 70
     1
102
RTVSPropertyOp18
 70
     1
102
RTVSPropertyOp19
 70
     1
102
RTVSPropertyOp20
 70
     1
102
RTVSPropertyOp21
 70
     1
102
RTVSPropertyOp22
 70
     1
102
RTVSPropertyOp23
 70
     1
102
RTVSPropertyOp24
 70
     1
102
RTVSPropertyOp25
 70
     1
102
RTVSPropertyOp26
 70
     1
102
RTVSPropertyOp27
 70
     1
  0
XRECORD
  5
17E7
102
{ACAD_REACTORS
330
17E6
102
}
330
17E6
100
AcDbXrecord
280
     1
102
RTVSPropertyOp0
 70
     0
102
RTVSPropertyOp1
 70
     0
102
RTVSPropertyOp2
 70
     0
102
RTVSPropertyOp3
 70
     0
102
RTVSPropertyOp4
 70
     0
102
RTVSPropertyOp5
 70
     0
102
RTVSPropertyOp6
 70
     0
102
RTVSPropertyOp7
 70
     0
102
RTVSPropertyOp8
 70
     0
102
RTVSPropertyOp9
 70
     0
102
RTVSPropertyOp10
 70
     0
102
RTVSPropertyOp11
 70
     0
102
RTVSPropertyOp12
 70
     0
102
RTVSPropertyOp13
 70
     0
102
RTVSPropertyOp14
 70
     2
102
RTVSPropertyOp15
 70
     0
102
RTVSPropertyOp16
 70
     0
102
RTVSPropertyOp17
 70
     0
102
RTVSPropertyOp18
 70
     0
102
RTVSPropertyOp19
 70
     0
102
RTVSPropertyOp20
 70
     0
102
RTVSPropertyOp21
 70
     0
102
RTVSPropertyOp22
 70
     0
102
RTVSPropertyOp23
 70
     0
102
RTVSPropertyOp24
 70
     0
102
RTVSPropertyOp25
 70
     0
102
RTVSPropertyOp26
 70
     0
102
RTVSPropertyOp27
 70
     0
  0
XRECORD
  5
17E1
102
{ACAD_REACTORS
330
17E0
102
}
330
17E0
100
AcDbXrecord
280
     1
102
RTVSPropertyOp0
 70
     1
102
RTVSPropertyOp1
 70
     1
102
RTVSPropertyOp2
 70
     1
102
RTVSPropertyOp3
 70
     1
102
RTVSPropertyOp4
 70
     1
102
RTVSPropertyOp5
 70
     1
102
RTVSPropertyOp6
 70
     1
102
RTVSPropertyOp7
 70
     1
102
RTVSPropertyOp8
 70
     1
102
RTVSPropertyOp9
 70
     1
102
RTVSPropertyOp10
 70
     1
102
RTVSPropertyOp11
 70
     1
102
RTVSPropertyOp12
 70
     1
102
RTVSPropertyOp13
 70
     1
102
RTVSPropertyOp14
 70
     1
102
RTVSPropertyOp15
 70
     1
102
RTVSPropertyOp16
 70
     1
102
RTVSPropertyOp17
 70
     1
102
RTVSPropertyOp18
 70
     1
102
RTVSPropertyOp19
 70
     1
102
RTVSPropertyOp20
 70
     1
102
RTVSPropertyOp21
 70
     1
102
RTVSPropertyOp22
 70
     1
102
RTVSPropertyOp23
 70
     1
102
RTVSPropertyOp24
 70
     1
102
RTVSPropertyOp25
 70
     1
102
RTVSPropertyOp26
 70
     1
102
RTVSPropertyOp27
 70
     1
  0
XRECORD
  5
17E9
102
{ACAD_REACTORS
330
17E8
102
}
330
17E8
100
AcDbXrecord
280
     1
102
RTVSPropertyOp0
 70
     0
102
RTVSPropertyOp1
 70
     0
102
RTVSPropertyOp2
 70
     0
102
RTVSPropertyOp3
 70
     0
102
RTVSPropertyOp4
 70
     0
102
RTVSPropertyOp5
 70
     0
102
RTVSPropertyOp6
 70
     0
102
RTVSPropertyOp7
 70
     0
102
RTVSPropertyOp8
 70
     0
102
RTVSPropertyOp9
 70
     0
102
RTVSPropertyOp10
 70
     0
102
RTVSPropertyOp11
 70
     0
102
RTVSPropertyOp12
 70
     0
102
RTVSPropertyOp13
 70
     0
102
RTVSPropertyOp14
 70
     2
102
RTVSPropertyOp15
 70
     0
102
RTVSPropertyOp16
 70
     0
102
RTVSPropertyOp17
 70
     0
102
RTVSPropertyOp18
 70
     0
102
RTVSPropertyOp19
 70
     0
102
RTVSPropertyOp20
 70
     0
102
RTVSPropertyOp21
 70
     0
102
RTVSPropertyOp22
 70
     0
102
RTVSPropertyOp23
 70
     0
102
RTVSPropertyOp24
 70
     0
102
RTVSPropertyOp25
 70
     0
102
RTVSPropertyOp26
 70
     0
102
RTVSPropertyOp27
 70
     0
  0
XRECORD
  5
17D9
102
{ACAD_REACTORS
330
17D8
102
}
330
17D8
100
AcDbXrecord
280
     1
102
RTVSPropertyOp0
 70
     1
102
RTVSPropertyOp1
 70
     1
102
RTVSPropertyOp2
 70
     1
102
RTVSPropertyOp3
 70
     1
102
RTVSPropertyOp4
 70
     1
102
RTVSPropertyOp5
 70
     1
102
RTVSPropertyOp6
 70
     1
102
RTVSPropertyOp7
 70
     1
102
RTVSPropertyOp8
 70
     1
102
RTVSPropertyOp9
 70
     1
102
RTVSPropertyOp10
 70
     1
102
RTVSPropertyOp11
 70
     1
102
RTVSPropertyOp12
 70
     1
102
RTVSPropertyOp13
 70
     1
102
RTVSPropertyOp14
 70
     1
102
RTVSPropertyOp15
 70
     1
102
RTVSPropertyOp16
 70
     1
102
RTVSPropertyOp17
 70
     1
102
RTVSPropertyOp18
 70
     1
102
RTVSPropertyOp19
 70
     1
102
RTVSPropertyOp20
 70
     1
102
RTVSPropertyOp21
 70
     1
102
RTVSPropertyOp22
 70
     1
102
RTVSPropertyOp23
 70
     1
102
RTVSPropertyOp24
 70
     1
102
RTVSPropertyOp25
 70
     1
102
RTVSPropertyOp26
 70
     1
102
RTVSPropertyOp27
 70
     1
  0
XRECORD
  5
17DF
102
{ACAD_REACTORS
330
17DE
102
}
330
17DE
100
AcDbXrecord
280
     1
102
RTVSPropertyOp0
 70
     1
102
RTVSPropertyOp1
 70
     1
102
RTVSPropertyOp2
 70
     1
102
RTVSPropertyOp3
 70
     1
102
RTVSPropertyOp4
 70
     1
102
RTVSPropertyOp5
 70
     1
102
RTVSPropertyOp6
 70
     1
102
RTVSPropertyOp7
 70
     1
102
RTVSPropertyOp8
 70
     1
102
RTVSPropertyOp9
 70
     1
102
RTVSPropertyOp10
 70
     1
102
RTVSPropertyOp11
 70
     1
102
RTVSPropertyOp12
 70
     1
102
RTVSPropertyOp13
 70
     1
102
RTVSPropertyOp14
 70
     1
102
RTVSPropertyOp15
 70
     1
102
RTVSPropertyOp16
 70
     1
102
RTVSPropertyOp17
 70
     1
102
RTVSPropertyOp18
 70
     1
102
RTVSPropertyOp19
 70
     1
102
RTVSPropertyOp20
 70
     1
102
RTVSPropertyOp21
 70
     1
102
RTVSPropertyOp22
 70
     1
102
RTVSPropertyOp23
 70
     1
102
RTVSPropertyOp24
 70
     1
102
RTVSPropertyOp25
 70
     1
102
RTVSPropertyOp26
 70
     1
102
RTVSPropertyOp27
 70
     1
  0
ENDSEC
  0
EOF
