  0
SECTION
  2
HEADER
  9
$ACADVER
  1
AC1027
  9
$ACADMAINTVER
 70
    57
  9
$DWGCODEPAGE
  3
ANSI_1252
  9
$LASTSAVEDBY
  1
dwiegand
  9
$CUSTOMPROPERTYTAG
  1
AmdtFileType
  9
$CUSTOMPROPERTY
  1
84
  9
$REQUIREDVERSIONS
160
                 0
  9
$INSBASE
 10
0.0
 20
0.0
 30
0.0
  9
$EXTMIN
 10
28376.63362386589
 20
4737.773551901479
 30
0.0
  9
$EXTMAX
 10
30281.53587039799
 20
6680.772299763323
 30
0.0
  9
$LIMMIN
 10
0.0
 20
0.0
  9
$LIMMAX
 10
420.0
 20
297.0
  9
$ORTHOMODE
 70
     0
  9
$REGENMODE
 70
     1
  9
$FILLMODE
 70
     1
  9
$QTEXTMODE
 70
     0
  9
$MIRRTEXT
 70
     1
  9
$LTSCALE
 40
1.0
  9
$ATTMODE
 70
     1
  9
$TEXTSIZE
 40
2.5
  9
$TRACEWID
 40
1.0
  9
$TEXTSTYLE
  7
STANDARD
  9
$CLAYER
  8
0
  9
$CELTYPE
  6
ByLayer
  9
$CECOLOR
 62
   256
  9
$CELTSCALE
 40
1.0
  9
$DISPSILH
 70
     0
  9
$DIMSCALE
 40
1.0
  9
$DIMASZ
 40
2.5
  9
$DIMEXO
 40
1.0
  9
$DIMDLI
 40
10.0
  9
$DIMRND
 40
0.0
  9
$DIMDLE
 40
0.0
  9
$DIMEXE
 40
1.0
  9
$DIMTP
 40
0.1
  9
$DIMTM
 40
0.1
  9
$DIMTXT
 40
3.5
  9
$DIMCEN
 40
0.0
  9
$DIMTSZ
 40
0.0
  9
$DIMTOL
 70
     0
  9
$DIMLIM
 70
     0
  9
$DIMTIH
 70
     0
  9
$DIMTOH
 70
     0
  9
$DIMSE1
 70
     0
  9
$DIMSE2
 70
     0
  9
$DIMTAD
 70
     1
  9
$DIMZIN
 70
     8
  9
$DIMBLK
  1

  9
$DIMASO
 70
     1
  9
$DIMSHO
 70
     1
  9
$DIMPOST
  1

  9
$DIMAPOST
  1
"
  9
$DIMALT
 70
     0
  9
$DIMALTD
 70
     2
  9
$DIMALTF
 40
0.0393701
  9
$DIMLFAC
 40
1.0
  9
$DIMTOFL
 70
     1
  9
$DIMTVP
 40
0.0
  9
$DIMTIX
 70
     0
  9
$DIMSOXD
 70
     0
  9
$DIMSAH
 70
     0
  9
$DIMBLK1
  1

  9
$DIMBLK2
  1

  9
$DIMSTYLE
  2
AM_DIN
  9
$DIMCLRD
 70
   256
  9
$DIMCLRE
 70
   256
  9
$DIMCLRT
 70
     2
  9
$DIMTFAC
 40
0.71
  9
$DIMGAP
 40
1.5
  9
$DIMJUST
 70
     0
  9
$DIMSD1
 70
     0
  9
$DIMSD2
 70
     0
  9
$DIMTOLJ
 70
     0
  9
$DIMTZIN
 70
     8
  9
$DIMALTZ
 70
     0
  9
$DIMALTTZ
 70
     0
  9
$DIMUPT
 70
     0
  9
$DIMDEC
 70
     2
  9
$DIMTDEC
 70
     3
  9
$DIMALTU
 70
     2
  9
$DIMALTTD
 70
     4
  9
$DIMTXSTY
  7
STANDARD
  9
$DIMAUNIT
 70
     0
  9
$DIMADEC
 70
     0
  9
$DIMALTRND
 40
0.0
  9
$DIMAZIN
 70
     2
  9
$DIMDSEP
 70
    46
  9
$DIMATFIT
 70
     3
  9
$DIMFRAC
 70
     0
  9
$DIMLDRBLK
  1

  9
$DIMLUNIT
 70
     2
  9
$DIMLWD
 70
    -1
  9
$DIMLWE
 70
    -1
  9
$DIMTMOVE
 70
     0
  9
$DIMFXL
 40
1.0
  9
$DIMFXLON
 70
     0
  9
$DIMJOGANG
 40
1.570796326794896
  9
$DIMTFILL
 70
     0
  9
$DIMTFILLCLR
 70
     0
  9
$DIMARCSYM
 70
     1
  9
$DIMLTYPE
  6

  9
$DIMLTEX1
  6

  9
$DIMLTEX2
  6

  9
$DIMTXTDIRECTION
 70
     0
  9
$LUNITS
 70
     2
  9
$LUPREC
 70
     2
  9
$SKETCHINC
 40
1.0
  9
$FILLETRAD
 40
2.5
  9
$AUNITS
 70
     0
  9
$AUPREC
 70
     0
  9
$MENU
  1
.
  9
$ELEVATION
 40
0.0
  9
$PELEVATION
 40
0.0
  9
$THICKNESS
 40
0.0
  9
$LIMCHECK
 70
     0
  9
$CHAMFERA
 40
2.5
  9
$CHAMFERB
 40
2.5
  9
$CHAMFERC
 40
20.0
  9
$CHAMFERD
 40
0.0
  9
$SKPOLY
 70
     0
  9
$TDCREATE
 40
2454705.369733611
  9
$TDUCREATE
 40
2454705.286400278
  9
$TDUPDATE
 40
2457225.671741123
  9
$TDUUPDATE
 40
2457225.588407790
  9
$TDINDWG
 40
0.2735247685
  9
$TDUSRTIMER
 40
0.2735247685
  9
$USRTIMER
 70
     1
  9
$ANGBASE
 50
0.0
  9
$ANGDIR
 70
     0
  9
$PDMODE
 70
     0
  9
$PDSIZE
 40
0.0
  9
$PLINEWID
 40
0.0
  9
$SPLFRAME
 70
     0
  9
$SPLINETYPE
 70
     6
  9
$SPLINESEGS
 70
     8
  9
$HANDSEED
  5
72D0
  9
$SURFTAB1
 70
     6
  9
$SURFTAB2
 70
     6
  9
$SURFTYPE
 70
     6
  9
$SURFU
 70
     6
  9
$SURFV
 70
     6
  9
$UCSBASE
  2

  9
$UCSNAME
  2

  9
$UCSORG
 10
0.0
 20
0.0
 30
0.0
  9
$UCSXDIR
 10
1.0
 20
0.0
 30
0.0
  9
$UCSYDIR
 10
0.0
 20
1.0
 30
0.0
  9
$UCSORTHOREF
  2

  9
$UCSORTHOVIEW
 70
     0
  9
$UCSORGTOP
 10
0.0
 20
0.0
 30
0.0
  9
$UCSORGBOTTOM
 10
0.0
 20
0.0
 30
0.0
  9
$UCSORGLEFT
 10
0.0
 20
0.0
 30
0.0
  9
$UCSORGRIGHT
 10
0.0
 20
0.0
 30
0.0
  9
$UCSORGFRONT
 10
0.0
 20
0.0
 30
0.0
  9
$UCSORGBACK
 10
0.0
 20
0.0
 30
0.0
  9
$PUCSBASE
  2

  9
$PUCSNAME
  2

  9
$PUCSORG
 10
0.0
 20
0.0
 30
0.0
  9
$PUCSXDIR
 10
1.0
 20
0.0
 30
0.0
  9
$PUCSYDIR
 10
0.0
 20
1.0
 30
0.0
  9
$PUCSORTHOREF
  2

  9
$PUCSORTHOVIEW
 70
     0
  9
$PUCSORGTOP
 10
0.0
 20
0.0
 30
0.0
  9
$PUCSORGBOTTOM
 10
0.0
 20
0.0
 30
0.0
  9
$PUCSORGLEFT
 10
0.0
 20
0.0
 30
0.0
  9
$PUCSORGRIGHT
 10
0.0
 20
0.0
 30
0.0
  9
$PUCSORGFRONT
 10
0.0
 20
0.0
 30
0.0
  9
$PUCSORGBACK
 10
0.0
 20
0.0
 30
0.0
  9
$USERI1
 70
     0
  9
$USERI2
 70
     0
  9
$USERI3
 70
     0
  9
$USERI4
 70
     0
  9
$USERI5
 70
     0
  9
$USERR1
 40
0.0
  9
$USERR2
 40
0.0
  9
$USERR3
 40
0.0
  9
$USERR4
 40
0.0
  9
$USERR5
 40
0.0
  9
$WORLDVIEW
 70
     1
  9
$SHADEDGE
 70
     3
  9
$SHADEDIF
 70
    70
  9
$TILEMODE
 70
     1
  9
$MAXACTVP
 70
    64
  9
$PINSBASE
 10
0.0
 20
0.0
 30
0.0
  9
$PLIMCHECK
 70
     0
  9
$PEXTMIN
 10
1.000000000000000E+20
 20
1.000000000000000E+20
 30
1.000000000000000E+20
  9
$PEXTMAX
 10
-1.000000000000000E+20
 20
-1.000000000000000E+20
 30
-1.000000000000000E+20
  9
$PLIMMIN
 10
0.0
 20
0.0
  9
$PLIMMAX
 10
420.0
 20
297.0
  9
$UNITMODE
 70
     0
  9
$VISRETAIN
 70
     1
  9
$PLINEGEN
 70
     0
  9
$PSLTSCALE
 70
     1
  9
$TREEDEPTH
 70
  3020
  9
$CMLSTYLE
  2
Standard
  9
$CMLJUST
 70
     0
  9
$CMLSCALE
 40
20.0
  9
$PROXYGRAPHICS
 70
     1
  9
$MEASUREMENT
 70
     1
  9
$CELWEIGHT
370
    -1
  9
$ENDCAPS
280
     0
  9
$JOINSTYLE
280
     0
  9
$LWDISPLAY
290
     0
  9
$INSUNITS
 70
     4
  9
$HYPERLINKBASE
  1

  9
$STYLESHEET
  1
MONOCHROME 09+15.CTB
  9
$XEDIT
290
     1
  9
$CEPSNTYPE
380
     0
  9
$PSTYLEMODE
290
     1
  9
$FINGERPRINTGUID
  2
{D5D76390-38D3-4D8A-B628-F0CAAA001618}
  9
$VERSIONGUID
  2
{574490E3-BEFD-4695-A38E-037D6C8979CD}
  9
$EXTNAMES
290
     1
  9
$PSVPSCALE
 40
0.0
  9
$OLESTARTUP
290
     0
  9
$SORTENTS
280
   127
  9
$INDEXCTL
280
     0
  9
$HIDETEXT
280
     0
  9
$XCLIPFRAME
280
     2
  9
$HALOGAP
280
     0
  9
$OBSCOLOR
 70
   257
  9
$OBSLTYPE
280
     0
  9
$INTERSECTIONDISPLAY
280
     0
  9
$INTERSECTIONCOLOR
 70
   257
  9
$DIMASSOC
280
     2
  9
$PROJECTNAME
  1

  9
$CAMERADISPLAY
290
     0
  9
$LENSLENGTH
 40
50.0
  9
$CAMERAHEIGHT
 40
0.0
  9
$STEPSPERSEC
 40
2.0
  9
$STEPSIZE
 40
6.0
  9
$3DDWFPREC
 40
2.0
  9
$PSOLWIDTH
 40
0.25
  9
$PSOLHEIGHT
 40
4.0
  9
$LOFTANG1
 40
1.570796326794896
  9
$LOFTANG2
 40
1.570796326794896
  9
$LOFTMAG1
 40
0.0
  9
$LOFTMAG2
 40
0.0
  9
$LOFTPARAM
 70
     7
  9
$LOFTNORMALS
280
     1
  9
$LATITUDE
 40
37.795
  9
$LONGITUDE
 40
-122.394
  9
$NORTHDIRECTION
 40
0.0
  9
$TIMEZONE
 70
 -8000
  9
$LIGHTGLYPHDISPLAY
280
     1
  9
$TILEMODELIGHTSYNCH
280
     1
  9
$CMATERIAL
347
64D6
  9
$SOLIDHIST
280
     0
  9
$SHOWHIST
280
     1
  9
$DWFFRAME
280
     2
  9
$DGNFRAME
280
     0
  9
$REALWORLDSCALE
290
     1
  9
$INTERFERECOLOR
 62
     1
  9
$INTERFEREOBJVS
345
64F8
  9
$INTERFEREVPVS
346
6E25
  9
$CSHADOW
280
     0
  9
$SHADOWPLANELOCATION
 40
0.0
  0
ENDSEC
  0
SECTION
  2
CLASSES
  0
CLASS
  1
ACDBDICTIONARYWDFLT
  2
AcDbDictionaryWithDefault
  3
ObjectDBX Classes
 90
        0
 91
        1
280
     0
281
     0
  0
CLASS
  1
AMGSETTINGSOBJ
  2
AmgSettingsObj
  3
"AcadM|Product Description: AutoCAD Mechanical|Company: Autodesk, Inc."
 90
     1024
 91
        2
280
     0
281
     0
  0
CLASS
  1
ACME_DOCUMENT
  2
AcMeDbDoc
  3
AcMeServices
 90
     1024
 91
        1
280
     0
281
     0
  0
CLASS
  1
ACMESCOPE
  2
AcMeScope
  3
AcMeServices
 90
     1024
 91
        1
280
     0
281
     0
  0
CLASS
  1
ACMECOMMANDHISTORY
  2
AcMeCommandHistory
  3
AcMeServices
 90
     1024
 91
        1
280
     0
281
     0
  0
CLASS
  1
DICTIONARYVAR
  2
AcDbDictionaryVar
  3
ObjectDBX Classes
 90
        0
 91
       38
280
     0
281
     0
  0
CLASS
  1
ACIMSYSVARMAN
  2
AcImSysVarManager
  3
AcMeServices
 90
     1024
 91
        3
280
     0
281
     0
  0
CLASS
  1
ACIMREALSYSVAR
  2
AcImRealSysVar
  3
AcMeServices
 90
     1024
 91
        0
280
     0
281
     0
  0
CLASS
  1
ACIMINTSYSVAR
  2
AcImIntSysVar
  3
AcMeServices
 90
     1024
 91
        4
280
     0
281
     0
  0
CLASS
  1
ACMEDRAWINGMAN
  2
AcMeDrawingMan
  3
AcMeServices
 90
     1024
 91
        0
280
     0
281
     0
  0
CLASS
  1
ACMEVIEW
  2
AcMeView
  3
AcMeServices
 90
     1024
 91
        0
280
     0
281
     0
  0
CLASS
  1
ACDBENTITYCACHE
  2
AcMeEntityCache
  3
AcMeServices
 90
     1024
 91
        1
280
     0
281
     0
  0
CLASS
  1
GSMANAGER
  2
AcMeGSManager
  3
AcMeServices
 90
        0
 91
        0
280
     0
281
     0
  0
CLASS
  1
AMDTINTERNALREACTOR
  2
AmdtInternalReactor
  3
AcMeServices
 90
     1024
 91
        0
280
     0
281
     0
  0
CLASS
  1
ACMESTATEMGR
  2
AcMeStateMgr
  3
AcMeServices
 90
     1024
 91
        1
280
     0
281
     0
  0
CLASS
  1
ACGREFMASTER
  2
AcGrefMaster
  3
AcAttribServices
 90
     1024
 91
        1
280
     0
281
     0
  0
CLASS
  1
ACME_DATABASE
  2
AcMeDbDatabase
  3
AcMeServices
 90
     1024
 91
        1
280
     0
281
     0
  0
CLASS
  1
ACRFINSADJUSTERMGR
  2
AcRfInsAdjusterMgr
  3
AcMeServices
 90
     1024
 91
        1
280
     0
281
     0
  0
CLASS
  1
ACGREFACADMASTER
  2
AcGrefacadMaster
  3
AcGrefServices
 90
     1024
 91
        1
280
     0
281
     0
  0
CLASS
  1
AMIMASTER
  2
AmiMaster
  3
AmiServices
 90
     1024
 91
        1
280
     0
281
     0
  0
CLASS
  1
ACIMSTRSYSVAR
  2
AcImStrSysVar
  3
AcMeServices
 90
     1024
 91
        5
280
     0
281
     0
  0
CLASS
  1
ACMSTANDARDDIN
  2
AcmStandardDIN
  3
"Amdt_StdImp|Product Description: AutoCAD Mechanical|Company: Autodesk, Inc."
 90
     1024
 91
        0
280
     0
281
     0
  0
CLASS
  1
AMGOBJPROPCFG
  2
AmgObjPropCfg
  3
"AmgLay|Product Description: AutoCAD Mechanical|Company: Autodesk, Inc."
 90
     1024
 91
        1
280
     0
281
     0
  0
CLASS
  1
AMDTEDGESTANDARDDIN
  2
AmdtEdgeStdDIN
  3
"Amdt_StdImp|Product Description: AutoCAD Mechanical|Company: Autodesk, Inc."
 90
     1024
 91
        0
280
     0
281
     0
  0
CLASS
  1
ACMSURFSTANDARDDIN
  2
AcmSurfTextStdDIN
  3
"Amdt_StdImp|Product Description: AutoCAD Mechanical|Company: Autodesk, Inc."
 90
     1024
 91
        0
280
     0
281
     0
  0
CLASS
  1
ACMFCFSTANDARDDIN
  2
AcmFCFStdDIN
  3
"Amdt_StdImp|Product Description: AutoCAD Mechanical|Company: Autodesk, Inc."
 90
     1024
 91
        0
280
     0
281
     0
  0
CLASS
  1
ACMWELDSTANDARDDIN
  2
AcmWeldingStdDIN
  3
"Amdt_StdImp|Product Description: AutoCAD Mechanical|Company: Autodesk, Inc."
 90
     1024
 91
        0
280
     0
281
     0
  0
CLASS
  1
ACMIDSTANDARDDIN
  2
AcmIdStdDIN
  3
"Amdt_StdImp|Product Description: AutoCAD Mechanical|Company: Autodesk, Inc."
 90
     1024
 91
        0
280
     0
281
     0
  0
CLASS
  1
ACMDATUMSTANDARDDIN
  2
AcmDatumStdDIN
  3
"Amdt_StdImp|Product Description: AutoCAD Mechanical|Company: Autodesk, Inc."
 90
     1024
 91
        0
280
     0
281
     0
  0
CLASS
  1
ACMBOMSTANDARDDIN
  2
AcmBOMStdDIN
  3
"Amdt_StdImp|Product Description: AutoCAD Mechanical|Company: Autodesk, Inc."
 90
     1024
 91
        0
280
     0
281
     0
  0
CLASS
  1
ACMDETAILSTANDARDDIN
  2
AmdtDetailSymStdDIN
  3
"Amdt_StdImp|Product Description: AutoCAD Mechanical|Company: Autodesk, Inc."
 90
     1024
 91
        0
280
     0
281
     0
  0
CLASS
  1
ACMSECTIONSTANDARDDIN
  2
AmdtSectionSymStdDIN
  3
"Amdt_StdImp|Product Description: AutoCAD Mechanical|Company: Autodesk, Inc."
 90
     1024
 91
        0
280
     0
281
     0
  0
CLASS
  1
ACMCENTERLINESTANDARDDIN
  2
AmdtCenterLineStdDIN
  3
"Amdt_StdImp|Product Description: AutoCAD Mechanical|Company: Autodesk, Inc."
 90
     1024
 91
        0
280
     0
281
     0
  0
CLASS
  1
ACMTHREADLINESTANDARDDIN
  2
AmdtThreadLineStdDIN
  3
"Amdt_StdImp|Product Description: AutoCAD Mechanical|Company: Autodesk, Inc."
 90
     1024
 91
        0
280
     0
281
     0
  0
CLASS
  1
ACAMGLAYSTD
  2
AcAmgLayStd
  3
"AmgLay|Product Description: AutoCAD Mechanical|Company: Autodesk, Inc."
 90
     1024
 91
        1
280
     0
281
     0
  0
CLASS
  1
ACAMGDIMSTD
  2
AcAmgDimStd
  3
"AmgDim|Product Description: AutoCAD Mechanical|Company: Autodesk, Inc."
 90
     1024
 91
        1
280
     0
281
     0
  0
CLASS
  1
ACAMGTITLESTD
  2
AcAmgTitleStd
  3
"AmgTitle|Product Description: AutoCAD Mechanical|Company: Autodesk, Inc."
 90
     1024
 91
        1
280
     0
281
     0
  0
CLASS
  1
ACMDATADICTIONARY
  2
AcmDataDictionary
  3
"AcmSymBB|Product Description: AutoCAD Mechanical|Company: Autodesk, Inc."
 90
     1024
 91
        1
280
     0
281
     0
  0
CLASS
  1
ACMDATAENTRYBLOCK
  2
AcmDataEntryBlock
  3
AcmSymBB|Product Description: AutoCAD Mechanical|Company: Autodesk, Inc.
 90
     1024
 91
        0
280
     0
281
     0
  0
CLASS
  1
LAYER_INDEX
  2
AcDbLayerIndex
  3
ObjectDBX Classes
 90
        0
 91
        0
280
     0
281
     0
  0
CLASS
  1
IDBUFFER
  2
AcDbIdBuffer
  3
ObjectDBX Classes
 90
        0
 91
        0
280
     0
281
     0
  0
CLASS
  1
ACMNOTESTANDARDDIN
  2
AmdtNoteStdDIN
  3
"Amdt_StdImp|Product Description: AutoCAD Mechanical|Company: Autodesk, Inc."
 90
     1024
 91
        0
280
     0
281
     0
  0
CLASS
  1
ACAMGHOLECHARTSTDDIN
  2
AcAmgHoleChartStdDIN
  3
AmgDim|Product Description: AutoCAD Mechanical|Company: Autodesk, Inc.
 90
     1024
 91
        0
280
     0
281
     0
  0
CLASS
  1
AM_DRAWING_MGR
  2
AcDmDwgMgr
  3
AcMechDwgViewMgmt
 90
     1024
 91
        0
280
     0
281
     0
  0
CLASS
  1
AM_DWG_DOCUMENT
  2
AcDmDwgDocument
  3
AcMechDwgViewMgmt
 90
     1024
 91
        0
280
     0
281
     0
  0
CLASS
  1
AM_DWG_SHEET
  2
AcDmSheet
  3
AcMechDwgViewMgmt
 90
     1024
 91
        0
280
     0
281
     0
  0
CLASS
  1
AM_VIEWDIMPARMAP
  2
AcDmViewDimParMap
  3
AcMechDwgViewMgmt
 90
     1024
 91
        0
280
     0
281
     0
  0
CLASS
  1
AM_DWGMGR_NAME
  2
AcDmDwgMgrName
  3
AcMechDwgViewMgmt
 90
     1024
 91
        0
280
     0
281
     0
  0
CLASS
  1
AMDTMENUSTATEMGR
  2
AmdtMenuStateMgr
  3
McadcomServices
 90
     1024
 91
        1
280
     0
281
     0
  0
CLASS
  1
AMDTMCOMMENUSTATE
  2
AmdtMcomMenuState
  3
McadcomServices
 90
     1024
 91
        1
280
     0
281
     0
  0
CLASS
  1
MAPIAMMOUDLE
  2
MApiAmModule
  3
MApiAmServices
 90
     1024
 91
        1
280
     0
281
     0
  0
CLASS
  1
AMDTADMENUSTATE
  2
AmdtAdMenuState
  3
DesignerServices
 90
     1024
 91
        0
280
     0
281
     0
  0
CLASS
  1
ADAPPL
  2
AcAdAppl
  3
DesignerAssemblies
 90
     1024
 91
        0
280
     0
281
     0
  0
CLASS
  1
DEPMGR
  2
AcAdDepMgr
  3
DesignerAssemblies
 90
     1024
 91
        0
280
     0
281
     0
  0
CLASS
  1
PARAMMGR
  2
AcAdParamMgr
  3
DesignerAssemblies
 90
     1024
 91
        0
280
     0
281
     0
  0
CLASS
  1
PARAMSCOPE
  2
AcAdParamScope
  3
DesignerAssemblies
 90
     1024
 91
        0
280
     0
281
     0
  0
CLASS
  1
NAMEDAPPL
  2
AcAdNamedAppl
  3
DesignerAssemblies
 90
     1024
 91
        0
280
     0
281
     0
  0
CLASS
  1
AMDTDMMENUSTATE
  2
AmdtDmMenuState
  3
AcMechDwgViewMgmt
 90
     1024
 91
        0
280
     0
281
     0
  0
CLASS
  1
AMDTAMMENUSTATE
  2
AmdtAmMenuState
  3
DesignerAssemblies
 90
     1024
 91
        1
280
     0
281
     0
  0
CLASS
  1
ACAMPROJECT
  2
AcAmProject
  3
DesignerAssemblies
 90
     1024
 91
        1
280
     0
281
     0
  0
CLASS
  1
ACAMGRCOMPDEF
  2
AcAmGrCompDef
  3
DesignerAssemblies
 90
     1024
 91
        1
280
     0
281
     0
  0
CLASS
  1
ACCMCONTEXT
  2
AcCmContext
  3
DesignerAssemblies
 90
     1024
 91
        0
280
     0
281
     0
  0
CLASS
  1
ACAMCOMPDEF
  2
AcAmCompDef
  3
DesignerAssemblies
 90
     1024
 91
        1
280
     0
281
     0
  0
CLASS
  1
ACAMCOMPDEFMGR
  2
AcAmCompDefMgr
  3
DesignerAssemblies
 90
     1024
 91
        1
280
     0
281
     0
  0
CLASS
  1
AMCONTEXTMGR
  2
AcAmContextMgr
  3
DesignerAssemblies
 90
     1024
 91
        1
280
     0
281
     0
  0
CLASS
  1
ACAMCONTEXTMODELER
  2
AcAmContextModeler
  3
DesignerAssemblies
 90
     1024
 91
        1
280
     0
281
     0
  0
CLASS
  1
CATALOGSTATE
  2
AcAmCatalogState
  3
DesignerAssemblies
 90
     1024
 91
        0
280
     0
281
     0
  0
CLASS
  1
ACAMGRCOMPDEFSET
  2
AcAmGrCompDefSet
  3
DesignerAssemblies
 90
     1024
 91
        1
280
     0
281
     0
  0
CLASS
  1
AMDTBROWSERDBTAB
  2
AmdtBrowserDbTab
  3
McadcomServices
 90
     1024
 91
        1
280
     0
281
     0
  0
CLASS
  1
CBROWSERAPPOBJECT
  2
CBrowserAppObject
  3
McadcomServices
 90
     1024
 91
        2
280
     0
281
     0
  0
CLASS
  1
DM_PLACEHOLDER
  2
AcDmSelsetPlaceholder
  3
McadcomServices
 90
     1024
 91
        1
280
     0
281
     0
  0
CLASS
  1
TABLESTYLE
  2
AcDbTableStyle
  3
ObjectDBX Classes
 90
     4095
 91
        1
280
     0
281
     0
  0
CLASS
  1
VAACXREFPANELOBJECT
  2
VaAcXREFPanelObject
  3
VAAC_ADDIN
 90
        0
 91
        0
280
     0
281
     0
  0
CLASS
  1
VAACIMAGEINVENTORY
  2
VaAcImageInventory
  3
VAAC_ADDIN
 90
        0
 91
        0
280
     0
281
     0
  0
CLASS
  1
AMDTNOTETEMPLATEDB
  2
AmdtNoteTemplateDB
  3
AcmSymBB|Product Description: AutoCAD Mechanical|Company: Autodesk, Inc.
 90
     1024
 91
        7
280
     0
281
     0
  0
CLASS
  1
ACAMGFILTERDAT
  2
AcAmgFilterDat
  3
"AcadM|Product Description: AutoCAD Mechanical|Company: Autodesk, Inc."
 90
     1024
 91
        0
280
     0
281
     0
  0
CLASS
  1
ACMBOM
  2
AcmBom
  3
"AcmSymBB|Product Description: AutoCAD Mechanical|Company: Autodesk, Inc."
 90
     1024
 91
        0
280
     0
281
     0
  0
CLASS
  1
AMDTFORMULAUPDATEDISPATCHER
  2
AmdtFormulaUpdateDispatcher
  3
AcMeServices
 90
     1024
 91
        0
280
     0
281
     0
  0
CLASS
  1
SORTENTSTABLE
  2
AcDbSortentsTable
  3
ObjectDBX Classes
 90
        0
 91
        1
280
     0
281
     0
  0
CLASS
  1
DIMASSOC
  2
AcDbDimAssoc
  3
"AcDbDimAssoc|Product Desc:     AcDim ARX App For Dimension|Company:          Autodesk, Inc.|WEB Address:      www.autodesk.com"
 90
        0
 91
       11
280
     0
281
     0
  0
CLASS
  1
ACMSTANDARDANSI
  2
AcmStandardANSI
  3
"Amdt_StdImp|Product Description: AutoCAD Mechanical|Company: Autodesk, Inc."
 90
     1024
 91
        0
280
     0
281
     0
  0
CLASS
  1
ACMSURFSTANDARDANSI
  2
AcmSurfTextStdANSI
  3
"Amdt_StdImp|Product Description: AutoCAD Mechanical|Company: Autodesk, Inc."
 90
     1024
 91
        0
280
     0
281
     0
  0
CLASS
  1
ACMFCFSTANDARDANSI
  2
AcmFCFStdANSI
  3
"Amdt_StdImp|Product Description: AutoCAD Mechanical|Company: Autodesk, Inc."
 90
     1024
 91
        0
280
     0
281
     0
  0
CLASS
  1
ACMWELDSTANDARDANSI
  2
AcmWeldingStdANSI
  3
"Amdt_StdImp|Product Description: AutoCAD Mechanical|Company: Autodesk, Inc."
 90
     1024
 91
        0
280
     0
281
     0
  0
CLASS
  1
ACMIDSTANDARDANSI
  2
AcmIdStdANSI
  3
"Amdt_StdImp|Product Description: AutoCAD Mechanical|Company: Autodesk, Inc."
 90
     1024
 91
        0
280
     0
281
     0
  0
CLASS
  1
ACMDATUMSTANDARDANSI
  2
AcmDatumStdANSI
  3
"Amdt_StdImp|Product Description: AutoCAD Mechanical|Company: Autodesk, Inc."
 90
     1024
 91
        0
280
     0
281
     0
  0
CLASS
  1
ACMBOMSTANDARDANSI
  2
AcmBOMStdANSI
  3
"Amdt_StdImp|Product Description: AutoCAD Mechanical|Company: Autodesk, Inc."
 90
     1024
 91
        0
280
     0
281
     0
  0
CLASS
  1
ACMDETAILSTANDARDANSI
  2
AmdtDetailSymStdANSI
  3
"Amdt_StdImp|Product Description: AutoCAD Mechanical|Company: Autodesk, Inc."
 90
     1024
 91
        0
280
     0
281
     0
  0
CLASS
  1
ACMSECTIONSTANDARDANSI
  2
AmdtSectionSymStdANSI
  3
"Amdt_StdImp|Product Description: AutoCAD Mechanical|Company: Autodesk, Inc."
 90
     1024
 91
        0
280
     0
281
     0
  0
CLASS
  1
ACMCENTERLINESTANDARDANSI
  2
AmdtCenterLineStdANSI
  3
"Amdt_StdImp|Product Description: AutoCAD Mechanical|Company: Autodesk, Inc."
 90
     1024
 91
        0
280
     0
281
     0
  0
CLASS
  1
ACMTHREADLINESTANDARDANSI
  2
AmdtThreadLineStdANSI
  3
"Amdt_StdImp|Product Description: AutoCAD Mechanical|Company: Autodesk, Inc."
 90
     1024
 91
        0
280
     0
281
     0
  0
CLASS
  1
ACMNOTESTANDARDANSI
  2
AmdtNoteStdANSI
  3
"Amdt_StdImp|Product Description: AutoCAD Mechanical|Company: Autodesk, Inc."
 90
     1024
 91
        0
280
     0
281
     0
  0
CLASS
  1
ACAMGHOLECHARTSTDANSI
  2
AcAmgHoleChartStdANSI
  3
AmgDim|Product Description: AutoCAD Mechanical|Company: Autodesk, Inc.
 90
     1024
 91
        0
280
     0
281
     0
  0
CLASS
  1
ACRFATTGENMGR
  2
AcRfAttGeneralMgr
  3
AcAttribServices
 90
     1024
 91
        0
280
     0
281
     0
  0
CLASS
  1
MATERIAL
  2
AcDbMaterial
  3
ObjectDBX Classes
 90
     1153
 91
        3
280
     0
281
     0
  0
CLASS
  1
VISUALSTYLE
  2
AcDbVisualStyle
  3
ObjectDBX Classes
 90
     4095
 91
       26
280
     0
281
     0
  0
CLASS
  1
SCALE
  2
AcDbScale
  3
ObjectDBX Classes
 90
     1153
 91
       17
280
     0
281
     0
  0
CLASS
  1
MLEADERSTYLE
  2
AcDbMLeaderStyle
  3
ACDB_MLEADERSTYLE_CLASS
 90
     4095
 91
        1
280
     0
281
     0
  0
CLASS
  1
AMDTEDGESTANDARDDIN13715
  2
AmdtEdgeStdDIN13715
  3
"Amdt_StdImp|Product Description: AutoCAD Mechanical|Company: Autodesk, Inc."
 90
     1024
 91
        0
280
     0
281
     0
  0
CLASS
  1
ACMSURFSTANDARDDIN2002
  2
AcmSurfTextStdDIN2002
  3
"Amdt_StdImp|Product Description: AutoCAD Mechanical|Company: Autodesk, Inc."
 90
     1024
 91
        0
280
     0
281
     0
  0
CLASS
  1
ACMTAPERSTANDARDDIN
  2
AcmTaperStdDIN
  3
"Amdt_StdImp|Product Description: AutoCAD Mechanical|Company: Autodesk, Inc."
 90
     1024
 91
        0
280
     0
281
     0
  0
CLASS
  1
ACMANOOTATIONVIEWSTANDARDDIN
  2
AmdtAnViewStdDIN
  3
"Amdt_StdImp|Product Description: AutoCAD Mechanical|Company: Autodesk, Inc."
 90
     1024
 91
        0
280
     0
281
     0
  0
CLASS
  1
CELLSTYLEMAP
  2
AcDbCellStyleMap
  3
ObjectDBX Classes
 90
     1152
 91
        2
280
     0
281
     0
  0
CLASS
  1
ACDBSECTIONVIEWSTYLE
  2
AcDbSectionViewStyle
  3
ObjectDBX Classes
 90
     1025
 91
        2
280
     0
281
     0
  0
CLASS
  1
ACDBDETAILVIEWSTYLE
  2
AcDbDetailViewStyle
  3
ObjectDBX Classes
 90
     1025
 91
        2
280
     0
281
     0
  0
CLASS
  1
ACMSTANDARDISO
  2
AcmStandardISO
  3
"Amdt_StdImp|Product Description: AutoCAD Mechanical|Company: Autodesk, Inc."
 90
     1024
 91
        1
280
     0
281
     0
  0
CLASS
  1
AMDTEDGESTANDARDISO13715
  2
AmdtEdgeStdISO13715
  3
"Amdt_StdImp|Product Description: AutoCAD Mechanical|Company: Autodesk, Inc."
 90
     1024
 91
        1
280
     0
281
     0
  0
CLASS
  1
ACMSURFSTANDARDISO2002
  2
AcmSurfTextStdISO2002
  3
"Amdt_StdImp|Product Description: AutoCAD Mechanical|Company: Autodesk, Inc."
 90
     1024
 91
        1
280
     0
281
     0
  0
CLASS
  1
ACMFCFSTANDARDISO2004
  2
AcmFCFStdISO2004
  3
"Amdt_StdImp|Product Description: AutoCAD Mechanical|Company: Autodesk, Inc."
 90
     1024
 91
        1
280
     0
281
     0
  0
CLASS
  1
ACMWELDSTANDARDISO
  2
AcmWeldingStdISO
  3
"Amdt_StdImp|Product Description: AutoCAD Mechanical|Company: Autodesk, Inc."
 90
     1024
 91
        1
280
     0
281
     0
  0
CLASS
  1
ACMIDSTANDARDISO2004
  2
AcmIdStdISO2004
  3
"Amdt_StdImp|Product Description: AutoCAD Mechanical|Company: Autodesk, Inc."
 90
     1024
 91
        1
280
     0
281
     0
  0
CLASS
  1
ACMDATUMSTANDARDISO
  2
AcmDatumStdISO
  3
"Amdt_StdImp|Product Description: AutoCAD Mechanical|Company: Autodesk, Inc."
 90
     1024
 91
        1
280
     0
281
     0
  0
CLASS
  1
ACMBOMSTANDARDISO
  2
AcmBOMStdISO
  3
"Amdt_StdImp|Product Description: AutoCAD Mechanical|Company: Autodesk, Inc."
 90
     1024
 91
        1
280
     0
281
     0
  0
CLASS
  1
ACMDETAILSTANDARDISO
  2
AmdtDetailSymStdISO
  3
"Amdt_StdImp|Product Description: AutoCAD Mechanical|Company: Autodesk, Inc."
 90
     1024
 91
        1
280
     0
281
     0
  0
CLASS
  1
ACMSECTIONSTANDARDISO2001
  2
AmdtSectionSymStdISO2001
  3
"Amdt_StdImp|Product Description: AutoCAD Mechanical|Company: Autodesk, Inc."
 90
     1024
 91
        1
280
     0
281
     0
  0
CLASS
  1
ACMCENTERLINESTANDARDISO
  2
AmdtCenterLineStdISO
  3
"Amdt_StdImp|Product Description: AutoCAD Mechanical|Company: Autodesk, Inc."
 90
     1024
 91
        1
280
     0
281
     0
  0
CLASS
  1
ACMTHREADLINESTANDARDISO
  2
AmdtThreadLineStdISO
  3
"Amdt_StdImp|Product Description: AutoCAD Mechanical|Company: Autodesk, Inc."
 90
     1024
 91
        1
280
     0
281
     0
  0
CLASS
  1
ACMNOTESTANDARDISO
  2
AmdtNoteStdISO
  3
"Amdt_StdImp|Product Description: AutoCAD Mechanical|Company: Autodesk, Inc."
 90
     1024
 91
        1
280
     0
281
     0
  0
CLASS
  1
ACMTAPERSTANDARDISO
  2
AcmTaperStdISO
  3
"Amdt_StdImp|Product Description: AutoCAD Mechanical|Company: Autodesk, Inc."
 90
     1024
 91
        1
280
     0
281
     0
  0
CLASS
  1
ACMANOOTATIONVIEWSTANDARDISO
  2
AmdtAnViewStdISO
  3
"Amdt_StdImp|Product Description: AutoCAD Mechanical|Company: Autodesk, Inc."
 90
     1024
 91
        1
280
     0
281
     0
  0
CLASS
  1
ACAMGHOLECHARTSTDISO
  2
AcAmgHoleChartStdISO
  3
AmgDim|Product Description: AutoCAD Mechanical|Company: Autodesk, Inc.
 90
     1024
 91
        1
280
     0
281
     0
  0
CLASS
  1
ACMSECTIONSTANDARDCUSTOM
  2
AmdtSectionSymStdCustom
  3
"Amdt_StdImp|Product Description: AutoCAD Mechanical|Company: Autodesk, Inc."
 90
     1024
 91
        1
280
     0
281
     0
  0
CLASS
  1
ACMDETAILTANDARDCUSTOM
  2
AmdtDetailSymStdCustom
  3
"Amdt_StdImp|Product Description: AutoCAD Mechanical|Company: Autodesk, Inc."
 90
     1024
 91
        1
280
     0
281
     0
  0
CLASS
  1
FIELD
  2
AcDbField
  3
ObjectDBX Classes
 90
     1152
 91
        3
280
     0
281
     0
  0
CLASS
  1
FIELDLIST
  2
AcDbFieldList
  3
ObjectDBX Classes
 90
     1152
 91
        1
280
     0
281
     0
  0
CLASS
  1
SOLID_BACKGROUND
  2
AcDbSolidBackground
  3
SCENEOE
 90
     4095
 91
        1
280
     0
281
     0
  0
CLASS
  1
NPOCOLLECTION
  2
AcDbImpNonPersistentObjectsCollection
  3
ObjectDBX Classes
 90
     1153
 91
        1
280
     0
281
     0
  0
CLASS
  1
CAMSSTRUCTBTNSTATE
  2
StructBtnState
  3
DesignerAssemblies
 90
     1024
 91
        1
280
     0
281
     0
  0
ENDSEC
  0
SECTION
  2
TABLES
  0
TABLE
  2
VPORT
  5
8
330
0
100
AcDbSymbolTable
 70
     1
  0
VPORT
  5
64CA
330
8
100
AcDbSymbolTableRecord
100
AcDbViewportTableRecord
  2
*Active
 70
     0
 10
0.0
 20
0.0
 11
1.0
 21
1.0
 12
347.3934226918609
 22
338.8505901738147
 13
0.0
 23
0.0
 14
2.5
 24
2.5
 15
10.0
 25
10.0
 16
0.0
 26
0.0
 36
6588.564324779385
 17
29027.83135294404
 27
5079.42188056756
 37
0.0
 40
3709.504149879159
 41
2.390428211586901
 42
50.0
 43
0.0
 44
0.0
 50
0.0
 51
0.0
 71
     0
 72
   100
 73
     1
 74
     3
 75
     0
 76
     0
 77
     0
 78
     0
281
     0
 65
     0
110
0.0
120
0.0
130
0.0
111
1.0
121
0.0
131
0.0
112
0.0
122
1.0
132
0.0
 79
     0
146
0.0
348
64F4
 60
     3
 61
     5
292
     1
282
     1
141
0.0
142
0.0
 63
   250
421
  3355443
1001
ACAD_NAV_VCDISPLAY
1070
     3
  0
ENDTAB
  0
TABLE
  2
LTYPE
  5
5
330
0
100
AcDbSymbolTable
 70
    20
  0
LTYPE
  5
14
330
5
100
AcDbSymbolTableRecord
100
AcDbLinetypeTableRecord
  2
ByBlock
 70
     0
  3

 72
    65
 73
     0
 40
0.0
  0
LTYPE
  5
15
330
5
100
AcDbSymbolTableRecord
100
AcDbLinetypeTableRecord
  2
ByLayer
 70
     0
  3

 72
    65
 73
     0
 40
0.0
  0
LTYPE
  5
16
330
5
100
AcDbSymbolTableRecord
100
AcDbLinetypeTableRecord
  2
Continuous
 70
     0
  3
Solid line
 72
    65
 73
     0
 40
0.0
  0
LTYPE
  5
50
330
5
100
AcDbSymbolTableRecord
100
AcDbLinetypeTableRecord
  2
Amconstr
 70
     0
  3
_______________________
 72
    65
 73
     2
 40
9999.0
 49
9999.0
 74
     0
 49
0.0
 74
     0
  0
LTYPE
  5
55
330
5
100
AcDbSymbolTableRecord
100
AcDbLinetypeTableRecord
  2
Amzigzag
 70
     0
  3
/\/-/\/-/\/-/\/-/\/-/\/
 72
    65
 73
     2
 40
11.0001
 49
0.0001
 74
     4
 75
   136
340
285
 46
0.04
 50
0.0
 44
0.0
 45
0.0
 49
-11.0
 74
     0
  0
LTYPE
  5
56
330
5
100
AcDbSymbolTableRecord
100
AcDbLinetypeTableRecord
  2
AM_DIN_F_W050
 70
     0
  3
__ __ __ __ __ __ __ __ __ __ __ __ __ __ __
 72
    65
 73
     2
 40
6.25
 49
4.75
 74
     0
 49
-1.5
 74
     0
  0
LTYPE
  5
57
330
5
100
AcDbSymbolTableRecord
100
AcDbLinetypeTableRecord
  2
AM_DIN_G_W050
 70
     0
  3
____ . ____ . ____ . ____ . ____ . ____ . ____
 72
    65
 73
     4
 40
13.75
 49
9.75
 74
     0
 49
-1.5
 74
     0
 49
1.0
 74
     0
 49
-1.5
 74
     0
  0
LTYPE
  5
58
330
5
100
AcDbSymbolTableRecord
100
AcDbLinetypeTableRecord
  2
AM_DIN_K_W050
 70
     0
  3
_____ . . _____ . . _____ . . ____ .. ____
 72
    65
 73
     6
 40
16.25
 49
9.75
 74
     0
 49
-1.5
 74
     0
 49
1.0
 74
     0
 49
-1.5
 74
     0
 49
1.0
 74
     0
 49
-1.5
 74
     0
  0
LTYPE
  5
59
330
5
100
AcDbSymbolTableRecord
100
AcDbLinetypeTableRecord
  2
AM_DIN_G_W050x2
 70
     0
  3
__ . __ . __ . __ . __ . __
 72
    65
 73
     4
 40
6.875
 49
4.75
 74
     0
 49
-0.875
 74
     0
 49
0.375
 74
     0
 49
-0.875
 74
     0
  0
LTYPE
  5
5A
330
5
100
AcDbSymbolTableRecord
100
AcDbLinetypeTableRecord
  2
AM_DIN_F_W050x2
 70
     0
  3
 _ _ _ _ _ _ _ _ _ _ _ _
 72
    65
 73
     2
 40
3.125
 49
2.25
 74
     0
 49
-0.875
 74
     0
  0
LTYPE
  5
68
330
5
100
AcDbSymbolTableRecord
100
AcDbLinetypeTableRecord
  2
ACDINWELD
 70
     0
  3
_ _ _ _ _
 72
    65
 73
     2
 40
2.0
 49
2.0
 74
     0
 49
-1.0
 74
     0
  0
LTYPE
  5
69
330
5
100
AcDbSymbolTableRecord
100
AcDbLinetypeTableRecord
  2
ACDINTGB
 70
     0
  3
__ . . __ . .
 72
    65
 73
     6
 40
9.0
 49
4.0
 74
     0
 49
-1.0
 74
     0
 49
1.0
 74
     0
 49
-1.0
 74
     0
 49
1.0
 74
     0
 49
-1.0
 74
     0
  0
LTYPE
  5
6A
330
5
100
AcDbSymbolTableRecord
100
AcDbLinetypeTableRecord
  2
ACDINTGL
 70
     0
  3
_ _ _ _ _
 72
    65
 73
     2
 40
3.0
 49
2.0
 74
     0
 49
-1.0
 74
     0
  0
LTYPE
  5
6C
330
5
100
AcDbSymbolTableRecord
100
AcDbLinetypeTableRecord
  2
CENTER
 70
     0
  3
__ . __
 72
    65
 73
     4
 40
7.0
 49
4.0
 74
     0
 49
-1.0
 74
     0
 49
1.0
 74
     0
 49
-1.0
 74
     0
  0
LTYPE
  5
F2
330
5
100
AcDbSymbolTableRecord
100
AcDbLinetypeTableRecord
  2
HIDDEN
 70
     0
  3
Hidden __ __ __ __ __ __ __ __ __ __ __ __ __ _
 72
    65
 73
     2
 40
9.524999999999996
 49
6.349999999999997
 74
     0
 49
-3.174999999999998
 74
     0
  0
LTYPE
  5
F3
330
5
100
AcDbSymbolTableRecord
100
AcDbLinetypeTableRecord
  2
PHANTOM2
 70
     0
  3
Phantom (.5x) ___ _ _ ___ _ _ ___ _ _ ___ _ _
 72
    65
 73
     6
 40
31.75
 49
15.875
 74
     0
 49
-3.174999999999998
 74
     0
 49
3.174999999999998
 74
     0
 49
-3.174999999999998
 74
     0
 49
3.174999999999998
 74
     0
 49
-3.174999999999998
 74
     0
  0
LTYPE
  5
425
330
5
100
AcDbSymbolTableRecord
100
AcDbLinetypeTableRecord
  2
AUSGEZOGEN
 70
     0
  3
Ausgezogene Linie
 72
    65
 73
     0
 40
0.0
  0
LTYPE
  5
6E80
330
5
100
AcDbSymbolTableRecord
100
AcDbLinetypeTableRecord
  2
ACISOWELD
 70
     0
  3
_ _ _ _ _
 72
    65
 73
     2
 40
2.0
 49
2.0
 74
     0
 49
-1.0
 74
     0
  0
LTYPE
  5
6E81
330
5
100
AcDbSymbolTableRecord
100
AcDbLinetypeTableRecord
  2
ACISOTGL
 70
     0
  3
_ _ _ _ _
 72
    65
 73
     2
 40
3.0
 49
2.0
 74
     0
 49
-1.0
 74
     0
  0
LTYPE
  5
6E82
330
5
100
AcDbSymbolTableRecord
100
AcDbLinetypeTableRecord
  2
ACISOTGB
 70
     0
  3
__ . . __ . .
 72
    65
 73
     6
 40
9.0
 49
4.0
 74
     0
 49
-1.0
 74
     0
 49
1.0
 74
     0
 49
-1.0
 74
     0
 49
1.0
 74
     0
 49
-1.0
 74
     0
  0
ENDTAB
  0
TABLE
  2
LAYER
  5
2
102
{ACAD_XDICTIONARY
360
C0
102
}
330
0
100
AcDbSymbolTable
 70
     7
  0
LAYER
  5
10
102
{ACAD_XDICTIONARY
360
6CA5
102
}
330
2
100
AcDbSymbolTableRecord
100
AcDbLayerTableRecord
  2
0
 70
     0
 62
     7
  6
Continuous
370
    -3
390
F
347
64E6
348
0
  0
LAYER
  5
82
102
{ACAD_XDICTIONARY
360
6CA7
102
}
330
2
100
AcDbSymbolTableRecord
100
AcDbLayerTableRecord
  2
AM_0
 70
     0
 62
     7
  6
Continuous
370
    50
390
F
347
64E6
348
0
1001
AcAecLayerStandard
1000

1000

  0
LAYER
  5
426
330
2
100
AcDbSymbolTableRecord
100
AcDbLayerTableRecord
  2
DEFPOINTS
 70
     0
 62
    -1
  6
AUSGEZOGEN
290
     0
370
    -3
390
F
347
64E6
348
0
  0
LAYER
  5
427
102
{ACAD_XDICTIONARY
360
6CA9
102
}
330
2
100
AcDbSymbolTableRecord
100
AcDbLayerTableRecord
  2
AM_8
 70
     0
 62
     1
  6
Continuous
370
    25
390
F
347
64E6
348
0
  0
LAYER
  5
428
102
{ACAD_XDICTIONARY
360
6CAB
102
}
330
2
100
AcDbSymbolTableRecord
100
AcDbLayerTableRecord
  2
AM_5
 70
     0
 62
     3
  6
Continuous
370
    25
390
F
347
64E6
348
0
  0
LAYER
  5
429
102
{ACAD_XDICTIONARY
360
6CAD
102
}
330
2
100
AcDbSymbolTableRecord
100
AcDbLayerTableRecord
  2
anbauteile dünn
 70
     0
 62
     3
  6
Continuous
370
    25
390
F
347
64E6
348
0
1001
AcAecLayerStandard
1000

1000

  0
LAYER
  5
42A
102
{ACAD_XDICTIONARY
360
6CAF
102
}
330
2
100
AcDbSymbolTableRecord
100
AcDbLayerTableRecord
  2
Beschriftung
 70
     0
 62
     2
  6
Continuous
370
    50
390
F
347
64E6
348
0
1001
AcAecLayerStandard
1000

1000

  0
ENDTAB
  0
TABLE
  2
STYLE
  5
3
330
0
100
AcDbSymbolTable
 70
     7
  0
STYLE
  5
11
330
3
100
AcDbSymbolTableRecord
100
AcDbTextStyleTableRecord
  2
STANDARD
 70
     0
 40
0.0
 41
1.0
 50
0.0
 71
     0
 42
2.5
  3
ISOCP.SHX
  4
bigfont.shx
  0
STYLE
  5
67
330
3
100
AcDbSymbolTableRecord
100
AcDbTextStyleTableRecord
  2
ACDINGDT
 70
     0
 40
0.0
 41
1.0
 50
0.0
 71
     0
 42
2.5
  3
amgdt.shx
  4
bigfont.shx
  0
STYLE
  5
285
330
3
100
AcDbSymbolTableRecord
100
AcDbTextStyleTableRecord
  2

 70
     1
 40
0.0
 41
1.0
 50
0.0
 71
     0
 42
2.5
  3
genltshp.shx
  4

  0
STYLE
  5
42E
330
3
100
AcDbSymbolTableRecord
100
AcDbTextStyleTableRecord
  2
ACANSGDT
 70
     0
 40
0.0
 41
1.0
 50
0.0
 71
     0
 42
3.5
  3
ARIAL.TTF
  4

1001
ACAD
1000
Arial
1071
       34
  0
STYLE
  5
5680
330
3
100
AcDbSymbolTableRecord
100
AcDbTextStyleTableRecord
  2
ISOCP
 70
     0
 40
0.0
 41
1.0
 50
0.0
 71
     0
 42
2.5
  3
ISOCP
  4

  0
STYLE
  5
6E7E
330
3
100
AcDbSymbolTableRecord
100
AcDbTextStyleTableRecord
  2
ACISOTS
 70
     0
 40
0.0
 41
1.0
 50
0.0
 71
     0
 42
2.5
  3
isocp.shx
  4

  0
STYLE
  5
6E7F
330
3
100
AcDbSymbolTableRecord
100
AcDbTextStyleTableRecord
  2
ACISOGDT
 70
     0
 40
0.0
 41
1.0
 50
0.0
 71
     0
 42
2.5
  3
amgdt.shx
  4

  0
ENDTAB
  0
TABLE
  2
VIEW
  5
6
330
0
100
AcDbSymbolTable
 70
     0
  0
ENDTAB
  0
TABLE
  2
UCS
  5
7
330
0
100
AcDbSymbolTable
 70
     0
  0
ENDTAB
  0
TABLE
  2
APPID
  5
9
330
0
100
AcDbSymbolTable
 70
    34
  0
APPID
  5
12
330
9
100
AcDbSymbolTableRecord
100
AcDbRegAppTableRecord
  2
ACAD
 70
     0
  0
APPID
  5
30
330
9
100
AcDbSymbolTableRecord
100
AcDbRegAppTableRecord
  2
MCAD_NO_VIS
 70
     0
  0
APPID
  5
31
330
9
100
AcDbSymbolTableRecord
100
AcDbRegAppTableRecord
  2
ACAD_TEMP_GRAPHIC
 70
     0
  0
APPID
  5
44
330
9
100
AcDbSymbolTableRecord
100
AcDbRegAppTableRecord
  2
ACATTRIBSERVICES
 70
     0
  0
APPID
  5
108
330
9
100
AcDbSymbolTableRecord
100
AcDbRegAppTableRecord
  2
AD_DRAW
 70
     0
  0
APPID
  5
126
330
9
100
AcDbSymbolTableRecord
100
AcDbRegAppTableRecord
  2
DESIGNERASSEMBLIES
 70
     0
  0
APPID
  5
12A
330
9
100
AcDbSymbolTableRecord
100
AcDbRegAppTableRecord
  2
ACADM_DIM_EDIT
 70
     0
  0
APPID
  5
12B
330
9
100
AcDbSymbolTableRecord
100
AcDbRegAppTableRecord
  2
AMDT_DM_ADJ
 70
     0
  0
APPID
  5
1A4
330
9
100
AcDbSymbolTableRecord
100
AcDbRegAppTableRecord
  2
ACAD_DSTYLE_DIMARC_LENGTH_SYMBOL
 70
     0
  0
APPID
  5
1A5
330
9
100
AcDbSymbolTableRecord
100
AcDbRegAppTableRecord
  2
ACAD_DSTYLE_DIMJOGGED_JOGANGLE_SYMBOL
 70
     0
  0
APPID
  5
22C
330
9
100
AcDbSymbolTableRecord
100
AcDbRegAppTableRecord
  2
AcAecLayerStandard
 70
     0
  0
APPID
  5
430
330
9
100
AcDbSymbolTableRecord
100
AcDbRegAppTableRecord
  2
GENIUS_GENREC_14
 70
     0
  0
APPID
  5
431
330
9
100
AcDbSymbolTableRecord
100
AcDbRegAppTableRecord
  2
GENIUS_GENOBJ-N-REC_13
 70
     0
  0
APPID
  5
432
330
9
100
AcDbSymbolTableRecord
100
AcDbRegAppTableRecord
  2
GENIUS_GENODEF_13
 70
     0
  0
APPID
  5
433
330
9
100
AcDbSymbolTableRecord
100
AcDbRegAppTableRecord
  2
GENIUS_GENOBJ-N-FIL_13
 70
     0
  0
APPID
  5
434
330
9
100
AcDbSymbolTableRecord
100
AcDbRegAppTableRecord
  2
GENIUS_GENOBJ-N-HTC_13
 70
     0
  0
APPID
  5
435
330
9
100
AcDbSymbolTableRecord
100
AcDbRegAppTableRecord
  2
GENIUS_GENHATCH_13
 70
     0
  0
APPID
  5
436
330
9
100
AcDbSymbolTableRecord
100
AcDbRegAppTableRecord
  2
ACAD_PSEXT
 70
     0
  0
APPID
  5
437
330
9
100
AcDbSymbolTableRecord
100
AcDbRegAppTableRecord
  2
ACAD_DSTYLE_DIMEXT_LENGTH
 70
     0
  0
APPID
  5
438
330
9
100
AcDbSymbolTableRecord
100
AcDbRegAppTableRecord
  2
ACAD_DSTYLE_DIMEXT_ENABLED
 70
     0
  0
APPID
  5
13C6
330
9
100
AcDbSymbolTableRecord
100
AcDbRegAppTableRecord
  2
ACAD_EXEMPT_FROM_CAD_STANDARDS
 70
     0
  0
APPID
  5
1C57
330
9
100
AcDbSymbolTableRecord
100
AcDbRegAppTableRecord
  2
GENIUS_GENOREF_13
 70
     0
  0
APPID
  5
214C
330
9
100
AcDbSymbolTableRecord
100
AcDbRegAppTableRecord
  2
GENIUS_GENDIMSH_14
 70
     0
  0
APPID
  5
3286
330
9
100
AcDbSymbolTableRecord
100
AcDbRegAppTableRecord
  2
GENIUS_GENDTOL_13
 70
     0
  0
APPID
  5
3306
330
9
100
AcDbSymbolTableRecord
100
AcDbRegAppTableRecord
  2
AcDbDynamicBlockGUID
 70
     0
  0
APPID
  5
3307
330
9
100
AcDbSymbolTableRecord
100
AcDbRegAppTableRecord
  2
ACDBBLOCKREPETAG
 70
     0
  0
APPID
  5
3512
330
9
100
AcDbSymbolTableRecord
100
AcDbRegAppTableRecord
  2
GENIUS_GENFIL_13
 70
     0
  0
APPID
  5
3513
330
9
100
AcDbSymbolTableRecord
100
AcDbRegAppTableRecord
  2
GENIUS_GENOBJ-N-CHA_13
 70
     0
  0
APPID
  5
6586
330
9
100
AcDbSymbolTableRecord
100
AcDbRegAppTableRecord
  2
ACAD_DSTYLE_DIMBREAK
 70
     0
  0
APPID
  5
6587
330
9
100
AcDbSymbolTableRecord
100
AcDbRegAppTableRecord
  2
ACAD_DSTYLE_DIMJAG
 70
     0
  0
APPID
  5
6E21
330
9
100
AcDbSymbolTableRecord
100
AcDbRegAppTableRecord
  2
ACAD_MLEADERVER
 70
     0
  0
APPID
  5
6E92
330
9
100
AcDbSymbolTableRecord
100
AcDbRegAppTableRecord
  2
ACAD_NAV_VCDISPLAY
 70
     0
  0
APPID
  5
6F00
330
9
100
AcDbSymbolTableRecord
100
AcDbRegAppTableRecord
  2
ACAD_DSTYLE_DIMINSPECT
 70
     0
  0
APPID
  5
6F13
330
9
100
AcDbSymbolTableRecord
100
AcDbRegAppTableRecord
  2
AcadAnnoMonitorAlertIconDisabled
 70
     0
  0
ENDTAB
  0
TABLE
  2
DIMSTYLE
  5
A
330
0
100
AcDbSymbolTable
 70
    16
100
AcDbDimStyleTable
 71
     1
340
6F
  0
DIMSTYLE
105
6F
330
A
100
AcDbSymbolTableRecord
100
AcDbDimStyleTableRecord
  2
AM_DIN
 70
     0
  4
"
 41
2.5
 42
1.0
 43
10.0
 44
1.0
 47
0.1
 48
0.1
 50
89.99999999999998
 73
     0
 74
     0
 77
     1
 78
     8
 79
     2
140
3.5
141
0.0
143
0.0393701
146
0.71
147
1.5
172
     1
176
   256
177
   256
178
     2
271
     2
272
     3
274
     4
283
     0
284
     8
340
11
371
    -1
372
    -1
1001
ACAD_DSTYLE_DIMJOGGED_JOGANGLE_SYMBOL
1070
   384
1040
1.570796326794896
  0
DIMSTYLE
105
70
330
A
100
AcDbSymbolTableRecord
100
AcDbDimStyleTableRecord
  2
AM_DIN$3
 70
     0
  4
"
 41
2.5
 42
1.0
 43
10.0
 44
1.0
 47
0.1
 48
0.1
 50
89.99999999999998
 73
     0
 77
     1
 78
     8
 79
     2
140
3.5
141
0.0
143
0.0393701
146
0.71
147
1.5
176
   256
177
   256
178
     2
271
     2
272
     3
274
     4
283
     0
284
     8
288
     1
289
     0
340
11
371
    -1
372
    -1
1001
ACAD_DSTYLE_DIMJOGGED_JOGANGLE_SYMBOL
1070
   384
1040
1.570796326794896
  0
DIMSTYLE
105
71
330
A
100
AcDbSymbolTableRecord
100
AcDbDimStyleTableRecord
  2
AM_DIN$4
 70
     0
  4
"
 41
2.5
 42
1.0
 43
10.0
 44
1.0
 47
0.1
 48
0.1
 50
89.99999999999998
 73
     0
 77
     1
 78
     8
 79
     2
140
3.5
141
0.0
143
0.0393701
146
0.71
147
1.5
176
   256
177
   256
178
     2
271
     2
272
     3
274
     4
283
     0
284
     8
288
     1
289
     0
340
11
371
    -1
372
    -1
1001
ACAD_DSTYLE_DIMJOGGED_JOGANGLE_SYMBOL
1070
   384
1040
1.570796326794896
  0
DIMSTYLE
105
72
330
A
100
AcDbSymbolTableRecord
100
AcDbDimStyleTableRecord
  2
AM_DIN$6
 70
     0
  4
"
 41
2.5
 42
1.0
 43
10.0
 44
1.0
 47
0.1
 48
0.1
 50
89.99999999999998
 73
     0
 74
     0
 78
     8
 79
     2
140
3.5
141
0.0
143
0.0393701
146
0.71
147
1.5
172
     1
176
   256
177
   256
178
     2
271
     2
272
     3
274
     4
283
     0
284
     8
340
11
371
    -1
372
    -1
1001
ACAD_DSTYLE_DIMJOGGED_JOGANGLE_SYMBOL
1070
   384
1040
1.570796326794896
  0
DIMSTYLE
105
73
330
A
100
AcDbSymbolTableRecord
100
AcDbDimStyleTableRecord
  2
AM_DIN$7
 70
     0
  4
"
 41
2.5
 42
1.0
 43
10.0
 44
1.0
 47
0.1
 48
0.1
 50
89.99999999999998
 73
     0
 74
     0
 77
     1
 78
     8
 79
     2
140
5.0
141
0.0
143
0.0393701
146
0.71
147
1.5
172
     1
176
   256
177
   256
178
     2
271
     2
272
     3
274
     4
283
     0
284
     8
340
11
371
    -1
372
    -1
1001
ACAD_DSTYLE_DIMJOGGED_JOGANGLE_SYMBOL
1070
   384
1040
1.570796326794896
  0
DIMSTYLE
105
74
330
A
100
AcDbSymbolTableRecord
100
AcDbDimStyleTableRecord
  2
AM_DIN$SF
 70
     0
  4
"
 41
2.5
 42
1.0
 43
10.0
 44
1.0
 47
0.1
 48
0.1
 50
89.99999999999998
 73
     0
 74
     0
 75
     1
 76
     1
 77
     1
 78
     8
 79
     2
140
3.5
141
0.0
143
0.0393701
146
0.71
147
1.5
172
     1
176
   256
177
   256
178
     2
271
     2
272
     3
274
     4
283
     0
284
     8
340
11
371
    -1
372
    -1
1001
ACAD_DSTYLE_DIMJOGGED_JOGANGLE_SYMBOL
1070
   384
1040
1.570796326794896
  0
DIMSTYLE
105
79
330
A
100
AcDbSymbolTableRecord
100
AcDbDimStyleTableRecord
  2
AM_DIN$SH
 70
     0
  4
"
 41
2.5
 42
1.0
 43
10.0
 44
1.0
 47
0.1
 48
0.1
 50
89.99999999999998
 73
     0
 74
     0
 75
     1
 76
     1
 77
     1
 78
     8
 79
     2
140
3.5
141
0.0
143
0.0393701
144
2.0
146
0.71
147
1.5
172
     1
173
     1
176
   256
177
   256
178
     2
271
     2
272
     3
274
     4
283
     0
284
     8
340
11
343
75
371
    -1
372
    -1
1001
ACAD_DSTYLE_DIMJOGGED_JOGANGLE_SYMBOL
1070
   384
1040
1.570796326794896
  0
DIMSTYLE
105
42F
102
{ACAD_REACTORS
330
6EE8
330
703F
330
7107
330
719A
330
71F1
102
}
330
A
100
AcDbSymbolTableRecord
100
AcDbDimStyleTableRecord
  2
AM_DIN$0
 70
     0
  4
"
 40
20.0
 41
2.5
 42
1.0
 43
10.0
 44
1.0
 47
0.1
 48
0.1
 50
89.99999999999998
 73
     0
 74
     0
 77
     1
 78
     8
 79
     2
140
3.5
141
0.0
143
0.0393701
146
0.71
147
1.5
172
     1
176
   256
177
   256
178
     2
271
     2
272
     2
283
     0
284
     8
340
42E
371
    -1
372
    -1
1001
ACAD_DSTYLE_DIMJOGGED_JOGANGLE_SYMBOL
1070
   384
1040
1.570796326794896
  0
DIMSTYLE
105
6E72
102
{ACAD_REACTORS
330
6E61
102
}
330
A
100
AcDbSymbolTableRecord
100
AcDbDimStyleTableRecord
  2
AM_ISO
 70
     0
  4
"
 41
3.5
 42
1.0
 43
10.0
 44
1.0
 47
0.1
 48
0.1
 73
     0
 74
     0
 77
     1
 78
     8
 79
     2
 90
     1
140
3.5
141
0.0
143
0.0393701
146
0.71
147
1.5
172
     1
176
   256
177
   256
178
     2
271
     2
272
     3
274
     4
283
     0
284
     8
340
11
345
14
346
14
347
14
371
    -1
372
    -1
1001
ACAD_DSTYLE_DIMJAG
1070
   388
1040
1.5
1001
ACAD_DSTYLE_DIMBREAK
1070
   391
1040
3.75
  0
DIMSTYLE
105
6E74
330
A
100
AcDbSymbolTableRecord
100
AcDbDimStyleTableRecord
  2
AM_ISO$3
 70
     0
  4
"
 41
3.5
 42
1.0
 43
10.0
 44
1.0
 47
0.1
 48
0.1
 73
     0
 77
     1
 78
     8
 79
     2
 90
     1
140
3.5
141
0.0
143
0.0393701
146
0.71
147
1.5
176
   256
177
   256
178
     2
271
     2
272
     3
274
     4
283
     0
284
     8
288
     1
289
     0
340
11
345
14
346
14
347
14
371
    -1
372
    -1
1001
ACAD_DSTYLE_DIMBREAK
1070
   391
1040
3.75
1001
ACAD_DSTYLE_DIMJAG
1070
   388
1040
1.5
  0
DIMSTYLE
105
6E75
330
A
100
AcDbSymbolTableRecord
100
AcDbDimStyleTableRecord
  2
AM_ISO$4
 70
     0
  4
"
 41
3.5
 42
1.0
 43
10.0
 44
1.0
 47
0.1
 48
0.1
 73
     0
 77
     1
 78
     8
 79
     2
 90
     1
140
3.5
141
0.0
143
0.0393701
146
0.71
147
1.5
176
   256
177
   256
178
     2
271
     2
272
     3
274
     4
283
     0
284
     8
288
     1
289
     0
340
11
345
14
346
14
347
14
371
    -1
372
    -1
1001
ACAD_DSTYLE_DIMBREAK
1070
   391
1040
3.75
1001
ACAD_DSTYLE_DIMJAG
1070
   388
1040
1.5
  0
DIMSTYLE
105
6E76
330
A
100
AcDbSymbolTableRecord
100
AcDbDimStyleTableRecord
  2
AM_ISO$6
 70
     0
  4
"
 41
3.5
 42
1.0
 43
10.0
 44
1.0
 47
0.1
 48
0.1
 73
     0
 74
     0
 78
     8
 79
     2
 90
     1
140
3.5
141
0.0
143
0.0393701
146
0.71
147
1.5
172
     1
176
   256
177
   256
178
     2
271
     2
272
     3
274
     4
283
     0
284
     8
340
11
345
14
346
14
347
14
371
    -1
372
    -1
1001
ACAD_DSTYLE_DIMBREAK
1070
   391
1040
3.75
1001
ACAD_DSTYLE_DIMJAG
1070
   388
1040
1.5
  0
DIMSTYLE
105
6E77
330
A
100
AcDbSymbolTableRecord
100
AcDbDimStyleTableRecord
  2
AM_ISO$7
 70
     0
  4
"
 41
3.5
 42
1.0
 43
10.0
 44
1.0
 47
0.1
 48
0.1
 73
     0
 74
     0
 77
     1
 78
     8
 79
     2
 90
     1
140
3.5
141
0.0
143
0.0393701
146
0.71
147
1.5
172
     1
176
   256
177
   256
178
     2
271
     2
272
     3
274
     4
283
     0
284
     8
340
11
345
14
346
14
347
14
371
    -1
372
    -1
1001
ACAD_DSTYLE_DIMBREAK
1070
   391
1040
3.75
1001
ACAD_DSTYLE_DIMJAG
1070
   388
1040
1.5
  0
DIMSTYLE
105
6E78
330
A
100
AcDbSymbolTableRecord
100
AcDbDimStyleTableRecord
  2
AM_ISO$SF
 70
     0
  4
"
 41
3.5
 42
1.0
 43
10.0
 44
1.0
 47
0.1
 48
0.1
 73
     0
 74
     0
 75
     1
 76
     1
 77
     1
 78
     8
 79
     2
 90
     1
140
3.5
141
0.0
143
0.0393701
146
0.71
147
1.5
172
     1
176
   256
177
   256
178
     2
271
     2
272
     3
274
     4
283
     0
284
     8
340
11
345
14
346
14
347
14
371
    -1
372
    -1
1001
ACAD_DSTYLE_DIMBREAK
1070
   391
1040
3.75
1001
ACAD_DSTYLE_DIMJAG
1070
   388
1040
1.5
  0
DIMSTYLE
105
6E79
330
A
100
AcDbSymbolTableRecord
100
AcDbDimStyleTableRecord
  2
AM_ISO$SH
 70
     0
  4
"
 41
3.5
 42
1.0
 43
10.0
 44
1.0
 47
0.1
 48
0.1
 73
     0
 74
     0
 75
     1
 76
     1
 77
     1
 78
     8
 79
     2
 90
     1
140
3.5
141
0.0
143
0.0393701
144
2.0
146
0.71
147
1.5
172
     1
173
     1
176
   256
177
   256
178
     2
271
     2
272
     3
274
     4
283
     0
284
     8
340
11
343
75
345
14
346
14
347
14
371
    -1
372
    -1
1001
ACAD_DSTYLE_DIMBREAK
1070
   391
1040
3.75
1001
ACAD_DSTYLE_DIMJAG
1070
   388
1040
1.5
  0
ENDTAB
  0
TABLE
  2
BLOCK_RECORD
  5
1
330
0
100
AcDbSymbolTable
 70
    18
  0
BLOCK_RECORD
  5
1F
102
{ACAD_XDICTIONARY
360
83
102
}
330
1
100
AcDbSymbolTableRecord
100
AcDbBlockTableRecord
  2
*Model_Space
340
22
 70
     0
280
     1
281
     0
  0
BLOCK_RECORD
  5
1B
330
1
100
AcDbSymbolTableRecord
100
AcDbBlockTableRecord
  2
*Paper_Space
340
1E
 70
     0
280
     1
281
     0
  0
BLOCK_RECORD
  5
23
330
1
100
AcDbSymbolTableRecord
100
AcDbBlockTableRecord
  2
*Paper_Space0
340
26
 70
     0
280
     1
281
     0
  0
BLOCK_RECORD
  5
75
102
{ACAD_XDICTIONARY
360
B6F
102
}
330
1
100
AcDbSymbolTableRecord
100
AcDbBlockTableRecord
  2
GENAXEH
340
0
 70
     0
280
     1
281
     0
  0
BLOCK_RECORD
  5
6D06
330
1
100
AcDbSymbolTableRecord
100
AcDbBlockTableRecord
  2
*D2
340
0
 70
     0
280
     1
281
     0
  0
BLOCK_RECORD
  5
6D12
330
1
100
AcDbSymbolTableRecord
100
AcDbBlockTableRecord
  2
*D3
340
0
 70
     0
280
     1
281
     0
  0
BLOCK_RECORD
  5
6D1E
330
1
100
AcDbSymbolTableRecord
100
AcDbBlockTableRecord
  2
*D4
340
0
 70
     0
280
     1
281
     0
  0
BLOCK_RECORD
  5
6D36
330
1
100
AcDbSymbolTableRecord
100
AcDbBlockTableRecord
  2
*D5
340
0
 70
     0
280
     1
281
     0
  0
BLOCK_RECORD
  5
6D84
330
1
100
AcDbSymbolTableRecord
100
AcDbBlockTableRecord
  2
*D6
340
0
 70
     0
280
     1
281
     0
  0
BLOCK_RECORD
  5
6EE9
330
1
100
AcDbSymbolTableRecord
100
AcDbBlockTableRecord
  2
*D9
340
0
 70
     0
280
     1
281
     0
  0
BLOCK_RECORD
  5
6F31
330
1
100
AcDbSymbolTableRecord
100
AcDbBlockTableRecord
  2
*D10
340
0
 70
     0
280
     1
281
     0
  0
BLOCK_RECORD
  5
6F86
330
1
100
AcDbSymbolTableRecord
100
AcDbBlockTableRecord
  2
*D11
340
0
 70
     0
280
     1
281
     0
  0
BLOCK_RECORD
  5
6FE9
330
1
100
AcDbSymbolTableRecord
100
AcDbBlockTableRecord
  2
*D12
340
0
 70
     0
280
     1
281
     0
  0
BLOCK_RECORD
  5
7040
330
1
100
AcDbSymbolTableRecord
100
AcDbBlockTableRecord
  2
*D13
340
0
 70
     0
280
     1
281
     0
  0
BLOCK_RECORD
  5
7108
330
1
100
AcDbSymbolTableRecord
100
AcDbBlockTableRecord
  2
*D14
340
0
 70
     0
280
     1
281
     0
  0
BLOCK_RECORD
  5
719B
330
1
100
AcDbSymbolTableRecord
100
AcDbBlockTableRecord
  2
*D15
340
0
 70
     0
280
     1
281
     0
  0
BLOCK_RECORD
  5
71F2
330
1
100
AcDbSymbolTableRecord
100
AcDbBlockTableRecord
  2
*D16
340
0
 70
     0
280
     1
281
     0
  0
BLOCK_RECORD
  5
7258
330
1
100
AcDbSymbolTableRecord
100
AcDbBlockTableRecord
  2
*D17
340
0
 70
     0
280
     1
281
     0
  0
ENDTAB
  0
ENDSEC
  0
SECTION
  2
BLOCKS
  0
BLOCK
  5
20
330
1F
100
AcDbEntity
  8
0
100
AcDbBlockBegin
  2
*Model_Space
 70
     0
 10
0.0
 20
0.0
 30
0.0
  3
*Model_Space
  1

  0
ENDBLK
  5
21
330
1F
100
AcDbEntity
  8
0
100
AcDbBlockEnd
  0
BLOCK
  5
1C
330
1B
100
AcDbEntity
 67
     1
  8
0
100
AcDbBlockBegin
  2
*Paper_Space
 70
     0
 10
0.0
 20
0.0
 30
0.0
  3
*Paper_Space
  1

  0
ENDBLK
  5
1D
330
1B
100
AcDbEntity
 67
     1
  8
0
100
AcDbBlockEnd
  0
BLOCK
  5
24
330
23
100
AcDbEntity
 67
     1
  8
0
100
AcDbBlockBegin
  2
*Paper_Space0
 70
     0
 10
0.0
 20
0.0
 30
0.0
  3
*Paper_Space0
  1

  0
ENDBLK
  5
25
330
23
100
AcDbEntity
 67
     1
  8
0
100
AcDbBlockEnd
  0
BLOCK
  5
77
330
75
100
AcDbEntity
  8
0
100
AcDbBlockBegin
  2
GENAXEH
 70
     0
 10
0.0
 20
0.0
 30
0.0
  3
GENAXEH
  1

  0
LINE
  5
76
330
75
100
AcDbEntity
  8
0
100
AcDbLine
 10
-1.0
 20
0.0
 30
0.0
 11
1.0
 21
0.0
 31
0.0
  0
ENDBLK
  5
78
330
75
100
AcDbEntity
  8
0
100
AcDbBlockEnd
  0
BLOCK
  5
6D07
330
6D06
100
AcDbEntity
  8
0
100
AcDbBlockBegin
  2
*D2
 70
     1
 10
0.0
 20
0.0
 30
0.0
  3
*D2
  1

  0
LINE
  5
6ECF
330
6D06
100
AcDbEntity
  8
AM_5
440
 16777216
100
AcDbLine
 10
29728.41328416603
 20
6140.773551901481
 30
0.0
 11
29995.23859338914
 21
6140.773551901481
 31
0.0
  0
LINE
  5
6ED0
330
6D06
100
AcDbEntity
  8
AM_5
440
 16777216
100
AcDbLine
 10
29988.99128416603
 20
5355.773551901482
 30
0.0
 11
29955.23859338914
 21
5355.773551901482
 31
0.0
  0
LINE
  5
6ED1
330
6D06
100
AcDbEntity
  8
AM_5
440
 16777216
100
AcDbLine
 10
29975.23859338913
 20
6090.773551901481
 30
0.0
 11
29975.23859338913
 21
5405.773551901482
 31
0.0
  0
SOLID
  5
6ED2
330
6D06
100
AcDbEntity
  8
AM_5
440
 16777216
100
AcDbTrace
 10
29966.90526005581
 20
6090.773551901481
 30
0.0
 11
29983.57192672247
 21
6090.773551901481
 31
0.0
 12
29975.23859338913
 22
6140.773551901481
 32
0.0
 13
29975.23859338913
 23
6140.773551901481
 33
0.0
  0
SOLID
  5
6ED3
330
6D06
100
AcDbEntity
  8
AM_5
440
 16777216
100
AcDbTrace
 10
29966.90526005581
 20
5405.773551901482
 30
0.0
 11
29983.57192672247
 21
5405.773551901482
 31
0.0
 12
29975.23859338913
 22
5355.773551901482
 32
0.0
 13
29975.23859338913
 23
5355.773551901482
 33
0.0
  0
MTEXT
  5
6ED4
330
6D06
100
AcDbEntity
  8
AM_5
 62
     2
440
 16777216
100
AcDbMText
 10
29909.49848424861
 20
5710.674052719294
 30
0.0
 40
70.0
 41
0.0
 46
0.0
 71
     5
 72
     1
  1
785
  7
ACANSGDT
 11
0.0000000000000001
 21
1.0
 31
0.0
 73
     1
 44
1.0
  0
POINT
  5
6ED5
330
6D06
100
AcDbEntity
  8
DEFPOINTS
 62
     0
440
 16777216
100
AcDbPoint
 10
29708.41328416603
 20
6140.773551901481
 30
0.0
  0
POINT
  5
6ED6
330
6D06
100
AcDbEntity
  8
DEFPOINTS
 62
     0
440
 16777216
100
AcDbPoint
 10
30008.99128416604
 20
5355.773551901482
 30
0.0
  0
POINT
  5
6ED7
330
6D06
100
AcDbEntity
  8
DEFPOINTS
 62
     0
440
 16777216
100
AcDbPoint
 10
29975.23859338913
 20
5355.773551901482
 30
0.0
  0
ENDBLK
  5
6D08
330
6D06
100
AcDbEntity
  8
0
100
AcDbBlockEnd
  0
BLOCK
  5
6D13
330
6D12
100
AcDbEntity
  8
0
100
AcDbBlockBegin
  2
*D3
 70
     1
 10
0.0
 20
0.0
 30
0.0
  3
*D3
  1

  0
LINE
  5
6D57
330
6D12
100
AcDbEntity
  8
AM_5
440
 16777216
100
AcDbLine
 10
29333.41328416604
 20
6133.77355190148
 30
0.0
 11
29333.41328416604
 21
6347.897447219948
 31
0.0
  0
LINE
  5
6D58
330
6D12
100
AcDbEntity
  8
AM_5
440
 16777216
100
AcDbLine
 10
29643.41328416604
 20
6133.773551901475
 30
0.0
 11
29643.41328416604
 21
6347.897447219948
 31
0.0
  0
LINE
  5
6D59
330
6D12
100
AcDbEntity
  8
AM_5
440
 16777216
100
AcDbLine
 10
29383.41328416603
 20
6327.897447219948
 30
0.0
 11
29593.41328416604
 21
6327.897447219948
 31
0.0
  0
SOLID
  5
6D5A
330
6D12
100
AcDbEntity
  8
AM_5
440
 16777216
100
AcDbTrace
 10
29383.41328416603
 20
6336.23078055328
 30
0.0
 11
29383.41328416603
 21
6319.564113886614
 31
0.0
 12
29333.41328416604
 22
6327.897447219948
 32
0.0
 13
29333.41328416604
 23
6327.897447219948
 33
0.0
  0
SOLID
  5
6D5B
330
6D12
100
AcDbEntity
  8
AM_5
440
 16777216
100
AcDbTrace
 10
29593.41328416604
 20
6336.23078055328
 30
0.0
 11
29593.41328416604
 21
6319.564113886614
 31
0.0
 12
29643.41328416604
 22
6327.897447219948
 32
0.0
 13
29643.41328416604
 23
6327.897447219948
 33
0.0
  0
MTEXT
  5
6D5C
330
6D12
100
AcDbEntity
  8
AM_5
 62
     2
440
 16777216
100
AcDbMText
 10
29494.64339000531
 20
6393.661430848871
 30
0.0
 40
70.0
 41
0.0
 46
0.0
 71
     5
 72
     1
  1
310
  7
ACANSGDT
 73
     1
 44
1.0
1001
ACAD
1000
MTEXTBEGIN
1070
    73
1070
     1
1070
    44
1040
1.0
1070
    74
1070
     0
1000
MTEXTEND
  0
POINT
  5
6D5D
330
6D12
100
AcDbEntity
  8
DEFPOINTS
 62
     0
440
 16777216
100
AcDbPoint
 10
29333.41328416604
 20
6113.773551901481
 30
0.0
  0
POINT
  5
6D5E
330
6D12
100
AcDbEntity
  8
DEFPOINTS
 62
     0
440
 16777216
100
AcDbPoint
 10
29643.41328416604
 20
6113.773551901475
 30
0.0
  0
POINT
  5
6D5F
330
6D12
100
AcDbEntity
  8
DEFPOINTS
 62
     0
440
 16777216
100
AcDbPoint
 10
29643.41328416604
 20
6327.897447219948
 30
0.0
  0
ENDBLK
  5
6D14
330
6D12
100
AcDbEntity
  8
0
100
AcDbBlockEnd
  0
BLOCK
  5
6D1F
330
6D1E
100
AcDbEntity
  8
0
100
AcDbBlockBegin
  2
*D4
 70
     1
 10
0.0
 20
0.0
 30
0.0
  3
*D4
  1

  0
LINE
  5
6ED8
330
6D1E
100
AcDbEntity
  8
AM_5
440
 16777216
100
AcDbLine
 10
29878.41328416603
 20
6140.773551901481
 30
0.0
 11
30145.23859338913
 21
6140.773551901481
 31
0.0
  0
LINE
  5
6ED9
330
6D1E
100
AcDbEntity
  8
AM_5
440
 16777216
100
AcDbLine
 10
29753.41328416603
 20
4737.773551901479
 30
0.0
 11
30145.23859338913
 21
4737.773551901479
 31
0.0
  0
LINE
  5
6EDA
330
6D1E
100
AcDbEntity
  8
AM_5
440
 16777216
100
AcDbLine
 10
30125.23859338914
 20
6090.773551901481
 30
0.0
 11
30125.23859338914
 21
4787.773551901479
 31
0.0
  0
SOLID
  5
6EDB
330
6D1E
100
AcDbEntity
  8
AM_5
440
 16777216
100
AcDbTrace
 10
30116.9052600558
 20
6090.773551901481
 30
0.0
 11
30133.57192672247
 21
6090.773551901481
 31
0.0
 12
30125.23859338914
 22
6140.773551901481
 32
0.0
 13
30125.23859338914
 23
6140.773551901481
 33
0.0
  0
SOLID
  5
6EDC
330
6D1E
100
AcDbEntity
  8
AM_5
440
 16777216
100
AcDbTrace
 10
30116.9052600558
 20
4787.773551901479
 30
0.0
 11
30133.57192672247
 21
4787.773551901479
 31
0.0
 12
30125.23859338914
 22
4737.773551901479
 32
0.0
 13
30125.23859338914
 23
4737.773551901479
 33
0.0
  0
MTEXT
  5
6EDD
330
6D1E
100
AcDbEntity
  8
AM_5
 62
     2
440
 16777216
100
AcDbMText
 10
30059.49848424862
 20
5541.879216847608
 30
0.0
 40
70.0
 41
0.0
 46
0.0
 71
     5
 72
     1
  1
1400
  7
ACANSGDT
 11
0.0000000000000001
 21
1.0
 31
0.0
 73
     1
 44
1.0
  0
POINT
  5
6EDE
330
6D1E
100
AcDbEntity
  8
DEFPOINTS
 62
     0
440
 16777216
100
AcDbPoint
 10
29858.41328416603
 20
6140.773551901481
 30
0.0
  0
POINT
  5
6EDF
330
6D1E
100
AcDbEntity
  8
DEFPOINTS
 62
     0
440
 16777216
100
AcDbPoint
 10
29733.41328416603
 20
4737.773551901479
 30
0.0
  0
POINT
  5
6EE0
330
6D1E
100
AcDbEntity
  8
DEFPOINTS
 62
     0
440
 16777216
100
AcDbPoint
 10
30125.23859338914
 20
4737.773551901479
 30
0.0
  0
ENDBLK
  5
6D20
330
6D1E
100
AcDbEntity
  8
0
100
AcDbBlockEnd
  0
BLOCK
  5
6D37
330
6D36
100
AcDbEntity
  8
0
100
AcDbBlockBegin
  2
*D5
 70
     1
 10
0.0
 20
0.0
 30
0.0
  3
*D5
  1

  0
LINE
  5
6D72
330
6D36
100
AcDbEntity
  8
AM_5
440
 16777216
100
AcDbLine
 10
28642.48628416603
 20
6160.773551901479
 30
0.0
 11
28642.48628416603
 21
6347.897447219948
 31
0.0
  0
LINE
  5
6D73
330
6D36
100
AcDbEntity
  8
AM_5
440
 16777216
100
AcDbLine
 10
28871.48628416603
 20
6133.773551901475
 30
0.0
 11
28871.48628416603
 21
6347.897447219948
 31
0.0
  0
LINE
  5
6D74
330
6D36
100
AcDbEntity
  8
AM_5
440
 16777216
100
AcDbLine
 10
28692.48628416603
 20
6327.897447219948
 30
0.0
 11
28821.48628416603
 21
6327.897447219948
 31
0.0
  0
SOLID
  5
6D75
330
6D36
100
AcDbEntity
  8
AM_5
440
 16777216
100
AcDbTrace
 10
28692.48628416603
 20
6336.23078055328
 30
0.0
 11
28692.48628416603
 21
6319.564113886614
 31
0.0
 12
28642.48628416603
 22
6327.897447219948
 32
0.0
 13
28642.48628416603
 23
6327.897447219948
 33
0.0
  0
SOLID
  5
6D76
330
6D36
100
AcDbEntity
  8
AM_5
440
 16777216
100
AcDbTrace
 10
28821.48628416603
 20
6336.23078055328
 30
0.0
 11
28821.48628416603
 21
6319.564113886614
 31
0.0
 12
28871.48628416603
 22
6327.897447219948
 32
0.0
 13
28871.48628416603
 23
6327.897447219948
 33
0.0
  0
MTEXT
  5
6D77
330
6D36
100
AcDbEntity
  8
AM_5
 62
     2
440
 16777216
100
AcDbMText
 10
28756.98628416603
 20
6393.661430848871
 30
0.0
 40
70.0
 41
0.0
 46
0.0
 71
     5
 72
     1
  1
230
  7
ACANSGDT
 73
     1
 44
1.0
1001
ACAD
1000
MTEXTBEGIN
1070
    73
1070
     1
1070
    44
1040
1.0
1070
    74
1070
     0
1000
MTEXTEND
  0
POINT
  5
6D78
330
6D36
100
AcDbEntity
  8
DEFPOINTS
 62
     0
440
 16777216
100
AcDbPoint
 10
28642.48628416603
 20
6140.773551901481
 30
0.0
  0
POINT
  5
6D79
330
6D36
100
AcDbEntity
  8
DEFPOINTS
 62
     0
440
 16777216
100
AcDbPoint
 10
28871.48628416603
 20
6113.773551901475
 30
0.0
  0
POINT
  5
6D7A
330
6D36
100
AcDbEntity
  8
DEFPOINTS
 62
     0
440
 16777216
100
AcDbPoint
 10
28871.48628416603
 20
6327.897447219948
 30
0.0
  0
ENDBLK
  5
6D38
330
6D36
100
AcDbEntity
  8
0
100
AcDbBlockEnd
  0
BLOCK
  5
6D85
330
6D84
100
AcDbEntity
  8
0
100
AcDbBlockBegin
  2
*D6
 70
     1
 10
0.0
 20
0.0
 30
0.0
  3
*D6
  1

  0
LINE
  5
6D90
330
6D84
100
AcDbEntity
  8
AM_5
440
 16777216
100
AcDbLine
 10
29177.82578416603
 20
5355.773551901482
 30
0.0
 11
29130.66372886708
 21
5355.773551901482
 31
0.0
  0
LINE
  5
6D91
330
6D84
100
AcDbEntity
  8
AM_5
440
 16777216
100
AcDbLine
 10
29323.41328416603
 20
4737.773551901479
 30
0.0
 11
29130.66372886708
 21
4737.773551901479
 31
0.0
  0
LINE
  5
6D92
330
6D84
100
AcDbEntity
  8
AM_5
440
 16777216
100
AcDbLine
 10
29150.66372886708
 20
5305.773551901483
 30
0.0
 11
29150.66372886708
 21
4787.773551901479
 31
0.0
  0
SOLID
  5
6D93
330
6D84
100
AcDbEntity
  8
AM_5
440
 16777216
100
AcDbTrace
 10
29142.33039553375
 20
5305.773551901483
 30
0.0
 11
29158.99706220041
 21
5305.773551901483
 31
0.0
 12
29150.66372886708
 22
5355.773551901482
 32
0.0
 13
29150.66372886708
 23
5355.773551901482
 33
0.0
  0
SOLID
  5
6D94
330
6D84
100
AcDbEntity
  8
AM_5
440
 16777216
100
AcDbTrace
 10
29142.33039553375
 20
4787.773551901479
 30
0.0
 11
29158.99706220041
 21
4787.773551901479
 31
0.0
 12
29150.66372886708
 22
4737.773551901479
 32
0.0
 13
29150.66372886708
 23
4737.773551901479
 33
0.0
  0
MTEXT
  5
6D95
330
6D84
100
AcDbEntity
  8
AM_5
 62
     2
440
 16777216
100
AcDbMText
 10
29084.92361972657
 20
4928.879229506259
 30
0.0
 40
70.0
 41
0.0
 46
0.0
 71
     5
 72
     1
  1
620
  7
ACANSGDT
 11
0.0000000000000001
 21
1.0
 31
0.0
 73
     1
 44
1.0
1001
ACAD
1000
MTEXTBEGIN
1070
    73
1070
     1
1070
    44
1040
1.0
1070
    74
1070
     0
1000
MTEXTEND
  0
POINT
  5
6D96
330
6D84
100
AcDbEntity
  8
DEFPOINTS
 62
     0
440
 16777216
100
AcDbPoint
 10
29197.82578416603
 20
5355.773551901482
 30
0.0
  0
POINT
  5
6D97
330
6D84
100
AcDbEntity
  8
DEFPOINTS
 62
     0
440
 16777216
100
AcDbPoint
 10
29343.41328416603
 20
4737.773551901479
 30
0.0
  0
POINT
  5
6D98
330
6D84
100
AcDbEntity
  8
DEFPOINTS
 62
     0
440
 16777216
100
AcDbPoint
 10
29150.66372886708
 20
4737.773551901479
 30
0.0
  0
ENDBLK
  5
6D86
330
6D84
100
AcDbEntity
  8
0
100
AcDbBlockEnd
  0
BLOCK
  5
6EEA
330
6EE9
100
AcDbEntity
  8
0
100
AcDbBlockBegin
  2
*D9
 70
     1
 10
0.0
 20
0.0
 30
0.0
  3
*D9
  1

  0
LINE
  5
7245
330
6EE9
100
AcDbEntity
  8
AM_5
440
 16777216
100
AcDbLine
 10
29333.41328416603
 20
6248.773551901475
 30
0.0
 11
29333.41328416603
 21
6398.420381315879
 31
0.0
  0
LINE
  5
7246
330
6EE9
100
AcDbEntity
  8
AM_5
440
 16777216
100
AcDbLine
 10
29743.41328416603
 20
6248.773551901475
 30
0.0
 11
29743.41328416603
 21
6398.420381315879
 31
0.0
  0
LINE
  5
7247
330
6EE9
100
AcDbEntity
  8
AM_5
440
 16777216
100
AcDbLine
 10
29383.41328416603
 20
6378.420381315878
 30
0.0
 11
29693.41328416603
 21
6378.420381315878
 31
0.0
  0
SOLID
  5
7248
330
6EE9
100
AcDbEntity
  8
AM_5
440
 16777216
100
AcDbTrace
 10
29383.41328416603
 20
6386.753714649212
 30
0.0
 11
29383.41328416603
 21
6370.087047982545
 31
0.0
 12
29333.41328416603
 22
6378.420381315878
 32
0.0
 13
29333.41328416603
 23
6378.420381315878
 33
0.0
  0
SOLID
  5
7249
330
6EE9
100
AcDbEntity
  8
AM_5
440
 16777216
100
AcDbTrace
 10
29693.41328416603
 20
6386.753714649212
 30
0.0
 11
29693.41328416603
 21
6370.087047982545
 31
0.0
 12
29743.41328416603
 22
6378.420381315878
 32
0.0
 13
29743.41328416603
 23
6378.420381315878
 33
0.0
  0
MTEXT
  5
724A
330
6EE9
100
AcDbEntity
  8
AM_5
 62
     2
440
 16777216
100
AcDbMText
 10
29533.0658082477
 20
6444.160490456396
 30
0.0
 40
70.0
 41
0.0
 46
0.0
 71
     5
 72
     1
  1
410
  7
ACANSGDT
 73
     1
 44
1.0
  0
POINT
  5
724B
330
6EE9
100
AcDbEntity
  8
DEFPOINTS
 62
     0
440
 16777216
100
AcDbPoint
 10
29333.41328416603
 20
6228.773551901475
 30
0.0
  0
POINT
  5
724C
330
6EE9
100
AcDbEntity
  8
DEFPOINTS
 62
     0
440
 16777216
100
AcDbPoint
 10
29743.41328416603
 20
6228.773551901475
 30
0.0
  0
POINT
  5
724D
330
6EE9
100
AcDbEntity
  8
DEFPOINTS
 62
     0
440
 16777216
100
AcDbPoint
 10
29743.41328416603
 20
6378.420381315878
 30
0.0
  0
ENDBLK
  5
6EEB
330
6EE9
100
AcDbEntity
  8
0
100
AcDbBlockEnd
  0
BLOCK
  5
6F32
330
6F31
100
AcDbEntity
  8
0
100
AcDbBlockBegin
  2
*D10
 70
     1
 10
0.0
 20
0.0
 30
0.0
  3
*D10
  1

  0
LINE
  5
6F7B
330
6F31
100
AcDbEntity
  8
AM_5
440
 16777216
100
AcDbLine
 10
28642.48628416603
 20
6160.77355190148
 30
0.0
 11
28642.48628416603
 21
6236.993007239078
 31
0.0
  0
LINE
  5
6F7C
330
6F31
100
AcDbEntity
  8
AM_5
440
 16777216
100
AcDbLine
 10
28849.48628416603
 20
6135.773551901479
 30
0.0
 11
28849.48628416603
 21
6236.993007239078
 31
0.0
  0
LINE
  5
6F7D
330
6F31
100
AcDbEntity
  8
AM_5
440
 16777216
100
AcDbLine
 10
28692.48628416603
 20
6216.993007239079
 30
0.0
 11
28799.48628416603
 21
6216.993007239079
 31
0.0
  0
LINE
  5
6F7E
330
6F31
100
AcDbEntity
  8
AM_5
440
 16777216
100
AcDbLine
 10
28849.48628416603
 20
6216.993007239079
 30
0.0
 11
29115.33894446617
 21
6216.993007239079
 31
0.0
  0
SOLID
  5
6F7F
330
6F31
100
AcDbEntity
  8
AM_5
440
 16777216
100
AcDbTrace
 10
28692.48628416603
 20
6225.326340572411
 30
0.0
 11
28692.48628416603
 21
6208.659673905745
 31
0.0
 12
28642.48628416603
 22
6216.993007239079
 32
0.0
 13
28642.48628416603
 23
6216.993007239079
 33
0.0
  0
SOLID
  5
6F80
330
6F31
100
AcDbEntity
  8
AM_5
440
 16777216
100
AcDbTrace
 10
28799.48628416603
 20
6225.326340572411
 30
0.0
 11
28799.48628416603
 21
6208.659673905745
 31
0.0
 12
28849.48628416603
 22
6216.993007239079
 32
0.0
 13
28849.48628416603
 23
6216.993007239079
 33
0.0
  0
MTEXT
  5
6F81
330
6F31
100
AcDbEntity
  8
AM_5
 62
     2
440
 16777216
100
AcDbMText
 10
29007.4126143161
 20
6282.733116379596
 30
0.0
 40
70.0
 41
0.0
 46
0.0
 71
     5
 72
     1
  1
207
  7
ACANSGDT
 73
     1
 44
1.0
  0
POINT
  5
6F82
330
6F31
100
AcDbEntity
  8
DEFPOINTS
 62
     0
440
 16777216
100
AcDbPoint
 10
28642.48628416603
 20
6140.773551901481
 30
0.0
  0
POINT
  5
6F83
330
6F31
100
AcDbEntity
  8
DEFPOINTS
 62
     0
440
 16777216
100
AcDbPoint
 10
28849.48628416603
 20
6115.773551901479
 30
0.0
  0
POINT
  5
6F84
330
6F31
100
AcDbEntity
  8
DEFPOINTS
 62
     0
440
 16777216
100
AcDbPoint
 10
28849.48628416603
 20
6216.993007239079
 30
0.0
  0
ENDBLK
  5
6F33
330
6F31
100
AcDbEntity
  8
0
100
AcDbBlockEnd
  0
BLOCK
  5
6F87
330
6F86
100
AcDbEntity
  8
0
100
AcDbBlockBegin
  2
*D11
 70
     1
 10
0.0
 20
0.0
 30
0.0
  3
*D11
  1

  0
LINE
  5
6FD0
330
6F86
100
AcDbEntity
  8
AM_5
440
 16777216
100
AcDbLine
 10
28642.48628416603
 20
6160.77355190148
 30
0.0
 11
28642.48628416603
 21
6292.491668913826
 31
0.0
  0
LINE
  5
6FD1
330
6F86
100
AcDbEntity
  8
AM_5
440
 16777216
100
AcDbLine
 10
28849.48628416603
 20
6135.773551901479
 30
0.0
 11
28849.48628416603
 21
6292.491668913826
 31
0.0
  0
LINE
  5
6FD2
330
6F86
100
AcDbEntity
  8
AM_5
440
 16777216
100
AcDbLine
 10
28692.48628416603
 20
6272.491668913826
 30
0.0
 11
28799.48628416603
 21
6272.491668913826
 31
0.0
  0
SOLID
  5
6FD3
330
6F86
100
AcDbEntity
  8
AM_5
440
 16777216
100
AcDbTrace
 10
28692.48628416603
 20
6280.825002247159
 30
0.0
 11
28692.48628416603
 21
6264.158335580493
 31
0.0
 12
28642.48628416603
 22
6272.491668913826
 32
0.0
 13
28642.48628416603
 23
6272.491668913826
 33
0.0
  0
SOLID
  5
6FD4
330
6F86
100
AcDbEntity
  8
AM_5
440
 16777216
100
AcDbTrace
 10
28799.48628416603
 20
6280.825002247159
 30
0.0
 11
28799.48628416603
 21
6264.158335580493
 31
0.0
 12
28849.48628416603
 22
6272.491668913826
 32
0.0
 13
28849.48628416603
 23
6272.491668913826
 33
0.0
  0
MTEXT
  5
6FD5
330
6F86
100
AcDbEntity
  8
AM_5
 62
     2
440
 16777216
100
AcDbMText
 10
28745.98628416603
 20
6338.231778054344
 30
0.0
 40
70.0
 41
0.0
 46
0.0
 71
     5
 72
     1
  1
207
  7
ACANSGDT
 73
     1
 44
1.0
  0
POINT
  5
6FD6
330
6F86
100
AcDbEntity
  8
DEFPOINTS
 62
     0
440
 16777216
100
AcDbPoint
 10
28642.48628416603
 20
6140.773551901481
 30
0.0
  0
POINT
  5
6FD7
330
6F86
100
AcDbEntity
  8
DEFPOINTS
 62
     0
440
 16777216
100
AcDbPoint
 10
28849.48628416603
 20
6115.773551901479
 30
0.0
  0
POINT
  5
6FD8
330
6F86
100
AcDbEntity
  8
DEFPOINTS
 62
     0
440
 16777216
100
AcDbPoint
 10
28849.48628416603
 20
6272.491668913826
 30
0.0
  0
ENDBLK
  5
6F88
330
6F86
100
AcDbEntity
  8
0
100
AcDbBlockEnd
  0
BLOCK
  5
6FEA
330
6FE9
100
AcDbEntity
  8
0
100
AcDbBlockBegin
  2
*D12
 70
     1
 10
0.0
 20
0.0
 30
0.0
  3
*D12
  1

  0
LINE
  5
7024
330
6FE9
100
AcDbEntity
  8
AM_5
440
 16777216
100
AcDbLine
 10
29753.41328416603
 20
4737.773551901479
 30
0.0
 11
29832.06271315395
 21
4737.773551901479
 31
0.0
  0
LINE
  5
7025
330
6FE9
100
AcDbEntity
  8
AM_5
440
 16777216
100
AcDbLine
 10
29763.41328416603
 20
5355.773551901481
 30
0.0
 11
29832.06271315395
 21
5355.773551901481
 31
0.0
  0
LINE
  5
7026
330
6FE9
100
AcDbEntity
  8
AM_5
440
 16777216
100
AcDbLine
 10
29812.06271315395
 20
4787.773551901479
 30
0.0
 11
29812.06271315395
 21
5305.773551901481
 31
0.0
  0
SOLID
  5
7027
330
6FE9
100
AcDbEntity
  8
AM_5
440
 16777216
100
AcDbTrace
 10
29803.72937982062
 20
4787.773551901479
 30
0.0
 11
29820.39604648728
 21
4787.773551901479
 31
0.0
 12
29812.06271315395
 22
4737.773551901479
 32
0.0
 13
29812.06271315395
 23
4737.773551901479
 33
0.0
  0
SOLID
  5
7028
330
6FE9
100
AcDbEntity
  8
AM_5
440
 16777216
100
AcDbTrace
 10
29803.72937982062
 20
5305.773551901481
 30
0.0
 11
29820.39604648728
 21
5305.773551901481
 31
0.0
 12
29812.06271315395
 22
5355.773551901481
 32
0.0
 13
29812.06271315395
 23
5355.773551901481
 33
0.0
  0
MTEXT
  5
7029
330
6FE9
100
AcDbEntity
  8
AM_5
 62
     2
440
 16777216
100
AcDbMText
 10
29746.32260401343
 20
5046.773551901484
 30
0.0
 40
70.0
 41
0.0
 46
0.0
 71
     5
 72
     1
  1
618
  7
ACANSGDT
 11
0.0000000000000001
 21
1.0
 31
0.0
 73
     1
 44
1.0
  0
POINT
  5
702A
330
6FE9
100
AcDbEntity
  8
DEFPOINTS
 62
     0
440
 16777216
100
AcDbPoint
 10
29733.41328416603
 20
4737.773551901479
 30
0.0
  0
POINT
  5
702B
330
6FE9
100
AcDbEntity
  8
DEFPOINTS
 62
     0
440
 16777216
100
AcDbPoint
 10
29743.41328416603
 20
5355.773551901481
 30
0.0
  0
POINT
  5
702C
330
6FE9
100
AcDbEntity
  8
DEFPOINTS
 62
     0
440
 16777216
100
AcDbPoint
 10
29812.06271315395
 20
5355.773551901481
 30
0.0
  0
ENDBLK
  5
6FEB
330
6FE9
100
AcDbEntity
  8
0
100
AcDbBlockEnd
  0
BLOCK
  5
7041
330
7040
100
AcDbEntity
  8
0
100
AcDbBlockBegin
  2
*D13
 70
     1
 10
0.0
 20
0.0
 30
0.0
  3
*D13
  1

  0
LINE
  5
70F0
330
7040
100
AcDbEntity
  8
AM_5
440
 16777216
100
AcDbLine
 10
29323.41328416603
 20
4795.773551901479
 30
0.0
 11
29125.73812980408
 21
4795.773551901479
 31
0.0
  0
LINE
  5
70F1
330
7040
100
AcDbEntity
  8
AM_5
440
 16777216
100
AcDbLine
 10
29313.41328416603
 20
5355.773551901481
 30
0.0
 11
29125.73812980408
 21
5355.773551901481
 31
0.0
  0
LINE
  5
70F2
330
7040
100
AcDbEntity
  8
AM_5
440
 16777216
100
AcDbLine
 10
29145.73812980408
 20
4845.77355190148
 30
0.0
 11
29145.73812980408
 21
5305.773551901481
 31
0.0
  0
SOLID
  5
70F3
330
7040
100
AcDbEntity
  8
AM_5
440
 16777216
100
AcDbTrace
 10
29137.40479647075
 20
4845.77355190148
 30
0.0
 11
29154.07146313741
 21
4845.77355190148
 31
0.0
 12
29145.73812980408
 22
4795.773551901479
 32
0.0
 13
29145.73812980408
 23
4795.773551901479
 33
0.0
  0
SOLID
  5
70F4
330
7040
100
AcDbEntity
  8
AM_5
440
 16777216
100
AcDbTrace
 10
29137.40479647075
 20
5305.773551901481
 30
0.0
 11
29154.07146313741
 21
5305.773551901481
 31
0.0
 12
29145.73812980408
 22
5355.773551901481
 32
0.0
 13
29145.73812980408
 23
5355.773551901481
 33
0.0
  0
MTEXT
  5
70F5
330
7040
100
AcDbEntity
  8
AM_5
 62
     2
440
 16777216
100
AcDbMText
 10
29079.99802066356
 20
4951.242429284016
 30
0.0
 40
70.0
 41
0.0
 46
0.0
 71
     5
 72
     1
  1
560
  7
ACANSGDT
 11
0.0000000000000001
 21
1.0
 31
0.0
 73
     1
 44
1.0
  0
POINT
  5
70F6
330
7040
100
AcDbEntity
  8
DEFPOINTS
 62
     0
440
 16777216
100
AcDbPoint
 10
29343.41328416603
 20
4795.773551901479
 30
0.0
  0
POINT
  5
70F7
330
7040
100
AcDbEntity
  8
DEFPOINTS
 62
     0
440
 16777216
100
AcDbPoint
 10
29333.41328416603
 20
5355.773551901481
 30
0.0
  0
POINT
  5
70F8
330
7040
100
AcDbEntity
  8
DEFPOINTS
 62
     0
440
 16777216
100
AcDbPoint
 10
29145.73812980408
 20
5355.773551901481
 30
0.0
  0
ENDBLK
  5
7042
330
7040
100
AcDbEntity
  8
0
100
AcDbBlockEnd
  0
BLOCK
  5
7109
330
7108
100
AcDbEntity
  8
0
100
AcDbBlockBegin
  2
*D14
 70
     1
 10
0.0
 20
0.0
 30
0.0
  3
*D14
  1

  0
LINE
  5
71E8
330
7108
100
AcDbEntity
  8
AM_5
440
 16777216
100
AcDbLine
 10
29753.41328416603
 20
4795.773551901479
 30
0.0
 11
30161.28910294618
 21
4795.773551901479
 31
0.0
  0
LINE
  5
71E9
330
7108
100
AcDbEntity
  8
AM_5
440
 16777216
100
AcDbLine
 10
29736.41328416602
 20
6255.77355190148
 30
0.0
 11
30161.28910294618
 21
6255.77355190148
 31
0.0
  0
LINE
  5
71EA
330
7108
100
AcDbEntity
  8
AM_5
440
 16777216
100
AcDbLine
 10
30141.28910294618
 20
4845.77355190148
 30
0.0
 11
30141.28910294618
 21
6205.773551901479
 31
0.0
  0
SOLID
  5
71EB
330
7108
100
AcDbEntity
  8
AM_5
440
 16777216
100
AcDbTrace
 10
30132.95576961285
 20
4845.77355190148
 30
0.0
 11
30149.62243627952
 21
4845.77355190148
 31
0.0
 12
30141.28910294618
 22
4795.773551901479
 32
0.0
 13
30141.28910294618
 23
4795.773551901479
 33
0.0
  0
SOLID
  5
71EC
330
7108
100
AcDbEntity
  8
AM_5
440
 16777216
100
AcDbTrace
 10
30132.95576961285
 20
6205.773551901479
 30
0.0
 11
30149.62243627952
 21
6205.773551901479
 31
0.0
 12
30141.28910294618
 22
6255.77355190148
 32
0.0
 13
30141.28910294618
 23
6255.77355190148
 33
0.0
  0
MTEXT
  5
71ED
330
7108
100
AcDbEntity
  8
AM_5
 62
     2
440
 16777216
100
AcDbMText
 10
30075.54899380566
 20
5526.483360683497
 30
0.0
 40
70.0
 41
0.0
 46
0.0
 71
     5
 72
     1
  1
1460
  7
ACANSGDT
 11
0.0000000000000001
 21
1.0
 31
0.0
 73
     1
 44
1.0
  0
POINT
  5
71EE
330
7108
100
AcDbEntity
  8
DEFPOINTS
 62
     0
440
 16777216
100
AcDbPoint
 10
29733.41328416603
 20
4795.773551901479
 30
0.0
  0
POINT
  5
71EF
330
7108
100
AcDbEntity
  8
DEFPOINTS
 62
     0
440
 16777216
100
AcDbPoint
 10
29716.41328416602
 20
6255.77355190148
 30
0.0
  0
POINT
  5
71F0
330
7108
100
AcDbEntity
  8
DEFPOINTS
 62
     0
440
 16777216
100
AcDbPoint
 10
30141.28910294618
 20
6255.77355190148
 30
0.0
  0
ENDBLK
  5
710A
330
7108
100
AcDbEntity
  8
0
100
AcDbBlockEnd
  0
BLOCK
  5
719C
330
719B
100
AcDbEntity
  8
0
100
AcDbBlockBegin
  2
*D15
 70
     1
 10
0.0
 20
0.0
 30
0.0
  3
*D15
  1

  0
LINE
  5
71D6
330
719B
100
AcDbEntity
  8
AM_5
440
 16777216
100
AcDbLine
 10
29736.41328416602
 20
6255.77355190148
 30
0.0
 11
29946.12547689119
 21
6255.77355190148
 31
0.0
  0
LINE
  5
71D7
330
719B
100
AcDbEntity
  8
AM_5
440
 16777216
100
AcDbLine
 10
29763.41328416603
 20
5355.773551901481
 30
0.0
 11
29946.12547689119
 21
5355.773551901481
 31
0.0
  0
LINE
  5
71D8
330
719B
100
AcDbEntity
  8
AM_5
440
 16777216
100
AcDbLine
 10
29926.12547689119
 20
6205.773551901479
 30
0.0
 11
29926.12547689119
 21
5405.77355190148
 31
0.0
  0
SOLID
  5
71D9
330
719B
100
AcDbEntity
  8
AM_5
440
 16777216
100
AcDbTrace
 10
29917.79214355786
 20
6205.773551901479
 30
0.0
 11
29934.45881022452
 21
6205.773551901479
 31
0.0
 12
29926.12547689119
 22
6255.77355190148
 32
0.0
 13
29926.12547689119
 23
6255.77355190148
 33
0.0
  0
SOLID
  5
71DA
330
719B
100
AcDbEntity
  8
AM_5
440
 16777216
100
AcDbTrace
 10
29917.79214355786
 20
5405.77355190148
 30
0.0
 11
29934.45881022452
 21
5405.77355190148
 31
0.0
 12
29926.12547689119
 22
5355.773551901481
 32
0.0
 13
29926.12547689119
 23
5355.773551901481
 33
0.0
  0
MTEXT
  5
71DB
330
719B
100
AcDbEntity
  8
AM_5
 62
     2
440
 16777216
100
AcDbMText
 10
29860.38536775067
 20
5805.773551901484
 30
0.0
 40
70.0
 41
0.0
 46
0.0
 71
     5
 72
     1
  1
900
  7
ACANSGDT
 11
0.0000000000000001
 21
1.0
 31
0.0
 73
     1
 44
1.0
  0
POINT
  5
71DC
330
719B
100
AcDbEntity
  8
DEFPOINTS
 62
     0
440
 16777216
100
AcDbPoint
 10
29716.41328416602
 20
6255.77355190148
 30
0.0
  0
POINT
  5
71DD
330
719B
100
AcDbEntity
  8
DEFPOINTS
 62
     0
440
 16777216
100
AcDbPoint
 10
29743.41328416603
 20
5355.773551901481
 30
0.0
  0
POINT
  5
71DE
330
719B
100
AcDbEntity
  8
DEFPOINTS
 62
     0
440
 16777216
100
AcDbPoint
 10
29926.12547689119
 20
5355.773551901481
 30
0.0
  0
ENDBLK
  5
719D
330
719B
100
AcDbEntity
  8
0
100
AcDbBlockEnd
  0
BLOCK
  5
71F3
330
71F2
100
AcDbEntity
  8
0
100
AcDbBlockBegin
  2
*D16
 70
     1
 10
0.0
 20
0.0
 30
0.0
  3
*D16
  1

  0
LINE
  5
724E
330
71F2
100
AcDbEntity
  8
AM_5
440
 16777216
100
AcDbLine
 10
28796.89428416603
 20
6250.773551901479
 30
0.0
 11
28796.89428416603
 21
6393.399229410526
 31
0.0
  0
LINE
  5
724F
330
71F2
100
AcDbEntity
  8
AM_5
440
 16777216
100
AcDbLine
 10
28589.89428416603
 20
6275.773551901481
 30
0.0
 11
28589.89428416603
 21
6393.399229410526
 31
0.0
  0
LINE
  5
7250
330
71F2
100
AcDbEntity
  8
AM_5
440
 16777216
100
AcDbLine
 10
28746.89428416603
 20
6373.399229410527
 30
0.0
 11
28639.89428416603
 21
6373.399229410527
 31
0.0
  0
SOLID
  5
7251
330
71F2
100
AcDbEntity
  8
AM_5
440
 16777216
100
AcDbTrace
 10
28746.89428416603
 20
6381.732562743859
 30
0.0
 11
28746.89428416603
 21
6365.065896077194
 31
0.0
 12
28796.89428416603
 22
6373.399229410527
 32
0.0
 13
28796.89428416603
 23
6373.399229410527
 33
0.0
  0
SOLID
  5
7252
330
71F2
100
AcDbEntity
  8
AM_5
440
 16777216
100
AcDbTrace
 10
28639.89428416603
 20
6381.732562743859
 30
0.0
 11
28639.89428416603
 21
6365.065896077194
 31
0.0
 12
28589.89428416603
 22
6373.399229410527
 32
0.0
 13
28589.89428416603
 23
6373.399229410527
 33
0.0
  0
MTEXT
  5
7253
330
71F2
100
AcDbEntity
  8
AM_5
 62
     2
440
 16777216
100
AcDbMText
 10
28701.06933327464
 20
6439.139338551044
 30
0.0
 40
70.0
 41
0.0
 46
0.0
 71
     5
 72
     1
  1
207
  7
ACANSGDT
 73
     1
 44
1.0
  0
POINT
  5
7254
330
71F2
100
AcDbEntity
  8
DEFPOINTS
 62
     0
440
 16777216
100
AcDbPoint
 10
28796.89428416603
 20
6230.77355190148
 30
0.0
  0
POINT
  5
7255
330
71F2
100
AcDbEntity
  8
DEFPOINTS
 62
     0
440
 16777216
100
AcDbPoint
 10
28589.89428416603
 20
6255.77355190148
 30
0.0
  0
POINT
  5
7256
330
71F2
100
AcDbEntity
  8
DEFPOINTS
 62
     0
440
 16777216
100
AcDbPoint
 10
28589.89428416603
 20
6373.399229410527
 30
0.0
  0
ENDBLK
  5
71F4
330
71F2
100
AcDbEntity
  8
0
100
AcDbBlockEnd
  0
BLOCK
  5
7259
330
7258
100
AcDbEntity
  8
0
100
AcDbBlockBegin
  2
*D17
 70
     1
 10
0.0
 20
0.0
 30
0.0
  3
*D17
  1

  0
LINE
  5
729D
330
7258
100
AcDbEntity
  8
AM_5
440
 16777216
100
AcDbLine
 10
29615.41328416603
 20
6215.77355190148
 30
0.0
 11
29615.41328416603
 21
6203.77355190148
 31
0.0
  0
LINE
  5
729E
330
7258
100
AcDbEntity
  8
AM_5
440
 16777216
100
AcDbLine
 10
29663.41328416603
 20
6215.77355190148
 30
0.0
 11
29663.41328416603
 21
6203.77355190148
 31
0.0
  0
LINE
  5
729F
330
7258
100
AcDbEntity
  8
AM_5
440
 16777216
100
AcDbLine
 10
29565.41328416603
 20
6223.77355190148
 30
0.0
 11
29515.41328416603
 21
6223.77355190148
 31
0.0
  0
LINE
  5
72A0
330
7258
100
AcDbEntity
  8
AM_5
440
 16777216
100
AcDbLine
 10
29713.41328416603
 20
6223.77355190148
 30
0.0
 11
29926.64657202415
 21
6223.77355190148
 31
0.0
  0
LINE
  5
72A1
330
7258
100
AcDbEntity
  8
AM_5
440
 16777216
100
AcDbLine
 10
29615.41328416603
 20
6223.77355190148
 30
0.0
 11
29663.41328416603
 21
6223.77355190148
 31
0.0
  0
SOLID
  5
72A2
330
7258
100
AcDbEntity
  8
AM_5
440
 16777216
100
AcDbTrace
 10
29565.41328416603
 20
6232.106885234813
 30
0.0
 11
29565.41328416603
 21
6215.440218568147
 31
0.0
 12
29615.41328416603
 22
6223.77355190148
 32
0.0
 13
29615.41328416603
 23
6223.77355190148
 33
0.0
  0
SOLID
  5
72A3
330
7258
100
AcDbEntity
  8
AM_5
440
 16777216
100
AcDbTrace
 10
29713.41328416603
 20
6232.106885234813
 30
0.0
 11
29713.41328416603
 21
6215.440218568147
 31
0.0
 12
29663.41328416603
 22
6223.77355190148
 32
0.0
 13
29663.41328416603
 23
6223.77355190148
 33
0.0
  0
MTEXT
  5
72A4
330
7258
100
AcDbEntity
  8
AM_5
 62
     2
440
 16777216
100
AcDbMText
 10
29845.02992809509
 20
6289.513661041997
 30
0.0
 40
70.0
 41
0.0
 46
0.0
 71
     5
 72
     1
  1
48
  7
ACANSGDT
 73
     1
 44
1.0
  0
POINT
  5
72A5
330
7258
100
AcDbEntity
  8
DEFPOINTS
 62
     0
440
 16777216
100
AcDbPoint
 10
29615.41328416603
 20
6235.77355190148
 30
0.0
  0
POINT
  5
72A6
330
7258
100
AcDbEntity
  8
DEFPOINTS
 62
     0
440
 16777216
100
AcDbPoint
 10
29663.41328416603
 20
6235.77355190148
 30
0.0
  0
POINT
  5
72A7
330
7258
100
AcDbEntity
  8
DEFPOINTS
 62
     0
440
 16777216
100
AcDbPoint
 10
29663.41328416603
 20
6223.77355190148
 30
0.0
  0
ENDBLK
  5
725A
330
7258
100
AcDbEntity
  8
0
100
AcDbBlockEnd
  0
ENDSEC
  0
SECTION
  2
ENTITIES
  0
LINE
  5
694A
330
1F
100
AcDbEntity
  8
anbauteile dünn
100
AcDbLine
 10
29542.07628416603
 20
6073.78555190148
 30
0.0
 11
29537.18728416603
 21
6062.642551901479
 31
0.0
  0
LINE
  5
694B
330
1F
100
AcDbEntity
  8
anbauteile dünn
100
AcDbLine
 10
29537.18728416603
 20
6062.642551901479
 30
0.0
 11
29535.04728416603
 21
6069.523551901479
 31
0.0
  0
LINE
  5
694C
330
1F
100
AcDbEntity
  8
anbauteile dünn
100
AcDbLine
 10
29535.04728416603
 20
6069.523551901479
 30
0.0
 11
29527.11628416603
 21
6049.76955190148
 31
0.0
  0
LINE
  5
6956
330
1F
100
AcDbEntity
  8
AM_8
  6
Continuous
 62
     1
100
AcDbLine
 10
29969.04528416603
 20
5355.773551901481
 30
0.0
 11
29951.96328416603
 21
5326.185551901481
 31
0.0
  0
LINE
  5
6957
330
1F
100
AcDbEntity
  8
AM_8
  6
Continuous
 62
     1
100
AcDbLine
 10
29979.04528416603
 20
5355.773551901481
 30
0.0
 11
29961.96328416603
 21
5326.185551901481
 31
0.0
  0
LINE
  5
6958
330
1F
100
AcDbEntity
  8
AM_8
  6
Continuous
 62
     1
100
AcDbLine
 10
29989.04528416603
 20
5355.773551901481
 30
0.0
 11
29971.96328416603
 21
5326.185551901481
 31
0.0
  0
LINE
  5
6959
330
1F
100
AcDbEntity
  8
AM_8
  6
Continuous
 62
     1
100
AcDbLine
 10
29929.04528416603
 20
5355.773551901481
 30
0.0
 11
29911.96328416603
 21
5326.185551901481
 31
0.0
  0
LINE
  5
695A
330
1F
100
AcDbEntity
  8
AM_8
  6
Continuous
 62
     1
100
AcDbLine
 10
29939.04528416603
 20
5355.773551901481
 30
0.0
 11
29921.96328416603
 21
5326.185551901481
 31
0.0
  0
LINE
  5
695B
330
1F
100
AcDbEntity
  8
AM_8
  6
Continuous
 62
     1
100
AcDbLine
 10
29869.04528416603
 20
5355.773551901481
 30
0.0
 11
29851.96328416603
 21
5326.185551901481
 31
0.0
  0
LINE
  5
695C
330
1F
100
AcDbEntity
  8
AM_8
  6
Continuous
 62
     1
100
AcDbLine
 10
29879.04528416603
 20
5355.773551901481
 30
0.0
 11
29861.96328416603
 21
5326.185551901481
 31
0.0
  0
LINE
  5
695D
330
1F
100
AcDbEntity
  8
AM_8
  6
Continuous
 62
     1
100
AcDbLine
 10
29889.04528416603
 20
5355.773551901481
 30
0.0
 11
29871.96328416603
 21
5326.185551901481
 31
0.0
  0
LINE
  5
695E
330
1F
100
AcDbEntity
  8
AM_8
  6
Continuous
 62
     1
100
AcDbLine
 10
29819.04528416603
 20
5355.773551901481
 30
0.0
 11
29801.96328416603
 21
5326.185551901481
 31
0.0
  0
LINE
  5
695F
330
1F
100
AcDbEntity
  8
AM_8
  6
Continuous
 62
     1
100
AcDbLine
 10
29829.04528416603
 20
5355.773551901481
 30
0.0
 11
29811.96328416603
 21
5326.185551901481
 31
0.0
  0
LINE
  5
6960
330
1F
100
AcDbEntity
  8
AM_8
  6
Continuous
 62
     1
100
AcDbLine
 10
29839.04528416603
 20
5355.773551901481
 30
0.0
 11
29821.96328416603
 21
5326.185551901481
 31
0.0
  0
LINE
  5
6961
330
1F
100
AcDbEntity
  8
AM_8
  6
Continuous
 62
     1
100
AcDbLine
 10
29769.04528416603
 20
5355.773551901481
 30
0.0
 11
29751.96328416603
 21
5326.185551901481
 31
0.0
  0
LINE
  5
6962
330
1F
100
AcDbEntity
  8
AM_8
  6
Continuous
 62
     1
100
AcDbLine
 10
29779.04528416603
 20
5355.773551901481
 30
0.0
 11
29761.96328416603
 21
5326.185551901481
 31
0.0
  0
LINE
  5
6963
330
1F
100
AcDbEntity
  8
AM_8
  6
Continuous
 62
     1
100
AcDbLine
 10
29789.04528416603
 20
5355.773551901481
 30
0.0
 11
29771.96328416603
 21
5326.185551901481
 31
0.0
  0
LINE
  5
6964
330
1F
100
AcDbEntity
  8
AM_8
  6
Continuous
 62
     1
100
AcDbLine
 10
29299.44828416603
 20
5355.773551901481
 30
0.0
 11
29282.36628416603
 21
5326.185551901481
 31
0.0
  0
LINE
  5
6965
330
1F
100
AcDbEntity
  8
AM_8
  6
Continuous
 62
     1
100
AcDbLine
 10
29309.44828416603
 20
5355.773551901481
 30
0.0
 11
29292.36628416603
 21
5326.185551901481
 31
0.0
  0
LINE
  5
6966
330
1F
100
AcDbEntity
  8
AM_8
  6
Continuous
 62
     1
100
AcDbLine
 10
29319.44828416603
 20
5355.773551901481
 30
0.0
 11
29302.36628416603
 21
5326.185551901481
 31
0.0
  0
LINE
  5
6967
330
1F
100
AcDbEntity
  8
AM_8
  6
Continuous
 62
     1
100
AcDbLine
 10
29249.44828416603
 20
5355.773551901481
 30
0.0
 11
29232.36628416603
 21
5326.185551901481
 31
0.0
  0
LINE
  5
6968
330
1F
100
AcDbEntity
  8
AM_8
  6
Continuous
 62
     1
100
AcDbLine
 10
29259.44828416603
 20
5355.773551901481
 30
0.0
 11
29242.36628416603
 21
5326.185551901481
 31
0.0
  0
LINE
  5
6969
330
1F
100
AcDbEntity
  8
AM_8
  6
Continuous
 62
     1
100
AcDbLine
 10
29269.44828416603
 20
5355.773551901481
 30
0.0
 11
29252.36628416603
 21
5326.185551901481
 31
0.0
  0
LINE
  5
696A
330
1F
100
AcDbEntity
  8
AM_8
  6
Continuous
 62
     1
100
AcDbLine
 10
29199.44828416603
 20
5355.773551901481
 30
0.0
 11
29182.36628416602
 21
5326.185551901481
 31
0.0
  0
LINE
  5
696B
330
1F
100
AcDbEntity
  8
AM_8
  6
Continuous
 62
     1
100
AcDbLine
 10
29209.44828416603
 20
5355.773551901481
 30
0.0
 11
29192.36628416603
 21
5326.185551901481
 31
0.0
  0
LINE
  5
696C
330
1F
100
AcDbEntity
  8
AM_8
  6
Continuous
 62
     1
100
AcDbLine
 10
29219.44828416603
 20
5355.773551901481
 30
0.0
 11
29202.36628416603
 21
5326.185551901481
 31
0.0
  0
LINE
  5
696D
330
1F
100
AcDbEntity
  8
AM_8
  6
Continuous
 62
     1
100
AcDbLine
 10
28881.28728416603
 20
5355.773551901481
 30
0.0
 11
28864.20528416603
 21
5326.185551901478
 31
0.0
  0
LINE
  5
696E
330
1F
100
AcDbEntity
  8
AM_8
  6
Continuous
 62
     1
100
AcDbLine
 10
28891.28728416603
 20
5355.773551901481
 30
0.0
 11
28874.20528416603
 21
5326.185551901478
 31
0.0
  0
LINE
  5
696F
330
1F
100
AcDbEntity
  8
AM_8
  6
Continuous
 62
     1
100
AcDbLine
 10
28901.28728416603
 20
5355.773551901481
 30
0.0
 11
28884.20528416603
 21
5326.185551901478
 31
0.0
  0
LINE
  5
6970
330
1F
100
AcDbEntity
  8
AM_8
  6
Continuous
 62
     1
100
AcDbLine
 10
28525.14828416603
 20
5355.773551901481
 30
0.0
 11
28508.06628416603
 21
5326.185551901478
 31
0.0
  0
LINE
  5
6971
330
1F
100
AcDbEntity
  8
AM_8
  6
Continuous
 62
     1
100
AcDbLine
 10
28535.14828416603
 20
5355.773551901481
 30
0.0
 11
28518.06628416603
 21
5326.185551901478
 31
0.0
  0
LINE
  5
6972
330
1F
100
AcDbEntity
  8
AM_8
  6
Continuous
 62
     1
100
AcDbLine
 10
28545.14828416603
 20
5355.773551901481
 30
0.0
 11
28528.06628416603
 21
5326.185551901478
 31
0.0
  0
LINE
  5
6973
330
1F
100
AcDbEntity
  8
AM_8
  6
Continuous
 62
     1
100
AcDbLine
 10
28475.14828416603
 20
5355.773551901481
 30
0.0
 11
28458.06628416603
 21
5326.185551901478
 31
0.0
  0
LINE
  5
6974
330
1F
100
AcDbEntity
  8
AM_8
  6
Continuous
 62
     1
100
AcDbLine
 10
28485.14828416603
 20
5355.773551901481
 30
0.0
 11
28468.06628416603
 21
5326.185551901478
 31
0.0
  0
LINE
  5
6975
330
1F
100
AcDbEntity
  8
AM_8
  6
Continuous
 62
     1
100
AcDbLine
 10
28495.14828416603
 20
5355.773551901481
 30
0.0
 11
28478.06628416603
 21
5326.185551901478
 31
0.0
  0
LINE
  5
6976
330
1F
100
AcDbEntity
  8
AM_8
  6
Continuous
 62
     1
100
AcDbLine
 10
28831.28728416603
 20
5355.773551901481
 30
0.0
 11
28814.20528416603
 21
5326.185551901478
 31
0.0
  0
LINE
  5
6977
330
1F
100
AcDbEntity
  8
AM_8
  6
Continuous
 62
     1
100
AcDbLine
 10
28841.28728416603
 20
5355.773551901481
 30
0.0
 11
28824.20528416603
 21
5326.185551901478
 31
0.0
  0
LINE
  5
6978
330
1F
100
AcDbEntity
  8
AM_8
  6
Continuous
 62
     1
100
AcDbLine
 10
28851.28728416603
 20
5355.773551901481
 30
0.0
 11
28834.20528416603
 21
5326.185551901478
 31
0.0
  0
CIRCLE
  5
697A
330
1F
100
AcDbEntity
  8
anbauteile dünn
100
AcDbCircle
 10
29538.41328416603
 20
6145.77355190148
 30
0.0
 40
7.865999999999998
  0
LINE
  5
697B
330
1F
100
AcDbEntity
  8
anbauteile dünn
100
AcDbLine
 10
29534.22128416603
 20
6140.16755190148
 30
0.0
 11
29544.01928416603
 21
6149.965551901479
 31
0.0
  0
LINE
  5
697C
330
1F
100
AcDbEntity
  8
anbauteile dünn
100
AcDbLine
 10
29532.80728416603
 20
6141.58155190148
 30
0.0
 11
29542.60528416604
 21
6151.379551901479
 31
0.0
  0
LINE
  5
697D
330
1F
100
AcDbEntity
  8
anbauteile dünn
100
AcDbLine
 10
29529.41328416603
 20
6197.77355190148
 30
0.0
 11
29547.41328416603
 21
6197.77355190148
 31
0.0
  0
LINE
  5
697E
330
1F
100
AcDbEntity
  8
AM_0
  6
Continuous
 62
     7
100
AcDbLine
 10
29338.41328416603
 20
6190.77355190148
 30
0.0
 11
29333.41328416603
 21
6190.77355190148
 31
0.0
  0
LINE
  5
697F
330
1F
100
AcDbEntity
  8
AM_0
  6
Continuous
 62
     7
100
AcDbLine
 10
29333.41328416603
 20
6215.773551901481
 30
0.0
 11
29338.41328416603
 21
6215.773551901481
 31
0.0
  0
LINE
  5
6980
330
1F
100
AcDbEntity
  8
AM_0
  6
Continuous
 62
     7
100
AcDbLine
 10
29738.41328416603
 20
6190.77355190148
 30
0.0
 11
29743.41328416603
 21
6190.77355190148
 31
0.0
  0
LINE
  5
6981
330
1F
100
AcDbEntity
  8
AM_0
  6
Continuous
 62
     7
100
AcDbLine
 10
29743.41328416603
 20
6215.773551901481
 30
0.0
 11
29738.41328416603
 21
6215.773551901481
 31
0.0
  0
LINE
  5
6982
330
1F
100
AcDbEntity
  8
anbauteile dünn
100
AcDbLine
 10
29714.41328416603
 20
5145.77355190148
 30
0.0
 11
29714.41328416603
 21
5355.773551901481
 31
0.0
  0
LINE
  5
6983
330
1F
100
AcDbEntity
  8
anbauteile dünn
100
AcDbLine
 10
29666.41328416603
 20
5145.77355190148
 30
0.0
 11
29666.41328416603
 21
5355.773551901481
 31
0.0
  0
LINE
  5
6984
330
1F
100
AcDbEntity
  8
anbauteile dünn
100
AcDbLine
 10
29663.41328416603
 20
5145.77355190148
 30
0.0
 11
29663.41328416603
 21
5355.773551901481
 31
0.0
  0
LINE
  5
6985
330
1F
100
AcDbEntity
  8
anbauteile dünn
100
AcDbLine
 10
29615.41328416603
 20
5145.77355190148
 30
0.0
 11
29615.41328416603
 21
5355.773551901481
 31
0.0
  0
LINE
  5
6986
330
1F
100
AcDbEntity
  8
anbauteile dünn
100
AcDbLine
 10
29612.41328416603
 20
5145.77355190148
 30
0.0
 11
29612.41328416603
 21
5355.773551901481
 31
0.0
  0
LINE
  5
6987
330
1F
100
AcDbEntity
  8
anbauteile dünn
100
AcDbLine
 10
29464.41328416603
 20
5145.77355190148
 30
0.0
 11
29464.41328416603
 21
5355.773551901481
 31
0.0
  0
LINE
  5
6988
330
1F
100
AcDbEntity
  8
anbauteile dünn
100
AcDbLine
 10
29461.41328416603
 20
5145.77355190148
 30
0.0
 11
29461.41328416603
 21
5355.773551901481
 31
0.0
  0
LINE
  5
6989
330
1F
100
AcDbEntity
  8
anbauteile dünn
100
AcDbLine
 10
29413.41328416603
 20
5145.77355190148
 30
0.0
 11
29413.41328416603
 21
5355.773551901481
 31
0.0
  0
LINE
  5
698A
330
1F
100
AcDbEntity
  8
anbauteile dünn
100
AcDbLine
 10
29410.41328416603
 20
5145.77355190148
 30
0.0
 11
29410.41328416603
 21
5355.773551901481
 31
0.0
  0
LINE
  5
698B
330
1F
100
AcDbEntity
  8
anbauteile dünn
100
AcDbLine
 10
29362.41328416603
 20
5145.77355190148
 30
0.0
 11
29362.41328416603
 21
5355.773551901481
 31
0.0
  0
LINE
  5
698C
330
1F
100
AcDbEntity
  8
AM_0
  6
Continuous
 62
     7
100
AcDbLine
 10
29733.41328416603
 20
4888.773551901479
 30
0.0
 11
29723.41328416603
 21
4888.773551901479
 31
0.0
  0
LINE
  5
698D
330
1F
100
AcDbEntity
  8
AM_0
  6
Continuous
 62
     7
100
AcDbLine
 10
29343.41328416603
 20
4888.773551901479
 30
0.0
 11
29353.41328416603
 21
4888.773551901479
 31
0.0
  0
LINE
  5
698E
330
1F
100
AcDbEntity
  8
anbauteile dünn
100
AcDbLine
 10
29714.41328416603
 20
5365.773551901479
 30
0.0
 11
29714.41328416603
 21
5465.773551901481
 31
0.0
  0
LINE
  5
698F
330
1F
100
AcDbEntity
  8
anbauteile dünn
100
AcDbLine
 10
29666.41328416603
 20
5365.773551901479
 30
0.0
 11
29666.41328416603
 21
5465.773551901481
 31
0.0
  0
LINE
  5
6990
330
1F
100
AcDbEntity
  8
anbauteile dünn
100
AcDbLine
 10
29663.41328416603
 20
5365.773551901479
 30
0.0
 11
29663.41328416603
 21
5465.773551901481
 31
0.0
  0
LINE
  5
6991
330
1F
100
AcDbEntity
  8
anbauteile dünn
100
AcDbLine
 10
29615.41328416603
 20
5365.773551901479
 30
0.0
 11
29615.41328416603
 21
5465.773551901481
 31
0.0
  0
LINE
  5
6992
330
1F
100
AcDbEntity
  8
anbauteile dünn
100
AcDbLine
 10
29612.41328416603
 20
5365.773551901479
 30
0.0
 11
29612.41328416603
 21
5465.773551901481
 31
0.0
  0
LINE
  5
6993
330
1F
100
AcDbEntity
  8
anbauteile dünn
100
AcDbLine
 10
29464.41328416603
 20
5365.773551901479
 30
0.0
 11
29464.41328416603
 21
5465.773551901481
 31
0.0
  0
LINE
  5
6994
330
1F
100
AcDbEntity
  8
anbauteile dünn
100
AcDbLine
 10
29461.41328416603
 20
5365.773551901479
 30
0.0
 11
29461.41328416603
 21
5465.773551901481
 31
0.0
  0
LINE
  5
6995
330
1F
100
AcDbEntity
  8
anbauteile dünn
100
AcDbLine
 10
29413.41328416603
 20
5365.773551901479
 30
0.0
 11
29413.41328416603
 21
5465.773551901481
 31
0.0
  0
LINE
  5
6996
330
1F
100
AcDbEntity
  8
anbauteile dünn
100
AcDbLine
 10
29410.41328416603
 20
5365.773551901479
 30
0.0
 11
29410.41328416603
 21
5465.773551901481
 31
0.0
  0
LINE
  5
6997
330
1F
100
AcDbEntity
  8
anbauteile dünn
100
AcDbLine
 10
29362.41328416603
 20
5365.773551901479
 30
0.0
 11
29362.41328416603
 21
5465.773551901481
 31
0.0
  0
LINE
  5
6998
330
1F
100
AcDbEntity
  8
anbauteile dünn
100
AcDbLine
 10
29714.41328416603
 20
5475.773551901481
 30
0.0
 11
29714.41328416603
 21
6235.77355190148
 31
0.0
  0
LINE
  5
6999
330
1F
100
AcDbEntity
  8
anbauteile dünn
100
AcDbLine
 10
29666.41328416603
 20
5475.773551901481
 30
0.0
 11
29666.41328416603
 21
6235.77355190148
 31
0.0
  0
LINE
  5
699A
330
1F
100
AcDbEntity
  8
anbauteile dünn
100
AcDbLine
 10
29663.41328416603
 20
5475.773551901481
 30
0.0
 11
29663.41328416603
 21
6235.77355190148
 31
0.0
  0
LINE
  5
699B
330
1F
100
AcDbEntity
  8
anbauteile dünn
100
AcDbLine
 10
29615.41328416603
 20
5475.773551901481
 30
0.0
 11
29615.41328416603
 21
6235.77355190148
 31
0.0
  0
LINE
  5
699C
330
1F
100
AcDbEntity
  8
anbauteile dünn
100
AcDbLine
 10
29612.41328416603
 20
5475.773551901481
 30
0.0
 11
29612.41328416603
 21
6235.77355190148
 31
0.0
  0
LINE
  5
699D
330
1F
100
AcDbEntity
  8
anbauteile dünn
100
AcDbLine
 10
29464.41328416603
 20
5475.773551901481
 30
0.0
 11
29464.41328416603
 21
6235.77355190148
 31
0.0
  0
LINE
  5
699E
330
1F
100
AcDbEntity
  8
anbauteile dünn
100
AcDbLine
 10
29461.41328416603
 20
5475.773551901481
 30
0.0
 11
29461.41328416603
 21
6235.77355190148
 31
0.0
  0
LINE
  5
699F
330
1F
100
AcDbEntity
  8
anbauteile dünn
100
AcDbLine
 10
29413.41328416603
 20
5475.773551901481
 30
0.0
 11
29413.41328416603
 21
6235.77355190148
 31
0.0
  0
LINE
  5
69A0
330
1F
100
AcDbEntity
  8
anbauteile dünn
100
AcDbLine
 10
29410.41328416603
 20
5475.773551901481
 30
0.0
 11
29410.41328416603
 21
6235.77355190148
 31
0.0
  0
LINE
  5
69A1
330
1F
100
AcDbEntity
  8
anbauteile dünn
100
AcDbLine
 10
29362.41328416603
 20
5475.773551901481
 30
0.0
 11
29362.41328416603
 21
6235.77355190148
 31
0.0
  0
LINE
  5
69A2
102
{ACAD_REACTORS
330
71A8
102
}
330
1F
100
AcDbEntity
  8
AM_8
  6
Continuous
 62
     1
100
AcDbLine
 10
29995.16450187864
 20
5355.773551901481
 30
0.0
 11
29743.41328416603
 21
5355.773551901481
 31
0.0
  0
LINE
  5
69A3
102
{ACAD_REACTORS
330
704D
102
}
330
1F
100
AcDbEntity
  8
AM_8
  6
Continuous
 62
     1
100
AcDbLine
 10
29076.36349396463
 20
5355.773551901481
 30
0.0
 11
29333.41328416603
 21
5355.773551901481
 31
0.0
  0
LINE
  5
69A4
330
1F
100
AcDbEntity
  8
AM_8
  6
Continuous
 62
     1
100
AcDbLine
 10
28796.89428416603
 20
5355.773551901481
 30
0.0
 11
28933.87928416603
 21
5355.773551901481
 31
0.0
  0
LINE
  5
69A5
330
1F
100
AcDbEntity
  8
AM_0
  6
Continuous
 62
     7
100
AcDbLine
 10
28593.39428416603
 20
5365.773551901479
 30
0.0
 11
28593.39428416603
 21
5465.773551901481
 31
0.0
  0
LINE
  5
69A6
330
1F
100
AcDbEntity
  8
AM_0
  6
Continuous
 62
     7
100
AcDbLine
 10
28593.39428416603
 20
5143.773551901479
 30
0.0
 11
28593.39428416603
 21
5355.773551901481
 31
0.0
  0
LINE
  5
69A8
330
1F
100
AcDbEntity
  8
AM_8
  6
Continuous
 62
     1
100
AcDbLine
 10
28584.89428416603
 20
5355.773551901481
 30
0.0
 11
28423.59211407702
 21
5355.773551901481
 31
0.0
  0
TEXT
  5
69BB
330
1F
100
AcDbEntity
  8
anbauteile dünn
100
AcDbText
 10
29539.19328416603
 20
6045.42255190148
 30
0.0
 40
4.0
  1
GÖHRE
 41
0.8699999999999999
  7
ISOCP
100
AcDbText
  0
LINE
  5
69C4
330
1F
100
AcDbEntity
  8
anbauteile dünn
100
AcDbLine
 10
28687.96628416603
 20
6160.859269704568
 30
0.0
 11
28712.96628416603
 21
6160.859269704568
 31
0.0
  0
LINE
  5
69C5
330
1F
100
AcDbEntity
  8
anbauteile dünn
100
AcDbLine
 10
28712.96628416603
 20
6224.859269704568
 30
0.0
 11
28687.96628416603
 21
6224.859269704568
 31
0.0
  0
LINE
  5
69C6
330
1F
100
AcDbEntity
  8
anbauteile dünn
100
AcDbLine
 10
28715.46628416603
 20
6160.859269704568
 30
0.0
 11
28740.46628416603
 21
6160.859269704568
 31
0.0
  0
LINE
  5
69C7
330
1F
100
AcDbEntity
  8
anbauteile dünn
100
AcDbLine
 10
28740.46628416603
 20
6160.859269704568
 30
0.0
 11
28740.46628416603
 21
6224.859269704568
 31
0.0
  0
LINE
  5
69C8
330
1F
100
AcDbEntity
  8
anbauteile dünn
100
AcDbLine
 10
28740.46628416603
 20
6224.859269704568
 30
0.0
 11
28715.46628416603
 21
6224.859269704568
 31
0.0
  0
LINE
  5
69C9
330
1F
100
AcDbEntity
  8
anbauteile dünn
100
AcDbLine
 10
28685.46628416603
 20
6224.859269704568
 30
0.0
 11
28660.46628416603
 21
6224.859269704568
 31
0.0
  0
LINE
  5
69CA
330
1F
100
AcDbEntity
  8
anbauteile dünn
100
AcDbLine
 10
28660.46628416603
 20
6224.859269704568
 30
0.0
 11
28660.46628416603
 21
6160.859269704568
 31
0.0
  0
LINE
  5
69CB
330
1F
100
AcDbEntity
  8
anbauteile dünn
100
AcDbLine
 10
28660.46628416603
 20
6160.859269704568
 30
0.0
 11
28685.46628416603
 21
6160.859269704568
 31
0.0
  0
LINE
  5
69CC
330
1F
100
AcDbEntity
  8
anbauteile dünn
100
AcDbLine
 10
28662.96528416603
 20
6164.393269704571
 30
0.0
 11
28666.97276537455
 21
6164.393284222708
 31
0.0
  0
ARC
  5
69CD
330
1F
100
AcDbEntity
  8
anbauteile dünn
100
AcDbCircle
 10
28685.49019349472
 20
6165.627323012684
 30
0.0
 40
18.55850198481906
100
AcDbArc
 50
174.6916688530333
 51
183.8126688529632
  0
LINE
  5
69CE
330
1F
100
AcDbEntity
  8
anbauteile dünn
100
AcDbLine
 10
28667.01128416603
 20
6167.344269704569
 30
0.0
 11
28678.92125905694
 21
6167.343889118709
 31
0.0
  0
ARC
  5
69CF
330
1F
100
AcDbEntity
  8
anbauteile dünn
100
AcDbCircle
 10
28660.44643377362
 20
6165.630246335601
 30
0.0
 40
18.55413002103787
100
AcDbArc
 50
356.1773390947895
 51
5.299339094779142
  0
LINE
  5
69D0
330
1F
100
AcDbEntity
  8
anbauteile dünn
100
AcDbLine
 10
28678.95928416603
 20
6164.393269704571
 30
0.0
 11
28682.96616399486
 21
6164.393137253968
 31
0.0
  0
ARC
  5
69D1
330
1F
100
AcDbEntity
  8
anbauteile dünn
100
AcDbCircle
 10
28660.4459287161
 20
6165.632646963874
 30
0.0
 40
22.55432067990018
100
AcDbArc
 50
356.8496292332556
 51
56.28362923318721
  0
ARC
  5
69D2
330
1F
100
AcDbEntity
  8
anbauteile dünn
100
AcDbCircle
 10
28685.48510805512
 20
6165.633230661219
 30
0.0
 40
22.55393471591147
100
AcDbArc
 50
123.7175728114259
 51
183.1515728115215
  0
LINE
  5
69D3
330
1F
100
AcDbEntity
  8
anbauteile dünn
100
AcDbLine
 10
28667.83228416603
 20
6171.344269704569
 30
0.0
 11
28678.09967678502
 21
6171.343667680208
 31
0.0
  0
ARC
  5
69D4
330
1F
100
AcDbEntity
  8
anbauteile dünn
100
AcDbCircle
 10
28660.44593236233
 20
6165.631939966718
 30
0.0
 40
18.55474401910363
100
AcDbArc
 50
17.92857248178299
 51
47.56657248155195
  0
ARC
  5
69D5
330
1F
100
AcDbEntity
  8
anbauteile dünn
100
AcDbCircle
 10
28685.484342718
 20
6165.634312721928
 30
0.0
 40
18.55259496312782
100
AcDbArc
 50
132.4370277919718
 51
162.0750277917322
  0
ARC
  5
69D6
330
1F
100
AcDbEntity
  8
anbauteile dünn
100
AcDbCircle
 10
28701.93028416603
 20
6174.39326970457
 30
0.0
 40
10.0
100
AcDbArc
 50
45.00000000011463
 51
314.9999999998854
  0
LINE
  5
69D7
330
1F
100
AcDbEntity
  8
anbauteile dünn
100
AcDbLine
 10
28706.17328416603
 20
6178.636269704568
 30
0.0
 11
28709.00128416603
 21
6181.464269704569
 31
0.0
  0
LINE
  5
69D8
330
1F
100
AcDbEntity
  8
anbauteile dünn
100
AcDbLine
 10
28706.17328416603
 20
6170.15126970457
 30
0.0
 11
28709.00128416603
 21
6167.322269704568
 31
0.0
  0
ARC
  5
69D9
330
1F
100
AcDbEntity
  8
anbauteile dünn
100
AcDbCircle
 10
28701.93028416603
 20
6174.39326970457
 30
0.0
 40
6.0
100
AcDbArc
 50
45.00000000011463
 51
314.9999999998854
  0
CIRCLE
  5
69DA
330
1F
100
AcDbEntity
  8
anbauteile dünn
100
AcDbCircle
 10
28727.96628416603
 20
6174.39326970457
 30
0.0
 40
10.0
  0
CIRCLE
  5
69DB
330
1F
100
AcDbEntity
  8
anbauteile dünn
100
AcDbCircle
 10
28727.96628416603
 20
6174.39326970457
 30
0.0
 40
6.0
  0
LINE
  5
69DC
330
1F
100
AcDbEntity
  8
anbauteile dünn
100
AcDbLine
 10
28685.46628416603
 20
6224.859269704568
 30
0.0
 11
28685.46628416603
 21
6160.859269704568
 31
0.0
  0
LINE
  5
69DD
330
1F
100
AcDbEntity
  8
anbauteile dünn
100
AcDbLine
 10
28687.96628416603
 20
6160.859269704568
 30
0.0
 11
28687.96628416603
 21
6224.859269704568
 31
0.0
  0
LINE
  5
69DE
330
1F
100
AcDbEntity
  8
anbauteile dünn
100
AcDbLine
 10
28712.96628416603
 20
6160.859269704568
 30
0.0
 11
28712.96628416603
 21
6224.859269704568
 31
0.0
  0
LINE
  5
69DF
330
1F
100
AcDbEntity
  8
anbauteile dünn
100
AcDbLine
 10
28715.46628416603
 20
6160.859269704568
 30
0.0
 11
28715.46628416603
 21
6224.859269704568
 31
0.0
  0
LINE
  5
69E2
330
1F
100
AcDbEntity
  8
anbauteile dünn
100
AcDbLine
 10
29717.41328416603
 20
5475.773551901481
 30
0.0
 11
29717.41328416603
 21
6235.77355190148
 31
0.0
  0
ARC
  5
69E3
330
1F
100
AcDbEntity
  8
anbauteile dünn
100
AcDbCircle
 10
29359.41328416603
 20
6219.773551901477
 30
0.0
 40
16.0000000000026
100
AcDbArc
 50
90.0
 51
180.0
  0
LINE
  5
69E4
330
1F
100
AcDbEntity
  8
anbauteile dünn
100
AcDbLine
 10
29359.41328416603
 20
6235.77355190148
 30
0.0
 11
29359.41328416603
 21
5475.773551901481
 31
0.0
  0
LINE
  5
69E5
330
1F
100
AcDbEntity
  8
anbauteile dünn
100
AcDbLine
 10
29359.41328416603
 20
5475.773551901481
 30
0.0
 11
29717.41328416603
 21
5475.773551901481
 31
0.0
  0
ARC
  5
69E6
330
1F
100
AcDbEntity
  8
anbauteile dünn
100
AcDbCircle
 10
29717.41328416603
 20
5491.773551901482
 30
0.0
 40
16.00000000000273
100
AcDbArc
 50
270.0
 51
0.0
  0
LINE
  5
69E7
330
1F
100
AcDbEntity
  8
anbauteile dünn
100
AcDbLine
 10
29733.41328416603
 20
5491.773551901481
 30
0.0
 11
29733.41328416603
 21
6229.773551901476
 31
0.0
  0
ARC
  5
69E8
330
1F
100
AcDbEntity
  8
anbauteile dünn
100
AcDbCircle
 10
29717.41328416603
 20
6229.773551901476
 30
0.0
 40
16.0000000000025
100
AcDbArc
 50
0.0
 51
90.0
  0
LINE
  5
69E9
330
1F
100
AcDbEntity
  8
anbauteile dünn
100
AcDbLine
 10
29717.41328416603
 20
6245.773551901479
 30
0.0
 11
29359.41328416603
 21
6245.773551901479
 31
0.0
  0
ARC
  5
69EA
330
1F
100
AcDbEntity
  8
anbauteile dünn
100
AcDbCircle
 10
29359.41328416603
 20
6229.773551901476
 30
0.0
 40
16.00000000000273
100
AcDbArc
 50
90.0
 51
180.0
  0
LINE
  5
69EB
330
1F
100
AcDbEntity
  8
anbauteile dünn
100
AcDbLine
 10
29343.41328416603
 20
6229.773551901476
 30
0.0
 11
29343.41328416603
 21
5491.773551901481
 31
0.0
  0
ARC
  5
69EC
330
1F
100
AcDbEntity
  8
anbauteile dünn
100
AcDbCircle
 10
29359.41328416603
 20
5491.773551901482
 30
0.0
 40
16.0000000000026
100
AcDbArc
 50
180.0
 51
270.0
  0
LINE
  5
69ED
330
1F
100
AcDbEntity
  8
anbauteile dünn
100
AcDbLine
 10
29544.71728416603
 20
6067.10455190148
 30
0.0
 11
29537.66528416603
 21
6057.147551901481
 31
0.0
  0
LINE
  5
69EE
330
1F
100
AcDbEntity
  8
anbauteile dünn
100
AcDbLine
 10
29537.66528416603
 20
6057.147551901481
 30
0.0
 11
29536.01728416603
 21
6061.869551901479
 31
0.0
  0
LINE
  5
69EF
330
1F
100
AcDbEntity
  8
anbauteile dünn
100
AcDbLine
 10
29536.01728416603
 20
6061.869551901479
 30
0.0
 11
29531.95228416603
 21
6049.149551901479
 31
0.0
  0
LINE
  5
69F0
330
1F
100
AcDbEntity
  8
anbauteile dünn
100
AcDbLine
 10
29533.69728416603
 20
6076.941551901479
 30
0.0
 11
29517.29403571138
 21
6049.603216283351
 31
0.0
  0
ARC
  5
69F1
330
1F
100
AcDbEntity
  8
anbauteile dünn
100
AcDbCircle
 10
29522.01028416603
 20
6046.77355190148
 30
0.0
 40
5.500000000000249
100
AcDbArc
 50
149.0369999999242
 51
270.0
  0
LINE
  5
69F2
330
1F
100
AcDbEntity
  8
anbauteile dünn
100
AcDbLine
 10
29522.01028416603
 20
6041.27355190148
 30
0.0
 11
29554.81628416603
 21
6041.27355190148
 31
0.0
  0
ARC
  5
69F3
330
1F
100
AcDbEntity
  8
anbauteile dünn
100
AcDbCircle
 10
29554.81628416603
 20
6046.773551901477
 30
0.0
 40
5.499999999997043
100
AcDbArc
 50
270.0
 51
30.96399999994419
  0
LINE
  5
69F4
330
1F
100
AcDbEntity
  8
anbauteile dünn
100
AcDbLine
 10
29559.532483233
 20
6049.60329859698
 30
0.0
 11
29543.12928416603
 21
6076.94055190148
 31
0.0
  0
ARC
  5
69F5
330
1F
100
AcDbEntity
  8
anbauteile dünn
100
AcDbCircle
 10
29538.4129841572
 20
6074.111368676121
 30
0.0
 40
5.499796677685414
100
AcDbArc
 50
30.95842538384637
 51
149.0294253840096
  0
LINE
  5
69F6
330
1F
100
AcDbEntity
  8
anbauteile dünn
100
AcDbLine
 10
29522.01028416603
 20
6039.27355190148
 30
0.0
 11
29554.81628416603
 21
6039.27355190148
 31
0.0
  0
ARC
  5
69F7
330
1F
100
AcDbEntity
  8
anbauteile dünn
100
AcDbCircle
 10
29554.81640493779
 20
6046.773128043131
 30
0.0
 40
7.499576142623219
100
AcDbArc
 50
269.9990773195667
 51
30.96307731960697
  0
LINE
  5
69F8
330
1F
100
AcDbEntity
  8
anbauteile dünn
100
AcDbLine
 10
29561.24728416603
 20
6050.63155190148
 30
0.0
 11
29544.8444647119
 21
6077.970297395349
 31
0.0
  0
ARC
  5
69F9
330
1F
100
AcDbEntity
  8
anbauteile dünn
100
AcDbCircle
 10
29538.41328416603
 20
6074.111551901484
 30
0.0
 40
7.500000000000087
100
AcDbArc
 50
30.96399999994419
 51
149.0349999999545
  0
LINE
  5
69FA
330
1F
100
AcDbEntity
  8
anbauteile dünn
100
AcDbLine
 10
29531.98217096895
 20
6077.970409640029
 30
0.0
 11
29515.57928416603
 21
6050.63155190148
 31
0.0
  0
ARC
  5
69FB
330
1F
100
AcDbEntity
  8
anbauteile dünn
100
AcDbCircle
 10
29522.01022884016
 20
6046.773165099165
 30
0.0
 40
7.499613197889241
100
AcDbArc
 50
149.0374226802463
 51
270.0004226802787
  0
LINE
  5
69FC
330
1F
100
AcDbEntity
  8
anbauteile dünn
100
AcDbLine
 10
29555.41328416603
 20
6205.77355190148
 30
0.0
 11
29521.41328416603
 21
6205.77355190148
 31
0.0
  0
LINE
  5
69FD
330
1F
100
AcDbEntity
  8
anbauteile dünn
100
AcDbLine
 10
29521.41328416603
 20
6205.77355190148
 30
0.0
 11
29521.41328416603
 21
6130.77355190148
 31
0.0
  0
LINE
  5
69FE
330
1F
100
AcDbEntity
  8
anbauteile dünn
100
AcDbLine
 10
29521.41328416603
 20
6130.77355190148
 30
0.0
 11
29555.41328416603
 21
6130.77355190148
 31
0.0
  0
LINE
  5
69FF
330
1F
100
AcDbEntity
  8
anbauteile dünn
100
AcDbLine
 10
29555.41328416603
 20
6130.77355190148
 30
0.0
 11
29555.41328416603
 21
6205.77355190148
 31
0.0
  0
LINE
  5
6A00
330
1F
100
AcDbEntity
  8
anbauteile dünn
100
AcDbLine
 10
29547.41328416603
 20
6205.77355190148
 30
0.0
 11
29547.41328416603
 21
6195.77355190148
 31
0.0
  0
LINE
  5
6A01
330
1F
100
AcDbEntity
  8
anbauteile dünn
100
AcDbLine
 10
29547.41328416603
 20
6195.77355190148
 30
0.0
 11
29529.41328416603
 21
6195.77355190148
 31
0.0
  0
LINE
  5
6A02
330
1F
100
AcDbEntity
  8
anbauteile dünn
100
AcDbLine
 10
29529.41328416603
 20
6195.77355190148
 30
0.0
 11
29529.41328416603
 21
6205.77355190148
 31
0.0
  0
LINE
  5
6A03
330
1F
100
AcDbEntity
  8
anbauteile dünn
100
AcDbLine
 10
29359.41328416603
 20
6235.77355190148
 30
0.0
 11
29717.41328416603
 21
6235.77355190148
 31
0.0
  0
ARC
  5
6A04
330
1F
100
AcDbEntity
  8
anbauteile dünn
100
AcDbCircle
 10
29717.41328416603
 20
6219.773551901477
 30
0.0
 40
16.00000000000273
100
AcDbArc
 50
0.0
 51
90.0
  0
LINE
  5
6A05
330
1F
100
AcDbEntity
  8
AM_0
  6
Continuous
 62
     7
100
AcDbLine
 10
29343.41328416603
 20
5130.56655190148
 30
0.0
 11
29343.41328416603
 21
4795.773551901479
 31
0.0
  0
LINE
  5
6A06
102
{ACAD_REACTORS
330
704D
102
}
330
1F
100
AcDbEntity
  8
AM_0
  6
Continuous
 62
     7
100
AcDbLine
 10
29343.41328416603
 20
4795.773551901479
 30
0.0
 11
29733.41328416603
 21
4795.773551901479
 31
0.0
  0
LINE
  5
6A07
102
{ACAD_REACTORS
330
7115
102
}
330
1F
100
AcDbEntity
  8
AM_0
  6
Continuous
 62
     7
100
AcDbLine
 10
29733.41328416603
 20
4795.773551901479
 30
0.0
 11
29733.41328416603
 21
5130.77355190148
 31
0.0
  0
LINE
  5
6A08
330
1F
100
AcDbEntity
  8
AM_0
  6
Continuous
 62
     7
100
AcDbLine
 10
29733.41328416603
 20
5130.77355190148
 30
0.0
 11
29738.41328416603
 21
5135.773551901479
 31
0.0
  0
LINE
  5
6A09
330
1F
100
AcDbEntity
  8
AM_0
  6
Continuous
 62
     7
100
AcDbLine
 10
29738.41328416603
 20
5135.773551901479
 30
0.0
 11
29743.41328416603
 21
5135.773551901479
 31
0.0
  0
LINE
  5
6A0A
330
1F
100
AcDbEntity
  8
AM_0
  6
Continuous
 62
     7
100
AcDbLine
 10
29743.41328416603
 20
5135.773551901479
 30
0.0
 11
29743.41328416603
 21
6228.773551901475
 31
0.0
  0
ARC
  5
6A0B
102
{ACAD_REACTORS
330
6EF6
330
71A8
102
}
330
1F
100
AcDbEntity
  8
AM_0
  6
Continuous
 62
     7
100
AcDbCircle
 10
29716.41328416602
 20
6228.773551901475
 30
0.0
 40
27.00000000000432
100
AcDbArc
 50
0.0
 51
90.0
  0
LINE
  5
6A0C
102
{ACAD_REACTORS
330
7115
102
}
330
1F
100
AcDbEntity
  8
AM_0
  6
Continuous
 62
     7
100
AcDbLine
 10
29716.41328416602
 20
6255.77355190148
 30
0.0
 11
29360.41328416603
 21
6255.77355190148
 31
0.0
  0
ARC
  5
6A0D
330
1F
100
AcDbEntity
  8
AM_0
  6
Continuous
 62
     7
100
AcDbCircle
 10
29360.41328416603
 20
6228.773551901475
 30
0.0
 40
27.00000000000455
100
AcDbArc
 50
90.0
 51
180.0
  0
LINE
  5
6A0E
330
1F
100
AcDbEntity
  8
AM_0
  6
Continuous
 62
     7
100
AcDbLine
 10
29333.41328416603
 20
6228.773551901475
 30
0.0
 11
29333.41328416603
 21
5135.773551901479
 31
0.0
  0
LINE
  5
6A0F
330
1F
100
AcDbEntity
  8
AM_0
  6
Continuous
 62
     7
100
AcDbLine
 10
29333.41328416603
 20
5135.773551901479
 30
0.0
 11
29338.41328416603
 21
5135.773551901479
 31
0.0
  0
LINE
  5
6A10
330
1F
100
AcDbEntity
  8
AM_0
  6
Continuous
 62
     7
100
AcDbLine
 10
29338.41328416603
 20
5135.773551901479
 30
0.0
 11
29343.41328416603
 21
5130.77355190148
 31
0.0
  0
LINE
  5
6A11
330
1F
100
AcDbEntity
  8
AM_0
  6
Continuous
 62
     7
100
AcDbLine
 10
29338.41328416603
 20
5135.773551901479
 30
0.0
 11
29338.41328416603
 21
6228.773551901476
 31
0.0
  0
ARC
  5
6A12
330
1F
100
AcDbEntity
  8
AM_0
  6
Continuous
 62
     7
100
AcDbCircle
 10
29360.41328416603
 20
6228.773551901476
 30
0.0
 40
22.00000000000352
100
AcDbArc
 50
90.0
 51
180.0
  0
LINE
  5
6A13
330
1F
100
AcDbEntity
  8
AM_0
  6
Continuous
 62
     7
100
AcDbLine
 10
29360.41328416603
 20
6250.773551901479
 30
0.0
 11
29716.41328416602
 21
6250.773551901479
 31
0.0
  0
ARC
  5
6A14
330
1F
100
AcDbEntity
  8
AM_0
  6
Continuous
 62
     7
100
AcDbCircle
 10
29716.41328416602
 20
6228.773551901476
 30
0.0
 40
22.00000000000364
100
AcDbArc
 50
0.0
 51
90.0
  0
LINE
  5
6A15
330
1F
100
AcDbEntity
  8
AM_0
  6
Continuous
 62
     7
100
AcDbLine
 10
29738.41328416602
 20
6228.773551901476
 30
0.0
 11
29738.41328416603
 21
5135.773551901479
 31
0.0
  0
LINE
  5
6A16
330
1F
100
AcDbEntity
  8
anbauteile dünn
100
AcDbLine
 10
29359.41328416603
 20
5355.773551901481
 30
0.0
 11
29359.41328416603
 21
5145.77355190148
 31
0.0
  0
LINE
  5
6A17
330
1F
100
AcDbEntity
  8
anbauteile dünn
100
AcDbLine
 10
29359.41328416603
 20
5145.77355190148
 30
0.0
 11
29717.41328416603
 21
5145.77355190148
 31
0.0
  0
LINE
  5
6A18
330
1F
100
AcDbEntity
  8
anbauteile dünn
100
AcDbLine
 10
29717.41328416603
 20
5145.77355190148
 30
0.0
 11
29717.41328416603
 21
5355.773551901481
 31
0.0
  0
ARC
  5
6A19
330
1F
100
AcDbEntity
  8
anbauteile dünn
100
AcDbCircle
 10
29717.41328416603
 20
5161.773551901482
 30
0.0
 40
16.0000000000026
100
AcDbArc
 50
270.0
 51
0.0
  0
LINE
  5
6A1A
330
1F
100
AcDbEntity
  8
anbauteile dünn
100
AcDbLine
 10
29733.41328416603
 20
5161.773551901479
 30
0.0
 11
29733.41328416603
 21
5355.773551901481
 31
0.0
  0
LINE
  5
6A1B
330
1F
100
AcDbEntity
  8
anbauteile dünn
100
AcDbLine
 10
29343.41328416603
 20
5355.773551901481
 30
0.0
 11
29343.41328416603
 21
5161.773551901479
 31
0.0
  0
ARC
  5
6A1C
330
1F
100
AcDbEntity
  8
anbauteile dünn
100
AcDbCircle
 10
29359.41328416603
 20
5161.773551901482
 30
0.0
 40
16.0000000000026
100
AcDbArc
 50
180.0
 51
270.0
  0
LINE
  5
6A1D
330
1F
100
AcDbEntity
  8
AM_0
  6
Continuous
 62
     7
100
AcDbLine
 10
29441.24528416603
 20
5103.029551901479
 30
0.0
 11
29406.62394845946
 21
5041.481176619013
 31
0.0
  0
ARC
  5
6A1E
330
1F
100
AcDbEntity
  8
anbauteile dünn
100
AcDbCircle
 10
29428.413284166
 20
5029.224551901489
 30
0.0
 40
24.99999999996898
100
AcDbArc
 50
150.6420000000354
 51
180.0
  0
LINE
  5
6A1F
330
1F
100
AcDbEntity
  8
AM_0
  6
Continuous
 62
     7
100
AcDbLine
 10
29403.41328416603
 20
5029.224551901478
 30
0.0
 11
29403.41328416603
 21
4870.773551901479
 31
0.0
  0
ARC
  5
6A20
330
1F
100
AcDbEntity
  8
AM_0
  6
Continuous
 62
     7
100
AcDbCircle
 10
29428.41328416603
 20
4870.773551901484
 30
0.0
 40
25.00000000000409
100
AcDbArc
 50
180.0
 51
270.0
  0
LINE
  5
6A21
330
1F
100
AcDbEntity
  8
AM_0
  6
Continuous
 62
     7
100
AcDbLine
 10
29428.41328416603
 20
4845.77355190148
 30
0.0
 11
29651.74943630362
 21
4845.77355190148
 31
0.0
  0
ARC
  5
6A22
330
1F
100
AcDbEntity
  8
AM_0
  6
Continuous
 62
     7
100
AcDbCircle
 10
29648.41328416602
 20
4870.773551901484
 30
0.0
 40
25.00000000000398
100
AcDbArc
 50
270.0
 51
0.0
  0
LINE
  5
6A23
330
1F
100
AcDbEntity
  8
AM_0
  6
Continuous
 62
     7
100
AcDbLine
 10
29673.41328416603
 20
4870.773551901479
 30
0.0
 11
29673.41328416603
 21
5029.224551901478
 31
0.0
  0
ARC
  5
6A24
330
1F
100
AcDbEntity
  8
anbauteile dünn
100
AcDbCircle
 10
29648.41328416607
 20
5029.224551901489
 30
0.0
 40
24.99999999996886
100
AcDbArc
 50
359.9999999999479
 51
29.35799999996453
  0
LINE
  5
6A25
330
1F
100
AcDbEntity
  8
AM_0
  6
Continuous
 62
     7
100
AcDbLine
 10
29670.2026198726
 20
5041.481176619013
 30
0.0
 11
29635.58128416603
 21
5103.029551901479
 31
0.0
  0
ARC
  5
6A26
330
1F
100
AcDbEntity
  8
AM_0
  6
Continuous
 62
     7
100
AcDbCircle
 10
29613.79158222424
 20
5090.773526547626
 30
0.0
 40
25.00002536370848
100
AcDbArc
 50
29.35639126962643
 51
89.99839126950297
  0
LINE
  5
6A27
330
1F
100
AcDbEntity
  8
AM_0
  6
Continuous
 62
     7
100
AcDbLine
 10
29613.79228416605
 20
5115.773551901479
 30
0.0
 11
29463.03428416603
 21
5115.77355190148
 31
0.0
  0
ARC
  5
6A28
330
1F
100
AcDbEntity
  8
AM_0
  6
Continuous
 62
     7
100
AcDbCircle
 10
29463.03498610781
 20
5090.773526547626
 30
0.0
 40
25.00002536370852
100
AcDbArc
 50
90.00160873049699
 51
150.6436087303735
  0
LINE
  5
6A29
330
1F
100
AcDbEntity
  8
anbauteile dünn
100
AcDbLine
 10
29717.41328416603
 20
5365.773551901479
 30
0.0
 11
29717.41328416603
 21
5465.773551901481
 31
0.0
  0
LINE
  5
6A2A
330
1F
100
AcDbEntity
  8
anbauteile dünn
100
AcDbLine
 10
29717.41328416603
 20
5465.773551901478
 30
0.0
 11
29359.41328416603
 21
5465.773551901481
 31
0.0
  0
LINE
  5
6A2B
330
1F
100
AcDbEntity
  8
anbauteile dünn
100
AcDbLine
 10
29359.41328416603
 20
5465.773551901481
 30
0.0
 11
29359.41328416603
 21
5365.773551901479
 31
0.0
  0
LINE
  5
6A2C
330
1F
100
AcDbEntity
  8
anbauteile dünn
100
AcDbLine
 10
29733.41328416603
 20
5365.773551901479
 30
0.0
 11
29733.41328416603
 21
5449.773551901479
 31
0.0
  0
ARC
  5
6A2D
330
1F
100
AcDbEntity
  8
anbauteile dünn
100
AcDbCircle
 10
29717.41328416603
 20
5449.773551901476
 30
0.0
 40
16.0000000000025
100
AcDbArc
 50
0.0
 51
90.0
  0
LINE
  5
6A2E
330
1F
100
AcDbEntity
  8
anbauteile dünn
100
AcDbLine
 10
29343.41328416603
 20
5365.773551901479
 30
0.0
 11
29343.41328416603
 21
5449.773551901479
 31
0.0
  0
ARC
  5
6A2F
330
1F
100
AcDbEntity
  8
anbauteile dünn
100
AcDbCircle
 10
29359.41328416603
 20
5449.773551901476
 30
0.0
 40
16.0000000000026
100
AcDbArc
 50
90.0
 51
180.0
  0
LINE
  5
6A30
330
1F
100
AcDbEntity
  8
anbauteile dünn
100
AcDbLine
 10
29735.91328416603
 20
5365.773551901479
 30
0.0
 11
29340.91328416603
 21
5365.773551901479
 31
0.0
  0
LINE
  5
6A31
330
1F
100
AcDbEntity
  8
anbauteile dünn
100
AcDbLine
 10
29340.91328416603
 20
5365.773551901479
 30
0.0
 11
29340.91328416603
 21
5355.773551901481
 31
0.0
  0
LINE
  5
6A32
330
1F
100
AcDbEntity
  8
anbauteile dünn
100
AcDbLine
 10
29340.91328416603
 20
5355.773551901481
 30
0.0
 11
29735.91328416603
 21
5355.773551901481
 31
0.0
  0
LINE
  5
6A33
330
1F
100
AcDbEntity
  8
anbauteile dünn
100
AcDbLine
 10
29735.91328416603
 20
5355.773551901481
 30
0.0
 11
29735.91328416603
 21
5365.773551901479
 31
0.0
  0
LINE
  5
6A34
330
1F
100
AcDbEntity
  8
AM_0
  6
Continuous
 62
     7
100
AcDbLine
 10
29353.41328416603
 20
5145.77355190148
 30
0.0
 11
29353.41328416603
 21
4803.773551901479
 31
0.0
  0
LINE
  5
6A35
330
1F
100
AcDbEntity
  8
AM_0
  6
Continuous
 62
     7
100
AcDbLine
 10
29353.41328416603
 20
4803.773551901479
 30
0.0
 11
29723.41328416603
 21
4803.773551901479
 31
0.0
  0
LINE
  5
6A36
330
1F
100
AcDbEntity
  8
AM_0
  6
Continuous
 62
     7
100
AcDbLine
 10
29723.41328416603
 20
4803.773551901479
 30
0.0
 11
29723.41328416603
 21
5146.940551901479
 31
0.0
  0
LINE
  5
6A37
330
1F
100
AcDbEntity
  8
AM_0
  6
Continuous
 62
     7
100
AcDbLine
 10
28593.39428416603
 20
5475.773551901481
 30
0.0
 11
28593.39428416603
 21
6244.773551901481
 31
0.0
  0
LINE
  5
6A38
330
1F
100
AcDbEntity
  8
AM_0
  6
Continuous
 62
     7
100
AcDbLine
 10
28593.39428416603
 20
6244.773551901481
 30
0.0
 11
28589.89428416603
 21
6244.773551901481
 31
0.0
  0
LINE
  5
6A39
330
1F
100
AcDbEntity
  8
AM_0
  6
Continuous
 62
     7
100
AcDbLine
 10
28613.89428416603
 20
5365.773551901479
 30
0.0
 11
28584.89428416603
 21
5365.773551901479
 31
0.0
  0
LINE
  5
6A3A
330
1F
100
AcDbEntity
  8
AM_0
  6
Continuous
 62
     7
100
AcDbLine
 10
28584.89428416603
 20
5365.773551901479
 30
0.0
 11
28584.89428416603
 21
5355.773551901481
 31
0.0
  0
LINE
  5
6A3B
330
1F
100
AcDbEntity
  8
AM_0
  6
Continuous
 62
     7
100
AcDbLine
 10
28584.89428416603
 20
5355.773551901481
 30
0.0
 11
28613.89428416603
 21
5355.773551901481
 31
0.0
  0
LINE
  5
6A3C
330
1F
100
AcDbEntity
  8
AM_0
  6
Continuous
 62
     7
100
AcDbLine
 10
28613.89428416603
 20
5475.773551901481
 30
0.0
 11
28589.89428416603
 21
5475.773551901481
 31
0.0
  0
LINE
  5
6A3D
330
1F
100
AcDbEntity
  8
AM_0
  6
Continuous
 62
     7
100
AcDbLine
 10
28589.89428416603
 20
5475.773551901481
 30
0.0
 11
28589.89428416603
 21
6255.77355190148
 31
0.0
  0
LINE
  5
6A3E
102
{ACAD_REACTORS
330
71FF
102
}
330
1F
100
AcDbEntity
  8
AM_0
  6
Continuous
 62
     7
100
AcDbLine
 10
28589.89428416603
 20
6255.77355190148
 30
0.0
 11
28631.89428416603
 21
6255.77355190148
 31
0.0
  0
LINE
  5
6A3F
330
1F
100
AcDbEntity
  8
AM_0
  6
Continuous
 62
     7
100
AcDbLine
 10
28631.89428416603
 20
6255.77355190148
 30
0.0
 11
28631.89428416603
 21
5143.773551901479
 31
0.0
  0
LINE
  5
6A40
330
1F
100
AcDbEntity
  8
AM_0
  6
Continuous
 62
     7
100
AcDbLine
 10
28631.89428416603
 20
5143.773551901479
 30
0.0
 11
28589.89428416603
 21
5143.773551901479
 31
0.0
  0
LINE
  5
6A41
330
1F
100
AcDbEntity
  8
AM_0
  6
Continuous
 62
     7
100
AcDbLine
 10
28589.89428416603
 20
5143.773551901479
 30
0.0
 11
28589.89428416603
 21
5355.773551901481
 31
0.0
  0
LINE
  5
6A42
330
1F
100
AcDbEntity
  8
AM_0
  6
Continuous
 62
     7
100
AcDbLine
 10
28620.96328416603
 20
5143.773551901479
 30
0.0
 11
28693.89428416603
 21
5086.19655190148
 31
0.0
  0
LINE
  5
6A43
330
1F
100
AcDbEntity
  8
AM_0
  6
Continuous
 62
     7
100
AcDbLine
 10
28693.89428416603
 20
5086.19655190148
 30
0.0
 11
28693.89428416603
 21
4885.061551901479
 31
0.0
  0
LINE
  5
6A44
330
1F
100
AcDbEntity
  8
AM_0
  6
Continuous
 62
     7
100
AcDbLine
 10
28693.89428416603
 20
4885.061551901479
 30
0.0
 11
28619.22228416603
 21
4795.773551901479
 31
0.0
  0
LINE
  5
6A45
330
1F
100
AcDbEntity
  8
AM_0
  6
Continuous
 62
     7
100
AcDbLine
 10
28612.89428416603
 20
5143.773551901479
 30
0.0
 11
28688.89428416603
 21
5083.77355190148
 31
0.0
  0
LINE
  5
6A46
330
1F
100
AcDbEntity
  8
AM_0
  6
Continuous
 62
     7
100
AcDbLine
 10
28688.89428416603
 20
5083.77355190148
 30
0.0
 11
28688.89428416603
 21
4886.773551901479
 31
0.0
  0
LINE
  5
6A47
330
1F
100
AcDbEntity
  8
AM_0
  6
Continuous
 62
     7
100
AcDbLine
 10
28688.89428416603
 20
4886.773551901479
 30
0.0
 11
28612.89428416603
 21
4795.773551901479
 31
0.0
  0
LINE
  5
6A48
330
1F
100
AcDbEntity
  8
AM_0
  6
Continuous
 62
     7
100
AcDbLine
 10
28612.89428416603
 20
4795.773551901479
 30
0.0
 11
28796.89428416603
 21
4795.773551901479
 31
0.0
  0
LINE
  5
6A49
102
{ACAD_REACTORS
330
71FF
102
}
330
1F
100
AcDbEntity
  8
AM_0
  6
Continuous
 62
     7
100
AcDbLine
 10
28796.89428416603
 20
4795.773551901479
 30
0.0
 11
28796.89428416603
 21
6230.77355190148
 31
0.0
  0
LINE
  5
6A4A
330
1F
100
AcDbEntity
  8
AM_0
  6
Continuous
 62
     7
100
AcDbLine
 10
28796.89428416603
 20
6230.77355190148
 30
0.0
 11
28631.89428416603
 21
6243.543551901479
 31
0.0
  0
LINE
  5
6A4B
330
1F
100
AcDbEntity
  8
AM_0
  6
Continuous
 62
     7
100
AcDbLine
 10
28589.89428416603
 20
5365.773551901479
 30
0.0
 11
28589.89428416603
 21
5465.773551901481
 31
0.0
  0
LINE
  5
6A4C
330
1F
100
AcDbEntity
  8
AM_0
  6
Continuous
 62
     7
100
AcDbLine
 10
28589.89428416603
 20
5465.773551901481
 30
0.0
 11
28613.89428416603
 21
5465.773551901481
 31
0.0
  0
LINE
  5
6A4D
330
1F
100
AcDbEntity
  8
AM_0
  6
Continuous
 62
     7
100
AcDbLine
 10
28593.39428416603
 20
6215.773551901481
 30
0.0
 11
28613.89428416603
 21
6190.77355190148
 31
0.0
  0
LINE
  5
6A4E
330
1F
100
AcDbEntity
  8
AM_0
  6
Continuous
 62
     7
100
AcDbLine
 10
28613.89428416603
 20
6190.77355190148
 30
0.0
 11
28613.89428416603
 21
5143.773551901479
 31
0.0
  0
MTEXT
  5
6D99
330
1F
100
AcDbEntity
  8
Beschriftung
100
AcDbMText
 10
29065.26927189563
 20
5043.244601707179
 30
0.0
 40
40.0
 41
657.8666666666666
 46
0.0
 71
     1
 72
     5
  1
{\fArial|b0|i0|c0|p34;(im Boden)}
 11
0.0000000000000001
 21
1.0
 31
0.0
 73
     1
 44
1.0
1001
ACAD
1000
MTEXTBEGIN
1070
    73
1070
     1
1070
    44
1040
1.0
1070
    74
1070
     0
1000
MTEXTEND
  0
DIMENSION
  5
6EE8
102
{ACAD_XDICTIONARY
360
6EF5
102
}
102
{ACAD_REACTORS
330
6EF6
102
}
330
1F
100
AcDbEntity
  8
AM_5
100
AcDbDimension
280
     0
  2
*D9
 10
29743.41328416603
 20
6378.420381315878
 30
0.0
 11
29533.0658082477
 21
6378.420381315878
 31
0.0
 70
   160
  1
<>
 71
     5
 42
410.0
 73
     0
 74
     0
 75
     0
  3
AM_DIN$0
100
AcDbAlignedDimension
 13
29333.41328416603
 23
6228.773551901475
 33
0.0
 14
29743.41328416603
 24
6228.773551901475
 34
0.0
100
AcDbRotatedDimension
1001
ACAD_DSTYLE_DIMINSPECT
1070
   396
1000
100%
1070
   395
1000

1070
   394
1070
    33
1070
   393
1070
     0
1001
ACAD
1000
DSTYLE
1002
{
1070
    90
1070
     1
1002
}
  0
DIMENSION
  5
703F
102
{ACAD_XDICTIONARY
360
704C
102
}
102
{ACAD_REACTORS
330
704D
102
}
330
1F
100
AcDbEntity
  8
AM_5
100
AcDbDimension
280
     0
  2
*D13
 10
29145.73812980408
 20
5355.773551901481
 30
0.0
 11
29145.73812980408
 21
4951.242429284016
 31
0.0
 70
   160
  1
<>
 71
     5
 42
560.0000000000009
 73
     0
 74
     0
 75
     0
  3
AM_DIN$0
100
AcDbAlignedDimension
 13
29343.41328416603
 23
4795.773551901479
 33
0.0
 14
29333.41328416603
 24
5355.773551901481
 34
0.0
 50
90.0
100
AcDbRotatedDimension
1001
ACAD_DSTYLE_DIMINSPECT
1070
   396
1000
100%
1070
   395
1000

1070
   394
1070
    33
1070
   393
1070
     0
1001
ACAD
1000
DSTYLE
1002
{
1070
     3
1000

1070
    90
1070
     1
1070
   271
1070
     0
1002
}
  0
DIMENSION
  5
7107
102
{ACAD_XDICTIONARY
360
7114
102
}
102
{ACAD_REACTORS
330
7115
102
}
330
1F
100
AcDbEntity
  8
AM_5
100
AcDbDimension
280
     0
  2
*D14
 10
30141.28910294618
 20
6255.77355190148
 30
0.0
 11
30141.28910294618
 21
5526.483360683497
 31
0.0
 70
   160
  1
<>
 71
     5
 42
1460.0
 73
     0
 74
     0
 75
     0
  3
AM_DIN$0
100
AcDbAlignedDimension
 13
29733.41328416603
 23
4795.773551901479
 33
0.0
 14
29716.41328416602
 24
6255.77355190148
 34
0.0
 50
90.00000000000005
100
AcDbRotatedDimension
1001
ACAD_DSTYLE_DIMINSPECT
1070
   396
1000
100%
1070
   395
1000

1070
   394
1070
    33
1070
   393
1070
     0
1001
ACAD
1000
DSTYLE
1002
{
1070
    90
1070
     1
1002
}
  0
DIMENSION
  5
719A
102
{ACAD_XDICTIONARY
360
71A7
102
}
102
{ACAD_REACTORS
330
71A8
102
}
330
1F
100
AcDbEntity
  8
AM_5
100
AcDbDimension
280
     0
  2
*D15
 10
29926.12547689119
 20
5355.773551901481
 30
0.0
 11
29860.38536775067
 21
5805.773551901484
 31
0.0
 70
    32
  1
<>
 71
     5
 42
899.9999999999991
 73
     0
 74
     0
 75
     0
  3
AM_DIN$0
100
AcDbAlignedDimension
 13
29716.41328416602
 23
6255.77355190148
 33
0.0
 14
29743.41328416603
 24
5355.773551901481
 34
0.0
 50
90.00000000000005
100
AcDbRotatedDimension
1001
ACAD_DSTYLE_DIMINSPECT
1070
   396
1000
100%
1070
   395
1000

1070
   394
1070
    33
1070
   393
1070
     0
1001
ACAD
1000
DSTYLE
1002
{
1070
     3
1000

1070
    90
1070
     1
1002
}
  0
DIMENSION
  5
71F1
102
{ACAD_XDICTIONARY
360
71FE
102
}
102
{ACAD_REACTORS
330
71FF
102
}
330
1F
100
AcDbEntity
  8
AM_5
100
AcDbDimension
280
     0
  2
*D16
 10
28589.89428416603
 20
6373.399229410527
 30
0.0
 11
28701.06933327464
 21
6373.399229410527
 31
0.0
 70
   160
  1
<>
 71
     5
 42
207.0
 73
     0
 74
     0
 75
     0
  3
AM_DIN$0
100
AcDbAlignedDimension
 13
28796.89428416603
 23
6230.77355190148
 33
0.0
 14
28589.89428416603
 24
6255.77355190148
 34
0.0
100
AcDbRotatedDimension
1001
ACAD_DSTYLE_DIMINSPECT
1070
   396
1000
100%
1070
   395
1000

1070
   394
1070
    33
1070
   393
1070
     0
1001
ACAD
1000
DSTYLE
1002
{
1070
    90
1070
     1
1002
}
  0
ENDSEC
  0
SECTION
  2
OBJECTS
  0
DICTIONARY
  5
C
330
0
100
AcDbDictionary
281
     1
  3
ACAD_BACKGROUND
350
6ECC
  3
ACAD_CIP_PREVIOUS_PRODUCT_INFO
350
6E35
  3
ACAD_COLOR
350
D7
  3
ACAD_DETAILVIEWSTYLE
350
6E2E
  3
ACAD_FIELDLIST
350
6E89
  3
ACAD_GROUP
350
D
  3
ACAD_LAYOUT
350
1A
  3
ACAD_MATERIAL
350
D6
  3
ACAD_MLEADERSTYLE
350
6514
  3
ACAD_MLINESTYLE
350
17
  3
ACAD_PLOTSETTINGS
350
19
  3
ACAD_PLOTSTYLENAME
350
E
  3
ACAD_SCALELIST
350
6502
  3
ACAD_SECTIONVIEWSTYLE
350
6E2C
  3
ACAD_TABLESTYLE
350
133
  3
ACAD_VISUALSTYLE
350
64EE
  3
ACDB_RECOMPOSE_DATA
350
72CF
  3
AcDbVariableDictionary
350
34
  3
AcmDictionary
350
49
  3
AMG
350
2B
  3
AMGSNAPSETTINGS
350
2C4
  0
DICTIONARY
  5
C0
330
2
100
AcDbDictionary
280
     1
281
     1
  3
ACAD_LAYERSTATES
360
439
  3
AMLAYER_GROUPCOLORS
360
C1
  0
DICTIONARY
  5
6CA5
330
10
100
AcDbDictionary
280
     1
281
     1
  3
ADSK_XREC_LAYER_RECONCILED
360
6CA6
  0
DICTIONARY
  5
6CA7
330
82
100
AcDbDictionary
280
     1
281
     1
  3
ADSK_XREC_LAYER_RECONCILED
360
6CA8
  0
DICTIONARY
  5
6CA9
330
427
100
AcDbDictionary
280
     1
281
     1
  3
ADSK_XREC_LAYER_RECONCILED
360
6CAA
  0
DICTIONARY
  5
6CAB
330
428
100
AcDbDictionary
280
     1
281
     1
  3
ADSK_XREC_LAYER_RECONCILED
360
6CAC
  0
DICTIONARY
  5
6CAD
330
429
100
AcDbDictionary
280
     1
281
     1
  3
ADSK_XREC_LAYER_RECONCILED
360
6CAE
  0
DICTIONARY
  5
6CAF
330
42A
100
AcDbDictionary
280
     1
281
     1
  3
ADSK_XREC_LAYER_RECONCILED
360
6CB0
  0
DICTIONARY
  5
83
330
1F
100
AcDbDictionary
280
     1
281
     1
  3
ACAD_SORTENTS
360
1EB1
  0
DICTIONARY
  5
B6F
330
75
100
AcDbDictionary
280
     1
281
     1
  0
DICTIONARY
  5
6EF5
330
6EE8
100
AcDbDictionary
280
     1
281
     1
  3
ACAD_DIMASSOC
360
6EF6
  0
DICTIONARY
  5
704C
330
703F
100
AcDbDictionary
280
     1
281
     1
  3
ACAD_DIMASSOC
360
704D
  0
DICTIONARY
  5
7114
330
7107
100
AcDbDictionary
280
     1
281
     1
  3
ACAD_DIMASSOC
360
7115
  0
DICTIONARY
  5
71A7
330
719A
100
AcDbDictionary
280
     1
281
     1
  3
ACAD_DIMASSOC
360
71A8
  0
DICTIONARY
  5
71FE
330
71F1
100
AcDbDictionary
280
     1
281
     1
  3
ACAD_DIMASSOC
360
71FF
  0
DICTIONARY
  5
6ECC
102
{ACAD_REACTORS
330
C
102
}
330
C
100
AcDbDictionary
281
     1
  0
XRECORD
  5
6E35
102
{ACAD_REACTORS
330
C
102
}
330
C
100
AcDbXrecord
280
     1
300
AMECH_PP
300
2014
300
86138AMECH_PP_2014_0F
  0
DICTIONARY
  5
D7
102
{ACAD_REACTORS
330
C
102
}
330
C
100
AcDbDictionary
281
     1
  0
DICTIONARY
  5
6E2E
102
{ACAD_REACTORS
330
C
102
}
330
C
100
AcDbDictionary
281
     1
  3
Metric50
350
6E2F
  0
FIELDLIST
  5
6E89
102
{ACAD_REACTORS
330
C
102
}
330
C
100
AcDbIdSet
 90
        3
330
6E87
330
6E88
330
6E8A
100
AcDbFieldList
  0
DICTIONARY
  5
D
102
{ACAD_REACTORS
330
C
102
}
330
C
100
AcDbDictionary
281
     1
  0
DICTIONARY
  5
1A
102
{ACAD_REACTORS
330
C
102
}
330
C
100
AcDbDictionary
281
     1
  3
Layout1
350
1E
  3
Layout2
350
26
  3
Model
350
22
  0
DICTIONARY
  5
D6
102
{ACAD_REACTORS
330
C
102
}
330
C
100
AcDbDictionary
281
     1
  3
ByBlock
350
64DE
  3
ByLayer
350
64D6
  3
Global
350
64E6
  0
DICTIONARY
  5
6514
102
{ACAD_REACTORS
330
C
102
}
330
C
100
AcDbDictionary
281
     1
  3
Standard
350
6515
  0
DICTIONARY
  5
17
102
{ACAD_REACTORS
330
C
102
}
330
C
100
AcDbDictionary
281
     1
  3
Standard
350
18
  0
DICTIONARY
  5
19
102
{ACAD_REACTORS
330
C
102
}
330
C
100
AcDbDictionary
281
     1
  0
ACDBDICTIONARYWDFLT
  5
E
102
{ACAD_REACTORS
330
C
102
}
330
C
100
AcDbDictionary
281
     1
  3
Normal
350
F
100
AcDbDictionaryWithDefault
340
F
  0
DICTIONARY
  5
6502
102
{ACAD_REACTORS
330
C
102
}
330
C
100
AcDbDictionary
281
     1
  3
A0
350
6503
  3
A1
350
6504
  3
A2
350
6505
  3
A3
350
6506
  3
A4
350
6507
  3
A5
350
6508
  3
A6
350
6509
  3
A7
350
650A
  3
A8
350
650B
  3
A9
350
650C
  3
B0
350
650D
  3
B1
350
650E
  3
B2
350
650F
  3
B3
350
6510
  3
B4
350
6511
  3
B5
350
6512
  3
B6
350
6513
  0
DICTIONARY
  5
6E2C
102
{ACAD_REACTORS
330
C
102
}
330
C
100
AcDbDictionary
281
     1
  3
Metric50
350
6E2D
  0
DICTIONARY
  5
133
102
{ACAD_REACTORS
330
C
102
}
330
C
100
AcDbDictionary
281
     1
  3
Standard
350
134
  0
DICTIONARY
  5
64EE
102
{ACAD_REACTORS
330
C
102
}
330
C
100
AcDbDictionary
281
     1
  3
2dWireframe
350
64F4
  3
3D Hidden
350
64F6
  3
3dWireframe
350
64F5
  3
Basic
350
64F3
  3
Brighten
350
64FA
  3
ColorChange
350
64FE
  3
Conceptual
350
64F7
  3
Dim
350
64F9
  3
EdgeColorOff
350
6501
  3
Facepattern
350
64FD
  3
Flat
350
64EF
  3
FlatWithEdges
350
64F0
  3
Gouraud
350
64F1
  3
GouraudWithEdges
350
64F2
  3
Hidden
350
6E26
  3
JitterOff
350
64FF
  3
Linepattern
350
64FC
  3
OverhangOff
350
6500
  3
Realistic
350
64F8
  3
Shaded
350
6E2B
  3
Shaded with edges
350
6E2A
  3
Shades of Gray
350
6E27
  3
Sketchy
350
6E28
  3
Thicken
350
64FB
  3
Wireframe
350
6E25
  3
X-Ray
350
6E29
  0
XRECORD
  5
72CF
102
{ACAD_REACTORS
330
C
102
}
330
C
100
AcDbXrecord
280
     1
 90
        1
330
134
330
6E2D
330
6E2F
  0
DICTIONARY
  5
34
102
{ACAD_REACTORS
330
C
102
}
330
C
100
AcDbDictionary
281
     1
  3
CANNOSCALE
350
6DE8
  3
CMLEADERSTYLE
350
6DE7
  3
CTABLESTYLE
350
152
  3
CVIEWDETAILSTYLE
350
72C4
  3
CVIEWSECTIONSTYLE
350
72C5
  3
DIMASSOC
350
AD
  3
INDEXCTL
350
35
  3
LAYEREVAL
350
72C8
  3
LAYERNOTIFY
350
72C9
  3
LIGHTINGUNITS
350
72C7
  3
MSLTSCALE
350
72C6
  3
PROJECTNAME
350
64C9
  3
SORTENTS
350
6DE9
  0
DICTIONARY
  5
49
102
{ACAD_REACTORS
330
C
102
}
330
C
100
AcDbDictionary
281
     1
  3
AcmBOM
350
2CB
  3
AcmStdDictionary
350
4A
  3
AMDTSECTSYM_ARROWCOLOR
350
13D
  0
DICTIONARY
  5
2B
102
{ACAD_REACTORS
330
C
102
}
330
C
100
AcDbDictionary
281
     1
  0
DICTIONARY
  5
2C4
102
{ACAD_REACTORS
330
C
102
}
330
C
100
AcDbDictionary
281
     1
  0
DICTIONARY
  5
439
102
{ACAD_REACTORS
330
C0
102
}
330
C0
100
AcDbDictionary
281
     1
  0
DICTIONARY
  5
C1
102
{ACAD_REACTORS
330
C0
102
}
330
C0
100
AcDbDictionary
280
     1
281
     1
  0
XRECORD
  5
6CA6
102
{ACAD_REACTORS
330
6CA5
102
}
330
6CA5
100
AcDbXrecord
280
     1
290
     1
  0
XRECORD
  5
6CA8
102
{ACAD_REACTORS
330
6CA7
102
}
330
6CA7
100
AcDbXrecord
280
     1
290
     1
  0
XRECORD
  5
6CAA
102
{ACAD_REACTORS
330
6CA9
102
}
330
6CA9
100
AcDbXrecord
280
     1
290
     1
  0
XRECORD
  5
6CAC
102
{ACAD_REACTORS
330
6CAB
102
}
330
6CAB
100
AcDbXrecord
280
     1
290
     1
  0
XRECORD
  5
6CAE
102
{ACAD_REACTORS
330
6CAD
102
}
330
6CAD
100
AcDbXrecord
280
     1
290
     1
  0
XRECORD
  5
6CB0
102
{ACAD_REACTORS
330
6CAF
102
}
330
6CAF
100
AcDbXrecord
280
     1
290
     1
  0
SORTENTSTABLE
  5
1EB1
102
{ACAD_REACTORS
330
83
102
}
330
83
100
AcDbSortentsTable
330
1F
  0
DIMASSOC
  5
6EF6
102
{ACAD_REACTORS
330
6EF5
102
}
330
6EF5
100
AcDbDimAssoc
330
6EE8
 90
        2
 70
     0
 71
     0
  1
AcDbOsnapPointRef
 72
    13
331
6A0B
 73
     0
 91
        0
 40
0.0
 10
0.0
 20
0.0
 30
2.000000000000000E+50
 75
     0
  0
DIMASSOC
  5
704D
102
{ACAD_REACTORS
330
704C
102
}
330
704C
100
AcDbDimAssoc
330
703F
 90
        3
 70
     0
 71
     0
  1
AcDbOsnapPointRef
 72
    13
331
6A06
 73
     0
 91
        0
 40
0.0
 10
0.0
 20
0.0
 30
2.000000000000000E+50
 75
     0
  1
AcDbOsnapPointRef
 72
     1
331
69A3
 73
     0
 91
        0
 40
0.0
 10
0.0
 20
0.0
 30
2.000000000000000E+50
 75
     0
  0
DIMASSOC
  5
7115
102
{ACAD_REACTORS
330
7114
102
}
330
7114
100
AcDbDimAssoc
330
7107
 90
        3
 70
     0
 71
     0
  1
AcDbOsnapPointRef
 72
    13
331
6A07
 73
     0
 91
        0
 40
0.0
 10
0.0
 20
0.0
 30
2.000000000000000E+50
 75
     0
  1
AcDbOsnapPointRef
 72
    13
331
6A0C
 73
     0
 91
        0
 40
0.0
 10
0.0
 20
0.0
 30
2.000000000000000E+50
 75
     0
  0
DIMASSOC
  5
71A8
102
{ACAD_REACTORS
330
71A7
102
}
330
71A7
100
AcDbDimAssoc
330
719A
 90
        3
 70
     0
 71
     0
  1
AcDbOsnapPointRef
 72
     1
331
6A0B
 73
     0
 91
        0
 40
0.0
 10
0.0
 20
0.0
 30
2.000000000000000E+50
 75
     0
  1
AcDbOsnapPointRef
 72
     1
331
69A2
 73
     0
 91
        0
 40
0.0
 10
0.0
 20
0.0
 30
2.000000000000000E+50
 75
     0
  0
DIMASSOC
  5
71FF
102
{ACAD_REACTORS
330
71FE
102
}
330
71FE
100
AcDbDimAssoc
330
71F1
 90
        3
 70
     0
 71
     0
  1
AcDbOsnapPointRef
 72
     1
331
6A49
 73
     0
 91
        0
 40
0.0
 10
0.0
 20
0.0
 30
2.000000000000000E+50
 75
     0
  1
AcDbOsnapPointRef
 72
    13
331
6A3E
 73
     0
 91
        0
 40
0.0
 10
0.0
 20
0.0
 30
2.000000000000000E+50
 75
     0
  0
ACDBDETAILVIEWSTYLE
  5
6E2F
102
{ACAD_XDICTIONARY
360
72CD
102
}
102
{ACAD_REACTORS
330
6E2E
330
6E7D
102
}
330
6E2E
100
AcDbModelDocViewStyle
 70
     0
  3
Metric50
290
     0
100
AcDbDetailViewStyle
 70
     0
 71
     0
 90
        3
 71
     1
340
11
 62
   256
 40
5.0
340
0
 62
   256
 40
5.0
300

 40
0.0
280
     1
 71
     2
340
16
 90
       25
 62
   256
 71
     3
340
11
 62
   256
 40
5.0
 90
        0
 40
15.0
 90
        1
300
%<\AcVar ViewDetailId>% (%<\AcVar ViewScale \f "%sn">%)
 71
     4
340
16
 90
       25
 62
   256
340
16
 90
       25
 62
   256
280
     0
  0
LAYOUT
  5
1E
102
{ACAD_REACTORS
330
1A
102
}
330
1A
100
AcDbPlotSettings
  1

  2
none_device
  4
Letter_(8.50_x_11.00_Inches)
  6

 40
6.349999904632567
 41
6.349999904632567
 42
6.350006103515625
 43
6.350006103515625
 44
215.8999938964844
 45
279.3999938964844
 46
0.0
 47
0.0
 48
0.0
 49
0.0
140
0.0
141
0.0
142
1.0
143
1.0
 70
 15024
 72
     1
 73
     1
 74
     5
  7
monochrome 09+15.ctb
 75
    16
147
1.0
 76
     0
 77
     2
 78
   300
148
0.0
149
0.0
100
AcDbLayout
  1
Layout1
 70
     1
 71
     1
 10
0.0
 20
0.0
 11
420.0
 21
297.0
 12
0.0
 22
0.0
 32
0.0
 14
1.000000000000000E+20
 24
1.000000000000000E+20
 34
1.000000000000000E+20
 15
-1.000000000000000E+20
 25
-1.000000000000000E+20
 35
-1.000000000000000E+20
146
0.0
 13
0.0
 23
0.0
 33
0.0
 16
1.0
 26
0.0
 36
0.0
 17
0.0
 27
1.0
 37
0.0
 76
     0
330
1B
  0
LAYOUT
  5
26
102
{ACAD_REACTORS
330
1A
102
}
330
1A
100
AcDbPlotSettings
  1

  2
none_device
  4
Letter_(8.50_x_11.00_Inches)
  6

 40
6.349999904632567
 41
6.349999904632567
 42
6.350006103515625
 43
6.350006103515625
 44
215.8999938964844
 45
279.3999938964844
 46
0.0
 47
0.0
 48
0.0
 49
0.0
140
0.0
141
0.0
142
1.0
143
1.0
 70
 15024
 72
     1
 73
     1
 74
     5
  7
monochrome 09+15.ctb
 75
    16
147
1.0
 76
     0
 77
     2
 78
   300
148
0.0
149
0.0
100
AcDbLayout
  1
Layout2
 70
     1
 71
     2
 10
0.0
 20
0.0
 11
12.0
 21
9.0
 12
0.0
 22
0.0
 32
0.0
 14
0.0
 24
0.0
 34
0.0
 15
0.0
 25
0.0
 35
0.0
146
0.0
 13
0.0
 23
0.0
 33
0.0
 16
1.0
 26
0.0
 36
0.0
 17
0.0
 27
1.0
 37
0.0
 76
     0
330
23
  0
LAYOUT
  5
22
102
{ACAD_REACTORS
330
1A
102
}
330
1A
100
AcDbPlotSettings
  1

  2
Adobe PDF
  4
A4
  6

 40
3.174999952316282
 41
3.174999952316282
 42
3.175003051757812
 43
3.17498779296875
 44
209.9733276367186
 45
297.0318298339844
 46
0.0
 47
122.4212400878357
 48
0.0
 49
0.0
140
0.0
141
0.0
142
1.0
143
123.8133633245924
 70
 11956
 72
     1
 73
     0
 74
     1
  7
monochrome 09+15.ctb
 75
     0
147
0.0080766726074501
 76
     0
 77
     2
 78
   300
148
-1132.829712460938
149
-938.9066475618584
100
AcDbLayout
  1
Model
 70
     1
 71
     0
 10
0.0
 20
0.0
 11
12.0
 21
9.0
 12
0.0
 22
0.0
 32
0.0
 14
0.0
 24
0.0
 34
0.0
 15
0.0
 25
0.0
 35
0.0
146
0.0
 13
0.0
 23
0.0
 33
0.0
 16
1.0
 26
0.0
 36
0.0
 17
0.0
 27
1.0
 37
0.0
 76
     0
330
1F
331
64CA
1001
ACAD_PSEXT
1000
Adobe PDF
1000
Adobe PDF Converter
1000
Eigene Dateien
1000

1070
     0
  0
MATERIAL
  5
64DE
102
{ACAD_XDICTIONARY
360
64DF
102
}
102
{ACAD_REACTORS
330
D6
102
}
330
D6
100
AcDbMaterial
  1
ByBlock
 72
     0
 43
0.0008202099737533
 43
0.0
 43
0.0
 43
0.0
 43
0.0
 43
0.0008202099737533
 43
0.0
 43
0.0
 43
0.0
 43
0.0
 43
1.0
 43
0.0
 43
0.0
 43
0.0
 43
0.0
 43
1.0
 77
     0
 47
0.0008202099737533
 47
0.0
 47
0.0
 47
0.0
 47
0.0
 47
0.0008202099737533
 47
0.0
 47
0.0
 47
0.0
 47
0.0
 47
1.0
 47
0.0
 47
0.0
 47
0.0
 47
0.0
 47
1.0
171
     0
 49
0.0008202099737533
 49
0.0
 49
0.0
 49
0.0
 49
0.0
 49
0.0008202099737533
 49
0.0
 49
0.0
 49
0.0
 49
0.0
 49
1.0
 49
0.0
 49
0.0
 49
0.0
 49
0.0
 49
1.0
175
     0
142
0.0008202099737533
142
0.0
142
0.0
142
0.0
142
0.0
142
0.0008202099737533
142
0.0
142
0.0
142
0.0
142
0.0
142
1.0
142
0.0
142
0.0
142
0.0
142
0.0
142
1.0
179
     0
144
0.0008202099737533
144
0.0
144
0.0
144
0.0
144
0.0
144
0.0008202099737533
144
0.0
144
0.0
144
0.0
144
0.0
144
1.0
144
0.0
144
0.0
144
0.0
144
0.0
144
1.0
147
0.0008202099737533
147
0.0
147
0.0
147
0.0
147
0.0
147
0.0008202099737533
147
0.0
147
0.0
147
0.0
147
0.0
147
1.0
147
0.0
147
0.0
147
0.0
147
0.0
147
1.0
  0
MATERIAL
  5
64D6
102
{ACAD_XDICTIONARY
360
64D7
102
}
102
{ACAD_REACTORS
330
D6
102
}
330
D6
100
AcDbMaterial
  1
ByLayer
 72
     0
 43
0.0008202099737533
 43
0.0
 43
0.0
 43
0.0
 43
0.0
 43
0.0008202099737533
 43
0.0
 43
0.0
 43
0.0
 43
0.0
 43
1.0
 43
0.0
 43
0.0
 43
0.0
 43
0.0
 43
1.0
 77
     0
 47
0.0008202099737533
 47
0.0
 47
0.0
 47
0.0
 47
0.0
 47
0.0008202099737533
 47
0.0
 47
0.0
 47
0.0
 47
0.0
 47
1.0
 47
0.0
 47
0.0
 47
0.0
 47
0.0
 47
1.0
171
     0
 49
0.0008202099737533
 49
0.0
 49
0.0
 49
0.0
 49
0.0
 49
0.0008202099737533
 49
0.0
 49
0.0
 49
0.0
 49
0.0
 49
1.0
 49
0.0
 49
0.0
 49
0.0
 49
0.0
 49
1.0
175
     0
142
0.0008202099737533
142
0.0
142
0.0
142
0.0
142
0.0
142
0.0008202099737533
142
0.0
142
0.0
142
0.0
142
0.0
142
1.0
142
0.0
142
0.0
142
0.0
142
0.0
142
1.0
179
     0
144
0.0008202099737533
144
0.0
144
0.0
144
0.0
144
0.0
144
0.0008202099737533
144
0.0
144
0.0
144
0.0
144
0.0
144
1.0
144
0.0
144
0.0
144
0.0
144
0.0
144
1.0
147
0.0008202099737533
147
0.0
147
0.0
147
0.0
147
0.0
147
0.0008202099737533
147
0.0
147
0.0
147
0.0
147
0.0
147
1.0
147
0.0
147
0.0
147
0.0
147
0.0
147
1.0
  0
MATERIAL
  5
64E6
102
{ACAD_XDICTIONARY
360
64E7
102
}
102
{ACAD_REACTORS
330
D6
102
}
330
D6
100
AcDbMaterial
  1
Global
 72
     0
 43
0.0008202099737533
 43
0.0
 43
0.0
 43
0.0
 43
0.0
 43
0.0008202099737533
 43
0.0
 43
0.0
 43
0.0
 43
0.0
 43
1.0
 43
0.0
 43
0.0
 43
0.0
 43
0.0
 43
1.0
 77
     0
 47
0.0008202099737533
 47
0.0
 47
0.0
 47
0.0
 47
0.0
 47
0.0008202099737533
 47
0.0
 47
0.0
 47
0.0
 47
0.0
 47
1.0
 47
0.0
 47
0.0
 47
0.0
 47
0.0
 47
1.0
171
     0
 49
0.0008202099737533
 49
0.0
 49
0.0
 49
0.0
 49
0.0
 49
0.0008202099737533
 49
0.0
 49
0.0
 49
0.0
 49
0.0
 49
1.0
 49
0.0
 49
0.0
 49
0.0
 49
0.0
 49
1.0
175
     0
142
0.0008202099737533
142
0.0
142
0.0
142
0.0
142
0.0
142
0.0008202099737533
142
0.0
142
0.0
142
0.0
142
0.0
142
1.0
142
0.0
142
0.0
142
0.0
142
0.0
142
1.0
179
     0
144
0.0008202099737533
144
0.0
144
0.0
144
0.0
144
0.0
144
0.0008202099737533
144
0.0
144
0.0
144
0.0
144
0.0
144
1.0
144
0.0
144
0.0
144
0.0
144
0.0
144
1.0
147
0.0008202099737533
147
0.0
147
0.0
147
0.0
147
0.0
147
0.0008202099737533
147
0.0
147
0.0
147
0.0
147
0.0
147
1.0
147
0.0
147
0.0
147
0.0
147
0.0
147
1.0
  0
MLEADERSTYLE
  5
6515
102
{ACAD_REACTORS
330
6514
102
}
330
6514
100
AcDbMLeaderStyle
179
     2
170
     2
171
     1
172
     0
 90
        2
 40
0.0
 41
0.0
173
     1
 91
-1056964608
340
14
 92
       -2
290
     1
 42
2.0
291
     1
 43
0.36
  3
Standard
 44
4.0
300

342
11
174
     1
178
     6
175
     1
176
     0
 93
-1056964608
 45
4.0
292
     0
297
     0
 46
4.0
 94
-1056964608
 47
1.0
 49
1.0
140
1.0
293
     1
141
0.0
294
     1
177
     0
142
1.0
295
     0
296
     0
143
0.125
271
     0
272
     9
273
     9
298
     0
1001
ACAD_MLEADERVER
1070
     2
  0
MLINESTYLE
  5
18
102
{ACAD_REACTORS
330
17
102
}
330
17
100
AcDbMlineStyle
  2
STANDARD
 70
     0
  3

 62
   256
 51
90.0
 52
90.0
 71
     2
 49
0.5
 62
   256
  6
BYLAYER
 49
-0.5
 62
   256
  6
BYLAYER
  0
ACDBPLACEHOLDER
  5
F
102
{ACAD_REACTORS
330
E
102
}
330
E
  0
SCALE
  5
6503
102
{ACAD_REACTORS
330
6502
102
}
330
6502
100
AcDbScale
 70
     0
300
1:1
140
1.0
141
1.0
290
     1
  0
SCALE
  5
6504
102
{ACAD_REACTORS
330
6502
102
}
330
6502
100
AcDbScale
 70
     0
300
1:2
140
1.0
141
2.0
290
     0
  0
SCALE
  5
6505
102
{ACAD_REACTORS
330
6502
102
}
330
6502
100
AcDbScale
 70
     0
300
1:4
140
1.0
141
4.0
290
     0
  0
SCALE
  5
6506
102
{ACAD_REACTORS
330
6502
102
}
330
6502
100
AcDbScale
 70
     0
300
1:5
140
1.0
141
5.0
290
     0
  0
SCALE
  5
6507
102
{ACAD_REACTORS
330
6502
102
}
330
6502
100
AcDbScale
 70
     0
300
1:8
140
1.0
141
8.0
290
     0
  0
SCALE
  5
6508
102
{ACAD_REACTORS
330
6502
102
}
330
6502
100
AcDbScale
 70
     0
300
1:10
140
1.0
141
10.0
290
     0
  0
SCALE
  5
6509
102
{ACAD_REACTORS
330
6502
102
}
330
6502
100
AcDbScale
 70
     0
300
1:16
140
1.0
141
16.0
290
     0
  0
SCALE
  5
650A
102
{ACAD_REACTORS
330
6502
102
}
330
6502
100
AcDbScale
 70
     0
300
1:20
140
1.0
141
20.0
290
     0
  0
SCALE
  5
650B
102
{ACAD_REACTORS
330
6502
102
}
330
6502
100
AcDbScale
 70
     0
300
1:30
140
1.0
141
30.0
290
     0
  0
SCALE
  5
650C
102
{ACAD_REACTORS
330
6502
102
}
330
6502
100
AcDbScale
 70
     0
300
1:40
140
1.0
141
40.0
290
     0
  0
SCALE
  5
650D
102
{ACAD_REACTORS
330
6502
102
}
330
6502
100
AcDbScale
 70
     0
300
1:50
140
1.0
141
50.0
290
     0
  0
SCALE
  5
650E
102
{ACAD_REACTORS
330
6502
102
}
330
6502
100
AcDbScale
 70
     0
300
1:100
140
1.0
141
100.0
290
     0
  0
SCALE
  5
650F
102
{ACAD_REACTORS
330
6502
102
}
330
6502
100
AcDbScale
 70
     0
300
2:1
140
2.0
141
1.0
290
     0
  0
SCALE
  5
6510
102
{ACAD_REACTORS
330
6502
102
}
330
6502
100
AcDbScale
 70
     0
300
4:1
140
4.0
141
1.0
290
     0
  0
SCALE
  5
6511
102
{ACAD_REACTORS
330
6502
102
}
330
6502
100
AcDbScale
 70
     0
300
8:1
140
8.0
141
1.0
290
     0
  0
SCALE
  5
6512
102
{ACAD_REACTORS
330
6502
102
}
330
6502
100
AcDbScale
 70
     0
300
10:1
140
10.0
141
1.0
290
     0
  0
SCALE
  5
6513
102
{ACAD_REACTORS
330
6502
102
}
330
6502
100
AcDbScale
 70
     0
300
100:1
140
100.0
141
1.0
290
     0
  0
ACDBSECTIONVIEWSTYLE
  5
6E2D
102
{ACAD_XDICTIONARY
360
72CB
102
}
102
{ACAD_REACTORS
330
6E2C
330
6E7C
102
}
330
6E2C
100
AcDbModelDocViewStyle
 70
     0
  3
Metric50
290
     0
100
AcDbSectionViewStyle
 70
     0
 71
     0
 90
      102
 71
     1
340
11
 62
   256
 40
5.0
340
0
340
0
 62
   256
 40
5.0
300
I, O, Q, S, X, Z
 40
10.0
 90
        0
 40
2.5
 90
        0
 71
     2
340
16
 90
       25
 62
   256
340
16
 90
       50
 62
   256
 40
5.0
 40
2.5
 40
5.0
 71
     3
340
11
 62
   256
 40
5.0
 90
        0
 40
15.0
 90
        1
300
%<\AcVar ViewSectionStartId>%-%<\AcVar ViewSectionEndId>% (%<\AcVar ViewScale \f "%sn">%)
 71
     4
 62
   256
 62
   257
300
ANSI31
 40
1.0
 90
        0
290
     0
290
     0
 90
        6
 40
0.0
 40
1.570796326794896
 40
0.2617993877991494
 40
1.308996938995747
 40
-0.2617993877991494
 40
1.832595714594046
  0
TABLESTYLE
  5
134
102
{ACAD_XDICTIONARY
360
6DEB
102
}
102
{ACAD_REACTORS
330
133
102
}
330
133
100
AcDbTableStyle
280
     0
  3
Standard
 70
     0
 71
     0
 40
1.5
 41
1.5
280
     0
281
     0
  7
STANDARD
140
4.5
170
     2
 62
     0
 63
     7
283
     0
 90
        4
 91
        0
  1

274
    -2
284
     1
 64
     0
275
    -2
285
     1
 65
     0
276
    -2
286
     1
 66
     0
277
    -2
287
     1
 67
     0
278
    -2
288
     1
 68
     0
279
    -2
289
     1
 69
     0
  7
STANDARD
140
6.0
170
     5
 62
     0
 63
     7
283
     0
 90
        4
 91
        0
  1

274
    -2
284
     1
 64
     0
275
    -2
285
     1
 65
     0
276
    -2
286
     1
 66
     0
277
    -2
287
     1
 67
     0
278
    -2
288
     1
 68
     0
279
    -2
289
     1
 69
     0
  7
STANDARD
140
4.5
170
     5
 62
     0
 63
     7
283
     0
 90
        4
 91
        0
  1

274
    -2
284
     1
 64
     0
275
    -2
285
     1
 65
     0
276
    -2
286
     1
 66
     0
277
    -2
287
     1
 67
     0
278
    -2
288
     1
 68
     0
279
    -2
289
     1
 69
     0
  0
VISUALSTYLE
  5
64F4
102
{ACAD_REACTORS
330
64EE
102
}
330
64EE
100
AcDbVisualStyle
  2

 70
     4
177
     3
291
     0
 70
    58
 90
        0
176
     1
 90
        2
176
     1
 90
        0
176
     1
 90
        0
176
     1
 40
0.6
176
     1
 40
30.0
176
     1
 62
     7
176
     1
 90
        1
176
     1
 90
        4
176
     1
 62
     7
176
     1
 62
   257
176
     1
 90
        1
176
     1
 90
        1
176
     1
 40
1.0
176
     1
 90
        0
176
     1
 62
   257
176
     1
 40
1.0
176
     1
 90
        1
176
     1
 90
        6
176
     1
 90
        2
176
     1
 62
     7
176
     1
 90
        5
176
     1
 90
        0
176
     1
 90
        0
176
     1
290
     0
176
     1
 90
        1
176
     1
 40
0.0
176
     1
 90
        0
176
     1
290
     1
176
     1
290
     1
176
     1
290
     0
176
     1
290
     0
176
     1
290
     0
176
     1
290
     0
176
     1
290
     0
176
     1
290
     0
176
     1
290
     0
176
     1
 90
       50
176
     1
 40
0.0
176
     1
 40
1.0
176
     1
 90
        0
176
     1
 62
    18
420
        0
176
     1
 90
       50
176
     1
 90
        3
176
     1
 62
     5
420
      255
176
     1
290
     0
176
     1
 90
       50
176
     1
 90
       50
176
     1
 90
       50
176
     1
290
     0
176
     1
 90
       50
176
     1
 62
   256
176
     0
 40
1.0
176
     0
 90
        2
176
     1
  1
strokes_ogs.tif
176
     1
290
     0
176
     1
 40
1.0
176
     1
 40
1.0
176
     1
1001
ACAD
1000
AcDbSavedByObjectVersion
1070
     0
  0
VISUALSTYLE
  5
64F6
102
{ACAD_REACTORS
330
64EE
102
}
330
64EE
100
AcDbVisualStyle
  2

 70
     6
177
     3
291
     0
 70
    58
 90
        1
176
     1
 90
        2
176
     1
 90
        2
176
     1
 90
        0
176
     1
 40
0.6
176
     1
 40
30.0
176
     1
 62
     7
176
     1
 90
        2
176
     1
 90
        2
176
     1
 62
     7
176
     1
 62
   257
176
     1
 90
        2
176
     1
 90
        1
176
     1
 40
179.0
176
     1
 90
        0
176
     1
 62
   257
176
     1
 40
1.0
176
     1
 90
        1
176
     1
 90
        6
176
     1
 90
        2
176
     1
 62
     7
176
     1
 90
        3
176
     1
 90
        0
176
     1
 90
        0
176
     1
290
     0
176
     1
 90
        1
176
     1
 40
0.0
176
     1
 90
        0
176
     1
290
     0
176
     1
290
     1
176
     1
290
     1
176
     1
290
     0
176
     1
290
     0
176
     1
290
     0
176
     1
290
     0
176
     1
290
     0
176
     1
290
     0
176
     1
 90
       50
176
     1
 40
0.0
176
     1
 40
1.0
176
     1
 90
        0
176
     1
 62
    18
420
        0
176
     1
 90
       50
176
     1
 90
        3
176
     1
 62
     5
420
      255
176
     1
290
     0
176
     1
 90
       50
176
     1
 90
       50
176
     1
 90
       50
176
     1
290
     0
176
     1
 90
       50
176
     1
 62
   256
176
     0
 40
1.0
176
     0
 90
        2
176
     1
  1
strokes_ogs.tif
176
     1
290
     0
176
     1
 40
1.0
176
     1
 40
1.0
176
     1
1001
ACAD
1000
AcDbSavedByObjectVersion
1070
     0
  0
VISUALSTYLE
  5
64F5
102
{ACAD_REACTORS
330
64EE
102
}
330
64EE
100
AcDbVisualStyle
  2

 70
     5
177
     3
291
     0
 70
    58
 90
        0
176
     1
 90
        2
176
     1
 90
        0
176
     1
 90
        0
176
     1
 40
0.6
176
     1
 40
30.0
176
     1
 62
     7
176
     1
 90
        1
176
     1
 90
        4
176
     1
 62
     7
176
     1
 62
   257
176
     1
 90
        1
176
     1
 90
        1
176
     1
 40
1.0
176
     1
 90
        0
176
     1
 62
   257
176
     1
 40
1.0
176
     1
 90
        1
176
     1
 90
        6
176
     1
 90
        2
176
     1
 62
     7
176
     1
 90
        5
176
     1
 90
        0
176
     1
 90
        0
176
     1
290
     0
176
     1
 90
        1
176
     1
 40
0.0
176
     1
 90
        0
176
     1
290
     0
176
     1
290
     1
176
     1
290
     1
176
     1
290
     0
176
     1
290
     0
176
     1
290
     0
176
     1
290
     0
176
     1
290
     0
176
     1
290
     0
176
     1
 90
       50
176
     1
 40
0.0
176
     1
 40
1.0
176
     1
 90
        0
176
     1
 62
    18
420
        0
176
     1
 90
       50
176
     1
 90
        3
176
     1
 62
     5
420
      255
176
     1
290
     0
176
     1
 90
       50
176
     1
 90
       50
176
     1
 90
       50
176
     1
290
     0
176
     1
 90
       50
176
     1
 62
   256
176
     0
 40
1.0
176
     0
 90
        2
176
     1
  1
strokes_ogs.tif
176
     1
290
     0
176
     1
 40
1.0
176
     1
 40
1.0
176
     1
1001
ACAD
1000
AcDbSavedByObjectVersion
1070
     0
  0
VISUALSTYLE
  5
64F3
102
{ACAD_REACTORS
330
64EE
102
}
330
64EE
100
AcDbVisualStyle
  2

 70
     7
177
     3
291
     1
 70
    58
 90
        1
176
     1
 90
        0
176
     1
 90
        1
176
     1
 90
        0
176
     1
 40
0.6
176
     1
 40
30.0
176
     1
 62
     7
176
     1
 90
        0
176
     1
 90
        4
176
     1
 62
     7
176
     1
 62
   257
176
     1
 90
        1
176
     1
 90
        1
176
     1
 40
1.0
176
     1
 90
        8
176
     1
 62
     7
176
     1
 40
1.0
176
     1
 90
        1
176
     1
 90
        6
176
     1
 90
        2
176
     1
 62
     7
176
     1
 90
        5
176
     1
 90
        0
176
     1
 90
        0
176
     1
290
     0
176
     1
 90
        1
176
     1
 40
0.0
176
     1
 90
        0
176
     1
290
     0
176
     1
290
     1
176
     1
290
     1
176
     1
290
     0
176
     1
290
     0
176
     1
290
     0
176
     1
290
     0
176
     1
290
     0
176
     1
290
     0
176
     1
 90
       50
176
     1
 40
0.0
176
     1
 40
1.0
176
     1
 90
        0
176
     1
 62
    18
420
        0
176
     1
 90
       50
176
     1
 90
        3
176
     1
 62
     5
420
      255
176
     1
290
     0
176
     1
 90
       50
176
     1
 90
       50
176
     1
 90
       50
176
     1
290
     0
176
     1
 90
       50
176
     1
 62
   256
176
     0
 40
1.0
176
     0
 90
        2
176
     1
  1
strokes_ogs.tif
176
     1
290
     0
176
     1
 40
1.0
176
     1
 40
1.0
176
     1
1001
ACAD
1000
AcDbSavedByObjectVersion
1070
     0
  0
VISUALSTYLE
  5
64FA
102
{ACAD_REACTORS
330
64EE
102
}
330
64EE
100
AcDbVisualStyle
  2

 70
    12
177
     3
291
     1
 70
    58
 90
        2
176
     1
 90
        2
176
     1
 90
        0
176
     1
 90
        0
176
     1
 40
0.6
176
     1
 40
30.0
176
     1
 62
     7
176
     1
 90
        1
176
     1
 90
        4
176
     1
 62
     7
176
     1
 62
   257
176
     1
 90
        1
176
     1
 90
        1
176
     1
 40
1.0
176
     1
 90
        8
176
     1
 62
     7
176
     1
 40
1.0
176
     1
 90
        1
176
     1
 90
        6
176
     1
 90
        2
176
     1
 62
     7
176
     1
 90
        5
176
     1
 90
        0
176
     1
 90
        0
176
     1
290
     0
176
     1
 90
        1
176
     1
 40
50.0
176
     1
 90
        0
176
     1
290
     0
176
     1
290
     1
176
     1
290
     1
176
     1
290
     0
176
     1
290
     0
176
     1
290
     0
176
     1
290
     0
176
     1
290
     0
176
     1
290
     0
176
     1
 90
       50
176
     1
 40
0.0
176
     1
 40
1.0
176
     1
 90
        0
176
     1
 62
    18
420
        0
176
     1
 90
       50
176
     1
 90
        3
176
     1
 62
     5
420
      255
176
     1
290
     0
176
     1
 90
       50
176
     1
 90
       50
176
     1
 90
       50
176
     1
290
     0
176
     1
 90
       50
176
     1
 62
   256
176
     0
 40
1.0
176
     0
 90
        2
176
     1
  1
strokes_ogs.tif
176
     1
290
     0
176
     1
 40
1.0
176
     1
 40
1.0
176
     1
1001
ACAD
1000
AcDbSavedByObjectVersion
1070
     0
  0
VISUALSTYLE
  5
64FE
102
{ACAD_REACTORS
330
64EE
102
}
330
64EE
100
AcDbVisualStyle
  2

 70
    16
177
     3
291
     1
 70
    58
 90
        2
176
     1
 90
        2
176
     1
 90
        3
176
     1
 90
        0
176
     1
 40
0.6
176
     1
 40
30.0
176
     1
 62
     8
176
     1
 90
        1
176
     1
 90
        4
176
     1
 62
     7
176
     1
 62
   257
176
     1
 90
        1
176
     1
 90
        1
176
     1
 40
1.0
176
     1
 90
        8
176
     1
 62
     8
176
     1
 40
1.0
176
     1
 90
        1
176
     1
 90
        6
176
     1
 90
        2
176
     1
 62
     7
176
     1
 90
        5
176
     1
 90
        0
176
     1
 90
        0
176
     1
290
     0
176
     1
 90
        1
176
     1
 40
0.0
176
     1
 90
        0
176
     1
290
     0
176
     1
290
     1
176
     1
290
     1
176
     1
290
     0
176
     1
290
     0
176
     1
290
     0
176
     1
290
     0
176
     1
290
     0
176
     1
290
     0
176
     1
 90
       50
176
     1
 40
0.0
176
     1
 40
1.0
176
     1
 90
        0
176
     1
 62
    18
420
        0
176
     1
 90
       50
176
     1
 90
        3
176
     1
 62
     5
420
      255
176
     1
290
     0
176
     1
 90
       50
176
     1
 90
       50
176
     1
 90
       50
176
     1
290
     0
176
     1
 90
       50
176
     1
 62
   256
176
     0
 40
1.0
176
     0
 90
        2
176
     1
  1
strokes_ogs.tif
176
     1
290
     0
176
     1
 40
1.0
176
     1
 40
1.0
176
     1
1001
ACAD
1000
AcDbSavedByObjectVersion
1070
     0
  0
VISUALSTYLE
  5
64F7
102
{ACAD_REACTORS
330
64EE
102
}
330
64EE
100
AcDbVisualStyle
  2

 70
     9
177
     3
291
     0
 70
    58
 90
        3
176
     1
 90
        2
176
     1
 90
        0
176
     1
 90
        0
176
     1
 40
0.6
176
     1
 40
30.0
176
     1
 62
     7
176
     1
 90
        2
176
     1
 90
        2
176
     1
 62
     7
176
     1
 62
   257
176
     1
 90
        1
176
     1
 90
        1
176
     1
 40
179.0
176
     1
 90
        8
176
     1
 62
     7
176
     1
 40
1.0
176
     1
 90
        1
176
     1
 90
        6
176
     1
 90
        2
176
     1
 62
     7
176
     1
 90
        3
176
     1
 90
        0
176
     1
 90
        0
176
     1
290
     0
176
     1
 90
        1
176
     1
 40
0.0
176
     1
 90
        0
176
     1
290
     0
176
     1
290
     1
176
     1
290
     1
176
     1
290
     0
176
     1
290
     0
176
     1
290
     0
176
     1
290
     0
176
     1
290
     0
176
     1
290
     0
176
     1
 90
       50
176
     1
 40
0.0
176
     1
 40
1.0
176
     1
 90
        0
176
     1
 62
    18
420
        0
176
     1
 90
       50
176
     1
 90
        3
176
     1
 62
     5
420
      255
176
     1
290
     0
176
     1
 90
       50
176
     1
 90
       50
176
     1
 90
       50
176
     1
290
     0
176
     1
 90
       50
176
     1
 62
   256
176
     0
 40
1.0
176
     0
 90
        2
176
     1
  1
strokes_ogs.tif
176
     1
290
     0
176
     1
 40
1.0
176
     1
 40
1.0
176
     1
1001
ACAD
1000
AcDbSavedByObjectVersion
1070
     0
  0
VISUALSTYLE
  5
64F9
102
{ACAD_REACTORS
330
64EE
102
}
330
64EE
100
AcDbVisualStyle
  2

 70
    11
177
     3
291
     1
 70
    58
 90
        2
176
     1
 90
        2
176
     1
 90
        0
176
     1
 90
        0
176
     1
 40
0.6
176
     1
 40
30.0
176
     1
 62
     7
176
     1
 90
        1
176
     1
 90
        4
176
     1
 62
     7
176
     1
 62
   257
176
     1
 90
        1
176
     1
 90
        1
176
     1
 40
1.0
176
     1
 90
        8
176
     1
 62
     7
176
     1
 40
1.0
176
     1
 90
        1
176
     1
 90
        6
176
     1
 90
        2
176
     1
 62
     7
176
     1
 90
        5
176
     1
 90
        0
176
     1
 90
        0
176
     1
290
     0
176
     1
 90
        1
176
     1
 40
-50.0
176
     1
 90
        0
176
     1
290
     0
176
     1
290
     1
176
     1
290
     1
176
     1
290
     0
176
     1
290
     0
176
     1
290
     0
176
     1
290
     0
176
     1
290
     0
176
     1
290
     0
176
     1
 90
       50
176
     1
 40
0.0
176
     1
 40
1.0
176
     1
 90
        0
176
     1
 62
    18
420
        0
176
     1
 90
       50
176
     1
 90
        3
176
     1
 62
     5
420
      255
176
     1
290
     0
176
     1
 90
       50
176
     1
 90
       50
176
     1
 90
       50
176
     1
290
     0
176
     1
 90
       50
176
     1
 62
   256
176
     0
 40
1.0
176
     0
 90
        2
176
     1
  1
strokes_ogs.tif
176
     1
290
     0
176
     1
 40
1.0
176
     1
 40
1.0
176
     1
1001
ACAD
1000
AcDbSavedByObjectVersion
1070
     0
  0
VISUALSTYLE
  5
6501
102
{ACAD_REACTORS
330
64EE
102
}
330
64EE
100
AcDbVisualStyle
  2

 70
    22
177
     3
291
     1
 70
    58
 90
        2
176
     0
 90
        2
176
     0
 90
        0
176
     0
 90
        0
176
     0
 40
0.6
176
     0
 40
30.0
176
     0
 62
     7
176
     0
 90
        1
176
     0
 90
        4
176
     0
 62
     7
176
     0
 62
   257
176
     0
 90
        1
176
     0
 90
        1
176
     0
 40
1.0
176
     0
 90
        8
176
     2
 62
     7
176
     0
 40
1.0
176
     0
 90
        1
176
     0
 90
        6
176
     0
 90
        2
176
     0
 62
     7
176
     0
 90
        5
176
     0
 90
        0
176
     0
 90
        0
176
     0
290
     0
176
     0
 90
        1
176
     0
 40
0.0
176
     0
 90
        0
176
     0
290
     0
176
     1
290
     1
176
     1
290
     1
176
     1
290
     0
176
     1
290
     0
176
     1
290
     0
176
     1
290
     0
176
     1
290
     0
176
     1
290
     0
176
     1
 90
       50
176
     1
 40
0.0
176
     1
 40
1.0
176
     1
 90
        0
176
     1
 62
    18
420
        0
176
     1
 90
       50
176
     1
 90
        3
176
     1
 62
     5
420
      255
176
     1
290
     0
176
     1
 90
       50
176
     1
 90
       50
176
     1
 90
       50
176
     1
290
     0
176
     1
 90
       50
176
     1
 62
   256
176
     0
 40
1.0
176
     0
 90
        2
176
     1
  1
strokes_ogs.tif
176
     1
290
     0
176
     1
 40
1.0
176
     1
 40
1.0
176
     1
1001
ACAD
1000
AcDbSavedByObjectVersion
1070
     0
  0
VISUALSTYLE
  5
64FD
102
{ACAD_REACTORS
330
64EE
102
}
330
64EE
100
AcDbVisualStyle
  2

 70
    15
177
     3
291
     1
 70
    58
 90
        2
176
     1
 90
        2
176
     1
 90
        0
176
     1
 90
        0
176
     1
 40
0.6
176
     1
 40
30.0
176
     1
 62
     7
176
     1
 90
        1
176
     1
 90
        4
176
     1
 62
     7
176
     1
 62
   257
176
     1
 90
        1
176
     1
 90
        1
176
     1
 40
1.0
176
     1
 90
        8
176
     1
 62
     7
176
     1
 40
1.0
176
     1
 90
        1
176
     1
 90
        6
176
     1
 90
        2
176
     1
 62
     7
176
     1
 90
        5
176
     1
 90
        0
176
     1
 90
        0
176
     1
290
     0
176
     1
 90
        1
176
     1
 40
0.0
176
     1
 90
        0
176
     1
290
     0
176
     1
290
     1
176
     1
290
     1
176
     1
290
     0
176
     1
290
     0
176
     1
290
     0
176
     1
290
     0
176
     1
290
     0
176
     1
290
     0
176
     1
 90
       50
176
     1
 40
0.0
176
     1
 40
1.0
176
     1
 90
        0
176
     1
 62
    18
420
        0
176
     1
 90
       50
176
     1
 90
        3
176
     1
 62
     5
420
      255
176
     1
290
     0
176
     1
 90
       50
176
     1
 90
       50
176
     1
 90
       50
176
     1
290
     0
176
     1
 90
       50
176
     1
 62
   256
176
     0
 40
1.0
176
     0
 90
        2
176
     1
  1
strokes_ogs.tif
176
     1
290
     0
176
     1
 40
1.0
176
     1
 40
1.0
176
     1
1001
ACAD
1000
AcDbSavedByObjectVersion
1070
     0
  0
VISUALSTYLE
  5
64EF
102
{ACAD_REACTORS
330
64EE
102
}
330
64EE
100
AcDbVisualStyle
  2

 70
     0
177
     3
291
     1
 70
    58
 90
        2
176
     1
 90
        1
176
     1
 90
        1
176
     1
 90
        2
176
     1
 40
0.6
176
     1
 40
30.0
176
     1
 62
     7
176
     1
 90
        0
176
     1
 90
        4
176
     1
 62
     7
176
     1
 62
   257
176
     1
 90
        1
176
     1
 90
        1
176
     1
 40
1.0
176
     1
 90
        8
176
     1
 62
     7
176
     1
 40
1.0
176
     1
 90
        1
176
     1
 90
        6
176
     1
 90
        2
176
     1
 62
     7
176
     1
 90
        5
176
     1
 90
        0
176
     1
 90
        0
176
     1
290
     0
176
     1
 90
       13
176
     1
 40
0.0
176
     1
 90
        0
176
     1
290
     0
176
     1
290
     1
176
     1
290
     1
176
     1
290
     0
176
     1
290
     0
176
     1
290
     0
176
     1
290
     0
176
     1
290
     0
176
     1
290
     0
176
     1
 90
       50
176
     1
 40
0.0
176
     1
 40
1.0
176
     1
 90
        0
176
     1
 62
    18
420
        0
176
     1
 90
       50
176
     1
 90
        3
176
     1
 62
     5
420
      255
176
     1
290
     0
176
     1
 90
       50
176
     1
 90
       50
176
     1
 90
       50
176
     1
290
     0
176
     1
 90
       50
176
     1
 62
   256
176
     0
 40
1.0
176
     0
 90
        2
176
     1
  1
strokes_ogs.tif
176
     1
290
     0
176
     1
 40
1.0
176
     1
 40
1.0
176
     1
1001
ACAD
1000
AcDbSavedByObjectVersion
1070
     0
  0
VISUALSTYLE
  5
64F0
102
{ACAD_REACTORS
330
64EE
102
}
330
64EE
100
AcDbVisualStyle
  2

 70
     1
177
     3
291
     1
 70
    58
 90
        2
176
     1
 90
        1
176
     1
 90
        1
176
     1
 90
        2
176
     1
 40
0.6
176
     1
 40
30.0
176
     1
 62
     7
176
     1
 90
        1
176
     1
 90
        4
176
     1
 62
     7
176
     1
 62
   257
176
     1
 90
        1
176
     1
 90
        1
176
     1
 40
1.0
176
     1
 90
        0
176
     1
 62
   257
176
     1
 40
1.0
176
     1
 90
        1
176
     1
 90
        6
176
     1
 90
        2
176
     1
 62
     7
176
     1
 90
        5
176
     1
 90
        0
176
     1
 90
        0
176
     1
290
     0
176
     1
 90
       13
176
     1
 40
0.0
176
     1
 90
        0
176
     1
290
     0
176
     1
290
     1
176
     1
290
     1
176
     1
290
     0
176
     1
290
     0
176
     1
290
     0
176
     1
290
     0
176
     1
290
     0
176
     1
290
     0
176
     1
 90
       50
176
     1
 40
0.0
176
     1
 40
1.0
176
     1
 90
        0
176
     1
 62
    18
420
        0
176
     1
 90
       50
176
     1
 90
        3
176
     1
 62
     5
420
      255
176
     1
290
     0
176
     1
 90
       50
176
     1
 90
       50
176
     1
 90
       50
176
     1
290
     0
176
     1
 90
       50
176
     1
 62
   256
176
     0
 40
1.0
176
     0
 90
        2
176
     1
  1
strokes_ogs.tif
176
     1
290
     0
176
     1
 40
1.0
176
     1
 40
1.0
176
     1
1001
ACAD
1000
AcDbSavedByObjectVersion
1070
     0
  0
VISUALSTYLE
  5
64F1
102
{ACAD_REACTORS
330
64EE
102
}
330
64EE
100
AcDbVisualStyle
  2

 70
     2
177
     3
291
     1
 70
    58
 90
        2
176
     1
 90
        2
176
     1
 90
        1
176
     1
 90
        2
176
     1
 40
0.6
176
     1
 40
30.0
176
     1
 62
     7
176
     1
 90
        0
176
     1
 90
        4
176
     1
 62
     7
176
     1
 62
   257
176
     1
 90
        1
176
     1
 90
        1
176
     1
 40
1.0
176
     1
 90
        0
176
     1
 62
     7
176
     1
 40
1.0
176
     1
 90
        1
176
     1
 90
        6
176
     1
 90
        2
176
     1
 62
     7
176
     1
 90
        5
176
     1
 90
        0
176
     1
 90
        0
176
     1
290
     0
176
     1
 90
       13
176
     1
 40
0.0
176
     1
 90
        0
176
     1
290
     0
176
     1
290
     1
176
     1
290
     1
176
     1
290
     0
176
     1
290
     0
176
     1
290
     0
176
     1
290
     0
176
     1
290
     0
176
     1
290
     0
176
     1
 90
       50
176
     1
 40
0.0
176
     1
 40
1.0
176
     1
 90
        0
176
     1
 62
    18
420
        0
176
     1
 90
       50
176
     1
 90
        3
176
     1
 62
     5
420
      255
176
     1
290
     0
176
     1
 90
       50
176
     1
 90
       50
176
     1
 90
       50
176
     1
290
     0
176
     1
 90
       50
176
     1
 62
   256
176
     0
 40
1.0
176
     0
 90
        2
176
     1
  1
strokes_ogs.tif
176
     1
290
     0
176
     1
 40
1.0
176
     1
 40
1.0
176
     1
1001
ACAD
1000
AcDbSavedByObjectVersion
1070
     0
  0
VISUALSTYLE
  5
64F2
102
{ACAD_REACTORS
330
64EE
102
}
330
64EE
100
AcDbVisualStyle
  2

 70
     3
177
     3
291
     1
 70
    58
 90
        2
176
     1
 90
        2
176
     1
 90
        1
176
     1
 90
        2
176
     1
 40
0.6
176
     1
 40
30.0
176
     1
 62
     7
176
     1
 90
        1
176
     1
 90
        4
176
     1
 62
     7
176
     1
 62
   257
176
     1
 90
        1
176
     1
 90
        1
176
     1
 40
1.0
176
     1
 90
        0
176
     1
 62
   257
176
     1
 40
1.0
176
     1
 90
        1
176
     1
 90
        6
176
     1
 90
        2
176
     1
 62
     7
176
     1
 90
        5
176
     1
 90
        0
176
     1
 90
        0
176
     1
290
     0
176
     1
 90
       13
176
     1
 40
0.0
176
     1
 90
        0
176
     1
290
     0
176
     1
290
     1
176
     1
290
     1
176
     1
290
     0
176
     1
290
     0
176
     1
290
     0
176
     1
290
     0
176
     1
290
     0
176
     1
290
     0
176
     1
 90
       50
176
     1
 40
0.0
176
     1
 40
1.0
176
     1
 90
        0
176
     1
 62
    18
420
        0
176
     1
 90
       50
176
     1
 90
        3
176
     1
 62
     5
420
      255
176
     1
290
     0
176
     1
 90
       50
176
     1
 90
       50
176
     1
 90
       50
176
     1
290
     0
176
     1
 90
       50
176
     1
 62
   256
176
     0
 40
1.0
176
     0
 90
        2
176
     1
  1
strokes_ogs.tif
176
     1
290
     0
176
     1
 40
1.0
176
     1
 40
1.0
176
     1
1001
ACAD
1000
AcDbSavedByObjectVersion
1070
     0
  0
VISUALSTYLE
  5
6E26
102
{ACAD_REACTORS
330
64EE
102
}
330
64EE
100
AcDbVisualStyle
  2
Hidden
 70
     6
177
     3
291
     0
 70
    58
 90
        1
176
     1
 90
        2
176
     1
 90
        2
176
     1
 90
        0
176
     1
 40
0.6
176
     1
 40
30.0
176
     1
 62
     7
420
 16777215
176
     1
 90
        2
176
     1
 90
        2
176
     1
 62
     7
176
     1
 62
   257
176
     1
 90
        2
176
     1
 90
        1
176
     1
 40
40.0
176
     1
 90
        0
176
     1
 62
   257
176
     1
 40
1.0
176
     1
 90
        1
176
     1
 90
        6
176
     1
 90
        2
176
     1
 62
     7
176
     1
 90
        3
176
     1
 90
        0
176
     1
 90
        0
176
     1
290
     0
176
     1
 90
        1
176
     1
 40
0.0
176
     1
 90
        0
176
     1
290
     0
176
     1
290
     1
176
     1
290
     1
176
     1
290
     0
176
     1
290
     0
176
     1
290
     0
176
     1
290
     0
176
     1
290
     0
176
     1
290
     0
176
     1
 90
       50
176
     1
 40
0.0
176
     1
 40
1.0
176
     1
 90
        0
176
     1
 62
    18
420
        0
176
     1
 90
       50
176
     1
 90
        3
176
     1
 62
     5
420
      255
176
     1
290
     0
176
     1
 90
       50
176
     1
 90
       50
176
     1
 90
       50
176
     1
290
     0
176
     1
 90
       50
176
     1
 62
   256
176
     0
 40
1.0
176
     0
 90
        2
176
     1
  1
strokes_ogs.tif
176
     1
290
     0
176
     1
 40
1.0
176
     1
 40
1.0
176
     1
  0
VISUALSTYLE
  5
64FF
102
{ACAD_REACTORS
330
64EE
102
}
330
64EE
100
AcDbVisualStyle
  2

 70
    20
177
     3
291
     1
 70
    58
 90
        2
176
     0
 90
        2
176
     0
 90
        0
176
     0
 90
        0
176
     0
 40
0.6
176
     0
 40
30.0
176
     0
 62
     7
176
     0
 90
        1
176
     0
 90
        4
176
     0
 62
     7
176
     0
 62
   257
176
     0
 90
        1
176
     0
 90
        1
176
     0
 40
1.0
176
     0
 90
       10
176
     2
 62
     7
176
     0
 40
1.0
176
     0
 90
        1
176
     0
 90
        6
176
     0
 90
        2
176
     0
 62
     7
176
     0
 90
        5
176
     0
 90
        0
176
     0
 90
        0
176
     0
290
     0
176
     0
 90
        1
176
     0
 40
0.0
176
     0
 90
        0
176
     0
290
     0
176
     1
290
     1
176
     1
290
     1
176
     1
290
     0
176
     1
290
     0
176
     1
290
     0
176
     1
290
     0
176
     1
290
     0
176
     1
290
     0
176
     1
 90
       50
176
     1
 40
0.0
176
     1
 40
1.0
176
     1
 90
        0
176
     1
 62
    18
420
        0
176
     1
 90
       50
176
     1
 90
        3
176
     1
 62
     5
420
      255
176
     1
290
     0
176
     1
 90
       50
176
     1
 90
       50
176
     1
 90
       50
176
     1
290
     0
176
     1
 90
       50
176
     1
 62
   256
176
     0
 40
1.0
176
     0
 90
        2
176
     1
  1
strokes_ogs.tif
176
     1
290
     0
176
     1
 40
1.0
176
     1
 40
1.0
176
     1
1001
ACAD
1000
AcDbSavedByObjectVersion
1070
     0
  0
VISUALSTYLE
  5
64FC
102
{ACAD_REACTORS
330
64EE
102
}
330
64EE
100
AcDbVisualStyle
  2

 70
    14
177
     3
291
     1
 70
    58
 90
        2
176
     1
 90
        2
176
     1
 90
        0
176
     1
 90
        0
176
     1
 40
0.6
176
     1
 40
30.0
176
     1
 62
     7
176
     1
 90
        1
176
     1
 90
        4
176
     1
 62
     7
176
     1
 62
   257
176
     1
 90
        7
176
     1
 90
        7
176
     1
 40
1.0
176
     1
 90
        8
176
     1
 62
     7
176
     1
 40
1.0
176
     1
 90
        1
176
     1
 90
        6
176
     1
 90
        2
176
     1
 62
     7
176
     1
 90
        5
176
     1
 90
        0
176
     1
 90
        0
176
     1
290
     0
176
     1
 90
        1
176
     1
 40
0.0
176
     1
 90
        0
176
     1
290
     0
176
     1
290
     1
176
     1
290
     1
176
     1
290
     0
176
     1
290
     0
176
     1
290
     0
176
     1
290
     0
176
     1
290
     0
176
     1
290
     0
176
     1
 90
       50
176
     1
 40
0.0
176
     1
 40
1.0
176
     1
 90
        0
176
     1
 62
    18
420
        0
176
     1
 90
       50
176
     1
 90
        3
176
     1
 62
     5
420
      255
176
     1
290
     0
176
     1
 90
       50
176
     1
 90
       50
176
     1
 90
       50
176
     1
290
     0
176
     1
 90
       50
176
     1
 62
   256
176
     0
 40
1.0
176
     0
 90
        2
176
     1
  1
strokes_ogs.tif
176
     1
290
     0
176
     1
 40
1.0
176
     1
 40
1.0
176
     1
1001
ACAD
1000
AcDbSavedByObjectVersion
1070
     0
  0
VISUALSTYLE
  5
6500
102
{ACAD_REACTORS
330
64EE
102
}
330
64EE
100
AcDbVisualStyle
  2

 70
    21
177
     3
291
     1
 70
    58
 90
        2
176
     0
 90
        2
176
     0
 90
        0
176
     0
 90
        0
176
     0
 40
0.6
176
     0
 40
30.0
176
     0
 62
     7
176
     0
 90
        1
176
     0
 90
        4
176
     0
 62
     7
176
     0
 62
   257
176
     0
 90
        1
176
     0
 90
        1
176
     0
 40
1.0
176
     0
 90
        9
176
     2
 62
     7
176
     0
 40
1.0
176
     0
 90
        1
176
     0
 90
        6
176
     0
 90
        2
176
     0
 62
     7
176
     0
 90
        5
176
     0
 90
        0
176
     0
 90
        0
176
     0
290
     0
176
     0
 90
        1
176
     0
 40
0.0
176
     0
 90
        0
176
     0
290
     0
176
     1
290
     1
176
     1
290
     1
176
     1
290
     0
176
     1
290
     0
176
     1
290
     0
176
     1
290
     0
176
     1
290
     0
176
     1
290
     0
176
     1
 90
       50
176
     1
 40
0.0
176
     1
 40
1.0
176
     1
 90
        0
176
     1
 62
    18
420
        0
176
     1
 90
       50
176
     1
 90
        3
176
     1
 62
     5
420
      255
176
     1
290
     0
176
     1
 90
       50
176
     1
 90
       50
176
     1
 90
       50
176
     1
290
     0
176
     1
 90
       50
176
     1
 62
   256
176
     0
 40
1.0
176
     0
 90
        2
176
     1
  1
strokes_ogs.tif
176
     1
290
     0
176
     1
 40
1.0
176
     1
 40
1.0
176
     1
1001
ACAD
1000
AcDbSavedByObjectVersion
1070
     0
  0
VISUALSTYLE
  5
64F8
102
{ACAD_REACTORS
330
64EE
102
}
330
64EE
100
AcDbVisualStyle
  2

 70
     8
177
     3
291
     0
 70
    58
 90
        2
176
     1
 90
        2
176
     1
 90
        0
176
     1
 90
        0
176
     1
 40
0.6
176
     1
 40
30.0
176
     1
 62
     7
176
     1
 90
        1
176
     1
 90
        0
176
     1
 62
     7
176
     1
 62
   257
176
     1
 90
        1
176
     1
 90
        1
176
     1
 40
1.0
176
     1
 90
        8
176
     1
 62
     8
176
     1
 40
1.0
176
     1
 90
        1
176
     1
 90
        6
176
     1
 90
        2
176
     1
 62
     7
176
     1
 90
        5
176
     1
 90
        0
176
     1
 90
        0
176
     1
290
     0
176
     1
 90
       13
176
     1
 40
0.0
176
     1
 90
        0
176
     1
290
     0
176
     1
290
     1
176
     1
290
     1
176
     1
290
     0
176
     1
290
     0
176
     1
290
     0
176
     1
290
     0
176
     1
290
     0
176
     1
290
     0
176
     1
 90
       50
176
     1
 40
0.0
176
     1
 40
1.0
176
     1
 90
        0
176
     1
 62
    18
420
        0
176
     1
 90
       50
176
     1
 90
        3
176
     1
 62
     5
420
      255
176
     1
290
     0
176
     1
 90
       50
176
     1
 90
       50
176
     1
 90
       50
176
     1
290
     0
176
     1
 90
       50
176
     1
 62
   256
176
     0
 40
1.0
176
     0
 90
        2
176
     1
  1
strokes_ogs.tif
176
     1
290
     0
176
     1
 40
1.0
176
     1
 40
1.0
176
     1
1001
ACAD
1000
AcDbSavedByObjectVersion
1070
     0
  0
VISUALSTYLE
  5
6E2B
102
{ACAD_REACTORS
330
64EE
102
}
330
64EE
100
AcDbVisualStyle
  2
Shaded
 70
    27
177
     3
291
     0
 70
    58
 90
        2
176
     1
 90
        2
176
     1
 90
        1
176
     1
 90
        2
176
     1
 40
0.6
176
     1
 40
30.0
176
     1
 62
     7
420
 16777215
176
     1
 90
        0
176
     1
 90
        4
176
     1
 62
     7
176
     1
 62
   257
176
     1
 90
        1
176
     1
 90
        1
176
     1
 40
1.0
176
     1
 90
        8
176
     1
 62
   257
176
     1
 40
1.0
176
     1
 90
        1
176
     1
 90
        6
176
     1
 90
        2
176
     1
 62
     8
420
  7895160
176
     1
 90
        3
176
     1
 90
        0
176
     1
 90
        0
176
     1
290
     0
176
     1
 90
        5
176
     1
 40
0.0
176
     1
 90
        0
176
     1
290
     0
176
     1
290
     1
176
     1
290
     1
176
     1
290
     0
176
     1
290
     0
176
     1
290
     0
176
     1
290
     0
176
     1
290
     0
176
     1
290
     0
176
     1
 90
       50
176
     1
 40
0.0
176
     1
 40
1.0
176
     1
 90
        0
176
     1
 62
    18
420
        0
176
     1
 90
       50
176
     1
 90
        3
176
     1
 62
     5
420
      255
176
     1
290
     0
176
     1
 90
       50
176
     1
 90
       50
176
     1
 90
       50
176
     1
290
     0
176
     1
 90
       50
176
     1
 62
   256
176
     0
 40
1.0
176
     0
 90
        2
176
     1
  1
strokes_ogs.tif
176
     1
290
     0
176
     1
 40
1.0
176
     1
 40
1.0
176
     1
  0
VISUALSTYLE
  5
6E2A
102
{ACAD_REACTORS
330
64EE
102
}
330
64EE
100
AcDbVisualStyle
  2
Shaded with edges
 70
    26
177
     3
291
     0
 70
    58
 90
        2
176
     1
 90
        2
176
     1
 90
        1
176
     1
 90
        2
176
     1
 40
0.6
176
     1
 40
30.0
176
     1
 62
     7
420
 16777215
176
     1
 90
        1
176
     1
 90
       10
176
     1
 62
     7
176
     1
 62
   257
176
     1
 90
        2
176
     1
 90
        1
176
     1
 40
1.0
176
     1
 90
        8
176
     1
 62
   257
176
     1
 40
1.0
176
     1
 90
        1
176
     1
 90
        6
176
     1
 90
        2
176
     1
 62
     7
176
     1
 90
        3
176
     1
 90
        0
176
     1
 90
        0
176
     1
290
     0
176
     1
 90
        5
176
     1
 40
0.0
176
     1
 90
        0
176
     1
290
     0
176
     1
290
     1
176
     1
290
     1
176
     1
290
     0
176
     1
290
     0
176
     1
290
     0
176
     1
290
     0
176
     1
290
     0
176
     1
290
     0
176
     1
 90
       50
176
     1
 40
0.0
176
     1
 40
1.0
176
     1
 90
        0
176
     1
 62
    18
420
        0
176
     1
 90
       50
176
     1
 90
        3
176
     1
 62
     5
420
      255
176
     1
290
     0
176
     1
 90
       50
176
     1
 90
       50
176
     1
 90
       50
176
     1
290
     0
176
     1
 90
       50
176
     1
 62
   256
176
     0
 40
1.0
176
     0
 90
        2
176
     1
  1
strokes_ogs.tif
176
     1
290
     0
176
     1
 40
1.0
176
     1
 40
1.0
176
     1
  0
VISUALSTYLE
  5
6E27
102
{ACAD_REACTORS
330
64EE
102
}
330
64EE
100
AcDbVisualStyle
  2
Shades of Gray
 70
    23
177
     3
291
     0
 70
    58
 90
        2
176
     1
 90
        2
176
     1
 90
        3
176
     1
 90
        0
176
     1
 40
0.6
176
     1
 40
30.0
176
     1
 62
     7
420
 16777215
176
     1
 90
        2
176
     1
 90
        2
176
     1
 62
     7
176
     1
 62
     7
176
     1
 90
        1
176
     1
 90
        1
176
     1
 40
40.0
176
     1
 90
        8
176
     1
 62
     7
176
     1
 40
1.0
176
     1
 90
        1
176
     1
 90
        6
176
     1
 90
        2
176
     1
 62
     7
176
     1
 90
        3
176
     1
 90
        0
176
     1
 90
        0
176
     1
290
     0
176
     1
 90
        1
176
     1
 40
0.0
176
     1
 90
        0
176
     1
290
     0
176
     1
290
     1
176
     1
290
     1
176
     1
290
     0
176
     1
290
     0
176
     1
290
     0
176
     1
290
     0
176
     1
290
     0
176
     1
290
     0
176
     1
 90
       50
176
     1
 40
0.0
176
     1
 40
1.0
176
     1
 90
        0
176
     1
 62
    18
420
        0
176
     1
 90
       50
176
     1
 90
        3
176
     1
 62
     5
420
      255
176
     1
290
     0
176
     1
 90
       50
176
     1
 90
       50
176
     1
 90
       50
176
     1
290
     0
176
     1
 90
       50
176
     1
 62
   256
176
     0
 40
1.0
176
     0
 90
        2
176
     1
  1
strokes_ogs.tif
176
     1
290
     0
176
     1
 40
1.0
176
     1
 40
1.0
176
     1
  0
VISUALSTYLE
  5
6E28
102
{ACAD_REACTORS
330
64EE
102
}
330
64EE
100
AcDbVisualStyle
  2
Sketchy
 70
    24
177
     3
291
     0
 70
    58
 90
        1
176
     1
 90
        2
176
     1
 90
        2
176
     1
 90
        0
176
     1
 40
0.6
176
     1
 40
30.0
176
     1
 62
     7
420
 16777215
176
     1
 90
        2
176
     1
 90
        2
176
     1
 62
     7
176
     1
 62
     7
176
     1
 90
        1
176
     1
 90
        1
176
     1
 40
40.0
176
     1
 90
       11
176
     1
 62
     7
176
     1
 40
1.0
176
     1
 90
        1
176
     1
 90
        6
176
     1
 90
        2
176
     1
 62
     7
176
     1
 90
        6
176
     1
 90
        0
176
     1
 90
        0
176
     1
290
     0
176
     1
 90
        1
176
     1
 40
0.0
176
     1
 90
        0
176
     1
290
     0
176
     1
290
     1
176
     1
290
     1
176
     1
290
     0
176
     1
290
     0
176
     1
290
     0
176
     1
290
     0
176
     1
290
     0
176
     1
290
     0
176
     1
 90
       50
176
     1
 40
0.0
176
     1
 40
1.0
176
     1
 90
        0
176
     1
 62
    18
420
        0
176
     1
 90
       50
176
     1
 90
        3
176
     1
 62
     5
420
      255
176
     1
290
     0
176
     1
 90
       50
176
     1
 90
       50
176
     1
 90
       50
176
     1
290
     0
176
     1
 90
       50
176
     1
 62
   256
176
     0
 40
1.0
176
     0
 90
        2
176
     1
  1
strokes_ogs.tif
176
     1
290
     0
176
     1
 40
1.0
176
     1
 40
1.0
176
     1
  0
VISUALSTYLE
  5
64FB
102
{ACAD_REACTORS
330
64EE
102
}
330
64EE
100
AcDbVisualStyle
  2

 70
    13
177
     3
291
     1
 70
    58
 90
        2
176
     1
 90
        2
176
     1
 90
        0
176
     1
 90
        0
176
     1
 40
0.6
176
     1
 40
30.0
176
     1
 62
     7
176
     1
 90
        1
176
     1
 90
        4
176
     1
 62
     7
176
     1
 62
   257
176
     1
 90
        1
176
     1
 90
        1
176
     1
 40
1.0
176
     1
 90
       12
176
     1
 62
     7
176
     1
 40
1.0
176
     1
 90
        1
176
     1
 90
        6
176
     1
 90
        2
176
     1
 62
     7
176
     1
 90
        5
176
     1
 90
        0
176
     1
 90
        0
176
     1
290
     0
176
     1
 90
        1
176
     1
 40
0.0
176
     1
 90
        0
176
     1
290
     0
176
     1
290
     1
176
     1
290
     1
176
     1
290
     0
176
     1
290
     0
176
     1
290
     0
176
     1
290
     0
176
     1
290
     0
176
     1
290
     0
176
     1
 90
       50
176
     1
 40
0.0
176
     1
 40
1.0
176
     1
 90
        0
176
     1
 62
    18
420
        0
176
     1
 90
       50
176
     1
 90
        3
176
     1
 62
     5
420
      255
176
     1
290
     0
176
     1
 90
       50
176
     1
 90
       50
176
     1
 90
       50
176
     1
290
     0
176
     1
 90
       50
176
     1
 62
   256
176
     0
 40
1.0
176
     0
 90
        2
176
     1
  1
strokes_ogs.tif
176
     1
290
     0
176
     1
 40
1.0
176
     1
 40
1.0
176
     1
1001
ACAD
1000
AcDbSavedByObjectVersion
1070
     0
  0
VISUALSTYLE
  5
6E25
102
{ACAD_REACTORS
330
64EE
102
}
330
64EE
100
AcDbVisualStyle
  2
Wireframe
 70
     5
177
     3
291
     0
 70
    58
 90
        0
176
     1
 90
        2
176
     1
 90
        0
176
     1
 90
        0
176
     1
 40
0.6
176
     1
 40
30.0
176
     1
 62
     7
420
 16777215
176
     1
 90
        1
176
     1
 90
        4
176
     1
 62
     7
176
     1
 62
   257
176
     1
 90
        1
176
     1
 90
        1
176
     1
 40
1.0
176
     1
 90
        0
176
     1
 62
   257
176
     1
 40
1.0
176
     1
 90
        1
176
     1
 90
        6
176
     1
 90
        2
176
     1
 62
     7
176
     1
 90
        3
176
     1
 90
        0
176
     1
 90
        0
176
     1
290
     0
176
     1
 90
        1
176
     1
 40
0.0
176
     1
 90
        0
176
     1
290
     0
176
     1
290
     1
176
     1
290
     1
176
     1
290
     0
176
     1
290
     0
176
     1
290
     0
176
     1
290
     0
176
     1
290
     0
176
     1
290
     0
176
     1
 90
       50
176
     1
 40
0.0
176
     1
 40
1.0
176
     1
 90
        0
176
     1
 62
    18
420
        0
176
     1
 90
       50
176
     1
 90
        3
176
     1
 62
     5
420
      255
176
     1
290
     0
176
     1
 90
       50
176
     1
 90
       50
176
     1
 90
       50
176
     1
290
     0
176
     1
 90
       50
176
     1
 62
   256
176
     0
 40
1.0
176
     0
 90
        2
176
     1
  1
strokes_ogs.tif
176
     1
290
     0
176
     1
 40
1.0
176
     1
 40
1.0
176
     1
  0
VISUALSTYLE
  5
6E29
102
{ACAD_REACTORS
330
64EE
102
}
330
64EE
100
AcDbVisualStyle
  2
X-Ray
 70
    25
177
     3
291
     0
 70
    58
 90
        2
176
     1
 90
        2
176
     1
 90
        1
176
     1
 90
        1
176
     1
 40
0.5
176
     1
 40
30.0
176
     1
 62
     7
420
 16777215
176
     1
 90
        1
176
     1
 90
        0
176
     1
 62
     7
176
     1
 62
   257
176
     1
 90
        1
176
     1
 90
        1
176
     1
 40
1.0
176
     1
 90
        8
176
     1
 62
     7
176
     1
 40
1.0
176
     1
 90
        1
176
     1
 90
        6
176
     1
 90
        2
176
     1
 62
     7
176
     1
 90
        3
176
     1
 90
        0
176
     1
 90
        0
176
     1
290
     0
176
     1
 90
       13
176
     1
 40
0.0
176
     1
 90
        0
176
     1
290
     0
176
     1
290
     1
176
     1
290
     1
176
     1
290
     0
176
     1
290
     0
176
     1
290
     0
176
     1
290
     0
176
     1
290
     0
176
     1
290
     0
176
     1
 90
       50
176
     1
 40
0.0
176
     1
 40
1.0
176
     1
 90
        0
176
     1
 62
    18
420
        0
176
     1
 90
       50
176
     1
 90
        3
176
     1
 62
     5
420
      255
176
     1
290
     0
176
     1
 90
       50
176
     1
 90
       50
176
     1
 90
       50
176
     1
290
     0
176
     1
 90
       50
176
     1
 62
   256
176
     0
 40
1.0
176
     0
 90
        2
176
     1
  1
strokes_ogs.tif
176
     1
290
     0
176
     1
 40
1.0
176
     1
 40
1.0
176
     1
  0
DICTIONARYVAR
  5
6DE8
102
{ACAD_REACTORS
330
34
102
}
330
34
100
DictionaryVariables
280
     0
  1
1:1
  0
DICTIONARYVAR
  5
6DE7
102
{ACAD_REACTORS
330
34
102
}
330
34
100
DictionaryVariables
280
     0
  1
STANDARD
  0
DICTIONARYVAR
  5
152
102
{ACAD_REACTORS
330
34
102
}
330
34
100
DictionaryVariables
280
     0
  1
STANDARD
  0
DICTIONARYVAR
  5
72C4
102
{ACAD_REACTORS
330
34
102
}
330
34
100
DictionaryVariables
280
     0
  1
Metric50
  0
DICTIONARYVAR
  5
72C5
102
{ACAD_REACTORS
330
34
102
}
330
34
100
DictionaryVariables
280
     0
  1
Metric50
  0
DICTIONARYVAR
  5
AD
102
{ACAD_REACTORS
330
34
102
}
330
34
100
DictionaryVariables
280
     0
  1
2
  0
DICTIONARYVAR
  5
35
102
{ACAD_REACTORS
330
34
102
}
330
34
100
DictionaryVariables
280
     0
  1
0
  0
DICTIONARYVAR
  5
72C8
102
{ACAD_REACTORS
330
34
102
}
330
34
100
DictionaryVariables
280
     0
  1
1
  0
DICTIONARYVAR
  5
72C9
102
{ACAD_REACTORS
330
34
102
}
330
34
100
DictionaryVariables
280
     0
  1
15
  0
DICTIONARYVAR
  5
72C7
102
{ACAD_REACTORS
330
34
102
}
330
34
100
DictionaryVariables
280
     0
  1
0
  0
DICTIONARYVAR
  5
72C6
102
{ACAD_REACTORS
330
34
102
}
330
34
100
DictionaryVariables
280
     0
  1
0
  0
DICTIONARYVAR
  5
64C9
102
{ACAD_REACTORS
330
34
102
}
330
34
100
DictionaryVariables
280
     0
  1

  0
DICTIONARYVAR
  5
6DE9
102
{ACAD_REACTORS
330
34
102
}
330
34
100
DictionaryVariables
280
     0
  1
127
  0
DICTIONARY
  5
2CB
102
{ACAD_REACTORS
330
49
102
}
330
49
100
AcDbDictionary
281
     1
  0
DICTIONARY
  5
4A
102
{ACAD_REACTORS
330
49
102
}
330
49
100
AcDbDictionary
281
     1
  0
XRECORD
  5
13D
102
{ACAD_REACTORS
330
49
102
}
330
49
100
AcDbXrecord
280
     1
 90
-1023410169
  0
DICTIONARY
  5
72CD
330
6E2F
100
AcDbDictionary
280
     1
281
     1
  3
ACAD_XREC_ROUNDTRIP
360
72CE
  0
DICTIONARY
  5
64DF
330
64DE
100
AcDbDictionary
280
     1
281
     1
  3
ACAD_XREC_ROUNDTRIP
360
6DF9
  3
BUMPTILE
360
64E1
  3
DIFFUSETILE
360
64E0
  3
OPACITYTILE
360
64E4
  3
REFLECTIONTILE
360
64E3
  3
REFRACTIONTILE
360
64E5
  3
SPECULARTILE
360
64E2
  0
DICTIONARY
  5
64D7
330
64D6
100
AcDbDictionary
280
     1
281
     1
  3
ACAD_XREC_ROUNDTRIP
360
6DF8
  3
BUMPTILE
360
64D9
  3
DIFFUSETILE
360
64D8
  3
OPACITYTILE
360
64DC
  3
REFLECTIONTILE
360
64DB
  3
REFRACTIONTILE
360
64DD
  3
SPECULARTILE
360
64DA
  0
DICTIONARY
  5
64E7
330
64E6
100
AcDbDictionary
280
     1
281
     1
  3
ACAD_XREC_ROUNDTRIP
360
6DFA
  3
BUMPTILE
360
64E9
  3
DIFFUSETILE
360
64E8
  3
OPACITYTILE
360
64EC
  3
REFLECTIONTILE
360
64EB
  3
REFRACTIONTILE
360
64ED
  3
SPECULARTILE
360
64EA
  0
DICTIONARY
  5
72CB
330
6E2D
100
AcDbDictionary
280
     1
281
     1
  3
ACAD_XREC_ROUNDTRIP
360
72CC
  0
DICTIONARY
  5
6DEB
330
134
100
AcDbDictionary
280
     1
281
     1
  3
ACAD_ROUNDTRIP_2008_TABLESTYLE_CELLSTYLEMAP
360
72CA
  0
XRECORD
  5
72CE
102
{ACAD_REACTORS
330
72CD
102
}
330
72CD
100
AcDbXrecord
280
     1
102
DISPLAYNAME
  1
Metric50
102
FLAGS
 90
        0
  0
XRECORD
  5
6DF9
102
{ACAD_REACTORS
330
64DF
102
}
330
64DF
100
AcDbXrecord
280
     1
102
MATERIAL
148
0.0
149
0.0
149
0.0
 93
        0
 94
      127
282
     0
 72
     0
 77
     0
171
     0
175
     0
179
     0
273
     0
  0
XRECORD
  5
64E1
102
{ACAD_REACTORS
330
64DF
102
}
330
64DF
100
AcDbXrecord
280
     1
270
     1
271
     1
  0
XRECORD
  5
64E0
102
{ACAD_REACTORS
330
64DF
102
}
330
64DF
100
AcDbXrecord
280
     1
270
     1
271
     1
  0
XRECORD
  5
64E4
102
{ACAD_REACTORS
330
64DF
102
}
330
64DF
100
AcDbXrecord
280
     1
270
     1
271
     1
  0
XRECORD
  5
64E3
102
{ACAD_REACTORS
330
64DF
102
}
330
64DF
100
AcDbXrecord
280
     1
270
     1
271
     1
  0
XRECORD
  5
64E5
102
{ACAD_REACTORS
330
64DF
102
}
330
64DF
100
AcDbXrecord
280
     1
270
     1
271
     1
  0
XRECORD
  5
64E2
102
{ACAD_REACTORS
330
64DF
102
}
330
64DF
100
AcDbXrecord
280
     1
270
     1
271
     1
  0
XRECORD
  5
6DF8
102
{ACAD_REACTORS
330
64D7
102
}
330
64D7
100
AcDbXrecord
280
     1
102
MATERIAL
148
0.0
149
0.0
149
0.0
 93
        0
 94
      127
282
     0
 72
     0
 77
     0
171
     0
175
     0
179
     0
273
     0
  0
XRECORD
  5
64D9
102
{ACAD_REACTORS
330
64D7
102
}
330
64D7
100
AcDbXrecord
280
     1
270
     1
271
     1
  0
XRECORD
  5
64D8
102
{ACAD_REACTORS
330
64D7
102
}
330
64D7
100
AcDbXrecord
280
     1
270
     1
271
     1
  0
XRECORD
  5
64DC
102
{ACAD_REACTORS
330
64D7
102
}
330
64D7
100
AcDbXrecord
280
     1
270
     1
271
     1
  0
XRECORD
  5
64DB
102
{ACAD_REACTORS
330
64D7
102
}
330
64D7
100
AcDbXrecord
280
     1
270
     1
271
     1
  0
XRECORD
  5
64DD
102
{ACAD_REACTORS
330
64D7
102
}
330
64D7
100
AcDbXrecord
280
     1
270
     1
271
     1
  0
XRECORD
  5
64DA
102
{ACAD_REACTORS
330
64D7
102
}
330
64D7
100
AcDbXrecord
280
     1
270
     1
271
     1
  0
XRECORD
  5
6DFA
102
{ACAD_REACTORS
330
64E7
102
}
330
64E7
100
AcDbXrecord
280
     1
102
MATERIAL
148
0.0
149
0.0
149
0.0
 93
        0
 94
      127
282
     0
 72
     0
 77
     0
171
     0
175
     0
179
     0
273
     0
  0
XRECORD
  5
64E9
102
{ACAD_REACTORS
330
64E7
102
}
330
64E7
100
AcDbXrecord
280
     1
270
     1
271
     1
  0
XRECORD
  5
64E8
102
{ACAD_REACTORS
330
64E7
102
}
330
64E7
100
AcDbXrecord
280
     1
270
     1
271
     1
  0
XRECORD
  5
64EC
102
{ACAD_REACTORS
330
64E7
102
}
330
64E7
100
AcDbXrecord
280
     1
270
     1
271
     1
  0
XRECORD
  5
64EB
102
{ACAD_REACTORS
330
64E7
102
}
330
64E7
100
AcDbXrecord
280
     1
270
     1
271
     1
  0
XRECORD
  5
64ED
102
{ACAD_REACTORS
330
64E7
102
}
330
64E7
100
AcDbXrecord
280
     1
270
     1
271
     1
  0
XRECORD
  5
64EA
102
{ACAD_REACTORS
330
64E7
102
}
330
64E7
100
AcDbXrecord
280
     1
270
     1
271
     1
  0
XRECORD
  5
72CC
102
{ACAD_REACTORS
330
72CB
102
}
330
72CB
100
AcDbXrecord
280
     1
102
DISPLAYNAME
  1
Metric50
102
FLAGS
 90
        0
  0
CELLSTYLEMAP
  5
72CA
102
{ACAD_REACTORS
330
6DEB
102
}
330
6DEB
100
AcDbCellStyleMap
 90
        3
300
CELLSTYLE
  1
TABLEFORMAT_BEGIN
 90
        5
170
     1
 91
        0
 92
    32768
 62
   257
 93
        1
300
CONTENTFORMAT
  1
CONTENTFORMAT_BEGIN
 90
        0
 91
        0
 92
        4
 93
        0
300

 40
0.0
140
1.0
 94
        5
 62
     0
340
11
144
6.0
309
CONTENTFORMAT_END
171
     1
301
MARGIN
  1
CELLMARGIN_BEGIN
 40
1.5
 40
1.5
 40
1.5
 40
1.5
 40
0.18
 40
0.18
309
CELLMARGIN_END
 94
        6
 95
        1
302
GRIDFORMAT
  1
GRIDFORMAT_BEGIN
 90
        0
 91
        1
 62
     0
 92
       -2
340
0
 93
        0
 40
0.045
309
GRIDFORMAT_END
 95
        2
302
GRIDFORMAT
  1
GRIDFORMAT_BEGIN
 90
        0
 91
        1
 62
     0
 92
       -2
340
0
 93
        0
 40
0.045
309
GRIDFORMAT_END
 95
        4
302
GRIDFORMAT
  1
GRIDFORMAT_BEGIN
 90
        0
 91
        1
 62
     0
 92
       -2
340
0
 93
        0
 40
0.045
309
GRIDFORMAT_END
 95
        8
302
GRIDFORMAT
  1
GRIDFORMAT_BEGIN
 90
        0
 91
        1
 62
     0
 92
       -2
340
0
 93
        0
 40
0.045
309
GRIDFORMAT_END
 95
       16
302
GRIDFORMAT
  1
GRIDFORMAT_BEGIN
 90
        0
 91
        1
 62
     0
 92
       -2
340
0
 93
        0
 40
0.045
309
GRIDFORMAT_END
 95
       32
302
GRIDFORMAT
  1
GRIDFORMAT_BEGIN
 90
        0
 91
        1
 62
     0
 92
       -2
340
0
 93
        0
 40
0.045
309
GRIDFORMAT_END
309
TABLEFORMAT_END
  1
CELLSTYLE_BEGIN
 90
        1
 91
        1
300
_TITLE
309
CELLSTYLE_END
300
CELLSTYLE
  1
TABLEFORMAT_BEGIN
 90
        5
170
     1
 91
        0
 92
        0
 62
   257
 93
        1
300
CONTENTFORMAT
  1
CONTENTFORMAT_BEGIN
 90
        0
 91
        0
 92
        4
 93
        0
300

 40
0.0
140
1.0
 94
        5
 62
     0
340
11
144
4.5
309
CONTENTFORMAT_END
171
     1
301
MARGIN
  1
CELLMARGIN_BEGIN
 40
1.5
 40
1.5
 40
1.5
 40
1.5
 40
0.18
 40
0.18
309
CELLMARGIN_END
 94
        6
 95
        1
302
GRIDFORMAT
  1
GRIDFORMAT_BEGIN
 90
        0
 91
        1
 62
     0
 92
       -2
340
0
 93
        0
 40
0.045
309
GRIDFORMAT_END
 95
        2
302
GRIDFORMAT
  1
GRIDFORMAT_BEGIN
 90
        0
 91
        1
 62
     0
 92
       -2
340
0
 93
        0
 40
0.045
309
GRIDFORMAT_END
 95
        4
302
GRIDFORMAT
  1
GRIDFORMAT_BEGIN
 90
        0
 91
        1
 62
     0
 92
       -2
340
0
 93
        0
 40
0.045
309
GRIDFORMAT_END
 95
        8
302
GRIDFORMAT
  1
GRIDFORMAT_BEGIN
 90
        0
 91
        1
 62
     0
 92
       -2
340
0
 93
        0
 40
0.045
309
GRIDFORMAT_END
 95
       16
302
GRIDFORMAT
  1
GRIDFORMAT_BEGIN
 90
        0
 91
        1
 62
     0
 92
       -2
340
0
 93
        0
 40
0.045
309
GRIDFORMAT_END
 95
       32
302
GRIDFORMAT
  1
GRIDFORMAT_BEGIN
 90
        0
 91
        1
 62
     0
 92
       -2
340
0
 93
        0
 40
0.045
309
GRIDFORMAT_END
309
TABLEFORMAT_END
  1
CELLSTYLE_BEGIN
 90
        2
 91
        1
300
_HEADER
309
CELLSTYLE_END
300
CELLSTYLE
  1
TABLEFORMAT_BEGIN
 90
        5
170
     1
 91
        0
 92
        0
 62
   257
 93
        1
300
CONTENTFORMAT
  1
CONTENTFORMAT_BEGIN
 90
        0
 91
        0
 92
        4
 93
        0
300

 40
0.0
140
1.0
 94
        2
 62
     0
340
11
144
4.5
309
CONTENTFORMAT_END
171
     1
301
MARGIN
  1
CELLMARGIN_BEGIN
 40
1.5
 40
1.5
 40
1.5
 40
1.5
 40
0.18
 40
0.18
309
CELLMARGIN_END
 94
        6
 95
        1
302
GRIDFORMAT
  1
GRIDFORMAT_BEGIN
 90
        0
 91
        1
 62
     0
 92
       -2
340
0
 93
        0
 40
0.045
309
GRIDFORMAT_END
 95
        2
302
GRIDFORMAT
  1
GRIDFORMAT_BEGIN
 90
        0
 91
        1
 62
     0
 92
       -2
340
0
 93
        0
 40
0.045
309
GRIDFORMAT_END
 95
        4
302
GRIDFORMAT
  1
GRIDFORMAT_BEGIN
 90
        0
 91
        1
 62
     0
 92
       -2
340
0
 93
        0
 40
0.045
309
GRIDFORMAT_END
 95
        8
302
GRIDFORMAT
  1
GRIDFORMAT_BEGIN
 90
        0
 91
        1
 62
     0
 92
       -2
340
0
 93
        0
 40
0.045
309
GRIDFORMAT_END
 95
       16
302
GRIDFORMAT
  1
GRIDFORMAT_BEGIN
 90
        0
 91
        1
 62
     0
 92
       -2
340
0
 93
        0
 40
0.045
309
GRIDFORMAT_END
 95
       32
302
GRIDFORMAT
  1
GRIDFORMAT_BEGIN
 90
        0
 91
        1
 62
     0
 92
       -2
340
0
 93
        0
 40
0.045
309
GRIDFORMAT_END
309
TABLEFORMAT_END
  1
CELLSTYLE_BEGIN
 90
        3
 91
        2
300
_DATA
309
CELLSTYLE_END
  0
ENDSEC
  0
EOF
