  0
SECTION
  2
HEADER
  9
$ACADVER
  1
AC1015
  9
$ACADMAINTVER
 70
     6
  9
$DWGCODEPAGE
  3
ANSI_1252
  9
$INSBASE
 10
0.0
 20
0.0
 30
0.0
  9
$EXTMIN
 10
0.0
 20
0.0
 30
0.0
  9
$EXTMAX
 10
420.0
 20
297.0
 30
0.0
  9
$LIMMIN
 10
0.0
 20
0.0
  9
$LIMMAX
 10
420.0
 20
297.0
  9
$ORTHOMODE
 70
     0
  9
$REGENMODE
 70
     1
  9
$FILLMODE
 70
     1
  9
$QTEXTMODE
 70
     0
  9
$MIRRTEXT
 70
     1
  9
$LTSCALE
 40
1.0
  9
$ATTMODE
 70
     1
  9
$TEXTSIZE
 40
3.5
  9
$TRACEWID
 40
1.0
  9
$TEXTSTYLE
  7
Standard
  9
$CLAYER
  8
0
  9
$CELTYPE
  6
ByLayer
  9
$CECOLOR
 62
   256
  9
$CELTSCALE
 40
1.0
  9
$DISPSILH
 70
     0
  9
$DIMSCALE
 40
1.0
  9
$DIMASZ
 40
2.2
  9
$DIMEXO
 40
0.3
  9
$DIMDLI
 40
3.75
  9
$DIMRND
 40
0.0
  9
$DIMDLE
 40
0.0
  9
$DIMEXE
 40
1.0
  9
$DIMTP
 40
0.0
  9
$DIMTM
 40
0.0
  9
$DIMTXT
 40
3.5277777778
  9
$DIMCEN
 40
2.5
  9
$DIMTSZ
 40
0.0
  9
$DIMTOL
 70
     0
  9
$DIMLIM
 70
     0
  9
$DIMTIH
 70
     1
  9
$DIMTOH
 70
     1
  9
$DIMSE1
 70
     0
  9
$DIMSE2
 70
     0
  9
$DIMTAD
 70
     1
  9
$DIMZIN
 70
     0
  9
$DIMBLK
  1

  9
$DIMASO
 70
     1
  9
$DIMSHO
 70
     1
  9
$DIMPOST
  1

  9
$DIMAPOST
  1

  9
$DIMALT
 70
     0
  9
$DIMALTD
 70
     3
  9
$DIMALTF
 40
0.0393700787
  9
$DIMLFAC
 40
1.0
  9
$DIMTOFL
 70
     1
  9
$DIMTVP
 40
0.0
  9
$DIMTIX
 70
     0
  9
$DIMSOXD
 70
     0
  9
$DIMSAH
 70
     0
  9
$DIMBLK1
  1

  9
$DIMBLK2
  1

  9
$DIMSTYLE
  2
ISO-25
  9
$DIMCLRD
 70
     0
  9
$DIMCLRE
 70
     0
  9
$DIMCLRT
 70
     0
  9
$DIMTFAC
 40
1.0
  9
$DIMGAP
 40
2.0
  9
$DIMJUST
 70
     0
  9
$DIMSD1
 70
     0
  9
$DIMSD2
 70
     0
  9
$DIMTOLJ
 70
     0
  9
$DIMTZIN
 70
     0
  9
$DIMALTZ
 70
     0
  9
$DIMALTTZ
 70
     0
  9
$DIMUPT
 70
     0
  9
$DIMDEC
 70
     2
  9
$DIMTDEC
 70
     3
  9
$DIMALTU
 70
     2
  9
$DIMALTTD
 70
     3
  9
$DIMTXSTY
  7
Standard
  9
$DIMAUNIT
 70
     0
  9
$DIMADEC
 70
     2
  9
$DIMALTRND
 40
0.0
  9
$DIMAZIN
 70
     0
  9
$DIMDSEP
 70
    44
  9
$DIMATFIT
 70
     3
  9
$DIMFRAC
 70
     0
  9
$DIMLDRBLK
  1

  9
$DIMLUNIT
 70
     2
  9
$DIMLWD
 70
    -2
  9
$DIMLWE
 70
    -2
  9
$DIMTMOVE
 70
     0
  9
$LUNITS
 70
     2
  9
$LUPREC
 70
     2
  9
$SKETCHINC
 40
1.0
  9
$FILLETRAD
 40
10.0
  9
$AUNITS
 70
     0
  9
$AUPREC
 70
     2
  9
$MENU
  1
.
  9
$ELEVATION
 40
0.0
  9
$PELEVATION
 40
0.0
  9
$THICKNESS
 40
0.0
  9
$LIMCHECK
 70
     0
  9
$CHAMFERA
 40
0.0
  9
$CHAMFERB
 40
0.0
  9
$CHAMFERC
 40
0.0
  9
$CHAMFERD
 40
0.0
  9
$SKPOLY
 70
     0
  9
$TDCREATE
 40
2460565.162022349
  9
$TDUCREATE
 40
2460565.078689016
  9
$TDUPDATE
 40
2460565.162028206
  9
$TDUUPDATE
 40
2460565.078694873
  9
$TDINDWG
 40
0.0000000116
  9
$TDUSRTIMER
 40
0.0000000116
  9
$USRTIMER
 70
     1
  9
$ANGBASE
 50
0.0
  9
$ANGDIR
 70
     0
  9
$PDMODE
 70
     0
  9
$PDSIZE
 40
-1.0
  9
$PLINEWID
 40
0.0
  9
$SPLFRAME
 70
     0
  9
$SPLINETYPE
 70
     6
  9
$SPLINESEGS
 70
     8
  9
$HANDSEED
  5
416
  9
$SURFTAB1
 70
     6
  9
$SURFTAB2
 70
     6
  9
$SURFTYPE
 70
     6
  9
$SURFU
 70
     6
  9
$SURFV
 70
     6
  9
$UCSBASE
  2

  9
$UCSNAME
  2

  9
$UCSORG
 10
0.0
 20
0.0
 30
0.0
  9
$UCSXDIR
 10
1.0
 20
0.0
 30
0.0
  9
$UCSYDIR
 10
0.0
 20
1.0
 30
0.0
  9
$UCSORTHOREF
  2

  9
$UCSORTHOVIEW
 70
     0
  9
$UCSORGTOP
 10
0.0
 20
0.0
 30
0.0
  9
$UCSORGBOTTOM
 10
0.0
 20
0.0
 30
0.0
  9
$UCSORGLEFT
 10
0.0
 20
0.0
 30
0.0
  9
$UCSORGRIGHT
 10
0.0
 20
0.0
 30
0.0
  9
$UCSORGFRONT
 10
0.0
 20
0.0
 30
0.0
  9
$UCSORGBACK
 10
0.0
 20
0.0
 30
0.0
  9
$PUCSBASE
  2

  9
$PUCSNAME
  2

  9
$PUCSORG
 10
0.0
 20
0.0
 30
0.0
  9
$PUCSXDIR
 10
1.0
 20
0.0
 30
0.0
  9
$PUCSYDIR
 10
0.0
 20
1.0
 30
0.0
  9
$PUCSORTHOREF
  2

  9
$PUCSORTHOVIEW
 70
     0
  9
$PUCSORGTOP
 10
0.0
 20
0.0
 30
0.0
  9
$PUCSORGBOTTOM
 10
0.0
 20
0.0
 30
0.0
  9
$PUCSORGLEFT
 10
0.0
 20
0.0
 30
0.0
  9
$PUCSORGRIGHT
 10
0.0
 20
0.0
 30
0.0
  9
$PUCSORGFRONT
 10
0.0
 20
0.0
 30
0.0
  9
$PUCSORGBACK
 10
0.0
 20
0.0
 30
0.0
  9
$USERI1
 70
     0
  9
$USERI2
 70
     0
  9
$USERI3
 70
     0
  9
$USERI4
 70
     0
  9
$USERI5
 70
     0
  9
$USERR1
 40
0.0
  9
$USERR2
 40
0.0
  9
$USERR3
 40
0.0
  9
$USERR4
 40
0.0
  9
$USERR5
 40
0.0
  9
$WORLDVIEW
 70
     1
  9
$SHADEDGE
 70
     3
  9
$SHADEDIF
 70
    70
  9
$TILEMODE
 70
     1
  9
$MAXACTVP
 70
    64
  9
$PINSBASE
 10
0.0
 20
0.0
 30
0.0
  9
$PLIMCHECK
 70
     0
  9
$PEXTMIN
 10
1.0000000000E+20
 20
1.0000000000E+20
 30
1.0000000000E+20
  9
$PEXTMAX
 10
-1.0000000000E+20
 20
-1.0000000000E+20
 30
-1.0000000000E+20
  9
$PLIMMIN
 10
0.0
 20
0.0
  9
$PLIMMAX
 10
420.0
 20
297.0
  9
$UNITMODE
 70
     0
  9
$VISRETAIN
 70
     1
  9
$PLINEGEN
 70
     0
  9
$PSLTSCALE
 70
     1
  9
$TREEDEPTH
 70
  3020
  9
$CMLSTYLE
  2
Standard
  9
$CMLJUST
 70
     0
  9
$CMLSCALE
 40
20.0
  9
$PROXYGRAPHICS
 70
     1
  9
$MEASUREMENT
 70
     1
  9
$CELWEIGHT
370
    -1
  9
$ENDCAPS
280
     0
  9
$JOINSTYLE
280
     0
  9
$LWDISPLAY
290
     1
  9
$INSUNITS
 70
     4
  9
$HYPERLINKBASE
  1

  9
$STYLESHEET
  1

  9
$XEDIT
290
     1
  9
$CEPSNTYPE
380
     0
  9
$PSTYLEMODE
290
     1
  9
$FINGERPRINTGUID
  2
{459ba647-6ffc-4bc2-acde-cb2b38babf6b}
  9
$VERSIONGUID
  2
{FAEB1C32-E019-11D5-929B-00C0DF256EC4}
  9
$EXTNAMES
290
     1
  9
$PSVPSCALE
 40
0.0
  9
$OLESTARTUP
290
     0
  0
ENDSEC
  0
SECTION
  2
CLASSES
  0
CLASS
  1
ACDBDICTIONARYWDFLT
  2
AcDbDictionaryWithDefault
  3
ObjectDBX Classes
 90
        0
280
     0
281
     0
  0
CLASS
  1
VISUALSTYLE
  2
AcDbVisualStyle
  3
ObjectDBX Classes
 90
     4095
280
     0
281
     0
  0
CLASS
  1
MATERIAL
  2
AcDbMaterial
  3
ObjectDBX Classes
 90
     1153
280
     0
281
     0
  0
CLASS
  1
SCALE
  2
AcDbScale
  3
ObjectDBX Classes
 90
     1153
280
     0
281
     0
  0
CLASS
  1
TABLESTYLE
  2
AcDbTableStyle
  3
ObjectDBX Classes
 90
     4095
280
     0
281
     0
  0
CLASS
  1
MLEADERSTYLE
  2
AcDbMLeaderStyle
  3
ACDB_MLEADERSTYLE_CLASS
 90
     4095
280
     0
281
     0
  0
CLASS
  1
SUN
  2
AcDbSun
  3
SCENEOE
 90
     1153
280
     0
281
     0
  0
CLASS
  1
ACDBPLACEHOLDER
  2
AcDbPlaceHolder
  3
ObjectDBX Classes
 90
        0
280
     0
281
     0
  0
CLASS
  1
LAYOUT
  2
AcDbLayout
  3
ObjectDBX Classes
 90
        0
280
     0
281
     0
  0
ENDSEC
  0
SECTION
  2
TABLES
  0
TABLE
  2
VPORT
  5
8
330
0
100
AcDbSymbolTable
 70
     1
  0
VPORT
  5
29
330
8
100
AcDbSymbolTableRecord
100
AcDbViewportTableRecord
  2
*Active
 70
     0
 10
0.0
 20
0.0
 11
1.0
 21
1.0
 12
210.0
 22
148.5
 13
0.0
 23
0.0
 14
10.0
 24
10.0
 15
10.0
 25
10.0
 16
0.0
 26
0.0
 36
1.0
 17
0.0
 27
0.0
 37
0.0
 40
297.0
 41
1.4141414141
 42
50.0
 43
0.0
 44
0.0
 50
0.0
 51
0.0
 71
     0
 72
  2000
 73
     1
 74
     3
 75
     0
 76
     0
 77
     0
 78
     0
281
     0
 65
     1
110
0.0
120
0.0
130
0.0
111
1.0
121
0.0
131
0.0
112
0.0
122
1.0
132
0.0
 79
     0
146
0.0
  0
ENDTAB
  0
TABLE
  2
LTYPE
  5
5
330
0
100
AcDbSymbolTable
 70
     6
  0
LTYPE
  5
14
330
5
100
AcDbSymbolTableRecord
100
AcDbLinetypeTableRecord
  2
ByBlock
 70
     0
  3

 72
    65
 73
     0
 40
0.0
  0
LTYPE
  5
15
330
5
100
AcDbSymbolTableRecord
100
AcDbLinetypeTableRecord
  2
ByLayer
 70
     0
  3

 72
    65
 73
     0
 40
0.0
  0
LTYPE
  5
16
330
5
100
AcDbSymbolTableRecord
100
AcDbLinetypeTableRecord
  2
Continuous
 70
     0
  3
Solid line
 72
    65
 73
     0
 40
0.0
  0
LTYPE
  5
6E
330
5
100
AcDbSymbolTableRecord
100
AcDbLinetypeTableRecord
  2
HIDDEN
 70
     0
  3
Hidden __ __ __ __ __ __ __ __ __ __ __ __ __ __
 72
    65
 73
     2
 40
1.905
 49
1.27
 74
     0
 49
-0.635
 74
     0
  0
LTYPE
  5
6F
330
5
100
AcDbSymbolTableRecord
100
AcDbLinetypeTableRecord
  2
PHANTOM
 70
     0
  3
Phantom ______  __  __  ______  __  __  ______
 72
    65
 73
     6
 40
12.7
 49
6.35
 74
     0
 49
-1.27
 74
     0
 49
1.27
 74
     0
 49
-1.27
 74
     0
 49
1.27
 74
     0
 49
-1.27
 74
     0
  0
LTYPE
  5
70
330
5
100
AcDbSymbolTableRecord
100
AcDbLinetypeTableRecord
  2
CENTER
 70
     0
  3
Center ____ _ ____ _ ____ _ ____ _ ____ _ ____
 72
    65
 73
     4
 40
10.16
 49
6.35
 74
     0
 49
-1.27
 74
     0
 49
1.27
 74
     0
 49
-1.27
 74
     0
  0
LTYPE
  5
71
330
5
100
AcDbSymbolTableRecord
100
AcDbLinetypeTableRecord
  2
CENTERX2
 70
     0
  3
Center (2x) ________  __  ________  __  _____
 72
    65
 73
     4
 40
20.32
 49
12.7
 74
     0
 49
-2.54
 74
     0
 49
2.54
 74
     0
 49
-2.54
 74
     0
  0
LTYPE
  5
72
330
5
100
AcDbSymbolTableRecord
100
AcDbLinetypeTableRecord
  2
DOT2
 70
     0
  3
Dot (.5x) ........................................
 72
    65
 73
     2
 40
0.635
 49
0.0
 74
     0
 49
-0.635
 74
     0
  0
ENDTAB
  0
TABLE
  2
LAYER
  5
2
330
0
100
AcDbSymbolTable
 70
     1
  0
LAYER
  5
10
330
2
100
AcDbSymbolTableRecord
100
AcDbLayerTableRecord
  2
0
 70
     0
 62
     7
  6
Continuous
370
    -3
390
F
  0
ENDTAB
  0
TABLE
  2
STYLE
  5
3
330
0
100
AcDbSymbolTable
 70
     6
  0
STYLE
  5
11
330
3
100
AcDbSymbolTableRecord
100
AcDbTextStyleTableRecord
  2
Standard
 70
     0
 40
0.0
 41
1.0
 50
0.0
 71
     0
 42
3.5
  3
txt
  4

  0
STYLE
  5
87
330
3
100
AcDbSymbolTableRecord
100
AcDbTextStyleTableRecord
  2
SLDTEXTSTYLE0
 70
     0
 40
0.0
 41
0.605
 50
0.0
 71
     0
 42
3.5
  3
TXT
  4

  0
STYLE
  5
97
330
3
100
AcDbSymbolTableRecord
100
AcDbTextStyleTableRecord
  2
SLDTEXTSTYLE1
 70
     0
 40
0.0
 41
0.57
 50
0.0
 71
     0
 42
3.5
  3
TXT
  4

  0
STYLE
  5
C8
330
3
100
AcDbSymbolTableRecord
100
AcDbTextStyleTableRecord
  2
SLDTEXTSTYLE2
 70
     0
 40
0.0
 41
0.563
 50
0.0
 71
     0
 42
3.5
  3
TXT
  4

  0
STYLE
  5
CF
330
3
100
AcDbSymbolTableRecord
100
AcDbTextStyleTableRecord
  2
SLDTEXTSTYLE3
 70
     0
 40
0.0
 41
0.5525
 50
0.0
 71
     0
 42
3.5
  3
TXT
  4

  0
STYLE
  5
E2
330
3
100
AcDbSymbolTableRecord
100
AcDbTextStyleTableRecord
  2
SLDTEXTSTYLE4
 70
     0
 40
0.0
 41
0.575
 50
0.0
 71
     0
 42
3.5
  3
TXT
  4

  0
ENDTAB
  0
TABLE
  2
VIEW
  5
6
330
0
100
AcDbSymbolTable
 70
     0
  0
ENDTAB
  0
TABLE
  2
UCS
  5
7
330
0
100
AcDbSymbolTable
 70
     0
  0
ENDTAB
  0
TABLE
  2
APPID
  5
9
330
0
100
AcDbSymbolTable
 70
     1
  0
APPID
  5
12
330
9
100
AcDbSymbolTableRecord
100
AcDbRegAppTableRecord
  2
ACAD
 70
     0
  0
ENDTAB
  0
TABLE
  2
DIMSTYLE
  5
A
330
0
100
AcDbSymbolTable
 70
     3
100
AcDbDimStyleTable
  0
DIMSTYLE
105
27
330
A
100
AcDbSymbolTableRecord
100
AcDbDimStyleTableRecord
  2
ISO-25
 70
     0
 41
2.5
 42
0.625
 43
3.75
 44
1.25
 73
     0
 74
     0
 77
     1
 78
     8
140
2.5
141
2.5
143
0.0393700787
147
0.625
171
     3
172
     1
178
     0
271
     2
272
     2
274
     3
278
    44
283
     0
284
     8
340
11
  0
DIMSTYLE
105
314
102
{ACAD_REACTORS
330
313
330
32C
330
337
330
341
330
34D
330
36C
330
376
330
3F7
330
40A
102
}
330
A
100
AcDbSymbolTableRecord
100
AcDbDimStyleTableRecord
  2
SLDDIMSTYLE0
 70
     0
 41
2.2
 44
0.0
 45
0.000000001
 73
     0
 74
     0
 77
     1
 78
    12
 79
     3
140
2.5683186849
147
0.6420796712
173
     1
178
     0
271
     2
272
     3
276
     2
284
    12
340
87
  0
DIMSTYLE
105
31F
102
{ACAD_REACTORS
330
31E
330
357
330
361
330
400
102
}
330
A
100
AcDbSymbolTableRecord
100
AcDbDimStyleTableRecord
  2
SLDDIMSTYLE1
 70
     0
 41
2.2
 44
0.0
 45
0.000000001
 73
     0
 74
     0
 77
     1
 78
    12
 79
     3
140
2.5683186849
147
0.6420796712
172
     1
173
     1
178
     0
271
     2
272
     3
276
     2
284
    12
289
     0
340
87
  0
ENDTAB
  0
TABLE
  2
BLOCK_RECORD
  5
1
330
0
100
AcDbSymbolTable
 70
    38
  0
BLOCK_RECORD
  5
1F
330
1
100
AcDbSymbolTableRecord
100
AcDbBlockTableRecord
  2
*Model_Space
340
22
  0
BLOCK_RECORD
  5
1B
330
1
100
AcDbSymbolTableRecord
100
AcDbBlockTableRecord
  2
*Paper_Space
340
1E
  0
BLOCK_RECORD
  5
23
330
1
100
AcDbSymbolTableRecord
100
AcDbBlockTableRecord
  2
*Paper_Space0
340
26
  0
BLOCK_RECORD
  5
73
330
1
100
AcDbSymbolTableRecord
100
AcDbBlockTableRecord
  2
Allg-Toleranz-mittel
340
0
102
{BLKREFS
331
1C0
102
}
  0
BLOCK_RECORD
  5
84
330
1
100
AcDbSymbolTableRecord
100
AcDbBlockTableRecord
  2
SW_NOTE_0
340
0
102
{BLKREFS
331
89
102
}
  0
BLOCK_RECORD
  5
8A
330
1
100
AcDbSymbolTableRecord
100
AcDbBlockTableRecord
  2
SW_NOTE_0_1
340
0
102
{BLKREFS
331
8E
102
}
  0
BLOCK_RECORD
  5
8F
330
1
100
AcDbSymbolTableRecord
100
AcDbBlockTableRecord
  2
SW_NOTE_0_2
340
0
102
{BLKREFS
331
93
102
}
  0
BLOCK_RECORD
  5
94
330
1
100
AcDbSymbolTableRecord
100
AcDbBlockTableRecord
  2
SW_NOTE_0_3
340
0
102
{BLKREFS
331
9A
102
}
  0
BLOCK_RECORD
  5
9B
330
1
100
AcDbSymbolTableRecord
100
AcDbBlockTableRecord
  2
SW_NOTE_0_4
340
0
102
{BLKREFS
331
9F
102
}
  0
BLOCK_RECORD
  5
A0
330
1
100
AcDbSymbolTableRecord
100
AcDbBlockTableRecord
  2
SW_NOTE_0_5
340
0
102
{BLKREFS
331
A4
102
}
  0
BLOCK_RECORD
  5
A5
330
1
100
AcDbSymbolTableRecord
100
AcDbBlockTableRecord
  2
SW_NOTE_0_6
340
0
102
{BLKREFS
331
A9
102
}
  0
BLOCK_RECORD
  5
AA
330
1
100
AcDbSymbolTableRecord
100
AcDbBlockTableRecord
  2
SW_NOTE_0_7
340
0
102
{BLKREFS
331
AE
102
}
  0
BLOCK_RECORD
  5
AF
330
1
100
AcDbSymbolTableRecord
100
AcDbBlockTableRecord
  2
SW_NOTE_0_8
340
0
102
{BLKREFS
331
B3
102
}
  0
BLOCK_RECORD
  5
B4
330
1
100
AcDbSymbolTableRecord
100
AcDbBlockTableRecord
  2
SW_NOTE_0_9
340
0
102
{BLKREFS
331
B8
102
}
  0
BLOCK_RECORD
  5
B9
330
1
100
AcDbSymbolTableRecord
100
AcDbBlockTableRecord
  2
SW_NOTE_0_10
340
0
102
{BLKREFS
331
BE
102
}
  0
BLOCK_RECORD
  5
BF
330
1
100
AcDbSymbolTableRecord
100
AcDbBlockTableRecord
  2
SW_NOTE_0_11
340
0
102
{BLKREFS
331
C4
102
}
  0
BLOCK_RECORD
  5
C5
330
1
100
AcDbSymbolTableRecord
100
AcDbBlockTableRecord
  2
SW_NOTE_0_12
340
0
102
{BLKREFS
331
CB
102
}
  0
BLOCK_RECORD
  5
CC
330
1
100
AcDbSymbolTableRecord
100
AcDbBlockTableRecord
  2
SW_NOTE_0_13
340
0
102
{BLKREFS
331
D2
102
}
  0
BLOCK_RECORD
  5
D3
330
1
100
AcDbSymbolTableRecord
100
AcDbBlockTableRecord
  2
SW_NOTE_0_14
340
0
102
{BLKREFS
331
D8
102
}
  0
BLOCK_RECORD
  5
D9
330
1
100
AcDbSymbolTableRecord
100
AcDbBlockTableRecord
  2
SW_NOTE_0_15
340
0
102
{BLKREFS
331
DE
102
}
  0
BLOCK_RECORD
  5
DF
330
1
100
AcDbSymbolTableRecord
100
AcDbBlockTableRecord
  2
SW_NOTE_0_16
340
0
102
{BLKREFS
331
E5
102
}
  0
BLOCK_RECORD
  5
E6
330
1
100
AcDbSymbolTableRecord
100
AcDbBlockTableRecord
  2
SW_NOTE_0_17
340
0
102
{BLKREFS
331
EA
102
}
  0
BLOCK_RECORD
  5
EB
330
1
100
AcDbSymbolTableRecord
100
AcDbBlockTableRecord
  2
ACO-Logo
340
0
102
{BLKREFS
331
1C1
102
}
  0
BLOCK_RECORD
  5
15E
330
1
100
AcDbSymbolTableRecord
100
AcDbBlockTableRecord
  2
SW_NOTE_0_18
340
0
102
{BLKREFS
331
162
102
}
  0
BLOCK_RECORD
  5
163
330
1
100
AcDbSymbolTableRecord
100
AcDbBlockTableRecord
  2
SW_NOTE_0_19
340
0
102
{BLKREFS
331
167
102
}
  0
BLOCK_RECORD
  5
168
330
1
100
AcDbSymbolTableRecord
100
AcDbBlockTableRecord
  2
SW_NOTE_0_20
340
0
102
{BLKREFS
331
16F
102
}
  0
BLOCK_RECORD
  5
1E8
330
1
100
AcDbSymbolTableRecord
100
AcDbBlockTableRecord
  2
SW_NOTE_0_21
340
0
102
{BLKREFS
331
1F0
102
}
  0
BLOCK_RECORD
  5
315
330
1
100
AcDbSymbolTableRecord
100
AcDbBlockTableRecord
  2
_D
340
0
  0
BLOCK_RECORD
  5
320
330
1
100
AcDbSymbolTableRecord
100
AcDbBlockTableRecord
  2
_D_1
340
0
  0
BLOCK_RECORD
  5
32D
330
1
100
AcDbSymbolTableRecord
100
AcDbBlockTableRecord
  2
_D_2
340
0
  0
BLOCK_RECORD
  5
338
330
1
100
AcDbSymbolTableRecord
100
AcDbBlockTableRecord
  2
_D_3
340
0
  0
BLOCK_RECORD
  5
342
330
1
100
AcDbSymbolTableRecord
100
AcDbBlockTableRecord
  2
_D_4
340
0
  0
BLOCK_RECORD
  5
34E
330
1
100
AcDbSymbolTableRecord
100
AcDbBlockTableRecord
  2
_D_5
340
0
  0
BLOCK_RECORD
  5
358
330
1
100
AcDbSymbolTableRecord
100
AcDbBlockTableRecord
  2
_D_6
340
0
  0
BLOCK_RECORD
  5
362
330
1
100
AcDbSymbolTableRecord
100
AcDbBlockTableRecord
  2
_D_7
340
0
  0
BLOCK_RECORD
  5
36D
330
1
100
AcDbSymbolTableRecord
100
AcDbBlockTableRecord
  2
_D_8
340
0
  0
BLOCK_RECORD
  5
377
330
1
100
AcDbSymbolTableRecord
100
AcDbBlockTableRecord
  2
_D_9
340
0
  0
BLOCK_RECORD
  5
3F8
330
1
100
AcDbSymbolTableRecord
100
AcDbBlockTableRecord
  2
_D_10
340
0
  0
BLOCK_RECORD
  5
401
330
1
100
AcDbSymbolTableRecord
100
AcDbBlockTableRecord
  2
_D_11
340
0
  0
BLOCK_RECORD
  5
40B
330
1
100
AcDbSymbolTableRecord
100
AcDbBlockTableRecord
  2
_D_12
340
0
  0
ENDTAB
  0
ENDSEC
  0
SECTION
  2
BLOCKS
  0
BLOCK
  5
20
330
1F
100
AcDbEntity
  8
0
100
AcDbBlockBegin
  2
*Model_Space
 70
     0
 10
0.0
 20
0.0
 30
0.0
  3
*Model_Space
  1

  0
ENDBLK
  5
21
330
1F
100
AcDbEntity
  8
0
100
AcDbBlockEnd
  0
BLOCK
  5
1C
330
1B
100
AcDbEntity
 67
     1
  8
0
100
AcDbBlockBegin
  2
*Paper_Space
 70
     0
 10
0.0
 20
0.0
 30
0.0
  3
*Paper_Space
  1

  0
ENDBLK
  5
1D
330
1B
100
AcDbEntity
 67
     1
  8
0
100
AcDbBlockEnd
  0
BLOCK
  5
24
330
23
100
AcDbEntity
  8
0
100
AcDbBlockBegin
  2
*Paper_Space0
 70
     0
 10
0.0
 20
0.0
 30
0.0
  3
*Paper_Space0
  1

  0
ENDBLK
  5
25
330
23
100
AcDbEntity
  8
0
100
AcDbBlockEnd
  0
BLOCK
  5
74
330
73
100
AcDbEntity
  8
0
100
AcDbBlockBegin
  2
Allg-Toleranz-mittel
 70
     0
 10
0.0
 20
0.0
 30
0.0
  3
Allg-Toleranz-mittel
  1

  0
LINE
  5
76
330
73
100
AcDbEntity
  8
0
 62
     7
100
AcDbLine
 10
0.0
 20
18.0
 30
0.0
 11
0.0
 21
0.0
 31
0.0
  0
LINE
  5
77
330
73
100
AcDbEntity
  8
0
 62
     7
100
AcDbLine
 10
0.0
 20
18.0
 30
0.0
 11
70.0
 21
18.0
 31
0.0
  0
LINE
  5
78
330
73
100
AcDbEntity
  8
0
 62
     7
100
AcDbLine
 10
0.0
 20
14.0
 30
0.0
 11
70.0
 21
14.0
 31
0.0
  0
LINE
  5
79
330
73
100
AcDbEntity
  8
0
 62
     7
100
AcDbLine
 10
12.0
 20
14.0
 30
0.0
 11
12.0
 21
0.0
 31
0.0
  0
LINE
  5
7A
330
73
100
AcDbEntity
  8
0
 62
     7
100
AcDbLine
 10
20.0
 20
10.0
 30
0.0
 11
20.0
 21
0.0
 31
0.0
  0
LINE
  5
7B
330
73
100
AcDbEntity
  8
0
 62
     7
100
AcDbLine
 10
28.0
 20
10.0
 30
0.0
 11
28.0
 21
0.0
 31
0.0
  0
LINE
  5
7C
330
73
100
AcDbEntity
  8
0
 62
     7
100
AcDbLine
 10
36.0
 20
10.0
 30
0.0
 11
36.0
 21
0.0
 31
0.0
  0
LINE
  5
7D
330
73
100
AcDbEntity
  8
0
 62
     7
100
AcDbLine
 10
44.0
 20
10.0
 30
0.0
 11
44.0
 21
0.0
 31
0.0
  0
LINE
  5
7E
330
73
100
AcDbEntity
  8
0
 62
     7
100
AcDbLine
 10
52.0
 20
10.0
 30
0.0
 11
52.0
 21
0.0
 31
0.0
  0
LINE
  5
7F
330
73
100
AcDbEntity
  8
0
 62
     7
100
AcDbLine
 10
70.0
 20
10.0
 30
0.0
 11
12.0
 21
10.0
 31
0.0
  0
LINE
  5
80
330
73
100
AcDbEntity
  8
0
 62
     7
100
AcDbLine
 10
70.0
 20
4.0
 30
0.0
 11
0.0
 21
4.0
 31
0.0
  0
LINE
  5
81
330
73
100
AcDbEntity
  8
0
 62
     7
100
AcDbLine
 10
70.0
 20
18.0
 30
0.0
 11
70.0
 21
0.0
 31
0.0
  0
LINE
  5
82
330
73
100
AcDbEntity
  8
0
 62
     7
100
AcDbLine
 10
70.0
 20
0.0
 30
0.0
 11
0.0
 21
0.0
 31
0.0
  0
LINE
  5
83
330
73
100
AcDbEntity
  8
0
100
AcDbLine
 10
61.0
 20
10.0
 30
0.0
 11
61.0
 21
0.0
 31
0.0
  0
INSERT
  5
89
330
73
100
AcDbEntity
  8
0
  6
Continuous
 62
     7
370
    18
100
AcDbBlockReference
  2
SW_NOTE_0
 10
1.3715701559
 20
14.7823959776
 30
0.0
  0
INSERT
  5
8E
330
73
100
AcDbEntity
  8
0
  6
Continuous
 62
     7
370
    18
100
AcDbBlockReference
  2
SW_NOTE_0_1
 10
19.4858329865
 20
10.8011997857
 30
0.0
  0
INSERT
  5
93
330
73
100
AcDbEntity
  8
0
  6
Continuous
 62
     7
370
    18
100
AcDbBlockReference
  2
SW_NOTE_0_2
 10
0.7059049832
 20
0.7957779732
 30
0.0
  0
INSERT
  5
9A
330
73
100
AcDbEntity
  8
0
  6
Continuous
 62
     7
370
    18
100
AcDbBlockReference
  2
SW_NOTE_0_3
 10
44.6572377212
 20
6.9417037808
 30
0.0
  0
INSERT
  5
9F
330
73
100
AcDbEntity
  8
0
  6
Continuous
 62
     7
370
    18
100
AcDbBlockReference
  2
SW_NOTE_0_4
 10
21.3963023843
 20
0.8030156928
 30
0.0
  0
INSERT
  5
A4
330
73
100
AcDbEntity
  8
0
  6
Continuous
 62
     7
370
    18
100
AcDbBlockReference
  2
SW_NOTE_0_5
 10
29.3441244219
 20
0.8024484104
 30
0.0
  0
INSERT
  5
A9
330
73
100
AcDbEntity
  8
0
  6
Continuous
 62
     7
370
    18
100
AcDbBlockReference
  2
SW_NOTE_0_6
 10
37.3487166127
 20
0.7888202699
 30
0.0
  0
INSERT
  5
AE
330
73
100
AcDbEntity
  8
0
  6
Continuous
 62
     7
370
    18
100
AcDbBlockReference
  2
SW_NOTE_0_7
 10
45.3470367789
 20
0.8005698793
 30
0.0
  0
INSERT
  5
B3
330
73
100
AcDbEntity
  8
0
  6
Continuous
 62
     7
370
    18
100
AcDbBlockReference
  2
SW_NOTE_0_8
 10
53.8527888204
 20
0.8016543168
 30
0.0
  0
INSERT
  5
B8
330
73
100
AcDbEntity
  8
0
  6
Continuous
 62
     7
370
    18
100
AcDbBlockReference
  2
SW_NOTE_0_9
 10
13.3728379186
 20
0.8021647692
 30
0.0
  0
INSERT
  5
BE
330
73
100
AcDbEntity
  8
0
  6
Continuous
 62
     7
370
    18
100
AcDbBlockReference
  2
SW_NOTE_0_10
 10
0.7480385575
 20
8.9918758938
 30
0.0
  0
INSERT
  5
C4
330
73
100
AcDbEntity
  8
0
  6
Continuous
 62
     7
370
    18
100
AcDbBlockReference
  2
SW_NOTE_0_11
 10
53.6385910634
 20
6.9252111133
 30
0.0
  0
INSERT
  5
CB
330
73
100
AcDbEntity
  8
0
  6
Continuous
 62
     7
370
    18
100
AcDbBlockReference
  2
SW_NOTE_0_12
 10
37.834189587
 20
6.9615036443
 30
0.0
  0
INSERT
  5
D2
330
73
100
AcDbEntity
  8
0
  6
Continuous
 62
     7
370
    18
100
AcDbBlockReference
  2
SW_NOTE_0_13
 10
21.9401680118
 20
6.9455377904
 30
0.0
  0
INSERT
  5
D8
330
73
100
AcDbEntity
  8
0
  6
Continuous
 62
     7
370
    18
100
AcDbBlockReference
  2
SW_NOTE_0_14
 10
14.6500264887
 20
6.9584413
 30
0.0
  0
INSERT
  5
DE
330
73
100
AcDbEntity
  8
0
  6
Continuous
 62
     7
370
    18
100
AcDbBlockReference
  2
SW_NOTE_0_15
 10
30.5247714712
 20
6.9591233511
 30
0.0
  0
INSERT
  5
E5
330
73
100
AcDbEntity
  8
0
  6
Continuous
 62
     7
370
    18
100
AcDbBlockReference
  2
SW_NOTE_0_16
 10
61.480287246
 20
6.9546837425
 30
0.0
  0
INSERT
  5
EA
330
73
100
AcDbEntity
  8
0
  6
Continuous
 62
     7
370
    18
100
AcDbBlockReference
  2
SW_NOTE_0_17
 10
62.8737574935
 20
0.7955033114
 30
0.0
  0
ENDBLK
  5
75
330
73
100
AcDbEntity
  8
0
100
AcDbBlockEnd
  0
BLOCK
  5
85
330
84
100
AcDbEntity
  8
0
100
AcDbBlockBegin
  2
SW_NOTE_0
 70
     0
 10
0.0
 20
0.0
 30
0.0
  3
SW_NOTE_0
  1

  0
MTEXT
  5
88
330
84
100
AcDbEntity
  8
0
  6
Continuous
 62
     0
370
    18
100
AcDbMText
 10
0.0
 20
2.3203219316
 30
0.0
 40
1.8
 41
0.0
 71
     1
 72
     1
  1
Allgemeintoleranzen für Längenmasse            DIN  ISO 2768-1
  7
SLDTEXTSTYLE0
 73
     1
 44
1.0
  0
ENDBLK
  5
86
330
84
100
AcDbEntity
  8
0
100
AcDbBlockEnd
  0
BLOCK
  5
8B
330
8A
100
AcDbEntity
  8
0
100
AcDbBlockBegin
  2
SW_NOTE_0_1
 70
     0
 10
0.0
 20
0.0
 30
0.0
  3
SW_NOTE_0_1
  1

  0
MTEXT
  5
8D
330
8A
100
AcDbEntity
  8
0
  6
Continuous
 62
     0
370
    18
100
AcDbMText
 10
0.675
 20
2.3203219316
 30
0.0
 40
1.8
 41
0.0
 71
     1
 72
     1
  1
Abmasse in mm für Nennmassbereiche
  7
SLDTEXTSTYLE0
 73
     1
 44
1.0
  0
ENDBLK
  5
8C
330
8A
100
AcDbEntity
  8
0
100
AcDbBlockEnd
  0
BLOCK
  5
90
330
8F
100
AcDbEntity
  8
0
100
AcDbBlockBegin
  2
SW_NOTE_0_2
 70
     0
 10
0.0
 20
0.0
 30
0.0
  3
SW_NOTE_0_2
  1

  0
MTEXT
  5
92
330
8F
100
AcDbEntity
  8
0
  6
Continuous
 62
     0
370
    18
100
AcDbMText
 10
0.0
 20
2.3203219316
 30
0.0
 40
1.8
 41
0.0
 71
     1
 72
     1
  1
m  (mittel)
  7
SLDTEXTSTYLE0
 73
     1
 44
1.0
  0
ENDBLK
  5
91
330
8F
100
AcDbEntity
  8
0
100
AcDbBlockEnd
  0
BLOCK
  5
95
330
94
100
AcDbEntity
  8
0
100
AcDbBlockBegin
  2
SW_NOTE_0_3
 70
     0
 10
0.0
 20
0.0
 30
0.0
  3
SW_NOTE_0_3
  1

  0
MTEXT
  5
98
330
94
100
AcDbEntity
  8
0
  6
Continuous
 62
     0
370
    18
100
AcDbMText
 10
6.8625
 20
2.3203219316
 30
0.0
 40
1.8
 41
0.0
 71
     3
 72
     1
  1
>  120
  7
SLDTEXTSTYLE1
 73
     1
 44
1.0
  0
MTEXT
  5
99
330
94
100
AcDbEntity
  8
0
  6
Continuous
 62
     0
370
    18
100
AcDbMText
 10
6.8815628178
 20
0.0003219611
 30
0.0
 40
1.8
 41
0.0
 71
     3
 72
     1
  1
... 400
  7
SLDTEXTSTYLE0
 73
     1
 44
1.0
  0
ENDBLK
  5
96
330
94
100
AcDbEntity
  8
0
100
AcDbBlockEnd
  0
BLOCK
  5
9C
330
9B
100
AcDbEntity
  8
0
100
AcDbBlockBegin
  2
SW_NOTE_0_4
 70
     0
 10
0.0
 20
0.0
 30
0.0
  3
SW_NOTE_0_4
  1

  0
MTEXT
  5
9E
330
9B
100
AcDbEntity
  8
0
  6
Continuous
 62
     0
370
    18
100
AcDbMText
 10
0.0
 20
2.3203219316
 30
0.0
 40
1.8
 41
0.0
 71
     1
 72
     1
  1
± 0.1
  7
SLDTEXTSTYLE0
 73
     1
 44
1.0
  0
ENDBLK
  5
9D
330
9B
100
AcDbEntity
  8
0
100
AcDbBlockEnd
  0
BLOCK
  5
A1
330
A0
100
AcDbEntity
  8
0
100
AcDbBlockBegin
  2
SW_NOTE_0_5
 70
     0
 10
0.0
 20
0.0
 30
0.0
  3
SW_NOTE_0_5
  1

  0
MTEXT
  5
A3
330
A0
100
AcDbEntity
  8
0
  6
Continuous
 62
     0
370
    18
100
AcDbMText
 10
0.0
 20
2.3203219316
 30
0.0
 40
1.8
 41
0.0
 71
     1
 72
     1
  1
± 0.2
  7
SLDTEXTSTYLE0
 73
     1
 44
1.0
  0
ENDBLK
  5
A2
330
A0
100
AcDbEntity
  8
0
100
AcDbBlockEnd
  0
BLOCK
  5
A6
330
A5
100
AcDbEntity
  8
0
100
AcDbBlockBegin
  2
SW_NOTE_0_6
 70
     0
 10
0.0
 20
0.0
 30
0.0
  3
SW_NOTE_0_6
  1

  0
MTEXT
  5
A8
330
A5
100
AcDbEntity
  8
0
  6
Continuous
 62
     0
370
    18
100
AcDbMText
 10
0.0
 20
2.3203219316
 30
0.0
 40
1.8
 41
0.0
 71
     1
 72
     1
  1
± 0.3
  7
SLDTEXTSTYLE0
 73
     1
 44
1.0
  0
ENDBLK
  5
A7
330
A5
100
AcDbEntity
  8
0
100
AcDbBlockEnd
  0
BLOCK
  5
AB
330
AA
100
AcDbEntity
  8
0
100
AcDbBlockBegin
  2
SW_NOTE_0_7
 70
     0
 10
0.0
 20
0.0
 30
0.0
  3
SW_NOTE_0_7
  1

  0
MTEXT
  5
AD
330
AA
100
AcDbEntity
  8
0
  6
Continuous
 62
     0
370
    18
100
AcDbMText
 10
0.0
 20
2.3203219316
 30
0.0
 40
1.8
 41
0.0
 71
     1
 72
     1
  1
± 0.5
  7
SLDTEXTSTYLE0
 73
     1
 44
1.0
  0
ENDBLK
  5
AC
330
AA
100
AcDbEntity
  8
0
100
AcDbBlockEnd
  0
BLOCK
  5
B0
330
AF
100
AcDbEntity
  8
0
100
AcDbBlockBegin
  2
SW_NOTE_0_8
 70
     0
 10
0.0
 20
0.0
 30
0.0
  3
SW_NOTE_0_8
  1

  0
MTEXT
  5
B2
330
AF
100
AcDbEntity
  8
0
  6
Continuous
 62
     0
370
    18
100
AcDbMText
 10
0.0
 20
2.3203219316
 30
0.0
 40
1.8
 41
0.0
 71
     1
 72
     1
  1
± 0.8
  7
SLDTEXTSTYLE0
 73
     1
 44
1.0
  0
ENDBLK
  5
B1
330
AF
100
AcDbEntity
  8
0
100
AcDbBlockEnd
  0
BLOCK
  5
B5
330
B4
100
AcDbEntity
  8
0
100
AcDbBlockBegin
  2
SW_NOTE_0_9
 70
     0
 10
0.0
 20
0.0
 30
0.0
  3
SW_NOTE_0_9
  1

  0
MTEXT
  5
B7
330
B4
100
AcDbEntity
  8
0
  6
Continuous
 62
     0
370
    18
100
AcDbMText
 10
0.0
 20
2.3203219316
 30
0.0
 40
1.8
 41
0.0
 71
     1
 72
     1
  1
± 0.1
  7
SLDTEXTSTYLE0
 73
     1
 44
1.0
  0
ENDBLK
  5
B6
330
B4
100
AcDbEntity
  8
0
100
AcDbBlockEnd
  0
BLOCK
  5
BA
330
B9
100
AcDbEntity
  8
0
100
AcDbBlockBegin
  2
SW_NOTE_0_10
 70
     0
 10
0.0
 20
0.0
 30
0.0
  3
SW_NOTE_0_10
  1

  0
MTEXT
  5
BC
330
B9
100
AcDbEntity
  8
0
  6
Continuous
 62
     0
370
    18
100
AcDbMText
 10
0.0
 20
2.3203219316
 30
0.0
 40
1.8
 41
0.0
 71
     1
 72
     1
  1
Genauig -
  7
SLDTEXTSTYLE0
 73
     1
 44
1.0
  0
MTEXT
  5
BD
330
B9
100
AcDbEntity
  8
0
  6
Continuous
 62
     0
370
    18
100
AcDbMText
 10
0.0
 20
0.0003219611
 30
0.0
 40
1.8
 41
0.0
 71
     1
 72
     1
  1
keitsgrad
  7
SLDTEXTSTYLE0
 73
     1
 44
1.0
  0
ENDBLK
  5
BB
330
B9
100
AcDbEntity
  8
0
100
AcDbBlockEnd
  0
BLOCK
  5
C0
330
BF
100
AcDbEntity
  8
0
100
AcDbBlockBegin
  2
SW_NOTE_0_11
 70
     0
 10
0.0
 20
0.0
 30
0.0
  3
SW_NOTE_0_11
  1

  0
MTEXT
  5
C2
330
BF
100
AcDbEntity
  8
0
  6
Continuous
 62
     0
370
    18
100
AcDbMText
 10
6.8625
 20
2.3203219316
 30
0.0
 40
1.8
 41
0.0
 71
     3
 72
     1
  1
>  400
  7
SLDTEXTSTYLE1
 73
     1
 44
1.0
  0
MTEXT
  5
C3
330
BF
100
AcDbEntity
  8
0
  6
Continuous
 62
     0
370
    18
100
AcDbMText
 10
7.0246870391
 20
0.0003219611
 30
0.0
 40
1.8
 41
0.0
 71
     3
 72
     1
  1
... 1000
  7
SLDTEXTSTYLE0
 73
     1
 44
1.0
  0
ENDBLK
  5
C1
330
BF
100
AcDbEntity
  8
0
100
AcDbBlockEnd
  0
BLOCK
  5
C6
330
C5
100
AcDbEntity
  8
0
100
AcDbBlockBegin
  2
SW_NOTE_0_12
 70
     0
 10
0.0
 20
0.0
 30
0.0
  3
SW_NOTE_0_12
  1

  0
MTEXT
  5
C9
330
C5
100
AcDbEntity
  8
0
  6
Continuous
 62
     0
370
    18
100
AcDbMText
 10
5.5125
 20
2.3203219316
 30
0.0
 40
1.8
 41
0.0
 71
     3
 72
     1
  1
>  30
  7
SLDTEXTSTYLE2
 73
     1
 44
1.0
  0
MTEXT
  5
CA
330
C5
100
AcDbEntity
  8
0
  6
Continuous
 62
     0
370
    18
100
AcDbMText
 10
5.6637495868
 20
0.0003219611
 30
0.0
 40
1.8
 41
0.0
 71
     3
 72
     1
  1
... 120
  7
SLDTEXTSTYLE0
 73
     1
 44
1.0
  0
ENDBLK
  5
C7
330
C5
100
AcDbEntity
  8
0
100
AcDbBlockEnd
  0
BLOCK
  5
CD
330
CC
100
AcDbEntity
  8
0
100
AcDbBlockBegin
  2
SW_NOTE_0_13
 70
     0
 10
0.0
 20
0.0
 30
0.0
  3
SW_NOTE_0_13
  1

  0
MTEXT
  5
D0
330
CC
100
AcDbEntity
  8
0
  6
Continuous
 62
     0
370
    18
100
AcDbMText
 10
4.1625
 20
2.3203219316
 30
0.0
 40
1.8
 41
0.0
 71
     3
 72
     1
  1
>  3
  7
SLDTEXTSTYLE3
 73
     1
 44
1.0
  0
MTEXT
  5
D1
330
CC
100
AcDbEntity
  8
0
  6
Continuous
 62
     0
370
    18
100
AcDbMText
 10
4.2490622841
 20
0.0003219611
 30
0.0
 40
1.8
 41
0.0
 71
     3
 72
     1
  1
... 6
  7
SLDTEXTSTYLE0
 73
     1
 44
1.0
  0
ENDBLK
  5
CE
330
CC
100
AcDbEntity
  8
0
100
AcDbBlockEnd
  0
BLOCK
  5
D4
330
D3
100
AcDbEntity
  8
0
100
AcDbBlockBegin
  2
SW_NOTE_0_14
 70
     0
 10
0.0
 20
0.0
 30
0.0
  3
SW_NOTE_0_14
  1

  0
MTEXT
  5
D6
330
D3
100
AcDbEntity
  8
0
  6
Continuous
 62
     0
370
    18
100
AcDbMText
 10
3.375
 20
2.3203219316
 30
0.0
 40
1.8
 41
0.0
 71
     3
 72
     1
  1
0.5
  7
SLDTEXTSTYLE0
 73
     1
 44
1.0
  0
MTEXT
  5
D7
330
D3
100
AcDbEntity
  8
0
  6
Continuous
 62
     0
370
    18
100
AcDbMText
 10
3.446875035
 20
0.0003219611
 30
0.0
 40
1.8
 41
0.0
 71
     3
 72
     1
  1
... 3
  7
SLDTEXTSTYLE0
 73
     1
 44
1.0
  0
ENDBLK
  5
D5
330
D3
100
AcDbEntity
  8
0
100
AcDbBlockEnd
  0
BLOCK
  5
DA
330
D9
100
AcDbEntity
  8
0
100
AcDbBlockBegin
  2
SW_NOTE_0_15
 70
     0
 10
0.0
 20
0.0
 30
0.0
  3
SW_NOTE_0_15
  1

  0
MTEXT
  5
DC
330
D9
100
AcDbEntity
  8
0
  6
Continuous
 62
     0
370
    18
100
AcDbMText
 10
4.1625
 20
2.3203219316
 30
0.0
 40
1.8
 41
0.0
 71
     3
 72
     1
  1
>  6
  7
SLDTEXTSTYLE3
 73
     1
 44
1.0
  0
MTEXT
  5
DD
330
D9
100
AcDbEntity
  8
0
  6
Continuous
 62
     0
370
    18
100
AcDbMText
 10
4.2546879031
 20
0.0003219611
 30
0.0
 40
1.8
 41
0.0
 71
     3
 72
     1
  1
... 30
  7
SLDTEXTSTYLE0
 73
     1
 44
1.0
  0
ENDBLK
  5
DB
330
D9
100
AcDbEntity
  8
0
100
AcDbBlockEnd
  0
BLOCK
  5
E0
330
DF
100
AcDbEntity
  8
0
100
AcDbBlockBegin
  2
SW_NOTE_0_16
 70
     0
 10
0.0
 20
0.0
 30
0.0
  3
SW_NOTE_0_16
  1

  0
MTEXT
  5
E3
330
DF
100
AcDbEntity
  8
0
  6
Continuous
 62
     0
370
    18
100
AcDbMText
 10
8.2125
 20
2.3203219316
 30
0.0
 40
1.8
 41
0.0
 71
     3
 72
     1
  1
>  1000
  7
SLDTEXTSTYLE4
 73
     1
 44
1.0
  0
MTEXT
  5
E4
330
DF
100
AcDbEntity
  8
0
  6
Continuous
 62
     0
370
    18
100
AcDbMText
 10
8.2353127882
 20
0.0003219611
 30
0.0
 40
1.8
 41
0.0
 71
     3
 72
     1
  1
... 2000
  7
SLDTEXTSTYLE0
 73
     1
 44
1.0
  0
ENDBLK
  5
E1
330
DF
100
AcDbEntity
  8
0
100
AcDbBlockEnd
  0
BLOCK
  5
E7
330
E6
100
AcDbEntity
  8
0
100
AcDbBlockBegin
  2
SW_NOTE_0_17
 70
     0
 10
0.0
 20
0.0
 30
0.0
  3
SW_NOTE_0_17
  1

  0
MTEXT
  5
E9
330
E6
100
AcDbEntity
  8
0
  6
Continuous
 62
     0
370
    18
100
AcDbMText
 10
0.0
 20
2.3203219316
 30
0.0
 40
1.8
 41
0.0
 71
     1
 72
     1
  1
± 1.2
  7
SLDTEXTSTYLE0
 73
     1
 44
1.0
  0
ENDBLK
  5
E8
330
E6
100
AcDbEntity
  8
0
100
AcDbBlockEnd
  0
BLOCK
  5
EC
330
EB
100
AcDbEntity
  8
0
100
AcDbBlockBegin
  2
ACO-Logo
 70
     0
 10
0.0
 20
0.0
 30
0.0
  3
ACO-Logo
  1

  0
ARC
  5
EE
330
EB
100
AcDbEntity
  8
0
  6
Continuous
 62
   179
370
    18
100
AcDbCircle
 10
80.3853261169
 20
4.9940995715
 30
0.0
 40
0.3000000000000441
100
AcDbArc
 50
181.9349323096
 51
274.6062978506
  0
ARC
  5
EF
330
EB
100
AcDbEntity
  8
0
  6
Continuous
 62
   179
370
    18
100
AcDbCircle
 10
81.2359083165
 20
2.1946665956
 30
0.0
 40
1.000000000000021
100
AcDbArc
 50
221.4087409628
 51
276.0561297228
  0
ARC
  5
F0
330
EB
100
AcDbEntity
  8
0
  6
Continuous
 62
   179
370
    18
100
AcDbCircle
 10
79.1360017163
 20
3.654242048
 30
0.0
 40
0.300000000000004
100
AcDbArc
 50
181.2730300201
 51
274.4996077095
  0
ARC
  5
F1
330
EB
100
AcDbEntity
  8
0
  6
Continuous
 62
   179
370
    18
100
AcDbCircle
 10
78.7699033484
 20
3.2873137407
 30
0.0
 40
0.4000000000000358
100
AcDbArc
 50
221.0090869016
 51
274.5606296317
  0
ARC
  5
F2
330
EB
100
AcDbEntity
  8
0
  6
Continuous
 62
   179
370
    18
100
AcDbCircle
 10
91.2333953062
 20
4.6062442307
 30
0.0
 40
0.3000000000000493
100
AcDbArc
 50
274.4996077095
 51
3.7249371334
  0
ARC
  5
F3
330
EB
100
AcDbEntity
  8
0
  6
Continuous
 62
   179
370
    18
100
AcDbCircle
 10
81.5287571045
 20
9.7648973508
 30
0.0
 40
1.00000000000002
100
AcDbArc
 50
93.1134387481
 51
181.9414863909
  0
ARC
  5
F4
330
EB
100
AcDbEntity
  8
0
  6
Continuous
 62
   179
370
    18
100
AcDbCircle
 10
81.6051675115
 20
7.5107903456
 30
0.0
 40
1.0
100
AcDbArc
 50
181.9414863909
 51
274.398705355
  0
ARC
  5
F5
330
EB
100
AcDbEntity
  8
0
  6
Continuous
 62
   179
370
    18
100
AcDbCircle
 10
80.1506905656
 20
11.9393118923
 30
0.0
 40
0.300000000000045
100
AcDbArc
 50
93.0418421566
 51
181.9349323096
  0
ARC
  5
F6
330
EB
100
AcDbEntity
  8
0
  6
Continuous
 62
   179
370
    18
100
AcDbCircle
 10
78.1879722102
 20
12.3499352608
 30
0.0
 40
0.7999999999953393
100
AcDbArc
 50
92.6995697565
 51
148.2554209065
  0
ARC
  5
F7
330
EB
100
AcDbEntity
  8
0
  6
Continuous
 62
   179
370
    18
100
AcDbCircle
 10
78.930862229
 20
12.8855189761
 30
0.0
 40
0.3000000000000031
100
AcDbArc
 50
92.6995697565
 51
181.2730300201
  0
ARC
  5
F8
330
EB
100
AcDbEntity
  8
0
  6
Continuous
 62
   179
370
    18
100
AcDbCircle
 10
82.327743407
 20
9.8083568568
 30
0.0
 40
1.000000000000034
100
AcDbArc
 50
1.9414863909
 51
93.1134387481
  0
ARC
  5
F9
330
EB
100
AcDbEntity
  8
0
  6
Continuous
 62
   179
370
    18
100
AcDbCircle
 10
81.5287571045
 20
9.7648973508
 30
0.0
 40
0.3625000000000009
100
AcDbArc
 50
93.1134387481
 51
181.9414863909
  0
ARC
  5
FA
330
EB
100
AcDbEntity
  8
0
  6
Continuous
 62
   179
370
    18
100
AcDbCircle
 10
82.327743407
 20
9.8083568568
 30
0.0
 40
0.3625000000000146
100
AcDbArc
 50
1.9414863909
 51
93.1134387481
  0
ARC
  5
FB
330
EB
100
AcDbEntity
  8
0
  6
Continuous
 62
   179
370
    18
100
AcDbCircle
 10
82.4035451983
 20
7.5722040138
 30
0.0
 40
1.000000000000008
100
AcDbArc
 50
274.398705355
 51
1.9414863909
  0
ARC
  5
FC
330
EB
100
AcDbEntity
  8
0
  6
Continuous
 62
   179
370
    18
100
AcDbCircle
 10
82.4035451983
 20
7.5722040138
 30
0.0
 40
0.3625000000000068
100
AcDbArc
 50
274.398705355
 51
1.9414863909
  0
ARC
  5
FD
330
EB
100
AcDbEntity
  8
0
  6
Continuous
 62
   179
370
    18
100
AcDbCircle
 10
81.6051675115
 20
7.5107903456
 30
0.0
 40
0.3625000000000111
100
AcDbArc
 50
181.9414863909
 51
274.398705355
  0
ARC
  5
FE
330
EB
100
AcDbEntity
  8
0
  6
Continuous
 62
   179
370
    18
100
AcDbCircle
 10
88.825822761
 20
8.0662148274
 30
0.0
 40
0.9999999999999997
100
AcDbArc
 50
274.398705355
 51
2.6541955134
  0
ARC
  5
FF
330
EB
100
AcDbEntity
  8
0
  6
Continuous
 62
   179
370
    18
100
AcDbCircle
 10
90.1578295581
 20
5.7814576687
 30
0.0
 40
0.3000000000000043
100
AcDbArc
 50
274.6062978507
 51
2.5147526475
  0
ARC
  5
100
330
EB
100
AcDbEntity
  8
0
  6
Continuous
 62
   179
370
    18
100
AcDbCircle
 10
88.825822761
 20
8.0662148274
 30
0.0
 40
0.3625000000000083
100
AcDbArc
 50
274.398705355
 51
2.6541955134
  0
ARC
  5
101
330
EB
100
AcDbEntity
  8
0
  6
Continuous
 62
   179
370
    18
100
AcDbCircle
 10
88.728529747
 20
10.16496413
 30
0.0
 40
1.000000000000001
100
AcDbArc
 50
2.6541955134
 51
93.1134387481
  0
ARC
  5
102
330
EB
100
AcDbEntity
  8
0
  6
Continuous
 62
   179
370
    18
100
AcDbCircle
 10
88.728529747
 20
10.16496413
 30
0.0
 40
0.3625000000000085
100
AcDbArc
 50
2.6541955134
 51
93.1134387481
  0
ARC
  5
103
330
EB
100
AcDbEntity
  8
0
  6
Continuous
 62
   179
370
    18
100
AcDbCircle
 10
89.8647121341
 20
12.455515937
 30
0.0
 40
0.2999999999999984
100
AcDbArc
 50
2.5147526475
 51
93.0418421566
  0
ARC
  5
104
330
EB
100
AcDbEntity
  8
0
  6
Continuous
 62
   179
370
    18
100
AcDbCircle
 10
90.6583795404
 20
13.4384863935
 30
0.0
 40
0.2999999999999911
100
AcDbArc
 50
3.7249371334
 51
92.6995697565
  0
CIRCLE
  5
105
330
EB
100
AcDbEntity
  8
0
  6
Continuous
 62
   179
370
    18
100
AcDbCircle
 10
15.7233972286
 20
6.4054930194
 30
0.0
 40
1.579500000000014
  0
CIRCLE
  5
106
330
EB
100
AcDbEntity
  8
0
  6
Continuous
 62
   179
370
    18
100
AcDbCircle
 10
15.7233972286
 20
6.4054930194
 30
0.0
 40
2.281499999999994
  0
ARC
  5
107
330
EB
100
AcDbEntity
  8
0
  6
Continuous
 62
   179
370
    18
100
AcDbCircle
 10
89.7681336026
 20
2.3106616691
 30
0.0
 40
0.098384530246548
100
AcDbArc
 50
332.3802627259
 51
4.9765441602
  0
ARC
  5
108
330
EB
100
AcDbEntity
  8
0
  6
Continuous
 62
   179
370
    18
100
AcDbCircle
 10
89.6886560089
 20
2.3522464185
 30
0.0
 40
0.1880839130754018
100
AcDbArc
 50
303.690067526
 51
332.3802627258
  0
ARC
  5
109
330
EB
100
AcDbEntity
  8
0
  6
Continuous
 62
   179
370
    18
100
AcDbCircle
 10
89.4849700869
 20
2.6577753016
 30
0.0
 40
0.5552839311631531
100
AcDbArc
 50
287.108652213
 51
303.690067526
  0
ARC
  5
10A
330
EB
100
AcDbEntity
  8
0
  6
Continuous
 62
   179
370
    18
100
AcDbCircle
 10
88.0513010646
 20
7.3154864882
 30
0.0
 40
5.428648309393203
100
AcDbArc
 50
285.2551187031
 51
287.108652213
  0
ARC
  5
10B
330
EB
100
AcDbEntity
  8
0
  6
Continuous
 62
   179
370
    18
100
AcDbCircle
 10
89.1317168954
 20
3.3539617753
 30
0.0
 40
1.322436378825653
100
AcDbArc
 50
281.4991866428
 51
285.255118703
  0
ARC
  5
10C
330
EB
100
AcDbEntity
  8
0
  6
Continuous
 62
   179
370
    18
100
AcDbCircle
 10
89.3198255509
 20
2.4293110075
 30
0.0
 40
0.3788454141584939
100
AcDbArc
 50
279.1917900003
 51
281.499186643
  0
ARC
  5
10D
330
EB
100
AcDbEntity
  8
0
  6
Continuous
 62
   179
370
    18
100
AcDbCircle
 10
89.0487250788
 20
4.1046569124
 30
0.0
 40
2.07598399629105
100
AcDbArc
 50
277.7634675038
 51
279.1917900002
  0
ARC
  5
10E
330
EB
100
AcDbEntity
  8
0
  6
Continuous
 62
   179
370
    18
100
AcDbCircle
 10
9.2588909915
 20
6.4054930194
 30
0.0
 40
1.579500000000074
100
AcDbArc
 50
31.0558004991
 51
330.0
  0
ARC
  5
10F
330
EB
100
AcDbEntity
  8
0
  6
Continuous
 62
   179
370
    18
100
AcDbCircle
 10
9.2588909915
 20
6.4054930194
 30
0.0
 40
2.281500000000107
100
AcDbArc
 50
30.7309172659
 51
330.0
  0
ARC
  5
110
330
EB
100
AcDbEntity
  8
0
  6
Continuous
 62
   179
370
    18
100
AcDbCircle
 10
6.1288847544
 20
4.0685261312
 30
0.0
 40
4.914000000000307
100
AcDbArc
 50
172.3058370354
 51
179.7113029221
  0
ARC
  5
111
330
EB
100
AcDbEntity
  8
0
  6
Continuous
 62
   179
370
    18
100
AcDbCircle
 10
-0.5401152456
 20
4.0685261312
 30
0.0
 40
4.91400000000019
100
AcDbArc
 50
0.2886970779
 51
7.6941629646
  0
ARC
  5
112
330
EB
100
AcDbEntity
  8
0
  6
Continuous
 62
   179
370
    18
100
AcDbCircle
 10
-0.5401152456
 20
4.0685261312
 30
0.0
 40
5.616000000000127
100
AcDbArc
 50
0.2526096926
 51
53.5764263577
  0
ARC
  5
113
330
EB
100
AcDbEntity
  8
0
  6
Continuous
 62
   179
370
    18
100
AcDbCircle
 10
6.1288847544
 20
4.0685261312
 30
0.0
 40
5.61600000000074
100
AcDbArc
 50
126.4235736423
 51
179.7473903073
  0
ARC
  5
114
330
EB
100
AcDbEntity
  8
0
  6
Continuous
 62
   179
370
    18
100
AcDbCircle
 10
-0.5401152456
 20
4.0685261312
 30
0.0
 40
4.914000000000161
100
AcDbArc
 50
16.0658750272
 51
47.2678899574
  0
ARC
  5
115
330
EB
100
AcDbEntity
  8
0
  6
Continuous
 62
   179
370
    18
100
AcDbCircle
 10
6.1288847544
 20
4.0685261312
 30
0.0
 40
4.914000000000584
100
AcDbArc
 50
132.7321100426
 51
163.9341249728
  0
LINE
  5
116
330
EB
100
AcDbEntity
  8
0
  6
Continuous
 62
   179
370
    18
100
AcDbLine
 10
78.8017089389
 20
2.8885802402
 30
0.0
 11
90.7982178739
 21
3.8455002136
 31
0.0
  0
LINE
  5
117
330
EB
100
AcDbEntity
  8
0
  6
Continuous
 62
   179
370
    18
100
AcDbLine
 10
76.6545490427
 20
5.8693097374
 30
0.0
 11
78.0344191726
 21
3.5235305166
 31
0.0
  0
LINE
  5
118
330
EB
100
AcDbEntity
  8
0
  6
Continuous
 62
   179
370
    18
100
AcDbLine
 10
91.5327615373
 20
4.6257342197
 30
0.0
 11
90.9577457715
 21
13.4579763825
 31
0.0
  0
LINE
  5
119
330
EB
100
AcDbEntity
  8
0
  6
Continuous
 62
   179
370
    18
100
AcDbLine
 10
78.6309362756
 20
12.8788539549
 30
0.0
 11
78.8360757629
 21
3.6475770268
 31
0.0
  0
LINE
  5
11A
330
EB
100
AcDbEntity
  8
0
  6
Continuous
 62
   179
370
    18
100
AcDbLine
 10
80.4094186633
 20
4.6950685544
 30
0.0
 11
90.1819221045
 21
5.4824266516
 31
0.0
  0
LINE
  5
11B
330
EB
100
AcDbEntity
  8
0
  6
Continuous
 62
   179
370
    18
100
AcDbLine
 10
79.1595373973
 20
3.3551666867
 30
0.0
 11
91.2569309872
 21
4.3071688694
 31
0.0
  0
LINE
  5
11C
330
EB
100
AcDbEntity
  8
0
  6
Continuous
 62
   179
370
    18
100
AcDbLine
 10
79.2585043218
 20
2.925017226
 30
0.0
 11
80.4858981444
 21
1.533240302
 31
0.0
  0
LINE
  5
11D
330
EB
100
AcDbEntity
  8
0
  6
Continuous
 62
   179
370
    18
100
AcDbLine
 10
78.0344191726
 20
3.5235305166
 30
0.0
 11
78.3638740472
 21
3.1446574108
 31
0.0
  0
LINE
  5
11E
330
EB
100
AcDbEntity
  8
0
  6
Continuous
 62
   179
370
    18
100
AcDbLine
 10
78.3638740472
 20
3.1446574108
 30
0.0
 11
78.4680611395
 21
3.0248422547
 31
0.0
  0
LINE
  5
11F
330
EB
100
AcDbEntity
  8
0
  6
Continuous
 62
   179
370
    18
100
AcDbLine
 10
81.3414110113
 20
1.2002475785
 30
0.0
 11
89.3291569519
 21
2.0477010263
 31
0.0
  0
LINE
  5
120
330
EB
100
AcDbEntity
  8
0
  6
Continuous
 62
   179
370
    18
100
AcDbLine
 10
89.8661472522
 20
2.5197759309
 30
0.0
 11
89.8661472522
 21
2.3090867337
 31
0.0
  0
LINE
  5
121
330
EB
100
AcDbEntity
  8
0
  6
Continuous
 62
   179
370
    18
100
AcDbLine
 10
88.676842368
 20
3.6762854359
 30
0.0
 11
89.6713239345
 21
2.7875997807
 31
0.0
  0
LINE
  5
122
330
EB
100
AcDbEntity
  8
0
  6
Continuous
 62
   179
370
    18
100
AcDbLine
 10
89.6713239345
 20
2.7875997807
 30
0.0
 11
89.7459749087
 21
2.7242700694
 31
0.0
  0
LINE
  5
123
330
EB
100
AcDbEntity
  8
0
  6
Continuous
 62
   179
370
    18
100
AcDbLine
 10
90.7982178739
 20
3.8455002136
 30
0.0
 11
91.3961615969
 21
4.3514525945
 31
0.0
  0
LINE
  5
124
330
EB
100
AcDbEntity
  8
0
  6
Continuous
 62
   179
370
    18
100
AcDbLine
 10
90.6442498554
 20
13.7381534621
 30
0.0
 11
78.1502930503
 21
13.1490474438
 31
0.0
  0
LINE
  5
125
330
EB
100
AcDbEntity
  8
0
  6
Continuous
 62
   179
370
    18
100
AcDbLine
 10
80.1347709981
 20
12.2388892068
 30
0.0
 11
89.8487925667
 21
12.7550932515
 31
0.0
  0
LINE
  5
126
330
EB
100
AcDbEntity
  8
0
  6
Continuous
 62
   179
370
    18
100
AcDbLine
 10
76.4935641943
 20
11.7567556248
 30
0.0
 11
76.6545490427
 21
5.8693097374
 31
0.0
  0
LINE
  5
127
330
EB
100
AcDbEntity
  8
0
  6
Continuous
 62
   179
370
    18
100
AcDbLine
 10
79.8508616208
 20
11.929182536
 30
0.0
 11
80.0854971721
 21
4.9839702153
 31
0.0
  0
LINE
  5
128
330
EB
100
AcDbEntity
  8
0
  6
Continuous
 62
   179
370
    18
100
AcDbLine
 10
80.5293311574
 20
9.7310185051
 30
0.0
 11
80.6057415643
 21
7.4769115
 31
0.0
  0
LINE
  5
129
330
EB
100
AcDbEntity
  8
0
  6
Continuous
 62
   179
370
    18
100
AcDbLine
 10
77.507650604
 20
12.7708420346
 30
0.0
 11
76.4935641943
 21
11.7567556248
 31
0.0
  0
LINE
  5
12A
330
EB
100
AcDbEntity
  8
0
  6
Continuous
 62
   179
370
    18
100
AcDbLine
 10
86.8848195129
 20
11.0661568594
 30
0.0
 11
88.6742167283
 21
11.1634880887
 31
0.0
  0
LINE
  5
12B
330
EB
100
AcDbEntity
  8
0
  6
Continuous
 62
   179
370
    18
100
AcDbLine
 10
87.0766213517
 20
6.9287171941
 30
0.0
 11
88.90708891
 21
7.0695223909
 31
0.0
  0
LINE
  5
12C
330
EB
100
AcDbEntity
  8
0
  6
Continuous
 62
   179
370
    18
100
AcDbLine
 10
87.6830038473
 20
7.6147347768
 30
0.0
 11
88.8536252418
 21
7.7047825764
 31
0.0
  0
LINE
  5
12D
330
EB
100
AcDbEntity
  8
0
  6
Continuous
 62
   179
370
    18
100
AcDbLine
 10
87.5509212094
 20
10.4639459651
 30
0.0
 11
88.7088412777
 21
10.5269290651
 31
0.0
  0
LINE
  5
12E
330
EB
100
AcDbEntity
  8
0
  6
Continuous
 62
   179
370
    18
100
AcDbLine
 10
87.0766218384
 20
6.9287066941
 30
0.0
 11
86.8848195129
 21
11.0661568594
 31
0.0
  0
LINE
  5
12F
330
EB
100
AcDbEntity
  8
0
  6
Continuous
 62
   179
370
    18
100
AcDbLine
 10
83.7004598825
 20
6.6667911093
 30
0.0
 11
84.5054929504
 21
10.9267193262
 31
0.0
  0
LINE
  5
130
330
EB
100
AcDbEntity
  8
0
  6
Continuous
 62
   179
370
    18
100
AcDbLine
 10
85.3543248406
 20
10.9728900984
 30
0.0
 11
86.4940946704
 21
6.8816860929
 31
0.0
  0
LINE
  5
131
330
EB
100
AcDbEntity
  8
0
  6
Continuous
 62
   179
370
    18
100
AcDbLine
 10
84.9728575427
 20
9.9667192298
 30
0.0
 11
85.4540299774
 21
8.2395506903
 31
0.0
  0
LINE
  5
132
330
EB
100
AcDbEntity
  8
0
  6
Continuous
 62
   179
370
    18
100
AcDbLine
 10
84.6363094629
 20
8.1858350416
 30
0.0
 11
84.9728575427
 21
9.9667192298
 31
0.0
  0
LINE
  5
133
330
EB
100
AcDbEntity
  8
0
  6
Continuous
 62
   179
370
    18
100
AcDbLine
 10
87.6830038473
 20
7.6147347768
 30
0.0
 11
87.5509212094
 21
10.4639459651
 31
0.0
  0
LINE
  5
134
330
EB
100
AcDbEntity
  8
0
  6
Continuous
 62
   179
370
    18
100
AcDbLine
 10
84.6363094629
 20
8.1858350416
 30
0.0
 11
85.4540299774
 21
8.2395506903
 31
0.0
  0
LINE
  5
135
330
EB
100
AcDbEntity
  8
0
  6
Continuous
 62
   179
370
    18
100
AcDbLine
 10
84.5140586807
 20
7.5389304886
 30
0.0
 11
85.6288154243
 21
7.6121582976
 31
0.0
  0
LINE
  5
136
330
EB
100
AcDbEntity
  8
0
  6
Continuous
 62
   179
370
    18
100
AcDbLine
 10
84.3588137958
 20
6.717433718
 30
0.0
 11
84.5140586807
 21
7.5389304886
 31
0.0
  0
LINE
  5
137
330
EB
100
AcDbEntity
  8
0
  6
Continuous
 62
   179
370
    18
100
AcDbLine
 10
81.6818640104
 20
6.5137358601
 30
0.0
 11
82.4802416972
 21
6.5751495283
 31
0.0
  0
LINE
  5
138
330
EB
100
AcDbEntity
  8
0
  6
Continuous
 62
   179
370
    18
100
AcDbLine
 10
81.6329699923
 20
7.1493580946
 30
0.0
 11
82.4313476791
 21
7.2107717628
 31
0.0
  0
LINE
  5
139
330
EB
100
AcDbEntity
  8
0
  6
Continuous
 62
   179
370
    18
100
AcDbLine
 10
83.7004598825
 20
6.6667911093
 30
0.0
 11
84.3588137958
 21
6.717433718
 31
0.0
  0
LINE
  5
13A
330
EB
100
AcDbEntity
  8
0
  6
Continuous
 62
   179
370
    18
100
AcDbLine
 10
82.7059483815
 20
9.3512024135
 30
0.0
 11
83.3423973297
 21
9.3930104243
 31
0.0
  0
LINE
  5
13B
330
EB
100
AcDbEntity
  8
0
  6
Continuous
 62
   179
370
    18
100
AcDbLine
 10
82.7491656358
 20
8.0762934118
 30
0.0
 11
83.385614584
 21
8.1181014226
 31
0.0
  0
LINE
  5
13C
330
EB
100
AcDbEntity
  8
0
  6
Continuous
 62
   179
370
    18
100
AcDbLine
 10
81.1664651987
 20
9.7526162692
 30
0.0
 11
81.2428756056
 21
7.4985092641
 31
0.0
  0
LINE
  5
13D
330
EB
100
AcDbEntity
  8
0
  6
Continuous
 62
   179
370
    18
100
AcDbLine
 10
82.6900353128
 20
9.8206379383
 30
0.0
 11
82.7052632884
 21
9.3714126602
 31
0.0
  0
LINE
  5
13E
330
EB
100
AcDbEntity
  8
0
  6
Continuous
 62
   179
370
    18
100
AcDbLine
 10
82.7491656358
 20
8.0762934118
 30
0.0
 11
82.7658371041
 21
7.5844850954
 31
0.0
  0
LINE
  5
13F
330
EB
100
AcDbEntity
  8
0
  6
Continuous
 62
   179
370
    18
100
AcDbLine
 10
83.3271693541
 20
9.8422357024
 30
0.0
 11
83.3423973297
 21
9.3930104243
 31
0.0
  0
LINE
  5
140
330
EB
100
AcDbEntity
  8
0
  6
Continuous
 62
   179
370
    18
100
AcDbLine
 10
83.385614584
 20
8.1181014226
 30
0.0
 11
83.4029711454
 21
7.6060828595
 31
0.0
  0
LINE
  5
141
330
EB
100
AcDbEntity
  8
0
  6
Continuous
 62
   179
370
    18
100
AcDbLine
 10
85.6288154243
 20
7.6121582976
 30
0.0
 11
85.8462022593
 21
6.8318482152
 31
0.0
  0
LINE
  5
142
330
EB
100
AcDbEntity
  8
0
  6
Continuous
 62
   179
370
    18
100
AcDbLine
 10
85.8462022593
 20
6.8318482152
 30
0.0
 11
86.4940946704
 21
6.8816860929
 31
0.0
  0
LINE
  5
143
330
EB
100
AcDbEntity
  8
0
  6
Continuous
 62
   179
370
    18
100
AcDbLine
 10
84.5054929504
 20
10.9267193262
 30
0.0
 11
85.3543248406
 21
10.9728900984
 31
0.0
  0
LINE
  5
144
330
EB
100
AcDbEntity
  8
0
  6
Continuous
 62
   179
370
    18
100
AcDbLine
 10
81.4744440858
 20
10.7634213094
 30
0.0
 11
82.2734303883
 21
10.8068808154
 31
0.0
  0
LINE
  5
145
330
EB
100
AcDbEntity
  8
0
  6
Continuous
 62
   179
370
    18
100
AcDbLine
 10
81.5090686352
 20
10.1268622858
 30
0.0
 11
82.3080549377
 21
10.1703217918
 31
0.0
  0
LINE
  5
146
330
EB
100
AcDbEntity
  8
0
  6
Continuous
 62
   179
370
    18
100
AcDbLine
 10
90.4575406452
 20
5.7946206556
 30
0.0
 11
90.1644232213
 21
12.4686789239
 31
0.0
  0
LINE
  5
147
330
EB
100
AcDbEntity
  8
0
  6
Continuous
 62
   179
370
    18
100
AcDbLine
 10
89.8247499755
 20
8.1125227115
 30
0.0
 11
89.7274569615
 21
10.2112720142
 31
0.0
  0
LINE
  5
148
330
EB
100
AcDbEntity
  8
0
  6
Continuous
 62
   179
370
    18
100
AcDbLine
 10
89.1879338763
 20
8.0830014354
 30
0.0
 11
89.0906408622
 21
10.181750738
 31
0.0
  0
LINE
  5
149
330
EB
100
AcDbEntity
  8
0
  6
Continuous
 62
   179
370
    18
100
AcDbLine
 10
89.7459749087
 20
2.7242700694
 30
0.0
 11
89.7974962577
 21
2.6659765769
 31
0.0
  0
LINE
  5
14A
330
EB
100
AcDbEntity
  8
0
  6
Continuous
 62
   179
370
    18
100
AcDbLine
 10
89.7974962577
 20
2.6659765769
 30
0.0
 11
89.8351851379
 21
2.60192886
 31
0.0
  0
LINE
  5
14B
330
EB
100
AcDbEntity
  8
0
  6
Continuous
 62
   179
370
    18
100
AcDbLine
 10
89.8351851379
 20
2.60192886
 30
0.0
 11
89.8661472522
 21
2.5197759309
 31
0.0
  0
LINE
  5
14C
330
EB
100
AcDbEntity
  8
0
  6
Continuous
 62
   179
370
    18
100
AcDbLine
 10
10.6119938288
 20
7.2203138351
 30
0.0
 11
11.2200151261
 21
7.5713550947
 31
0.0
  0
LINE
  5
14D
330
EB
100
AcDbEntity
  8
0
  6
Continuous
 62
   179
370
    18
100
AcDbLine
 10
11.2347279503
 20
5.2647430194
 30
0.0
 11
10.6267781168
 21
5.6157430194
 31
0.0
  0
LINE
  5
14E
330
EB
100
AcDbEntity
  8
0
  6
Continuous
 62
   179
370
    18
100
AcDbLine
 10
6.4645062371
 20
16.1712617198
 30
0.0
 11
6.4645062371
 21
2.9364593988
 31
0.0
  0
LINE
  5
14F
330
EB
100
AcDbEntity
  8
0
  6
Continuous
 62
   179
370
    18
100
AcDbLine
 10
6.4645062371
 20
2.9364593988
 30
0.0
 11
12.0532757459
 21
2.9364593988
 31
0.0
  0
LINE
  5
150
330
EB
100
AcDbEntity
  8
0
  6
Continuous
 62
   179
370
    18
100
AcDbLine
 10
12.0532757459
 20
2.9364593988
 30
0.0
 11
12.0532757459
 21
16.1712617198
 31
0.0
  0
LINE
  5
151
330
EB
100
AcDbEntity
  8
0
  6
Continuous
 62
   179
370
    18
100
AcDbLine
 10
12.0532757459
 20
16.1712617198
 30
0.0
 11
6.4645062371
 21
16.1712617198
 31
0.0
  0
LINE
  5
152
330
EB
100
AcDbEntity
  8
0
  6
Continuous
 62
   179
370
    18
100
AcDbLine
 10
0.0
 20
16.1712617198
 30
0.0
 11
0.0
 21
2.9364593988
 31
0.0
  0
LINE
  5
153
330
EB
100
AcDbEntity
  8
0
  6
Continuous
 62
   179
370
    18
100
AcDbLine
 10
0.0
 20
2.9364593988
 30
0.0
 11
5.5887695089
 21
2.9364593988
 31
0.0
  0
LINE
  5
154
330
EB
100
AcDbEntity
  8
0
  6
Continuous
 62
   179
370
    18
100
AcDbLine
 10
5.5887695089
 20
2.9364593988
 30
0.0
 11
5.5887695089
 21
16.1712617198
 31
0.0
  0
LINE
  5
155
330
EB
100
AcDbEntity
  8
0
  6
Continuous
 62
   179
370
    18
100
AcDbLine
 10
5.5887695089
 20
16.1712617198
 30
0.0
 11
0.0
 21
16.1712617198
 31
0.0
  0
LINE
  5
156
330
EB
100
AcDbEntity
  8
0
  6
Continuous
 62
   179
370
    18
100
AcDbLine
 10
1.2591262606
 20
4.7264381407
 30
0.0
 11
4.3296432482
 21
4.7264381407
 31
0.0
  0
LINE
  5
157
330
EB
100
AcDbEntity
  8
0
  6
Continuous
 62
   179
370
    18
100
AcDbLine
 10
4.3738223747
 20
4.0932862697
 30
0.0
 11
5.0758301722
 21
4.0932862697
 31
0.0
  0
LINE
  5
158
330
EB
100
AcDbEntity
  8
0
  6
Continuous
 62
   179
370
    18
100
AcDbLine
 10
0.5129393366
 20
4.0932862697
 30
0.0
 11
1.2149471342
 21
4.0932862697
 31
0.0
  0
LINE
  5
159
330
EB
100
AcDbEntity
  8
0
  6
Continuous
 62
   179
370
    18
100
AcDbLine
 10
4.1819643097
 20
5.4284381407
 30
0.0
 11
1.4068051992
 21
5.4284381407
 31
0.0
  0
LINE
  5
15A
330
EB
100
AcDbEntity
  8
0
  6
Continuous
 62
   179
370
    18
100
AcDbLine
 10
18.517781983
 20
16.1712617198
 30
0.0
 11
18.517781983
 21
2.9364593988
 31
0.0
  0
LINE
  5
15B
330
EB
100
AcDbEntity
  8
0
  6
Continuous
 62
   179
370
    18
100
AcDbLine
 10
18.517781983
 20
2.9364593988
 30
0.0
 11
12.9290124742
 21
2.9364593988
 31
0.0
  0
LINE
  5
15C
330
EB
100
AcDbEntity
  8
0
  6
Continuous
 62
   179
370
    18
100
AcDbLine
 10
12.9290124742
 20
2.9364593988
 30
0.0
 11
12.9290124742
 21
16.1712617198
 31
0.0
  0
LINE
  5
15D
330
EB
100
AcDbEntity
  8
0
  6
Continuous
 62
   179
370
    18
100
AcDbLine
 10
12.9290124742
 20
16.1712617198
 30
0.0
 11
18.517781983
 21
16.1712617198
 31
0.0
  0
INSERT
  5
162
330
EB
100
AcDbEntity
  8
0
  6
Continuous
 62
     7
370
     0
100
AcDbBlockReference
  2
SW_NOTE_0_18
 10
1.8998941161
 20
-0.3226565443
 30
0.0
  0
INSERT
  5
167
330
EB
100
AcDbEntity
  8
0
  6
Continuous
 62
     7
370
     0
100
AcDbBlockReference
  2
SW_NOTE_0_19
 10
29.1164837035
 20
12.7459167441
 30
0.0
  0
INSERT
  5
16F
330
EB
100
AcDbEntity
  8
0
  6
Continuous
 62
     7
370
     0
100
AcDbBlockReference
  2
SW_NOTE_0_20
 10
28.8863479825
 20
8.6365742194
 30
0.0
  0
ENDBLK
  5
ED
330
EB
100
AcDbEntity
  8
0
100
AcDbBlockEnd
  0
BLOCK
  5
15F
330
15E
100
AcDbEntity
  8
0
100
AcDbBlockBegin
  2
SW_NOTE_0_18
 70
     0
 10
0.0
 20
0.0
 30
0.0
  3
SW_NOTE_0_18
  1

  0
MTEXT
  5
161
330
15E
100
AcDbEntity
  8
0
  6
Continuous
 62
     0
370
     0
100
AcDbMText
 10
7.46875
 20
2.5781354795
 30
0.0
 40
2.0
 41
0.0
 71
     2
 72
     1
  1
www.aco.ch
  7
SLDTEXTSTYLE0
 73
     1
 44
1.0
  0
ENDBLK
  5
160
330
15E
100
AcDbEntity
  8
0
100
AcDbBlockEnd
  0
BLOCK
  5
164
330
163
100
AcDbEntity
  8
0
100
AcDbBlockBegin
  2
SW_NOTE_0_19
 70
     0
 10
0.0
 20
0.0
 30
0.0
  3
SW_NOTE_0_19
  1

  0
MTEXT
  5
166
330
163
100
AcDbEntity
  8
0
  6
Continuous
 62
     0
370
     0
100
AcDbMText
 10
0.0
 20
3.8672032193
 30
0.0
 40
3.0
 41
0.0
 71
     1
 72
     1
  1
ACO AG
  7
SLDTEXTSTYLE0
 73
     1
 44
1.0
  0
ENDBLK
  5
165
330
163
100
AcDbEntity
  8
0
100
AcDbBlockEnd
  0
BLOCK
  5
169
330
168
100
AcDbEntity
  8
0
100
AcDbBlockBegin
  2
SW_NOTE_0_20
 70
     0
 10
0.0
 20
0.0
 30
0.0
  3
SW_NOTE_0_20
  1

  0
MTEXT
  5
16B
330
168
100
AcDbEntity
  8
0
  6
Continuous
 62
     0
370
     0
100
AcDbMText
 10
0.0
 20
2.5781354795
 30
0.0
 40
2.0
 41
0.0
 71
     1
 72
     1
  1
Industrie Kleinzaun
  7
SLDTEXTSTYLE0
 73
     1
 44
1.0
  0
MTEXT
  5
16C
330
168
100
AcDbEntity
  8
0
  6
Continuous
 62
     0
370
     0
100
AcDbMText
 10
0.0
 20
-0.4218645465
 30
0.0
 40
2.0
 41
0.0
 71
     1
 72
     1
  1
CH-8754 Netstal
  7
SLDTEXTSTYLE0
 73
     1
 44
1.0
  0
MTEXT
  5
16D
330
168
100
AcDbEntity
  8
0
  6
Continuous
 62
     0
370
     0
100
AcDbMText
 10
0.0
 20
-3.4218645726
 30
0.0
 40
2.0
 41
0.0
 71
     1
 72
     1
  1
Tel. 055 / 645 53 00
  7
SLDTEXTSTYLE0
 73
     1
 44
1.0
  0
MTEXT
  5
16E
330
168
100
AcDbEntity
  8
0
  6
Continuous
 62
     0
370
     0
100
AcDbMText
 10
0.0
 20
-6.4218645987
 30
0.0
 40
2.0
 41
0.0
 71
     1
 72
     1
  1
E-Mail: aco@aco.ch
  7
SLDTEXTSTYLE0
 73
     1
 44
1.0
  0
ENDBLK
  5
16A
330
168
100
AcDbEntity
  8
0
100
AcDbBlockEnd
  0
BLOCK
  5
1E9
330
1E8
100
AcDbEntity
  8
0
100
AcDbBlockBegin
  2
SW_NOTE_0_21
 70
     0
 10
0.0
 20
0.0
 30
0.0
  3
SW_NOTE_0_21
  1

  0
MTEXT
  5
1EB
330
1E8
100
AcDbEntity
  8
0
  6
Continuous
 62
     0
370
     0
100
AcDbMText
 10
0.0
 20
1.9336016097
 30
0.0
 40
1.5
 41
0.0
 71
     1
 72
     1
  1
Diese Zeichnung darf weder kopiert
  7
SLDTEXTSTYLE0
 73
     1
 44
1.0
  0
MTEXT
  5
1EC
330
1E8
100
AcDbEntity
  8
0
  6
Continuous
 62
     0
370
     0
100
AcDbMText
 10
0.0
 20
-0.5663983345
 30
0.0
 40
1.5
 41
0.0
 71
     1
 72
     1
  1
noch dritten Personen, insbesondere
  7
SLDTEXTSTYLE0
 73
     1
 44
1.0
  0
MTEXT
  5
1ED
330
1E8
100
AcDbEntity
  8
0
  6
Continuous
 62
     0
370
     0
100
AcDbMText
 10
0.0
 20
-3.0663982786
 30
0.0
 40
1.5
 41
0.0
 71
     1
 72
     1
  1
zum Zweck anderweitiger Benutzung
  7
SLDTEXTSTYLE0
 73
     1
 44
1.0
  0
MTEXT
  5
1EE
330
1E8
100
AcDbEntity
  8
0
  6
Continuous
 62
     0
370
     0
100
AcDbMText
 10
0.0
 20
-5.5663982227
 30
0.0
 40
1.5
 41
0.0
 71
     1
 72
     1
  1
mitgeteilt werden und bleibt unser
  7
SLDTEXTSTYLE0
 73
     1
 44
1.0
  0
MTEXT
  5
1EF
330
1E8
100
AcDbEntity
  8
0
  6
Continuous
 62
     0
370
     0
100
AcDbMText
 10
0.0
 20
-8.0663981668
 30
0.0
 40
1.5
 41
0.0
 71
     1
 72
     1
  1
Eigentum.
  7
SLDTEXTSTYLE0
 73
     1
 44
1.0
  0
ENDBLK
  5
1EA
330
1E8
100
AcDbEntity
  8
0
100
AcDbBlockEnd
  0
BLOCK
  5
316
330
315
100
AcDbEntity
  8
0
100
AcDbBlockBegin
  2
_D
 70
     0
 10
0.0
 20
0.0
 30
0.0
  3
_D
  1

  0
SOLID
  5
318
330
315
100
AcDbEntity
  8
0
  6
Continuous
 62
     7
370
    18
100
AcDbTrace
 10
55.0246243133
 20
268.0637004593
 30
0.0
 11
57.2246243133
 21
267.7387004593
 31
0.0
 12
57.2246243133
 22
268.3887004593
 32
0.0
 13
57.2246243133
 23
268.3887004593
 33
0.0
  0
SOLID
  5
319
330
315
100
AcDbEntity
  8
0
  6
Continuous
 62
     7
370
    18
100
AcDbTrace
 10
165.0220944582
 20
268.0637004593
 30
0.0
 11
162.8220944582
 21
268.3887004593
 31
0.0
 12
162.8220944582
 22
267.7387004593
 32
0.0
 13
162.8220944582
 23
267.7387004593
 33
0.0
  0
LINE
  5
31A
330
315
100
AcDbEntity
  8
0
  6
Continuous
 62
     7
370
     0
100
AcDbLine
 10
55.0246243133
 20
248.4948148549
 30
0.0
 11
55.0246243133
 21
269.0637004593
 31
0.0
  0
LINE
  5
31B
330
315
100
AcDbEntity
  8
0
  6
Continuous
 62
     7
370
     0
100
AcDbLine
 10
165.0220944582
 20
248.4948148549
 30
0.0
 11
165.0220944582
 21
269.0637004593
 31
0.0
  0
LINE
  5
31C
330
315
100
AcDbEntity
  8
0
  6
Continuous
 62
     7
370
     0
100
AcDbLine
 10
55.0246243133
 20
268.0637004593
 30
0.0
 11
165.0220944582
 21
268.0637004593
 31
0.0
  0
MTEXT
  5
31D
330
315
100
AcDbEntity
  8
0
  6
Continuous
 62
     7
370
    18
100
AcDbMText
 10
107.0835444512
 20
271.4743590287
 30
0.0
 40
2.6458333333
 41
0.0
 71
     1
 72
     1
  1
110
  7
SLDTEXTSTYLE0
 73
     1
 44
1.0
  0
ENDBLK
  5
317
330
315
100
AcDbEntity
  8
0
100
AcDbBlockEnd
  0
BLOCK
  5
321
330
320
100
AcDbEntity
  8
0
100
AcDbBlockBegin
  2
_D_1
 70
     0
 10
0.0
 20
0.0
 30
0.0
  3
_D_1
  1

  0
SOLID
  5
323
330
320
100
AcDbEntity
  8
0
  6
Continuous
 62
     7
370
    18
100
AcDbTrace
 10
175.6200113111
 20
250.447471622
 30
0.0
 11
175.7595190607
 21
248.2279756009
 31
0.0
 12
176.3953150011
 22
248.3631181999
 32
0.0
 13
176.3953150011
 23
248.3631181999
 33
0.0
  0
SOLID
  5
324
330
320
100
AcDbEntity
  8
0
  6
Continuous
 62
     7
370
    18
100
AcDbTrace
 10
174.3725411662
 20
256.3163572264
 30
0.0
 11
174.2330334166
 21
258.5358532476
 31
0.0
 12
173.5972374762
 22
258.4007106485
 32
0.0
 13
173.5972374762
 23
258.4007106485
 33
0.0
  0
LINE
  5
325
330
320
100
AcDbEntity
  8
0
  6
Continuous
 62
     7
370
     0
100
AcDbLine
 10
165.3155387384
 20
248.2571883622
 30
0.0
 11
176.5981589118
 21
250.6553833128
 31
0.0
  0
LINE
  5
326
330
320
100
AcDbEntity
  8
0
  6
Continuous
 62
     7
370
     0
100
AcDbLine
 10
164.0680685935
 20
254.1260739666
 30
0.0
 11
175.3506887669
 21
256.5242689172
 31
0.0
  0
LINE
  5
327
330
320
100
AcDbEntity
  8
0
  6
Continuous
 62
     7
370
     0
100
AcDbLine
 10
175.6200113111
 20
250.447471622
 30
0.0
 11
176.5348227507
 21
246.1436221788
 31
0.0
  0
LINE
  5
328
330
320
100
AcDbEntity
  8
0
  6
Continuous
 62
     7
370
     0
100
AcDbLine
 10
175.6200113111
 20
250.447471622
 30
0.0
 11
174.3725411662
 21
256.3163572264
 31
0.0
  0
LINE
  5
329
330
320
100
AcDbEntity
  8
0
  6
Continuous
 62
     7
370
     0
100
AcDbLine
 10
174.3725411662
 20
256.3163572264
 30
0.0
 11
173.4577297266
 21
260.6202066697
 31
0.0
  0
MTEXT
  5
32A
330
320
100
AcDbEntity
  8
0
  6
Continuous
 62
     7
370
    18
100
AcDbMText
 10
177.7391362683
 20
256.8821330823
 30
0.0
 40
2.6458333333
 41
0.0
 71
     1
 72
     1
  1
%%c
  7
SLDTEXTSTYLE0
 11
0.207911690817753
 21
-0.978147600733807
 31
0.0
 73
     1
 44
1.0
  0
MTEXT
  5
32B
330
320
100
AcDbEntity
  8
0
  6
Continuous
 62
     7
370
    18
100
AcDbMText
 10
178.5181894842
 20
253.2169758659
 30
0.0
 40
2.6458333333
 41
0.0
 71
     1
 72
     1
  1
6
  7
SLDTEXTSTYLE0
 11
0.207911690817753
 21
-0.978147600733807
 31
0.0
 73
     1
 44
1.0
  0
ENDBLK
  5
322
330
320
100
AcDbEntity
  8
0
100
AcDbBlockEnd
  0
BLOCK
  5
32E
330
32D
100
AcDbEntity
  8
0
100
AcDbBlockBegin
  2
_D_2
 70
     0
 10
0.0
 20
0.0
 30
0.0
  3
_D_2
  1

  0
SOLID
  5
330
330
32D
100
AcDbEntity
  8
0
  6
Continuous
 62
     7
370
    18
100
AcDbTrace
 10
147.5233593857
 20
145.3105217814
 30
0.0
 11
145.3233593857
 21
145.6355217814
 31
0.0
 12
145.3233593857
 22
144.9855217814
 32
0.0
 13
145.3233593857
 23
144.9855217814
 33
0.0
  0
SOLID
  5
331
330
32D
100
AcDbEntity
  8
0
  6
Continuous
 62
     7
370
    18
100
AcDbTrace
 10
72.5233593857
 20
145.3105217814
 30
0.0
 11
74.7233593857
 21
144.9855217814
 31
0.0
 12
74.7233593857
 22
145.6355217814
 32
0.0
 13
74.7233593857
 23
145.6355217814
 33
0.0
  0
LINE
  5
332
330
32D
100
AcDbEntity
  8
0
  6
Continuous
 62
     7
370
     0
100
AcDbLine
 10
147.5233593857
 20
159.0105217814
 30
0.0
 11
147.5233593857
 21
144.3105217814
 31
0.0
  0
LINE
  5
333
330
32D
100
AcDbEntity
  8
0
  6
Continuous
 62
     7
370
     0
100
AcDbLine
 10
72.5233593857
 20
159.0105217814
 30
0.0
 11
72.5233593857
 21
144.3105217814
 31
0.0
  0
LINE
  5
334
330
32D
100
AcDbEntity
  8
0
  6
Continuous
 62
     7
370
     0
100
AcDbLine
 10
147.5233593857
 20
145.3105217814
 30
0.0
 11
72.5233593857
 21
145.3105217814
 31
0.0
  0
MTEXT
  5
335
330
32D
100
AcDbEntity
  8
0
  6
Continuous
 62
     7
370
    18
100
AcDbMText
 10
106.1899632583
 20
148.721180118
 30
0.0
 40
2.6458333333
 41
0.0
 71
     1
 72
     1
  1
%%c
  7
SLDTEXTSTYLE0
 73
     1
 44
1.0
  0
MTEXT
  5
336
330
32D
100
AcDbEntity
  8
0
  6
Continuous
 62
     7
370
    18
100
AcDbMText
 10
109.9370022672
 20
148.721180118
 30
0.0
 40
2.6458333333
 41
0.0
 71
     1
 72
     1
  1
75
  7
SLDTEXTSTYLE0
 73
     1
 44
1.0
  0
ENDBLK
  5
32F
330
32D
100
AcDbEntity
  8
0
100
AcDbBlockEnd
  0
BLOCK
  5
339
330
338
100
AcDbEntity
  8
0
100
AcDbBlockBegin
  2
_D_3
 70
     0
 10
0.0
 20
0.0
 30
0.0
  3
_D_3
  1

  0
SOLID
  5
33B
330
338
100
AcDbEntity
  8
0
  6
Continuous
 62
     7
370
    18
100
AcDbTrace
 10
64.2219613623
 20
159.3105217814
 30
0.0
 11
64.5469613623
 21
161.5105217814
 31
0.0
 12
63.8969613623
 22
161.5105217814
 32
0.0
 13
63.8969613623
 23
161.5105217814
 33
0.0
  0
SOLID
  5
33C
330
338
100
AcDbEntity
  8
0
  6
Continuous
 62
     7
370
    18
100
AcDbTrace
 10
64.2219613623
 20
218.3105217814
 30
0.0
 11
63.8969613623
 21
216.1105217814
 31
0.0
 12
64.5469613623
 22
216.1105217814
 32
0.0
 13
64.5469613623
 23
216.1105217814
 33
0.0
  0
LINE
  5
33D
330
338
100
AcDbEntity
  8
0
  6
Continuous
 62
     7
370
     0
100
AcDbLine
 10
72.2233593857
 20
159.3105217814
 30
0.0
 11
63.2219613623
 21
159.3105217814
 31
0.0
  0
LINE
  5
33E
330
338
100
AcDbEntity
  8
0
  6
Continuous
 62
     7
370
     0
100
AcDbLine
 10
72.2233593857
 20
218.3105217814
 30
0.0
 11
63.2219613623
 21
218.3105217814
 31
0.0
  0
LINE
  5
33F
330
338
100
AcDbEntity
  8
0
  6
Continuous
 62
     7
370
     0
100
AcDbLine
 10
64.2219613623
 20
159.3105217814
 30
0.0
 11
64.2219613623
 21
218.3105217814
 31
0.0
  0
MTEXT
  5
340
330
338
100
AcDbEntity
  8
0
  6
Continuous
 62
     7
370
    18
100
AcDbMText
 10
60.8113027929
 20
186.8506451584
 30
0.0
 40
2.6458333333
 41
0.0
 71
     1
 72
     1
  1
59
  7
SLDTEXTSTYLE0
 11
6.123233995736766E-17
 21
1.0
 31
0.0
 73
     1
 44
1.0
  0
ENDBLK
  5
33A
330
338
100
AcDbEntity
  8
0
100
AcDbBlockEnd
  0
BLOCK
  5
343
330
342
100
AcDbEntity
  8
0
100
AcDbBlockBegin
  2
_D_4
 70
     0
 10
0.0
 20
0.0
 30
0.0
  3
_D_4
  1

  0
SOLID
  5
345
330
342
100
AcDbEntity
  8
0
  6
Continuous
 62
     7
370
    18
100
AcDbTrace
 10
85.0233593857
 20
152.3105217814
 30
0.0
 11
87.2233593857
 21
151.9855217814
 31
0.0
 12
87.2233593857
 22
152.6355217814
 32
0.0
 13
87.2233593857
 23
152.6355217814
 33
0.0
  0
SOLID
  5
346
330
342
100
AcDbEntity
  8
0
  6
Continuous
 62
     7
370
    18
100
AcDbTrace
 10
135.0233593857
 20
152.3105217814
 30
0.0
 11
132.8233593857
 21
152.6355217814
 31
0.0
 12
132.8233593857
 22
151.9855217814
 32
0.0
 13
132.8233593857
 23
151.9855217814
 33
0.0
  0
LINE
  5
347
330
342
100
AcDbEntity
  8
0
  6
Continuous
 62
     7
370
     0
100
AcDbLine
 10
85.0233593857
 20
161.0105217814
 30
0.0
 11
85.0233593857
 21
151.3105217814
 31
0.0
  0
LINE
  5
348
330
342
100
AcDbEntity
  8
0
  6
Continuous
 62
     7
370
     0
100
AcDbLine
 10
135.0233593857
 20
161.0105217814
 30
0.0
 11
135.0233593857
 21
151.3105217814
 31
0.0
  0
LINE
  5
349
330
342
100
AcDbEntity
  8
0
  6
Continuous
 62
     7
370
     0
100
AcDbLine
 10
85.0233593857
 20
152.3105217814
 30
0.0
 11
135.0233593857
 21
152.3105217814
 31
0.0
  0
MTEXT
  5
34A
330
342
100
AcDbEntity
  8
0
  6
Continuous
 62
     7
370
    18
100
AcDbMText
 10
102.8581732786
 20
155.721180118
 30
0.0
 40
2.6458333333
 41
0.0
 71
     1
 72
     1
  1
%%c
  7
SLDTEXTSTYLE0
 73
     1
 44
1.0
  0
MTEXT
  5
34B
330
342
100
AcDbEntity
  8
0
  6
Continuous
 62
     7
370
    18
100
AcDbMText
 10
106.6052122875
 20
155.721180118
 30
0.0
 40
2.6458333333
 41
0.0
 71
     1
 72
     1
  1
50
  7
SLDTEXTSTYLE0
 73
     1
 44
1.0
  0
MTEXT
  5
34C
330
342
100
AcDbEntity
  8
0
  6
Continuous
 62
     7
370
    18
100
AcDbMText
 10
110.5249655335
 20
155.721180118
 30
0.0
 40
2.6458333333
 41
0.0
 71
     1
 72
     1
  1
x1.5
  7
SLDTEXTSTYLE0
 73
     1
 44
1.0
  0
ENDBLK
  5
344
330
342
100
AcDbEntity
  8
0
100
AcDbBlockEnd
  0
BLOCK
  5
34F
330
34E
100
AcDbEntity
  8
0
100
AcDbBlockBegin
  2
_D_5
 70
     0
 10
0.0
 20
0.0
 30
0.0
  3
_D_5
  1

  0
SOLID
  5
351
330
34E
100
AcDbEntity
  8
0
  6
Continuous
 62
     7
370
    18
100
AcDbTrace
 10
55.495965977
 20
242.3105217814
 30
0.0
 11
55.170965977
 21
240.1105217814
 31
0.0
 12
55.820965977
 22
240.1105217814
 32
0.0
 13
55.820965977
 23
240.1105217814
 33
0.0
  0
SOLID
  5
352
330
34E
100
AcDbEntity
  8
0
  6
Continuous
 62
     7
370
    18
100
AcDbTrace
 10
55.495965977
 20
159.3105217814
 30
0.0
 11
55.820965977
 21
161.5105217814
 31
0.0
 12
55.170965977
 22
161.5105217814
 32
0.0
 13
55.170965977
 23
161.5105217814
 33
0.0
  0
LINE
  5
353
330
34E
100
AcDbEntity
  8
0
  6
Continuous
 62
     7
370
     0
100
AcDbLine
 10
64.7233593857
 20
242.3105217814
 30
0.0
 11
54.495965977
 21
242.3105217814
 31
0.0
  0
LINE
  5
354
330
34E
100
AcDbEntity
  8
0
  6
Continuous
 62
     7
370
     0
100
AcDbLine
 10
72.2233593857
 20
159.3105217814
 30
0.0
 11
54.495965977
 21
159.3105217814
 31
0.0
  0
LINE
  5
355
330
34E
100
AcDbEntity
  8
0
  6
Continuous
 62
     7
370
     0
100
AcDbLine
 10
55.495965977
 20
242.3105217814
 30
0.0
 11
55.495965977
 21
159.3105217814
 31
0.0
  0
MTEXT
  5
356
330
34E
100
AcDbEntity
  8
0
  6
Continuous
 62
     7
370
    18
100
AcDbMText
 10
52.0853074076
 20
198.8506451584
 30
0.0
 40
2.6458333333
 41
0.0
 71
     1
 72
     1
  1
83
  7
SLDTEXTSTYLE0
 11
-7.044195017643634E-15
 21
1.0
 31
0.0
 73
     1
 44
1.0
  0
ENDBLK
  5
350
330
34E
100
AcDbEntity
  8
0
100
AcDbBlockEnd
  0
BLOCK
  5
359
330
358
100
AcDbEntity
  8
0
100
AcDbBlockBegin
  2
_D_6
 70
     0
 10
0.0
 20
0.0
 30
0.0
  3
_D_6
  1

  0
SOLID
  5
35B
330
358
100
AcDbEntity
  8
0
  6
Continuous
 62
     7
370
    18
100
AcDbTrace
 10
145.5233593857
 20
188.8105217814
 30
0.0
 11
143.3233593857
 21
189.1355217814
 31
0.0
 12
143.3233593857
 22
188.4855217814
 32
0.0
 13
143.3233593857
 23
188.4855217814
 33
0.0
  0
SOLID
  5
35C
330
358
100
AcDbEntity
  8
0
  6
Continuous
 62
     7
370
    18
100
AcDbTrace
 10
147.5233593857
 20
188.8105217814
 30
0.0
 11
149.7233593857
 21
188.4855217814
 31
0.0
 12
149.7233593857
 22
189.1355217814
 32
0.0
 13
149.7233593857
 23
189.1355217814
 33
0.0
  0
LINE
  5
35D
330
358
100
AcDbEntity
  8
0
  6
Continuous
 62
     7
370
     0
100
AcDbLine
 10
145.5233593857
 20
188.8105217814
 30
0.0
 11
140.3387587488
 21
188.8105217814
 31
0.0
  0
LINE
  5
35E
330
358
100
AcDbEntity
  8
0
  6
Continuous
 62
     7
370
     0
100
AcDbLine
 10
145.5233593857
 20
188.8105217814
 30
0.0
 11
147.5233593857
 21
188.8105217814
 31
0.0
  0
LINE
  5
35F
330
358
100
AcDbEntity
  8
0
  6
Continuous
 62
     7
370
     0
100
AcDbLine
 10
147.5233593857
 20
188.8105217814
 30
0.0
 11
151.9233593857
 21
188.8105217814
 31
0.0
  0
MTEXT
  5
360
330
358
100
AcDbEntity
  8
0
  6
Continuous
 62
     7
370
    18
100
AcDbMText
 10
140.3387587488
 20
192.2211803508
 30
0.0
 40
2.6458333333
 41
0.0
 71
     1
 72
     1
  1
2
  7
SLDTEXTSTYLE0
 73
     1
 44
1.0
  0
ENDBLK
  5
35A
330
358
100
AcDbEntity
  8
0
100
AcDbBlockEnd
  0
BLOCK
  5
363
330
362
100
AcDbEntity
  8
0
100
AcDbBlockBegin
  2
_D_7
 70
     0
 10
0.0
 20
0.0
 30
0.0
  3
_D_7
  1

  0
SOLID
  5
365
330
362
100
AcDbEntity
  8
0
  6
Continuous
 62
     7
370
    18
100
AcDbTrace
 10
133.0233593857
 20
170.4680526077
 30
0.0
 11
130.8233593857
 21
170.7930526077
 31
0.0
 12
130.8233593857
 22
170.1430526077
 32
0.0
 13
130.8233593857
 23
170.1430526077
 33
0.0
  0
SOLID
  5
366
330
362
100
AcDbEntity
  8
0
  6
Continuous
 62
     7
370
    18
100
AcDbTrace
 10
135.0233593857
 20
170.4680526077
 30
0.0
 11
137.2233593857
 21
170.1430526077
 31
0.0
 12
137.2233593857
 22
170.7930526077
 32
0.0
 13
137.2233593857
 23
170.7930526077
 33
0.0
  0
LINE
  5
367
330
362
100
AcDbEntity
  8
0
  6
Continuous
 62
     7
370
     0
100
AcDbLine
 10
133.0233593857
 20
170.4680526077
 30
0.0
 11
123.169667046
 21
170.4680526077
 31
0.0
  0
LINE
  5
368
330
362
100
AcDbEntity
  8
0
  6
Continuous
 62
     7
370
     0
100
AcDbLine
 10
133.0233593857
 20
170.4680526077
 30
0.0
 11
135.0233593857
 21
170.4680526077
 31
0.0
  0
LINE
  5
369
330
362
100
AcDbEntity
  8
0
  6
Continuous
 62
     7
370
     0
100
AcDbLine
 10
135.0233593857
 20
170.4680526077
 30
0.0
 11
139.4233593857
 21
170.4680526077
 31
0.0
  0
MTEXT
  5
36A
330
362
100
AcDbEntity
  8
0
  6
Continuous
 62
     7
370
    18
100
AcDbMText
 10
123.169667046
 20
173.8787111771
 30
0.0
 40
2.6458333333
 41
0.0
 71
     1
 72
     1
  1
2
  7
SLDTEXTSTYLE0
 73
     1
 44
1.0
  0
MTEXT
  5
36B
330
362
100
AcDbEntity
  8
0
  6
Continuous
 62
     7
370
    18
100
AcDbMText
 10
125.129543669
 20
173.8787111771
 30
0.0
 40
2.6458333333
 41
0.0
 71
     1
 72
     1
  1
x10
  7
SLDTEXTSTYLE0
 73
     1
 44
1.0
  0
ENDBLK
  5
364
330
362
100
AcDbEntity
  8
0
100
AcDbBlockEnd
  0
BLOCK
  5
36E
330
36D
100
AcDbEntity
  8
0
100
AcDbBlockBegin
  2
_D_8
 70
     0
 10
0.0
 20
0.0
 30
0.0
  3
_D_8
  1

  0
SOLID
  5
370
330
36D
100
AcDbEntity
  8
0
  6
Continuous
 62
     7
370
    18
100
AcDbTrace
 10
167.496683216
 20
179.3105217814
 30
0.0
 11
167.821683216
 21
181.5105217814
 31
0.0
 12
167.171683216
 22
181.5105217814
 32
0.0
 13
167.171683216
 23
181.5105217814
 33
0.0
  0
SOLID
  5
371
330
36D
100
AcDbEntity
  8
0
  6
Continuous
 62
     7
370
    18
100
AcDbTrace
 10
167.496683216
 20
242.3105217814
 30
0.0
 11
167.171683216
 21
240.1105217814
 31
0.0
 12
167.821683216
 22
240.1105217814
 32
0.0
 13
167.821683216
 23
240.1105217814
 33
0.0
  0
LINE
  5
372
330
36D
100
AcDbEntity
  8
0
  6
Continuous
 62
     7
370
     0
100
AcDbLine
 10
133.8233593857
 20
179.3105217814
 30
0.0
 11
168.496683216
 21
179.3105217814
 31
0.0
  0
LINE
  5
373
330
36D
100
AcDbEntity
  8
0
  6
Continuous
 62
     7
370
     0
100
AcDbLine
 10
135.3233593857
 20
242.3105217814
 30
0.0
 11
168.496683216
 21
242.3105217814
 31
0.0
  0
LINE
  5
374
330
36D
100
AcDbEntity
  8
0
  6
Continuous
 62
     7
370
     0
100
AcDbLine
 10
167.496683216
 20
179.3105217814
 30
0.0
 11
167.496683216
 21
242.3105217814
 31
0.0
  0
MTEXT
  5
375
330
36D
100
AcDbEntity
  8
0
  6
Continuous
 62
     7
370
    18
100
AcDbMText
 10
164.0860246466
 20
208.8506451584
 30
0.0
 40
2.6458333333
 41
0.0
 71
     1
 72
     1
  1
63
  7
SLDTEXTSTYLE0
 11
6.123233995736766E-17
 21
1.0
 31
0.0
 73
     1
 44
1.0
  0
ENDBLK
  5
36F
330
36D
100
AcDbEntity
  8
0
100
AcDbBlockEnd
  0
BLOCK
  5
378
330
377
100
AcDbEntity
  8
0
100
AcDbBlockBegin
  2
_D_9
 70
     0
 10
0.0
 20
0.0
 30
0.0
  3
_D_9
  1

  0
SOLID
  5
37A
330
377
100
AcDbEntity
  8
0
  6
Continuous
 62
     7
370
    18
100
AcDbTrace
 10
65.0233593857
 20
261.0637004593
 30
0.0
 11
67.2233593857
 21
260.7387004593
 31
0.0
 12
67.2233593857
 22
261.3887004593
 32
0.0
 13
67.2233593857
 23
261.3887004593
 33
0.0
  0
SOLID
  5
37B
330
377
100
AcDbEntity
  8
0
  6
Continuous
 62
     7
370
    18
100
AcDbTrace
 10
155.0233593857
 20
261.0637004593
 30
0.0
 11
152.8233593857
 21
261.3887004593
 31
0.0
 12
152.8233593857
 22
260.7387004593
 32
0.0
 13
152.8233593857
 23
260.7387004593
 33
0.0
  0
LINE
  5
37C
330
377
100
AcDbEntity
  8
0
  6
Continuous
 62
     7
370
     0
100
AcDbLine
 10
65.0233593857
 20
242.6105217814
 30
0.0
 11
65.0233593857
 21
262.0637004593
 31
0.0
  0
LINE
  5
37D
330
377
100
AcDbEntity
  8
0
  6
Continuous
 62
     7
370
     0
100
AcDbLine
 10
155.0233593857
 20
242.6105217814
 30
0.0
 11
155.0233593857
 21
262.0637004593
 31
0.0
  0
LINE
  5
37E
330
377
100
AcDbEntity
  8
0
  6
Continuous
 62
     7
370
     0
100
AcDbLine
 10
65.0233593857
 20
261.0637004593
 30
0.0
 11
155.0233593857
 21
261.0637004593
 31
0.0
  0
MTEXT
  5
37F
330
377
100
AcDbEntity
  8
0
  6
Continuous
 62
     7
370
    18
100
AcDbMText
 10
106.1899632583
 20
264.4743587959
 30
0.0
 40
2.6458333333
 41
0.0
 71
     1
 72
     1
  1
%%c
  7
SLDTEXTSTYLE0
 73
     1
 44
1.0
  0
MTEXT
  5
380
330
377
100
AcDbEntity
  8
0
  6
Continuous
 62
     7
370
    18
100
AcDbMText
 10
109.9370022672
 20
264.4743587959
 30
0.0
 40
2.6458333333
 41
0.0
 71
     1
 72
     1
  1
90
  7
SLDTEXTSTYLE0
 73
     1
 44
1.0
  0
ENDBLK
  5
379
330
377
100
AcDbEntity
  8
0
100
AcDbBlockEnd
  0
BLOCK
  5
3F9
330
3F8
100
AcDbEntity
  8
0
100
AcDbBlockBegin
  2
_D_10
 70
     0
 10
0.0
 20
0.0
 30
0.0
  3
_D_10
  1

  0
SOLID
  5
3FB
330
3F8
100
AcDbEntity
  8
0
  6
Continuous
 62
     7
370
    18
100
AcDbTrace
 10
227.9957123437
 20
189.0768219634
 30
0.0
 11
230.1957123437
 21
188.7518219634
 31
0.0
 12
230.1957123437
 22
189.4018219634
 32
0.0
 13
230.1957123437
 23
189.4018219634
 33
0.0
  0
SOLID
  5
3FC
330
3F8
100
AcDbEntity
  8
0
  6
Continuous
 62
     7
370
    18
100
AcDbTrace
 10
274.9957123437
 20
189.0768219634
 30
0.0
 11
272.7957123437
 21
189.4018219634
 31
0.0
 12
272.7957123437
 22
188.7518219634
 32
0.0
 13
272.7957123437
 23
188.7518219634
 33
0.0
  0
LINE
  5
3FD
330
3F8
100
AcDbEntity
  8
0
  6
Continuous
 62
     7
370
     0
100
AcDbLine
 10
227.9957123437
 20
189.0768219634
 30
0.0
 11
274.9957123437
 21
189.0768219634
 31
0.0
  0
MTEXT
  5
3FE
330
3F8
100
AcDbEntity
  8
0
  6
Continuous
 62
     7
370
    18
100
AcDbMText
 10
247.6623162162
 20
192.4874803
 30
0.0
 40
2.6458333333
 41
0.0
 71
     1
 72
     1
  1
%%c
  7
SLDTEXTSTYLE0
 73
     1
 44
1.0
  0
MTEXT
  5
3FF
330
3F8
100
AcDbEntity
  8
0
  6
Continuous
 62
     7
370
    18
100
AcDbMText
 10
251.4093552251
 20
192.4874803
 30
0.0
 40
2.6458333333
 41
0.0
 71
     1
 72
     1
  1
47
  7
SLDTEXTSTYLE0
 73
     1
 44
1.0
  0
ENDBLK
  5
3FA
330
3F8
100
AcDbEntity
  8
0
100
AcDbBlockEnd
  0
BLOCK
  5
402
330
401
100
AcDbEntity
  8
0
100
AcDbBlockBegin
  2
_D_11
 70
     0
 10
0.0
 20
0.0
 30
0.0
  3
_D_11
  1

  0
SOLID
  5
404
330
401
100
AcDbEntity
  8
0
  6
Continuous
 62
     7
370
    18
100
AcDbTrace
 10
246.4957123437
 20
170.0905657238
 30
0.0
 11
244.2957123437
 21
170.4155657238
 31
0.0
 12
244.2957123437
 22
169.7655657238
 32
0.0
 13
244.2957123437
 23
169.7655657238
 33
0.0
  0
SOLID
  5
405
330
401
100
AcDbEntity
  8
0
  6
Continuous
 62
     7
370
    18
100
AcDbTrace
 10
256.4957123437
 20
170.0905657238
 30
0.0
 11
258.6957123437
 21
169.7655657238
 31
0.0
 12
258.6957123437
 22
170.4155657238
 32
0.0
 13
258.6957123437
 23
170.4155657238
 33
0.0
  0
LINE
  5
406
330
401
100
AcDbEntity
  8
0
  6
Continuous
 62
     7
370
     0
100
AcDbLine
 10
246.4957123437
 20
170.0905657238
 30
0.0
 11
242.0957123437
 21
170.0905657238
 31
0.0
  0
LINE
  5
407
330
401
100
AcDbEntity
  8
0
  6
Continuous
 62
     7
370
     0
100
AcDbLine
 10
246.4957123437
 20
170.0905657238
 30
0.0
 11
256.4957123437
 21
170.0905657238
 31
0.0
  0
LINE
  5
408
330
401
100
AcDbEntity
  8
0
  6
Continuous
 62
     7
370
     0
100
AcDbLine
 10
256.4957123437
 20
170.0905657238
 30
0.0
 11
260.8957123437
 21
170.0905657238
 31
0.0
  0
MTEXT
  5
409
330
401
100
AcDbEntity
  8
0
  6
Continuous
 62
     7
370
    18
100
AcDbMText
 10
249.5358357207
 20
173.5012242932
 30
0.0
 40
2.6458333333
 41
0.0
 71
     1
 72
     1
  1
10
  7
SLDTEXTSTYLE0
 73
     1
 44
1.0
  0
ENDBLK
  5
403
330
401
100
AcDbEntity
  8
0
100
AcDbBlockEnd
  0
BLOCK
  5
40C
330
40B
100
AcDbEntity
  8
0
100
AcDbBlockBegin
  2
_D_12
 70
     0
 10
0.0
 20
0.0
 30
0.0
  3
_D_12
  1

  0
SOLID
  5
40E
330
40B
100
AcDbEntity
  8
0
  6
Continuous
 62
     7
370
    18
100
AcDbTrace
 10
194.4957123437
 20
159.3105217814
 30
0.0
 11
194.8207123437
 21
161.5105217814
 31
0.0
 12
194.1707123437
 22
161.5105217814
 32
0.0
 13
194.1707123437
 23
161.5105217814
 33
0.0
  0
SOLID
  5
40F
330
40B
100
AcDbEntity
  8
0
  6
Continuous
 62
     7
370
    18
100
AcDbTrace
 10
194.4957123437
 20
242.3105217814
 30
0.0
 11
194.1707123437
 21
240.1105217814
 31
0.0
 12
194.8207123437
 22
240.1105217814
 32
0.0
 13
194.8207123437
 23
240.1105217814
 33
0.0
  0
LINE
  5
410
330
40B
100
AcDbEntity
  8
0
  6
Continuous
 62
     7
370
     0
100
AcDbLine
 10
213.6957123437
 20
159.3105217814
 30
0.0
 11
193.4957123437
 21
159.3105217814
 31
0.0
  0
LINE
  5
411
330
40B
100
AcDbEntity
  8
0
  6
Continuous
 62
     7
370
     0
100
AcDbLine
 10
206.1957123437
 20
242.3105217814
 30
0.0
 11
193.4957123437
 21
242.3105217814
 31
0.0
  0
LINE
  5
412
330
40B
100
AcDbEntity
  8
0
  6
Continuous
 62
     7
370
     0
100
AcDbLine
 10
194.4957123437
 20
159.3105217814
 30
0.0
 11
194.4957123437
 21
242.3105217814
 31
0.0
  0
MTEXT
  5
413
330
40B
100
AcDbEntity
  8
0
  6
Continuous
 62
     7
370
    18
100
AcDbMText
 10
191.0850537742
 20
198.8506451584
 30
0.0
 40
2.6458333333
 41
0.0
 71
     1
 72
     1
  1
83
  7
SLDTEXTSTYLE0
 11
-3.491481338843133E-15
 21
1.0
 31
0.0
 73
     1
 44
1.0
  0
ENDBLK
  5
40D
330
40B
100
AcDbEntity
  8
0
100
AcDbBlockEnd
  0
ENDSEC
  0
SECTION
  2
ENTITIES
  0
LINE
  5
170
330
1F
100
AcDbEntity
  8
0
  6
CENTERX2
 62
     7
370
    18
100
AcDbLine
 10
352.6174545849
 20
46.9080238789
 30
0.0
 11
352.6174545849
 21
39.4621586124
 31
0.0
  0
LINE
  5
171
330
1F
100
AcDbEntity
  8
0
  6
Continuous
 62
     7
370
    18
100
AcDbLine
 10
357.7661698132
 20
46.3720107039
 30
0.0
 11
357.7661698132
 21
39.9353173413
 31
0.0
  0
LINE
  5
172
330
1F
100
AcDbEntity
  8
0
  6
Continuous
 62
     7
370
    18
100
AcDbLine
 10
364.6059427486
 20
44.7376225767
 30
0.0
 11
364.6059427486
 21
41.5697054685
 31
0.0
  0
LINE
  5
173
330
1F
100
AcDbEntity
  8
0
  6
Continuous
 62
     7
370
    18
100
AcDbLine
 10
364.6059427486
 20
44.7376225767
 30
0.0
 11
357.7661698132
 21
46.3720107039
 31
0.0
  0
LINE
  5
174
330
1F
100
AcDbEntity
  8
0
  6
Continuous
 62
     7
370
    18
100
AcDbLine
 10
15.0
 20
198.5
 30
0.0
 11
20.0
 21
198.5
 31
0.0
  0
LINE
  5
175
330
1F
100
AcDbEntity
  8
0
  6
Continuous
 62
     7
370
    18
100
AcDbLine
 10
12.0
 20
148.5
 30
0.0
 11
0.0
 21
148.5
 31
0.0
  0
LINE
  5
176
330
1F
100
AcDbEntity
  8
0
  6
Continuous
 62
     7
370
    18
100
AcDbLine
 10
357.7661698132
 20
39.9353173413
 30
0.0
 11
364.6059427486
 21
41.5697054685
 31
0.0
  0
LINE
  5
177
330
1F
100
AcDbEntity
  8
0
  6
CENTERX2
 62
     7
370
    18
100
AcDbLine
 10
348.6240467841
 20
43.1536640226
 30
0.0
 11
356.6108623857
 21
43.1536640226
 31
0.0
  0
LINE
  5
178
330
1F
100
AcDbEntity
  8
0
  6
CENTERX2
 62
     7
370
    18
100
AcDbLine
 10
357.1289238876
 20
43.1536640226
 30
0.0
 11
365.6255362296
 21
43.1536640226
 31
0.0
  0
LINE
  5
179
330
1F
100
AcDbEntity
  8
0
  6
Continuous
 62
     7
370
    18
100
AcDbLine
 10
0.0
 20
0.0
 30
0.0
 11
420.0
 21
0.0
 31
0.0
  0
LINE
  5
17A
330
1F
100
AcDbEntity
  8
0
  6
Continuous
 62
     7
370
    18
100
AcDbLine
 10
0.0
 20
0.0
 30
0.0
 11
0.0
 21
297.0
 31
0.0
  0
LINE
  5
17B
330
1F
100
AcDbEntity
  8
0
  6
Continuous
 62
     7
370
    18
100
AcDbLine
 10
0.0
 20
297.0
 30
0.0
 11
420.0
 21
297.0
 31
0.0
  0
LINE
  5
17C
330
1F
100
AcDbEntity
  8
0
  6
Continuous
 62
     7
370
    18
100
AcDbLine
 10
420.0
 20
0.0
 30
0.0
 11
420.0
 21
297.0
 31
0.0
  0
LINE
  5
17D
330
1F
100
AcDbEntity
  8
0
  6
Continuous
 62
     7
370
    25
100
AcDbLine
 10
228.0
 20
35.0
 30
0.0
 11
410.0
 21
35.0
 31
0.0
  0
LINE
  5
17E
330
1F
100
AcDbEntity
  8
0
  6
Continuous
 62
     7
370
    18
100
AcDbLine
 10
410.0
 20
198.5
 30
0.0
 11
415.0
 21
198.5
 31
0.0
  0
LINE
  5
17F
330
1F
100
AcDbEntity
  8
0
  6
Continuous
 62
     7
370
    18
100
AcDbLine
 10
15.0
 20
148.5
 30
0.0
 11
20.0
 21
148.5
 31
0.0
  0
LINE
  5
180
330
1F
100
AcDbEntity
  8
0
  6
Continuous
 62
     7
370
    18
100
AcDbLine
 10
228.0
 20
40.0
 30
0.0
 11
296.6
 21
40.0
 31
0.0
  0
LINE
  5
181
330
1F
100
AcDbEntity
  8
0
  6
Continuous
 62
     7
370
    18
100
AcDbLine
 10
15.0
 20
248.5
 30
0.0
 11
20.0
 21
248.5
 31
0.0
  0
LINE
  5
182
330
1F
100
AcDbEntity
  8
0
  6
Continuous
 62
     7
370
    35
100
AcDbLine
 10
20.0
 20
287.0
 30
0.0
 11
20.0
 21
10.0
 31
0.0
  0
LINE
  5
183
330
1F
100
AcDbEntity
  8
0
  6
Continuous
 62
     7
370
    35
100
AcDbLine
 10
410.0
 20
287.0
 30
0.0
 11
20.0
 21
287.0
 31
0.0
  0
LINE
  5
184
330
1F
100
AcDbEntity
  8
0
  6
Continuous
 62
     7
370
    35
100
AcDbLine
 10
410.0
 20
5.0
 30
0.0
 11
410.0
 21
287.0
 31
0.0
  0
LINE
  5
185
330
1F
100
AcDbEntity
  8
0
  6
Continuous
 62
     7
370
    35
100
AcDbLine
 10
20.0
 20
10.0
 30
0.0
 11
415.0
 21
10.0
 31
0.0
  0
LINE
  5
186
330
1F
100
AcDbEntity
  8
0
  6
Continuous
 62
     7
370
    18
100
AcDbLine
 10
410.0
 20
148.5
 30
0.0
 11
415.0
 21
148.5
 31
0.0
  0
LINE
  5
187
330
1F
100
AcDbEntity
  8
0
  6
Continuous
 62
     7
370
    18
100
AcDbLine
 10
228.0
 20
50.0
 30
0.0
 11
296.6
 21
50.0
 31
0.0
  0
LINE
  5
188
330
1F
100
AcDbEntity
  8
0
  6
Continuous
 62
     7
370
    18
100
AcDbLine
 10
15.0
 20
98.5
 30
0.0
 11
20.0
 21
98.5
 31
0.0
  0
LINE
  5
189
330
1F
100
AcDbEntity
  8
0
  6
Continuous
 62
     7
370
    18
100
AcDbLine
 10
296.6
 20
45.0
 30
0.0
 11
228.0
 21
45.0
 31
0.0
  0
LINE
  5
18A
330
1F
100
AcDbEntity
  8
0
  6
Continuous
 62
     7
370
    18
100
AcDbLine
 10
65.0
 20
292.0
 30
0.0
 11
65.0
 21
287.0
 31
0.0
  0
LINE
  5
18B
330
1F
100
AcDbEntity
  8
0
  6
Continuous
 62
     7
370
    18
100
AcDbLine
 10
230.0
 20
292.0
 30
0.0
 11
230.0
 21
297.0
 31
0.0
  0
LINE
  5
18C
330
1F
100
AcDbEntity
  8
0
  6
Continuous
 62
     7
370
    25
100
AcDbLine
 10
296.6
 20
55.0
 30
0.0
 11
296.6
 21
35.0
 31
0.0
  0
LINE
  5
18D
330
1F
100
AcDbEntity
  8
0
  6
Continuous
 62
     7
370
    18
100
AcDbLine
 10
410.0
 20
98.5
 30
0.0
 11
415.0
 21
98.5
 31
0.0
  0
LINE
  5
18E
330
1F
100
AcDbEntity
  8
0
100
AcDbLine
 10
230.0
 20
5.0
 30
0.0
 11
230.0
 21
0.0
 31
0.0
  0
LINE
  5
18F
330
1F
100
AcDbEntity
  8
0
  6
Continuous
 62
     7
370
    18
100
AcDbLine
 10
125.0
 20
292.0
 30
0.0
 11
125.0
 21
297.0
 31
0.0
  0
LINE
  5
190
330
1F
100
AcDbEntity
  8
0
  6
Continuous
 62
     7
370
    18
100
AcDbLine
 10
125.0
 20
5.0
 30
0.0
 11
125.0
 21
0.0
 31
0.0
  0
LINE
  5
191
330
1F
100
AcDbEntity
  8
0
  6
Continuous
 62
     7
370
    25
100
AcDbLine
 10
410.0
 20
55.0
 30
0.0
 11
228.0
 21
55.0
 31
0.0
  0
LINE
  5
192
330
1F
100
AcDbEntity
  8
0
  6
Continuous
 62
     7
370
    18
100
AcDbLine
 10
228.0
 20
55.0
 30
0.0
 11
410.0
 21
55.0
 31
0.0
  0
LINE
  5
193
330
1F
100
AcDbEntity
  8
0
  6
Continuous
 62
     7
370
    18
100
AcDbLine
 10
410.0
 20
55.0
 30
0.0
 11
228.0
 21
55.0
 31
0.0
  0
LINE
  5
194
330
1F
100
AcDbEntity
  8
0
  6
Continuous
 62
     7
370
    18
100
AcDbLine
 10
268.0
 20
76.5
 30
0.0
 11
268.0
 21
55.0
 31
0.0
  0
LINE
  5
195
330
1F
100
AcDbEntity
  8
0
  6
Continuous
 62
     7
370
    18
100
AcDbLine
 10
271.6
 20
55.0
 30
0.0
 11
271.6
 21
40.0
 31
0.0
  0
LINE
  5
196
330
1F
100
AcDbEntity
  8
0
  6
Continuous
 62
     7
370
    18
100
AcDbLine
 10
247.0
 20
55.0
 30
0.0
 11
247.0
 21
35.0
 31
0.0
  0
LINE
  5
197
330
1F
100
AcDbEntity
  8
0
  6
Continuous
 62
     7
370
    35
100
AcDbLine
 10
228.0
 20
76.5
 30
0.0
 11
228.0
 21
10.0
 31
0.0
  0
LINE
  5
198
330
1F
100
AcDbEntity
  8
0
  6
Continuous
 62
     7
370
    18
100
AcDbLine
 10
15.0
 20
292.0
 30
0.0
 11
415.0
 21
292.0
 31
0.0
  0
LINE
  5
199
330
1F
100
AcDbEntity
  8
0
  6
Continuous
 62
     7
370
    18
100
AcDbLine
 10
228.0
 20
65.75
 30
0.0
 11
310.0
 21
65.75
 31
0.0
  0
LINE
  5
19A
330
1F
100
AcDbEntity
  8
0
  6
Continuous
 62
     7
370
    35
100
AcDbLine
 10
228.0
 20
76.5
 30
0.0
 11
410.0
 21
76.5
 31
0.0
  0
LINE
  5
19B
330
1F
100
AcDbEntity
  8
0
  6
Continuous
 62
     7
370
    18
100
AcDbLine
 10
15.0
 20
48.5
 30
0.0
 11
20.0
 21
48.5
 31
0.0
  0
LINE
  5
19C
330
1F
100
AcDbEntity
  8
0
  6
Continuous
 62
     7
370
    18
100
AcDbLine
 10
410.0
 20
48.5
 30
0.0
 11
415.0
 21
48.5
 31
0.0
  0
LINE
  5
19D
330
1F
100
AcDbEntity
  8
0
  6
Continuous
 62
     7
370
    18
100
AcDbLine
 10
332.6610845472
 20
20.0
 30
0.0
 11
332.6610845472
 21
10.0
 31
0.0
  0
LINE
  5
19E
330
1F
100
AcDbEntity
  8
0
  6
Continuous
 62
     7
370
    18
100
AcDbLine
 10
410.0
 20
248.5
 30
0.0
 11
415.0
 21
248.5
 31
0.0
  0
LINE
  5
19F
330
1F
100
AcDbEntity
  8
0
  6
Continuous
 62
     7
370
    18
100
AcDbLine
 10
65.0
 20
10.0
 30
0.0
 11
65.0
 21
5.0
 31
0.0
  0
LINE
  5
1A0
330
1F
100
AcDbEntity
  8
0
  6
Continuous
 62
     7
370
    18
100
AcDbLine
 10
115.0
 20
10.0
 30
0.0
 11
115.0
 21
5.0
 31
0.0
  0
LINE
  5
1A1
330
1F
100
AcDbEntity
  8
0
  6
Continuous
 62
     7
370
    18
100
AcDbLine
 10
115.0
 20
292.0
 30
0.0
 11
115.0
 21
287.0
 31
0.0
  0
LINE
  5
1A2
330
1F
100
AcDbEntity
  8
0
  6
Continuous
 62
     7
370
    18
100
AcDbLine
 10
165.0
 20
10.0
 30
0.0
 11
165.0
 21
5.0
 31
0.0
  0
LINE
  5
1A3
330
1F
100
AcDbEntity
  8
0
  6
Continuous
 62
     7
370
    18
100
AcDbLine
 10
165.0
 20
292.0
 30
0.0
 11
165.0
 21
287.0
 31
0.0
  0
LINE
  5
1A4
330
1F
100
AcDbEntity
  8
0
  6
Continuous
 62
     7
370
    18
100
AcDbLine
 10
215.0
 20
10.0
 30
0.0
 11
215.0
 21
5.0
 31
0.0
  0
LINE
  5
1A5
330
1F
100
AcDbEntity
  8
0
  6
Continuous
 62
     7
370
    18
100
AcDbLine
 10
215.0
 20
292.0
 30
0.0
 11
215.0
 21
287.0
 31
0.0
  0
LINE
  5
1A6
330
1F
100
AcDbEntity
  8
0
  6
Continuous
 62
     7
370
    18
100
AcDbLine
 10
265.0
 20
10.0
 30
0.0
 11
265.0
 21
5.0
 31
0.0
  0
LINE
  5
1A7
330
1F
100
AcDbEntity
  8
0
  6
Continuous
 62
     7
370
    18
100
AcDbLine
 10
265.0
 20
292.0
 30
0.0
 11
265.0
 21
287.0
 31
0.0
  0
LINE
  5
1A8
330
1F
100
AcDbEntity
  8
0
  6
Continuous
 62
     7
370
    18
100
AcDbLine
 10
347.6610845472
 20
20.0
 30
0.0
 11
347.6610845472
 21
10.0
 31
0.0
  0
LINE
  5
1A9
330
1F
100
AcDbEntity
  8
0
  6
Continuous
 62
     7
370
    18
100
AcDbLine
 10
362.6610845472
 20
20.0
 30
0.0
 11
362.6610845472
 21
10.0
 31
0.0
  0
LINE
  5
1AA
330
1F
100
AcDbEntity
  8
0
  6
Continuous
 62
     7
370
    25
100
AcDbLine
 10
327.6610845472
 20
10.0
 30
0.0
 11
327.6610845472
 21
55.0
 31
0.0
  0
LINE
  5
1AB
330
1F
100
AcDbEntity
  8
0
  6
Continuous
 62
     7
370
    18
100
AcDbLine
 10
20.0
 20
292.0
 30
0.0
 11
20.0
 21
297.0
 31
0.0
  0
LINE
  5
1AC
330
1F
100
AcDbEntity
  8
0
  6
Continuous
 62
     7
370
    18
100
AcDbLine
 10
20.0
 20
5.0
 30
0.0
 11
20.0
 21
0.0
 31
0.0
  0
LINE
  5
1AD
330
1F
100
AcDbEntity
  8
0
  6
Continuous
 62
     7
370
    18
100
AcDbLine
 10
315.0
 20
10.0
 30
0.0
 11
315.0
 21
5.0
 31
0.0
  0
LINE
  5
1AE
330
1F
100
AcDbEntity
  8
0
  6
Continuous
 62
     7
370
    18
100
AcDbLine
 10
315.0
 20
292.0
 30
0.0
 11
315.0
 21
287.0
 31
0.0
  0
LINE
  5
1AF
330
1F
100
AcDbEntity
  8
0
  6
Continuous
 62
     7
370
    18
100
AcDbLine
 10
365.0
 20
10.0
 30
0.0
 11
365.0
 21
5.0
 31
0.0
  0
LINE
  5
1B0
330
1F
100
AcDbEntity
  8
0
  6
Continuous
 62
     7
370
    18
100
AcDbLine
 10
365.0
 20
292.0
 30
0.0
 11
365.0
 21
287.0
 31
0.0
  0
LINE
  5
1B1
330
1F
100
AcDbEntity
  8
0
  6
Continuous
 62
     7
370
    18
100
AcDbLine
 10
15.0
 20
292.0
 30
0.0
 11
15.0
 21
5.0
 31
0.0
  0
LINE
  5
1B2
330
1F
100
AcDbEntity
  8
0
  6
Continuous
 62
     7
370
    18
100
AcDbLine
 10
15.0
 20
5.0
 30
0.0
 11
415.0
 21
5.0
 31
0.0
  0
LINE
  5
1B3
330
1F
100
AcDbEntity
  8
0
  6
Continuous
 62
     7
370
    18
100
AcDbLine
 10
415.0
 20
292.0
 30
0.0
 11
415.0
 21
5.0
 31
0.0
  0
LINE
  5
1B4
330
1F
100
AcDbEntity
  8
0
  6
Continuous
 62
     7
370
    18
100
AcDbLine
 10
347.6610845472
 20
44.213444
 30
0.0
 11
327.6610845472
 21
44.213444
 31
0.0
  0
LINE
  5
1B5
330
1F
100
AcDbEntity
  8
0
  6
Continuous
 62
     7
370
    18
100
AcDbLine
 10
347.6610845472
 20
35.0
 30
0.0
 11
347.6610845472
 21
55.0
 31
0.0
  0
LINE
  5
1B6
330
1F
100
AcDbEntity
  8
0
  6
Continuous
 62
     7
370
    18
100
AcDbLine
 10
370.057188
 20
55.012032
 30
0.0
 11
370.057188
 21
35.0
 31
0.0
  0
LINE
  5
1B7
330
1F
100
AcDbEntity
  8
0
  6
Continuous
 62
     7
370
    18
100
AcDbLine
 10
398.0
 20
35.0
 30
0.0
 11
398.0
 21
20.0
 31
0.0
  0
LINE
  5
1B8
330
1F
100
AcDbEntity
  8
0
  6
Continuous
 62
     7
370
    18
100
AcDbLine
 10
410.0
 20
15.0
 30
0.0
 11
327.6610845472
 21
15.0
 31
0.0
  0
LINE
  5
1B9
330
1F
100
AcDbEntity
  8
0
  6
Continuous
 62
     7
370
    18
100
AcDbLine
 10
327.6610845472
 20
20.0
 30
0.0
 11
410.0
 21
20.0
 31
0.0
  0
LINE
  5
1BA
330
1F
100
AcDbEntity
  8
0
  6
Continuous
 62
     7
370
    18
100
AcDbLine
 10
341.485486
 20
20.0
 30
0.0
 11
341.485486
 21
27.564675
 31
0.0
  0
LINE
  5
1BB
330
1F
100
AcDbEntity
  8
0
  6
Continuous
 62
     7
370
    25
100
AcDbLine
 10
310.0
 20
76.5
 30
0.0
 11
310.0
 21
55.0
 31
0.0
  0
CIRCLE
  5
1BC
330
1F
100
AcDbEntity
  8
0
  6
Continuous
 62
     7
370
    18
100
AcDbCircle
 10
11.0
 20
108.5
 30
0.0
 40
2.750000000000001
  0
CIRCLE
  5
1BD
330
1F
100
AcDbEntity
  8
0
  6
Continuous
 62
     7
370
    18
100
AcDbCircle
 10
11.0
 20
188.5
 30
0.0
 40
2.750000000000001
  0
CIRCLE
  5
1BE
330
1F
100
AcDbEntity
  8
0
  6
Continuous
 62
     7
370
    18
100
AcDbCircle
 10
352.6174545849
 20
43.1536640226
 30
0.0
 40
3.218346681300138
  0
CIRCLE
  5
1BF
330
1F
100
AcDbEntity
  8
0
  6
Continuous
 62
     7
370
    18
100
AcDbCircle
 10
352.6174545849
 20
43.1536640226
 30
0.0
 40
1.583958554121555
  0
INSERT
  5
1C0
330
1F
100
AcDbEntity
  8
0
  6
Continuous
 62
     7
100
AcDbBlockReference
  2
Allg-Toleranz-mittel
 10
20.0
 20
10.0
 30
0.0
  0
INSERT
  5
1C1
330
1F
100
AcDbEntity
  8
0
  6
Continuous
 62
     7
100
AcDbBlockReference
  2
ACO-Logo
 10
314.3510726297
 20
57.6366106772
 30
0.0
  0
POINT
  5
1C2
330
1F
100
AcDbEntity
  8
0
100
AcDbPoint
 10
0.0
 20
0.0
 30
0.0
  0
POINT
  5
1C3
330
1F
100
AcDbEntity
  8
0
100
AcDbPoint
 10
410.0
 20
10.0
 30
0.0
  0
MTEXT
  5
1C4
330
1F
100
AcDbEntity
  8
0
  6
Continuous
 62
     7
370
    18
100
AcDbMText
 10
17.7359443114
 20
124.8017866468
 30
0.0
 40
2.0
 41
0.0
 71
     2
 72
     1
  1
D
  7
SLDTEXTSTYLE0
 73
     1
 44
1.0
  0
MTEXT
  5
1C5
330
1F
100
AcDbEntity
  8
0
  6
Continuous
 62
     7
370
    18
100
AcDbMText
 10
17.6274822413
 20
174.7261854936
 30
0.0
 40
2.0
 41
0.0
 71
     2
 72
     1
  1
C
  7
SLDTEXTSTYLE0
 73
     1
 44
1.0
  0
MTEXT
  5
1C6
330
1F
100
AcDbEntity
  8
0
  6
Continuous
 62
     7
370
    18
100
AcDbMText
 10
17.5516905072
 20
224.4926420442
 30
0.0
 40
2.0
 41
0.0
 71
     2
 72
     1
  1
B
  7
SLDTEXTSTYLE0
 73
     1
 44
1.0
  0
MTEXT
  5
1C7
330
1F
100
AcDbEntity
  8
0
  6
Continuous
 62
     7
370
    18
100
AcDbMText
 10
290.0344258799
 20
290.5428789914
 30
0.0
 40
2.0
 41
0.0
 71
     2
 72
     1
  1
6
  7
SLDTEXTSTYLE0
 73
     1
 44
1.0
  0
MTEXT
  5
1C8
330
1F
100
AcDbEntity
  8
0
  6
Continuous
 62
     7
370
    18
100
AcDbMText
 10
240.0417859812
 20
290.6369260235
 30
0.0
 40
2.0
 41
0.0
 71
     2
 72
     1
  1
5
  7
SLDTEXTSTYLE0
 73
     1
 44
1.0
  0
MTEXT
  5
1C9
330
1F
100
AcDbEntity
  8
0
  6
Continuous
 62
     7
370
    18
100
AcDbMText
 10
190.0300404524
 20
290.6343268032
 30
0.0
 40
2.0
 41
0.0
 71
     2
 72
     1
  1
4
  7
SLDTEXTSTYLE0
 73
     1
 44
1.0
  0
MTEXT
  5
1CA
330
1F
100
AcDbEntity
  8
0
  6
Continuous
 62
     7
370
    18
100
AcDbMText
 10
140.0165868337
 20
290.6378887952
 30
0.0
 40
2.0
 41
0.0
 71
     2
 72
     1
  1
3
  7
SLDTEXTSTYLE0
 73
     1
 44
1.0
  0
MTEXT
  5
1CB
330
1F
100
AcDbEntity
  8
0
  6
Continuous
 62
     7
370
    18
100
AcDbMText
 10
90.033223
 20
290.5566702875
 30
0.0
 40
2.0
 41
0.0
 71
     2
 72
     1
  1
2
  7
SLDTEXTSTYLE0
 73
     1
 44
1.0
  0
MTEXT
  5
1CC
330
1F
100
AcDbEntity
  8
0
  6
Continuous
 62
     7
370
    18
100
AcDbMText
 10
40.0509551097
 20
290.5530165805
 30
0.0
 40
2.0
 41
0.0
 71
     2
 72
     1
  1
1
  7
SLDTEXTSTYLE0
 73
     1
 44
1.0
  0
MTEXT
  5
1CD
330
1F
100
AcDbEntity
  8
0
  6
Continuous
 62
     7
370
    18
100
AcDbMText
 10
17.5609786315
 20
271.2966048816
 30
0.0
 40
2.0
 41
0.0
 71
     2
 72
     1
  1
A
  7
SLDTEXTSTYLE0
 73
     1
 44
1.0
  0
MTEXT
  5
1CE
330
1F
100
AcDbEntity
  8
0
  6
Continuous
 62
     7
370
    18
100
AcDbMText
 10
89.9333968896
 20
8.5904490253
 30
0.0
 40
2.0
 41
0.0
 71
     2
 72
     1
  1
2
  7
SLDTEXTSTYLE0
 73
     1
 44
1.0
  0
MTEXT
  5
1CF
330
1F
100
AcDbEntity
  8
0
  6
Continuous
 62
     7
370
    18
100
AcDbMText
 10
39.9009486579
 20
8.6623118453
 30
0.0
 40
2.0
 41
0.0
 71
     2
 72
     1
  1
1
  7
SLDTEXTSTYLE0
 73
     1
 44
1.0
  0
MTEXT
  5
1D0
330
1F
100
AcDbEntity
  8
0
  6
Continuous
 62
     7
370
    18
100
AcDbMText
 10
190.0227230239
 20
8.7073169286
 30
0.0
 40
2.0
 41
0.0
 71
     2
 72
     1
  1
4
  7
SLDTEXTSTYLE0
 73
     1
 44
1.0
  0
MTEXT
  5
1D1
330
1F
100
AcDbEntity
  8
0
  6
Continuous
 62
     7
370
    18
100
AcDbMText
 10
140.0453427777
 20
8.5647154541
 30
0.0
 40
2.0
 41
0.0
 71
     2
 72
     1
  1
3
  7
SLDTEXTSTYLE0
 73
     1
 44
1.0
  0
MTEXT
  5
1D2
330
1F
100
AcDbEntity
  8
0
  6
Continuous
 62
     7
370
    18
100
AcDbMText
 10
239.8749782531
 20
8.5637526825
 30
0.0
 40
2.0
 41
0.0
 71
     2
 72
     1
  1
5
  7
SLDTEXTSTYLE0
 73
     1
 44
1.0
  0
MTEXT
  5
1D3
330
1F
100
AcDbEntity
  8
0
  6
Continuous
 62
     7
370
    18
100
AcDbMText
 10
412.6717254925
 20
224.51208263
 30
0.0
 40
2.0
 41
0.0
 71
     2
 72
     1
  1
B
  7
SLDTEXTSTYLE0
 73
     1
 44
1.0
  0
MTEXT
  5
1D4
330
1F
100
AcDbEntity
  8
0
  6
Continuous
 62
     7
370
    18
100
AcDbMText
 10
412.5951211154
 20
271.2798202564
 30
0.0
 40
2.0
 41
0.0
 71
     2
 72
     1
  1
A
  7
SLDTEXTSTYLE0
 73
     1
 44
1.0
  0
MTEXT
  5
1D5
330
1F
100
AcDbEntity
  8
0
  6
Continuous
 62
     7
370
    18
100
AcDbMText
 10
412.6491448679
 20
174.7279841048
 30
0.0
 40
2.0
 41
0.0
 71
     2
 72
     1
  1
C
  7
SLDTEXTSTYLE0
 73
     1
 44
1.0
  0
MTEXT
  5
1D6
330
1F
100
AcDbEntity
  8
0
  6
Continuous
 62
     7
370
    18
100
AcDbMText
 10
340.0216466634
 20
290.5954278102
 30
0.0
 40
2.0
 41
0.0
 71
     2
 72
     1
  1
7
  7
SLDTEXTSTYLE0
 73
     1
 44
1.0
  0
MTEXT
  5
1D7
330
1F
100
AcDbEntity
  8
0
  6
Continuous
 62
     7
370
    18
100
AcDbMText
 10
390.037657264
 20
290.6215496941
 30
0.0
 40
2.0
 41
0.0
 71
     2
 72
     1
  1
8
  7
SLDTEXTSTYLE0
 73
     1
 44
1.0
  0
MTEXT
  5
1D8
330
1F
100
AcDbEntity
  8
0
  6
Continuous
 62
     7
370
    18
100
AcDbMText
 10
17.6897935208
 20
74.7267628143
 30
0.0
 40
2.0
 41
0.0
 71
     2
 72
     1
  1
E
  7
SLDTEXTSTYLE0
 73
     1
 44
1.0
  0
MTEXT
  5
1D9
330
1F
100
AcDbEntity
  8
0
  6
Continuous
 62
     7
370
    18
100
AcDbMText
 10
17.5936930126
 20
27.773321616
 30
0.0
 40
2.0
 41
0.0
 71
     2
 72
     1
  1
F
  7
SLDTEXTSTYLE0
 73
     1
 44
1.0
  0
MTEXT
  5
1DA
330
1F
100
AcDbEntity
  8
0
  6
Continuous
 62
     7
370
    18
100
AcDbMText
 10
339.8003474583
 20
8.7205095051
 30
0.0
 40
2.0
 41
0.0
 71
     2
 72
     1
  1
7
  7
SLDTEXTSTYLE0
 73
     1
 44
1.0
  0
MTEXT
  5
1DB
330
1F
100
AcDbEntity
  8
0
  6
Continuous
 62
     7
370
    18
100
AcDbMText
 10
289.7886477179
 20
8.6884673623
 30
0.0
 40
2.0
 41
0.0
 71
     2
 72
     1
  1
6
  7
SLDTEXTSTYLE0
 73
     1
 44
1.0
  0
MTEXT
  5
1DC
330
1F
100
AcDbEntity
  8
0
  6
Continuous
 62
     7
370
    18
100
AcDbMText
 10
412.5160699095
 20
74.5096307526
 30
0.0
 40
2.0
 41
0.0
 71
     2
 72
     1
  1
E
  7
SLDTEXTSTYLE0
 73
     1
 44
1.0
  0
MTEXT
  5
1DD
330
1F
100
AcDbEntity
  8
0
  6
Continuous
 62
     7
370
    18
100
AcDbMText
 10
412.6234021365
 20
124.4517683275
 30
0.0
 40
2.0
 41
0.0
 71
     2
 72
     1
  1
D
  7
SLDTEXTSTYLE0
 73
     1
 44
1.0
  0
MTEXT
  5
1DE
330
1F
100
AcDbEntity
  8
0
  6
Continuous
 62
     7
370
    18
100
AcDbMText
 10
411.7952690469
 20
41.9107873916
 30
0.0
 40
1.8
 41
0.0
 71
     3
 72
     1
  1
Plotdatum: 11.09.2024
  7
SLDTEXTSTYLE0
 11
-3.269436733918102E-15
 21
1.0
 31
0.0
 73
     1
 44
1.0
  0
MTEXT
  5
1DF
330
1F
100
AcDbEntity
  8
0
  6
Continuous
 62
     7
370
    18
100
AcDbMText
 10
412.557933251
 20
8.2549718046
 30
0.0
 40
1.8
 41
0.0
 71
     2
 72
     1
  1
A3
  7
SLDTEXTSTYLE0
 73
     1
 44
1.0
  0
MTEXT
  5
1E0
330
1F
100
AcDbEntity
  8
0
  6
Continuous
 62
     7
370
    18
100
AcDbMText
 10
390.594604279
 20
8.3847467643
 30
0.0
 40
1.8
 41
0.0
 71
     2
 72
     1
  1
CAD-System: SolidWorks
  7
SLDTEXTSTYLE0
 73
     1
 44
1.0
  0
MTEXT
  5
1E1
330
1F
100
AcDbEntity
  8
0
  6
Continuous
 62
     7
370
    18
100
AcDbMText
 10
403.9986368527
 20
28.4394692021
 30
0.0
 40
5.0
 41
0.0
 71
     2
 72
     1
  1
B
  7
SLDTEXTSTYLE0
 73
     1
 44
1.0
  0
MTEXT
  5
1E2
330
1F
100
AcDbEntity
  8
0
  6
Continuous
 62
     7
370
    18
100
AcDbMText
 10
249.556836311
 20
38.5581729516
 30
0.0
 40
2.0
 41
0.0
 71
     1
 72
     1
  1
Freigegeben
  7
SLDTEXTSTYLE0
 73
     1
 44
1.0
  0
MTEXT
  5
1E3
330
1F
100
AcDbEntity
  8
0
  6
Continuous
 62
     7
370
    18
100
AcDbMText
 10
284.096264263
 20
43.5473338598
 30
0.0
 40
2.0
 41
0.0
 71
     2
 72
     1
  1
dca
  7
SLDTEXTSTYLE0
 73
     1
 44
1.0
  0
MTEXT
  5
1E4
330
1F
100
AcDbEntity
  8
0
  6
Continuous
 62
     7
370
    18
100
AcDbMText
 10
249.5284668163
 20
43.5603133928
 30
0.0
 40
2.0
 41
0.0
 71
     1
 72
     1
  1
10.09.2024
  7
SLDTEXTSTYLE0
 73
     1
 44
1.0
  0
MTEXT
  5
1E5
330
1F
100
AcDbEntity
  8
0
  6
Continuous
 62
     7
370
    18
100
AcDbMText
 10
284.1309088133
 20
48.5138972561
 30
0.0
 40
2.0
 41
0.0
 71
     2
 72
     1
  1
AB
  7
SLDTEXTSTYLE0
 73
     1
 44
1.0
  0
MTEXT
  5
1E6
330
1F
100
AcDbEntity
  8
0
  6
Continuous
 62
     7
370
    18
100
AcDbMText
 10
249.5284668163
 20
48.4989062069
 30
0.0
 40
2.0
 41
0.0
 71
     1
 72
     1
  1
25.10.2022
  7
SLDTEXTSTYLE0
 73
     1
 44
1.0
  0
MTEXT
  5
1E7
330
1F
100
AcDbEntity
  8
0
  6
Continuous
 62
     7
370
     0
100
AcDbMText
 10
372.2007348103
 20
38.8723054925
 30
0.0
 40
1.5
 41
0.0
 71
     1
 72
     1
  1
Copyright reserved! © ACO AG
  7
SLDTEXTSTYLE0
 73
     1
 44
1.0
  0
INSERT
  5
1F0
330
1F
100
AcDbEntity
  8
0
  6
Continuous
 62
     7
370
     0
100
AcDbBlockReference
  2
SW_NOTE_0_21
 10
372.2203831445
 20
51.2202922854
 30
0.0
  0
MTEXT
  5
1F1
330
1F
100
AcDbEntity
  8
0
  6
Continuous
 62
     7
370
    18
100
AcDbMText
 10
340.2272252879
 20
13.606872109
 30
0.0
 40
2.0
 41
0.0
 71
     2
 72
     1
  1
22.05.2023
  7
SLDTEXTSTYLE0
 73
     1
 44
1.0
  0
MTEXT
  5
1F2
330
1F
100
AcDbEntity
  8
0
  6
Continuous
 62
     7
370
    18
100
AcDbMText
 10
354.2817290236
 20
13.606872109
 30
0.0
 40
2.0
 41
0.0
 71
     2
 72
     1
  1
BM
  7
SLDTEXTSTYLE0
 73
     1
 44
1.0
  0
MTEXT
  5
1F3
330
1F
100
AcDbEntity
  8
0
  6
Continuous
 62
     7
370
    18
100
AcDbMText
 10
330.227417144
 20
13.524501801
 30
0.0
 40
2.0
 41
0.0
 71
     2
 72
     1
  1
A
  7
SLDTEXTSTYLE0
 73
     1
 44
1.0
  0
MTEXT
  5
1F4
330
1F
100
AcDbEntity
  8
0
  6
Continuous
 62
     7
370
    18
100
AcDbMText
 10
364.9468572407
 20
18.4594173137
 30
0.0
 40
2.0
 41
0.0
 71
     1
 72
     1
  1
SAP Nr.
  7
SLDTEXTSTYLE0
 73
     1
 44
1.0
  0
MTEXT
  5
1F5
330
1F
100
AcDbEntity
  8
0
  6
Continuous
 62
     7
370
    18
100
AcDbMText
 10
354.24544421
 20
18.5245664709
 30
0.0
 40
2.0
 41
0.0
 71
     2
 72
     1
  1
dca
  7
SLDTEXTSTYLE0
 73
     1
 44
1.0
  0
MTEXT
  5
1F6
330
1F
100
AcDbEntity
  8
0
  6
Continuous
 62
     7
370
    18
100
AcDbMText
 10
340.2667571276
 20
18.5245664709
 30
0.0
 40
2.0
 41
0.0
 71
     2
 72
     1
  1
26.08.2024
  7
SLDTEXTSTYLE0
 73
     1
 44
1.0
  0
MTEXT
  5
1F7
330
1F
100
AcDbEntity
  8
0
  6
Continuous
 62
     7
370
    18
100
AcDbMText
 10
330.2494657985
 20
18.524501801
 30
0.0
 40
2.0
 41
0.0
 71
     2
 72
     1
  1
B
  7
SLDTEXTSTYLE0
 73
     1
 44
1.0
  0
MTEXT
  5
1F8
330
1F
100
AcDbEntity
  8
0
  6
Continuous
 62
     7
370
    18
100
AcDbMText
 10
311.764909851
 20
46.3490312465
 30
0.0
 40
5.0
 41
0.0
 71
     2
 72
     1
  1
1:1
  7
SLDTEXTSTYLE0
 73
     1
 44
1.0
  0
MTEXT
  5
1F9
330
1F
100
AcDbEntity
  8
0
  6
Continuous
 62
     7
370
    18
100
AcDbMText
 10
230.1851195342
 20
38.7793829468
 30
0.0
 40
2.0
 41
0.0
 71
     1
 72
     1
  1
Status:
  7
SLDTEXTSTYLE0
 73
     1
 44
1.0
  0
MTEXT
  5
1FA
330
1F
100
AcDbEntity
  8
0
  6
Continuous
 62
     7
370
    18
100
AcDbMText
 10
344.926838705
 20
28.2772828851
 30
0.0
 40
5.0
 41
0.0
 71
     1
 72
     1
  1
2087316
  7
SLDTEXTSTYLE0
 73
     1
 44
1.0
  0
MTEXT
  5
1FB
330
1F
100
AcDbEntity
  8
0
  6
Continuous
 62
     7
370
    18
100
AcDbMText
 10
231.1132118803
 20
14.9211049657
 30
0.0
 40
2.5
 41
0.0
 71
     1
 72
     1
  1
Art. Nr.: 2087316
  7
SLDTEXTSTYLE0
 73
     1
 44
1.0
  0
MTEXT
  5
1FC
330
1F
100
AcDbEntity
  8
0
  6
Continuous
 62
     7
370
    18
100
AcDbMText
 10
231.1159560181
 20
33.0904969858
 30
0.0
 40
2.5
 41
0.0
 71
     1
 72
     1
  1
Bauelemente
  7
SLDTEXTSTYLE0
 73
     1
 44
1.0
  0
MTEXT
  5
1FD
330
1F
100
AcDbEntity
  8
0
  6
Continuous
 62
     7
370
    18
100
AcDbMText
 10
231.1475981734
 20
28.0307932366
 30
0.0
 40
3.5
 41
0.0
 71
     1
 72
     1
  1
Geruchsverschluss DN100
  7
SLDTEXTSTYLE0
 73
     1
 44
1.0
  0
MTEXT
  5
1FE
330
1F
100
AcDbEntity
  8
0
  6
Continuous
 62
     7
370
    18
100
AcDbMText
 10
348.2746465368
 20
53.819119072
 30
0.0
 40
2.0
 41
0.0
 71
     1
 72
     1
  1
Projektion: ISO-E
  7
SLDTEXTSTYLE0
 73
     1
 44
1.0
  0
MTEXT
  5
1FF
330
1F
100
AcDbEntity
  8
0
  6
Continuous
 62
     7
370
    18
100
AcDbMText
 10
337.7677091855
 20
49.3670227094
 30
0.0
 40
2.5
 41
0.0
 71
     2
 72
     1
  1
Millimeter
  7
SLDTEXTSTYLE0
 73
     1
 44
1.0
  0
MTEXT
  5
200
330
1F
100
AcDbEntity
  8
0
  6
Continuous
 62
     7
370
    18
100
AcDbMText
 10
337.6323777421
 20
53.855374072
 30
0.0
 40
2.0
 41
0.0
 71
     2
 72
     1
  1
Masseinheit:
  7
SLDTEXTSTYLE0
 73
     1
 44
1.0
  0
MTEXT
  5
201
330
1F
100
AcDbEntity
  8
0
  6
Continuous
 62
     7
370
    18
100
AcDbMText
 10
337.6114490186
 20
43.5452078816
 30
0.0
 40
2.0
 41
0.0
 71
     2
 72
     1
  1
Blatt / Anz.:
  7
SLDTEXTSTYLE0
 73
     1
 44
1.0
  0
MTEXT
  5
202
330
1F
100
AcDbEntity
  8
0
  6
Continuous
 62
     7
370
    18
100
AcDbMText
 10
329.2895578243
 20
28.4139191092
 30
0.0
 40
5.0
 41
0.0
 71
     1
 72
     1
  1
CH
  7
SLDTEXTSTYLE0
 73
     1
 44
1.0
  0
MTEXT
  5
203
330
1F
100
AcDbEntity
  8
0
  6
Continuous
 62
     7
370
    18
100
AcDbMText
 10
330.40704
 20
33.692638072
 30
0.0
 40
2.0
 41
0.0
 71
     1
 72
     1
  1
Zeichnung Nr.:
  7
SLDTEXTSTYLE0
 73
     1
 44
1.0
  0
MTEXT
  5
204
330
1F
100
AcDbEntity
  8
0
  6
Continuous
 62
     7
370
    18
100
AcDbMText
 10
269.897953
 20
75.161075072
 30
0.0
 40
2.0
 41
0.0
 71
     1
 72
     1
  1
Gewicht:
  7
SLDTEXTSTYLE0
 73
     1
 44
1.0
  0
MTEXT
  5
205
330
1F
100
AcDbEntity
  8
0
  6
Continuous
 62
     7
370
    18
100
AcDbMText
 10
230.0
 20
64.542328072
 30
0.0
 40
2.0
 41
0.0
 71
     1
 72
     1
  1
zul. Abweichung:
  7
SLDTEXTSTYLE0
 73
     1
 44
1.0
  0
MTEXT
  5
206
330
1F
100
AcDbEntity
  8
0
  6
Continuous
 62
     7
370
    18
100
AcDbMText
 10
269.612607
 20
64.542328072
 30
0.0
 40
2.0
 41
0.0
 71
     1
 72
     1
  1
Oberfläche:
  7
SLDTEXTSTYLE0
 73
     1
 44
1.0
  0
MTEXT
  5
207
330
1F
100
AcDbEntity
  8
0
  6
Continuous
 62
     7
370
    18
100
AcDbMText
 10
230.261411
 20
43.4433838912
 30
0.0
 40
2.0
 41
0.0
 71
     1
 72
     1
  1
Freigegeben:
  7
SLDTEXTSTYLE0
 73
     1
 44
1.0
  0
MTEXT
  5
208
330
1F
100
AcDbEntity
  8
0
  6
Continuous
 62
     7
370
    18
100
AcDbMText
 10
230.0
 20
75.161075072
 30
0.0
 40
2.0
 41
0.0
 71
     1
 72
     1
  1
Werkstoff:
  7
SLDTEXTSTYLE0
 73
     1
 44
1.0
  0
MTEXT
  5
209
330
1F
100
AcDbEntity
  8
0
  6
Continuous
 62
     7
370
    18
100
AcDbMText
 10
254.035545
 20
53.129475072
 30
0.0
 40
2.0
 41
0.0
 71
     1
 72
     1
  1
Datum:
  7
SLDTEXTSTYLE0
 73
     1
 44
1.0
  0
MTEXT
  5
20A
330
1F
100
AcDbEntity
  8
0
  6
Continuous
 62
     7
370
    18
100
AcDbMText
 10
279.934928
 20
53.136060072
 30
0.0
 40
2.0
 41
0.0
 71
     1
 72
     1
  1
Name:
  7
SLDTEXTSTYLE0
 73
     1
 44
1.0
  0
MTEXT
  5
20B
330
1F
100
AcDbEntity
  8
0
  6
Continuous
 62
     7
370
    18
100
AcDbMText
 10
312.162455406
 20
53.881591072
 30
0.0
 40
2.0
 41
0.0
 71
     2
 72
     1
  1
Massstab:
  7
SLDTEXTSTYLE0
 73
     1
 44
1.0
  0
MTEXT
  5
20C
330
1F
100
AcDbEntity
  8
0
  6
Continuous
 62
     7
370
    18
100
AcDbMText
 10
403.9552944035
 20
33.324874072
 30
0.0
 40
2.0
 41
0.0
 71
     2
 72
     1
  1
Index:
  7
SLDTEXTSTYLE0
 73
     1
 44
1.0
  0
MTEXT
  5
20D
330
1F
100
AcDbEntity
  8
0
  6
Continuous
 62
     7
370
    18
100
AcDbMText
 10
230.261411
 20
48.4499477886
 30
0.0
 40
2.0
 41
0.0
 71
     1
 72
     1
  1
Erstellt:
  7
SLDTEXTSTYLE0
 73
     1
 44
1.0
  0
MTEXT
  5
20E
330
1F
100
AcDbEntity
  8
0
  6
Continuous
 62
     7
370
    18
100
AcDbMText
 10
337.6348165843
 20
39.869706576
 30
0.0
 40
2.5
 41
0.0
 71
     2
 72
     1
  1
1 / 1
  7
SLDTEXTSTYLE2
 73
     1
 44
1.0
  0
MTEXT
  5
20F
330
1F
100
AcDbEntity
  8
0
  6
Continuous
 62
     7
370
    18
100
AcDbMText
 10
269.612607
 20
60.8119428599
 30
0.0
 40
3.0
 41
0.0
 71
     1
 72
     1
  1
DIN ISO 1302
  7
SLDTEXTSTYLE0
 73
     1
 44
1.0
  0
MTEXT
  5
210
330
1F
100
AcDbEntity
  8
0
  6
Continuous
 62
     7
370
    18
100
AcDbMText
 10
230.0
 20
60.8119428599
 30
0.0
 40
3.0
 41
0.0
 71
     1
 72
     1
  1
Norm
  7
SLDTEXTSTYLE0
 73
     1
 44
1.0
  0
MTEXT
  5
211
330
1F
100
AcDbEntity
  8
0
  6
Continuous
 62
     7
370
    18
100
AcDbMText
 10
269.612607
 20
71.2121947186
 30
0.0
 40
3.0
 41
0.0
 71
     1
 72
     1
  1
0.50 kg
  7
SLDTEXTSTYLE0
 73
     1
 44
1.0
  0
LINE
  5
212
330
1F
100
AcDbEntity
  8
0
  6
Continuous
 62
     7
370
    25
100
AcDbLine
 10
164.3983593857
 20
81.928626143
 30
0.0
 11
138.0514339413
 21
81.928626143
 31
0.0
  0
LINE
  5
213
330
1F
100
AcDbEntity
  8
0
  6
Continuous
 62
     7
370
    25
100
AcDbLine
 10
138.0514339413
 20
75.928626143
 30
0.0
 11
164.3983593857
 21
75.928626143
 31
0.0
  0
LINE
  5
214
330
1F
100
AcDbEntity
  8
0
  6
Continuous
 62
     7
370
    25
100
AcDbLine
 10
55.6483593857
 20
75.928626143
 30
0.0
 11
81.9952848302
 21
75.928626143
 31
0.0
  0
LINE
  5
215
330
1F
100
AcDbEntity
  8
0
  6
Continuous
 62
     7
370
    25
100
AcDbLine
 10
81.9952848302
 20
81.928626143
 30
0.0
 11
55.6483593857
 21
81.928626143
 31
0.0
  0
LINE
  5
216
330
1F
100
AcDbEntity
  8
0
  6
Continuous
 62
     7
370
    25
100
AcDbLine
 10
138.0514339413
 20
81.928626143
 30
0.0
 11
135.9723170331
 21
81.928626143
 31
0.0
  0
LINE
  5
217
330
1F
100
AcDbEntity
  8
0
  6
Continuous
 62
     7
370
    25
100
AcDbLine
 10
135.9723170331
 20
75.928626143
 30
0.0
 11
138.0514339413
 21
75.928626143
 31
0.0
  0
LINE
  5
218
330
1F
100
AcDbEntity
  8
0
  6
Continuous
 62
     7
370
    25
100
AcDbLine
 10
81.9952848302
 20
75.928626143
 30
0.0
 11
84.0744017384
 21
75.928626143
 31
0.0
  0
LINE
  5
219
330
1F
100
AcDbEntity
  8
0
  6
Continuous
 62
     7
370
    25
100
AcDbLine
 10
84.0744017384
 20
81.928626143
 30
0.0
 11
81.9952848302
 21
81.928626143
 31
0.0
  0
LINE
  5
21A
330
1F
100
AcDbEntity
  8
0
  6
Continuous
 62
     7
370
    25
100
AcDbLine
 10
84.0744017384
 20
75.928626143
 30
0.0
 11
135.9723170331
 21
75.928626143
 31
0.0
  0
LINE
  5
21B
330
1F
100
AcDbEntity
  8
0
  6
Continuous
 62
     7
370
    25
100
AcDbLine
 10
135.9723170331
 20
81.928626143
 30
0.0
 11
84.0744017384
 21
81.928626143
 31
0.0
  0
ARC
  5
21C
330
1F
100
AcDbEntity
  8
0
  6
Continuous
 62
     7
370
    25
100
AcDbCircle
 10
110.0233593857
 20
78.928626143
 30
0.0
 40
40.00000000000004
100
AcDbArc
 50
184.3012223047
 51
355.6987776953
  0
ARC
  5
21D
330
1F
100
AcDbEntity
  8
0
  6
Continuous
 62
     7
370
    25
100
AcDbCircle
 10
110.0233593857
 20
78.928626143
 30
0.0
 40
40.00000000000004
100
AcDbArc
 50
4.3012223047
 51
175.6987776953
  0
ARC
  5
21E
330
1F
100
AcDbEntity
  8
0
  6
Continuous
 62
     7
370
    25
100
AcDbCircle
 10
110.0233593857
 20
78.928626143
 30
0.0
 40
46.75000000000001
100
AcDbArc
 50
183.6792626262
 51
356.3207373738
  0
ARC
  5
21F
330
1F
100
AcDbEntity
  8
0
  6
Continuous
 62
     7
370
    25
100
AcDbCircle
 10
110.0233593857
 20
78.928626143
 30
0.0
 40
46.75000000000001
100
AcDbArc
 50
3.6792626262
 51
176.3207373738
  0
ARC
  5
220
330
1F
100
AcDbEntity
  8
0
  6
Continuous
 62
     7
370
    25
100
AcDbCircle
 10
110.0233593857
 20
78.928626143
 30
0.0
 40
49.4
100
AcDbArc
 50
183.4816430592
 51
356.5183569408
  0
ARC
  5
221
330
1F
100
AcDbEntity
  8
0
  6
Continuous
 62
     7
370
    25
100
AcDbCircle
 10
110.0233593857
 20
78.928626143
 30
0.0
 40
49.4
100
AcDbArc
 50
3.4816430592
 51
176.5183569408
  0
ARC
  5
222
330
1F
100
AcDbEntity
  8
0
  6
Continuous
 62
     7
370
    25
100
AcDbCircle
 10
110.0233593857
 20
78.928626143
 30
0.0
 40
49.99999999999998
100
AcDbArc
 50
183.4398127675
 51
356.5601872325
  0
ARC
  5
223
330
1F
100
AcDbEntity
  8
0
  6
Continuous
 62
     7
370
    25
100
AcDbCircle
 10
110.0233593857
 20
78.928626143
 30
0.0
 40
49.99999999999998
100
AcDbArc
 50
3.4398127675
 51
176.5601872325
  0
LWPOLYLINE
  5
224
330
1F
100
AcDbEntity
  8
0
  6
Continuous
 62
     7
370
    25
100
AcDbPolyline
 90
       37
 70
   128
 43
0.0
 10
164.3983593857
 20
81.928626143
 10
164.5066698444
 20
81.883049402
 10
164.6116893446
 20
81.7477040053
 10
164.710226922
 20
81.5267023543
 10
164.799288562
 20
81.2267594723
 10
164.876168172
 20
80.856988972
 10
164.9385298037
 20
80.428626143
 10
164.9844786306
 20
79.9546865729
 10
165.0126185209
 20
79.449570676
 10
165.0220944582
 20
78.928626143
 10
165.0126185209
 20
78.40768161
 10
164.9844786306
 20
77.902565713
 10
164.9385298037
 20
77.428626143
 10
164.876168172
 20
77.0002633139
 10
164.799288562
 20
76.6304928136
 10
164.710226922
 20
76.3305499316
 10
164.6116893446
 20
76.1095482806
 10
164.5066698444
 20
75.9742028839
 10
164.3983593857
 20
75.928626143
 10
164.2900489271
 20
75.9742028839
 10
164.1850294269
 20
76.1095482806
 10
164.0864918495
 20
76.3305499316
 10
163.9974302094
 20
76.6304928136
 10
163.9205505995
 20
77.0002633139
 10
163.8581889678
 20
77.428626143
 10
163.8122401408
 20
77.902565713
 10
163.7841002506
 20
78.40768161
 10
163.7746243133
 20
78.928626143
 10
163.7841002506
 20
79.449570676
 10
163.8122401408
 20
79.9546865729
 10
163.8581889678
 20
80.428626143
 10
163.9205505995
 20
80.856988972
 10
163.9974302094
 20
81.2267594723
 10
164.0864918495
 20
81.5267023543
 10
164.1850294269
 20
81.7477040053
 10
164.2900489271
 20
81.883049402
 10
164.3983593857
 20
81.928626143
  0
LWPOLYLINE
  5
225
330
1F
100
AcDbEntity
  8
0
  6
Continuous
 62
     7
370
    25
100
AcDbPolyline
 90
       37
 70
   128
 43
0.0
 10
55.6483593857
 20
81.928626143
 10
55.7566698444
 20
81.883049402
 10
55.8616893446
 20
81.7477040053
 10
55.960226922
 20
81.5267023543
 10
56.049288562
 20
81.2267594723
 10
56.126168172
 20
80.856988972
 10
56.1885298037
 20
80.428626143
 10
56.2344786306
 20
79.9546865729
 10
56.2626185209
 20
79.449570676
 10
56.2720944582
 20
78.928626143
 10
56.2626185209
 20
78.40768161
 10
56.2344786306
 20
77.902565713
 10
56.1885298037
 20
77.428626143
 10
56.126168172
 20
77.0002633139
 10
56.049288562
 20
76.6304928136
 10
55.960226922
 20
76.3305499316
 10
55.8616893446
 20
76.1095482806
 10
55.7566698444
 20
75.9742028839
 10
55.6483593857
 20
75.928626143
 10
55.5400489271
 20
75.9742028839
 10
55.4350294269
 20
76.1095482806
 10
55.3364918495
 20
76.3305499316
 10
55.2474302094
 20
76.6304928136
 10
55.1705505995
 20
77.0002633139
 10
55.1081889678
 20
77.428626143
 10
55.0622401408
 20
77.902565713
 10
55.0341002506
 20
78.40768161
 10
55.0246243133
 20
78.928626143
 10
55.0341002506
 20
79.449570676
 10
55.0622401408
 20
79.9546865729
 10
55.1081889678
 20
80.428626143
 10
55.1705505995
 20
80.856988972
 10
55.2474302094
 20
81.2267594723
 10
55.3364918495
 20
81.5267023543
 10
55.4350294269
 20
81.7477040053
 10
55.5400489271
 20
81.883049402
 10
55.6483593857
 20
81.928626143
  0
ARC
  5
226
330
1F
100
AcDbEntity
  8
0
  6
Continuous
 62
     7
370
    25
100
AcDbCircle
 10
110.0233593857
 20
78.928626143
 30
0.0
 40
25.00000000000001
100
AcDbArc
 50
270.0
 51
353.1078974207
  0
ARC
  5
227
330
1F
100
AcDbEntity
  8
0
  6
Continuous
 62
     7
370
    25
100
AcDbCircle
 10
110.0233593857
 20
78.928626143
 30
0.0
 40
25.00000000000001
100
AcDbArc
 50
6.8921025793
 51
173.1078974207
  0
ARC
  5
228
330
1F
100
AcDbEntity
  8
0
  6
Continuous
 62
     7
370
    25
100
AcDbCircle
 10
110.0233593857
 20
78.928626143
 30
0.0
 40
25.0
100
AcDbArc
 50
186.8921025793
 51
270.0
  0
ARC
  5
229
330
1F
100
AcDbEntity
  8
0
  6
Continuous
 62
     7
370
    25
100
AcDbCircle
 10
110.0233593857
 20
78.928626143
 30
0.0
 40
23.50000000000001
100
AcDbArc
 50
7.3343689242
 51
172.6656310758
  0
ARC
  5
22A
330
1F
100
AcDbEntity
  8
0
  6
Continuous
 62
     7
370
    25
100
AcDbCircle
 10
110.0233593857
 20
78.928626143
 30
0.0
 40
23.50000000000001
100
AcDbArc
 50
187.3343689242
 51
352.6656310758
  0
LINE
  5
22B
330
1F
100
AcDbEntity
  8
0
  6
Continuous
 62
     7
370
    25
100
AcDbLine
 10
87.0233593857
 20
83.7504515235
 30
0.0
 11
87.0233593857
 21
81.928626143
 31
0.0
  0
LINE
  5
22C
330
1F
100
AcDbEntity
  8
0
  6
Continuous
 62
     7
370
    25
100
AcDbLine
 10
87.0233593857
 20
75.928626143
 30
0.0
 11
87.0233593857
 21
74.1068007625
 31
0.0
  0
LINE
  5
22D
330
1F
100
AcDbEntity
  8
0
  6
Continuous
 62
     7
370
    25
100
AcDbLine
 10
133.0233593857
 20
74.1068007625
 30
0.0
 11
133.0233593857
 21
75.928626143
 31
0.0
  0
LINE
  5
22E
330
1F
100
AcDbEntity
  8
0
  6
Continuous
 62
     7
370
    25
100
AcDbLine
 10
133.0233593857
 20
81.928626143
 30
0.0
 11
133.0233593857
 21
83.7504515235
 31
0.0
  0
ARC
  5
22F
330
1F
100
AcDbEntity
  8
0
  6
Continuous
 62
     8
370
    18
100
AcDbCircle
 10
110.0233593857
 20
78.928626143
 30
0.0
 40
48.83132394483529
100
AcDbArc
 50
183.5222401669
 51
356.4777598331
  0
ARC
  5
230
330
1F
100
AcDbEntity
  8
0
  6
Continuous
 62
     8
370
    18
100
AcDbCircle
 10
110.0233593857
 20
78.928626143
 30
0.0
 40
48.83132394483529
100
AcDbArc
 50
3.5222401669
 51
176.4777598331
  0
ARC
  5
231
330
1F
100
AcDbEntity
  8
0
  6
Continuous
 62
     8
370
    18
100
AcDbCircle
 10
110.0233593857
 20
78.928626143
 30
0.0
 40
47.08829003795361
100
AcDbArc
 50
183.6527941969
 51
356.3472058031
  0
ARC
  5
232
330
1F
100
AcDbEntity
  8
0
  6
Continuous
 62
     8
370
    18
100
AcDbCircle
 10
110.0233593857
 20
78.928626143
 30
0.0
 40
47.08829003795361
100
AcDbArc
 50
3.6527941969
 51
176.3472058031
  0
LWPOLYLINE
  5
233
330
1F
100
AcDbEntity
  8
0
  6
Continuous
 62
     8
370
    18
100
AcDbPolyline
 90
       19
 70
   128
 43
0.0
 10
138.0514339413
 20
75.928626143
 10
137.9431234826
 20
75.9742028839
 10
137.8381039824
 20
76.1095482806
 10
137.739566405
 20
76.3305499316
 10
137.650504765
 20
76.6304928136
 10
137.573625155
 20
77.0002633139
 10
137.5112635233
 20
77.428626143
 10
137.4653146963
 20
77.902565713
 10
137.4371748061
 20
78.40768161
 10
137.4276988688
 20
78.928626143
 10
137.4371748061
 20
79.449570676
 10
137.4653146963
 20
79.9546865729
 10
137.5112635233
 20
80.428626143
 10
137.573625155
 20
80.856988972
 10
137.650504765
 20
81.2267594723
 10
137.739566405
 20
81.5267023543
 10
137.8381039824
 20
81.7477040053
 10
137.9431234826
 20
81.883049402
 10
138.0514339413
 20
81.928626143
  0
LWPOLYLINE
  5
234
330
1F
100
AcDbEntity
  8
0
  6
Continuous
 62
     8
370
    18
100
AcDbPolyline
 90
       19
 70
   128
 43
0.0
 10
81.9952848302
 20
81.928626143
 10
82.1035952889
 20
81.883049402
 10
82.2086147891
 20
81.7477040053
 10
82.3071523664
 20
81.5267023543
 10
82.3962140065
 20
81.2267594723
 10
82.4730936164
 20
80.856988972
 10
82.5354552482
 20
80.428626143
 10
82.5814040751
 20
79.9546865729
 10
82.6095439654
 20
79.449570676
 10
82.6190199027
 20
78.928626143
 10
82.6095439654
 20
78.40768161
 10
82.5814040751
 20
77.902565713
 10
82.5354552482
 20
77.428626143
 10
82.4730936164
 20
77.0002633139
 10
82.3962140065
 20
76.6304928136
 10
82.3071523664
 20
76.3305499316
 10
82.2086147891
 20
76.1095482806
 10
82.1035952889
 20
75.9742028839
 10
81.9952848302
 20
75.928626143
  0
LINE
  5
235
330
1F
100
AcDbEntity
  8
0
  6
Continuous
 62
     8
370
    18
100
AcDbLine
 10
135.9723170331
 20
75.928626143
 30
0.0
 11
135.9723170331
 21
81.928626143
 31
0.0
  0
LINE
  5
236
330
1F
100
AcDbEntity
  8
0
  6
Continuous
 62
     8
370
    18
100
AcDbLine
 10
84.0744017384
 20
81.928626143
 30
0.0
 11
84.0744017384
 21
75.928626143
 31
0.0
  0
LINE
  5
237
330
1F
100
AcDbEntity
  8
0
  6
CENTER
 62
     7
370
    18
100
AcDbLine
 10
169.5891242109
 20
78.928626143
 30
0.0
 11
50.4965715868
 21
78.928626143
 31
0.0
  0
LINE
  5
238
330
1F
100
AcDbEntity
  8
0
  6
Continuous
 62
     7
370
    18
100
AcDbLine
 10
167.5891242109
 20
72.428626143
 30
0.0
 11
167.5891242109
 21
78.928626143
 31
0.0
  0
SOLID
  5
239
330
1F
100
AcDbEntity
  8
0
  6
Continuous
 62
     7
370
    18
100
AcDbTrace
 10
167.5891242109
 20
78.928626143
 30
0.0
 11
166.7891242109
 21
74.928626143
 31
0.0
 12
168.3891242109
 22
74.928626143
 32
0.0
 13
168.3891242109
 23
74.928626143
 33
0.0
  0
LINE
  5
23A
330
1F
100
AcDbEntity
  8
0
  6
Continuous
 62
     7
370
    18
100
AcDbLine
 10
52.4965715868
 20
72.428626143
 30
0.0
 11
52.4965715868
 21
78.928626143
 31
0.0
  0
SOLID
  5
23B
330
1F
100
AcDbEntity
  8
0
  6
Continuous
 62
     7
370
    18
100
AcDbTrace
 10
52.4965715868
 20
78.928626143
 30
0.0
 11
51.6965715868
 21
74.928626143
 31
0.0
 12
53.2965715868
 22
74.928626143
 32
0.0
 13
53.2965715868
 23
74.928626143
 33
0.0
  0
MTEXT
  5
23C
330
1F
100
AcDbEntity
  8
0
  6
Continuous
 62
     7
100
AcDbMText
 10
165.7390265503
 20
72.163975
 30
0.0
 40
4.1093098958
 41
0.0
 71
     1
 72
     1
  1
A
  7
SLDTEXTSTYLE0
 73
     1
 44
1.0
  0
MTEXT
  5
23D
330
1F
100
AcDbEntity
  8
0
  6
Continuous
 62
     7
100
AcDbMText
 10
50.6942288951
 20
71.8672226888
 30
0.0
 40
4.1093098958
 41
0.0
 71
     1
 72
     1
  1
A
  7
SLDTEXTSTYLE0
 73
     1
 44
1.0
  0
LINE
  5
23E
330
1F
100
AcDbEntity
  8
0
  6
CENTER
 62
     7
370
    18
100
AcDbLine
 10
110.0233593857
 20
133.8403191353
 30
0.0
 11
110.0233593857
 21
23.5624213407
 31
0.0
  0
LINE
  5
23F
330
1F
100
AcDbEntity
  8
0
  6
Continuous
 62
     7
370
    18
100
AcDbLine
 10
103.5233593857
 20
131.8403191353
 30
0.0
 11
110.0233593857
 21
131.8403191353
 31
0.0
  0
SOLID
  5
240
330
1F
100
AcDbEntity
  8
0
  6
Continuous
 62
     7
370
    18
100
AcDbTrace
 10
110.0233593857
 20
131.8403191353
 30
0.0
 11
106.0233593857
 21
132.6403191353
 31
0.0
 12
106.0233593857
 22
131.0403191353
 32
0.0
 13
106.0233593857
 23
131.0403191353
 33
0.0
  0
LINE
  5
241
330
1F
100
AcDbEntity
  8
0
  6
Continuous
 62
     7
370
    18
100
AcDbLine
 10
103.5233593857
 20
25.5624213407
 30
0.0
 11
110.0233593857
 21
25.5624213407
 31
0.0
  0
SOLID
  5
242
330
1F
100
AcDbEntity
  8
0
  6
Continuous
 62
     7
370
    18
100
AcDbTrace
 10
110.0233593857
 20
25.5624213407
 30
0.0
 11
106.0233593857
 21
26.3624213407
 31
0.0
 12
106.0233593857
 22
24.7624213407
 32
0.0
 13
106.0233593857
 23
24.7624213407
 33
0.0
  0
MTEXT
  5
243
330
1F
100
AcDbEntity
  8
0
  6
Continuous
 62
     7
100
AcDbMText
 10
99.3136754527
 20
134.3460181712
 30
0.0
 40
4.1093098958
 41
0.0
 71
     1
 72
     1
  1
B
  7
SLDTEXTSTYLE0
 73
     1
 44
1.0
  0
MTEXT
  5
244
330
1F
100
AcDbEntity
  8
0
  6
Continuous
 62
     7
100
AcDbMText
 10
99.3880490275
 20
27.8575997704
 30
0.0
 40
4.1093098958
 41
0.0
 71
     1
 72
     1
  1
B
  7
SLDTEXTSTYLE0
 73
     1
 44
1.0
  0
LINE
  5
245
330
1F
100
AcDbEntity
  8
0
  6
Continuous
 62
     7
370
    25
100
AcDbLine
 10
304.7512001894
 20
176.5905105948
 30
0.0
 11
304.7512001894
 21
175.4621790088
 31
0.0
  0
LINE
  5
246
330
1F
100
AcDbEntity
  8
0
  6
Continuous
 62
     7
370
    25
100
AcDbLine
 10
404.7512001894
 20
175.4621790088
 30
0.0
 11
404.7512001894
 21
176.5905105948
 31
0.0
  0
SPLINE
  5
247
330
1F
100
AcDbEntity
  8
0
  6
Continuous
 62
     7
370
    25
100
AcDbSpline
210
0.0
220
0.0
230
1.0
 70
     8
 71
     3
 72
    27
 73
    23
 74
     0
 42
0.00000001
 43
0.00000001
 40
0.0
 40
0.0
 40
0.0
 40
0.0
 40
0.0210207582252684
 40
0.0743057685957101
 40
0.1276096814051595
 40
0.180932578520134
 40
0.234273683781088
 40
0.2876310561045662
 40
0.3410012072078949
 40
0.3943786438649486
 40
0.4477522402574545
 40
0.5011096347810474
 40
0.5544350016707172
 40
0.6077087095027177
 40
0.660907636762453
 40
0.7140062142358836
 40
0.7669784090598926
 40
0.8198007170219657
 40
0.8724559501844676
 40
0.9249372462658575
 40
0.9772514176709144
 40
1.0
 40
1.0
 40
1.0
 40
1.0
 10
379.9728201750032
 20
150.0858836524519
 30
0.0
 10
380.2618144418136
 20
150.1819405779494
 30
0.0
 10
381.2833732688061
 20
150.5214898749608
 30
0.0
 10
382.9695478337099
 20
151.171985031486
 30
0.0
 10
385.0257247940024
 20
152.0341417271004
 30
0.0
 10
387.0015256935971
 20
152.9609585501323
 30
0.0
 10
388.8969792832368
 20
153.9451495635129
 30
0.0
 10
390.7057998287779
 20
154.9858655778209
 30
0.0
 10
392.4236051341389
 20
156.0803533143884
 30
0.0
 10
394.0456860393202
 20
157.2261602359568
 30
0.0
 10
395.5676295912797
 20
158.4205310700488
 30
0.0
 10
396.9851751289087
 20
159.6605499158613
 30
0.0
 10
398.2943012890753
 20
160.9431002571249
 30
0.0
 10
399.4912175668692
 20
162.2648421533136
 30
0.0
 10
400.5724300840356
 20
163.6221908145325
 30
0.0
 10
401.5347161631015
 20
165.0113195559005
 30
0.0
 10
402.3754905208505
 20
166.4281583247182
 30
0.0
 10
403.0917533267651
 20
167.8685106850456
 30
0.0
 10
403.6842926590197
 20
169.3278640148116
 30
0.0
 10
404.1422823452187
 20
170.8024711576182
 30
0.0
 10
404.4333907999276
 20
172.0077730442131
 30
0.0
 10
404.5250688209036
 20
172.7229931799835
 30
0.0
 10
404.5528528403299
 20
172.9397484058791
 30
0.0
  0
SPLINE
  5
248
330
1F
100
AcDbEntity
  8
0
  6
Continuous
 62
     7
370
    25
100
AcDbSpline
210
0.0
220
0.0
230
1.0
 70
     8
 71
     3
 72
    10
 73
     6
 74
     0
 42
0.00000001
 43
0.00000001
 40
0.0
 40
0.0
 40
0.0
 40
0.0
 40
0.2549381991886807
 40
0.8353935143311649
 40
1.0
 40
1.0
 40
1.0
 40
1.0
 10
329.3244163126859
 20
150.1566408519331
 30
0.0
 10
329.6413307412603
 20
150.0451016122346
 30
0.0
 10
330.6798108869252
 20
149.6796045712493
 30
0.0
 10
331.9630103123933
 20
149.2812056718633
 30
0.0
 10
332.9450597483613
 20
149.0172500129933
 30
0.0
 10
333.1620239065448
 20
148.9589342956506
 30
0.0
  0
SPLINE
  5
249
330
1F
100
AcDbEntity
  8
0
  6
Continuous
 62
     7
370
    25
100
AcDbSpline
210
0.0
220
0.0
230
1.0
 70
     8
 71
     3
 72
    27
 73
    23
 74
     0
 42
0.00000001
 43
0.00000001
 40
0.0
 40
0.0
 40
0.0
 40
0.0
 40
0.0129826962835215
 40
0.065246593732993
 40
0.1175975193432509
 40
0.1700761479897623
 40
0.2227092832331775
 40
0.2755087254509972
 40
0.3284724256454138
 40
0.3815873312964394
 40
0.4348330751226661
 40
0.4881856720695397
 40
0.5416206165247097
 40
0.595115084854667
 40
0.6486492256792209
 40
0.7022066949753107
 40
0.7557746599429587
 40
0.8093414828566149
 40
0.8629005002716496
 40
0.9164476961813478
 40
0.9699806756930285
 40
1.0
 40
1.0
 40
1.0
 40
1.0
 10
304.9437071120255
 20
172.9532971010752
 30
0.0
 10
304.9578922610871
 20
172.8300750110235
 30
0.0
 10
305.0291819714557
 20
172.2108029066042
 30
0.0
 10
305.2835137525086
 20
171.1029885630514
 30
0.0
 10
305.7104660927451
 20
169.6348657633035
 30
0.0
 10
306.2727584025685
 20
168.1822728388147
 30
0.0
 10
306.9563758318706
 20
166.7478460682326
 30
0.0
 10
307.7635098846474
 20
165.3353497971557
 30
0.0
 10
308.6915212519137
 20
163.9484197699086
 30
0.0
 10
309.7385159234569
 20
162.5908380999739
 30
0.0
 10
310.9018099144307
 20
161.2663678170972
 30
0.0
 10
312.1783560004708
 20
159.9787016508538
 30
0.0
 10
313.5646765348094
 20
158.7313935543778
 30
0.0
 10
315.056949601541
 20
157.5278217135587
 30
0.0
 10
316.651046102904
 20
156.3711584966122
 30
0.0
 10
318.3426100549418
 20
155.2643973462195
 30
0.0
 10
320.1269507969649
 20
154.210250782759
 30
0.0
 10
321.9995382192941
 20
153.2115893269047
 30
0.0
 10
323.9543488057129
 20
152.2697810959801
 30
0.0
 10
325.9901657994853
 20
151.3909189816393
 30
0.0
 10
327.7803704126484
 20
150.6838115101918
 30
0.0
 10
328.9162931274939
 20
150.2959829324912
 30
0.0
 10
329.3244163126859
 20
150.1566408519331
 30
0.0
  0
LINE
  5
24A
330
1F
100
AcDbEntity
  8
0
  6
Continuous
 62
     7
370
    25
100
AcDbLine
 10
308.0012001894
 20
177.4070514067
 30
0.0
 11
308.0012001894
 21
175.1498595355
 31
0.0
  0
LINE
  5
24B
330
1F
100
AcDbEntity
  8
0
  6
Continuous
 62
     7
370
    25
100
AcDbLine
 10
401.5012001894
 20
175.1498595355
 30
0.0
 11
401.5012001894
 21
177.4070514067
 31
0.0
  0
LINE
  5
24C
330
1F
100
AcDbEntity
  8
0
  6
Continuous
 62
     7
370
    25
100
AcDbLine
 10
394.1449748461
 20
162.7278640748
 30
0.0
 11
375.5148852009
 21
168.9099843443
 31
0.0
  0
LINE
  5
24D
330
1F
100
AcDbEntity
  8
0
  6
Continuous
 62
     7
370
    25
100
AcDbLine
 10
373.6251983415
 20
163.2153303975
 30
0.0
 11
392.2552879867
 21
157.033210128
 31
0.0
  0
SPLINE
  5
24E
330
1F
100
AcDbEntity
  8
0
  6
Continuous
 62
     7
370
    25
100
AcDbSpline
210
0.0
220
0.0
230
1.0
 70
     8
 71
     3
 72
    10
 73
     6
 74
     0
 42
0.00000001
 43
0.00000001
 40
0.0
 40
0.0
 40
0.0
 40
0.0
 40
0.2802813530440147
 40
0.7926142709484094
 40
1.0
 40
1.0
 40
1.0
 40
1.0
 10
371.6000060075824
 20
164.1347809800106
 30
0.0
 10
371.7857284504732
 20
164.0314976258553
 30
0.0
 10
372.3109373417248
 20
163.7394201845064
 30
0.0
 10
372.9886332616687
 20
163.4369917828433
 30
0.0
 10
373.4828038963904
 20
163.2649142514961
 30
0.0
 10
373.625198341485
 20
163.2153303975238
 30
0.0
  0
SPLINE
  5
24F
330
1F
100
AcDbEntity
  8
0
  6
Continuous
 62
     7
370
    25
100
AcDbSpline
210
0.0
220
0.0
230
1.0
 70
     8
 71
     3
 72
    10
 73
     6
 74
     0
 42
0.00000001
 43
0.00000001
 40
0.0
 40
0.0
 40
0.0
 40
0.0
 40
0.2822843120859187
 40
0.8183628640795875
 40
1.0
 40
1.0
 40
1.0
 40
1.0
 10
375.5148852008919
 20
168.9099843442869
 30
0.0
 10
375.4371457561382
 20
168.9374637461571
 30
0.0
 10
375.2117734207415
 20
169.0171285417369
 30
0.0
 10
374.8981990222852
 20
169.1629314962706
 30
0.0
 10
374.6600357791306
 20
169.2971153452265
 30
0.0
 10
374.5997622054905
 20
169.3310741542947
 30
0.0
  0
LINE
  5
250
330
1F
100
AcDbEntity
  8
0
  6
Continuous
 62
     7
370
    25
100
AcDbLine
 10
334.9026381733
 20
185.3197204966
 30
0.0
 11
371.6000060076
 21
164.13478098
 31
0.0
  0
LINE
  5
251
330
1F
100
AcDbEntity
  8
0
  6
Continuous
 62
     7
370
    25
100
AcDbLine
 10
374.5997622055
 20
169.3310741543
 30
0.0
 11
337.9023943712
 21
190.5160136709
 31
0.0
  0
LINE
  5
252
330
1F
100
AcDbEntity
  8
0
  6
Continuous
 62
     7
370
    25
100
AcDbLine
 10
314.3962369114
 20
201.9560404987
 30
0.0
 11
333.0263265566
 21
186.6283171137
 31
0.0
  0
LINE
  5
253
330
1F
100
AcDbEntity
  8
0
  6
Continuous
 62
     7
370
    25
100
AcDbLine
 10
336.8383906585
 20
191.2616924799
 30
0.0
 11
318.2083010133
 21
206.5894158648
 31
0.0
  0
SPLINE
  5
254
330
1F
100
AcDbEntity
  8
0
  6
Continuous
 62
     7
370
    25
100
AcDbSpline
210
0.0
220
0.0
230
1.0
 70
     8
 71
     3
 72
    10
 73
     6
 74
     0
 42
0.00000001
 43
0.00000001
 40
0.0
 40
0.0
 40
0.0
 40
0.0
 40
0.2819069445729462
 40
0.8201244629849602
 40
1.0
 40
1.0
 40
1.0
 40
1.0
 10
337.9023943711729
 20
190.5160136709296
 30
0.0
 10
337.805852729974
 20
190.5737709049067
 30
0.0
 10
337.5249935203372
 20
190.7417984097657
 30
0.0
 10
337.1647649129503
 20
190.9978682298305
 30
0.0
 10
336.9037679387004
 20
191.2088448312388
 30
0.0
 10
336.8383906584889
 20
191.2616924798676
 30
0.0
  0
SPLINE
  5
255
330
1F
100
AcDbEntity
  8
0
  6
Continuous
 62
     7
370
    25
100
AcDbSpline
210
0.0
220
0.0
230
1.0
 70
     8
 71
     3
 72
    10
 73
     6
 74
     0
 42
0.00000001
 43
0.00000001
 40
0.0
 40
0.0
 40
0.0
 40
0.0
 40
0.2812139197401081
 40
0.803251692790896
 40
1.0
 40
1.0
 40
1.0
 40
1.0
 10
333.0263265566445
 20
186.628317113741
 30
0.0
 10
333.1974954347309
 20
186.4912586642365
 30
0.0
 10
333.6864175023267
 20
186.0997686850865
 30
0.0
 10
334.3152429423233
 20
185.6676504093515
 30
0.0
 10
334.7764069590883
 20
185.394490622475
 30
0.0
 10
334.9026381732647
 20
185.3197204966455
 30
0.0
  0
LINE
  5
256
330
1F
100
AcDbEntity
  8
0
  6
Continuous
 62
     7
370
    25
100
AcDbLine
 10
392.2512001894
 20
108.7359691271
 30
0.0
 11
392.2512001894
 21
155.2787954046
 31
0.0
  0
LINE
  5
257
330
1F
100
AcDbEntity
  8
0
  6
Continuous
 62
     7
370
    25
100
AcDbLine
 10
317.2512001894
 20
155.2787954046
 30
0.0
 11
317.2512001894
 21
108.7359691271
 31
0.0
  0
LINE
  5
258
330
1F
100
AcDbEntity
  8
0
  6
Continuous
 62
     7
370
    25
100
AcDbLine
 10
317.2512001894
 20
108.7359691271
 30
0.0
 11
317.2512001894
 21
107.1028875033
 31
0.0
  0
LINE
  5
259
330
1F
100
AcDbEntity
  8
0
  6
Continuous
 62
     7
370
    25
100
AcDbLine
 10
392.2512001894
 20
107.1028875033
 30
0.0
 11
392.2512001894
 21
108.7359691271
 31
0.0
  0
LINE
  5
25A
330
1F
100
AcDbEntity
  8
0
  6
Continuous
 62
     7
370
    25
100
AcDbLine
 10
379.7512001894
 20
140.7287398934
 30
0.0
 11
379.7512001894
 21
149.2943880415
 31
0.0
  0
LINE
  5
25B
330
1F
100
AcDbEntity
  8
0
  6
Continuous
 62
     7
370
    25
100
AcDbLine
 10
329.7512001894
 20
149.2943880415
 30
0.0
 11
329.7512001894
 21
140.7287398934
 31
0.0
  0
LWPOLYLINE
  5
25C
330
1F
100
AcDbEntity
  8
0
  6
Continuous
 62
     7
370
    25
100
AcDbPolyline
 90
       61
 70
   128
 43
0.0
 10
319.3958611301
 20
197.0007133903
 10
317.5642823679
 20
195.8855105399
 10
315.8381139646
 20
194.7156139158
 10
314.2222489319
 20
193.4943397172
 10
312.721267615
 20
192.2251497783
 10
311.3394247083
 20
190.911641756
 10
310.0806371957
 20
189.5575389315
 10
308.9484732472
 20
188.1666796564
 10
307.9461421046
 20
186.7430064723
 10
307.0764849843
 20
185.2905549356
 10
306.3419670239
 20
183.8134421781
 10
305.7446702945
 20
182.3158552362
 10
305.2862878984
 20
180.8020391829
 10
304.9681191704
 20
179.2762850942
 10
304.7910659943
 20
177.7429178859
 10
304.7556302466
 20
176.206284054
 10
304.8619123737
 20
174.6707393539
 10
305.1096111074
 20
173.140636454
 10
305.4980243188
 20
171.6203125971
 10
306.0260510083
 20
170.1140773065
 10
306.6921944271
 20
168.6262001697
 10
307.4945663191
 20
167.160898736
 10
308.430892274
 20
165.7223265617
 10
309.4985181743
 20
164.3145614358
 10
310.6944177183
 20
162.9415938215
 10
312.0152009989
 20
161.6073155447
 10
313.4571241122
 20
160.3155087622
 10
315.0160997707
 20
159.0698352406
 10
316.6877088883
 20
157.8738259768
 10
318.4672131076
 20
156.7308711891
 10
320.3495682303
 20
155.644210707
 10
322.3294385164
 20
154.6169247876
 10
324.4012118086
 20
153.6519253846
 10
326.5590154402
 20
152.7519478935
 10
328.7967328824
 20
151.9195433984
 10
331.1080210821
 20
151.1570714402
 10
333.4863284417
 20
150.4666933286
 10
335.9249133907
 20
149.8503660152
 10
338.416863495
 20
149.3098365469
 10
340.9551150513
 20
148.8466371131
 10
343.5324731098
 20
148.462080703
 10
346.1416318691
 20
148.1572573835
 10
348.7751953852
 20
147.9330312094
 10
351.4256985362
 20
147.7900377741
 10
354.085628183
 20
147.7286824081
 10
356.7474444659
 20
147.7491390298
 10
359.4036021775
 20
147.8513496528
 10
362.0465721503
 20
148.0350245498
 10
364.6688625985
 20
148.2996430745
 10
367.2630403552
 20
148.6444551369
 10
369.8217519415
 20
149.0684833297
 10
372.3377444116
 20
149.570525699
 10
374.8038859113
 20
150.1491591511
 10
377.2131858947
 20
150.8027434866
 10
379.5588149392
 20
151.5294260497
 10
381.8341241044
 20
152.3271469798
 10
384.0326637794
 20
153.1936450501
 10
386.1482019644
 20
154.1264640779
 10
388.1747419368
 20
155.1229598861
 10
390.1065392487
 20
156.1803077992
 10
391.7763775271
 20
157.1921294953
  0
LWPOLYLINE
  5
25D
330
1F
100
AcDbEntity
  8
0
  6
Continuous
 62
     7
370
    25
100
AcDbPolyline
 90
       55
 70
   128
 43
0.0
 10
395.272354722
 20
159.6804533759
 10
395.2801514468
 20
159.6866814724
 10
396.7811327638
 20
160.9558714113
 10
398.1629756705
 20
162.2693794335
 10
399.4217631831
 20
163.623482258
 10
400.5539271315
 20
165.0143415332
 10
401.5562582742
 20
166.4380147172
 10
402.4259153945
 20
167.8904662539
 10
403.1604333548
 20
169.3675790115
 10
403.7577300843
 20
170.8651659534
 10
404.2161124803
 20
172.3789820067
 10
404.5342812083
 20
173.9047360953
 10
404.7113343844
 20
175.4381033036
 10
404.7467701322
 20
176.9747371356
 10
404.6404880051
 20
178.5102818356
 10
404.3927892713
 20
180.0403847356
 10
404.00437606
 20
181.5607085924
 10
403.4763493704
 20
183.0669438831
 10
402.8102059517
 20
184.5548210199
 10
402.0078340597
 20
186.0201224535
 10
401.0715081047
 20
187.4586946279
 10
400.0038822044
 20
188.8664597538
 10
398.8079826604
 20
190.239427368
 10
397.4871993799
 20
191.5737056448
 10
396.0452762665
 20
192.8655124273
 10
394.4863006081
 20
194.111185949
 10
392.8146914904
 20
195.3071952127
 10
391.0351872712
 20
196.4501500004
 10
389.1528321484
 20
197.5368104826
 10
387.1729618623
 20
198.5640964019
 10
385.1011885702
 20
199.529095805
 10
382.9433849386
 20
200.429073296
 10
380.7056674963
 20
201.2614777912
 10
378.3943792966
 20
202.0239497493
 10
376.016071937
 20
202.714327861
 10
373.5774869881
 20
203.3306551743
 10
371.0855368838
 20
203.8711846426
 10
368.5472853275
 20
204.3343840764
 10
365.969927269
 20
204.7189404865
 10
363.3607685096
 20
205.023763806
 10
360.7272049935
 20
205.2479899802
 10
358.0767018425
 20
205.3909834155
 10
355.4167721958
 20
205.4523387815
 10
352.7549559129
 20
205.4318821597
 10
350.0987982012
 20
205.3296715368
 10
347.4558282285
 20
205.1459966397
 10
344.8335377802
 20
204.881378115
 10
342.2393600236
 20
204.5365660527
 10
339.6806484372
 20
204.1125378598
 10
337.1646559672
 20
203.6104954906
 10
334.6985144674
 20
203.0318620385
 10
332.289214484
 20
202.378277703
 10
329.9435854395
 20
201.6515951398
 10
327.6682762743
 20
200.8538742098
 10
325.9783130009
 20
200.1967147715
  0
LINE
  5
25E
330
1F
100
AcDbEntity
  8
0
  6
Continuous
 62
     7
370
    25
100
AcDbLine
 10
320.0014371052
 20
197.3444170592
 30
0.0
 11
319.3958611301
 21
197.0007133903
 31
0.0
  0
ARC
  5
25F
330
1F
100
AcDbEntity
  8
0
  6
Continuous
 62
     7
370
    25
100
AcDbCircle
 10
321.518544891
 20
175.4655471397
 30
0.0
 40
16.76734503992673
100
AcDbArc
 50
180.0115092572
 51
188.2267462536
  0
LWPOLYLINE
  5
260
330
1F
100
AcDbEntity
  8
0
  6
Continuous
 62
     7
370
    25
100
AcDbPolyline
 90
        3
 70
   128
 43
0.0
 10
404.5768009692
 20
173.0534632775
 10
404.7113343844
 20
174.3097717176
 10
404.7512001894
 20
175.4621790088
  0
LWPOLYLINE
  5
261
330
1F
100
AcDbEntity
  8
0
  6
Continuous
 62
     7
370
    25
100
AcDbPolyline
 90
       61
 70
   128
 43
0.0
 10
319.8201251988
 20
196.7557909568
 10
317.9955004873
 20
195.6443158082
 10
316.2768519731
 20
194.4779036067
 10
314.6691349647
 20
193.2599174205
 10
313.1769849264
 20
191.9938690193
 10
311.8047041132
 20
190.6834087482
 10
310.5562491658
 20
189.3323150035
 10
309.435219703
 20
187.9444833382
 10
308.444847943
 20
186.5239152303
 10
307.5879893839
 20
185.0747065453
 10
306.8671145707
 20
183.6010357271
 10
306.2843019723
 20
182.1071517501
 10
305.8412319881
 20
180.5973618685
 10
305.5391821036
 20
179.0760191975
 10
305.3790232069
 20
177.5475101617
 10
305.3612170775
 20
176.0162418484
 10
305.4858150551
 20
174.4866293006
 10
305.7524578914
 20
172.9630827872
 10
306.1603767862
 20
171.4499950872
 10
306.7083956036
 20
169.9517288242
 10
307.3949342636
 20
168.4726038876
 10
308.2180132974
 20
167.0168849775
 10
309.1752595552
 20
165.5887693084
 10
310.2639130481
 20
164.1923745075
 10
311.4808349064
 20
162.8317267424
 10
312.8225164292
 20
161.510749113
 10
314.2850892015
 20
160.2332503396
 10
315.8643362473
 20
159.002913782
 10
317.5557041885
 20
157.8232868189
 10
319.3543163736
 20
156.6977706203
 10
321.254986938
 20
155.6296103406
 10
323.2522357564
 20
154.6218857627
 10
325.3403042434
 20
153.6775024171
 10
327.5131719571
 20
152.7991832057
 10
329.7645739574
 20
151.98946055
 10
332.0880188694
 20
151.2506690901
 10
334.4768076
 20
150.584938953
 10
336.9240526529
 20
149.9941896111
 10
339.4226979871
 20
149.4801243476
 10
341.9655393613
 20
149.0442253458
 10
344.5452451055
 20
148.6877494153
 10
347.1543772602
 20
148.4117243686
 10
349.7854130221
 20
148.2169460572
 10
352.4307664338
 20
148.1039760774
 10
355.0828102568
 20
148.0731401511
 10
357.733897962
 20
148.1245271861
 10
360.3763857775
 20
148.2579890203
 10
363.0026547267
 20
148.4731408486
 10
365.6051325964
 20
148.7693623328
 10
368.1763157693
 20
149.1457993895
 10
370.7087908585
 20
149.6013666532
 10
373.1952560828
 20
150.1347506057
 10
375.6285423194
 20
150.7444133629
 10
378.001633774
 20
151.4285971092
 10
380.3076882098
 20
152.1853291658
 10
382.5400566747
 20
153.0124276783
 10
384.6923026726
 20
153.9075079075
 10
386.7582207212
 20
154.8679891054
 10
388.7318542438
 20
155.8911019562
 10
390.6075127442
 20
156.9738965605
 10
391.243746767
 20
157.3688751515
  0
LWPOLYLINE
  5
262
330
1F
100
AcDbEntity
  8
0
  6
Continuous
 62
     7
370
    25
100
AcDbPolyline
 90
       54
 70
   128
 43
0.0
 10
395.3622208092
 20
160.353376429
 10
395.5940631551
 20
160.5483452129
 10
397.0267950411
 20
161.8370640965
 10
398.3376354431
 20
163.1683209857
 10
399.522804869
 20
164.5382775221
 10
400.5788861685
 20
165.9429837665
 10
401.5028343858
 20
167.378389587
 10
402.2919855391
 20
168.8403563372
 10
402.9440643012
 20
170.3246687884
 10
403.4571905604
 20
171.8270472835
 10
403.8298848407
 20
173.3431600765
 10
404.061072568
 20
174.8686358218
 10
404.1500871684
 20
176.3990761777
 10
404.0966719896
 20
177.9300684886
 10
403.9009810415
 20
179.4571985073
 10
403.5635785517
 20
180.9760631227
 10
403.0854373389
 20
182.4822830548
 10
402.4679360081
 20
183.9715154817
 10
401.7128549753
 20
185.4394665608
 10
400.8223713348
 20
186.8819038091
 10
399.7990525814
 20
188.2946683066
 10
398.6458492079
 20
189.6736866876
 10
397.3660861982
 20
191.014982885
 10
395.9634534403
 20
192.3146895947
 10
394.4419950876
 20
193.5690594258
 10
392.8060978985
 20
194.7744757054
 10
391.0604785878
 20
195.9274629062
 10
389.2101702281
 20
197.0246966677
 10
387.2605077374
 20
198.063013381
 10
385.2171124972
 20
199.0394193101
 10
383.0858761451
 20
199.951099224
 10
380.8729435872
 20
200.7954245134
 10
378.5846952809
 20
201.5699607701
 10
376.2277288384
 20
202.2724748054
 10
373.8088400041
 20
202.9009410896
 10
371.3350030608
 20
203.4535475917
 10
368.8133507207
 20
203.928701004
 10
366.2511535603
 20
204.3250313363
 10
363.6557990574
 20
204.6413958656
 10
361.0347702908
 20
204.876882431
 10
358.3956243649
 20
205.030812064
 10
355.7459706207
 20
205.1027409454
 10
353.0934486958
 20
205.0924616856
 10
350.4457064976
 20
205.0000039226
 10
347.8103781524
 20
204.8256342359
 10
345.1950619938
 20
204.5698553784
 10
342.6072986554
 20
204.2334048269
 10
340.0545493289
 20
203.8172526553
 10
337.5441742514
 20
203.3225987381
 10
335.0834114841
 20
202.7508692907
 10
332.679356043
 20
202.1037127569
 10
330.3389394424
 20
201.3829950567
 10
328.0689097091
 20
200.5907942057
 10
326.3229392265
 20
199.9131769272
  0
LINE
  5
263
330
1F
100
AcDbEntity
  8
0
  6
Continuous
 62
     7
370
    25
100
AcDbLine
 10
320.3503835878
 20
197.0573247659
 30
0.0
 11
319.8201251988
 21
196.7557909568
 31
0.0
  0
ARC
  5
264
330
1F
100
AcDbEntity
  8
0
  6
Continuous
 62
     7
370
    25
100
AcDbCircle
 10
322.0675296735
 20
175.822084206
 30
0.0
 40
16.71659747514726
100
AcDbArc
 50
167.4657946439
 51
178.6581656022
  0
ARC
  5
265
330
1F
100
AcDbEntity
  8
0
  6
Continuous
 62
     7
370
    25
100
AcDbCircle
 10
387.4041511105
 20
175.8183705613
 30
0.0
 40
16.74739587681867
100
AcDbArc
 50
1.3520748544
 51
12.5433833399
  0
ARC
  5
266
330
1F
100
AcDbEntity
  8
0
  6
Continuous
 62
     7
370
    25
100
AcDbCircle
 10
354.6897259498
 20
227.4774555163
 30
0.0
 40
81.41875764662447
100
AcDbArc
 50
254.6969204474
 51
288.0498610625
  0
LWPOLYLINE
  5
267
330
1F
100
AcDbEntity
  8
0
  6
Continuous
 62
     7
370
    25
100
AcDbPolyline
 90
       53
 70
   128
 43
0.0
 10
325.2673007463
 20
193.0119794375
 10
324.8260372052
 20
192.7294964235
 10
323.2922697852
 20
191.6689288275
 10
321.8711171715
 20
190.5573074118
 10
320.5676667213
 20
189.3986114926
 10
319.3865844492
 20
188.1969889005
 10
318.332098323
 20
186.9567411325
 10
317.4079831295
 20
185.6823079538
 10
316.6175469611
 20
184.3782515043
 10
315.9636193743
 20
183.0492399678
 10
315.44854126
 20
181.7000308606
 10
315.0741564643
 20
180.3354540012
 10
314.8418051875
 20
178.9603942204
 10
314.7523191869
 20
177.5797738756
 10
314.8060187992
 20
176.1985352291
 10
315.0027117936
 20
174.8216227569
 10
315.3416940604
 20
173.4539654482
 10
315.821752131
 20
172.1004591613
 10
316.441167522
 20
170.7659490974
 10
317.1977228871
 20
169.4552124562
 10
318.0887099546
 20
168.1729413346
 10
319.1109392218
 20
166.9237259305
 10
320.2607513735
 20
165.7120381108
 10
321.5340303803
 20
164.5422154035
 10
322.9262182341
 20
163.4184454701
 10
324.4323312636
 20
162.3447511155
 10
326.0469779749
 20
161.3249758867
 10
327.7643783521
 20
160.3627703144
 10
329.5783845474
 20
159.4615788448
 10
331.4825028894
 20
158.6246275095
 10
333.4699171288
 20
157.8549123771
 10
335.5335128382
 20
157.1551888279
 10
337.6659028807
 20
156.5279616906
 10
339.8594538533
 20
155.9754762757
 10
342.1063134129
 20
155.4997103375
 10
344.3984383853
 20
155.1023669945
 10
346.727623558
 20
154.784868633
 10
349.0855310528
 20
154.5483518145
 10
351.4637201725
 20
154.3936632078
 10
353.8536776175
 20
154.3213565582
 10
356.2468479604
 20
154.3316907045
 10
358.6346642725
 20
154.4246286533
 10
361.008578791
 20
154.5998377108
 10
363.3600935181
 20
154.8566906741
 10
365.6807906415
 20
155.1942680761
 10
367.9623626676
 20
155.6113614775
 10
370.1966421608
 20
156.106477792
 10
372.3756309804
 20
156.6778446319
 10
374.491528912
 20
157.323416652
 10
376.53676159
 20
158.0408828722
 10
378.5040076123
 20
158.8276749494
 10
380.3862247488
 20
159.6809763724
 10
381.9239619707
 20
160.4615081765
  0
LWPOLYLINE
  5
268
330
1F
100
AcDbEntity
  8
0
  6
Continuous
 62
     7
370
    25
100
AcDbPolyline
 90
       49
 70
   128
 43
0.0
 10
388.1643242443
 20
164.7124547028
 10
388.2980229072
 20
164.8305145092
 10
389.5408455156
 20
166.0112022026
 10
390.6591302229
 20
167.2326840785
 10
391.64887386
 20
168.4905875488
 10
392.5065334017
 20
169.7804096456
 10
393.2290386493
 20
171.0975331405
 10
393.8138032216
 20
172.4372430733
 10
394.2587338132
 20
173.7947436301
 10
394.562237688
 20
175.1651753112
 10
394.7232283809
 20
176.5436323268
 10
394.7411295871
 20
177.9251801587
 10
394.6158772248
 20
179.3048732241
 10
394.347919665
 20
180.67777258
 10
393.9382161263
 20
182.0389636029
 10
393.3882332409
 20
183.3835735823
 10
392.6999398049
 20
184.7067891635
 10
391.8757997301
 20
186.003873578
 10
390.9187632241
 20
187.2701836003
 10
389.8322562292
 20
188.5011861692
 10
388.6201681585
 20
189.692474615
 10
387.2868379726
 20
190.8397844342
 10
385.8370386477
 20
191.9390085554
 10
384.2759600889
 20
192.9862120416
 10
382.6091905524
 20
193.977646176
 10
380.8426966405
 20
194.9097618819
 10
378.982801943
 20
195.7792224268
 10
377.0361644002
 20
196.5829153677
 10
375.0097524693
 20
197.3179636924
 10
372.910820179
 20
197.9817361187
 10
370.7468811622
 20
198.5718565137
 10
368.5256817589
 20
199.0862123993
 10
366.2551732867
 20
199.5229625151
 10
363.9434835764
 20
199.8805434091
 10
361.5988878773
 20
200.1576750343
 10
359.2297792335
 20
200.3533653315
 10
356.8446384391
 20
200.4669137802
 10
354.4520036791
 20
200.4979139065
 10
352.0604399649
 20
200.446254738
 10
349.678508474
 20
200.312121201
 10
347.3147359029
 20
200.0959934589
 10
344.9775839439
 20
199.7986451927
 10
342.6754189944
 20
199.4211408323
 10
340.4164822076
 20
198.9648317451
 10
338.2088599907
 20
198.4313513993
 10
336.0604550585
 20
197.8226095161
 10
333.9789581429
 20
197.1407852334
 10
331.9718204626
 20
196.3883193053
 10
331.0625524686
 20
196.0137066557
  0
LWPOLYLINE
  5
269
330
1F
100
AcDbEntity
  8
0
  6
Continuous
 62
     7
370
    25
100
AcDbPolyline
 90
       59
 70
   128
 43
0.0
 10
321.311045537
 20
196.2669495769
 10
319.9231056212
 20
195.4103435222
 10
318.2580248521
 20
194.2754206175
 10
316.703772657
 20
193.0892690299
 10
315.2650692489
 20
191.8554910627
 10
313.9462839226
 20
190.5778336593
 10
312.7514217859
 20
189.260177023
 10
311.6841115959
 20
187.9065228337
 10
310.7475947384
 20
186.5209820948
 10
309.9447153845
 20
185.107762648
 10
309.2779118522
 20
183.6711563942
 10
308.7492092021
 20
182.2155262595
 10
308.3602130867
 20
180.7452929447
 10
308.1121048744
 20
179.2649215
 10
308.0056380617
 20
177.7789077649
 10
308.0411359848
 20
176.2917647143
 10
308.2184908377
 20
174.8080087527
 10
308.5371639995
 20
173.3321459983
 10
308.9961876703
 20
171.8686585976
 10
309.5941678104
 20
170.4219911139
 10
310.3292883736
 20
168.9965370287
 10
311.199316823
 20
167.5966253992
 10
312.2016109108
 20
166.2265077111
 10
313.3331267027
 20
164.8903449667
 10
314.5904278226
 20
163.5921950484
 10
315.9696958882
 20
162.3360003948
 10
317.4667421077
 20
161.1255760278
 10
319.077020001
 20
159.9645979664
 10
320.7956392071
 20
158.8565920628
 10
322.6173803359
 20
157.8049232946
 10
324.5367108194
 20
156.8127855452
 10
326.5478017141
 20
155.8831919043
 10
328.644545403
 20
155.0189655174
 10
330.8205741444
 20
154.2227310114
 10
333.0692794107
 20
153.4969065246
 10
335.3838319577
 20
152.8436963618
 10
337.7572025655
 20
152.2650843011
 10
340.1821833856
 20
151.7628275681
 10
342.6514098308
 20
151.3384515
 10
345.1573829417
 20
150.9932449131
 10
347.6924921603
 20
150.7282561884
 10
350.2490384431
 20
150.5442900879
 10
352.8192576432
 20
150.4419053106
 10
355.3953440894
 20
150.4214127958
 10
357.9694742916
 20
150.4828747785
 10
360.5338307012
 20
150.6261046007
 10
363.080625452
 20
150.8506672782
 10
365.602124012
 20
151.1558808215
 10
368.090668673
 20
151.540818307
 10
370.5387018067
 20
152.0043106924
 10
372.9387888168
 20
152.5449503663
 10
375.283640718
 20
153.161095424
 10
377.5661362722
 20
153.8508746532
 10
379.7793436153
 20
154.6121932169
 10
381.9165413094
 20
155.4427390157
 10
383.9712387554
 20
156.3399897094
 10
385.9371959046
 20
157.3012203771
 10
387.8084422098
 20
158.3235117928
 10
388.0114884918
 20
158.4414523521
  0
LWPOLYLINE
  5
26A
330
1F
100
AcDbEntity
  8
0
  6
Continuous
 62
     7
370
    25
100
AcDbPolyline
 90
       53
 70
   128
 43
0.0
 10
394.0255372113
 20
162.767497691
 10
394.2373311299
 20
162.9586117506
 10
395.5561164562
 20
164.2362691541
 10
396.7509785928
 20
165.5539257904
 10
397.8182887829
 20
166.9075799796
 10
398.7548056403
 20
168.2931207185
 10
399.5576849943
 20
169.7063401653
 10
400.2244885265
 20
171.1429464191
 10
400.7531911767
 20
172.5985765538
 10
401.1421872921
 20
174.0688098686
 10
401.3902955044
 20
175.5491813133
 10
401.4967623171
 20
177.0351950484
 10
401.461264394
 20
178.522338099
 10
401.2839095411
 20
180.0060940606
 10
400.9652363793
 20
181.481956815
 10
400.5062127084
 20
182.9454442157
 10
399.9082325684
 20
184.3921116995
 10
399.1731120052
 20
185.8175657847
 10
398.3030835558
 20
187.2174774141
 10
397.300789468
 20
188.5875951022
 10
396.169273676
 20
189.9237578466
 10
394.9119725562
 20
191.2219077649
 10
393.5327044906
 20
192.4781024185
 10
392.035658271
 20
193.6885267855
 10
390.4253803777
 20
194.8495048469
 10
388.7067611717
 20
195.9575107505
 10
386.8850200429
 20
197.0091795187
 10
384.9656895594
 20
198.0013172681
 10
382.9545986647
 20
198.930910909
 10
380.8578549758
 20
199.7951372959
 10
378.6818262343
 20
200.5913718019
 10
376.4331209681
 20
201.3171962888
 10
374.118568421
 20
201.9704064515
 10
371.7451978132
 20
202.5490185123
 10
369.3202169932
 20
203.0512752453
 10
366.8509905479
 20
203.4756513133
 10
364.345017437
 20
203.8208579002
 10
361.8099082185
 20
204.085846625
 10
359.2533619356
 20
204.2698127254
 10
356.6831427355
 20
204.3721975027
 10
354.1070562894
 20
204.3926900175
 10
351.5329260871
 20
204.3312280348
 10
348.9685696775
 20
204.1879982126
 10
346.4217749268
 20
203.9634355351
 10
343.9002763667
 20
203.6582219918
 10
341.4117317057
 20
203.2732845063
 10
338.9636985721
 20
202.809792121
 10
336.563611562
 20
202.269152447
 10
334.2187596608
 20
201.6530073893
 10
331.9362641066
 20
200.9632281601
 10
329.7230567635
 20
200.2019095964
 10
327.5858590693
 20
199.3713637976
 10
327.1847105757
 20
199.2041630087
  0
ARC
  5
26B
330
1F
100
AcDbEntity
  8
0
  6
Continuous
 62
     7
370
    25
100
AcDbCircle
 10
325.3732913677
 20
175.418933209
 30
0.0
 40
17.37417487395721
100
AcDbArc
 50
180.8873746425
 51
212.0433135747
  0
ARC
  5
26C
330
1F
100
AcDbEntity
  8
0
  6
Continuous
 62
     7
370
    25
100
AcDbCircle
 10
384.6230038567
 20
175.2871263566
 30
0.0
 40
16.87875450454305
100
AcDbArc
 50
328.7840908653
 51
359.5340357482
  0
LWPOLYLINE
  5
26D
330
1F
100
AcDbEntity
  8
0
  6
Continuous
 62
     7
370
    25
100
AcDbPolyline
 90
       36
 70
   128
 43
0.0
 10
317.2208116574
 20
156.0074670725
 10
317.4667421077
 20
155.8180607506
 10
319.077020001
 20
154.6570826892
 10
320.7956392071
 20
153.5490767856
 10
322.6173803359
 20
152.4974080174
 10
324.5367108194
 20
151.5052702679
 10
326.5478017141
 20
150.5756766271
 10
328.644545403
 20
149.7114502401
 10
330.8205741444
 20
148.9152157342
 10
333.0692794107
 20
148.1893912473
 10
335.3838319577
 20
147.5361810846
 10
337.7572025655
 20
146.9575690238
 10
340.1821833856
 20
146.4553122908
 10
342.6514098308
 20
146.0309362227
 10
345.1573829417
 20
145.6857296358
 10
347.6924921603
 20
145.4207409111
 10
350.2490384431
 20
145.2367748106
 10
352.8192576432
 20
145.1343900334
 10
355.3953440894
 20
145.1138975185
 10
357.9694742916
 20
145.1753595013
 10
360.5338307012
 20
145.3185893235
 10
363.080625452
 20
145.543152001
 10
365.602124012
 20
145.8483655442
 10
368.090668673
 20
146.2333030298
 10
370.5387018067
 20
146.6967954151
 10
372.9387888168
 20
147.2374350891
 10
375.283640718
 20
147.8535801468
 10
377.5661362722
 20
148.5433593759
 10
379.7793436153
 20
149.3046779396
 10
381.9165413094
 20
150.1352237385
 10
383.9712387554
 20
151.0324744322
 10
385.9371959046
 20
151.9937050999
 10
387.8084422098
 20
153.0159965155
 10
389.5792947575
 20
154.0962440138
 10
391.2443755267
 20
155.2311669186
 10
392.045083832
 20
155.8252565125
  0
LWPOLYLINE
  5
26E
330
1F
100
AcDbEntity
  8
0
  6
Continuous
 62
     7
370
    25
100
AcDbPolyline
 90
       14
 70
   128
 43
0.0
 10
326.2376368834
 20
192.2136449055
 10
324.8260372052
 20
191.3413770433
 10
323.2922697852
 20
190.2808094473
 10
321.8711171715
 20
189.1691880316
 10
320.5676667213
 20
188.0104921124
 10
319.3865844492
 20
186.8088695203
 10
318.332098323
 20
185.5686217523
 10
317.4079831295
 20
184.2941885736
 10
316.6175469611
 20
182.9901321241
 10
315.9636193743
 20
181.6611205876
 10
315.44854126
 20
180.3119114804
 10
315.0741564643
 20
178.947334621
 10
314.8418051875
 20
177.5722748402
 10
314.7692726443
 20
176.7129917165
  0
LWPOLYLINE
  5
26F
330
1F
100
AcDbEntity
  8
0
  6
Continuous
 62
     7
370
    25
100
AcDbPolyline
 90
       37
 70
   128
 43
0.0
 10
394.7331277344
 20
176.7129917165
 10
394.6158772248
 20
177.9167538439
 10
394.347919665
 20
179.2896531998
 10
393.9382161263
 20
180.6508442227
 10
393.3882332409
 20
181.9954542021
 10
392.6999398049
 20
183.3186697833
 10
391.8757997301
 20
184.6157541978
 10
390.9187632241
 20
185.8820642201
 10
389.8322562292
 20
187.113066789
 10
388.6201681585
 20
188.3043552348
 10
387.2868379726
 20
189.4516650539
 10
385.8370386477
 20
190.5508891752
 10
384.2759600889
 20
191.5980926614
 10
382.6091905524
 20
192.5895267958
 10
380.8426966405
 20
193.5216425017
 10
378.982801943
 20
194.3911030466
 10
377.0361644002
 20
195.1947959875
 10
375.0097524693
 20
195.9298443122
 10
372.910820179
 20
196.5936167385
 10
370.7468811622
 20
197.1837371335
 10
368.5256817589
 20
197.6980930191
 10
366.2551732867
 20
198.1348431349
 10
363.9434835764
 20
198.4924240289
 10
361.5988878773
 20
198.7695556541
 10
359.2297792335
 20
198.9652459513
 10
356.8446384391
 20
199.0787944
 10
354.4520036791
 20
199.1097945263
 10
352.0604399649
 20
199.0581353578
 10
349.678508474
 20
198.9240018208
 10
347.3147359029
 20
198.7078740786
 10
344.9775839439
 20
198.4105258125
 10
342.6754189944
 20
198.033021452
 10
340.4164822076
 20
197.5767123649
 10
338.2088599907
 20
197.0432320191
 10
336.0604550585
 20
196.4344901359
 10
333.9789581429
 20
195.7526658532
 10
332.189396875
 20
195.0866064813
  0
ARC
  5
270
330
1F
100
AcDbEntity
  8
0
  6
Continuous
 62
     7
370
    25
100
AcDbCircle
 10
354.7512001894
 20
128.2724410037
 30
0.0
 40
70.80869804579183
100
AcDbArc
 50
81.2089927088
 51
98.7910072912
  0
LWPOLYLINE
  5
271
330
1F
100
AcDbEntity
  8
0
  6
Continuous
 62
     7
370
    25
100
AcDbPolyline
 90
       29
 70
   128
 43
0.0
 10
395.32145176
 20
161.1051492691
 10
395.366408087
 20
160.4846086681
 10
395.3027382562
 20
159.8337773963
 10
395.1336349387
 20
159.1852908514
 10
394.867577681
 20
158.5716668565
 10
394.517907705
 20
158.0236750811
 10
394.1021589232
 20
157.568794121
 10
393.6411787158
 20
157.2298336069
 10
393.1580825551
 20
157.0237904344
 10
392.6770948999
 20
156.9609964685
 10
392.2223344796
 20
157.0446004609
 10
391.8166048807
 20
157.2704101583
 10
391.4802510794
 20
157.6271025195
 10
391.2301392598
 20
158.0967915002
 10
391.0788110728
 20
158.6559249337
 10
391.0338547458
 20
159.2764655347
 10
391.0975245766
 20
159.9272968065
 10
391.2666278941
 20
160.5757833514
 10
391.5326851518
 20
161.1894073463
 10
391.8823551278
 20
161.7373991217
 10
392.2981039096
 20
162.1922800818
 10
392.759084117
 20
162.5312405959
 10
393.2421802777
 20
162.7372837684
 10
393.7231679329
 20
162.8000777343
 10
394.1779283532
 20
162.7164737419
 10
394.5836579521
 20
162.4906640445
 10
394.9200117534
 20
162.1339716833
 10
395.170123573
 20
161.6642827026
 10
395.32145176
 20
161.1051492691
  0
LWPOLYLINE
  5
272
330
1F
100
AcDbEntity
  8
0
  6
Continuous
 62
     7
370
    25
100
AcDbPolyline
 90
       16
 70
   128
 43
0.0
 10
318.2083010133
 20
206.5894158648
 10
317.969715227
 20
206.7105387397
 10
317.6200452509
 20
206.73347531
 10
317.2042964692
 20
206.6330197441
 10
316.7433162618
 20
206.4142093035
 10
316.2602201011
 20
206.0880160575
 10
315.7792324459
 20
205.6707966974
 10
315.3244720256
 20
205.183472344
 10
314.9187424267
 20
204.6504794755
 10
314.5823886254
 20
204.0985445797
 10
314.3322768057
 20
203.5553439771
 10
314.1809486188
 20
203.048116014
 10
314.1359922918
 20
202.6022952186
 10
314.1996621226
 20
202.240236907
 10
314.3687654401
 20
201.9800961949
 10
314.3962369114
 20
201.9560404987
  0
ARC
  5
273
330
1F
100
AcDbEntity
  8
0
  6
Continuous
 62
     7
370
    25
100
AcDbCircle
 10
354.7964510366
 20
198.9397479024
 30
0.0
 40
38.58071237848699
100
AcDbArc
 50
242.6533730381
 51
295.701841716
  0
LWPOLYLINE
  5
274
330
1F
100
AcDbEntity
  8
0
  6
Continuous
 62
     7
370
    25
100
AcDbPolyline
 90
       36
 70
   128
 43
0.0
 10
377.0839218419
 20
168.3893226939
 10
377.1116430898
 20
168.4212285735
 10
377.8931947062
 20
169.4159608801
 10
378.5421910737
 20
170.4419665069
 10
379.0549147999
 20
171.4933685867
 10
379.4284290497
 20
172.5641447834
 10
379.6605943674
 20
173.648161788
 10
379.750080931
 20
174.7392104493
 10
379.6963761696
 20
175.8310413394
 10
379.4997876992
 20
176.9174005497
 10
379.1614415608
 20
177.9920655131
 10
378.6832757704
 20
179.0488806461
 10
378.0680292183
 20
180.0817926072
 10
377.3192259811
 20
181.0848849703
 10
376.4411551359
 20
182.0524121131
 10
375.4388461929
 20
182.9788321278
 10
374.3180402872
 20
183.8588385645
 10
373.0851572933
 20
184.6873908259
 10
371.7472590535
 20
185.4597430398
 10
370.3120089276
 20
186.1714712426
 10
368.7876278984
 20
186.8184987196
 10
367.1828474825
 20
187.3971193561
 10
365.5068597166
 20
187.9040188654
 10
363.769264507
 20
188.336293773
 10
361.9800146417
 20
188.6914680474
 10
360.1493587818
 20
188.9675072826
 10
358.2877827584
 20
189.1628303507
 10
356.4059495103
 20
189.276318459
 10
354.5146380079
 20
189.3073215578
 10
352.6246815123
 20
189.2556620643
 10
350.746905523
 20
189.1216358792
 10
348.892065771
 20
188.9060106925
 10
347.0707866104
 20
188.6100215856
 10
345.2935001632
 20
188.2353639575
 10
343.5703865653
 20
187.784183813
 10
342.9537105706
 20
187.5999508991
  0
LWPOLYLINE
  5
275
330
1F
100
AcDbEntity
  8
0
  6
Continuous
 62
     7
370
    25
100
AcDbPolyline
 90
       22
 70
   128
 43
0.0
 10
336.2167981252
 20
184.5610721047
 10
336.098890701
 20
184.485341428
 10
334.8933893445
 20
183.6434687064
 10
333.8016317302
 20
182.7513754286
 10
332.8298713469
 20
181.8141714242
 10
331.9836743501
 20
180.8372249127
 10
331.2678876794
 20
179.8261317554
 10
330.6866112961
 20
178.7866834022
 10
330.2431746987
 20
177.7248337193
 10
329.940117852
 20
176.6466648854
 10
329.779176638
 20
175.5583525539
 10
329.7612729134
 20
174.4661304795
 10
329.8865092292
 20
173.3762548111
 10
330.1541682431
 20
172.2949682579
 10
330.5627168285
 20
171.2284643314
 10
331.1098148561
 20
170.1828518695
 10
331.7923285979
 20
169.1641200456
 10
332.6063486771
 20
168.1781040635
 10
333.5472124603
 20
167.2304517333
 10
334.609530765
 20
166.3265911218
 10
335.7872187281
 20
165.4716994607
 10
337.0735306597
 20
164.670673492
  0
LWPOLYLINE
  5
276
330
1F
100
AcDbEntity
  8
0
  6
Continuous
 62
     7
370
    25
100
AcDbPolyline
 90
       40
 70
   128
 43
0.0
 10
328.2346958949
 20
93.4283170304
 10
329.9173690184
 20
92.5149976804
 10
331.6942453699
 20
91.6632100312
 10
333.5585846485
 20
90.876185205
 10
335.503314777
 20
90.1569086568
 10
337.5210587277
 20
89.5081088487
 10
339.6041625067
 20
88.9322469007
 10
341.7447241879
 20
88.4315072544
 10
343.9346238876
 20
88.0077893868
 10
346.1655545662
 20
87.6627006049
 10
348.4290535395
 20
87.3975499486
 10
350.7165345805
 20
87.2133432252
 10
353.0193204902
 20
87.1107791939
 10
355.3286760127
 20
87.0902469153
 10
357.6358409717
 20
87.1518242752
 10
359.9320635001
 20
87.2952776896
 10
362.2086332394
 20
87.5200629907
 10
364.4569143807
 20
87.8253274907
 10
366.6683784237
 20
88.2099132169
 10
368.8346365277
 20
88.6723613039
 10
370.9474713337
 20
89.2109175276
 10
372.9988681356
 20
89.82353896
 10
374.9810452827
 20
90.5079017179
 10
376.8864836982
 20
91.2614097791
 10
378.7079554013
 20
92.0812048294
 10
380.4385509262
 20
92.9641771053
 10
382.0717055311
 20
93.9069771907
 10
383.6012241012
 20
94.9060287218
 10
385.0213046488
 20
95.9575419539
 10
386.3265603219
 20
97.0575281373
 10
387.5120398386
 20
98.2018146475
 10
388.5732462691
 20
99.3860608138
 10
389.5061540939
 20
100.605774385
 10
390.307224474
 20
101.8563285697
 10
390.9734186752
 20
103.1329795874
 10
391.5022095946
 20
104.4308846636
 10
391.8915913472
 20
105.7451203998
 10
392.1400868746
 20
107.0707014497
 10
392.2467535481
 20
108.4025994302
 10
392.2512001894
 20
108.7359691271
  0
LWPOLYLINE
  5
277
330
1F
100
AcDbEntity
  8
0
  6
Continuous
 62
     7
370
    25
100
AcDbPolyline
 90
       14
 70
   128
 43
0.0
 10
317.2512001894
 20
108.7359691271
 10
317.2912136343
 20
107.7361762579
 10
317.4688789979
 20
106.4068062487
 10
317.7879689759
 20
105.0862715521
 10
318.2472731509
 20
103.7795814085
 10
318.8450492246
 20
102.4916925412
 10
319.5790296277
 20
101.2274903539
 10
320.4464301211
 20
99.9917703983
 10
321.4439603576
 20
98.7892201837
 10
322.5678363635
 20
97.6244013948
 10
323.8137948919
 20
96.5017325884
 10
325.1771095956
 20
95.4254724317
 10
326.6526089547
 20
94.3997035481
 10
328.2346958949
 20
93.4283170304
  0
LWPOLYLINE
  5
278
330
1F
100
AcDbEntity
  8
0
  6
Continuous
 62
     7
370
    25
100
AcDbPolyline
 90
       40
 70
   128
 43
0.0
 10
328.2346958949
 20
139.9711433079
 10
329.9173690184
 20
139.0578239579
 10
331.6942453699
 20
138.2060363086
 10
333.5585846485
 20
137.4190114825
 10
335.503314777
 20
136.6997349343
 10
337.5210587277
 20
136.0509351262
 10
339.6041625067
 20
135.4750731782
 10
341.7447241879
 20
134.9743335319
 10
343.9346238876
 20
134.5506156643
 10
346.1655545662
 20
134.2055268823
 10
348.4290535395
 20
133.9403762261
 10
350.7165345805
 20
133.7561695027
 10
353.0193204902
 20
133.6536054714
 10
355.3286760127
 20
133.6330731927
 10
357.6358409717
 20
133.6946505526
 10
359.9320635001
 20
133.8381039671
 10
362.2086332394
 20
134.0628892682
 10
364.4569143807
 20
134.3681537682
 10
366.6683784237
 20
134.7527394944
 10
368.8346365277
 20
135.2151875814
 10
370.9474713337
 20
135.7537438051
 10
372.9988681356
 20
136.3663652374
 10
374.9810452827
 20
137.0507279954
 10
376.8864836982
 20
137.8042360566
 10
378.7079554013
 20
138.6240311069
 10
380.4385509262
 20
139.5070033828
 10
382.0717055311
 20
140.4498034682
 10
383.6012241012
 20
141.4488549993
 10
385.0213046488
 20
142.5003682314
 10
386.3265603219
 20
143.6003544148
 10
387.5120398386
 20
144.744640925
 10
388.5732462691
 20
145.9288870913
 10
389.5061540939
 20
147.1486006625
 10
390.307224474
 20
148.3991548471
 10
390.9734186752
 20
149.6758058649
 10
391.5022095946
 20
150.9737109411
 10
391.8915913472
 20
152.2879466773
 10
392.1400868746
 20
153.6135277272
 10
392.2467535481
 20
154.9454257077
 10
392.2321305459
 20
155.9690972156
  0
LWPOLYLINE
  5
279
330
1F
100
AcDbEntity
  8
0
  6
Continuous
 62
     7
370
    25
100
AcDbPolyline
 90
       15
 70
   128
 43
0.0
 10
317.2702698329
 20
155.9690972156
 10
317.2556468307
 20
155.6121651014
 10
317.2912136343
 20
154.2790025354
 10
317.4688789979
 20
152.9496325262
 10
317.7879689759
 20
151.6290978296
 10
318.2472731509
 20
150.322407686
 10
318.8450492246
 20
149.0345188187
 10
319.5790296277
 20
147.7703166314
 10
320.4464301211
 20
146.5345966758
 10
321.4439603576
 20
145.3320464612
 10
322.5678363635
 20
144.1672276723
 10
323.8137948919
 20
143.0445588659
 10
325.1771095956
 20
141.9682987091
 10
326.6526089547
 20
140.9425298256
 10
328.2346958949
 20
139.9711433079
  0
LWPOLYLINE
  5
27A
330
1F
100
AcDbEntity
  8
0
  6
Continuous
 62
     7
370
    25
100
AcDbPolyline
 90
       13
 70
   128
 43
0.0
 10
379.8534909215
 20
140.7875514197
 10
381.3950375595
 20
141.7358184764
 10
382.8292988683
 20
142.7386183213
 10
384.1504995836
 20
143.7919130333
 10
385.3533196966
 20
144.8914613663
 10
386.4329158752
 20
146.0328358275
 10
387.3849409665
 20
147.2114405045
 10
388.2055615016
 20
148.4225295724
 10
388.8914731313
 20
149.6612264029
 10
389.4399139314
 20
150.9225432011
 10
389.8486755244
 20
152.2014010894
 10
390.1161119716
 20
153.4926505585
 10
390.227036591
 20
154.5227839478
  0
LWPOLYLINE
  5
27B
330
1F
100
AcDbEntity
  8
0
  6
Continuous
 62
     7
370
    25
100
AcDbPolyline
 90
       38
 70
   128
 43
0.0
 10
319.2753637877
 20
154.5227839478
 10
319.3416501207
 20
153.8167906028
 10
319.5735646781
 20
152.5232541555
 10
319.947127158
 20
151.2408133002
 10
320.4608333561
 20
149.9746319737
 10
321.1126147589
 20
148.7298086412
 10
321.8998468727
 20
147.511355767
 10
322.8193597916
 20
146.3241796307
 10
323.8674509616
 20
145.1730605717
 10
325.0399000895
 20
144.0626337401
 10
326.3319861366
 20
142.9973704329
 10
327.7385063282
 20
141.9815600894
 10
329.2537971041
 20
141.0192930193
 10
330.871756923
 20
140.1144439325
 10
332.5858708318
 20
139.2706563369
 10
334.3892366989
 20
138.4913278674
 10
336.2745930063
 20
137.7795966046
 10
338.2343480897
 20
137.1383284391
 10
340.2606107069
 20
136.5701055316
 10
342.3452218136
 20
136.0772159151
 10
344.4797874166
 20
135.661644282
 10
346.6557123736
 20
135.3250639929
 10
348.8642350028
 20
135.0688303375
 10
351.0964623631
 20
134.8939750785
 10
353.3434060626
 20
134.8012022963
 10
355.5960184523
 20
134.790885554
 10
357.8452290569
 20
134.8630663937
 10
360.0819810993
 20
135.0174541684
 10
362.2972679685
 20
135.2534272133
 10
364.4821694861
 20
135.570035348
 10
366.6278878247
 20
135.9660037033
 10
368.7257829341
 20
136.4397378545
 10
370.767407331
 20
136.9893302414
 10
372.7445401146
 20
137.6125678493
 10
374.6492200689
 20
138.3069411203
 10
376.4737777201
 20
139.0696540585
 10
378.2108662184
 20
139.8976354879
 10
379.8534909215
 20
140.7875514197
  0
LWPOLYLINE
  5
27C
330
1F
100
AcDbEntity
  8
0
  6
Continuous
 62
     7
370
    25
100
AcDbPolyline
 90
       53
 70
   128
 43
0.0
 10
392.2512001894
 20
108.7359691271
 10
392.2467535481
 20
108.4025994302
 10
392.1400868746
 20
107.0707014497
 10
391.8915913472
 20
105.7451203998
 10
391.5022095946
 20
104.4308846636
 10
390.9734186752
 20
103.1329795874
 10
390.307224474
 20
101.8563285697
 10
389.5061540939
 20
100.605774385
 10
388.5732462691
 20
99.3860608138
 10
387.5120398386
 20
98.2018146475
 10
386.3265603219
 20
97.0575281373
 10
385.0213046488
 20
95.9575419539
 10
383.6012241012
 20
94.9060287218
 10
382.0717055311
 20
93.9069771907
 10
380.4385509262
 20
92.9641771053
 10
378.7079554013
 20
92.0812048294
 10
376.8864836982
 20
91.2614097791
 10
374.9810452827
 20
90.5079017179
 10
372.9988681356
 20
89.82353896
 10
370.9474713337
 20
89.2109175276
 10
368.8346365277
 20
88.6723613039
 10
366.6683784237
 20
88.2099132169
 10
364.4569143807
 20
87.8253274907
 10
362.2086332394
 20
87.5200629907
 10
359.9320635001
 20
87.2952776896
 10
357.6358409717
 20
87.1518242752
 10
355.3286760127
 20
87.0902469153
 10
353.0193204902
 20
87.1107791939
 10
350.7165345805
 20
87.2133432252
 10
348.4290535395
 20
87.3975499486
 10
346.1655545662
 20
87.6627006049
 10
343.9346238876
 20
88.0077893868
 10
341.7447241879
 20
88.4315072544
 10
339.6041625067
 20
88.9322469007
 10
337.5210587277
 20
89.5081088487
 10
335.503314777
 20
90.1569086568
 10
333.5585846485
 20
90.876185205
 10
331.6942453699
 20
91.6632100312
 10
329.9173690184
 20
92.5149976804
 10
328.2346958949
 20
93.4283170304
 10
326.6526089547
 20
94.3997035481
 10
325.1771095956
 20
95.4254724317
 10
323.8137948919
 20
96.5017325884
 10
322.5678363635
 20
97.6244013948
 10
321.4439603576
 20
98.7892201837
 10
320.4464301211
 20
99.9917703984
 10
319.5790296277
 20
101.2274903539
 10
318.8450492246
 20
102.4916925412
 10
318.2472731509
 20
103.7795814085
 10
317.7879689759
 20
105.0862715521
 10
317.4688789979
 20
106.4068062487
 10
317.2912136343
 20
107.7361762579
 10
317.2512001894
 20
108.7359691271
  0
LWPOLYLINE
  5
27D
330
1F
100
AcDbEntity
  8
0
  6
Continuous
 62
     7
370
    25
100
AcDbPolyline
 90
       53
 70
   128
 43
0.0
 10
392.2512001894
 20
107.1028875033
 10
392.2467535481
 20
106.7695178065
 10
392.1400868746
 20
105.4376198259
 10
391.8915913472
 20
104.112038776
 10
391.5022095946
 20
102.7978030398
 10
390.9734186752
 20
101.4998979636
 10
390.307224474
 20
100.2232469459
 10
389.5061540939
 20
98.9726927612
 10
388.5732462691
 20
97.7529791901
 10
387.5120398386
 20
96.5687330237
 10
386.3265603219
 20
95.4244465135
 10
385.0213046488
 20
94.3244603301
 10
383.6012241012
 20
93.272947098
 10
382.0717055311
 20
92.2738955669
 10
380.4385509262
 20
91.3310954816
 10
378.7079554013
 20
90.4481232056
 10
376.8864836982
 20
89.6283281553
 10
374.9810452827
 20
88.8748200941
 10
372.9988681356
 20
88.1904573362
 10
370.9474713337
 20
87.5778359039
 10
368.8346365277
 20
87.0392796801
 10
366.6683784237
 20
86.5768315931
 10
364.4569143807
 20
86.1922458669
 10
362.2086332394
 20
85.8869813669
 10
359.9320635001
 20
85.6621960658
 10
357.6358409717
 20
85.5187426514
 10
355.3286760127
 20
85.4571652915
 10
353.0193204902
 20
85.4776975702
 10
350.7165345805
 20
85.5802616014
 10
348.4290535395
 20
85.7644683248
 10
346.1655545662
 20
86.0296189811
 10
343.9346238876
 20
86.374707763
 10
341.7447241879
 20
86.7984256306
 10
339.6041625067
 20
87.2991652769
 10
337.5210587277
 20
87.8750272249
 10
335.503314777
 20
88.523827033
 10
333.5585846485
 20
89.2431035813
 10
331.6942453699
 20
90.0301284074
 10
329.9173690184
 20
90.8819160566
 10
328.2346958949
 20
91.7952354066
 10
326.6526089547
 20
92.7666219243
 10
325.1771095956
 20
93.7923908079
 10
323.8137948919
 20
94.8686509646
 10
322.5678363635
 20
95.9913197711
 10
321.4439603576
 20
97.1561385599
 10
320.4464301211
 20
98.3586887746
 10
319.5790296277
 20
99.5944087301
 10
318.8450492246
 20
100.8586109175
 10
318.2472731509
 20
102.1464997847
 10
317.7879689759
 20
103.4531899283
 10
317.4688789979
 20
104.7737246249
 10
317.2912136343
 20
106.1030946341
 10
317.2512001894
 20
107.1028875033
  0
LINE
  5
27E
330
1F
100
AcDbEntity
  8
0
  6
Continuous
 62
     7
370
    25
100
AcDbLine
 10
389.2867787788
 20
151.8578287794
 30
0.0
 11
389.2867787788
 21
153.9094182348
 31
0.0
  0
LINE
  5
27F
330
1F
100
AcDbEntity
  8
0
  6
Continuous
 62
     7
370
    25
100
AcDbLine
 10
383.981400373
 20
151.0371728132
 30
0.0
 11
389.2867787788
 21
151.8578287794
 31
0.0
  0
LINE
  5
280
330
1F
100
AcDbEntity
  8
0
  6
Continuous
 62
     7
370
    25
100
AcDbLine
 10
347.1890347751
 20
141.2168274669
 30
0.0
 11
344.600844324
 21
135.6406563639
 31
0.0
  0
LINE
  5
281
330
1F
100
AcDbEntity
  8
0
  6
Continuous
 62
     7
370
    25
100
AcDbLine
 10
349.1208864276
 20
140.9180013582
 30
0.0
 11
347.1890347751
 21
141.2168274669
 31
0.0
  0
LINE
  5
282
330
1F
100
AcDbEntity
  8
0
  6
Continuous
 62
     7
370
    25
100
AcDbLine
 10
346.5326959766
 20
135.3418302551
 30
0.0
 11
349.1208864276
 21
140.9180013582
 31
0.0
  0
LINE
  5
283
330
1F
100
AcDbEntity
  8
0
  6
Continuous
 62
     7
370
    25
100
AcDbLine
 10
344.600844324
 20
135.6406563639
 30
0.0
 11
346.5326959766
 21
135.3418302551
 31
0.0
  0
LINE
  5
284
330
1F
100
AcDbEntity
  8
0
  6
Continuous
 62
     7
370
    25
100
AcDbLine
 10
349.1208864276
 20
135.0444734938
 30
0.0
 11
349.1208864276
 21
140.9180013582
 31
0.0
  0
LWPOLYLINE
  5
285
330
1F
100
AcDbEntity
  8
0
  6
Continuous
 62
     7
370
    25
100
AcDbPolyline
 90
       36
 70
   128
 43
0.0
 10
377.0839218419
 20
168.3893226939
 10
377.1116430898
 20
168.4212285735
 10
377.8931947062
 20
169.4159608801
 10
378.5421910737
 20
170.4419665069
 10
379.0549147999
 20
171.4933685867
 10
379.4284290497
 20
172.5641447834
 10
379.6605943674
 20
173.648161788
 10
379.750080931
 20
174.7392104493
 10
379.6963761696
 20
175.8310413394
 10
379.4997876992
 20
176.9174005497
 10
379.1614415608
 20
177.9920655131
 10
378.6832757704
 20
179.0488806461
 10
378.0680292183
 20
180.0817926072
 10
377.3192259811
 20
181.0848849703
 10
376.4411551359
 20
182.0524121131
 10
375.4388461929
 20
182.9788321278
 10
374.3180402872
 20
183.8588385645
 10
373.0851572933
 20
184.6873908259
 10
371.7472590535
 20
185.4597430398
 10
370.3120089276
 20
186.1714712426
 10
368.7876278984
 20
186.8184987196
 10
367.1828474825
 20
187.3971193561
 10
365.5068597166
 20
187.9040188654
 10
363.769264507
 20
188.336293773
 10
361.9800146417
 20
188.6914680474
 10
360.1493587818
 20
188.9675072826
 10
358.2877827584
 20
189.1628303507
 10
356.4059495103
 20
189.276318459
 10
354.5146380079
 20
189.3073215578
 10
352.6246815123
 20
189.2556620643
 10
350.746905523
 20
189.1216358792
 10
348.892065771
 20
188.9060106925
 10
347.0707866104
 20
188.6100215856
 10
345.2935001632
 20
188.2353639575
 10
343.5703865653
 20
187.784183813
 10
342.9537105706
 20
187.5999508991
  0
LWPOLYLINE
  5
286
330
1F
100
AcDbEntity
  8
0
  6
Continuous
 62
     7
370
    25
100
AcDbPolyline
 90
       22
 70
   128
 43
0.0
 10
336.2167981252
 20
184.5610721047
 10
336.098890701
 20
184.485341428
 10
334.8933893445
 20
183.6434687064
 10
333.8016317302
 20
182.7513754286
 10
332.8298713469
 20
181.8141714242
 10
331.9836743501
 20
180.8372249127
 10
331.2678876794
 20
179.8261317554
 10
330.6866112961
 20
178.7866834022
 10
330.2431746987
 20
177.7248337193
 10
329.940117852
 20
176.6466648854
 10
329.779176638
 20
175.5583525539
 10
329.7612729134
 20
174.4661304795
 10
329.8865092292
 20
173.3762548111
 10
330.1541682431
 20
172.2949682579
 10
330.5627168285
 20
171.2284643314
 10
331.1098148561
 20
170.1828518695
 10
331.7923285979
 20
169.1641200456
 10
332.6063486771
 20
168.1781040635
 10
333.5472124603
 20
167.2304517333
 10
334.609530765
 20
166.3265911218
 10
335.7872187281
 20
165.4716994607
 10
337.0735306597
 20
164.670673492
  0
LWPOLYLINE
  5
287
330
1F
100
AcDbEntity
  8
0
  6
Continuous
 62
     7
370
    25
100
AcDbPolyline
 90
       34
 70
   128
 43
0.0
 10
375.7813219611
 20
168.821571238
 10
376.4185146319
 20
169.6234881626
 10
377.0584023133
 20
170.6085785581
 10
377.5641318564
 20
171.6193323744
 10
377.9326617442
 20
172.6496708191
 10
378.1617755945
 20
173.6933973157
 10
378.2500954898
 20
174.7442347701
 10
378.1970902637
 20
175.7958633222
 10
378.003078696
 20
176.8419583543
 10
377.6692275951
 20
177.8762285277
 10
377.1975447806
 20
178.8924536198
 10
376.5908670087
 20
179.8845219335
 10
375.8528429108
 20
180.846467053
 10
374.9879110506
 20
181.7725037274
 10
374.0012732302
 20
182.657062663
 10
372.8988632054
 20
183.4948240184
 10
371.687311
 20
184.2807493982
 10
370.3739030313
 20
185.0101121546
 10
368.9665382895
 20
185.6785258143
 10
367.4736808318
 20
186.2819704588
 10
365.9043088784
 20
186.8168169011
 10
364.2678608171
 20
187.2798485117
 10
362.5741784391
 20
187.668280564
 10
360.8334477493
 20
187.9797769819
 10
359.056137707
 20
188.2124643894
 10
357.252937264
 20
188.364943377
 10
355.4346910798
 20
188.4362969181
 10
353.612334301
 20
188.4260958842
 10
351.7968267957
 20
188.3344016254
 10
349.9990872396
 20
188.1617656018
 10
348.2299274499
 20
187.9092260667
 10
346.4999873618
 20
187.5783018228
 10
344.8196710385
 20
187.1709830872
 10
344.0651665798
 20
186.9583210025
  0
LWPOLYLINE
  5
288
330
1F
100
AcDbEntity
  8
0
  6
Continuous
 62
     7
370
    25
100
AcDbPolyline
 90
       41
 70
   128
 43
0.0
 10
337.278854626
 20
183.9479599372
 10
336.3174320638
 20
183.290051591
 10
335.2433700733
 20
182.4401069654
 10
334.2866304685
 20
181.5446695568
 10
333.452967194
 20
180.6091246309
 10
332.7473939988
 20
179.639098665
 10
332.174154283
 20
178.6404255095
 10
331.7366955779
 20
177.6191113022
 10
331.4376488115
 20
176.5812983469
 10
331.2788124862
 20
175.5332281729
 10
331.2611418624
 20
174.4812039974
 10
331.3847432134
 20
173.4315528178
 10
331.648873186
 20
172.3905873596
 10
332.0519432716
 20
171.3645681116
 10
332.5915293591
 20
170.3596656744
 10
333.2643863144
 20
169.3819236493
 10
334.0664674966
 20
168.4372222921
 10
334.9929490951
 20
167.5312431477
 10
336.0382591405
 20
166.6694348815
 10
337.1961110152
 20
165.8569805096
 10
338.4595412618
 20
165.0987662283
 10
339.8209514622
 20
164.3993520276
 10
341.2721539351
 20
163.7629442666
 10
342.8044209783
 20
163.1933703766
 10
344.4085373573
 20
162.6940558419
 10
346.0748557275
 20
162.268003599
 10
347.7933546543
 20
161.917775976
 10
349.5536988828
 20
161.6454792833
 10
351.3453014957
 20
161.452751145
 10
353.1573875841
 20
161.340750651
 10
354.979059049
 20
161.3101513853
 10
356.7993601439
 20
161.3611373756
 10
358.6073433639
 20
161.493401986
 10
360.3921352851
 20
161.7061497618
 10
362.1430019589
 20
161.9981012126
 10
363.8494134671
 20
162.3675005082
 10
365.5011072502
 20
162.8121260377
 10
367.0881498272
 20
163.3293037709
 10
368.6009965376
 20
163.91592334
 10
370.030548943
 20
164.5684567459
 10
370.4663884006
 20
164.7892044947
  0
LWPOLYLINE
  5
289
330
1F
100
AcDbEntity
  8
0
  6
Continuous
 62
     8
370
    18
100
AcDbPolyline
 90
       46
 70
   128
 43
0.0
 10
304.9237435038
 20
173.0662917121
 10
305.1096111074
 20
172.012304868
 10
305.4980243188
 20
170.4919810111
 10
306.0260510083
 20
168.9857457205
 10
306.6921944271
 20
167.4978685837
 10
307.4945663191
 20
166.03256715
 10
308.430892274
 20
164.5939949757
 10
309.4985181743
 20
163.1862298498
 10
310.6944177183
 20
161.8132622355
 10
312.0152009989
 20
160.4789839587
 10
313.4571241122
 20
159.1871771762
 10
315.0160997707
 20
157.9415036546
 10
316.6877088883
 20
156.7454943908
 10
318.4672131076
 20
155.6025396031
 10
320.3495682303
 20
154.515879121
 10
322.3294385164
 20
153.4885932016
 10
324.4012118086
 20
152.5235937986
 10
326.5590154402
 20
151.6236163075
 10
328.7967328824
 20
150.7912118124
 10
331.1080210821
 20
150.0287398542
 10
333.4863284417
 20
149.3383617426
 10
335.9249133907
 20
148.7220344292
 10
338.416863495
 20
148.1815049609
 10
340.9551150513
 20
147.7183055271
 10
343.5324731098
 20
147.333749117
 10
346.1416318691
 20
147.0289257975
 10
348.7751953852
 20
146.8046996234
 10
351.4256985362
 20
146.6617061881
 10
354.085628183
 20
146.6003508221
 10
356.7474444659
 20
146.6208074438
 10
359.4036021775
 20
146.7230180668
 10
362.0465721503
 20
146.9066929638
 10
364.6688625985
 20
147.1713114885
 10
367.2630403552
 20
147.5161235509
 10
369.8217519415
 20
147.9401517437
 10
372.3377444116
 20
148.442194113
 10
374.8038859113
 20
149.0208275651
 10
377.2131858947
 20
149.6744119006
 10
379.5588149392
 20
150.4010944637
 10
381.8341241044
 20
151.1988153938
 10
384.0326637794
 20
152.0653134641
 10
386.1482019644
 20
152.9981324919
 10
388.1747419368
 20
153.9946283001
 10
390.1065392487
 20
155.0519762132
 10
391.9381180108
 20
156.1671790636
 10
393.2707270436
 20
157.0590466839
  0
LWPOLYLINE
  5
28A
330
1F
100
AcDbEntity
  8
0
  6
Continuous
 62
     8
370
    18
100
AcDbPolyline
 90
       13
 70
   128
 43
0.0
 10
394.3982731095
 20
157.8751715455
 10
395.2801514468
 20
158.5583498864
 10
396.7811327638
 20
159.8275398253
 10
398.1629756705
 20
161.1410478475
 10
399.4217631831
 20
162.495150672
 10
400.5539271315
 20
163.8860099472
 10
401.5562582742
 20
165.3096831312
 10
402.4259153945
 20
166.7621346679
 10
403.1604333548
 20
168.2392474255
 10
403.7577300843
 20
169.7368343674
 10
404.2161124803
 20
171.2506504207
 10
404.5342812083
 20
172.7764045093
 10
404.5768009692
 20
173.0534632775
  0
LWPOLYLINE
  5
28B
330
1F
100
AcDbEntity
  8
0
  6
Continuous
 62
     8
370
    18
100
AcDbPolyline
 90
       14
 70
   128
 43
0.0
 10
319.8201251988
 20
196.0018529178
 10
317.9955004873
 20
194.8903777692
 10
316.2768519731
 20
193.7239655677
 10
314.6691349647
 20
192.5059793816
 10
313.1769849264
 20
191.2399309804
 10
311.8047041132
 20
189.9294707093
 10
310.5562491658
 20
188.5783769646
 10
309.435219703
 20
187.1905452993
 10
308.444847943
 20
185.7699771914
 10
307.5879893839
 20
184.3207685064
 10
306.8671145707
 20
182.8470976881
 10
306.2843019723
 20
181.3532137111
 10
305.8412319881
 20
179.8434238296
 10
305.7493452259
 20
179.449960648
  0
LWPOLYLINE
  5
28C
330
1F
100
AcDbEntity
  8
0
  6
Continuous
 62
     8
370
    18
100
AcDbPolyline
 90
       25
 70
   128
 43
0.0
 10
403.7518175143
 20
179.4555496615
 10
403.5635785517
 20
180.2221250837
 10
403.0854373389
 20
181.7283450158
 10
402.4679360081
 20
183.2175774428
 10
401.7128549753
 20
184.6855285219
 10
400.8223713348
 20
186.1279657702
 10
399.7990525814
 20
187.5407302677
 10
398.6458492079
 20
188.9197486486
 10
397.3660861982
 20
190.261044846
 10
395.9634534403
 20
191.5607515557
 10
394.4419950876
 20
192.8151213869
 10
392.8060978985
 20
194.0205376664
 10
391.0604785878
 20
195.1735248673
 10
389.2101702281
 20
196.2707586288
 10
387.2605077374
 20
197.309075342
 10
385.2171124972
 20
198.2854812711
 10
383.0858761451
 20
199.197161185
 10
380.8729435872
 20
200.0414864745
 10
378.5846952809
 20
200.8160227312
 10
376.2277288384
 20
201.5185367665
 10
373.8088400041
 20
202.1470030507
 10
371.3350030608
 20
202.6996095527
 10
368.8133507207
 20
203.174762965
 10
366.2511535603
 20
203.5710932973
 10
365.6162690845
 20
203.656272116
  0
ARC
  5
28D
330
1F
100
AcDbEntity
  8
0
  6
Continuous
 62
     8
370
    18
100
AcDbCircle
 10
352.7674154687
 20
132.3401581261
 30
0.0
 40
71.86699745506853
100
AcDbArc
 50
97.0987283355
 51
111.0622653449
  0
LINE
  5
28E
330
1F
100
AcDbEntity
  8
0
  6
Continuous
 62
     8
370
    18
100
AcDbLine
 10
320.8989636202
 20
196.605985929
 30
0.0
 11
319.8201251988
 21
196.0018529178
 31
0.0
  0
LWPOLYLINE
  5
28F
330
1F
100
AcDbEntity
  8
0
  6
Continuous
 62
     8
370
    18
100
AcDbPolyline
 90
       17
 70
   128
 43
0.0
 10
314.7816878145
 20
191.4055413876
 10
313.6068020025
 20
190.3933262974
 10
312.2433453757
 20
189.0851446915
 10
311.0045716111
 20
187.7362685459
 10
309.8941142455
 20
186.3506543467
 10
308.9152304418
 20
184.9323663391
 10
308.0707914348
 20
183.4855646062
 10
307.3632741096
 20
182.0144928668
 10
306.7947537365
 20
180.5234660277
 10
306.3668978835
 20
179.0168575276
 10
306.0809615258
 20
177.4990865087
 10
305.9377833638
 20
175.9746048551
 10
305.9377833638
 20
174.4478841339
 10
306.0809615258
 20
172.9234024803
 10
306.3668978835
 20
171.4056314614
 10
306.7947537365
 20
169.8990229613
 10
307.0611942407
 20
169.1521560139
  0
LWPOLYLINE
  5
290
330
1F
100
AcDbEntity
  8
0
  6
Continuous
 62
     8
370
    18
100
AcDbPolyline
 90
       17
 70
   128
 43
0.0
 10
402.4412061381
 20
169.1521560139
 10
402.7076466423
 20
169.8990229613
 10
403.1355024952
 20
171.4056314614
 10
403.421438853
 20
172.9234024803
 10
403.564617015
 20
174.4478841339
 10
403.564617015
 20
175.9746048551
 10
403.421438853
 20
177.4990865087
 10
403.1355024952
 20
179.0168575276
 10
402.7076466423
 20
180.5234660277
 10
402.1391262691
 20
182.0144928668
 10
401.4316089439
 20
183.4855646062
 10
400.5871699369
 20
184.9323663391
 10
399.6082861332
 20
186.3506543467
 10
398.4978287677
 20
187.7362685459
 10
397.2590550031
 20
189.0851446915
 10
395.8955983763
 20
190.3933262974
 10
394.7207125643
 20
191.4055413876
  0
LWPOLYLINE
  5
291
330
1F
100
AcDbEntity
  8
0
  6
Continuous
 62
     8
370
    18
100
AcDbPolyline
 90
       21
 70
   128
 43
0.0
 10
308.0252544843
 20
178.2726938907
 10
308.0245209201
 20
178.2692982952
 10
307.7746173594
 20
176.7782146599
 10
307.6673801368
 20
175.2814479057
 10
307.7031349282
 20
173.7835436641
 10
307.8817731476
 20
172.289051021
 10
308.2027522764
 20
170.8025087015
 10
308.6650975116
 20
169.3284312856
 10
309.2674047259
 20
167.8712954982
 10
310.0078447322
 20
166.4355266126
 10
310.8841688384
 20
165.0254850119
 10
311.8937156771
 20
163.6454529459
 10
313.0334192877
 20
162.2996215268
 10
314.2998184278
 20
160.9920780002
 10
315.6890670847
 20
159.726793333
 10
317.1969461561
 20
158.5076101531
 10
318.8188762626
 20
157.3382310796
 10
320.549931656
 20
156.2222074786
 10
322.3848551778
 20
155.1629286768
 10
324.3180742257
 20
154.1636116693
 10
325.3516090008
 20
153.6726680154
  0
ARC
  5
292
330
1F
100
AcDbEntity
  8
0
  6
Continuous
 62
     8
370
    18
100
AcDbCircle
 10
365.3582320065
 20
194.8048546275
 30
0.0
 40
45.22186487994505
100
AcDbArc
 50
294.5548118485
 51
304.3832388157
  0
LWPOLYLINE
  5
293
330
1F
100
AcDbEntity
  8
0
  6
Continuous
 62
     8
370
    18
100
AcDbPolyline
 90
       14
 70
   128
 43
0.0
 10
395.3210585967
 20
161.10750666
 10
395.8513869732
 20
161.6408127231
 10
397.0548953122
 20
162.9680041212
 10
398.1299287195
 20
164.3314535559
 10
399.0732223539
 20
165.7270202761
 10
399.8819114637
 20
167.1504659916
 10
400.5535400867
 20
168.5974677445
 10
401.0860685088
 20
170.0636310381
 10
401.4778794587
 20
171.5445031825
 10
401.7277830193
 20
173.0355868178
 10
401.8350202419
 20
174.532353572
 10
401.7992654505
 20
176.0302578136
 10
401.6206272312
 20
177.5247504567
 10
401.4771458945
 20
178.2726938907
  0
LWPOLYLINE
  5
294
330
1F
100
AcDbEntity
  8
0
  6
Continuous
 62
     8
370
    18
100
AcDbPolyline
 90
       40
 70
   128
 43
0.0
 10
310.6461197501
 20
166.2008873915
 10
311.199316823
 20
165.339433528
 10
312.2016109108
 20
163.9693158399
 10
313.3331267027
 20
162.6331530955
 10
314.5904278226
 20
161.3350031772
 10
315.9696958882
 20
160.0788085236
 10
317.4667421077
 20
158.8683841566
 10
319.077020001
 20
157.7074060953
 10
320.7956392071
 20
156.5994001917
 10
322.6173803359
 20
155.5477314234
 10
324.5367108194
 20
154.555593674
 10
326.5478017141
 20
153.6260000332
 10
328.644545403
 20
152.7617736462
 10
330.8205741444
 20
151.9655391403
 10
333.0692794107
 20
151.2397146534
 10
335.3838319577
 20
150.5865044907
 10
337.7572025655
 20
150.0078924299
 10
340.1821833856
 20
149.5056356969
 10
342.6514098308
 20
149.0812596288
 10
345.1573829417
 20
148.7360530419
 10
347.6924921603
 20
148.4710643172
 10
350.2490384431
 20
148.2870982167
 10
352.8192576432
 20
148.1847134394
 10
355.3953440894
 20
148.1642209246
 10
357.9694742916
 20
148.2256829073
 10
360.5338307012
 20
148.3689127296
 10
363.080625452
 20
148.5934754071
 10
365.602124012
 20
148.8986889503
 10
368.090668673
 20
149.2836264359
 10
370.5387018067
 20
149.7471188212
 10
372.9387888168
 20
150.2877584952
 10
375.283640718
 20
150.9039035529
 10
377.5661362722
 20
151.593682782
 10
379.7793436153
 20
152.3550013457
 10
381.9165413094
 20
153.1855471446
 10
383.9712387554
 20
154.0827978383
 10
385.9371959046
 20
155.0440285059
 10
387.8084422098
 20
156.0663199216
 10
389.5792947575
 20
157.1465674199
 10
390.3592016147
 20
157.6623984044
  0
ARC
  5
295
330
1F
100
AcDbEntity
  8
0
  6
Continuous
 62
     8
370
    18
100
AcDbCircle
 10
378.2983607405
 20
178.8398992856
 30
0.0
 40
24.13018225011187
100
AcDbArc
 50
314.4319117567
 51
329.3526232598
  0
LWPOLYLINE
  5
296
330
1F
100
AcDbEntity
  8
0
  6
Continuous
 62
     8
370
    18
100
AcDbPolyline
 90
       16
 70
   128
 43
0.0
 10
373.6251983415
 20
163.2153303975
 10
373.5922448344
 20
163.2267207304
 10
373.1865152355
 20
163.4525304278
 10
372.8501614342
 20
163.809222789
 10
372.6000496146
 20
164.2789117697
 10
372.4487214276
 20
164.8380452032
 10
372.4037651006
 20
165.4585858042
 10
372.4674349314
 20
166.109417076
 10
372.6365382489
 20
166.7579036209
 10
372.9025955066
 20
167.3715276158
 10
373.2522654826
 20
167.9195193912
 10
373.6680142643
 20
168.3744003513
 10
374.1289944718
 20
168.7133608654
 10
374.6120906325
 20
168.9194040379
 10
375.0930782877
 20
168.9821980038
 10
375.5148852009
 20
168.9099843443
  0
LWPOLYLINE
  5
297
330
1F
100
AcDbEntity
  8
0
  6
Continuous
 62
     8
370
    18
100
AcDbPolyline
 90
       16
 70
   128
 43
0.0
 10
371.5993685033
 20
164.1351493164
 10
371.4413690775
 20
164.2481726136
 10
371.1886405181
 20
164.566738787
 10
371.0317496929
 20
164.993926711
 10
370.978563763
 20
165.5083153994
 10
371.0317496929
 20
166.0841112555
 10
371.1886405181
 20
166.6924414706
 10
371.4413690775
 20
167.3028018276
 10
371.7772625059
 20
167.8845863097
 10
372.179477704
 20
168.4086218135
 10
372.6278459225
 20
168.8486310107
 10
373.0998841065
 20
169.1825500028
 10
373.5719222906
 20
169.3936346973
 10
374.0202905091
 20
169.4713004261
 10
374.4225057072
 20
169.4116527053
 10
374.5941235814
 20
169.3343048837
  0
LWPOLYLINE
  5
298
330
1F
100
AcDbEntity
  8
0
  6
Continuous
 62
     8
370
    18
100
AcDbPolyline
 90
       16
 70
   128
 43
0.0
 10
337.9023943712
 20
190.5160136709
 10
337.7251378729
 20
190.596592222
 10
337.3229226747
 20
190.6562399427
 10
336.8745544563
 20
190.5785742139
 10
336.4025162722
 20
190.3674895194
 10
335.9304780881
 20
190.0335705273
 10
335.4821098697
 20
189.5935613301
 10
335.0798946715
 20
189.0695258263
 10
334.7440012432
 20
188.4877413443
 10
334.4912726838
 20
187.8773809872
 10
334.3343818586
 20
187.2690507721
 10
334.2811959287
 20
186.6932549161
 10
334.3343818586
 20
186.1788662276
 10
334.4912726838
 20
185.7516783036
 10
334.7440012432
 20
185.4331121302
 10
334.9026381733
 20
185.3197204966
  0
LWPOLYLINE
  5
299
330
1F
100
AcDbEntity
  8
0
  6
Continuous
 62
     8
370
    18
100
AcDbPolyline
 90
       16
 70
   128
 43
0.0
 10
336.8383906585
 20
191.2616924799
 10
336.5998048722
 20
191.3828153547
 10
336.2501348961
 20
191.405751925
 10
335.8343861144
 20
191.3052963591
 10
335.373405907
 20
191.0864859186
 10
334.8903097463
 20
190.7602926725
 10
334.4093220911
 20
190.3430733124
 10
333.9545616708
 20
189.8557489591
 10
333.5488320719
 20
189.3227560905
 10
333.2124782706
 20
188.7708211948
 10
332.9623664509
 20
188.2276205921
 10
332.811038264
 20
187.7203926291
 10
332.766081937
 20
187.2745718336
 10
332.8297517678
 20
186.9125135221
 10
332.9988550853
 20
186.65237281
 10
333.0263265566
 20
186.6283171137
  0
LINE
  5
29A
330
1F
100
AcDbEntity
  8
0
  6
Continuous
 62
     7
370
    25
100
AcDbLine
 10
70.0233593857
 20
243.7105217814
 30
0.0
 11
68.5233593857
 21
242.6105217814
 31
0.0
  0
LINE
  5
29B
330
1F
100
AcDbEntity
  8
0
  6
Continuous
 62
     7
370
    25
100
AcDbLine
 10
68.5233593857
 20
242.6105217814
 30
0.0
 11
67.0233593857
 21
242.6105217814
 31
0.0
  0
LINE
  5
29C
330
1F
100
AcDbEntity
  8
0
  6
Continuous
 62
     7
370
    25
100
AcDbLine
 10
67.0233593857
 20
242.6105217814
 30
0.0
 11
67.0233593857
 21
244.0105217814
 31
0.0
  0
LINE
  5
29D
330
1F
100
AcDbEntity
  8
0
  6
Continuous
 62
     7
370
    25
100
AcDbLine
 10
67.0233593857
 20
244.0105217814
 30
0.0
 11
65.0233593857
 21
244.0105217814
 31
0.0
  0
LINE
  5
29E
330
1F
100
AcDbEntity
  8
0
  6
Continuous
 62
     7
370
    25
100
AcDbLine
 10
65.0233593857
 20
244.0105217814
 30
0.0
 11
65.0233593857
 21
240.3105217814
 31
0.0
  0
LINE
  5
29F
330
1F
100
AcDbEntity
  8
0
  6
Continuous
 62
     7
370
    25
100
AcDbLine
 10
65.0233593857
 20
240.3105217814
 30
0.0
 11
70.0233593857
 21
240.3105217814
 31
0.0
  0
LINE
  5
2A0
330
1F
100
AcDbEntity
  8
0
  6
Continuous
 62
     7
370
    25
100
AcDbLine
 10
70.0233593857
 20
240.3105217814
 30
0.0
 11
70.0233593857
 21
238.9105217814
 31
0.0
  0
LINE
  5
2A1
330
1F
100
AcDbEntity
  8
0
  6
Continuous
 62
     7
370
    25
100
AcDbLine
 10
70.0233593857
 20
238.9105217814
 30
0.0
 11
63.2733593857
 21
238.9105217814
 31
0.0
  0
LINE
  5
2A2
330
1F
100
AcDbEntity
  8
0
  6
Continuous
 62
     7
370
    25
100
AcDbLine
 10
63.2733593857
 20
238.9105217814
 30
0.0
 11
63.2733593857
 21
240.7564167291
 31
0.0
  0
ARC
  5
2A3
330
1F
100
AcDbEntity
  8
0
  6
Continuous
 62
     7
370
    25
100
AcDbCircle
 10
62.9733593857
 20
240.7564167291
 30
0.0
 40
0.2999999999999972
100
AcDbArc
 50
0.0
 51
79.5070047618
  0
ARC
  5
2A4
330
1F
100
AcDbEntity
  8
0
  6
Continuous
 62
     7
370
    25
100
AcDbCircle
 10
64.2827472921
 20
247.8260651355
 30
0.0
 40
6.889883537310133
100
AcDbArc
 50
237.4735413954
 51
259.5070047618
  0
ARC
  5
2A5
330
1F
100
AcDbEntity
  8
0
  6
Continuous
 62
     7
370
    25
100
AcDbCircle
 10
61.2233593857
 20
243.0286783149
 30
0.0
 40
1.200000000000017
100
AcDbArc
 50
180.0
 51
237.4735413954
  0
LINE
  5
2A6
330
1F
100
AcDbEntity
  8
0
  6
Continuous
 62
     7
370
    25
100
AcDbLine
 10
60.0233593857
 20
243.0286783149
 30
0.0
 11
60.0233593857
 21
244.4105217814
 31
0.0
  0
LINE
  5
2A7
330
1F
100
AcDbEntity
  8
0
  6
Continuous
 62
     7
370
    25
100
AcDbLine
 10
60.0233593857
 20
244.4105217814
 30
0.0
 11
60.6233593857
 21
244.4105217814
 31
0.0
  0
LINE
  5
2A8
330
1F
100
AcDbEntity
  8
0
  6
Continuous
 62
     7
370
    25
100
AcDbLine
 10
60.6233593857
 20
244.4105217814
 30
0.0
 11
60.6233593857
 21
243.4871900532
 31
0.0
  0
ARC
  5
2A9
330
1F
100
AcDbEntity
  8
0
  6
Continuous
 62
     7
370
    25
100
AcDbCircle
 10
61.4233593857
 20
243.4871900532
 30
0.0
 40
0.800000000000013
100
AcDbArc
 50
180.0
 51
253.1926302543
  0
ARC
  5
2AA
330
1F
100
AcDbEntity
  8
0
  6
Continuous
 62
     7
370
    25
100
AcDbCircle
 10
64.3124060357
 20
253.0517278186
 30
0.0
 40
10.7913449149858
100
AcDbArc
 50
253.1926302543
 51
262.6671396742
  0
ARC
  5
2AB
330
1F
100
AcDbEntity
  8
0
  6
Continuous
 62
     7
370
    25
100
AcDbCircle
 10
62.9733593857
 20
242.646187362
 30
0.0
 40
0.3000000000000158
100
AcDbArc
 50
262.6671396742
 51
0.0
  0
LINE
  5
2AC
330
1F
100
AcDbEntity
  8
0
  6
Continuous
 62
     7
370
    25
100
AcDbLine
 10
63.2733593857
 20
242.646187362
 30
0.0
 11
63.2733593857
 21
245.4105217814
 31
0.0
  0
LINE
  5
2AD
330
1F
100
AcDbEntity
  8
0
  6
Continuous
 62
     7
370
    25
100
AcDbLine
 10
63.2733593857
 20
245.4105217814
 30
0.0
 11
70.0233593857
 21
245.4105217814
 31
0.0
  0
LINE
  5
2AE
330
1F
100
AcDbEntity
  8
0
  6
Continuous
 62
     7
370
    25
100
AcDbLine
 10
70.0233593857
 20
245.4105217814
 30
0.0
 11
70.0233593857
 21
243.7105217814
 31
0.0
  0
LINE
  5
2AF
330
1F
100
AcDbEntity
  8
0
  6
Continuous
 62
     7
370
    25
100
AcDbLine
 10
156.7733593857
 20
245.4105217814
 30
0.0
 11
156.7733593857
 21
242.646187362
 31
0.0
  0
LINE
  5
2B0
330
1F
100
AcDbEntity
  8
0
  6
Continuous
 62
     7
370
    25
100
AcDbLine
 10
157.1116494237
 20
242.3486409404
 30
0.0
 11
157.0350693478
 21
242.3486409404
 31
0.0
  0
LINE
  5
2B1
330
1F
100
AcDbEntity
  8
0
  6
Continuous
 62
     7
370
    25
100
AcDbLine
 10
63.0116494237
 20
242.3486409404
 30
0.0
 11
62.9350693478
 21
242.3486409404
 31
0.0
  0
ARC
  5
2B2
330
1F
100
AcDbEntity
  8
0
  6
Continuous
 62
     7
370
    25
100
AcDbCircle
 10
157.0733593857
 20
242.646187362
 30
0.0
 40
0.3000000000000149
100
AcDbArc
 50
180.0
 51
277.3328603258
  0
ARC
  5
2B3
330
1F
100
AcDbEntity
  8
0
  6
Continuous
 62
     7
370
    25
100
AcDbCircle
 10
155.7343127358
 20
253.0517278186
 30
0.0
 40
10.79134491498581
100
AcDbArc
 50
277.3328603258
 51
286.8073697457
  0
ARC
  5
2B4
330
1F
100
AcDbEntity
  8
0
  6
Continuous
 62
     7
370
    25
100
AcDbCircle
 10
158.6233593857
 20
243.4871900532
 30
0.0
 40
0.8000000000000114
100
AcDbArc
 50
286.8073697457
 51
0.0
  0
LINE
  5
2B5
330
1F
100
AcDbEntity
  8
0
  6
Continuous
 62
     7
370
    25
100
AcDbLine
 10
159.4233593857
 20
244.4105217814
 30
0.0
 11
156.7733593857
 21
244.4105217814
 31
0.0
  0
LINE
  5
2B6
330
1F
100
AcDbEntity
  8
0
  6
Continuous
 62
     7
370
    25
100
AcDbLine
 10
63.2733593857
 20
244.4105217814
 30
0.0
 11
60.6233593857
 21
244.4105217814
 31
0.0
  0
LINE
  5
2B7
330
1F
100
AcDbEntity
  8
0
  6
Continuous
 62
     7
370
    25
100
AcDbLine
 10
159.4233593857
 20
243.4871900532
 30
0.0
 11
159.4233593857
 21
244.4105217814
 31
0.0
  0
LINE
  5
2B8
330
1F
100
AcDbEntity
  8
0
  6
Continuous
 62
     7
370
    25
100
AcDbLine
 10
160.0233593857
 20
244.4105217814
 30
0.0
 11
160.0233593857
 21
243.0286783149
 31
0.0
  0
ARC
  5
2B9
330
1F
100
AcDbEntity
  8
0
  6
Continuous
 62
     7
370
    25
100
AcDbCircle
 10
158.8233593857
 20
243.0286783149
 30
0.0
 40
1.199999999999989
100
AcDbArc
 50
302.5264586046
 51
0.0
  0
ARC
  5
2BA
330
1F
100
AcDbEntity
  8
0
  6
Continuous
 62
     7
370
    25
100
AcDbCircle
 10
155.7639714793
 20
247.8260651355
 30
0.0
 40
6.889883537310133
100
AcDbArc
 50
280.4929952382
 51
302.5264586046
  0
ARC
  5
2BB
330
1F
100
AcDbEntity
  8
0
  6
Continuous
 62
     7
370
    25
100
AcDbCircle
 10
157.0733593857
 20
240.7564167291
 30
0.0
 40
0.3000000000000114
100
AcDbArc
 50
100.4929952382
 51
180.0
  0
LINE
  5
2BC
330
1F
100
AcDbEntity
  8
0
  6
Continuous
 62
     7
370
    25
100
AcDbLine
 10
156.7733593857
 20
240.7564167291
 30
0.0
 11
156.7733593857
 21
238.9105217814
 31
0.0
  0
LINE
  5
2BD
330
1F
100
AcDbEntity
  8
0
  6
Continuous
 62
     7
370
    25
100
AcDbLine
 10
150.0233593857
 20
238.9105217814
 30
0.0
 11
150.0233593857
 21
240.3105217814
 31
0.0
  0
LINE
  5
2BE
330
1F
100
AcDbEntity
  8
0
  6
Continuous
 62
     7
370
    25
100
AcDbLine
 10
150.0233593857
 20
238.9105217814
 30
0.0
 11
135.0233593857
 21
238.9105217814
 31
0.0
  0
LINE
  5
2BF
330
1F
100
AcDbEntity
  8
0
  6
Continuous
 62
     7
370
    25
100
AcDbLine
 10
85.0233593857
 20
238.9105217814
 30
0.0
 11
70.0233593857
 21
238.9105217814
 31
0.0
  0
LINE
  5
2C0
330
1F
100
AcDbEntity
  8
0
  6
Continuous
 62
     7
370
    25
100
AcDbLine
 10
155.0233593857
 20
240.3105217814
 30
0.0
 11
155.0233593857
 21
244.0105217814
 31
0.0
  0
LINE
  5
2C1
330
1F
100
AcDbEntity
  8
0
  6
Continuous
 62
     7
370
    25
100
AcDbLine
 10
153.0233593857
 20
244.0105217814
 30
0.0
 11
153.0233593857
 21
242.6105217814
 31
0.0
  0
LINE
  5
2C2
330
1F
100
AcDbEntity
  8
0
  6
Continuous
 62
     7
370
    25
100
AcDbLine
 10
151.5233593857
 20
242.6105217814
 30
0.0
 11
150.0233593857
 21
243.7105217814
 31
0.0
  0
LINE
  5
2C3
330
1F
100
AcDbEntity
  8
0
  6
Continuous
 62
     7
370
    25
100
AcDbLine
 10
150.0233593857
 20
243.7105217814
 30
0.0
 11
143.9251542448
 21
243.7105217814
 31
0.0
  0
LINE
  5
2C4
330
1F
100
AcDbEntity
  8
0
  6
Continuous
 62
     7
370
    25
100
AcDbLine
 10
76.1215645267
 20
243.7105217814
 30
0.0
 11
70.0233593857
 21
243.7105217814
 31
0.0
  0
LINE
  5
2C5
330
1F
100
AcDbEntity
  8
0
  6
Continuous
 62
     7
370
    25
100
AcDbLine
 10
151.5233593857
 20
242.6105217814
 30
0.0
 11
138.7500611244
 21
242.6105217814
 31
0.0
  0
LINE
  5
2C6
330
1F
100
AcDbEntity
  8
0
  6
Continuous
 62
     7
370
    25
100
AcDbLine
 10
81.2966576471
 20
242.6105217814
 30
0.0
 11
68.5233593857
 21
242.6105217814
 31
0.0
  0
LINE
  5
2C7
330
1F
100
AcDbEntity
  8
0
  6
Continuous
 62
     7
370
    25
100
AcDbLine
 10
150.0233593857
 20
243.7105217814
 30
0.0
 11
150.0233593857
 21
245.4105217814
 31
0.0
  0
LINE
  5
2C8
330
1F
100
AcDbEntity
  8
0
  6
Continuous
 62
     7
370
    25
100
AcDbLine
 10
153.0233593857
 20
242.6105217814
 30
0.0
 11
151.5233593857
 21
242.6105217814
 31
0.0
  0
LINE
  5
2C9
330
1F
100
AcDbEntity
  8
0
  6
Continuous
 62
     7
370
    25
100
AcDbLine
 10
155.0233593857
 20
244.0105217814
 30
0.0
 11
153.0233593857
 21
244.0105217814
 31
0.0
  0
LINE
  5
2CA
330
1F
100
AcDbEntity
  8
0
  6
Continuous
 62
     7
370
    25
100
AcDbLine
 10
150.0233593857
 20
240.3105217814
 30
0.0
 11
155.0233593857
 21
240.3105217814
 31
0.0
  0
LINE
  5
2CB
330
1F
100
AcDbEntity
  8
0
  6
Continuous
 62
     7
370
    25
100
AcDbLine
 10
156.7733593857
 20
238.9105217814
 30
0.0
 11
150.0233593857
 21
238.9105217814
 31
0.0
  0
LINE
  5
2CC
330
1F
100
AcDbEntity
  8
0
  6
Continuous
 62
     7
370
    25
100
AcDbLine
 10
159.4233593857
 20
244.4105217814
 30
0.0
 11
160.0233593857
 21
244.4105217814
 31
0.0
  0
LINE
  5
2CD
330
1F
100
AcDbEntity
  8
0
  6
Continuous
 62
     7
370
    25
100
AcDbLine
 10
150.0233593857
 20
245.4105217814
 30
0.0
 11
156.7733593857
 21
245.4105217814
 31
0.0
  0
LINE
  5
2CE
330
1F
100
AcDbEntity
  8
0
  6
Continuous
 62
     7
370
    25
100
AcDbLine
 10
84.0744017384
 20
242.3105217814
 30
0.0
 11
135.9723170331
 21
242.3105217814
 31
0.0
  0
LINE
  5
2CF
330
1F
100
AcDbEntity
  8
0
  6
Continuous
 62
     7
370
    25
100
AcDbLine
 10
135.9723170331
 20
248.3105217814
 30
0.0
 11
84.0744017384
 21
248.3105217814
 31
0.0
  0
ARC
  5
2D0
330
1F
100
AcDbEntity
  8
0
  6
Continuous
 62
     7
370
    25
100
AcDbCircle
 10
84.0744017384
 20
255.3105217814
 30
0.0
 40
7.000000000000016
100
AcDbArc
 50
258.0
 51
270.0
  0
ARC
  5
2D1
330
1F
100
AcDbEntity
  8
0
  6
Continuous
 62
     7
370
    25
100
AcDbCircle
 10
84.0744017384
 20
255.3105217814
 30
0.0
 40
13.00000000000002
100
AcDbArc
 50
258.0
 51
270.0
  0
LINE
  5
2D2
330
1F
100
AcDbEntity
  8
0
  6
Continuous
 62
     7
370
    25
100
AcDbLine
 10
55.0246243133
 20
248.1948148549
 30
0.0
 11
81.3715497578
 21
242.5946029719
 31
0.0
  0
LINE
  5
2D3
330
1F
100
AcDbEntity
  8
0
  6
Continuous
 62
     7
370
    25
100
AcDbLine
 10
82.6190199027
 20
248.4634885763
 30
0.0
 11
56.2720944582
 21
254.0637004593
 31
0.0
  0
ARC
  5
2D4
330
1F
100
AcDbEntity
  8
0
  6
Continuous
 62
     7
370
    25
100
AcDbCircle
 10
135.9723170331
 20
255.3105217814
 30
0.0
 40
7.000000000000016
100
AcDbArc
 50
270.0
 51
282.0
  0
ARC
  5
2D5
330
1F
100
AcDbEntity
  8
0
  6
Continuous
 62
     7
370
    25
100
AcDbCircle
 10
135.9723170331
 20
255.3105217814
 30
0.0
 40
13.00000000000002
100
AcDbArc
 50
270.0
 51
282.0
  0
LINE
  5
2D6
330
1F
100
AcDbEntity
  8
0
  6
Continuous
 62
     7
370
    25
100
AcDbLine
 10
163.7746243133
 20
254.0637004593
 30
0.0
 11
137.4276988688
 21
248.4634885763
 31
0.0
  0
LINE
  5
2D7
330
1F
100
AcDbEntity
  8
0
  6
Continuous
 62
     7
370
    25
100
AcDbLine
 10
138.6751690137
 20
242.5946029719
 30
0.0
 11
165.0220944582
 21
248.1948148549
 31
0.0
  0
LINE
  5
2D8
330
1F
100
AcDbEntity
  8
0
  6
Continuous
 62
     7
370
    25
100
AcDbLine
 10
165.0220944582
 20
248.1948148549
 30
0.0
 11
163.7746243133
 21
254.0637004593
 31
0.0
  0
LINE
  5
2D9
330
1F
100
AcDbEntity
  8
0
  6
Continuous
 62
     7
370
    25
100
AcDbLine
 10
56.2720944582
 20
254.0637004593
 30
0.0
 11
55.0246243133
 21
248.1948148549
 31
0.0
  0
LINE
  5
2DA
330
1F
100
AcDbEntity
  8
0
  6
Continuous
 62
     7
370
    25
100
AcDbLine
 10
135.0233593857
 20
240.3105217814
 30
0.0
 11
135.0233593857
 21
242.3105217814
 31
0.0
  0
LINE
  5
2DB
330
1F
100
AcDbEntity
  8
0
  6
Continuous
 62
     7
370
    25
100
AcDbLine
 10
85.0233593857
 20
242.3105217814
 30
0.0
 11
85.0233593857
 21
240.3105217814
 31
0.0
  0
LINE
  5
2DC
330
1F
100
AcDbEntity
  8
0
  6
Continuous
 62
     7
370
    25
100
AcDbLine
 10
155.0233593857
 20
240.3105217814
 30
0.0
 11
155.0233593857
 21
242.3105217814
 31
0.0
  0
LINE
  5
2DD
330
1F
100
AcDbEntity
  8
0
  6
Continuous
 62
     7
370
    25
100
AcDbLine
 10
65.0233593857
 20
242.3105217814
 30
0.0
 11
65.0233593857
 21
240.3105217814
 31
0.0
  0
LINE
  5
2DE
330
1F
100
AcDbEntity
  8
0
  6
Continuous
 62
     7
370
    25
100
AcDbLine
 10
135.0233593857
 20
242.3105217814
 30
0.0
 11
155.0233593857
 21
242.3105217814
 31
0.0
  0
LINE
  5
2DF
330
1F
100
AcDbEntity
  8
0
  6
Continuous
 62
     7
370
    25
100
AcDbLine
 10
135.0233593857
 20
240.3105217814
 30
0.0
 11
155.0233593857
 21
240.3105217814
 31
0.0
  0
LINE
  5
2E0
330
1F
100
AcDbEntity
  8
0
  6
Continuous
 62
     7
370
    25
100
AcDbLine
 10
65.0233593857
 20
242.3105217814
 30
0.0
 11
85.0233593857
 21
242.3105217814
 31
0.0
  0
LINE
  5
2E1
330
1F
100
AcDbEntity
  8
0
  6
Continuous
 62
     7
370
    25
100
AcDbLine
 10
65.0233593857
 20
240.3105217814
 30
0.0
 11
85.0233593857
 21
240.3105217814
 31
0.0
  0
LINE
  5
2E2
330
1F
100
AcDbEntity
  8
0
  6
Continuous
 62
     7
370
    25
100
AcDbLine
 10
74.5233593857
 20
218.3105217814
 30
0.0
 11
74.5233593857
 21
161.3105217814
 31
0.0
  0
LINE
  5
2E3
330
1F
100
AcDbEntity
  8
0
  6
Continuous
 62
     7
370
    25
100
AcDbLine
 10
72.5233593857
 20
161.3105217814
 30
0.0
 11
74.5233593857
 21
161.3105217814
 31
0.0
  0
LINE
  5
2E4
330
1F
100
AcDbEntity
  8
0
  6
Continuous
 62
     7
370
    25
100
AcDbLine
 10
72.5233593857
 20
218.3105217814
 30
0.0
 11
72.5233593857
 21
161.3105217814
 31
0.0
  0
LINE
  5
2E5
330
1F
100
AcDbEntity
  8
0
  6
Continuous
 62
     7
370
    25
100
AcDbLine
 10
72.5233593857
 20
218.3105217814
 30
0.0
 11
74.5233593857
 21
218.3105217814
 31
0.0
  0
LINE
  5
2E6
330
1F
100
AcDbEntity
  8
0
  6
Continuous
 62
     7
370
    25
100
AcDbLine
 10
145.5233593857
 20
161.3105217814
 30
0.0
 11
145.5233593857
 21
218.3105217814
 31
0.0
  0
LINE
  5
2E7
330
1F
100
AcDbEntity
  8
0
  6
Continuous
 62
     7
370
    25
100
AcDbLine
 10
145.5233593857
 20
218.3105217814
 30
0.0
 11
135.0233593857
 21
218.3105217814
 31
0.0
  0
LINE
  5
2E8
330
1F
100
AcDbEntity
  8
0
  6
Continuous
 62
     7
370
    25
100
AcDbLine
 10
85.0233593857
 20
218.3105217814
 30
0.0
 11
84.5374466879
 21
218.3105217814
 31
0.0
  0
LINE
  5
2E9
330
1F
100
AcDbEntity
  8
0
  6
Continuous
 62
     7
370
    25
100
AcDbLine
 10
74.5374466879
 20
218.3105217814
 30
0.0
 11
74.5233593857
 21
218.3105217814
 31
0.0
  0
LINE
  5
2EA
330
1F
100
AcDbEntity
  8
0
  6
Continuous
 62
     7
370
    25
100
AcDbLine
 10
147.5233593857
 20
161.3105217814
 30
0.0
 11
147.5233593857
 21
218.3105217814
 31
0.0
  0
LINE
  5
2EB
330
1F
100
AcDbEntity
  8
0
  6
Continuous
 62
     7
370
    25
100
AcDbLine
 10
145.5233593857
 20
218.3105217814
 30
0.0
 11
147.5233593857
 21
218.3105217814
 31
0.0
  0
LINE
  5
2EC
330
1F
100
AcDbEntity
  8
0
  6
Continuous
 62
     7
370
    25
100
AcDbLine
 10
145.5233593857
 20
161.3105217814
 30
0.0
 11
147.5233593857
 21
161.3105217814
 31
0.0
  0
LINE
  5
2ED
330
1F
100
AcDbEntity
  8
0
  6
Continuous
 62
     7
370
    25
100
AcDbLine
 10
74.5374466879
 20
218.3105217814
 30
0.0
 11
84.5374466879
 21
218.3105217814
 31
0.0
  0
LINE
  5
2EE
330
1F
100
AcDbEntity
  8
0
  6
Continuous
 62
     7
370
    25
100
AcDbLine
 10
84.5374466879
 20
218.3105217814
 30
0.0
 11
84.5374466879
 21
208.3105217814
 31
0.0
  0
LINE
  5
2EF
330
1F
100
AcDbEntity
  8
0
  6
Continuous
 62
     7
370
    25
100
AcDbLine
 10
74.5374466879
 20
208.3105217814
 30
0.0
 11
84.5374466879
 21
208.3105217814
 31
0.0
  0
LINE
  5
2F0
330
1F
100
AcDbEntity
  8
0
  6
Continuous
 62
     7
370
    25
100
AcDbLine
 10
74.5374466879
 20
208.3105217814
 30
0.0
 11
74.5374466879
 21
218.3105217814
 31
0.0
  0
LINE
  5
2F1
330
1F
100
AcDbEntity
  8
0
  6
Continuous
 62
     7
370
    25
100
AcDbLine
 10
72.5233593857
 20
161.3105217814
 30
0.0
 11
72.5233593857
 21
159.3105217814
 31
0.0
  0
LINE
  5
2F2
330
1F
100
AcDbEntity
  8
0
  6
Continuous
 62
     7
370
    25
100
AcDbLine
 10
147.5233593857
 20
161.3105217814
 30
0.0
 11
72.5233593857
 21
161.3105217814
 31
0.0
  0
LINE
  5
2F3
330
1F
100
AcDbEntity
  8
0
  6
Continuous
 62
     7
370
    25
100
AcDbLine
 10
147.5233593857
 20
159.3105217814
 30
0.0
 11
147.5233593857
 21
161.3105217814
 31
0.0
  0
LINE
  5
2F4
330
1F
100
AcDbEntity
  8
0
  6
Continuous
 62
     7
370
    25
100
AcDbLine
 10
147.5233593857
 20
159.3105217814
 30
0.0
 11
72.5233593857
 21
159.3105217814
 31
0.0
  0
LINE
  5
2F5
330
1F
100
AcDbEntity
  8
0
  6
Continuous
 62
     7
370
    25
100
AcDbLine
 10
86.5233593857
 20
242.3105217814
 30
0.0
 11
86.5233593857
 21
179.3105217814
 31
0.0
  0
LINE
  5
2F6
330
1F
100
AcDbEntity
  8
0
  6
Continuous
 62
     7
370
    25
100
AcDbLine
 10
86.5233593857
 20
179.3105217814
 30
0.0
 11
87.0233593857
 21
179.3105217814
 31
0.0
  0
LINE
  5
2F7
330
1F
100
AcDbEntity
  8
0
  6
Continuous
 62
     7
370
    25
100
AcDbLine
 10
87.0233593857
 20
161.3105217814
 30
0.0
 11
87.0233593857
 21
179.3105217814
 31
0.0
  0
LINE
  5
2F8
330
1F
100
AcDbEntity
  8
0
  6
Continuous
 62
     7
370
    25
100
AcDbLine
 10
85.0233593857
 20
161.3105217814
 30
0.0
 11
87.0233593857
 21
161.3105217814
 31
0.0
  0
LINE
  5
2F9
330
1F
100
AcDbEntity
  8
0
  6
Continuous
 62
     7
370
    25
100
AcDbLine
 10
85.0233593857
 20
179.3105217814
 30
0.0
 11
85.0233593857
 21
161.3105217814
 31
0.0
  0
LINE
  5
2FA
330
1F
100
AcDbEntity
  8
0
  6
Continuous
 62
     7
370
    25
100
AcDbLine
 10
85.0233593857
 20
242.3105217814
 30
0.0
 11
85.0233593857
 21
179.3105217814
 31
0.0
  0
LINE
  5
2FB
330
1F
100
AcDbEntity
  8
0
  6
Continuous
 62
     7
370
    25
100
AcDbLine
 10
85.0233593857
 20
242.3105217814
 30
0.0
 11
86.5233593857
 21
242.3105217814
 31
0.0
  0
LINE
  5
2FC
330
1F
100
AcDbEntity
  8
0
  6
Continuous
 62
     7
370
    25
100
AcDbLine
 10
135.0233593857
 20
179.3105217814
 30
0.0
 11
135.0233593857
 21
242.3105217814
 31
0.0
  0
LINE
  5
2FD
330
1F
100
AcDbEntity
  8
0
  6
Continuous
 62
     7
370
    25
100
AcDbLine
 10
133.5233593857
 20
179.3105217814
 30
0.0
 11
133.5233593857
 21
242.3105217814
 31
0.0
  0
LINE
  5
2FE
330
1F
100
AcDbEntity
  8
0
  6
Continuous
 62
     7
370
    25
100
AcDbLine
 10
133.0233593857
 20
179.3105217814
 30
0.0
 11
87.0233593857
 21
179.3105217814
 31
0.0
  0
LINE
  5
2FF
330
1F
100
AcDbEntity
  8
0
  6
Continuous
 62
     7
370
    25
100
AcDbLine
 10
133.5233593857
 20
179.3105217814
 30
0.0
 11
133.0233593857
 21
179.3105217814
 31
0.0
  0
LINE
  5
300
330
1F
100
AcDbEntity
  8
0
  6
Continuous
 62
     7
370
    25
100
AcDbLine
 10
133.0233593857
 20
179.3105217814
 30
0.0
 11
133.0233593857
 21
161.3105217814
 31
0.0
  0
LINE
  5
301
330
1F
100
AcDbEntity
  8
0
  6
Continuous
 62
     7
370
    25
100
AcDbLine
 10
135.0233593857
 20
161.3105217814
 30
0.0
 11
135.0233593857
 21
179.3105217814
 31
0.0
  0
LINE
  5
302
330
1F
100
AcDbEntity
  8
0
  6
Continuous
 62
     7
370
    25
100
AcDbLine
 10
135.0233593857
 20
161.3105217814
 30
0.0
 11
133.0233593857
 21
161.3105217814
 31
0.0
  0
LINE
  5
303
330
1F
100
AcDbEntity
  8
0
  6
Continuous
 62
     7
370
    25
100
AcDbLine
 10
133.5233593857
 20
242.3105217814
 30
0.0
 11
135.0233593857
 21
242.3105217814
 31
0.0
  0
LINE
  5
304
330
1F
100
AcDbEntity
  8
0
  6
Continuous
 62
     8
370
    18
100
AcDbLine
 10
158.8546833306
 20
242.7213642032
 30
0.0
 11
156.7733593857
 21
242.7213642032
 31
0.0
  0
LINE
  5
305
330
1F
100
AcDbEntity
  8
0
  6
Continuous
 62
     8
370
    18
100
AcDbLine
 10
63.2733593857
 20
242.7213642032
 30
0.0
 11
61.1920354409
 21
242.7213642032
 31
0.0
  0
LINE
  5
306
330
1F
100
AcDbEntity
  8
0
  6
Continuous
 62
     8
370
    18
100
AcDbLine
 10
159.4233593857
 20
243.4871900532
 30
0.0
 11
156.7733593857
 21
243.4871900532
 31
0.0
  0
LINE
  5
307
330
1F
100
AcDbEntity
  8
0
  6
Continuous
 62
     8
370
    18
100
AcDbLine
 10
63.2733593857
 20
243.4871900532
 30
0.0
 11
60.6233593857
 21
243.4871900532
 31
0.0
  0
HATCH
  5
308
330
1F
100
AcDbEntity
  8
0
  6
Continuous
 62
     7
370
    18
100
AcDbHatch
 10
0.0
 20
0.0
 30
0.0
210
0.0
220
0.0
230
1.0
  2
ANSI31
 70
     0
 71
     0
 91
        1
 92
        0
 93
        7
 72
     1
 10
135.0233593857333
 20
242.3105217813913
 11
133.5233593857333
 21
242.3105217813913
 72
     1
 10
133.5233593857333
 20
242.3105217813913
 11
133.5233593857333
 21
179.3105217813913
 72
     1
 10
133.5233593857333
 20
179.3105217813913
 11
133.0233593857333
 21
179.3105217813913
 72
     1
 10
133.0233593857333
 20
179.3105217813913
 11
133.0233593857333
 21
161.3105217813913
 72
     1
 10
133.0233593857333
 20
161.3105217813913
 11
135.0233593857333
 21
161.3105217813913
 72
     1
 10
135.0233593857333
 20
161.3105217813913
 11
135.0233593857333
 21
179.3105217813913
 72
     1
 10
135.0233593857333
 20
179.3105217813913
 11
135.0233593857333
 21
242.3105217813913
 97
        0
 75
     0
 76
     1
 52
0.0
 41
1.0
 77
     0
 78
     1
 53
45.0
 43
0.0
 44
0.0
 45
-2.245064030267288
 46
2.245064030267288
 79
     0
 98
        1
 10
0.0
 20
0.0
  0
HATCH
  5
309
330
1F
100
AcDbEntity
  8
0
  6
Continuous
 62
     7
370
    18
100
AcDbHatch
 10
0.0
 20
0.0
 30
0.0
210
0.0
220
0.0
230
1.0
  2
ANSI31
 70
     0
 71
     0
 91
        1
 92
        0
 93
        7
 72
     1
 10
86.5233593857333
 20
242.3105217813913
 11
85.0233593857333
 21
242.3105217813913
 72
     1
 10
85.0233593857333
 20
242.3105217813913
 11
85.0233593857333
 21
179.3105217813913
 72
     1
 10
85.0233593857333
 20
179.3105217813913
 11
85.0233593857333
 21
161.3105217813913
 72
     1
 10
85.0233593857333
 20
161.3105217813913
 11
87.0233593857333
 21
161.3105217813913
 72
     1
 10
87.0233593857333
 20
161.3105217813913
 11
87.0233593857333
 21
179.3105217813913
 72
     1
 10
87.0233593857333
 20
179.3105217813913
 11
86.5233593857333
 21
179.3105217813913
 72
     1
 10
86.5233593857333
 20
179.3105217813913
 11
86.5233593857333
 21
242.3105217813913
 97
        0
 75
     0
 76
     1
 52
0.0
 41
1.0
 77
     0
 78
     1
 53
45.0
 43
0.0
 44
0.0
 45
-2.245064030267288
 46
2.245064030267288
 79
     0
 98
        1
 10
0.0
 20
0.0
  0
HATCH
  5
30A
330
1F
100
AcDbEntity
  8
0
  6
Continuous
 62
     7
370
    18
100
AcDbHatch
 10
0.0
 20
0.0
 30
0.0
210
0.0
220
0.0
230
1.0
  2
ANSI31
 70
     0
 71
     0
 91
        1
 92
        0
 93
        4
 72
     1
 10
72.52335938573331
 20
159.3105217813913
 11
147.5233593857333
 21
159.3105217813913
 72
     1
 10
147.5233593857333
 20
159.3105217813913
 11
147.5233593857333
 21
161.3105217813913
 72
     1
 10
147.5233593857333
 20
161.3105217813913
 11
72.52335938573331
 21
161.3105217813913
 72
     1
 10
72.52335938573331
 20
161.3105217813913
 11
72.52335938573331
 21
159.3105217813913
 97
        0
 75
     0
 76
     1
 52
90.0
 41
1.0
 77
     0
 78
     1
 53
135.0000000000002
 43
0.0
 44
0.0
 45
-2.245064030267281
 46
-2.245064030267296
 79
     0
 98
        1
 10
0.0
 20
0.0
  0
HATCH
  5
30B
330
1F
100
AcDbEntity
  8
0
  6
Continuous
 62
     7
370
    18
100
AcDbHatch
 10
0.0
 20
0.0
 30
0.0
210
0.0
220
0.0
230
1.0
  2
ANSI31
 70
     0
 71
     0
 91
        1
 92
        0
 93
        4
 72
     1
 10
74.53744668787532
 20
218.3105217813913
 11
74.53744668787532
 21
208.3105217813913
 72
     1
 10
74.53744668787532
 20
208.3105217813913
 11
84.53744668787532
 21
208.3105217813913
 72
     1
 10
84.53744668787532
 20
208.3105217813913
 11
84.53744668787532
 21
218.3105217813913
 72
     1
 10
84.53744668787532
 20
218.3105217813913
 11
74.53744668787532
 21
218.3105217813913
 97
        0
 75
     0
 76
     1
 52
90.0
 41
1.0
 77
     0
 78
     1
 53
135.0000000000002
 43
0.0
 44
0.0
 45
-2.245064030267281
 46
-2.245064030267296
 79
     0
 98
        1
 10
0.0
 20
0.0
  0
HATCH
  5
30C
330
1F
100
AcDbEntity
  8
0
  6
Continuous
 62
     7
370
    18
100
AcDbHatch
 10
0.0
 20
0.0
 30
0.0
210
0.0
220
0.0
230
1.0
  2
ANSI31
 70
     0
 71
     0
 91
        1
 92
        0
 93
        4
 72
     1
 10
74.52335938573331
 20
218.3105217813913
 11
72.52335938573331
 21
218.3105217813913
 72
     1
 10
72.52335938573331
 20
218.3105217813913
 11
72.52335938573331
 21
161.3105217813913
 72
     1
 10
72.52335938573331
 20
161.3105217813913
 11
74.52335938573331
 21
161.3105217813913
 72
     1
 10
74.52335938573331
 20
161.3105217813913
 11
74.52335938573331
 21
218.3105217813913
 97
        0
 75
     0
 76
     1
 52
0.0
 41
1.0
 77
     0
 78
     1
 53
45.0
 43
0.0
 44
0.0
 45
-2.245064030267288
 46
2.245064030267288
 79
     0
 98
        1
 10
0.0
 20
0.0
  0
HATCH
  5
30D
330
1F
100
AcDbEntity
  8
0
  6
Continuous
 62
     7
370
    18
100
AcDbHatch
 10
0.0
 20
0.0
 30
0.0
210
0.0
220
0.0
230
1.0
  2
ANSI31
 70
     0
 71
     0
 91
        1
 92
        0
 93
        4
 72
     1
 10
145.5233593857333
 20
161.3105217813913
 11
147.5233593857333
 21
161.3105217813913
 72
     1
 10
147.5233593857333
 20
161.3105217813913
 11
147.5233593857333
 21
218.3105217813913
 72
     1
 10
147.5233593857333
 20
218.3105217813913
 11
145.5233593857333
 21
218.3105217813913
 72
     1
 10
145.5233593857333
 20
218.3105217813913
 11
145.5233593857333
 21
161.3105217813913
 97
        0
 75
     0
 76
     1
 52
0.0
 41
1.0
 77
     0
 78
     1
 53
45.0
 43
0.0
 44
0.0
 45
-2.245064030267288
 46
2.245064030267288
 79
     0
 98
        1
 10
0.0
 20
0.0
  0
HATCH
  5
30E
330
1F
100
AcDbEntity
  8
0
  6
Continuous
 62
     7
370
    18
100
AcDbHatch
 10
0.0
 20
0.0
 30
0.0
210
0.0
220
0.0
230
1.0
  2
ANSI31
 70
     0
 71
     0
 91
        1
 92
        0
 93
        4
 72
     1
 10
85.0233593857333
 20
242.3105217813913
 11
65.02335938573331
 21
242.3105217813913
 72
     1
 10
65.02335938573331
 20
242.3105217813913
 11
65.02335938573331
 21
240.3105217813913
 72
     1
 10
65.02335938573331
 20
240.3105217813913
 11
85.0233593857333
 21
240.3105217813913
 72
     1
 10
85.0233593857333
 20
240.3105217813913
 11
85.0233593857333
 21
242.3105217813913
 97
        0
 75
     0
 76
     1
 52
90.0
 41
1.0
 77
     0
 78
     1
 53
135.0000000000002
 43
0.0
 44
0.0
 45
-2.245064030267281
 46
-2.245064030267296
 79
     0
 98
        1
 10
0.0
 20
0.0
  0
HATCH
  5
30F
330
1F
100
AcDbEntity
  8
0
  6
Continuous
 62
     7
370
    18
100
AcDbHatch
 10
0.0
 20
0.0
 30
0.0
210
0.0
220
0.0
230
1.0
  2
ANSI31
 70
     0
 71
     0
 91
        1
 92
        0
 93
        4
 72
     1
 10
135.0233593857333
 20
240.3105217813913
 11
155.0233593857333
 21
240.3105217813913
 72
     1
 10
155.0233593857333
 20
240.3105217813913
 11
155.0233593857333
 21
242.3105217813913
 72
     1
 10
155.0233593857333
 20
242.3105217813913
 11
135.0233593857333
 21
242.3105217813913
 72
     1
 10
135.0233593857333
 20
242.3105217813913
 11
135.0233593857333
 21
240.3105217813913
 97
        0
 75
     0
 76
     1
 52
0.0
 41
1.0
 77
     0
 78
     1
 53
45.0
 43
0.0
 44
0.0
 45
-2.245064030267288
 46
2.245064030267288
 79
     0
 98
        1
 10
0.0
 20
0.0
  0
HATCH
  5
310
330
1F
100
AcDbEntity
  8
0
  6
Continuous
 62
     7
370
    18
100
AcDbHatch
 10
0.0
 20
0.0
 30
0.0
210
0.0
220
0.0
230
1.0
  2
ANSI31
 70
     0
 71
     0
 91
        1
 92
        0
 93
       12
 72
     1
 10
56.27209445818659
 20
254.0637004593096
 11
55.02462431328004
 21
248.1948148549068
 72
     1
 10
55.02462431328004
 20
248.1948148549068
 11
81.37154975775917
 21
242.5946029718519
 72
     2
 10
84.07440173839007
 20
255.3105217813913
 40
13.0
 50
258.0000000000007
 51
270.000000000001
 73
     1
 72
     1
 10
84.07440173839011
 20
242.3105217813913
 11
135.9723170330765
 21
242.3105217813913
 72
     2
 10
135.9723170330766
 20
255.3105217813913
 40
13.0
 50
270.0000000000006
 51
282.0000000000009
 73
     1
 72
     1
 10
138.6751690137075
 20
242.5946029718519
 11
165.0220944581866
 21
248.1948148549068
 72
     1
 10
165.0220944581866
 20
248.1948148549068
 11
163.77462431328
 21
254.0637004593096
 72
     1
 10
163.77462431328
 20
254.0637004593096
 11
137.4276988688009
 21
248.4634885762547
 72
     2
 10
135.9723170330766
 20
255.3105217813913
 40
7.000000000000001
 50
77.9999999999999
 51
90.00000000000048
 73
     0
 72
     1
 10
135.9723170330765
 20
248.3105217813913
 11
84.07440173839011
 21
248.3105217813913
 72
     2
 10
84.07440173839007
 20
255.3105217813913
 40
7.000000000000001
 50
89.99999999999966
 51
102.0000000000001
 73
     0
 72
     1
 10
82.61901990266574
 20
248.4634885762547
 11
56.27209445818659
 21
254.0637004593096
 97
        0
 75
     0
 76
     1
 52
0.0
 41
1.0
 77
     0
 78
     1
 53
45.0
 43
0.0
 44
0.0
 45
-2.245064030267288
 46
2.245064030267288
 79
     0
 98
        1
 10
0.0
 20
0.0
  0
HATCH
  5
311
330
1F
100
AcDbEntity
  8
0
  6
Continuous
 62
     7
370
    18
100
AcDbHatch
 10
0.0
 20
0.0
 30
0.0
210
0.0
220
0.0
230
1.0
  2
DIN 128 Elastomer-Rubber
 70
     0
 71
     0
 91
        1
 92
        0
 93
       21
 72
     1
 10
70.02335938573331
 20
243.7105217813913
 11
70.02335938573331
 21
245.4105217813913
 72
     1
 10
70.02335938573331
 20
245.4105217813913
 11
63.27335938573331
 21
245.4105217813913
 72
     1
 10
63.27335938573331
 20
245.4105217813913
 11
63.27335938573331
 21
242.6461873619583
 72
     2
 10
62.97335938573331
 20
242.6461873619583
 40
0.3000000000000025
 50
0.0
 51
97.33286032583229
 73
     0
 72
     2
 10
64.3124060356642
 20
253.0517278185855
 40
10.7913449149858
 50
97.33286032583317
 51
106.8073697456861
 73
     0
 72
     2
 10
61.42335938573333
 20
243.4871900532392
 40
0.8000000000000034
 50
106.8073697456866
 51
180.0
 73
     0
 72
     1
 10
60.62335938573332
 20
243.4871900532392
 11
60.62335938573332
 21
244.4105217813914
 72
     1
 10
60.62335938573332
 20
244.4105217813914
 11
60.02335938573332
 21
244.4105217813914
 72
     1
 10
60.02335938573332
 20
244.4105217813914
 11
60.02335938573332
 21
243.0286783149409
 72
     2
 10
61.22335938573332
 20
243.0286783149409
 40
1.200000000000001
 50
180.0
 51
237.4735413954341
 73
     1
 72
     2
 10
64.28274729213068
 20
247.826065135528
 40
6.889883537310131
 50
237.473541395433
 51
259.5070047617657
 73
     1
 72
     2
 10
62.97335938573331
 20
240.7564167290891
 40
0.3000000000000005
 50
280.4929952382348
 51
360.0000000000008
 73
     0
 72
     1
 10
63.27335938573331
 20
240.7564167290891
 11
63.27335938573331
 21
238.9105217813914
 72
     1
 10
63.27335938573331
 20
238.9105217813914
 11
70.02335938573331
 21
238.9105217813914
 72
     1
 10
70.02335938573331
 20
238.9105217813914
 11
70.02335938573331
 21
240.3105217813913
 72
     1
 10
70.02335938573331
 20
240.3105217813913
 11
65.02335938573331
 21
240.3105217813913
 72
     1
 10
65.02335938573331
 20
240.3105217813913
 11
65.02335938573331
 21
244.0105217813914
 72
     1
 10
65.02335938573331
 20
244.0105217813914
 11
67.02335938573331
 21
244.0105217813914
 72
     1
 10
67.02335938573331
 20
244.0105217813914
 11
67.02335938573331
 21
242.6105217813914
 72
     1
 10
67.02335938573331
 20
242.6105217813914
 11
68.52335938573331
 21
242.6105217813914
 72
     1
 10
68.52335938573331
 20
242.6105217813914
 11
70.02335938573331
 21
243.7105217813913
 97
        0
 75
     0
 76
     2
 52
0.0
 41
0.0625
 77
     0
 78
     3
 53
45.00000209717174
 43
0.4209495
 44
0.4209495
 45
0.2806329729677587
 46
0.8418990216221166
 79
     2
 49
0.396875
 49
-0.79375
 53
45.00000209717174
 43
0.9822156249999999
 44
0.4209495
 45
0.2806329729677587
 46
0.8418990216221166
 79
     2
 49
0.396875
 49
-0.79375
 53
134.9999719140475
 43
0.0
 44
0.0
 45
-0.2806331413475275
 46
-0.2806328662192271
 79
     0
 98
        1
 10
0.0
 20
0.0
  0
HATCH
  5
312
330
1F
100
AcDbEntity
  8
0
  6
Continuous
 62
     7
370
    18
100
AcDbHatch
 10
0.0
 20
0.0
 30
0.0
210
0.0
220
0.0
230
1.0
  2
DIN 128 Elastomer-Rubber
 70
     0
 71
     0
 91
        1
 92
        0
 93
       21
 72
     1
 10
150.0233593857333
 20
245.4105217813913
 11
150.0233593857333
 21
243.7105217813913
 72
     1
 10
150.0233593857333
 20
243.7105217813913
 11
151.5233593857333
 21
242.6105217813914
 72
     1
 10
151.5233593857333
 20
242.6105217813914
 11
153.0233593857333
 21
242.6105217813914
 72
     1
 10
153.0233593857333
 20
242.6105217813914
 11
153.0233593857333
 21
244.0105217813914
 72
     1
 10
153.0233593857333
 20
244.0105217813914
 11
155.0233593857333
 21
244.0105217813914
 72
     1
 10
155.0233593857333
 20
244.0105217813914
 11
155.0233593857333
 21
240.3105217813913
 72
     1
 10
155.0233593857333
 20
240.3105217813913
 11
150.0233593857333
 21
240.3105217813913
 72
     1
 10
150.0233593857333
 20
240.3105217813913
 11
150.0233593857333
 21
238.9105217813913
 72
     1
 10
150.0233593857333
 20
238.9105217813913
 11
156.7733593857333
 21
238.9105217813914
 72
     1
 10
156.7733593857333
 20
238.9105217813914
 11
156.7733593857333
 21
240.7564167290891
 72
     2
 10
157.0733593857333
 20
240.7564167290891
 40
0.3000000000000005
 50
180.0
 51
259.5070047617644
 73
     0
 72
     2
 10
155.7639714793359
 20
247.826065135528
 40
6.889883537310131
 50
280.4929952382359
 51
302.5264586045686
 73
     1
 72
     2
 10
158.8233593857333
 20
243.0286783149409
 40
1.200000000000001
 50
302.5264586045666
 51
360.0000000000008
 73
     1
 72
     1
 10
160.0233593857333
 20
243.0286783149409
 11
160.0233593857333
 21
244.4105217813913
 72
     1
 10
160.0233593857333
 20
244.4105217813913
 11
159.4233593857333
 21
244.4105217813914
 72
     1
 10
159.4233593857333
 20
244.4105217813914
 11
159.4233593857333
 21
243.4871900532392
 72
     2
 10
158.6233593857333
 20
243.4871900532392
 40
0.8000000000000034
 50
0.0
 51
73.1926302543134
 73
     0
 72
     2
 10
155.7343127358024
 20
253.0517278185855
 40
10.7913449149858
 50
73.19263025431384
 51
82.6671396741668
 73
     0
 72
     2
 10
157.0733593857333
 20
242.6461873619583
 40
0.3000000000000025
 50
82.66713967416977
 51
180.0
 73
     0
 72
     1
 10
156.7733593857333
 20
242.6461873619583
 11
156.7733593857333
 21
245.4105217813913
 72
     1
 10
156.7733593857333
 20
245.4105217813913
 11
150.0233593857333
 21
245.4105217813913
 97
        0
 75
     0
 76
     2
 52
0.0
 41
0.0625
 77
     0
 78
     3
 53
45.00000209717174
 43
0.4209495
 44
0.4209495
 45
0.2806329729677587
 46
0.8418990216221166
 79
     2
 49
0.396875
 49
-0.79375
 53
45.00000209717174
 43
0.9822156249999999
 44
0.4209495
 45
0.2806329729677587
 46
0.8418990216221166
 79
     2
 49
0.396875
 49
-0.79375
 53
134.9999719140475
 43
0.0
 44
0.0
 45
-0.2806331413475275
 46
-0.2806328662192271
 79
     0
 98
        1
 10
0.0
 20
0.0
  0
DIMENSION
  5
313
330
1F
100
AcDbEntity
  8
0
  6
Continuous
 62
     7
370
    18
100
AcDbDimension
  2
_D
 10
165.0220944582
 20
268.0637004593
 30
0.0
 11
110.0233593857
 21
268.0637004593
 31
0.0
 70
   160
  1
<>
 71
     2
 42
-1.0
  3
SLDDIMSTYLE0
100
AcDbAlignedDimension
 13
55.0246243133
 23
248.1948148549
 33
0.0
 14
165.0220944582
 24
248.1948148549
 34
0.0
100
AcDbRotatedDimension
  0
DIMENSION
  5
31E
330
1F
100
AcDbEntity
  8
0
  6
Continuous
 62
     7
370
    18
100
AcDbDimension
  2
_D_1
 10
174.3725411662
 20
256.3163572264
 30
0.0
 11
174.9962762387
 21
253.3819144242
 31
0.0
 70
   160
  1
%%c<>
 71
     2
 42
-1.0
  3
SLDDIMSTYLE1
100
AcDbAlignedDimension
 13
165.0220944582
 23
248.1948148549
 33
0.0
 14
163.7746243133
 24
254.0637004593
 34
0.0
 50
-78.0
100
AcDbRotatedDimension
  0
DIMENSION
  5
32C
330
1F
100
AcDbEntity
  8
0
  6
Continuous
 62
     7
370
    18
100
AcDbDimension
  2
_D_2
 10
72.5233593857
 20
145.3105217814
 30
0.0
 11
110.0233593857
 21
145.3105217814
 31
0.0
 70
   160
  1
%%c<>
 71
     2
 42
-1.0
  3
SLDDIMSTYLE0
100
AcDbAlignedDimension
 13
147.5233593857
 23
159.3105217814
 33
0.0
 14
72.5233593857
 24
159.3105217814
 34
0.0
100
AcDbRotatedDimension
  0
DIMENSION
  5
337
330
1F
100
AcDbEntity
  8
0
  6
Continuous
 62
     7
370
    18
100
AcDbDimension
  2
_D_3
 10
64.2219613623
 20
218.3105217814
 30
0.0
 11
64.2219613623
 21
188.8105217814
 31
0.0
 70
   160
  1
<>
 71
     2
 42
-1.0
  3
SLDDIMSTYLE0
100
AcDbAlignedDimension
 13
72.5233593857
 23
159.3105217814
 33
0.0
 14
72.5233593857
 24
218.3105217814
 34
0.0
 50
90.0
100
AcDbRotatedDimension
  0
DIMENSION
  5
341
330
1F
100
AcDbEntity
  8
0
  6
Continuous
 62
     7
370
    18
100
AcDbDimension
  2
_D_4
 10
135.0233593857
 20
152.3105217814
 30
0.0
 11
110.0233593857
 21
152.3105217814
 31
0.0
 70
   160
  1
%%c<>x1.5
 71
     2
 42
-1.0
  3
SLDDIMSTYLE0
100
AcDbAlignedDimension
 13
85.0233593857
 23
161.3105217814
 33
0.0
 14
135.0233593857
 24
161.3105217814
 34
0.0
100
AcDbRotatedDimension
  0
DIMENSION
  5
34D
330
1F
100
AcDbEntity
  8
0
  6
Continuous
 62
     7
370
    18
100
AcDbDimension
  2
_D_5
 10
55.495965977
 20
159.3105217814
 30
0.0
 11
55.495965977
 21
200.8105217814
 31
0.0
 70
   160
  1
<>
 71
     2
 42
-1.0
  3
SLDDIMSTYLE0
100
AcDbAlignedDimension
 13
65.0233593857
 23
242.3105217814
 33
0.0
 14
72.5233593857
 24
159.3105217814
 34
0.0
 50
90.0
100
AcDbRotatedDimension
  0
DIMENSION
  5
357
330
1F
100
AcDbEntity
  8
0
  6
Continuous
 62
     7
370
    18
100
AcDbDimension
  2
_D_6
 10
147.5233593857
 20
188.8105217814
 30
0.0
 11
141.3186970603
 21
188.8105217814
 31
0.0
 70
   160
  1
<>
 71
     2
 42
-1.0
  3
SLDDIMSTYLE1
100
AcDbAlignedDimension
 13
145.5233593857
 23
161.3105217814
 33
0.0
 14
147.5233593857
 24
218.3105217814
 34
0.0
100
AcDbRotatedDimension
  0
DIMENSION
  5
361
330
1F
100
AcDbEntity
  8
0
  6
Continuous
 62
     7
370
    18
100
AcDbDimension
  2
_D_7
 10
135.0233593857
 20
170.4680526077
 30
0.0
 11
126.9914262979
 21
170.4680526077
 31
0.0
 70
   160
  1
<>x10
 71
     2
 42
-1.0
  3
SLDDIMSTYLE1
100
AcDbAlignedDimension
 13
133.0233593857
 23
179.3105217814
 33
0.0
 14
135.0233593857
 24
161.3105217814
 34
0.0
100
AcDbRotatedDimension
  0
DIMENSION
  5
36C
330
1F
100
AcDbEntity
  8
0
  6
Continuous
 62
     7
370
    18
100
AcDbDimension
  2
_D_8
 10
167.496683216
 20
242.3105217814
 30
0.0
 11
167.496683216
 21
210.8105217814
 31
0.0
 70
   160
  1
<>
 71
     2
 42
-1.0
  3
SLDDIMSTYLE0
100
AcDbAlignedDimension
 13
133.5233593857
 23
179.3105217814
 33
0.0
 14
135.0233593857
 24
242.3105217814
 34
0.0
 50
90.0
100
AcDbRotatedDimension
  0
DIMENSION
  5
376
330
1F
100
AcDbEntity
  8
0
  6
Continuous
 62
     7
370
    18
100
AcDbDimension
  2
_D_9
 10
155.0233593857
 20
261.0637004593
 30
0.0
 11
110.0233593857
 21
261.0637004593
 31
0.0
 70
   160
  1
%%c<>
 71
     2
 42
-1.0
  3
SLDDIMSTYLE0
100
AcDbAlignedDimension
 13
65.0233593857
 23
242.3105217814
 33
0.0
 14
155.0233593857
 24
242.3105217814
 34
0.0
100
AcDbRotatedDimension
  0
MTEXT
  5
381
330
1F
100
AcDbEntity
  8
0
  6
Continuous
 62
     7
370
     0
100
AcDbMText
 10
110.148301417
 20
277.8949702422
 30
0.0
 40
4.2333333333
 41
0.0
 71
     2
 72
     1
  1
A-A
  7
SLDTEXTSTYLE0
 73
     1
 44
1.0
  0
LINE
  5
382
330
1F
100
AcDbEntity
  8
0
  6
Continuous
 62
     7
370
    25
100
AcDbLine
 10
248.4957123437
 20
245.5290457741
 30
0.0
 11
248.4957123437
 21
245.3105217814
 31
0.0
  0
LINE
  5
383
330
1F
100
AcDbEntity
  8
0
  6
Continuous
 62
     7
370
    25
100
AcDbLine
 10
254.4957123437
 20
245.3105217814
 30
0.0
 11
254.4957123437
 21
245.5290457741
 31
0.0
  0
LINE
  5
384
330
1F
100
AcDbEntity
  8
0
  6
Continuous
 62
     7
370
    25
100
AcDbLine
 10
248.4957123437
 20
251.1292576571
 30
0.0
 11
248.4957123437
 21
245.5290457741
 31
0.0
  0
LINE
  5
385
330
1F
100
AcDbEntity
  8
0
  6
Continuous
 62
     7
370
    25
100
AcDbLine
 10
254.4957123437
 20
245.5290457741
 30
0.0
 11
254.4957123437
 21
251.1292576571
 31
0.0
  0
LINE
  5
386
330
1F
100
AcDbEntity
  8
0
  6
Continuous
 62
     7
370
    25
100
AcDbLine
 10
220.2640104709
 20
208.3105217814
 30
0.0
 11
220.2640104709
 21
218.3105217814
 31
0.0
  0
LINE
  5
387
330
1F
100
AcDbEntity
  8
0
  6
Continuous
 62
     7
370
    25
100
AcDbLine
 10
220.2640104709
 20
218.3105217814
 30
0.0
 11
226.4957123437
 21
218.3105217814
 31
0.0
  0
LINE
  5
388
330
1F
100
AcDbEntity
  8
0
  6
Continuous
 62
     7
370
    25
100
AcDbLine
 10
220.2640104709
 20
208.3105217814
 30
0.0
 11
226.4957123437
 21
208.3105217814
 31
0.0
  0
LINE
  5
389
330
1F
100
AcDbEntity
  8
0
  6
Continuous
 62
     7
370
    25
100
AcDbLine
 10
282.7274142165
 20
208.3105217814
 30
0.0
 11
282.7274142165
 21
218.3105217814
 31
0.0
  0
LINE
  5
38A
330
1F
100
AcDbEntity
  8
0
  6
Continuous
 62
     7
370
    25
100
AcDbLine
 10
276.4957123437
 20
208.3105217814
 30
0.0
 11
282.7274142165
 21
208.3105217814
 31
0.0
  0
LINE
  5
38B
330
1F
100
AcDbEntity
  8
0
  6
Continuous
 62
     7
370
    25
100
AcDbLine
 10
276.4957123437
 20
218.3105217814
 30
0.0
 11
282.7274142165
 21
218.3105217814
 31
0.0
  0
LINE
  5
38C
330
1F
100
AcDbEntity
  8
0
  6
Continuous
 62
     7
370
    25
100
AcDbLine
 10
291.4957123437
 20
240.3105217814
 30
0.0
 11
291.4957123437
 21
238.9105217814
 31
0.0
  0
LINE
  5
38D
330
1F
100
AcDbEntity
  8
0
  6
Continuous
 62
     7
370
    25
100
AcDbLine
 10
291.4957123437
 20
238.9105217814
 30
0.0
 11
276.4957123437
 21
238.9105217814
 31
0.0
  0
LINE
  5
38E
330
1F
100
AcDbEntity
  8
0
  6
Continuous
 62
     7
370
    25
100
AcDbLine
 10
226.4957123437
 20
238.9105217814
 30
0.0
 11
211.4957123437
 21
238.9105217814
 31
0.0
  0
LINE
  5
38F
330
1F
100
AcDbEntity
  8
0
  6
Continuous
 62
     7
370
    25
100
AcDbLine
 10
211.4957123437
 20
238.9105217814
 30
0.0
 11
211.4957123437
 21
240.3105217814
 31
0.0
  0
LINE
  5
390
330
1F
100
AcDbEntity
  8
0
  6
Continuous
 62
     7
370
    25
100
AcDbLine
 10
208.4957123437
 20
242.6105217814
 30
0.0
 11
209.9957123437
 21
242.6105217814
 31
0.0
  0
LINE
  5
391
330
1F
100
AcDbEntity
  8
0
  6
Continuous
 62
     7
370
    25
100
AcDbLine
 10
208.4957123437
 20
244.0105217814
 30
0.0
 11
208.4957123437
 21
242.6105217814
 31
0.0
  0
LINE
  5
392
330
1F
100
AcDbEntity
  8
0
  6
Continuous
 62
     7
370
    25
100
AcDbLine
 10
206.4957123437
 20
244.0105217814
 30
0.0
 11
208.4957123437
 21
244.0105217814
 31
0.0
  0
LINE
  5
393
330
1F
100
AcDbEntity
  8
0
  6
Continuous
 62
     7
370
    25
100
AcDbLine
 10
206.4957123437
 20
240.3105217814
 30
0.0
 11
206.4957123437
 21
244.0105217814
 31
0.0
  0
LINE
  5
394
330
1F
100
AcDbEntity
  8
0
  6
Continuous
 62
     7
370
    25
100
AcDbLine
 10
211.4957123437
 20
240.3105217814
 30
0.0
 11
206.4957123437
 21
240.3105217814
 31
0.0
  0
LINE
  5
395
330
1F
100
AcDbEntity
  8
0
  6
Continuous
 62
     7
370
    25
100
AcDbLine
 10
204.7457123437
 20
238.9105217814
 30
0.0
 11
211.4957123437
 21
238.9105217814
 31
0.0
  0
LINE
  5
396
330
1F
100
AcDbEntity
  8
0
  6
Continuous
 62
     7
370
    25
100
AcDbLine
 10
204.7457123437
 20
240.7564167291
 30
0.0
 11
204.7457123437
 21
238.9105217814
 31
0.0
  0
ARC
  5
397
330
1F
100
AcDbEntity
  8
0
  6
Continuous
 62
     7
370
    25
100
AcDbCircle
 10
204.4457123437
 20
240.7564167291
 30
0.0
 40
0.3000000000000114
100
AcDbArc
 50
0.0
 51
79.5070047618
  0
ARC
  5
398
330
1F
100
AcDbEntity
  8
0
  6
Continuous
 62
     7
370
    25
100
AcDbCircle
 10
205.7551002501
 20
247.8260651355
 30
0.0
 40
6.889883537310133
100
AcDbArc
 50
237.4735413954
 51
259.5070047618
  0
ARC
  5
399
330
1F
100
AcDbEntity
  8
0
  6
Continuous
 62
     7
370
    25
100
AcDbCircle
 10
202.6957123437
 20
243.0286783149
 30
0.0
 40
1.199999999999989
100
AcDbArc
 50
180.0
 51
237.4735413954
  0
LINE
  5
39A
330
1F
100
AcDbEntity
  8
0
  6
Continuous
 62
     7
370
    25
100
AcDbLine
 10
201.4957123437
 20
244.4105217814
 30
0.0
 11
201.4957123437
 21
243.0286783149
 31
0.0
  0
LINE
  5
39B
330
1F
100
AcDbEntity
  8
0
  6
Continuous
 62
     7
370
    25
100
AcDbLine
 10
202.0957123437
 20
244.4105217814
 30
0.0
 11
201.4957123437
 21
244.4105217814
 31
0.0
  0
LINE
  5
39C
330
1F
100
AcDbEntity
  8
0
  6
Continuous
 62
     7
370
    25
100
AcDbLine
 10
202.0957123437
 20
243.4871900532
 30
0.0
 11
202.0957123437
 21
244.4105217814
 31
0.0
  0
ARC
  5
39D
330
1F
100
AcDbEntity
  8
0
  6
Continuous
 62
     7
370
    25
100
AcDbCircle
 10
202.8957123437
 20
243.4871900532
 30
0.0
 40
0.800000000000013
100
AcDbArc
 50
180.0
 51
253.1926302543
  0
ARC
  5
39E
330
1F
100
AcDbEntity
  8
0
  6
Continuous
 62
     7
370
    25
100
AcDbCircle
 10
205.7847589936
 20
253.0517278186
 30
0.0
 40
10.7913449149858
100
AcDbArc
 50
253.1926302543
 51
262.6671396742
  0
ARC
  5
39F
330
1F
100
AcDbEntity
  8
0
  6
Continuous
 62
     7
370
    25
100
AcDbCircle
 10
204.4457123437
 20
242.646187362
 30
0.0
 40
0.3000000000000149
100
AcDbArc
 50
262.6671396742
 51
0.0
  0
LINE
  5
3A0
330
1F
100
AcDbEntity
  8
0
  6
Continuous
 62
     7
370
    25
100
AcDbLine
 10
204.7457123437
 20
245.4105217814
 30
0.0
 11
204.7457123437
 21
242.646187362
 31
0.0
  0
LINE
  5
3A1
330
1F
100
AcDbEntity
  8
0
  6
Continuous
 62
     7
370
    25
100
AcDbLine
 10
211.4957123437
 20
245.4105217814
 30
0.0
 11
204.7457123437
 21
245.4105217814
 31
0.0
  0
LINE
  5
3A2
330
1F
100
AcDbEntity
  8
0
  6
Continuous
 62
     7
370
    25
100
AcDbLine
 10
211.4957123437
 20
243.7105217814
 30
0.0
 11
211.4957123437
 21
245.4105217814
 31
0.0
  0
LINE
  5
3A3
330
1F
100
AcDbEntity
  8
0
  6
Continuous
 62
     7
370
    25
100
AcDbLine
 10
209.9957123437
 20
242.6105217814
 30
0.0
 11
211.4957123437
 21
243.7105217814
 31
0.0
  0
LINE
  5
3A4
330
1F
100
AcDbEntity
  8
0
  6
Continuous
 62
     7
370
    25
100
AcDbLine
 10
298.2457123437
 20
242.646187362
 30
0.0
 11
298.2457123437
 21
245.4105217814
 31
0.0
  0
ARC
  5
3A5
330
1F
100
AcDbEntity
  8
0
  6
Continuous
 62
     7
370
    25
100
AcDbCircle
 10
298.5457123437
 20
242.646187362
 30
0.0
 40
0.3000000000000185
100
AcDbArc
 50
180.0
 51
277.3328603258
  0
ARC
  5
3A6
330
1F
100
AcDbEntity
  8
0
  6
Continuous
 62
     7
370
    25
100
AcDbCircle
 10
297.2066656938
 20
253.0517278186
 30
0.0
 40
10.79134491498581
100
AcDbArc
 50
277.3328603258
 51
286.8073697457
  0
ARC
  5
3A7
330
1F
100
AcDbEntity
  8
0
  6
Continuous
 62
     7
370
    25
100
AcDbCircle
 10
300.0957123437
 20
243.4871900532
 30
0.0
 40
0.8000000000000114
100
AcDbArc
 50
286.8073697457
 51
0.0
  0
LINE
  5
3A8
330
1F
100
AcDbEntity
  8
0
  6
Continuous
 62
     7
370
    25
100
AcDbLine
 10
300.8957123437
 20
244.4105217814
 30
0.0
 11
300.8957123437
 21
243.4871900532
 31
0.0
  0
LINE
  5
3A9
330
1F
100
AcDbEntity
  8
0
  6
Continuous
 62
     7
370
    25
100
AcDbLine
 10
301.4957123437
 20
244.4105217814
 30
0.0
 11
300.8957123437
 21
244.4105217814
 31
0.0
  0
LINE
  5
3AA
330
1F
100
AcDbEntity
  8
0
  6
Continuous
 62
     7
370
    25
100
AcDbLine
 10
301.4957123437
 20
243.0286783149
 30
0.0
 11
301.4957123437
 21
244.4105217814
 31
0.0
  0
ARC
  5
3AB
330
1F
100
AcDbEntity
  8
0
  6
Continuous
 62
     7
370
    25
100
AcDbCircle
 10
300.2957123437
 20
243.0286783149
 30
0.0
 40
1.199999999999997
100
AcDbArc
 50
302.5264586046
 51
0.0
  0
ARC
  5
3AC
330
1F
100
AcDbEntity
  8
0
  6
Continuous
 62
     7
370
    25
100
AcDbCircle
 10
297.2363244373
 20
247.8260651355
 30
0.0
 40
6.88988353731014
100
AcDbArc
 50
280.4929952382
 51
302.5264586046
  0
ARC
  5
3AD
330
1F
100
AcDbEntity
  8
0
  6
Continuous
 62
     7
370
    25
100
AcDbCircle
 10
298.5457123437
 20
240.7564167291
 30
0.0
 40
0.3000000000000114
100
AcDbArc
 50
100.4929952382
 51
180.0
  0
LINE
  5
3AE
330
1F
100
AcDbEntity
  8
0
  6
Continuous
 62
     7
370
    25
100
AcDbLine
 10
298.2457123437
 20
238.9105217814
 30
0.0
 11
298.2457123437
 21
240.7564167291
 31
0.0
  0
LINE
  5
3AF
330
1F
100
AcDbEntity
  8
0
  6
Continuous
 62
     7
370
    25
100
AcDbLine
 10
291.4957123437
 20
238.9105217814
 30
0.0
 11
298.2457123437
 21
238.9105217814
 31
0.0
  0
LINE
  5
3B0
330
1F
100
AcDbEntity
  8
0
  6
Continuous
 62
     7
370
    25
100
AcDbLine
 10
296.4957123437
 20
240.3105217814
 30
0.0
 11
291.4957123437
 21
240.3105217814
 31
0.0
  0
LINE
  5
3B1
330
1F
100
AcDbEntity
  8
0
  6
Continuous
 62
     7
370
    25
100
AcDbLine
 10
296.4957123437
 20
244.0105217814
 30
0.0
 11
296.4957123437
 21
240.3105217814
 31
0.0
  0
LINE
  5
3B2
330
1F
100
AcDbEntity
  8
0
  6
Continuous
 62
     7
370
    25
100
AcDbLine
 10
294.4957123437
 20
244.0105217814
 30
0.0
 11
296.4957123437
 21
244.0105217814
 31
0.0
  0
LINE
  5
3B3
330
1F
100
AcDbEntity
  8
0
  6
Continuous
 62
     7
370
    25
100
AcDbLine
 10
294.4957123437
 20
242.6105217814
 30
0.0
 11
294.4957123437
 21
244.0105217814
 31
0.0
  0
LINE
  5
3B4
330
1F
100
AcDbEntity
  8
0
  6
Continuous
 62
     7
370
    25
100
AcDbLine
 10
292.9957123437
 20
242.6105217814
 30
0.0
 11
294.4957123437
 21
242.6105217814
 31
0.0
  0
LINE
  5
3B5
330
1F
100
AcDbEntity
  8
0
  6
Continuous
 62
     7
370
    25
100
AcDbLine
 10
291.4957123437
 20
243.7105217814
 30
0.0
 11
292.9957123437
 21
242.6105217814
 31
0.0
  0
LINE
  5
3B6
330
1F
100
AcDbEntity
  8
0
  6
Continuous
 62
     7
370
    25
100
AcDbLine
 10
291.4957123437
 20
245.4105217814
 30
0.0
 11
291.4957123437
 21
243.7105217814
 31
0.0
  0
LINE
  5
3B7
330
1F
100
AcDbEntity
  8
0
  6
Continuous
 62
     7
370
    25
100
AcDbLine
 10
298.2457123437
 20
245.4105217814
 30
0.0
 11
291.4957123437
 21
245.4105217814
 31
0.0
  0
LINE
  5
3B8
330
1F
100
AcDbEntity
  8
0
  6
Continuous
 62
     7
370
    25
100
AcDbLine
 10
291.4957123437
 20
243.7105217814
 30
0.0
 11
254.0334278518
 21
243.7105217814
 31
0.0
  0
LINE
  5
3B9
330
1F
100
AcDbEntity
  8
0
  6
Continuous
 62
     7
370
    25
100
AcDbLine
 10
248.9579968356
 20
243.7105217814
 30
0.0
 11
211.4957123437
 21
243.7105217814
 31
0.0
  0
LINE
  5
3BA
330
1F
100
AcDbEntity
  8
0
  6
Continuous
 62
     7
370
    25
100
AcDbLine
 10
292.9957123437
 20
242.6105217814
 30
0.0
 11
252.8033820267
 21
242.6105217814
 31
0.0
  0
LINE
  5
3BB
330
1F
100
AcDbEntity
  8
0
  6
Continuous
 62
     7
370
    25
100
AcDbLine
 10
250.1880426606
 20
242.6105217814
 30
0.0
 11
209.9957123437
 21
242.6105217814
 31
0.0
  0
LINE
  5
3BC
330
1F
100
AcDbEntity
  8
0
  6
Continuous
 62
     7
370
    25
100
AcDbLine
 10
300.8957123437
 20
244.4105217814
 30
0.0
 11
298.2457123437
 21
244.4105217814
 31
0.0
  0
LINE
  5
3BD
330
1F
100
AcDbEntity
  8
0
  6
Continuous
 62
     7
370
    25
100
AcDbLine
 10
204.7457123437
 20
244.4105217814
 30
0.0
 11
202.0957123437
 21
244.4105217814
 31
0.0
  0
LINE
  5
3BE
330
1F
100
AcDbEntity
  8
0
  6
Continuous
 62
     7
370
    25
100
AcDbLine
 10
291.4957123437
 20
245.4105217814
 30
0.0
 11
254.4957123437
 21
245.4105217814
 31
0.0
  0
LINE
  5
3BF
330
1F
100
AcDbEntity
  8
0
  6
Continuous
 62
     7
370
    25
100
AcDbLine
 10
248.4973794736
 20
245.4105217814
 30
0.0
 11
211.4957123437
 21
245.4105217814
 31
0.0
  0
CIRCLE
  5
3C0
330
1F
100
AcDbEntity
  8
0
  6
Continuous
 62
     7
370
    25
100
AcDbCircle
 10
251.4957123437
 20
245.3105217814
 30
0.0
 40
3.0
  0
ARC
  5
3C1
330
1F
100
AcDbEntity
  8
0
  6
Continuous
 62
     7
370
    25
100
AcDbCircle
 10
251.4957123437
 20
251.0793952808
 30
0.0
 40
3.000414347480706
100
AcDbArc
 50
0.9522135622
 51
179.0477864378
  0
LINE
  5
3C2
330
1F
100
AcDbEntity
  8
0
  6
Continuous
 62
     7
370
    25
100
AcDbLine
 10
226.4957123437
 20
240.3105217814
 30
0.0
 11
226.4957123437
 21
242.3105217814
 31
0.0
  0
LINE
  5
3C3
330
1F
100
AcDbEntity
  8
0
  6
Continuous
 62
     7
370
    25
100
AcDbLine
 10
276.4957123437
 20
242.3105217814
 30
0.0
 11
276.4957123437
 21
240.3105217814
 31
0.0
  0
LINE
  5
3C4
330
1F
100
AcDbEntity
  8
0
  6
Continuous
 62
     7
370
    25
100
AcDbLine
 10
296.4957123437
 20
242.3105217814
 30
0.0
 11
276.4957123437
 21
242.3105217814
 31
0.0
  0
LINE
  5
3C5
330
1F
100
AcDbEntity
  8
0
  6
Continuous
 62
     7
370
    25
100
AcDbLine
 10
296.4957123437
 20
242.3105217814
 30
0.0
 11
296.4957123437
 21
240.3105217814
 31
0.0
  0
LINE
  5
3C6
330
1F
100
AcDbEntity
  8
0
  6
Continuous
 62
     7
370
    25
100
AcDbLine
 10
296.4957123437
 20
240.3105217814
 30
0.0
 11
276.4957123437
 21
240.3105217814
 31
0.0
  0
LINE
  5
3C7
330
1F
100
AcDbEntity
  8
0
  6
Continuous
 62
     7
370
    25
100
AcDbLine
 10
226.4957123437
 20
242.3105217814
 30
0.0
 11
206.4957123437
 21
242.3105217814
 31
0.0
  0
LINE
  5
3C8
330
1F
100
AcDbEntity
  8
0
  6
Continuous
 62
     7
370
    25
100
AcDbLine
 10
206.4957123437
 20
240.3105217814
 30
0.0
 11
206.4957123437
 21
242.3105217814
 31
0.0
  0
LINE
  5
3C9
330
1F
100
AcDbEntity
  8
0
  6
Continuous
 62
     7
370
    25
100
AcDbLine
 10
226.4957123437
 20
240.3105217814
 30
0.0
 11
206.4957123437
 21
240.3105217814
 31
0.0
  0
LINE
  5
3CA
330
1F
100
AcDbEntity
  8
0
  6
Continuous
 62
     7
370
    25
100
AcDbLine
 10
213.9957123437
 20
161.3105217814
 30
0.0
 11
213.9957123437
 21
218.3105217814
 31
0.0
  0
LINE
  5
3CB
330
1F
100
AcDbEntity
  8
0
  6
Continuous
 62
     7
370
    25
100
AcDbLine
 10
288.9957123437
 20
218.3105217814
 30
0.0
 11
288.9957123437
 21
161.3105217814
 31
0.0
  0
LINE
  5
3CC
330
1F
100
AcDbEntity
  8
0
  6
Continuous
 62
     7
370
    25
100
AcDbLine
 10
215.9957123437
 20
161.3105217814
 30
0.0
 11
215.9957123437
 21
218.3105217814
 31
0.0
  0
LINE
  5
3CD
330
1F
100
AcDbEntity
  8
0
  6
Continuous
 62
     7
370
    25
100
AcDbLine
 10
286.9957123437
 20
218.3105217814
 30
0.0
 11
282.7274142165
 21
218.3105217814
 31
0.0
  0
LINE
  5
3CE
330
1F
100
AcDbEntity
  8
0
  6
Continuous
 62
     7
370
    25
100
AcDbLine
 10
220.2640104709
 20
218.3105217814
 30
0.0
 11
215.9957123437
 21
218.3105217814
 31
0.0
  0
LINE
  5
3CF
330
1F
100
AcDbEntity
  8
0
  6
Continuous
 62
     7
370
    25
100
AcDbLine
 10
286.9957123437
 20
218.3105217814
 30
0.0
 11
286.9957123437
 21
161.3105217814
 31
0.0
  0
LINE
  5
3D0
330
1F
100
AcDbEntity
  8
0
  6
Continuous
 62
     7
370
    25
100
AcDbLine
 10
215.9957123437
 20
218.3105217814
 30
0.0
 11
213.9957123437
 21
218.3105217814
 31
0.0
  0
LINE
  5
3D1
330
1F
100
AcDbEntity
  8
0
  6
Continuous
 62
     7
370
    25
100
AcDbLine
 10
215.9957123437
 20
161.3105217814
 30
0.0
 11
213.9957123437
 21
161.3105217814
 31
0.0
  0
LINE
  5
3D2
330
1F
100
AcDbEntity
  8
0
  6
Continuous
 62
     7
370
    25
100
AcDbLine
 10
288.9957123437
 20
218.3105217814
 30
0.0
 11
286.9957123437
 21
218.3105217814
 31
0.0
  0
LINE
  5
3D3
330
1F
100
AcDbEntity
  8
0
  6
Continuous
 62
     7
370
    25
100
AcDbLine
 10
288.9957123437
 20
161.3105217814
 30
0.0
 11
286.9957123437
 21
161.3105217814
 31
0.0
  0
LINE
  5
3D4
330
1F
100
AcDbEntity
  8
0
  6
Continuous
 62
     7
370
    25
100
AcDbLine
 10
213.9957123437
 20
161.3105217814
 30
0.0
 11
288.9957123437
 21
161.3105217814
 31
0.0
  0
LINE
  5
3D5
330
1F
100
AcDbEntity
  8
0
  6
Continuous
 62
     7
370
    25
100
AcDbLine
 10
288.9957123437
 20
161.3105217814
 30
0.0
 11
288.9957123437
 21
159.3105217814
 31
0.0
  0
LINE
  5
3D6
330
1F
100
AcDbEntity
  8
0
  6
Continuous
 62
     7
370
    25
100
AcDbLine
 10
213.9957123437
 20
159.3105217814
 30
0.0
 11
288.9957123437
 21
159.3105217814
 31
0.0
  0
LINE
  5
3D7
330
1F
100
AcDbEntity
  8
0
  6
Continuous
 62
     7
370
    25
100
AcDbLine
 10
213.9957123437
 20
159.3105217814
 30
0.0
 11
213.9957123437
 21
161.3105217814
 31
0.0
  0
LINE
  5
3D8
330
1F
100
AcDbEntity
  8
0
  6
Continuous
 62
     7
370
    25
100
AcDbLine
 10
227.9957123437
 20
242.3105217814
 30
0.0
 11
226.4957123437
 21
242.3105217814
 31
0.0
  0
LINE
  5
3D9
330
1F
100
AcDbEntity
  8
0
  6
Continuous
 62
     7
370
    25
100
AcDbLine
 10
227.9957123437
 20
179.3105217814
 30
0.0
 11
227.9957123437
 21
242.3105217814
 31
0.0
  0
LINE
  5
3DA
330
1F
100
AcDbEntity
  8
0
  6
Continuous
 62
     7
370
    25
100
AcDbLine
 10
227.9957123437
 20
179.3105217814
 30
0.0
 11
226.4957123437
 21
179.3105217814
 31
0.0
  0
LINE
  5
3DB
330
1F
100
AcDbEntity
  8
0
  6
Continuous
 62
     7
370
    25
100
AcDbLine
 10
226.4957123437
 20
179.3105217814
 30
0.0
 11
226.4957123437
 21
242.3105217814
 31
0.0
  0
LINE
  5
3DC
330
1F
100
AcDbEntity
  8
0
  6
Continuous
 62
     7
370
    25
100
AcDbLine
 10
276.4957123437
 20
242.3105217814
 30
0.0
 11
276.4957123437
 21
179.3105217814
 31
0.0
  0
LINE
  5
3DD
330
1F
100
AcDbEntity
  8
0
  6
Continuous
 62
     7
370
    25
100
AcDbLine
 10
274.9957123437
 20
242.3105217814
 30
0.0
 11
274.9957123437
 21
179.3105217814
 31
0.0
  0
LINE
  5
3DE
330
1F
100
AcDbEntity
  8
0
  6
Continuous
 62
     7
370
    25
100
AcDbLine
 10
276.4957123437
 20
242.3105217814
 30
0.0
 11
274.9957123437
 21
242.3105217814
 31
0.0
  0
LINE
  5
3DF
330
1F
100
AcDbEntity
  8
0
  6
Continuous
 62
     7
370
    25
100
AcDbLine
 10
276.4957123437
 20
179.3105217814
 30
0.0
 11
274.9957123437
 21
179.3105217814
 31
0.0
  0
LINE
  5
3E0
330
1F
100
AcDbEntity
  8
0
  6
Continuous
 62
     7
370
    25
100
AcDbLine
 10
274.9957123437
 20
242.3105217814
 30
0.0
 11
227.9957123437
 21
242.3105217814
 31
0.0
  0
LINE
  5
3E1
330
1F
100
AcDbEntity
  8
0
  6
Continuous
 62
     7
370
    25
100
AcDbLine
 10
246.6738869632
 20
179.3105217814
 30
0.0
 11
227.9957123437
 21
179.3105217814
 31
0.0
  0
LINE
  5
3E2
330
1F
100
AcDbEntity
  8
0
  6
Continuous
 62
     7
370
    25
100
AcDbLine
 10
274.9957123437
 20
179.3105217814
 30
0.0
 11
256.3175377242
 21
179.3105217814
 31
0.0
  0
LINE
  5
3E3
330
1F
100
AcDbEntity
  8
0
  6
Continuous
 62
     7
370
    25
100
AcDbLine
 10
256.4957123437
 20
161.3105217814
 30
0.0
 11
256.4957123437
 21
179.3105217814
 31
0.0
  0
LINE
  5
3E4
330
1F
100
AcDbEntity
  8
0
  6
Continuous
 62
     7
370
    25
100
AcDbLine
 10
246.4957123437
 20
161.3105217814
 30
0.0
 11
246.4957123437
 21
179.3105217814
 31
0.0
  0
LINE
  5
3E5
330
1F
100
AcDbEntity
  8
0
  6
Continuous
 62
     7
370
    25
100
AcDbLine
 10
256.3175377242
 20
179.3105217814
 30
0.0
 11
246.6738869632
 21
179.3105217814
 31
0.0
  0
LINE
  5
3E6
330
1F
100
AcDbEntity
  8
0
  6
Continuous
 62
     8
370
    18
100
AcDbLine
 10
298.5840023816
 20
242.3486409404
 30
0.0
 11
298.5074223057
 21
242.3486409404
 31
0.0
  0
LINE
  5
3E7
330
1F
100
AcDbEntity
  8
0
  6
Continuous
 62
     8
370
    18
100
AcDbLine
 10
204.4840023816
 20
242.3486409404
 30
0.0
 11
204.4074223057
 21
242.3486409404
 31
0.0
  0
LINE
  5
3E8
330
1F
100
AcDbEntity
  8
0
  6
Continuous
 62
     8
370
    18
100
AcDbLine
 10
300.3270362885
 20
242.7213642032
 30
0.0
 11
298.2457123437
 21
242.7213642032
 31
0.0
  0
LINE
  5
3E9
330
1F
100
AcDbEntity
  8
0
  6
Continuous
 62
     8
370
    18
100
AcDbLine
 10
204.7457123437
 20
242.7213642032
 30
0.0
 11
202.6643883988
 21
242.7213642032
 31
0.0
  0
LINE
  5
3EA
330
1F
100
AcDbEntity
  8
0
  6
Continuous
 62
     8
370
    18
100
AcDbLine
 10
300.8957123437
 20
243.4871900532
 30
0.0
 11
298.2457123437
 21
243.4871900532
 31
0.0
  0
LINE
  5
3EB
330
1F
100
AcDbEntity
  8
0
  6
Continuous
 62
     8
370
    18
100
AcDbLine
 10
204.7457123437
 20
243.4871900532
 30
0.0
 11
202.0957123437
 21
243.4871900532
 31
0.0
  0
ARC
  5
3EC
330
1F
100
AcDbEntity
  8
0
  6
Continuous
 62
     8
370
    18
100
AcDbCircle
 10
251.4957123437
 20
245.4791833978
 30
0.0
 40
3.000414347480706
100
AcDbArc
 50
0.9522135622
 51
179.0477864378
  0
HATCH
  5
3ED
330
1F
100
AcDbEntity
  8
0
  6
Continuous
 62
     7
370
    18
100
AcDbHatch
 10
0.0
 20
0.0
 30
0.0
210
0.0
220
0.0
230
1.0
  2
ANSI31
 70
     0
 71
     0
 91
        1
 92
        0
 93
        4
 72
     1
 10
276.4957123436815
 20
179.3105217813915
 11
276.4957123436813
 21
242.3105217813915
 72
     1
 10
276.4957123436813
 20
242.3105217813915
 11
274.9957123436813
 21
242.3105217813915
 72
     1
 10
274.9957123436813
 20
242.3105217813915
 11
274.9957123436815
 21
179.3105217813915
 72
     1
 10
274.9957123436815
 20
179.3105217813915
 11
276.4957123436815
 21
179.3105217813915
 97
        0
 75
     0
 76
     1
 52
0.0
 41
1.0
 77
     0
 78
     1
 53
45.0
 43
0.0
 44
0.0
 45
-2.245064030267288
 46
2.245064030267288
 79
     0
 98
        1
 10
0.0
 20
0.0
  0
HATCH
  5
3EE
330
1F
100
AcDbEntity
  8
0
  6
Continuous
 62
     7
370
    18
100
AcDbHatch
 10
0.0
 20
0.0
 30
0.0
210
0.0
220
0.0
230
1.0
  2
ANSI31
 70
     0
 71
     0
 91
        1
 92
        0
 93
        4
 72
     1
 10
226.4957123436813
 20
242.3105217813914
 11
226.4957123436815
 21
179.3105217813914
 72
     1
 10
226.4957123436815
 20
179.3105217813914
 11
227.9957123436815
 21
179.3105217813914
 72
     1
 10
227.9957123436815
 20
179.3105217813914
 11
227.9957123436813
 21
242.3105217813914
 72
     1
 10
227.9957123436813
 20
242.3105217813914
 11
226.4957123436813
 21
242.3105217813914
 97
        0
 75
     0
 76
     1
 52
0.0
 41
1.0
 77
     0
 78
     1
 53
45.0
 43
0.0
 44
0.0
 45
-2.245064030267288
 46
2.245064030267288
 79
     0
 98
        1
 10
0.0
 20
0.0
  0
HATCH
  5
3EF
330
1F
100
AcDbEntity
  8
0
  6
Continuous
 62
     7
370
    18
100
AcDbHatch
 10
0.0
 20
0.0
 30
0.0
210
0.0
220
0.0
230
1.0
  2
ANSI31
 70
     0
 71
     0
 91
        1
 92
        0
 93
        4
 72
     1
 10
213.9957123436816
 20
161.3105217813913
 11
213.9957123436816
 21
159.3105217813913
 72
     1
 10
213.9957123436816
 20
159.3105217813913
 11
288.9957123436816
 21
159.3105217813916
 72
     1
 10
288.9957123436816
 20
159.3105217813916
 11
288.9957123436815
 21
161.3105217813916
 72
     1
 10
288.9957123436815
 20
161.3105217813916
 11
213.9957123436816
 21
161.3105217813913
 97
        0
 75
     0
 76
     1
 52
0.0
 41
1.0
 77
     0
 78
     1
 53
45.0
 43
0.0
 44
0.0
 45
-2.245064030267288
 46
2.245064030267288
 79
     0
 98
        1
 10
0.0
 20
0.0
  0
HATCH
  5
3F0
330
1F
100
AcDbEntity
  8
0
  6
Continuous
 62
     7
370
    18
100
AcDbHatch
 10
0.0
 20
0.0
 30
0.0
210
0.0
220
0.0
230
1.0
  2
ANSI31
 70
     0
 71
     0
 91
        1
 92
        0
 93
        4
 72
     1
 10
213.9957123436814
 20
218.3105217813913
 11
213.9957123436816
 21
161.3105217813913
 72
     1
 10
213.9957123436816
 20
161.3105217813913
 11
215.9957123436816
 21
161.3105217813913
 72
     1
 10
215.9957123436816
 20
161.3105217813913
 11
215.9957123436814
 21
218.3105217813913
 72
     1
 10
215.9957123436814
 20
218.3105217813913
 11
213.9957123436814
 21
218.3105217813913
 97
        0
 75
     0
 76
     1
 52
90.0
 41
1.0
 77
     0
 78
     1
 53
135.0000000000002
 43
0.0
 44
0.0
 45
-2.245064030267281
 46
-2.245064030267296
 79
     0
 98
        1
 10
0.0
 20
0.0
  0
HATCH
  5
3F1
330
1F
100
AcDbEntity
  8
0
  6
Continuous
 62
     7
370
    18
100
AcDbHatch
 10
0.0
 20
0.0
 30
0.0
210
0.0
220
0.0
230
1.0
  2
ANSI31
 70
     0
 71
     0
 91
        1
 92
        0
 93
        4
 72
     1
 10
288.9957123436815
 20
161.3105217813916
 11
288.9957123436814
 21
218.3105217813916
 72
     1
 10
288.9957123436814
 20
218.3105217813916
 11
286.9957123436814
 21
218.3105217813916
 72
     1
 10
286.9957123436814
 20
218.3105217813916
 11
286.9957123436815
 21
161.3105217813916
 72
     1
 10
286.9957123436815
 20
161.3105217813916
 11
288.9957123436815
 21
161.3105217813916
 97
        0
 75
     0
 76
     1
 52
90.0
 41
1.0
 77
     0
 78
     1
 53
135.0000000000002
 43
0.0
 44
0.0
 45
-2.245064030267281
 46
-2.245064030267296
 79
     0
 98
        1
 10
0.0
 20
0.0
  0
HATCH
  5
3F2
330
1F
100
AcDbEntity
  8
0
  6
Continuous
 62
     7
370
    18
100
AcDbHatch
 10
0.0
 20
0.0
 30
0.0
210
0.0
220
0.0
230
1.0
  2
ANSI31
 70
     0
 71
     0
 91
        1
 92
        0
 93
        4
 72
     1
 10
206.4957123436813
 20
242.3105217813913
 11
206.4957123436813
 21
240.3105217813913
 72
     1
 10
206.4957123436813
 20
240.3105217813913
 11
226.4957123436813
 21
240.3105217813914
 72
     1
 10
226.4957123436813
 20
240.3105217813914
 11
226.4957123436813
 21
242.3105217813914
 72
     1
 10
226.4957123436813
 20
242.3105217813914
 11
206.4957123436813
 21
242.3105217813913
 97
        0
 75
     0
 76
     1
 52
90.0
 41
1.0
 77
     0
 78
     1
 53
135.0000000000002
 43
0.0
 44
0.0
 45
-2.245064030267281
 46
-2.245064030267296
 79
     0
 98
        1
 10
0.0
 20
0.0
  0
HATCH
  5
3F3
330
1F
100
AcDbEntity
  8
0
  6
Continuous
 62
     7
370
    18
100
AcDbHatch
 10
0.0
 20
0.0
 30
0.0
210
0.0
220
0.0
230
1.0
  2
ANSI31
 70
     0
 71
     0
 91
        1
 92
        0
 93
        4
 72
     1
 10
296.4957123436813
 20
240.3105217813916
 11
296.4957123436812
 21
242.3105217813916
 72
     1
 10
296.4957123436812
 20
242.3105217813916
 11
276.4957123436813
 21
242.3105217813915
 72
     1
 10
276.4957123436813
 20
242.3105217813915
 11
276.4957123436813
 21
240.3105217813915
 72
     1
 10
276.4957123436813
 20
240.3105217813915
 11
296.4957123436813
 21
240.3105217813916
 97
        0
 75
     0
 76
     1
 52
90.0
 41
1.0
 77
     0
 78
     1
 53
135.0000000000002
 43
0.0
 44
0.0
 45
-2.245064030267281
 46
-2.245064030267296
 79
     0
 98
        1
 10
0.0
 20
0.0
  0
HATCH
  5
3F4
330
1F
100
AcDbEntity
  8
0
  6
Continuous
 62
     7
370
    18
100
AcDbHatch
 10
0.0
 20
0.0
 30
0.0
210
0.0
220
0.0
230
1.0
  2
ANSI31
 70
     0
 71
     0
 91
        1
 92
        0
 93
        1
 72
     2
 10
251.4957123436813
 20
245.3105217813915
 40
3.0
 50
0.0
 51
360.0
 73
     1
 97
        0
 75
     0
 76
     1
 52
0.0
 41
1.0
 77
     0
 78
     1
 53
45.0
 43
0.0
 44
0.0
 45
-2.245064030267288
 46
2.245064030267288
 79
     0
 98
        1
 10
0.0
 20
0.0
  0
HATCH
  5
3F5
330
1F
100
AcDbEntity
  8
0
  6
Continuous
 62
     7
370
    18
100
AcDbHatch
 10
0.0
 20
0.0
 30
0.0
210
0.0
220
0.0
230
1.0
  2
DIN 128 Elastomer-Rubber
 70
     0
 71
     0
 91
        1
 92
        0
 93
       21
 72
     1
 10
209.9957123436813
 20
242.6105217813913
 11
211.4957123436813
 21
243.7105217813913
 72
     1
 10
211.4957123436813
 20
243.7105217813913
 11
211.4957123436813
 21
245.4105217813913
 72
     1
 10
211.4957123436813
 20
245.4105217813913
 11
204.7457123436813
 21
245.4105217813913
 72
     1
 10
204.7457123436813
 20
245.4105217813913
 11
204.7457123436813
 21
242.6461873619582
 72
     2
 10
204.4457123436813
 20
242.6461873619582
 40
0.3000000000000025
 50
0.0
 51
97.33286032583632
 73
     0
 72
     2
 10
205.7847589936121
 20
253.0517278185855
 40
10.7913449149858
 50
97.33286032583308
 51
106.807369745686
 73
     0
 72
     2
 10
202.8957123436813
 20
243.4871900532392
 40
0.8000000000000034
 50
106.8073697456886
 51
180.0
 73
     0
 72
     1
 10
202.0957123436813
 20
243.4871900532392
 11
202.0957123436813
 21
244.4105217813913
 72
     1
 10
202.0957123436813
 20
244.4105217813913
 11
201.4957123436813
 21
244.4105217813913
 72
     1
 10
201.4957123436813
 20
244.4105217813913
 11
201.4957123436813
 21
243.0286783149409
 72
     2
 10
202.6957123436813
 20
243.0286783149409
 40
1.200000000000001
 50
180.0
 51
237.4735413954338
 73
     1
 72
     2
 10
205.7551002500786
 20
247.8260651355279
 40
6.889883537310131
 50
237.473541395433
 51
259.5070047617659
 73
     1
 72
     2
 10
204.4457123436813
 20
240.756416729089
 40
0.3000000000000005
 50
280.4929952382361
 51
360.0000000000008
 73
     0
 72
     1
 10
204.7457123436813
 20
240.756416729089
 11
204.7457123436813
 21
238.9105217813913
 72
     1
 10
204.7457123436813
 20
238.9105217813913
 11
211.4957123436813
 21
238.9105217813913
 72
     1
 10
211.4957123436813
 20
238.9105217813913
 11
211.4957123436813
 21
240.3105217813913
 72
     1
 10
211.4957123436813
 20
240.3105217813913
 11
206.4957123436813
 21
240.3105217813913
 72
     1
 10
206.4957123436813
 20
240.3105217813913
 11
206.4957123436813
 21
244.0105217813913
 72
     1
 10
206.4957123436813
 20
244.0105217813913
 11
208.4957123436813
 21
244.0105217813913
 72
     1
 10
208.4957123436813
 20
244.0105217813913
 11
208.4957123436813
 21
242.6105217813913
 72
     1
 10
208.4957123436813
 20
242.6105217813913
 11
209.9957123436813
 21
242.6105217813913
 97
        0
 75
     0
 76
     2
 52
90.0
 41
0.0625
 77
     0
 78
     3
 53
135.0000020971719
 43
-0.4209495000000015
 44
0.4209494999999986
 45
-0.8418990216221175
 46
0.2806329729677558
 79
     2
 49
0.396875
 49
-0.79375
 53
135.0000020971719
 43
-0.4209495000000035
 44
0.9822156249999985
 45
-0.8418990216221175
 46
0.2806329729677558
 79
     2
 49
0.396875
 49
-0.79375
 53
224.9999719140477
 43
0.0
 44
0.0
 45
0.2806328662192281
 46
-0.2806331413475265
 79
     0
 98
        1
 10
0.0
 20
0.0
  0
HATCH
  5
3F6
330
1F
100
AcDbEntity
  8
0
  6
Continuous
 62
     7
370
    18
100
AcDbHatch
 10
0.0
 20
0.0
 30
0.0
210
0.0
220
0.0
230
1.0
  2
DIN 128 Elastomer-Rubber
 70
     0
 71
     0
 91
        1
 92
        0
 93
       21
 72
     1
 10
298.2457123436813
 20
245.4105217813916
 11
291.4957123436812
 21
245.4105217813916
 72
     1
 10
291.4957123436812
 20
245.4105217813916
 11
291.4957123436812
 21
243.7105217813916
 72
     1
 10
291.4957123436812
 20
243.7105217813916
 11
292.9957123436812
 21
242.6105217813916
 72
     1
 10
292.9957123436812
 20
242.6105217813916
 11
294.4957123436812
 21
242.6105217813916
 72
     1
 10
294.4957123436812
 20
242.6105217813916
 11
294.4957123436812
 21
244.0105217813916
 72
     1
 10
294.4957123436812
 20
244.0105217813916
 11
296.4957123436812
 21
244.0105217813916
 72
     1
 10
296.4957123436812
 20
244.0105217813916
 11
296.4957123436812
 21
240.3105217813916
 72
     1
 10
296.4957123436812
 20
240.3105217813916
 11
291.4957123436813
 21
240.3105217813916
 72
     1
 10
291.4957123436813
 20
240.3105217813916
 11
291.4957123436813
 21
238.9105217813916
 72
     1
 10
291.4957123436813
 20
238.9105217813916
 11
298.2457123436813
 21
238.9105217813916
 72
     1
 10
298.2457123436813
 20
238.9105217813916
 11
298.2457123436813
 21
240.7564167290894
 72
     2
 10
298.5457123436813
 20
240.7564167290894
 40
0.3000000000000005
 50
180.0
 51
259.5070047617601
 73
     0
 72
     2
 10
297.2363244372839
 20
247.8260651355282
 40
6.889883537310131
 50
280.4929952382361
 51
302.5264586045688
 73
     1
 72
     2
 10
300.2957123436813
 20
243.0286783149412
 40
1.200000000000001
 50
302.5264586045662
 51
360.0000000000008
 73
     1
 72
     1
 10
301.4957123436813
 20
243.0286783149412
 11
301.4957123436813
 21
244.4105217813917
 72
     1
 10
301.4957123436813
 20
244.4105217813917
 11
300.8957123436813
 21
244.4105217813916
 72
     1
 10
300.8957123436813
 20
244.4105217813916
 11
300.8957123436813
 21
243.4871900532395
 72
     2
 10
300.0957123436813
 20
243.4871900532395
 40
0.8000000000000034
 50
0.0
 51
73.1926302543134
 73
     0
 72
     2
 10
297.2066656937504
 20
253.0517278185858
 40
10.7913449149858
 50
73.19263025431381
 51
82.6671396741668
 73
     0
 72
     2
 10
298.5457123436813
 20
242.6461873619585
 40
0.3000000000000025
 50
82.66713967416439
 51
180.0
 73
     0
 72
     1
 10
298.2457123436813
 20
242.6461873619585
 11
298.2457123436813
 21
245.4105217813916
 97
        0
 75
     0
 76
     2
 52
90.0
 41
0.0625
 77
     0
 78
     3
 53
135.0000020971719
 43
-0.4209495000000015
 44
0.4209494999999986
 45
-0.8418990216221175
 46
0.2806329729677558
 79
     2
 49
0.396875
 49
-0.79375
 53
135.0000020971719
 43
-0.4209495000000035
 44
0.9822156249999985
 45
-0.8418990216221175
 46
0.2806329729677558
 79
     2
 49
0.396875
 49
-0.79375
 53
224.9999719140477
 43
0.0
 44
0.0
 45
0.2806328662192281
 46
-0.2806331413475265
 79
     0
 98
        1
 10
0.0
 20
0.0
  0
DIMENSION
  5
3F7
330
1F
100
AcDbEntity
  8
0
  6
Continuous
 62
     7
370
    18
100
AcDbDimension
  2
_D_10
 10
274.9957123437
 20
189.0768219634
 30
0.0
 11
251.4957123437
 21
189.0768219634
 31
0.0
 70
   160
  1
%%c<>
 71
     2
 42
-1.0
  3
SLDDIMSTYLE0
100
AcDbAlignedDimension
 13
227.9957123437
 23
179.3105217814
 33
0.0
 14
274.9957123437
 24
179.3105217814
 34
0.0
 50
0.0
100
AcDbRotatedDimension
  0
DIMENSION
  5
400
330
1F
100
AcDbEntity
  8
0
  6
Continuous
 62
     7
370
    18
100
AcDbDimension
  2
_D_11
 10
256.4957123437
 20
170.0905657238
 30
0.0
 11
251.4957123437
 21
170.0905657238
 31
0.0
 70
   160
  1
<>
 71
     2
 42
-1.0
  3
SLDDIMSTYLE1
100
AcDbAlignedDimension
 13
246.4957123437
 23
161.3105217814
 33
0.0
 14
256.4957123437
 24
161.3105217814
 34
0.0
 50
0.0
100
AcDbRotatedDimension
  0
DIMENSION
  5
40A
330
1F
100
AcDbEntity
  8
0
  6
Continuous
 62
     7
370
    18
100
AcDbDimension
  2
_D_12
 10
194.4957123437
 20
242.3105217814
 30
0.0
 11
194.4957123437
 21
200.8105217814
 31
0.0
 70
   160
  1
<>
 71
     2
 42
-1.0
  3
SLDDIMSTYLE0
100
AcDbAlignedDimension
 13
213.9957123437
 23
159.3105217814
 33
0.0
 14
206.4957123437
 24
242.3105217814
 34
0.0
 50
90.0
100
AcDbRotatedDimension
  0
MTEXT
  5
414
330
1F
100
AcDbEntity
  8
0
  6
Continuous
 62
     7
370
     0
100
AcDbMText
 10
252.2927342418
 20
275.4217504466
 30
0.0
 40
4.2333333333
 41
0.0
 71
     2
 72
     1
  1
B-B
  7
SLDTEXTSTYLE0
 73
     1
 44
1.0
  0
ENDSEC
  0
SECTION
  2
OBJECTS
  0
DICTIONARY
  5
C
330
0
100
AcDbDictionary
281
     1
  3
ACAD_GROUP
350
D
  3
ACAD_LAYOUT
350
1A
  3
ACAD_MLINESTYLE
350
17
  3
ACAD_PLOTSETTINGS
350
19
  3
ACAD_PLOTSTYLENAME
350
E
  3
ACAD_SCALELIST
350
47
  3
DWGPROPS
350
415
  0
DICTIONARY
  5
D
102
{ACAD_REACTORS
330
C
102
}
330
C
100
AcDbDictionary
281
     1
  0
DICTIONARY
  5
1A
102
{ACAD_REACTORS
330
C
102
}
330
C
100
AcDbDictionary
281
     1
  3
Layout1
350
1E
  3
Layout2
350
26
  3
Model
350
22
  0
DICTIONARY
  5
17
102
{ACAD_REACTORS
330
C
102
}
330
C
100
AcDbDictionary
281
     1
  3
Standard
350
18
  0
DICTIONARY
  5
19
102
{ACAD_REACTORS
330
C
102
}
330
C
100
AcDbDictionary
281
     1
  0
ACDBDICTIONARYWDFLT
  5
E
102
{ACAD_REACTORS
330
C
102
}
330
C
100
AcDbDictionary
281
     1
  3
Normal
350
F
100
AcDbDictionaryWithDefault
340
F
  0
DICTIONARY
  5
47
102
{ACAD_REACTORS
330
C
102
}
330
C
100
AcDbDictionary
281
     1
  3
A0
350
48
  3
A1
350
49
  3
A2
350
4A
  3
A3
350
4B
  3
A4
350
4C
  3
A5
350
4D
  3
A6
350
4E
  3
A7
350
4F
  3
A8
350
50
  3
A9
350
51
  3
B0
350
52
  3
B1
350
53
  3
B2
350
54
  3
B3
350
55
  3
B4
350
56
  3
B5
350
57
  3
B6
350
58
  3
B7
350
59
  3
B8
350
5A
  3
B9
350
5B
  3
C0
350
5C
  3
C1
350
5D
  3
C2
350
5E
  3
C3
350
5F
  3
C4
350
60
  3
C5
350
61
  3
C6
350
62
  3
C7
350
63
  3
C8
350
64
  3
C9
350
65
  3
D0
350
66
  3
D1
350
67
  3
D2
350
68
  0
XRECORD
  5
415
102
{ACAD_REACTORS
330
C
102
}
330
C
100
AcDbXrecord
280
     1
  1
DWGPROPS COOKIE
  2

  3

  4

  6

  7

  8
ch-ntl-rs-wscad
  9

300
=
301
=
302
=
303
=
304
=
305
=
306
=
307
=
308
=
309
=
 40
0.0
 41
2460565.078689016
 42
2460565.078694873
  1

 90
        0
  0
LAYOUT
  5
1E
102
{ACAD_REACTORS
330
1A
102
}
330
1A
100
AcDbPlotSettings
  1

  2
none_device
  4

  6

 40
0.0
 41
0.0
 42
0.0
 43
0.0
 44
0.0
 45
0.0
 46
0.0
 47
0.0
 48
0.0
 49
0.0
140
0.0
141
0.0
142
1.0
143
1.0
 70
   688
 72
     1
 73
     0
 74
     5
  7

 75
    16
147
1.0
148
0.0
149
0.0
100
AcDbLayout
  1
Layout1
 70
     1
 71
     1
 10
0.0
 20
0.0
 11
420.0
 21
297.0
 12
0.0
 22
0.0
 32
0.0
 14
1.0000000000E+20
 24
1.0000000000E+20
 34
1.0000000000E+20
 15
-1.0000000000E+20
 25
-1.0000000000E+20
 35
-1.0000000000E+20
146
0.0
 13
0.0
 23
0.0
 33
0.0
 16
1.0
 26
0.0
 36
0.0
 17
0.0
 27
1.0
 37
0.0
 76
     0
330
1B
  0
LAYOUT
  5
26
102
{ACAD_REACTORS
330
1A
102
}
330
1A
100
AcDbPlotSettings
  1

  2
none_device
  4

  6

 40
0.0
 41
0.0
 42
0.0
 43
0.0
 44
0.0
 45
0.0
 46
0.0
 47
0.0
 48
0.0
 49
0.0
140
0.0
141
0.0
142
1.0
143
1.0
 70
   688
 72
     1
 73
     0
 74
     5
  7

 75
    16
147
1.0
148
0.0
149
0.0
100
AcDbLayout
  1
Layout2
 70
     1
 71
     2
 10
0.0
 20
0.0
 11
0.0
 21
0.0
 12
0.0
 22
0.0
 32
0.0
 14
0.0
 24
0.0
 34
0.0
 15
0.0
 25
0.0
 35
0.0
146
0.0
 13
0.0
 23
0.0
 33
0.0
 16
1.0
 26
0.0
 36
0.0
 17
0.0
 27
1.0
 37
0.0
 76
     0
330
23
  0
LAYOUT
  5
22
102
{ACAD_REACTORS
330
1A
102
}
330
1A
100
AcDbPlotSettings
  1

  2
none_device
  4
Letter_(8.50_x_11.00_Inches)
  6

 40
6.35
 41
6.35
 42
6.35000508
 43
6.35000508
 44
215.9
 45
279.4
 46
0.0
 47
0.0
 48
0.0
 49
0.0
140
0.0
141
0.0
142
1.0
143
1.0
 70
  1712
 72
     1
 73
     0
 74
     0
  7

 75
     0
147
1.0
148
0.0
149
0.0
100
AcDbLayout
  1
Model
 70
     1
 71
     0
 10
0.0
 20
0.0
 11
420.0
 21
297.0
 12
0.0
 22
0.0
 32
0.0
 14
0.0
 24
0.0
 34
0.0
 15
420.0
 25
297.0
 35
0.0
146
0.0
 13
0.0
 23
0.0
 33
0.0
 16
1.0
 26
0.0
 36
0.0
 17
0.0
 27
1.0
 37
0.0
 76
     0
330
1F
331
29
  0
MLINESTYLE
  5
18
102
{ACAD_REACTORS
330
17
102
}
330
17
100
AcDbMlineStyle
  2
Standard
 70
     0
  3

 62
   256
 51
90.0
 52
90.0
 71
     2
 49
0.5
 62
   256
  6
BYLAYER
 49
-0.5
 62
   256
  6
BYLAYER
  0
ACDBPLACEHOLDER
  5
F
102
{ACAD_REACTORS
330
E
102
}
330
E
  0
SCALE
  5
48
102
{ACAD_REACTORS
330
47
102
}
330
47
100
AcDbScale
 70
     0
300
1:1
140
1.0
141
1.0
290
     1
  0
SCALE
  5
49
102
{ACAD_REACTORS
330
47
102
}
330
47
100
AcDbScale
 70
     0
300
1:2
140
1.0
141
2.0
290
     0
  0
SCALE
  5
4A
102
{ACAD_REACTORS
330
47
102
}
330
47
100
AcDbScale
 70
     0
300
1:4
140
1.0
141
4.0
290
     0
  0
SCALE
  5
4B
102
{ACAD_REACTORS
330
47
102
}
330
47
100
AcDbScale
 70
     0
300
1:5
140
1.0
141
5.0
290
     0
  0
SCALE
  5
4C
102
{ACAD_REACTORS
330
47
102
}
330
47
100
AcDbScale
 70
     0
300
1:8
140
1.0
141
8.0
290
     0
  0
SCALE
  5
4D
102
{ACAD_REACTORS
330
47
102
}
330
47
100
AcDbScale
 70
     0
300
1:10
140
1.0
141
10.0
290
     0
  0
SCALE
  5
4E
102
{ACAD_REACTORS
330
47
102
}
330
47
100
AcDbScale
 70
     0
300
1:16
140
1.0
141
16.0
290
     0
  0
SCALE
  5
4F
102
{ACAD_REACTORS
330
47
102
}
330
47
100
AcDbScale
 70
     0
300
1:20
140
1.0
141
20.0
290
     0
  0
SCALE
  5
50
102
{ACAD_REACTORS
330
47
102
}
330
47
100
AcDbScale
 70
     0
300
1:30
140
1.0
141
30.0
290
     0
  0
SCALE
  5
51
102
{ACAD_REACTORS
330
47
102
}
330
47
100
AcDbScale
 70
     0
300
1:40
140
1.0
141
40.0
290
     0
  0
SCALE
  5
52
102
{ACAD_REACTORS
330
47
102
}
330
47
100
AcDbScale
 70
     0
300
1:50
140
1.0
141
50.0
290
     0
  0
SCALE
  5
53
102
{ACAD_REACTORS
330
47
102
}
330
47
100
AcDbScale
 70
     0
300
1:100
140
1.0
141
100.0
290
     0
  0
SCALE
  5
54
102
{ACAD_REACTORS
330
47
102
}
330
47
100
AcDbScale
 70
     0
300
2:1
140
2.0
141
1.0
290
     0
  0
SCALE
  5
55
102
{ACAD_REACTORS
330
47
102
}
330
47
100
AcDbScale
 70
     0
300
4:1
140
4.0
141
1.0
290
     0
  0
SCALE
  5
56
102
{ACAD_REACTORS
330
47
102
}
330
47
100
AcDbScale
 70
     0
300
8:1
140
8.0
141
1.0
290
     0
  0
SCALE
  5
57
102
{ACAD_REACTORS
330
47
102
}
330
47
100
AcDbScale
 70
     0
300
10:1
140
10.0
141
1.0
290
     0
  0
SCALE
  5
58
102
{ACAD_REACTORS
330
47
102
}
330
47
100
AcDbScale
 70
     0
300
100:1
140
100.0
141
1.0
290
     0
  0
SCALE
  5
59
102
{ACAD_REACTORS
330
47
102
}
330
47
100
AcDbScale
 70
     0
300
1/128" = 1'-0"
140
0.0078125
141
12.0
290
     0
  0
SCALE
  5
5A
102
{ACAD_REACTORS
330
47
102
}
330
47
100
AcDbScale
 70
     0
300
1/64" = 1'-0"
140
0.015625
141
12.0
290
     0
  0
SCALE
  5
5B
102
{ACAD_REACTORS
330
47
102
}
330
47
100
AcDbScale
 70
     0
300
1/32" = 1'-0"
140
0.03125
141
12.0
290
     0
  0
SCALE
  5
5C
102
{ACAD_REACTORS
330
47
102
}
330
47
100
AcDbScale
 70
     0
300
1/16" = 1'-0"
140
0.0625
141
12.0
290
     0
  0
SCALE
  5
5D
102
{ACAD_REACTORS
330
47
102
}
330
47
100
AcDbScale
 70
     0
300
3/32" = 1'-0"
140
0.09375
141
12.0
290
     0
  0
SCALE
  5
5E
102
{ACAD_REACTORS
330
47
102
}
330
47
100
AcDbScale
 70
     0
300
1/8" = 1'-0"
140
0.125
141
12.0
290
     0
  0
SCALE
  5
5F
102
{ACAD_REACTORS
330
47
102
}
330
47
100
AcDbScale
 70
     0
300
3/16" = 1'-0"
140
0.1875
141
12.0
290
     0
  0
SCALE
  5
60
102
{ACAD_REACTORS
330
47
102
}
330
47
100
AcDbScale
 70
     0
300
1/4" = 1'-0"
140
0.25
141
12.0
290
     0
  0
SCALE
  5
61
102
{ACAD_REACTORS
330
47
102
}
330
47
100
AcDbScale
 70
     0
300
3/8" = 1'-0"
140
0.375
141
12.0
290
     0
  0
SCALE
  5
62
102
{ACAD_REACTORS
330
47
102
}
330
47
100
AcDbScale
 70
     0
300
1/2" = 1'-0"
140
0.5
141
12.0
290
     0
  0
SCALE
  5
63
102
{ACAD_REACTORS
330
47
102
}
330
47
100
AcDbScale
 70
     0
300
3/4" = 1'-0"
140
0.75
141
12.0
290
     0
  0
SCALE
  5
64
102
{ACAD_REACTORS
330
47
102
}
330
47
100
AcDbScale
 70
     0
300
1" = 1'-0"
140
1.0
141
12.0
290
     0
  0
SCALE
  5
65
102
{ACAD_REACTORS
330
47
102
}
330
47
100
AcDbScale
 70
     0
300
1-1/2" = 1'-0"
140
1.5
141
12.0
290
     0
  0
SCALE
  5
66
102
{ACAD_REACTORS
330
47
102
}
330
47
100
AcDbScale
 70
     0
300
3" = 1'-0"
140
3.0
141
12.0
290
     0
  0
SCALE
  5
67
102
{ACAD_REACTORS
330
47
102
}
330
47
100
AcDbScale
 70
     0
300
6" = 1'-0"
140
6.0
141
12.0
290
     0
  0
SCALE
  5
68
102
{ACAD_REACTORS
330
47
102
}
330
47
100
AcDbScale
 70
     0
300
1'-0" = 1'-0"
140
12.0
141
12.0
290
     0
  0
ENDSEC
  0
EOF
