  0
SECTION
  2
HEADER
  9
$ACADVER
  1
AC1015
  9
$ACADMAINTVER
 70
     6
  9
$DWGCODEPAGE
  3
ANSI_1252
  9
$INSBASE
 10
0.0
 20
0.0
 30
0.0
  9
$EXTMIN
 10
0.0
 20
0.0
 30
0.0
  9
$EXTMAX
 10
420.0
 20
297.0
 30
0.0
  9
$LIMMIN
 10
0.0
 20
0.0
  9
$LIMMAX
 10
420.0
 20
297.0
  9
$ORTHOMODE
 70
     0
  9
$REGENMODE
 70
     1
  9
$FILLMODE
 70
     1
  9
$QTEXTMODE
 70
     0
  9
$MIRRTEXT
 70
     1
  9
$LTSCALE
 40
1.0
  9
$ATTMODE
 70
     1
  9
$TEXTSIZE
 40
3.5
  9
$TRACEWID
 40
1.0
  9
$TEXTSTYLE
  7
Standard
  9
$CLAYER
  8
0
  9
$CELTYPE
  6
ByLayer
  9
$CECOLOR
 62
   256
  9
$CELTSCALE
 40
1.0
  9
$DISPSILH
 70
     0
  9
$DIMSCALE
 40
1.0
  9
$DIMASZ
 40
3.302
  9
$DIMEXO
 40
1.0
  9
$DIMDLI
 40
3.75
  9
$DIMRND
 40
0.0
  9
$DIMDLE
 40
0.0
  9
$DIMEXE
 40
1.0
  9
$DIMTP
 40
0.0
  9
$DIMTM
 40
0.0
  9
$DIMTXT
 40
3.5
  9
$DIMCEN
 40
2.5
  9
$DIMTSZ
 40
0.0
  9
$DIMTOL
 70
     0
  9
$DIMLIM
 70
     0
  9
$DIMTIH
 70
     1
  9
$DIMTOH
 70
     1
  9
$DIMSE1
 70
     0
  9
$DIMSE2
 70
     0
  9
$DIMTAD
 70
     1
  9
$DIMZIN
 70
     0
  9
$DIMBLK
  1

  9
$DIMASO
 70
     1
  9
$DIMSHO
 70
     1
  9
$DIMPOST
  1

  9
$DIMAPOST
  1

  9
$DIMALT
 70
     0
  9
$DIMALTD
 70
     3
  9
$DIMALTF
 40
0.0393700787
  9
$DIMLFAC
 40
1.0
  9
$DIMTOFL
 70
     1
  9
$DIMTVP
 40
0.0
  9
$DIMTIX
 70
     0
  9
$DIMSOXD
 70
     0
  9
$DIMSAH
 70
     0
  9
$DIMBLK1
  1

  9
$DIMBLK2
  1

  9
$DIMSTYLE
  2
ISO-25
  9
$DIMCLRD
 70
     0
  9
$DIMCLRE
 70
     0
  9
$DIMCLRT
 70
     0
  9
$DIMTFAC
 40
1.0
  9
$DIMGAP
 40
1.524
  9
$DIMJUST
 70
     0
  9
$DIMSD1
 70
     0
  9
$DIMSD2
 70
     0
  9
$DIMTOLJ
 70
     0
  9
$DIMTZIN
 70
     0
  9
$DIMALTZ
 70
     0
  9
$DIMALTTZ
 70
     0
  9
$DIMUPT
 70
     0
  9
$DIMDEC
 70
     2
  9
$DIMTDEC
 70
     2
  9
$DIMALTU
 70
     2
  9
$DIMALTTD
 70
     3
  9
$DIMTXSTY
  7
Standard
  9
$DIMAUNIT
 70
     0
  9
$DIMADEC
 70
     2
  9
$DIMALTRND
 40
0.0
  9
$DIMAZIN
 70
     0
  9
$DIMDSEP
 70
    44
  9
$DIMATFIT
 70
     3
  9
$DIMFRAC
 70
     0
  9
$DIMLDRBLK
  1

  9
$DIMLUNIT
 70
     2
  9
$DIMLWD
 70
    -2
  9
$DIMLWE
 70
    -2
  9
$DIMTMOVE
 70
     0
  9
$LUNITS
 70
     2
  9
$LUPREC
 70
     2
  9
$SKETCHINC
 40
1.0
  9
$FILLETRAD
 40
10.0
  9
$AUNITS
 70
     0
  9
$AUPREC
 70
     2
  9
$MENU
  1
.
  9
$ELEVATION
 40
0.0
  9
$PELEVATION
 40
0.0
  9
$THICKNESS
 40
0.0
  9
$LIMCHECK
 70
     0
  9
$CHAMFERA
 40
0.0
  9
$CHAMFERB
 40
0.0
  9
$CHAMFERC
 40
0.0
  9
$CHAMFERD
 40
0.0
  9
$SKPOLY
 70
     0
  9
$TDCREATE
 40
2460554.391315961
  9
$TDUCREATE
 40
2460554.307982627
  9
$TDUPDATE
 40
2460554.39132081
  9
$TDUUPDATE
 40
2460554.307987477
  9
$TDINDWG
 40
0.0000000116
  9
$TDUSRTIMER
 40
0.0000000116
  9
$USRTIMER
 70
     1
  9
$ANGBASE
 50
0.0
  9
$ANGDIR
 70
     0
  9
$PDMODE
 70
     0
  9
$PDSIZE
 40
-1.0
  9
$PLINEWID
 40
0.0
  9
$SPLFRAME
 70
     0
  9
$SPLINETYPE
 70
     6
  9
$SPLINESEGS
 70
     8
  9
$HANDSEED
  5
37E
  9
$SURFTAB1
 70
     6
  9
$SURFTAB2
 70
     6
  9
$SURFTYPE
 70
     6
  9
$SURFU
 70
     6
  9
$SURFV
 70
     6
  9
$UCSBASE
  2

  9
$UCSNAME
  2

  9
$UCSORG
 10
0.0
 20
0.0
 30
0.0
  9
$UCSXDIR
 10
1.0
 20
0.0
 30
0.0
  9
$UCSYDIR
 10
0.0
 20
1.0
 30
0.0
  9
$UCSORTHOREF
  2

  9
$UCSORTHOVIEW
 70
     0
  9
$UCSORGTOP
 10
0.0
 20
0.0
 30
0.0
  9
$UCSORGBOTTOM
 10
0.0
 20
0.0
 30
0.0
  9
$UCSORGLEFT
 10
0.0
 20
0.0
 30
0.0
  9
$UCSORGRIGHT
 10
0.0
 20
0.0
 30
0.0
  9
$UCSORGFRONT
 10
0.0
 20
0.0
 30
0.0
  9
$UCSORGBACK
 10
0.0
 20
0.0
 30
0.0
  9
$PUCSBASE
  2

  9
$PUCSNAME
  2

  9
$PUCSORG
 10
0.0
 20
0.0
 30
0.0
  9
$PUCSXDIR
 10
1.0
 20
0.0
 30
0.0
  9
$PUCSYDIR
 10
0.0
 20
1.0
 30
0.0
  9
$PUCSORTHOREF
  2

  9
$PUCSORTHOVIEW
 70
     0
  9
$PUCSORGTOP
 10
0.0
 20
0.0
 30
0.0
  9
$PUCSORGBOTTOM
 10
0.0
 20
0.0
 30
0.0
  9
$PUCSORGLEFT
 10
0.0
 20
0.0
 30
0.0
  9
$PUCSORGRIGHT
 10
0.0
 20
0.0
 30
0.0
  9
$PUCSORGFRONT
 10
0.0
 20
0.0
 30
0.0
  9
$PUCSORGBACK
 10
0.0
 20
0.0
 30
0.0
  9
$USERI1
 70
     0
  9
$USERI2
 70
     0
  9
$USERI3
 70
     0
  9
$USERI4
 70
     0
  9
$USERI5
 70
     0
  9
$USERR1
 40
0.0
  9
$USERR2
 40
0.0
  9
$USERR3
 40
0.0
  9
$USERR4
 40
0.0
  9
$USERR5
 40
0.0
  9
$WORLDVIEW
 70
     1
  9
$SHADEDGE
 70
     3
  9
$SHADEDIF
 70
    70
  9
$TILEMODE
 70
     1
  9
$MAXACTVP
 70
    64
  9
$PINSBASE
 10
0.0
 20
0.0
 30
0.0
  9
$PLIMCHECK
 70
     0
  9
$PEXTMIN
 10
1.0000000000E+20
 20
1.0000000000E+20
 30
1.0000000000E+20
  9
$PEXTMAX
 10
-1.0000000000E+20
 20
-1.0000000000E+20
 30
-1.0000000000E+20
  9
$PLIMMIN
 10
0.0
 20
0.0
  9
$PLIMMAX
 10
420.0
 20
297.0
  9
$UNITMODE
 70
     0
  9
$VISRETAIN
 70
     1
  9
$PLINEGEN
 70
     0
  9
$PSLTSCALE
 70
     1
  9
$TREEDEPTH
 70
  3020
  9
$CMLSTYLE
  2
Standard
  9
$CMLJUST
 70
     0
  9
$CMLSCALE
 40
20.0
  9
$PROXYGRAPHICS
 70
     1
  9
$MEASUREMENT
 70
     1
  9
$CELWEIGHT
370
    -1
  9
$ENDCAPS
280
     0
  9
$JOINSTYLE
280
     0
  9
$LWDISPLAY
290
     1
  9
$INSUNITS
 70
     4
  9
$HYPERLINKBASE
  1

  9
$STYLESHEET
  1

  9
$XEDIT
290
     1
  9
$CEPSNTYPE
380
     0
  9
$PSTYLEMODE
290
     1
  9
$FINGERPRINTGUID
  2
{21f97ea3-00bc-4149-b374-385b0cf1ad5b}
  9
$VERSIONGUID
  2
{FAEB1C32-E019-11D5-929B-00C0DF256EC4}
  9
$EXTNAMES
290
     1
  9
$PSVPSCALE
 40
0.0
  9
$OLESTARTUP
290
     0
  0
ENDSEC
  0
SECTION
  2
CLASSES
  0
CLASS
  1
ACDBDICTIONARYWDFLT
  2
AcDbDictionaryWithDefault
  3
ObjectDBX Classes
 90
        0
280
     0
281
     0
  0
CLASS
  1
VISUALSTYLE
  2
AcDbVisualStyle
  3
ObjectDBX Classes
 90
     4095
280
     0
281
     0
  0
CLASS
  1
MATERIAL
  2
AcDbMaterial
  3
ObjectDBX Classes
 90
     1153
280
     0
281
     0
  0
CLASS
  1
SCALE
  2
AcDbScale
  3
ObjectDBX Classes
 90
     1153
280
     0
281
     0
  0
CLASS
  1
TABLESTYLE
  2
AcDbTableStyle
  3
ObjectDBX Classes
 90
     4095
280
     0
281
     0
  0
CLASS
  1
MLEADERSTYLE
  2
AcDbMLeaderStyle
  3
ACDB_MLEADERSTYLE_CLASS
 90
     4095
280
     0
281
     0
  0
CLASS
  1
SUN
  2
AcDbSun
  3
SCENEOE
 90
     1153
280
     0
281
     0
  0
CLASS
  1
ACDBPLACEHOLDER
  2
AcDbPlaceHolder
  3
ObjectDBX Classes
 90
        0
280
     0
281
     0
  0
CLASS
  1
LAYOUT
  2
AcDbLayout
  3
ObjectDBX Classes
 90
        0
280
     0
281
     0
  0
ENDSEC
  0
SECTION
  2
TABLES
  0
TABLE
  2
VPORT
  5
8
330
0
100
AcDbSymbolTable
 70
     1
  0
VPORT
  5
29
330
8
100
AcDbSymbolTableRecord
100
AcDbViewportTableRecord
  2
*Active
 70
     0
 10
0.0
 20
0.0
 11
1.0
 21
1.0
 12
210.0
 22
148.5
 13
0.0
 23
0.0
 14
10.0
 24
10.0
 15
10.0
 25
10.0
 16
0.0
 26
0.0
 36
1.0
 17
0.0
 27
0.0
 37
0.0
 40
297.0
 41
1.4141414141
 42
50.0
 43
0.0
 44
0.0
 50
0.0
 51
0.0
 71
     0
 72
  2000
 73
     1
 74
     3
 75
     0
 76
     0
 77
     0
 78
     0
281
     0
 65
     1
110
0.0
120
0.0
130
0.0
111
1.0
121
0.0
131
0.0
112
0.0
122
1.0
132
0.0
 79
     0
146
0.0
  0
ENDTAB
  0
TABLE
  2
LTYPE
  5
5
330
0
100
AcDbSymbolTable
 70
     6
  0
LTYPE
  5
14
330
5
100
AcDbSymbolTableRecord
100
AcDbLinetypeTableRecord
  2
ByBlock
 70
     0
  3

 72
    65
 73
     0
 40
0.0
  0
LTYPE
  5
15
330
5
100
AcDbSymbolTableRecord
100
AcDbLinetypeTableRecord
  2
ByLayer
 70
     0
  3

 72
    65
 73
     0
 40
0.0
  0
LTYPE
  5
16
330
5
100
AcDbSymbolTableRecord
100
AcDbLinetypeTableRecord
  2
Continuous
 70
     0
  3
Solid line
 72
    65
 73
     0
 40
0.0
  0
LTYPE
  5
6E
330
5
100
AcDbSymbolTableRecord
100
AcDbLinetypeTableRecord
  2
HIDDEN
 70
     0
  3
Hidden __ __ __ __ __ __ __ __ __ __ __ __ __ __
 72
    65
 73
     2
 40
1.905
 49
1.27
 74
     0
 49
-0.635
 74
     0
  0
LTYPE
  5
6F
330
5
100
AcDbSymbolTableRecord
100
AcDbLinetypeTableRecord
  2
PHANTOM
 70
     0
  3
Phantom ______  __  __  ______  __  __  ______
 72
    65
 73
     6
 40
12.7
 49
6.35
 74
     0
 49
-1.27
 74
     0
 49
1.27
 74
     0
 49
-1.27
 74
     0
 49
1.27
 74
     0
 49
-1.27
 74
     0
  0
LTYPE
  5
70
330
5
100
AcDbSymbolTableRecord
100
AcDbLinetypeTableRecord
  2
CENTER
 70
     0
  3
Center ____ _ ____ _ ____ _ ____ _ ____ _ ____
 72
    65
 73
     4
 40
10.16
 49
6.35
 74
     0
 49
-1.27
 74
     0
 49
1.27
 74
     0
 49
-1.27
 74
     0
  0
LTYPE
  5
71
330
5
100
AcDbSymbolTableRecord
100
AcDbLinetypeTableRecord
  2
CENTERX2
 70
     0
  3
Center (2x) ________  __  ________  __  _____
 72
    65
 73
     4
 40
20.32
 49
12.7
 74
     0
 49
-2.54
 74
     0
 49
2.54
 74
     0
 49
-2.54
 74
     0
  0
LTYPE
  5
72
330
5
100
AcDbSymbolTableRecord
100
AcDbLinetypeTableRecord
  2
DOT2
 70
     0
  3
Dot (.5x) ........................................
 72
    65
 73
     2
 40
0.635
 49
0.0
 74
     0
 49
-0.635
 74
     0
  0
ENDTAB
  0
TABLE
  2
LAYER
  5
2
330
0
100
AcDbSymbolTable
 70
     1
  0
LAYER
  5
10
330
2
100
AcDbSymbolTableRecord
100
AcDbLayerTableRecord
  2
0
 70
     0
 62
     7
  6
Continuous
370
    -3
390
F
  0
ENDTAB
  0
TABLE
  2
STYLE
  5
3
330
0
100
AcDbSymbolTable
 70
     4
  0
STYLE
  5
11
330
3
100
AcDbSymbolTableRecord
100
AcDbTextStyleTableRecord
  2
Standard
 70
     0
 40
0.0
 41
1.0
 50
0.0
 71
     0
 42
3.5
  3
txt
  4

  0
STYLE
  5
E9
330
3
100
AcDbSymbolTableRecord
100
AcDbTextStyleTableRecord
  2
SLDTEXTSTYLE0
 70
     0
 40
0.0
 41
0.605
 50
0.0
 71
     0
 42
3.5
  3
TXT
  4

  0
STYLE
  5
193
330
3
100
AcDbSymbolTableRecord
100
AcDbTextStyleTableRecord
  2
SLDTEXTSTYLE1
 70
     0
 40
0.0
 41
0.563
 50
0.0
 71
     0
 42
3.5
  3
TXT
  4

  0
STYLE
  5
26D
330
3
100
AcDbSymbolTableRecord
100
AcDbTextStyleTableRecord
  2
SLDTEXTSTYLE2
 70
     0
 40
0.0
 41
0.75
 50
0.0
 71
     0
 42
3.5
  3
TXT
  4

  0
ENDTAB
  0
TABLE
  2
VIEW
  5
6
330
0
100
AcDbSymbolTable
 70
     0
  0
ENDTAB
  0
TABLE
  2
UCS
  5
7
330
0
100
AcDbSymbolTable
 70
     0
  0
ENDTAB
  0
TABLE
  2
APPID
  5
9
330
0
100
AcDbSymbolTable
 70
     1
  0
APPID
  5
12
330
9
100
AcDbSymbolTableRecord
100
AcDbRegAppTableRecord
  2
ACAD
 70
     0
  0
ENDTAB
  0
TABLE
  2
DIMSTYLE
  5
A
330
0
100
AcDbSymbolTable
 70
     4
100
AcDbDimStyleTable
  0
DIMSTYLE
105
27
330
A
100
AcDbSymbolTableRecord
100
AcDbDimStyleTableRecord
  2
ISO-25
 70
     0
 41
2.5
 42
0.625
 43
3.75
 44
1.25
 73
     0
 74
     0
 77
     1
 78
     8
140
2.5
141
2.5
143
0.0393700787
147
0.625
171
     3
172
     1
178
     0
271
     2
272
     2
274
     3
278
    44
283
     0
284
     8
340
11
  0
DIMSTYLE
105
26E
102
{ACAD_REACTORS
330
26C
102
}
330
A
100
AcDbSymbolTableRecord
100
AcDbDimStyleTableRecord
  2
SLDDIMSTYLE0
 70
     0
 41
3.302
 44
0.0
 45
0.000000001
 73
     0
 74
     0
 77
     1
 78
    12
 79
     3
140
3.5
147
0.875
173
     1
178
     0
271
     0
272
     0
276
     2
284
    12
340
26D
  0
DIMSTYLE
105
279
102
{ACAD_REACTORS
330
278
102
}
330
A
100
AcDbSymbolTableRecord
100
AcDbDimStyleTableRecord
  2
SLDDIMSTYLE1
 70
     0
 41
3.302
 44
0.0
 45
0.000000001
 73
     0
 74
     0
 77
     1
 78
    12
 79
     3
140
3.5
147
0.875
173
     1
178
     0
271
     2
272
     2
276
     2
284
    12
340
26D
  0
DIMSTYLE
105
2B6
102
{ACAD_REACTORS
330
2B5
102
}
330
A
100
AcDbSymbolTableRecord
100
AcDbDimStyleTableRecord
  2
SLDDIMSTYLE2
 70
     0
 41
3.302
 44
0.0
 45
0.000000001
 73
     0
 74
     0
 77
     1
 78
    12
 79
     3
140
3.5
147
0.875
172
     1
173
     1
178
     0
271
     2
272
     2
276
     2
284
    12
289
     0
340
26D
  0
ENDTAB
  0
TABLE
  2
BLOCK_RECORD
  5
1
330
0
100
AcDbSymbolTable
 70
    11
  0
BLOCK_RECORD
  5
1F
330
1
100
AcDbSymbolTableRecord
100
AcDbBlockTableRecord
  2
*Model_Space
340
22
  0
BLOCK_RECORD
  5
1B
330
1
100
AcDbSymbolTableRecord
100
AcDbBlockTableRecord
  2
*Paper_Space
340
1E
  0
BLOCK_RECORD
  5
23
330
1
100
AcDbSymbolTableRecord
100
AcDbBlockTableRecord
  2
*Paper_Space0
340
26
  0
BLOCK_RECORD
  5
73
330
1
100
AcDbSymbolTableRecord
100
AcDbBlockTableRecord
  2
ACO-Logo
340
0
102
{BLKREFS
331
149
102
}
  0
BLOCK_RECORD
  5
E6
330
1
100
AcDbSymbolTableRecord
100
AcDbBlockTableRecord
  2
SW_NOTE_0
340
0
102
{BLKREFS
331
EB
102
}
  0
BLOCK_RECORD
  5
EC
330
1
100
AcDbSymbolTableRecord
100
AcDbBlockTableRecord
  2
SW_NOTE_0_1
340
0
102
{BLKREFS
331
F0
102
}
  0
BLOCK_RECORD
  5
F1
330
1
100
AcDbSymbolTableRecord
100
AcDbBlockTableRecord
  2
SW_NOTE_0_2
340
0
102
{BLKREFS
331
F8
102
}
  0
BLOCK_RECORD
  5
16E
330
1
100
AcDbSymbolTableRecord
100
AcDbBlockTableRecord
  2
SW_NOTE_0_3
340
0
102
{BLKREFS
331
176
102
}
  0
BLOCK_RECORD
  5
26F
330
1
100
AcDbSymbolTableRecord
100
AcDbBlockTableRecord
  2
_D
340
0
  0
BLOCK_RECORD
  5
27A
330
1
100
AcDbSymbolTableRecord
100
AcDbBlockTableRecord
  2
_D_1
340
0
  0
BLOCK_RECORD
  5
283
330
1
100
AcDbSymbolTableRecord
100
AcDbBlockTableRecord
  2
SW_CENTERMARKSYMBOL_0
340
0
102
{BLKREFS
331
28E
102
}
  0
BLOCK_RECORD
  5
28F
330
1
100
AcDbSymbolTableRecord
100
AcDbBlockTableRecord
  2
SW_CENTERMARKSYMBOL_1
340
0
102
{BLKREFS
331
29A
102
}
  0
BLOCK_RECORD
  5
2B7
330
1
100
AcDbSymbolTableRecord
100
AcDbBlockTableRecord
  2
_D_2
340
0
  0
ENDTAB
  0
ENDSEC
  0
SECTION
  2
BLOCKS
  0
BLOCK
  5
20
330
1F
100
AcDbEntity
  8
0
100
AcDbBlockBegin
  2
*Model_Space
 70
     0
 10
0.0
 20
0.0
 30
0.0
  3
*Model_Space
  1

  0
ENDBLK
  5
21
330
1F
100
AcDbEntity
  8
0
100
AcDbBlockEnd
  0
BLOCK
  5
1C
330
1B
100
AcDbEntity
 67
     1
  8
0
100
AcDbBlockBegin
  2
*Paper_Space
 70
     0
 10
0.0
 20
0.0
 30
0.0
  3
*Paper_Space
  1

  0
ENDBLK
  5
1D
330
1B
100
AcDbEntity
 67
     1
  8
0
100
AcDbBlockEnd
  0
BLOCK
  5
24
330
23
100
AcDbEntity
  8
0
100
AcDbBlockBegin
  2
*Paper_Space0
 70
     0
 10
0.0
 20
0.0
 30
0.0
  3
*Paper_Space0
  1

  0
ENDBLK
  5
25
330
23
100
AcDbEntity
  8
0
100
AcDbBlockEnd
  0
BLOCK
  5
74
330
73
100
AcDbEntity
  8
0
100
AcDbBlockBegin
  2
ACO-Logo
 70
     0
 10
0.0
 20
0.0
 30
0.0
  3
ACO-Logo
  1

  0
ARC
  5
76
330
73
100
AcDbEntity
  8
0
  6
Continuous
 62
   179
370
    18
100
AcDbCircle
 10
80.3853261169
 20
4.9940995715
 30
0.0
 40
0.3000000000000441
100
AcDbArc
 50
181.9349323096
 51
274.6062978506
  0
ARC
  5
77
330
73
100
AcDbEntity
  8
0
  6
Continuous
 62
   179
370
    18
100
AcDbCircle
 10
81.2359083165
 20
2.1946665956
 30
0.0
 40
1.000000000000021
100
AcDbArc
 50
221.4087409628
 51
276.0561297228
  0
ARC
  5
78
330
73
100
AcDbEntity
  8
0
  6
Continuous
 62
   179
370
    18
100
AcDbCircle
 10
79.1360017163
 20
3.654242048
 30
0.0
 40
0.300000000000004
100
AcDbArc
 50
181.2730300201
 51
274.4996077095
  0
ARC
  5
79
330
73
100
AcDbEntity
  8
0
  6
Continuous
 62
   179
370
    18
100
AcDbCircle
 10
78.7699033484
 20
3.2873137407
 30
0.0
 40
0.4000000000000358
100
AcDbArc
 50
221.0090869016
 51
274.5606296317
  0
ARC
  5
7A
330
73
100
AcDbEntity
  8
0
  6
Continuous
 62
   179
370
    18
100
AcDbCircle
 10
91.2333953062
 20
4.6062442307
 30
0.0
 40
0.3000000000000493
100
AcDbArc
 50
274.4996077095
 51
3.7249371334
  0
ARC
  5
7B
330
73
100
AcDbEntity
  8
0
  6
Continuous
 62
   179
370
    18
100
AcDbCircle
 10
81.5287571045
 20
9.7648973508
 30
0.0
 40
1.00000000000002
100
AcDbArc
 50
93.1134387481
 51
181.9414863909
  0
ARC
  5
7C
330
73
100
AcDbEntity
  8
0
  6
Continuous
 62
   179
370
    18
100
AcDbCircle
 10
81.6051675115
 20
7.5107903456
 30
0.0
 40
1.0
100
AcDbArc
 50
181.9414863909
 51
274.398705355
  0
ARC
  5
7D
330
73
100
AcDbEntity
  8
0
  6
Continuous
 62
   179
370
    18
100
AcDbCircle
 10
80.1506905656
 20
11.9393118923
 30
0.0
 40
0.300000000000045
100
AcDbArc
 50
93.0418421566
 51
181.9349323096
  0
ARC
  5
7E
330
73
100
AcDbEntity
  8
0
  6
Continuous
 62
   179
370
    18
100
AcDbCircle
 10
78.1879722102
 20
12.3499352608
 30
0.0
 40
0.7999999999953393
100
AcDbArc
 50
92.6995697565
 51
148.2554209065
  0
ARC
  5
7F
330
73
100
AcDbEntity
  8
0
  6
Continuous
 62
   179
370
    18
100
AcDbCircle
 10
78.930862229
 20
12.8855189761
 30
0.0
 40
0.3000000000000031
100
AcDbArc
 50
92.6995697565
 51
181.2730300201
  0
ARC
  5
80
330
73
100
AcDbEntity
  8
0
  6
Continuous
 62
   179
370
    18
100
AcDbCircle
 10
82.327743407
 20
9.8083568568
 30
0.0
 40
1.000000000000034
100
AcDbArc
 50
1.9414863909
 51
93.1134387481
  0
ARC
  5
81
330
73
100
AcDbEntity
  8
0
  6
Continuous
 62
   179
370
    18
100
AcDbCircle
 10
81.5287571045
 20
9.7648973508
 30
0.0
 40
0.3625000000000009
100
AcDbArc
 50
93.1134387481
 51
181.9414863909
  0
ARC
  5
82
330
73
100
AcDbEntity
  8
0
  6
Continuous
 62
   179
370
    18
100
AcDbCircle
 10
82.327743407
 20
9.8083568568
 30
0.0
 40
0.3625000000000146
100
AcDbArc
 50
1.9414863909
 51
93.1134387481
  0
ARC
  5
83
330
73
100
AcDbEntity
  8
0
  6
Continuous
 62
   179
370
    18
100
AcDbCircle
 10
82.4035451983
 20
7.5722040138
 30
0.0
 40
1.000000000000008
100
AcDbArc
 50
274.398705355
 51
1.9414863909
  0
ARC
  5
84
330
73
100
AcDbEntity
  8
0
  6
Continuous
 62
   179
370
    18
100
AcDbCircle
 10
82.4035451983
 20
7.5722040138
 30
0.0
 40
0.3625000000000068
100
AcDbArc
 50
274.398705355
 51
1.9414863909
  0
ARC
  5
85
330
73
100
AcDbEntity
  8
0
  6
Continuous
 62
   179
370
    18
100
AcDbCircle
 10
81.6051675115
 20
7.5107903456
 30
0.0
 40
0.3625000000000111
100
AcDbArc
 50
181.9414863909
 51
274.398705355
  0
ARC
  5
86
330
73
100
AcDbEntity
  8
0
  6
Continuous
 62
   179
370
    18
100
AcDbCircle
 10
88.825822761
 20
8.0662148274
 30
0.0
 40
0.9999999999999997
100
AcDbArc
 50
274.398705355
 51
2.6541955134
  0
ARC
  5
87
330
73
100
AcDbEntity
  8
0
  6
Continuous
 62
   179
370
    18
100
AcDbCircle
 10
90.1578295581
 20
5.7814576687
 30
0.0
 40
0.3000000000000043
100
AcDbArc
 50
274.6062978507
 51
2.5147526475
  0
ARC
  5
88
330
73
100
AcDbEntity
  8
0
  6
Continuous
 62
   179
370
    18
100
AcDbCircle
 10
88.825822761
 20
8.0662148274
 30
0.0
 40
0.3625000000000083
100
AcDbArc
 50
274.398705355
 51
2.6541955134
  0
ARC
  5
89
330
73
100
AcDbEntity
  8
0
  6
Continuous
 62
   179
370
    18
100
AcDbCircle
 10
88.728529747
 20
10.16496413
 30
0.0
 40
1.000000000000001
100
AcDbArc
 50
2.6541955134
 51
93.1134387481
  0
ARC
  5
8A
330
73
100
AcDbEntity
  8
0
  6
Continuous
 62
   179
370
    18
100
AcDbCircle
 10
88.728529747
 20
10.16496413
 30
0.0
 40
0.3625000000000085
100
AcDbArc
 50
2.6541955134
 51
93.1134387481
  0
ARC
  5
8B
330
73
100
AcDbEntity
  8
0
  6
Continuous
 62
   179
370
    18
100
AcDbCircle
 10
89.8647121341
 20
12.455515937
 30
0.0
 40
0.2999999999999984
100
AcDbArc
 50
2.5147526475
 51
93.0418421566
  0
ARC
  5
8C
330
73
100
AcDbEntity
  8
0
  6
Continuous
 62
   179
370
    18
100
AcDbCircle
 10
90.6583795404
 20
13.4384863935
 30
0.0
 40
0.2999999999999911
100
AcDbArc
 50
3.7249371334
 51
92.6995697565
  0
CIRCLE
  5
8D
330
73
100
AcDbEntity
  8
0
  6
Continuous
 62
   179
370
    18
100
AcDbCircle
 10
15.7233972286
 20
6.4054930194
 30
0.0
 40
1.579500000000014
  0
CIRCLE
  5
8E
330
73
100
AcDbEntity
  8
0
  6
Continuous
 62
   179
370
    18
100
AcDbCircle
 10
15.7233972286
 20
6.4054930194
 30
0.0
 40
2.281499999999994
  0
ARC
  5
8F
330
73
100
AcDbEntity
  8
0
  6
Continuous
 62
   179
370
    18
100
AcDbCircle
 10
89.7681336026
 20
2.3106616691
 30
0.0
 40
0.098384530246548
100
AcDbArc
 50
332.3802627259
 51
4.9765441602
  0
ARC
  5
90
330
73
100
AcDbEntity
  8
0
  6
Continuous
 62
   179
370
    18
100
AcDbCircle
 10
89.6886560089
 20
2.3522464185
 30
0.0
 40
0.1880839130754018
100
AcDbArc
 50
303.690067526
 51
332.3802627258
  0
ARC
  5
91
330
73
100
AcDbEntity
  8
0
  6
Continuous
 62
   179
370
    18
100
AcDbCircle
 10
89.4849700869
 20
2.6577753016
 30
0.0
 40
0.5552839311631531
100
AcDbArc
 50
287.108652213
 51
303.690067526
  0
ARC
  5
92
330
73
100
AcDbEntity
  8
0
  6
Continuous
 62
   179
370
    18
100
AcDbCircle
 10
88.0513010646
 20
7.3154864882
 30
0.0
 40
5.428648309393203
100
AcDbArc
 50
285.2551187031
 51
287.108652213
  0
ARC
  5
93
330
73
100
AcDbEntity
  8
0
  6
Continuous
 62
   179
370
    18
100
AcDbCircle
 10
89.1317168954
 20
3.3539617753
 30
0.0
 40
1.322436378825653
100
AcDbArc
 50
281.4991866428
 51
285.255118703
  0
ARC
  5
94
330
73
100
AcDbEntity
  8
0
  6
Continuous
 62
   179
370
    18
100
AcDbCircle
 10
89.3198255509
 20
2.4293110075
 30
0.0
 40
0.3788454141584939
100
AcDbArc
 50
279.1917900003
 51
281.499186643
  0
ARC
  5
95
330
73
100
AcDbEntity
  8
0
  6
Continuous
 62
   179
370
    18
100
AcDbCircle
 10
89.0487250788
 20
4.1046569124
 30
0.0
 40
2.07598399629105
100
AcDbArc
 50
277.7634675038
 51
279.1917900002
  0
ARC
  5
96
330
73
100
AcDbEntity
  8
0
  6
Continuous
 62
   179
370
    18
100
AcDbCircle
 10
9.2588909915
 20
6.4054930194
 30
0.0
 40
1.579500000000074
100
AcDbArc
 50
31.0558004991
 51
330.0
  0
ARC
  5
97
330
73
100
AcDbEntity
  8
0
  6
Continuous
 62
   179
370
    18
100
AcDbCircle
 10
9.2588909915
 20
6.4054930194
 30
0.0
 40
2.281500000000107
100
AcDbArc
 50
30.7309172659
 51
330.0
  0
ARC
  5
98
330
73
100
AcDbEntity
  8
0
  6
Continuous
 62
   179
370
    18
100
AcDbCircle
 10
6.1288847544
 20
4.0685261312
 30
0.0
 40
4.914000000000307
100
AcDbArc
 50
172.3058370354
 51
179.7113029221
  0
ARC
  5
99
330
73
100
AcDbEntity
  8
0
  6
Continuous
 62
   179
370
    18
100
AcDbCircle
 10
-0.5401152456
 20
4.0685261312
 30
0.0
 40
4.91400000000019
100
AcDbArc
 50
0.2886970779
 51
7.6941629646
  0
ARC
  5
9A
330
73
100
AcDbEntity
  8
0
  6
Continuous
 62
   179
370
    18
100
AcDbCircle
 10
-0.5401152456
 20
4.0685261312
 30
0.0
 40
5.616000000000127
100
AcDbArc
 50
0.2526096926
 51
53.5764263577
  0
ARC
  5
9B
330
73
100
AcDbEntity
  8
0
  6
Continuous
 62
   179
370
    18
100
AcDbCircle
 10
6.1288847544
 20
4.0685261312
 30
0.0
 40
5.61600000000074
100
AcDbArc
 50
126.4235736423
 51
179.7473903073
  0
ARC
  5
9C
330
73
100
AcDbEntity
  8
0
  6
Continuous
 62
   179
370
    18
100
AcDbCircle
 10
-0.5401152456
 20
4.0685261312
 30
0.0
 40
4.914000000000161
100
AcDbArc
 50
16.0658750272
 51
47.2678899574
  0
ARC
  5
9D
330
73
100
AcDbEntity
  8
0
  6
Continuous
 62
   179
370
    18
100
AcDbCircle
 10
6.1288847544
 20
4.0685261312
 30
0.0
 40
4.914000000000584
100
AcDbArc
 50
132.7321100426
 51
163.9341249728
  0
LINE
  5
9E
330
73
100
AcDbEntity
  8
0
  6
Continuous
 62
   179
370
    18
100
AcDbLine
 10
78.8017089389
 20
2.8885802402
 30
0.0
 11
90.7982178739
 21
3.8455002136
 31
0.0
  0
LINE
  5
9F
330
73
100
AcDbEntity
  8
0
  6
Continuous
 62
   179
370
    18
100
AcDbLine
 10
76.6545490427
 20
5.8693097374
 30
0.0
 11
78.0344191726
 21
3.5235305166
 31
0.0
  0
LINE
  5
A0
330
73
100
AcDbEntity
  8
0
  6
Continuous
 62
   179
370
    18
100
AcDbLine
 10
91.5327615373
 20
4.6257342197
 30
0.0
 11
90.9577457715
 21
13.4579763825
 31
0.0
  0
LINE
  5
A1
330
73
100
AcDbEntity
  8
0
  6
Continuous
 62
   179
370
    18
100
AcDbLine
 10
78.6309362756
 20
12.8788539549
 30
0.0
 11
78.8360757629
 21
3.6475770268
 31
0.0
  0
LINE
  5
A2
330
73
100
AcDbEntity
  8
0
  6
Continuous
 62
   179
370
    18
100
AcDbLine
 10
80.4094186633
 20
4.6950685544
 30
0.0
 11
90.1819221045
 21
5.4824266516
 31
0.0
  0
LINE
  5
A3
330
73
100
AcDbEntity
  8
0
  6
Continuous
 62
   179
370
    18
100
AcDbLine
 10
79.1595373973
 20
3.3551666867
 30
0.0
 11
91.2569309872
 21
4.3071688694
 31
0.0
  0
LINE
  5
A4
330
73
100
AcDbEntity
  8
0
  6
Continuous
 62
   179
370
    18
100
AcDbLine
 10
79.2585043218
 20
2.925017226
 30
0.0
 11
80.4858981444
 21
1.533240302
 31
0.0
  0
LINE
  5
A5
330
73
100
AcDbEntity
  8
0
  6
Continuous
 62
   179
370
    18
100
AcDbLine
 10
78.0344191726
 20
3.5235305166
 30
0.0
 11
78.3638740472
 21
3.1446574108
 31
0.0
  0
LINE
  5
A6
330
73
100
AcDbEntity
  8
0
  6
Continuous
 62
   179
370
    18
100
AcDbLine
 10
78.3638740472
 20
3.1446574108
 30
0.0
 11
78.4680611395
 21
3.0248422547
 31
0.0
  0
LINE
  5
A7
330
73
100
AcDbEntity
  8
0
  6
Continuous
 62
   179
370
    18
100
AcDbLine
 10
81.3414110113
 20
1.2002475785
 30
0.0
 11
89.3291569519
 21
2.0477010263
 31
0.0
  0
LINE
  5
A8
330
73
100
AcDbEntity
  8
0
  6
Continuous
 62
   179
370
    18
100
AcDbLine
 10
89.8661472522
 20
2.5197759309
 30
0.0
 11
89.8661472522
 21
2.3090867337
 31
0.0
  0
LINE
  5
A9
330
73
100
AcDbEntity
  8
0
  6
Continuous
 62
   179
370
    18
100
AcDbLine
 10
88.676842368
 20
3.6762854359
 30
0.0
 11
89.6713239345
 21
2.7875997807
 31
0.0
  0
LINE
  5
AA
330
73
100
AcDbEntity
  8
0
  6
Continuous
 62
   179
370
    18
100
AcDbLine
 10
89.6713239345
 20
2.7875997807
 30
0.0
 11
89.7459749087
 21
2.7242700694
 31
0.0
  0
LINE
  5
AB
330
73
100
AcDbEntity
  8
0
  6
Continuous
 62
   179
370
    18
100
AcDbLine
 10
90.7982178739
 20
3.8455002136
 30
0.0
 11
91.3961615969
 21
4.3514525945
 31
0.0
  0
LINE
  5
AC
330
73
100
AcDbEntity
  8
0
  6
Continuous
 62
   179
370
    18
100
AcDbLine
 10
90.6442498554
 20
13.7381534621
 30
0.0
 11
78.1502930503
 21
13.1490474438
 31
0.0
  0
LINE
  5
AD
330
73
100
AcDbEntity
  8
0
  6
Continuous
 62
   179
370
    18
100
AcDbLine
 10
80.1347709981
 20
12.2388892068
 30
0.0
 11
89.8487925667
 21
12.7550932515
 31
0.0
  0
LINE
  5
AE
330
73
100
AcDbEntity
  8
0
  6
Continuous
 62
   179
370
    18
100
AcDbLine
 10
76.4935641943
 20
11.7567556248
 30
0.0
 11
76.6545490427
 21
5.8693097374
 31
0.0
  0
LINE
  5
AF
330
73
100
AcDbEntity
  8
0
  6
Continuous
 62
   179
370
    18
100
AcDbLine
 10
79.8508616208
 20
11.929182536
 30
0.0
 11
80.0854971721
 21
4.9839702153
 31
0.0
  0
LINE
  5
B0
330
73
100
AcDbEntity
  8
0
  6
Continuous
 62
   179
370
    18
100
AcDbLine
 10
80.5293311574
 20
9.7310185051
 30
0.0
 11
80.6057415643
 21
7.4769115
 31
0.0
  0
LINE
  5
B1
330
73
100
AcDbEntity
  8
0
  6
Continuous
 62
   179
370
    18
100
AcDbLine
 10
77.507650604
 20
12.7708420346
 30
0.0
 11
76.4935641943
 21
11.7567556248
 31
0.0
  0
LINE
  5
B2
330
73
100
AcDbEntity
  8
0
  6
Continuous
 62
   179
370
    18
100
AcDbLine
 10
86.8848195129
 20
11.0661568594
 30
0.0
 11
88.6742167283
 21
11.1634880887
 31
0.0
  0
LINE
  5
B3
330
73
100
AcDbEntity
  8
0
  6
Continuous
 62
   179
370
    18
100
AcDbLine
 10
87.0766213517
 20
6.9287171941
 30
0.0
 11
88.90708891
 21
7.0695223909
 31
0.0
  0
LINE
  5
B4
330
73
100
AcDbEntity
  8
0
  6
Continuous
 62
   179
370
    18
100
AcDbLine
 10
87.6830038473
 20
7.6147347768
 30
0.0
 11
88.8536252418
 21
7.7047825764
 31
0.0
  0
LINE
  5
B5
330
73
100
AcDbEntity
  8
0
  6
Continuous
 62
   179
370
    18
100
AcDbLine
 10
87.5509212094
 20
10.4639459651
 30
0.0
 11
88.7088412777
 21
10.5269290651
 31
0.0
  0
LINE
  5
B6
330
73
100
AcDbEntity
  8
0
  6
Continuous
 62
   179
370
    18
100
AcDbLine
 10
87.0766218384
 20
6.9287066941
 30
0.0
 11
86.8848195129
 21
11.0661568594
 31
0.0
  0
LINE
  5
B7
330
73
100
AcDbEntity
  8
0
  6
Continuous
 62
   179
370
    18
100
AcDbLine
 10
83.7004598825
 20
6.6667911093
 30
0.0
 11
84.5054929504
 21
10.9267193262
 31
0.0
  0
LINE
  5
B8
330
73
100
AcDbEntity
  8
0
  6
Continuous
 62
   179
370
    18
100
AcDbLine
 10
85.3543248406
 20
10.9728900984
 30
0.0
 11
86.4940946704
 21
6.8816860929
 31
0.0
  0
LINE
  5
B9
330
73
100
AcDbEntity
  8
0
  6
Continuous
 62
   179
370
    18
100
AcDbLine
 10
84.9728575427
 20
9.9667192298
 30
0.0
 11
85.4540299774
 21
8.2395506903
 31
0.0
  0
LINE
  5
BA
330
73
100
AcDbEntity
  8
0
  6
Continuous
 62
   179
370
    18
100
AcDbLine
 10
84.6363094629
 20
8.1858350416
 30
0.0
 11
84.9728575427
 21
9.9667192298
 31
0.0
  0
LINE
  5
BB
330
73
100
AcDbEntity
  8
0
  6
Continuous
 62
   179
370
    18
100
AcDbLine
 10
87.6830038473
 20
7.6147347768
 30
0.0
 11
87.5509212094
 21
10.4639459651
 31
0.0
  0
LINE
  5
BC
330
73
100
AcDbEntity
  8
0
  6
Continuous
 62
   179
370
    18
100
AcDbLine
 10
84.6363094629
 20
8.1858350416
 30
0.0
 11
85.4540299774
 21
8.2395506903
 31
0.0
  0
LINE
  5
BD
330
73
100
AcDbEntity
  8
0
  6
Continuous
 62
   179
370
    18
100
AcDbLine
 10
84.5140586807
 20
7.5389304886
 30
0.0
 11
85.6288154243
 21
7.6121582976
 31
0.0
  0
LINE
  5
BE
330
73
100
AcDbEntity
  8
0
  6
Continuous
 62
   179
370
    18
100
AcDbLine
 10
84.3588137958
 20
6.717433718
 30
0.0
 11
84.5140586807
 21
7.5389304886
 31
0.0
  0
LINE
  5
BF
330
73
100
AcDbEntity
  8
0
  6
Continuous
 62
   179
370
    18
100
AcDbLine
 10
81.6818640104
 20
6.5137358601
 30
0.0
 11
82.4802416972
 21
6.5751495283
 31
0.0
  0
LINE
  5
C0
330
73
100
AcDbEntity
  8
0
  6
Continuous
 62
   179
370
    18
100
AcDbLine
 10
81.6329699923
 20
7.1493580946
 30
0.0
 11
82.4313476791
 21
7.2107717628
 31
0.0
  0
LINE
  5
C1
330
73
100
AcDbEntity
  8
0
  6
Continuous
 62
   179
370
    18
100
AcDbLine
 10
83.7004598825
 20
6.6667911093
 30
0.0
 11
84.3588137958
 21
6.717433718
 31
0.0
  0
LINE
  5
C2
330
73
100
AcDbEntity
  8
0
  6
Continuous
 62
   179
370
    18
100
AcDbLine
 10
82.7059483815
 20
9.3512024135
 30
0.0
 11
83.3423973297
 21
9.3930104243
 31
0.0
  0
LINE
  5
C3
330
73
100
AcDbEntity
  8
0
  6
Continuous
 62
   179
370
    18
100
AcDbLine
 10
82.7491656358
 20
8.0762934118
 30
0.0
 11
83.385614584
 21
8.1181014226
 31
0.0
  0
LINE
  5
C4
330
73
100
AcDbEntity
  8
0
  6
Continuous
 62
   179
370
    18
100
AcDbLine
 10
81.1664651987
 20
9.7526162692
 30
0.0
 11
81.2428756056
 21
7.4985092641
 31
0.0
  0
LINE
  5
C5
330
73
100
AcDbEntity
  8
0
  6
Continuous
 62
   179
370
    18
100
AcDbLine
 10
82.6900353128
 20
9.8206379383
 30
0.0
 11
82.7052632884
 21
9.3714126602
 31
0.0
  0
LINE
  5
C6
330
73
100
AcDbEntity
  8
0
  6
Continuous
 62
   179
370
    18
100
AcDbLine
 10
82.7491656358
 20
8.0762934118
 30
0.0
 11
82.7658371041
 21
7.5844850954
 31
0.0
  0
LINE
  5
C7
330
73
100
AcDbEntity
  8
0
  6
Continuous
 62
   179
370
    18
100
AcDbLine
 10
83.3271693541
 20
9.8422357024
 30
0.0
 11
83.3423973297
 21
9.3930104243
 31
0.0
  0
LINE
  5
C8
330
73
100
AcDbEntity
  8
0
  6
Continuous
 62
   179
370
    18
100
AcDbLine
 10
83.385614584
 20
8.1181014226
 30
0.0
 11
83.4029711454
 21
7.6060828595
 31
0.0
  0
LINE
  5
C9
330
73
100
AcDbEntity
  8
0
  6
Continuous
 62
   179
370
    18
100
AcDbLine
 10
85.6288154243
 20
7.6121582976
 30
0.0
 11
85.8462022593
 21
6.8318482152
 31
0.0
  0
LINE
  5
CA
330
73
100
AcDbEntity
  8
0
  6
Continuous
 62
   179
370
    18
100
AcDbLine
 10
85.8462022593
 20
6.8318482152
 30
0.0
 11
86.4940946704
 21
6.8816860929
 31
0.0
  0
LINE
  5
CB
330
73
100
AcDbEntity
  8
0
  6
Continuous
 62
   179
370
    18
100
AcDbLine
 10
84.5054929504
 20
10.9267193262
 30
0.0
 11
85.3543248406
 21
10.9728900984
 31
0.0
  0
LINE
  5
CC
330
73
100
AcDbEntity
  8
0
  6
Continuous
 62
   179
370
    18
100
AcDbLine
 10
81.4744440858
 20
10.7634213094
 30
0.0
 11
82.2734303883
 21
10.8068808154
 31
0.0
  0
LINE
  5
CD
330
73
100
AcDbEntity
  8
0
  6
Continuous
 62
   179
370
    18
100
AcDbLine
 10
81.5090686352
 20
10.1268622858
 30
0.0
 11
82.3080549377
 21
10.1703217918
 31
0.0
  0
LINE
  5
CE
330
73
100
AcDbEntity
  8
0
  6
Continuous
 62
   179
370
    18
100
AcDbLine
 10
90.4575406452
 20
5.7946206556
 30
0.0
 11
90.1644232213
 21
12.4686789239
 31
0.0
  0
LINE
  5
CF
330
73
100
AcDbEntity
  8
0
  6
Continuous
 62
   179
370
    18
100
AcDbLine
 10
89.8247499755
 20
8.1125227115
 30
0.0
 11
89.7274569615
 21
10.2112720142
 31
0.0
  0
LINE
  5
D0
330
73
100
AcDbEntity
  8
0
  6
Continuous
 62
   179
370
    18
100
AcDbLine
 10
89.1879338763
 20
8.0830014354
 30
0.0
 11
89.0906408622
 21
10.181750738
 31
0.0
  0
LINE
  5
D1
330
73
100
AcDbEntity
  8
0
  6
Continuous
 62
   179
370
    18
100
AcDbLine
 10
89.7459749087
 20
2.7242700694
 30
0.0
 11
89.7974962577
 21
2.6659765769
 31
0.0
  0
LINE
  5
D2
330
73
100
AcDbEntity
  8
0
  6
Continuous
 62
   179
370
    18
100
AcDbLine
 10
89.7974962577
 20
2.6659765769
 30
0.0
 11
89.8351851379
 21
2.60192886
 31
0.0
  0
LINE
  5
D3
330
73
100
AcDbEntity
  8
0
  6
Continuous
 62
   179
370
    18
100
AcDbLine
 10
89.8351851379
 20
2.60192886
 30
0.0
 11
89.8661472522
 21
2.5197759309
 31
0.0
  0
LINE
  5
D4
330
73
100
AcDbEntity
  8
0
  6
Continuous
 62
   179
370
    18
100
AcDbLine
 10
10.6119938288
 20
7.2203138351
 30
0.0
 11
11.2200151261
 21
7.5713550947
 31
0.0
  0
LINE
  5
D5
330
73
100
AcDbEntity
  8
0
  6
Continuous
 62
   179
370
    18
100
AcDbLine
 10
11.2347279503
 20
5.2647430194
 30
0.0
 11
10.6267781168
 21
5.6157430194
 31
0.0
  0
LINE
  5
D6
330
73
100
AcDbEntity
  8
0
  6
Continuous
 62
   179
370
    18
100
AcDbLine
 10
6.4645062371
 20
16.1712617198
 30
0.0
 11
6.4645062371
 21
2.9364593988
 31
0.0
  0
LINE
  5
D7
330
73
100
AcDbEntity
  8
0
  6
Continuous
 62
   179
370
    18
100
AcDbLine
 10
6.4645062371
 20
2.9364593988
 30
0.0
 11
12.0532757459
 21
2.9364593988
 31
0.0
  0
LINE
  5
D8
330
73
100
AcDbEntity
  8
0
  6
Continuous
 62
   179
370
    18
100
AcDbLine
 10
12.0532757459
 20
2.9364593988
 30
0.0
 11
12.0532757459
 21
16.1712617198
 31
0.0
  0
LINE
  5
D9
330
73
100
AcDbEntity
  8
0
  6
Continuous
 62
   179
370
    18
100
AcDbLine
 10
12.0532757459
 20
16.1712617198
 30
0.0
 11
6.4645062371
 21
16.1712617198
 31
0.0
  0
LINE
  5
DA
330
73
100
AcDbEntity
  8
0
  6
Continuous
 62
   179
370
    18
100
AcDbLine
 10
0.0
 20
16.1712617198
 30
0.0
 11
0.0
 21
2.9364593988
 31
0.0
  0
LINE
  5
DB
330
73
100
AcDbEntity
  8
0
  6
Continuous
 62
   179
370
    18
100
AcDbLine
 10
0.0
 20
2.9364593988
 30
0.0
 11
5.5887695089
 21
2.9364593988
 31
0.0
  0
LINE
  5
DC
330
73
100
AcDbEntity
  8
0
  6
Continuous
 62
   179
370
    18
100
AcDbLine
 10
5.5887695089
 20
2.9364593988
 30
0.0
 11
5.5887695089
 21
16.1712617198
 31
0.0
  0
LINE
  5
DD
330
73
100
AcDbEntity
  8
0
  6
Continuous
 62
   179
370
    18
100
AcDbLine
 10
5.5887695089
 20
16.1712617198
 30
0.0
 11
0.0
 21
16.1712617198
 31
0.0
  0
LINE
  5
DE
330
73
100
AcDbEntity
  8
0
  6
Continuous
 62
   179
370
    18
100
AcDbLine
 10
1.2591262606
 20
4.7264381407
 30
0.0
 11
4.3296432482
 21
4.7264381407
 31
0.0
  0
LINE
  5
DF
330
73
100
AcDbEntity
  8
0
  6
Continuous
 62
   179
370
    18
100
AcDbLine
 10
4.3738223747
 20
4.0932862697
 30
0.0
 11
5.0758301722
 21
4.0932862697
 31
0.0
  0
LINE
  5
E0
330
73
100
AcDbEntity
  8
0
  6
Continuous
 62
   179
370
    18
100
AcDbLine
 10
0.5129393366
 20
4.0932862697
 30
0.0
 11
1.2149471342
 21
4.0932862697
 31
0.0
  0
LINE
  5
E1
330
73
100
AcDbEntity
  8
0
  6
Continuous
 62
   179
370
    18
100
AcDbLine
 10
4.1819643097
 20
5.4284381407
 30
0.0
 11
1.4068051992
 21
5.4284381407
 31
0.0
  0
LINE
  5
E2
330
73
100
AcDbEntity
  8
0
  6
Continuous
 62
   179
370
    18
100
AcDbLine
 10
18.517781983
 20
16.1712617198
 30
0.0
 11
18.517781983
 21
2.9364593988
 31
0.0
  0
LINE
  5
E3
330
73
100
AcDbEntity
  8
0
  6
Continuous
 62
   179
370
    18
100
AcDbLine
 10
18.517781983
 20
2.9364593988
 30
0.0
 11
12.9290124742
 21
2.9364593988
 31
0.0
  0
LINE
  5
E4
330
73
100
AcDbEntity
  8
0
  6
Continuous
 62
   179
370
    18
100
AcDbLine
 10
12.9290124742
 20
2.9364593988
 30
0.0
 11
12.9290124742
 21
16.1712617198
 31
0.0
  0
LINE
  5
E5
330
73
100
AcDbEntity
  8
0
  6
Continuous
 62
   179
370
    18
100
AcDbLine
 10
12.9290124742
 20
16.1712617198
 30
0.0
 11
18.517781983
 21
16.1712617198
 31
0.0
  0
INSERT
  5
EB
330
73
100
AcDbEntity
  8
0
  6
Continuous
 62
     7
370
     0
100
AcDbBlockReference
  2
SW_NOTE_0
 10
1.8998941161
 20
-0.3226565443
 30
0.0
  0
INSERT
  5
F0
330
73
100
AcDbEntity
  8
0
  6
Continuous
 62
     7
370
     0
100
AcDbBlockReference
  2
SW_NOTE_0_1
 10
29.1164837035
 20
12.7459167441
 30
0.0
  0
INSERT
  5
F8
330
73
100
AcDbEntity
  8
0
  6
Continuous
 62
     7
370
     0
100
AcDbBlockReference
  2
SW_NOTE_0_2
 10
28.8863479825
 20
8.6365742194
 30
0.0
  0
ENDBLK
  5
75
330
73
100
AcDbEntity
  8
0
100
AcDbBlockEnd
  0
BLOCK
  5
E7
330
E6
100
AcDbEntity
  8
0
100
AcDbBlockBegin
  2
SW_NOTE_0
 70
     0
 10
0.0
 20
0.0
 30
0.0
  3
SW_NOTE_0
  1

  0
MTEXT
  5
EA
330
E6
100
AcDbEntity
  8
0
  6
Continuous
 62
     0
370
     0
100
AcDbMText
 10
7.46875
 20
2.5781354795
 30
0.0
 40
2.0
 41
0.0
 71
     2
 72
     1
  1
www.aco.ch
  7
SLDTEXTSTYLE0
 73
     1
 44
1.0
  0
ENDBLK
  5
E8
330
E6
100
AcDbEntity
  8
0
100
AcDbBlockEnd
  0
BLOCK
  5
ED
330
EC
100
AcDbEntity
  8
0
100
AcDbBlockBegin
  2
SW_NOTE_0_1
 70
     0
 10
0.0
 20
0.0
 30
0.0
  3
SW_NOTE_0_1
  1

  0
MTEXT
  5
EF
330
EC
100
AcDbEntity
  8
0
  6
Continuous
 62
     0
370
     0
100
AcDbMText
 10
0.0
 20
3.8672032193
 30
0.0
 40
3.0
 41
0.0
 71
     1
 72
     1
  1
ACO AG
  7
SLDTEXTSTYLE0
 73
     1
 44
1.0
  0
ENDBLK
  5
EE
330
EC
100
AcDbEntity
  8
0
100
AcDbBlockEnd
  0
BLOCK
  5
F2
330
F1
100
AcDbEntity
  8
0
100
AcDbBlockBegin
  2
SW_NOTE_0_2
 70
     0
 10
0.0
 20
0.0
 30
0.0
  3
SW_NOTE_0_2
  1

  0
MTEXT
  5
F4
330
F1
100
AcDbEntity
  8
0
  6
Continuous
 62
     0
370
     0
100
AcDbMText
 10
0.0
 20
2.5781354795
 30
0.0
 40
2.0
 41
0.0
 71
     1
 72
     1
  1
Industrie Kleinzaun
  7
SLDTEXTSTYLE0
 73
     1
 44
1.0
  0
MTEXT
  5
F5
330
F1
100
AcDbEntity
  8
0
  6
Continuous
 62
     0
370
     0
100
AcDbMText
 10
0.0
 20
-0.4218645465
 30
0.0
 40
2.0
 41
0.0
 71
     1
 72
     1
  1
CH-8754 Netstal
  7
SLDTEXTSTYLE0
 73
     1
 44
1.0
  0
MTEXT
  5
F6
330
F1
100
AcDbEntity
  8
0
  6
Continuous
 62
     0
370
     0
100
AcDbMText
 10
0.0
 20
-3.4218645726
 30
0.0
 40
2.0
 41
0.0
 71
     1
 72
     1
  1
Tel. 055 / 645 53 00
  7
SLDTEXTSTYLE0
 73
     1
 44
1.0
  0
MTEXT
  5
F7
330
F1
100
AcDbEntity
  8
0
  6
Continuous
 62
     0
370
     0
100
AcDbMText
 10
0.0
 20
-6.4218645987
 30
0.0
 40
2.0
 41
0.0
 71
     1
 72
     1
  1
E-Mail: aco@aco.ch
  7
SLDTEXTSTYLE0
 73
     1
 44
1.0
  0
ENDBLK
  5
F3
330
F1
100
AcDbEntity
  8
0
100
AcDbBlockEnd
  0
BLOCK
  5
16F
330
16E
100
AcDbEntity
  8
0
100
AcDbBlockBegin
  2
SW_NOTE_0_3
 70
     0
 10
0.0
 20
0.0
 30
0.0
  3
SW_NOTE_0_3
  1

  0
MTEXT
  5
171
330
16E
100
AcDbEntity
  8
0
  6
Continuous
 62
     0
370
     0
100
AcDbMText
 10
0.0
 20
1.9336016097
 30
0.0
 40
1.5
 41
0.0
 71
     1
 72
     1
  1
Diese Zeichnung darf weder kopiert
  7
SLDTEXTSTYLE0
 73
     1
 44
1.0
  0
MTEXT
  5
172
330
16E
100
AcDbEntity
  8
0
  6
Continuous
 62
     0
370
     0
100
AcDbMText
 10
0.0
 20
-0.5663983345
 30
0.0
 40
1.5
 41
0.0
 71
     1
 72
     1
  1
noch dritten Personen, insbesondere
  7
SLDTEXTSTYLE0
 73
     1
 44
1.0
  0
MTEXT
  5
173
330
16E
100
AcDbEntity
  8
0
  6
Continuous
 62
     0
370
     0
100
AcDbMText
 10
0.0
 20
-3.0663982786
 30
0.0
 40
1.5
 41
0.0
 71
     1
 72
     1
  1
zum Zweck anderweitiger Benutzung
  7
SLDTEXTSTYLE0
 73
     1
 44
1.0
  0
MTEXT
  5
174
330
16E
100
AcDbEntity
  8
0
  6
Continuous
 62
     0
370
     0
100
AcDbMText
 10
0.0
 20
-5.5663982227
 30
0.0
 40
1.5
 41
0.0
 71
     1
 72
     1
  1
mitgeteilt werden und bleibt unser
  7
SLDTEXTSTYLE0
 73
     1
 44
1.0
  0
MTEXT
  5
175
330
16E
100
AcDbEntity
  8
0
  6
Continuous
 62
     0
370
     0
100
AcDbMText
 10
0.0
 20
-8.0663981668
 30
0.0
 40
1.5
 41
0.0
 71
     1
 72
     1
  1
Eigentum.
  7
SLDTEXTSTYLE0
 73
     1
 44
1.0
  0
ENDBLK
  5
170
330
16E
100
AcDbEntity
  8
0
100
AcDbBlockEnd
  0
BLOCK
  5
270
330
26F
100
AcDbEntity
  8
0
100
AcDbBlockBegin
  2
_D
 70
     0
 10
0.0
 20
0.0
 30
0.0
  3
_D
  1

  0
SOLID
  5
272
330
26F
100
AcDbEntity
  8
0
  6
Continuous
 62
     7
370
    18
100
AcDbTrace
 10
66.3186643607
 20
232.9614114916
 30
0.0
 11
69.6228494892
 21
232.4678239747
 31
0.0
 12
69.6184163669
 22
233.4838143031
 32
0.0
 13
69.6184163669
 23
233.4838143031
 33
0.0
  0
SOLID
  5
273
330
26F
100
AcDbEntity
  8
0
  6
Continuous
 62
     7
370
    18
100
AcDbTrace
 10
219.9717130739
 20
233.6318536478
 30
0.0
 11
216.6675279455
 21
234.1254411648
 31
0.0
 12
216.6719610677
 22
233.1094508364
 32
0.0
 13
216.6719610677
 23
233.1094508364
 33
0.0
  0
LINE
  5
274
330
26F
100
AcDbEntity
  8
0
  6
Continuous
 62
     7
370
     0
100
AcDbLine
 10
66.4506599138
 20
202.7104510365
 30
0.0
 11
66.3143010514
 21
233.9614019724
 31
0.0
  0
LINE
  5
275
330
26F
100
AcDbEntity
  8
0
  6
Continuous
 62
     7
370
     0
100
AcDbLine
 10
220.103708627
 20
203.3808931927
 30
0.0
 11
219.9673497646
 21
234.6318441286
 31
0.0
  0
LINE
  5
276
330
26F
100
AcDbEntity
  8
0
  6
Continuous
 62
     7
370
     0
100
AcDbLine
 10
66.3186643607
 20
232.9614114916
 30
0.0
 11
219.9717130739
 21
233.6318536478
 31
0.0
  0
MTEXT
  5
277
330
26F
100
AcDbEntity
  8
0
  6
Continuous
 62
     7
370
    18
100
AcDbMText
 10
143.0350651839
 20
237.8079319256
 30
0.0
 40
3.5
 41
0.0
 71
     1
 72
     1
  1
154
  7
SLDTEXTSTYLE2
 11
0.9999904807207345
 21
0.004363309284749929
 31
0.0
 73
     1
 44
1.0
  0
ENDBLK
  5
271
330
26F
100
AcDbEntity
  8
0
100
AcDbBlockEnd
  0
BLOCK
  5
27B
330
27A
100
AcDbEntity
  8
0
100
AcDbBlockBegin
  2
_D_1
 70
     0
 10
0.0
 20
0.0
 30
0.0
  3
_D_1
  1

  0
SOLID
  5
27D
330
27A
100
AcDbEntity
  8
0
  6
Continuous
 62
     7
370
    18
100
AcDbTrace
 10
223.5947510678
 20
180.7088956037
 30
0.0
 11
225.2462668315
 21
183.6129899
 31
0.0
 12
224.2969892043
 22
183.9751058847
 32
0.0
 13
224.2969892043
 23
183.9751058847
 33
0.0
  0
SOLID
  5
27E
330
27A
100
AcDbEntity
  8
0
  6
Continuous
 62
     7
370
    18
100
AcDbTrace
 10
230.3668132249
 20
198.4616802607
 30
0.0
 11
228.7152974612
 21
195.5575859644
 31
0.0
 12
229.6645750885
 22
195.1954699797
 32
0.0
 13
229.6645750885
 23
195.1954699797
 33
0.0
  0
LINE
  5
27F
330
27A
100
AcDbEntity
  8
0
  6
Continuous
 62
     7
370
     0
100
AcDbLine
 10
212.3818220174
 20
184.9862331572
 30
0.0
 11
224.5290794411
 21
180.352482233
 31
0.0
  0
LINE
  5
280
330
27A
100
AcDbEntity
  8
0
  6
Continuous
 62
     7
370
     0
100
AcDbLine
 10
219.1538841745
 20
202.7390178142
 30
0.0
 11
231.3011415982
 21
198.10526689
 31
0.0
  0
LINE
  5
281
330
27A
100
AcDbEntity
  8
0
  6
Continuous
 62
     7
370
     0
100
AcDbLine
 10
223.5947510678
 20
180.7088956037
 30
0.0
 11
230.3668132249
 21
198.4616802607
 31
0.0
  0
MTEXT
  5
282
330
27A
100
AcDbEntity
  8
0
  6
Continuous
 62
     7
370
    18
100
AcDbMText
 10
221.5221235514
 20
187.9342761037
 30
0.0
 40
3.5
 41
0.0
 71
     1
 72
     1
  1
19
  7
SLDTEXTSTYLE2
 11
0.3564133707167673
 21
0.9343283733111781
 31
0.0
 73
     1
 44
1.0
  0
ENDBLK
  5
27C
330
27A
100
AcDbEntity
  8
0
100
AcDbBlockEnd
  0
BLOCK
  5
284
330
283
100
AcDbEntity
  8
0
100
AcDbBlockBegin
  2
SW_CENTERMARKSYMBOL_0
 70
     0
 10
0.0
 20
0.0
 30
0.0
  3
SW_CENTERMARKSYMBOL_0
  1

  0
LINE
  5
286
330
283
100
AcDbEntity
  8
0
  6
Continuous
 62
     0
370
    18
100
AcDbLine
 10
0.0
 20
0.0
 30
0.0
 11
-2.3339510662
 21
0.8959198739
 31
0.0
  0
LINE
  5
287
330
283
100
AcDbEntity
  8
0
  6
Continuous
 62
     0
370
    18
100
AcDbLine
 10
0.0
 20
0.0
 30
0.0
 11
-0.8959198739
 21
-2.3339510662
 31
0.0
  0
LINE
  5
288
330
283
100
AcDbEntity
  8
0
  6
Continuous
 62
     0
370
    18
100
AcDbLine
 10
0.0
 20
0.0
 30
0.0
 11
2.3339510662
 21
-0.8959198739
 31
0.0
  0
LINE
  5
289
330
283
100
AcDbEntity
  8
0
  6
Continuous
 62
     0
370
    18
100
AcDbLine
 10
0.0
 20
0.0
 30
0.0
 11
0.8959198739
 21
2.3339510662
 31
0.0
  0
LINE
  5
28A
330
283
100
AcDbEntity
  8
0
  6
Continuous
 62
     0
370
    18
100
AcDbLine
 10
-2.3339510662
 20
0.8959198739
 30
0.0
 11
-4.6679021325
 21
1.7918397477
 31
0.0
  0
LINE
  5
28B
330
283
100
AcDbEntity
  8
0
  6
Continuous
 62
     0
370
    18
100
AcDbLine
 10
-0.8959198739
 20
-2.3339510662
 30
0.0
 11
-1.7918397477
 21
-4.6679021325
 31
0.0
  0
LINE
  5
28C
330
283
100
AcDbEntity
  8
0
  6
Continuous
 62
     0
370
    18
100
AcDbLine
 10
2.3339510662
 20
-0.8959198739
 30
0.0
 11
4.6679021325
 21
-1.7918397477
 31
0.0
  0
LINE
  5
28D
330
283
100
AcDbEntity
  8
0
  6
Continuous
 62
     0
370
    18
100
AcDbLine
 10
0.8959198739
 20
2.3339510662
 30
0.0
 11
1.7918397477
 21
4.6679021325
 31
0.0
  0
ENDBLK
  5
285
330
283
100
AcDbEntity
  8
0
100
AcDbBlockEnd
  0
BLOCK
  5
290
330
28F
100
AcDbEntity
  8
0
100
AcDbBlockBegin
  2
SW_CENTERMARKSYMBOL_1
 70
     0
 10
0.0
 20
0.0
 30
0.0
  3
SW_CENTERMARKSYMBOL_1
  1

  0
LINE
  5
292
330
28F
100
AcDbEntity
  8
0
  6
Continuous
 62
     0
370
    18
100
AcDbLine
 10
0.0
 20
0.0
 30
0.0
 11
-2.3339510662
 21
0.8959198739
 31
0.0
  0
LINE
  5
293
330
28F
100
AcDbEntity
  8
0
  6
Continuous
 62
     0
370
    18
100
AcDbLine
 10
0.0
 20
0.0
 30
0.0
 11
-0.8959198739
 21
-2.3339510662
 31
0.0
  0
LINE
  5
294
330
28F
100
AcDbEntity
  8
0
  6
Continuous
 62
     0
370
    18
100
AcDbLine
 10
0.0
 20
0.0
 30
0.0
 11
2.3339510662
 21
-0.8959198739
 31
0.0
  0
LINE
  5
295
330
28F
100
AcDbEntity
  8
0
  6
Continuous
 62
     0
370
    18
100
AcDbLine
 10
0.0
 20
0.0
 30
0.0
 11
0.8959198739
 21
2.3339510662
 31
0.0
  0
LINE
  5
296
330
28F
100
AcDbEntity
  8
0
  6
Continuous
 62
     0
370
    18
100
AcDbLine
 10
-2.3339510662
 20
0.8959198739
 30
0.0
 11
-4.6679021325
 21
1.7918397477
 31
0.0
  0
LINE
  5
297
330
28F
100
AcDbEntity
  8
0
  6
Continuous
 62
     0
370
    18
100
AcDbLine
 10
-0.8959198739
 20
-2.3339510662
 30
0.0
 11
-1.7918397477
 21
-4.6679021325
 31
0.0
  0
LINE
  5
298
330
28F
100
AcDbEntity
  8
0
  6
Continuous
 62
     0
370
    18
100
AcDbLine
 10
2.3339510662
 20
-0.8959198739
 30
0.0
 11
4.6679021325
 21
-1.7918397477
 31
0.0
  0
LINE
  5
299
330
28F
100
AcDbEntity
  8
0
  6
Continuous
 62
     0
370
    18
100
AcDbLine
 10
0.8959198739
 20
2.3339510662
 30
0.0
 11
1.7918397477
 21
4.6679021325
 31
0.0
  0
ENDBLK
  5
291
330
28F
100
AcDbEntity
  8
0
100
AcDbBlockEnd
  0
BLOCK
  5
2B8
330
2B7
100
AcDbEntity
  8
0
100
AcDbBlockBegin
  2
_D_2
 70
     0
 10
0.0
 20
0.0
 30
0.0
  3
_D_2
  1

  0
SOLID
  5
2BA
330
2B7
100
AcDbEntity
  8
0
  6
Continuous
 62
     7
370
    18
100
AcDbTrace
 10
297.3186556709
 20
222.9757277016
 30
0.0
 11
300.6206556709
 21
222.4677277016
 31
0.0
 12
300.6206556709
 22
223.4837277016
 32
0.0
 13
300.6206556709
 23
223.4837277016
 33
0.0
  0
SOLID
  5
2BB
330
2B7
100
AcDbEntity
  8
0
  6
Continuous
 62
     7
370
    18
100
AcDbTrace
 10
292.3186556709
 20
222.9757277016
 30
0.0
 11
289.0166556709
 21
223.4837277016
 31
0.0
 12
289.0166556709
 22
222.4677277016
 32
0.0
 13
289.0166556709
 23
222.4677277016
 33
0.0
  0
LINE
  5
2BC
330
2B7
100
AcDbEntity
  8
0
  6
Continuous
 62
     7
370
     0
100
AcDbLine
 10
297.3186556709
 20
217.4581580137
 30
0.0
 11
297.3186556709
 21
223.9757277016
 31
0.0
  0
LINE
  5
2BD
330
2B7
100
AcDbEntity
  8
0
  6
Continuous
 62
     7
370
     0
100
AcDbLine
 10
292.3186556709
 20
217.4581580137
 30
0.0
 11
292.3186556709
 21
223.9757277016
 31
0.0
  0
LINE
  5
2BE
330
2B7
100
AcDbEntity
  8
0
  6
Continuous
 62
     7
370
     0
100
AcDbLine
 10
297.3186556709
 20
222.9757277016
 30
0.0
 11
303.6686556709
 21
222.9757277016
 31
0.0
  0
LINE
  5
2BF
330
2B7
100
AcDbEntity
  8
0
  6
Continuous
 62
     7
370
     0
100
AcDbLine
 10
297.3186556709
 20
222.9757277016
 30
0.0
 11
292.3186556709
 21
222.9757277016
 31
0.0
  0
LINE
  5
2C0
330
2B7
100
AcDbEntity
  8
0
  6
Continuous
 62
     7
370
     0
100
AcDbLine
 10
292.3186556709
 20
222.9757277016
 30
0.0
 11
285.9686556709
 21
222.9757277016
 31
0.0
  0
MTEXT
  5
2C1
330
2B7
100
AcDbEntity
  8
0
  6
Continuous
 62
     7
370
    18
100
AcDbMText
 10
293.296525566
 20
227.4874646162
 30
0.0
 40
3.5
 41
0.0
 71
     1
 72
     1
  1
5
  7
SLDTEXTSTYLE2
 73
     1
 44
1.0
  0
ENDBLK
  5
2B9
330
2B7
100
AcDbEntity
  8
0
100
AcDbBlockEnd
  0
ENDSEC
  0
SECTION
  2
ENTITIES
  0
LINE
  5
F9
330
1F
100
AcDbEntity
  8
0
  6
CENTERX2
 62
     7
370
    18
100
AcDbLine
 10
352.6174545849
 20
46.9080238789
 30
0.0
 11
352.6174545849
 21
39.4621586124
 31
0.0
  0
LINE
  5
FA
330
1F
100
AcDbEntity
  8
0
  6
Continuous
 62
     7
370
    18
100
AcDbLine
 10
357.7661698132
 20
46.3720107039
 30
0.0
 11
357.7661698132
 21
39.9353173413
 31
0.0
  0
LINE
  5
FB
330
1F
100
AcDbEntity
  8
0
  6
Continuous
 62
     7
370
    18
100
AcDbLine
 10
364.6059427486
 20
44.7376225767
 30
0.0
 11
364.6059427486
 21
41.5697054685
 31
0.0
  0
LINE
  5
FC
330
1F
100
AcDbEntity
  8
0
  6
Continuous
 62
     7
370
    18
100
AcDbLine
 10
364.6059427486
 20
44.7376225767
 30
0.0
 11
357.7661698132
 21
46.3720107039
 31
0.0
  0
LINE
  5
FD
330
1F
100
AcDbEntity
  8
0
  6
Continuous
 62
     7
370
    18
100
AcDbLine
 10
15.0
 20
198.5
 30
0.0
 11
20.0
 21
198.5
 31
0.0
  0
LINE
  5
FE
330
1F
100
AcDbEntity
  8
0
  6
Continuous
 62
     7
370
    18
100
AcDbLine
 10
12.0
 20
148.5
 30
0.0
 11
0.0
 21
148.5
 31
0.0
  0
LINE
  5
FF
330
1F
100
AcDbEntity
  8
0
  6
Continuous
 62
     7
370
    18
100
AcDbLine
 10
357.7661698132
 20
39.9353173413
 30
0.0
 11
364.6059427486
 21
41.5697054685
 31
0.0
  0
LINE
  5
100
330
1F
100
AcDbEntity
  8
0
  6
CENTERX2
 62
     7
370
    18
100
AcDbLine
 10
348.6240467841
 20
43.1536640226
 30
0.0
 11
356.6108623857
 21
43.1536640226
 31
0.0
  0
LINE
  5
101
330
1F
100
AcDbEntity
  8
0
  6
CENTERX2
 62
     7
370
    18
100
AcDbLine
 10
357.1289238876
 20
43.1536640226
 30
0.0
 11
365.6255362296
 21
43.1536640226
 31
0.0
  0
LINE
  5
102
330
1F
100
AcDbEntity
  8
0
  6
Continuous
 62
     7
370
    18
100
AcDbLine
 10
0.0
 20
0.0
 30
0.0
 11
420.0
 21
0.0
 31
0.0
  0
LINE
  5
103
330
1F
100
AcDbEntity
  8
0
  6
Continuous
 62
     7
370
    18
100
AcDbLine
 10
0.0
 20
0.0
 30
0.0
 11
0.0
 21
297.0
 31
0.0
  0
LINE
  5
104
330
1F
100
AcDbEntity
  8
0
  6
Continuous
 62
     7
370
    18
100
AcDbLine
 10
0.0
 20
297.0
 30
0.0
 11
420.0
 21
297.0
 31
0.0
  0
LINE
  5
105
330
1F
100
AcDbEntity
  8
0
  6
Continuous
 62
     7
370
    18
100
AcDbLine
 10
420.0
 20
0.0
 30
0.0
 11
420.0
 21
297.0
 31
0.0
  0
LINE
  5
106
330
1F
100
AcDbEntity
  8
0
  6
Continuous
 62
     7
370
    25
100
AcDbLine
 10
228.0
 20
35.0
 30
0.0
 11
410.0
 21
35.0
 31
0.0
  0
LINE
  5
107
330
1F
100
AcDbEntity
  8
0
  6
Continuous
 62
     7
370
    18
100
AcDbLine
 10
410.0
 20
198.5
 30
0.0
 11
415.0
 21
198.5
 31
0.0
  0
LINE
  5
108
330
1F
100
AcDbEntity
  8
0
  6
Continuous
 62
     7
370
    18
100
AcDbLine
 10
15.0
 20
148.5
 30
0.0
 11
20.0
 21
148.5
 31
0.0
  0
LINE
  5
109
330
1F
100
AcDbEntity
  8
0
  6
Continuous
 62
     7
370
    18
100
AcDbLine
 10
228.0
 20
40.0
 30
0.0
 11
296.6
 21
40.0
 31
0.0
  0
LINE
  5
10A
330
1F
100
AcDbEntity
  8
0
  6
Continuous
 62
     7
370
    18
100
AcDbLine
 10
15.0
 20
248.5
 30
0.0
 11
20.0
 21
248.5
 31
0.0
  0
LINE
  5
10B
330
1F
100
AcDbEntity
  8
0
  6
Continuous
 62
     7
370
    35
100
AcDbLine
 10
20.0
 20
287.0
 30
0.0
 11
20.0
 21
10.0
 31
0.0
  0
LINE
  5
10C
330
1F
100
AcDbEntity
  8
0
  6
Continuous
 62
     7
370
    35
100
AcDbLine
 10
410.0
 20
287.0
 30
0.0
 11
20.0
 21
287.0
 31
0.0
  0
LINE
  5
10D
330
1F
100
AcDbEntity
  8
0
  6
Continuous
 62
     7
370
    35
100
AcDbLine
 10
410.0
 20
5.0
 30
0.0
 11
410.0
 21
287.0
 31
0.0
  0
LINE
  5
10E
330
1F
100
AcDbEntity
  8
0
  6
Continuous
 62
     7
370
    35
100
AcDbLine
 10
20.0
 20
10.0
 30
0.0
 11
415.0
 21
10.0
 31
0.0
  0
LINE
  5
10F
330
1F
100
AcDbEntity
  8
0
  6
Continuous
 62
     7
370
    18
100
AcDbLine
 10
410.0
 20
148.5
 30
0.0
 11
415.0
 21
148.5
 31
0.0
  0
LINE
  5
110
330
1F
100
AcDbEntity
  8
0
  6
Continuous
 62
     7
370
    18
100
AcDbLine
 10
228.0
 20
50.0
 30
0.0
 11
296.6
 21
50.0
 31
0.0
  0
LINE
  5
111
330
1F
100
AcDbEntity
  8
0
  6
Continuous
 62
     7
370
    18
100
AcDbLine
 10
15.0
 20
98.5
 30
0.0
 11
20.0
 21
98.5
 31
0.0
  0
LINE
  5
112
330
1F
100
AcDbEntity
  8
0
  6
Continuous
 62
     7
370
    18
100
AcDbLine
 10
296.6
 20
45.0
 30
0.0
 11
228.0
 21
45.0
 31
0.0
  0
LINE
  5
113
330
1F
100
AcDbEntity
  8
0
  6
Continuous
 62
     7
370
    18
100
AcDbLine
 10
65.0
 20
292.0
 30
0.0
 11
65.0
 21
287.0
 31
0.0
  0
LINE
  5
114
330
1F
100
AcDbEntity
  8
0
  6
Continuous
 62
     7
370
    18
100
AcDbLine
 10
230.0
 20
292.0
 30
0.0
 11
230.0
 21
297.0
 31
0.0
  0
LINE
  5
115
330
1F
100
AcDbEntity
  8
0
  6
Continuous
 62
     7
370
    25
100
AcDbLine
 10
296.6
 20
55.0
 30
0.0
 11
296.6
 21
35.0
 31
0.0
  0
LINE
  5
116
330
1F
100
AcDbEntity
  8
0
  6
Continuous
 62
     7
370
    18
100
AcDbLine
 10
410.0
 20
98.5
 30
0.0
 11
415.0
 21
98.5
 31
0.0
  0
LINE
  5
117
330
1F
100
AcDbEntity
  8
0
100
AcDbLine
 10
230.0
 20
5.0
 30
0.0
 11
230.0
 21
0.0
 31
0.0
  0
LINE
  5
118
330
1F
100
AcDbEntity
  8
0
  6
Continuous
 62
     7
370
    18
100
AcDbLine
 10
125.0
 20
292.0
 30
0.0
 11
125.0
 21
297.0
 31
0.0
  0
LINE
  5
119
330
1F
100
AcDbEntity
  8
0
  6
Continuous
 62
     7
370
    18
100
AcDbLine
 10
125.0
 20
5.0
 30
0.0
 11
125.0
 21
0.0
 31
0.0
  0
LINE
  5
11A
330
1F
100
AcDbEntity
  8
0
  6
Continuous
 62
     7
370
    25
100
AcDbLine
 10
410.0
 20
55.0
 30
0.0
 11
228.0
 21
55.0
 31
0.0
  0
LINE
  5
11B
330
1F
100
AcDbEntity
  8
0
  6
Continuous
 62
     7
370
    18
100
AcDbLine
 10
228.0
 20
55.0
 30
0.0
 11
410.0
 21
55.0
 31
0.0
  0
LINE
  5
11C
330
1F
100
AcDbEntity
  8
0
  6
Continuous
 62
     7
370
    18
100
AcDbLine
 10
410.0
 20
55.0
 30
0.0
 11
228.0
 21
55.0
 31
0.0
  0
LINE
  5
11D
330
1F
100
AcDbEntity
  8
0
  6
Continuous
 62
     7
370
    18
100
AcDbLine
 10
268.0
 20
76.5
 30
0.0
 11
268.0
 21
55.0
 31
0.0
  0
LINE
  5
11E
330
1F
100
AcDbEntity
  8
0
  6
Continuous
 62
     7
370
    18
100
AcDbLine
 10
271.6
 20
55.0
 30
0.0
 11
271.6
 21
40.0
 31
0.0
  0
LINE
  5
11F
330
1F
100
AcDbEntity
  8
0
  6
Continuous
 62
     7
370
    18
100
AcDbLine
 10
247.0
 20
55.0
 30
0.0
 11
247.0
 21
35.0
 31
0.0
  0
LINE
  5
120
330
1F
100
AcDbEntity
  8
0
  6
Continuous
 62
     7
370
    35
100
AcDbLine
 10
228.0
 20
76.5
 30
0.0
 11
228.0
 21
10.0
 31
0.0
  0
LINE
  5
121
330
1F
100
AcDbEntity
  8
0
  6
Continuous
 62
     7
370
    18
100
AcDbLine
 10
15.0
 20
292.0
 30
0.0
 11
415.0
 21
292.0
 31
0.0
  0
LINE
  5
122
330
1F
100
AcDbEntity
  8
0
  6
Continuous
 62
     7
370
    18
100
AcDbLine
 10
228.0
 20
65.75
 30
0.0
 11
310.0
 21
65.75
 31
0.0
  0
LINE
  5
123
330
1F
100
AcDbEntity
  8
0
  6
Continuous
 62
     7
370
    35
100
AcDbLine
 10
228.0
 20
76.5
 30
0.0
 11
410.0
 21
76.5
 31
0.0
  0
LINE
  5
124
330
1F
100
AcDbEntity
  8
0
  6
Continuous
 62
     7
370
    18
100
AcDbLine
 10
15.0
 20
48.5
 30
0.0
 11
20.0
 21
48.5
 31
0.0
  0
LINE
  5
125
330
1F
100
AcDbEntity
  8
0
  6
Continuous
 62
     7
370
    18
100
AcDbLine
 10
410.0
 20
48.5
 30
0.0
 11
415.0
 21
48.5
 31
0.0
  0
LINE
  5
126
330
1F
100
AcDbEntity
  8
0
  6
Continuous
 62
     7
370
    18
100
AcDbLine
 10
332.6610845472
 20
20.0
 30
0.0
 11
332.6610845472
 21
10.0
 31
0.0
  0
LINE
  5
127
330
1F
100
AcDbEntity
  8
0
  6
Continuous
 62
     7
370
    18
100
AcDbLine
 10
410.0
 20
248.5
 30
0.0
 11
415.0
 21
248.5
 31
0.0
  0
LINE
  5
128
330
1F
100
AcDbEntity
  8
0
  6
Continuous
 62
     7
370
    18
100
AcDbLine
 10
65.0
 20
10.0
 30
0.0
 11
65.0
 21
5.0
 31
0.0
  0
LINE
  5
129
330
1F
100
AcDbEntity
  8
0
  6
Continuous
 62
     7
370
    18
100
AcDbLine
 10
115.0
 20
10.0
 30
0.0
 11
115.0
 21
5.0
 31
0.0
  0
LINE
  5
12A
330
1F
100
AcDbEntity
  8
0
  6
Continuous
 62
     7
370
    18
100
AcDbLine
 10
115.0
 20
292.0
 30
0.0
 11
115.0
 21
287.0
 31
0.0
  0
LINE
  5
12B
330
1F
100
AcDbEntity
  8
0
  6
Continuous
 62
     7
370
    18
100
AcDbLine
 10
165.0
 20
10.0
 30
0.0
 11
165.0
 21
5.0
 31
0.0
  0
LINE
  5
12C
330
1F
100
AcDbEntity
  8
0
  6
Continuous
 62
     7
370
    18
100
AcDbLine
 10
165.0
 20
292.0
 30
0.0
 11
165.0
 21
287.0
 31
0.0
  0
LINE
  5
12D
330
1F
100
AcDbEntity
  8
0
  6
Continuous
 62
     7
370
    18
100
AcDbLine
 10
215.0
 20
10.0
 30
0.0
 11
215.0
 21
5.0
 31
0.0
  0
LINE
  5
12E
330
1F
100
AcDbEntity
  8
0
  6
Continuous
 62
     7
370
    18
100
AcDbLine
 10
215.0
 20
292.0
 30
0.0
 11
215.0
 21
287.0
 31
0.0
  0
LINE
  5
12F
330
1F
100
AcDbEntity
  8
0
  6
Continuous
 62
     7
370
    18
100
AcDbLine
 10
265.0
 20
10.0
 30
0.0
 11
265.0
 21
5.0
 31
0.0
  0
LINE
  5
130
330
1F
100
AcDbEntity
  8
0
  6
Continuous
 62
     7
370
    18
100
AcDbLine
 10
265.0
 20
292.0
 30
0.0
 11
265.0
 21
287.0
 31
0.0
  0
LINE
  5
131
330
1F
100
AcDbEntity
  8
0
  6
Continuous
 62
     7
370
    18
100
AcDbLine
 10
347.6610845472
 20
20.0
 30
0.0
 11
347.6610845472
 21
10.0
 31
0.0
  0
LINE
  5
132
330
1F
100
AcDbEntity
  8
0
  6
Continuous
 62
     7
370
    18
100
AcDbLine
 10
362.6610845472
 20
20.0
 30
0.0
 11
362.6610845472
 21
10.0
 31
0.0
  0
LINE
  5
133
330
1F
100
AcDbEntity
  8
0
  6
Continuous
 62
     7
370
    25
100
AcDbLine
 10
327.6610845472
 20
10.0
 30
0.0
 11
327.6610845472
 21
55.0
 31
0.0
  0
LINE
  5
134
330
1F
100
AcDbEntity
  8
0
  6
Continuous
 62
     7
370
    18
100
AcDbLine
 10
20.0
 20
292.0
 30
0.0
 11
20.0
 21
297.0
 31
0.0
  0
LINE
  5
135
330
1F
100
AcDbEntity
  8
0
  6
Continuous
 62
     7
370
    18
100
AcDbLine
 10
20.0
 20
5.0
 30
0.0
 11
20.0
 21
0.0
 31
0.0
  0
LINE
  5
136
330
1F
100
AcDbEntity
  8
0
  6
Continuous
 62
     7
370
    18
100
AcDbLine
 10
315.0
 20
10.0
 30
0.0
 11
315.0
 21
5.0
 31
0.0
  0
LINE
  5
137
330
1F
100
AcDbEntity
  8
0
  6
Continuous
 62
     7
370
    18
100
AcDbLine
 10
315.0
 20
292.0
 30
0.0
 11
315.0
 21
287.0
 31
0.0
  0
LINE
  5
138
330
1F
100
AcDbEntity
  8
0
  6
Continuous
 62
     7
370
    18
100
AcDbLine
 10
365.0
 20
10.0
 30
0.0
 11
365.0
 21
5.0
 31
0.0
  0
LINE
  5
139
330
1F
100
AcDbEntity
  8
0
  6
Continuous
 62
     7
370
    18
100
AcDbLine
 10
365.0
 20
292.0
 30
0.0
 11
365.0
 21
287.0
 31
0.0
  0
LINE
  5
13A
330
1F
100
AcDbEntity
  8
0
  6
Continuous
 62
     7
370
    18
100
AcDbLine
 10
15.0
 20
292.0
 30
0.0
 11
15.0
 21
5.0
 31
0.0
  0
LINE
  5
13B
330
1F
100
AcDbEntity
  8
0
  6
Continuous
 62
     7
370
    18
100
AcDbLine
 10
15.0
 20
5.0
 30
0.0
 11
415.0
 21
5.0
 31
0.0
  0
LINE
  5
13C
330
1F
100
AcDbEntity
  8
0
  6
Continuous
 62
     7
370
    18
100
AcDbLine
 10
415.0
 20
292.0
 30
0.0
 11
415.0
 21
5.0
 31
0.0
  0
LINE
  5
13D
330
1F
100
AcDbEntity
  8
0
  6
Continuous
 62
     7
370
    18
100
AcDbLine
 10
347.6610845472
 20
44.213444
 30
0.0
 11
327.6610845472
 21
44.213444
 31
0.0
  0
LINE
  5
13E
330
1F
100
AcDbEntity
  8
0
  6
Continuous
 62
     7
370
    18
100
AcDbLine
 10
347.6610845472
 20
35.0
 30
0.0
 11
347.6610845472
 21
55.0
 31
0.0
  0
LINE
  5
13F
330
1F
100
AcDbEntity
  8
0
  6
Continuous
 62
     7
370
    18
100
AcDbLine
 10
370.057188
 20
55.012032
 30
0.0
 11
370.057188
 21
35.0
 31
0.0
  0
LINE
  5
140
330
1F
100
AcDbEntity
  8
0
  6
Continuous
 62
     7
370
    18
100
AcDbLine
 10
398.0
 20
35.0
 30
0.0
 11
398.0
 21
20.0
 31
0.0
  0
LINE
  5
141
330
1F
100
AcDbEntity
  8
0
  6
Continuous
 62
     7
370
    18
100
AcDbLine
 10
410.0
 20
15.0
 30
0.0
 11
327.6610845472
 21
15.0
 31
0.0
  0
LINE
  5
142
330
1F
100
AcDbEntity
  8
0
  6
Continuous
 62
     7
370
    18
100
AcDbLine
 10
327.6610845472
 20
20.0
 30
0.0
 11
410.0
 21
20.0
 31
0.0
  0
LINE
  5
143
330
1F
100
AcDbEntity
  8
0
  6
Continuous
 62
     7
370
    18
100
AcDbLine
 10
341.485486
 20
20.0
 30
0.0
 11
341.485486
 21
27.564675
 31
0.0
  0
LINE
  5
144
330
1F
100
AcDbEntity
  8
0
  6
Continuous
 62
     7
370
    25
100
AcDbLine
 10
310.0
 20
76.5
 30
0.0
 11
310.0
 21
55.0
 31
0.0
  0
CIRCLE
  5
145
330
1F
100
AcDbEntity
  8
0
  6
Continuous
 62
     7
370
    18
100
AcDbCircle
 10
11.0
 20
108.5
 30
0.0
 40
2.750000000000001
  0
CIRCLE
  5
146
330
1F
100
AcDbEntity
  8
0
  6
Continuous
 62
     7
370
    18
100
AcDbCircle
 10
11.0
 20
188.5
 30
0.0
 40
2.750000000000001
  0
CIRCLE
  5
147
330
1F
100
AcDbEntity
  8
0
  6
Continuous
 62
     7
370
    18
100
AcDbCircle
 10
352.6174545849
 20
43.1536640226
 30
0.0
 40
3.218346681300138
  0
CIRCLE
  5
148
330
1F
100
AcDbEntity
  8
0
  6
Continuous
 62
     7
370
    18
100
AcDbCircle
 10
352.6174545849
 20
43.1536640226
 30
0.0
 40
1.583958554121555
  0
INSERT
  5
149
330
1F
100
AcDbEntity
  8
0
  6
Continuous
 62
     7
100
AcDbBlockReference
  2
ACO-Logo
 10
314.3510726297
 20
57.6366106772
 30
0.0
  0
POINT
  5
14A
330
1F
100
AcDbEntity
  8
0
100
AcDbPoint
 10
0.0
 20
0.0
 30
0.0
  0
POINT
  5
14B
330
1F
100
AcDbEntity
  8
0
100
AcDbPoint
 10
410.0
 20
10.0
 30
0.0
  0
MTEXT
  5
14C
330
1F
100
AcDbEntity
  8
0
  6
Continuous
 62
     7
370
    18
100
AcDbMText
 10
17.7359443114
 20
124.8017866468
 30
0.0
 40
2.0
 41
0.0
 71
     2
 72
     1
  1
D
  7
SLDTEXTSTYLE0
 73
     1
 44
1.0
  0
MTEXT
  5
14D
330
1F
100
AcDbEntity
  8
0
  6
Continuous
 62
     7
370
    18
100
AcDbMText
 10
17.6274822413
 20
174.7261854936
 30
0.0
 40
2.0
 41
0.0
 71
     2
 72
     1
  1
C
  7
SLDTEXTSTYLE0
 73
     1
 44
1.0
  0
MTEXT
  5
14E
330
1F
100
AcDbEntity
  8
0
  6
Continuous
 62
     7
370
    18
100
AcDbMText
 10
17.5516905072
 20
224.4926420442
 30
0.0
 40
2.0
 41
0.0
 71
     2
 72
     1
  1
B
  7
SLDTEXTSTYLE0
 73
     1
 44
1.0
  0
MTEXT
  5
14F
330
1F
100
AcDbEntity
  8
0
  6
Continuous
 62
     7
370
    18
100
AcDbMText
 10
290.0344258799
 20
290.5428789914
 30
0.0
 40
2.0
 41
0.0
 71
     2
 72
     1
  1
6
  7
SLDTEXTSTYLE0
 73
     1
 44
1.0
  0
MTEXT
  5
150
330
1F
100
AcDbEntity
  8
0
  6
Continuous
 62
     7
370
    18
100
AcDbMText
 10
240.0417859812
 20
290.6369260235
 30
0.0
 40
2.0
 41
0.0
 71
     2
 72
     1
  1
5
  7
SLDTEXTSTYLE0
 73
     1
 44
1.0
  0
MTEXT
  5
151
330
1F
100
AcDbEntity
  8
0
  6
Continuous
 62
     7
370
    18
100
AcDbMText
 10
190.0300404524
 20
290.6343268032
 30
0.0
 40
2.0
 41
0.0
 71
     2
 72
     1
  1
4
  7
SLDTEXTSTYLE0
 73
     1
 44
1.0
  0
MTEXT
  5
152
330
1F
100
AcDbEntity
  8
0
  6
Continuous
 62
     7
370
    18
100
AcDbMText
 10
140.0165868337
 20
290.6378887952
 30
0.0
 40
2.0
 41
0.0
 71
     2
 72
     1
  1
3
  7
SLDTEXTSTYLE0
 73
     1
 44
1.0
  0
MTEXT
  5
153
330
1F
100
AcDbEntity
  8
0
  6
Continuous
 62
     7
370
    18
100
AcDbMText
 10
90.033223
 20
290.5566702875
 30
0.0
 40
2.0
 41
0.0
 71
     2
 72
     1
  1
2
  7
SLDTEXTSTYLE0
 73
     1
 44
1.0
  0
MTEXT
  5
154
330
1F
100
AcDbEntity
  8
0
  6
Continuous
 62
     7
370
    18
100
AcDbMText
 10
40.0509551097
 20
290.5530165805
 30
0.0
 40
2.0
 41
0.0
 71
     2
 72
     1
  1
1
  7
SLDTEXTSTYLE0
 73
     1
 44
1.0
  0
MTEXT
  5
155
330
1F
100
AcDbEntity
  8
0
  6
Continuous
 62
     7
370
    18
100
AcDbMText
 10
17.5609786315
 20
271.2966048816
 30
0.0
 40
2.0
 41
0.0
 71
     2
 72
     1
  1
A
  7
SLDTEXTSTYLE0
 73
     1
 44
1.0
  0
MTEXT
  5
156
330
1F
100
AcDbEntity
  8
0
  6
Continuous
 62
     7
370
    18
100
AcDbMText
 10
89.9333968896
 20
8.5904490253
 30
0.0
 40
2.0
 41
0.0
 71
     2
 72
     1
  1
2
  7
SLDTEXTSTYLE0
 73
     1
 44
1.0
  0
MTEXT
  5
157
330
1F
100
AcDbEntity
  8
0
  6
Continuous
 62
     7
370
    18
100
AcDbMText
 10
39.9009486579
 20
8.6623118453
 30
0.0
 40
2.0
 41
0.0
 71
     2
 72
     1
  1
1
  7
SLDTEXTSTYLE0
 73
     1
 44
1.0
  0
MTEXT
  5
158
330
1F
100
AcDbEntity
  8
0
  6
Continuous
 62
     7
370
    18
100
AcDbMText
 10
190.0227230239
 20
8.7073169286
 30
0.0
 40
2.0
 41
0.0
 71
     2
 72
     1
  1
4
  7
SLDTEXTSTYLE0
 73
     1
 44
1.0
  0
MTEXT
  5
159
330
1F
100
AcDbEntity
  8
0
  6
Continuous
 62
     7
370
    18
100
AcDbMText
 10
140.0453427777
 20
8.5647154541
 30
0.0
 40
2.0
 41
0.0
 71
     2
 72
     1
  1
3
  7
SLDTEXTSTYLE0
 73
     1
 44
1.0
  0
MTEXT
  5
15A
330
1F
100
AcDbEntity
  8
0
  6
Continuous
 62
     7
370
    18
100
AcDbMText
 10
239.8749782531
 20
8.5637526825
 30
0.0
 40
2.0
 41
0.0
 71
     2
 72
     1
  1
5
  7
SLDTEXTSTYLE0
 73
     1
 44
1.0
  0
MTEXT
  5
15B
330
1F
100
AcDbEntity
  8
0
  6
Continuous
 62
     7
370
    18
100
AcDbMText
 10
412.6717254925
 20
224.51208263
 30
0.0
 40
2.0
 41
0.0
 71
     2
 72
     1
  1
B
  7
SLDTEXTSTYLE0
 73
     1
 44
1.0
  0
MTEXT
  5
15C
330
1F
100
AcDbEntity
  8
0
  6
Continuous
 62
     7
370
    18
100
AcDbMText
 10
412.5951211154
 20
271.2798202564
 30
0.0
 40
2.0
 41
0.0
 71
     2
 72
     1
  1
A
  7
SLDTEXTSTYLE0
 73
     1
 44
1.0
  0
MTEXT
  5
15D
330
1F
100
AcDbEntity
  8
0
  6
Continuous
 62
     7
370
    18
100
AcDbMText
 10
412.6491448679
 20
174.7279841048
 30
0.0
 40
2.0
 41
0.0
 71
     2
 72
     1
  1
C
  7
SLDTEXTSTYLE0
 73
     1
 44
1.0
  0
MTEXT
  5
15E
330
1F
100
AcDbEntity
  8
0
  6
Continuous
 62
     7
370
    18
100
AcDbMText
 10
340.0216466634
 20
290.5954278102
 30
0.0
 40
2.0
 41
0.0
 71
     2
 72
     1
  1
7
  7
SLDTEXTSTYLE0
 73
     1
 44
1.0
  0
MTEXT
  5
15F
330
1F
100
AcDbEntity
  8
0
  6
Continuous
 62
     7
370
    18
100
AcDbMText
 10
390.037657264
 20
290.6215496941
 30
0.0
 40
2.0
 41
0.0
 71
     2
 72
     1
  1
8
  7
SLDTEXTSTYLE0
 73
     1
 44
1.0
  0
MTEXT
  5
160
330
1F
100
AcDbEntity
  8
0
  6
Continuous
 62
     7
370
    18
100
AcDbMText
 10
17.6897935208
 20
74.7267628143
 30
0.0
 40
2.0
 41
0.0
 71
     2
 72
     1
  1
E
  7
SLDTEXTSTYLE0
 73
     1
 44
1.0
  0
MTEXT
  5
161
330
1F
100
AcDbEntity
  8
0
  6
Continuous
 62
     7
370
    18
100
AcDbMText
 10
17.5936930126
 20
27.773321616
 30
0.0
 40
2.0
 41
0.0
 71
     2
 72
     1
  1
F
  7
SLDTEXTSTYLE0
 73
     1
 44
1.0
  0
MTEXT
  5
162
330
1F
100
AcDbEntity
  8
0
  6
Continuous
 62
     7
370
    18
100
AcDbMText
 10
339.8003474583
 20
8.7205095051
 30
0.0
 40
2.0
 41
0.0
 71
     2
 72
     1
  1
7
  7
SLDTEXTSTYLE0
 73
     1
 44
1.0
  0
MTEXT
  5
163
330
1F
100
AcDbEntity
  8
0
  6
Continuous
 62
     7
370
    18
100
AcDbMText
 10
289.7886477179
 20
8.6884673623
 30
0.0
 40
2.0
 41
0.0
 71
     2
 72
     1
  1
6
  7
SLDTEXTSTYLE0
 73
     1
 44
1.0
  0
MTEXT
  5
164
330
1F
100
AcDbEntity
  8
0
  6
Continuous
 62
     7
370
    18
100
AcDbMText
 10
412.5160699095
 20
74.5096307526
 30
0.0
 40
2.0
 41
0.0
 71
     2
 72
     1
  1
E
  7
SLDTEXTSTYLE0
 73
     1
 44
1.0
  0
MTEXT
  5
165
330
1F
100
AcDbEntity
  8
0
  6
Continuous
 62
     7
370
    18
100
AcDbMText
 10
412.6234021365
 20
124.4517683275
 30
0.0
 40
2.0
 41
0.0
 71
     2
 72
     1
  1
D
  7
SLDTEXTSTYLE0
 73
     1
 44
1.0
  0
MTEXT
  5
166
330
1F
100
AcDbEntity
  8
0
  6
Continuous
 62
     7
370
    18
100
AcDbMText
 10
411.7952690469
 20
41.8473512857
 30
0.0
 40
1.8
 41
0.0
 71
     3
 72
     1
  1
Plotdatum: 31.08.2024
  7
SLDTEXTSTYLE0
 11
-3.269436733918102E-15
 21
1.0
 31
0.0
 73
     1
 44
1.0
  0
MTEXT
  5
167
330
1F
100
AcDbEntity
  8
0
  6
Continuous
 62
     7
370
    18
100
AcDbMText
 10
412.557933251
 20
8.2549718046
 30
0.0
 40
1.8
 41
0.0
 71
     2
 72
     1
  1
A3
  7
SLDTEXTSTYLE0
 73
     1
 44
1.0
  0
MTEXT
  5
168
330
1F
100
AcDbEntity
  8
0
  6
Continuous
 62
     7
370
    18
100
AcDbMText
 10
390.594604279
 20
8.3847467643
 30
0.0
 40
1.8
 41
0.0
 71
     2
 72
     1
  1
CAD-System: SolidWorks
  7
SLDTEXTSTYLE0
 73
     1
 44
1.0
  0
MTEXT
  5
169
330
1F
100
AcDbEntity
  8
0
  6
Continuous
 62
     7
370
    18
100
AcDbMText
 10
403.9986368527
 20
28.4394692021
 30
0.0
 40
5.0
 41
0.0
 71
     2
 72
     1
  1
A
  7
SLDTEXTSTYLE0
 73
     1
 44
1.0
  0
MTEXT
  5
16A
330
1F
100
AcDbEntity
  8
0
  6
Continuous
 62
     7
370
    18
100
AcDbMText
 10
249.556836311
 20
38.5581729516
 30
0.0
 40
2.0
 41
0.0
 71
     1
 72
     1
  1
Freigegeben
  7
SLDTEXTSTYLE0
 73
     1
 44
1.0
  0
MTEXT
  5
16B
330
1F
100
AcDbEntity
  8
0
  6
Continuous
 62
     7
370
    18
100
AcDbMText
 10
284.096264263
 20
43.5473338598
 30
0.0
 40
2.0
 41
0.0
 71
     2
 72
     1
  1
dca
  7
SLDTEXTSTYLE0
 73
     1
 44
1.0
  0
MTEXT
  5
16C
330
1F
100
AcDbEntity
  8
0
  6
Continuous
 62
     7
370
    18
100
AcDbMText
 10
249.5284668163
 20
43.5603133928
 30
0.0
 40
2.0
 41
0.0
 71
     1
 72
     1
  1
31.08.2024
  7
SLDTEXTSTYLE0
 73
     1
 44
1.0
  0
MTEXT
  5
16D
330
1F
100
AcDbEntity
  8
0
  6
Continuous
 62
     7
370
     0
100
AcDbMText
 10
372.2007348103
 20
38.8723054925
 30
0.0
 40
1.5
 41
0.0
 71
     1
 72
     1
  1
Copyright reserved! © ACO AG
  7
SLDTEXTSTYLE0
 73
     1
 44
1.0
  0
INSERT
  5
176
330
1F
100
AcDbEntity
  8
0
  6
Continuous
 62
     7
370
     0
100
AcDbBlockReference
  2
SW_NOTE_0_3
 10
372.2203831445
 20
51.2202922854
 30
0.0
  0
MTEXT
  5
177
330
1F
100
AcDbEntity
  8
0
  6
Continuous
 62
     7
370
    18
100
AcDbMText
 10
330.2607505021
 20
13.524501801
 30
0.0
 40
2.0
 41
0.0
 71
     2
 72
     1
  1
-
  7
SLDTEXTSTYLE0
 73
     1
 44
1.0
  0
MTEXT
  5
178
330
1F
100
AcDbEntity
  8
0
  6
Continuous
 62
     7
370
    18
100
AcDbMText
 10
364.9468572407
 20
18.4594173137
 30
0.0
 40
2.0
 41
0.0
 71
     1
 72
     1
  1
SAP-Nr.
  7
SLDTEXTSTYLE0
 73
     1
 44
1.0
  0
MTEXT
  5
179
330
1F
100
AcDbEntity
  8
0
  6
Continuous
 62
     7
370
    18
100
AcDbMText
 10
354.24544421
 20
18.5245664709
 30
0.0
 40
2.0
 41
0.0
 71
     2
 72
     1
  1
dca
  7
SLDTEXTSTYLE0
 73
     1
 44
1.0
  0
MTEXT
  5
17A
330
1F
100
AcDbEntity
  8
0
  6
Continuous
 62
     7
370
    18
100
AcDbMText
 10
340.2690141878
 20
18.5245664709
 30
0.0
 40
2.0
 41
0.0
 71
     2
 72
     1
  1
30.08.2024
  7
SLDTEXTSTYLE0
 73
     1
 44
1.0
  0
MTEXT
  5
17B
330
1F
100
AcDbEntity
  8
0
  6
Continuous
 62
     7
370
    18
100
AcDbMText
 10
330.227417144
 20
18.524501801
 30
0.0
 40
2.0
 41
0.0
 71
     2
 72
     1
  1
A
  7
SLDTEXTSTYLE0
 73
     1
 44
1.0
  0
MTEXT
  5
17C
330
1F
100
AcDbEntity
  8
0
  6
Continuous
 62
     7
370
    18
100
AcDbMText
 10
311.764909851
 20
46.3490312465
 30
0.0
 40
5.0
 41
0.0
 71
     2
 72
     1
  1
1:1
  7
SLDTEXTSTYLE0
 73
     1
 44
1.0
  0
MTEXT
  5
17D
330
1F
100
AcDbEntity
  8
0
  6
Continuous
 62
     7
370
    18
100
AcDbMText
 10
230.1851195342
 20
38.7793829468
 30
0.0
 40
2.0
 41
0.0
 71
     1
 72
     1
  1
Status:
  7
SLDTEXTSTYLE0
 73
     1
 44
1.0
  0
MTEXT
  5
17E
330
1F
100
AcDbEntity
  8
0
  6
Continuous
 62
     7
370
    18
100
AcDbMText
 10
344.926838705
 20
28.2772828851
 30
0.0
 40
5.0
 41
0.0
 71
     1
 72
     1
  1
100474
  7
SLDTEXTSTYLE0
 73
     1
 44
1.0
  0
MTEXT
  5
17F
330
1F
100
AcDbEntity
  8
0
  6
Continuous
 62
     7
370
    18
100
AcDbMText
 10
231.1132118803
 20
14.9211049657
 30
0.0
 40
2.5
 41
0.0
 71
     1
 72
     1
  1
Art. Nr.: 2090189
  7
SLDTEXTSTYLE0
 73
     1
 44
1.0
  0
MTEXT
  5
180
330
1F
100
AcDbEntity
  8
0
  6
Continuous
 62
     7
370
    18
100
AcDbMText
 10
231.1475981734
 20
21.4529560996
 30
0.0
 40
2.5
 41
0.0
 71
     1
 72
     1
  1
Fäkal
  7
SLDTEXTSTYLE0
 73
     1
 44
1.0
  0
MTEXT
  5
181
330
1F
100
AcDbEntity
  8
0
  6
Continuous
 62
     7
370
    18
100
AcDbMText
 10
231.1159560181
 20
33.0904969858
 30
0.0
 40
2.5
 41
0.0
 71
     1
 72
     1
  1
Beschriftungsmöglichkeiten
  7
SLDTEXTSTYLE0
 73
     1
 44
1.0
  0
MTEXT
  5
182
330
1F
100
AcDbEntity
  8
0
  6
Continuous
 62
     7
370
    18
100
AcDbMText
 10
231.1475981734
 20
28.0307932366
 30
0.0
 40
3.5
 41
0.0
 71
     1
 72
     1
  1
Individuelle Beschriftungsschilder
  7
SLDTEXTSTYLE0
 73
     1
 44
1.0
  0
MTEXT
  5
183
330
1F
100
AcDbEntity
  8
0
  6
Continuous
 62
     7
370
    18
100
AcDbMText
 10
348.2746465368
 20
53.819119072
 30
0.0
 40
2.0
 41
0.0
 71
     1
 72
     1
  1
Projektion: ISO-E
  7
SLDTEXTSTYLE0
 73
     1
 44
1.0
  0
MTEXT
  5
184
330
1F
100
AcDbEntity
  8
0
  6
Continuous
 62
     7
370
    18
100
AcDbMText
 10
337.7677091855
 20
49.3670227094
 30
0.0
 40
2.5
 41
0.0
 71
     2
 72
     1
  1
Millimeter
  7
SLDTEXTSTYLE0
 73
     1
 44
1.0
  0
MTEXT
  5
185
330
1F
100
AcDbEntity
  8
0
  6
Continuous
 62
     7
370
    18
100
AcDbMText
 10
337.6323777421
 20
53.855374072
 30
0.0
 40
2.0
 41
0.0
 71
     2
 72
     1
  1
Masseinheit:
  7
SLDTEXTSTYLE0
 73
     1
 44
1.0
  0
MTEXT
  5
186
330
1F
100
AcDbEntity
  8
0
  6
Continuous
 62
     7
370
    18
100
AcDbMText
 10
337.6114490186
 20
43.5452078816
 30
0.0
 40
2.0
 41
0.0
 71
     2
 72
     1
  1
Blatt / Anz.:
  7
SLDTEXTSTYLE0
 73
     1
 44
1.0
  0
MTEXT
  5
187
330
1F
100
AcDbEntity
  8
0
  6
Continuous
 62
     7
370
    18
100
AcDbMText
 10
329.2895578243
 20
28.4139191092
 30
0.0
 40
5.0
 41
0.0
 71
     1
 72
     1
  1
CH
  7
SLDTEXTSTYLE0
 73
     1
 44
1.0
  0
MTEXT
  5
188
330
1F
100
AcDbEntity
  8
0
  6
Continuous
 62
     7
370
    18
100
AcDbMText
 10
330.40704
 20
33.692638072
 30
0.0
 40
2.0
 41
0.0
 71
     1
 72
     1
  1
Zeichnung Nr.:
  7
SLDTEXTSTYLE0
 73
     1
 44
1.0
  0
MTEXT
  5
189
330
1F
100
AcDbEntity
  8
0
  6
Continuous
 62
     7
370
    18
100
AcDbMText
 10
269.897953
 20
75.161075072
 30
0.0
 40
2.0
 41
0.0
 71
     1
 72
     1
  1
Gewicht:
  7
SLDTEXTSTYLE0
 73
     1
 44
1.0
  0
MTEXT
  5
18A
330
1F
100
AcDbEntity
  8
0
  6
Continuous
 62
     7
370
    18
100
AcDbMText
 10
230.0
 20
64.542328072
 30
0.0
 40
2.0
 41
0.0
 71
     1
 72
     1
  1
zul. Abweichung:
  7
SLDTEXTSTYLE0
 73
     1
 44
1.0
  0
MTEXT
  5
18B
330
1F
100
AcDbEntity
  8
0
  6
Continuous
 62
     7
370
    18
100
AcDbMText
 10
269.612607
 20
64.542328072
 30
0.0
 40
2.0
 41
0.0
 71
     1
 72
     1
  1
Oberfläche:
  7
SLDTEXTSTYLE0
 73
     1
 44
1.0
  0
MTEXT
  5
18C
330
1F
100
AcDbEntity
  8
0
  6
Continuous
 62
     7
370
    18
100
AcDbMText
 10
230.261411
 20
43.4433838912
 30
0.0
 40
2.0
 41
0.0
 71
     1
 72
     1
  1
Freigegeben:
  7
SLDTEXTSTYLE0
 73
     1
 44
1.0
  0
MTEXT
  5
18D
330
1F
100
AcDbEntity
  8
0
  6
Continuous
 62
     7
370
    18
100
AcDbMText
 10
230.0
 20
75.161075072
 30
0.0
 40
2.0
 41
0.0
 71
     1
 72
     1
  1
Werkstoff:
  7
SLDTEXTSTYLE0
 73
     1
 44
1.0
  0
MTEXT
  5
18E
330
1F
100
AcDbEntity
  8
0
  6
Continuous
 62
     7
370
    18
100
AcDbMText
 10
254.035545
 20
53.129475072
 30
0.0
 40
2.0
 41
0.0
 71
     1
 72
     1
  1
Datum:
  7
SLDTEXTSTYLE0
 73
     1
 44
1.0
  0
MTEXT
  5
18F
330
1F
100
AcDbEntity
  8
0
  6
Continuous
 62
     7
370
    18
100
AcDbMText
 10
279.934928
 20
53.136060072
 30
0.0
 40
2.0
 41
0.0
 71
     1
 72
     1
  1
Name:
  7
SLDTEXTSTYLE0
 73
     1
 44
1.0
  0
MTEXT
  5
190
330
1F
100
AcDbEntity
  8
0
  6
Continuous
 62
     7
370
    18
100
AcDbMText
 10
312.162455406
 20
53.881591072
 30
0.0
 40
2.0
 41
0.0
 71
     2
 72
     1
  1
Massstab:
  7
SLDTEXTSTYLE0
 73
     1
 44
1.0
  0
MTEXT
  5
191
330
1F
100
AcDbEntity
  8
0
  6
Continuous
 62
     7
370
    18
100
AcDbMText
 10
403.9552944035
 20
33.324874072
 30
0.0
 40
2.0
 41
0.0
 71
     2
 72
     1
  1
Index:
  7
SLDTEXTSTYLE0
 73
     1
 44
1.0
  0
MTEXT
  5
192
330
1F
100
AcDbEntity
  8
0
  6
Continuous
 62
     7
370
    18
100
AcDbMText
 10
230.261411
 20
48.4499477886
 30
0.0
 40
2.0
 41
0.0
 71
     1
 72
     1
  1
Erstellt:
  7
SLDTEXTSTYLE0
 73
     1
 44
1.0
  0
MTEXT
  5
194
330
1F
100
AcDbEntity
  8
0
  6
Continuous
 62
     7
370
    18
100
AcDbMText
 10
337.6348165843
 20
39.869706576
 30
0.0
 40
2.5
 41
0.0
 71
     2
 72
     1
  1
1 / 1
  7
SLDTEXTSTYLE1
 73
     1
 44
1.0
  0
MTEXT
  5
195
330
1F
100
AcDbEntity
  8
0
  6
Continuous
 62
     7
370
    18
100
AcDbMText
 10
269.612607
 20
60.8119428599
 30
0.0
 40
3.0
 41
0.0
 71
     1
 72
     1
  1
DIN ISO 1302
  7
SLDTEXTSTYLE0
 73
     1
 44
1.0
  0
MTEXT
  5
196
330
1F
100
AcDbEntity
  8
0
  6
Continuous
 62
     7
370
    18
100
AcDbMText
 10
230.0
 20
60.8119428599
 30
0.0
 40
3.0
 41
0.0
 71
     1
 72
     1
  1
Norm
  7
SLDTEXTSTYLE0
 73
     1
 44
1.0
  0
MTEXT
  5
197
330
1F
100
AcDbEntity
  8
0
  6
Continuous
 62
     7
370
    18
100
AcDbMText
 10
269.612607
 20
71.2121947186
 30
0.0
 40
3.0
 41
0.0
 71
     1
 72
     1
  1
87.47 g
  7
SLDTEXTSTYLE0
 73
     1
 44
1.0
  0
MTEXT
  5
198
330
1F
100
AcDbEntity
  8
0
  6
Continuous
 62
     7
370
    18
100
AcDbMText
 10
230.0
 20
71.2121947186
 30
0.0
 40
3.0
 41
0.0
 71
     1
 72
     1
  1
Messing
  7
SLDTEXTSTYLE0
 73
     1
 44
1.0
  0
LWPOLYLINE
  5
199
330
1F
100
AcDbEntity
  8
0
  6
Continuous
 62
     7
370
    25
100
AcDbPolyline
 90
        3
 70
   128
 43
0.0
 10
135.2303298578
 20
211.366315478
 10
135.2355695595
 20
211.2823404931
 10
135.2412362719
 20
211.1914566389
  0
SPLINE
  5
19A
330
1F
100
AcDbEntity
  8
0
  6
Continuous
 62
     7
370
    25
100
AcDbSpline
210
0.0
220
0.0
230
1.0
 70
     8
 71
     3
 72
    22
 73
    18
 74
     0
 42
0.00000001
 43
0.00000001
 40
0.0062344927572836
 40
0.0062344927572836
 40
0.0062344927572836
 40
0.0062344927572836
 40
0.125
 40
0.125
 40
0.25
 40
0.25
 40
0.375
 40
0.375
 40
0.5
 40
0.5
 40
0.625
 40
0.625
 40
0.75
 40
0.75
 40
0.875
 40
0.875
 40
0.992741708792316
 40
0.992741708792316
 40
0.992741708792316
 40
0.992741708792316
 10
135.7796948088575
 20
211.9923725682214
 30
0.0
 10
135.7807059341626
 20
211.9452687561612
 30
0.0
 10
135.7809652674141
 20
211.9050509739577
 30
0.0
 10
135.7737582479158
 20
211.8372693798667
 30
0.0
 10
135.7651775359001
 20
211.800896426578
 30
0.0
 10
135.7395966169955
 20
211.725298993889
 30
0.0
 10
135.7239829754214
 20
211.6902068190255
 30
0.0
 10
135.6866828084842
 20
211.6263739792914
 30
0.0
 10
135.663295211608
 20
211.5947068014744
 30
0.0
 10
135.609242798058
 20
211.5330212361862
 30
0.0
 10
135.5811196004709
 20
211.50594441316
 30
0.0
 10
135.5234130267988
 20
211.4615906301185
 30
0.0
 10
135.4903472440615
 20
211.44166657056
 30
0.0
 10
135.41760072093
 20
211.4061841617474
 30
0.0
 10
135.3825186448964
 20
211.3928407254868
 30
0.0
 10
135.31622024764
 20
211.3767003263154
 30
0.0
 10
135.2766327196252
 20
211.3715834275953
 30
0.0
 10
135.2303298578228
 20
211.3663154779973
 30
0.0
  0
LWPOLYLINE
  5
19B
330
1F
100
AcDbEntity
  8
0
  6
Continuous
 62
     7
370
    25
100
AcDbPolyline
 90
        3
 70
   128
 43
0.0
 10
135.7796948089
 20
211.9923725682
 10
135.862391832
 20
211.9977818908
 10
135.9544623974
 20
212.0038034804
  0
SPLINE
  5
19C
330
1F
100
AcDbEntity
  8
0
  6
Continuous
 62
     7
370
    25
100
AcDbSpline
210
0.0
220
0.0
230
1.0
 70
     8
 71
     3
 72
    22
 73
    18
 74
     0
 42
0.00000001
 43
0.00000001
 40
0.0
 40
0.0
 40
0.0
 40
0.0
 40
0.125
 40
0.125
 40
0.25
 40
0.25
 40
0.375
 40
0.375
 40
0.5
 40
0.5
 40
0.625
 40
0.625
 40
0.75
 40
0.75
 40
0.875
 40
0.875
 40
1.0
 40
1.0
 40
1.0
 40
1.0
 10
135.954462397354
 20
212.0038034803886
 30
0.0
 10
135.9555996584639
 20
211.9535227000081
 30
0.0
 10
135.9567366398502
 20
211.9032418869572
 30
0.0
 10
135.9461642849076
 20
211.8038110445561
 30
0.0
 10
135.9342527714448
 20
211.7546518353888
 30
0.0
 10
135.9020118969009
 20
211.6593727417388
 30
0.0
 10
135.8816777095261
 20
211.6132551064683
 30
0.0
 10
135.8311388508428
 20
211.5267664434036
 30
0.0
 10
135.8010004053078
 20
211.4863549941573
 30
0.0
 10
135.7347413494377
 20
211.4107390293057
 30
0.0
 10
135.6986021393208
 20
211.37555179571
 30
0.0
 10
135.619193216359
 20
211.3145174503973
 30
0.0
 10
135.5758935129028
 20
211.288710332445
 30
0.0
 10
135.4854700242043
 20
211.2446059468031
 30
0.0
 10
135.4383369492851
 20
211.226341822221
 30
0.0
 10
135.3411984015047
 20
211.2026932009009
 30
0.0
 10
135.2912173390519
 20
211.1970747809804
 30
0.0
 10
135.2412362718531
 20
211.1914566389273
 30
0.0
  0
SPLINE
  5
19D
330
1F
100
AcDbEntity
  8
0
  6
Continuous
 62
     7
370
    25
100
AcDbSpline
210
0.0
220
0.0
230
1.0
 70
     8
 71
     3
 72
    20
 73
    16
 74
     0
 42
0.00000001
 43
0.00000001
 40
0.0063495056578592
 40
0.0063495056578592
 40
0.0063495056578592
 40
0.0063495056578592
 40
0.125
 40
0.125
 40
0.25
 40
0.25
 40
0.5
 40
0.5
 40
0.625
 40
0.625
 40
0.75
 40
0.75
 40
0.875
 40
0.875
 40
0.9937361811871652
 40
0.9937361811871652
 40
0.9937361811871652
 40
0.9937361811871652
 10
135.1547823165052
 20
212.5367187446932
 30
0.0
 10
135.201597925685
 20
212.5376952417238
 30
0.0
 10
135.2417041870589
 20
212.5379499014335
 30
0.0
 10
135.3097668363654
 20
212.5308823402659
 30
0.0
 10
135.3455386329208
 20
212.5225696517707
 30
0.0
 10
135.4549732331743
 20
212.4850430189921
 30
0.0
 10
135.5202105287674
 20
212.4464774178249
 30
0.0
 10
135.6125952774735
 20
212.3667898576857
 30
0.0
 10
135.6400786679239
 20
212.3387796877832
 30
0.0
 10
135.6856204886075
 20
212.2811193468619
 30
0.0
 10
135.7056515381697
 20
212.2489829657155
 30
0.0
 10
135.7405539601575
 20
212.1788085665468
 30
0.0
 10
135.7537540373028
 20
212.1441216402046
 30
0.0
 10
135.7696344444345
 20
212.0785519835447
 30
0.0
 10
135.7745886923094
 20
212.0389554165886
 30
0.0
 10
135.7796948088575
 20
211.9923725682214
 30
0.0
  0
LWPOLYLINE
  5
19E
330
1F
100
AcDbEntity
  8
0
  6
Continuous
 62
     7
370
    25
100
AcDbPolyline
 90
        3
 70
   128
 43
0.0
 10
135.1547823165
 20
212.5367187447
 10
135.1494088576
 20
212.618949098
 10
135.1433626626
 20
212.7114912807
  0
SPLINE
  5
19F
330
1F
100
AcDbEntity
  8
0
  6
Continuous
 62
     7
370
    25
100
AcDbSpline
210
0.0
220
0.0
230
1.0
 70
     8
 71
     3
 72
    20
 73
    16
 74
     0
 42
0.00000001
 43
0.00000001
 40
0.0
 40
0.0
 40
0.0
 40
0.0
 40
0.125
 40
0.125
 40
0.25
 40
0.25
 40
0.5
 40
0.5
 40
0.625
 40
0.625
 40
0.75
 40
0.75
 40
0.875
 40
0.875
 40
1.0
 40
1.0
 40
1.0
 40
1.0
 10
135.1433626625537
 20
212.7114912807497
 30
0.0
 10
135.1933862346993
 20
212.7125912849335
 30
0.0
 10
135.2434098371901
 20
212.7136910142613
 30
0.0
 10
135.3424319819998
 20
212.7034084936247
 30
0.0
 10
135.3914493406559
 20
212.6918054711379
 30
0.0
 10
135.5334252805546
 20
212.643120000927
 30
0.0
 10
135.6203746047231
 20
212.5911566403809
 30
0.0
 10
135.7339439059446
 20
212.4931961213606
 30
0.0
 10
135.7692588122954
 20
212.4575303981364
 30
0.0
 10
135.8310661990913
 20
212.3792762199948
 30
0.0
 10
135.8574850064196
 20
212.3366275402758
 30
0.0
 10
135.9020587949138
 20
212.247008041594
 30
0.0
 10
135.9202454769386
 20
212.2000462990167
 30
0.0
 10
135.9436727324028
 20
212.1033166731206
 30
0.0
 10
135.9490677075754
 20
212.0535600790025
 30
0.0
 10
135.954462397354
 20
212.0038034803886
 30
0.0
  0
LWPOLYLINE
  5
1A0
330
1F
100
AcDbEntity
  8
0
  6
Continuous
 62
     7
370
    25
100
AcDbPolyline
 90
        3
 70
   128
 43
0.0
 10
134.6092766505
 20
211.9177031016
 10
134.5270099491
 20
211.912165273
 10
134.4344277555
 20
211.9059298711
  0
SPLINE
  5
1A1
330
1F
100
AcDbEntity
  8
0
  6
Continuous
 62
     7
370
    25
100
AcDbSpline
210
0.0
220
0.0
230
1.0
 70
     8
 71
     3
 72
    18
 73
    14
 74
     0
 42
0.00000001
 43
0.00000001
 40
0.0073107579850894
 40
0.0073107579850894
 40
0.0073107579850894
 40
0.0073107579850894
 40
0.125
 40
0.125
 40
0.25
 40
0.25
 40
0.5
 40
0.5
 40
0.75
 40
0.75
 40
0.875
 40
0.875
 40
0.9919522347609021
 40
0.9919522347609021
 40
0.9919522347609021
 40
0.9919522347609021
 10
135.2303298578229
 20
211.3663154779973
 30
0.0
 10
135.1840129870083
 20
211.3657892006851
 30
0.0
 10
135.143995535005
 20
211.3658888007774
 30
0.0
 10
135.0747356879243
 20
211.3733165358041
 30
0.0
 10
135.0390138198771
 20
211.3815471196809
 30
0.0
 10
134.9353075242911
 20
211.4182922206004
 30
0.0
 10
134.866180689149
 20
211.4606871619546
 30
0.0
 10
134.7462123372415
 20
211.5661553626872
 30
0.0
 10
134.6997436123278
 20
211.6256970232101
 30
0.0
 10
134.6496938165831
 20
211.7285323493049
 30
0.0
 10
134.6368773221062
 20
211.7636379690396
 30
0.0
 10
134.6203765660131
 20
211.8323580677121
 30
0.0
 10
134.6149273605481
 20
211.8720633780163
 30
0.0
 10
134.6092766505154
 20
211.9177031015685
 30
0.0
  0
SPLINE
  5
1A2
330
1F
100
AcDbEntity
  8
0
  6
Continuous
 62
     7
370
    25
100
AcDbSpline
210
0.0
220
0.0
230
1.0
 70
     8
 71
     3
 72
    18
 73
    14
 74
     0
 42
0.00000001
 43
0.00000001
 40
0.0
 40
0.0
 40
0.0
 40
0.0
 40
0.125
 40
0.125
 40
0.25
 40
0.25
 40
0.5
 40
0.5
 40
0.75
 40
0.75
 40
0.875
 40
0.875
 40
1.0
 40
1.0
 40
1.0
 40
1.0
 10
135.2412362718531
 20
211.1914566389273
 30
0.0
 10
135.1912611955157
 20
211.1908274953934
 30
0.0
 10
135.1412860966618
 20
211.190198615049
 30
0.0
 10
135.0422149406585
 20
211.2008235834724
 30
0.0
 10
134.9931012413506
 20
211.2121786536533
 30
0.0
 10
134.8518186505186
 20
211.2622377062506
 30
0.0
 10
134.7656812961052
 20
211.3160583035529
 30
0.0
 10
134.6156503298638
 20
211.4479555902965
 30
0.0
 10
134.5527975310682
 20
211.5277826223331
 30
0.0
 10
134.4871679206112
 20
211.6626292078806
 30
0.0
 10
134.4698384617977
 20
211.7098641775328
 30
0.0
 10
134.4465839956844
 20
211.8067106875084
 30
0.0
 10
134.440505750003
 20
211.8563202733718
 30
0.0
 10
134.4344277555315
 20
211.9059298710893
 30
0.0
  0
SPLINE
  5
1A3
330
1F
100
AcDbEntity
  8
0
  6
Continuous
 62
     7
370
    25
100
AcDbSpline
210
0.0
220
0.0
230
1.0
 70
     8
 71
     3
 72
    18
 73
    14
 74
     0
 42
0.00000001
 43
0.00000001
 40
0.0080777190461884
 40
0.0080777190461884
 40
0.0080777190461884
 40
0.0080777190461884
 40
0.125
 40
0.125
 40
0.25
 40
0.25
 40
0.5
 40
0.5
 40
0.75
 40
0.75
 40
0.875
 40
0.875
 40
0.993623909789594
 40
0.993623909789594
 40
0.993623909789594
 40
0.993623909789594
 10
134.6092766505154
 20
211.9177031015683
 30
0.0
 10
134.6087629221118
 20
211.9634465680026
 30
0.0
 10
134.6088773126867
 20
212.0030250177276
 30
0.0
 10
134.6161934849527
 20
212.0718785439176
 30
0.0
 10
134.6243338922003
 20
212.107407342609
 30
0.0
 10
134.66072721466
 20
212.2107869242438
 30
0.0
 10
134.7025306405
 20
212.2791362708809
 30
0.0
 10
134.8080012811504
 20
212.4002379913964
 30
0.0
 10
134.8663883537323
 20
212.4466799947879
 30
0.0
 10
134.9690033880834
 20
212.4979932972684
 30
0.0
 10
135.0032041719178
 20
212.51089389927
 30
0.0
 10
135.068983130272
 20
212.5266771583651
 30
0.0
 10
135.1084669540151
 20
212.5316195080479
 30
0.0
 10
135.1547823165052
 20
212.5367187446932
 30
0.0
  0
SPLINE
  5
1A4
330
1F
100
AcDbEntity
  8
0
  6
Continuous
 62
     7
370
    25
100
AcDbSpline
210
0.0
220
0.0
230
1.0
 70
     8
 71
     3
 72
    18
 73
    14
 74
     0
 42
0.00000001
 43
0.00000001
 40
0.0
 40
0.0
 40
0.0
 40
0.0
 40
0.125
 40
0.125
 40
0.25
 40
0.25
 40
0.5
 40
0.5
 40
0.75
 40
0.75
 40
0.875
 40
0.875
 40
1.0
 40
1.0
 40
1.0
 40
1.0
 10
134.4344277555315
 20
211.9059298710893
 30
0.0
 10
134.4338006112265
 20
211.9556953953223
 30
0.0
 10
134.4331737290646
 20
212.0054609420533
 30
0.0
 10
134.4436571320227
 20
212.1041204554923
 30
0.0
 10
134.4548937672368
 20
212.1530362486819
 30
0.0
 10
134.5044611616242
 20
212.2938383875316
 30
0.0
 10
134.5579889808086
 20
212.3795970091564
 30
0.0
 10
134.6886430852952
 20
212.5296144262921
 30
0.0
 10
134.7674469401408
 20
212.5928387208876
 30
0.0
 10
134.9010851535816
 20
212.6596653616285
 30
0.0
 10
134.9479375782271
 20
212.6775767696184
 30
0.0
 10
135.0443194891711
 20
212.7007031846823
 30
0.0
 10
135.093841072979
 20
212.7060973732689
 30
0.0
 10
135.1433626625537
 20
212.7114912807497
 30
0.0
  0
ARC
  5
1A5
330
1F
100
AcDbEntity
  8
0
  6
Continuous
 62
     7
370
    25
100
AcDbCircle
 10
206.3500014765
 20
202.4149466259
 30
0.0
 40
2.000000000000033
100
AcDbArc
 50
342.0
 51
72.5522570284
  0
ARC
  5
1A6
330
1F
100
AcDbEntity
  8
0
  6
Continuous
 62
     7
370
    25
100
AcDbCircle
 10
144.1340667226
 20
4.4618525286
 30
0.0
 40
209.5
100
AcDbArc
 50
72.5522570284
 51
107.9477429716
  0
ARC
  5
1A7
330
1F
100
AcDbEntity
  8
0
  6
Continuous
 62
     7
370
    25
100
AcDbCircle
 10
80.1930562581
 20
201.8644796154
 30
0.0
 40
1.999999999999983
100
AcDbArc
 50
107.9477429716
 51
198.5
  0
LINE
  5
1A8
330
1F
100
AcDbEntity
  8
0
  6
Continuous
 62
     7
370
    25
100
AcDbLine
 10
78.2964089477
 20
201.2298703026
 30
0.0
 11
78.6240672384
 21
200.2506028961
 31
0.0
  0
ARC
  5
1A9
330
1F
100
AcDbEntity
  8
0
  6
Continuous
 62
     7
370
    25
100
AcDbCircle
 10
78.1499054108
 20
200.0919505679
 30
0.0
 40
0.5000000000000082
100
AcDbArc
 50
237.0578370434
 51
18.5
  0
ARC
  5
1AA
330
1F
100
AcDbEntity
  8
0
  6
Continuous
 62
     7
370
    25
100
AcDbCircle
 10
74.6152563428
 20
194.6370210573
 30
0.0
 40
6.000000000000059
100
AcDbArc
 50
57.0578370434
 51
155.3130614604
  0
ARC
  5
1AB
330
1F
100
AcDbEntity
  8
0
  6
Continuous
 62
     7
370
    25
100
AcDbCircle
 10
68.709334157
 20
197.3518107611
 30
0.0
 40
0.5000000000000121
100
AcDbArc
 50
201.5
 51
335.3130614604
  0
LINE
  5
1AC
330
1F
100
AcDbEntity
  8
0
  6
Continuous
 62
     7
370
    25
100
AcDbLine
 10
67.1915522305
 20
199.840672741
 30
0.0
 11
68.244125373
 21
197.1685601478
 31
0.0
  0
ARC
  5
1AD
330
1F
100
AcDbEntity
  8
0
  6
Continuous
 62
     7
370
    25
100
AcDbCircle
 10
69.0523873665
 20
200.5736751945
 30
0.0
 40
2.000000000000025
100
AcDbArc
 50
110.9515047787
 51
201.5
  0
ARC
  5
1AE
330
1F
100
AcDbEntity
  8
0
  6
Continuous
 62
     7
370
    25
100
AcDbCircle
 10
144.1436912631
 20
4.4581580137
 30
0.0
 40
212.0
100
AcDbArc
 50
69.5484952213
 51
110.9515047787
  0
ARC
  5
1AF
330
1F
100
AcDbEntity
  8
0
  6
Continuous
 62
     7
370
    25
100
AcDbCircle
 10
217.5207268904
 20
201.2214946456
 30
0.0
 40
2.000000000000033
100
AcDbArc
 50
339.0
 51
69.5484952213
  0
LINE
  5
1B0
330
1F
100
AcDbEntity
  8
0
  6
Continuous
 62
     7
370
    25
100
AcDbLine
 10
218.3586729651
 20
197.8235625822
 30
0.0
 11
219.3878877434
 21
200.5047587465
 31
0.0
  0
ARC
  5
1B1
330
1F
100
AcDbEntity
  8
0
  6
Continuous
 62
     7
370
    25
100
AcDbCircle
 10
217.8918827518
 20
198.002746557
 30
0.0
 40
0.5000000000000058
100
AcDbArc
 50
205.1869385396
 51
339.0
  0
ARC
  5
1B2
330
1F
100
AcDbEntity
  8
0
  6
Continuous
 62
     7
370
    25
100
AcDbCircle
 10
212.0098761542
 20
195.2365219844
 30
0.0
 40
6.000000000000019
100
AcDbArc
 50
25.1869385396
 51
123.7009883559
  0
ARC
  5
1B3
330
1F
100
AcDbEntity
  8
0
  6
Continuous
 62
     7
370
    25
100
AcDbCircle
 10
208.4032940931
 20
200.6441615653
 30
0.0
 40
0.5000000000000194
100
AcDbArc
 50
162.0
 51
303.7009883559
  0
LINE
  5
1B4
330
1F
100
AcDbEntity
  8
0
  6
Continuous
 62
     7
370
    25
100
AcDbLine
 10
207.927765835
 20
200.7986700625
 30
0.0
 11
208.2521145091
 21
201.7969126371
 31
0.0
  0
LINE
  5
1B5
330
1F
100
AcDbEntity
  8
0
  6
Continuous
 62
     7
370
    25
100
AcDbLine
 10
132.7746166501
 20
204.4231028045
 30
0.0
 11
132.9045285434
 21
204.2561650033
 31
0.0
  0
LINE
  5
1B6
330
1F
100
AcDbEntity
  8
0
  6
Continuous
 62
     7
370
    25
100
AcDbLine
 10
136.1908043501
 20
204.6441324327
 30
0.0
 11
132.7746166501
 21
204.4231028045
 31
0.0
  0
LINE
  5
1B7
330
1F
100
AcDbEntity
  8
0
  6
Continuous
 62
     7
370
    25
100
AcDbLine
 10
136.1908043501
 20
204.6441324327
 30
0.0
 11
136.0816003756
 21
204.461723675
 31
0.0
  0
LINE
  5
1B8
330
1F
100
AcDbEntity
  8
0
  6
Continuous
 62
     7
370
    25
100
AcDbLine
 10
136.0816003756
 20
204.461723675
 30
0.0
 11
132.9045285434
 21
204.2561650033
 31
0.0
  0
LINE
  5
1B9
330
1F
100
AcDbEntity
  8
0
  6
Continuous
 62
     7
370
    25
100
AcDbLine
 10
138.0713828315
 20
203.1537853236
 30
0.0
 11
138.3369908988
 21
202.9955538198
 31
0.0
  0
LINE
  5
1BA
330
1F
100
AcDbEntity
  8
0
  6
Continuous
 62
     7
370
    25
100
AcDbLine
 10
134.7260756057
 20
210.4112412795
 30
0.0
 11
138.0713828315
 21
203.1537853236
 31
0.0
  0
LINE
  5
1BB
330
1F
100
AcDbEntity
  8
0
  6
Continuous
 62
     7
370
    25
100
AcDbLine
 10
134.7260756057
 20
210.4112412795
 30
0.0
 11
134.8346703134
 21
210.5936414323
 31
0.0
  0
LINE
  5
1BC
330
1F
100
AcDbEntity
  8
0
  6
Continuous
 62
     7
370
    25
100
AcDbLine
 10
134.8346703134
 20
210.5936414323
 30
0.0
 11
138.3369908988
 21
202.9955538198
 31
0.0
  0
LINE
  5
1BD
330
1F
100
AcDbEntity
  8
0
  6
Continuous
 62
     7
370
    25
100
AcDbLine
 10
134.1967905818
 20
208.9642306172
 30
0.0
 11
134.2276524207
 21
208.4806832396
 31
0.0
  0
LINE
  5
1BE
330
1F
100
AcDbEntity
  8
0
  6
Continuous
 62
     7
370
    25
100
AcDbLine
 10
135.6999209637
 20
205.7143332735
 30
0.0
 11
134.1967905818
 21
208.9642306172
 31
0.0
  0
LINE
  5
1BF
330
1F
100
AcDbEntity
  8
0
  6
Continuous
 62
     7
370
    25
100
AcDbLine
 10
135.6999209637
 20
205.7143332735
 30
0.0
 11
135.4340668765
 21
205.8723112828
 31
0.0
  0
LINE
  5
1C0
330
1F
100
AcDbEntity
  8
0
  6
Continuous
 62
     7
370
    25
100
AcDbLine
 10
135.4340668765
 20
205.8723112828
 30
0.0
 11
134.2276524207
 21
208.4806832396
 31
0.0
  0
LINE
  5
1C1
330
1F
100
AcDbEntity
  8
0
  6
Continuous
 62
     7
370
    25
100
AcDbLine
 10
124.2917068764
 20
209.6307180061
 30
0.0
 11
124.1018809263
 21
209.7894580987
 31
0.0
  0
LINE
  5
1C2
330
1F
100
AcDbEntity
  8
0
  6
Continuous
 62
     7
370
    25
100
AcDbLine
 10
124.9549430943
 20
202.1925929055
 30
0.0
 11
124.2917068764
 21
209.6307180061
 31
0.0
  0
LINE
  5
1C3
330
1F
100
AcDbEntity
  8
0
  6
Continuous
 62
     7
370
    25
100
AcDbLine
 10
124.9549430943
 20
202.1925929055
 30
0.0
 11
124.7962063432
 21
202.0026708705
 31
0.0
  0
LINE
  5
1C4
330
1F
100
AcDbEntity
  8
0
  6
Continuous
 62
     7
370
    25
100
AcDbLine
 10
124.7962063432
 20
202.0026708705
 30
0.0
 11
124.1018809263
 21
209.7894580987
 31
0.0
  0
LINE
  5
1C5
330
1F
100
AcDbEntity
  8
0
  6
Continuous
 62
     7
370
    25
100
AcDbLine
 10
126.073611006
 20
202.292959807
 30
0.0
 11
124.9549430943
 21
202.1925929055
 31
0.0
  0
LINE
  5
1C6
330
1F
100
AcDbEntity
  8
0
  6
Continuous
 62
     7
370
    25
100
AcDbLine
 10
126.073611006
 20
202.292959807
 30
0.0
 11
126.2634274682
 21
202.1343099715
 31
0.0
  0
LINE
  5
1C7
330
1F
100
AcDbEntity
  8
0
  6
Continuous
 62
     7
370
    25
100
AcDbLine
 10
126.2634274682
 20
202.1343099715
 30
0.0
 11
124.7962063432
 21
202.0026708705
 31
0.0
  0
LINE
  5
1C8
330
1F
100
AcDbEntity
  8
0
  6
Continuous
 62
     7
370
    25
100
AcDbLine
 10
125.7611115033
 20
205.7979341103
 30
0.0
 11
126.073611006
 21
202.292959807
 31
0.0
  0
LINE
  5
1C9
330
1F
100
AcDbEntity
  8
0
  6
Continuous
 62
     7
370
    25
100
AcDbLine
 10
125.7611115033
 20
205.7979341103
 30
0.0
 11
125.9509409584
 21
205.6391385473
 31
0.0
  0
LINE
  5
1CA
330
1F
100
AcDbEntity
  8
0
  6
Continuous
 62
     7
370
    25
100
AcDbLine
 10
125.9509409584
 20
205.6391385473
 30
0.0
 11
126.2634274682
 21
202.1343099715
 31
0.0
  0
LINE
  5
1CB
330
1F
100
AcDbEntity
  8
0
  6
Continuous
 62
     7
370
    25
100
AcDbLine
 10
128.1585462312
 20
206.0110111332
 30
0.0
 11
125.7611115033
 21
205.7979341103
 31
0.0
  0
LINE
  5
1CC
330
1F
100
AcDbEntity
  8
0
  6
Continuous
 62
     7
370
    25
100
AcDbLine
 10
128.1585462312
 20
206.0110111332
 30
0.0
 11
128.3483454277
 21
205.8522128809
 31
0.0
  0
LINE
  5
1CD
330
1F
100
AcDbEntity
  8
0
  6
Continuous
 62
     7
370
    25
100
AcDbLine
 10
128.3483454277
 20
205.8522128809
 30
0.0
 11
125.9509409584
 21
205.6391385473
 31
0.0
  0
LINE
  5
1CE
330
1F
100
AcDbEntity
  8
0
  6
Continuous
 62
     7
370
    25
100
AcDbLine
 10
128.0629276865
 20
207.0855711521
 30
0.0
 11
128.1585462312
 21
206.0110111332
 31
0.0
  0
LINE
  5
1CF
330
1F
100
AcDbEntity
  8
0
  6
Continuous
 62
     7
370
    25
100
AcDbLine
 10
128.0629276865
 20
207.0855711521
 30
0.0
 11
128.2217091111
 21
207.2753502358
 31
0.0
  0
LINE
  5
1D0
330
1F
100
AcDbEntity
  8
0
  6
Continuous
 62
     7
370
    25
100
AcDbLine
 10
128.2217091111
 20
207.2753502358
 30
0.0
 11
128.3483454277
 21
205.8522128809
 31
0.0
  0
LINE
  5
1D1
330
1F
100
AcDbEntity
  8
0
  6
Continuous
 62
     7
370
    25
100
AcDbLine
 10
125.6656859606
 20
206.8725112826
 30
0.0
 11
128.0629276865
 21
207.0855711521
 31
0.0
  0
LINE
  5
1D2
330
1F
100
AcDbEntity
  8
0
  6
Continuous
 62
     7
370
    25
100
AcDbLine
 10
125.6656859606
 20
206.8725112826
 30
0.0
 11
125.8243046418
 21
207.0622759021
 31
0.0
  0
LINE
  5
1D3
330
1F
100
AcDbEntity
  8
0
  6
Continuous
 62
     7
370
    25
100
AcDbLine
 10
125.8243046418
 20
207.0622759021
 30
0.0
 11
128.2217091111
 21
207.2753502358
 31
0.0
  0
LINE
  5
1D4
330
1F
100
AcDbEntity
  8
0
  6
Continuous
 62
     7
370
    25
100
AcDbLine
 10
125.5072605367
 20
208.6342488906
 30
0.0
 11
125.6656859606
 21
206.8725112826
 31
0.0
  0
LINE
  5
1D5
330
1F
100
AcDbEntity
  8
0
  6
Continuous
 62
     7
370
    25
100
AcDbLine
 10
125.5072605367
 20
208.6342488906
 30
0.0
 11
125.6972226633
 21
208.475465119
 31
0.0
  0
LINE
  5
1D6
330
1F
100
AcDbEntity
  8
0
  6
Continuous
 62
     7
370
    25
100
AcDbLine
 10
125.6972226633
 20
208.475465119
 30
0.0
 11
125.8243046418
 21
207.0622759021
 31
0.0
  0
LINE
  5
1D7
330
1F
100
AcDbEntity
  8
0
  6
Continuous
 62
     7
370
    25
100
AcDbLine
 10
127.9048898199
 20
208.847343205
 30
0.0
 11
125.5072605367
 21
208.6342488906
 31
0.0
  0
LINE
  5
1D8
330
1F
100
AcDbEntity
  8
0
  6
Continuous
 62
     7
370
    25
100
AcDbLine
 10
127.9048898199
 20
208.847343205
 30
0.0
 11
128.0946271326
 21
208.6885394527
 31
0.0
  0
LINE
  5
1D9
330
1F
100
AcDbEntity
  8
0
  6
Continuous
 62
     7
370
    25
100
AcDbLine
 10
128.0946271326
 20
208.6885394527
 30
0.0
 11
125.6972226633
 21
208.475465119
 31
0.0
  0
LINE
  5
1DA
330
1F
100
AcDbEntity
  8
0
  6
Continuous
 62
     7
370
    25
100
AcDbLine
 10
127.80766811
 20
209.9443315874
 30
0.0
 11
127.9048898199
 21
208.847343205
 31
0.0
  0
LINE
  5
1DB
330
1F
100
AcDbEntity
  8
0
  6
Continuous
 62
     7
370
    25
100
AcDbLine
 10
127.80766811
 20
209.9443315874
 30
0.0
 11
127.9665065207
 21
210.1341715333
 31
0.0
  0
LINE
  5
1DC
330
1F
100
AcDbEntity
  8
0
  6
Continuous
 62
     7
370
    25
100
AcDbLine
 10
127.9665065207
 20
210.1341715333
 30
0.0
 11
128.0946271326
 21
208.6885394527
 31
0.0
  0
LINE
  5
1DD
330
1F
100
AcDbEntity
  8
0
  6
Continuous
 62
     7
370
    25
100
AcDbLine
 10
124.2917068764
 20
209.6307180061
 30
0.0
 11
127.80766811
 21
209.9443315874
 31
0.0
  0
LINE
  5
1DE
330
1F
100
AcDbEntity
  8
0
  6
Continuous
 62
     7
370
    25
100
AcDbLine
 10
124.1018809263
 20
209.7894580987
 30
0.0
 11
127.9665065207
 21
210.1341715333
 31
0.0
  0
LINE
  5
1DF
330
1F
100
AcDbEntity
  8
0
  6
Continuous
 62
     7
370
    25
100
AcDbLine
 10
133.1177490302
 20
205.545598627
 30
0.0
 11
135.6999209637
 21
205.7143332735
 31
0.0
  0
LINE
  5
1E0
330
1F
100
AcDbEntity
  8
0
  6
Continuous
 62
     7
370
    25
100
AcDbLine
 10
134.1967905818
 20
208.9642306172
 30
0.0
 11
133.1177490302
 21
205.545598627
 31
0.0
  0
LINE
  5
1E1
330
1F
100
AcDbEntity
  8
0
  6
Continuous
 62
     7
370
    25
100
AcDbLine
 10
133.462709948
 20
210.3291760234
 30
0.0
 11
134.7260756057
 21
210.4112412795
 31
0.0
  0
LINE
  5
1E2
330
1F
100
AcDbEntity
  8
0
  6
Continuous
 62
     7
370
    25
100
AcDbLine
 10
138.0713828315
 20
203.1537853236
 30
0.0
 11
136.9036808731
 21
203.0785709243
 31
0.0
  0
LINE
  5
1E3
330
1F
100
AcDbEntity
  8
0
  6
Continuous
 62
     7
370
    25
100
AcDbLine
 10
136.9036808731
 20
203.0785709243
 30
0.0
 11
136.1908043501
 21
204.6441324327
 31
0.0
  0
LINE
  5
1E4
330
1F
100
AcDbEntity
  8
0
  6
Continuous
 62
     7
370
    25
100
AcDbLine
 10
132.7746166501
 20
204.4231028045
 30
0.0
 11
132.2423484871
 21
202.7772732793
 31
0.0
  0
LINE
  5
1E5
330
1F
100
AcDbEntity
  8
0
  6
Continuous
 62
     7
370
    25
100
AcDbLine
 10
132.2423484871
 20
202.7772732793
 30
0.0
 11
131.0744006411
 21
202.7015436415
 31
0.0
  0
LINE
  5
1E6
330
1F
100
AcDbEntity
  8
0
  6
Continuous
 62
     7
370
    25
100
AcDbLine
 10
131.0744006411
 20
202.7015436415
 30
0.0
 11
133.462709948
 21
210.3291760234
 31
0.0
  0
LINE
  5
1E7
330
1F
100
AcDbEntity
  8
0
  6
Continuous
 62
     7
370
    25
100
AcDbLine
 10
133.462709948
 20
210.3291760234
 30
0.0
 11
133.3315920722
 21
210.4960050116
 31
0.0
  0
LINE
  5
1E8
330
1F
100
AcDbEntity
  8
0
  6
Continuous
 62
     7
370
    25
100
AcDbLine
 10
131.0744006411
 20
202.7015436415
 30
0.0
 11
130.8312064057
 21
202.5104301858
 31
0.0
  0
LINE
  5
1E9
330
1F
100
AcDbEntity
  8
0
  6
Continuous
 62
     7
370
    25
100
AcDbLine
 10
130.8312064057
 20
202.5104301858
 30
0.0
 11
133.3315920722
 21
210.4960050116
 31
0.0
  0
LINE
  5
1EA
330
1F
100
AcDbEntity
  8
0
  6
Continuous
 62
     7
370
    25
100
AcDbLine
 10
132.2423484871
 20
202.7772732793
 30
0.0
 11
132.3722658357
 21
202.6103523466
 31
0.0
  0
LINE
  5
1EB
330
1F
100
AcDbEntity
  8
0
  6
Continuous
 62
     7
370
    25
100
AcDbLine
 10
132.3722658357
 20
202.6103523466
 30
0.0
 11
130.8312064057
 21
202.5104301858
 31
0.0
  0
LINE
  5
1EC
330
1F
100
AcDbEntity
  8
0
  6
Continuous
 62
     7
370
    25
100
AcDbLine
 10
132.9045285434
 20
204.2561650033
 30
0.0
 11
132.3722658357
 21
202.6103523466
 31
0.0
  0
LINE
  5
1ED
330
1F
100
AcDbEntity
  8
0
  6
Continuous
 62
     7
370
    25
100
AcDbLine
 10
143.5113375341
 20
207.1913497007
 30
0.0
 11
143.7284945212
 21
207.1818842231
 31
0.0
  0
LINE
  5
1EE
330
1F
100
AcDbEntity
  8
0
  6
Continuous
 62
     7
370
    25
100
AcDbLine
 10
146.1375759132
 20
210.4477571259
 30
0.0
 11
143.5113375341
 21
207.1913497007
 31
0.0
  0
LINE
  5
1EF
330
1F
100
AcDbEntity
  8
0
  6
Continuous
 62
     7
370
    25
100
AcDbLine
 10
146.1375759132
 20
210.4477571259
 30
0.0
 11
146.4995462702
 21
210.6178531598
 31
0.0
  0
LINE
  5
1F0
330
1F
100
AcDbEntity
  8
0
  6
Continuous
 62
     7
370
    25
100
AcDbLine
 10
146.4995462702
 20
210.6178531598
 30
0.0
 11
143.7284945212
 21
207.1818842231
 31
0.0
  0
LINE
  5
1F1
330
1F
100
AcDbEntity
  8
0
  6
Continuous
 62
     7
370
    25
100
AcDbLine
 10
136.9036808731
 20
203.0785709243
 30
0.0
 11
136.7944615312
 21
202.8961959152
 31
0.0
  0
LINE
  5
1F2
330
1F
100
AcDbEntity
  8
0
  6
Continuous
 62
     7
370
    25
100
AcDbLine
 10
136.7944615312
 20
202.8961959152
 30
0.0
 11
136.0816003756
 21
204.461723675
 31
0.0
  0
LINE
  5
1F3
330
1F
100
AcDbEntity
  8
0
  6
Continuous
 62
     7
370
    25
100
AcDbLine
 10
138.3369908988
 20
202.9955538198
 30
0.0
 11
136.7944615312
 21
202.8961959152
 31
0.0
  0
LINE
  5
1F4
330
1F
100
AcDbEntity
  8
0
  6
Continuous
 62
     7
370
    25
100
AcDbLine
 10
142.383759775
 20
207.4904813522
 30
0.0
 11
142.5656483968
 21
207.9925506422
 31
0.0
  0
LINE
  5
1F5
330
1F
100
AcDbEntity
  8
0
  6
Continuous
 62
     7
370
    25
100
AcDbLine
 10
142.4250805611
 20
210.4994024557
 30
0.0
 11
142.383759775
 21
207.4904813522
 31
0.0
  0
LINE
  5
1F6
330
1F
100
AcDbEntity
  8
0
  6
Continuous
 62
     7
370
    25
100
AcDbLine
 10
142.4250805611
 20
210.4994024557
 30
0.0
 11
142.6024422048
 21
210.6718236141
 31
0.0
  0
LINE
  5
1F7
330
1F
100
AcDbEntity
  8
0
  6
Continuous
 62
     7
370
    25
100
AcDbLine
 10
142.6024422048
 20
210.6718236141
 30
0.0
 11
142.5656483968
 21
207.9925506422
 31
0.0
  0
LINE
  5
1F8
330
1F
100
AcDbEntity
  8
0
  6
Continuous
 62
     7
370
    25
100
AcDbLine
 10
133.3315920722
 20
210.4960050116
 30
0.0
 11
134.8346703134
 21
210.5936414323
 31
0.0
  0
LINE
  5
1F9
330
1F
100
AcDbEntity
  8
0
  6
Continuous
 62
     7
370
    25
100
AcDbLine
 10
141.2772180861
 20
210.5160649664
 30
0.0
 11
142.4250805611
 21
210.4994024557
 31
0.0
  0
LINE
  5
1FA
330
1F
100
AcDbEntity
  8
0
  6
Continuous
 62
     7
370
    25
100
AcDbLine
 10
142.383759775
 20
207.4904813522
 30
0.0
 11
144.7968078387
 21
210.4658971555
 31
0.0
  0
LINE
  5
1FB
330
1F
100
AcDbEntity
  8
0
  6
Continuous
 62
     7
370
    25
100
AcDbLine
 10
144.7968078387
 20
210.4658971555
 30
0.0
 11
146.1375759132
 21
210.4477571259
 31
0.0
  0
LINE
  5
1FC
330
1F
100
AcDbEntity
  8
0
  6
Continuous
 62
     7
370
    25
100
AcDbLine
 10
143.5113375341
 20
207.1913497007
 30
0.0
 11
146.3239416405
 21
203.0047937406
 31
0.0
  0
LINE
  5
1FD
330
1F
100
AcDbEntity
  8
0
  6
Continuous
 62
     7
370
    25
100
AcDbLine
 10
146.3239416405
 20
203.0047937406
 30
0.0
 11
144.9909210537
 21
203.0229468651
 31
0.0
  0
LINE
  5
1FE
330
1F
100
AcDbEntity
  8
0
  6
Continuous
 62
     7
370
    25
100
AcDbLine
 10
144.9909210537
 20
203.0229468651
 30
0.0
 11
142.3748785881
 21
206.9009929219
 31
0.0
  0
LINE
  5
1FF
330
1F
100
AcDbEntity
  8
0
  6
Continuous
 62
     7
370
    25
100
AcDbLine
 10
142.3748785881
 20
206.9009929219
 30
0.0
 11
142.3207608027
 21
203.0606535048
 31
0.0
  0
LINE
  5
200
330
1F
100
AcDbEntity
  8
0
  6
Continuous
 62
     7
370
    25
100
AcDbLine
 10
142.3207608027
 20
203.0606535048
 30
0.0
 11
141.1729355433
 21
203.0773154753
 31
0.0
  0
LINE
  5
201
330
1F
100
AcDbEntity
  8
0
  6
Continuous
 62
     7
370
    25
100
AcDbLine
 10
141.1729355433
 20
203.0773154753
 30
0.0
 11
141.2772180861
 21
210.5160649664
 31
0.0
  0
LINE
  5
202
330
1F
100
AcDbEntity
  8
0
  6
Continuous
 62
     7
370
    25
100
AcDbLine
 10
133.1177490302
 20
205.545598627
 30
0.0
 11
133.3616122275
 21
205.7368846297
 31
0.0
  0
LINE
  5
203
330
1F
100
AcDbEntity
  8
0
  6
Continuous
 62
     7
370
    25
100
AcDbLine
 10
134.2276524207
 20
208.4806832396
 30
0.0
 11
133.3616122275
 21
205.7368846297
 31
0.0
  0
LINE
  5
204
330
1F
100
AcDbEntity
  8
0
  6
Continuous
 62
     7
370
    25
100
AcDbLine
 10
133.3616122275
 20
205.7368846297
 30
0.0
 11
135.4340668765
 21
205.8723112828
 31
0.0
  0
LINE
  5
205
330
1F
100
AcDbEntity
  8
0
  6
Continuous
 62
     7
370
    25
100
AcDbLine
 10
148.8426726834
 20
203.0639254693
 30
0.0
 11
148.5794471584
 21
202.9015491559
 31
0.0
  0
LINE
  5
206
330
1F
100
AcDbEntity
  8
0
  6
Continuous
 62
     7
370
    25
100
AcDbLine
 10
150.0189226672
 20
203.0066914892
 30
0.0
 11
148.8426726834
 21
203.0639254693
 31
0.0
  0
LINE
  5
207
330
1F
100
AcDbEntity
  8
0
  6
Continuous
 62
     7
370
    25
100
AcDbLine
 10
150.0189226672
 20
203.0066914892
 30
0.0
 11
150.1290996502
 21
202.8261461539
 31
0.0
  0
LINE
  5
208
330
1F
100
AcDbEntity
  8
0
  6
Continuous
 62
     7
370
    25
100
AcDbLine
 10
150.1290996502
 20
202.8261461539
 30
0.0
 11
148.5794471584
 21
202.9015491559
 31
0.0
  0
LINE
  5
209
330
1F
100
AcDbEntity
  8
0
  6
Continuous
 62
     7
370
    25
100
AcDbLine
 10
150.7377590961
 20
204.5893443591
 30
0.0
 11
150.0189226672
 21
203.0066914892
 31
0.0
  0
LINE
  5
20A
330
1F
100
AcDbEntity
  8
0
  6
Continuous
 62
     7
370
    25
100
AcDbLine
 10
150.7377590961
 20
204.5893443591
 30
0.0
 11
150.8479258382
 21
204.4087764765
 31
0.0
  0
LINE
  5
20B
330
1F
100
AcDbEntity
  8
0
  6
Continuous
 62
     7
370
    25
100
AcDbLine
 10
150.8479258382
 20
204.4087764765
 30
0.0
 11
150.1290996502
 21
202.8261461539
 31
0.0
  0
LINE
  5
20C
330
1F
100
AcDbEntity
  8
0
  6
Continuous
 62
     7
370
    25
100
AcDbLine
 10
154.1738387412
 20
204.4214843868
 30
0.0
 11
150.7377590961
 21
204.5893443591
 31
0.0
  0
LINE
  5
20D
330
1F
100
AcDbEntity
  8
0
  6
Continuous
 62
     7
370
    25
100
AcDbLine
 10
154.1738387412
 20
204.4214843868
 30
0.0
 11
154.0446780073
 21
204.2526081725
 31
0.0
  0
LINE
  5
20E
330
1F
100
AcDbEntity
  8
0
  6
Continuous
 62
     7
370
    25
100
AcDbLine
 10
154.0446780073
 20
204.2526081725
 30
0.0
 11
150.8479258382
 21
204.4087764765
 31
0.0
  0
LINE
  5
20F
330
1F
100
AcDbEntity
  8
0
  6
Continuous
 62
     7
370
    25
100
AcDbLine
 10
154.707695756
 20
202.7762415271
 30
0.0
 11
154.1738387412
 21
204.4214843868
 31
0.0
  0
LINE
  5
210
330
1F
100
AcDbEntity
  8
0
  6
Continuous
 62
     7
370
    25
100
AcDbLine
 10
154.707695756
 20
202.7762415271
 30
0.0
 11
154.5785301109
 21
202.6073804479
 31
0.0
  0
LINE
  5
211
330
1F
100
AcDbEntity
  8
0
  6
Continuous
 62
     7
370
    25
100
AcDbLine
 10
154.5785301109
 20
202.6073804479
 30
0.0
 11
154.0446780073
 21
204.2526081725
 31
0.0
  0
LINE
  5
212
330
1F
100
AcDbEntity
  8
0
  6
Continuous
 62
     7
370
    25
100
AcDbLine
 10
155.8836769286
 20
202.7186470629
 30
0.0
 11
154.707695756
 21
202.7762415271
 31
0.0
  0
LINE
  5
213
330
1F
100
AcDbEntity
  8
0
  6
Continuous
 62
     7
370
    25
100
AcDbLine
 10
155.8836769286
 20
202.7186470629
 30
0.0
 11
156.1296525403
 21
202.5314131898
 31
0.0
  0
LINE
  5
214
330
1F
100
AcDbEntity
  8
0
  6
Continuous
 62
     7
370
    25
100
AcDbLine
 10
156.1296525403
 20
202.5314131898
 30
0.0
 11
154.5785301109
 21
202.6073804479
 31
0.0
  0
LINE
  5
215
330
1F
100
AcDbEntity
  8
0
  6
Continuous
 62
     7
370
    25
100
AcDbLine
 10
153.3679216338
 20
210.3488589383
 30
0.0
 11
155.8836769286
 21
202.7186470629
 31
0.0
  0
LINE
  5
216
330
1F
100
AcDbEntity
  8
0
  6
Continuous
 62
     7
370
    25
100
AcDbLine
 10
153.3679216338
 20
210.3488589383
 30
0.0
 11
153.4964969518
 21
210.5176967057
 31
0.0
  0
LINE
  5
217
330
1F
100
AcDbEntity
  8
0
  6
Continuous
 62
     7
370
    25
100
AcDbLine
 10
153.4964969518
 20
210.5176967057
 30
0.0
 11
156.1296525403
 21
202.5314131898
 31
0.0
  0
ARC
  5
218
330
1F
100
AcDbEntity
  8
0
  6
Continuous
 62
     7
370
    25
100
AcDbCircle
 10
80.7210111338
 20
192.4077255561
 30
0.0
 40
0.5000000000000239
100
AcDbArc
 50
18.5
 51
159.9421629566
  0
ARC
  5
219
330
1F
100
AcDbEntity
  8
0
  6
Continuous
 62
     7
370
    25
100
AcDbCircle
 10
72.1474204167
 20
188.623720313
 30
0.0
 40
0.500000000000009
100
AcDbArc
 50
67.6869385396
 51
201.5
  0
ARC
  5
21A
330
1F
100
AcDbEntity
  8
0
  6
Continuous
 62
     7
370
    25
100
AcDbCircle
 10
205.9135591799
 20
192.9815454107
 30
0.0
 40
0.5000000000000107
100
AcDbArc
 50
20.2990116441
 51
162.0
  0
ARC
  5
21B
330
1F
100
AcDbEntity
  8
0
  6
Continuous
 62
     7
370
    25
100
AcDbCircle
 10
214.5300933951
 20
189.244985866
 30
0.0
 40
0.5000000000000282
100
AcDbArc
 50
339.0
 51
112.8130614604
  0
ARC
  5
21C
330
1F
100
AcDbEntity
  8
0
  6
Continuous
 62
     7
370
    25
100
AcDbCircle
 10
74.6152563428
 20
194.6370210573
 30
0.0
 40
6.000000000000005
100
AcDbArc
 50
247.6869385396
 51
339.9421629566
  0
ARC
  5
21D
330
1F
100
AcDbEntity
  8
0
  6
Continuous
 62
     7
370
    25
100
AcDbCircle
 10
212.0098761542
 20
195.2365219844
 30
0.0
 40
6.000000000000012
100
AcDbArc
 50
200.2990116441
 51
292.8130614604
  0
ARC
  5
21E
330
1F
100
AcDbEntity
  8
0
  6
Continuous
 62
     7
370
    25
100
AcDbCircle
 10
83.3662576871
 20
192.3807802209
 30
0.0
 40
1.999999999999983
100
AcDbArc
 50
198.5
 51
287.9197796576
  0
ARC
  5
21F
330
1F
100
AcDbEntity
  8
0
  6
Continuous
 62
     7
370
    25
100
AcDbCircle
 10
144.1340667226
 20
4.4618525286
 30
0.0
 40
195.5000000000001
100
AcDbArc
 50
72.5802203424
 51
107.9197796576
  0
ARC
  5
220
330
1F
100
AcDbEntity
  8
0
  6
Continuous
 62
     7
370
    25
100
AcDbCircle
 10
203.2596807128
 20
192.9039172867
 30
0.0
 40
1.999999999999989
100
AcDbArc
 50
252.5802203424
 51
342.0
  0
LINE
  5
221
330
1F
100
AcDbEntity
  8
0
  6
Continuous
 62
     7
370
    25
100
AcDbLine
 10
205.1617937454
 20
192.2858832979
 30
0.0
 11
205.4380309217
 21
193.1360539079
 31
0.0
  0
LINE
  5
222
330
1F
100
AcDbEntity
  8
0
  6
Continuous
 62
     7
370
    25
100
AcDbLine
 10
81.1951729614
 20
192.5663778843
 30
0.0
 11
81.4696103766
 21
191.7461709081
 31
0.0
  0
LINE
  5
223
330
1F
100
AcDbEntity
  8
0
  6
Continuous
 62
     7
370
    25
100
AcDbLine
 10
214.0121032264
 20
186.500361287
 30
0.0
 11
214.9968836083
 21
189.0658018912
 31
0.0
  0
ARC
  5
224
330
1F
100
AcDbEntity
  8
0
  6
Continuous
 62
     7
370
    25
100
AcDbCircle
 10
212.1449423734
 20
187.2170971861
 30
0.0
 40
2.000000000000023
100
AcDbArc
 50
249.5906886028
 51
339.0
  0
ARC
  5
225
330
1F
100
AcDbEntity
  8
0
  6
Continuous
 62
     7
370
    25
100
AcDbCircle
 10
144.1436912631
 20
4.4581580137
 30
0.0
 40
193.0
100
AcDbArc
 50
69.5906886028
 51
110.9093113972
  0
ARC
  5
226
330
1F
100
AcDbEntity
  8
0
  6
Continuous
 62
     7
370
    25
100
AcDbCircle
 10
74.5501770617
 20
186.6167229539
 30
0.0
 40
2.000000000000025
100
AcDbArc
 50
201.5
 51
290.9093113972
  0
LINE
  5
227
330
1F
100
AcDbEntity
  8
0
  6
Continuous
 62
     7
370
    25
100
AcDbLine
 10
71.6822116327
 20
188.4404696996
 30
0.0
 11
72.6893419257
 21
185.8837205005
 31
0.0
  0
LINE
  5
228
330
1F
100
AcDbEntity
  8
0
  6
Continuous
 62
     7
370
    25
100
AcDbLine
 10
152.6724907131
 20
208.9590019717
 30
0.0
 11
152.6484236511
 21
208.4753460563
 31
0.0
  0
LINE
  5
229
330
1F
100
AcDbEntity
  8
0
  6
Continuous
 62
     7
370
    25
100
AcDbLine
 10
153.802749286
 20
205.5480840536
 30
0.0
 11
152.6724907131
 21
208.9590019717
 31
0.0
  0
LINE
  5
22A
330
1F
100
AcDbEntity
  8
0
  6
Continuous
 62
     7
370
    25
100
AcDbLine
 10
153.802749286
 20
205.5480840536
 30
0.0
 11
153.5563758786
 21
205.7353088686
 31
0.0
  0
LINE
  5
22B
330
1F
100
AcDbEntity
  8
0
  6
Continuous
 62
     7
370
    25
100
AcDbLine
 10
153.5563758786
 20
205.7353088686
 30
0.0
 11
152.6484236511
 21
208.4753460563
 31
0.0
  0
LINE
  5
22C
330
1F
100
AcDbEntity
  8
0
  6
Continuous
 62
     7
370
    25
100
AcDbLine
 10
141.2772180861
 20
210.5160649664
 30
0.0
 11
141.1047119061
 21
210.6935648485
 31
0.0
  0
LINE
  5
22D
330
1F
100
AcDbEntity
  8
0
  6
Continuous
 62
     7
370
    25
100
AcDbLine
 10
141.1729355433
 20
203.0773154753
 30
0.0
 11
140.995523891
 21
202.9048950428
 31
0.0
  0
LINE
  5
22E
330
1F
100
AcDbEntity
  8
0
  6
Continuous
 62
     7
370
    25
100
AcDbLine
 10
140.995523891
 20
202.9048950428
 30
0.0
 11
141.1047119061
 21
210.6935648485
 31
0.0
  0
LINE
  5
22F
330
1F
100
AcDbEntity
  8
0
  6
Continuous
 62
     7
370
    25
100
AcDbLine
 10
142.3207608027
 20
203.0606535048
 30
0.0
 11
142.4932541897
 21
202.8831538084
 31
0.0
  0
LINE
  5
230
330
1F
100
AcDbEntity
  8
0
  6
Continuous
 62
     7
370
    25
100
AcDbLine
 10
142.4932541897
 20
202.8831538084
 30
0.0
 11
140.995523891
 21
202.9048950428
 31
0.0
  0
LINE
  5
231
330
1F
100
AcDbEntity
  8
0
  6
Continuous
 62
     7
370
    25
100
AcDbLine
 10
142.3748785881
 20
206.9009929219
 30
0.0
 11
142.5419734724
 21
206.3404013746
 31
0.0
  0
LINE
  5
232
330
1F
100
AcDbEntity
  8
0
  6
Continuous
 62
     7
370
    25
100
AcDbLine
 10
142.5419734724
 20
206.3404013746
 30
0.0
 11
142.4932541897
 21
202.8831538084
 31
0.0
  0
LINE
  5
233
330
1F
100
AcDbEntity
  8
0
  6
Continuous
 62
     7
370
    25
100
AcDbLine
 10
144.9909210537
 20
203.0229468651
 30
0.0
 11
144.8970377692
 21
202.8492318201
 31
0.0
  0
LINE
  5
234
330
1F
100
AcDbEntity
  8
0
  6
Continuous
 62
     7
370
    25
100
AcDbLine
 10
144.8970377692
 20
202.8492318201
 30
0.0
 11
142.5419734724
 21
206.3404013746
 31
0.0
  0
LINE
  5
235
330
1F
100
AcDbEntity
  8
0
  6
Continuous
 62
     7
370
    25
100
AcDbLine
 10
146.3239416405
 20
203.0047937406
 30
0.0
 11
146.6553352534
 21
202.8252872588
 31
0.0
  0
LINE
  5
236
330
1F
100
AcDbEntity
  8
0
  6
Continuous
 62
     7
370
    25
100
AcDbLine
 10
146.6553352534
 20
202.8252872588
 30
0.0
 11
144.8970377692
 21
202.8492318201
 31
0.0
  0
LINE
  5
237
330
1F
100
AcDbEntity
  8
0
  6
Continuous
 62
     7
370
    25
100
AcDbLine
 10
143.7284945212
 20
207.1818842231
 30
0.0
 11
146.6553352534
 21
202.8252872588
 31
0.0
  0
LINE
  5
238
330
1F
100
AcDbEntity
  8
0
  6
Continuous
 62
     7
370
    25
100
AcDbLine
 10
159.5722939915
 20
210.0194376891
 30
0.0
 11
160.7080461087
 21
209.918981482
 31
0.0
  0
LINE
  5
239
330
1F
100
AcDbEntity
  8
0
  6
Continuous
 62
     7
370
    25
100
AcDbLine
 10
160.7080461087
 20
209.918981482
 30
0.0
 11
160.1493588987
 21
203.5337599707
 31
0.0
  0
LINE
  5
23A
330
1F
100
AcDbEntity
  8
0
  6
Continuous
 62
     7
370
    25
100
AcDbLine
 10
160.1493588987
 20
203.5337599707
 30
0.0
 11
162.3134986773
 21
203.3456006851
 31
0.0
  0
LINE
  5
23B
330
1F
100
AcDbEntity
  8
0
  6
Continuous
 62
     7
370
    25
100
AcDbLine
 10
162.3134986773
 20
203.3456006851
 30
0.0
 11
162.2202096226
 21
202.2779273802
 31
0.0
  0
LINE
  5
23C
330
1F
100
AcDbEntity
  8
0
  6
Continuous
 62
     7
370
    25
100
AcDbLine
 10
162.2202096226
 20
202.2779273802
 30
0.0
 11
158.9203789884
 21
202.5668486981
 31
0.0
  0
LINE
  5
23D
330
1F
100
AcDbEntity
  8
0
  6
Continuous
 62
     7
370
    25
100
AcDbLine
 10
158.9203789884
 20
202.5668486981
 30
0.0
 11
159.5722939915
 21
210.0194376891
 31
0.0
  0
LINE
  5
23E
330
1F
100
AcDbEntity
  8
0
  6
Continuous
 62
     7
370
    25
100
AcDbLine
 10
144.7968078387
 20
210.4658971555
 30
0.0
 11
144.7143442474
 21
210.6420061944
 31
0.0
  0
LINE
  5
23F
330
1F
100
AcDbEntity
  8
0
  6
Continuous
 62
     7
370
    25
100
AcDbLine
 10
144.7143442474
 20
210.6420061944
 30
0.0
 11
146.4995462702
 21
210.6178531598
 31
0.0
  0
LINE
  5
240
330
1F
100
AcDbEntity
  8
0
  6
Continuous
 62
     7
370
    25
100
AcDbLine
 10
142.5656483968
 20
207.9925506422
 30
0.0
 11
144.7143442474
 21
210.6420061944
 31
0.0
  0
LINE
  5
241
330
1F
100
AcDbEntity
  8
0
  6
Continuous
 62
     7
370
    25
100
AcDbLine
 10
162.2202096226
 20
202.2779273802
 30
0.0
 11
162.3792892905
 21
202.0883521903
 31
0.0
  0
LINE
  5
242
330
1F
100
AcDbEntity
  8
0
  6
Continuous
 62
     7
370
    25
100
AcDbLine
 10
162.3134986773
 20
203.3456006851
 30
0.0
 11
162.5030491906
 21
203.5047578112
 31
0.0
  0
LINE
  5
243
330
1F
100
AcDbEntity
  8
0
  6
Continuous
 62
     7
370
    25
100
AcDbLine
 10
162.5030491906
 20
203.5047578112
 30
0.0
 11
162.3792892905
 21
202.0883521903
 31
0.0
  0
LINE
  5
244
330
1F
100
AcDbEntity
  8
0
  6
Continuous
 62
     7
370
    25
100
AcDbLine
 10
141.1047119061
 20
210.6935648485
 30
0.0
 11
142.6024422048
 21
210.6718236141
 31
0.0
  0
LINE
  5
245
330
1F
100
AcDbEntity
  8
0
  6
Continuous
 62
     7
370
    25
100
AcDbLine
 10
151.2081795457
 20
205.6748643616
 30
0.0
 11
153.802749286
 21
205.5480840536
 31
0.0
  0
LINE
  5
246
330
1F
100
AcDbEntity
  8
0
  6
Continuous
 62
     7
370
    25
100
AcDbLine
 10
151.2081795457
 20
205.6748643616
 30
0.0
 11
151.4721223887
 21
205.8371532305
 31
0.0
  0
LINE
  5
247
330
1F
100
AcDbEntity
  8
0
  6
Continuous
 62
     7
370
    25
100
AcDbLine
 10
151.4721223887
 20
205.8371532305
 30
0.0
 11
153.5563758786
 21
205.7353088686
 31
0.0
  0
LINE
  5
248
330
1F
100
AcDbEntity
  8
0
  6
Continuous
 62
     7
370
    25
100
AcDbLine
 10
152.6724907131
 20
208.9590019717
 30
0.0
 11
151.2081795457
 21
205.6748643616
 31
0.0
  0
LINE
  5
249
330
1F
100
AcDbEntity
  8
0
  6
Continuous
 62
     7
370
    25
100
AcDbLine
 10
152.0950682886
 20
210.4117518235
 30
0.0
 11
153.3679216338
 21
210.3488589383
 31
0.0
  0
LINE
  5
24A
330
1F
100
AcDbEntity
  8
0
  6
Continuous
 62
     7
370
    25
100
AcDbLine
 10
148.8426726834
 20
203.0639254693
 30
0.0
 11
152.0950682886
 21
210.4117518235
 31
0.0
  0
LINE
  5
24B
330
1F
100
AcDbEntity
  8
0
  6
Continuous
 62
     7
370
    25
100
AcDbLine
 10
152.0950682886
 20
210.4117518235
 30
0.0
 11
151.9836971365
 21
210.5924455725
 31
0.0
  0
LINE
  5
24C
330
1F
100
AcDbEntity
  8
0
  6
Continuous
 62
     7
370
    25
100
AcDbLine
 10
148.5794471584
 20
202.9015491559
 30
0.0
 11
151.9836971365
 21
210.5924455725
 31
0.0
  0
LINE
  5
24D
330
1F
100
AcDbEntity
  8
0
  6
Continuous
 62
     7
370
    25
100
AcDbLine
 10
158.9203789884
 20
202.5668486981
 30
0.0
 11
158.7308206177
 21
202.4077990026
 31
0.0
  0
LINE
  5
24E
330
1F
100
AcDbEntity
  8
0
  6
Continuous
 62
     7
370
    25
100
AcDbLine
 10
162.3792892905
 20
202.0883521903
 30
0.0
 11
158.7308206177
 21
202.4077990026
 31
0.0
  0
LINE
  5
24F
330
1F
100
AcDbEntity
  8
0
  6
Continuous
 62
     7
370
    25
100
AcDbLine
 10
160.7080461087
 20
209.918981482
 30
0.0
 11
160.8975947728
 21
210.077876519
 31
0.0
  0
LINE
  5
250
330
1F
100
AcDbEntity
  8
0
  6
Continuous
 62
     7
370
    25
100
AcDbLine
 10
159.5722939915
 20
210.0194376891
 30
0.0
 11
159.4132449549
 21
210.2091658649
 31
0.0
  0
LINE
  5
251
330
1F
100
AcDbEntity
  8
0
  6
Continuous
 62
     7
370
    25
100
AcDbLine
 10
159.4132449549
 20
210.2091658649
 30
0.0
 11
160.8975947728
 21
210.077876519
 31
0.0
  0
LINE
  5
252
330
1F
100
AcDbEntity
  8
0
  6
Continuous
 62
     7
370
    25
100
AcDbLine
 10
160.1493588987
 20
203.5337599707
 30
0.0
 11
160.3389303356
 21
203.6929152776
 31
0.0
  0
LINE
  5
253
330
1F
100
AcDbEntity
  8
0
  6
Continuous
 62
     7
370
    25
100
AcDbLine
 10
160.3389303356
 20
203.6929152776
 30
0.0
 11
162.5030491906
 21
203.5047578112
 31
0.0
  0
LINE
  5
254
330
1F
100
AcDbEntity
  8
0
  6
Continuous
 62
     7
370
    25
100
AcDbLine
 10
160.8975947728
 20
210.077876519
 30
0.0
 11
160.3389303356
 21
203.6929152776
 31
0.0
  0
LINE
  5
255
330
1F
100
AcDbEntity
  8
0
  6
Continuous
 62
     7
370
    25
100
AcDbLine
 10
158.7308206177
 20
202.4077990026
 30
0.0
 11
159.4132449549
 21
210.2091658649
 31
0.0
  0
LINE
  5
256
330
1F
100
AcDbEntity
  8
0
  6
Continuous
 62
     7
370
    25
100
AcDbLine
 10
151.9836971365
 20
210.5924455725
 30
0.0
 11
153.4964969518
 21
210.5176967057
 31
0.0
  0
LINE
  5
257
330
1F
100
AcDbEntity
  8
0
  6
Continuous
 62
     7
370
    25
100
AcDbLine
 10
152.6484236511
 20
208.4753460563
 30
0.0
 11
151.4721223887
 21
205.8371532305
 31
0.0
  0
LWPOLYLINE
  5
258
330
1F
100
AcDbEntity
  8
0
  6
Continuous
 62
     7
370
    25
100
AcDbPolyline
 90
        3
 70
   128
 43
0.0
 10
132.8066105994
 20
212.3850221486
 10
132.8018740186
 20
212.4673777485
 10
132.7965614912
 20
212.5599458529
  0
SPLINE
  5
259
330
1F
100
AcDbEntity
  8
0
  6
Continuous
 62
     7
370
    25
100
AcDbSpline
210
0.0
220
0.0
230
1.0
 70
     8
 71
     3
 72
    18
 73
    14
 74
     0
 42
0.00000001
 43
0.00000001
 40
0.0080715955917431
 40
0.0080715955917431
 40
0.0080715955917431
 40
0.0080715955917431
 40
0.125
 40
0.125
 40
0.25
 40
0.25
 40
0.5
 40
0.5
 40
0.75
 40
0.75
 40
0.875
 40
0.875
 40
0.9924603147078093
 40
0.9924603147078093
 40
0.9924603147078093
 40
0.9924603147078093
 10
132.261911899301
 20
211.7646814738928
 30
0.0
 10
132.2614003294995
 20
211.8104846765783
 30
0.0
 10
132.2615175323589
 20
211.8501146154091
 30
0.0
 10
132.2688574333598
 20
211.919076554816
 30
0.0
 10
132.2770150954529
 20
211.9546443315597
 30
0.0
 10
132.3134579588904
 20
212.0578048547774
 30
0.0
 10
132.3559123313429
 20
212.1275306608137
 30
0.0
 10
132.4605266786442
 20
212.2481888591712
 30
0.0
 10
132.5193085632735
 20
212.2949442482256
 30
0.0
 10
132.6219691996283
 20
212.3463566102292
 30
0.0
 10
132.6562430344613
 20
212.3592990954403
 30
0.0
 10
132.7217608769428
 20
212.3750408446213
 30
0.0
 10
132.7608251237486
 20
212.3799687620647
 30
0.0
 10
132.8066105994209
 20
212.3850221486136
 30
0.0
  0
LWPOLYLINE
  5
25A
330
1F
100
AcDbEntity
  8
0
  6
Continuous
 62
     7
370
    25
100
AcDbPolyline
 90
        3
 70
   128
 43
0.0
 10
132.2619118993
 20
211.7646814739
 10
132.1795906827
 20
211.7591429142
 10
132.087062328
 20
211.7529145056
  0
SPLINE
  5
25B
330
1F
100
AcDbEntity
  8
0
  6
Continuous
 62
     7
370
    25
100
AcDbSpline
210
0.0
220
0.0
230
1.0
 70
     8
 71
     3
 72
    18
 73
    14
 74
     0
 42
0.00000001
 43
0.00000001
 40
0.0
 40
0.0
 40
0.0
 40
0.0
 40
0.125
 40
0.125
 40
0.25
 40
0.25
 40
0.5
 40
0.5
 40
0.75
 40
0.75
 40
0.875
 40
0.875
 40
1.0
 40
1.0
 40
1.0
 40
1.0
 10
132.0870623280143
 20
211.7529145056271
 30
0.0
 10
132.0864375240608
 20
211.8027413339826
 30
0.0
 10
132.0858129822392
 20
211.8525681845758
 30
0.0
 10
132.0963279250925
 20
211.9513599248065
 30
0.0
 10
132.107585281691
 20
212.000346081388
 30
0.0
 10
132.1573619311032
 20
212.1412512453566
 30
0.0
 10
132.2107805750312
 20
212.2272464909629
 30
0.0
 10
132.3412491504141
 20
212.3777239617943
 30
0.0
 10
132.4202225152315
 20
212.4410152091336
 30
0.0
 10
132.5539838492438
 20
212.5080027809957
 30
0.0
 10
132.6008926663937
 20
212.5259571856794
 30
0.0
 10
132.6973930055661
 20
212.5491431587993
 30
0.0
 10
132.7469772454735
 20
212.5545446465509
 30
0.0
 10
132.7965614912131
 20
212.5599458528831
 30
0.0
  0
LWPOLYLINE
  5
25C
330
1F
100
AcDbEntity
  8
0
  6
Continuous
 62
     7
370
    25
100
AcDbPolyline
 90
        3
 70
   128
 43
0.0
 10
133.4328942565
 20
211.8408213953
 10
133.5155774087
 20
211.8462324843
 10
133.607661226
 20
211.8522580525
  0
SPLINE
  5
25D
330
1F
100
AcDbEntity
  8
0
  6
Continuous
 62
     7
370
    25
100
AcDbSpline
210
0.0
220
0.0
230
1.0
 70
     8
 71
     3
 72
    20
 73
    16
 74
     0
 42
0.00000001
 43
0.00000001
 40
0.0075443827996082
 40
0.0075443827996082
 40
0.0075443827996082
 40
0.0075443827996082
 40
0.125
 40
0.125
 40
0.25
 40
0.25
 40
0.5
 40
0.5
 40
0.625
 40
0.625
 40
0.75
 40
0.75
 40
0.875
 40
0.875
 40
0.9937392140205298
 40
0.9937392140205298
 40
0.9937392140205298
 40
0.9937392140205298
 10
132.8066105994208
 20
212.3850221486136
 30
0.0
 10
132.8528563278684
 20
212.3852543332609
 30
0.0
 10
132.8934295600243
 20
212.38497278939
 30
0.0
 10
132.965183108157
 20
212.3776171525545
 30
0.0
 10
133.0015744200563
 20
212.36974034951
 30
0.0
 10
133.1068961609587
 20
212.3345146717078
 30
0.0
 10
133.1737177822028
 20
212.2946263718453
 30
0.0
 10
133.2658787681206
 20
212.2151880385939
 30
0.0
 10
133.2933155243514
 20
212.1872042870616
 30
0.0
 10
133.3388572690694
 20
212.1295096096522
 30
0.0
 10
133.3588874735878
 20
212.0973688396103
 30
0.0
 10
133.3937716730052
 20
212.0272190623312
 30
0.0
 10
133.4069619237941
 20
211.9925489371398
 30
0.0
 10
133.4228363700424
 20
211.9269840378538
 30
0.0
 10
133.4277892498964
 20
211.8873940816964
 30
0.0
 10
133.4328942565208
 20
211.840821395316
 30
0.0
  0
SPLINE
  5
25E
330
1F
100
AcDbEntity
  8
0
  6
Continuous
 62
     7
370
    25
100
AcDbSpline
210
0.0
220
0.0
230
1.0
 70
     8
 71
     3
 72
    20
 73
    16
 74
     0
 42
0.00000001
 43
0.00000001
 40
0.0
 40
0.0
 40
0.0
 40
0.0
 40
0.125
 40
0.125
 40
0.25
 40
0.25
 40
0.5
 40
0.5
 40
0.625
 40
0.625
 40
0.75
 40
0.75
 40
0.875
 40
0.875
 40
1.0
 40
1.0
 40
1.0
 40
1.0
 10
132.7965614912131
 20
212.5599458528833
 30
0.0
 10
132.8465155712038
 20
212.5602508063438
 30
0.0
 10
132.8964696684413
 20
212.5605555206578
 30
0.0
 10
132.9955977938459
 20
212.5503935391039
 30
0.0
 10
133.0447978013167
 20
212.5397885666067
 30
0.0
 10
133.186951187277
 20
212.4922442504484
 30
0.0
 10
133.2737042749905
 20
212.4394500647439
 30
0.0
 10
133.38724663596
 20
212.3415820389874
 30
0.0
 10
133.4225429517576
 20
212.30590125688
 30
0.0
 10
133.4843186656871
 20
212.227640474499
 30
0.0
 10
133.5107264385772
 20
212.1850040273644
 30
0.0
 10
133.5552816545525
 20
212.0954065225891
 30
0.0
 10
133.5734592293513
 20
212.0484538347546
 30
0.0
 10
133.5968741424405
 20
211.9517458836152
 30
0.0
 10
133.6022678268855
 20
211.9020019703317
 30
0.0
 10
133.6076612260136
 20
211.852258052522
 30
0.0
  0
LWPOLYLINE
  5
25F
330
1F
100
AcDbEntity
  8
0
  6
Continuous
 62
     7
370
    25
100
AcDbPolyline
 90
        3
 70
   128
 43
0.0
 10
132.8831855384
 20
211.214758165
 10
132.8885907283
 20
211.1307268856
 10
132.8944351005
 20
211.0399112111
  0
SPLINE
  5
260
330
1F
100
AcDbEntity
  8
0
  6
Continuous
 62
     7
370
    25
100
AcDbSpline
210
0.0
220
0.0
230
1.0
 70
     8
 71
     3
 72
    20
 73
    16
 74
     0
 42
0.00000001
 43
0.00000001
 40
0.006227705963087
 40
0.006227705963087
 40
0.006227705963087
 40
0.006227705963087
 40
0.125
 40
0.125
 40
0.25
 40
0.25
 40
0.3749999999999999
 40
0.3749999999999999
 40
0.4999999999999999
 40
0.4999999999999999
 40
0.7499999999999999
 40
0.7499999999999999
 40
0.8749999999999999
 40
0.8749999999999999
 40
0.9925682009492406
 40
0.9925682009492406
 40
0.9925682009492406
 40
0.9925682009492406
 10
133.4328942565209
 20
211.8408213953161
 30
0.0
 10
133.433908754328
 20
211.7937006488429
 30
0.0
 10
133.4341688007683
 20
211.7534819037787
 30
0.0
 10
133.4269511075156
 20
211.6857303408405
 30
0.0
 10
133.4183460821521
 20
211.649302721751
 30
0.0
 10
133.3927299409706
 20
211.5735174221917
 30
0.0
 10
133.3770587102701
 20
211.5381867325148
 30
0.0
 10
133.3397408531427
 20
211.4738335949203
 30
0.0
 10
133.3166871871806
 20
211.4423657346558
 30
0.0
 10
133.2371702026395
 20
211.3521859009705
 30
0.0
 10
133.1767173067148
 20
211.3051444411211
 30
0.0
 10
133.0729796354376
 20
211.2544892354609
 30
0.0
 10
133.0379093512023
 20
211.2416329321402
 30
0.0
 10
132.9694100997351
 20
211.2253823719799
 30
0.0
 10
132.9294068114121
 20
211.2201573082521
 30
0.0
 10
132.8831855383984
 20
211.2147581649676
 30
0.0
  0
SPLINE
  5
261
330
1F
100
AcDbEntity
  8
0
  6
Continuous
 62
     7
370
    25
100
AcDbSpline
210
0.0
220
0.0
230
1.0
 70
     8
 71
     3
 72
    20
 73
    16
 74
     0
 42
0.00000001
 43
0.00000001
 40
0.0
 40
0.0
 40
0.0
 40
0.0
 40
0.125
 40
0.125
 40
0.25
 40
0.25
 40
0.3749999999999999
 40
0.3749999999999999
 40
0.4999999999999999
 40
0.4999999999999999
 40
0.7499999999999999
 40
0.7499999999999999
 40
0.8749999999999999
 40
0.8749999999999999
 40
0.9999999999999999
 40
0.9999999999999999
 40
0.9999999999999999
 40
0.9999999999999999
 10
133.6076612260134
 20
211.852258052522
 30
0.0
 10
133.6088021667243
 20
211.801961854874
 30
0.0
 10
133.6099428272143
 20
211.7516656244691
 30
0.0
 10
133.5993470618891
 20
211.652206068008
 30
0.0
 10
133.5874094053565
 20
211.6030337452369
 30
0.0
 10
133.5551947677569
 20
211.5077268355595
 30
0.0
 10
133.534912112149
 20
211.4615936191256
 30
0.0
 10
133.48462333731
 20
211.3748726048867
 30
0.0
 10
133.4546546458295
 20
211.3342666384071
 30
0.0
 10
133.3549648817083
 20
211.2212089362564
 30
0.0
 10
133.2746670773639
 20
211.1582496699186
 30
0.0
 10
133.1391705612436
 20
211.0920866005902
 30
0.0
 10
133.0917023548064
 20
211.0745607781354
 30
0.0
 10
132.9942983815493
 20
211.0514528129958
 30
0.0
 10
132.9443667456045
 20
211.0456818826345
 30
0.0
 10
132.8944351005124
 20
211.0399112110607
 30
0.0
  0
SPLINE
  5
262
330
1F
100
AcDbEntity
  8
0
  6
Continuous
 62
     7
370
    25
100
AcDbSpline
210
0.0
220
0.0
230
1.0
 70
     8
 71
     3
 72
    18
 73
    14
 74
     0
 42
0.00000001
 43
0.00000001
 40
0.0074677380837553
 40
0.0074677380837553
 40
0.0074677380837553
 40
0.0074677380837553
 40
0.125
 40
0.125
 40
0.25
 40
0.25
 40
0.5
 40
0.5
 40
0.75
 40
0.75
 40
0.875
 40
0.875
 40
0.9919477805096525
 40
0.9919477805096525
 40
0.9919477805096525
 40
0.9919477805096525
 10
132.8831855383984
 20
211.2147581649675
 30
0.0
 10
132.8369476645029
 20
211.2141952612982
 30
0.0
 10
132.797127083552
 20
211.214286311274
 30
0.0
 10
132.7286201813505
 20
211.22175634263
 30
0.0
 10
132.6925020926505
 20
211.2301704328621
 30
0.0
 10
132.5845396564085
 20
211.2675772327317
 30
0.0
 10
132.5194721602149
 20
211.3069137627752
 30
0.0
 10
132.3985698391135
 20
211.4135778671313
 30
0.0
 10
132.3523861861663
 20
211.472642107456
 30
0.0
 10
132.3023219362318
 20
211.5755426606543
 30
0.0
 10
132.289506721859
 20
211.6106440101129
 30
0.0
 10
132.2730097954522
 20
211.6793477265527
 30
0.0
 10
132.2675614780792
 20
211.7190475225101
 30
0.0
 10
132.261911899301
 20
211.7646814738929
 30
0.0
  0
SPLINE
  5
263
330
1F
100
AcDbEntity
  8
0
  6
Continuous
 62
     7
370
    25
100
AcDbSpline
210
0.0
220
0.0
230
1.0
 70
     8
 71
     3
 72
    18
 73
    14
 74
     0
 42
0.00000001
 43
0.00000001
 40
0.0
 40
0.0
 40
0.0
 40
0.0
 40
0.125
 40
0.125
 40
0.25
 40
0.25
 40
0.5
 40
0.5
 40
0.75
 40
0.75
 40
0.875
 40
0.875
 40
1.0
 40
1.0
 40
1.0
 40
1.0
 10
132.8944351005124
 20
211.0399112110606
 30
0.0
 10
132.8444436574665
 20
211.0392371869494
 30
0.0
 10
132.7944521890294
 20
211.0385634312707
 30
0.0
 10
132.6954701835605
 20
211.049356629336
 30
0.0
 10
132.6464677268501
 20
211.0609378251754
 30
0.0
 10
132.5047532312015
 20
211.11003903086
 30
0.0
 10
132.418191241037
 20
211.1629274342283
 30
0.0
 10
132.2683308221229
 20
211.2951393891422
 30
0.0
 10
132.2054072908157
 20
211.3747877764482
 30
0.0
 10
132.139796843485
 20
211.5096415503749
 30
0.0
 10
132.1224683971582
 20
211.5568680696326
 30
0.0
 10
132.0992166200095
 20
211.653702770386
 30
0.0
 10
132.0931393483887
 20
211.7033086321249
 30
0.0
 10
132.0870623280142
 20
211.7529145056271
 30
0.0
  0
CIRCLE
  5
264
330
1F
100
AcDbEntity
  8
0
  6
Continuous
 62
     7
370
    25
100
AcDbCircle
 10
74.6152563428
 20
194.6370210573
 30
0.0
 40
2.499999999999998
  0
CIRCLE
  5
265
330
1F
100
AcDbEntity
  8
0
  6
Continuous
 62
     7
370
    25
100
AcDbCircle
 10
212.0098761542
 20
195.2365219844
 30
0.0
 40
2.499999999999988
  0
LINE
  5
266
330
1F
100
AcDbEntity
  8
0
  6
Continuous
 62
     7
370
    25
100
AcDbLine
 10
214.9968836083
 20
189.0658018912
 30
0.0
 11
218.3586729651
 21
197.8235625822
 31
0.0
  0
LINE
  5
267
330
1F
100
AcDbEntity
  8
0
  6
Continuous
 62
     7
370
    25
100
AcDbLine
 10
68.244125373
 20
197.1685601478
 30
0.0
 11
71.6822116327
 21
188.4404696996
 31
0.0
  0
LINE
  5
268
330
1F
100
AcDbEntity
  8
0
  6
Continuous
 62
     7
370
    18
100
AcDbLine
 10
67.8776241463
 20
198.0989777157
 30
0.0
 11
66.0885219964
 21
202.6408781238
 31
0.0
  0
LINE
  5
269
330
1F
100
AcDbEntity
  8
0
  6
Continuous
 62
     7
370
    18
100
AcDbLine
 10
67.4050621189
 20
202.0794211103
 30
0.0
 11
65.5228532507
 21
201.3484396413
 31
0.0
  0
LINE
  5
26A
330
1F
100
AcDbEntity
  8
0
  6
Continuous
 62
     7
370
    18
100
AcDbLine
 10
219.746255693
 20
201.438339173
 30
0.0
 11
220.4664398859
 21
203.3144831385
 31
0.0
  0
LINE
  5
26B
330
1F
100
AcDbEntity
  8
0
  6
Continuous
 62
     7
370
    18
100
AcDbLine
 10
219.1548494678
 20
202.7415586694
 30
0.0
 11
221.0433656029
 21
202.0270301965
 31
0.0
  0
DIMENSION
  5
26C
330
1F
100
AcDbEntity
  8
0
  6
Continuous
 62
     7
370
    18
100
AcDbDimension
  2
_D
 10
219.9717130739
 20
233.6318536478
 30
0.0
 11
146.9338810345
 21
233.3131639635
 31
0.0
 70
   160
  1
<>
 71
     2
 42
-1.0
  3
SLDDIMSTYLE0
100
AcDbAlignedDimension
 13
66.4550232231
 23
201.7104605558
 33
0.0
 14
220.1080719363
 24
202.380902712
 34
0.0
 50
0.25
100
AcDbRotatedDimension
  0
DIMENSION
  5
278
330
1F
100
AcDbEntity
  8
0
  6
Continuous
 62
     7
370
    18
100
AcDbDimension
  2
_D_1
 10
230.3668132249
 20
198.4616802607
 30
0.0
 11
226.6592919712
 21
188.7425098068
 31
0.0
 70
   160
  1
<>
 71
     2
 42
-1.0
  3
SLDDIMSTYLE1
100
AcDbAlignedDimension
 13
211.447493644
 23
185.3426465279
 33
0.0
 14
218.2195558012
 24
203.095431185
 34
0.0
 50
69.119908506
100
AcDbRotatedDimension
  0
INSERT
  5
28E
330
1F
100
AcDbEntity
  8
0
  6
Continuous
 62
     7
370
     0
100
AcDbBlockReference
  2
SW_CENTERMARKSYMBOL_0
 10
74.6152563428
 20
194.6370210573
 30
0.0
  0
INSERT
  5
29A
330
1F
100
AcDbEntity
  8
0
  6
Continuous
 62
     7
370
     0
100
AcDbBlockReference
  2
SW_CENTERMARKSYMBOL_1
 10
212.0098761542
 20
195.2365219844
 30
0.0
  0
LINE
  5
29B
330
1F
100
AcDbEntity
  8
0
  6
Continuous
 62
     7
370
    25
100
AcDbLine
 10
295.3186556709
 20
196.8518107611
 30
0.0
 11
297.3186556709
 21
196.8518107611
 31
0.0
  0
LINE
  5
29C
330
1F
100
AcDbEntity
  8
0
  6
Continuous
 62
     7
370
    25
100
AcDbLine
 10
297.3186556709
 20
216.4581580137
 30
0.0
 11
292.3186556709
 21
216.4581580137
 31
0.0
  0
LINE
  5
29D
330
1F
100
AcDbEntity
  8
0
  6
Continuous
 62
     7
370
    25
100
AcDbLine
 10
297.3186556709
 20
189.123720313
 30
0.0
 11
295.3186556709
 21
189.123720313
 31
0.0
  0
LINE
  5
29E
330
1F
100
AcDbEntity
  8
0
  6
Continuous
 62
     7
370
    25
100
AcDbLine
 10
292.3186556709
 20
184.6167229539
 30
0.0
 11
297.3186556709
 21
184.6167229539
 31
0.0
  0
LINE
  5
29F
330
1F
100
AcDbEntity
  8
0
  6
Continuous
 62
     7
370
    25
100
AcDbLine
 10
297.3186556709
 20
192.9077255561
 30
0.0
 11
295.3186556709
 21
192.9077255561
 31
0.0
  0
LINE
  5
2A0
330
1F
100
AcDbEntity
  8
0
  6
Continuous
 62
     7
370
    25
100
AcDbLine
 10
297.3186556709
 20
199.840672741
 30
0.0
 11
297.3186556709
 21
197.1685601478
 31
0.0
  0
LINE
  5
2A1
330
1F
100
AcDbEntity
  8
0
  6
Continuous
 62
     7
370
    25
100
AcDbLine
 10
295.3186556709
 20
197.1685601478
 30
0.0
 11
295.3186556709
 21
188.4404696996
 31
0.0
  0
LINE
  5
2A2
330
1F
100
AcDbEntity
  8
0
  6
Continuous
 62
     7
370
    25
100
AcDbLine
 10
297.3186556709
 20
188.4404696996
 30
0.0
 11
297.3186556709
 21
185.8837205005
 31
0.0
  0
LINE
  5
2A3
330
1F
100
AcDbEntity
  8
0
  6
Continuous
 62
     7
370
    25
100
AcDbLine
 10
292.3186556709
 20
199.840672741
 30
0.0
 11
292.3186556709
 21
185.8837205005
 31
0.0
  0
LINE
  5
2A4
330
1F
100
AcDbEntity
  8
0
  6
Continuous
 62
     7
370
    25
100
AcDbLine
 10
297.3186556709
 20
202.4414420248
 30
0.0
 11
297.3186556709
 21
199.840672741
 31
0.0
  0
LINE
  5
2A5
330
1F
100
AcDbEntity
  8
0
  6
Continuous
 62
     7
370
    25
100
AcDbLine
 10
292.3186556709
 20
202.4414420248
 30
0.0
 11
292.3186556709
 21
199.840672741
 31
0.0
  0
LINE
  5
2A6
330
1F
100
AcDbEntity
  8
0
  6
Continuous
 62
     7
370
    25
100
AcDbLine
 10
297.3186556709
 20
197.1685601478
 30
0.0
 11
297.3186556709
 21
196.8518107611
 31
0.0
  0
LINE
  5
2A7
330
1F
100
AcDbEntity
  8
0
  6
Continuous
 62
     7
370
    25
100
AcDbLine
 10
297.3186556709
 20
216.4581580137
 30
0.0
 11
297.3186556709
 21
202.4414420248
 31
0.0
  0
LINE
  5
2A8
330
1F
100
AcDbEntity
  8
0
  6
Continuous
 62
     7
370
    25
100
AcDbLine
 10
292.3186556709
 20
216.4581580137
 30
0.0
 11
292.3186556709
 21
202.4414420248
 31
0.0
  0
LINE
  5
2A9
330
1F
100
AcDbEntity
  8
0
  6
Continuous
 62
     7
370
    25
100
AcDbLine
 10
297.3186556709
 20
189.123720313
 30
0.0
 11
297.3186556709
 21
188.4404696996
 31
0.0
  0
LINE
  5
2AA
330
1F
100
AcDbEntity
  8
0
  6
Continuous
 62
     7
370
    25
100
AcDbLine
 10
297.3186556709
 20
189.123720313
 30
0.0
 11
297.3186556709
 21
192.5792098254
 31
0.0
  0
LINE
  5
2AB
330
1F
100
AcDbEntity
  8
0
  6
Continuous
 62
     7
370
    25
100
AcDbLine
 10
297.3186556709
 20
185.8837205005
 30
0.0
 11
297.3186556709
 21
184.6167229539
 31
0.0
  0
LINE
  5
2AC
330
1F
100
AcDbEntity
  8
0
  6
Continuous
 62
     7
370
    25
100
AcDbLine
 10
292.3186556709
 20
185.8837205005
 30
0.0
 11
292.3186556709
 21
184.6167229539
 31
0.0
  0
LINE
  5
2AD
330
1F
100
AcDbEntity
  8
0
  6
Continuous
 62
     7
370
    25
100
AcDbLine
 10
297.3186556709
 20
192.9077255561
 30
0.0
 11
297.3186556709
 21
192.5792098254
 31
0.0
  0
LINE
  5
2AE
330
1F
100
AcDbEntity
  8
0
  6
Continuous
 62
     7
370
    25
100
AcDbLine
 10
297.3186556709
 20
192.9077255561
 30
0.0
 11
297.3186556709
 21
196.8518107611
 31
0.0
  0
LINE
  5
2AF
330
1F
100
AcDbEntity
  8
0
  6
PHANTOM
 62
     8
370
    18
100
AcDbLine
 10
297.3186556709
 20
185.8837205005
 30
0.0
 11
292.3186556709
 21
185.8837205005
 31
0.0
  0
LINE
  5
2B0
330
1F
100
AcDbEntity
  8
0
  6
PHANTOM
 62
     8
370
    18
100
AcDbLine
 10
297.3186556709
 20
199.840672741
 30
0.0
 11
292.3186556709
 21
199.840672741
 31
0.0
  0
LINE
  5
2B1
330
1F
100
AcDbEntity
  8
0
  6
PHANTOM
 62
     8
370
    18
100
AcDbLine
 10
295.3186556709
 20
197.1685601478
 30
0.0
 11
297.3186556709
 21
197.1685601478
 31
0.0
  0
LINE
  5
2B2
330
1F
100
AcDbEntity
  8
0
  6
PHANTOM
 62
     8
370
    18
100
AcDbLine
 10
297.3186556709
 20
188.4404696996
 30
0.0
 11
295.3186556709
 21
188.4404696996
 31
0.0
  0
LINE
  5
2B3
330
1F
100
AcDbEntity
  8
0
  6
PHANTOM
 62
     8
370
    18
100
AcDbLine
 10
297.3186556709
 20
202.4414420248
 30
0.0
 11
292.3186556709
 21
202.4414420248
 31
0.0
  0
LINE
  5
2B4
330
1F
100
AcDbEntity
  8
0
  6
PHANTOM
 62
     8
370
    18
100
AcDbLine
 10
297.3186556709
 20
192.5792098254
 30
0.0
 11
295.3186556709
 21
192.5792098254
 31
0.0
  0
DIMENSION
  5
2B5
330
1F
100
AcDbEntity
  8
0
  6
Continuous
 62
     7
370
    18
100
AcDbDimension
  2
_D_2
 10
292.3186556709
 20
222.9757277016
 30
0.0
 11
294.5895811627
 21
222.9757277016
 31
0.0
 70
   160
  1
<>
 71
     2
 42
-1.0
  3
SLDDIMSTYLE2
100
AcDbAlignedDimension
 13
297.3186556709
 23
216.4581580137
 33
0.0
 14
292.3186556709
 24
216.4581580137
 34
0.0
 50
0.0
100
AcDbRotatedDimension
  0
LINE
  5
2C2
330
1F
100
AcDbEntity
  8
0
  6
Continuous
 62
     7
370
    25
100
AcDbLine
 10
73.350178084
 20
47.4799565344
 30
0.0
 11
74.7643916464
 21
46.6635484226
 31
0.0
  0
LINE
  5
2C3
330
1F
100
AcDbEntity
  8
0
  6
Continuous
 62
     7
370
    25
100
AcDbLine
 10
74.6090183167
 20
41.0241138584
 30
0.0
 11
78.1445522227
 21
38.9830935789
 31
0.0
  0
LINE
  5
2C4
330
1F
100
AcDbEntity
  8
0
  6
Continuous
 62
     7
370
    25
100
AcDbLine
 10
83.7578892564
 20
48.3957651978
 30
0.0
 11
82.343675694
 21
49.2121733096
 31
0.0
  0
LINE
  5
2C5
330
1F
100
AcDbEntity
  8
0
  6
Continuous
 62
     7
370
    25
100
AcDbLine
 10
120.6823779574
 20
85.5719495957
 30
0.0
 11
119.7935857041
 21
86.2206642127
 31
0.0
  0
LINE
  5
2C6
330
1F
100
AcDbEntity
  8
0
  6
Continuous
 62
     7
370
    25
100
AcDbLine
 10
118.5959367102
 20
85.2200160509
 30
0.0
 11
120.0920439812
 21
84.5579846468
 31
0.0
  0
LINE
  5
2C7
330
1F
100
AcDbEntity
  8
0
  6
Continuous
 62
     7
370
    25
100
AcDbLine
 10
122.3418213547
 20
86.6536533972
 30
0.0
 11
121.493514024
 21
87.2728189395
 31
0.0
  0
LINE
  5
2C8
330
1F
100
AcDbEntity
  8
0
  6
Continuous
 62
     7
370
    25
100
AcDbLine
 10
120.2550825265
 20
86.3034618448
 30
0.0
 11
121.7511736623
 21
85.6414374741
 31
0.0
  0
LINE
  5
2C9
330
1F
100
AcDbEntity
  8
0
  6
Continuous
 62
     7
370
    25
100
AcDbLine
 10
172.1287244457
 20
107.1919363653
 30
0.0
 11
173.542938008
 21
106.3755282535
 31
0.0
  0
LINE
  5
2CA
330
1F
100
AcDbEntity
  8
0
  6
Continuous
 62
     7
370
    25
100
AcDbLine
 10
172.2823889338
 20
99.9684184101
 30
0.0
 11
170.8681753714
 21
100.7848265219
 31
0.0
  0
LINE
  5
2CB
330
1F
100
AcDbEntity
  8
0
  6
Continuous
 62
     7
370
    25
100
AcDbLine
 10
181.2398349818
 20
112.7338394789
 30
0.0
 11
177.7043010759
 21
114.7748597585
 31
0.0
  0
LINE
  5
2CC
330
1F
100
AcDbEntity
  8
0
  6
Continuous
 62
     7
370
    25
100
AcDbLine
 10
178.8381698301
 20
108.9083935852
 30
0.0
 11
180.2523833925
 21
108.0919854734
 31
0.0
  0
LINE
  5
2CD
330
1F
100
AcDbEntity
  8
0
  6
Continuous
 62
     7
370
    25
100
AcDbLine
 10
178.3751987077
 20
100.4346692603
 30
0.0
 11
176.9609851454
 21
101.2510773721
 31
0.0
  0
LWPOLYLINE
  5
2CE
330
1F
100
AcDbEntity
  8
0
  6
Continuous
 62
     7
370
    25
100
AcDbPolyline
 90
        9
 70
   128
 43
0.0
 10
173.6860175821
 20
107.6881088614
 10
173.7456306908
 20
108.0371786866
 10
173.7506031066
 20
108.3620960641
 10
173.7007413979
 20
108.6502213938
 10
173.5979852333
 20
108.8903463215
 10
173.446331927
 20
109.0731297554
 10
173.2516809394
 20
109.1914612431
 10
173.0216043821
 20
109.2407375752
 10
172.7650524557
 20
109.2190418547
  0
LWPOLYLINE
  5
2CF
330
1F
100
AcDbEntity
  8
0
  6
Continuous
 62
     7
370
    25
100
AcDbPolyline
 90
       28
 70
   128
 43
0.0
 10
172.7650524557
 20
109.2190418547
 10
169.5201949765
 20
108.4765725627
 10
166.2537843308
 20
107.635639017
 10
162.9675304345
 20
106.6966814334
 10
159.6631535915
 20
105.6601913418
 10
156.3423835926
 20
104.526711329
 10
153.0069588101
 20
103.2968347545
 10
149.658625288
 20
101.9712054398
 10
146.2991358277
 20
100.5505173317
 10
142.9302490708
 20
99.0355141388
 10
139.553728578
 20
97.426988942
 10
136.1713419062
 20
95.7257837797
 10
132.7848596831
 20
93.9327892069
 10
129.3960546806
 20
92.0489438288
 10
126.0067008862
 20
90.0752338098
 10
122.6185725751
 20
88.0126923568
 10
119.2334433805
 20
85.8623991789
 10
115.8530853659
 20
83.6254799217
 10
112.4792680972
 20
81.3031055782
 10
109.1137577161
 20
78.896491876
 10
105.758316016
 20
76.4068986407
 10
102.4146995194
 20
73.8356291361
 10
99.0846585584
 20
71.1840293828
 10
95.7699363586
 20
68.4534874526
 10
92.4722681266
 20
65.6454327425
 10
89.1933801412
 20
62.7613352264
 10
85.9349888502
 20
59.8027046853
 10
82.6987999718
 20
56.7710899169
  0
ARC
  5
2D0
330
1F
100
AcDbEntity
  8
0
  6
Continuous
 62
     7
370
    25
100
AcDbCircle
 10
84.5340009241
 20
54.6755050996
 30
0.0
 40
2.785576827488791
100
AcDbArc
 50
131.2101388476
 51
190.3164790435
  0
LINE
  5
2D1
330
1F
100
AcDbEntity
  8
0
  6
Continuous
 62
     7
370
    25
100
AcDbLine
 10
81.7934569258
 20
54.1766495542
 30
0.0
 11
82.0251463251
 21
53.5107891943
 31
0.0
  0
ARC
  5
2D2
330
1F
100
AcDbEntity
  8
0
  6
Continuous
 62
     7
370
    25
100
AcDbCircle
 10
81.4028101422
 20
53.365964986
 30
0.0
 40
0.6389650818680813
100
AcDbArc
 50
278.5316003545
 51
13.1001783332
  0
LWPOLYLINE
  5
2D3
330
1F
100
AcDbEntity
  8
0
  6
Continuous
 62
     7
370
    25
100
AcDbPolyline
 90
       13
 70
   128
 43
0.0
 10
81.4976037179
 20
52.7340705693
 10
80.9669960773
 20
52.7652778188
 10
80.4001698694
 20
52.684871162
 10
79.8086812724
 20
52.4944898908
 10
79.2045892697
 20
52.1980154067
 10
78.6002097966
 20
51.8014920877
 10
78.0078646493
 20
51.3130040595
 10
77.4396302741
 20
50.7425103795
 10
76.9070915583
 20
50.1016419968
 10
76.4211056435
 20
49.4034646258
 10
75.9915805753
 20
48.6622123688
 10
75.6272733031
 20
47.8929975181
 10
75.335611147
 20
47.1115024539
  0
LWPOLYLINE
  5
2D4
330
1F
100
AcDbEntity
  8
0
  6
Continuous
 62
     7
370
    25
100
AcDbPolyline
 90
        9
 70
   128
 43
0.0
 10
74.6854190437
 20
46.7570411367
 10
74.7366306206
 20
46.6836095996
 10
74.8113452728
 20
46.6451239893
 10
74.9032404698
 20
46.6448410489
 10
75.0045398228
 20
46.6827847216
 10
75.1066711412
 20
46.7557441241
 10
75.2009918313
 20
46.8575452593
 10
75.2795202535
 20
46.9795734746
 10
75.335611147
 20
47.1115024539
  0
LINE
  5
2D5
330
1F
100
AcDbEntity
  8
0
  6
Continuous
 62
     7
370
    25
100
AcDbLine
 10
73.941137437
 20
48.5092654971
 30
0.0
 11
74.6854190437
 21
46.7570411367
 31
0.0
  0
ARC
  5
2D6
330
1F
100
AcDbEntity
  8
0
  6
Continuous
 62
     7
370
    25
100
AcDbCircle
 10
76.5649818413
 20
49.1112608864
 30
0.0
 40
2.692017441769746
100
AcDbArc
 50
132.3565696012
 51
192.9218832888
  0
LWPOLYLINE
  5
2D7
330
1F
100
AcDbEntity
  8
0
  6
Continuous
 62
     7
370
    25
100
AcDbPolyline
 90
       33
 70
   128
 43
0.0
 10
180.7340629108
 20
112.8171522132
 10
177.549183305
 20
112.3029754385
 10
174.3392184646
 20
111.6909355865
 10
171.1058052078
 20
110.9813447473
 10
167.8505923094
 20
110.1745647537
 10
164.5752396603
 20
109.2710069974
 10
161.2814174211
 20
108.2711322183
 10
157.9708051702
 20
107.1754502704
 10
154.6450910477
 20
105.9845198614
 10
151.3059708942
 20
104.6989482679
 10
147.9551473865
 20
103.3193910257
 10
144.5943291689
 20
101.8465515956
 10
141.2252299825
 20
100.2811810044
 10
137.8495677907
 20
98.6240774626
 10
134.4690639037
 20
96.8760859566
 10
131.0854421005
 20
95.0380978183
 10
127.7004277499
 20
93.1110502707
 10
124.315746931
 20
91.0959259494
 10
120.9331255526
 20
88.9937524022
 10
117.5542884734
 20
86.8056015646
 10
114.1809586225
 20
84.5325892138
 10
110.8148561207
 20
82.175874399
 10
107.4576974035
 20
79.736658851
 10
104.1111943459
 20
77.2161863693
 10
100.777053389
 20
74.6157421874
 10
97.4569746708
 20
71.936652318
 10
94.1526511582
 20
69.1802828768
 10
90.8657677846
 20
66.3480393854
 10
87.5980005902
 20
63.4413660551
 10
84.3510158676
 20
60.4617450504
 10
81.1264693119
 20
57.4106957328
 10
77.9260051767
 20
54.2897738867
 10
74.7512554356
 20
51.1005709255
  0
LWPOLYLINE
  5
2D8
330
1F
100
AcDbEntity
  8
0
  6
Continuous
 62
     7
370
    25
100
AcDbPolyline
 90
        9
 70
   128
 43
0.0
 10
181.5601983499
 20
111.1786802744
 10
181.6339885852
 20
111.531887188
 10
181.6535525492
 20
111.8644726393
 10
181.6181292479
 20
112.163499804
 10
181.5290965678
 20
112.4173371995
 10
181.3899176794
 20
112.6161111232
 10
181.2060063279
 20
112.7520897178
 10
180.9845162501
 20
112.8199837224
 10
180.7340629108
 20
112.8171522132
  0
LINE
  5
2D9
330
1F
100
AcDbEntity
  8
0
  6
Continuous
 62
     7
370
    25
100
AcDbLine
 10
180.8324336008
 20
108.5692445346
 30
0.0
 11
181.5601983499
 21
111.1786802744
 31
0.0
  0
LWPOLYLINE
  5
2DA
330
1F
100
AcDbEntity
  8
0
  6
Continuous
 62
     7
370
    25
100
AcDbPolyline
 90
        9
 70
   128
 43
0.0
 10
180.1824240947
 20
108.1665641962
 10
180.2392651388
 20
108.1003984599
 10
180.3183701523
 20
108.0701643476
 10
180.4130450818
 20
108.0784203414
 10
180.5152783111
 20
108.1244677997
 10
180.6164186226
 20
108.2044100777
 10
180.7079072841
 20
108.3114822708
 10
180.7820023089
 20
108.436623677
 10
180.8324336008
 20
108.5692445346
  0
LWPOLYLINE
  5
2DB
330
1F
100
AcDbEntity
  8
0
  6
Continuous
 62
     7
370
    25
100
AcDbPolyline
 90
       13
 70
   128
 43
0.0
 10
180.1824240947
 20
108.1665641962
 10
179.885260832
 20
108.6067150988
 10
179.5155025496
 20
108.9496895228
 10
179.0807274005
 20
109.1884582475
 10
178.5898460507
 20
109.3181277355
 10
178.0529190563
 20
109.3360404258
 10
177.4809506738
 20
109.2418291999
 10
176.8856633284
 20
109.0374249059
 10
176.2792573651
 20
108.727016786
 10
175.6741610035
 20
108.3169666186
 10
175.0827756231
 20
107.815678334
 10
174.5172215985
 20
107.2334257774
 10
173.9890898937
 20
106.5821421471
  0
LWPOLYLINE
  5
2DC
330
1F
100
AcDbEntity
  8
0
  6
Continuous
 62
     7
370
    25
100
AcDbPolyline
 90
        9
 70
   128
 43
0.0
 10
173.4566684352
 20
106.7406026147
 10
173.4393687477
 20
106.6065009631
 10
173.4555894084
 20
106.4915560483
 10
173.5037925191
 20
106.4066659187
 10
173.5794078923
 20
106.3598790972
 10
173.6752663546
 20
106.3556314916
 10
173.7822794642
 20
106.3943258217
 10
173.8903011953
 20
106.4722934375
 10
173.9890898937
 20
106.5821421471
  0
LINE
  5
2DD
330
1F
100
AcDbEntity
  8
0
  6
Continuous
 62
     7
370
    25
100
AcDbLine
 10
173.4566684352
 20
106.7406026147
 30
0.0
 11
173.6860175821
 21
107.6881088614
 31
0.0
  0
LWPOLYLINE
  5
2DE
330
1F
100
AcDbEntity
  8
0
  6
Continuous
 62
     7
370
    25
100
AcDbPolyline
 90
       33
 70
   128
 43
0.0
 10
177.1985290049
 20
114.8581724927
 10
174.013649399
 20
114.343995718
 10
170.8036845587
 20
113.7319558661
 10
167.5702713018
 20
113.0223650268
 10
164.3150584034
 20
112.2155850333
 10
161.0397057544
 20
111.3120272769
 10
157.7458835152
 20
110.3121524978
 10
154.4352712643
 20
109.2164705499
 10
151.1095571418
 20
108.025540141
 10
147.7704369883
 20
106.7399685475
 10
144.4196134805
 20
105.3604113053
 10
141.058795263
 20
103.8875718751
 10
137.6896960766
 20
102.322201284
 10
134.3140338848
 20
100.6650977421
 10
130.9335299978
 20
98.9171062361
 10
127.5499081946
 20
97.0791180979
 10
124.164893844
 20
95.1520705502
 10
120.7802130251
 20
93.136946229
 10
117.3975916466
 20
91.0347726817
 10
114.0187545674
 20
88.8466218442
 10
110.6454247165
 20
86.5736094933
 10
107.2793222148
 20
84.2168946785
 10
103.9221634976
 20
81.7776791306
 10
100.5756604399
 20
79.2572066488
 10
97.2415194831
 20
76.6567624669
 10
93.9214407648
 20
73.9776725976
 10
90.6171172523
 20
71.2213031563
 10
87.3302338787
 20
68.389059665
 10
84.0624666843
 20
65.4823863347
 10
80.8154819616
 20
62.5027653299
 10
77.5909354059
 20
59.4517160124
 10
74.3904712707
 20
56.3307941663
 10
71.2157215296
 20
53.1415912051
  0
LINE
  5
2DF
330
1F
100
AcDbEntity
  8
0
  6
Continuous
 62
     7
370
    25
100
AcDbLine
 10
127.4729996344
 20
83.5019792454
 30
0.0
 11
127.0913029749
 21
83.9350308997
 31
0.0
  0
LINE
  5
2E0
330
1F
100
AcDbEntity
  8
0
  6
Continuous
 62
     7
370
    25
100
AcDbLine
 10
127.3438158062
 20
89.7905213232
 30
0.0
 11
128.6061442624
 21
90.4995260912
 31
0.0
  0
LINE
  5
2E1
330
1F
100
AcDbEntity
  8
0
  6
Continuous
 62
     7
370
    25
100
AcDbLine
 10
126.6185650157
 20
88.3391700114
 30
0.0
 11
127.3438158062
 21
89.7905213232
 31
0.0
  0
LINE
  5
2E2
330
1F
100
AcDbEntity
  8
0
  6
Continuous
 62
     7
370
    25
100
AcDbLine
 10
124.7914203001
 20
88.3591545065
 30
0.0
 11
125.8504755507
 21
88.9527814839
 31
0.0
  0
LINE
  5
2E3
330
1F
100
AcDbEntity
  8
0
  6
Continuous
 62
     7
370
    25
100
AcDbLine
 10
124.7142127142
 20
81.9548167492
 30
0.0
 11
124.7914203001
 21
88.3591545065
 31
0.0
  0
SPLINE
  5
2E4
330
1F
100
AcDbEntity
  8
0
  6
Continuous
 62
     7
370
    25
100
AcDbSpline
210
0.0
220
0.0
230
1.0
 70
     8
 71
     3
 72
     9
 73
     5
 74
     0
 42
0.00000001
 43
0.00000001
 40
0.0
 40
0.0
 40
0.0
 40
0.0
 40
0.8473550334030067
 40
1.0
 40
1.0
 40
1.0
 40
1.0
 10
120.2558035139928
 20
86.30456425259767
 30
0.0
 10
120.2094857352928
 20
86.32644829336076
 30
0.0
 10
120.154824139062
 20
86.35227458800749
 30
0.0
 10
120.1337104126331
 20
86.41900098364277
 30
0.0
 10
120.1304875085677
 20
86.42918643207561
 30
0.0
  0
SPLINE
  5
2E5
330
1F
100
AcDbEntity
  8
0
  6
Continuous
 62
     7
370
    25
100
AcDbSpline
210
0.0
220
0.0
230
1.0
 70
     8
 71
     3
 72
     9
 73
     5
 74
     0
 42
0.00000001
 43
0.00000001
 40
0.0
 40
0.0
 40
0.0
 40
0.0
 40
0.5350643851623229
 40
1.0
 40
1.0
 40
1.0
 40
1.0
 10
118.600403983541
 20
85.22800180761934
 30
0.0
 10
118.5710109075172
 20
85.23807159936786
 30
0.0
 10
118.5160771895591
 20
85.25689137513265
 30
0.0
 10
118.4899356040078
 20
85.31680981705983
 30
0.0
 10
118.4777814498567
 20
85.34466803469734
 30
0.0
  0
LINE
  5
2E6
330
1F
100
AcDbEntity
  8
0
  6
Continuous
 62
     7
370
    25
100
AcDbLine
 10
117.5269548942
 20
77.4836044716
 30
0.0
 11
119.2707499663
 21
84.9214094095
 31
0.0
  0
LWPOLYLINE
  5
2E7
330
1F
100
AcDbEntity
  8
0
  6
Continuous
 62
     7
370
    25
100
AcDbPolyline
 90
       31
 70
   128
 43
0.0
 10
78.4097864121
 20
50.3785501917
 10
78.7390702813
 20
50.3748972907
 10
79.0262753939
 20
50.2721292699
 10
79.2588495083
 20
50.074737585
 10
79.4266280198
 20
49.7913491996
 10
79.5222782022
 20
49.4343495461
 10
79.5416196837
 20
49.0193412224
 10
79.4838071486
 20
48.5644620838
 10
79.3513672822
 20
48.0895925313
 10
79.1500883422
 20
47.615486643
 10
78.888767184
 20
47.1628651213
 10
78.5788247963
 20
46.7515096985
 10
78.2338071486
 20
46.3993985807
 10
77.8687931678
 20
46.1219207132
 10
77.4997357163
 20
45.9312032103
 10
77.1427643757
 20
45.835581342
 10
76.8134805065
 20
45.839234243
 10
76.5262753939
 20
45.9420022637
 10
76.2937012794
 20
46.1393939487
 10
76.125922768
 20
46.4227823341
 10
76.0302725855
 20
46.7797819876
 10
76.0109311041
 20
47.1947903112
 10
76.0687436391
 20
47.6496694499
 10
76.2011835055
 20
48.1245390024
 10
76.4024624456
 20
48.5986448907
 10
76.6637836038
 20
49.0512664124
 10
76.9737259915
 20
49.4626218351
 10
77.3187436391
 20
49.814732953
 10
77.68375762
 20
50.0922108205
 10
78.0528150715
 20
50.2829283234
 10
78.4097864121
 20
50.3785501917
  0
LWPOLYLINE
  5
2E8
330
1F
100
AcDbEntity
  8
0
  6
Continuous
 62
     7
370
    25
100
AcDbPolyline
 90
       31
 70
   128
 43
0.0
 10
175.5624537793
 20
106.9531082328
 10
175.8917376485
 20
106.9494553319
 10
176.1789427611
 20
106.8466873111
 10
176.4115168755
 20
106.6492956261
 10
176.579295387
 20
106.3659072408
 10
176.6749455694
 20
106.0089075873
 10
176.6942870509
 20
105.5938992636
 10
176.6364745158
 20
105.139020125
 10
176.5040346494
 20
104.6641505725
 10
176.3027557094
 20
104.1900446842
 10
176.0414345512
 20
103.7374231625
 10
175.7314921635
 20
103.3260677397
 10
175.3864745158
 20
102.9739566219
 10
175.021460535
 20
102.6964787543
 10
174.6524030835
 20
102.5057612514
 10
174.2954317429
 20
102.4101393832
 10
173.9661478737
 20
102.4137922841
 10
173.6789427611
 20
102.5165603049
 10
173.4463686467
 20
102.7139519899
 10
173.2785901352
 20
102.9973403753
 10
173.1829399528
 20
103.3543400288
 10
173.1635984713
 20
103.7693483524
 10
173.2214110064
 20
104.2242274911
 10
173.3538508728
 20
104.6990970436
 10
173.5551298128
 20
105.1732029319
 10
173.816450971
 20
105.6258244536
 10
174.1263933587
 20
106.0371798763
 10
174.4714110064
 20
106.3892909942
 10
174.8364249872
 20
106.6667688617
 10
175.2054824387
 20
106.8574863646
 10
175.5624537793
 20
106.9531082328
  0
LWPOLYLINE
  5
2E9
330
1F
100
AcDbEntity
  8
0
  6
Continuous
 62
     7
370
    25
100
AcDbPolyline
 90
        3
 70
   128
 43
0.0
 10
172.2718040198
 20
108.5045169732
 10
172.3314171284
 20
108.8535867984
 10
172.3393727812
 20
109.1269847881
  0
LINE
  5
2EA
330
1F
100
AcDbEntity
  8
0
  6
Continuous
 62
     7
370
    25
100
AcDbLine
 10
172.0424548728
 20
107.5570107265
 30
0.0
 11
172.2718040198
 21
108.5045169732
 31
0.0
  0
ARC
  5
2EB
330
1F
100
AcDbEntity
  8
0
  6
Continuous
 62
     7
370
    25
100
AcDbCircle
 10
172.3291602442
 20
107.4320309439
 30
0.0
 40
0.3127617560310413
100
AcDbArc
 50
156.4467881197
 51
230.1441896827
  0
LINE
  5
2EC
330
1F
100
AcDbEntity
  8
0
  6
Continuous
 62
     7
370
    25
100
AcDbLine
 10
178.7682105323
 20
108.9829723081
 30
0.0
 11
178.5513024899
 21
109.3233331429
 31
0.0
  0
LWPOLYLINE
  5
2ED
330
1F
100
AcDbEntity
  8
0
  6
Continuous
 62
     7
370
    25
100
AcDbPolyline
 90
        3
 70
   128
 43
0.0
 10
178.8381698301
 20
108.9083935852
 10
178.8250515765
 20
108.9168065717
 10
178.7682105323
 20
108.9829723081
  0
LINE
  5
2EE
330
1F
100
AcDbEntity
  8
0
  6
Continuous
 62
     7
370
    25
100
AcDbLine
 10
177.12336468
 20
101.1573376621
 30
0.0
 11
179.2231331085
 21
108.686159015
 31
0.0
  0
LWPOLYLINE
  5
2EF
330
1F
100
AcDbEntity
  8
0
  6
Continuous
 62
     7
370
    25
100
AcDbPolyline
 90
        6
 70
   128
 43
0.0
 10
176.573923716
 20
101.1152506999
 10
176.6735187099
 20
101.2023813203
 10
176.7762859214
 20
101.2569891648
 10
176.8735289462
 20
101.2744531886
 10
176.9570188496
 20
101.2532955445
 10
176.9609851454
 20
101.2510773721
  0
ARC
  5
2F0
330
1F
100
AcDbEntity
  8
0
  6
Continuous
 62
     7
370
    25
100
AcDbCircle
 10
172.7615057174
 20
104.0105090328
 30
0.0
 40
4.787175765499512
100
AcDbArc
 50
269.5127630263
 51
322.7859328868
  0
LWPOLYLINE
  5
2F1
330
1F
100
AcDbEntity
  8
0
  6
Continuous
 62
     7
370
    25
100
AcDbPolyline
 90
        8
 70
   128
 43
0.0
 10
170.2819464323
 20
100.2838520208
 10
170.3311262662
 20
100.4243960901
 10
170.4075234547
 20
100.5580574459
 10
170.5038946998
 20
100.6721635139
 10
170.6111029422
 20
100.7558957777
 10
170.7189836552
 20
100.8013154929
 10
170.8173085549
 20
100.8041163686
 10
170.8681753714
 20
100.7848265219
  0
LINE
  5
2F2
330
1F
100
AcDbEntity
  8
0
  6
Continuous
 62
     7
370
    25
100
AcDbLine
 10
170.0866172517
 20
99.4768918849
 30
0.0
 11
170.2819464323
 21
100.2838520208
 31
0.0
  0
ARC
  5
2F3
330
1F
100
AcDbEntity
  8
0
  6
Continuous
 62
     7
370
    25
100
AcDbCircle
 10
167.3338690248
 20
100.0326016817
 30
0.0
 40
2.808279932381964
100
AcDbArc
 50
290.5195493307
 51
348.5868322193
  0
LWPOLYLINE
  5
2F4
330
1F
100
AcDbEntity
  8
0
  6
Continuous
 62
     7
370
    25
100
AcDbPolyline
 90
       27
 70
   128
 43
0.0
 10
84.3993002407
 20
48.534285941
 10
87.5313041345
 20
51.4646953823
 10
90.6854813281
 20
54.3217988228
 10
93.8600568311
 20
57.103988448
 10
97.0532441741
 20
59.809698601
 10
100.263246414
 20
62.4374066628
 10
103.4882571452
 20
64.9856339097
 10
106.7264615162
 20
67.4529463451
 10
109.9760372508
 20
69.837955507
 10
113.2351556738
 20
72.1393192485
 10
116.5019827399
 20
74.3557424939
 10
119.7746800656
 20
76.485977967
 10
123.0514059642
 20
78.5288268931
 10
126.3303164818
 20
80.4831396737
 10
129.6095664353
 20
82.3478165335
 10
132.8873104504
 20
84.1218081391
 10
136.1617040004
 20
85.8041161893
 10
139.4309044438
 20
87.3937939776
 10
142.6930720618
 20
88.8899469243
 10
145.9463710931
 20
90.2917330801
 10
149.1889707671
 20
91.5983635999
 10
152.4190463344
 20
92.8091031868
 10
155.6347800931
 20
93.9232705059
 10
158.8343624124
 20
94.9402385677
 10
162.0159927504
 20
95.8594350805
 10
165.1778806676
 20
96.6803427733
 10
168.3182468344
 20
97.4024996862
  0
LWPOLYLINE
  5
2F5
330
1F
100
AcDbEntity
  8
0
  6
Continuous
 62
     7
370
    25
100
AcDbPolyline
 90
        3
 70
   128
 43
0.0
 10
83.8864661609
 20
48.1614762801
 10
84.1302022039
 20
48.311009308
 10
84.3993002407
 20
48.534285941
  0
LWPOLYLINE
  5
2F6
330
1F
100
AcDbEntity
  8
0
  6
Continuous
 62
     7
370
    25
100
AcDbPolyline
 90
        8
 70
   128
 43
0.0
 10
81.7615867326
 20
48.7274501775
 10
81.8141001095
 20
48.8676247872
 10
81.8930262861
 20
48.9994412755
 10
81.9909092831
 20
49.1104472335
 10
82.0985023126
 20
49.1901561765
 10
82.2056413014
 20
49.2310381787
 10
82.3022050689
 20
49.2292312088
 10
82.343675694
 20
49.2121733096
  0
LWPOLYLINE
  5
2F7
330
1F
100
AcDbEntity
  8
0
  6
Continuous
 62
     7
370
    25
100
AcDbPolyline
 90
       12
 70
   128
 43
0.0
 10
76.165484454
 20
42.6447708995
 10
76.755189342
 20
42.7623667451
 10
77.3667334969
 20
42.9942764714
 10
77.9870370457
 20
43.3355399298
 10
78.6028327668
 20
43.7788580845
 10
79.2009498533
 20
44.3147491258
 10
79.7685956139
 20
44.93175127
 10
80.2936290861
 20
45.6166679068
 10
80.7648207107
 20
46.3548498524
 10
81.1720925129
 20
47.13050867
 10
81.5067336522
 20
47.9270543572
 10
81.7615867326
 20
48.7274501775
  0
ARC
  5
2F8
330
1F
100
AcDbEntity
  8
0
  6
Continuous
 62
     7
370
    25
100
AcDbCircle
 10
76.3513447144
 20
42.0041073158
 30
0.0
 40
0.6670786040087374
100
AcDbArc
 50
106.1777537061
 51
193.3527940318
  0
LINE
  5
2F9
330
1F
100
AcDbEntity
  8
0
  6
Continuous
 62
     7
370
    25
100
AcDbLine
 10
73.2712054814
 20
47.5734492485
 30
0.0
 11
75.7022995898
 21
41.8500479435
 31
0.0
  0
LWPOLYLINE
  5
2FA
330
1F
100
AcDbEntity
  8
0
  6
Continuous
 62
     7
370
    25
100
AcDbPolyline
 90
        3
 70
   128
 43
0.0
 10
73.350178084
 20
47.4799565344
 10
73.3224170583
 20
47.5000177115
 10
73.2712054814
 20
47.5734492485
  0
LINE
  5
2FB
330
1F
100
AcDbEntity
  8
0
  6
Continuous
 62
     7
370
    25
100
AcDbLine
 10
112.768603215
 20
80.6802898791
 30
0.0
 11
115.5013061795
 21
82.539318309
 31
0.0
  0
LINE
  5
2FC
330
1F
100
AcDbEntity
  8
0
  6
Continuous
 62
     7
370
    25
100
AcDbLine
 10
113.2595654256
 20
74.605486765
 30
0.0
 11
112.768603215
 21
80.6802898791
 31
0.0
  0
LINE
  5
2FD
330
1F
100
AcDbEntity
  8
0
  6
Continuous
 62
     7
370
    25
100
AcDbLine
 10
132.4840245289
 20
92.717432386
 30
0.0
 11
133.5537355369
 21
93.273927906
 31
0.0
  0
LINE
  5
2FE
330
1F
100
AcDbEntity
  8
0
  6
Continuous
 62
     7
370
    25
100
AcDbLine
 10
130.0768562846
 20
85.0478729334
 30
0.0
 11
132.4840245289
 21
92.717432386
 31
0.0
  0
LINE
  5
2FF
330
1F
100
AcDbEntity
  8
0
  6
Continuous
 62
     7
370
    25
100
AcDbLine
 10
139.7951254491
 20
91.163426083
 30
0.0
 11
139.9223297001
 21
91.224088241
 31
0.0
  0
LINE
  5
300
330
1F
100
AcDbEntity
  8
0
  6
Continuous
 62
     7
370
    25
100
AcDbLine
 10
137.7375081725
 20
95.4372404155
 30
0.0
 11
138.7871019944
 21
95.9359549224
 31
0.0
  0
LINE
  5
301
330
1F
100
AcDbEntity
  8
0
  6
Continuous
 62
     7
370
    25
100
AcDbLine
 10
137.254961296
 20
88.7885376016
 30
0.0
 11
137.7375081725
 21
95.4372404155
 31
0.0
  0
ARC
  5
302
330
1F
100
AcDbEntity
  8
0
  6
Continuous
 62
     7
370
    25
100
AcDbCircle
 10
175.1078329295
 20
98.1408671277
 30
0.0
 40
2.716354245727096
100
AcDbArc
 50
287.9613979255
 51
347.4170384048
  0
LWPOLYLINE
  5
303
330
1F
100
AcDbEntity
  8
0
  6
Continuous
 62
     7
370
    25
100
AcDbPolyline
 90
       31
 70
   128
 43
0.0
 10
79.6491893739
 20
39.4810215832
 10
82.7274627225
 20
42.5673932491
 10
85.8320997138
 20
45.5831662584
 10
88.961306466
 20
48.5265980756
 10
92.1132749008
 20
51.3959879644
 10
95.286183788
 20
54.1896779706
 10
98.4781997978
 20
56.9060538798
 10
101.6874785601
 20
59.5435461503
 10
104.9121657305
 20
62.10063082
 10
108.1503980614
 20
64.5758303867
 10
111.4003044785
 20
66.9677146623
 10
114.6600071625
 20
69.2749015986
 10
117.9276226334
 20
71.4960580863
 10
121.2012628394
 20
73.6299007252
 10
124.4790362473
 20
75.6751965653
 10
127.759048936
 20
77.63076382
 10
131.0394056904
 20
79.4954725483
 10
134.3182110964
 20
81.268245308
 10
137.5935706367
 20
82.9480577781
 10
140.8635917846
 20
84.5339393509
 10
144.1263850983
 20
86.0249736924
 10
147.380065312
 20
87.4202992722
 10
150.6227524259
 20
88.719109861
 10
153.8525727917
 20
89.9206549967
 10
157.0676601959
 20
91.0242404178
 10
160.2661569375
 20
92.0292284646
 10
163.4462149021
 20
92.9350384477
 10
166.605996629
 20
93.7411469836
 10
169.7436763735
 20
94.4470882969
 10
172.8574411614
 20
95.0524544895
 10
175.9454918369
 20
95.5568957766
  0
LWPOLYLINE
  5
304
330
1F
100
AcDbEntity
  8
0
  6
Continuous
 62
     7
370
    25
100
AcDbPolyline
 90
        9
 70
   128
 43
0.0
 10
77.828661812
 20
39.3570644353
 10
77.9540772535
 20
39.1463068987
 10
78.1246422439
 20
38.9950544007
 10
78.3338875517
 20
38.9090436836
 10
78.5738768688
 20
38.8915369834
 10
78.8355078205
 20
38.9431982985
 10
79.1088572029
 20
39.0620682058
 10
79.3835573526
 20
39.2436381777
 10
79.6491893739
 20
39.4810215832
  0
LINE
  5
305
330
1F
100
AcDbEntity
  8
0
  6
Continuous
 62
     7
370
    25
100
AcDbLine
 10
77.1165131522
 20
41.0336398317
 30
0.0
 11
77.828661812
 21
39.3570644353
 31
0.0
  0
ARC
  5
306
330
1F
100
AcDbEntity
  8
0
  6
Continuous
 62
     7
370
    25
100
AcDbCircle
 10
77.7655582768
 20
41.187699204
 30
0.0
 40
0.6670786040087145
100
AcDbArc
 50
106.177753706
 51
193.3527940318
  0
LWPOLYLINE
  5
307
330
1F
100
AcDbEntity
  8
0
  6
Continuous
 62
     7
370
    25
100
AcDbPolyline
 90
       12
 70
   128
 43
0.0
 10
77.5796980164
 20
41.8283627877
 10
78.1694029043
 20
41.9459586333
 10
78.7809470593
 20
42.1778683595
 10
79.4012506081
 20
42.519131818
 10
80.0170463292
 20
42.9624499727
 10
80.6151634157
 20
43.498341014
 10
81.1828091763
 20
44.1153431582
 10
81.7078426484
 20
44.800259795
 10
82.1790342731
 20
45.5384417406
 10
82.5863060753
 20
46.3141005582
 10
82.9209472146
 20
47.1106462454
 10
83.175800295
 20
47.9110420657
  0
LWPOLYLINE
  5
308
330
1F
100
AcDbEntity
  8
0
  6
Continuous
 62
     7
370
    25
100
AcDbPolyline
 90
        9
 70
   128
 43
0.0
 10
83.8431926169
 20
48.2858416487
 10
83.7932850141
 20
48.3684978554
 10
83.7164186312
 20
48.412823097
 10
83.6198548638
 20
48.4146300669
 10
83.5127158749
 20
48.3737480646
 10
83.4051228455
 20
48.2940391217
 10
83.3072398485
 20
48.1830331637
 10
83.2283136719
 20
48.0512166754
 10
83.175800295
 20
47.9110420657
  0
LINE
  5
309
330
1F
100
AcDbEntity
  8
0
  6
Continuous
 62
     7
370
    25
100
AcDbLine
 10
83.8431926169
 20
48.2858416487
 30
0.0
 11
84.0372491743
 21
47.7281356444
 31
0.0
  0
LWPOLYLINE
  5
30A
330
1F
100
AcDbEntity
  8
0
  6
Continuous
 62
     7
370
    25
100
AcDbPolyline
 90
        9
 70
   128
 43
0.0
 10
84.0372491743
 20
47.7281356444
 10
84.1496754806
 20
47.5026557326
 10
84.3087153279
 20
47.3347599209
 10
84.5083352051
 20
47.2308176903
 10
84.7409621124
 20
47.1947723077
 10
84.9977708588
 20
47.2279912305
 10
85.2690188646
 20
47.3292142291
 10
85.5444157663
 20
47.4946011961
 10
85.8135138031
 20
47.7178778292
  0
LWPOLYLINE
  5
30B
330
1F
100
AcDbEntity
  8
0
  6
Continuous
 62
     7
370
    25
100
AcDbPolyline
 90
       27
 70
   128
 43
0.0
 10
85.8135138031
 20
47.7178778292
 10
88.9455176969
 20
50.6482872705
 10
92.0996948905
 20
53.505390711
 10
95.2742703935
 20
56.2875803362
 10
98.4674577365
 20
58.9932904892
 10
101.6774599764
 20
61.6209985509
 10
104.9024707076
 20
64.1692257978
 10
108.1406750786
 20
66.6365382333
 10
111.3902508132
 20
69.0215473952
 10
114.6493692362
 20
71.3229111367
 10
117.9161963022
 20
73.5393343821
 10
121.188893628
 20
75.6695698551
 10
124.4656195266
 20
77.7124187812
 10
127.7445300442
 20
79.6667315619
 10
131.0237799977
 20
81.5314084217
 10
134.3015240128
 20
83.3054000272
 10
137.5759175627
 20
84.9877080775
 10
140.8451180062
 20
86.5773858658
 10
144.1072856242
 20
88.0735388125
 10
147.3605846555
 20
89.4753249682
 10
150.6031843295
 20
90.781955488
 10
153.8332598968
 20
91.992695075
 10
157.0489936555
 20
93.1068623941
 10
160.2485759748
 20
94.1238304558
 10
163.4302063128
 20
95.0430269687
 10
166.59209423
 20
95.8639346615
 10
169.7324603968
 20
96.5860915744
  0
ARC
  5
30C
330
1F
100
AcDbEntity
  8
0
  6
Continuous
 62
     7
370
    25
100
AcDbCircle
 10
168.7480825872
 20
99.2161935699
 30
0.0
 40
2.80827993238168
100
AcDbArc
 50
290.5195493307
 51
348.5868322193
  0
LINE
  5
30D
330
1F
100
AcDbEntity
  8
0
  6
Continuous
 62
     7
370
    25
100
AcDbLine
 10
171.500830814
 20
98.660483773
 30
0.0
 11
171.6961599947
 21
99.4674439089
 31
0.0
  0
LWPOLYLINE
  5
30E
330
1F
100
AcDbEntity
  8
0
  6
Continuous
 62
     7
370
    25
100
AcDbPolyline
 90
        9
 70
   128
 43
0.0
 10
172.3640051793
 20
99.8684571879
 10
172.3109689161
 20
99.9476247388
 10
172.2315221172
 20
99.9877082567
 10
172.1331972176
 20
99.9849073811
 10
172.0253165045
 20
99.9394876659
 10
171.9181082622
 20
99.8557554021
 10
171.8217370171
 20
99.741649334
 10
171.7453398286
 20
99.6079879783
 10
171.6961599947
 20
99.4674439089
  0
LWPOLYLINE
  5
30F
330
1F
100
AcDbEntity
  8
0
  6
Continuous
 62
     7
370
    25
100
AcDbPolyline
 90
       13
 70
   128
 43
0.0
 10
172.3640051793
 20
99.8684571879
 10
172.5974230213
 20
99.4021508329
 10
172.8985565248
 20
99.016528116
 10
173.2619617748
 20
98.718560355
 10
173.6810691026
 20
98.5136342346
 10
174.1483018527
 20
98.4054544253
 10
174.6552133549
 20
98.3959766103
 10
175.1926396229
 20
98.4853721302
 10
175.7508650225
 20
98.6720248857
 10
176.3197979109
 20
98.9525605538
 10
176.8891530744
 20
99.3219075884
 10
177.4486376658
 20
99.7733889047
 10
177.9881372783
 20
100.2988425881
  0
LWPOLYLINE
  5
310
330
1F
100
AcDbEntity
  8
0
  6
Continuous
 62
     7
370
    25
100
AcDbPolyline
 90
        9
 70
   128
 43
0.0
 10
178.4552895497
 20
100.0458794592
 10
178.4777894936
 20
100.1747570779
 10
178.470454091
 20
100.288985529
 10
178.4339040811
 20
100.3788985308
 10
178.371232412
 20
100.4368874327
 10
178.2877425086
 20
100.4580450767
 10
178.1904994838
 20
100.440581053
 10
178.0877322723
 20
100.3859732085
 10
177.9881372783
 20
100.2988425881
  0
LINE
  5
311
330
1F
100
AcDbEntity
  8
0
  6
Continuous
 62
     7
370
    25
100
AcDbLine
 10
177.7589446637
 20
97.5491011593
 30
0.0
 11
178.4552895497
 21
100.0458794592
 31
0.0
  0
ARC
  5
312
330
1F
100
AcDbEntity
  8
0
  6
Continuous
 62
     7
370
    25
100
AcDbCircle
 10
73.0294479354
 20
51.1522811659
 30
0.0
 40
2.692017441769817
100
AcDbArc
 50
132.3565696012
 51
192.9218832888
  0
LINE
  5
313
330
1F
100
AcDbEntity
  8
0
  6
Continuous
 62
     7
370
    25
100
AcDbLine
 10
70.405603531
 20
50.5502857767
 30
0.0
 11
74.293127906
 21
41.3980847149
 31
0.0
  0
ARC
  5
314
330
1F
100
AcDbEntity
  8
0
  6
Continuous
 62
     7
370
    25
100
AcDbCircle
 10
73.4230508359
 20
50.6201288121
 30
0.0
 40
4.025492332790662
100
AcDbArc
 50
310.8132101299
 51
349.1921664028
  0
ARC
  5
315
330
1F
100
AcDbEntity
  8
0
  6
Continuous
 62
     7
370
    25
100
AcDbCircle
 10
74.9886587347
 20
41.6651938782
 30
0.0
 40
0.7450573392211266
100
AcDbArc
 50
201.0086075295
 51
239.3664570934
  0
LINE
  5
316
330
1F
100
AcDbEntity
  8
0
  6
Continuous
 62
     7
370
    25
100
AcDbLine
 10
116.8032040245
 20
81.5030596501
 30
0.0
 11
115.5013061795
 21
82.539318309
 31
0.0
  0
LINE
  5
317
330
1F
100
AcDbEntity
  8
0
  6
Continuous
 62
     7
370
    25
100
AcDbLine
 10
114.3170439938
 20
79.8117517259
 30
0.0
 11
116.8032040245
 21
81.5030596501
 31
0.0
  0
LINE
  5
318
330
1F
100
AcDbEntity
  8
0
  6
Continuous
 62
     7
370
    25
100
AcDbLine
 10
114.3170439938
 20
79.8117517259
 30
0.0
 11
112.768603215
 21
80.6802898791
 31
0.0
  0
LINE
  5
319
330
1F
100
AcDbEntity
  8
0
  6
Continuous
 62
     7
370
    25
100
AcDbLine
 10
116.8032040245
 20
81.5030596501
 30
0.0
 11
116.8719501549
 21
80.647010162
 31
0.0
  0
LINE
  5
31A
330
1F
100
AcDbEntity
  8
0
  6
Continuous
 62
     7
370
    25
100
AcDbLine
 10
116.8719501549
 20
80.647010162
 30
0.0
 11
115.1765702299
 21
79.4942879596
 31
0.0
  0
LINE
  5
31B
330
1F
100
AcDbEntity
  8
0
  6
Continuous
 62
     7
370
    25
100
AcDbLine
 10
115.1765702299
 20
79.4942879596
 30
0.0
 11
115.2885939215
 21
78.1204272035
 31
0.0
  0
LINE
  5
31C
330
1F
100
AcDbEntity
  8
0
  6
Continuous
 62
     7
370
    25
100
AcDbLine
 10
115.2885939215
 20
78.1204272035
 30
0.0
 11
116.9836998021
 21
79.2729630778
 31
0.0
  0
LINE
  5
31D
330
1F
100
AcDbEntity
  8
0
  6
Continuous
 62
     7
370
    25
100
AcDbLine
 10
116.9836998021
 20
79.2729630778
 30
0.0
 11
117.0513123234
 21
78.4345728453
 31
0.0
  0
LINE
  5
31E
330
1F
100
AcDbEntity
  8
0
  6
Continuous
 62
     7
370
    25
100
AcDbLine
 10
117.0513123234
 20
78.4345728453
 30
0.0
 11
115.3560699699
 21
77.2819441803
 31
0.0
  0
LINE
  5
31F
330
1F
100
AcDbEntity
  8
0
  6
Continuous
 62
     7
370
    25
100
AcDbLine
 10
115.3560699699
 20
77.2819441803
 30
0.0
 11
115.5770404874
 21
74.5475531815
 31
0.0
  0
LINE
  5
320
330
1F
100
AcDbEntity
  8
0
  6
Continuous
 62
     7
370
    25
100
AcDbLine
 10
115.5770404874
 20
74.5475531815
 30
0.0
 11
114.7860228211
 21
74.0089547315
 31
0.0
  0
LINE
  5
321
330
1F
100
AcDbEntity
  8
0
  6
Continuous
 62
     7
370
    25
100
AcDbLine
 10
114.7860228211
 20
74.0089547315
 30
0.0
 11
114.3170439938
 21
79.8117517259
 31
0.0
  0
LINE
  5
322
330
1F
100
AcDbEntity
  8
0
  6
Continuous
 62
     7
370
    25
100
AcDbLine
 10
114.7860228211
 20
74.0089547315
 30
0.0
 11
113.2595654256
 21
74.605486765
 31
0.0
  0
LINE
  5
323
330
1F
100
AcDbEntity
  8
0
  6
Continuous
 62
     7
370
    25
100
AcDbLine
 10
116.9836998021
 20
79.2729630778
 30
0.0
 11
116.0011623353
 21
80.0549443729
 31
0.0
  0
LWPOLYLINE
  5
324
330
1F
100
AcDbEntity
  8
0
  6
Continuous
 62
     7
370
    25
100
AcDbPolyline
 90
        3
 70
   128
 43
0.0
 10
120.3379901576
 20
85.536571702
 10
119.6688301561
 20
85.9862492736
 10
119.5510180052
 20
86.0654205601
  0
SPLINE
  5
325
330
1F
100
AcDbEntity
  8
0
  6
Continuous
 62
     7
370
    25
100
AcDbSpline
210
0.0
220
0.0
230
1.0
 70
     8
 71
     3
 72
    18
 73
    14
 74
     0
 42
0.00000001
 43
0.00000001
 40
0.0080715955917431
 40
0.0080715955917431
 40
0.0080715955917431
 40
0.0080715955917431
 40
0.125
 40
0.125
 40
0.25
 40
0.25
 40
0.5
 40
0.5
 40
0.75
 40
0.75
 40
0.875
 40
0.875
 40
0.9924603147078093
 40
0.9924603147078093
 40
0.9924603147078093
 40
0.9924603147078093
 10
119.9528300130012
 20
84.80769000519106
 30
0.0
 10
119.9524682785255
 20
84.84488136463106
 30
0.0
 10
119.9525511534622
 20
84.87728866974145
 30
0.0
 10
119.9577412472332
 20
84.93659508509258
 30
0.0
 10
119.9635095854178
 20
84.96896761714495
 30
0.0
 10
119.9892785812802
 20
85.0680785191919
 30
0.0
 10
120.0192983559324
 20
85.14234253248843
 30
0.0
 10
120.0932718703186
 20
85.2835688766109
 30
0.0
 10
120.134836939551
 20
85.34574156366916
 30
0.0
 10
120.2074289716784
 20
85.42962834362305
 30
0.0
 10
120.231664232706
 20
85.45418712939556
 30
0.0
 10
120.2779923434134
 20
85.49378555908785
 30
0.0
 10
120.3056149372317
 20
85.51375558878527
 30
0.0
 10
120.3379901575595
 20
85.53657170201193
 30
0.0
  0
LWPOLYLINE
  5
326
330
1F
100
AcDbEntity
  8
0
  6
Continuous
 62
     7
370
    25
100
AcDbPolyline
 90
        3
 70
   128
 43
0.0
 10
119.952830013
 20
84.8076900052
 10
119.2288103577
 20
85.1539274865
 10
118.6242559824
 20
85.4430358072
  0
SPLINE
  5
327
330
1F
100
AcDbEntity
  8
0
  6
Continuous
 62
     7
370
    25
100
AcDbSpline
210
0.0
220
0.0
230
1.0
 70
     8
 71
     3
 72
    20
 73
    16
 74
     0
 42
0.00000001
 43
0.00000001
 40
0.0075443827996082
 40
0.0075443827996082
 40
0.0075443827996082
 40
0.0075443827996082
 40
0.125
 40
0.125
 40
0.25
 40
0.25
 40
0.5
 40
0.5
 40
0.625
 40
0.625
 40
0.75
 40
0.75
 40
0.875
 40
0.875
 40
0.9937392140205298
 40
0.9937392140205298
 40
0.9937392140205298
 40
0.9937392140205298
 10
120.3379901575593
 20
85.53657170201187
 30
0.0
 10
120.3706908257456
 20
85.55563898417326
 30
0.0
 10
120.3993804333377
 20
85.57197125003974
 30
0.0
 10
120.4501178537965
 20
85.59525516173994
 30
0.0
 10
120.4758503972167
 20
85.60367851170417
 30
0.0
 10
120.5503241144152
 20
85.61790806996433
 30
0.0
 10
120.5975741359268
 20
85.61261450202434
 30
0.0
 10
120.6627417940301
 20
85.5853703491448
 30
0.0
 10
120.6821425104147
 20
85.5737202691235
 30
0.0
 10
120.7143453869318
 20
85.5452005352973
 30
0.0
 10
120.7285088803754
 20
85.52713269555781
 30
0.0
 10
120.7531757343397
 20
85.4840924111541
 30
0.0
 10
120.7625026501181
 20
85.4611671528526
 30
0.0
 10
120.7737275787078
 20
85.41411075010235
 30
0.0
 10
120.7772297936389
 20
85.38380572080392
 30
0.0
 10
120.780839578441
 20
85.34786110606468
 30
0.0
  0
SPLINE
  5
328
330
1F
100
AcDbEntity
  8
0
  6
Continuous
 62
     7
370
    25
100
AcDbSpline
210
0.0
220
0.0
230
1.0
 70
     8
 71
     3
 72
    20
 73
    16
 74
     0
 42
0.00000001
 43
0.00000001
 40
0.006227705963087
 40
0.006227705963087
 40
0.006227705963087
 40
0.006227705963087
 40
0.125
 40
0.125
 40
0.25
 40
0.25
 40
0.3749999999999999
 40
0.3749999999999999
 40
0.4999999999999999
 40
0.4999999999999999
 40
0.7499999999999999
 40
0.7499999999999999
 40
0.8749999999999999
 40
0.8749999999999999
 40
0.9925682009492406
 40
0.9925682009492406
 40
0.9925682009492406
 40
0.9925682009492406
 10
120.7808395784411
 20
85.34786110606474
 30
0.0
 10
120.78155693672
 20
85.3097992156025
 30
0.0
 10
120.7817408173214
 20
85.27706512086641
 30
0.0
 10
120.7766371374779
 20
85.21879691299827
 30
0.0
 10
120.770552465691
 20
85.18553966907719
 30
0.0
 10
120.7524391185538
 20
85.11320126631897
 30
0.0
 10
120.7413578850559
 20
85.07795525635267
 30
0.0
 10
120.7149701752218
 20
85.01017499249653
 30
0.0
 10
120.6986687716888
 20
84.97506960037846
 30
0.0
 10
120.6424417727003
 20
84.86897493016183
 30
0.0
 10
120.5996951200495
 20
84.80588654103613
 30
0.0
 10
120.526341509225
 20
84.72217836011389
 30
0.0
 10
120.501543073424
 20
84.69736483149573
 30
0.0
 10
120.4531067882053
 20
84.65613391363306
 30
0.0
 10
120.4248201917624
 20
84.6355379313114
 30
0.0
 10
120.3921368161793
 20
84.61226159935678
 30
0.0
  0
SPLINE
  5
329
330
1F
100
AcDbEntity
  8
0
  6
Continuous
 62
     7
370
    25
100
AcDbSpline
210
0.0
220
0.0
230
1.0
 70
     8
 71
     3
 72
    18
 73
    14
 74
     0
 42
0.00000001
 43
0.00000001
 40
0.0074677380837553
 40
0.0074677380837553
 40
0.0074677380837553
 40
0.0074677380837553
 40
0.125
 40
0.125
 40
0.25
 40
0.25
 40
0.5
 40
0.5
 40
0.75
 40
0.75
 40
0.875
 40
0.875
 40
0.9919477805096525
 40
0.9919477805096525
 40
0.9919477805096525
 40
0.9919477805096525
 10
120.3921368161794
 20
84.6122615993567
 30
0.0
 10
120.3594417020002
 20
84.5929274778767
 30
0.0
 10
120.3312842991791
 20
84.57674690124492
 30
0.0
 10
120.2828426040743
 20
84.55488169137654
 30
0.0
 10
120.257303258631
 20
84.54700858914688
 30
0.0
 10
120.180962287851
 20
84.53348206352237
 30
0.0
 10
120.1349526200576
 20
84.53904112984667
 30
0.0
 10
120.0494617689456
 20
84.5767839063739
 30
0.0
 10
120.0168049947667
 20
84.60615991467225
 30
0.0
 10
119.981404224143
 20
84.66974598604487
 30
0.0
 10
119.9723424991576
 20
84.69317644794572
 30
0.0
 10
119.9606774106266
 20
84.74254172407773
 30
0.0
 10
119.9568248684662
 20
84.77273420245079
 30
0.0
 10
119.9528300130012
 20
84.80769000519118
 30
0.0
  0
LWPOLYLINE
  5
32A
330
1F
100
AcDbEntity
  8
0
  6
Continuous
 62
     7
370
    25
100
AcDbPolyline
 90
        3
 70
   128
 43
0.0
 10
121.9983983021
 20
86.6189713826
 10
121.3292243684
 20
87.0680347758
 10
121.2493035769
 20
87.1216671684
  0
SPLINE
  5
32B
330
1F
100
AcDbEntity
  8
0
  6
Continuous
 62
     7
370
    25
100
AcDbSpline
210
0.0
220
0.0
230
1.0
 70
     8
 71
     3
 72
    18
 73
    14
 74
     0
 42
0.00000001
 43
0.00000001
 40
0.0080777190461884
 40
0.0080777190461884
 40
0.0080777190461884
 40
0.0080777190461884
 40
0.125
 40
0.125
 40
0.25
 40
0.25
 40
0.5
 40
0.5
 40
0.75
 40
0.75
 40
0.875
 40
0.875
 40
0.993623909789594
 40
0.993623909789594
 40
0.993623909789594
 40
0.993623909789594
 10
121.6126675465031
 20
85.89084222143842
 30
0.0
 10
121.6123042856653
 20
85.92798392264115
 30
0.0
 10
121.6123851720164
 20
85.96034803680935
 30
0.0
 10
121.6175584870381
 20
86.01955624217852
 30
0.0
 10
121.6233146242045
 20
86.05188990356258
 30
0.0
 10
121.6490485893056
 20
86.15115945291923
 30
0.0
 10
121.6786080751939
 20
86.22403381189304
 30
0.0
 10
121.7531870804139
 20
86.36597185237646
 30
0.0
 10
121.7944729753702
 20
86.4277274833721
 30
0.0
 10
121.8670327620115
 20
86.51151476225971
 30
0.0
 10
121.8912163681828
 20
86.5360095289685
 30
0.0
 10
121.9377291156944
 20
86.575748441758
 30
0.0
 10
121.9656483952103
 20
86.59590152897539
 30
0.0
 10
121.9983983021002
 20
86.61897138262528
 30
0.0
  0
LWPOLYLINE
  5
32C
330
1F
100
AcDbEntity
  8
0
  6
Continuous
 62
     7
370
    25
100
AcDbPolyline
 90
        3
 70
   128
 43
0.0
 10
121.6126675465
 20
85.8908422214
 10
120.8891248
 20
86.2368494928
 10
120.2858477033
 20
86.5253451709
  0
SPLINE
  5
32D
330
1F
100
AcDbEntity
  8
0
  6
Continuous
 62
     7
370
    25
100
AcDbSpline
210
0.0
220
0.0
230
1.0
 70
     8
 71
     3
 72
    20
 73
    16
 74
     0
 42
0.00000001
 43
0.00000001
 40
0.0063495056578592
 40
0.0063495056578592
 40
0.0063495056578592
 40
0.0063495056578592
 40
0.125
 40
0.125
 40
0.25
 40
0.25
 40
0.5
 40
0.5
 40
0.625
 40
0.625
 40
0.75
 40
0.75
 40
0.875
 40
0.875
 40
0.9937361811871652
 40
0.9937361811871652
 40
0.9937361811871652
 40
0.9937361811871652
 10
121.9983983021002
 20
86.61897138262523
 30
0.0
 10
122.0315019368167
 20
86.63887905385053
 30
0.0
 10
122.0598613462022
 20
86.65545853245696
 30
0.0
 10
122.1079889070723
 20
86.67747102982604
 30
0.0
 10
122.1332833869919
 20
86.68528557285438
 30
0.0
 10
122.2106653349276
 20
86.69931519333856
 30
0.0
 10
122.2567950690277
 20
86.69445493470835
 30
0.0
 10
122.322120951316
 20
86.66709861878132
 30
0.0
 10
122.3415546430735
 20
86.65544600336017
 30
0.0
 10
122.3737575733064
 20
86.62695433768725
 30
0.0
 10
122.3879216642862
 20
86.60889042661033
 30
0.0
 10
122.4126014035536
 20
86.56583747595617
 30
0.0
 10
122.4219352676152
 20
86.54290250998784
 30
0.0
 10
122.433164411186
 20
86.49584465590438
 30
0.0
 10
122.436667593454
 20
86.46553478705071
 30
0.0
 10
122.4402781630907
 20
86.42958232770987
 30
0.0
  0
SPLINE
  5
32E
330
1F
100
AcDbEntity
  8
0
  6
Continuous
 62
     7
370
    25
100
AcDbSpline
210
0.0
220
0.0
230
1.0
 70
     8
 71
     3
 72
    22
 73
    18
 74
     0
 42
0.00000001
 43
0.00000001
 40
0.0062344927572836
 40
0.0062344927572836
 40
0.0062344927572836
 40
0.0062344927572836
 40
0.125
 40
0.125
 40
0.25
 40
0.25
 40
0.375
 40
0.375
 40
0.5
 40
0.5
 40
0.625
 40
0.625
 40
0.75
 40
0.75
 40
0.875
 40
0.875
 40
0.992741708792316
 40
0.992741708792316
 40
0.992741708792316
 40
0.992741708792316
 10
122.4402781630907
 20
86.42958232770992
 30
0.0
 10
122.4409931366506
 20
86.39153288821794
 30
0.0
 10
122.4411765129513
 20
86.35879928857035
 30
0.0
 10
122.436080380592
 20
86.3005109161101
 30
0.0
 10
122.4300129009382
 20
86.26730823385364
 30
0.0
 10
122.4119244597118
 20
86.19513760993856
 30
0.0
 10
122.4008839478757
 20
86.16010986516653
 30
0.0
 10
122.3745087468951
 20
86.09276166695517
 30
0.0
 10
122.3579712185482
 20
86.05735721196747
 30
0.0
 10
122.3197503903876
 20
85.9849240159625
 30
0.0
 10
122.2998642866651
 20
85.95133468158517
 30
0.0
 10
122.2590595771024
 20
85.89156195014452
 30
0.0
 10
122.2356785379037
 20
85.8617955557513
 30
0.0
 10
122.1842389780897
 20
85.80312729505616
 30
0.0
 10
122.1594322042282
 20
85.77791118905182
 30
0.0
 10
122.1125521579464
 20
85.73766861974774
 30
0.0
 10
122.0845595484367
 20
85.71733067361336
 30
0.0
 10
122.0518184808679
 20
85.69412816178354
 30
0.0
  0
SPLINE
  5
32F
330
1F
100
AcDbEntity
  8
0
  6
Continuous
 62
     7
370
    25
100
AcDbSpline
210
0.0
220
0.0
230
1.0
 70
     8
 71
     3
 72
    18
 73
    14
 74
     0
 42
0.00000001
 43
0.00000001
 40
0.0073107579850894
 40
0.0073107579850894
 40
0.0073107579850894
 40
0.0073107579850894
 40
0.125
 40
0.125
 40
0.25
 40
0.25
 40
0.5
 40
0.5
 40
0.75
 40
0.75
 40
0.875
 40
0.875
 40
0.9919522347609021
 40
0.9919522347609021
 40
0.9919522347609021
 40
0.9919522347609021
 10
122.0518184808679
 20
85.69412816178357
 30
0.0
 10
122.0190675074316
 20
85.67479170035625
 30
0.0
 10
121.9907708957543
 20
85.65853774168147
 30
0.0
 10
121.9417967882196
 20
85.6363306399805
 30
0.0
 10
121.9165376130867
 20
85.62846943619998
 30
0.0
 10
121.8432061882262
 20
85.61613998025585
 30
0.0
 10
121.7943261343352
 20
85.62253932561167
 30
0.0
 10
121.7094956991736
 20
85.6596868480364
 30
0.0
 10
121.676637348674
 20
85.68933632187792
 30
0.0
 10
121.641246798706
 20
85.7528750329175
 30
0.0
 10
121.6321841685503
 20
85.77630845912937
 30
0.0
 10
121.6205163720222
 20
85.82568554872941
 30
0.0
 10
121.6166632018858
 20
85.85588216726906
 30
0.0
 10
121.6126675465032
 20
85.8908422214385
 30
0.0
  0
LINE
  5
330
330
1F
100
AcDbEntity
  8
0
  6
Continuous
 62
     7
370
    25
100
AcDbLine
 10
121.6952568798
 20
84.7084324694
 30
0.0
 11
120.8082275553
 21
85.378085106
 31
0.0
  0
LINE
  5
331
330
1F
100
AcDbEntity
  8
0
  6
Continuous
 62
     7
370
    25
100
AcDbLine
 10
120.8019224561
 20
84.125711853
 30
0.0
 11
121.6952568798
 21
84.7084324694
 31
0.0
  0
LINE
  5
332
330
1F
100
AcDbEntity
  8
0
  6
Continuous
 62
     7
370
    25
100
AcDbLine
 10
120.8019224561
 20
84.125711853
 30
0.0
 11
120.1176950401
 21
84.533955872
 31
0.0
  0
LINE
  5
333
330
1F
100
AcDbEntity
  8
0
  6
Continuous
 62
     7
370
    25
100
AcDbLine
 10
120.5579982519
 20
80.0789112362
 30
0.0
 11
122.3838695362
 21
81.2707430178
 31
0.0
  0
LINE
  5
334
330
1F
100
AcDbEntity
  8
0
  6
Continuous
 62
     7
370
    25
100
AcDbLine
 10
122.3838695362
 20
81.2707430178
 30
0.0
 11
121.3209958502
 21
83.3108329149
 31
0.0
  0
LINE
  5
335
330
1F
100
AcDbEntity
  8
0
  6
Continuous
 62
     7
370
    25
100
AcDbLine
 10
121.3209958502
 20
83.3108329149
 30
0.0
 11
120.5579982519
 21
80.0789112362
 31
0.0
  0
LINE
  5
336
330
1F
100
AcDbEntity
  8
0
  6
Continuous
 62
     7
370
    25
100
AcDbLine
 10
121.6952568798
 20
84.7084324694
 30
0.0
 11
124.0607463043
 21
80.1479914688
 31
0.0
  0
LINE
  5
337
330
1F
100
AcDbEntity
  8
0
  6
Continuous
 62
     7
370
    25
100
AcDbLine
 10
124.0607463043
 20
80.1479914688
 30
0.0
 11
123.2350563311
 21
79.6099151666
 31
0.0
  0
LINE
  5
338
330
1F
100
AcDbEntity
  8
0
  6
Continuous
 62
     7
370
    25
100
AcDbLine
 10
123.2350563311
 20
79.6099151666
 30
0.0
 11
122.7309765075
 21
80.5972609437
 31
0.0
  0
LINE
  5
339
330
1F
100
AcDbEntity
  8
0
  6
Continuous
 62
     7
370
    25
100
AcDbLine
 10
122.7309765075
 20
80.5972609437
 30
0.0
 11
120.315367019
 21
79.0222795567
 31
0.0
  0
LINE
  5
33A
330
1F
100
AcDbEntity
  8
0
  6
Continuous
 62
     7
370
    25
100
AcDbLine
 10
120.315367019
 20
79.0222795567
 30
0.0
 11
119.9389965916
 21
77.461118557
 31
0.0
  0
LINE
  5
33B
330
1F
100
AcDbEntity
  8
0
  6
Continuous
 62
     7
370
    25
100
AcDbLine
 10
119.9389965916
 20
77.461118557
 30
0.0
 11
119.1131327496
 21
76.9225211693
 31
0.0
  0
LINE
  5
33C
330
1F
100
AcDbEntity
  8
0
  6
Continuous
 62
     7
370
    25
100
AcDbLine
 10
119.1131327496
 20
76.9225211693
 30
0.0
 11
120.8019224561
 21
84.125711853
 31
0.0
  0
LINE
  5
33D
330
1F
100
AcDbEntity
  8
0
  6
Continuous
 62
     7
370
    25
100
AcDbLine
 10
119.1131327496
 20
76.9225211693
 30
0.0
 11
117.5269548942
 21
77.4836044716
 31
0.0
  0
LINE
  5
33E
330
1F
100
AcDbEntity
  8
0
  6
Continuous
 62
     7
370
    25
100
AcDbLine
 10
122.3838695362
 20
81.2707430178
 30
0.0
 11
121.0089174744
 21
81.9889246017
 31
0.0
  0
LINE
  5
33F
330
1F
100
AcDbEntity
  8
0
  6
Continuous
 62
     7
370
    25
100
AcDbLine
 10
126.3276141521
 20
87.4682282192
 30
0.0
 11
127.1392754921
 21
87.9231847171
 31
0.0
  0
LINE
  5
340
330
1F
100
AcDbEntity
  8
0
  6
Continuous
 62
     7
370
    25
100
AcDbLine
 10
127.1392754921
 20
87.9231847171
 30
0.0
 11
127.1100572841
 21
85.4494105239
 31
0.0
  0
LINE
  5
341
330
1F
100
AcDbEntity
  8
0
  6
Continuous
 62
     7
370
    25
100
AcDbLine
 10
127.1100572841
 20
85.4494105239
 30
0.0
 11
128.8163399332
 21
88.8639749663
 31
0.0
  0
LINE
  5
342
330
1F
100
AcDbEntity
  8
0
  6
Continuous
 62
     7
370
    25
100
AcDbLine
 10
128.8163399332
 20
88.8639749663
 30
0.0
 11
129.7644061307
 21
89.3964698578
 31
0.0
  0
LINE
  5
343
330
1F
100
AcDbEntity
  8
0
  6
Continuous
 62
     7
370
    25
100
AcDbLine
 10
129.7644061307
 20
89.3964698578
 30
0.0
 11
127.9073751638
 21
85.6654391369
 31
0.0
  0
LINE
  5
344
330
1F
100
AcDbEntity
  8
0
  6
Continuous
 62
     7
370
    25
100
AcDbLine
 10
127.9073751638
 20
85.6654391369
 30
0.0
 11
129.8961866002
 21
83.3950617381
 31
0.0
  0
LINE
  5
345
330
1F
100
AcDbEntity
  8
0
  6
Continuous
 62
     7
370
    25
100
AcDbLine
 10
129.8961866002
 20
83.3950617381
 30
0.0
 11
128.9535987039
 21
82.865740095
 31
0.0
  0
LINE
  5
346
330
1F
100
AcDbEntity
  8
0
  6
Continuous
 62
     7
370
    25
100
AcDbLine
 10
128.9535987039
 20
82.865740095
 30
0.0
 11
127.1037773365
 21
84.9644438258
 31
0.0
  0
LINE
  5
347
330
1F
100
AcDbEntity
  8
0
  6
Continuous
 62
     7
370
    25
100
AcDbLine
 10
127.1037773365
 20
84.9644438258
 30
0.0
 11
127.0655102835
 21
81.8065588608
 31
0.0
  0
LINE
  5
348
330
1F
100
AcDbEntity
  8
0
  6
Continuous
 62
     7
370
    25
100
AcDbLine
 10
127.0655102835
 20
81.8065588608
 30
0.0
 11
126.253875259
 21
81.3516171134
 31
0.0
  0
LINE
  5
349
330
1F
100
AcDbEntity
  8
0
  6
Continuous
 62
     7
370
    25
100
AcDbLine
 10
126.253875259
 20
81.3516171134
 30
0.0
 11
126.3276141521
 21
87.4682282192
 31
0.0
  0
LINE
  5
34A
330
1F
100
AcDbEntity
  8
0
  6
Continuous
 62
     7
370
    25
100
AcDbLine
 10
127.1392754921
 20
87.9231847171
 30
0.0
 11
125.8504755507
 21
88.9527814839
 31
0.0
  0
LINE
  5
34B
330
1F
100
AcDbEntity
  8
0
  6
Continuous
 62
     7
370
    25
100
AcDbLine
 10
126.3276141521
 20
87.4682282192
 30
0.0
 11
124.7914203001
 21
88.3591545065
 31
0.0
  0
LINE
  5
34C
330
1F
100
AcDbEntity
  8
0
  6
Continuous
 62
     7
370
    25
100
AcDbLine
 10
126.253875259
 20
81.3516171134
 30
0.0
 11
124.7142127142
 21
81.9548167492
 31
0.0
  0
LINE
  5
34D
330
1F
100
AcDbEntity
  8
0
  6
Continuous
 62
     7
370
    25
100
AcDbLine
 10
123.2350563311
 20
79.6099151666
 30
0.0
 11
122.0047479697
 21
80.1237587343
 31
0.0
  0
LINE
  5
34E
330
1F
100
AcDbEntity
  8
0
  6
Continuous
 62
     7
370
    25
100
AcDbLine
 10
128.8163399332
 20
88.8639749663
 30
0.0
 11
127.3438158062
 21
89.7905213232
 31
0.0
  0
LINE
  5
34F
330
1F
100
AcDbEntity
  8
0
  6
Continuous
 62
     7
370
    25
100
AcDbLine
 10
129.7644061307
 20
89.3964698578
 30
0.0
 11
128.6061442624
 21
90.4995260912
 31
0.0
  0
LINE
  5
350
330
1F
100
AcDbEntity
  8
0
  6
Continuous
 62
     7
370
    25
100
AcDbLine
 10
128.9535987039
 20
82.865740095
 30
0.0
 11
127.4729996344
 21
83.5019792454
 31
0.0
  0
LINE
  5
351
330
1F
100
AcDbEntity
  8
0
  6
Continuous
 62
     7
370
    25
100
AcDbLine
 10
133.9769893882
 20
91.7989426097
 30
0.0
 11
132.4840245289
 21
92.717432386
 31
0.0
  0
LINE
  5
352
330
1F
100
AcDbEntity
  8
0
  6
Continuous
 62
     7
370
    25
100
AcDbLine
 10
131.6771984007
 20
84.4715014353
 30
0.0
 11
133.9769893882
 21
91.7989426097
 31
0.0
  0
LINE
  5
353
330
1F
100
AcDbEntity
  8
0
  6
Continuous
 62
     7
370
    25
100
AcDbLine
 10
131.6771984007
 20
84.4715014353
 30
0.0
 11
130.0768562846
 21
85.0478729334
 31
0.0
  0
LINE
  5
354
330
1F
100
AcDbEntity
  8
0
  6
Continuous
 62
     7
370
    25
100
AcDbLine
 10
134.3852887002
 20
90.8484192419
 30
0.0
 11
133.3498643439
 21
87.5690490937
 31
0.0
  0
LINE
  5
355
330
1F
100
AcDbEntity
  8
0
  6
Continuous
 62
     7
370
    25
100
AcDbLine
 10
133.3498643439
 20
87.5690490937
 30
0.0
 11
135.1845022016
 21
88.5246416894
 31
0.0
  0
LINE
  5
356
330
1F
100
AcDbEntity
  8
0
  6
Continuous
 62
     7
370
    25
100
AcDbLine
 10
135.1845022016
 20
88.5246416894
 30
0.0
 11
134.3852887002
 21
90.8484192419
 31
0.0
  0
LINE
  5
357
330
1F
100
AcDbEntity
  8
0
  6
Continuous
 62
     7
370
    25
100
AcDbLine
 10
133.9769893882
 20
91.7989426097
 30
0.0
 11
134.87703262
 21
92.2671719002
 31
0.0
  0
LINE
  5
358
330
1F
100
AcDbEntity
  8
0
  6
Continuous
 62
     7
370
    25
100
AcDbLine
 10
134.87703262
 20
92.2671719002
 30
0.0
 11
136.6559402488
 21
87.0637340156
 31
0.0
  0
LINE
  5
359
330
1F
100
AcDbEntity
  8
0
  6
Continuous
 62
     7
370
    25
100
AcDbLine
 10
136.6559402488
 20
87.0637340156
 30
0.0
 11
135.8243959871
 21
86.6307219619
 31
0.0
  0
LINE
  5
35A
330
1F
100
AcDbEntity
  8
0
  6
Continuous
 62
     7
370
    25
100
AcDbLine
 10
135.8243959871
 20
86.6307219619
 30
0.0
 11
135.4469020718
 21
87.7562073036
 31
0.0
  0
LINE
  5
35B
330
1F
100
AcDbEntity
  8
0
  6
Continuous
 62
     7
370
    25
100
AcDbLine
 10
135.4469020718
 20
87.7562073036
 30
0.0
 11
133.017226854
 21
86.4906501741
 31
0.0
  0
LINE
  5
35C
330
1F
100
AcDbEntity
  8
0
  6
Continuous
 62
     7
370
    25
100
AcDbLine
 10
133.017226854
 20
86.4906501741
 30
0.0
 11
132.5089327406
 21
84.9049175689
 31
0.0
  0
LINE
  5
35D
330
1F
100
AcDbEntity
  8
0
  6
Continuous
 62
     7
370
    25
100
AcDbLine
 10
132.5089327406
 20
84.9049175689
 30
0.0
 11
131.6771984007
 21
84.4715014353
 31
0.0
  0
LINE
  5
35E
330
1F
100
AcDbEntity
  8
0
  6
Continuous
 62
     7
370
    25
100
AcDbLine
 10
134.87703262
 20
92.2671719002
 30
0.0
 11
133.5537355369
 21
93.273927906
 31
0.0
  0
LINE
  5
35F
330
1F
100
AcDbEntity
  8
0
  6
Continuous
 62
     7
370
    25
100
AcDbLine
 10
135.1845022016
 20
88.5246416894
 30
0.0
 11
133.8773064104
 21
89.239550427
 31
0.0
  0
LINE
  5
360
330
1F
100
AcDbEntity
  8
0
  6
Continuous
 62
     7
370
    25
100
AcDbLine
 10
140.067284411
 20
94.9124279946
 30
0.0
 11
138.7871019944
 21
95.9359549224
 31
0.0
  0
LINE
  5
361
330
1F
100
AcDbEntity
  8
0
  6
Continuous
 62
     7
370
    25
100
AcDbLine
 10
139.2641863872
 20
94.5308359667
 30
0.0
 11
140.067284411
 21
94.9124279946
 31
0.0
  0
LINE
  5
362
330
1F
100
AcDbEntity
  8
0
  6
Continuous
 62
     7
370
    25
100
AcDbLine
 10
139.2641863872
 20
94.5308359667
 30
0.0
 11
137.7375081725
 21
95.4372404155
 31
0.0
  0
LINE
  5
363
330
1F
100
AcDbEntity
  8
0
  6
Continuous
 62
     7
370
    25
100
AcDbLine
 10
138.8032128677
 20
88.179378553
 30
0.0
 11
139.2641863872
 21
94.5308359667
 31
0.0
  0
LINE
  5
364
330
1F
100
AcDbEntity
  8
0
  6
Continuous
 62
     7
370
    25
100
AcDbLine
 10
138.8032128677
 20
88.179378553
 30
0.0
 11
137.254961296
 21
88.7885376016
 31
0.0
  0
LINE
  5
365
330
1F
100
AcDbEntity
  8
0
  6
Continuous
 62
     7
370
    25
100
AcDbLine
 10
140.067284411
 20
94.9124279946
 30
0.0
 11
139.6722328963
 21
89.4705756526
 31
0.0
  0
LINE
  5
366
330
1F
100
AcDbEntity
  8
0
  6
Continuous
 62
     7
370
    25
100
AcDbLine
 10
139.6722328963
 20
89.4705756526
 30
0.0
 11
141.2025108092
 21
90.200346552
 31
0.0
  0
LINE
  5
367
330
1F
100
AcDbEntity
  8
0
  6
Continuous
 62
     7
370
    25
100
AcDbLine
 10
141.2025108092
 20
90.200346552
 30
0.0
 11
141.1365454859
 21
89.2904667542
 31
0.0
  0
LINE
  5
368
330
1F
100
AcDbEntity
  8
0
  6
Continuous
 62
     7
370
    25
100
AcDbLine
 10
141.1365454859
 20
89.2904667542
 30
0.0
 11
138.8032128677
 21
88.179378553
 31
0.0
  0
LINE
  5
369
330
1F
100
AcDbEntity
  8
0
  6
Continuous
 62
     7
370
    25
100
AcDbLine
 10
135.8243959871
 20
86.6307219619
 30
0.0
 11
134.4126939308
 21
87.2175141167
 31
0.0
  0
LINE
  5
36A
330
1F
100
AcDbEntity
  8
0
  6
Continuous
 62
     7
370
    25
100
AcDbLine
 10
141.2025108092
 20
90.200346552
 30
0.0
 11
139.9223297001
 21
91.224088241
 31
0.0
  0
ARC
  5
36B
330
1F
100
AcDbEntity
  8
0
  6
Continuous
 62
     7
370
    25
100
AcDbCircle
 10
170.5757182031
 20
107.1946868533
 30
0.0
 40
4.025492332791059
100
AcDbArc
 50
310.8132101299
 51
349.1921664028
  0
ARC
  5
36C
330
1F
100
AcDbEntity
  8
0
  6
Continuous
 62
     7
370
    25
100
AcDbCircle
 10
177.3361965053
 20
114.1170514203
 30
0.0
 40
0.7537989019415103
100
AcDbArc
 50
60.7689536073
 51
100.5230808001
  0
LINE
  5
36D
330
1F
100
AcDbEntity
  8
0
  6
PHANTOM
 62
     8
370
    18
100
AcDbLine
 10
180.7340629108
 20
112.8171522132
 30
0.0
 11
177.1985290049
 21
114.8581724927
 31
0.0
  0
LINE
  5
36E
330
1F
100
AcDbEntity
  8
0
  6
PHANTOM
 62
     8
370
    18
100
AcDbLine
 10
74.7512554356
 20
51.1005709255
 30
0.0
 11
71.2157215296
 21
53.1415912051
 31
0.0
  0
LINE
  5
36F
330
1F
100
AcDbEntity
  8
0
  6
PHANTOM
 62
     8
370
    18
100
AcDbLine
 10
73.941137437
 20
48.5092654971
 30
0.0
 11
70.405603531
 21
50.5502857767
 31
0.0
  0
LINE
  5
370
330
1F
100
AcDbEntity
  8
0
  6
PHANTOM
 62
     8
370
    18
100
AcDbLine
 10
77.828661812
 20
39.3570644353
 30
0.0
 11
74.293127906
 21
41.3980847149
 31
0.0
  0
LINE
  5
371
330
1F
100
AcDbEntity
  8
0
  6
PHANTOM
 62
     8
370
    18
100
AcDbLine
 10
73.2712054814
 20
47.5734492485
 30
0.0
 11
74.6854190437
 21
46.7570411367
 31
0.0
  0
LINE
  5
372
330
1F
100
AcDbEntity
  8
0
  6
PHANTOM
 62
     8
370
    18
100
AcDbLine
 10
77.1165131522
 20
41.0336398317
 30
0.0
 11
75.7022995898
 21
41.8500479435
 31
0.0
  0
LINE
  5
373
330
1F
100
AcDbEntity
  8
0
  6
PHANTOM
 62
     8
370
    18
100
AcDbLine
 10
84.3993002407
 20
48.534285941
 30
0.0
 11
85.8135138031
 21
47.7178778292
 31
0.0
  0
LINE
  5
374
330
1F
100
AcDbEntity
  8
0
  6
PHANTOM
 62
     8
370
    18
100
AcDbLine
 10
168.3182468344
 20
97.4024996862
 30
0.0
 11
169.7324603968
 21
96.5860915744
 31
0.0
  0
LINE
  5
375
330
1F
100
AcDbEntity
  8
0
  6
PHANTOM
 62
     8
370
    18
100
AcDbLine
 10
83.175800295
 20
47.9110420657
 30
0.0
 11
81.7615867326
 21
48.7274501775
 31
0.0
  0
LINE
  5
376
330
1F
100
AcDbEntity
  8
0
  6
PHANTOM
 62
     8
370
    18
100
AcDbLine
 10
76.165484454
 20
42.6447708995
 30
0.0
 11
77.5796980164
 21
41.8283627877
 31
0.0
  0
LINE
  5
377
330
1F
100
AcDbEntity
  8
0
  6
PHANTOM
 62
     8
370
    18
100
AcDbLine
 10
172.2718040198
 20
108.5045169732
 30
0.0
 11
173.6860175821
 21
107.6881088614
 31
0.0
  0
LINE
  5
378
330
1F
100
AcDbEntity
  8
0
  6
PHANTOM
 62
     8
370
    18
100
AcDbLine
 10
172.0424548728
 20
107.5570107265
 30
0.0
 11
173.4566684352
 21
106.7406026147
 31
0.0
  0
LINE
  5
379
330
1F
100
AcDbEntity
  8
0
  6
PHANTOM
 62
     8
370
    18
100
AcDbLine
 10
178.7682105323
 20
108.9829723081
 30
0.0
 11
180.1824240947
 21
108.1665641962
 31
0.0
  0
LINE
  5
37A
330
1F
100
AcDbEntity
  8
0
  6
PHANTOM
 62
     8
370
    18
100
AcDbLine
 10
170.0866172517
 20
99.4768918849
 30
0.0
 11
171.500830814
 21
98.660483773
 31
0.0
  0
LINE
  5
37B
330
1F
100
AcDbEntity
  8
0
  6
PHANTOM
 62
     8
370
    18
100
AcDbLine
 10
171.6961599947
 20
99.4674439089
 30
0.0
 11
170.2819464323
 21
100.2838520208
 31
0.0
  0
LINE
  5
37C
330
1F
100
AcDbEntity
  8
0
  6
PHANTOM
 62
     8
370
    18
100
AcDbLine
 10
177.9881372783
 20
100.2988425881
 30
0.0
 11
176.573923716
 21
101.1152506999
 31
0.0
  0
ENDSEC
  0
SECTION
  2
OBJECTS
  0
DICTIONARY
  5
C
330
0
100
AcDbDictionary
281
     1
  3
ACAD_GROUP
350
D
  3
ACAD_LAYOUT
350
1A
  3
ACAD_MLINESTYLE
350
17
  3
ACAD_PLOTSETTINGS
350
19
  3
ACAD_PLOTSTYLENAME
350
E
  3
ACAD_SCALELIST
350
47
  3
DWGPROPS
350
37D
  0
DICTIONARY
  5
D
102
{ACAD_REACTORS
330
C
102
}
330
C
100
AcDbDictionary
281
     1
  0
DICTIONARY
  5
1A
102
{ACAD_REACTORS
330
C
102
}
330
C
100
AcDbDictionary
281
     1
  3
Layout1
350
1E
  3
Layout2
350
26
  3
Model
350
22
  0
DICTIONARY
  5
17
102
{ACAD_REACTORS
330
C
102
}
330
C
100
AcDbDictionary
281
     1
  3
Standard
350
18
  0
DICTIONARY
  5
19
102
{ACAD_REACTORS
330
C
102
}
330
C
100
AcDbDictionary
281
     1
  0
ACDBDICTIONARYWDFLT
  5
E
102
{ACAD_REACTORS
330
C
102
}
330
C
100
AcDbDictionary
281
     1
  3
Normal
350
F
100
AcDbDictionaryWithDefault
340
F
  0
DICTIONARY
  5
47
102
{ACAD_REACTORS
330
C
102
}
330
C
100
AcDbDictionary
281
     1
  3
A0
350
48
  3
A1
350
49
  3
A2
350
4A
  3
A3
350
4B
  3
A4
350
4C
  3
A5
350
4D
  3
A6
350
4E
  3
A7
350
4F
  3
A8
350
50
  3
A9
350
51
  3
B0
350
52
  3
B1
350
53
  3
B2
350
54
  3
B3
350
55
  3
B4
350
56
  3
B5
350
57
  3
B6
350
58
  3
B7
350
59
  3
B8
350
5A
  3
B9
350
5B
  3
C0
350
5C
  3
C1
350
5D
  3
C2
350
5E
  3
C3
350
5F
  3
C4
350
60
  3
C5
350
61
  3
C6
350
62
  3
C7
350
63
  3
C8
350
64
  3
C9
350
65
  3
D0
350
66
  3
D1
350
67
  3
D2
350
68
  0
XRECORD
  5
37D
102
{ACAD_REACTORS
330
C
102
}
330
C
100
AcDbXrecord
280
     1
  1
DWGPROPS COOKIE
  2

  3

  4

  6

  7

  8
CH-NTL-RS-WSCAD
  9

300
=
301
=
302
=
303
=
304
=
305
=
306
=
307
=
308
=
309
=
 40
0.0
 41
2460554.307982627
 42
2460554.307987477
  1

 90
        0
  0
LAYOUT
  5
1E
102
{ACAD_REACTORS
330
1A
102
}
330
1A
100
AcDbPlotSettings
  1

  2
none_device
  4

  6

 40
0.0
 41
0.0
 42
0.0
 43
0.0
 44
0.0
 45
0.0
 46
0.0
 47
0.0
 48
0.0
 49
0.0
140
0.0
141
0.0
142
1.0
143
1.0
 70
   688
 72
     1
 73
     0
 74
     5
  7

 75
    16
147
1.0
148
0.0
149
0.0
100
AcDbLayout
  1
Layout1
 70
     1
 71
     1
 10
0.0
 20
0.0
 11
420.0
 21
297.0
 12
0.0
 22
0.0
 32
0.0
 14
1.0000000000E+20
 24
1.0000000000E+20
 34
1.0000000000E+20
 15
-1.0000000000E+20
 25
-1.0000000000E+20
 35
-1.0000000000E+20
146
0.0
 13
0.0
 23
0.0
 33
0.0
 16
1.0
 26
0.0
 36
0.0
 17
0.0
 27
1.0
 37
0.0
 76
     0
330
1B
  0
LAYOUT
  5
26
102
{ACAD_REACTORS
330
1A
102
}
330
1A
100
AcDbPlotSettings
  1

  2
none_device
  4

  6

 40
0.0
 41
0.0
 42
0.0
 43
0.0
 44
0.0
 45
0.0
 46
0.0
 47
0.0
 48
0.0
 49
0.0
140
0.0
141
0.0
142
1.0
143
1.0
 70
   688
 72
     1
 73
     0
 74
     5
  7

 75
    16
147
1.0
148
0.0
149
0.0
100
AcDbLayout
  1
Layout2
 70
     1
 71
     2
 10
0.0
 20
0.0
 11
0.0
 21
0.0
 12
0.0
 22
0.0
 32
0.0
 14
0.0
 24
0.0
 34
0.0
 15
0.0
 25
0.0
 35
0.0
146
0.0
 13
0.0
 23
0.0
 33
0.0
 16
1.0
 26
0.0
 36
0.0
 17
0.0
 27
1.0
 37
0.0
 76
     0
330
23
  0
LAYOUT
  5
22
102
{ACAD_REACTORS
330
1A
102
}
330
1A
100
AcDbPlotSettings
  1

  2
none_device
  4
Letter_(8.50_x_11.00_Inches)
  6

 40
6.35
 41
6.35
 42
6.35000508
 43
6.35000508
 44
215.9
 45
279.4
 46
0.0
 47
0.0
 48
0.0
 49
0.0
140
0.0
141
0.0
142
1.0
143
1.0
 70
  1712
 72
     1
 73
     0
 74
     0
  7

 75
     0
147
1.0
148
0.0
149
0.0
100
AcDbLayout
  1
Model
 70
     1
 71
     0
 10
0.0
 20
0.0
 11
420.0
 21
297.0
 12
0.0
 22
0.0
 32
0.0
 14
0.0
 24
0.0
 34
0.0
 15
420.0
 25
297.0
 35
0.0
146
0.0
 13
0.0
 23
0.0
 33
0.0
 16
1.0
 26
0.0
 36
0.0
 17
0.0
 27
1.0
 37
0.0
 76
     0
330
1F
331
29
  0
MLINESTYLE
  5
18
102
{ACAD_REACTORS
330
17
102
}
330
17
100
AcDbMlineStyle
  2
Standard
 70
     0
  3

 62
   256
 51
90.0
 52
90.0
 71
     2
 49
0.5
 62
   256
  6
BYLAYER
 49
-0.5
 62
   256
  6
BYLAYER
  0
ACDBPLACEHOLDER
  5
F
102
{ACAD_REACTORS
330
E
102
}
330
E
  0
SCALE
  5
48
102
{ACAD_REACTORS
330
47
102
}
330
47
100
AcDbScale
 70
     0
300
1:1
140
1.0
141
1.0
290
     1
  0
SCALE
  5
49
102
{ACAD_REACTORS
330
47
102
}
330
47
100
AcDbScale
 70
     0
300
1:2
140
1.0
141
2.0
290
     0
  0
SCALE
  5
4A
102
{ACAD_REACTORS
330
47
102
}
330
47
100
AcDbScale
 70
     0
300
1:4
140
1.0
141
4.0
290
     0
  0
SCALE
  5
4B
102
{ACAD_REACTORS
330
47
102
}
330
47
100
AcDbScale
 70
     0
300
1:5
140
1.0
141
5.0
290
     0
  0
SCALE
  5
4C
102
{ACAD_REACTORS
330
47
102
}
330
47
100
AcDbScale
 70
     0
300
1:8
140
1.0
141
8.0
290
     0
  0
SCALE
  5
4D
102
{ACAD_REACTORS
330
47
102
}
330
47
100
AcDbScale
 70
     0
300
1:10
140
1.0
141
10.0
290
     0
  0
SCALE
  5
4E
102
{ACAD_REACTORS
330
47
102
}
330
47
100
AcDbScale
 70
     0
300
1:16
140
1.0
141
16.0
290
     0
  0
SCALE
  5
4F
102
{ACAD_REACTORS
330
47
102
}
330
47
100
AcDbScale
 70
     0
300
1:20
140
1.0
141
20.0
290
     0
  0
SCALE
  5
50
102
{ACAD_REACTORS
330
47
102
}
330
47
100
AcDbScale
 70
     0
300
1:30
140
1.0
141
30.0
290
     0
  0
SCALE
  5
51
102
{ACAD_REACTORS
330
47
102
}
330
47
100
AcDbScale
 70
     0
300
1:40
140
1.0
141
40.0
290
     0
  0
SCALE
  5
52
102
{ACAD_REACTORS
330
47
102
}
330
47
100
AcDbScale
 70
     0
300
1:50
140
1.0
141
50.0
290
     0
  0
SCALE
  5
53
102
{ACAD_REACTORS
330
47
102
}
330
47
100
AcDbScale
 70
     0
300
1:100
140
1.0
141
100.0
290
     0
  0
SCALE
  5
54
102
{ACAD_REACTORS
330
47
102
}
330
47
100
AcDbScale
 70
     0
300
2:1
140
2.0
141
1.0
290
     0
  0
SCALE
  5
55
102
{ACAD_REACTORS
330
47
102
}
330
47
100
AcDbScale
 70
     0
300
4:1
140
4.0
141
1.0
290
     0
  0
SCALE
  5
56
102
{ACAD_REACTORS
330
47
102
}
330
47
100
AcDbScale
 70
     0
300
8:1
140
8.0
141
1.0
290
     0
  0
SCALE
  5
57
102
{ACAD_REACTORS
330
47
102
}
330
47
100
AcDbScale
 70
     0
300
10:1
140
10.0
141
1.0
290
     0
  0
SCALE
  5
58
102
{ACAD_REACTORS
330
47
102
}
330
47
100
AcDbScale
 70
     0
300
100:1
140
100.0
141
1.0
290
     0
  0
SCALE
  5
59
102
{ACAD_REACTORS
330
47
102
}
330
47
100
AcDbScale
 70
     0
300
1/128" = 1'-0"
140
0.0078125
141
12.0
290
     0
  0
SCALE
  5
5A
102
{ACAD_REACTORS
330
47
102
}
330
47
100
AcDbScale
 70
     0
300
1/64" = 1'-0"
140
0.015625
141
12.0
290
     0
  0
SCALE
  5
5B
102
{ACAD_REACTORS
330
47
102
}
330
47
100
AcDbScale
 70
     0
300
1/32" = 1'-0"
140
0.03125
141
12.0
290
     0
  0
SCALE
  5
5C
102
{ACAD_REACTORS
330
47
102
}
330
47
100
AcDbScale
 70
     0
300
1/16" = 1'-0"
140
0.0625
141
12.0
290
     0
  0
SCALE
  5
5D
102
{ACAD_REACTORS
330
47
102
}
330
47
100
AcDbScale
 70
     0
300
3/32" = 1'-0"
140
0.09375
141
12.0
290
     0
  0
SCALE
  5
5E
102
{ACAD_REACTORS
330
47
102
}
330
47
100
AcDbScale
 70
     0
300
1/8" = 1'-0"
140
0.125
141
12.0
290
     0
  0
SCALE
  5
5F
102
{ACAD_REACTORS
330
47
102
}
330
47
100
AcDbScale
 70
     0
300
3/16" = 1'-0"
140
0.1875
141
12.0
290
     0
  0
SCALE
  5
60
102
{ACAD_REACTORS
330
47
102
}
330
47
100
AcDbScale
 70
     0
300
1/4" = 1'-0"
140
0.25
141
12.0
290
     0
  0
SCALE
  5
61
102
{ACAD_REACTORS
330
47
102
}
330
47
100
AcDbScale
 70
     0
300
3/8" = 1'-0"
140
0.375
141
12.0
290
     0
  0
SCALE
  5
62
102
{ACAD_REACTORS
330
47
102
}
330
47
100
AcDbScale
 70
     0
300
1/2" = 1'-0"
140
0.5
141
12.0
290
     0
  0
SCALE
  5
63
102
{ACAD_REACTORS
330
47
102
}
330
47
100
AcDbScale
 70
     0
300
3/4" = 1'-0"
140
0.75
141
12.0
290
     0
  0
SCALE
  5
64
102
{ACAD_REACTORS
330
47
102
}
330
47
100
AcDbScale
 70
     0
300
1" = 1'-0"
140
1.0
141
12.0
290
     0
  0
SCALE
  5
65
102
{ACAD_REACTORS
330
47
102
}
330
47
100
AcDbScale
 70
     0
300
1-1/2" = 1'-0"
140
1.5
141
12.0
290
     0
  0
SCALE
  5
66
102
{ACAD_REACTORS
330
47
102
}
330
47
100
AcDbScale
 70
     0
300
3" = 1'-0"
140
3.0
141
12.0
290
     0
  0
SCALE
  5
67
102
{ACAD_REACTORS
330
47
102
}
330
47
100
AcDbScale
 70
     0
300
6" = 1'-0"
140
6.0
141
12.0
290
     0
  0
SCALE
  5
68
102
{ACAD_REACTORS
330
47
102
}
330
47
100
AcDbScale
 70
     0
300
1'-0" = 1'-0"
140
12.0
141
12.0
290
     0
  0
ENDSEC
  0
EOF
