  0
SECTION
  2
HEADER
  9
$ACADVER
  1
AC1015
  9
$ACADMAINTVER
 70
     6
  9
$DWGCODEPAGE
  3
ANSI_1252
  9
$INSBASE
 10
0.0
 20
0.0
 30
0.0
  9
$EXTMIN
 10
0.0
 20
0.0
 30
0.0
  9
$EXTMAX
 10
420.0
 20
297.0
 30
0.0
  9
$LIMMIN
 10
0.0
 20
0.0
  9
$LIMMAX
 10
420.0
 20
297.0
  9
$ORTHOMODE
 70
     0
  9
$REGENMODE
 70
     1
  9
$FILLMODE
 70
     1
  9
$QTEXTMODE
 70
     0
  9
$MIRRTEXT
 70
     1
  9
$LTSCALE
 40
1.0
  9
$ATTMODE
 70
     1
  9
$TEXTSIZE
 40
3.5
  9
$TRACEWID
 40
1.0
  9
$TEXTSTYLE
  7
Standard
  9
$CLAYER
  8
0
  9
$CELTYPE
  6
ByLayer
  9
$CECOLOR
 62
   256
  9
$CELTSCALE
 40
1.0
  9
$DISPSILH
 70
     0
  9
$DIMSCALE
 40
1.0
  9
$DIMASZ
 40
3.302
  9
$DIMEXO
 40
1.0
  9
$DIMDLI
 40
3.75
  9
$DIMRND
 40
0.0
  9
$DIMDLE
 40
0.0
  9
$DIMEXE
 40
1.0
  9
$DIMTP
 40
0.0
  9
$DIMTM
 40
0.0
  9
$DIMTXT
 40
3.5
  9
$DIMCEN
 40
2.5
  9
$DIMTSZ
 40
0.0
  9
$DIMTOL
 70
     0
  9
$DIMLIM
 70
     0
  9
$DIMTIH
 70
     1
  9
$DIMTOH
 70
     1
  9
$DIMSE1
 70
     0
  9
$DIMSE2
 70
     0
  9
$DIMTAD
 70
     1
  9
$DIMZIN
 70
     0
  9
$DIMBLK
  1

  9
$DIMASO
 70
     1
  9
$DIMSHO
 70
     1
  9
$DIMPOST
  1

  9
$DIMAPOST
  1

  9
$DIMALT
 70
     0
  9
$DIMALTD
 70
     3
  9
$DIMALTF
 40
0.0393700787
  9
$DIMLFAC
 40
1.0
  9
$DIMTOFL
 70
     1
  9
$DIMTVP
 40
0.0
  9
$DIMTIX
 70
     0
  9
$DIMSOXD
 70
     0
  9
$DIMSAH
 70
     0
  9
$DIMBLK1
  1

  9
$DIMBLK2
  1

  9
$DIMSTYLE
  2
ISO-25
  9
$DIMCLRD
 70
     0
  9
$DIMCLRE
 70
     0
  9
$DIMCLRT
 70
     0
  9
$DIMTFAC
 40
1.0
  9
$DIMGAP
 40
1.524
  9
$DIMJUST
 70
     0
  9
$DIMSD1
 70
     0
  9
$DIMSD2
 70
     0
  9
$DIMTOLJ
 70
     0
  9
$DIMTZIN
 70
     0
  9
$DIMALTZ
 70
     0
  9
$DIMALTTZ
 70
     0
  9
$DIMUPT
 70
     0
  9
$DIMDEC
 70
     2
  9
$DIMTDEC
 70
     2
  9
$DIMALTU
 70
     2
  9
$DIMALTTD
 70
     3
  9
$DIMTXSTY
  7
Standard
  9
$DIMAUNIT
 70
     0
  9
$DIMADEC
 70
     2
  9
$DIMALTRND
 40
0.0
  9
$DIMAZIN
 70
     0
  9
$DIMDSEP
 70
    44
  9
$DIMATFIT
 70
     3
  9
$DIMFRAC
 70
     0
  9
$DIMLDRBLK
  1

  9
$DIMLUNIT
 70
     2
  9
$DIMLWD
 70
    -2
  9
$DIMLWE
 70
    -2
  9
$DIMTMOVE
 70
     0
  9
$LUNITS
 70
     2
  9
$LUPREC
 70
     2
  9
$SKETCHINC
 40
1.0
  9
$FILLETRAD
 40
10.0
  9
$AUNITS
 70
     0
  9
$AUPREC
 70
     2
  9
$MENU
  1
.
  9
$ELEVATION
 40
0.0
  9
$PELEVATION
 40
0.0
  9
$THICKNESS
 40
0.0
  9
$LIMCHECK
 70
     0
  9
$CHAMFERA
 40
0.0
  9
$CHAMFERB
 40
0.0
  9
$CHAMFERC
 40
0.0
  9
$CHAMFERD
 40
0.0
  9
$SKPOLY
 70
     0
  9
$TDCREATE
 40
2460554.390968333
  9
$TDUCREATE
 40
2460554.307635
  9
$TDUPDATE
 40
2460554.390974479
  9
$TDUUPDATE
 40
2460554.307641146
  9
$TDINDWG
 40
0.0000000116
  9
$TDUSRTIMER
 40
0.0000000116
  9
$USRTIMER
 70
     1
  9
$ANGBASE
 50
0.0
  9
$ANGDIR
 70
     0
  9
$PDMODE
 70
     0
  9
$PDSIZE
 40
-1.0
  9
$PLINEWID
 40
0.0
  9
$SPLFRAME
 70
     0
  9
$SPLINETYPE
 70
     6
  9
$SPLINESEGS
 70
     8
  9
$HANDSEED
  5
4A8
  9
$SURFTAB1
 70
     6
  9
$SURFTAB2
 70
     6
  9
$SURFTYPE
 70
     6
  9
$SURFU
 70
     6
  9
$SURFV
 70
     6
  9
$UCSBASE
  2

  9
$UCSNAME
  2

  9
$UCSORG
 10
0.0
 20
0.0
 30
0.0
  9
$UCSXDIR
 10
1.0
 20
0.0
 30
0.0
  9
$UCSYDIR
 10
0.0
 20
1.0
 30
0.0
  9
$UCSORTHOREF
  2

  9
$UCSORTHOVIEW
 70
     0
  9
$UCSORGTOP
 10
0.0
 20
0.0
 30
0.0
  9
$UCSORGBOTTOM
 10
0.0
 20
0.0
 30
0.0
  9
$UCSORGLEFT
 10
0.0
 20
0.0
 30
0.0
  9
$UCSORGRIGHT
 10
0.0
 20
0.0
 30
0.0
  9
$UCSORGFRONT
 10
0.0
 20
0.0
 30
0.0
  9
$UCSORGBACK
 10
0.0
 20
0.0
 30
0.0
  9
$PUCSBASE
  2

  9
$PUCSNAME
  2

  9
$PUCSORG
 10
0.0
 20
0.0
 30
0.0
  9
$PUCSXDIR
 10
1.0
 20
0.0
 30
0.0
  9
$PUCSYDIR
 10
0.0
 20
1.0
 30
0.0
  9
$PUCSORTHOREF
  2

  9
$PUCSORTHOVIEW
 70
     0
  9
$PUCSORGTOP
 10
0.0
 20
0.0
 30
0.0
  9
$PUCSORGBOTTOM
 10
0.0
 20
0.0
 30
0.0
  9
$PUCSORGLEFT
 10
0.0
 20
0.0
 30
0.0
  9
$PUCSORGRIGHT
 10
0.0
 20
0.0
 30
0.0
  9
$PUCSORGFRONT
 10
0.0
 20
0.0
 30
0.0
  9
$PUCSORGBACK
 10
0.0
 20
0.0
 30
0.0
  9
$USERI1
 70
     0
  9
$USERI2
 70
     0
  9
$USERI3
 70
     0
  9
$USERI4
 70
     0
  9
$USERI5
 70
     0
  9
$USERR1
 40
0.0
  9
$USERR2
 40
0.0
  9
$USERR3
 40
0.0
  9
$USERR4
 40
0.0
  9
$USERR5
 40
0.0
  9
$WORLDVIEW
 70
     1
  9
$SHADEDGE
 70
     3
  9
$SHADEDIF
 70
    70
  9
$TILEMODE
 70
     1
  9
$MAXACTVP
 70
    64
  9
$PINSBASE
 10
0.0
 20
0.0
 30
0.0
  9
$PLIMCHECK
 70
     0
  9
$PEXTMIN
 10
1.0000000000E+20
 20
1.0000000000E+20
 30
1.0000000000E+20
  9
$PEXTMAX
 10
-1.0000000000E+20
 20
-1.0000000000E+20
 30
-1.0000000000E+20
  9
$PLIMMIN
 10
0.0
 20
0.0
  9
$PLIMMAX
 10
420.0
 20
297.0
  9
$UNITMODE
 70
     0
  9
$VISRETAIN
 70
     1
  9
$PLINEGEN
 70
     0
  9
$PSLTSCALE
 70
     1
  9
$TREEDEPTH
 70
  3020
  9
$CMLSTYLE
  2
Standard
  9
$CMLJUST
 70
     0
  9
$CMLSCALE
 40
20.0
  9
$PROXYGRAPHICS
 70
     1
  9
$MEASUREMENT
 70
     1
  9
$CELWEIGHT
370
    -1
  9
$ENDCAPS
280
     0
  9
$JOINSTYLE
280
     0
  9
$LWDISPLAY
290
     1
  9
$INSUNITS
 70
     4
  9
$HYPERLINKBASE
  1

  9
$STYLESHEET
  1

  9
$XEDIT
290
     1
  9
$CEPSNTYPE
380
     0
  9
$PSTYLEMODE
290
     1
  9
$FINGERPRINTGUID
  2
{daf10b13-a67d-4d5f-b138-fa1b79e7f570}
  9
$VERSIONGUID
  2
{FAEB1C32-E019-11D5-929B-00C0DF256EC4}
  9
$EXTNAMES
290
     1
  9
$PSVPSCALE
 40
0.0
  9
$OLESTARTUP
290
     0
  0
ENDSEC
  0
SECTION
  2
CLASSES
  0
CLASS
  1
ACDBDICTIONARYWDFLT
  2
AcDbDictionaryWithDefault
  3
ObjectDBX Classes
 90
        0
280
     0
281
     0
  0
CLASS
  1
VISUALSTYLE
  2
AcDbVisualStyle
  3
ObjectDBX Classes
 90
     4095
280
     0
281
     0
  0
CLASS
  1
MATERIAL
  2
AcDbMaterial
  3
ObjectDBX Classes
 90
     1153
280
     0
281
     0
  0
CLASS
  1
SCALE
  2
AcDbScale
  3
ObjectDBX Classes
 90
     1153
280
     0
281
     0
  0
CLASS
  1
TABLESTYLE
  2
AcDbTableStyle
  3
ObjectDBX Classes
 90
     4095
280
     0
281
     0
  0
CLASS
  1
MLEADERSTYLE
  2
AcDbMLeaderStyle
  3
ACDB_MLEADERSTYLE_CLASS
 90
     4095
280
     0
281
     0
  0
CLASS
  1
SUN
  2
AcDbSun
  3
SCENEOE
 90
     1153
280
     0
281
     0
  0
CLASS
  1
ACDBPLACEHOLDER
  2
AcDbPlaceHolder
  3
ObjectDBX Classes
 90
        0
280
     0
281
     0
  0
CLASS
  1
LAYOUT
  2
AcDbLayout
  3
ObjectDBX Classes
 90
        0
280
     0
281
     0
  0
ENDSEC
  0
SECTION
  2
TABLES
  0
TABLE
  2
VPORT
  5
8
330
0
100
AcDbSymbolTable
 70
     1
  0
VPORT
  5
29
330
8
100
AcDbSymbolTableRecord
100
AcDbViewportTableRecord
  2
*Active
 70
     0
 10
0.0
 20
0.0
 11
1.0
 21
1.0
 12
210.0
 22
148.5
 13
0.0
 23
0.0
 14
10.0
 24
10.0
 15
10.0
 25
10.0
 16
0.0
 26
0.0
 36
1.0
 17
0.0
 27
0.0
 37
0.0
 40
297.0
 41
1.4141414141
 42
50.0
 43
0.0
 44
0.0
 50
0.0
 51
0.0
 71
     0
 72
  2000
 73
     1
 74
     3
 75
     0
 76
     0
 77
     0
 78
     0
281
     0
 65
     1
110
0.0
120
0.0
130
0.0
111
1.0
121
0.0
131
0.0
112
0.0
122
1.0
132
0.0
 79
     0
146
0.0
  0
ENDTAB
  0
TABLE
  2
LTYPE
  5
5
330
0
100
AcDbSymbolTable
 70
     6
  0
LTYPE
  5
14
330
5
100
AcDbSymbolTableRecord
100
AcDbLinetypeTableRecord
  2
ByBlock
 70
     0
  3

 72
    65
 73
     0
 40
0.0
  0
LTYPE
  5
15
330
5
100
AcDbSymbolTableRecord
100
AcDbLinetypeTableRecord
  2
ByLayer
 70
     0
  3

 72
    65
 73
     0
 40
0.0
  0
LTYPE
  5
16
330
5
100
AcDbSymbolTableRecord
100
AcDbLinetypeTableRecord
  2
Continuous
 70
     0
  3
Solid line
 72
    65
 73
     0
 40
0.0
  0
LTYPE
  5
6E
330
5
100
AcDbSymbolTableRecord
100
AcDbLinetypeTableRecord
  2
HIDDEN
 70
     0
  3
Hidden __ __ __ __ __ __ __ __ __ __ __ __ __ __
 72
    65
 73
     2
 40
1.905
 49
1.27
 74
     0
 49
-0.635
 74
     0
  0
LTYPE
  5
6F
330
5
100
AcDbSymbolTableRecord
100
AcDbLinetypeTableRecord
  2
PHANTOM
 70
     0
  3
Phantom ______  __  __  ______  __  __  ______
 72
    65
 73
     6
 40
12.7
 49
6.35
 74
     0
 49
-1.27
 74
     0
 49
1.27
 74
     0
 49
-1.27
 74
     0
 49
1.27
 74
     0
 49
-1.27
 74
     0
  0
LTYPE
  5
70
330
5
100
AcDbSymbolTableRecord
100
AcDbLinetypeTableRecord
  2
CENTER
 70
     0
  3
Center ____ _ ____ _ ____ _ ____ _ ____ _ ____
 72
    65
 73
     4
 40
10.16
 49
6.35
 74
     0
 49
-1.27
 74
     0
 49
1.27
 74
     0
 49
-1.27
 74
     0
  0
LTYPE
  5
71
330
5
100
AcDbSymbolTableRecord
100
AcDbLinetypeTableRecord
  2
CENTERX2
 70
     0
  3
Center (2x) ________  __  ________  __  _____
 72
    65
 73
     4
 40
20.32
 49
12.7
 74
     0
 49
-2.54
 74
     0
 49
2.54
 74
     0
 49
-2.54
 74
     0
  0
LTYPE
  5
72
330
5
100
AcDbSymbolTableRecord
100
AcDbLinetypeTableRecord
  2
DOT2
 70
     0
  3
Dot (.5x) ........................................
 72
    65
 73
     2
 40
0.635
 49
0.0
 74
     0
 49
-0.635
 74
     0
  0
ENDTAB
  0
TABLE
  2
LAYER
  5
2
330
0
100
AcDbSymbolTable
 70
     1
  0
LAYER
  5
10
330
2
100
AcDbSymbolTableRecord
100
AcDbLayerTableRecord
  2
0
 70
     0
 62
     7
  6
Continuous
370
    -3
390
F
  0
ENDTAB
  0
TABLE
  2
STYLE
  5
3
330
0
100
AcDbSymbolTable
 70
     4
  0
STYLE
  5
11
330
3
100
AcDbSymbolTableRecord
100
AcDbTextStyleTableRecord
  2
Standard
 70
     0
 40
0.0
 41
1.0
 50
0.0
 71
     0
 42
3.5
  3
txt
  4

  0
STYLE
  5
E9
330
3
100
AcDbSymbolTableRecord
100
AcDbTextStyleTableRecord
  2
SLDTEXTSTYLE0
 70
     0
 40
0.0
 41
0.605
 50
0.0
 71
     0
 42
3.5
  3
TXT
  4

  0
STYLE
  5
193
330
3
100
AcDbSymbolTableRecord
100
AcDbTextStyleTableRecord
  2
SLDTEXTSTYLE1
 70
     0
 40
0.0
 41
0.563
 50
0.0
 71
     0
 42
3.5
  3
TXT
  4

  0
STYLE
  5
327
330
3
100
AcDbSymbolTableRecord
100
AcDbTextStyleTableRecord
  2
SLDTEXTSTYLE2
 70
     0
 40
0.0
 41
0.75
 50
0.0
 71
     0
 42
3.5
  3
TXT
  4

  0
ENDTAB
  0
TABLE
  2
VIEW
  5
6
330
0
100
AcDbSymbolTable
 70
     0
  0
ENDTAB
  0
TABLE
  2
UCS
  5
7
330
0
100
AcDbSymbolTable
 70
     0
  0
ENDTAB
  0
TABLE
  2
APPID
  5
9
330
0
100
AcDbSymbolTable
 70
     1
  0
APPID
  5
12
330
9
100
AcDbSymbolTableRecord
100
AcDbRegAppTableRecord
  2
ACAD
 70
     0
  0
ENDTAB
  0
TABLE
  2
DIMSTYLE
  5
A
330
0
100
AcDbSymbolTable
 70
     4
100
AcDbDimStyleTable
  0
DIMSTYLE
105
27
330
A
100
AcDbSymbolTableRecord
100
AcDbDimStyleTableRecord
  2
ISO-25
 70
     0
 41
2.5
 42
0.625
 43
3.75
 44
1.25
 73
     0
 74
     0
 77
     1
 78
     8
140
2.5
141
2.5
143
0.0393700787
147
0.625
171
     3
172
     1
178
     0
271
     2
272
     2
274
     3
278
    44
283
     0
284
     8
340
11
  0
DIMSTYLE
105
328
102
{ACAD_REACTORS
330
326
102
}
330
A
100
AcDbSymbolTableRecord
100
AcDbDimStyleTableRecord
  2
SLDDIMSTYLE0
 70
     0
 41
3.302
 44
0.0
 45
0.000000001
 73
     0
 74
     0
 77
     1
 78
    12
 79
     3
140
3.5
147
0.875
173
     1
178
     0
271
     0
272
     0
276
     2
284
    12
340
327
  0
DIMSTYLE
105
333
102
{ACAD_REACTORS
330
332
102
}
330
A
100
AcDbSymbolTableRecord
100
AcDbDimStyleTableRecord
  2
SLDDIMSTYLE1
 70
     0
 41
3.302
 44
0.0
 45
0.000000001
 73
     0
 74
     0
 77
     1
 78
    12
 79
     3
140
3.5
147
0.875
173
     1
178
     0
271
     2
272
     2
276
     2
284
    12
340
327
  0
DIMSTYLE
105
370
102
{ACAD_REACTORS
330
36F
102
}
330
A
100
AcDbSymbolTableRecord
100
AcDbDimStyleTableRecord
  2
SLDDIMSTYLE2
 70
     0
 41
3.302
 44
0.0
 45
0.000000001
 73
     0
 74
     0
 77
     1
 78
    12
 79
     3
140
3.5
147
0.875
172
     1
173
     1
178
     0
271
     2
272
     2
276
     2
284
    12
289
     0
340
327
  0
ENDTAB
  0
TABLE
  2
BLOCK_RECORD
  5
1
330
0
100
AcDbSymbolTable
 70
    11
  0
BLOCK_RECORD
  5
1F
330
1
100
AcDbSymbolTableRecord
100
AcDbBlockTableRecord
  2
*Model_Space
340
22
  0
BLOCK_RECORD
  5
1B
330
1
100
AcDbSymbolTableRecord
100
AcDbBlockTableRecord
  2
*Paper_Space
340
1E
  0
BLOCK_RECORD
  5
23
330
1
100
AcDbSymbolTableRecord
100
AcDbBlockTableRecord
  2
*Paper_Space0
340
26
  0
BLOCK_RECORD
  5
73
330
1
100
AcDbSymbolTableRecord
100
AcDbBlockTableRecord
  2
ACO-Logo
340
0
102
{BLKREFS
331
149
102
}
  0
BLOCK_RECORD
  5
E6
330
1
100
AcDbSymbolTableRecord
100
AcDbBlockTableRecord
  2
SW_NOTE_0
340
0
102
{BLKREFS
331
EB
102
}
  0
BLOCK_RECORD
  5
EC
330
1
100
AcDbSymbolTableRecord
100
AcDbBlockTableRecord
  2
SW_NOTE_0_1
340
0
102
{BLKREFS
331
F0
102
}
  0
BLOCK_RECORD
  5
F1
330
1
100
AcDbSymbolTableRecord
100
AcDbBlockTableRecord
  2
SW_NOTE_0_2
340
0
102
{BLKREFS
331
F8
102
}
  0
BLOCK_RECORD
  5
16E
330
1
100
AcDbSymbolTableRecord
100
AcDbBlockTableRecord
  2
SW_NOTE_0_3
340
0
102
{BLKREFS
331
176
102
}
  0
BLOCK_RECORD
  5
329
330
1
100
AcDbSymbolTableRecord
100
AcDbBlockTableRecord
  2
_D
340
0
  0
BLOCK_RECORD
  5
334
330
1
100
AcDbSymbolTableRecord
100
AcDbBlockTableRecord
  2
_D_1
340
0
  0
BLOCK_RECORD
  5
33D
330
1
100
AcDbSymbolTableRecord
100
AcDbBlockTableRecord
  2
SW_CENTERMARKSYMBOL_0
340
0
102
{BLKREFS
331
348
102
}
  0
BLOCK_RECORD
  5
349
330
1
100
AcDbSymbolTableRecord
100
AcDbBlockTableRecord
  2
SW_CENTERMARKSYMBOL_1
340
0
102
{BLKREFS
331
354
102
}
  0
BLOCK_RECORD
  5
371
330
1
100
AcDbSymbolTableRecord
100
AcDbBlockTableRecord
  2
_D_2
340
0
  0
ENDTAB
  0
ENDSEC
  0
SECTION
  2
BLOCKS
  0
BLOCK
  5
20
330
1F
100
AcDbEntity
  8
0
100
AcDbBlockBegin
  2
*Model_Space
 70
     0
 10
0.0
 20
0.0
 30
0.0
  3
*Model_Space
  1

  0
ENDBLK
  5
21
330
1F
100
AcDbEntity
  8
0
100
AcDbBlockEnd
  0
BLOCK
  5
1C
330
1B
100
AcDbEntity
 67
     1
  8
0
100
AcDbBlockBegin
  2
*Paper_Space
 70
     0
 10
0.0
 20
0.0
 30
0.0
  3
*Paper_Space
  1

  0
ENDBLK
  5
1D
330
1B
100
AcDbEntity
 67
     1
  8
0
100
AcDbBlockEnd
  0
BLOCK
  5
24
330
23
100
AcDbEntity
  8
0
100
AcDbBlockBegin
  2
*Paper_Space0
 70
     0
 10
0.0
 20
0.0
 30
0.0
  3
*Paper_Space0
  1

  0
ENDBLK
  5
25
330
23
100
AcDbEntity
  8
0
100
AcDbBlockEnd
  0
BLOCK
  5
74
330
73
100
AcDbEntity
  8
0
100
AcDbBlockBegin
  2
ACO-Logo
 70
     0
 10
0.0
 20
0.0
 30
0.0
  3
ACO-Logo
  1

  0
ARC
  5
76
330
73
100
AcDbEntity
  8
0
  6
Continuous
 62
   179
370
    18
100
AcDbCircle
 10
80.3853261169
 20
4.9940995715
 30
0.0
 40
0.3000000000000441
100
AcDbArc
 50
181.9349323096
 51
274.6062978506
  0
ARC
  5
77
330
73
100
AcDbEntity
  8
0
  6
Continuous
 62
   179
370
    18
100
AcDbCircle
 10
81.2359083165
 20
2.1946665956
 30
0.0
 40
1.000000000000021
100
AcDbArc
 50
221.4087409628
 51
276.0561297228
  0
ARC
  5
78
330
73
100
AcDbEntity
  8
0
  6
Continuous
 62
   179
370
    18
100
AcDbCircle
 10
79.1360017163
 20
3.654242048
 30
0.0
 40
0.300000000000004
100
AcDbArc
 50
181.2730300201
 51
274.4996077095
  0
ARC
  5
79
330
73
100
AcDbEntity
  8
0
  6
Continuous
 62
   179
370
    18
100
AcDbCircle
 10
78.7699033484
 20
3.2873137407
 30
0.0
 40
0.4000000000000358
100
AcDbArc
 50
221.0090869016
 51
274.5606296317
  0
ARC
  5
7A
330
73
100
AcDbEntity
  8
0
  6
Continuous
 62
   179
370
    18
100
AcDbCircle
 10
91.2333953062
 20
4.6062442307
 30
0.0
 40
0.3000000000000493
100
AcDbArc
 50
274.4996077095
 51
3.7249371334
  0
ARC
  5
7B
330
73
100
AcDbEntity
  8
0
  6
Continuous
 62
   179
370
    18
100
AcDbCircle
 10
81.5287571045
 20
9.7648973508
 30
0.0
 40
1.00000000000002
100
AcDbArc
 50
93.1134387481
 51
181.9414863909
  0
ARC
  5
7C
330
73
100
AcDbEntity
  8
0
  6
Continuous
 62
   179
370
    18
100
AcDbCircle
 10
81.6051675115
 20
7.5107903456
 30
0.0
 40
1.0
100
AcDbArc
 50
181.9414863909
 51
274.398705355
  0
ARC
  5
7D
330
73
100
AcDbEntity
  8
0
  6
Continuous
 62
   179
370
    18
100
AcDbCircle
 10
80.1506905656
 20
11.9393118923
 30
0.0
 40
0.300000000000045
100
AcDbArc
 50
93.0418421566
 51
181.9349323096
  0
ARC
  5
7E
330
73
100
AcDbEntity
  8
0
  6
Continuous
 62
   179
370
    18
100
AcDbCircle
 10
78.1879722102
 20
12.3499352608
 30
0.0
 40
0.7999999999953393
100
AcDbArc
 50
92.6995697565
 51
148.2554209065
  0
ARC
  5
7F
330
73
100
AcDbEntity
  8
0
  6
Continuous
 62
   179
370
    18
100
AcDbCircle
 10
78.930862229
 20
12.8855189761
 30
0.0
 40
0.3000000000000031
100
AcDbArc
 50
92.6995697565
 51
181.2730300201
  0
ARC
  5
80
330
73
100
AcDbEntity
  8
0
  6
Continuous
 62
   179
370
    18
100
AcDbCircle
 10
82.327743407
 20
9.8083568568
 30
0.0
 40
1.000000000000034
100
AcDbArc
 50
1.9414863909
 51
93.1134387481
  0
ARC
  5
81
330
73
100
AcDbEntity
  8
0
  6
Continuous
 62
   179
370
    18
100
AcDbCircle
 10
81.5287571045
 20
9.7648973508
 30
0.0
 40
0.3625000000000009
100
AcDbArc
 50
93.1134387481
 51
181.9414863909
  0
ARC
  5
82
330
73
100
AcDbEntity
  8
0
  6
Continuous
 62
   179
370
    18
100
AcDbCircle
 10
82.327743407
 20
9.8083568568
 30
0.0
 40
0.3625000000000146
100
AcDbArc
 50
1.9414863909
 51
93.1134387481
  0
ARC
  5
83
330
73
100
AcDbEntity
  8
0
  6
Continuous
 62
   179
370
    18
100
AcDbCircle
 10
82.4035451983
 20
7.5722040138
 30
0.0
 40
1.000000000000008
100
AcDbArc
 50
274.398705355
 51
1.9414863909
  0
ARC
  5
84
330
73
100
AcDbEntity
  8
0
  6
Continuous
 62
   179
370
    18
100
AcDbCircle
 10
82.4035451983
 20
7.5722040138
 30
0.0
 40
0.3625000000000068
100
AcDbArc
 50
274.398705355
 51
1.9414863909
  0
ARC
  5
85
330
73
100
AcDbEntity
  8
0
  6
Continuous
 62
   179
370
    18
100
AcDbCircle
 10
81.6051675115
 20
7.5107903456
 30
0.0
 40
0.3625000000000111
100
AcDbArc
 50
181.9414863909
 51
274.398705355
  0
ARC
  5
86
330
73
100
AcDbEntity
  8
0
  6
Continuous
 62
   179
370
    18
100
AcDbCircle
 10
88.825822761
 20
8.0662148274
 30
0.0
 40
0.9999999999999997
100
AcDbArc
 50
274.398705355
 51
2.6541955134
  0
ARC
  5
87
330
73
100
AcDbEntity
  8
0
  6
Continuous
 62
   179
370
    18
100
AcDbCircle
 10
90.1578295581
 20
5.7814576687
 30
0.0
 40
0.3000000000000043
100
AcDbArc
 50
274.6062978507
 51
2.5147526475
  0
ARC
  5
88
330
73
100
AcDbEntity
  8
0
  6
Continuous
 62
   179
370
    18
100
AcDbCircle
 10
88.825822761
 20
8.0662148274
 30
0.0
 40
0.3625000000000083
100
AcDbArc
 50
274.398705355
 51
2.6541955134
  0
ARC
  5
89
330
73
100
AcDbEntity
  8
0
  6
Continuous
 62
   179
370
    18
100
AcDbCircle
 10
88.728529747
 20
10.16496413
 30
0.0
 40
1.000000000000001
100
AcDbArc
 50
2.6541955134
 51
93.1134387481
  0
ARC
  5
8A
330
73
100
AcDbEntity
  8
0
  6
Continuous
 62
   179
370
    18
100
AcDbCircle
 10
88.728529747
 20
10.16496413
 30
0.0
 40
0.3625000000000085
100
AcDbArc
 50
2.6541955134
 51
93.1134387481
  0
ARC
  5
8B
330
73
100
AcDbEntity
  8
0
  6
Continuous
 62
   179
370
    18
100
AcDbCircle
 10
89.8647121341
 20
12.455515937
 30
0.0
 40
0.2999999999999984
100
AcDbArc
 50
2.5147526475
 51
93.0418421566
  0
ARC
  5
8C
330
73
100
AcDbEntity
  8
0
  6
Continuous
 62
   179
370
    18
100
AcDbCircle
 10
90.6583795404
 20
13.4384863935
 30
0.0
 40
0.2999999999999911
100
AcDbArc
 50
3.7249371334
 51
92.6995697565
  0
CIRCLE
  5
8D
330
73
100
AcDbEntity
  8
0
  6
Continuous
 62
   179
370
    18
100
AcDbCircle
 10
15.7233972286
 20
6.4054930194
 30
0.0
 40
1.579500000000014
  0
CIRCLE
  5
8E
330
73
100
AcDbEntity
  8
0
  6
Continuous
 62
   179
370
    18
100
AcDbCircle
 10
15.7233972286
 20
6.4054930194
 30
0.0
 40
2.281499999999994
  0
ARC
  5
8F
330
73
100
AcDbEntity
  8
0
  6
Continuous
 62
   179
370
    18
100
AcDbCircle
 10
89.7681336026
 20
2.3106616691
 30
0.0
 40
0.098384530246548
100
AcDbArc
 50
332.3802627259
 51
4.9765441602
  0
ARC
  5
90
330
73
100
AcDbEntity
  8
0
  6
Continuous
 62
   179
370
    18
100
AcDbCircle
 10
89.6886560089
 20
2.3522464185
 30
0.0
 40
0.1880839130754018
100
AcDbArc
 50
303.690067526
 51
332.3802627258
  0
ARC
  5
91
330
73
100
AcDbEntity
  8
0
  6
Continuous
 62
   179
370
    18
100
AcDbCircle
 10
89.4849700869
 20
2.6577753016
 30
0.0
 40
0.5552839311631531
100
AcDbArc
 50
287.108652213
 51
303.690067526
  0
ARC
  5
92
330
73
100
AcDbEntity
  8
0
  6
Continuous
 62
   179
370
    18
100
AcDbCircle
 10
88.0513010646
 20
7.3154864882
 30
0.0
 40
5.428648309393203
100
AcDbArc
 50
285.2551187031
 51
287.108652213
  0
ARC
  5
93
330
73
100
AcDbEntity
  8
0
  6
Continuous
 62
   179
370
    18
100
AcDbCircle
 10
89.1317168954
 20
3.3539617753
 30
0.0
 40
1.322436378825653
100
AcDbArc
 50
281.4991866428
 51
285.255118703
  0
ARC
  5
94
330
73
100
AcDbEntity
  8
0
  6
Continuous
 62
   179
370
    18
100
AcDbCircle
 10
89.3198255509
 20
2.4293110075
 30
0.0
 40
0.3788454141584939
100
AcDbArc
 50
279.1917900003
 51
281.499186643
  0
ARC
  5
95
330
73
100
AcDbEntity
  8
0
  6
Continuous
 62
   179
370
    18
100
AcDbCircle
 10
89.0487250788
 20
4.1046569124
 30
0.0
 40
2.07598399629105
100
AcDbArc
 50
277.7634675038
 51
279.1917900002
  0
ARC
  5
96
330
73
100
AcDbEntity
  8
0
  6
Continuous
 62
   179
370
    18
100
AcDbCircle
 10
9.2588909915
 20
6.4054930194
 30
0.0
 40
1.579500000000074
100
AcDbArc
 50
31.0558004991
 51
330.0
  0
ARC
  5
97
330
73
100
AcDbEntity
  8
0
  6
Continuous
 62
   179
370
    18
100
AcDbCircle
 10
9.2588909915
 20
6.4054930194
 30
0.0
 40
2.281500000000107
100
AcDbArc
 50
30.7309172659
 51
330.0
  0
ARC
  5
98
330
73
100
AcDbEntity
  8
0
  6
Continuous
 62
   179
370
    18
100
AcDbCircle
 10
6.1288847544
 20
4.0685261312
 30
0.0
 40
4.914000000000307
100
AcDbArc
 50
172.3058370354
 51
179.7113029221
  0
ARC
  5
99
330
73
100
AcDbEntity
  8
0
  6
Continuous
 62
   179
370
    18
100
AcDbCircle
 10
-0.5401152456
 20
4.0685261312
 30
0.0
 40
4.91400000000019
100
AcDbArc
 50
0.2886970779
 51
7.6941629646
  0
ARC
  5
9A
330
73
100
AcDbEntity
  8
0
  6
Continuous
 62
   179
370
    18
100
AcDbCircle
 10
-0.5401152456
 20
4.0685261312
 30
0.0
 40
5.616000000000127
100
AcDbArc
 50
0.2526096926
 51
53.5764263577
  0
ARC
  5
9B
330
73
100
AcDbEntity
  8
0
  6
Continuous
 62
   179
370
    18
100
AcDbCircle
 10
6.1288847544
 20
4.0685261312
 30
0.0
 40
5.61600000000074
100
AcDbArc
 50
126.4235736423
 51
179.7473903073
  0
ARC
  5
9C
330
73
100
AcDbEntity
  8
0
  6
Continuous
 62
   179
370
    18
100
AcDbCircle
 10
-0.5401152456
 20
4.0685261312
 30
0.0
 40
4.914000000000161
100
AcDbArc
 50
16.0658750272
 51
47.2678899574
  0
ARC
  5
9D
330
73
100
AcDbEntity
  8
0
  6
Continuous
 62
   179
370
    18
100
AcDbCircle
 10
6.1288847544
 20
4.0685261312
 30
0.0
 40
4.914000000000584
100
AcDbArc
 50
132.7321100426
 51
163.9341249728
  0
LINE
  5
9E
330
73
100
AcDbEntity
  8
0
  6
Continuous
 62
   179
370
    18
100
AcDbLine
 10
78.8017089389
 20
2.8885802402
 30
0.0
 11
90.7982178739
 21
3.8455002136
 31
0.0
  0
LINE
  5
9F
330
73
100
AcDbEntity
  8
0
  6
Continuous
 62
   179
370
    18
100
AcDbLine
 10
76.6545490427
 20
5.8693097374
 30
0.0
 11
78.0344191726
 21
3.5235305166
 31
0.0
  0
LINE
  5
A0
330
73
100
AcDbEntity
  8
0
  6
Continuous
 62
   179
370
    18
100
AcDbLine
 10
91.5327615373
 20
4.6257342197
 30
0.0
 11
90.9577457715
 21
13.4579763825
 31
0.0
  0
LINE
  5
A1
330
73
100
AcDbEntity
  8
0
  6
Continuous
 62
   179
370
    18
100
AcDbLine
 10
78.6309362756
 20
12.8788539549
 30
0.0
 11
78.8360757629
 21
3.6475770268
 31
0.0
  0
LINE
  5
A2
330
73
100
AcDbEntity
  8
0
  6
Continuous
 62
   179
370
    18
100
AcDbLine
 10
80.4094186633
 20
4.6950685544
 30
0.0
 11
90.1819221045
 21
5.4824266516
 31
0.0
  0
LINE
  5
A3
330
73
100
AcDbEntity
  8
0
  6
Continuous
 62
   179
370
    18
100
AcDbLine
 10
79.1595373973
 20
3.3551666867
 30
0.0
 11
91.2569309872
 21
4.3071688694
 31
0.0
  0
LINE
  5
A4
330
73
100
AcDbEntity
  8
0
  6
Continuous
 62
   179
370
    18
100
AcDbLine
 10
79.2585043218
 20
2.925017226
 30
0.0
 11
80.4858981444
 21
1.533240302
 31
0.0
  0
LINE
  5
A5
330
73
100
AcDbEntity
  8
0
  6
Continuous
 62
   179
370
    18
100
AcDbLine
 10
78.0344191726
 20
3.5235305166
 30
0.0
 11
78.3638740472
 21
3.1446574108
 31
0.0
  0
LINE
  5
A6
330
73
100
AcDbEntity
  8
0
  6
Continuous
 62
   179
370
    18
100
AcDbLine
 10
78.3638740472
 20
3.1446574108
 30
0.0
 11
78.4680611395
 21
3.0248422547
 31
0.0
  0
LINE
  5
A7
330
73
100
AcDbEntity
  8
0
  6
Continuous
 62
   179
370
    18
100
AcDbLine
 10
81.3414110113
 20
1.2002475785
 30
0.0
 11
89.3291569519
 21
2.0477010263
 31
0.0
  0
LINE
  5
A8
330
73
100
AcDbEntity
  8
0
  6
Continuous
 62
   179
370
    18
100
AcDbLine
 10
89.8661472522
 20
2.5197759309
 30
0.0
 11
89.8661472522
 21
2.3090867337
 31
0.0
  0
LINE
  5
A9
330
73
100
AcDbEntity
  8
0
  6
Continuous
 62
   179
370
    18
100
AcDbLine
 10
88.676842368
 20
3.6762854359
 30
0.0
 11
89.6713239345
 21
2.7875997807
 31
0.0
  0
LINE
  5
AA
330
73
100
AcDbEntity
  8
0
  6
Continuous
 62
   179
370
    18
100
AcDbLine
 10
89.6713239345
 20
2.7875997807
 30
0.0
 11
89.7459749087
 21
2.7242700694
 31
0.0
  0
LINE
  5
AB
330
73
100
AcDbEntity
  8
0
  6
Continuous
 62
   179
370
    18
100
AcDbLine
 10
90.7982178739
 20
3.8455002136
 30
0.0
 11
91.3961615969
 21
4.3514525945
 31
0.0
  0
LINE
  5
AC
330
73
100
AcDbEntity
  8
0
  6
Continuous
 62
   179
370
    18
100
AcDbLine
 10
90.6442498554
 20
13.7381534621
 30
0.0
 11
78.1502930503
 21
13.1490474438
 31
0.0
  0
LINE
  5
AD
330
73
100
AcDbEntity
  8
0
  6
Continuous
 62
   179
370
    18
100
AcDbLine
 10
80.1347709981
 20
12.2388892068
 30
0.0
 11
89.8487925667
 21
12.7550932515
 31
0.0
  0
LINE
  5
AE
330
73
100
AcDbEntity
  8
0
  6
Continuous
 62
   179
370
    18
100
AcDbLine
 10
76.4935641943
 20
11.7567556248
 30
0.0
 11
76.6545490427
 21
5.8693097374
 31
0.0
  0
LINE
  5
AF
330
73
100
AcDbEntity
  8
0
  6
Continuous
 62
   179
370
    18
100
AcDbLine
 10
79.8508616208
 20
11.929182536
 30
0.0
 11
80.0854971721
 21
4.9839702153
 31
0.0
  0
LINE
  5
B0
330
73
100
AcDbEntity
  8
0
  6
Continuous
 62
   179
370
    18
100
AcDbLine
 10
80.5293311574
 20
9.7310185051
 30
0.0
 11
80.6057415643
 21
7.4769115
 31
0.0
  0
LINE
  5
B1
330
73
100
AcDbEntity
  8
0
  6
Continuous
 62
   179
370
    18
100
AcDbLine
 10
77.507650604
 20
12.7708420346
 30
0.0
 11
76.4935641943
 21
11.7567556248
 31
0.0
  0
LINE
  5
B2
330
73
100
AcDbEntity
  8
0
  6
Continuous
 62
   179
370
    18
100
AcDbLine
 10
86.8848195129
 20
11.0661568594
 30
0.0
 11
88.6742167283
 21
11.1634880887
 31
0.0
  0
LINE
  5
B3
330
73
100
AcDbEntity
  8
0
  6
Continuous
 62
   179
370
    18
100
AcDbLine
 10
87.0766213517
 20
6.9287171941
 30
0.0
 11
88.90708891
 21
7.0695223909
 31
0.0
  0
LINE
  5
B4
330
73
100
AcDbEntity
  8
0
  6
Continuous
 62
   179
370
    18
100
AcDbLine
 10
87.6830038473
 20
7.6147347768
 30
0.0
 11
88.8536252418
 21
7.7047825764
 31
0.0
  0
LINE
  5
B5
330
73
100
AcDbEntity
  8
0
  6
Continuous
 62
   179
370
    18
100
AcDbLine
 10
87.5509212094
 20
10.4639459651
 30
0.0
 11
88.7088412777
 21
10.5269290651
 31
0.0
  0
LINE
  5
B6
330
73
100
AcDbEntity
  8
0
  6
Continuous
 62
   179
370
    18
100
AcDbLine
 10
87.0766218384
 20
6.9287066941
 30
0.0
 11
86.8848195129
 21
11.0661568594
 31
0.0
  0
LINE
  5
B7
330
73
100
AcDbEntity
  8
0
  6
Continuous
 62
   179
370
    18
100
AcDbLine
 10
83.7004598825
 20
6.6667911093
 30
0.0
 11
84.5054929504
 21
10.9267193262
 31
0.0
  0
LINE
  5
B8
330
73
100
AcDbEntity
  8
0
  6
Continuous
 62
   179
370
    18
100
AcDbLine
 10
85.3543248406
 20
10.9728900984
 30
0.0
 11
86.4940946704
 21
6.8816860929
 31
0.0
  0
LINE
  5
B9
330
73
100
AcDbEntity
  8
0
  6
Continuous
 62
   179
370
    18
100
AcDbLine
 10
84.9728575427
 20
9.9667192298
 30
0.0
 11
85.4540299774
 21
8.2395506903
 31
0.0
  0
LINE
  5
BA
330
73
100
AcDbEntity
  8
0
  6
Continuous
 62
   179
370
    18
100
AcDbLine
 10
84.6363094629
 20
8.1858350416
 30
0.0
 11
84.9728575427
 21
9.9667192298
 31
0.0
  0
LINE
  5
BB
330
73
100
AcDbEntity
  8
0
  6
Continuous
 62
   179
370
    18
100
AcDbLine
 10
87.6830038473
 20
7.6147347768
 30
0.0
 11
87.5509212094
 21
10.4639459651
 31
0.0
  0
LINE
  5
BC
330
73
100
AcDbEntity
  8
0
  6
Continuous
 62
   179
370
    18
100
AcDbLine
 10
84.6363094629
 20
8.1858350416
 30
0.0
 11
85.4540299774
 21
8.2395506903
 31
0.0
  0
LINE
  5
BD
330
73
100
AcDbEntity
  8
0
  6
Continuous
 62
   179
370
    18
100
AcDbLine
 10
84.5140586807
 20
7.5389304886
 30
0.0
 11
85.6288154243
 21
7.6121582976
 31
0.0
  0
LINE
  5
BE
330
73
100
AcDbEntity
  8
0
  6
Continuous
 62
   179
370
    18
100
AcDbLine
 10
84.3588137958
 20
6.717433718
 30
0.0
 11
84.5140586807
 21
7.5389304886
 31
0.0
  0
LINE
  5
BF
330
73
100
AcDbEntity
  8
0
  6
Continuous
 62
   179
370
    18
100
AcDbLine
 10
81.6818640104
 20
6.5137358601
 30
0.0
 11
82.4802416972
 21
6.5751495283
 31
0.0
  0
LINE
  5
C0
330
73
100
AcDbEntity
  8
0
  6
Continuous
 62
   179
370
    18
100
AcDbLine
 10
81.6329699923
 20
7.1493580946
 30
0.0
 11
82.4313476791
 21
7.2107717628
 31
0.0
  0
LINE
  5
C1
330
73
100
AcDbEntity
  8
0
  6
Continuous
 62
   179
370
    18
100
AcDbLine
 10
83.7004598825
 20
6.6667911093
 30
0.0
 11
84.3588137958
 21
6.717433718
 31
0.0
  0
LINE
  5
C2
330
73
100
AcDbEntity
  8
0
  6
Continuous
 62
   179
370
    18
100
AcDbLine
 10
82.7059483815
 20
9.3512024135
 30
0.0
 11
83.3423973297
 21
9.3930104243
 31
0.0
  0
LINE
  5
C3
330
73
100
AcDbEntity
  8
0
  6
Continuous
 62
   179
370
    18
100
AcDbLine
 10
82.7491656358
 20
8.0762934118
 30
0.0
 11
83.385614584
 21
8.1181014226
 31
0.0
  0
LINE
  5
C4
330
73
100
AcDbEntity
  8
0
  6
Continuous
 62
   179
370
    18
100
AcDbLine
 10
81.1664651987
 20
9.7526162692
 30
0.0
 11
81.2428756056
 21
7.4985092641
 31
0.0
  0
LINE
  5
C5
330
73
100
AcDbEntity
  8
0
  6
Continuous
 62
   179
370
    18
100
AcDbLine
 10
82.6900353128
 20
9.8206379383
 30
0.0
 11
82.7052632884
 21
9.3714126602
 31
0.0
  0
LINE
  5
C6
330
73
100
AcDbEntity
  8
0
  6
Continuous
 62
   179
370
    18
100
AcDbLine
 10
82.7491656358
 20
8.0762934118
 30
0.0
 11
82.7658371041
 21
7.5844850954
 31
0.0
  0
LINE
  5
C7
330
73
100
AcDbEntity
  8
0
  6
Continuous
 62
   179
370
    18
100
AcDbLine
 10
83.3271693541
 20
9.8422357024
 30
0.0
 11
83.3423973297
 21
9.3930104243
 31
0.0
  0
LINE
  5
C8
330
73
100
AcDbEntity
  8
0
  6
Continuous
 62
   179
370
    18
100
AcDbLine
 10
83.385614584
 20
8.1181014226
 30
0.0
 11
83.4029711454
 21
7.6060828595
 31
0.0
  0
LINE
  5
C9
330
73
100
AcDbEntity
  8
0
  6
Continuous
 62
   179
370
    18
100
AcDbLine
 10
85.6288154243
 20
7.6121582976
 30
0.0
 11
85.8462022593
 21
6.8318482152
 31
0.0
  0
LINE
  5
CA
330
73
100
AcDbEntity
  8
0
  6
Continuous
 62
   179
370
    18
100
AcDbLine
 10
85.8462022593
 20
6.8318482152
 30
0.0
 11
86.4940946704
 21
6.8816860929
 31
0.0
  0
LINE
  5
CB
330
73
100
AcDbEntity
  8
0
  6
Continuous
 62
   179
370
    18
100
AcDbLine
 10
84.5054929504
 20
10.9267193262
 30
0.0
 11
85.3543248406
 21
10.9728900984
 31
0.0
  0
LINE
  5
CC
330
73
100
AcDbEntity
  8
0
  6
Continuous
 62
   179
370
    18
100
AcDbLine
 10
81.4744440858
 20
10.7634213094
 30
0.0
 11
82.2734303883
 21
10.8068808154
 31
0.0
  0
LINE
  5
CD
330
73
100
AcDbEntity
  8
0
  6
Continuous
 62
   179
370
    18
100
AcDbLine
 10
81.5090686352
 20
10.1268622858
 30
0.0
 11
82.3080549377
 21
10.1703217918
 31
0.0
  0
LINE
  5
CE
330
73
100
AcDbEntity
  8
0
  6
Continuous
 62
   179
370
    18
100
AcDbLine
 10
90.4575406452
 20
5.7946206556
 30
0.0
 11
90.1644232213
 21
12.4686789239
 31
0.0
  0
LINE
  5
CF
330
73
100
AcDbEntity
  8
0
  6
Continuous
 62
   179
370
    18
100
AcDbLine
 10
89.8247499755
 20
8.1125227115
 30
0.0
 11
89.7274569615
 21
10.2112720142
 31
0.0
  0
LINE
  5
D0
330
73
100
AcDbEntity
  8
0
  6
Continuous
 62
   179
370
    18
100
AcDbLine
 10
89.1879338763
 20
8.0830014354
 30
0.0
 11
89.0906408622
 21
10.181750738
 31
0.0
  0
LINE
  5
D1
330
73
100
AcDbEntity
  8
0
  6
Continuous
 62
   179
370
    18
100
AcDbLine
 10
89.7459749087
 20
2.7242700694
 30
0.0
 11
89.7974962577
 21
2.6659765769
 31
0.0
  0
LINE
  5
D2
330
73
100
AcDbEntity
  8
0
  6
Continuous
 62
   179
370
    18
100
AcDbLine
 10
89.7974962577
 20
2.6659765769
 30
0.0
 11
89.8351851379
 21
2.60192886
 31
0.0
  0
LINE
  5
D3
330
73
100
AcDbEntity
  8
0
  6
Continuous
 62
   179
370
    18
100
AcDbLine
 10
89.8351851379
 20
2.60192886
 30
0.0
 11
89.8661472522
 21
2.5197759309
 31
0.0
  0
LINE
  5
D4
330
73
100
AcDbEntity
  8
0
  6
Continuous
 62
   179
370
    18
100
AcDbLine
 10
10.6119938288
 20
7.2203138351
 30
0.0
 11
11.2200151261
 21
7.5713550947
 31
0.0
  0
LINE
  5
D5
330
73
100
AcDbEntity
  8
0
  6
Continuous
 62
   179
370
    18
100
AcDbLine
 10
11.2347279503
 20
5.2647430194
 30
0.0
 11
10.6267781168
 21
5.6157430194
 31
0.0
  0
LINE
  5
D6
330
73
100
AcDbEntity
  8
0
  6
Continuous
 62
   179
370
    18
100
AcDbLine
 10
6.4645062371
 20
16.1712617198
 30
0.0
 11
6.4645062371
 21
2.9364593988
 31
0.0
  0
LINE
  5
D7
330
73
100
AcDbEntity
  8
0
  6
Continuous
 62
   179
370
    18
100
AcDbLine
 10
6.4645062371
 20
2.9364593988
 30
0.0
 11
12.0532757459
 21
2.9364593988
 31
0.0
  0
LINE
  5
D8
330
73
100
AcDbEntity
  8
0
  6
Continuous
 62
   179
370
    18
100
AcDbLine
 10
12.0532757459
 20
2.9364593988
 30
0.0
 11
12.0532757459
 21
16.1712617198
 31
0.0
  0
LINE
  5
D9
330
73
100
AcDbEntity
  8
0
  6
Continuous
 62
   179
370
    18
100
AcDbLine
 10
12.0532757459
 20
16.1712617198
 30
0.0
 11
6.4645062371
 21
16.1712617198
 31
0.0
  0
LINE
  5
DA
330
73
100
AcDbEntity
  8
0
  6
Continuous
 62
   179
370
    18
100
AcDbLine
 10
0.0
 20
16.1712617198
 30
0.0
 11
0.0
 21
2.9364593988
 31
0.0
  0
LINE
  5
DB
330
73
100
AcDbEntity
  8
0
  6
Continuous
 62
   179
370
    18
100
AcDbLine
 10
0.0
 20
2.9364593988
 30
0.0
 11
5.5887695089
 21
2.9364593988
 31
0.0
  0
LINE
  5
DC
330
73
100
AcDbEntity
  8
0
  6
Continuous
 62
   179
370
    18
100
AcDbLine
 10
5.5887695089
 20
2.9364593988
 30
0.0
 11
5.5887695089
 21
16.1712617198
 31
0.0
  0
LINE
  5
DD
330
73
100
AcDbEntity
  8
0
  6
Continuous
 62
   179
370
    18
100
AcDbLine
 10
5.5887695089
 20
16.1712617198
 30
0.0
 11
0.0
 21
16.1712617198
 31
0.0
  0
LINE
  5
DE
330
73
100
AcDbEntity
  8
0
  6
Continuous
 62
   179
370
    18
100
AcDbLine
 10
1.2591262606
 20
4.7264381407
 30
0.0
 11
4.3296432482
 21
4.7264381407
 31
0.0
  0
LINE
  5
DF
330
73
100
AcDbEntity
  8
0
  6
Continuous
 62
   179
370
    18
100
AcDbLine
 10
4.3738223747
 20
4.0932862697
 30
0.0
 11
5.0758301722
 21
4.0932862697
 31
0.0
  0
LINE
  5
E0
330
73
100
AcDbEntity
  8
0
  6
Continuous
 62
   179
370
    18
100
AcDbLine
 10
0.5129393366
 20
4.0932862697
 30
0.0
 11
1.2149471342
 21
4.0932862697
 31
0.0
  0
LINE
  5
E1
330
73
100
AcDbEntity
  8
0
  6
Continuous
 62
   179
370
    18
100
AcDbLine
 10
4.1819643097
 20
5.4284381407
 30
0.0
 11
1.4068051992
 21
5.4284381407
 31
0.0
  0
LINE
  5
E2
330
73
100
AcDbEntity
  8
0
  6
Continuous
 62
   179
370
    18
100
AcDbLine
 10
18.517781983
 20
16.1712617198
 30
0.0
 11
18.517781983
 21
2.9364593988
 31
0.0
  0
LINE
  5
E3
330
73
100
AcDbEntity
  8
0
  6
Continuous
 62
   179
370
    18
100
AcDbLine
 10
18.517781983
 20
2.9364593988
 30
0.0
 11
12.9290124742
 21
2.9364593988
 31
0.0
  0
LINE
  5
E4
330
73
100
AcDbEntity
  8
0
  6
Continuous
 62
   179
370
    18
100
AcDbLine
 10
12.9290124742
 20
2.9364593988
 30
0.0
 11
12.9290124742
 21
16.1712617198
 31
0.0
  0
LINE
  5
E5
330
73
100
AcDbEntity
  8
0
  6
Continuous
 62
   179
370
    18
100
AcDbLine
 10
12.9290124742
 20
16.1712617198
 30
0.0
 11
18.517781983
 21
16.1712617198
 31
0.0
  0
INSERT
  5
EB
330
73
100
AcDbEntity
  8
0
  6
Continuous
 62
     7
370
     0
100
AcDbBlockReference
  2
SW_NOTE_0
 10
1.8998941161
 20
-0.3226565443
 30
0.0
  0
INSERT
  5
F0
330
73
100
AcDbEntity
  8
0
  6
Continuous
 62
     7
370
     0
100
AcDbBlockReference
  2
SW_NOTE_0_1
 10
29.1164837035
 20
12.7459167441
 30
0.0
  0
INSERT
  5
F8
330
73
100
AcDbEntity
  8
0
  6
Continuous
 62
     7
370
     0
100
AcDbBlockReference
  2
SW_NOTE_0_2
 10
28.8863479825
 20
8.6365742194
 30
0.0
  0
ENDBLK
  5
75
330
73
100
AcDbEntity
  8
0
100
AcDbBlockEnd
  0
BLOCK
  5
E7
330
E6
100
AcDbEntity
  8
0
100
AcDbBlockBegin
  2
SW_NOTE_0
 70
     0
 10
0.0
 20
0.0
 30
0.0
  3
SW_NOTE_0
  1

  0
MTEXT
  5
EA
330
E6
100
AcDbEntity
  8
0
  6
Continuous
 62
     0
370
     0
100
AcDbMText
 10
7.46875
 20
2.5781354795
 30
0.0
 40
2.0
 41
0.0
 71
     2
 72
     1
  1
www.aco.ch
  7
SLDTEXTSTYLE0
 73
     1
 44
1.0
  0
ENDBLK
  5
E8
330
E6
100
AcDbEntity
  8
0
100
AcDbBlockEnd
  0
BLOCK
  5
ED
330
EC
100
AcDbEntity
  8
0
100
AcDbBlockBegin
  2
SW_NOTE_0_1
 70
     0
 10
0.0
 20
0.0
 30
0.0
  3
SW_NOTE_0_1
  1

  0
MTEXT
  5
EF
330
EC
100
AcDbEntity
  8
0
  6
Continuous
 62
     0
370
     0
100
AcDbMText
 10
0.0
 20
3.8672032193
 30
0.0
 40
3.0
 41
0.0
 71
     1
 72
     1
  1
ACO AG
  7
SLDTEXTSTYLE0
 73
     1
 44
1.0
  0
ENDBLK
  5
EE
330
EC
100
AcDbEntity
  8
0
100
AcDbBlockEnd
  0
BLOCK
  5
F2
330
F1
100
AcDbEntity
  8
0
100
AcDbBlockBegin
  2
SW_NOTE_0_2
 70
     0
 10
0.0
 20
0.0
 30
0.0
  3
SW_NOTE_0_2
  1

  0
MTEXT
  5
F4
330
F1
100
AcDbEntity
  8
0
  6
Continuous
 62
     0
370
     0
100
AcDbMText
 10
0.0
 20
2.5781354795
 30
0.0
 40
2.0
 41
0.0
 71
     1
 72
     1
  1
Industrie Kleinzaun
  7
SLDTEXTSTYLE0
 73
     1
 44
1.0
  0
MTEXT
  5
F5
330
F1
100
AcDbEntity
  8
0
  6
Continuous
 62
     0
370
     0
100
AcDbMText
 10
0.0
 20
-0.4218645465
 30
0.0
 40
2.0
 41
0.0
 71
     1
 72
     1
  1
CH-8754 Netstal
  7
SLDTEXTSTYLE0
 73
     1
 44
1.0
  0
MTEXT
  5
F6
330
F1
100
AcDbEntity
  8
0
  6
Continuous
 62
     0
370
     0
100
AcDbMText
 10
0.0
 20
-3.4218645726
 30
0.0
 40
2.0
 41
0.0
 71
     1
 72
     1
  1
Tel. 055 / 645 53 00
  7
SLDTEXTSTYLE0
 73
     1
 44
1.0
  0
MTEXT
  5
F7
330
F1
100
AcDbEntity
  8
0
  6
Continuous
 62
     0
370
     0
100
AcDbMText
 10
0.0
 20
-6.4218645987
 30
0.0
 40
2.0
 41
0.0
 71
     1
 72
     1
  1
E-Mail: aco@aco.ch
  7
SLDTEXTSTYLE0
 73
     1
 44
1.0
  0
ENDBLK
  5
F3
330
F1
100
AcDbEntity
  8
0
100
AcDbBlockEnd
  0
BLOCK
  5
16F
330
16E
100
AcDbEntity
  8
0
100
AcDbBlockBegin
  2
SW_NOTE_0_3
 70
     0
 10
0.0
 20
0.0
 30
0.0
  3
SW_NOTE_0_3
  1

  0
MTEXT
  5
171
330
16E
100
AcDbEntity
  8
0
  6
Continuous
 62
     0
370
     0
100
AcDbMText
 10
0.0
 20
1.9336016097
 30
0.0
 40
1.5
 41
0.0
 71
     1
 72
     1
  1
Diese Zeichnung darf weder kopiert
  7
SLDTEXTSTYLE0
 73
     1
 44
1.0
  0
MTEXT
  5
172
330
16E
100
AcDbEntity
  8
0
  6
Continuous
 62
     0
370
     0
100
AcDbMText
 10
0.0
 20
-0.5663983345
 30
0.0
 40
1.5
 41
0.0
 71
     1
 72
     1
  1
noch dritten Personen, insbesondere
  7
SLDTEXTSTYLE0
 73
     1
 44
1.0
  0
MTEXT
  5
173
330
16E
100
AcDbEntity
  8
0
  6
Continuous
 62
     0
370
     0
100
AcDbMText
 10
0.0
 20
-3.0663982786
 30
0.0
 40
1.5
 41
0.0
 71
     1
 72
     1
  1
zum Zweck anderweitiger Benutzung
  7
SLDTEXTSTYLE0
 73
     1
 44
1.0
  0
MTEXT
  5
174
330
16E
100
AcDbEntity
  8
0
  6
Continuous
 62
     0
370
     0
100
AcDbMText
 10
0.0
 20
-5.5663982227
 30
0.0
 40
1.5
 41
0.0
 71
     1
 72
     1
  1
mitgeteilt werden und bleibt unser
  7
SLDTEXTSTYLE0
 73
     1
 44
1.0
  0
MTEXT
  5
175
330
16E
100
AcDbEntity
  8
0
  6
Continuous
 62
     0
370
     0
100
AcDbMText
 10
0.0
 20
-8.0663981668
 30
0.0
 40
1.5
 41
0.0
 71
     1
 72
     1
  1
Eigentum.
  7
SLDTEXTSTYLE0
 73
     1
 44
1.0
  0
ENDBLK
  5
170
330
16E
100
AcDbEntity
  8
0
100
AcDbBlockEnd
  0
BLOCK
  5
32A
330
329
100
AcDbEntity
  8
0
100
AcDbBlockBegin
  2
_D
 70
     0
 10
0.0
 20
0.0
 30
0.0
  3
_D
  1

  0
SOLID
  5
32C
330
329
100
AcDbEntity
  8
0
  6
Continuous
 62
     7
370
    18
100
AcDbTrace
 10
66.3186643607
 20
232.9614114916
 30
0.0
 11
69.6228494892
 21
232.4678239747
 31
0.0
 12
69.6184163669
 22
233.4838143031
 32
0.0
 13
69.6184163669
 23
233.4838143031
 33
0.0
  0
SOLID
  5
32D
330
329
100
AcDbEntity
  8
0
  6
Continuous
 62
     7
370
    18
100
AcDbTrace
 10
219.9717130739
 20
233.6318536478
 30
0.0
 11
216.6675279455
 21
234.1254411648
 31
0.0
 12
216.6719610677
 22
233.1094508364
 32
0.0
 13
216.6719610677
 23
233.1094508364
 33
0.0
  0
LINE
  5
32E
330
329
100
AcDbEntity
  8
0
  6
Continuous
 62
     7
370
     0
100
AcDbLine
 10
66.4506599138
 20
202.7104510365
 30
0.0
 11
66.3143010514
 21
233.9614019724
 31
0.0
  0
LINE
  5
32F
330
329
100
AcDbEntity
  8
0
  6
Continuous
 62
     7
370
     0
100
AcDbLine
 10
220.103708627
 20
203.3808931927
 30
0.0
 11
219.9673497646
 21
234.6318441286
 31
0.0
  0
LINE
  5
330
330
329
100
AcDbEntity
  8
0
  6
Continuous
 62
     7
370
     0
100
AcDbLine
 10
66.3186643607
 20
232.9614114916
 30
0.0
 11
219.9717130739
 21
233.6318536478
 31
0.0
  0
MTEXT
  5
331
330
329
100
AcDbEntity
  8
0
  6
Continuous
 62
     7
370
    18
100
AcDbMText
 10
143.0350651839
 20
237.8079319256
 30
0.0
 40
3.5
 41
0.0
 71
     1
 72
     1
  1
154
  7
SLDTEXTSTYLE2
 11
0.9999904807207345
 21
0.004363309284749929
 31
0.0
 73
     1
 44
1.0
  0
ENDBLK
  5
32B
330
329
100
AcDbEntity
  8
0
100
AcDbBlockEnd
  0
BLOCK
  5
335
330
334
100
AcDbEntity
  8
0
100
AcDbBlockBegin
  2
_D_1
 70
     0
 10
0.0
 20
0.0
 30
0.0
  3
_D_1
  1

  0
SOLID
  5
337
330
334
100
AcDbEntity
  8
0
  6
Continuous
 62
     7
370
    18
100
AcDbTrace
 10
223.5947510678
 20
180.7088956037
 30
0.0
 11
225.2462668315
 21
183.6129899
 31
0.0
 12
224.2969892043
 22
183.9751058847
 32
0.0
 13
224.2969892043
 23
183.9751058847
 33
0.0
  0
SOLID
  5
338
330
334
100
AcDbEntity
  8
0
  6
Continuous
 62
     7
370
    18
100
AcDbTrace
 10
230.3668132249
 20
198.4616802607
 30
0.0
 11
228.7152974612
 21
195.5575859644
 31
0.0
 12
229.6645750885
 22
195.1954699797
 32
0.0
 13
229.6645750885
 23
195.1954699797
 33
0.0
  0
LINE
  5
339
330
334
100
AcDbEntity
  8
0
  6
Continuous
 62
     7
370
     0
100
AcDbLine
 10
212.3818220174
 20
184.9862331572
 30
0.0
 11
224.5290794411
 21
180.352482233
 31
0.0
  0
LINE
  5
33A
330
334
100
AcDbEntity
  8
0
  6
Continuous
 62
     7
370
     0
100
AcDbLine
 10
219.1538841745
 20
202.7390178142
 30
0.0
 11
231.3011415982
 21
198.10526689
 31
0.0
  0
LINE
  5
33B
330
334
100
AcDbEntity
  8
0
  6
Continuous
 62
     7
370
     0
100
AcDbLine
 10
223.5947510678
 20
180.7088956037
 30
0.0
 11
230.3668132249
 21
198.4616802607
 31
0.0
  0
MTEXT
  5
33C
330
334
100
AcDbEntity
  8
0
  6
Continuous
 62
     7
370
    18
100
AcDbMText
 10
221.5221235514
 20
187.9342761037
 30
0.0
 40
3.5
 41
0.0
 71
     1
 72
     1
  1
19
  7
SLDTEXTSTYLE2
 11
0.3564133707167673
 21
0.9343283733111781
 31
0.0
 73
     1
 44
1.0
  0
ENDBLK
  5
336
330
334
100
AcDbEntity
  8
0
100
AcDbBlockEnd
  0
BLOCK
  5
33E
330
33D
100
AcDbEntity
  8
0
100
AcDbBlockBegin
  2
SW_CENTERMARKSYMBOL_0
 70
     0
 10
0.0
 20
0.0
 30
0.0
  3
SW_CENTERMARKSYMBOL_0
  1

  0
LINE
  5
340
330
33D
100
AcDbEntity
  8
0
  6
Continuous
 62
     0
370
    18
100
AcDbLine
 10
0.0
 20
0.0
 30
0.0
 11
-2.3339510662
 21
0.8959198739
 31
0.0
  0
LINE
  5
341
330
33D
100
AcDbEntity
  8
0
  6
Continuous
 62
     0
370
    18
100
AcDbLine
 10
0.0
 20
0.0
 30
0.0
 11
-0.8959198739
 21
-2.3339510662
 31
0.0
  0
LINE
  5
342
330
33D
100
AcDbEntity
  8
0
  6
Continuous
 62
     0
370
    18
100
AcDbLine
 10
0.0
 20
0.0
 30
0.0
 11
2.3339510662
 21
-0.8959198739
 31
0.0
  0
LINE
  5
343
330
33D
100
AcDbEntity
  8
0
  6
Continuous
 62
     0
370
    18
100
AcDbLine
 10
0.0
 20
0.0
 30
0.0
 11
0.8959198739
 21
2.3339510662
 31
0.0
  0
LINE
  5
344
330
33D
100
AcDbEntity
  8
0
  6
Continuous
 62
     0
370
    18
100
AcDbLine
 10
-2.3339510662
 20
0.8959198739
 30
0.0
 11
-4.6679021325
 21
1.7918397477
 31
0.0
  0
LINE
  5
345
330
33D
100
AcDbEntity
  8
0
  6
Continuous
 62
     0
370
    18
100
AcDbLine
 10
-0.8959198739
 20
-2.3339510662
 30
0.0
 11
-1.7918397477
 21
-4.6679021325
 31
0.0
  0
LINE
  5
346
330
33D
100
AcDbEntity
  8
0
  6
Continuous
 62
     0
370
    18
100
AcDbLine
 10
2.3339510662
 20
-0.8959198739
 30
0.0
 11
4.6679021325
 21
-1.7918397477
 31
0.0
  0
LINE
  5
347
330
33D
100
AcDbEntity
  8
0
  6
Continuous
 62
     0
370
    18
100
AcDbLine
 10
0.8959198739
 20
2.3339510662
 30
0.0
 11
1.7918397477
 21
4.6679021325
 31
0.0
  0
ENDBLK
  5
33F
330
33D
100
AcDbEntity
  8
0
100
AcDbBlockEnd
  0
BLOCK
  5
34A
330
349
100
AcDbEntity
  8
0
100
AcDbBlockBegin
  2
SW_CENTERMARKSYMBOL_1
 70
     0
 10
0.0
 20
0.0
 30
0.0
  3
SW_CENTERMARKSYMBOL_1
  1

  0
LINE
  5
34C
330
349
100
AcDbEntity
  8
0
  6
Continuous
 62
     0
370
    18
100
AcDbLine
 10
0.0
 20
0.0
 30
0.0
 11
-2.3339510662
 21
0.8959198739
 31
0.0
  0
LINE
  5
34D
330
349
100
AcDbEntity
  8
0
  6
Continuous
 62
     0
370
    18
100
AcDbLine
 10
0.0
 20
0.0
 30
0.0
 11
-0.8959198739
 21
-2.3339510662
 31
0.0
  0
LINE
  5
34E
330
349
100
AcDbEntity
  8
0
  6
Continuous
 62
     0
370
    18
100
AcDbLine
 10
0.0
 20
0.0
 30
0.0
 11
2.3339510662
 21
-0.8959198739
 31
0.0
  0
LINE
  5
34F
330
349
100
AcDbEntity
  8
0
  6
Continuous
 62
     0
370
    18
100
AcDbLine
 10
0.0
 20
0.0
 30
0.0
 11
0.8959198739
 21
2.3339510662
 31
0.0
  0
LINE
  5
350
330
349
100
AcDbEntity
  8
0
  6
Continuous
 62
     0
370
    18
100
AcDbLine
 10
-2.3339510662
 20
0.8959198739
 30
0.0
 11
-4.6679021325
 21
1.7918397477
 31
0.0
  0
LINE
  5
351
330
349
100
AcDbEntity
  8
0
  6
Continuous
 62
     0
370
    18
100
AcDbLine
 10
-0.8959198739
 20
-2.3339510662
 30
0.0
 11
-1.7918397477
 21
-4.6679021325
 31
0.0
  0
LINE
  5
352
330
349
100
AcDbEntity
  8
0
  6
Continuous
 62
     0
370
    18
100
AcDbLine
 10
2.3339510662
 20
-0.8959198739
 30
0.0
 11
4.6679021325
 21
-1.7918397477
 31
0.0
  0
LINE
  5
353
330
349
100
AcDbEntity
  8
0
  6
Continuous
 62
     0
370
    18
100
AcDbLine
 10
0.8959198739
 20
2.3339510662
 30
0.0
 11
1.7918397477
 21
4.6679021325
 31
0.0
  0
ENDBLK
  5
34B
330
349
100
AcDbEntity
  8
0
100
AcDbBlockEnd
  0
BLOCK
  5
372
330
371
100
AcDbEntity
  8
0
100
AcDbBlockBegin
  2
_D_2
 70
     0
 10
0.0
 20
0.0
 30
0.0
  3
_D_2
  1

  0
SOLID
  5
374
330
371
100
AcDbEntity
  8
0
  6
Continuous
 62
     7
370
    18
100
AcDbTrace
 10
297.3186556709
 20
222.9757277016
 30
0.0
 11
300.6206556709
 21
222.4677277016
 31
0.0
 12
300.6206556709
 22
223.4837277016
 32
0.0
 13
300.6206556709
 23
223.4837277016
 33
0.0
  0
SOLID
  5
375
330
371
100
AcDbEntity
  8
0
  6
Continuous
 62
     7
370
    18
100
AcDbTrace
 10
292.3186556709
 20
222.9757277016
 30
0.0
 11
289.0166556709
 21
223.4837277016
 31
0.0
 12
289.0166556709
 22
222.4677277016
 32
0.0
 13
289.0166556709
 23
222.4677277016
 33
0.0
  0
LINE
  5
376
330
371
100
AcDbEntity
  8
0
  6
Continuous
 62
     7
370
     0
100
AcDbLine
 10
297.3186556709
 20
217.4581580137
 30
0.0
 11
297.3186556709
 21
223.9757277016
 31
0.0
  0
LINE
  5
377
330
371
100
AcDbEntity
  8
0
  6
Continuous
 62
     7
370
     0
100
AcDbLine
 10
292.3186556709
 20
217.4581580137
 30
0.0
 11
292.3186556709
 21
223.9757277016
 31
0.0
  0
LINE
  5
378
330
371
100
AcDbEntity
  8
0
  6
Continuous
 62
     7
370
     0
100
AcDbLine
 10
297.3186556709
 20
222.9757277016
 30
0.0
 11
303.6686556709
 21
222.9757277016
 31
0.0
  0
LINE
  5
379
330
371
100
AcDbEntity
  8
0
  6
Continuous
 62
     7
370
     0
100
AcDbLine
 10
297.3186556709
 20
222.9757277016
 30
0.0
 11
292.3186556709
 21
222.9757277016
 31
0.0
  0
LINE
  5
37A
330
371
100
AcDbEntity
  8
0
  6
Continuous
 62
     7
370
     0
100
AcDbLine
 10
292.3186556709
 20
222.9757277016
 30
0.0
 11
285.9686556709
 21
222.9757277016
 31
0.0
  0
MTEXT
  5
37B
330
371
100
AcDbEntity
  8
0
  6
Continuous
 62
     7
370
    18
100
AcDbMText
 10
293.296525566
 20
227.4874646162
 30
0.0
 40
3.5
 41
0.0
 71
     1
 72
     1
  1
5
  7
SLDTEXTSTYLE2
 73
     1
 44
1.0
  0
ENDBLK
  5
373
330
371
100
AcDbEntity
  8
0
100
AcDbBlockEnd
  0
ENDSEC
  0
SECTION
  2
ENTITIES
  0
LINE
  5
F9
330
1F
100
AcDbEntity
  8
0
  6
CENTERX2
 62
     7
370
    18
100
AcDbLine
 10
352.6174545849
 20
46.9080238789
 30
0.0
 11
352.6174545849
 21
39.4621586124
 31
0.0
  0
LINE
  5
FA
330
1F
100
AcDbEntity
  8
0
  6
Continuous
 62
     7
370
    18
100
AcDbLine
 10
357.7661698132
 20
46.3720107039
 30
0.0
 11
357.7661698132
 21
39.9353173413
 31
0.0
  0
LINE
  5
FB
330
1F
100
AcDbEntity
  8
0
  6
Continuous
 62
     7
370
    18
100
AcDbLine
 10
364.6059427486
 20
44.7376225767
 30
0.0
 11
364.6059427486
 21
41.5697054685
 31
0.0
  0
LINE
  5
FC
330
1F
100
AcDbEntity
  8
0
  6
Continuous
 62
     7
370
    18
100
AcDbLine
 10
364.6059427486
 20
44.7376225767
 30
0.0
 11
357.7661698132
 21
46.3720107039
 31
0.0
  0
LINE
  5
FD
330
1F
100
AcDbEntity
  8
0
  6
Continuous
 62
     7
370
    18
100
AcDbLine
 10
15.0
 20
198.5
 30
0.0
 11
20.0
 21
198.5
 31
0.0
  0
LINE
  5
FE
330
1F
100
AcDbEntity
  8
0
  6
Continuous
 62
     7
370
    18
100
AcDbLine
 10
12.0
 20
148.5
 30
0.0
 11
0.0
 21
148.5
 31
0.0
  0
LINE
  5
FF
330
1F
100
AcDbEntity
  8
0
  6
Continuous
 62
     7
370
    18
100
AcDbLine
 10
357.7661698132
 20
39.9353173413
 30
0.0
 11
364.6059427486
 21
41.5697054685
 31
0.0
  0
LINE
  5
100
330
1F
100
AcDbEntity
  8
0
  6
CENTERX2
 62
     7
370
    18
100
AcDbLine
 10
348.6240467841
 20
43.1536640226
 30
0.0
 11
356.6108623857
 21
43.1536640226
 31
0.0
  0
LINE
  5
101
330
1F
100
AcDbEntity
  8
0
  6
CENTERX2
 62
     7
370
    18
100
AcDbLine
 10
357.1289238876
 20
43.1536640226
 30
0.0
 11
365.6255362296
 21
43.1536640226
 31
0.0
  0
LINE
  5
102
330
1F
100
AcDbEntity
  8
0
  6
Continuous
 62
     7
370
    18
100
AcDbLine
 10
0.0
 20
0.0
 30
0.0
 11
420.0
 21
0.0
 31
0.0
  0
LINE
  5
103
330
1F
100
AcDbEntity
  8
0
  6
Continuous
 62
     7
370
    18
100
AcDbLine
 10
0.0
 20
0.0
 30
0.0
 11
0.0
 21
297.0
 31
0.0
  0
LINE
  5
104
330
1F
100
AcDbEntity
  8
0
  6
Continuous
 62
     7
370
    18
100
AcDbLine
 10
0.0
 20
297.0
 30
0.0
 11
420.0
 21
297.0
 31
0.0
  0
LINE
  5
105
330
1F
100
AcDbEntity
  8
0
  6
Continuous
 62
     7
370
    18
100
AcDbLine
 10
420.0
 20
0.0
 30
0.0
 11
420.0
 21
297.0
 31
0.0
  0
LINE
  5
106
330
1F
100
AcDbEntity
  8
0
  6
Continuous
 62
     7
370
    25
100
AcDbLine
 10
228.0
 20
35.0
 30
0.0
 11
410.0
 21
35.0
 31
0.0
  0
LINE
  5
107
330
1F
100
AcDbEntity
  8
0
  6
Continuous
 62
     7
370
    18
100
AcDbLine
 10
410.0
 20
198.5
 30
0.0
 11
415.0
 21
198.5
 31
0.0
  0
LINE
  5
108
330
1F
100
AcDbEntity
  8
0
  6
Continuous
 62
     7
370
    18
100
AcDbLine
 10
15.0
 20
148.5
 30
0.0
 11
20.0
 21
148.5
 31
0.0
  0
LINE
  5
109
330
1F
100
AcDbEntity
  8
0
  6
Continuous
 62
     7
370
    18
100
AcDbLine
 10
228.0
 20
40.0
 30
0.0
 11
296.6
 21
40.0
 31
0.0
  0
LINE
  5
10A
330
1F
100
AcDbEntity
  8
0
  6
Continuous
 62
     7
370
    18
100
AcDbLine
 10
15.0
 20
248.5
 30
0.0
 11
20.0
 21
248.5
 31
0.0
  0
LINE
  5
10B
330
1F
100
AcDbEntity
  8
0
  6
Continuous
 62
     7
370
    35
100
AcDbLine
 10
20.0
 20
287.0
 30
0.0
 11
20.0
 21
10.0
 31
0.0
  0
LINE
  5
10C
330
1F
100
AcDbEntity
  8
0
  6
Continuous
 62
     7
370
    35
100
AcDbLine
 10
410.0
 20
287.0
 30
0.0
 11
20.0
 21
287.0
 31
0.0
  0
LINE
  5
10D
330
1F
100
AcDbEntity
  8
0
  6
Continuous
 62
     7
370
    35
100
AcDbLine
 10
410.0
 20
5.0
 30
0.0
 11
410.0
 21
287.0
 31
0.0
  0
LINE
  5
10E
330
1F
100
AcDbEntity
  8
0
  6
Continuous
 62
     7
370
    35
100
AcDbLine
 10
20.0
 20
10.0
 30
0.0
 11
415.0
 21
10.0
 31
0.0
  0
LINE
  5
10F
330
1F
100
AcDbEntity
  8
0
  6
Continuous
 62
     7
370
    18
100
AcDbLine
 10
410.0
 20
148.5
 30
0.0
 11
415.0
 21
148.5
 31
0.0
  0
LINE
  5
110
330
1F
100
AcDbEntity
  8
0
  6
Continuous
 62
     7
370
    18
100
AcDbLine
 10
228.0
 20
50.0
 30
0.0
 11
296.6
 21
50.0
 31
0.0
  0
LINE
  5
111
330
1F
100
AcDbEntity
  8
0
  6
Continuous
 62
     7
370
    18
100
AcDbLine
 10
15.0
 20
98.5
 30
0.0
 11
20.0
 21
98.5
 31
0.0
  0
LINE
  5
112
330
1F
100
AcDbEntity
  8
0
  6
Continuous
 62
     7
370
    18
100
AcDbLine
 10
296.6
 20
45.0
 30
0.0
 11
228.0
 21
45.0
 31
0.0
  0
LINE
  5
113
330
1F
100
AcDbEntity
  8
0
  6
Continuous
 62
     7
370
    18
100
AcDbLine
 10
65.0
 20
292.0
 30
0.0
 11
65.0
 21
287.0
 31
0.0
  0
LINE
  5
114
330
1F
100
AcDbEntity
  8
0
  6
Continuous
 62
     7
370
    18
100
AcDbLine
 10
230.0
 20
292.0
 30
0.0
 11
230.0
 21
297.0
 31
0.0
  0
LINE
  5
115
330
1F
100
AcDbEntity
  8
0
  6
Continuous
 62
     7
370
    25
100
AcDbLine
 10
296.6
 20
55.0
 30
0.0
 11
296.6
 21
35.0
 31
0.0
  0
LINE
  5
116
330
1F
100
AcDbEntity
  8
0
  6
Continuous
 62
     7
370
    18
100
AcDbLine
 10
410.0
 20
98.5
 30
0.0
 11
415.0
 21
98.5
 31
0.0
  0
LINE
  5
117
330
1F
100
AcDbEntity
  8
0
100
AcDbLine
 10
230.0
 20
5.0
 30
0.0
 11
230.0
 21
0.0
 31
0.0
  0
LINE
  5
118
330
1F
100
AcDbEntity
  8
0
  6
Continuous
 62
     7
370
    18
100
AcDbLine
 10
125.0
 20
292.0
 30
0.0
 11
125.0
 21
297.0
 31
0.0
  0
LINE
  5
119
330
1F
100
AcDbEntity
  8
0
  6
Continuous
 62
     7
370
    18
100
AcDbLine
 10
125.0
 20
5.0
 30
0.0
 11
125.0
 21
0.0
 31
0.0
  0
LINE
  5
11A
330
1F
100
AcDbEntity
  8
0
  6
Continuous
 62
     7
370
    25
100
AcDbLine
 10
410.0
 20
55.0
 30
0.0
 11
228.0
 21
55.0
 31
0.0
  0
LINE
  5
11B
330
1F
100
AcDbEntity
  8
0
  6
Continuous
 62
     7
370
    18
100
AcDbLine
 10
228.0
 20
55.0
 30
0.0
 11
410.0
 21
55.0
 31
0.0
  0
LINE
  5
11C
330
1F
100
AcDbEntity
  8
0
  6
Continuous
 62
     7
370
    18
100
AcDbLine
 10
410.0
 20
55.0
 30
0.0
 11
228.0
 21
55.0
 31
0.0
  0
LINE
  5
11D
330
1F
100
AcDbEntity
  8
0
  6
Continuous
 62
     7
370
    18
100
AcDbLine
 10
268.0
 20
76.5
 30
0.0
 11
268.0
 21
55.0
 31
0.0
  0
LINE
  5
11E
330
1F
100
AcDbEntity
  8
0
  6
Continuous
 62
     7
370
    18
100
AcDbLine
 10
271.6
 20
55.0
 30
0.0
 11
271.6
 21
40.0
 31
0.0
  0
LINE
  5
11F
330
1F
100
AcDbEntity
  8
0
  6
Continuous
 62
     7
370
    18
100
AcDbLine
 10
247.0
 20
55.0
 30
0.0
 11
247.0
 21
35.0
 31
0.0
  0
LINE
  5
120
330
1F
100
AcDbEntity
  8
0
  6
Continuous
 62
     7
370
    35
100
AcDbLine
 10
228.0
 20
76.5
 30
0.0
 11
228.0
 21
10.0
 31
0.0
  0
LINE
  5
121
330
1F
100
AcDbEntity
  8
0
  6
Continuous
 62
     7
370
    18
100
AcDbLine
 10
15.0
 20
292.0
 30
0.0
 11
415.0
 21
292.0
 31
0.0
  0
LINE
  5
122
330
1F
100
AcDbEntity
  8
0
  6
Continuous
 62
     7
370
    18
100
AcDbLine
 10
228.0
 20
65.75
 30
0.0
 11
310.0
 21
65.75
 31
0.0
  0
LINE
  5
123
330
1F
100
AcDbEntity
  8
0
  6
Continuous
 62
     7
370
    35
100
AcDbLine
 10
228.0
 20
76.5
 30
0.0
 11
410.0
 21
76.5
 31
0.0
  0
LINE
  5
124
330
1F
100
AcDbEntity
  8
0
  6
Continuous
 62
     7
370
    18
100
AcDbLine
 10
15.0
 20
48.5
 30
0.0
 11
20.0
 21
48.5
 31
0.0
  0
LINE
  5
125
330
1F
100
AcDbEntity
  8
0
  6
Continuous
 62
     7
370
    18
100
AcDbLine
 10
410.0
 20
48.5
 30
0.0
 11
415.0
 21
48.5
 31
0.0
  0
LINE
  5
126
330
1F
100
AcDbEntity
  8
0
  6
Continuous
 62
     7
370
    18
100
AcDbLine
 10
332.6610845472
 20
20.0
 30
0.0
 11
332.6610845472
 21
10.0
 31
0.0
  0
LINE
  5
127
330
1F
100
AcDbEntity
  8
0
  6
Continuous
 62
     7
370
    18
100
AcDbLine
 10
410.0
 20
248.5
 30
0.0
 11
415.0
 21
248.5
 31
0.0
  0
LINE
  5
128
330
1F
100
AcDbEntity
  8
0
  6
Continuous
 62
     7
370
    18
100
AcDbLine
 10
65.0
 20
10.0
 30
0.0
 11
65.0
 21
5.0
 31
0.0
  0
LINE
  5
129
330
1F
100
AcDbEntity
  8
0
  6
Continuous
 62
     7
370
    18
100
AcDbLine
 10
115.0
 20
10.0
 30
0.0
 11
115.0
 21
5.0
 31
0.0
  0
LINE
  5
12A
330
1F
100
AcDbEntity
  8
0
  6
Continuous
 62
     7
370
    18
100
AcDbLine
 10
115.0
 20
292.0
 30
0.0
 11
115.0
 21
287.0
 31
0.0
  0
LINE
  5
12B
330
1F
100
AcDbEntity
  8
0
  6
Continuous
 62
     7
370
    18
100
AcDbLine
 10
165.0
 20
10.0
 30
0.0
 11
165.0
 21
5.0
 31
0.0
  0
LINE
  5
12C
330
1F
100
AcDbEntity
  8
0
  6
Continuous
 62
     7
370
    18
100
AcDbLine
 10
165.0
 20
292.0
 30
0.0
 11
165.0
 21
287.0
 31
0.0
  0
LINE
  5
12D
330
1F
100
AcDbEntity
  8
0
  6
Continuous
 62
     7
370
    18
100
AcDbLine
 10
215.0
 20
10.0
 30
0.0
 11
215.0
 21
5.0
 31
0.0
  0
LINE
  5
12E
330
1F
100
AcDbEntity
  8
0
  6
Continuous
 62
     7
370
    18
100
AcDbLine
 10
215.0
 20
292.0
 30
0.0
 11
215.0
 21
287.0
 31
0.0
  0
LINE
  5
12F
330
1F
100
AcDbEntity
  8
0
  6
Continuous
 62
     7
370
    18
100
AcDbLine
 10
265.0
 20
10.0
 30
0.0
 11
265.0
 21
5.0
 31
0.0
  0
LINE
  5
130
330
1F
100
AcDbEntity
  8
0
  6
Continuous
 62
     7
370
    18
100
AcDbLine
 10
265.0
 20
292.0
 30
0.0
 11
265.0
 21
287.0
 31
0.0
  0
LINE
  5
131
330
1F
100
AcDbEntity
  8
0
  6
Continuous
 62
     7
370
    18
100
AcDbLine
 10
347.6610845472
 20
20.0
 30
0.0
 11
347.6610845472
 21
10.0
 31
0.0
  0
LINE
  5
132
330
1F
100
AcDbEntity
  8
0
  6
Continuous
 62
     7
370
    18
100
AcDbLine
 10
362.6610845472
 20
20.0
 30
0.0
 11
362.6610845472
 21
10.0
 31
0.0
  0
LINE
  5
133
330
1F
100
AcDbEntity
  8
0
  6
Continuous
 62
     7
370
    25
100
AcDbLine
 10
327.6610845472
 20
10.0
 30
0.0
 11
327.6610845472
 21
55.0
 31
0.0
  0
LINE
  5
134
330
1F
100
AcDbEntity
  8
0
  6
Continuous
 62
     7
370
    18
100
AcDbLine
 10
20.0
 20
292.0
 30
0.0
 11
20.0
 21
297.0
 31
0.0
  0
LINE
  5
135
330
1F
100
AcDbEntity
  8
0
  6
Continuous
 62
     7
370
    18
100
AcDbLine
 10
20.0
 20
5.0
 30
0.0
 11
20.0
 21
0.0
 31
0.0
  0
LINE
  5
136
330
1F
100
AcDbEntity
  8
0
  6
Continuous
 62
     7
370
    18
100
AcDbLine
 10
315.0
 20
10.0
 30
0.0
 11
315.0
 21
5.0
 31
0.0
  0
LINE
  5
137
330
1F
100
AcDbEntity
  8
0
  6
Continuous
 62
     7
370
    18
100
AcDbLine
 10
315.0
 20
292.0
 30
0.0
 11
315.0
 21
287.0
 31
0.0
  0
LINE
  5
138
330
1F
100
AcDbEntity
  8
0
  6
Continuous
 62
     7
370
    18
100
AcDbLine
 10
365.0
 20
10.0
 30
0.0
 11
365.0
 21
5.0
 31
0.0
  0
LINE
  5
139
330
1F
100
AcDbEntity
  8
0
  6
Continuous
 62
     7
370
    18
100
AcDbLine
 10
365.0
 20
292.0
 30
0.0
 11
365.0
 21
287.0
 31
0.0
  0
LINE
  5
13A
330
1F
100
AcDbEntity
  8
0
  6
Continuous
 62
     7
370
    18
100
AcDbLine
 10
15.0
 20
292.0
 30
0.0
 11
15.0
 21
5.0
 31
0.0
  0
LINE
  5
13B
330
1F
100
AcDbEntity
  8
0
  6
Continuous
 62
     7
370
    18
100
AcDbLine
 10
15.0
 20
5.0
 30
0.0
 11
415.0
 21
5.0
 31
0.0
  0
LINE
  5
13C
330
1F
100
AcDbEntity
  8
0
  6
Continuous
 62
     7
370
    18
100
AcDbLine
 10
415.0
 20
292.0
 30
0.0
 11
415.0
 21
5.0
 31
0.0
  0
LINE
  5
13D
330
1F
100
AcDbEntity
  8
0
  6
Continuous
 62
     7
370
    18
100
AcDbLine
 10
347.6610845472
 20
44.213444
 30
0.0
 11
327.6610845472
 21
44.213444
 31
0.0
  0
LINE
  5
13E
330
1F
100
AcDbEntity
  8
0
  6
Continuous
 62
     7
370
    18
100
AcDbLine
 10
347.6610845472
 20
35.0
 30
0.0
 11
347.6610845472
 21
55.0
 31
0.0
  0
LINE
  5
13F
330
1F
100
AcDbEntity
  8
0
  6
Continuous
 62
     7
370
    18
100
AcDbLine
 10
370.057188
 20
55.012032
 30
0.0
 11
370.057188
 21
35.0
 31
0.0
  0
LINE
  5
140
330
1F
100
AcDbEntity
  8
0
  6
Continuous
 62
     7
370
    18
100
AcDbLine
 10
398.0
 20
35.0
 30
0.0
 11
398.0
 21
20.0
 31
0.0
  0
LINE
  5
141
330
1F
100
AcDbEntity
  8
0
  6
Continuous
 62
     7
370
    18
100
AcDbLine
 10
410.0
 20
15.0
 30
0.0
 11
327.6610845472
 21
15.0
 31
0.0
  0
LINE
  5
142
330
1F
100
AcDbEntity
  8
0
  6
Continuous
 62
     7
370
    18
100
AcDbLine
 10
327.6610845472
 20
20.0
 30
0.0
 11
410.0
 21
20.0
 31
0.0
  0
LINE
  5
143
330
1F
100
AcDbEntity
  8
0
  6
Continuous
 62
     7
370
    18
100
AcDbLine
 10
341.485486
 20
20.0
 30
0.0
 11
341.485486
 21
27.564675
 31
0.0
  0
LINE
  5
144
330
1F
100
AcDbEntity
  8
0
  6
Continuous
 62
     7
370
    25
100
AcDbLine
 10
310.0
 20
76.5
 30
0.0
 11
310.0
 21
55.0
 31
0.0
  0
CIRCLE
  5
145
330
1F
100
AcDbEntity
  8
0
  6
Continuous
 62
     7
370
    18
100
AcDbCircle
 10
11.0
 20
108.5
 30
0.0
 40
2.750000000000001
  0
CIRCLE
  5
146
330
1F
100
AcDbEntity
  8
0
  6
Continuous
 62
     7
370
    18
100
AcDbCircle
 10
11.0
 20
188.5
 30
0.0
 40
2.750000000000001
  0
CIRCLE
  5
147
330
1F
100
AcDbEntity
  8
0
  6
Continuous
 62
     7
370
    18
100
AcDbCircle
 10
352.6174545849
 20
43.1536640226
 30
0.0
 40
3.218346681300138
  0
CIRCLE
  5
148
330
1F
100
AcDbEntity
  8
0
  6
Continuous
 62
     7
370
    18
100
AcDbCircle
 10
352.6174545849
 20
43.1536640226
 30
0.0
 40
1.583958554121555
  0
INSERT
  5
149
330
1F
100
AcDbEntity
  8
0
  6
Continuous
 62
     7
100
AcDbBlockReference
  2
ACO-Logo
 10
314.3510726297
 20
57.6366106772
 30
0.0
  0
POINT
  5
14A
330
1F
100
AcDbEntity
  8
0
100
AcDbPoint
 10
0.0
 20
0.0
 30
0.0
  0
POINT
  5
14B
330
1F
100
AcDbEntity
  8
0
100
AcDbPoint
 10
410.0
 20
10.0
 30
0.0
  0
MTEXT
  5
14C
330
1F
100
AcDbEntity
  8
0
  6
Continuous
 62
     7
370
    18
100
AcDbMText
 10
17.7359443114
 20
124.8017866468
 30
0.0
 40
2.0
 41
0.0
 71
     2
 72
     1
  1
D
  7
SLDTEXTSTYLE0
 73
     1
 44
1.0
  0
MTEXT
  5
14D
330
1F
100
AcDbEntity
  8
0
  6
Continuous
 62
     7
370
    18
100
AcDbMText
 10
17.6274822413
 20
174.7261854936
 30
0.0
 40
2.0
 41
0.0
 71
     2
 72
     1
  1
C
  7
SLDTEXTSTYLE0
 73
     1
 44
1.0
  0
MTEXT
  5
14E
330
1F
100
AcDbEntity
  8
0
  6
Continuous
 62
     7
370
    18
100
AcDbMText
 10
17.5516905072
 20
224.4926420442
 30
0.0
 40
2.0
 41
0.0
 71
     2
 72
     1
  1
B
  7
SLDTEXTSTYLE0
 73
     1
 44
1.0
  0
MTEXT
  5
14F
330
1F
100
AcDbEntity
  8
0
  6
Continuous
 62
     7
370
    18
100
AcDbMText
 10
290.0344258799
 20
290.5428789914
 30
0.0
 40
2.0
 41
0.0
 71
     2
 72
     1
  1
6
  7
SLDTEXTSTYLE0
 73
     1
 44
1.0
  0
MTEXT
  5
150
330
1F
100
AcDbEntity
  8
0
  6
Continuous
 62
     7
370
    18
100
AcDbMText
 10
240.0417859812
 20
290.6369260235
 30
0.0
 40
2.0
 41
0.0
 71
     2
 72
     1
  1
5
  7
SLDTEXTSTYLE0
 73
     1
 44
1.0
  0
MTEXT
  5
151
330
1F
100
AcDbEntity
  8
0
  6
Continuous
 62
     7
370
    18
100
AcDbMText
 10
190.0300404524
 20
290.6343268032
 30
0.0
 40
2.0
 41
0.0
 71
     2
 72
     1
  1
4
  7
SLDTEXTSTYLE0
 73
     1
 44
1.0
  0
MTEXT
  5
152
330
1F
100
AcDbEntity
  8
0
  6
Continuous
 62
     7
370
    18
100
AcDbMText
 10
140.0165868337
 20
290.6378887952
 30
0.0
 40
2.0
 41
0.0
 71
     2
 72
     1
  1
3
  7
SLDTEXTSTYLE0
 73
     1
 44
1.0
  0
MTEXT
  5
153
330
1F
100
AcDbEntity
  8
0
  6
Continuous
 62
     7
370
    18
100
AcDbMText
 10
90.033223
 20
290.5566702875
 30
0.0
 40
2.0
 41
0.0
 71
     2
 72
     1
  1
2
  7
SLDTEXTSTYLE0
 73
     1
 44
1.0
  0
MTEXT
  5
154
330
1F
100
AcDbEntity
  8
0
  6
Continuous
 62
     7
370
    18
100
AcDbMText
 10
40.0509551097
 20
290.5530165805
 30
0.0
 40
2.0
 41
0.0
 71
     2
 72
     1
  1
1
  7
SLDTEXTSTYLE0
 73
     1
 44
1.0
  0
MTEXT
  5
155
330
1F
100
AcDbEntity
  8
0
  6
Continuous
 62
     7
370
    18
100
AcDbMText
 10
17.5609786315
 20
271.2966048816
 30
0.0
 40
2.0
 41
0.0
 71
     2
 72
     1
  1
A
  7
SLDTEXTSTYLE0
 73
     1
 44
1.0
  0
MTEXT
  5
156
330
1F
100
AcDbEntity
  8
0
  6
Continuous
 62
     7
370
    18
100
AcDbMText
 10
89.9333968896
 20
8.5904490253
 30
0.0
 40
2.0
 41
0.0
 71
     2
 72
     1
  1
2
  7
SLDTEXTSTYLE0
 73
     1
 44
1.0
  0
MTEXT
  5
157
330
1F
100
AcDbEntity
  8
0
  6
Continuous
 62
     7
370
    18
100
AcDbMText
 10
39.9009486579
 20
8.6623118453
 30
0.0
 40
2.0
 41
0.0
 71
     2
 72
     1
  1
1
  7
SLDTEXTSTYLE0
 73
     1
 44
1.0
  0
MTEXT
  5
158
330
1F
100
AcDbEntity
  8
0
  6
Continuous
 62
     7
370
    18
100
AcDbMText
 10
190.0227230239
 20
8.7073169286
 30
0.0
 40
2.0
 41
0.0
 71
     2
 72
     1
  1
4
  7
SLDTEXTSTYLE0
 73
     1
 44
1.0
  0
MTEXT
  5
159
330
1F
100
AcDbEntity
  8
0
  6
Continuous
 62
     7
370
    18
100
AcDbMText
 10
140.0453427777
 20
8.5647154541
 30
0.0
 40
2.0
 41
0.0
 71
     2
 72
     1
  1
3
  7
SLDTEXTSTYLE0
 73
     1
 44
1.0
  0
MTEXT
  5
15A
330
1F
100
AcDbEntity
  8
0
  6
Continuous
 62
     7
370
    18
100
AcDbMText
 10
239.8749782531
 20
8.5637526825
 30
0.0
 40
2.0
 41
0.0
 71
     2
 72
     1
  1
5
  7
SLDTEXTSTYLE0
 73
     1
 44
1.0
  0
MTEXT
  5
15B
330
1F
100
AcDbEntity
  8
0
  6
Continuous
 62
     7
370
    18
100
AcDbMText
 10
412.6717254925
 20
224.51208263
 30
0.0
 40
2.0
 41
0.0
 71
     2
 72
     1
  1
B
  7
SLDTEXTSTYLE0
 73
     1
 44
1.0
  0
MTEXT
  5
15C
330
1F
100
AcDbEntity
  8
0
  6
Continuous
 62
     7
370
    18
100
AcDbMText
 10
412.5951211154
 20
271.2798202564
 30
0.0
 40
2.0
 41
0.0
 71
     2
 72
     1
  1
A
  7
SLDTEXTSTYLE0
 73
     1
 44
1.0
  0
MTEXT
  5
15D
330
1F
100
AcDbEntity
  8
0
  6
Continuous
 62
     7
370
    18
100
AcDbMText
 10
412.6491448679
 20
174.7279841048
 30
0.0
 40
2.0
 41
0.0
 71
     2
 72
     1
  1
C
  7
SLDTEXTSTYLE0
 73
     1
 44
1.0
  0
MTEXT
  5
15E
330
1F
100
AcDbEntity
  8
0
  6
Continuous
 62
     7
370
    18
100
AcDbMText
 10
340.0216466634
 20
290.5954278102
 30
0.0
 40
2.0
 41
0.0
 71
     2
 72
     1
  1
7
  7
SLDTEXTSTYLE0
 73
     1
 44
1.0
  0
MTEXT
  5
15F
330
1F
100
AcDbEntity
  8
0
  6
Continuous
 62
     7
370
    18
100
AcDbMText
 10
390.037657264
 20
290.6215496941
 30
0.0
 40
2.0
 41
0.0
 71
     2
 72
     1
  1
8
  7
SLDTEXTSTYLE0
 73
     1
 44
1.0
  0
MTEXT
  5
160
330
1F
100
AcDbEntity
  8
0
  6
Continuous
 62
     7
370
    18
100
AcDbMText
 10
17.6897935208
 20
74.7267628143
 30
0.0
 40
2.0
 41
0.0
 71
     2
 72
     1
  1
E
  7
SLDTEXTSTYLE0
 73
     1
 44
1.0
  0
MTEXT
  5
161
330
1F
100
AcDbEntity
  8
0
  6
Continuous
 62
     7
370
    18
100
AcDbMText
 10
17.5936930126
 20
27.773321616
 30
0.0
 40
2.0
 41
0.0
 71
     2
 72
     1
  1
F
  7
SLDTEXTSTYLE0
 73
     1
 44
1.0
  0
MTEXT
  5
162
330
1F
100
AcDbEntity
  8
0
  6
Continuous
 62
     7
370
    18
100
AcDbMText
 10
339.8003474583
 20
8.7205095051
 30
0.0
 40
2.0
 41
0.0
 71
     2
 72
     1
  1
7
  7
SLDTEXTSTYLE0
 73
     1
 44
1.0
  0
MTEXT
  5
163
330
1F
100
AcDbEntity
  8
0
  6
Continuous
 62
     7
370
    18
100
AcDbMText
 10
289.7886477179
 20
8.6884673623
 30
0.0
 40
2.0
 41
0.0
 71
     2
 72
     1
  1
6
  7
SLDTEXTSTYLE0
 73
     1
 44
1.0
  0
MTEXT
  5
164
330
1F
100
AcDbEntity
  8
0
  6
Continuous
 62
     7
370
    18
100
AcDbMText
 10
412.5160699095
 20
74.5096307526
 30
0.0
 40
2.0
 41
0.0
 71
     2
 72
     1
  1
E
  7
SLDTEXTSTYLE0
 73
     1
 44
1.0
  0
MTEXT
  5
165
330
1F
100
AcDbEntity
  8
0
  6
Continuous
 62
     7
370
    18
100
AcDbMText
 10
412.6234021365
 20
124.4517683275
 30
0.0
 40
2.0
 41
0.0
 71
     2
 72
     1
  1
D
  7
SLDTEXTSTYLE0
 73
     1
 44
1.0
  0
MTEXT
  5
166
330
1F
100
AcDbEntity
  8
0
  6
Continuous
 62
     7
370
    18
100
AcDbMText
 10
411.7952690469
 20
41.8473512857
 30
0.0
 40
1.8
 41
0.0
 71
     3
 72
     1
  1
Plotdatum: 31.08.2024
  7
SLDTEXTSTYLE0
 11
-3.269436733918102E-15
 21
1.0
 31
0.0
 73
     1
 44
1.0
  0
MTEXT
  5
167
330
1F
100
AcDbEntity
  8
0
  6
Continuous
 62
     7
370
    18
100
AcDbMText
 10
412.557933251
 20
8.2549718046
 30
0.0
 40
1.8
 41
0.0
 71
     2
 72
     1
  1
A3
  7
SLDTEXTSTYLE0
 73
     1
 44
1.0
  0
MTEXT
  5
168
330
1F
100
AcDbEntity
  8
0
  6
Continuous
 62
     7
370
    18
100
AcDbMText
 10
390.594604279
 20
8.3847467643
 30
0.0
 40
1.8
 41
0.0
 71
     2
 72
     1
  1
CAD-System: SolidWorks
  7
SLDTEXTSTYLE0
 73
     1
 44
1.0
  0
MTEXT
  5
169
330
1F
100
AcDbEntity
  8
0
  6
Continuous
 62
     7
370
    18
100
AcDbMText
 10
403.9986368527
 20
28.4394692021
 30
0.0
 40
5.0
 41
0.0
 71
     2
 72
     1
  1
A
  7
SLDTEXTSTYLE0
 73
     1
 44
1.0
  0
MTEXT
  5
16A
330
1F
100
AcDbEntity
  8
0
  6
Continuous
 62
     7
370
    18
100
AcDbMText
 10
249.556836311
 20
38.5581729516
 30
0.0
 40
2.0
 41
0.0
 71
     1
 72
     1
  1
Freigegeben
  7
SLDTEXTSTYLE0
 73
     1
 44
1.0
  0
MTEXT
  5
16B
330
1F
100
AcDbEntity
  8
0
  6
Continuous
 62
     7
370
    18
100
AcDbMText
 10
284.096264263
 20
43.5473338598
 30
0.0
 40
2.0
 41
0.0
 71
     2
 72
     1
  1
dca
  7
SLDTEXTSTYLE0
 73
     1
 44
1.0
  0
MTEXT
  5
16C
330
1F
100
AcDbEntity
  8
0
  6
Continuous
 62
     7
370
    18
100
AcDbMText
 10
249.5284668163
 20
43.5603133928
 30
0.0
 40
2.0
 41
0.0
 71
     1
 72
     1
  1
31.08.2024
  7
SLDTEXTSTYLE0
 73
     1
 44
1.0
  0
MTEXT
  5
16D
330
1F
100
AcDbEntity
  8
0
  6
Continuous
 62
     7
370
     0
100
AcDbMText
 10
372.2007348103
 20
38.8723054925
 30
0.0
 40
1.5
 41
0.0
 71
     1
 72
     1
  1
Copyright reserved! © ACO AG
  7
SLDTEXTSTYLE0
 73
     1
 44
1.0
  0
INSERT
  5
176
330
1F
100
AcDbEntity
  8
0
  6
Continuous
 62
     7
370
     0
100
AcDbBlockReference
  2
SW_NOTE_0_3
 10
372.2203831445
 20
51.2202922854
 30
0.0
  0
MTEXT
  5
177
330
1F
100
AcDbEntity
  8
0
  6
Continuous
 62
     7
370
    18
100
AcDbMText
 10
330.2607505021
 20
13.524501801
 30
0.0
 40
2.0
 41
0.0
 71
     2
 72
     1
  1
-
  7
SLDTEXTSTYLE0
 73
     1
 44
1.0
  0
MTEXT
  5
178
330
1F
100
AcDbEntity
  8
0
  6
Continuous
 62
     7
370
    18
100
AcDbMText
 10
364.9468572407
 20
18.4594173137
 30
0.0
 40
2.0
 41
0.0
 71
     1
 72
     1
  1
SAP-Nr.
  7
SLDTEXTSTYLE0
 73
     1
 44
1.0
  0
MTEXT
  5
179
330
1F
100
AcDbEntity
  8
0
  6
Continuous
 62
     7
370
    18
100
AcDbMText
 10
354.24544421
 20
18.5245664709
 30
0.0
 40
2.0
 41
0.0
 71
     2
 72
     1
  1
dca
  7
SLDTEXTSTYLE0
 73
     1
 44
1.0
  0
MTEXT
  5
17A
330
1F
100
AcDbEntity
  8
0
  6
Continuous
 62
     7
370
    18
100
AcDbMText
 10
340.2690141878
 20
18.5245664709
 30
0.0
 40
2.0
 41
0.0
 71
     2
 72
     1
  1
30.08.2024
  7
SLDTEXTSTYLE0
 73
     1
 44
1.0
  0
MTEXT
  5
17B
330
1F
100
AcDbEntity
  8
0
  6
Continuous
 62
     7
370
    18
100
AcDbMText
 10
330.227417144
 20
18.524501801
 30
0.0
 40
2.0
 41
0.0
 71
     2
 72
     1
  1
A
  7
SLDTEXTSTYLE0
 73
     1
 44
1.0
  0
MTEXT
  5
17C
330
1F
100
AcDbEntity
  8
0
  6
Continuous
 62
     7
370
    18
100
AcDbMText
 10
311.764909851
 20
46.3490312465
 30
0.0
 40
5.0
 41
0.0
 71
     2
 72
     1
  1
1:1
  7
SLDTEXTSTYLE0
 73
     1
 44
1.0
  0
MTEXT
  5
17D
330
1F
100
AcDbEntity
  8
0
  6
Continuous
 62
     7
370
    18
100
AcDbMText
 10
230.1851195342
 20
38.7793829468
 30
0.0
 40
2.0
 41
0.0
 71
     1
 72
     1
  1
Status:
  7
SLDTEXTSTYLE0
 73
     1
 44
1.0
  0
MTEXT
  5
17E
330
1F
100
AcDbEntity
  8
0
  6
Continuous
 62
     7
370
    18
100
AcDbMText
 10
344.926838705
 20
28.2772828851
 30
0.0
 40
5.0
 41
0.0
 71
     1
 72
     1
  1
100806
  7
SLDTEXTSTYLE0
 73
     1
 44
1.0
  0
MTEXT
  5
17F
330
1F
100
AcDbEntity
  8
0
  6
Continuous
 62
     7
370
    18
100
AcDbMText
 10
231.1132118803
 20
14.9211049657
 30
0.0
 40
2.5
 41
0.0
 71
     1
 72
     1
  1
Art. Nr.: 2090221
  7
SLDTEXTSTYLE0
 73
     1
 44
1.0
  0
MTEXT
  5
180
330
1F
100
AcDbEntity
  8
0
  6
Continuous
 62
     7
370
    18
100
AcDbMText
 10
231.1475981734
 20
21.4529560996
 30
0.0
 40
2.5
 41
0.0
 71
     1
 72
     1
  1
Fernwärme
  7
SLDTEXTSTYLE0
 73
     1
 44
1.0
  0
MTEXT
  5
181
330
1F
100
AcDbEntity
  8
0
  6
Continuous
 62
     7
370
    18
100
AcDbMText
 10
231.1159560181
 20
33.0904969858
 30
0.0
 40
2.5
 41
0.0
 71
     1
 72
     1
  1
Beschriftungsmöglichkeiten
  7
SLDTEXTSTYLE0
 73
     1
 44
1.0
  0
MTEXT
  5
182
330
1F
100
AcDbEntity
  8
0
  6
Continuous
 62
     7
370
    18
100
AcDbMText
 10
231.1475981734
 20
28.0307932366
 30
0.0
 40
3.5
 41
0.0
 71
     1
 72
     1
  1
Individuelle Beschriftungsschilder
  7
SLDTEXTSTYLE0
 73
     1
 44
1.0
  0
MTEXT
  5
183
330
1F
100
AcDbEntity
  8
0
  6
Continuous
 62
     7
370
    18
100
AcDbMText
 10
348.2746465368
 20
53.819119072
 30
0.0
 40
2.0
 41
0.0
 71
     1
 72
     1
  1
Projektion: ISO-E
  7
SLDTEXTSTYLE0
 73
     1
 44
1.0
  0
MTEXT
  5
184
330
1F
100
AcDbEntity
  8
0
  6
Continuous
 62
     7
370
    18
100
AcDbMText
 10
337.7677091855
 20
49.3670227094
 30
0.0
 40
2.5
 41
0.0
 71
     2
 72
     1
  1
Millimeter
  7
SLDTEXTSTYLE0
 73
     1
 44
1.0
  0
MTEXT
  5
185
330
1F
100
AcDbEntity
  8
0
  6
Continuous
 62
     7
370
    18
100
AcDbMText
 10
337.6323777421
 20
53.855374072
 30
0.0
 40
2.0
 41
0.0
 71
     2
 72
     1
  1
Masseinheit:
  7
SLDTEXTSTYLE0
 73
     1
 44
1.0
  0
MTEXT
  5
186
330
1F
100
AcDbEntity
  8
0
  6
Continuous
 62
     7
370
    18
100
AcDbMText
 10
337.6114490186
 20
43.5452078816
 30
0.0
 40
2.0
 41
0.0
 71
     2
 72
     1
  1
Blatt / Anz.:
  7
SLDTEXTSTYLE0
 73
     1
 44
1.0
  0
MTEXT
  5
187
330
1F
100
AcDbEntity
  8
0
  6
Continuous
 62
     7
370
    18
100
AcDbMText
 10
329.2895578243
 20
28.4139191092
 30
0.0
 40
5.0
 41
0.0
 71
     1
 72
     1
  1
CH
  7
SLDTEXTSTYLE0
 73
     1
 44
1.0
  0
MTEXT
  5
188
330
1F
100
AcDbEntity
  8
0
  6
Continuous
 62
     7
370
    18
100
AcDbMText
 10
330.40704
 20
33.692638072
 30
0.0
 40
2.0
 41
0.0
 71
     1
 72
     1
  1
Zeichnung Nr.:
  7
SLDTEXTSTYLE0
 73
     1
 44
1.0
  0
MTEXT
  5
189
330
1F
100
AcDbEntity
  8
0
  6
Continuous
 62
     7
370
    18
100
AcDbMText
 10
269.897953
 20
75.161075072
 30
0.0
 40
2.0
 41
0.0
 71
     1
 72
     1
  1
Gewicht:
  7
SLDTEXTSTYLE0
 73
     1
 44
1.0
  0
MTEXT
  5
18A
330
1F
100
AcDbEntity
  8
0
  6
Continuous
 62
     7
370
    18
100
AcDbMText
 10
230.0
 20
64.542328072
 30
0.0
 40
2.0
 41
0.0
 71
     1
 72
     1
  1
zul. Abweichung:
  7
SLDTEXTSTYLE0
 73
     1
 44
1.0
  0
MTEXT
  5
18B
330
1F
100
AcDbEntity
  8
0
  6
Continuous
 62
     7
370
    18
100
AcDbMText
 10
269.612607
 20
64.542328072
 30
0.0
 40
2.0
 41
0.0
 71
     1
 72
     1
  1
Oberfläche:
  7
SLDTEXTSTYLE0
 73
     1
 44
1.0
  0
MTEXT
  5
18C
330
1F
100
AcDbEntity
  8
0
  6
Continuous
 62
     7
370
    18
100
AcDbMText
 10
230.261411
 20
43.4433838912
 30
0.0
 40
2.0
 41
0.0
 71
     1
 72
     1
  1
Freigegeben:
  7
SLDTEXTSTYLE0
 73
     1
 44
1.0
  0
MTEXT
  5
18D
330
1F
100
AcDbEntity
  8
0
  6
Continuous
 62
     7
370
    18
100
AcDbMText
 10
230.0
 20
75.161075072
 30
0.0
 40
2.0
 41
0.0
 71
     1
 72
     1
  1
Werkstoff:
  7
SLDTEXTSTYLE0
 73
     1
 44
1.0
  0
MTEXT
  5
18E
330
1F
100
AcDbEntity
  8
0
  6
Continuous
 62
     7
370
    18
100
AcDbMText
 10
254.035545
 20
53.129475072
 30
0.0
 40
2.0
 41
0.0
 71
     1
 72
     1
  1
Datum:
  7
SLDTEXTSTYLE0
 73
     1
 44
1.0
  0
MTEXT
  5
18F
330
1F
100
AcDbEntity
  8
0
  6
Continuous
 62
     7
370
    18
100
AcDbMText
 10
279.934928
 20
53.136060072
 30
0.0
 40
2.0
 41
0.0
 71
     1
 72
     1
  1
Name:
  7
SLDTEXTSTYLE0
 73
     1
 44
1.0
  0
MTEXT
  5
190
330
1F
100
AcDbEntity
  8
0
  6
Continuous
 62
     7
370
    18
100
AcDbMText
 10
312.162455406
 20
53.881591072
 30
0.0
 40
2.0
 41
0.0
 71
     2
 72
     1
  1
Massstab:
  7
SLDTEXTSTYLE0
 73
     1
 44
1.0
  0
MTEXT
  5
191
330
1F
100
AcDbEntity
  8
0
  6
Continuous
 62
     7
370
    18
100
AcDbMText
 10
403.9552944035
 20
33.324874072
 30
0.0
 40
2.0
 41
0.0
 71
     2
 72
     1
  1
Index:
  7
SLDTEXTSTYLE0
 73
     1
 44
1.0
  0
MTEXT
  5
192
330
1F
100
AcDbEntity
  8
0
  6
Continuous
 62
     7
370
    18
100
AcDbMText
 10
230.261411
 20
48.4499477886
 30
0.0
 40
2.0
 41
0.0
 71
     1
 72
     1
  1
Erstellt:
  7
SLDTEXTSTYLE0
 73
     1
 44
1.0
  0
MTEXT
  5
194
330
1F
100
AcDbEntity
  8
0
  6
Continuous
 62
     7
370
    18
100
AcDbMText
 10
337.6348165843
 20
39.869706576
 30
0.0
 40
2.5
 41
0.0
 71
     2
 72
     1
  1
1 / 1
  7
SLDTEXTSTYLE1
 73
     1
 44
1.0
  0
MTEXT
  5
195
330
1F
100
AcDbEntity
  8
0
  6
Continuous
 62
     7
370
    18
100
AcDbMText
 10
269.612607
 20
60.8119428599
 30
0.0
 40
3.0
 41
0.0
 71
     1
 72
     1
  1
DIN ISO 1302
  7
SLDTEXTSTYLE0
 73
     1
 44
1.0
  0
MTEXT
  5
196
330
1F
100
AcDbEntity
  8
0
  6
Continuous
 62
     7
370
    18
100
AcDbMText
 10
230.0
 20
60.8119428599
 30
0.0
 40
3.0
 41
0.0
 71
     1
 72
     1
  1
Norm
  7
SLDTEXTSTYLE0
 73
     1
 44
1.0
  0
MTEXT
  5
197
330
1F
100
AcDbEntity
  8
0
  6
Continuous
 62
     7
370
    18
100
AcDbMText
 10
269.612607
 20
71.2121947186
 30
0.0
 40
3.0
 41
0.0
 71
     1
 72
     1
  1
89.64 g
  7
SLDTEXTSTYLE0
 73
     1
 44
1.0
  0
MTEXT
  5
198
330
1F
100
AcDbEntity
  8
0
  6
Continuous
 62
     7
370
    18
100
AcDbMText
 10
230.0
 20
71.2121947186
 30
0.0
 40
3.0
 41
0.0
 71
     1
 72
     1
  1
Messing
  7
SLDTEXTSTYLE0
 73
     1
 44
1.0
  0
LINE
  5
199
330
1F
100
AcDbEntity
  8
0
  6
Continuous
 62
     7
370
    25
100
AcDbLine
 10
120.3541212742
 20
208.1333973781
 30
0.0
 11
120.5487068915
 21
207.9805072611
 31
0.0
  0
LINE
  5
19A
330
1F
100
AcDbEntity
  8
0
  6
Continuous
 62
     7
370
    25
100
AcDbLine
 10
120.9365876764
 20
208.2032674306
 30
0.0
 11
120.3541212742
 21
208.1333973781
 31
0.0
  0
LINE
  5
19B
330
1F
100
AcDbEntity
  8
0
  6
Continuous
 62
     7
370
    25
100
AcDbLine
 10
120.9571017296
 20
208.0294964709
 30
0.0
 11
120.5487068915
 21
207.9805072611
 31
0.0
  0
SPLINE
  5
19C
330
1F
100
AcDbEntity
  8
0
  6
Continuous
 62
     7
370
    25
100
AcDbSpline
210
0.0
220
0.0
230
1.0
 70
     8
 71
     3
 72
    44
 73
    40
 74
     0
 42
0.00000001
 43
0.00000001
 40
-0.0036200312070675
 40
-0.0036200312070675
 40
-0.0036200312070675
 40
-0.0036200312070675
 40
0.0
 40
0.0
 40
0.0
 40
0.0625
 40
0.0625
 40
0.09375
 40
0.09375
 40
0.125
 40
0.125
 40
0.1875
 40
0.1875
 40
0.25
 40
0.25
 40
0.3125
 40
0.3125
 40
0.375
 40
0.375
 40
0.4375
 40
0.4375
 40
0.5
 40
0.5
 40
0.53125
 40
0.53125
 40
0.5625
 40
0.5625
 40
0.59375
 40
0.59375
 40
0.625
 40
0.625
 40
0.6875
 40
0.6875
 40
0.75
 40
0.75
 40
1.0
 40
1.0
 40
1.0
 40
1.00018637255475
 40
1.00018637255475
 40
1.00018637255475
 40
1.00018637255475
 10
122.5313116787193
 20
207.4089168949304
 30
0.0
 10
122.5309941901389
 20
207.4110206430909
 30
0.0
 10
122.5306767015584
 20
207.4131243912513
 30
0.0
 10
122.530359212978
 20
207.4152281394117
 30
0.0
 10
122.5248777584982
 20
207.451549445087
 30
0.0
 10
122.518891053919
 20
207.4924166761194
 30
0.0
 10
122.5033853730315
 20
207.5592754023115
 30
0.0
 10
122.4970431288207
 20
207.5821690612542
 30
0.0
 10
122.4829813261251
 20
207.625873777151
 30
0.0
 10
122.4751863470131
 20
207.6471428655958
 30
0.0
 10
122.4500533537296
 20
207.7092316857244
 30
0.0
 10
122.4309887305763
 20
207.749159187782
 30
0.0
 10
122.384561616752
 20
207.8290490822233
 30
0.0
 10
122.3573076107145
 20
207.8676889335992
 30
0.0
 10
122.2995711292342
 20
207.9376453410445
 30
0.0
 10
122.2688690887211
 20
207.9699923305687
 30
0.0
 10
122.2009826750394
 20
208.0314128946381
 30
0.0
 10
122.1638687906614
 20
208.0597083557115
 30
0.0
 10
122.0895354589702
 20
208.1086653702594
 30
0.0
 10
122.0522582559765
 20
208.1302761257427
 30
0.0
 10
121.9692120430495
 20
208.1702639615227
 30
0.0
 10
121.9234759255929
 20
208.1872162331734
 30
0.0
 10
121.8598890162148
 20
208.2057618371443
 30
0.0
 10
121.839589063182
 20
208.2109844177199
 30
0.0
 10
121.7984501655794
 20
208.2207014827497
 30
0.0
 10
121.7760746580812
 20
208.2254985878071
 30
0.0
 10
121.7274198010651
 20
208.2330622437888
 30
0.0
 10
121.7038024803646
 20
208.2352575709523
 30
0.0
 10
121.6623589203415
 20
208.2383142728282
 30
0.0
 10
121.6444845950468
 20
208.239361850601
 30
0.0
 10
121.5867713920726
 20
208.2426547348151
 30
0.0
 10
121.5450874970014
 20
208.2440658208605
 30
0.0
 10
121.4657569126574
 20
208.2440931519565
 30
0.0
 10
121.4274423765688
 20
208.2432042915322
 30
0.0
 10
121.2355194169363
 20
208.2362728263582
 30
0.0
 10
121.0827898769842
 20
208.2202487931567
 30
0.0
 10
120.936913923641
 20
208.2033053242053
 30
0.0
 10
120.9368051745446
 20
208.2032926930149
 30
0.0
 10
120.9366964254482
 20
208.2032800618245
 30
0.0
 10
120.9365876763517
 20
208.2032674306342
 30
0.0
  0
LINE
  5
19D
330
1F
100
AcDbEntity
  8
0
  6
Continuous
 62
     7
370
    25
100
AcDbLine
 10
122.5313116787
 20
207.4089168949
 30
0.0
 11
122.3573411961
 21
207.3891162492
 31
0.0
  0
SPLINE
  5
19E
330
1F
100
AcDbEntity
  8
0
  6
Continuous
 62
     7
370
    25
100
AcDbSpline
210
0.0
220
0.0
230
1.0
 70
     8
 71
     3
 72
    38
 73
    34
 74
     0
 42
0.00000001
 43
0.00000001
 40
0.0
 40
0.0
 40
0.0
 40
0.0
 40
0.0625
 40
0.0625
 40
0.09375
 40
0.09375
 40
0.125
 40
0.125
 40
0.1875
 40
0.1875
 40
0.25
 40
0.25
 40
0.3125
 40
0.3125
 40
0.375
 40
0.375
 40
0.4375
 40
0.4375
 40
0.5
 40
0.5
 40
0.53125
 40
0.53125
 40
0.5625
 40
0.5625
 40
0.59375
 40
0.59375
 40
0.625
 40
0.625
 40
0.6875
 40
0.6875
 40
0.75
 40
0.75
 40
1.0
 40
1.0
 40
1.0
 40
1.0
 10
122.3573411960789
 20
207.3891162491985
 30
0.0
 10
122.3518581369873
 20
207.4254481820848
 30
0.0
 10
122.3463748434981
 20
207.4617800956353
 30
0.0
 10
122.3339632028887
 20
207.5152978832137
 30
0.0
 10
122.329062858758
 20
207.5329658797661
 30
0.0
 10
122.3178256531429
 20
207.5678915893928
 30
0.0
 10
122.3115104177664
 20
207.5851519548565
 30
0.0
 10
122.2908262609499
 20
207.636250289779
 30
0.0
 10
122.2749169382636
 20
207.6694761577832
 30
0.0
 10
122.2380612036798
 20
207.7328960509111
 30
0.0
 10
122.2168657809536
 20
207.7629628591064
 30
0.0
 10
122.1701099534892
 20
207.8196145356262
 30
0.0
 10
122.1447384981032
 20
207.8463347767574
 30
0.0
 10
122.0903248939645
 20
207.8955657655501
 30
0.0
 10
122.0611173561646
 20
207.9178636390515
 30
0.0
 10
121.9997994900555
 20
207.9582484584822
 30
0.0
 10
121.9678802096036
 20
207.9766997325002
 30
0.0
 10
121.9017657760202
 20
208.0085347287627
 30
0.0
 10
121.8673388464922
 20
208.0213214517811
 30
0.0
 10
121.8144696495703
 20
208.0367411269764
 30
0.0
 10
121.7966678151866
 20
208.0413302892223
 30
0.0
 10
121.7609238544979
 20
208.0497730953024
 30
0.0
 10
121.7429678069437
 20
208.0535662043787
 30
0.0
 10
121.7067682691722
 20
208.059193678429
 30
0.0
 10
121.6885114259829
 20
208.0609327807819
 30
0.0
 10
121.6519105817514
 20
208.0636322671074
 30
0.0
 10
121.6335859503722
 20
208.0647217766503
 30
0.0
 10
121.5786661808056
 20
208.0678552844713
 30
0.0
 10
121.5420356477528
 20
208.0690895380698
 30
0.0
 10
121.4686884287086
 20
208.0691148013321
 30
0.0
 10
121.4320151632604
 20
208.0682780358113
 30
0.0
 10
121.2488050770612
 20
208.0616612419298
 30
0.0
 10
121.102744436823
 20
208.0464128483718
 30
0.0
 10
120.9571017296399
 20
208.0294964709465
 30
0.0
  0
SPLINE
  5
19F
330
1F
100
AcDbEntity
  8
0
  6
Continuous
 62
     7
370
    25
100
AcDbSpline
210
0.0
220
0.0
230
1.0
 70
     8
 71
     3
 72
    30
 73
    26
 74
     0
 42
0.00000001
 43
0.00000001
 40
-0.0007462124502719
 40
-0.0007462124502719
 40
-0.0007462124502719
 40
-0.0007462124502719
 40
0.0
 40
0.0
 40
0.0
 40
0.125
 40
0.125
 40
0.25
 40
0.25
 40
0.3749999999999999
 40
0.3749999999999999
 40
0.4374999999999999
 40
0.4374999999999999
 40
0.4999999999999999
 40
0.4999999999999999
 40
0.6249999999999999
 40
0.6249999999999999
 40
0.7499999999999999
 40
0.7499999999999999
 40
0.8749999999999999
 40
0.8749999999999999
 40
0.9999999999999999
 40
0.9999999999999999
 40
0.9999999999999999
 40
1.003738012643487
 40
1.003738012643487
 40
1.003738012643487
 40
1.003738012643487
 10
121.2287336797938
 20
206.2657542727841
 30
0.0
 10
121.2291580278589
 20
206.2658109573128
 30
0.0
 10
121.229582375924
 20
206.2658676418416
 30
0.0
 10
121.2300067239891
 20
206.2659243263703
 30
0.0
 10
121.3010903786746
 20
206.2754197000991
 30
0.0
 10
121.3731203444071
 20
206.2849899452233
 30
0.0
 10
121.5206326014127
 20
206.3083548728158
 30
0.0
 10
121.5969500067332
 20
206.3229634222233
 30
0.0
 10
121.7450828067699
 20
206.3584759217282
 30
0.0
 10
121.816917775225
 20
206.3781405361256
 30
0.0
 10
121.9292971614006
 20
206.4152547627994
 30
0.0
 10
121.9683211366905
 20
206.4295405434326
 30
0.0
 10
122.0446092384808
 20
206.462251867462
 30
0.0
 10
122.0809170093468
 20
206.4798499895166
 30
0.0
 10
122.1916203671536
 20
206.5401264183574
 30
0.0
 10
122.269681608232
 20
206.5952664395304
 30
0.0
 10
122.3969401856442
 20
206.733073559767
 30
0.0
 10
122.4474481772674
 20
206.8158055364723
 30
0.0
 10
122.5141087873631
 20
206.9866061482564
 30
0.0
 10
122.5321153345396
 20
207.0751101908718
 30
0.0
 10
122.5439999762725
 20
207.2501143121838
 30
0.0
 10
122.5372652349652
 20
207.3316213824553
 30
0.0
 10
122.531801814733
 20
207.4025534185818
 30
0.0
 10
122.5316384360618
 20
207.4046745773648
 30
0.0
 10
122.5314750573906
 20
207.4067957361478
 30
0.0
 10
122.5313116787193
 20
207.4089168949307
 30
0.0
  0
SPLINE
  5
1A0
330
1F
100
AcDbEntity
  8
0
  6
Continuous
 62
     7
370
    25
100
AcDbSpline
210
0.0
220
0.0
230
1.0
 70
     8
 71
     3
 72
    24
 73
    20
 74
     0
 42
0.00000001
 43
0.00000001
 40
0.0
 40
0.0
 40
0.0
 40
0.0
 40
0.125
 40
0.125
 40
0.25
 40
0.25
 40
0.3749999999999999
 40
0.3749999999999999
 40
0.4374999999999999
 40
0.4374999999999999
 40
0.4999999999999999
 40
0.4999999999999999
 40
0.6249999999999999
 40
0.6249999999999999
 40
0.7499999999999999
 40
0.7499999999999999
 40
0.8749999999999999
 40
0.8749999999999999
 40
0.9999999999999999
 40
0.9999999999999999
 40
0.9999999999999999
 40
0.9999999999999999
 10
121.2068389308264
 20
206.4393611112292
 30
0.0
 10
121.2777967174754
 20
206.4488396714807
 30
0.0
 10
121.3487775210209
 20
206.4582928901081
 30
0.0
 10
121.4902276257456
 20
206.4806976112942
 30
0.0
 10
121.5605899221439
 20
206.4941819423343
 30
0.0
 10
121.6998584281134
 20
206.5275693692083
 30
0.0
 10
121.7689483215515
 20
206.5465710908937
 30
0.0
 10
121.8709731285042
 20
206.5802656162305
 30
0.0
 10
121.9046049113495
 20
206.5926043726667
 30
0.0
 10
121.9704129952972
 20
206.6208220086886
 30
0.0
 10
122.0026804893401
 20
206.6364847274349
 30
0.0
 10
122.0970734892184
 20
206.6878803536757
 30
0.0
 10
122.1560105462011
 20
206.730088276492
 30
0.0
 10
122.2535117449026
 20
206.8356714052309
 30
0.0
 10
122.2916555376294
 20
206.8978969161344
 30
0.0
 10
122.3438957855378
 20
207.031749125837
 30
0.0
 10
122.3586281210732
 20
207.1029869784053
 30
0.0
 10
122.3683367194895
 20
207.2459484726168
 30
0.0
 10
122.362853729033
 20
207.317546573807
 30
0.0
 10
122.3573411960789
 20
207.3891162491986
 30
0.0
  0
LINE
  5
1A1
330
1F
100
AcDbEntity
  8
0
  6
Continuous
 62
     7
370
    25
100
AcDbLine
 10
120.5874392452
 20
206.1896536251
 30
0.0
 11
121.2287336798
 21
206.2657542728
 31
0.0
  0
LINE
  5
1A2
330
1F
100
AcDbEntity
  8
0
  6
Continuous
 62
     7
370
    25
100
AcDbLine
 10
120.5874392452
 20
206.1896536251
 30
0.0
 11
120.7403437971
 21
206.3840034161
 31
0.0
  0
LINE
  5
1A3
330
1F
100
AcDbEntity
  8
0
  6
Continuous
 62
     7
370
    25
100
AcDbLine
 10
120.7403437971
 20
206.3840034161
 30
0.0
 11
121.2068389308
 21
206.4393611112
 31
0.0
  0
LINE
  5
1A4
330
1F
100
AcDbEntity
  8
0
  6
Continuous
 62
     7
370
    25
100
AcDbLine
 10
158.6811812488
 20
210.0952914852
 30
0.0
 11
158.5211343184
 21
210.2840485674
 31
0.0
  0
LINE
  5
1A5
330
1F
100
AcDbEntity
  8
0
  6
Continuous
 62
     7
370
    25
100
AcDbLine
 10
158.0671252252
 20
202.6274800644
 30
0.0
 11
158.6811812488
 21
210.0952914852
 31
0.0
  0
LINE
  5
1A6
330
1F
100
AcDbEntity
  8
0
  6
Continuous
 62
     7
370
    25
100
AcDbLine
 10
158.0671252252
 20
202.6274800644
 30
0.0
 11
157.8783982963
 21
202.4674467883
 31
0.0
  0
LINE
  5
1A7
330
1F
100
AcDbEntity
  8
0
  6
Continuous
 62
     7
370
    25
100
AcDbLine
 10
157.8783982963
 20
202.4674467883
 30
0.0
 11
158.5211343184
 21
210.2840485674
 31
0.0
  0
LINE
  5
1A8
330
1F
100
AcDbEntity
  8
0
  6
Continuous
 62
     7
370
    25
100
AcDbLine
 10
158.6811812488
 20
210.0952914852
 30
0.0
 11
160.0840049353
 21
209.9797079343
 31
0.0
  0
LINE
  5
1A9
330
1F
100
AcDbEntity
  8
0
  6
Continuous
 62
     7
370
    25
100
AcDbLine
 10
158.5211343184
 20
210.2840485674
 30
0.0
 11
160.0987443399
 21
210.1540637589
 31
0.0
  0
SPLINE
  5
1AA
330
1F
100
AcDbEntity
  8
0
  6
Continuous
 62
     7
370
    25
100
AcDbSpline
210
0.0
220
0.0
230
1.0
 70
     8
 71
     3
 72
    18
 73
    14
 74
     0
 42
0.00000001
 43
0.00000001
 40
0.0
 40
0.0
 40
0.0
 40
0.0
 40
0.2500000000000101
 40
0.2500000000000101
 40
0.3750000000000199
 40
0.3750000000000199
 40
0.5000000000000298
 40
0.5000000000000298
 40
0.750000000000014
 40
0.750000000000014
 40
0.875000000000007
 40
0.875000000000007
 40
1.0
 40
1.0
 40
1.0
 40
1.0
 10
160.2105296052977
 20
206.8938732990891
 30
0.0
 10
160.3760480857366
 20
206.8807746545641
 30
0.0
 10
160.5416642798465
 20
206.8723019251123
 30
0.0
 10
160.7906114821637
 20
206.8843482470008
 30
0.0
 10
160.8734110683541
 20
206.8924213731182
 30
0.0
 10
161.0365932118501
 20
206.9186184916102
 30
0.0
 10
161.1170390147464
 20
206.9382553415907
 30
0.0
 10
161.351837667334
 20
207.0285886931121
 30
0.0
 10
161.4859155636914
 20
207.1372360823166
 30
0.0
 10
161.6174250045623
 20
207.3513469688513
 30
0.0
 10
161.6480946371249
 20
207.4288654511343
 30
0.0
 10
161.6942334944675
 20
207.5882156061996
 30
0.0
 10
161.7065994919617
 20
207.6714016226737
 30
0.0
 10
161.7149344174668
 20
207.7545371974261
 30
0.0
  0
SPLINE
  5
1AB
330
1F
100
AcDbEntity
  8
0
  6
Continuous
 62
     7
370
    25
100
AcDbSpline
210
0.0
220
0.0
230
1.0
 70
     8
 71
     3
 72
    41
 73
    37
 74
     0
 42
0.00000001
 43
0.00000001
 40
-0.0026183936516395
 40
-0.0026183936516395
 40
-0.0026183936516395
 40
-0.0026183936516395
 40
0.0
 40
0.0
 40
0.0
 40
0.0625
 40
0.0625
 40
0.125
 40
0.125
 40
0.1875
 40
0.1875
 40
0.25
 40
0.25
 40
0.3125
 40
0.3125
 40
0.375
 40
0.375
 40
0.4375
 40
0.4375
 40
0.5
 40
0.5
 40
0.5625
 40
0.5625
 40
0.59375
 40
0.59375
 40
0.625
 40
0.625
 40
0.6875
 40
0.6875
 40
0.75
 40
0.75
 40
0.8125
 40
0.8125
 40
0.875
 40
0.875
 40
1.00000005713942
 40
1.00000005713942
 40
1.00000005713942
 40
1.00000005713942
 10
161.7149344174668
 20
207.7545371974261
 30
0.0
 10
161.7150070086266
 20
207.7560703474917
 30
0.0
 10
161.7150795997863
 20
207.7576034975572
 30
0.0
 10
161.715152190946
 20
207.7591366476227
 30
0.0
 10
161.7168849126398
 20
207.7957323210945
 30
0.0
 10
161.7189691909684
 20
207.836545468916
 30
0.0
 10
161.7167365694334
 20
207.9265206510478
 30
0.0
 10
161.7119294427387
 20
207.9734336624128
 30
0.0
 10
161.6947138647613
 20
208.0643892173197
 30
0.0
 10
161.6822402473412
 20
208.1088644244225
 30
0.0
 10
161.6522461442955
 20
208.1930761514439
 30
0.0
 10
161.6347930139321
 20
208.2336064253508
 30
0.0
 10
161.5929032191329
 20
208.3140361350883
 30
0.0
 10
161.5684615206343
 20
208.3531937619508
 30
0.0
 10
161.5149794940325
 20
208.4261092395759
 30
0.0
 10
161.4859221540429
 20
208.4603907497786
 30
0.0
 10
161.4213402878718
 20
208.5255200640503
 30
0.0
 10
161.385699269085
 20
208.5559045505835
 30
0.0
 10
161.312579990075
 20
208.6092192193403
 30
0.0
 10
161.2749152189494
 20
208.6326959015249
 30
0.0
 10
161.1967239351825
 20
208.6746929678684
 30
0.0
 10
161.156707244689
 20
208.6931186834148
 30
0.0
 10
161.0920571367153
 20
208.7169640281683
 30
0.0
 10
161.0708689820256
 20
208.7237476439158
 30
0.0
 10
161.0312070479078
 20
208.7356028674112
 30
0.0
 10
161.0128405002618
 20
208.7407473457279
 30
0.0
 10
160.9554321070773
 20
208.7562492107348
 30
0.0
 10
160.9149962383838
 20
208.7658210339526
 30
0.0
 10
160.8371651399436
 20
208.7816210632423
 30
0.0
 10
160.7994590046266
 20
208.7883592777904
 30
0.0
 10
160.7226447578282
 20
208.8007318030254
 30
0.0
 10
160.6838069355661
 20
208.8060779505156
 30
0.0
 10
160.6088493863608
 20
208.8154890944849
 30
0.0
 10
160.5727563279883
 20
208.8197802220762
 30
0.0
 10
160.4614249844967
 20
208.8326721801189
 30
0.0
 10
160.3838810285723
 20
208.8396912765128
 30
0.0
 10
160.3116265772002
 20
208.845762182013
 30
0.0
  0
LINE
  5
1AC
330
1F
100
AcDbEntity
  8
0
  6
Continuous
 62
     7
370
    25
100
AcDbLine
 10
160.3116264781
 20
208.8457621903
 30
0.0
 11
159.7282530841
 21
208.8939519133
 31
0.0
  0
LINE
  5
1AD
330
1F
100
AcDbEntity
  8
0
  6
Continuous
 62
     7
370
    25
100
AcDbLine
 10
159.7282530841
 20
208.8939519133
 30
0.0
 11
159.5681195947
 21
206.9459232521
 31
0.0
  0
LINE
  5
1AE
330
1F
100
AcDbEntity
  8
0
  6
Continuous
 62
     7
370
    25
100
AcDbLine
 10
159.5681195947
 20
206.9459232521
 30
0.0
 11
160.2105296053
 21
206.8938732991
 31
0.0
  0
SPLINE
  5
1AF
330
1F
100
AcDbEntity
  8
0
  6
Continuous
 62
     7
370
    25
100
AcDbSpline
210
0.0
220
0.0
230
1.0
 70
     8
 71
     3
 72
    42
 73
    38
 74
     0
 42
0.00000001
 43
0.00000001
 40
0.0000842269098061
 40
0.0000842269098061
 40
0.0000842269098061
 40
0.0000842269098061
 40
0.125
 40
0.125
 40
0.25
 40
0.25
 40
0.3125
 40
0.3125
 40
0.375
 40
0.375
 40
0.4375
 40
0.4375
 40
0.46875
 40
0.46875
 40
0.5
 40
0.5
 40
0.5625
 40
0.5625
 40
0.625
 40
0.625
 40
0.65625
 40
0.65625
 40
0.6875
 40
0.6875
 40
0.71875
 40
0.71875
 40
0.75
 40
0.75
 40
0.78125
 40
0.78125
 40
0.8125
 40
0.8125
 40
0.875
 40
0.875
 40
0.9375
 40
0.9375
 40
0.9991746937913735
 40
0.9991746937913735
 40
0.9991746937913735
 40
0.9991746937913735
 10
160.0840049353378
 20
209.9797079342627
 30
0.0
 10
160.2670582428304
 20
209.9638401387856
 30
0.0
 10
160.4453349775332
 20
209.947287643119
 30
0.0
 10
160.8024225589028
 20
209.9005110389128
 30
0.0
 10
160.9792795786277
 20
209.8718428345646
 30
0.0
 10
161.2429756868114
 20
209.8183582374735
 30
0.0
 10
161.3282936080005
 20
209.7994737944817
 30
0.0
 10
161.4949424160684
 20
209.7536118588724
 30
0.0
 10
161.5789767711967
 20
209.726706661423
 30
0.0
 10
161.7390898154935
 20
209.6670305354932
 30
0.0
 10
161.8151123240897
 20
209.6336207427757
 30
0.0
 10
161.9229341017242
 20
209.5745704571574
 30
0.0
 10
161.9577121026314
 20
209.5535346315584
 30
0.0
 10
162.026466875075
 20
209.5078875116941
 30
0.0
 10
162.0608374460772
 20
209.4831010146011
 30
0.0
 10
162.161450318089
 20
209.4059960810759
 30
0.0
 10
162.2237839993801
 20
209.3515963430152
 30
0.0
 10
162.3369487848155
 20
209.2335625681759
 30
0.0
 10
162.3928282169603
 20
209.166351676512
 30
0.0
 10
162.4648843884836
 20
209.0664618399951
 30
0.0
 10
162.4877770209735
 20
209.0317059482874
 30
0.0
 10
162.5327698682165
 20
208.9590441603542
 30
0.0
 10
162.5545274544961
 20
208.9219313545617
 30
0.0
 10
162.5943065677848
 20
208.8484263022985
 30
0.0
 10
162.6124737929507
 20
208.8115194712449
 30
0.0
 10
162.6471709858427
 20
208.7346278126641
 30
0.0
 10
162.6636846676417
 20
208.6949310415617
 30
0.0
 10
162.693877197983
 20
208.6159254243574
 30
0.0
 10
162.707497950596
 20
208.5765241291977
 30
0.0
 10
162.7322175501546
 20
208.4961118658447
 30
0.0
 10
162.743408241269
 20
208.4550150000045
 30
0.0
 10
162.7732567765724
 20
208.3314276829608
 30
0.0
 10
162.7870830199549
 20
208.2499682137306
 30
0.0
 10
162.8059833547315
 20
208.0789838881488
 30
0.0
 10
162.8114809497596
 20
207.9926491285194
 30
0.0
 10
162.8134606326439
 20
207.8222233807082
 30
0.0
 10
162.8091701792218
 20
207.7386421347419
 30
0.0
 10
162.803805249644
 20
207.6477087448325
 30
0.0
  0
SPLINE
  5
1B0
330
1F
100
AcDbEntity
  8
0
  6
Continuous
 62
     7
370
    25
100
AcDbSpline
210
0.0
220
0.0
230
1.0
 70
     8
 71
     3
 72
    31
 73
    27
 74
     0
 42
0.00000001
 43
0.00000001
 40
0.0013229964649491
 40
0.0013229964649491
 40
0.0013229964649491
 40
0.0013229964649491
 40
0.125
 40
0.125
 40
0.1875
 40
0.1875
 40
0.25
 40
0.25
 40
0.3125
 40
0.3125
 40
0.375
 40
0.375
 40
0.5
 40
0.5
 40
0.625
 40
0.625
 40
0.6875
 40
0.6875
 40
0.75
 40
0.75
 40
0.875
 40
0.875
 40
1.0
 40
1.0
 40
1.0
 40
1.072279176315213
 40
1.072279176315213
 40
1.072279176315213
 40
1.072279176315213
 10
162.8038052496441
 20
207.6477087448325
 30
0.0
 10
162.7923211780088
 20
207.5345859873075
 30
0.0
 10
162.7802987298327
 20
207.4311475186059
 30
0.0
 10
162.7484718275628
 20
207.2761218978214
 30
0.0
 10
162.7358418095184
 20
207.2244408216274
 30
0.0
 10
162.7070021489943
 20
207.1211882122605
 30
0.0
 10
162.6910577606087
 20
207.0701231865546
 30
0.0
 10
162.6556549050014
 20
206.9719801267236
 30
0.0
 10
162.6357539800322
 20
206.9240651857312
 30
0.0
 10
162.5913827103355
 20
206.8283889266579
 30
0.0
 10
162.5672910411588
 20
206.7813062129659
 30
0.0
 10
162.4897927053153
 20
206.6443070739
 30
0.0
 10
162.4315006872449
 20
206.5596516428779
 30
0.0
 10
162.2974418868752
 20
206.4042737246034
 30
0.0
 10
162.2200312939041
 20
206.3300777555256
 30
0.0
 10
162.0986289279032
 20
206.2307135638062
 30
0.0
 10
162.0577773847111
 20
206.2002536909526
 30
0.0
 10
161.9718460719421
 20
206.1431307835041
 30
0.0
 10
161.9263288990529
 20
206.1159401155371
 30
0.0
 10
161.7861767705959
 20
206.0383574991961
 30
0.0
 10
161.6882415634276
 20
205.9918962632227
 30
0.0
 10
161.4897979498081
 20
205.9134614291613
 30
0.0
 10
161.3898662168437
 20
205.8838100796423
 30
0.0
 10
161.2787725847718
 20
205.8527165054701
 30
0.0
 10
161.2145345350117
 20
205.8347371620312
 30
0.0
 10
161.1502964852516
 20
205.8167578185923
 30
0.0
 10
161.0860584354914
 20
205.7987784751533
 30
0.0
  0
LINE
  5
1B1
330
1F
100
AcDbEntity
  8
0
  6
Continuous
 62
     7
370
    25
100
AcDbLine
 10
161.0860584355
 20
205.7987784752
 30
0.0
 11
162.6134075603
 21
202.2533071206
 31
0.0
  0
LINE
  5
1B2
330
1F
100
AcDbEntity
  8
0
  6
Continuous
 62
     7
370
    25
100
AcDbLine
 10
162.6134075603
 20
202.2533071206
 30
0.0
 11
161.3817233794
 21
202.3545221905
 31
0.0
  0
LINE
  5
1B3
330
1F
100
AcDbEntity
  8
0
  6
Continuous
 62
     7
370
    25
100
AcDbLine
 10
161.3817233794
 20
202.3545221905
 30
0.0
 11
159.8950862289
 21
205.8112845446
 31
0.0
  0
LINE
  5
1B4
330
1F
100
AcDbEntity
  8
0
  6
Continuous
 62
     7
370
    25
100
AcDbLine
 10
159.8950862289
 20
205.8112845446
 30
0.0
 11
159.4784413465
 21
205.8435337579
 31
0.0
  0
LINE
  5
1B5
330
1F
100
AcDbEntity
  8
0
  6
Continuous
 62
     7
370
    25
100
AcDbLine
 10
159.4784413465
 20
205.8435337579
 30
0.0
 11
159.2060955914
 21
202.5337205246
 31
0.0
  0
LINE
  5
1B6
330
1F
100
AcDbEntity
  8
0
  6
Continuous
 62
     7
370
    25
100
AcDbLine
 10
159.2060955914
 20
202.5337205246
 30
0.0
 11
158.0671252252
 21
202.6274800644
 31
0.0
  0
LWPOLYLINE
  5
1B7
330
1F
100
AcDbEntity
  8
0
  6
Continuous
 62
     7
370
    25
100
AcDbPolyline
 90
        4
 70
   128
 43
0.0
 10
162.8038052496
 20
207.6477087448
 10
162.8679345192
 20
207.6425647518
 10
162.9230977973
 20
207.6381408317
 10
162.9782610631
 20
207.6337177773
  0
SPLINE
  5
1B8
330
1F
100
AcDbEntity
  8
0
  6
Continuous
 62
     7
370
    25
100
AcDbSpline
210
0.0
220
0.0
230
1.0
 70
     8
 71
     3
 72
    42
 73
    38
 74
     0
 42
0.00000001
 43
0.00000001
 40
0.0
 40
0.0
 40
0.0
 40
0.0
 40
0.125
 40
0.125
 40
0.25
 40
0.25
 40
0.3125
 40
0.3125
 40
0.375
 40
0.375
 40
0.4375
 40
0.4375
 40
0.46875
 40
0.46875
 40
0.5
 40
0.5
 40
0.5625
 40
0.5625
 40
0.625
 40
0.625
 40
0.65625
 40
0.65625
 40
0.6875
 40
0.6875
 40
0.71875
 40
0.71875
 40
0.75
 40
0.75
 40
0.78125
 40
0.78125
 40
0.8125
 40
0.8125
 40
0.875
 40
0.875
 40
0.9375
 40
0.9375
 40
1.0
 40
1.0
 40
1.0
 40
1.0
 10
160.0987443399311
 20
210.1540637588968
 30
0.0
 10
160.2816457182182
 20
210.1382106110913
 30
0.0
 10
160.4644988562826
 20
210.1212494896688
 30
0.0
 10
160.8285922359492
 20
210.0735551625986
 30
0.0
 10
161.0099005042666
 20
210.0441723134552
 30
0.0
 10
161.2798379790995
 20
209.9894218009703
 30
0.0
 10
161.3695386638599
 20
209.9696055274047
 30
0.0
 10
161.5465532036832
 20
209.9208909323287
 30
0.0
 10
161.6341193679171
 20
209.8928900309696
 30
0.0
 10
161.8061665593995
 20
209.8287658947585
 30
0.0
 10
161.8904999745446
 20
209.7918335819752
 30
0.0
 10
162.0113147810414
 20
209.7256674595865
 30
0.0
 10
162.0506273458693
 20
209.7018766738703
 30
0.0
 10
162.1271152395982
 20
209.6510954473951
 30
0.0
 10
162.164370774566
 20
209.6242083242896
 30
0.0
 10
162.2736863684169
 20
209.5404340339304
 30
0.0
 10
162.3431417236472
 20
209.4799379870575
 30
0.0
 10
162.4702017615641
 20
209.3474111255482
 30
0.0
 10
162.5290762979177
 20
209.2765657910024
 30
0.0
 10
162.6096234911784
 20
209.1649050301878
 30
0.0
 10
162.6348649619021
 20
209.1265340366219
 30
0.0
 10
162.6832146989682
 20
209.0484510027605
 30
0.0
 10
162.706459589615
 20
209.0088254055505
 30
0.0
 10
162.7501500397146
 20
208.9280928578007
 30
0.0
 10
162.7704290639688
 20
208.8868927964349
 30
0.0
 10
162.808197788178
 20
208.8031943944076
 30
0.0
 10
162.8258418127337
 20
208.7607733795331
 30
0.0
 10
162.8586172165419
 20
208.6750090817828
 30
0.0
 10
162.8736221132966
 20
208.6316111755566
 30
0.0
 10
162.9005991631509
 20
208.5438554858955
 30
0.0
 10
162.9126654463384
 20
208.4995296710563
 30
0.0
 10
162.9450032745008
 20
208.3656354721861
 30
0.0
 10
162.9603624816297
 20
208.2749696468666
 30
0.0
 10
162.98053994638
 20
208.0924316414456
 30
0.0
 10
162.9863764189694
 20
208.0007123172039
 30
0.0
 10
162.9885093671426
 20
207.8170923252905
 30
0.0
 10
162.9836836730153
 20
207.7253509140364
 30
0.0
 10
162.9782610630645
 20
207.6337177773005
 30
0.0
  0
LWPOLYLINE
  5
1B9
330
1F
100
AcDbEntity
  8
0
  6
Continuous
 62
     7
370
    25
100
AcDbPolyline
 90
        4
 70
   128
 43
0.0
 10
123.6210217132
 20
207.5225114305
 10
123.6877559933
 20
207.5307772273
 10
123.7412297544
 20
207.5374002258
 10
123.7947035496
 20
207.5440228054
  0
SPLINE
  5
1BA
330
1F
100
AcDbEntity
  8
0
  6
Continuous
 62
     7
370
    25
100
AcDbSpline
210
0.0
220
0.0
230
1.0
 70
     8
 71
     3
 72
    38
 73
    34
 74
     0
 42
0.00000001
 43
0.00000001
 40
0.0000830294495785
 40
0.0000830294495785
 40
0.0000830294495785
 40
0.0000830294495785
 40
0.125
 40
0.125
 40
0.1875
 40
0.1875
 40
0.25
 40
0.25
 40
0.3125
 40
0.3125
 40
0.375
 40
0.375
 40
0.4375
 40
0.4375
 40
0.5
 40
0.5
 40
0.625
 40
0.625
 40
0.6875
 40
0.6875
 40
0.71875
 40
0.71875
 40
0.75
 40
0.75
 40
0.78125
 40
0.78125
 40
0.8125
 40
0.8125
 40
0.875
 40
0.875
 40
0.9375
 40
0.9375
 40
0.9992499236566725
 40
0.9992499236566725
 40
0.9992499236566725
 40
0.9992499236566725
 10
120.4866316219883
 20
209.2702441946362
 30
0.0
 10
120.6695664488465
 20
209.2913137537485
 30
0.0
 10
120.8470532042775
 20
209.3102010926009
 30
0.0
 10
121.1179533326497
 20
209.3295151724329
 30
0.0
 10
121.2083210284716
 20
209.3351027544493
 30
0.0
 10
121.3869916639811
 20
209.342408664905
 30
0.0
 10
121.4761083976845
 20
209.3439282035972
 30
0.0
 10
121.6556946650142
 20
209.3435847197431
 30
0.0
 10
121.7429665818003
 20
209.3418649785688
 30
0.0
 10
121.9157703088916
 20
209.3294934060119
 30
0.0
 10
122.0053958286899
 20
209.3197982376707
 30
0.0
 10
122.1735462102735
 20
209.2940211911107
 30
0.0
 10
122.2534819270859
 20
209.2759841404247
 30
0.0
 10
122.4120979028004
 20
209.2267333414013
 30
0.0
 10
122.4895983731977
 20
209.1959787264543
 30
0.0
 10
122.7136806932215
 20
209.0865415912265
 30
0.0
 10
122.8516774695395
 20
208.9903954890872
 30
0.0
 10
123.0365828865663
 20
208.8188905563101
 30
0.0
 10
123.0946260864443
 20
208.7572195589356
 30
0.0
 10
123.1761616807936
 20
208.6593034854542
 30
0.0
 10
123.2024390744997
 20
208.6258105311394
 30
0.0
 10
123.2519624637719
 20
208.5581028341315
 30
0.0
 10
123.2751111693603
 20
208.5238789392534
 30
0.0
 10
123.3199878994497
 20
208.4523590714537
 30
0.0
 10
123.3419070094137
 20
208.4149791233977
 30
0.0
 10
123.382766709744
 20
208.340712381982
 30
0.0
 10
123.4013770548941
 20
208.3041485428884
 30
0.0
 10
123.4532122908315
 20
208.1907782569002
 30
0.0
 10
123.485313668367
 20
208.1076122573099
 30
0.0
 10
123.5394339113647
 20
207.9459733406373
 30
0.0
 10
123.5611638005933
 20
207.8647998745737
 30
0.0
 10
123.5955564076174
 20
207.6978347858849
 30
0.0
 10
123.6081210190808
 20
207.6125757398458
 30
0.0
 10
123.6210217131519
 20
207.5225114305007
 30
0.0
  0
SPLINE
  5
1BB
330
1F
100
AcDbEntity
  8
0
  6
Continuous
 62
     7
370
    25
100
AcDbSpline
210
0.0
220
0.0
230
1.0
 70
     8
 71
     3
 72
    38
 73
    34
 74
     0
 42
0.00000001
 43
0.00000001
 40
0.0
 40
0.0
 40
0.0
 40
0.0
 40
0.125
 40
0.125
 40
0.1875
 40
0.1875
 40
0.25
 40
0.25
 40
0.3125
 40
0.3125
 40
0.375
 40
0.375
 40
0.4375
 40
0.4375
 40
0.5
 40
0.5
 40
0.625
 40
0.625
 40
0.6875
 40
0.6875
 40
0.71875
 40
0.71875
 40
0.75
 40
0.75
 40
0.78125
 40
0.78125
 40
0.8125
 40
0.8125
 40
0.875
 40
0.875
 40
0.9375
 40
0.9375
 40
1.0
 40
1.0
 40
1.0
 40
1.0
 10
120.466244224027
 20
209.4440301391741
 30
0.0
 10
120.6489157473501
 20
209.4650714338646
 30
0.0
 10
120.8317565306749
 20
209.4845319796759
 30
0.0
 10
121.1068762876582
 20
209.5041469021136
 30
0.0
 10
121.1986577689232
 20
209.5098311694268
 30
0.0
 10
121.3823570727529
 20
209.5173427034337
 30
0.0
 10
121.4742834471631
 20
209.5189093410509
 30
0.0
 10
121.6581889606515
 20
209.5185575962768
 30
0.0
 10
121.7501759237592
 20
209.516774022001
 30
0.0
 10
121.9335514145207
 20
209.5036455856598
 30
0.0
 10
122.0251103395536
 20
209.4937974400009
 30
0.0
 10
122.2068593487573
 20
209.4659357473005
 30
0.0
 10
122.2968009541292
 20
209.4457516888547
 30
0.0
 10
122.4725535003852
 20
209.391179926742
 30
0.0
 10
122.5583778431858
 20
209.3571180018908
 30
0.0
 10
122.8064831312694
 20
209.2359485503648
 30
0.0
 10
122.9590037488439
 20
209.1295043850376
 30
0.0
 10
123.1614071622114
 20
208.9417695742146
 30
0.0
 10
123.2245736859321
 20
208.8746098048922
 30
0.0
 10
123.3128817622211
 20
208.768560660787
 30
0.0
 10
123.3412914072553
 20
208.7323625155333
 30
0.0
 10
123.39557155625
 20
208.6581514382744
 30
0.0
 10
123.4213300181949
 20
208.6200622309653
 30
0.0
 10
123.4702001964941
 20
208.5421780261844
 30
0.0
 10
123.4934767612449
 20
208.5024814578417
 30
0.0
 10
123.5378101063619
 20
208.4219009990648
 30
0.0
 10
123.5586761553785
 20
208.3809176914912
 30
0.0
 10
123.6160123405111
 20
208.2555161496874
 30
0.0
 10
123.6491094969768
 20
208.1695227931618
 30
0.0
 10
123.7074857169264
 20
207.9951726946408
 30
0.0
 10
123.7312924283911
 20
207.9061730439568
 30
0.0
 10
123.7683938874628
 20
207.7260573640072
 30
0.0
 10
123.7816793366726
 20
207.6350050332597
 30
0.0
 10
123.7947035496298
 20
207.5440228053835
 30
0.0
  0
LINE
  5
1BC
330
1F
100
AcDbEntity
  8
0
  6
Continuous
 62
     7
370
    25
100
AcDbLine
 10
119.085798621
 20
209.1029192792
 30
0.0
 11
120.486631622
 21
209.2702441946
 31
0.0
  0
LINE
  5
1BD
330
1F
100
AcDbEntity
  8
0
  6
Continuous
 62
     7
370
    25
100
AcDbLine
 10
119.085798621
 20
209.1029192792
 30
0.0
 11
118.8913294234
 21
209.2559117227
 31
0.0
  0
LINE
  5
1BE
330
1F
100
AcDbEntity
  8
0
  6
Continuous
 62
     7
370
    25
100
AcDbLine
 10
118.8913294234
 20
209.2559117227
 30
0.0
 11
120.466244224
 21
209.4440301392
 31
0.0
  0
LINE
  5
1BF
330
1F
100
AcDbEntity
  8
0
  6
Continuous
 62
     7
370
    25
100
AcDbLine
 10
120.3541212742
 20
208.1333973781
 30
0.0
 11
120.5874392452
 21
206.1896536251
 31
0.0
  0
SPLINE
  5
1C0
330
1F
100
AcDbEntity
  8
0
  6
Continuous
 62
     7
370
    25
100
AcDbSpline
210
0.0
220
0.0
230
1.0
 70
     8
 71
     3
 72
    43
 73
    39
 74
     0
 42
0.00000001
 43
0.00000001
 40
0.0012043183520054
 40
0.0012043183520054
 40
0.0012043183520054
 40
0.0012043183520054
 40
0.0625
 40
0.0625
 40
0.125
 40
0.125
 40
0.1875
 40
0.1875
 40
0.25
 40
0.25
 40
0.3125
 40
0.3125
 40
0.375
 40
0.375
 40
0.4375
 40
0.4375
 40
0.5
 40
0.5
 40
0.5625
 40
0.5625
 40
0.625
 40
0.625
 40
0.6875
 40
0.6875
 40
0.71875
 40
0.71875
 40
0.75
 40
0.75
 40
0.8125
 40
0.8125
 40
0.875
 40
0.875
 40
0.9375
 40
0.9375
 40
1.0
 40
1.0
 40
1.0
 40
1.072618526855179
 40
1.072618526855179
 40
1.072618526855179
 40
1.072618526855179
 10
123.6210217131519
 20
207.5225114305007
 30
0.0
 10
123.6268800799722
 20
207.4664967204034
 30
0.0
 10
123.632456102243
 20
207.4124968129905
 30
0.0
 10
123.6396268434492
 20
207.3072836042207
 30
0.0
 10
123.6411118017474
 20
207.2542767865195
 30
0.0
 10
123.641103951582
 20
207.1456702178507
 30
0.0
 10
123.6397867733242
 20
207.0914711580636
 30
0.0
 10
123.6328329752488
 20
206.9868693103357
 30
0.0
 10
123.6268872079711
 20
206.9351488683835
 30
0.0
 10
123.6110534623737
 20
206.8287220928579
 30
0.0
 10
123.6017014979087
 20
206.7757224860661
 30
0.0
 10
123.5787315694977
 20
206.6759500787284
 30
0.0
 10
123.5643434405823
 20
206.6268819498555
 30
0.0
 10
123.5305125296123
 20
206.5259166669739
 30
0.0
 10
123.5119654004006
 20
206.4763030400209
 30
0.0
 10
123.4710819417451
 20
206.381716331975
 30
0.0
 10
123.4481013995044
 20
206.3352270390866
 30
0.0
 10
123.3976829732527
 20
206.244300871711
 30
0.0
 10
123.3704193815081
 20
206.2002024373565
 30
0.0
 10
123.3115821519616
 20
206.1146209186245
 30
0.0
 10
123.2796822365766
 20
206.0725886576876
 30
0.0
 10
123.2130059748525
 20
205.9920189692762
 30
0.0
 10
123.1790543083584
 20
205.9547107705481
 30
0.0
 10
123.1234030915973
 20
205.8998439334596
 30
0.0
 10
123.1039965211698
 20
205.8815576140614
 30
0.0
 10
123.0638134553108
 20
205.8446798266147
 30
0.0
 10
123.0428975391562
 20
205.8258729100961
 30
0.0
 10
122.9815082101558
 20
205.7718324555477
 30
0.0
 10
122.9422038351066
 20
205.7392217996498
 30
0.0
 10
122.8583610558024
 20
205.6770879214982
 30
0.0
 10
122.81286202605
 20
205.6462953081464
 30
0.0
 10
122.721244578234
 20
205.5868022530622
 30
0.0
 10
122.6761700234397
 20
205.5591557966859
 30
0.0
 10
122.5832080491829
 20
205.5073129242167
 30
0.0
 10
122.533898249636
 20
205.4820735920089
 30
0.0
 10
122.4826835140973
 20
205.4559042932079
 30
0.0
 10
122.4231772957277
 20
205.4254982783637
 30
0.0
 10
122.363671077358
 20
205.3950922635195
 30
0.0
 10
122.3041648589884
 20
205.3646862486753
 30
0.0
  0
LINE
  5
1C1
330
1F
100
AcDbEntity
  8
0
  6
Continuous
 62
     7
370
    25
100
AcDbLine
 10
122.304164859
 20
205.3646862487
 30
0.0
 11
124.512050144
 21
202.1921622822
 31
0.0
  0
LINE
  5
1C2
330
1F
100
AcDbEntity
  8
0
  6
Continuous
 62
     7
370
    25
100
AcDbLine
 10
124.512050144
 20
202.1921622822
 30
0.0
 11
123.2833154207
 21
202.0456514345
 31
0.0
  0
LINE
  5
1C3
330
1F
100
AcDbEntity
  8
0
  6
Continuous
 62
     7
370
    25
100
AcDbLine
 10
123.2833154207
 20
202.0456514345
 30
0.0
 11
121.1333181597
 21
205.1392586247
 31
0.0
  0
LINE
  5
1C4
330
1F
100
AcDbEntity
  8
0
  6
Continuous
 62
     7
370
    25
100
AcDbLine
 10
121.1333181597
 20
205.1392586247
 30
0.0
 11
120.7172278355
 21
205.090171192
 31
0.0
  0
LINE
  5
1C5
330
1F
100
AcDbEntity
  8
0
  6
Continuous
 62
     7
370
    25
100
AcDbLine
 10
120.7172278355
 20
205.090171192
 30
0.0
 11
121.1120198157
 21
201.7862643573
 31
0.0
  0
LINE
  5
1C6
330
1F
100
AcDbEntity
  8
0
  6
Continuous
 62
     7
370
    25
100
AcDbLine
 10
121.1120198157
 20
201.7862643573
 30
0.0
 11
119.9748289539
 21
201.6505355254
 31
0.0
  0
LINE
  5
1C7
330
1F
100
AcDbEntity
  8
0
  6
Continuous
 62
     7
370
    25
100
AcDbLine
 10
119.9748289539
 20
201.6505355254
 30
0.0
 11
119.085798621
 21
209.1029192792
 31
0.0
  0
LINE
  5
1C8
330
1F
100
AcDbEntity
  8
0
  6
Continuous
 62
     7
370
    25
100
AcDbLine
 10
119.9748289539
 20
201.6505355254
 30
0.0
 11
119.8218117005
 21
201.4560529906
 31
0.0
  0
LINE
  5
1C9
330
1F
100
AcDbEntity
  8
0
  6
Continuous
 62
     7
370
    25
100
AcDbLine
 10
119.8218117005
 20
201.4560529906
 30
0.0
 11
118.8913294234
 21
209.2559117227
 31
0.0
  0
LWPOLYLINE
  5
1CA
330
1F
100
AcDbEntity
  8
0
  6
Continuous
 62
     7
370
    25
100
AcDbPolyline
 90
        3
 70
   128
 43
0.0
 10
149.9726800542
 20
211.9979835395
 10
149.8876809004
 20
212.0011691735
 10
149.797557552
 20
212.0045376999
  0
SPLINE
  5
1CB
330
1F
100
AcDbEntity
  8
0
  6
Continuous
 62
     7
370
    25
100
AcDbSpline
210
0.0
220
0.0
230
1.0
 70
     8
 71
     3
 72
    18
 73
    14
 74
     0
 42
0.00000001
 43
0.00000001
 40
0.0074331219742304
 40
0.0074331219742304
 40
0.0074331219742304
 40
0.0074331219742304
 40
0.125
 40
0.125
 40
0.25
 40
0.25
 40
0.5
 40
0.5
 40
0.75
 40
0.75
 40
0.875
 40
0.875
 40
0.9919166179966146
 40
0.9919166179966146
 40
0.9919166179966146
 40
0.9919166179966146
 10
150.5288928993452
 20
211.3855920177481
 30
0.0
 10
150.4829847660868
 20
211.3899016595031
 30
0.0
 10
150.4436386847765
 20
211.3941847450487
 30
0.0
 10
150.3769853651387
 20
211.4088271014252
 30
0.0
 10
150.342190569451
 20
211.4210300483217
 30
0.0
 10
150.2403758057365
 20
211.4695648726265
 30
0.0
 10
150.1785715873394
 20
211.5167570019119
 30
0.0
 10
150.0727943325299
 20
211.6336473915016
 30
0.0
 10
150.0302342080279
 20
211.7017426195229
 30
0.0
 10
149.9925197543857
 20
211.8052039418381
 30
0.0
 10
149.9837869592173
 20
211.8410612640596
 30
0.0
 10
149.974772331453
 20
211.9119914609017
 30
0.0
 10
149.9735296340545
 20
211.9521496668194
 30
0.0
 10
149.9726800541536
 20
211.9979835395027
 30
0.0
  0
LWPOLYLINE
  5
1CC
330
1F
100
AcDbEntity
  8
0
  6
Continuous
 62
     7
370
    25
100
AcDbPolyline
 90
        3
 70
   128
 43
0.0
 10
150.5288928993
 20
211.3855920177
 10
150.525330601
 20
211.3006060311
 10
150.5215570952
 20
211.2105405279
  0
SPLINE
  5
1CD
330
1F
100
AcDbEntity
  8
0
  6
Continuous
 62
     7
370
    25
100
AcDbSpline
210
0.0
220
0.0
230
1.0
 70
     8
 71
     3
 72
    18
 73
    14
 74
     0
 42
0.00000001
 43
0.00000001
 40
0.0
 40
0.0
 40
0.0
 40
0.0
 40
0.125
 40
0.125
 40
0.25
 40
0.25
 40
0.5
 40
0.5
 40
0.75
 40
0.75
 40
0.875
 40
0.875
 40
1.0
 40
1.0
 40
1.0
 40
1.0
 10
150.5215570951959
 20
211.2105405278919
 30
0.0
 10
150.4719200887206
 20
211.2151333040131
 30
0.0
 10
150.4222830857435
 20
211.2197263547707
 30
0.0
 10
150.3252962559037
 20
211.2410325089868
 30
0.0
 10
150.277945699121
 20
211.2578139868612
 30
0.0
 10
150.1429838820993
 20
211.3221499120103
 30
0.0
 10
150.0627426353009
 20
211.383976607736
 30
0.0
 10
149.929140688741
 20
211.5316150040991
 30
0.0
 10
149.8748099214156
 20
211.6172055876258
 30
0.0
 10
149.8236387045509
 20
211.7575825623193
 30
0.0
 10
149.8118112003595
 20
211.8063697993455
 30
0.0
 10
149.7992846941582
 20
211.9049317933373
 30
0.0
 10
149.7984210020811
 20
211.9547347525543
 30
0.0
 10
149.7975575519941
 20
212.0045376998816
 30
0.0
  0
LWPOLYLINE
  5
1CE
330
1F
100
AcDbEntity
  8
0
  6
Continuous
 62
     7
370
    25
100
AcDbPolyline
 90
        3
 70
   128
 43
0.0
 10
150.5781235586
 20
212.5542754394
 10
150.5815129603
 20
212.6392388594
 10
150.5851107174
 20
212.7293243302
  0
SPLINE
  5
1CF
330
1F
100
AcDbEntity
  8
0
  6
Continuous
 62
     7
370
    25
100
AcDbSpline
210
0.0
220
0.0
230
1.0
 70
     8
 71
     3
 72
    18
 73
    14
 74
     0
 42
0.00000001
 43
0.00000001
 40
0.0080961842320964
 40
0.0080961842320964
 40
0.0080961842320964
 40
0.0080961842320964
 40
0.125
 40
0.125
 40
0.25
 40
0.25
 40
0.4999999999999999
 40
0.4999999999999999
 40
0.7499999999999999
 40
0.7499999999999999
 40
0.8749999999999999
 40
0.8749999999999999
 40
0.9928182583396956
 40
0.9928182583396956
 40
0.9928182583396956
 40
0.9928182583396956
 10
149.9726800541539
 20
211.9979835394842
 30
0.0
 10
149.9769368597735
 20
212.0433787311079
 30
0.0
 10
149.9811838916518
 20
212.0823016886366
 30
0.0
 10
149.9956737783485
 20
212.1484193231853
 30
0.0
 10
150.0078136582925
 20
212.1830921993367
 30
0.0
 10
150.0563011138458
 20
212.2857753620986
 30
0.0
 10
150.1016937864223
 20
212.3454824482637
 30
0.0
 10
150.2206035313393
 20
212.4553125660323
 30
0.0
 10
150.2834561557751
 20
212.495578057919
 30
0.0
 10
150.3891109136929
 20
212.5349125004106
 30
0.0
 10
150.4245412419299
 20
212.5439870657443
 30
0.0
 10
150.4924283287799
 20
212.5528662298102
 30
0.0
 10
150.5320639227494
 20
212.5538215644775
 30
0.0
 10
150.578123558609
 20
212.5542754394095
 30
0.0
  0
SPLINE
  5
1D0
330
1F
100
AcDbEntity
  8
0
  6
Continuous
 62
     7
370
    25
100
AcDbSpline
210
0.0
220
0.0
230
1.0
 70
     8
 71
     3
 72
    18
 73
    14
 74
     0
 42
0.00000001
 43
0.00000001
 40
0.0
 40
0.0
 40
0.0
 40
0.0
 40
0.125
 40
0.125
 40
0.25
 40
0.25
 40
0.4999999999999999
 40
0.4999999999999999
 40
0.7499999999999999
 40
0.7499999999999999
 40
0.8749999999999999
 40
0.8749999999999999
 40
0.9999999999999999
 40
0.9999999999999999
 40
0.9999999999999999
 40
0.9999999999999999
 10
149.7975575519948
 20
212.0045376998817
 30
0.0
 10
149.8021199514182
 20
212.0539802932991
 30
0.0
 10
149.8066826258938
 20
212.1034228840137
 30
0.0
 10
149.8278481474534
 20
212.2000008669347
 30
0.0
 10
149.844550703069
 20
212.2471353886324
 30
0.0
 10
149.9081547669762
 20
212.3818314225371
 30
0.0
 10
149.9695350856286
 20
212.4616102441158
 30
0.0
 10
150.1153164820869
 20
212.5962601982438
 30
0.0
 10
150.19978625443
 20
212.6511384376233
 30
0.0
 10
150.3393720885945
 20
212.7031051541838
 30
0.0
 10
150.3877765874868
 20
212.7156460642545
 30
0.0
 10
150.4858158772864
 20
212.7284690743907
 30
0.0
 10
150.5354633071205
 20
212.7288968369657
 30
0.0
 10
150.5851107174252
 20
212.7293243301939
 30
0.0
  0
LINE
  5
1D1
330
1F
100
AcDbEntity
  8
0
  6
Continuous
 62
     7
370
    25
100
AcDbLine
 10
127.170057988
 20
209.8741139542
 30
0.0
 11
128.3200953753
 21
209.9506233324
 31
0.0
  0
LINE
  5
1D2
330
1F
100
AcDbEntity
  8
0
  6
Continuous
 62
     7
370
    25
100
AcDbLine
 10
128.3200953753
 20
209.9506233324
 30
0.0
 11
132.3027693153
 21
204.6461228506
 31
0.0
  0
LINE
  5
1D3
330
1F
100
AcDbEntity
  8
0
  6
Continuous
 62
     7
370
    25
100
AcDbLine
 10
132.3027693153
 20
204.6461228506
 30
0.0
 11
131.9345493209
 21
210.1904615377
 31
0.0
  0
LINE
  5
1D4
330
1F
100
AcDbEntity
  8
0
  6
Continuous
 62
     7
370
    25
100
AcDbLine
 10
131.9345493209
 20
210.1904615377
 30
0.0
 11
133.0685280989
 21
210.2657917223
 31
0.0
  0
LINE
  5
1D5
330
1F
100
AcDbEntity
  8
0
  6
Continuous
 62
     7
370
    25
100
AcDbLine
 10
133.0685280989
 20
210.2657917223
 30
0.0
 11
133.5623426449
 21
202.8186501931
 31
0.0
  0
LINE
  5
1D6
330
1F
100
AcDbEntity
  8
0
  6
Continuous
 62
     7
370
    25
100
AcDbLine
 10
133.5623426449
 20
202.8186501931
 30
0.0
 11
132.4052270352
 21
202.7414941791
 31
0.0
  0
LINE
  5
1D7
330
1F
100
AcDbEntity
  8
0
  6
Continuous
 62
     7
370
    25
100
AcDbLine
 10
132.4052270352
 20
202.7414941791
 30
0.0
 11
128.4314417409
 21
208.0285045119
 31
0.0
  0
LINE
  5
1D8
330
1F
100
AcDbEntity
  8
0
  6
Continuous
 62
     7
370
    25
100
AcDbLine
 10
128.4314417409
 20
208.0285045119
 30
0.0
 11
128.7978680354
 21
202.5023302285
 31
0.0
  0
LINE
  5
1D9
330
1F
100
AcDbEntity
  8
0
  6
Continuous
 62
     7
370
    25
100
AcDbLine
 10
128.7978680354
 20
202.5023302285
 30
0.0
 11
127.663870784
 21
202.4269988168
 31
0.0
  0
LINE
  5
1DA
330
1F
100
AcDbEntity
  8
0
  6
Continuous
 62
     7
370
    25
100
AcDbLine
 10
127.663870784
 20
202.4269988168
 30
0.0
 11
127.170057988
 21
209.8741139542
 31
0.0
  0
ARC
  5
1DB
330
1F
100
AcDbEntity
  8
0
  6
Continuous
 62
     7
370
    25
100
AcDbCircle
 10
212.1449423734
 20
187.2170971861
 30
0.0
 40
2.000000000000023
100
AcDbArc
 50
249.5906886028
 51
339.0
  0
ARC
  5
1DC
330
1F
100
AcDbEntity
  8
0
  6
Continuous
 62
     7
370
    25
100
AcDbCircle
 10
144.1436912631
 20
4.4581580137
 30
0.0
 40
193.0
100
AcDbArc
 50
69.5906886028
 51
110.9093113972
  0
ARC
  5
1DD
330
1F
100
AcDbEntity
  8
0
  6
Continuous
 62
     7
370
    25
100
AcDbCircle
 10
74.5501770617
 20
186.6167229539
 30
0.0
 40
2.000000000000025
100
AcDbArc
 50
201.5
 51
290.9093113972
  0
LINE
  5
1DE
330
1F
100
AcDbEntity
  8
0
  6
Continuous
 62
     7
370
    25
100
AcDbLine
 10
71.6822116327
 20
188.4404696996
 30
0.0
 11
72.6893419257
 21
185.8837205005
 31
0.0
  0
ARC
  5
1DF
330
1F
100
AcDbEntity
  8
0
  6
Continuous
 62
     7
370
    25
100
AcDbCircle
 10
72.1474204167
 20
188.623720313
 30
0.0
 40
0.500000000000009
100
AcDbArc
 50
67.6869385396
 51
201.5
  0
ARC
  5
1E0
330
1F
100
AcDbEntity
  8
0
  6
Continuous
 62
     7
370
    25
100
AcDbCircle
 10
74.6152563428
 20
194.6370210573
 30
0.0
 40
6.000000000000005
100
AcDbArc
 50
247.6869385396
 51
339.9421629566
  0
ARC
  5
1E1
330
1F
100
AcDbEntity
  8
0
  6
Continuous
 62
     7
370
    25
100
AcDbCircle
 10
80.7210111338
 20
192.4077255561
 30
0.0
 40
0.5000000000000239
100
AcDbArc
 50
18.5
 51
159.9421629566
  0
LINE
  5
1E2
330
1F
100
AcDbEntity
  8
0
  6
Continuous
 62
     7
370
    25
100
AcDbLine
 10
81.1951729614
 20
192.5663778843
 30
0.0
 11
81.4696103766
 21
191.7461709081
 31
0.0
  0
ARC
  5
1E3
330
1F
100
AcDbEntity
  8
0
  6
Continuous
 62
     7
370
    25
100
AcDbCircle
 10
83.3662576871
 20
192.3807802209
 30
0.0
 40
1.999999999999983
100
AcDbArc
 50
198.5
 51
287.9197796576
  0
ARC
  5
1E4
330
1F
100
AcDbEntity
  8
0
  6
Continuous
 62
     7
370
    25
100
AcDbCircle
 10
144.1340667226
 20
4.4618525286
 30
0.0
 40
195.5000000000001
100
AcDbArc
 50
72.5802203424
 51
107.9197796576
  0
ARC
  5
1E5
330
1F
100
AcDbEntity
  8
0
  6
Continuous
 62
     7
370
    25
100
AcDbCircle
 10
203.2596807128
 20
192.9039172867
 30
0.0
 40
1.999999999999989
100
AcDbArc
 50
252.5802203424
 51
342.0
  0
LINE
  5
1E6
330
1F
100
AcDbEntity
  8
0
  6
Continuous
 62
     7
370
    25
100
AcDbLine
 10
205.1617937454
 20
192.2858832979
 30
0.0
 11
205.4380309217
 21
193.1360539079
 31
0.0
  0
ARC
  5
1E7
330
1F
100
AcDbEntity
  8
0
  6
Continuous
 62
     7
370
    25
100
AcDbCircle
 10
205.9135591799
 20
192.9815454107
 30
0.0
 40
0.5000000000000107
100
AcDbArc
 50
20.2990116441
 51
162.0
  0
ARC
  5
1E8
330
1F
100
AcDbEntity
  8
0
  6
Continuous
 62
     7
370
    25
100
AcDbCircle
 10
212.0098761542
 20
195.2365219844
 30
0.0
 40
6.000000000000012
100
AcDbArc
 50
200.2990116441
 51
292.8130614604
  0
ARC
  5
1E9
330
1F
100
AcDbEntity
  8
0
  6
Continuous
 62
     7
370
    25
100
AcDbCircle
 10
214.5300933951
 20
189.244985866
 30
0.0
 40
0.5000000000000282
100
AcDbArc
 50
339.0
 51
112.8130614604
  0
LINE
  5
1EA
330
1F
100
AcDbEntity
  8
0
  6
Continuous
 62
     7
370
    25
100
AcDbLine
 10
214.0121032264
 20
186.500361287
 30
0.0
 11
214.9968836083
 21
189.0658018912
 31
0.0
  0
LINE
  5
1EB
330
1F
100
AcDbEntity
  8
0
  6
Continuous
 62
     7
370
    25
100
AcDbLine
 10
138.3299565838
 20
202.9781397631
 30
0.0
 11
138.1907600537
 21
202.8025924215
 31
0.0
  0
LINE
  5
1EC
330
1F
100
AcDbEntity
  8
0
  6
Continuous
 62
     7
370
    25
100
AcDbLine
 10
139.4746293533
 20
202.9828152337
 30
0.0
 11
138.3299565838
 21
202.9781397631
 31
0.0
  0
LINE
  5
1ED
330
1F
100
AcDbEntity
  8
0
  6
Continuous
 62
     7
370
    25
100
AcDbLine
 10
139.4746293533
 20
202.9828152337
 30
0.0
 11
139.6079852099
 21
202.8083811454
 31
0.0
  0
LINE
  5
1EE
330
1F
100
AcDbEntity
  8
0
  6
Continuous
 62
     7
370
    25
100
AcDbLine
 10
139.6079852099
 20
202.8083811454
 30
0.0
 11
138.1907600537
 21
202.8025924215
 31
0.0
  0
ARC
  5
1EF
330
1F
100
AcDbEntity
  8
0
  6
Continuous
 62
     7
370
    25
100
AcDbCircle
 10
206.3500014765
 20
202.4149466259
 30
0.0
 40
2.000000000000033
100
AcDbArc
 50
342.0
 51
72.5522570284
  0
LINE
  5
1F0
330
1F
100
AcDbEntity
  8
0
  6
Continuous
 62
     7
370
    25
100
AcDbLine
 10
78.2964089477
 20
201.2298703026
 30
0.0
 11
78.6240672384
 21
200.2506028961
 31
0.0
  0
ARC
  5
1F1
330
1F
100
AcDbEntity
  8
0
  6
Continuous
 62
     7
370
    25
100
AcDbCircle
 10
78.1499054108
 20
200.0919505679
 30
0.0
 40
0.5000000000000082
100
AcDbArc
 50
237.0578370434
 51
18.5
  0
ARC
  5
1F2
330
1F
100
AcDbEntity
  8
0
  6
Continuous
 62
     7
370
    25
100
AcDbCircle
 10
74.6152563428
 20
194.6370210573
 30
0.0
 40
6.000000000000059
100
AcDbArc
 50
57.0578370434
 51
155.3130614604
  0
ARC
  5
1F3
330
1F
100
AcDbEntity
  8
0
  6
Continuous
 62
     7
370
    25
100
AcDbCircle
 10
68.709334157
 20
197.3518107611
 30
0.0
 40
0.5000000000000121
100
AcDbArc
 50
201.5
 51
335.3130614604
  0
LINE
  5
1F4
330
1F
100
AcDbEntity
  8
0
  6
Continuous
 62
     7
370
    25
100
AcDbLine
 10
67.1915522305
 20
199.840672741
 30
0.0
 11
68.244125373
 21
197.1685601478
 31
0.0
  0
ARC
  5
1F5
330
1F
100
AcDbEntity
  8
0
  6
Continuous
 62
     7
370
    25
100
AcDbCircle
 10
69.0523873665
 20
200.5736751945
 30
0.0
 40
2.000000000000025
100
AcDbArc
 50
110.9515047787
 51
201.5
  0
ARC
  5
1F6
330
1F
100
AcDbEntity
  8
0
  6
Continuous
 62
     7
370
    25
100
AcDbCircle
 10
144.1436912631
 20
4.4581580137
 30
0.0
 40
212.0
100
AcDbArc
 50
69.5484952213
 51
110.9515047787
  0
ARC
  5
1F7
330
1F
100
AcDbEntity
  8
0
  6
Continuous
 62
     7
370
    25
100
AcDbCircle
 10
217.5207268904
 20
201.2214946456
 30
0.0
 40
2.000000000000033
100
AcDbArc
 50
339.0
 51
69.5484952213
  0
ARC
  5
1F8
330
1F
100
AcDbEntity
  8
0
  6
Continuous
 62
     7
370
    25
100
AcDbCircle
 10
217.8918827518
 20
198.002746557
 30
0.0
 40
0.5000000000000058
100
AcDbArc
 50
205.1869385396
 51
339.0
  0
ARC
  5
1F9
330
1F
100
AcDbEntity
  8
0
  6
Continuous
 62
     7
370
    25
100
AcDbCircle
 10
212.0098761542
 20
195.2365219844
 30
0.0
 40
6.000000000000019
100
AcDbArc
 50
25.1869385396
 51
123.7009883559
  0
ARC
  5
1FA
330
1F
100
AcDbEntity
  8
0
  6
Continuous
 62
     7
370
    25
100
AcDbCircle
 10
208.4032940931
 20
200.6441615653
 30
0.0
 40
0.5000000000000194
100
AcDbArc
 50
162.0
 51
303.7009883559
  0
LINE
  5
1FB
330
1F
100
AcDbEntity
  8
0
  6
Continuous
 62
     7
370
    25
100
AcDbLine
 10
218.3586729651
 20
197.8235625822
 30
0.0
 11
219.3878877434
 21
200.5047587465
 31
0.0
  0
ARC
  5
1FC
330
1F
100
AcDbEntity
  8
0
  6
Continuous
 62
     7
370
    25
100
AcDbCircle
 10
144.1340667226
 20
4.4618525286
 30
0.0
 40
209.5
100
AcDbArc
 50
72.5522570284
 51
107.9477429716
  0
ARC
  5
1FD
330
1F
100
AcDbEntity
  8
0
  6
Continuous
 62
     7
370
    25
100
AcDbCircle
 10
80.1930562581
 20
201.8644796154
 30
0.0
 40
1.999999999999983
100
AcDbArc
 50
107.9477429716
 51
198.5
  0
LINE
  5
1FE
330
1F
100
AcDbEntity
  8
0
  6
Continuous
 62
     7
370
    25
100
AcDbLine
 10
207.927765835
 20
200.7986700625
 30
0.0
 11
208.2521145091
 21
201.7969126371
 31
0.0
  0
LINE
  5
1FF
330
1F
100
AcDbEntity
  8
0
  6
Continuous
 62
     7
370
    25
100
AcDbLine
 10
138.991394092
 20
204.9274438469
 30
0.0
 11
139.0072249574
 21
205.6413152881
 31
0.0
  0
LINE
  5
200
330
1F
100
AcDbEntity
  8
0
  6
Continuous
 62
     7
370
    25
100
AcDbLine
 10
137.7213152542
 20
210.4664966735
 30
0.0
 11
138.991394092
 21
204.9274438469
 31
0.0
  0
LINE
  5
201
330
1F
100
AcDbEntity
  8
0
  6
Continuous
 62
     7
370
    25
100
AcDbLine
 10
137.7213152542
 20
210.4664966735
 30
0.0
 11
137.8606271104
 21
210.6418442756
 31
0.0
  0
LINE
  5
202
330
1F
100
AcDbEntity
  8
0
  6
Continuous
 62
     7
370
    25
100
AcDbLine
 10
137.8606271104
 20
210.6418442756
 30
0.0
 11
139.0072249574
 21
205.6413152881
 31
0.0
  0
LINE
  5
203
330
1F
100
AcDbEntity
  8
0
  6
Continuous
 62
     7
370
    25
100
AcDbLine
 10
104.8561416011
 20
206.8102338822
 30
0.0
 11
104.6519868395
 21
206.9500238778
 31
0.0
  0
LINE
  5
204
330
1F
100
AcDbEntity
  8
0
  6
Continuous
 62
     7
370
    25
100
AcDbLine
 10
106.2288711164
 20
199.4702566839
 30
0.0
 11
104.8561416011
 21
206.8102338822
 31
0.0
  0
LINE
  5
205
330
1F
100
AcDbEntity
  8
0
  6
Continuous
 62
     7
370
    25
100
AcDbLine
 10
106.2288711164
 20
199.4702566839
 30
0.0
 11
106.0890551543
 21
199.2660274709
 31
0.0
  0
LINE
  5
206
330
1F
100
AcDbEntity
  8
0
  6
Continuous
 62
     7
370
    25
100
AcDbLine
 10
106.0890551543
 20
199.2660274709
 30
0.0
 11
104.6519868395
 21
206.9500238778
 31
0.0
  0
LINE
  5
207
330
1F
100
AcDbEntity
  8
0
  6
Continuous
 62
     7
370
    25
100
AcDbLine
 10
107.3314890882
 20
199.6769154477
 30
0.0
 11
106.2288711164
 21
199.4702566839
 31
0.0
  0
LINE
  5
208
330
1F
100
AcDbEntity
  8
0
  6
Continuous
 62
     7
370
    25
100
AcDbLine
 10
107.3314890882
 20
199.6769154477
 30
0.0
 11
107.5356110069
 21
199.5371489761
 31
0.0
  0
LINE
  5
209
330
1F
100
AcDbEntity
  8
0
  6
Continuous
 62
     7
370
    25
100
AcDbLine
 10
107.5356110069
 20
199.5371489761
 30
0.0
 11
106.0890551543
 21
199.2660274709
 31
0.0
  0
LINE
  5
20A
330
1F
100
AcDbEntity
  8
0
  6
Continuous
 62
     7
370
    25
100
AcDbLine
 10
106.6854329721
 20
203.134432623
 30
0.0
 11
107.3314890882
 21
199.6769154477
 31
0.0
  0
LINE
  5
20B
330
1F
100
AcDbEntity
  8
0
  6
Continuous
 62
     7
370
    25
100
AcDbLine
 10
106.6854329721
 20
203.134432623
 30
0.0
 11
106.8895635243
 21
202.994619947
 31
0.0
  0
LINE
  5
20C
330
1F
100
AcDbEntity
  8
0
  6
Continuous
 62
     7
370
    25
100
AcDbLine
 10
106.8895635243
 20
202.994619947
 30
0.0
 11
107.5356110069
 21
199.5371489761
 31
0.0
  0
LINE
  5
20D
330
1F
100
AcDbEntity
  8
0
  6
Continuous
 62
     7
370
    25
100
AcDbLine
 10
109.0512399102
 20
203.5771871633
 30
0.0
 11
106.6854329721
 21
203.134432623
 31
0.0
  0
LINE
  5
20E
330
1F
100
AcDbEntity
  8
0
  6
Continuous
 62
     7
370
    25
100
AcDbLine
 10
109.0512399102
 20
203.5771871633
 30
0.0
 11
109.2553914712
 21
203.437378419
 31
0.0
  0
LINE
  5
20F
330
1F
100
AcDbEntity
  8
0
  6
Continuous
 62
     7
370
    25
100
AcDbLine
 10
109.2553914712
 20
203.437378419
 30
0.0
 11
106.8895635243
 21
202.994619947
 31
0.0
  0
LINE
  5
210
330
1F
100
AcDbEntity
  8
0
  6
Continuous
 62
     7
370
    25
100
AcDbLine
 10
108.8526043656
 20
204.6395118661
 30
0.0
 11
109.0512399102
 21
203.5771871633
 31
0.0
  0
LINE
  5
211
330
1F
100
AcDbEntity
  8
0
  6
Continuous
 62
     7
370
    25
100
AcDbLine
 10
108.8526043656
 20
204.6395118661
 30
0.0
 11
108.9924354565
 21
204.843696058
 31
0.0
  0
LINE
  5
212
330
1F
100
AcDbEntity
  8
0
  6
Continuous
 62
     7
370
    25
100
AcDbLine
 10
108.9924354565
 20
204.843696058
 30
0.0
 11
109.2553914712
 21
203.437378419
 31
0.0
  0
LINE
  5
213
330
1F
100
AcDbEntity
  8
0
  6
Continuous
 62
     7
370
    25
100
AcDbLine
 10
131.9345493209
 20
210.1904615377
 30
0.0
 11
131.7483614571
 21
210.3534560666
 31
0.0
  0
LINE
  5
214
330
1F
100
AcDbEntity
  8
0
  6
Continuous
 62
     7
370
    25
100
AcDbLine
 10
132.3027693153
 20
204.6461228506
 30
0.0
 11
132.0891563992
 21
205.2220601339
 31
0.0
  0
LINE
  5
215
330
1F
100
AcDbEntity
  8
0
  6
Continuous
 62
     7
370
    25
100
AcDbLine
 10
132.0891563992
 20
205.2220601339
 30
0.0
 11
131.7483614571
 21
210.3534560666
 31
0.0
  0
LINE
  5
216
330
1F
100
AcDbEntity
  8
0
  6
Continuous
 62
     7
370
    25
100
AcDbLine
 10
106.1613802909
 20
205.9345080989
 30
0.0
 11
106.365581452
 21
205.7947086372
 31
0.0
  0
LINE
  5
217
330
1F
100
AcDbEntity
  8
0
  6
Continuous
 62
     7
370
    25
100
AcDbLine
 10
108.5272204637
 20
206.377268859
 30
0.0
 11
106.1613802909
 21
205.9345080989
 31
0.0
  0
LINE
  5
218
330
1F
100
AcDbEntity
  8
0
  6
Continuous
 62
     7
370
    25
100
AcDbLine
 10
108.5272204637
 20
206.377268859
 30
0.0
 11
108.7314093989
 21
206.2374671092
 31
0.0
  0
LINE
  5
219
330
1F
100
AcDbEntity
  8
0
  6
Continuous
 62
     7
370
    25
100
AcDbLine
 10
108.7314093989
 20
206.2374671092
 30
0.0
 11
106.365581452
 21
205.7947086372
 31
0.0
  0
LINE
  5
21A
330
1F
100
AcDbEntity
  8
0
  6
Continuous
 62
     7
370
    25
100
AcDbLine
 10
108.3245802093
 20
207.4597091199
 30
0.0
 11
108.5272204637
 21
206.377268859
 31
0.0
  0
LINE
  5
21B
330
1F
100
AcDbEntity
  8
0
  6
Continuous
 62
     7
370
    25
100
AcDbLine
 10
108.3245802093
 20
207.4597091199
 30
0.0
 11
108.4643706389
 21
207.663903855
 31
0.0
  0
LINE
  5
21C
330
1F
100
AcDbEntity
  8
0
  6
Continuous
 62
     7
370
    25
100
AcDbLine
 10
108.4643706389
 20
207.663903855
 30
0.0
 11
108.7314093989
 21
206.2374671092
 31
0.0
  0
LINE
  5
21D
330
1F
100
AcDbEntity
  8
0
  6
Continuous
 62
     7
370
    25
100
AcDbLine
 10
104.8561416011
 20
206.8102338822
 30
0.0
 11
108.3245802093
 21
207.4597091199
 31
0.0
  0
LINE
  5
21E
330
1F
100
AcDbEntity
  8
0
  6
Continuous
 62
     7
370
    25
100
AcDbLine
 10
104.6519868395
 20
206.9500238778
 30
0.0
 11
108.4643706389
 21
207.663903855
 31
0.0
  0
LINE
  5
21F
330
1F
100
AcDbEntity
  8
0
  6
Continuous
 62
     7
370
    25
100
AcDbLine
 10
106.1613802909
 20
205.9345080989
 30
0.0
 11
106.4868260204
 21
204.1967626769
 31
0.0
  0
LINE
  5
220
330
1F
100
AcDbEntity
  8
0
  6
Continuous
 62
     7
370
    25
100
AcDbLine
 10
106.4868260204
 20
204.1967626769
 30
0.0
 11
108.8526043656
 21
204.6395118661
 31
0.0
  0
LINE
  5
221
330
1F
100
AcDbEntity
  8
0
  6
Continuous
 62
     7
370
    25
100
AcDbLine
 10
111.8044896935
 20
208.0584845458
 30
0.0
 11
111.6071143022
 21
208.2077525124
 31
0.0
  0
LINE
  5
222
330
1F
100
AcDbEntity
  8
0
  6
Continuous
 62
     7
370
    25
100
AcDbLine
 10
112.8362857259
 20
200.6254764028
 30
0.0
 11
111.8044896935
 21
208.0584845458
 31
0.0
  0
LINE
  5
223
330
1F
100
AcDbEntity
  8
0
  6
Continuous
 62
     7
370
    25
100
AcDbLine
 10
112.8362857259
 20
200.6254764028
 30
0.0
 11
112.6870271215
 21
200.4281133908
 31
0.0
  0
LINE
  5
224
330
1F
100
AcDbEntity
  8
0
  6
Continuous
 62
     7
370
    25
100
AcDbLine
 10
112.6870271215
 20
200.4281133908
 30
0.0
 11
111.6071143022
 21
208.2077525124
 31
0.0
  0
LINE
  5
225
330
1F
100
AcDbEntity
  8
0
  6
Continuous
 62
     7
370
    25
100
AcDbLine
 10
116.7366270684
 20
201.1666440215
 30
0.0
 11
112.8362857259
 21
200.6254764028
 31
0.0
  0
LINE
  5
226
330
1F
100
AcDbEntity
  8
0
  6
Continuous
 62
     7
370
    25
100
AcDbLine
 10
116.7366270684
 20
201.1666440215
 30
0.0
 11
116.9339194777
 21
201.0173645414
 31
0.0
  0
LINE
  5
227
330
1F
100
AcDbEntity
  8
0
  6
Continuous
 62
     7
370
    25
100
AcDbLine
 10
116.9339194777
 20
201.0173645414
 30
0.0
 11
112.6870271215
 21
200.4281133908
 31
0.0
  0
LINE
  5
228
330
1F
100
AcDbEntity
  8
0
  6
Continuous
 62
     7
370
    25
100
AcDbLine
 10
116.5835320394
 20
202.2734245746
 30
0.0
 11
116.7366270684
 21
201.1666440215
 31
0.0
  0
LINE
  5
229
330
1F
100
AcDbEntity
  8
0
  6
Continuous
 62
     7
370
    25
100
AcDbLine
 10
116.5835320394
 20
202.2734245746
 30
0.0
 11
116.7328805998
 21
202.4707488988
 31
0.0
  0
LINE
  5
22A
330
1F
100
AcDbEntity
  8
0
  6
Continuous
 62
     7
370
    25
100
AcDbLine
 10
116.7328805998
 20
202.4707488988
 30
0.0
 11
116.9339194777
 21
201.0173645414
 31
0.0
  0
LINE
  5
22B
330
1F
100
AcDbEntity
  8
0
  6
Continuous
 62
     7
370
    25
100
AcDbLine
 10
116.1011125802
 20
205.7440112909
 30
0.0
 11
116.2503987792
 21
205.9413269809
 31
0.0
  0
LINE
  5
22C
330
1F
100
AcDbEntity
  8
0
  6
Continuous
 62
     7
370
    25
100
AcDbLine
 10
113.3242140857
 20
205.3595395807
 30
0.0
 11
116.1011125802
 21
205.7440112909
 31
0.0
  0
LINE
  5
22D
330
1F
100
AcDbEntity
  8
0
  6
Continuous
 62
     7
370
    25
100
AcDbLine
 10
113.3242140857
 20
205.3595395807
 30
0.0
 11
113.4735057559
 21
205.5568560282
 31
0.0
  0
LINE
  5
22E
330
1F
100
AcDbEntity
  8
0
  6
Continuous
 62
     7
370
    25
100
AcDbLine
 10
113.4735057559
 20
205.5568560282
 30
0.0
 11
116.2503987792
 21
205.9413269809
 31
0.0
  0
LINE
  5
22F
330
1F
100
AcDbEntity
  8
0
  6
Continuous
 62
     7
370
    25
100
AcDbLine
 10
113.0810190991
 20
207.1134442029
 30
0.0
 11
113.3242140857
 21
205.3595395807
 31
0.0
  0
LINE
  5
230
330
1F
100
AcDbEntity
  8
0
  6
Continuous
 62
     7
370
    25
100
AcDbLine
 10
113.0810190991
 20
207.1134442029
 30
0.0
 11
113.2783753438
 21
206.9641224217
 31
0.0
  0
LINE
  5
231
330
1F
100
AcDbEntity
  8
0
  6
Continuous
 62
     7
370
    25
100
AcDbLine
 10
113.2783753438
 20
206.9641224217
 30
0.0
 11
113.4735057559
 21
205.5568560282
 31
0.0
  0
LINE
  5
232
330
1F
100
AcDbEntity
  8
0
  6
Continuous
 62
     7
370
    25
100
AcDbLine
 10
115.8578620541
 20
207.4979082235
 30
0.0
 11
113.0810190991
 21
207.1134442029
 31
0.0
  0
LINE
  5
233
330
1F
100
AcDbEntity
  8
0
  6
Continuous
 62
     7
370
    25
100
AcDbLine
 10
115.8578620541
 20
207.4979082235
 30
0.0
 11
116.0552683671
 21
207.3485933744
 31
0.0
  0
LINE
  5
234
330
1F
100
AcDbEntity
  8
0
  6
Continuous
 62
     7
370
    25
100
AcDbLine
 10
116.0552683671
 20
207.3485933744
 30
0.0
 11
113.2783753438
 21
206.9641224217
 31
0.0
  0
LINE
  5
235
330
1F
100
AcDbEntity
  8
0
  6
Continuous
 62
     7
370
    25
100
AcDbLine
 10
115.7047719931
 20
208.5996439725
 30
0.0
 11
115.8578620541
 21
207.4979082235
 31
0.0
  0
LINE
  5
236
330
1F
100
AcDbEntity
  8
0
  6
Continuous
 62
     7
370
    25
100
AcDbLine
 10
115.7047719931
 20
208.5996439725
 30
0.0
 11
115.8540066584
 21
208.7970036629
 31
0.0
  0
LINE
  5
237
330
1F
100
AcDbEntity
  8
0
  6
Continuous
 62
     7
370
    25
100
AcDbLine
 10
115.8540066584
 20
208.7970036629
 30
0.0
 11
116.0552683671
 21
207.3485933744
 31
0.0
  0
LINE
  5
238
330
1F
100
AcDbEntity
  8
0
  6
Continuous
 62
     7
370
    25
100
AcDbLine
 10
111.8044896935
 20
208.0584845458
 30
0.0
 11
115.7047719931
 21
208.5996439725
 31
0.0
  0
LINE
  5
239
330
1F
100
AcDbEntity
  8
0
  6
Continuous
 62
     7
370
    25
100
AcDbLine
 10
111.6071143022
 20
208.2077525124
 30
0.0
 11
115.8540066584
 21
208.7970036629
 31
0.0
  0
LINE
  5
23A
330
1F
100
AcDbEntity
  8
0
  6
Continuous
 62
     7
370
    25
100
AcDbLine
 10
116.1011125802
 20
205.7440112909
 30
0.0
 11
116.2504388554
 21
204.6673308916
 31
0.0
  0
LINE
  5
23B
330
1F
100
AcDbEntity
  8
0
  6
Continuous
 62
     7
370
    25
100
AcDbLine
 10
116.2504388554
 20
204.6673308916
 30
0.0
 11
113.4734508821
 21
204.2828467927
 31
0.0
  0
LINE
  5
23C
330
1F
100
AcDbEntity
  8
0
  6
Continuous
 62
     7
370
    25
100
AcDbLine
 10
113.4734508821
 20
204.2828467927
 30
0.0
 11
113.8067962312
 21
201.8889753889
 31
0.0
  0
LINE
  5
23D
330
1F
100
AcDbEntity
  8
0
  6
Continuous
 62
     7
370
    25
100
AcDbLine
 10
113.8067962312
 20
201.8889753889
 30
0.0
 11
116.5835320394
 21
202.2734245746
 31
0.0
  0
LINE
  5
23E
330
1F
100
AcDbEntity
  8
0
  6
Continuous
 62
     7
370
    25
100
AcDbLine
 10
169.0398827792
 20
201.5184299164
 30
0.0
 11
168.8927300536
 21
201.3606449334
 31
0.0
  0
LINE
  5
23F
330
1F
100
AcDbEntity
  8
0
  6
Continuous
 62
     7
370
    25
100
AcDbLine
 10
170.0929263066
 20
201.3854555327
 30
0.0
 11
169.0398827792
 21
201.5184299164
 31
0.0
  0
LINE
  5
240
330
1F
100
AcDbEntity
  8
0
  6
Continuous
 62
     7
370
    25
100
AcDbLine
 10
170.0929263066
 20
201.3854555327
 30
0.0
 11
170.1956664852
 21
201.1961150118
 31
0.0
  0
LINE
  5
241
330
1F
100
AcDbEntity
  8
0
  6
Continuous
 62
     7
370
    25
100
AcDbLine
 10
170.1956664852
 20
201.1961150118
 30
0.0
 11
168.8927300536
 21
201.3606449334
 31
0.0
  0
LINE
  5
242
330
1F
100
AcDbEntity
  8
0
  6
Continuous
 62
     7
370
    25
100
AcDbLine
 10
172.6129644127
 20
206.5908430112
 30
0.0
 11
170.0929263066
 21
201.3854555327
 31
0.0
  0
LINE
  5
243
330
1F
100
AcDbEntity
  8
0
  6
Continuous
 62
     7
370
    25
100
AcDbLine
 10
172.6129644127
 20
206.5908430112
 30
0.0
 11
172.4678244573
 21
205.8894816037
 31
0.0
  0
LINE
  5
244
330
1F
100
AcDbEntity
  8
0
  6
Continuous
 62
     7
370
    25
100
AcDbLine
 10
172.4678244573
 20
205.8894816037
 30
0.0
 11
170.1956664852
 21
201.1961150118
 31
0.0
  0
LINE
  5
245
330
1F
100
AcDbEntity
  8
0
  6
Continuous
 62
     7
370
    25
100
AcDbLine
 10
172.8505449826
 20
201.0360224611
 30
0.0
 11
172.6129644127
 21
206.5908430112
 31
0.0
  0
LINE
  5
246
330
1F
100
AcDbEntity
  8
0
  6
Continuous
 62
     7
370
    25
100
AcDbLine
 10
172.8505449826
 20
201.0360224611
 30
0.0
 11
172.6820430988
 21
200.8808813114
 31
0.0
  0
LINE
  5
247
330
1F
100
AcDbEntity
  8
0
  6
Continuous
 62
     7
370
    25
100
AcDbLine
 10
172.6820430988
 20
200.8808813114
 30
0.0
 11
172.4678244573
 21
205.8894816037
 31
0.0
  0
LINE
  5
248
330
1F
100
AcDbEntity
  8
0
  6
Continuous
 62
     7
370
    25
100
AcDbLine
 10
173.9240490641
 20
200.9008455736
 30
0.0
 11
172.8505449826
 21
201.0360224611
 31
0.0
  0
LINE
  5
249
330
1F
100
AcDbEntity
  8
0
  6
Continuous
 62
     7
370
    25
100
AcDbLine
 10
173.9240490641
 20
200.9008455736
 30
0.0
 11
174.1074156549
 21
200.7013967347
 31
0.0
  0
LINE
  5
24A
330
1F
100
AcDbEntity
  8
0
  6
Continuous
 62
     7
370
    25
100
AcDbLine
 10
174.1074156549
 20
200.7013967347
 30
0.0
 11
172.6820430988
 21
200.8808813114
 31
0.0
  0
LINE
  5
24B
330
1F
100
AcDbEntity
  8
0
  6
Continuous
 62
     7
370
    25
100
AcDbLine
 10
173.611105491
 20
208.4756321803
 30
0.0
 11
173.9240490641
 21
200.9008455736
 31
0.0
  0
LINE
  5
24C
330
1F
100
AcDbEntity
  8
0
  6
Continuous
 62
     7
370
    25
100
AcDbLine
 10
173.611105491
 20
208.4756321803
 30
0.0
 11
173.7798237309
 21
208.6307460863
 31
0.0
  0
LINE
  5
24D
330
1F
100
AcDbEntity
  8
0
  6
Continuous
 62
     7
370
    25
100
AcDbLine
 10
173.7798237309
 20
208.6307460863
 30
0.0
 11
174.1074156549
 21
200.7013967347
 31
0.0
  0
LINE
  5
24E
330
1F
100
AcDbEntity
  8
0
  6
Continuous
 62
     7
370
    25
100
AcDbLine
 10
172.4573251044
 20
208.6209175539
 30
0.0
 11
173.611105491
 21
208.4756321803
 31
0.0
  0
LINE
  5
24F
330
1F
100
AcDbEntity
  8
0
  6
Continuous
 62
     7
370
    25
100
AcDbLine
 10
172.4573251044
 20
208.6209175539
 30
0.0
 11
172.3544511748
 21
208.810230663
 31
0.0
  0
LINE
  5
250
330
1F
100
AcDbEntity
  8
0
  6
Continuous
 62
     7
370
    25
100
AcDbLine
 10
172.3544511748
 20
208.810230663
 30
0.0
 11
173.7798237309
 21
208.6307460863
 31
0.0
  0
LINE
  5
251
330
1F
100
AcDbEntity
  8
0
  6
Continuous
 62
     7
370
    25
100
AcDbLine
 10
122.304164859
 20
205.3646862487
 30
0.0
 11
122.562300578
 21
205.3000896979
 31
0.0
  0
SPLINE
  5
252
330
1F
100
AcDbEntity
  8
0
  6
Continuous
 62
     7
370
    25
100
AcDbSpline
210
0.0
220
0.0
230
1.0
 70
     8
 71
     3
 72
    40
 73
    36
 74
     0
 42
0.00000001
 43
0.00000001
 40
0.0
 40
0.0
 40
0.0
 40
0.0
 40
0.0625
 40
0.0625
 40
0.125
 40
0.125
 40
0.1875
 40
0.1875
 40
0.25
 40
0.25
 40
0.3125
 40
0.3125
 40
0.375
 40
0.375
 40
0.4375
 40
0.4375
 40
0.5
 40
0.5
 40
0.5625
 40
0.5625
 40
0.625
 40
0.625
 40
0.6875
 40
0.6875
 40
0.71875
 40
0.71875
 40
0.75
 40
0.75
 40
0.8125
 40
0.8125
 40
0.875
 40
0.875
 40
0.9375
 40
0.9375
 40
1.0
 40
1.0
 40
1.0
 40
1.0
 10
123.7947035496298
 20
207.5440228053835
 30
0.0
 10
123.8006875376436
 20
207.4868278053501
 30
0.0
 10
123.8066714564352
 20
207.4296327958512
 30
0.0
 10
123.8144864237445
 20
207.3149670249229
 30
0.0
 10
123.8160893592674
 20
207.2574732139127
 30
0.0
 10
123.8160810472481
 20
207.1424484489331
 30
0.0
 10
123.8147143519127
 20
207.0849130579581
 30
0.0
 10
123.807089310386
 20
206.9702141744762
 30
0.0
 10
123.8005064504269
 20
206.9130755224238
 30
0.0
 10
123.7835789975976
 20
206.7992973532819
 30
0.0
 10
123.773627837936
 20
206.7425882893907
 30
0.0
 10
123.7478387335512
 20
206.6305705248683
 30
0.0
 10
123.7316141512376
 20
206.575346680283
 30
0.0
 10
123.6950641750751
 20
206.4662665782073
 30
0.0
 10
123.6749473260114
 20
206.4123536750668
 30
0.0
 10
123.629331760497
 20
206.3068189240376
 30
0.0
 10
123.6038062525498
 20
206.2552047141703
 30
0.0
 10
123.5480307664996
 20
206.1546174582851
 30
0.0
 10
123.5177588849022
 20
206.1056557997388
 30
0.0
 10
123.4526200440975
 20
206.0109082874144
 30
0.0
 10
123.4178189977047
 20
205.9650589472439
 30
0.0
 10
123.3444757744097
 20
205.8764330989904
 30
0.0
 10
123.3057260905684
 20
205.8338795668552
 30
0.0
 10
123.2443367748593
 20
205.7733554952948
 30
0.0
 10
123.2234041459214
 20
205.7536471173429
 30
0.0
 10
123.1810296723788
 20
205.714758173648
 30
0.0
 10
123.159636957797
 20
205.6955225669094
 30
0.0
 10
123.0948787720166
 20
205.6385165443593
 30
0.0
 10
123.0506390802573
 20
205.601792219991
 30
0.0
 10
122.9582892592672
 20
205.5333539665195
 30
0.0
 10
122.9105862294965
 20
205.5011214982942
 30
0.0
 10
122.8141103551686
 20
205.4384735598465
 30
0.0
 10
122.7650981478998
 20
205.408401568232
 30
0.0
 10
122.6647283696046
 20
205.3524275158986
 30
0.0
 10
122.6135144886366
 20
205.3262585751275
 30
0.0
 10
122.562300578016
 20
205.3000896978865
 30
0.0
  0
LINE
  5
253
330
1F
100
AcDbEntity
  8
0
  6
Continuous
 62
     7
370
    25
100
AcDbLine
 10
167.4171703945
 20
209.2589653827
 30
0.0
 11
168.591261314
 21
209.1096223114
 31
0.0
  0
LINE
  5
254
330
1F
100
AcDbEntity
  8
0
  6
Continuous
 62
     7
370
    25
100
AcDbLine
 10
168.591261314
 20
209.1096223114
 30
0.0
 11
169.7789680594
 21
203.0763102457
 31
0.0
  0
LINE
  5
255
330
1F
100
AcDbEntity
  8
0
  6
Continuous
 62
     7
370
    25
100
AcDbLine
 10
169.7789680594
 20
203.0763102457
 30
0.0
 11
172.4573251044
 21
208.6209175539
 31
0.0
  0
LINE
  5
256
330
1F
100
AcDbEntity
  8
0
  6
Continuous
 62
     7
370
    25
100
AcDbLine
 10
169.0398827792
 20
201.5184299164
 30
0.0
 11
167.9186598824
 21
207.1857706306
 31
0.0
  0
LINE
  5
257
330
1F
100
AcDbEntity
  8
0
  6
Continuous
 62
     7
370
    25
100
AcDbLine
 10
167.9186598824
 20
207.1857706306
 30
0.0
 11
166.2880880008
 21
201.8656851314
 31
0.0
  0
LINE
  5
258
330
1F
100
AcDbEntity
  8
0
  6
Continuous
 62
     7
370
    25
100
AcDbLine
 10
166.2880880008
 20
201.8656851314
 30
0.0
 11
165.1991065579
 21
202.0033471406
 31
0.0
  0
LINE
  5
259
330
1F
100
AcDbEntity
  8
0
  6
Continuous
 62
     7
370
    25
100
AcDbLine
 10
165.1991065579
 20
202.0033471406
 30
0.0
 11
167.4171703945
 21
209.2589653827
 31
0.0
  0
LINE
  5
25A
330
1F
100
AcDbEntity
  8
0
  6
Continuous
 62
     7
370
    25
100
AcDbLine
 10
113.4734508821
 20
204.2828467927
 30
0.0
 11
113.6709075503
 21
204.1335389155
 31
0.0
  0
LINE
  5
25B
330
1F
100
AcDbEntity
  8
0
  6
Continuous
 62
     7
370
    25
100
AcDbLine
 10
116.2504388554
 20
204.6673308916
 30
0.0
 11
116.4478005737
 21
204.5180098682
 31
0.0
  0
LINE
  5
25C
330
1F
100
AcDbEntity
  8
0
  6
Continuous
 62
     7
370
    25
100
AcDbLine
 10
116.4478005737
 20
204.5180098682
 30
0.0
 11
113.6709075503
 21
204.1335389155
 31
0.0
  0
LINE
  5
25D
330
1F
100
AcDbEntity
  8
0
  6
Continuous
 62
     7
370
    25
100
AcDbLine
 10
116.2503987792
 20
205.9413269809
 30
0.0
 11
116.4478005737
 21
204.5180098682
 31
0.0
  0
LINE
  5
25E
330
1F
100
AcDbEntity
  8
0
  6
Continuous
 62
     7
370
    25
100
AcDbLine
 10
178.2122881831
 20
201.2988993128
 30
0.0
 11
178.4150165755
 21
201.4408267681
 31
0.0
  0
LINE
  5
25F
330
1F
100
AcDbEntity
  8
0
  6
Continuous
 62
     7
370
    25
100
AcDbLine
 10
178.6304697867
 20
203.6684882216
 30
0.0
 11
178.2122881831
 21
201.2988993128
 31
0.0
  0
LINE
  5
260
330
1F
100
AcDbEntity
  8
0
  6
Continuous
 62
     7
370
    25
100
AcDbLine
 10
178.6304697867
 20
203.6684882216
 30
0.0
 11
178.7723785327
 21
203.4657865535
 31
0.0
  0
LINE
  5
261
330
1F
100
AcDbEntity
  8
0
  6
Continuous
 62
     7
370
    25
100
AcDbLine
 10
178.7723785327
 20
203.4657865535
 30
0.0
 11
178.4150165755
 21
201.4408267681
 31
0.0
  0
LINE
  5
262
330
1F
100
AcDbEntity
  8
0
  6
Continuous
 62
     7
370
    25
100
AcDbLine
 10
127.170057988
 20
209.8741139542
 30
0.0
 11
126.9838894
 21
210.0370926995
 31
0.0
  0
LINE
  5
263
330
1F
100
AcDbEntity
  8
0
  6
Continuous
 62
     7
370
    25
100
AcDbLine
 10
127.663870784
 20
202.4269988168
 30
0.0
 11
127.5008554604
 21
202.2408067281
 31
0.0
  0
LINE
  5
264
330
1F
100
AcDbEntity
  8
0
  6
Continuous
 62
     7
370
    25
100
AcDbLine
 10
127.5008554604
 20
202.2408067281
 30
0.0
 11
126.9838894
 21
210.0370926995
 31
0.0
  0
LINE
  5
265
330
1F
100
AcDbEntity
  8
0
  6
Continuous
 62
     7
370
    25
100
AcDbLine
 10
128.7978680354
 20
202.5023302285
 30
0.0
 11
128.9840374257
 21
202.3393344725
 31
0.0
  0
LINE
  5
266
330
1F
100
AcDbEntity
  8
0
  6
Continuous
 62
     7
370
    25
100
AcDbLine
 10
128.9840374257
 20
202.3393344725
 30
0.0
 11
127.5008554604
 21
202.2408067281
 31
0.0
  0
LINE
  5
267
330
1F
100
AcDbEntity
  8
0
  6
Continuous
 62
     7
370
    25
100
AcDbLine
 10
128.4314417409
 20
208.0285045119
 30
0.0
 11
128.6449496099
 21
207.4532097484
 31
0.0
  0
LINE
  5
268
330
1F
100
AcDbEntity
  8
0
  6
Continuous
 62
     7
370
    25
100
AcDbLine
 10
128.6449496099
 20
207.4532097484
 30
0.0
 11
128.9840374257
 21
202.3393344725
 31
0.0
  0
LINE
  5
269
330
1F
100
AcDbEntity
  8
0
  6
Continuous
 62
     7
370
    25
100
AcDbLine
 10
132.4052270352
 20
202.7414941791
 30
0.0
 11
132.3222993008
 21
202.5605987053
 31
0.0
  0
LINE
  5
26A
330
1F
100
AcDbEntity
  8
0
  6
Continuous
 62
     7
370
    25
100
AcDbLine
 10
132.3222993008
 20
202.5605987053
 30
0.0
 11
128.6449496099
 21
207.4532097484
 31
0.0
  0
LINE
  5
26B
330
1F
100
AcDbEntity
  8
0
  6
Continuous
 62
     7
370
    25
100
AcDbLine
 10
133.5623426449
 20
202.8186501931
 30
0.0
 11
133.7485094828
 21
202.6556978396
 31
0.0
  0
LINE
  5
26C
330
1F
100
AcDbEntity
  8
0
  6
Continuous
 62
     7
370
    25
100
AcDbLine
 10
133.7485094828
 20
202.6556978396
 30
0.0
 11
132.3222993008
 21
202.5605987053
 31
0.0
  0
LINE
  5
26D
330
1F
100
AcDbEntity
  8
0
  6
Continuous
 62
     7
370
    25
100
AcDbLine
 10
133.0685280989
 20
210.2657917223
 30
0.0
 11
133.2315434224
 21
210.451983811
 31
0.0
  0
LINE
  5
26E
330
1F
100
AcDbEntity
  8
0
  6
Continuous
 62
     7
370
    25
100
AcDbLine
 10
133.2315434224
 20
210.451983811
 30
0.0
 11
133.7485094828
 21
202.6556978396
 31
0.0
  0
LINE
  5
26F
330
1F
100
AcDbEntity
  8
0
  6
Continuous
 62
     7
370
    25
100
AcDbLine
 10
131.7483614571
 20
210.3534560666
 30
0.0
 11
133.2315434224
 21
210.451983811
 31
0.0
  0
LINE
  5
270
330
1F
100
AcDbEntity
  8
0
  6
Continuous
 62
     7
370
    25
100
AcDbLine
 10
178.2058598494
 20
207.7530524353
 30
0.0
 11
182.0630765996
 21
207.0728466775
 31
0.0
  0
LINE
  5
271
330
1F
100
AcDbEntity
  8
0
  6
Continuous
 62
     7
370
    25
100
AcDbLine
 10
182.0630765996
 20
207.0728466775
 30
0.0
 11
181.8714959968
 21
205.9829398611
 31
0.0
  0
LINE
  5
272
330
1F
100
AcDbEntity
  8
0
  6
Continuous
 62
     7
370
    25
100
AcDbLine
 10
181.8714959968
 20
205.9829398611
 30
0.0
 11
179.1246948076
 21
206.4673179551
 31
0.0
  0
LINE
  5
273
330
1F
100
AcDbEntity
  8
0
  6
Continuous
 62
     7
370
    25
100
AcDbLine
 10
179.1246948076
 20
206.4673179551
 30
0.0
 11
178.8180815725
 21
204.7311936265
 31
0.0
  0
LINE
  5
274
330
1F
100
AcDbEntity
  8
0
  6
Continuous
 62
     7
370
    25
100
AcDbLine
 10
178.8180815725
 20
204.7311936265
 30
0.0
 11
181.5650326419
 21
204.2467891022
 31
0.0
  0
LINE
  5
275
330
1F
100
AcDbEntity
  8
0
  6
Continuous
 62
     7
370
    25
100
AcDbLine
 10
181.5650326419
 20
204.2467891022
 30
0.0
 11
181.3774204636
 21
203.1840837666
 31
0.0
  0
LINE
  5
276
330
1F
100
AcDbEntity
  8
0
  6
Continuous
 62
     7
370
    25
100
AcDbLine
 10
181.3774204636
 20
203.1840837666
 30
0.0
 11
178.6304697867
 21
203.6684882216
 31
0.0
  0
LINE
  5
277
330
1F
100
AcDbEntity
  8
0
  6
Continuous
 62
     7
370
    25
100
AcDbLine
 10
178.2122881831
 20
201.2988993128
 30
0.0
 11
180.959238914
 21
200.8144948483
 31
0.0
  0
LINE
  5
278
330
1F
100
AcDbEntity
  8
0
  6
Continuous
 62
     7
370
    25
100
AcDbLine
 10
180.959238914
 20
200.8144948483
 30
0.0
 11
180.7661789185
 21
199.7201418499
 31
0.0
  0
LINE
  5
279
330
1F
100
AcDbEntity
  8
0
  6
Continuous
 62
     7
370
    25
100
AcDbLine
 10
180.7661789185
 20
199.7201418499
 30
0.0
 11
176.9090540604
 21
200.4003314029
 31
0.0
  0
LINE
  5
27A
330
1F
100
AcDbEntity
  8
0
  6
Continuous
 62
     7
370
    25
100
AcDbLine
 10
176.9090540604
 20
200.4003314029
 30
0.0
 11
178.2058598494
 21
207.7530524353
 31
0.0
  0
LINE
  5
27B
330
1F
100
AcDbEntity
  8
0
  6
Continuous
 62
     7
370
    25
100
AcDbLine
 10
128.3200953753
 20
209.9506233324
 30
0.0
 11
128.4030913193
 21
210.1315089833
 31
0.0
  0
LINE
  5
27C
330
1F
100
AcDbEntity
  8
0
  6
Continuous
 62
     7
370
    25
100
AcDbLine
 10
128.4030913193
 20
210.1315089833
 30
0.0
 11
132.0891563992
 21
205.2220601339
 31
0.0
  0
LINE
  5
27D
330
1F
100
AcDbEntity
  8
0
  6
Continuous
 62
     7
370
    25
100
AcDbLine
 10
126.9838894
 20
210.0370926995
 30
0.0
 11
128.4030913193
 21
210.1315089833
 31
0.0
  0
LINE
  5
27E
330
1F
100
AcDbEntity
  8
0
  6
Continuous
 62
     7
370
    25
100
AcDbLine
 10
153.7045765102
 20
202.8407983097
 30
0.0
 11
153.5765017867
 21
202.6710711674
 31
0.0
  0
LINE
  5
27F
330
1F
100
AcDbEntity
  8
0
  6
Continuous
 62
     7
370
    25
100
AcDbLine
 10
154.8693817914
 20
202.7916322796
 30
0.0
 11
153.7045765102
 21
202.8407983097
 31
0.0
  0
LINE
  5
280
330
1F
100
AcDbEntity
  8
0
  6
Continuous
 62
     7
370
    25
100
AcDbLine
 10
154.8693817914
 20
202.7916322796
 30
0.0
 11
155.1166518024
 21
202.6060619652
 31
0.0
  0
LINE
  5
281
330
1F
100
AcDbEntity
  8
0
  6
Continuous
 62
     7
370
    25
100
AcDbLine
 10
155.1166518024
 20
202.6060619652
 30
0.0
 11
153.5765017867
 21
202.6710711674
 31
0.0
  0
LINE
  5
282
330
1F
100
AcDbEntity
  8
0
  6
Continuous
 62
     7
370
    25
100
AcDbLine
 10
136.6097722235
 20
210.4635472335
 30
0.0
 11
136.3901571332
 21
210.6379424358
 31
0.0
  0
LINE
  5
283
330
1F
100
AcDbEntity
  8
0
  6
Continuous
 62
     7
370
    25
100
AcDbLine
 10
138.3299565838
 20
202.9781397631
 30
0.0
 11
136.6097722235
 21
210.4635472335
 31
0.0
  0
LINE
  5
284
330
1F
100
AcDbEntity
  8
0
  6
Continuous
 62
     7
370
    25
100
AcDbLine
 10
138.1907600537
 20
202.8025924215
 30
0.0
 11
136.3901571332
 21
210.6379424358
 31
0.0
  0
LINE
  5
285
330
1F
100
AcDbEntity
  8
0
  6
Continuous
 62
     7
370
    25
100
AcDbLine
 10
152.3212079843
 20
210.3449382579
 30
0.0
 11
152.4486165675
 21
210.5146616195
 31
0.0
  0
LINE
  5
286
330
1F
100
AcDbEntity
  8
0
  6
Continuous
 62
     7
370
    25
100
AcDbLine
 10
151.0593935186
 20
210.3985344087
 30
0.0
 11
152.3212079843
 21
210.3449382579
 31
0.0
  0
LINE
  5
287
330
1F
100
AcDbEntity
  8
0
  6
Continuous
 62
     7
370
    25
100
AcDbLine
 10
151.0593935186
 20
210.3985344087
 30
0.0
 11
150.9467891659
 21
210.5784524304
 31
0.0
  0
LINE
  5
288
330
1F
100
AcDbEntity
  8
0
  6
Continuous
 62
     7
370
    25
100
AcDbLine
 10
150.9467891659
 20
210.5784524304
 30
0.0
 11
152.4486165675
 21
210.5146616195
 31
0.0
  0
LINE
  5
289
330
1F
100
AcDbEntity
  8
0
  6
Continuous
 62
     7
370
    25
100
AcDbLine
 10
141.0053078133
 20
208.5256270924
 30
0.0
 11
139.4746293533
 21
202.9828152337
 31
0.0
  0
LINE
  5
28A
330
1F
100
AcDbEntity
  8
0
  6
Continuous
 62
     7
370
    25
100
AcDbLine
 10
141.0053078133
 20
208.5256270924
 30
0.0
 11
141.0090057287
 21
207.8816825269
 31
0.0
  0
LINE
  5
28B
330
1F
100
AcDbEntity
  8
0
  6
Continuous
 62
     7
370
    25
100
AcDbLine
 10
141.0090057287
 20
207.8816825269
 30
0.0
 11
139.6079852099
 21
202.8083811454
 31
0.0
  0
LINE
  5
28C
330
1F
100
AcDbEntity
  8
0
  6
Continuous
 62
     7
370
    25
100
AcDbLine
 10
142.6017504814
 20
202.9931120534
 30
0.0
 11
141.0053078133
 21
208.5256270924
 31
0.0
  0
LINE
  5
28D
330
1F
100
AcDbEntity
  8
0
  6
Continuous
 62
     7
370
    25
100
AcDbLine
 10
142.6017504814
 20
202.9931120534
 30
0.0
 11
142.4702457423
 21
202.8177159262
 31
0.0
  0
LINE
  5
28E
330
1F
100
AcDbEntity
  8
0
  6
Continuous
 62
     7
370
    25
100
AcDbLine
 10
142.4702457423
 20
202.8177159262
 30
0.0
 11
141.0090057287
 21
207.8816825269
 31
0.0
  0
LINE
  5
28F
330
1F
100
AcDbEntity
  8
0
  6
Continuous
 62
     7
370
    25
100
AcDbLine
 10
143.7633141915
 20
202.9968034535
 30
0.0
 11
142.6017504814
 21
202.9931120534
 31
0.0
  0
LINE
  5
290
330
1F
100
AcDbEntity
  8
0
  6
Continuous
 62
     7
370
    25
100
AcDbLine
 10
143.7633141915
 20
202.9968034535
 30
0.0
 11
143.903863043
 21
202.8222719012
 31
0.0
  0
LINE
  5
291
330
1F
100
AcDbEntity
  8
0
  6
Continuous
 62
     7
370
    25
100
AcDbLine
 10
143.903863043
 20
202.8222719012
 30
0.0
 11
142.4702457423
 21
202.8177159262
 31
0.0
  0
LINE
  5
292
330
1F
100
AcDbEntity
  8
0
  6
Continuous
 62
     7
370
    25
100
AcDbLine
 10
145.42425604
 20
210.4927551139
 30
0.0
 11
143.7633141915
 21
202.9968034535
 31
0.0
  0
LINE
  5
293
330
1F
100
AcDbEntity
  8
0
  6
Continuous
 62
     7
370
    25
100
AcDbLine
 10
145.42425604
 20
210.4927551139
 30
0.0
 11
145.6424253382
 21
210.6685302967
 31
0.0
  0
LINE
  5
294
330
1F
100
AcDbEntity
  8
0
  6
Continuous
 62
     7
370
    25
100
AcDbLine
 10
145.6424253382
 20
210.6685302967
 30
0.0
 11
143.903863043
 21
202.8222719012
 31
0.0
  0
LINE
  5
295
330
1F
100
AcDbEntity
  8
0
  6
Continuous
 62
     7
370
    25
100
AcDbLine
 10
144.3121400001
 20
210.4886939985
 30
0.0
 11
145.42425604
 21
210.4927551139
 31
0.0
  0
LINE
  5
296
330
1F
100
AcDbEntity
  8
0
  6
Continuous
 62
     7
370
    25
100
AcDbLine
 10
144.3121400001
 20
210.4886939985
 30
0.0
 11
144.1713911048
 21
210.6631585193
 31
0.0
  0
LINE
  5
297
330
1F
100
AcDbEntity
  8
0
  6
Continuous
 62
     7
370
    25
100
AcDbLine
 10
144.1713911048
 20
210.6631585193
 30
0.0
 11
145.6424253382
 21
210.6685302967
 31
0.0
  0
LINE
  5
298
330
1F
100
AcDbEntity
  8
0
  6
Continuous
 62
     7
370
    25
100
AcDbLine
 10
143.0905319534
 20
204.9415782794
 30
0.0
 11
144.3121400001
 21
210.4886939985
 31
0.0
  0
LINE
  5
299
330
1F
100
AcDbEntity
  8
0
  6
Continuous
 62
     7
370
    25
100
AcDbLine
 10
143.0905319534
 20
204.9415782794
 30
0.0
 11
143.0683116312
 21
205.6542610223
 31
0.0
  0
LINE
  5
29A
330
1F
100
AcDbEntity
  8
0
  6
Continuous
 62
     7
370
    25
100
AcDbLine
 10
143.0683116312
 20
205.6542610223
 30
0.0
 11
144.1713911048
 21
210.6631585193
 31
0.0
  0
LINE
  5
29B
330
1F
100
AcDbEntity
  8
0
  6
Continuous
 62
     7
370
    25
100
AcDbLine
 10
141.5033828202
 20
210.4798036162
 30
0.0
 11
143.0905319534
 21
204.9415782794
 31
0.0
  0
LINE
  5
29C
330
1F
100
AcDbEntity
  8
0
  6
Continuous
 62
     7
370
    25
100
AcDbLine
 10
141.5033828202
 20
210.4798036162
 30
0.0
 11
141.6351477415
 21
210.655167616
 31
0.0
  0
LINE
  5
29D
330
1F
100
AcDbEntity
  8
0
  6
Continuous
 62
     7
370
    25
100
AcDbLine
 10
141.6351477415
 20
210.655167616
 30
0.0
 11
143.0683116312
 21
205.6542610223
 31
0.0
  0
LINE
  5
29E
330
1F
100
AcDbEntity
  8
0
  6
Continuous
 62
     7
370
    25
100
AcDbLine
 10
140.5257322559
 20
210.4769402049
 30
0.0
 11
141.5033828202
 21
210.4798036162
 31
0.0
  0
LINE
  5
29F
330
1F
100
AcDbEntity
  8
0
  6
Continuous
 62
     7
370
    25
100
AcDbLine
 10
140.5257322559
 20
210.4769402049
 30
0.0
 11
140.3924606609
 21
210.6515279473
 31
0.0
  0
LINE
  5
2A0
330
1F
100
AcDbEntity
  8
0
  6
Continuous
 62
     7
370
    25
100
AcDbLine
 10
140.3924606609
 20
210.6515279473
 30
0.0
 11
141.6351477415
 21
210.655167616
 31
0.0
  0
LINE
  5
2A1
330
1F
100
AcDbEntity
  8
0
  6
Continuous
 62
     7
370
    25
100
AcDbLine
 10
138.991394092
 20
204.9274438469
 30
0.0
 11
140.5257322559
 21
210.4769402049
 31
0.0
  0
LINE
  5
2A2
330
1F
100
AcDbEntity
  8
0
  6
Continuous
 62
     7
370
    25
100
AcDbLine
 10
139.0072249574
 20
205.6413152881
 30
0.0
 11
140.3924606609
 21
210.6515279473
 31
0.0
  0
LWPOLYLINE
  5
2A3
330
1F
100
AcDbEntity
  8
0
  6
Continuous
 62
     7
370
    25
100
AcDbPolyline
 90
        3
 70
   128
 43
0.0
 10
152.9216971274
 20
212.4557660758
 10
152.9250865291
 20
212.5407294958
 10
152.9286842862
 20
212.6308149666
  0
SPLINE
  5
2A4
330
1F
100
AcDbEntity
  8
0
  6
Continuous
 62
     7
370
    25
100
AcDbSpline
210
0.0
220
0.0
230
1.0
 70
     8
 71
     3
 72
    18
 73
    14
 74
     0
 42
0.00000001
 43
0.00000001
 40
0.0080961842343673
 40
0.0080961842343673
 40
0.0080961842343673
 40
0.0080961842343673
 40
0.125
 40
0.125
 40
0.25
 40
0.25
 40
0.4999999999999999
 40
0.4999999999999999
 40
0.7499999999999999
 40
0.7499999999999999
 40
0.8749999999999999
 40
0.8749999999999999
 40
0.9928182583391669
 40
0.9928182583391669
 40
0.9928182583391669
 40
0.9928182583391669
 10
152.3162536229249
 20
211.8994741759068
 30
0.0
 10
152.3205104285434
 20
211.9448693675305
 30
0.0
 10
152.3247574604226
 20
211.9837923250545
 30
0.0
 10
152.3392473471197
 20
212.0499099596073
 30
0.0
 10
152.3513872270635
 20
212.0845828357574
 30
0.0
 10
152.3998746826166
 20
212.1872659985161
 30
0.0
 10
152.4452673551881
 20
212.2469730846801
 30
0.0
 10
152.5641771001153
 20
212.3568032024552
 30
0.0
 10
152.6270297245457
 20
212.3970686943358
 30
0.0
 10
152.7326844824641
 20
212.4364031368316
 30
0.0
 10
152.7681148107044
 20
212.4454777021645
 30
0.0
 10
152.8360018975473
 20
212.4543568662294
 30
0.0
 10
152.8756374915221
 20
212.4553122008964
 30
0.0
 10
152.9216971273797
 20
212.455766075829
 30
0.0
  0
LWPOLYLINE
  5
2A5
330
1F
100
AcDbEntity
  8
0
  6
Continuous
 62
     7
370
    25
100
AcDbPolyline
 90
        3
 70
   128
 43
0.0
 10
152.3162536229
 20
211.8994741759
 10
152.2312544692
 20
211.90265981
 10
152.1411311208
 20
211.9060283363
  0
SPLINE
  5
2A6
330
1F
100
AcDbEntity
  8
0
  6
Continuous
 62
     7
370
    25
100
AcDbSpline
210
0.0
220
0.0
230
1.0
 70
     8
 71
     3
 72
    18
 73
    14
 74
     0
 42
0.00000001
 43
0.00000001
 40
0.0
 40
0.0
 40
0.0
 40
0.0
 40
0.125
 40
0.125
 40
0.25
 40
0.25
 40
0.4999999999999999
 40
0.4999999999999999
 40
0.7499999999999999
 40
0.7499999999999999
 40
0.8749999999999999
 40
0.8749999999999999
 40
0.9999999999999999
 40
0.9999999999999999
 40
0.9999999999999999
 40
0.9999999999999999
 10
152.1411311207657
 20
211.9060283363013
 30
0.0
 10
152.1456935201879
 20
211.9554709297196
 30
0.0
 10
152.1502561946648
 20
212.0049135204325
 30
0.0
 10
152.1714217162243
 20
212.101491503355
 30
0.0
 10
152.1881242718394
 20
212.1486260250514
 30
0.0
 10
152.2517283357483
 20
212.2833220589578
 30
0.0
 10
152.3131086543978
 20
212.3631008805347
 30
0.0
 10
152.4588900508596
 20
212.4977508346642
 30
0.0
 10
152.5433598232005
 20
212.55262907404
 30
0.0
 10
152.6829456573657
 20
212.6045957906048
 30
0.0
 10
152.7313501562577
 20
212.6171367006741
 30
0.0
 10
152.8293894460573
 20
212.6299597108103
 30
0.0
 10
152.8790368758914
 20
212.6303874733847
 30
0.0
 10
152.9286842861961
 20
212.6308149666136
 30
0.0
  0
LINE
  5
2A7
330
1F
100
AcDbEntity
  8
0
  6
Continuous
 62
     7
370
    25
100
AcDbLine
 10
136.6097722235
 20
210.4635472335
 30
0.0
 11
137.7213152542
 21
210.4664966735
 31
0.0
  0
LINE
  5
2A8
330
1F
100
AcDbEntity
  8
0
  6
Continuous
 62
     7
370
    25
100
AcDbLine
 10
136.3901571332
 20
210.6379424358
 30
0.0
 11
137.8606271104
 21
210.6418442756
 31
0.0
  0
LINE
  5
2A9
330
1F
100
AcDbEntity
  8
0
  6
Continuous
 62
     7
370
    25
100
AcDbLine
 10
151.6422370512
 20
208.9672611574
 30
0.0
 11
150.2098198731
 21
205.6903231009
 31
0.0
  0
LINE
  5
2AA
330
1F
100
AcDbEntity
  8
0
  6
Continuous
 62
     7
370
    25
100
AcDbLine
 10
150.2098198731
 20
205.6903231009
 30
0.0
 11
152.7879883622
 21
205.5816600384
 31
0.0
  0
LINE
  5
2AB
330
1F
100
AcDbEntity
  8
0
  6
Continuous
 62
     7
370
    25
100
AcDbLine
 10
152.7879883622
 20
205.5816600384
 30
0.0
 11
151.6422370512
 21
208.9672611574
 31
0.0
  0
LINE
  5
2AC
330
1F
100
AcDbEntity
  8
0
  6
Continuous
 62
     7
370
    25
100
AcDbLine
 10
152.3212079843
 20
210.3449382579
 30
0.0
 11
154.8693817914
 21
202.7916322796
 31
0.0
  0
LINE
  5
2AD
330
1F
100
AcDbEntity
  8
0
  6
Continuous
 62
     7
370
    25
100
AcDbLine
 10
153.7045765102
 20
202.8407983097
 30
0.0
 11
153.1645016232
 21
204.4699048796
 31
0.0
  0
LINE
  5
2AE
330
1F
100
AcDbEntity
  8
0
  6
Continuous
 62
     7
370
    25
100
AcDbLine
 10
153.1645016232
 20
204.4699048796
 30
0.0
 11
149.749544484
 21
204.6127057121
 31
0.0
  0
LINE
  5
2AF
330
1F
100
AcDbEntity
  8
0
  6
Continuous
 62
     7
370
    25
100
AcDbLine
 10
149.749544484
 20
204.6127057121
 30
0.0
 11
149.0484318861
 21
203.0366893781
 31
0.0
  0
LINE
  5
2B0
330
1F
100
AcDbEntity
  8
0
  6
Continuous
 62
     7
370
    25
100
AcDbLine
 10
149.0484318861
 20
203.0366893781
 30
0.0
 11
147.8814534415
 21
203.0848157267
 31
0.0
  0
LINE
  5
2B1
330
1F
100
AcDbEntity
  8
0
  6
Continuous
 62
     7
370
    25
100
AcDbLine
 10
147.8814534415
 20
203.0848157267
 30
0.0
 11
151.0593935186
 21
210.3985344087
 31
0.0
  0
LINE
  5
2B2
330
1F
100
AcDbEntity
  8
0
  6
Continuous
 62
     7
370
    25
100
AcDbLine
 10
147.8814534415
 20
203.0848157267
 30
0.0
 11
147.619274295
 21
202.92050197
 31
0.0
  0
LINE
  5
2B3
330
1F
100
AcDbEntity
  8
0
  6
Continuous
 62
     7
370
    25
100
AcDbLine
 10
147.619274295
 20
202.92050197
 30
0.0
 11
150.9467891659
 21
210.5784524304
 31
0.0
  0
LINE
  5
2B4
330
1F
100
AcDbEntity
  8
0
  6
Continuous
 62
     7
370
    25
100
AcDbLine
 10
149.0484318861
 20
203.0366893781
 30
0.0
 11
149.1599885669
 21
202.8569627055
 31
0.0
  0
LINE
  5
2B5
330
1F
100
AcDbEntity
  8
0
  6
Continuous
 62
     7
370
    25
100
AcDbLine
 10
149.1599885669
 20
202.8569627055
 30
0.0
 11
147.619274295
 21
202.92050197
 31
0.0
  0
LINE
  5
2B6
330
1F
100
AcDbEntity
  8
0
  6
Continuous
 62
     7
370
    25
100
AcDbLine
 10
149.749544484
 20
204.6127057121
 30
0.0
 11
149.8610712671
 21
204.4329118329
 31
0.0
  0
LINE
  5
2B7
330
1F
100
AcDbEntity
  8
0
  6
Continuous
 62
     7
370
    25
100
AcDbLine
 10
149.8610712671
 20
204.4329118329
 30
0.0
 11
149.1599885669
 21
202.8569627055
 31
0.0
  0
LINE
  5
2B8
330
1F
100
AcDbEntity
  8
0
  6
Continuous
 62
     7
370
    25
100
AcDbLine
 10
153.1645016232
 20
204.4699048796
 30
0.0
 11
153.0364428651
 21
204.3001295784
 31
0.0
  0
LINE
  5
2B9
330
1F
100
AcDbEntity
  8
0
  6
Continuous
 62
     7
370
    25
100
AcDbLine
 10
153.0364428651
 20
204.3001295784
 30
0.0
 11
149.8610712671
 21
204.4329118329
 31
0.0
  0
LINE
  5
2BA
330
1F
100
AcDbEntity
  8
0
  6
Continuous
 62
     7
370
    25
100
AcDbLine
 10
153.5765017867
 20
202.6710711674
 30
0.0
 11
153.0364428651
 21
204.3001295784
 31
0.0
  0
LWPOLYLINE
  5
2BB
330
1F
100
AcDbEntity
  8
0
  6
Continuous
 62
     7
370
    25
100
AcDbPolyline
 90
        3
 70
   128
 43
0.0
 10
151.1398254396
 20
211.9485774487
 10
151.2255875568
 20
211.9451359878
 10
151.3148714167
 20
211.9415483338
  0
SPLINE
  5
2BC
330
1F
100
AcDbEntity
  8
0
  6
Continuous
 62
     7
370
    25
100
AcDbSpline
210
0.0
220
0.0
230
1.0
 70
     8
 71
     3
 72
    18
 73
    14
 74
     0
 42
0.00000001
 43
0.00000001
 40
0.0071528918030587
 40
0.0071528918030587
 40
0.0071528918030587
 40
0.0071528918030587
 40
0.125
 40
0.125
 40
0.25
 40
0.25
 40
0.5
 40
0.5
 40
0.75
 40
0.75
 40
0.875
 40
0.875
 40
0.9928800816133719
 40
0.9928800816133719
 40
0.9928800816133719
 40
0.9928800816133719
 10
150.5781235585875
 20
212.5542754394093
 30
0.0
 10
150.6242795847227
 20
212.5501297891939
 30
0.0
 10
150.6643576568052
 20
212.5460079135794
 30
0.0
 10
150.7334801525641
 20
212.5317714278517
 30
0.0
 10
150.7683502659867
 20
212.5202077698362
 30
0.0
 10
150.8697107292878
 20
212.4738085881604
 30
0.0
 10
150.9316395311334
 20
212.427415276568
 30
0.0
 10
151.0396358792033
 20
212.3105125441874
 30
0.0
 10
151.0800428006815
 20
212.2463139623859
 30
0.0
 10
151.1201048291192
 20
212.1384223691537
 30
0.0
 10
151.1294134297647
 20
212.102489708464
 30
0.0
 10
151.1384264702669
 20
212.03467556123
 30
0.0
 10
151.1393860664244
 20
211.9949090626238
 30
0.0
 10
151.139825439647
 20
211.9485774486766
 30
0.0
  0
SPLINE
  5
2BD
330
1F
100
AcDbEntity
  8
0
  6
Continuous
 62
     7
370
    25
100
AcDbSpline
210
0.0
220
0.0
230
1.0
 70
     8
 71
     3
 72
    18
 73
    14
 74
     0
 42
0.00000001
 43
0.00000001
 40
0.0
 40
0.0
 40
0.0
 40
0.0
 40
0.125
 40
0.125
 40
0.25
 40
0.25
 40
0.5
 40
0.5
 40
0.75
 40
0.75
 40
0.875
 40
0.875
 40
1.0
 40
1.0
 40
1.0
 40
1.0
 10
150.5851107174252
 20
212.7293243301938
 30
0.0
 10
150.6348065697519
 20
212.7249167799554
 30
0.0
 10
150.6845024183467
 20
212.7205089757325
 30
0.0
 10
150.7818942617295
 20
212.7004500020614
 30
0.0
 10
150.8296005573875
 20
212.684608687257
 30
0.0
 10
150.9657009947553
 20
212.6223067994769
 30
0.0
 10
151.0464940000589
 20
212.5609498314687
 30
0.0
 10
151.1818349011552
 20
212.4144474878682
 30
0.0
 10
151.2360392432278
 20
212.3288690530024
 30
0.0
 10
151.2881577861033
 20
212.1885079120605
 30
0.0
 10
151.3009571813714
 20
212.1399004132184
 30
0.0
 10
151.3140510663241
 20
212.0413831126693
 30
0.0
 10
151.3144613781131
 20
211.9914657129555
 30
0.0
 10
151.3148714167006
 20
211.9415483338291
 30
0.0
  0
LINE
  5
2BE
330
1F
100
AcDbEntity
  8
0
  6
Continuous
 62
     7
370
    25
100
AcDbLine
 10
152.4486165675
 20
210.5146616195
 30
0.0
 11
155.1166518024
 21
202.6060619652
 31
0.0
  0
LINE
  5
2BF
330
1F
100
AcDbEntity
  8
0
  6
Continuous
 62
     7
370
    25
100
AcDbLine
 10
169.7789680594
 20
203.0763102457
 30
0.0
 11
169.8494064442
 21
203.6244062612
 31
0.0
  0
LINE
  5
2C0
330
1F
100
AcDbEntity
  8
0
  6
Continuous
 62
     7
370
    25
100
AcDbLine
 10
169.8494064442
 20
203.6244062612
 30
0.0
 11
172.3544511748
 21
208.810230663
 31
0.0
  0
LINE
  5
2C1
330
1F
100
AcDbEntity
  8
0
  6
Continuous
 62
     7
370
    25
100
AcDbLine
 10
151.6422370512
 20
208.9672611574
 30
0.0
 11
151.6214494608
 21
208.4828377219
 31
0.0
  0
LINE
  5
2C2
330
1F
100
AcDbEntity
  8
0
  6
Continuous
 62
     7
370
    25
100
AcDbLine
 10
152.7879883622
 20
205.5816600384
 30
0.0
 11
152.5404639809
 21
205.7672252172
 31
0.0
  0
LINE
  5
2C3
330
1F
100
AcDbEntity
  8
0
  6
Continuous
 62
     7
370
    25
100
AcDbLine
 10
152.5404639809
 20
205.7672252172
 30
0.0
 11
151.6214494608
 21
208.4828377219
 31
0.0
  0
LINE
  5
2C4
330
1F
100
AcDbEntity
  8
0
  6
Continuous
 62
     7
370
    25
100
AcDbLine
 10
150.2098198731
 20
205.6903231009
 30
0.0
 11
150.4724983988
 21
205.8543845608
 31
0.0
  0
LINE
  5
2C5
330
1F
100
AcDbEntity
  8
0
  6
Continuous
 62
     7
370
    25
100
AcDbLine
 10
151.6214494608
 20
208.4828377219
 30
0.0
 11
150.4724983988
 21
205.8543845608
 31
0.0
  0
LINE
  5
2C6
330
1F
100
AcDbEntity
  8
0
  6
Continuous
 62
     7
370
    25
100
AcDbLine
 10
150.4724983988
 20
205.8543845608
 30
0.0
 11
152.5404639809
 21
205.7672252172
 31
0.0
  0
LINE
  5
2C7
330
1F
100
AcDbEntity
  8
0
  6
Continuous
 62
     7
370
    25
100
AcDbLine
 10
178.2058598494
 20
207.7530524353
 30
0.0
 11
178.0639332178
 21
207.9557578866
 31
0.0
  0
LINE
  5
2C8
330
1F
100
AcDbEntity
  8
0
  6
Continuous
 62
     7
370
    25
100
AcDbLine
 10
176.9090540604
 20
200.4003314029
 30
0.0
 11
176.7063437718
 21
200.2584013844
 31
0.0
  0
LINE
  5
2C9
330
1F
100
AcDbEntity
  8
0
  6
Continuous
 62
     7
370
    25
100
AcDbLine
 10
176.7063437718
 20
200.2584013844
 30
0.0
 11
178.0639332178
 21
207.9557578866
 31
0.0
  0
SPLINE
  5
2CA
330
1F
100
AcDbEntity
  8
0
  6
Continuous
 62
     7
370
    25
100
AcDbSpline
210
0.0
220
0.0
230
1.0
 70
     8
 71
     3
 72
    18
 73
    14
 74
     0
 42
0.00000001
 43
0.00000001
 40
0.0070978686557772
 40
0.0070978686557772
 40
0.0070978686557772
 40
0.0070978686557772
 40
0.125
 40
0.125
 40
0.25
 40
0.25
 40
0.4999999999999999
 40
0.4999999999999999
 40
0.7499999999999999
 40
0.7499999999999999
 40
0.8749999999999999
 40
0.8749999999999999
 40
0.992611909338877
 40
0.992611909338877
 40
0.992611909338877
 40
0.992611909338877
 10
151.139825439647
 20
211.9485774486767
 30
0.0
 10
151.1356534585219
 20
211.9021777363234
 30
0.0
 10
151.1315054252829
 20
211.8619115036464
 30
0.0
 10
151.1171374507519
 20
211.7924700309484
 30
0.0
 10
151.1054812902136
 20
211.7574979441061
 30
0.0
 10
151.058933874346
 20
211.657193780934
 30
0.0
 10
151.0096695981628
 20
211.5910568741903
 30
0.0
 10
150.8958935705822
 20
211.4858665871472
 30
0.0
 10
150.8298112833661
 20
211.4455142197904
 30
0.0
 10
150.7200121692924
 20
211.4052678802264
 30
0.0
 10
150.6840829318714
 20
211.3960061032554
 30
0.0
 10
150.6153768711151
 20
211.3870133991894
 30
0.0
 10
150.5753371144235
 20
211.3860475882444
 30
0.0
 10
150.5288928993451
 20
211.3855920177481
 30
0.0
  0
SPLINE
  5
2CB
330
1F
100
AcDbEntity
  8
0
  6
Continuous
 62
     7
370
    25
100
AcDbSpline
210
0.0
220
0.0
230
1.0
 70
     8
 71
     3
 72
    18
 73
    14
 74
     0
 42
0.00000001
 43
0.00000001
 40
0.0
 40
0.0
 40
0.0
 40
0.0
 40
0.125
 40
0.125
 40
0.25
 40
0.25
 40
0.4999999999999999
 40
0.4999999999999999
 40
0.7499999999999999
 40
0.7499999999999999
 40
0.8749999999999999
 40
0.8749999999999999
 40
0.9999999999999999
 40
0.9999999999999999
 40
0.9999999999999999
 40
0.9999999999999999
 10
151.3148714167006
 20
211.9415483338291
 30
0.0
 10
151.3104382246273
 20
211.8916185332442
 30
0.0
 10
151.3060047778693
 20
211.8416887371679
 30
0.0
 10
151.2857539641668
 20
211.743815683196
 30
0.0
 10
151.2697774758799
 20
211.6958591874343
 30
0.0
 10
151.2065000773963
 20
211.5595038829215
 30
0.0
 10
151.1451080957972
 20
211.4779733624498
 30
0.0
 10
150.9980250275021
 20
211.3419894469934
 30
0.0
 10
150.9110122996585
 20
211.2889164757383
 30
0.0
 10
150.7697404592627
 20
211.2371339937953
 30
0.0
 10
150.7208927442451
 20
211.2243543292167
 30
0.0
 10
150.6218916733724
 20
211.2113962704937
 30
0.0
 10
150.5717243739852
 20
211.2109682658578
 30
0.0
 10
150.521557095196
 20
211.2105405278926
 30
0.0
  0
LINE
  5
2CC
330
1F
100
AcDbEntity
  8
0
  6
Continuous
 62
     7
370
    25
100
AcDbLine
 10
161.7149344175
 20
207.7545371974
 30
0.0
 11
161.5403706344
 21
207.7674114576
 31
0.0
  0
SPLINE
  5
2CD
330
1F
100
AcDbEntity
  8
0
  6
Continuous
 62
     7
370
    25
100
AcDbSpline
210
0.0
220
0.0
230
1.0
 70
     8
 71
     3
 72
    32
 73
    28
 74
     0
 42
0.00000001
 43
0.00000001
 40
0.0
 40
0.0
 40
0.0
 40
0.0
 40
0.125
 40
0.125
 40
0.25
 40
0.25
 40
0.3125
 40
0.3125
 40
0.375
 40
0.375
 40
0.5
 40
0.5
 40
0.5625
 40
0.5625
 40
0.625
 40
0.625
 40
0.6875
 40
0.6875
 40
0.75
 40
0.75
 40
0.8125
 40
0.8125
 40
0.875
 40
0.875
 40
0.9375
 40
0.9375
 40
1.0
 40
1.0
 40
1.0
 40
1.0
 10
160.2246604774726
 20
207.0682791001216
 30
0.0
 10
160.2960109548496
 20
207.0626326337609
 30
0.0
 10
160.3673629428614
 20
207.0571985536298
 30
0.0
 10
160.5103703162332
 20
207.0527514193209
 30
0.0
 10
160.5820079466586
 20
207.0518831828875
 30
0.0
 10
160.6892948154205
 20
207.0542782130091
 30
0.0
 10
160.7250140001775
 20
207.0561840830374
 30
0.0
 10
160.7963331368101
 20
207.0620226690304
 30
0.0
 10
160.831953360465
 20
207.065676333407
 30
0.0
 10
160.9385406650573
 20
207.0784673468775
 30
0.0
 10
161.0092550197279
 20
207.0913453273275
 30
0.0
 10
161.1117198733058
 20
207.1233436391012
 30
0.0
 10
161.1453691635614
 20
207.1358483682553
 30
0.0
 10
161.210401219517
 20
207.1658742083139
 30
0.0
 10
161.241341291461
 20
207.1841059506097
 30
0.0
 10
161.2990622199277
 20
207.2265531012895
 30
0.0
 10
161.3261956645287
 20
207.2501193809355
 30
0.0
 10
161.375570520217
 20
207.3019455801871
 30
0.0
 10
161.3978231843304
 20
207.3302133537127
 30
0.0
 10
161.4368548572944
 20
207.3902588637039
 30
0.0
 10
161.4533549148376
 20
207.4221551377289
 30
0.0
 10
161.4812001827334
 20
207.4881299222939
 30
0.0
 10
161.4928733542172
 20
207.5220150138397
 30
0.0
 10
161.5128322917233
 20
207.5907577866447
 30
0.0
 10
161.5211839414929
 20
207.6256500775387
 30
0.0
 10
161.5332236266383
 20
207.6961599342212
 30
0.0
 10
161.5367988968129
 20
207.7317856560055
 30
0.0
 10
161.5403706344192
 20
207.7674114576069
 30
0.0
  0
LINE
  5
2CE
330
1F
100
AcDbEntity
  8
0
  6
Continuous
 62
     7
370
    25
100
AcDbLine
 10
181.3774204636
 20
203.1840837666
 30
0.0
 11
181.519318599
 21
202.9813839696
 31
0.0
  0
LINE
  5
2CF
330
1F
100
AcDbEntity
  8
0
  6
Continuous
 62
     7
370
    25
100
AcDbLine
 10
181.5650326419
 20
204.2467891022
 30
0.0
 11
181.7677716483
 21
204.3887146857
 31
0.0
  0
LINE
  5
2D0
330
1F
100
AcDbEntity
  8
0
  6
Continuous
 62
     7
370
    25
100
AcDbLine
 10
181.7677716483
 20
204.3887146857
 30
0.0
 11
181.519318599
 21
202.9813839696
 31
0.0
  0
SPLINE
  5
2D1
330
1F
100
AcDbEntity
  8
0
  6
Continuous
 62
     7
370
    25
100
AcDbSpline
210
0.0
220
0.0
230
1.0
 70
     8
 71
     3
 72
    18
 73
    14
 74
     0
 42
0.00000001
 43
0.00000001
 40
0.0074331219770006
 40
0.0074331219770006
 40
0.0074331219770006
 40
0.0074331219770006
 40
0.125
 40
0.125
 40
0.25
 40
0.25
 40
0.5
 40
0.5
 40
0.75
 40
0.75
 40
0.875
 40
0.875
 40
0.9919166179991441
 40
0.9919166179991441
 40
0.9919166179991441
 40
0.9919166179991441
 10
152.8724664681127
 20
211.2870826541682
 30
0.0
 10
152.8265583348545
 20
211.2913922959236
 30
0.0
 10
152.787212253549
 20
211.2956753814677
 30
0.0
 10
152.7205589339069
 20
211.3103177378459
 30
0.0
 10
152.6857641382237
 20
211.3225206847393
 30
0.0
 10
152.5839493745034
 20
211.3710555090507
 30
0.0
 10
152.5221451561127
 20
211.4182476383256
 30
0.0
 10
152.4163679012983
 20
211.5351380279274
 30
0.0
 10
152.3738077768023
 20
211.6032332559311
 30
0.0
 10
152.3360933231548
 20
211.7066945782636
 30
0.0
 10
152.3273605279883
 20
211.7425519004798
 30
0.0
 10
152.3183459002238
 20
211.8134820973214
 30
0.0
 10
152.3171032028258
 20
211.8536403032411
 30
0.0
 10
152.3162536229246
 20
211.8994741759254
 30
0.0
  0
LWPOLYLINE
  5
2D2
330
1F
100
AcDbEntity
  8
0
  6
Continuous
 62
     7
370
    25
100
AcDbPolyline
 90
        3
 70
   128
 43
0.0
 10
152.8724664681
 20
211.2870826542
 10
152.8689041698
 20
211.2020966675
 10
152.865130664
 20
211.1120311643
  0
SPLINE
  5
2D3
330
1F
100
AcDbEntity
  8
0
  6
Continuous
 62
     7
370
    25
100
AcDbSpline
210
0.0
220
0.0
230
1.0
 70
     8
 71
     3
 72
    18
 73
    14
 74
     0
 42
0.00000001
 43
0.00000001
 40
0.0
 40
0.0
 40
0.0
 40
0.0
 40
0.125
 40
0.125
 40
0.25
 40
0.25
 40
0.5
 40
0.5
 40
0.75
 40
0.75
 40
0.875
 40
0.875
 40
1.0
 40
1.0
 40
1.0
 40
1.0
 10
152.8651306639669
 20
211.1120311643115
 30
0.0
 10
152.8154936574908
 20
211.1166239404331
 30
0.0
 10
152.7658566545154
 20
211.12121699119
 30
0.0
 10
152.6688698246736
 20
211.1425231454068
 30
0.0
 10
152.6215192678915
 20
211.1593046232796
 30
0.0
 10
152.4865574508713
 20
211.2236405484326
 30
0.0
 10
152.4063162040706
 20
211.2854672441547
 30
0.0
 10
152.2727142575131
 20
211.4331056405198
 30
0.0
 10
152.2183834901853
 20
211.5186962240445
 30
0.0
 10
152.1672122733224
 20
211.6590731987395
 30
0.0
 10
152.1553847691311
 20
211.7078604357649
 30
0.0
 10
152.1428582629285
 20
211.8064224297572
 30
0.0
 10
152.141994570852
 20
211.856225388974
 30
0.0
 10
152.1411311207651
 20
211.9060283363013
 30
0.0
  0
SPLINE
  5
2D4
330
1F
100
AcDbEntity
  8
0
  6
Continuous
 62
     7
370
    25
100
AcDbSpline
210
0.0
220
0.0
230
1.0
 70
     8
 71
     3
 72
    18
 73
    14
 74
     0
 42
0.00000001
 43
0.00000001
 40
0.007097868655889
 40
0.007097868655889
 40
0.007097868655889
 40
0.007097868655889
 40
0.125
 40
0.125
 40
0.25
 40
0.25
 40
0.5
 40
0.5
 40
0.75
 40
0.75
 40
0.875
 40
0.875
 40
0.9926119093410898
 40
0.9926119093410898
 40
0.9926119093410898
 40
0.9926119093410898
 10
153.4833990084177
 20
211.8500680850961
 30
0.0
 10
153.4792270272913
 20
211.8036683727426
 30
0.0
 10
153.4750789940537
 20
211.7634021400672
 30
0.0
 10
153.460711019523
 20
211.6939606673669
 30
0.0
 10
153.4490548589839
 20
211.6589885805267
 30
0.0
 10
153.4025074431182
 20
211.5586844173515
 30
0.0
 10
153.3532431669338
 20
211.4925475106109
 30
0.0
 10
153.2394671393529
 20
211.3873572235657
 30
0.0
 10
153.1733848521289
 20
211.34700485621
 30
0.0
 10
153.0635857380677
 20
211.3067585166461
 30
0.0
 10
153.0276565006361
 20
211.297496739676
 30
0.0
 10
152.9589504398916
 20
211.2885040356083
 30
0.0
 10
152.918910683189
 20
211.287538224667
 30
0.0
 10
152.8724664681126
 20
211.2870826541683
 30
0.0
  0
LWPOLYLINE
  5
2D5
330
1F
100
AcDbEntity
  8
0
  6
Continuous
 62
     7
370
    25
100
AcDbPolyline
 90
        3
 70
   128
 43
0.0
 10
153.4833990084
 20
211.8500680851
 10
153.5691611255
 20
211.8466266242
 10
153.6584449855
 20
211.8430389702
  0
SPLINE
  5
2D6
330
1F
100
AcDbEntity
  8
0
  6
Continuous
 62
     7
370
    25
100
AcDbSpline
210
0.0
220
0.0
230
1.0
 70
     8
 71
     3
 72
    18
 73
    14
 74
     0
 42
0.00000001
 43
0.00000001
 40
0.0
 40
0.0
 40
0.0
 40
0.0
 40
0.125
 40
0.125
 40
0.25
 40
0.25
 40
0.5
 40
0.5
 40
0.75
 40
0.75
 40
0.875
 40
0.875
 40
1.0
 40
1.0
 40
1.0
 40
1.0
 10
153.6584449854715
 20
211.8430389702487
 30
0.0
 10
153.6540117933957
 20
211.7931091696647
 30
0.0
 10
153.64957834664
 20
211.7431793735869
 30
0.0
 10
153.629327532938
 20
211.6453063196163
 30
0.0
 10
153.6133510446505
 20
211.5973498238548
 30
0.0
 10
153.550073646168
 20
211.4609945193392
 30
0.0
 10
153.4886816645664
 20
211.3794639988687
 30
0.0
 10
153.3415985962747
 20
211.2434800834137
 30
0.0
 10
153.2545858684297
 20
211.1904071121607
 30
0.0
 10
153.1133140280335
 20
211.1386246302135
 30
0.0
 10
153.0644663130152
 20
211.1258449656381
 30
0.0
 10
152.9654652421441
 20
211.1128869069115
 30
0.0
 10
152.9152979427555
 20
211.112458902281
 30
0.0
 10
152.8651306639669
 20
211.1120311643123
 30
0.0
  0
SPLINE
  5
2D7
330
1F
100
AcDbEntity
  8
0
  6
Continuous
 62
     7
370
    25
100
AcDbSpline
210
0.0
220
0.0
230
1.0
 70
     8
 71
     3
 72
    18
 73
    14
 74
     0
 42
0.00000001
 43
0.00000001
 40
0.0071528918027275
 40
0.0071528918027275
 40
0.0071528918027275
 40
0.0071528918027275
 40
0.125
 40
0.125
 40
0.25
 40
0.25
 40
0.5
 40
0.5
 40
0.75
 40
0.75
 40
0.875
 40
0.875
 40
0.9928800816137416
 40
0.9928800816137416
 40
0.9928800816137416
 40
0.9928800816137416
 10
152.9216971273582
 20
212.4557660758288
 30
0.0
 10
152.9678531534938
 20
212.4516204256128
 30
0.0
 10
153.0079312255758
 20
212.4474985499992
 30
0.0
 10
153.0770537213349
 20
212.4332620642714
 30
0.0
 10
153.111923834754
 20
212.421698406255
 30
0.0
 10
153.2132842980664
 20
212.3752992245816
 30
0.0
 10
153.2752130999073
 20
212.3289059129841
 30
0.0
 10
153.3832094479712
 20
212.2120031806108
 30
0.0
 10
153.4236163694508
 20
212.1478045988086
 30
0.0
 10
153.4636783978909
 20
212.0399130055717
 30
0.0
 10
153.4729869985355
 20
212.0039803448856
 30
0.0
 10
153.482000039038
 20
211.9361661976477
 30
0.0
 10
153.4829596351938
 20
211.8963996990446
 30
0.0
 10
153.4833990084177
 20
211.850068085096
 30
0.0
  0
SPLINE
  5
2D8
330
1F
100
AcDbEntity
  8
0
  6
Continuous
 62
     7
370
    25
100
AcDbSpline
210
0.0
220
0.0
230
1.0
 70
     8
 71
     3
 72
    18
 73
    14
 74
     0
 42
0.00000001
 43
0.00000001
 40
0.0
 40
0.0
 40
0.0
 40
0.0
 40
0.125
 40
0.125
 40
0.25
 40
0.25
 40
0.5
 40
0.5
 40
0.75
 40
0.75
 40
0.875
 40
0.875
 40
1.0
 40
1.0
 40
1.0
 40
1.0
 10
152.9286842861961
 20
212.6308149666135
 30
0.0
 10
152.9783801385231
 20
212.6264074163757
 30
0.0
 10
153.0280759871173
 20
212.6219996121523
 30
0.0
 10
153.1254678305008
 20
212.6019406384809
 30
0.0
 10
153.1731741261574
 20
212.5860993236748
 30
0.0
 10
153.3092745635284
 20
212.5237974359002
 30
0.0
 10
153.3900675688304
 20
212.4624404678881
 30
0.0
 10
153.5254084699256
 20
212.3159381242882
 30
0.0
 10
153.5796128119974
 20
212.2303596894225
 30
0.0
 10
153.6317313548749
 20
212.0899985484798
 30
0.0
 10
153.6445307501426
 20
212.041391049638
 30
0.0
 10
153.6576246350947
 20
211.9428737490891
 30
0.0
 10
153.6580349468823
 20
211.892956349375
 30
0.0
 10
153.6584449854715
 20
211.8430389702487
 30
0.0
  0
LINE
  5
2D9
330
1F
100
AcDbEntity
  8
0
  6
Continuous
 62
     7
370
    25
100
AcDbLine
 10
106.4868260204
 20
204.1967626769
 30
0.0
 11
106.6266075096
 21
204.4009375861
 31
0.0
  0
LINE
  5
2DA
330
1F
100
AcDbEntity
  8
0
  6
Continuous
 62
     7
370
    25
100
AcDbLine
 10
106.6266075096
 20
204.4009375861
 30
0.0
 11
108.9924354565
 21
204.843696058
 31
0.0
  0
LINE
  5
2DB
330
1F
100
AcDbEntity
  8
0
  6
Continuous
 62
     7
370
    25
100
AcDbLine
 10
106.365581452
 20
205.7947086372
 30
0.0
 11
106.6266075096
 21
204.4009375861
 31
0.0
  0
LINE
  5
2DC
330
1F
100
AcDbEntity
  8
0
  6
Continuous
 62
     7
370
    25
100
AcDbLine
 10
180.7661789185
 20
199.7201418499
 30
0.0
 11
180.9080982192
 21
199.5174376914
 31
0.0
  0
LINE
  5
2DD
330
1F
100
AcDbEntity
  8
0
  6
Continuous
 62
     7
370
    25
100
AcDbLine
 10
180.959238914
 20
200.8144948483
 30
0.0
 11
181.1619566418
 21
200.9564241842
 31
0.0
  0
LINE
  5
2DE
330
1F
100
AcDbEntity
  8
0
  6
Continuous
 62
     7
370
    25
100
AcDbLine
 10
181.1619566418
 20
200.9564241842
 30
0.0
 11
180.9080982192
 21
199.5174376914
 31
0.0
  0
LINE
  5
2DF
330
1F
100
AcDbEntity
  8
0
  6
Continuous
 62
     7
370
    25
100
AcDbLine
 10
161.0860584355
 20
205.7987784752
 30
0.0
 11
161.3259340492
 21
205.6842146917
 31
0.0
  0
SPLINE
  5
2E0
330
1F
100
AcDbEntity
  8
0
  6
Continuous
 62
     7
370
    25
100
AcDbSpline
210
0.0
220
0.0
230
1.0
 70
     8
 71
     3
 72
    28
 73
    24
 74
     0
 42
0.00000001
 43
0.00000001
 40
0.0
 40
0.0
 40
0.0
 40
0.0
 40
0.125
 40
0.125
 40
0.1875
 40
0.1875
 40
0.25
 40
0.25
 40
0.3125
 40
0.3125
 40
0.375
 40
0.375
 40
0.5
 40
0.5
 40
0.625
 40
0.625
 40
0.6875
 40
0.6875
 40
0.75
 40
0.75
 40
0.875
 40
0.875
 40
1.0
 40
1.0
 40
1.0
 40
1.0
 10
162.9782610630645
 20
207.6337177773005
 30
0.0
 10
162.9667093095433
 20
207.5196141663685
 30
0.0
 10
162.9536375461788
 20
207.4053903691995
 30
0.0
 10
162.919019152251
 20
207.2367676788183
 30
0.0
 10
162.9053855205507
 20
207.1810094977964
 30
0.0
 10
162.8745123419932
 20
207.0704764231937
 30
0.0
 10
162.8574196206901
 20
207.0156448829748
 30
0.0
 10
162.818484647181
 20
206.9077101716652
 30
0.0
 10
162.7964503221121
 20
206.8546719156767
 30
0.0
 10
162.7481615173356
 20
206.7505484042414
 30
0.0
 10
162.7220079822719
 20
206.6994290807777
 30
0.0
 10
162.6372535913683
 20
206.5496029169417
 30
0.0
 10
162.571921378988
 20
206.4545480277556
 30
0.0
 10
162.4219855634283
 20
206.2807681897289
 30
0.0
 10
162.3387480314295
 20
206.2011305338741
 30
0.0
 10
162.2055090239988
 20
206.092078413099
 30
0.0
 10
162.1594603232279
 20
206.0577367028
 30
0.0
 10
162.0638962723978
 20
205.9942104185384
 30
0.0
 10
162.0145537002087
 20
205.9647803082102
 30
0.0
 10
161.8639560322342
 20
205.8814154568674
 30
0.0
 10
161.7600736919206
 20
205.8321386585811
 30
0.0
 10
161.5466019422968
 20
205.747763955017
 30
0.0
 10
161.4364035508405
 20
205.7151335802712
 30
0.0
 10
161.3259340492266
 20
205.6842146916737
 30
0.0
  0
SPLINE
  5
2E1
330
1F
100
AcDbEntity
  8
0
  6
Continuous
 62
     7
370
    25
100
AcDbSpline
210
0.0
220
0.0
230
1.0
 70
     8
 71
     3
 72
    38
 73
    34
 74
     0
 42
0.00000001
 43
0.00000001
 40
0.0
 40
0.0
 40
0.0
 40
0.0
 40
0.0625
 40
0.0625
 40
0.125
 40
0.125
 40
0.1875
 40
0.1875
 40
0.25
 40
0.25
 40
0.3125
 40
0.3125
 40
0.375
 40
0.375
 40
0.4375
 40
0.4375
 40
0.5
 40
0.5
 40
0.5625
 40
0.5625
 40
0.59375
 40
0.59375
 40
0.625
 40
0.625
 40
0.6875
 40
0.6875
 40
0.75
 40
0.75
 40
0.8125
 40
0.8125
 40
0.875
 40
0.875
 40
1.0
 40
1.0
 40
1.0
 40
1.0
 10
161.5403706344192
 20
207.7674114576069
 30
0.0
 10
161.5421038274048
 20
207.8040170993178
 30
0.0
 10
161.5438368033471
 20
207.8406227624141
 30
0.0
 10
161.5420219668354
 20
207.9137633020592
 30
0.0
 10
161.5382133221007
 20
207.9503566149968
 30
0.0
 10
161.5245803141955
 20
208.0223842891828
 30
0.0
 10
161.514702359348
 20
208.0577463024837
 30
0.0
 10
161.4901161913502
 20
208.1267746217917
 30
0.0
 10
161.4755734723957
 20
208.1605154857703
 30
0.0
 10
161.4417418901781
 20
208.2254732001037
 30
0.0
 10
161.4222986660272
 20
208.2566175144709
 30
0.0
 10
161.3789569271831
 20
208.3157080780319
 30
0.0
 10
161.3551727420539
 20
208.3437421541993
 30
0.0
 10
161.3035920954077
 20
208.3957600548491
 30
0.0
 10
161.2756552753719
 20
208.4195907504292
 30
0.0
 10
161.2164443280777
 20
208.4627641925353
 30
0.0
 10
161.1852885100608
 20
208.4822158091698
 30
0.0
 10
161.1207611161343
 20
208.5168739065327
 30
0.0
 10
161.0873882745228
 20
208.5321861173063
 30
0.0
 10
161.0358903090834
 20
208.5511804845655
 30
0.0
 10
161.0184663093931
 20
208.55678435083
 30
0.0
 10
160.9833883153687
 20
208.5672693816962
 30
0.0
 10
160.9657574828358
 20
208.5722167335193
 30
0.0
 10
160.9127527978825
 20
208.5865294798542
 30
0.0
 10
160.8771395346394
 20
208.5949597100383
 30
0.0
 10
160.8053999650737
 20
208.6095231272626
 30
0.0
 10
160.7693574957705
 20
208.6159751694925
 30
0.0
 10
160.6970960575196
 20
208.6276143713141
 30
0.0
 10
160.6608427547066
 20
208.6326101065375
 30
0.0
 10
160.5882181656018
 20
208.6417283381339
 30
0.0
 10
160.5518721612657
 20
208.6460519950591
 30
0.0
 10
160.4428105335113
 20
208.6586811255925
 30
0.0
 10
160.3699218962198
 20
208.6652702670577
 30
0.0
 10
160.296976294551
 20
208.6713992438624
 30
0.0
  0
LINE
  5
2E2
330
1F
100
AcDbEntity
  8
0
  6
Continuous
 62
     7
370
    25
100
AcDbLine
 10
181.519318599
 20
202.9813839696
 30
0.0
 11
178.7723785327
 21
203.4657865535
 31
0.0
  0
LINE
  5
2E3
330
1F
100
AcDbEntity
  8
0
  6
Continuous
 62
     7
370
    25
100
AcDbLine
 10
180.9080982192
 20
199.5174376914
 30
0.0
 11
176.7063437718
 21
200.2584013844
 31
0.0
  0
LINE
  5
2E4
330
1F
100
AcDbEntity
  8
0
  6
Continuous
 62
     7
370
    25
100
AcDbLine
 10
168.591261314
 20
209.1096223114
 30
0.0
 11
168.7385620505
 21
209.2672729954
 31
0.0
  0
LINE
  5
2E5
330
1F
100
AcDbEntity
  8
0
  6
Continuous
 62
     7
370
    25
100
AcDbLine
 10
168.7385620505
 20
209.2672729954
 30
0.0
 11
169.8494064442
 21
203.6244062612
 31
0.0
  0
LINE
  5
2E6
330
1F
100
AcDbEntity
  8
0
  6
Continuous
 62
     7
370
    25
100
AcDbLine
 10
165.1991065579
 20
202.0033471406
 30
0.0
 11
164.971032746
 21
201.8558088724
 31
0.0
  0
LINE
  5
2E7
330
1F
100
AcDbEntity
  8
0
  6
Continuous
 62
     7
370
    25
100
AcDbLine
 10
166.2880880008
 20
201.8656851314
 30
0.0
 11
166.4122331904
 21
201.6736216091
 31
0.0
  0
LINE
  5
2E8
330
1F
100
AcDbEntity
  8
0
  6
Continuous
 62
     7
370
    25
100
AcDbLine
 10
166.4122331904
 20
201.6736216091
 30
0.0
 11
164.971032746
 21
201.8558088724
 31
0.0
  0
LINE
  5
2E9
330
1F
100
AcDbEntity
  8
0
  6
Continuous
 62
     7
370
    25
100
AcDbLine
 10
113.8067962312
 20
201.8889753889
 30
0.0
 11
113.9559875765
 21
202.0862779461
 31
0.0
  0
LINE
  5
2EA
330
1F
100
AcDbEntity
  8
0
  6
Continuous
 62
     7
370
    25
100
AcDbLine
 10
113.9559875765
 20
202.0862779461
 30
0.0
 11
116.7328805998
 21
202.4707488988
 31
0.0
  0
LINE
  5
2EB
330
1F
100
AcDbEntity
  8
0
  6
Continuous
 62
     7
370
    25
100
AcDbLine
 10
113.6709075503
 20
204.1335389155
 30
0.0
 11
113.9559875765
 21
202.0862779461
 31
0.0
  0
LINE
  5
2EC
330
1F
100
AcDbEntity
  8
0
  6
Continuous
 62
     7
370
    25
100
AcDbLine
 10
182.0630765996
 20
207.0728466775
 30
0.0
 11
182.2656876651
 21
207.2147941936
 31
0.0
  0
LINE
  5
2ED
330
1F
100
AcDbEntity
  8
0
  6
Continuous
 62
     7
370
    25
100
AcDbLine
 10
178.0639332178
 20
207.9557578866
 30
0.0
 11
182.2656876651
 21
207.2147941936
 31
0.0
  0
LINE
  5
2EE
330
1F
100
AcDbEntity
  8
0
  6
Continuous
 62
     7
370
    25
100
AcDbLine
 10
167.4171703945
 20
209.2589653827
 30
0.0
 11
167.2929517933
 21
209.4511530272
 31
0.0
  0
LINE
  5
2EF
330
1F
100
AcDbEntity
  8
0
  6
Continuous
 62
     7
370
    25
100
AcDbLine
 10
164.971032746
 20
201.8558088724
 30
0.0
 11
167.2929517933
 21
209.4511530272
 31
0.0
  0
LINE
  5
2F0
330
1F
100
AcDbEntity
  8
0
  6
Continuous
 62
     7
370
    25
100
AcDbLine
 10
178.8180815725
 20
204.7311936265
 30
0.0
 11
179.020831582
 21
204.8731172697
 31
0.0
  0
LINE
  5
2F1
330
1F
100
AcDbEntity
  8
0
  6
Continuous
 62
     7
370
    25
100
AcDbLine
 10
179.020831582
 20
204.8731172697
 30
0.0
 11
181.7677716483
 21
204.3887146857
 31
0.0
  0
LINE
  5
2F2
330
1F
100
AcDbEntity
  8
0
  6
Continuous
 62
     7
370
    25
100
AcDbLine
 10
178.4150165755
 20
201.4408267681
 30
0.0
 11
181.1619566418
 21
200.9564241842
 31
0.0
  0
LINE
  5
2F3
330
1F
100
AcDbEntity
  8
0
  6
Continuous
 62
     7
370
    25
100
AcDbLine
 10
167.9186598824
 20
207.1857706306
 30
0.0
 11
167.8820530488
 21
206.4692196465
 31
0.0
  0
LINE
  5
2F4
330
1F
100
AcDbEntity
  8
0
  6
Continuous
 62
     7
370
    25
100
AcDbLine
 10
168.8927300536
 20
201.3606449334
 30
0.0
 11
167.8820530488
 21
206.4692196465
 31
0.0
  0
LINE
  5
2F5
330
1F
100
AcDbEntity
  8
0
  6
Continuous
 62
     7
370
    25
100
AcDbLine
 10
181.8714959968
 20
205.9829398611
 30
0.0
 11
182.0135220111
 21
205.7802175136
 31
0.0
  0
LINE
  5
2F6
330
1F
100
AcDbEntity
  8
0
  6
Continuous
 62
     7
370
    25
100
AcDbLine
 10
182.2656876651
 20
207.2147941936
 30
0.0
 11
182.0135220111
 21
205.7802175136
 31
0.0
  0
LINE
  5
2F7
330
1F
100
AcDbEntity
  8
0
  6
Continuous
 62
     7
370
    25
100
AcDbLine
 10
167.8820530488
 20
206.4692196465
 30
0.0
 11
166.4122331904
 21
201.6736216091
 31
0.0
  0
LINE
  5
2F8
330
1F
100
AcDbEntity
  8
0
  6
Continuous
 62
     7
370
    25
100
AcDbLine
 10
179.1246948076
 20
206.4673179551
 30
0.0
 11
179.2665819448
 21
206.2646200975
 31
0.0
  0
LINE
  5
2F9
330
1F
100
AcDbEntity
  8
0
  6
Continuous
 62
     7
370
    25
100
AcDbLine
 10
182.0135220111
 20
205.7802175136
 30
0.0
 11
179.2665819448
 21
206.2646200975
 31
0.0
  0
LINE
  5
2FA
330
1F
100
AcDbEntity
  8
0
  6
Continuous
 62
     7
370
    25
100
AcDbLine
 10
179.2665819448
 20
206.2646200975
 30
0.0
 11
179.020831582
 21
204.8731172697
 31
0.0
  0
LINE
  5
2FB
330
1F
100
AcDbEntity
  8
0
  6
Continuous
 62
     7
370
    25
100
AcDbLine
 10
167.2929517933
 20
209.4511530272
 30
0.0
 11
168.7385620505
 21
209.2672729954
 31
0.0
  0
LINE
  5
2FC
330
1F
100
AcDbEntity
  8
0
  6
Continuous
 62
     7
370
    25
100
AcDbLine
 10
120.5487068915
 20
207.9805072611
 30
0.0
 11
120.7403437971
 21
206.3840034161
 31
0.0
  0
LINE
  5
2FD
330
1F
100
AcDbEntity
  8
0
  6
Continuous
 62
     7
370
    25
100
AcDbLine
 10
159.5681195947
 20
206.9459232521
 30
0.0
 11
159.7568608063
 21
207.1061816086
 31
0.0
  0
LINE
  5
2FE
330
1F
100
AcDbEntity
  8
0
  6
Continuous
 62
     7
370
    25
100
AcDbLine
 10
159.7282530841
 20
208.8939519133
 30
0.0
 11
159.8883011948
 21
208.7051578436
 31
0.0
  0
LINE
  5
2FF
330
1F
100
AcDbEntity
  8
0
  6
Continuous
 62
     7
370
    25
100
AcDbLine
 10
159.8883011948
 20
208.7051578436
 30
0.0
 11
159.7568608063
 21
207.1061816086
 31
0.0
  0
LINE
  5
300
330
1F
100
AcDbEntity
  8
0
  6
Continuous
 62
     7
370
    25
100
AcDbLine
 10
160.2969762946
 20
208.6713992439
 30
0.0
 11
159.8883011948
 21
208.7051578436
 31
0.0
  0
LINE
  5
301
330
1F
100
AcDbEntity
  8
0
  6
Continuous
 62
     7
370
    25
100
AcDbLine
 10
124.512050144
 20
202.1921622822
 30
0.0
 11
124.8221353738
 21
202.0529191593
 31
0.0
  0
LINE
  5
302
330
1F
100
AcDbEntity
  8
0
  6
Continuous
 62
     7
370
    25
100
AcDbLine
 10
122.562300578
 20
205.3000896979
 30
0.0
 11
124.8221353738
 21
202.0529191593
 31
0.0
  0
LINE
  5
303
330
1F
100
AcDbEntity
  8
0
  6
Continuous
 62
     7
370
    25
100
AcDbLine
 10
121.1333181597
 20
205.1392586247
 30
0.0
 11
121.0495507277
 21
204.9531855729
 31
0.0
  0
LINE
  5
304
330
1F
100
AcDbEntity
  8
0
  6
Continuous
 62
     7
370
    25
100
AcDbLine
 10
123.2833154207
 20
202.0456514345
 30
0.0
 11
123.1996326716
 21
201.8594565333
 31
0.0
  0
LINE
  5
305
330
1F
100
AcDbEntity
  8
0
  6
Continuous
 62
     7
370
    25
100
AcDbLine
 10
123.1996326716
 20
201.8594565333
 30
0.0
 11
121.0495507277
 21
204.9531855729
 31
0.0
  0
LINE
  5
306
330
1F
100
AcDbEntity
  8
0
  6
Continuous
 62
     7
370
    25
100
AcDbLine
 10
120.7172278355
 20
205.090171192
 30
0.0
 11
120.911761092
 21
204.9369301132
 31
0.0
  0
LINE
  5
307
330
1F
100
AcDbEntity
  8
0
  6
Continuous
 62
     7
370
    25
100
AcDbLine
 10
121.0495507277
 20
204.9531855729
 30
0.0
 11
120.911761092
 21
204.9369301132
 31
0.0
  0
LINE
  5
308
330
1F
100
AcDbEntity
  8
0
  6
Continuous
 62
     7
370
    25
100
AcDbLine
 10
121.1120198157
 20
201.7862643573
 30
0.0
 11
121.306524767
 21
201.633260157
 31
0.0
  0
LINE
  5
309
330
1F
100
AcDbEntity
  8
0
  6
Continuous
 62
     7
370
    25
100
AcDbLine
 10
120.911761092
 20
204.9369301132
 30
0.0
 11
121.306524767
 21
201.633260157
 31
0.0
  0
LINE
  5
30A
330
1F
100
AcDbEntity
  8
0
  6
Continuous
 62
     7
370
    25
100
AcDbLine
 10
159.7568608063
 20
207.1061816086
 30
0.0
 11
160.2246604775
 21
207.0682791001
 31
0.0
  0
LINE
  5
30B
330
1F
100
AcDbEntity
  8
0
  6
Continuous
 62
     7
370
    25
100
AcDbLine
 10
124.8221353738
 20
202.0529191593
 30
0.0
 11
123.1996326716
 21
201.8594565333
 31
0.0
  0
LINE
  5
30C
330
1F
100
AcDbEntity
  8
0
  6
Continuous
 62
     7
370
    25
100
AcDbLine
 10
121.306524767
 20
201.633260157
 30
0.0
 11
119.8218117005
 21
201.4560529906
 31
0.0
  0
LINE
  5
30D
330
1F
100
AcDbEntity
  8
0
  6
Continuous
 62
     7
370
    25
100
AcDbLine
 10
162.6134075603
 20
202.2533071206
 30
0.0
 11
162.8893305609
 21
202.0550656925
 31
0.0
  0
LINE
  5
30E
330
1F
100
AcDbEntity
  8
0
  6
Continuous
 62
     7
370
    25
100
AcDbLine
 10
161.3259340492
 20
205.6842146917
 30
0.0
 11
162.8893305609
 21
202.0550656925
 31
0.0
  0
LINE
  5
30F
330
1F
100
AcDbEntity
  8
0
  6
Continuous
 62
     7
370
    25
100
AcDbLine
 10
159.8950862289
 20
205.8112845446
 30
0.0
 11
159.7761305149
 21
205.6449912765
 31
0.0
  0
LINE
  5
310
330
1F
100
AcDbEntity
  8
0
  6
Continuous
 62
     7
370
    25
100
AcDbLine
 10
161.3817233794
 20
202.3545221905
 30
0.0
 11
161.2625441059
 21
202.1887487479
 31
0.0
  0
LINE
  5
311
330
1F
100
AcDbEntity
  8
0
  6
Continuous
 62
     7
370
    25
100
AcDbLine
 10
161.2625441059
 20
202.1887487479
 30
0.0
 11
159.7761305149
 21
205.6449912765
 31
0.0
  0
LINE
  5
312
330
1F
100
AcDbEntity
  8
0
  6
Continuous
 62
     7
370
    25
100
AcDbLine
 10
159.2060955914
 20
202.5337205246
 30
0.0
 11
159.3661336513
 21
202.344977068
 31
0.0
  0
LINE
  5
313
330
1F
100
AcDbEntity
  8
0
  6
Continuous
 62
     7
370
    25
100
AcDbLine
 10
159.4784413465
 20
205.8435337579
 30
0.0
 11
159.6385493525
 21
205.6556403555
 31
0.0
  0
LINE
  5
314
330
1F
100
AcDbEntity
  8
0
  6
Continuous
 62
     7
370
    25
100
AcDbLine
 10
159.6385493525
 20
205.6556403555
 30
0.0
 11
159.3661336513
 21
202.344977068
 31
0.0
  0
LINE
  5
315
330
1F
100
AcDbEntity
  8
0
  6
Continuous
 62
     7
370
    25
100
AcDbLine
 10
159.7761305149
 20
205.6449912765
 30
0.0
 11
159.6385493525
 21
205.6556403555
 31
0.0
  0
LINE
  5
316
330
1F
100
AcDbEntity
  8
0
  6
Continuous
 62
     7
370
    25
100
AcDbLine
 10
162.8893305609
 20
202.0550656925
 30
0.0
 11
161.2625441059
 21
202.1887487479
 31
0.0
  0
LINE
  5
317
330
1F
100
AcDbEntity
  8
0
  6
Continuous
 62
     7
370
    25
100
AcDbLine
 10
159.3661336513
 20
202.344977068
 30
0.0
 11
157.8783982963
 21
202.4674467883
 31
0.0
  0
CIRCLE
  5
318
330
1F
100
AcDbEntity
  8
0
  6
Continuous
 62
     7
370
    25
100
AcDbCircle
 10
74.6152563428
 20
194.6370210573
 30
0.0
 40
2.499999999999998
  0
CIRCLE
  5
319
330
1F
100
AcDbEntity
  8
0
  6
Continuous
 62
     7
370
    25
100
AcDbCircle
 10
212.0098761542
 20
195.2365219844
 30
0.0
 40
2.499999999999988
  0
LINE
  5
31A
330
1F
100
AcDbEntity
  8
0
  6
Continuous
 62
     7
370
    25
100
AcDbLine
 10
68.244125373
 20
197.1685601478
 30
0.0
 11
71.6822116327
 21
188.4404696996
 31
0.0
  0
LINE
  5
31B
330
1F
100
AcDbEntity
  8
0
  6
Continuous
 62
     7
370
    25
100
AcDbLine
 10
214.9968836083
 20
189.0658018912
 30
0.0
 11
218.3586729651
 21
197.8235625822
 31
0.0
  0
LINE
  5
31C
330
1F
100
AcDbEntity
  8
0
  6
PHANTOM
 62
     8
370
    18
100
AcDbLine
 10
120.9365876764
 20
208.2032674306
 30
0.0
 11
120.9571017296
 21
208.0294964709
 31
0.0
  0
LINE
  5
31D
330
1F
100
AcDbEntity
  8
0
  6
PHANTOM
 62
     8
370
    18
100
AcDbLine
 10
121.2287336798
 20
206.2657542728
 30
0.0
 11
121.2068389308
 21
206.4393611112
 31
0.0
  0
LWPOLYLINE
  5
31E
330
1F
100
AcDbEntity
  8
0
  6
PHANTOM
 62
     8
370
    18
100
AcDbPolyline
 90
        4
 70
   128
 43
0.0
 10
160.0840049353
 20
209.9797079343
 10
160.0894231702
 20
210.0438005313
 10
160.09408379
 20
210.0989321422
 10
160.0987443399
 20
210.1540637589
  0
LWPOLYLINE
  5
31F
330
1F
100
AcDbEntity
  8
0
  6
PHANTOM
 62
     8
370
    18
100
AcDbPolyline
 90
        3
 70
   128
 43
0.0
 10
120.486631622
 20
209.2702441946
 10
120.4781499342
 20
209.34254466
 10
120.466244224
 20
209.4440301392
  0
LINE
  5
320
330
1F
100
AcDbEntity
  8
0
  6
PHANTOM
 62
     8
370
    18
100
AcDbLine
 10
160.2105296053
 20
206.8938732991
 30
0.0
 11
160.2246604775
 21
207.0682791001
 31
0.0
  0
LINE
  5
321
330
1F
100
AcDbEntity
  8
0
  6
PHANTOM
 62
     8
370
    18
100
AcDbLine
 10
160.3116264781
 20
208.8457621903
 30
0.0
 11
160.2969762946
 21
208.6713992439
 31
0.0
  0
LINE
  5
322
330
1F
100
AcDbEntity
  8
0
  6
Continuous
 62
     7
370
    18
100
AcDbLine
 10
67.8776241463
 20
198.0989777157
 30
0.0
 11
66.0885219964
 21
202.6408781238
 31
0.0
  0
LINE
  5
323
330
1F
100
AcDbEntity
  8
0
  6
Continuous
 62
     7
370
    18
100
AcDbLine
 10
67.4050621189
 20
202.0794211103
 30
0.0
 11
65.5228532507
 21
201.3484396413
 31
0.0
  0
LINE
  5
324
330
1F
100
AcDbEntity
  8
0
  6
Continuous
 62
     7
370
    18
100
AcDbLine
 10
219.746255693
 20
201.438339173
 30
0.0
 11
220.4664398859
 21
203.3144831385
 31
0.0
  0
LINE
  5
325
330
1F
100
AcDbEntity
  8
0
  6
Continuous
 62
     7
370
    18
100
AcDbLine
 10
219.1548494678
 20
202.7415586694
 30
0.0
 11
221.0433656029
 21
202.0270301965
 31
0.0
  0
DIMENSION
  5
326
330
1F
100
AcDbEntity
  8
0
  6
Continuous
 62
     7
370
    18
100
AcDbDimension
  2
_D
 10
219.9717130739
 20
233.6318536478
 30
0.0
 11
146.9338810345
 21
233.3131639635
 31
0.0
 70
   160
  1
<>
 71
     2
 42
-1.0
  3
SLDDIMSTYLE0
100
AcDbAlignedDimension
 13
66.4550232231
 23
201.7104605558
 33
0.0
 14
220.1080719363
 24
202.380902712
 34
0.0
 50
0.25
100
AcDbRotatedDimension
  0
DIMENSION
  5
332
330
1F
100
AcDbEntity
  8
0
  6
Continuous
 62
     7
370
    18
100
AcDbDimension
  2
_D_1
 10
230.3668132249
 20
198.4616802607
 30
0.0
 11
226.6592919712
 21
188.7425098068
 31
0.0
 70
   160
  1
<>
 71
     2
 42
-1.0
  3
SLDDIMSTYLE1
100
AcDbAlignedDimension
 13
211.447493644
 23
185.3426465279
 33
0.0
 14
218.2195558012
 24
203.095431185
 34
0.0
 50
69.119908506
100
AcDbRotatedDimension
  0
INSERT
  5
348
330
1F
100
AcDbEntity
  8
0
  6
Continuous
 62
     7
370
     0
100
AcDbBlockReference
  2
SW_CENTERMARKSYMBOL_0
 10
74.6152563428
 20
194.6370210573
 30
0.0
  0
INSERT
  5
354
330
1F
100
AcDbEntity
  8
0
  6
Continuous
 62
     7
370
     0
100
AcDbBlockReference
  2
SW_CENTERMARKSYMBOL_1
 10
212.0098761542
 20
195.2365219844
 30
0.0
  0
LINE
  5
355
330
1F
100
AcDbEntity
  8
0
  6
Continuous
 62
     7
370
    25
100
AcDbLine
 10
295.3186556709
 20
196.8518107611
 30
0.0
 11
297.3186556709
 21
196.8518107611
 31
0.0
  0
LINE
  5
356
330
1F
100
AcDbEntity
  8
0
  6
Continuous
 62
     7
370
    25
100
AcDbLine
 10
297.3186556709
 20
216.4581580137
 30
0.0
 11
292.3186556709
 21
216.4581580137
 31
0.0
  0
LINE
  5
357
330
1F
100
AcDbEntity
  8
0
  6
Continuous
 62
     7
370
    25
100
AcDbLine
 10
297.3186556709
 20
189.123720313
 30
0.0
 11
295.3186556709
 21
189.123720313
 31
0.0
  0
LINE
  5
358
330
1F
100
AcDbEntity
  8
0
  6
Continuous
 62
     7
370
    25
100
AcDbLine
 10
292.3186556709
 20
184.6167229539
 30
0.0
 11
297.3186556709
 21
184.6167229539
 31
0.0
  0
LINE
  5
359
330
1F
100
AcDbEntity
  8
0
  6
Continuous
 62
     7
370
    25
100
AcDbLine
 10
297.3186556709
 20
192.9077255561
 30
0.0
 11
295.3186556709
 21
192.9077255561
 31
0.0
  0
LINE
  5
35A
330
1F
100
AcDbEntity
  8
0
  6
Continuous
 62
     7
370
    25
100
AcDbLine
 10
297.3186556709
 20
199.840672741
 30
0.0
 11
297.3186556709
 21
197.1685601478
 31
0.0
  0
LINE
  5
35B
330
1F
100
AcDbEntity
  8
0
  6
Continuous
 62
     7
370
    25
100
AcDbLine
 10
295.3186556709
 20
197.1685601478
 30
0.0
 11
295.3186556709
 21
188.4404696996
 31
0.0
  0
LINE
  5
35C
330
1F
100
AcDbEntity
  8
0
  6
Continuous
 62
     7
370
    25
100
AcDbLine
 10
297.3186556709
 20
188.4404696996
 30
0.0
 11
297.3186556709
 21
185.8837205005
 31
0.0
  0
LINE
  5
35D
330
1F
100
AcDbEntity
  8
0
  6
Continuous
 62
     7
370
    25
100
AcDbLine
 10
292.3186556709
 20
199.840672741
 30
0.0
 11
292.3186556709
 21
185.8837205005
 31
0.0
  0
LINE
  5
35E
330
1F
100
AcDbEntity
  8
0
  6
Continuous
 62
     7
370
    25
100
AcDbLine
 10
297.3186556709
 20
202.4414420248
 30
0.0
 11
297.3186556709
 21
199.840672741
 31
0.0
  0
LINE
  5
35F
330
1F
100
AcDbEntity
  8
0
  6
Continuous
 62
     7
370
    25
100
AcDbLine
 10
292.3186556709
 20
202.4414420248
 30
0.0
 11
292.3186556709
 21
199.840672741
 31
0.0
  0
LINE
  5
360
330
1F
100
AcDbEntity
  8
0
  6
Continuous
 62
     7
370
    25
100
AcDbLine
 10
297.3186556709
 20
197.1685601478
 30
0.0
 11
297.3186556709
 21
196.8518107611
 31
0.0
  0
LINE
  5
361
330
1F
100
AcDbEntity
  8
0
  6
Continuous
 62
     7
370
    25
100
AcDbLine
 10
297.3186556709
 20
216.4581580137
 30
0.0
 11
297.3186556709
 21
202.4414420248
 31
0.0
  0
LINE
  5
362
330
1F
100
AcDbEntity
  8
0
  6
Continuous
 62
     7
370
    25
100
AcDbLine
 10
292.3186556709
 20
216.4581580137
 30
0.0
 11
292.3186556709
 21
202.4414420248
 31
0.0
  0
LINE
  5
363
330
1F
100
AcDbEntity
  8
0
  6
Continuous
 62
     7
370
    25
100
AcDbLine
 10
297.3186556709
 20
189.123720313
 30
0.0
 11
297.3186556709
 21
188.4404696996
 31
0.0
  0
LINE
  5
364
330
1F
100
AcDbEntity
  8
0
  6
Continuous
 62
     7
370
    25
100
AcDbLine
 10
297.3186556709
 20
189.123720313
 30
0.0
 11
297.3186556709
 21
192.5792098254
 31
0.0
  0
LINE
  5
365
330
1F
100
AcDbEntity
  8
0
  6
Continuous
 62
     7
370
    25
100
AcDbLine
 10
297.3186556709
 20
185.8837205005
 30
0.0
 11
297.3186556709
 21
184.6167229539
 31
0.0
  0
LINE
  5
366
330
1F
100
AcDbEntity
  8
0
  6
Continuous
 62
     7
370
    25
100
AcDbLine
 10
292.3186556709
 20
185.8837205005
 30
0.0
 11
292.3186556709
 21
184.6167229539
 31
0.0
  0
LINE
  5
367
330
1F
100
AcDbEntity
  8
0
  6
Continuous
 62
     7
370
    25
100
AcDbLine
 10
297.3186556709
 20
192.9077255561
 30
0.0
 11
297.3186556709
 21
192.5792098254
 31
0.0
  0
LINE
  5
368
330
1F
100
AcDbEntity
  8
0
  6
Continuous
 62
     7
370
    25
100
AcDbLine
 10
297.3186556709
 20
192.9077255561
 30
0.0
 11
297.3186556709
 21
196.8518107611
 31
0.0
  0
LINE
  5
369
330
1F
100
AcDbEntity
  8
0
  6
PHANTOM
 62
     8
370
    18
100
AcDbLine
 10
297.3186556709
 20
185.8837205005
 30
0.0
 11
292.3186556709
 21
185.8837205005
 31
0.0
  0
LINE
  5
36A
330
1F
100
AcDbEntity
  8
0
  6
PHANTOM
 62
     8
370
    18
100
AcDbLine
 10
297.3186556709
 20
199.840672741
 30
0.0
 11
292.3186556709
 21
199.840672741
 31
0.0
  0
LINE
  5
36B
330
1F
100
AcDbEntity
  8
0
  6
PHANTOM
 62
     8
370
    18
100
AcDbLine
 10
295.3186556709
 20
197.1685601478
 30
0.0
 11
297.3186556709
 21
197.1685601478
 31
0.0
  0
LINE
  5
36C
330
1F
100
AcDbEntity
  8
0
  6
PHANTOM
 62
     8
370
    18
100
AcDbLine
 10
297.3186556709
 20
188.4404696996
 30
0.0
 11
295.3186556709
 21
188.4404696996
 31
0.0
  0
LINE
  5
36D
330
1F
100
AcDbEntity
  8
0
  6
PHANTOM
 62
     8
370
    18
100
AcDbLine
 10
297.3186556709
 20
202.4414420248
 30
0.0
 11
292.3186556709
 21
202.4414420248
 31
0.0
  0
LINE
  5
36E
330
1F
100
AcDbEntity
  8
0
  6
PHANTOM
 62
     8
370
    18
100
AcDbLine
 10
297.3186556709
 20
192.5792098254
 30
0.0
 11
295.3186556709
 21
192.5792098254
 31
0.0
  0
DIMENSION
  5
36F
330
1F
100
AcDbEntity
  8
0
  6
Continuous
 62
     7
370
    18
100
AcDbDimension
  2
_D_2
 10
292.3186556709
 20
222.9757277016
 30
0.0
 11
294.5895811627
 21
222.9757277016
 31
0.0
 70
   160
  1
<>
 71
     2
 42
-1.0
  3
SLDDIMSTYLE2
100
AcDbAlignedDimension
 13
297.3186556709
 23
216.4581580137
 33
0.0
 14
292.3186556709
 24
216.4581580137
 34
0.0
 50
0.0
100
AcDbRotatedDimension
  0
LINE
  5
37C
330
1F
100
AcDbEntity
  8
0
  6
Continuous
 62
     7
370
    25
100
AcDbLine
 10
73.350178084
 20
47.4799565344
 30
0.0
 11
74.7643916464
 21
46.6635484226
 31
0.0
  0
LINE
  5
37D
330
1F
100
AcDbEntity
  8
0
  6
Continuous
 62
     7
370
    25
100
AcDbLine
 10
74.6090183167
 20
41.0241138584
 30
0.0
 11
78.1445522227
 21
38.9830935789
 31
0.0
  0
LINE
  5
37E
330
1F
100
AcDbEntity
  8
0
  6
Continuous
 62
     7
370
    25
100
AcDbLine
 10
83.7578892564
 20
48.3957651978
 30
0.0
 11
82.343675694
 21
49.2121733096
 31
0.0
  0
LINE
  5
37F
330
1F
100
AcDbEntity
  8
0
  6
Continuous
 62
     7
370
    25
100
AcDbLine
 10
113.4796261043
 20
78.6012827115
 30
0.0
 11
112.1580092898
 21
79.5659096552
 31
0.0
  0
LINE
  5
380
330
1F
100
AcDbEntity
  8
0
  6
Continuous
 62
     7
370
    25
100
AcDbLine
 10
133.198945143
 20
92.9397152825
 30
0.0
 11
132.2579593329
 21
93.6265185108
 31
0.0
  0
LINE
  5
381
330
1F
100
AcDbEntity
  8
0
  6
Continuous
 62
     7
370
    25
100
AcDbLine
 10
131.1218128892
 20
92.5878940936
 30
0.0
 11
132.6184352651
 21
91.9256096046
 31
0.0
  0
LINE
  5
382
330
1F
100
AcDbEntity
  8
0
  6
Continuous
 62
     7
370
    25
100
AcDbLine
 10
134.8561019057
 20
93.8159346028
 30
0.0
 11
133.8994042305
 21
94.514205549
 31
0.0
  0
LINE
  5
383
330
1F
100
AcDbEntity
  8
0
  6
Continuous
 62
     7
370
    25
100
AcDbLine
 10
132.7789696519
 20
93.464113414
 30
0.0
 11
134.2755920278
 21
92.8018289249
 31
0.0
  0
LINE
  5
384
330
1F
100
AcDbEntity
  8
0
  6
Continuous
 62
     7
370
    25
100
AcDbLine
 10
141.2164542239
 20
95.0172148401
 30
0.0
 11
139.8954966285
 21
95.9814400397
 31
0.0
  0
LINE
  5
385
330
1F
100
AcDbEntity
  8
0
  6
Continuous
 62
     7
370
    25
100
AcDbLine
 10
172.1287244457
 20
107.1919363653
 30
0.0
 11
173.542938008
 21
106.3755282535
 31
0.0
  0
LINE
  5
386
330
1F
100
AcDbEntity
  8
0
  6
Continuous
 62
     7
370
    25
100
AcDbLine
 10
172.2823889338
 20
99.9684184101
 30
0.0
 11
170.8681753714
 21
100.7848265219
 31
0.0
  0
LINE
  5
387
330
1F
100
AcDbEntity
  8
0
  6
Continuous
 62
     7
370
    25
100
AcDbLine
 10
181.2398349818
 20
112.7338394789
 30
0.0
 11
177.7043010759
 21
114.7748597585
 31
0.0
  0
LINE
  5
388
330
1F
100
AcDbEntity
  8
0
  6
Continuous
 62
     7
370
    25
100
AcDbLine
 10
178.8381698301
 20
108.9083935852
 30
0.0
 11
180.2523833925
 21
108.0919854734
 31
0.0
  0
LINE
  5
389
330
1F
100
AcDbEntity
  8
0
  6
Continuous
 62
     7
370
    25
100
AcDbLine
 10
178.3751987077
 20
100.4346692603
 30
0.0
 11
176.9609851454
 21
101.2510773721
 31
0.0
  0
LWPOLYLINE
  5
38A
330
1F
100
AcDbEntity
  8
0
  6
Continuous
 62
     7
370
    25
100
AcDbPolyline
 90
        9
 70
   128
 43
0.0
 10
173.6860175821
 20
107.6881088614
 10
173.7456306908
 20
108.0371786866
 10
173.7506031066
 20
108.3620960641
 10
173.7007413979
 20
108.6502213938
 10
173.5979852333
 20
108.8903463215
 10
173.446331927
 20
109.0731297554
 10
173.2516809394
 20
109.1914612431
 10
173.0216043821
 20
109.2407375752
 10
172.7650524557
 20
109.2190418547
  0
LWPOLYLINE
  5
38B
330
1F
100
AcDbEntity
  8
0
  6
Continuous
 62
     7
370
    25
100
AcDbPolyline
 90
       28
 70
   128
 43
0.0
 10
172.7650524557
 20
109.2190418547
 10
169.5201949765
 20
108.4765725627
 10
166.2537843308
 20
107.635639017
 10
162.9675304345
 20
106.6966814334
 10
159.6631535915
 20
105.6601913418
 10
156.3423835926
 20
104.526711329
 10
153.0069588101
 20
103.2968347545
 10
149.658625288
 20
101.9712054398
 10
146.2991358277
 20
100.5505173317
 10
142.9302490708
 20
99.0355141388
 10
139.553728578
 20
97.426988942
 10
136.1713419062
 20
95.7257837797
 10
132.7848596831
 20
93.9327892069
 10
129.3960546806
 20
92.0489438288
 10
126.0067008862
 20
90.0752338098
 10
122.6185725751
 20
88.0126923568
 10
119.2334433805
 20
85.8623991789
 10
115.8530853659
 20
83.6254799217
 10
112.4792680972
 20
81.3031055782
 10
109.1137577161
 20
78.896491876
 10
105.758316016
 20
76.4068986407
 10
102.4146995194
 20
73.8356291361
 10
99.0846585584
 20
71.1840293828
 10
95.7699363586
 20
68.4534874526
 10
92.4722681266
 20
65.6454327425
 10
89.1933801412
 20
62.7613352264
 10
85.9349888502
 20
59.8027046853
 10
82.6987999718
 20
56.7710899169
  0
ARC
  5
38C
330
1F
100
AcDbEntity
  8
0
  6
Continuous
 62
     7
370
    25
100
AcDbCircle
 10
84.5340009241
 20
54.6755050996
 30
0.0
 40
2.785576827488791
100
AcDbArc
 50
131.2101388476
 51
190.3164790435
  0
LINE
  5
38D
330
1F
100
AcDbEntity
  8
0
  6
Continuous
 62
     7
370
    25
100
AcDbLine
 10
81.7934569258
 20
54.1766495542
 30
0.0
 11
82.0251463251
 21
53.5107891943
 31
0.0
  0
ARC
  5
38E
330
1F
100
AcDbEntity
  8
0
  6
Continuous
 62
     7
370
    25
100
AcDbCircle
 10
81.4028101422
 20
53.365964986
 30
0.0
 40
0.6389650818680813
100
AcDbArc
 50
278.5316003545
 51
13.1001783332
  0
LWPOLYLINE
  5
38F
330
1F
100
AcDbEntity
  8
0
  6
Continuous
 62
     7
370
    25
100
AcDbPolyline
 90
       13
 70
   128
 43
0.0
 10
81.4976037179
 20
52.7340705693
 10
80.9669960773
 20
52.7652778188
 10
80.4001698694
 20
52.684871162
 10
79.8086812724
 20
52.4944898908
 10
79.2045892697
 20
52.1980154067
 10
78.6002097966
 20
51.8014920877
 10
78.0078646493
 20
51.3130040595
 10
77.4396302741
 20
50.7425103795
 10
76.9070915583
 20
50.1016419968
 10
76.4211056435
 20
49.4034646258
 10
75.9915805753
 20
48.6622123688
 10
75.6272733031
 20
47.8929975181
 10
75.335611147
 20
47.1115024539
  0
LWPOLYLINE
  5
390
330
1F
100
AcDbEntity
  8
0
  6
Continuous
 62
     7
370
    25
100
AcDbPolyline
 90
        9
 70
   128
 43
0.0
 10
74.6854190437
 20
46.7570411367
 10
74.7366306206
 20
46.6836095996
 10
74.8113452728
 20
46.6451239893
 10
74.9032404698
 20
46.6448410489
 10
75.0045398228
 20
46.6827847216
 10
75.1066711412
 20
46.7557441241
 10
75.2009918313
 20
46.8575452593
 10
75.2795202535
 20
46.9795734746
 10
75.335611147
 20
47.1115024539
  0
LINE
  5
391
330
1F
100
AcDbEntity
  8
0
  6
Continuous
 62
     7
370
    25
100
AcDbLine
 10
73.941137437
 20
48.5092654971
 30
0.0
 11
74.6854190437
 21
46.7570411367
 31
0.0
  0
ARC
  5
392
330
1F
100
AcDbEntity
  8
0
  6
Continuous
 62
     7
370
    25
100
AcDbCircle
 10
76.5649818413
 20
49.1112608864
 30
0.0
 40
2.692017441769746
100
AcDbArc
 50
132.3565696012
 51
192.9218832888
  0
LWPOLYLINE
  5
393
330
1F
100
AcDbEntity
  8
0
  6
Continuous
 62
     7
370
    25
100
AcDbPolyline
 90
       33
 70
   128
 43
0.0
 10
180.7340629108
 20
112.8171522132
 10
177.549183305
 20
112.3029754385
 10
174.3392184646
 20
111.6909355865
 10
171.1058052078
 20
110.9813447473
 10
167.8505923094
 20
110.1745647537
 10
164.5752396603
 20
109.2710069974
 10
161.2814174211
 20
108.2711322183
 10
157.9708051702
 20
107.1754502704
 10
154.6450910477
 20
105.9845198614
 10
151.3059708942
 20
104.6989482679
 10
147.9551473865
 20
103.3193910257
 10
144.5943291689
 20
101.8465515956
 10
141.2252299825
 20
100.2811810044
 10
137.8495677907
 20
98.6240774626
 10
134.4690639037
 20
96.8760859566
 10
131.0854421005
 20
95.0380978183
 10
127.7004277499
 20
93.1110502707
 10
124.315746931
 20
91.0959259494
 10
120.9331255526
 20
88.9937524022
 10
117.5542884734
 20
86.8056015646
 10
114.1809586225
 20
84.5325892138
 10
110.8148561207
 20
82.175874399
 10
107.4576974035
 20
79.736658851
 10
104.1111943459
 20
77.2161863693
 10
100.777053389
 20
74.6157421874
 10
97.4569746708
 20
71.936652318
 10
94.1526511582
 20
69.1802828768
 10
90.8657677846
 20
66.3480393854
 10
87.5980005902
 20
63.4413660551
 10
84.3510158676
 20
60.4617450504
 10
81.1264693119
 20
57.4106957328
 10
77.9260051767
 20
54.2897738867
 10
74.7512554356
 20
51.1005709255
  0
LWPOLYLINE
  5
394
330
1F
100
AcDbEntity
  8
0
  6
Continuous
 62
     7
370
    25
100
AcDbPolyline
 90
        9
 70
   128
 43
0.0
 10
181.5601983499
 20
111.1786802744
 10
181.6339885852
 20
111.531887188
 10
181.6535525492
 20
111.8644726393
 10
181.6181292479
 20
112.163499804
 10
181.5290965678
 20
112.4173371995
 10
181.3899176794
 20
112.6161111232
 10
181.2060063279
 20
112.7520897178
 10
180.9845162501
 20
112.8199837224
 10
180.7340629108
 20
112.8171522132
  0
LINE
  5
395
330
1F
100
AcDbEntity
  8
0
  6
Continuous
 62
     7
370
    25
100
AcDbLine
 10
180.8324336008
 20
108.5692445346
 30
0.0
 11
181.5601983499
 21
111.1786802744
 31
0.0
  0
LWPOLYLINE
  5
396
330
1F
100
AcDbEntity
  8
0
  6
Continuous
 62
     7
370
    25
100
AcDbPolyline
 90
        9
 70
   128
 43
0.0
 10
180.1824240947
 20
108.1665641962
 10
180.2392651388
 20
108.1003984599
 10
180.3183701523
 20
108.0701643476
 10
180.4130450818
 20
108.0784203414
 10
180.5152783111
 20
108.1244677997
 10
180.6164186226
 20
108.2044100777
 10
180.7079072841
 20
108.3114822708
 10
180.7820023089
 20
108.436623677
 10
180.8324336008
 20
108.5692445346
  0
LWPOLYLINE
  5
397
330
1F
100
AcDbEntity
  8
0
  6
Continuous
 62
     7
370
    25
100
AcDbPolyline
 90
       13
 70
   128
 43
0.0
 10
180.1824240947
 20
108.1665641962
 10
179.885260832
 20
108.6067150988
 10
179.5155025496
 20
108.9496895228
 10
179.0807274005
 20
109.1884582475
 10
178.5898460507
 20
109.3181277355
 10
178.0529190563
 20
109.3360404258
 10
177.4809506738
 20
109.2418291999
 10
176.8856633284
 20
109.0374249059
 10
176.2792573651
 20
108.727016786
 10
175.6741610035
 20
108.3169666186
 10
175.0827756231
 20
107.815678334
 10
174.5172215985
 20
107.2334257774
 10
173.9890898937
 20
106.5821421471
  0
LWPOLYLINE
  5
398
330
1F
100
AcDbEntity
  8
0
  6
Continuous
 62
     7
370
    25
100
AcDbPolyline
 90
        9
 70
   128
 43
0.0
 10
173.4566684352
 20
106.7406026147
 10
173.4393687477
 20
106.6065009631
 10
173.4555894084
 20
106.4915560483
 10
173.5037925191
 20
106.4066659187
 10
173.5794078923
 20
106.3598790972
 10
173.6752663546
 20
106.3556314916
 10
173.7822794642
 20
106.3943258217
 10
173.8903011953
 20
106.4722934375
 10
173.9890898937
 20
106.5821421471
  0
LINE
  5
399
330
1F
100
AcDbEntity
  8
0
  6
Continuous
 62
     7
370
    25
100
AcDbLine
 10
173.4566684352
 20
106.7406026147
 30
0.0
 11
173.6860175821
 21
107.6881088614
 31
0.0
  0
LWPOLYLINE
  5
39A
330
1F
100
AcDbEntity
  8
0
  6
Continuous
 62
     7
370
    25
100
AcDbPolyline
 90
       33
 70
   128
 43
0.0
 10
177.1985290049
 20
114.8581724927
 10
174.013649399
 20
114.343995718
 10
170.8036845587
 20
113.7319558661
 10
167.5702713018
 20
113.0223650268
 10
164.3150584034
 20
112.2155850333
 10
161.0397057544
 20
111.3120272769
 10
157.7458835152
 20
110.3121524978
 10
154.4352712643
 20
109.2164705499
 10
151.1095571418
 20
108.025540141
 10
147.7704369883
 20
106.7399685475
 10
144.4196134805
 20
105.3604113053
 10
141.058795263
 20
103.8875718751
 10
137.6896960766
 20
102.322201284
 10
134.3140338848
 20
100.6650977421
 10
130.9335299978
 20
98.9171062361
 10
127.5499081946
 20
97.0791180979
 10
124.164893844
 20
95.1520705502
 10
120.7802130251
 20
93.136946229
 10
117.3975916466
 20
91.0347726817
 10
114.0187545674
 20
88.8466218442
 10
110.6454247165
 20
86.5736094933
 10
107.2793222148
 20
84.2168946785
 10
103.9221634976
 20
81.7776791306
 10
100.5756604399
 20
79.2572066488
 10
97.2415194831
 20
76.6567624669
 10
93.9214407648
 20
73.9776725976
 10
90.6171172523
 20
71.2213031563
 10
87.3302338787
 20
68.389059665
 10
84.0624666843
 20
65.4823863347
 10
80.8154819616
 20
62.5027653299
 10
77.5909354059
 20
59.4517160124
 10
74.3904712707
 20
56.3307941663
 10
71.2157215296
 20
53.1415912051
  0
SPLINE
  5
39B
330
1F
100
AcDbEntity
  8
0
  6
Continuous
 62
     7
370
    25
100
AcDbSpline
210
0.0
220
0.0
230
1.0
 70
     8
 71
     3
 72
    10
 73
     6
 74
     0
 42
0.00000001
 43
0.00000001
 40
0.0
 40
0.0
 40
0.0
 40
0.0
 40
0.3455837276867886
 40
0.7507620881446854
 40
1.0
 40
1.0
 40
1.0
 40
1.0
 10
132.7800278975077
 20
93.46577003176337
 30
0.0
 10
132.7411324868411
 20
93.48951401526415
 30
0.0
 10
132.6566342961223
 20
93.54109654420218
 30
0.0
 10
132.5983764197155
 20
93.68839061184822
 30
0.0
 10
132.5961826685852
 20
93.80853419269994
 30
0.0
 10
132.5953471668198
 20
93.85429151335525
 30
0.0
  0
SPLINE
  5
39C
330
1F
100
AcDbEntity
  8
0
  6
Continuous
 62
     7
370
    25
100
AcDbSpline
210
0.0
220
0.0
230
1.0
 70
     8
 71
     3
 72
    10
 73
     6
 74
     0
 42
0.00000001
 43
0.00000001
 40
0.0
 40
0.0
 40
0.0
 40
0.0
 40
0.3455837276104247
 40
0.7507620880779302
 40
1.0
 40
1.0
 40
1.0
 40
1.0
 10
131.1228711348168
 20
92.58955071139007
 30
0.0
 10
131.083975724158
 20
92.61329469488247
 30
0.0
 10
130.9994775334452
 20
92.66487722380894
 30
0.0
 10
130.9412196570297
 20
92.81217129144281
 30
0.0
 10
130.9390259058983
 20
92.932314872306
 30
0.0
 10
130.9381904041323
 20
92.97807219297252
 30
0.0
  0
LINE
  5
39D
330
1F
100
AcDbEntity
  8
0
  6
Continuous
 62
     7
370
    25
100
AcDbLine
 10
131.7508198715
 20
92.2827363752
 30
0.0
 11
131.7784373644
 21
92.2973250015
 31
0.0
  0
LINE
  5
39E
330
1F
100
AcDbEntity
  8
0
  6
Continuous
 62
     7
370
    25
100
AcDbLine
 10
129.3979115418
 20
84.6714022225
 30
0.0
 11
131.7508198715
 21
92.2827363752
 31
0.0
  0
LINE
  5
39F
330
1F
100
AcDbEntity
  8
0
  6
Continuous
 62
     7
370
    25
100
AcDbLine
 10
103.9334690057
 20
74.2883483018
 30
0.0
 11
106.9364753897
 21
76.5030945994
 31
0.0
  0
LINE
  5
3A0
330
1F
100
AcDbEntity
  8
0
  6
Continuous
 62
     7
370
    25
100
AcDbLine
 10
104.6970826833
 20
68.3767802502
 30
0.0
 11
103.9334690057
 21
74.2883483018
 31
0.0
  0
LINE
  5
3A1
330
1F
100
AcDbEntity
  8
0
  6
Continuous
 62
     7
370
    25
100
AcDbLine
 10
99.0154512128
 20
70.4222503017
 30
0.0
 11
101.7112136498
 21
72.5613929675
 31
0.0
  0
LINE
  5
3A2
330
1F
100
AcDbEntity
  8
0
  6
Continuous
 62
     7
370
    25
100
AcDbLine
 10
100.0316119632
 20
64.7345707518
 30
0.0
 11
99.0154512128
 21
70.4222503017
 31
0.0
  0
LWPOLYLINE
  5
3A3
330
1F
100
AcDbEntity
  8
0
  6
Continuous
 62
     7
370
    25
100
AcDbPolyline
 90
        3
 70
   128
 43
0.0
 10
172.2718040198
 20
108.5045169732
 10
172.3314171284
 20
108.8535867984
 10
172.3393727812
 20
109.1269847881
  0
LINE
  5
3A4
330
1F
100
AcDbEntity
  8
0
  6
Continuous
 62
     7
370
    25
100
AcDbLine
 10
172.0424548728
 20
107.5570107265
 30
0.0
 11
172.2718040198
 21
108.5045169732
 31
0.0
  0
ARC
  5
3A5
330
1F
100
AcDbEntity
  8
0
  6
Continuous
 62
     7
370
    25
100
AcDbCircle
 10
172.3291602442
 20
107.4320309439
 30
0.0
 40
0.3127617560310413
100
AcDbArc
 50
156.4467881197
 51
230.1441896827
  0
LINE
  5
3A6
330
1F
100
AcDbEntity
  8
0
  6
Continuous
 62
     7
370
    25
100
AcDbLine
 10
178.7682105323
 20
108.9829723081
 30
0.0
 11
178.5513024899
 21
109.3233331429
 31
0.0
  0
LWPOLYLINE
  5
3A7
330
1F
100
AcDbEntity
  8
0
  6
Continuous
 62
     7
370
    25
100
AcDbPolyline
 90
        3
 70
   128
 43
0.0
 10
178.8381698301
 20
108.9083935852
 10
178.8250515765
 20
108.9168065717
 10
178.7682105323
 20
108.9829723081
  0
LINE
  5
3A8
330
1F
100
AcDbEntity
  8
0
  6
Continuous
 62
     7
370
    25
100
AcDbLine
 10
177.12336468
 20
101.1573376621
 30
0.0
 11
179.2231331085
 21
108.686159015
 31
0.0
  0
LWPOLYLINE
  5
3A9
330
1F
100
AcDbEntity
  8
0
  6
Continuous
 62
     7
370
    25
100
AcDbPolyline
 90
        6
 70
   128
 43
0.0
 10
176.573923716
 20
101.1152506999
 10
176.6735187099
 20
101.2023813203
 10
176.7762859214
 20
101.2569891648
 10
176.8735289462
 20
101.2744531886
 10
176.9570188496
 20
101.2532955445
 10
176.9609851454
 20
101.2510773721
  0
ARC
  5
3AA
330
1F
100
AcDbEntity
  8
0
  6
Continuous
 62
     7
370
    25
100
AcDbCircle
 10
172.7615057174
 20
104.0105090328
 30
0.0
 40
4.787175765499512
100
AcDbArc
 50
269.5127630263
 51
322.7859328868
  0
LWPOLYLINE
  5
3AB
330
1F
100
AcDbEntity
  8
0
  6
Continuous
 62
     7
370
    25
100
AcDbPolyline
 90
        8
 70
   128
 43
0.0
 10
170.2819464323
 20
100.2838520208
 10
170.3311262662
 20
100.4243960901
 10
170.4075234547
 20
100.5580574459
 10
170.5038946998
 20
100.6721635139
 10
170.6111029422
 20
100.7558957777
 10
170.7189836552
 20
100.8013154929
 10
170.8173085549
 20
100.8041163686
 10
170.8681753714
 20
100.7848265219
  0
LINE
  5
3AC
330
1F
100
AcDbEntity
  8
0
  6
Continuous
 62
     7
370
    25
100
AcDbLine
 10
170.0866172517
 20
99.4768918849
 30
0.0
 11
170.2819464323
 21
100.2838520208
 31
0.0
  0
ARC
  5
3AD
330
1F
100
AcDbEntity
  8
0
  6
Continuous
 62
     7
370
    25
100
AcDbCircle
 10
167.3338690248
 20
100.0326016817
 30
0.0
 40
2.808279932381964
100
AcDbArc
 50
290.5195493307
 51
348.5868322193
  0
LWPOLYLINE
  5
3AE
330
1F
100
AcDbEntity
  8
0
  6
Continuous
 62
     7
370
    25
100
AcDbPolyline
 90
       27
 70
   128
 43
0.0
 10
84.3993002407
 20
48.534285941
 10
87.5313041345
 20
51.4646953823
 10
90.6854813281
 20
54.3217988228
 10
93.8600568311
 20
57.103988448
 10
97.0532441741
 20
59.809698601
 10
100.263246414
 20
62.4374066628
 10
103.4882571452
 20
64.9856339097
 10
106.7264615162
 20
67.4529463451
 10
109.9760372508
 20
69.837955507
 10
113.2351556738
 20
72.1393192485
 10
116.5019827399
 20
74.3557424939
 10
119.7746800656
 20
76.485977967
 10
123.0514059642
 20
78.5288268931
 10
126.3303164818
 20
80.4831396737
 10
129.6095664353
 20
82.3478165335
 10
132.8873104504
 20
84.1218081391
 10
136.1617040004
 20
85.8041161893
 10
139.4309044438
 20
87.3937939776
 10
142.6930720618
 20
88.8899469243
 10
145.9463710931
 20
90.2917330801
 10
149.1889707671
 20
91.5983635999
 10
152.4190463344
 20
92.8091031868
 10
155.6347800931
 20
93.9232705059
 10
158.8343624124
 20
94.9402385677
 10
162.0159927504
 20
95.8594350805
 10
165.1778806676
 20
96.6803427733
 10
168.3182468344
 20
97.4024996862
  0
LWPOLYLINE
  5
3AF
330
1F
100
AcDbEntity
  8
0
  6
Continuous
 62
     7
370
    25
100
AcDbPolyline
 90
        3
 70
   128
 43
0.0
 10
83.8864661609
 20
48.1614762801
 10
84.1302022039
 20
48.311009308
 10
84.3993002407
 20
48.534285941
  0
LWPOLYLINE
  5
3B0
330
1F
100
AcDbEntity
  8
0
  6
Continuous
 62
     7
370
    25
100
AcDbPolyline
 90
        8
 70
   128
 43
0.0
 10
81.7615867326
 20
48.7274501775
 10
81.8141001095
 20
48.8676247872
 10
81.8930262861
 20
48.9994412755
 10
81.9909092831
 20
49.1104472335
 10
82.0985023126
 20
49.1901561765
 10
82.2056413014
 20
49.2310381787
 10
82.3022050689
 20
49.2292312088
 10
82.343675694
 20
49.2121733096
  0
LWPOLYLINE
  5
3B1
330
1F
100
AcDbEntity
  8
0
  6
Continuous
 62
     7
370
    25
100
AcDbPolyline
 90
       12
 70
   128
 43
0.0
 10
76.165484454
 20
42.6447708995
 10
76.755189342
 20
42.7623667451
 10
77.3667334969
 20
42.9942764714
 10
77.9870370457
 20
43.3355399298
 10
78.6028327668
 20
43.7788580845
 10
79.2009498533
 20
44.3147491258
 10
79.7685956139
 20
44.93175127
 10
80.2936290861
 20
45.6166679068
 10
80.7648207107
 20
46.3548498524
 10
81.1720925129
 20
47.13050867
 10
81.5067336522
 20
47.9270543572
 10
81.7615867326
 20
48.7274501775
  0
ARC
  5
3B2
330
1F
100
AcDbEntity
  8
0
  6
Continuous
 62
     7
370
    25
100
AcDbCircle
 10
76.3513447144
 20
42.0041073158
 30
0.0
 40
0.6670786040087374
100
AcDbArc
 50
106.1777537061
 51
193.3527940318
  0
LINE
  5
3B3
330
1F
100
AcDbEntity
  8
0
  6
Continuous
 62
     7
370
    25
100
AcDbLine
 10
73.2712054814
 20
47.5734492485
 30
0.0
 11
75.7022995898
 21
41.8500479435
 31
0.0
  0
LWPOLYLINE
  5
3B4
330
1F
100
AcDbEntity
  8
0
  6
Continuous
 62
     7
370
    25
100
AcDbPolyline
 90
        3
 70
   128
 43
0.0
 10
73.350178084
 20
47.4799565344
 10
73.3224170583
 20
47.5000177115
 10
73.2712054814
 20
47.5734492485
  0
LWPOLYLINE
  5
3B5
330
1F
100
AcDbEntity
  8
0
  6
Continuous
 62
     7
370
    25
100
AcDbPolyline
 90
       31
 70
   128
 43
0.0
 10
175.5624537793
 20
106.9531082328
 10
175.8917376485
 20
106.9494553319
 10
176.1789427611
 20
106.8466873111
 10
176.4115168755
 20
106.6492956261
 10
176.579295387
 20
106.3659072408
 10
176.6749455694
 20
106.0089075873
 10
176.6942870509
 20
105.5938992636
 10
176.6364745158
 20
105.139020125
 10
176.5040346494
 20
104.6641505725
 10
176.3027557094
 20
104.1900446842
 10
176.0414345512
 20
103.7374231625
 10
175.7314921635
 20
103.3260677397
 10
175.3864745158
 20
102.9739566219
 10
175.021460535
 20
102.6964787543
 10
174.6524030835
 20
102.5057612514
 10
174.2954317429
 20
102.4101393832
 10
173.9661478737
 20
102.4137922841
 10
173.6789427611
 20
102.5165603049
 10
173.4463686467
 20
102.7139519899
 10
173.2785901352
 20
102.9973403753
 10
173.1829399528
 20
103.3543400288
 10
173.1635984713
 20
103.7693483524
 10
173.2214110064
 20
104.2242274911
 10
173.3538508728
 20
104.6990970436
 10
173.5551298128
 20
105.1732029319
 10
173.816450971
 20
105.6258244536
 10
174.1263933587
 20
106.0371798763
 10
174.4714110064
 20
106.3892909942
 10
174.8364249872
 20
106.6667688617
 10
175.2054824387
 20
106.8574863646
 10
175.5624537793
 20
106.9531082328
  0
LWPOLYLINE
  5
3B6
330
1F
100
AcDbEntity
  8
0
  6
Continuous
 62
     7
370
    25
100
AcDbPolyline
 90
       31
 70
   128
 43
0.0
 10
78.4097864121
 20
50.3785501917
 10
78.7390702813
 20
50.3748972907
 10
79.0262753939
 20
50.2721292699
 10
79.2588495083
 20
50.074737585
 10
79.4266280198
 20
49.7913491996
 10
79.5222782022
 20
49.4343495461
 10
79.5416196837
 20
49.0193412224
 10
79.4838071486
 20
48.5644620838
 10
79.3513672822
 20
48.0895925313
 10
79.1500883422
 20
47.615486643
 10
78.888767184
 20
47.1628651213
 10
78.5788247963
 20
46.7515096985
 10
78.2338071486
 20
46.3993985807
 10
77.8687931678
 20
46.1219207132
 10
77.4997357163
 20
45.9312032103
 10
77.1427643757
 20
45.835581342
 10
76.8134805065
 20
45.839234243
 10
76.5262753939
 20
45.9420022637
 10
76.2937012794
 20
46.1393939487
 10
76.125922768
 20
46.4227823341
 10
76.0302725855
 20
46.7797819876
 10
76.0109311041
 20
47.1947903112
 10
76.0687436391
 20
47.6496694499
 10
76.2011835055
 20
48.1245390024
 10
76.4024624456
 20
48.5986448907
 10
76.6637836038
 20
49.0512664124
 10
76.9737259915
 20
49.4626218351
 10
77.3187436391
 20
49.814732953
 10
77.68375762
 20
50.0922108205
 10
78.0528150715
 20
50.2829283234
 10
78.4097864121
 20
50.3785501917
  0
LINE
  5
3B7
330
1F
100
AcDbEntity
  8
0
  6
Continuous
 62
     7
370
    25
100
AcDbLine
 10
112.1306173557
 20
73.8368185656
 30
0.0
 11
111.8442911118
 21
74.1472786985
 31
0.0
  0
SPLINE
  5
3B8
330
1F
100
AcDbEntity
  8
0
  6
Continuous
 62
     7
370
    25
100
AcDbSpline
210
0.0
220
0.0
230
1.0
 70
     8
 71
     3
 72
    12
 73
     8
 74
     0
 42
0.00000001
 43
0.00000001
 40
0.0
 40
0.0
 40
0.0
 40
0.0
 40
0.2851914355001456
 40
0.5686175055935053
 40
0.7781187918425602
 40
0.9873937387618439
 40
1.0
 40
1.0
 40
1.0
 40
1.0
 10
110.1978198488189
 20
78.91415220482945
 30
0.0
 10
110.3951422882477
 20
79.05276293735488
 30
0.0
 10
110.7885657201572
 20
79.32912638718598
 30
0.0
 10
111.3396925344473
 20
79.64215579667169
 30
0.0
 10
111.803603472885
 20
79.72108184413467
 30
0.0
 10
112.06482773388
 20
79.66743192120981
 30
0.0
 10
112.1500059384813
 20
79.56731850240357
 30
0.0
 10
112.1548453690393
 20
79.56163052223891
 30
0.0
  0
LINE
  5
3B9
330
1F
100
AcDbEntity
  8
0
  6
Continuous
 62
     7
370
    25
100
AcDbLine
 10
109.0841869135
 20
78.117659231
 30
0.0
 11
110.1978198488
 21
78.9141522048
 31
0.0
  0
LINE
  5
3BA
330
1F
100
AcDbEntity
  8
0
  6
Continuous
 62
     7
370
    25
100
AcDbLine
 10
109.7421372414
 20
72.1285828888
 30
0.0
 11
109.0841869135
 21
78.117659231
 31
0.0
  0
LINE
  5
3BB
330
1F
100
AcDbEntity
  8
0
  6
Continuous
 62
     7
370
    25
100
AcDbLine
 10
118.5813167917
 20
78.1332392827
 30
0.0
 11
117.293258838
 21
79.3686057781
 31
0.0
  0
LINE
  5
3BC
330
1F
100
AcDbEntity
  8
0
  6
Continuous
 62
     7
370
    25
100
AcDbLine
 10
118.1754814505
 20
84.2621416038
 30
0.0
 11
119.2242494759
 21
84.9480344221
 31
0.0
  0
LINE
  5
3BD
330
1F
100
AcDbEntity
  8
0
  6
Continuous
 62
     7
370
    25
100
AcDbLine
 10
118.3972595607
 20
80.5340210385
 30
0.0
 11
118.1754814505
 21
84.2621416038
 31
0.0
  0
LINE
  5
3BE
330
1F
100
AcDbEntity
  8
0
  6
Continuous
 62
     7
370
    25
100
AcDbLine
 10
114.8064909501
 20
82.0589411851
 30
0.0
 11
115.8100182511
 21
82.7153599138
 31
0.0
  0
LINE
  5
3BF
330
1F
100
AcDbEntity
  8
0
  6
Continuous
 62
     7
370
    25
100
AcDbLine
 10
115.1720411571
 20
75.903983151
 30
0.0
 11
114.8064909501
 21
82.0589411851
 31
0.0
  0
LINE
  5
3C0
330
1F
100
AcDbEntity
  8
0
  6
Continuous
 62
     7
370
    25
100
AcDbLine
 10
125.7569985356
 20
82.4856188836
 30
0.0
 11
125.5803187037
 21
83.0906721947
 31
0.0
  0
LINE
  5
3C1
330
1F
100
AcDbEntity
  8
0
  6
Continuous
 62
     7
370
    25
100
AcDbLine
 10
126.9598899572
 20
89.5861573848
 30
0.0
 11
128.000068239
 21
90.1910258008
 31
0.0
  0
LINE
  5
3C2
330
1F
100
AcDbEntity
  8
0
  6
Continuous
 62
     7
370
    25
100
AcDbLine
 10
126.562408775
 20
87.272470388
 30
0.0
 11
126.9598899572
 21
89.5861573848
 31
0.0
  0
LINE
  5
3C3
330
1F
100
AcDbEntity
  8
0
  6
Continuous
 62
     7
370
    25
100
AcDbLine
 10
124.2877826147
 20
88.034085814
 30
0.0
 11
125.1664950763
 21
88.5443276585
 31
0.0
  0
LINE
  5
3C4
330
1F
100
AcDbEntity
  8
0
  6
Continuous
 62
     7
370
    25
100
AcDbLine
 10
123.8347252959
 20
85.8802913302
 30
0.0
 11
124.2877826147
 21
88.034085814
 31
0.0
  0
LINE
  5
3C5
330
1F
100
AcDbEntity
  8
0
  6
Continuous
 62
     7
370
    25
100
AcDbLine
 10
121.4577266499
 20
86.3892361563
 30
0.0
 11
122.4975059423
 21
86.9926739765
 31
0.0
  0
LINE
  5
3C6
330
1F
100
AcDbEntity
  8
0
  6
Continuous
 62
     7
370
    25
100
AcDbLine
 10
122.7309451852
 20
80.7263665095
 30
0.0
 11
121.4577266499
 21
86.3892361563
 31
0.0
  0
SPLINE
  5
3C7
330
1F
100
AcDbEntity
  8
0
  6
Continuous
 62
     7
370
    25
100
AcDbSpline
210
0.0
220
0.0
230
1.0
 70
     8
 71
     3
 72
    11
 73
     7
 74
     0
 42
0.00000001
 43
0.00000001
 40
0.0
 40
0.0
 40
0.0
 40
0.0
 40
0.4490888389168539
 40
0.7521918787043542
 40
0.9952819187952934
 40
0.9999999999999999
 40
0.9999999999999999
 40
0.9999999999999999
 40
0.9999999999999999
 10
138.2222294361513
 20
95.67207092636332
 30
0.0
 10
138.4930919576049
 20
95.79847134028525
 30
0.0
 10
138.9467674249671
 20
96.01018304758618
 30
0.0
 10
139.5189115922996
 20
96.13443808470073
 30
0.0
 10
139.8123091325358
 20
96.08078045628754
 30
0.0
 10
139.89286979952
 20
95.98187777031688
 30
0.0
 10
139.894403614339
 20
95.9799947371808
 30
0.0
  0
LINE
  5
3C8
330
1F
100
AcDbEntity
  8
0
  6
Continuous
 62
     7
370
    25
100
AcDbLine
 10
137.1066906919
 20
95.134222018
 30
0.0
 11
138.2222294362
 21
95.6720709264
 31
0.0
  0
LINE
  5
3C9
330
1F
100
AcDbEntity
  8
0
  6
Continuous
 62
     7
370
    25
100
AcDbLine
 10
136.6522076922
 20
88.4892802041
 30
0.0
 11
137.1066906919
 21
95.134222018
 31
0.0
  0
LINE
  5
3CA
330
1F
100
AcDbEntity
  8
0
  6
Continuous
 62
     7
370
    25
100
AcDbLine
 10
144.440516368
 20
92.0816262153
 30
0.0
 11
144.3998669124
 21
92.2954255019
 31
0.0
  0
LINE
  5
3CB
330
1F
100
AcDbEntity
  8
0
  6
Continuous
 62
     7
370
    25
100
AcDbLine
 10
146.8883228473
 20
99.5776055972
 30
0.0
 11
147.8962134475
 21
100.0128919738
 31
0.0
  0
LINE
  5
3CC
330
1F
100
AcDbEntity
  8
0
  6
Continuous
 62
     7
370
    25
100
AcDbLine
 10
145.8343870189
 20
96.4497102744
 30
0.0
 11
146.8883228473
 21
99.5776055972
 31
0.0
  0
LINE
  5
3CD
330
1F
100
AcDbEntity
  8
0
  6
Continuous
 62
     7
370
    25
100
AcDbLine
 10
143.3093023117
 20
98.0348202883
 30
0.0
 11
144.3315031275
 21
98.4747787081
 31
0.0
  0
LINE
  5
3CE
330
1F
100
AcDbEntity
  8
0
  6
Continuous
 62
     7
370
    25
100
AcDbLine
 10
141.667457608
 20
90.885095033
 30
0.0
 11
143.3093023117
 21
98.0348202883
 31
0.0
  0
LINE
  5
3CF
330
1F
100
AcDbEntity
  8
0
  6
Continuous
 62
     7
370
    25
100
AcDbLine
 10
152.6654790856
 20
96.5915092883
 30
0.0
 11
153.1161696883
 21
96.7599115327
 31
0.0
  0
LINE
  5
3D0
330
1F
100
AcDbEntity
  8
0
  6
Continuous
 62
     7
370
    25
100
AcDbLine
 10
150.925536317
 20
101.2105274298
 30
0.0
 11
153.8966253796
 21
102.3206735417
 31
0.0
  0
LINE
  5
3D1
330
1F
100
AcDbEntity
  8
0
  6
Continuous
 62
     7
370
    25
100
AcDbLine
 10
149.9655756137
 20
94.371148184
 30
0.0
 11
150.925536317
 21
101.2105274298
 31
0.0
  0
ARC
  5
3D2
330
1F
100
AcDbEntity
  8
0
  6
Continuous
 62
     7
370
    25
100
AcDbCircle
 10
175.1078329295
 20
98.1408671277
 30
0.0
 40
2.716354245727096
100
AcDbArc
 50
287.9613979255
 51
347.4170384048
  0
LWPOLYLINE
  5
3D3
330
1F
100
AcDbEntity
  8
0
  6
Continuous
 62
     7
370
    25
100
AcDbPolyline
 90
       31
 70
   128
 43
0.0
 10
79.6491893739
 20
39.4810215832
 10
82.7274627225
 20
42.5673932491
 10
85.8320997138
 20
45.5831662584
 10
88.961306466
 20
48.5265980756
 10
92.1132749008
 20
51.3959879644
 10
95.286183788
 20
54.1896779706
 10
98.4781997978
 20
56.9060538798
 10
101.6874785601
 20
59.5435461503
 10
104.9121657305
 20
62.10063082
 10
108.1503980614
 20
64.5758303867
 10
111.4003044785
 20
66.9677146623
 10
114.6600071625
 20
69.2749015986
 10
117.9276226334
 20
71.4960580863
 10
121.2012628394
 20
73.6299007252
 10
124.4790362473
 20
75.6751965653
 10
127.759048936
 20
77.63076382
 10
131.0394056904
 20
79.4954725483
 10
134.3182110964
 20
81.268245308
 10
137.5935706367
 20
82.9480577781
 10
140.8635917846
 20
84.5339393509
 10
144.1263850983
 20
86.0249736924
 10
147.380065312
 20
87.4202992722
 10
150.6227524259
 20
88.719109861
 10
153.8525727917
 20
89.9206549967
 10
157.0676601959
 20
91.0242404178
 10
160.2661569375
 20
92.0292284646
 10
163.4462149021
 20
92.9350384477
 10
166.605996629
 20
93.7411469836
 10
169.7436763735
 20
94.4470882969
 10
172.8574411614
 20
95.0524544895
 10
175.9454918369
 20
95.5568957766
  0
LWPOLYLINE
  5
3D4
330
1F
100
AcDbEntity
  8
0
  6
Continuous
 62
     7
370
    25
100
AcDbPolyline
 90
        9
 70
   128
 43
0.0
 10
77.828661812
 20
39.3570644353
 10
77.9540772535
 20
39.1463068987
 10
78.1246422439
 20
38.9950544007
 10
78.3338875517
 20
38.9090436836
 10
78.5738768688
 20
38.8915369834
 10
78.8355078205
 20
38.9431982985
 10
79.1088572029
 20
39.0620682058
 10
79.3835573526
 20
39.2436381777
 10
79.6491893739
 20
39.4810215832
  0
LINE
  5
3D5
330
1F
100
AcDbEntity
  8
0
  6
Continuous
 62
     7
370
    25
100
AcDbLine
 10
77.1165131522
 20
41.0336398317
 30
0.0
 11
77.828661812
 21
39.3570644353
 31
0.0
  0
ARC
  5
3D6
330
1F
100
AcDbEntity
  8
0
  6
Continuous
 62
     7
370
    25
100
AcDbCircle
 10
77.7655582768
 20
41.187699204
 30
0.0
 40
0.6670786040087145
100
AcDbArc
 50
106.177753706
 51
193.3527940318
  0
LWPOLYLINE
  5
3D7
330
1F
100
AcDbEntity
  8
0
  6
Continuous
 62
     7
370
    25
100
AcDbPolyline
 90
       12
 70
   128
 43
0.0
 10
77.5796980164
 20
41.8283627877
 10
78.1694029043
 20
41.9459586333
 10
78.7809470593
 20
42.1778683595
 10
79.4012506081
 20
42.519131818
 10
80.0170463292
 20
42.9624499727
 10
80.6151634157
 20
43.498341014
 10
81.1828091763
 20
44.1153431582
 10
81.7078426484
 20
44.800259795
 10
82.1790342731
 20
45.5384417406
 10
82.5863060753
 20
46.3141005582
 10
82.9209472146
 20
47.1106462454
 10
83.175800295
 20
47.9110420657
  0
LWPOLYLINE
  5
3D8
330
1F
100
AcDbEntity
  8
0
  6
Continuous
 62
     7
370
    25
100
AcDbPolyline
 90
        9
 70
   128
 43
0.0
 10
83.8431926169
 20
48.2858416487
 10
83.7932850141
 20
48.3684978554
 10
83.7164186312
 20
48.412823097
 10
83.6198548638
 20
48.4146300669
 10
83.5127158749
 20
48.3737480646
 10
83.4051228455
 20
48.2940391217
 10
83.3072398485
 20
48.1830331637
 10
83.2283136719
 20
48.0512166754
 10
83.175800295
 20
47.9110420657
  0
LINE
  5
3D9
330
1F
100
AcDbEntity
  8
0
  6
Continuous
 62
     7
370
    25
100
AcDbLine
 10
83.8431926169
 20
48.2858416487
 30
0.0
 11
84.0372491743
 21
47.7281356444
 31
0.0
  0
LWPOLYLINE
  5
3DA
330
1F
100
AcDbEntity
  8
0
  6
Continuous
 62
     7
370
    25
100
AcDbPolyline
 90
        9
 70
   128
 43
0.0
 10
84.0372491743
 20
47.7281356444
 10
84.1496754806
 20
47.5026557326
 10
84.3087153279
 20
47.3347599209
 10
84.5083352051
 20
47.2308176903
 10
84.7409621124
 20
47.1947723077
 10
84.9977708588
 20
47.2279912305
 10
85.2690188646
 20
47.3292142291
 10
85.5444157663
 20
47.4946011961
 10
85.8135138031
 20
47.7178778292
  0
LWPOLYLINE
  5
3DB
330
1F
100
AcDbEntity
  8
0
  6
Continuous
 62
     7
370
    25
100
AcDbPolyline
 90
       27
 70
   128
 43
0.0
 10
85.8135138031
 20
47.7178778292
 10
88.9455176969
 20
50.6482872705
 10
92.0996948905
 20
53.505390711
 10
95.2742703935
 20
56.2875803362
 10
98.4674577365
 20
58.9932904892
 10
101.6774599764
 20
61.6209985509
 10
104.9024707076
 20
64.1692257978
 10
108.1406750786
 20
66.6365382333
 10
111.3902508132
 20
69.0215473952
 10
114.6493692362
 20
71.3229111367
 10
117.9161963022
 20
73.5393343821
 10
121.188893628
 20
75.6695698551
 10
124.4656195266
 20
77.7124187812
 10
127.7445300442
 20
79.6667315619
 10
131.0237799977
 20
81.5314084217
 10
134.3015240128
 20
83.3054000272
 10
137.5759175627
 20
84.9877080775
 10
140.8451180062
 20
86.5773858658
 10
144.1072856242
 20
88.0735388125
 10
147.3605846555
 20
89.4753249682
 10
150.6031843295
 20
90.781955488
 10
153.8332598968
 20
91.992695075
 10
157.0489936555
 20
93.1068623941
 10
160.2485759748
 20
94.1238304558
 10
163.4302063128
 20
95.0430269687
 10
166.59209423
 20
95.8639346615
 10
169.7324603968
 20
96.5860915744
  0
ARC
  5
3DC
330
1F
100
AcDbEntity
  8
0
  6
Continuous
 62
     7
370
    25
100
AcDbCircle
 10
168.7480825872
 20
99.2161935699
 30
0.0
 40
2.80827993238168
100
AcDbArc
 50
290.5195493307
 51
348.5868322193
  0
LINE
  5
3DD
330
1F
100
AcDbEntity
  8
0
  6
Continuous
 62
     7
370
    25
100
AcDbLine
 10
171.500830814
 20
98.660483773
 30
0.0
 11
171.6961599947
 21
99.4674439089
 31
0.0
  0
LWPOLYLINE
  5
3DE
330
1F
100
AcDbEntity
  8
0
  6
Continuous
 62
     7
370
    25
100
AcDbPolyline
 90
        9
 70
   128
 43
0.0
 10
172.3640051793
 20
99.8684571879
 10
172.3109689161
 20
99.9476247388
 10
172.2315221172
 20
99.9877082567
 10
172.1331972176
 20
99.9849073811
 10
172.0253165045
 20
99.9394876659
 10
171.9181082622
 20
99.8557554021
 10
171.8217370171
 20
99.741649334
 10
171.7453398286
 20
99.6079879783
 10
171.6961599947
 20
99.4674439089
  0
LWPOLYLINE
  5
3DF
330
1F
100
AcDbEntity
  8
0
  6
Continuous
 62
     7
370
    25
100
AcDbPolyline
 90
       13
 70
   128
 43
0.0
 10
172.3640051793
 20
99.8684571879
 10
172.5974230213
 20
99.4021508329
 10
172.8985565248
 20
99.016528116
 10
173.2619617748
 20
98.718560355
 10
173.6810691026
 20
98.5136342346
 10
174.1483018527
 20
98.4054544253
 10
174.6552133549
 20
98.3959766103
 10
175.1926396229
 20
98.4853721302
 10
175.7508650225
 20
98.6720248857
 10
176.3197979109
 20
98.9525605538
 10
176.8891530744
 20
99.3219075884
 10
177.4486376658
 20
99.7733889047
 10
177.9881372783
 20
100.2988425881
  0
LWPOLYLINE
  5
3E0
330
1F
100
AcDbEntity
  8
0
  6
Continuous
 62
     7
370
    25
100
AcDbPolyline
 90
        9
 70
   128
 43
0.0
 10
178.4552895497
 20
100.0458794592
 10
178.4777894936
 20
100.1747570779
 10
178.470454091
 20
100.288985529
 10
178.4339040811
 20
100.3788985308
 10
178.371232412
 20
100.4368874327
 10
178.2877425086
 20
100.4580450767
 10
178.1904994838
 20
100.440581053
 10
178.0877322723
 20
100.3859732085
 10
177.9881372783
 20
100.2988425881
  0
LINE
  5
3E1
330
1F
100
AcDbEntity
  8
0
  6
Continuous
 62
     7
370
    25
100
AcDbLine
 10
177.7589446637
 20
97.5491011593
 30
0.0
 11
178.4552895497
 21
100.0458794592
 31
0.0
  0
ARC
  5
3E2
330
1F
100
AcDbEntity
  8
0
  6
Continuous
 62
     7
370
    25
100
AcDbCircle
 10
73.0294479354
 20
51.1522811659
 30
0.0
 40
2.692017441769817
100
AcDbArc
 50
132.3565696012
 51
192.9218832888
  0
LINE
  5
3E3
330
1F
100
AcDbEntity
  8
0
  6
Continuous
 62
     7
370
    25
100
AcDbLine
 10
70.405603531
 20
50.5502857767
 30
0.0
 11
74.293127906
 21
41.3980847149
 31
0.0
  0
ARC
  5
3E4
330
1F
100
AcDbEntity
  8
0
  6
Continuous
 62
     7
370
    25
100
AcDbCircle
 10
73.4230508359
 20
50.6201288121
 30
0.0
 40
4.025492332790662
100
AcDbArc
 50
310.8132101299
 51
349.1921664028
  0
ARC
  5
3E5
330
1F
100
AcDbEntity
  8
0
  6
Continuous
 62
     7
370
    25
100
AcDbCircle
 10
74.9886587347
 20
41.6651938782
 30
0.0
 40
0.7450573392211266
100
AcDbArc
 50
201.0086075295
 51
239.3664570934
  0
LINE
  5
3E6
330
1F
100
AcDbEntity
  8
0
  6
Continuous
 62
     7
370
    25
100
AcDbLine
 10
103.0265804515
 20
71.5211885006
 30
0.0
 11
101.7112136498
 21
72.5613929675
 31
0.0
  0
LINE
  5
3E7
330
1F
100
AcDbEntity
  8
0
  6
Continuous
 62
     7
370
    25
100
AcDbLine
 10
100.5740239915
 20
69.5750347551
 30
0.0
 11
103.0265804515
 21
71.5211885006
 31
0.0
  0
LINE
  5
3E8
330
1F
100
AcDbEntity
  8
0
  6
Continuous
 62
     7
370
    25
100
AcDbLine
 10
100.5740239915
 20
69.5750347551
 30
0.0
 11
99.0154512128
 21
70.4222503017
 31
0.0
  0
LINE
  5
3E9
330
1F
100
AcDbEntity
  8
0
  6
Continuous
 62
     7
370
    25
100
AcDbLine
 10
103.0265804515
 20
71.5211885006
 30
0.0
 11
103.1698687495
 21
70.7200504248
 31
0.0
  0
LINE
  5
3EA
330
1F
100
AcDbEntity
  8
0
  6
Continuous
 62
     7
370
    25
100
AcDbLine
 10
103.1698687495
 20
70.7200504248
 30
0.0
 11
101.4969671201
 21
69.3927726401
 31
0.0
  0
LINE
  5
3EB
330
1F
100
AcDbEntity
  8
0
  6
Continuous
 62
     7
370
    25
100
AcDbLine
 10
101.4969671201
 20
69.3927726401
 30
0.0
 11
101.7270920024
 21
68.1066808492
 31
0.0
  0
LINE
  5
3EC
330
1F
100
AcDbEntity
  8
0
  6
Continuous
 62
     7
370
    25
100
AcDbLine
 10
101.7270920024
 20
68.1066808492
 30
0.0
 11
103.399949913
 21
69.4339239474
 31
0.0
  0
LINE
  5
3ED
330
1F
100
AcDbEntity
  8
0
  6
Continuous
 62
     7
370
    25
100
AcDbLine
 10
103.399949913
 20
69.4339239474
 30
0.0
 11
103.5404064536
 21
68.6475763071
 31
0.0
  0
LINE
  5
3EE
330
1F
100
AcDbEntity
  8
0
  6
Continuous
 62
     7
370
    25
100
AcDbLine
 10
103.5404064536
 20
68.6475763071
 30
0.0
 11
101.8675283247
 21
67.3203171677
 31
0.0
  0
LINE
  5
3EF
330
1F
100
AcDbEntity
  8
0
  6
Continuous
 62
     7
370
    25
100
AcDbLine
 10
101.8675283247
 20
67.3203171677
 30
0.0
 11
102.3243589854
 21
64.7608360132
 31
0.0
  0
LINE
  5
3F0
330
1F
100
AcDbEntity
  8
0
  6
Continuous
 62
     7
370
    25
100
AcDbLine
 10
102.3243589854
 20
64.7608360132
 30
0.0
 11
101.5446903405
 21
64.1419975702
 31
0.0
  0
LINE
  5
3F1
330
1F
100
AcDbEntity
  8
0
  6
Continuous
 62
     7
370
    25
100
AcDbLine
 10
101.5446903405
 20
64.1419975702
 30
0.0
 11
100.5740239915
 21
69.5750347551
 31
0.0
  0
LINE
  5
3F2
330
1F
100
AcDbEntity
  8
0
  6
Continuous
 62
     7
370
    25
100
AcDbLine
 10
101.5446903405
 20
64.1419975702
 30
0.0
 11
100.0316119632
 21
64.7345707518
 31
0.0
  0
LINE
  5
3F3
330
1F
100
AcDbEntity
  8
0
  6
Continuous
 62
     7
370
    25
100
AcDbLine
 10
103.399949913
 20
69.4339239474
 30
0.0
 11
102.472893062
 21
70.1670709009
 31
0.0
  0
LINE
  5
3F4
330
1F
100
AcDbEntity
  8
0
  6
Continuous
 62
     7
370
    25
100
AcDbLine
 10
108.2451641083
 20
75.4646160501
 30
0.0
 11
106.9364753897
 21
76.5030945994
 31
0.0
  0
LINE
  5
3F5
330
1F
100
AcDbEntity
  8
0
  6
Continuous
 62
     7
370
    25
100
AcDbLine
 10
105.4872480457
 20
73.4306262386
 30
0.0
 11
108.2451641083
 21
75.4646160501
 31
0.0
  0
LINE
  5
3F6
330
1F
100
AcDbEntity
  8
0
  6
Continuous
 62
     7
370
    25
100
AcDbLine
 10
105.4872480457
 20
73.4306262386
 30
0.0
 11
103.9334690057
 21
74.2883483018
 31
0.0
  0
LINE
  5
3F7
330
1F
100
AcDbEntity
  8
0
  6
Continuous
 62
     7
370
    25
100
AcDbLine
 10
108.2451641083
 20
75.4646160501
 30
0.0
 11
108.3534151286
 21
74.627495831
 31
0.0
  0
LINE
  5
3F8
330
1F
100
AcDbEntity
  8
0
  6
Continuous
 62
     7
370
    25
100
AcDbLine
 10
108.3534151286
 20
74.627495831
 30
0.0
 11
106.3898906448
 21
73.1800467106
 31
0.0
  0
LINE
  5
3F9
330
1F
100
AcDbEntity
  8
0
  6
Continuous
 62
     7
370
    25
100
AcDbLine
 10
106.3898906448
 20
73.1800467106
 30
0.0
 11
106.5618554689
 21
71.8471851863
 31
0.0
  0
LINE
  5
3FA
330
1F
100
AcDbEntity
  8
0
  6
Continuous
 62
     7
370
    25
100
AcDbLine
 10
106.5618554689
 20
71.8471851863
 30
0.0
 11
108.5254192251
 21
73.2946632571
 31
0.0
  0
LINE
  5
3FB
330
1F
100
AcDbEntity
  8
0
  6
Continuous
 62
     7
370
    25
100
AcDbLine
 10
108.5254192251
 20
73.2946632571
 30
0.0
 11
108.6310088469
 21
72.4764653608
 31
0.0
  0
LINE
  5
3FC
330
1F
100
AcDbEntity
  8
0
  6
Continuous
 62
     7
370
    25
100
AcDbLine
 10
108.6310088469
 20
72.4764653608
 30
0.0
 11
106.6673818197
 21
71.0289406487
 31
0.0
  0
LINE
  5
3FD
330
1F
100
AcDbEntity
  8
0
  6
Continuous
 62
     7
370
    25
100
AcDbLine
 10
106.6673818197
 20
71.0289406487
 30
0.0
 11
106.9030925765
 21
69.2103198726
 31
0.0
  0
LINE
  5
3FE
330
1F
100
AcDbEntity
  8
0
  6
Continuous
 62
     7
370
    25
100
AcDbLine
 10
106.9030925765
 20
69.2103198726
 30
0.0
 11
108.866541296
 21
70.6577131419
 31
0.0
  0
LINE
  5
3FF
330
1F
100
AcDbEntity
  8
0
  6
Continuous
 62
     7
370
    25
100
AcDbLine
 10
108.866541296
 20
70.6577131419
 30
0.0
 11
108.9747958292
 21
69.8164756623
 31
0.0
  0
LINE
  5
400
330
1F
100
AcDbEntity
  8
0
  6
Continuous
 62
     7
370
    25
100
AcDbLine
 10
108.9747958292
 20
69.8164756623
 30
0.0
 11
106.216838017
 21
67.7824550601
 31
0.0
  0
LINE
  5
401
330
1F
100
AcDbEntity
  8
0
  6
Continuous
 62
     7
370
    25
100
AcDbLine
 10
106.216838017
 20
67.7824550601
 30
0.0
 11
105.4872480457
 21
73.4306262386
 31
0.0
  0
LINE
  5
402
330
1F
100
AcDbEntity
  8
0
  6
Continuous
 62
     7
370
    25
100
AcDbLine
 10
106.216838017
 20
67.7824550601
 30
0.0
 11
104.6970826833
 21
68.3767802502
 31
0.0
  0
LINE
  5
403
330
1F
100
AcDbEntity
  8
0
  6
Continuous
 62
     7
370
    25
100
AcDbLine
 10
108.5254192251
 20
73.2946632571
 30
0.0
 11
107.571853343
 21
74.0513528145
 31
0.0
  0
SPLINE
  5
404
330
1F
100
AcDbEntity
  8
0
  6
Continuous
 62
     7
370
    25
100
AcDbSpline
210
0.0
220
0.0
230
1.0
 70
     8
 71
     3
 72
    30
 73
    26
 74
     0
 42
0.00000001
 43
0.00000001
 40
-0.0007462124502719
 40
-0.0007462124502719
 40
-0.0007462124502719
 40
-0.0007462124502719
 40
0.0
 40
0.0
 40
0.0
 40
0.125
 40
0.125
 40
0.25
 40
0.25
 40
0.3749999999999999
 40
0.3749999999999999
 40
0.4374999999999999
 40
0.4374999999999999
 40
0.4999999999999999
 40
0.4999999999999999
 40
0.6249999999999999
 40
0.6249999999999999
 40
0.7499999999999999
 40
0.7499999999999999
 40
0.8749999999999999
 40
0.8749999999999999
 40
0.9999999999999999
 40
0.9999999999999999
 40
0.9999999999999999
 40
1.003738012643487
 40
1.003738012643487
 40
1.003738012643487
 40
1.003738012643487
 10
112.1511948759479
 20
75.81380342510144
 30
0.0
 10
112.1514949353423
 20
75.81402293093385
 30
0.0
 10
112.1517949947367
 20
75.81424243676632
 30
0.0
 10
112.1520950541311
 20
75.81446194259875
 30
0.0
 10
112.2023587883908
 20
75.85123193892399
 30
0.0
 10
112.2532916656089
 20
75.88844935880687
 30
0.0
 10
112.3575985828457
 20
75.96774287735919
 30
0.0
 10
112.4115631376704
 20
76.01082442854134
 30
0.0
 10
112.5163088450924
 20
76.10029024350762
 30
0.0
 10
112.5671038384134
 20
76.14567052919274
 30
0.0
 10
112.6465680644437
 20
76.22184953121113
 30
0.0
 10
112.674162182
 20
76.24944419911894
 30
0.0
 10
112.7281060160998
 20
76.30729544276838
 30
0.0
 10
112.7537794870889
 20
76.33648600696708
 30
0.0
 10
112.8320585820943
 20
76.43089373077005
 30
0.0
 10
112.8872562150086
 20
76.50778272364379
 30
0.0
 10
112.9772416180609
 20
76.67225532893454
 30
0.0
 10
113.0129561614418
 20
76.76042693139892
 30
0.0
 10
113.0600923308785
 20
76.92710373302627
 30
0.0
 10
113.0728248824928
 20
77.00672124142913
 30
0.0
 10
113.0812285932541
 20
77.1544706076869
 30
0.0
 10
113.0764664120062
 20
77.21827530830366
 30
0.0
 10
113.0726031905115
 20
77.27396402037323
 30
0.0
 10
113.0724876643452
 20
77.27562934125176
 30
0.0
 10
113.0723721381789
 20
77.27729466213032
 30
0.0
 10
113.0722566120126
 20
77.27895998300882
 30
0.0
  0
SPLINE
  5
405
330
1F
100
AcDbEntity
  8
0
  6
Continuous
 62
     7
370
    25
100
AcDbSpline
210
0.0
220
0.0
230
1.0
 70
     8
 71
     3
 72
    44
 73
    40
 74
     0
 42
0.00000001
 43
0.00000001
 40
-0.0036200312070675
 40
-0.0036200312070675
 40
-0.0036200312070675
 40
-0.0036200312070675
 40
0.0
 40
0.0
 40
0.0
 40
0.0625
 40
0.0625
 40
0.09375
 40
0.09375
 40
0.125
 40
0.125
 40
0.1875
 40
0.1875
 40
0.25
 40
0.25
 40
0.3125
 40
0.3125
 40
0.375
 40
0.375
 40
0.4375
 40
0.4375
 40
0.5
 40
0.5
 40
0.53125
 40
0.53125
 40
0.5625
 40
0.5625
 40
0.59375
 40
0.59375
 40
0.625
 40
0.625
 40
0.6875
 40
0.6875
 40
0.75
 40
0.75
 40
1.0
 40
1.0
 40
1.0
 40
1.00018637255475
 40
1.00018637255475
 40
1.00018637255475
 40
1.00018637255475
 10
113.0722566120124
 20
77.27895998300868
 30
0.0
 10
113.0720321136842
 20
77.2805481791134
 30
0.0
 10
113.071807615356
 20
77.28213637521803
 30
0.0
 10
113.0715831170279
 20
77.28372457132268
 30
0.0
 10
113.0677071433944
 20
77.31114484779664
 30
0.0
 10
113.0634739039895
 20
77.34207081271258
 30
0.0
 10
113.052509731887
 20
77.39033420945115
 30
0.0
 10
113.0480250879976
 20
77.40643888650081
 30
0.0
 10
113.0380818919559
 20
77.43638548580864
 30
0.0
 10
113.0325700093665
 20
77.45057062246616
 30
0.0
 10
113.0147982993843
 20
77.49100928826752
 30
0.0
 10
113.0013175750718
 20
77.51582946671856
 30
0.0
 10
112.9684886480558
 20
77.56211108981987
 30
0.0
 10
112.9492171555721
 20
77.58253690962913
 30
0.0
 10
112.9083912979955
 20
77.61609090544677
 30
0.0
 10
112.8866816769525
 20
77.6299708450728
 30
0.0
 10
112.8386787334877
 20
77.65241173291831
 30
0.0
 10
112.8124352541679
 20
77.66036609354215
 30
0.0
 10
112.7598736512608
 20
77.66999832646285
 30
0.0
 10
112.7335146882403
 20
77.6724276848356
 30
0.0
 10
112.6747921479278
 20
77.67117958378402
 30
0.0
 10
112.642451829129
 20
77.66635213679362
 30
0.0
 10
112.5974890943131
 20
77.65553894500596
 30
0.0
 10
112.5831348598658
 20
77.6515168720264
 30
0.0
 10
112.5540452664005
 20
77.64265818733796
 30
0.0
 10
112.538223393316
 20
77.63744144648236
 30
0.0
 10
112.5038192139823
 20
77.62375637030475
 30
0.0
 10
112.4871192463615
 20
77.61590825842949
 30
0.0
 10
112.4578142240327
 20
77.60148675096806
 30
0.0
 10
112.4451751674077
 20
77.59504576889114
 30
0.0
 10
112.4043657702206
 20
77.57417577970716
 30
0.0
 10
112.3748908053495
 20
77.55831245401806
 30
0.0
 10
112.3187956112044
 20
77.52595170468629
 30
0.0
 10
112.2917031429181
 20
77.50958576484207
 30
0.0
 10
112.1559931166965
 20
77.42558221009682
 30
0.0
 10
112.0479970233091
 20
77.35015311535079
 30
0.0
 10
111.9448471474879
 20
77.27677092564248
 30
0.0
 10
111.9447702502644
 20
77.27671621993778
 30
0.0
 10
111.9446933530408
 20
77.27666151423315
 30
0.0
 10
111.9446164558173
 20
77.27660680852847
 30
0.0
  0
LINE
  5
406
330
1F
100
AcDbEntity
  8
0
  6
Continuous
 62
     7
370
    25
100
AcDbLine
 10
111.9446164558
 20
77.2766068085
 30
0.0
 11
111.532750513
 21
76.9817899113
 31
0.0
  0
LINE
  5
407
330
1F
100
AcDbEntity
  8
0
  6
Continuous
 62
     7
370
    25
100
AcDbLine
 10
111.532750513
 20
76.9817899113
 30
0.0
 11
111.6977312325
 21
75.4898851513
 31
0.0
  0
LINE
  5
408
330
1F
100
AcDbEntity
  8
0
  6
Continuous
 62
     7
370
    25
100
AcDbLine
 10
111.6977312325
 20
75.4898851513
 30
0.0
 11
112.1511948759
 21
75.8138034251
 31
0.0
  0
LINE
  5
409
330
1F
100
AcDbEntity
  8
0
  6
Continuous
 62
     7
370
    25
100
AcDbLine
 10
110.6359109642
 20
77.2557096603
 30
0.0
 11
111.6264494785
 21
77.9641629953
 31
0.0
  0
SPLINE
  5
40A
330
1F
100
AcDbEntity
  8
0
  6
Continuous
 62
     7
370
    25
100
AcDbSpline
210
0.0
220
0.0
230
1.0
 70
     8
 71
     3
 72
    38
 73
    34
 74
     0
 42
0.00000001
 43
0.00000001
 40
0.0000830294495785
 40
0.0000830294495785
 40
0.0000830294495785
 40
0.0000830294495785
 40
0.125
 40
0.125
 40
0.1875
 40
0.1875
 40
0.25
 40
0.25
 40
0.3125
 40
0.3125
 40
0.375
 40
0.375
 40
0.4375
 40
0.4375
 40
0.5
 40
0.5
 40
0.625
 40
0.625
 40
0.6875
 40
0.6875
 40
0.71875
 40
0.71875
 40
0.75
 40
0.75
 40
0.78125
 40
0.78125
 40
0.8125
 40
0.8125
 40
0.875
 40
0.875
 40
0.9375
 40
0.9375
 40
0.9992499236566725
 40
0.9992499236566725
 40
0.9992499236566725
 40
0.9992499236566725
 10
111.6264494785409
 20
77.96416299529699
 30
0.0
 10
111.7558039351275
 20
78.05604188849155
 30
0.0
 10
111.8813060234636
 20
78.14391498492986
 30
0.0
 10
112.0728613412599
 20
78.27026825050521
 30
0.0
 10
112.1367609517757
 20
78.31171919921914
 30
0.0
 10
112.2631001697434
 20
78.39061885136154
 30
0.0
 10
112.3261152164623
 20
78.42823742886618
 30
0.0
 10
112.4531018838991
 20
78.50126480299113
 30
0.0
 10
112.5148124480657
 20
78.53548531453563
 30
0.0
 10
112.6370031353062
 20
78.59592260291105
 30
0.0
 10
112.700377948123
 20
78.6245916029771
 30
0.0
 10
112.8192782231999
 20
78.67218326021647
 30
0.0
 10
112.8758013106169
 20
78.69008535602026
 30
0.0
 10
112.9879597426492
 20
78.71461775321877
 30
0.0
 10
113.0427608508123
 20
78.72114136131184
 30
0.0
 10
113.2012109788451
 20
78.72325278595427
 30
0.0
 10
113.2987894351615
 20
78.7010764134495
 30
0.0
 10
113.4295373094192
 20
78.63651477758756
 30
0.0
 10
113.4705800496547
 20
78.60985136092991
 30
0.0
 10
113.5282344213272
 20
78.56318205110723
 30
0.0
 10
113.5468153446087
 20
78.54656022568821
 30
0.0
 10
113.5818336689904
 20
78.51148977616582
 30
0.0
 10
113.5982022756876
 20
78.49299396476644
 30
0.0
 10
113.6299349158513
 20
78.45291393708584
 30
0.0
 10
113.6454340671444
 20
78.43133915354124
 30
0.0
 10
113.6743262383253
 20
78.38737642360775
 30
0.0
 10
113.6874857395811
 20
78.36511737512072
 30
0.0
 10
113.7241387864169
 20
78.29370526330504
 30
0.0
 10
113.7468378881576
 20
78.23890074298862
 30
0.0
 10
113.7851066789808
 20
78.12900807343493
 30
0.0
 10
113.8004720310087
 20
78.07159685446946
 30
0.0
 10
113.8247912766582
 20
77.94930224707552
 30
0.0
 10
113.8336757986271
 20
77.88481368176228
 30
0.0
 10
113.8427979668866
 20
77.81653861313173
 30
0.0
  0
SPLINE
  5
40B
330
1F
100
AcDbEntity
  8
0
  6
Continuous
 62
     7
370
    25
100
AcDbSpline
210
0.0
220
0.0
230
1.0
 70
     8
 71
     3
 72
    43
 73
    39
 74
     0
 42
0.00000001
 43
0.00000001
 40
0.0012043183520054
 40
0.0012043183520054
 40
0.0012043183520054
 40
0.0012043183520054
 40
0.0625
 40
0.0625
 40
0.125
 40
0.125
 40
0.1875
 40
0.1875
 40
0.25
 40
0.25
 40
0.3125
 40
0.3125
 40
0.375
 40
0.375
 40
0.4375
 40
0.4375
 40
0.5
 40
0.5
 40
0.5625
 40
0.5625
 40
0.625
 40
0.625
 40
0.6875
 40
0.6875
 40
0.71875
 40
0.71875
 40
0.75
 40
0.75
 40
0.8125
 40
0.8125
 40
0.875
 40
0.875
 40
0.9375
 40
0.9375
 40
1.0
 40
1.0
 40
1.0
 40
1.072618526855179
 40
1.072618526855179
 40
1.072618526855179
 40
1.072618526855179
 10
113.8427979668867
 20
77.81653861313173
 30
0.0
 10
113.846940457792
 20
77.77319172536836
 30
0.0
 10
113.8508833009517
 20
77.73137475203445
 30
0.0
 10
113.8559537806848
 20
77.64839099876878
 30
0.0
 10
113.8570038047672
 20
77.60571493480772
 30
0.0
 10
113.856998253862
 20
77.51703003458144
 30
0.0
 10
113.8560668681839
 20
77.4722366127922
 30
0.0
 10
113.8511497904097
 20
77.38398636654537
 30
0.0
 10
113.8469454980484
 20
77.33932742856439
 30
0.0
 10
113.8357493491648
 20
77.24596222369718
 30
0.0
 10
113.8291365116742
 20
77.1988683719124
 30
0.0
 10
113.8128943195314
 20
77.10802371147973
 30
0.0
 10
113.8027203760068
 20
77.06208428911194
 30
0.0
 10
113.7787983094461
 20
76.96583209998231
 30
0.0
 10
113.765683508609
 20
76.91774953537985
 30
0.0
 10
113.7367745377554
 20
76.8238268343556
 30
0.0
 10
113.7205248405016
 20
76.77648567884681
 30
0.0
 10
113.6848736294023
 20
76.68165974622765
 30
0.0
 10
113.6655953588002
 20
76.63452246610805
 30
0.0
 10
113.6239911548016
 20
76.54062406758078
 30
0.0
 10
113.6014345083136
 20
76.49328133626653
 30
0.0
 10
113.5542872715043
 20
76.40027537700888
 30
0.0
 10
113.5302798178938
 20
76.35595250216168
 30
0.0
 10
113.4909284651407
 20
76.28843443806151
 30
0.0
 10
113.4772059475919
 20
76.2655810712139
 30
0.0
 10
113.4487922292341
 20
76.21906596224906
 30
0.0
 10
113.4340024430864
 20
76.19517138555845
 30
0.0
 10
113.3905936322578
 20
76.12598577583915
 30
0.0
 10
113.3628012421302
 20
76.08331363908601
 30
0.0
 10
113.3035154443307
 20
75.99835382920364
 30
0.0
 10
113.2713427718553
 20
75.95463751521237
 30
0.0
 10
113.2065594532297
 20
75.8686603939216
 30
0.0
 10
113.1746869298756
 20
75.8276863179009
 30
0.0
 10
113.1089528874862
 20
75.74740704178726
 30
0.0
 10
113.0740855938475
 20
75.70666963680367
 30
0.0
 10
113.0378713070515
 20
75.66439527354483
 30
0.0
 10
112.9957940565196
 20
75.61527684180727
 30
0.0
 10
112.9537168059878
 20
75.56615841006969
 30
0.0
 10
112.911639555456
 20
75.51703997833212
 30
0.0
  0
LINE
  5
40C
330
1F
100
AcDbEntity
  8
0
  6
Continuous
 62
     7
370
    25
100
AcDbLine
 10
112.9116395555
 20
75.5170399783
 30
0.0
 11
114.4728502126
 21
73.8278124113
 31
0.0
  0
LINE
  5
40D
330
1F
100
AcDbEntity
  8
0
  6
Continuous
 62
     7
370
    25
100
AcDbLine
 10
114.4728502126
 20
73.8278124113
 30
0.0
 11
113.6040035574
 21
73.2066058271
 31
0.0
  0
LINE
  5
40E
330
1F
100
AcDbEntity
  8
0
  6
Continuous
 62
     7
370
    25
100
AcDbLine
 10
113.6040035574
 20
73.2066058271
 30
0.0
 11
112.0837259147
 21
74.8550247518
 31
0.0
  0
LINE
  5
40F
330
1F
100
AcDbEntity
  8
0
  6
Continuous
 62
     7
370
    25
100
AcDbLine
 10
112.0837259147
 20
74.8550247518
 30
0.0
 11
111.7895056248
 21
74.6450931016
 31
0.0
  0
LINE
  5
410
330
1F
100
AcDbEntity
  8
0
  6
Continuous
 62
     7
370
    25
100
AcDbLine
 10
111.7895056248
 20
74.6450931016
 30
0.0
 11
112.0686657112
 21
72.10847402
 31
0.0
  0
LINE
  5
411
330
1F
100
AcDbEntity
  8
0
  6
Continuous
 62
     7
370
    25
100
AcDbLine
 10
112.0686657112
 20
72.10847402
 30
0.0
 11
111.2645503413
 21
71.5334399672
 31
0.0
  0
LINE
  5
412
330
1F
100
AcDbEntity
  8
0
  6
Continuous
 62
     7
370
    25
100
AcDbLine
 10
111.2645503413
 20
71.5334399672
 30
0.0
 11
110.6359109642
 21
77.2557096603
 31
0.0
  0
LINE
  5
413
330
1F
100
AcDbEntity
  8
0
  6
Continuous
 62
     7
370
    25
100
AcDbLine
 10
110.6359109642
 20
77.2557096603
 30
0.0
 11
109.0841869135
 21
78.117659231
 31
0.0
  0
LINE
  5
414
330
1F
100
AcDbEntity
  8
0
  6
Continuous
 62
     7
370
    25
100
AcDbLine
 10
111.2645503413
 20
71.5334399672
 30
0.0
 11
109.7421372414
 21
72.1285828888
 31
0.0
  0
LINE
  5
415
330
1F
100
AcDbEntity
  8
0
  6
Continuous
 62
     7
370
    25
100
AcDbLine
 10
108.866541296
 20
70.6577131419
 30
0.0
 11
107.5649766658
 21
71.690619625
 31
0.0
  0
LINE
  5
416
330
1F
100
AcDbEntity
  8
0
  6
Continuous
 62
     7
370
    25
100
AcDbLine
 10
113.072256612
 20
77.278959983
 30
0.0
 11
112.4349407615
 21
77.5812873053
 31
0.0
  0
LINE
  5
417
330
1F
100
AcDbEntity
  8
0
  6
Continuous
 62
     7
370
    25
100
AcDbLine
 10
116.3523455835
 20
81.185449049
 30
0.0
 11
117.1655448187
 21
81.7173720048
 31
0.0
  0
LINE
  5
418
330
1F
100
AcDbEntity
  8
0
  6
Continuous
 62
     7
370
    25
100
AcDbLine
 10
117.1655448187
 20
81.7173720048
 30
0.0
 11
119.9817205689
 21
79.0117745304
 31
0.0
  0
LINE
  5
419
330
1F
100
AcDbEntity
  8
0
  6
Continuous
 62
     7
370
    25
100
AcDbLine
 10
119.9817205689
 20
79.0117745304
 30
0.0
 11
119.7213497139
 21
83.3886444482
 31
0.0
  0
LINE
  5
41A
330
1F
100
AcDbEntity
  8
0
  6
Continuous
 62
     7
370
    25
100
AcDbLine
 10
119.7213497139
 20
83.3886444482
 30
0.0
 11
120.5231937975
 21
83.9130493547
 31
0.0
  0
LINE
  5
41B
330
1F
100
AcDbEntity
  8
0
  6
Continuous
 62
     7
370
    25
100
AcDbLine
 10
120.5231937975
 20
83.9130493547
 30
0.0
 11
120.8723734117
 21
78.0337314648
 31
0.0
  0
LINE
  5
41C
330
1F
100
AcDbEntity
  8
0
  6
Continuous
 62
     7
370
    25
100
AcDbLine
 10
120.8723734117
 20
78.0337314648
 30
0.0
 11
120.0541691174
 21
77.4983911455
 31
0.0
  0
LINE
  5
41D
330
1F
100
AcDbEntity
  8
0
  6
Continuous
 62
     7
370
    25
100
AcDbLine
 10
120.0541691174
 20
77.4983911455
 30
0.0
 11
117.2442785889
 21
80.1933355806
 31
0.0
  0
LINE
  5
41E
330
1F
100
AcDbEntity
  8
0
  6
Continuous
 62
     7
370
    25
100
AcDbLine
 10
117.2442785889
 20
80.1933355806
 30
0.0
 11
117.5033811065
 21
75.8305654442
 31
0.0
  0
LINE
  5
41F
330
1F
100
AcDbEntity
  8
0
  6
Continuous
 62
     7
370
    25
100
AcDbLine
 10
117.5033811065
 20
75.8305654442
 30
0.0
 11
116.7015239602
 21
75.3061519947
 31
0.0
  0
LINE
  5
420
330
1F
100
AcDbEntity
  8
0
  6
Continuous
 62
     7
370
    25
100
AcDbLine
 10
116.7015239602
 20
75.3061519947
 30
0.0
 11
116.3523455835
 21
81.185449049
 31
0.0
  0
LINE
  5
421
330
1F
100
AcDbEntity
  8
0
  6
Continuous
 62
     7
370
    25
100
AcDbLine
 10
113.6040035574
 20
73.2066058271
 30
0.0
 11
112.1306173557
 21
73.8368185656
 31
0.0
  0
LINE
  5
422
330
1F
100
AcDbEntity
  8
0
  6
Continuous
 62
     7
370
    25
100
AcDbLine
 10
117.1655448187
 20
81.7173720048
 30
0.0
 11
115.8100182511
 21
82.7153599138
 31
0.0
  0
LINE
  5
423
330
1F
100
AcDbEntity
  8
0
  6
Continuous
 62
     7
370
    25
100
AcDbLine
 10
116.3523455835
 20
81.185449049
 30
0.0
 11
114.8064909501
 21
82.0589411851
 31
0.0
  0
LINE
  5
424
330
1F
100
AcDbEntity
  8
0
  6
Continuous
 62
     7
370
    25
100
AcDbLine
 10
116.7015239602
 20
75.3061519947
 30
0.0
 11
115.1720411571
 21
75.903983151
 31
0.0
  0
LINE
  5
425
330
1F
100
AcDbEntity
  8
0
  6
Continuous
 62
     7
370
    25
100
AcDbLine
 10
120.0541691174
 20
77.4983911455
 30
0.0
 11
118.5813167917
 21
78.1332392827
 31
0.0
  0
LINE
  5
426
330
1F
100
AcDbEntity
  8
0
  6
Continuous
 62
     7
370
    25
100
AcDbLine
 10
120.5231937975
 20
83.9130493547
 30
0.0
 11
119.2242494759
 21
84.9480344221
 31
0.0
  0
LINE
  5
427
330
1F
100
AcDbEntity
  8
0
  6
Continuous
 62
     7
370
    25
100
AcDbLine
 10
119.7213497139
 20
83.3886444482
 30
0.0
 11
118.1754814505
 21
84.2621416038
 31
0.0
  0
LINE
  5
428
330
1F
100
AcDbEntity
  8
0
  6
Continuous
 62
     7
370
    25
100
AcDbLine
 10
123.0272315319
 20
85.5200750151
 30
0.0
 11
123.8132111465
 21
85.9762197266
 31
0.0
  0
LINE
  5
429
330
1F
100
AcDbEntity
  8
0
  6
Continuous
 62
     7
370
    25
100
AcDbLine
 10
123.8132111465
 20
85.9762197266
 30
0.0
 11
124.7112925053
 21
81.9718083674
 31
0.0
  0
LINE
  5
42A
330
1F
100
AcDbEntity
  8
0
  6
Continuous
 62
     7
370
    25
100
AcDbLine
 10
124.7112925053
 20
81.9718083674
 30
0.0
 11
125.7962334256
 21
87.1295216908
 31
0.0
  0
LINE
  5
42B
330
1F
100
AcDbEntity
  8
0
  6
Continuous
 62
     7
370
    25
100
AcDbLine
 10
125.7962334256
 20
87.1295216908
 30
0.0
 11
126.4875367693
 21
87.5309407086
 31
0.0
  0
LINE
  5
42C
330
1F
100
AcDbEntity
  8
0
  6
Continuous
 62
     7
370
    25
100
AcDbLine
 10
126.4875367693
 20
87.5309407086
 30
0.0
 11
127.6098206841
 21
83.6566344092
 31
0.0
  0
LINE
  5
42D
330
1F
100
AcDbEntity
  8
0
  6
Continuous
 62
     7
370
    25
100
AcDbLine
 10
127.6098206841
 20
83.6566344092
 30
0.0
 11
128.4736280179
 21
88.6847461414
 31
0.0
  0
LINE
  5
42E
330
1F
100
AcDbEntity
  8
0
  6
Continuous
 62
     7
370
    25
100
AcDbLine
 10
128.4736280179
 20
88.6847461414
 30
0.0
 11
129.2600128112
 21
89.1420324861
 31
0.0
  0
LINE
  5
42F
330
1F
100
AcDbEntity
  8
0
  6
Continuous
 62
     7
370
    25
100
AcDbLine
 10
129.2600128112
 20
89.1420324861
 30
0.0
 11
128.085549567
 21
82.3432788323
 31
0.0
  0
LINE
  5
430
330
1F
100
AcDbEntity
  8
0
  6
Continuous
 62
     7
370
    25
100
AcDbLine
 10
128.085549567
 20
82.3432788323
 30
0.0
 11
127.2641999908
 21
81.8661096357
 31
0.0
  0
LINE
  5
431
330
1F
100
AcDbEntity
  8
0
  6
Continuous
 62
     7
370
    25
100
AcDbLine
 10
127.2641999908
 20
81.8661096357
 30
0.0
 11
126.1353445544
 21
85.7319595853
 31
0.0
  0
LINE
  5
432
330
1F
100
AcDbEntity
  8
0
  6
Continuous
 62
     7
370
    25
100
AcDbLine
 10
126.1353445544
 20
85.7319595853
 30
0.0
 11
125.0529914355
 21
80.5811983344
 31
0.0
  0
LINE
  5
433
330
1F
100
AcDbEntity
  8
0
  6
Continuous
 62
     7
370
    25
100
AcDbLine
 10
125.0529914355
 20
80.5811983344
 30
0.0
 11
124.243585558
 21
80.1101205546
 31
0.0
  0
LINE
  5
434
330
1F
100
AcDbEntity
  8
0
  6
Continuous
 62
     7
370
    25
100
AcDbLine
 10
124.243585558
 20
80.1101205546
 30
0.0
 11
123.0272315319
 21
85.5200750151
 31
0.0
  0
LINE
  5
435
330
1F
100
AcDbEntity
  8
0
  6
Continuous
 62
     7
370
    25
100
AcDbLine
 10
123.8132111465
 20
85.9762197266
 30
0.0
 11
122.4975059423
 21
86.9926739765
 31
0.0
  0
LINE
  5
436
330
1F
100
AcDbEntity
  8
0
  6
Continuous
 62
     7
370
    25
100
AcDbLine
 10
123.0272315319
 20
85.5200750151
 30
0.0
 11
121.4577266499
 21
86.3892361563
 31
0.0
  0
LINE
  5
437
330
1F
100
AcDbEntity
  8
0
  6
Continuous
 62
     7
370
    25
100
AcDbLine
 10
124.243585558
 20
80.1101205546
 30
0.0
 11
122.7309451852
 21
80.7263665095
 31
0.0
  0
LINE
  5
438
330
1F
100
AcDbEntity
  8
0
  6
Continuous
 62
     7
370
    25
100
AcDbLine
 10
126.4875367693
 20
87.5309407086
 30
0.0
 11
125.1664950763
 21
88.5443276585
 31
0.0
  0
LINE
  5
439
330
1F
100
AcDbEntity
  8
0
  6
Continuous
 62
     7
370
    25
100
AcDbLine
 10
125.7962334256
 20
87.1295216908
 30
0.0
 11
124.2877826147
 21
88.034085814
 31
0.0
  0
LINE
  5
43A
330
1F
100
AcDbEntity
  8
0
  6
Continuous
 62
     7
370
    25
100
AcDbLine
 10
127.2641999908
 20
81.8661096357
 30
0.0
 11
125.7569985356
 21
82.4856188836
 31
0.0
  0
LINE
  5
43B
330
1F
100
AcDbEntity
  8
0
  6
Continuous
 62
     7
370
    25
100
AcDbLine
 10
129.2600128112
 20
89.1420324861
 30
0.0
 11
128.000068239
 21
90.1910258008
 31
0.0
  0
LINE
  5
43C
330
1F
100
AcDbEntity
  8
0
  6
Continuous
 62
     7
370
    25
100
AcDbLine
 10
128.4736280179
 20
88.6847461414
 30
0.0
 11
126.9598899572
 21
89.5861573848
 31
0.0
  0
LWPOLYLINE
  5
43D
330
1F
100
AcDbEntity
  8
0
  6
Continuous
 62
     7
370
    25
100
AcDbPolyline
 90
        3
 70
   128
 43
0.0
 10
132.9043474829
 20
92.9291775911
 10
132.2203424892
 20
93.396188504
 10
132.0530248365
 20
93.510426313
  0
SPLINE
  5
43E
330
1F
100
AcDbEntity
  8
0
  6
Continuous
 62
     7
370
    25
100
AcDbSpline
210
0.0
220
0.0
230
1.0
 70
     8
 71
     3
 72
    18
 73
    14
 74
     0
 42
0.00000001
 43
0.00000001
 40
0.0080961842320964
 40
0.0080961842320964
 40
0.0080961842320964
 40
0.0080961842320964
 40
0.125
 40
0.125
 40
0.25
 40
0.25
 40
0.4999999999999999
 40
0.4999999999999999
 40
0.7499999999999999
 40
0.7499999999999999
 40
0.8749999999999999
 40
0.8749999999999999
 40
0.9928182583396956
 40
0.9928182583396956
 40
0.9928182583396956
 40
0.9928182583396956
 10
132.4762342753204
 20
92.22779805736033
 30
0.0
 10
132.4792442914402
 20
92.26660272930361
 30
0.0
 10
132.4822473964813
 20
92.30011856828344
 30
0.0
 10
132.4924932936231
 20
92.36002114579698
 30
0.0
 10
132.5010774850543
 20
92.39328851247153
 30
0.0
 10
132.5353632936785
 20
92.49692628157783
 30
0.0
 10
132.5674607602736
 20
92.56420902724474
 30
0.0
 10
132.6515426472535
 20
92.70242924093958
 30
0.0
 10
132.6959861642075
 20
92.76096435459507
 30
0.0
 10
132.7706953599958
 20
92.83621123291064
 30
0.0
 10
132.7957483853519
 20
92.8580837895443
 30
0.0
 10
132.8437518048185
 20
92.89304577357576
 30
0.0
 10
132.8717784020907
 20
92.9100052535374
 30
0.0
 10
132.904347482946
 20
92.92917759111452
 30
0.0
  0
LWPOLYLINE
  5
43F
330
1F
100
AcDbEntity
  8
0
  6
Continuous
 62
     7
370
    25
100
AcDbPolyline
 90
        3
 70
   128
 43
0.0
 10
132.4762342753
 20
92.2277980574
 10
131.7297308587
 20
92.5919525084
 10
131.0322650809
 20
92.9321818227
  0
SPLINE
  5
440
330
1F
100
AcDbEntity
  8
0
  6
Continuous
 62
     7
370
    25
100
AcDbSpline
210
0.0
220
0.0
230
1.0
 70
     8
 71
     3
 72
    18
 73
    14
 74
     0
 42
0.00000001
 43
0.00000001
 40
0.0071528918030587
 40
0.0071528918030587
 40
0.0071528918030587
 40
0.0071528918030587
 40
0.125
 40
0.125
 40
0.25
 40
0.25
 40
0.5
 40
0.5
 40
0.75
 40
0.75
 40
0.875
 40
0.875
 40
0.9928800816133719
 40
0.9928800816133719
 40
0.9928800816133719
 40
0.9928800816133719
 10
132.9043474829307
 20
92.92917759110559
 30
0.0
 10
132.9369847220036
 20
92.94463357558614
 30
0.0
 10
132.96532419855
 20
92.95762792750253
 30
0.0
 10
133.0142011840337
 20
92.97421933901157
 30
0.0
 10
133.0388580776955
 20
92.97901126203637
 30
0.0
 10
133.1105307486399
 20
92.98250018878853
 30
0.0
 10
133.1543210243757
 20
92.96989774456593
 30
0.0
 10
133.2306859744393
 20
92.91852643986195
 30
0.0
 10
133.2592579826234
 20
92.88259994699011
 30
0.0
 10
133.2875861145998
 20
92.81085554035299
 30
0.0
 10
133.2941682892395
 20
92.78531486495852
 30
0.0
 10
133.3005414712978
 20
92.73362100580782
 30
0.0
 10
133.3012200082481
 20
92.70154174779357
 30
0.0
 10
133.3015306920332
 20
92.66388944805674
 30
0.0
  0
SPLINE
  5
441
330
1F
100
AcDbEntity
  8
0
  6
Continuous
 62
     7
370
    25
100
AcDbSpline
210
0.0
220
0.0
230
1.0
 70
     8
 71
     3
 72
    18
 73
    14
 74
     0
 42
0.00000001
 43
0.00000001
 40
0.0070978686557772
 40
0.0070978686557772
 40
0.0070978686557772
 40
0.0070978686557772
 40
0.125
 40
0.125
 40
0.25
 40
0.25
 40
0.4999999999999999
 40
0.4999999999999999
 40
0.7499999999999999
 40
0.7499999999999999
 40
0.8749999999999999
 40
0.8749999999999999
 40
0.992611909338877
 40
0.992611909338877
 40
0.992611909338877
 40
0.992611909338877
 10
133.3015306920332
 20
92.66388944805678
 30
0.0
 10
133.2985806558886
 20
92.6242991696441
 30
0.0
 10
133.2956475534567
 20
92.58972690333023
 30
0.0
 10
133.2854878612339
 20
92.52716004135611
 30
0.0
 10
133.2772457110748
 20
92.49384581316444
 30
0.0
 10
133.244331717668
 20
92.39294252638302
 30
0.0
 10
133.2094966139087
 20
92.31882916550538
 30
0.0
 10
133.12904481327
 20
92.18649316719682
 30
0.0
 10
133.0823175798631
 20
92.12656875472827
 30
0.0
 10
133.0046778817333
 20
92.04888553224491
 30
0.0
 10
132.9792720743101
 20
92.0266564529165
 30
0.0
 10
132.9306895528406
 20
91.99126745037096
 30
0.0
 10
132.902377169367
 20
91.97413443523858
 30
0.0
 10
132.8695361499382
 20
91.95480372636705
 30
0.0
  0
SPLINE
  5
442
330
1F
100
AcDbEntity
  8
0
  6
Continuous
 62
     7
370
    25
100
AcDbSpline
210
0.0
220
0.0
230
1.0
 70
     8
 71
     3
 72
    18
 73
    14
 74
     0
 42
0.00000001
 43
0.00000001
 40
0.0074331219742304
 40
0.0074331219742304
 40
0.0074331219742304
 40
0.0074331219742304
 40
0.125
 40
0.125
 40
0.25
 40
0.25
 40
0.5
 40
0.5
 40
0.75
 40
0.75
 40
0.875
 40
0.875
 40
0.9919166179966146
 40
0.9919166179966146
 40
0.9919166179966146
 40
0.9919166179966146
 10
132.8695361499383
 20
91.95480372636708
 30
0.0
 10
132.8370741975996
 20
91.93958283854927
 30
0.0
 10
132.809252316692
 20
91.9270189227229
 30
0.0
 10
132.7621213023875
 20
91.91176684887043
 30
0.0
 10
132.7375176664067
 20
91.90752767631233
 30
0.0
 10
132.6655237565593
 20
91.90559714165502
 30
0.0
 10
132.6218215746248
 20
91.9189027085942
 30
0.0
 10
132.5470257604537
 20
91.97116977777495
 30
0.0
 10
132.5169312078102
 20
92.00939909510721
 30
0.0
 10
132.490263061891
 20
92.07848429428608
 30
0.0
 10
132.4840880432087
 20
92.1041984988777
 30
0.0
 10
132.4777137387867
 20
92.1584360917784
 30
0.0
 10
132.4768350190293
 20
92.19071963172395
 30
0.0
 10
132.4762342753202
 20
92.2277980573753
 30
0.0
  0
LWPOLYLINE
  5
443
330
1F
100
AcDbEntity
  8
0
  6
Continuous
 62
     7
370
    25
100
AcDbPolyline
 90
        3
 70
   128
 43
0.0
 10
134.5615042456
 20
93.8053969115
 10
133.8774992519
 20
94.2724078244
 10
133.6848607258
 20
94.4039337142
  0
SPLINE
  5
444
330
1F
100
AcDbEntity
  8
0
  6
Continuous
 62
     7
370
    25
100
AcDbSpline
210
0.0
220
0.0
230
1.0
 70
     8
 71
     3
 72
    18
 73
    14
 74
     0
 42
0.00000001
 43
0.00000001
 40
0.0080961842343673
 40
0.0080961842343673
 40
0.0080961842343673
 40
0.0080961842343673
 40
0.125
 40
0.125
 40
0.25
 40
0.25
 40
0.4999999999999999
 40
0.4999999999999999
 40
0.7499999999999999
 40
0.7499999999999999
 40
0.8749999999999999
 40
0.8749999999999999
 40
0.9928182583391669
 40
0.9928182583391669
 40
0.9928182583391669
 40
0.9928182583391669
 10
134.1333910380079
 20
93.10401737774548
 30
0.0
 10
134.136401054127
 20
93.14282204968829
 30
0.0
 10
134.1394041591687
 20
93.1763378886646
 30
0.0
 10
134.1496500563108
 20
93.23624046618173
 30
0.0
 10
134.1582342477418
 20
93.2695078328551
 30
0.0
 10
134.1925200563659
 20
93.37314560195864
 30
0.0
 10
134.2246175229575
 20
93.4404283476227
 30
0.0
 10
134.3086994099446
 20
93.57864856132694
 30
0.0
 10
134.3531429268947
 20
93.63718367497533
 30
0.0
 10
134.4278521226834
 20
93.71243055329457
 30
0.0
 10
134.4529051480419
 20
93.73430310992889
 30
0.0
 10
134.5009085675035
 20
93.76926509395663
 30
0.0
 10
134.5289351647794
 20
93.7862245739202
 30
0.0
 10
134.5615042456333
 20
93.80539691149703
 30
0.0
  0
LWPOLYLINE
  5
445
330
1F
100
AcDbEntity
  8
0
  6
Continuous
 62
     7
370
    25
100
AcDbPolyline
 90
        3
 70
   128
 43
0.0
 10
134.133391038
 20
93.1040173777
 10
133.3868876214
 20
93.4681718288
 10
132.5953471668
 20
93.8542915134
  0
SPLINE
  5
446
330
1F
100
AcDbEntity
  8
0
  6
Continuous
 62
     7
370
    25
100
AcDbSpline
210
0.0
220
0.0
230
1.0
 70
     8
 71
     3
 72
    18
 73
    14
 74
     0
 42
0.00000001
 43
0.00000001
 40
0.0071528918027275
 40
0.0071528918027275
 40
0.0071528918027275
 40
0.0071528918027275
 40
0.125
 40
0.125
 40
0.25
 40
0.25
 40
0.5
 40
0.5
 40
0.75
 40
0.75
 40
0.875
 40
0.875
 40
0.9928800816137416
 40
0.9928800816137416
 40
0.9928800816137416
 40
0.9928800816137416
 10
134.561504245618
 20
93.80539691148817
 30
0.0
 10
134.5941414846911
 20
93.8208528959682
 30
0.0
 10
134.6224809612371
 20
93.83384724788516
 30
0.0
 10
134.671357946721
 20
93.85043865939424
 30
0.0
 10
134.6960148403803
 20
93.85523058241694
 30
0.0
 10
134.7676875113327
 20
93.85871950917566
 30
0.0
 10
134.8114777870652
 20
93.846117064947
 30
0.0
 10
134.8878427371246
 20
93.79474576024649
 30
0.0
 10
134.9164147453097
 20
93.7588192673747
 30
0.0
 10
134.9447428772878
 20
93.68707486073471
 30
0.0
 10
134.9513250519269
 20
93.66153418534279
 30
0.0
 10
134.9576982339853
 20
93.60984032618904
 30
0.0
 10
134.9583767709343
 20
93.57776106817664
 30
0.0
 10
134.9586874547204
 20
93.54010876843915
 30
0.0
  0
SPLINE
  5
447
330
1F
100
AcDbEntity
  8
0
  6
Continuous
 62
     7
370
    25
100
AcDbSpline
210
0.0
220
0.0
230
1.0
 70
     8
 71
     3
 72
    18
 73
    14
 74
     0
 42
0.00000001
 43
0.00000001
 40
0.007097868655889
 40
0.007097868655889
 40
0.007097868655889
 40
0.007097868655889
 40
0.125
 40
0.125
 40
0.25
 40
0.25
 40
0.5
 40
0.5
 40
0.75
 40
0.75
 40
0.875
 40
0.875
 40
0.9926119093410898
 40
0.9926119093410898
 40
0.9926119093410898
 40
0.9926119093410898
 10
134.9586874547205
 20
93.54010876843913
 30
0.0
 10
134.955737418575
 20
93.50051849002583
 30
0.0
 10
134.9528043161442
 20
93.46594622371376
 30
0.0
 10
134.9426446239216
 20
93.40337936173788
 30
0.0
 10
134.9344024737618
 20
93.37006513354757
 30
0.0
 10
134.9014884803565
 20
93.26916184676448
 30
0.0
 10
134.8666533765962
 20
93.19504848588886
 30
0.0
 10
134.7862015759574
 20
93.06271248757844
 30
0.0
 10
134.7394743425449
 20
93.00278807510759
 30
0.0
 10
134.6618346444239
 20
92.92510485262942
 30
0.0
 10
134.6364288369932
 20
92.90287577329731
 30
0.0
 10
134.5878463155321
 20
92.86748677075524
 30
0.0
 10
134.5595339320507
 20
92.8503537556214
 30
0.0
 10
134.5266929126233
 20
92.83102304674873
 30
0.0
  0
SPLINE
  5
448
330
1F
100
AcDbEntity
  8
0
  6
Continuous
 62
     7
370
    25
100
AcDbSpline
210
0.0
220
0.0
230
1.0
 70
     8
 71
     3
 72
    18
 73
    14
 74
     0
 42
0.00000001
 43
0.00000001
 40
0.0074331219770006
 40
0.0074331219770006
 40
0.0074331219770006
 40
0.0074331219770006
 40
0.125
 40
0.125
 40
0.25
 40
0.25
 40
0.5
 40
0.5
 40
0.75
 40
0.75
 40
0.875
 40
0.875
 40
0.9919166179991441
 40
0.9919166179991441
 40
0.9919166179991441
 40
0.9919166179991441
 10
134.5266929126233
 20
92.8310230467487
 30
0.0
 10
134.4942309602848
 20
92.81580215893126
 30
0.0
 10
134.4664090793805
 20
92.80323824310571
 30
0.0
 10
134.4192780650731
 20
92.78798616925287
 30
0.0
 10
134.3946744290954
 20
92.78374699669403
 30
0.0
 10
134.322680519244
 20
92.78181646203979
 30
0.0
 10
134.2789783373139
 20
92.79512202897305
 30
0.0
 10
134.2041825231394
 20
92.84738909816176
 30
0.0
 10
134.1740879705001
 20
92.88561841548201
 30
0.0
 10
134.1474198245773
 20
92.95470361467272
 30
0.0
 10
134.1412448058963
 20
92.98041781926084
 30
0.0
 10
134.1348705014741
 20
93.0346554121611
 30
0.0
 10
134.133991781717
 20
93.06693895210846
 30
0.0
 10
134.1333910380077
 20
93.10401737776047
 30
0.0
  0
LINE
  5
449
330
1F
100
AcDbEntity
  8
0
  6
Continuous
 62
     7
370
    25
100
AcDbLine
 10
133.2446567352
 20
91.3653834094
 30
0.0
 11
131.7508198715
 21
92.2827363752
 31
0.0
  0
LINE
  5
44A
330
1F
100
AcDbEntity
  8
0
  6
Continuous
 62
     7
370
    25
100
AcDbLine
 10
130.9975137565
 20
84.0961855899
 30
0.0
 11
133.2446567352
 21
91.3653834094
 31
0.0
  0
LINE
  5
44B
330
1F
100
AcDbEntity
  8
0
  6
Continuous
 62
     7
370
    25
100
AcDbLine
 10
130.9975137565
 20
84.0961855899
 30
0.0
 11
129.3979115418
 21
84.6714022225
 31
0.0
  0
LINE
  5
44C
330
1F
100
AcDbEntity
  8
0
  6
Continuous
 62
     7
370
    25
100
AcDbLine
 10
133.6567893495
 20
90.4346094807
 30
0.0
 11
132.6439174494
 21
87.1741373176
 31
0.0
  0
LINE
  5
44D
330
1F
100
AcDbEntity
  8
0
  6
Continuous
 62
     7
370
    25
100
AcDbLine
 10
132.6439174494
 20
87.1741373176
 30
0.0
 11
134.4669578711
 21
88.1378283265
 31
0.0
  0
LINE
  5
44E
330
1F
100
AcDbEntity
  8
0
  6
Continuous
 62
     7
370
    25
100
AcDbLine
 10
134.4669578711
 20
88.1378283265
 30
0.0
 11
133.6567893495
 21
90.4346094807
 31
0.0
  0
LINE
  5
44F
330
1F
100
AcDbEntity
  8
0
  6
Continuous
 62
     7
370
    25
100
AcDbLine
 10
133.2446567352
 20
91.3653834094
 30
0.0
 11
134.1368943005
 21
91.8366977476
 31
0.0
  0
LINE
  5
450
330
1F
100
AcDbEntity
  8
0
  6
Continuous
 62
     7
370
    25
100
AcDbLine
 10
134.1368943005
 20
91.8366977476
 30
0.0
 11
135.9387252792
 21
86.7092900348
 31
0.0
  0
LINE
  5
451
330
1F
100
AcDbEntity
  8
0
  6
Continuous
 62
     7
370
    25
100
AcDbLine
 10
135.9387252792
 20
86.7092900348
 30
0.0
 11
135.1150835661
 21
86.2739578648
 31
0.0
  0
LINE
  5
452
330
1F
100
AcDbEntity
  8
0
  6
Continuous
 62
     7
370
    25
100
AcDbLine
 10
135.1150835661
 20
86.2739578648
 30
0.0
 11
134.7331929511
 21
87.3837291067
 31
0.0
  0
LINE
  5
453
330
1F
100
AcDbEntity
  8
0
  6
Continuous
 62
     7
370
    25
100
AcDbLine
 10
134.7331929511
 20
87.3837291067
 30
0.0
 11
132.3184536006
 21
86.1063324594
 31
0.0
  0
LINE
  5
454
330
1F
100
AcDbEntity
  8
0
  6
Continuous
 62
     7
370
    25
100
AcDbLine
 10
132.3184536006
 20
86.1063324594
 30
0.0
 11
131.8226921282
 21
84.5332537964
 31
0.0
  0
LINE
  5
455
330
1F
100
AcDbEntity
  8
0
  6
Continuous
 62
     7
370
    25
100
AcDbLine
 10
131.8226921282
 20
84.5332537964
 30
0.0
 11
130.9975137565
 21
84.0961855899
 31
0.0
  0
LINE
  5
456
330
1F
100
AcDbEntity
  8
0
  6
Continuous
 62
     7
370
    25
100
AcDbLine
 10
134.1368943005
 20
91.8366977476
 30
0.0
 11
133.2700264157
 21
92.4959560211
 31
0.0
  0
LINE
  5
457
330
1F
100
AcDbEntity
  8
0
  6
Continuous
 62
     7
370
    25
100
AcDbLine
 10
134.4669578711
 20
88.1378283265
 30
0.0
 11
133.1640679654
 21
88.848521095
 31
0.0
  0
LINE
  5
458
330
1F
100
AcDbEntity
  8
0
  6
Continuous
 62
     7
370
    25
100
AcDbLine
 10
138.634074524
 20
94.2290178512
 30
0.0
 11
139.6260206656
 21
94.7072774832
 31
0.0
  0
LINE
  5
459
330
1F
100
AcDbEntity
  8
0
  6
Continuous
 62
     7
370
    25
100
AcDbLine
 10
138.634074524
 20
94.2290178512
 30
0.0
 11
137.1066906919
 21
95.134222018
 31
0.0
  0
SPLINE
  5
45A
330
1F
100
AcDbEntity
  8
0
  6
Continuous
 62
     7
370
    25
100
AcDbSpline
210
0.0
220
0.0
230
1.0
 70
     8
 71
     3
 72
    18
 73
    14
 74
     0
 42
0.00000001
 43
0.00000001
 40
0.0
 40
0.0
 40
0.0
 40
0.0
 40
0.2500000000000101
 40
0.2500000000000101
 40
0.3750000000000199
 40
0.3750000000000199
 40
0.5000000000000298
 40
0.5000000000000298
 40
0.750000000000014
 40
0.750000000000014
 40
0.875000000000007
 40
0.875000000000007
 40
1.0
 40
1.0
 40
1.0
 40
1.0
 10
139.7154871177016
 20
92.23921544830097
 30
0.0
 10
139.8325263576317
 20
92.29608518550938
 30
0.0
 10
139.9496346915611
 20
92.35677205828419
 30
0.0
 10
140.125666946477
 20
92.46822962943291
 30
0.0
 10
140.1842150953517
 20
92.508620793298
 30
0.0
 10
140.2996022955863
 20
92.59662342252788
 30
0.0
 10
140.3564860683323
 20
92.64549601497716
 30
0.0
 10
140.5225137877904
 20
92.81510264547754
 30
0.0
 10
140.617321177512
 20
92.958548813969
 30
0.0
 10
140.7103123949419
 20
93.18706177824777
 30
0.0
 10
140.7319991001033
 20
93.26287825111268
 30
0.0
 10
140.7646241990065
 20
93.41182822480614
 30
0.0
 10
140.7733682796908
 20
93.48480085256794
 30
0.0
 10
140.7792619620362
 20
93.5560867926698
 30
0.0
  0
SPLINE
  5
45B
330
1F
100
AcDbEntity
  8
0
  6
Continuous
 62
     7
370
    25
100
AcDbSpline
210
0.0
220
0.0
230
1.0
 70
     8
 71
     3
 72
    41
 73
    37
 74
     0
 42
0.00000001
 43
0.00000001
 40
-0.0026183936516395
 40
-0.0026183936516395
 40
-0.0026183936516395
 40
-0.0026183936516395
 40
0.0
 40
0.0
 40
0.0
 40
0.0625
 40
0.0625
 40
0.125
 40
0.125
 40
0.1875
 40
0.1875
 40
0.25
 40
0.25
 40
0.3125
 40
0.3125
 40
0.375
 40
0.375
 40
0.4375
 40
0.4375
 40
0.5
 40
0.5
 40
0.5625
 40
0.5625
 40
0.59375
 40
0.59375
 40
0.625
 40
0.625
 40
0.6875
 40
0.6875
 40
0.75
 40
0.75
 40
0.8125
 40
0.8125
 40
0.875
 40
0.875
 40
1.00000005713942
 40
1.00000005713942
 40
1.00000005713942
 40
1.00000005713942
 10
140.7792619620361
 20
93.55608679266989
 30
0.0
 10
140.7793132917374
 20
93.557368304275
 30
0.0
 10
140.7793646214387
 20
93.55864981588007
 30
0.0
 10
140.77941595114
 20
93.55993132748513
 30
0.0
 10
140.7806411703994
 20
93.59052049243644
 30
0.0
 10
140.7821149777396
 20
93.62469690416152
 30
0.0
 10
140.7805362759124
 20
93.69725394726314
 30
0.0
 10
140.7771371240285
 20
93.73359804703705
 30
0.0
 10
140.7649638720986
 20
93.80083950093102
 30
0.0
 10
140.7561436926349
 20
93.83206354142479
 30
0.0
 10
140.7349346589758
 20
93.88858213886044
 30
0.0
 10
140.7225934321429
 20
93.91455232301968
 30
0.0
 10
140.6929728741778
 20
93.96312687937011
 30
0.0
 10
140.6756899834258
 20
93.98512347933949
 30
0.0
 10
140.637872479744
 20
94.0228303624613
 30
0.0
 10
140.6173258375941
 20
94.0389612905971
 30
0.0
 10
140.5716595620828
 20
94.06577945404077
 30
0.0
 10
140.5464575560103
 20
94.0760408189177
 30
0.0
 10
140.4947544179869
 20
94.08972683557259
 30
0.0
 10
140.4681214029121
 20
94.09352159236553
 30
0.0
 10
140.4128318159309
 20
94.09589591184397
 30
0.0
 10
140.3845357427222
 20
94.09460628521215
 30
0.0
 10
140.3388212129696
 20
94.08768654608684
 30
0.0
 10
140.3238389251077
 20
94.08457655451527
 30
0.0
 10
140.295793702538
 20
94.07806666596116
 30
0.0
 10
140.2828065921506
 20
94.07477004322045
 30
0.0
 10
140.2422127280328
 20
94.06399360971757
 30
0.0
 10
140.2136202510765
 20
94.05530330841417
 30
0.0
 10
140.1585853535822
 20
94.0364337070988
 30
0.0
 10
140.1319230896072
 20
94.02654393690746
 30
0.0
 10
140.0776072148043
 20
94.00529072161298
 30
0.0
 10
140.0501447273163
 20
93.993802312655
 30
0.0
 10
139.9971417359721
 20
93.97088892018563
 30
0.0
 10
139.9716200896431
 20
93.95965946817509
 30
0.0
 10
139.8928969417016
 20
93.92474037209875
 30
0.0
 10
139.8380650846276
 20
93.89881799344701
 30
0.0
 10
139.7869734720913
 20
93.8742805754454
 30
0.0
  0
LINE
  5
45C
330
1F
100
AcDbEntity
  8
0
  6
Continuous
 62
     7
370
    25
100
AcDbLine
 10
139.786973402
 20
93.8742805418
 30
0.0
 11
139.3744661192
 21
93.6754940318
 31
0.0
  0
LINE
  5
45D
330
1F
100
AcDbEntity
  8
0
  6
Continuous
 62
     7
370
    25
100
AcDbLine
 10
139.3744661192
 20
93.6754940318
 30
0.0
 11
139.2612346429
 21
92.0194819873
 31
0.0
  0
LINE
  5
45E
330
1F
100
AcDbEntity
  8
0
  6
Continuous
 62
     7
370
    25
100
AcDbLine
 10
139.2612346429
 20
92.0194819873
 30
0.0
 11
139.7154871177
 21
92.2392154483
 31
0.0
  0
SPLINE
  5
45F
330
1F
100
AcDbEntity
  8
0
  6
Continuous
 62
     7
370
    25
100
AcDbSpline
210
0.0
220
0.0
230
1.0
 70
     8
 71
     3
 72
    42
 73
    38
 74
     0
 42
0.00000001
 43
0.00000001
 40
0.0000842269098061
 40
0.0000842269098061
 40
0.0000842269098061
 40
0.0000842269098061
 40
0.125
 40
0.125
 40
0.25
 40
0.25
 40
0.3125
 40
0.3125
 40
0.375
 40
0.375
 40
0.4375
 40
0.4375
 40
0.46875
 40
0.46875
 40
0.5
 40
0.5
 40
0.5625
 40
0.5625
 40
0.625
 40
0.625
 40
0.65625
 40
0.65625
 40
0.6875
 40
0.6875
 40
0.71875
 40
0.71875
 40
0.75
 40
0.75
 40
0.78125
 40
0.78125
 40
0.8125
 40
0.8125
 40
0.875
 40
0.875
 40
0.9375
 40
0.9375
 40
0.9991746937913735
 40
0.9991746937913735
 40
0.9991746937913735
 40
0.9991746937913735
 10
139.6260206655857
 20
94.70727748320026
 30
0.0
 10
139.7554589006324
 20
94.76904388316507
 30
0.0
 10
139.8815195886685
 20
94.82830138109493
 30
0.0
 10
140.1340186389325
 20
94.93587097374984
 30
0.0
 10
140.2590754368804
 20
94.98465596766414
 30
0.0
 10
140.4455367431496
 20
95.04862543222067
 30
0.0
 10
140.5058656237791
 20
95.06803263527941
 30
0.0
 10
140.6237041260406
 20
95.09861121250846
 30
0.0
 10
140.6831253884045
 20
95.11094518533844
 30
0.0
 10
140.7963424077832
 20
95.12757598710778
 30
0.0
 10
140.8500984391343
 20
95.13132822418684
 30
0.0
 10
140.9263399492593
 20
95.12712454297198
 30
0.0
 10
140.9509317095369
 20
95.12414445388545
 30
0.0
 10
140.9995486753707
 20
95.11493769454596
 30
0.0
 10
141.0238523391995
 20
95.10872871457296
 30
0.0
 10
141.0949963832738
 20
95.08683997198395
 30
0.0
 10
141.139072952011
 20
95.06786522722449
 30
0.0
 10
141.219092539184
 20
95.01768015728828
 30
0.0
 10
141.2586052645823
 20
94.985609932085
 30
0.0
 10
141.3095566720929
 20
94.93345942534562
 30
0.0
 10
141.3257442077656
 20
94.91442468674566
 30
0.0
 10
141.3575589551561
 20
94.87345963416521
 30
0.0
 10
141.3729438919566
 20
94.85203704855824
 30
0.0
 10
141.4010719727126
 20
94.80825516889053
 30
0.0
 10
141.4139181408229
 20
94.7855351700953
 30
0.0
 10
141.4384527612048
 20
94.73691352763774
 30
0.0
 10
141.4501296975873
 20
94.71124044582088
 30
0.0
 10
141.4714790405328
 20
94.65905384834892
 30
0.0
 10
141.4811103670703
 20
94.63244112927104
 30
0.0
 10
141.4985897635464
 20
94.57687187526761
 30
0.0
 10
141.5065027771196
 20
94.54788269256976
 30
0.0
 10
141.5276088788411
 20
94.459152897546
 30
0.0
 10
141.5373855092952
 20
94.39828184503173
 30
0.0
 10
141.5507500641825
 20
94.26638135831533
 30
0.0
 10
141.5546374509071
 20
94.1981296441818
 30
0.0
 10
141.5560372980991
 20
94.05977818028063
 30
0.0
 10
141.55300348939
 20
93.98977930135221
 30
0.0
 10
141.549209911305
 20
93.9133384913148
 30
0.0
  0
SPLINE
  5
460
330
1F
100
AcDbEntity
  8
0
  6
Continuous
 62
     7
370
    25
100
AcDbSpline
210
0.0
220
0.0
230
1.0
 70
     8
 71
     3
 72
    31
 73
    27
 74
     0
 42
0.00000001
 43
0.00000001
 40
0.0013229964649491
 40
0.0013229964649491
 40
0.0013229964649491
 40
0.0013229964649491
 40
0.125
 40
0.125
 40
0.1875
 40
0.1875
 40
0.25
 40
0.25
 40
0.3125
 40
0.3125
 40
0.375
 40
0.375
 40
0.5
 40
0.5
 40
0.625
 40
0.625
 40
0.6875
 40
0.6875
 40
0.75
 40
0.75
 40
0.875
 40
0.875
 40
1.0
 40
1.0
 40
1.0
 40
1.072279176315213
 40
1.072279176315213
 40
1.072279176315213
 40
1.072279176315213
 10
141.5492099113046
 20
93.91333849131503
 30
0.0
 10
141.5410894463759
 20
93.8162812984228
 30
0.0
 10
141.532588291744
 20
93.72691195510163
 30
0.0
 10
141.5100832733247
 20
93.58733533824942
 30
0.0
 10
141.5011525019191
 20
93.53998000574296
 30
0.0
 10
141.4807597823953
 20
93.44389756986415
 30
0.0
 10
141.469485397246
 20
93.39569232830719
 30
0.0
 10
141.4444517979727
 20
93.30110292530216
 30
0.0
 10
141.4303797189751
 20
93.25385478219394
 30
0.0
 10
141.3990044932827
 20
93.15761867967583
 30
0.0
 10
141.3819691106378
 20
93.10933940534044
 30
0.0
 10
141.3271695118322
 20
92.96583888208221
 30
0.0
 10
141.2859508305656
 20
92.87291922950133
 30
0.0
 10
141.1911569437464
 20
92.6913234719228
 30
0.0
 10
141.1364193885208
 20
92.59914011707207
 30
0.0
 10
141.0505749522695
 20
92.4684482610943
 30
0.0
 10
141.0216885490564
 20
92.42690076616327
 30
0.0
 10
140.9609259350812
 20
92.3451800705359
 30
0.0
 10
140.9287404334709
 20
92.30439748585145
 30
0.0
 10
140.8296379130412
 20
92.1838374460354
 30
0.0
 10
140.7603872639355
 20
92.1059224019098
 30
0.0
 10
140.620066439062
 20
91.96087167087602
 30
0.0
 10
140.5494040330269
 20
91.89586759515606
 30
0.0
 10
140.4708489724425
 20
91.82512955165924
 30
0.0
 10
140.4254258118471
 20
91.78422645151443
 30
0.0
 10
140.3800026512517
 20
91.74332335136972
 30
0.0
 10
140.3345794906562
 20
91.70242025122485
 30
0.0
  0
LINE
  5
461
330
1F
100
AcDbEntity
  8
0
  6
Continuous
 62
     7
370
    25
100
AcDbLine
 10
140.3345794907
 20
91.7024202512
 30
0.0
 11
141.4145784141
 21
89.4308683004
 31
0.0
  0
LINE
  5
462
330
1F
100
AcDbEntity
  8
0
  6
Continuous
 62
     7
370
    25
100
AcDbLine
 10
141.4145784141
 20
89.4308683004
 30
0.0
 11
140.5436461774
 21
89.0107360575
 31
0.0
  0
LINE
  5
463
330
1F
100
AcDbEntity
  8
0
  6
Continuous
 62
     7
370
    25
100
AcDbLine
 10
140.5436461774
 20
89.0107360575
 30
0.0
 11
139.4924349671
 21
91.2264722821
 31
0.0
  0
LINE
  5
464
330
1F
100
AcDbEntity
  8
0
  6
Continuous
 62
     7
370
    25
100
AcDbLine
 10
139.4924349671
 20
91.2264722821
 30
0.0
 11
139.1978225455
 21
91.08272895
 31
0.0
  0
LINE
  5
465
330
1F
100
AcDbEntity
  8
0
  6
Continuous
 62
     7
370
    25
100
AcDbLine
 10
139.1978225455
 20
91.08272895
 30
0.0
 11
139.0052450152
 21
88.2689587235
 31
0.0
  0
LINE
  5
466
330
1F
100
AcDbEntity
  8
0
  6
Continuous
 62
     7
370
    25
100
AcDbLine
 10
139.0052450152
 20
88.2689587235
 30
0.0
 11
138.1998713457
 21
87.8805848912
 31
0.0
  0
LINE
  5
467
330
1F
100
AcDbEntity
  8
0
  6
Continuous
 62
     7
370
    25
100
AcDbLine
 10
138.1998713457
 20
87.8805848912
 30
0.0
 11
138.634074524
 21
94.2290178512
 31
0.0
  0
LINE
  5
468
330
1F
100
AcDbEntity
  8
0
  6
Continuous
 62
     7
370
    25
100
AcDbLine
 10
138.1998713457
 20
87.8805848912
 30
0.0
 11
136.6522076922
 21
88.4892802041
 31
0.0
  0
LINE
  5
469
330
1F
100
AcDbEntity
  8
0
  6
Continuous
 62
     7
370
    25
100
AcDbLine
 10
135.1150835661
 20
86.2739578648
 30
0.0
 11
133.7265063885
 21
86.8511921107
 31
0.0
  0
LINE
  5
46A
330
1F
100
AcDbEntity
  8
0
  6
Continuous
 62
     7
370
    25
100
AcDbLine
 10
140.779261962
 20
93.5560867927
 30
0.0
 11
139.9761486135
 21
93.9507691831
 31
0.0
  0
LINE
  5
46B
330
1F
100
AcDbEntity
  8
0
  6
Continuous
 62
     7
370
    25
100
AcDbLine
 10
140.5436461774
 20
89.0107360575
 30
0.0
 11
139.0977753497
 21
89.620929017
 31
0.0
  0
LINE
  5
46C
330
1F
100
AcDbEntity
  8
0
  6
Continuous
 62
     7
370
    25
100
AcDbLine
 10
144.8113516893
 20
97.1121896581
 30
0.0
 11
145.6415593402
 21
97.4695136208
 31
0.0
  0
LINE
  5
46D
330
1F
100
AcDbEntity
  8
0
  6
Continuous
 62
     7
370
    25
100
AcDbLine
 10
145.6415593402
 20
97.4695136208
 30
0.0
 11
146.481394834
 21
93.0278947989
 31
0.0
  0
LINE
  5
46E
330
1F
100
AcDbEntity
  8
0
  6
Continuous
 62
     7
370
    25
100
AcDbLine
 10
146.481394834
 20
93.0278947989
 30
0.0
 11
148.3752792629
 21
98.6486091609
 31
0.0
  0
LINE
  5
46F
330
1F
100
AcDbEntity
  8
0
  6
Continuous
 62
     7
370
    25
100
AcDbLine
 10
148.3752792629
 20
98.6486091609
 30
0.0
 11
149.1911251983
 21
99.0009555575
 31
0.0
  0
LINE
  5
470
330
1F
100
AcDbEntity
  8
0
  6
Continuous
 62
     7
370
    25
100
AcDbLine
 10
149.1911251983
 20
99.0009555575
 30
0.0
 11
149.412409721
 21
92.9435779876
 31
0.0
  0
LINE
  5
471
330
1F
100
AcDbEntity
  8
0
  6
Continuous
 62
     7
370
    25
100
AcDbLine
 10
149.412409721
 20
92.9435779876
 30
0.0
 11
148.6533277053
 21
92.615746713
 31
0.0
  0
LINE
  5
472
330
1F
100
AcDbEntity
  8
0
  6
Continuous
 62
     7
370
    25
100
AcDbLine
 10
148.6533277053
 20
92.615746713
 30
0.0
 11
148.4853328732
 21
97.0545030426
 31
0.0
  0
LINE
  5
473
330
1F
100
AcDbEntity
  8
0
  6
Continuous
 62
     7
370
    25
100
AcDbLine
 10
148.4853328732
 20
97.0545030426
 30
0.0
 11
146.7033968395
 21
91.7754019487
 31
0.0
  0
LINE
  5
474
330
1F
100
AcDbEntity
  8
0
  6
Continuous
 62
     7
370
    25
100
AcDbLine
 10
146.7033968395
 20
91.7754019487
 30
0.0
 11
145.9587826204
 21
91.454124321
 31
0.0
  0
LINE
  5
475
330
1F
100
AcDbEntity
  8
0
  6
Continuous
 62
     7
370
    25
100
AcDbLine
 10
145.9587826204
 20
91.454124321
 30
0.0
 11
145.1659583069
 21
95.6240515749
 31
0.0
  0
LINE
  5
476
330
1F
100
AcDbEntity
  8
0
  6
Continuous
 62
     7
370
    25
100
AcDbLine
 10
145.1659583069
 20
95.6240515749
 30
0.0
 11
144.0129698722
 21
90.6143785866
 31
0.0
  0
LINE
  5
477
330
1F
100
AcDbEntity
  8
0
  6
Continuous
 62
     7
370
    25
100
AcDbLine
 10
144.0129698722
 20
90.6143785866
 30
0.0
 11
143.2429437093
 21
90.2822585936
 31
0.0
  0
LINE
  5
478
330
1F
100
AcDbEntity
  8
0
  6
Continuous
 62
     7
370
    25
100
AcDbLine
 10
143.2429437093
 20
90.2822585936
 30
0.0
 11
144.8113516893
 21
97.1121896581
 31
0.0
  0
LINE
  5
479
330
1F
100
AcDbEntity
  8
0
  6
Continuous
 62
     7
370
    25
100
AcDbLine
 10
145.6415593402
 20
97.4695136208
 30
0.0
 11
144.3315031275
 21
98.4747787081
 31
0.0
  0
LINE
  5
47A
330
1F
100
AcDbEntity
  8
0
  6
Continuous
 62
     7
370
    25
100
AcDbLine
 10
144.8113516893
 20
97.1121896581
 30
0.0
 11
143.3093023117
 21
98.0348202883
 31
0.0
  0
LINE
  5
47B
330
1F
100
AcDbEntity
  8
0
  6
Continuous
 62
     7
370
    25
100
AcDbLine
 10
143.2429437093
 20
90.2822585936
 30
0.0
 11
141.667457608
 21
90.885095033
 31
0.0
  0
LINE
  5
47C
330
1F
100
AcDbEntity
  8
0
  6
Continuous
 62
     7
370
    25
100
AcDbLine
 10
145.9587826204
 20
91.454124321
 30
0.0
 11
144.440516368
 21
92.0816262153
 31
0.0
  0
LINE
  5
47D
330
1F
100
AcDbEntity
  8
0
  6
Continuous
 62
     7
370
    25
100
AcDbLine
 10
148.3752792629
 20
98.6486091609
 30
0.0
 11
146.8883228473
 21
99.5776055972
 31
0.0
  0
LINE
  5
47E
330
1F
100
AcDbEntity
  8
0
  6
Continuous
 62
     7
370
    25
100
AcDbLine
 10
149.1911251983
 20
99.0009555575
 30
0.0
 11
147.8962134475
 21
100.0128919738
 31
0.0
  0
LINE
  5
47F
330
1F
100
AcDbEntity
  8
0
  6
Continuous
 62
     7
370
    25
100
AcDbLine
 10
148.6533277053
 20
92.615746713
 30
0.0
 11
147.187427241
 21
93.2093734121
 31
0.0
  0
LINE
  5
480
330
1F
100
AcDbEntity
  8
0
  6
Continuous
 62
     7
370
    25
100
AcDbLine
 10
155.1675712836
 20
101.3056528311
 30
0.0
 11
153.8966253796
 21
102.3206735417
 31
0.0
  0
LINE
  5
481
330
1F
100
AcDbEntity
  8
0
  6
Continuous
 62
     7
370
    25
100
AcDbLine
 10
152.440107163
 20
100.2865370709
 30
0.0
 11
155.1675712836
 21
101.3056528311
 31
0.0
  0
LINE
  5
482
330
1F
100
AcDbEntity
  8
0
  6
Continuous
 62
     7
370
    25
100
AcDbLine
 10
152.440107163
 20
100.2865370709
 30
0.0
 11
150.925536317
 21
101.2105274298
 31
0.0
  0
LINE
  5
483
330
1F
100
AcDbEntity
  8
0
  6
Continuous
 62
     7
370
    25
100
AcDbLine
 10
155.1675712836
 20
101.3056528311
 30
0.0
 11
155.0321033402
 21
100.3374954553
 31
0.0
  0
LINE
  5
484
330
1F
100
AcDbEntity
  8
0
  6
Continuous
 62
     7
370
    25
100
AcDbLine
 10
155.0321033402
 20
100.3374954553
 30
0.0
 11
153.0898215927
 21
99.6117545512
 31
0.0
  0
LINE
  5
485
330
1F
100
AcDbEntity
  8
0
  6
Continuous
 62
     7
370
    25
100
AcDbLine
 10
153.0898215927
 20
99.6117545512
 30
0.0
 11
152.873013295
 21
98.0689774162
 31
0.0
  0
LINE
  5
486
330
1F
100
AcDbEntity
  8
0
  6
Continuous
 62
     7
370
    25
100
AcDbLine
 10
152.873013295
 20
98.0689774162
 30
0.0
 11
154.8154010238
 21
98.7947579206
 31
0.0
  0
LINE
  5
487
330
1F
100
AcDbEntity
  8
0
  6
Continuous
 62
     7
370
    25
100
AcDbLine
 10
154.8154010238
 20
98.7947579206
 30
0.0
 11
154.6827391803
 21
97.8504315909
 31
0.0
  0
LINE
  5
488
330
1F
100
AcDbEntity
  8
0
  6
Continuous
 62
     7
370
    25
100
AcDbLine
 10
154.6827391803
 20
97.8504315909
 30
0.0
 11
152.740351729
 21
97.1246511902
 31
0.0
  0
LINE
  5
489
330
1F
100
AcDbEntity
  8
0
  6
Continuous
 62
     7
370
    25
100
AcDbLine
 10
152.740351729
 20
97.1246511902
 30
0.0
 11
152.4446526814
 21
95.0190817121
 31
0.0
  0
LINE
  5
48A
330
1F
100
AcDbEntity
  8
0
  6
Continuous
 62
     7
370
    25
100
AcDbLine
 10
152.4446526814
 20
95.0190817121
 30
0.0
 11
154.3870401707
 21
95.7448621271
 31
0.0
  0
LINE
  5
48B
330
1F
100
AcDbEntity
  8
0
  6
Continuous
 62
     7
370
    25
100
AcDbLine
 10
154.3870401707
 20
95.7448621271
 30
0.0
 11
154.2505261387
 21
94.7724703681
 31
0.0
  0
LINE
  5
48C
330
1F
100
AcDbEntity
  8
0
  6
Continuous
 62
     7
370
    25
100
AcDbLine
 10
154.2505261387
 20
94.7724703681
 30
0.0
 11
151.5231269957
 21
93.7533788867
 31
0.0
  0
LINE
  5
48D
330
1F
100
AcDbEntity
  8
0
  6
Continuous
 62
     7
370
    25
100
AcDbLine
 10
151.5231269957
 20
93.7533788867
 30
0.0
 11
152.440107163
 21
100.2865370709
 31
0.0
  0
LINE
  5
48E
330
1F
100
AcDbEntity
  8
0
  6
Continuous
 62
     7
370
    25
100
AcDbLine
 10
151.5231269957
 20
93.7533788867
 30
0.0
 11
149.9655756137
 21
94.371148184
 31
0.0
  0
LINE
  5
48F
330
1F
100
AcDbEntity
  8
0
  6
Continuous
 62
     7
370
    25
100
AcDbLine
 10
154.8154010238
 20
98.7947579206
 30
0.0
 11
153.5685559424
 21
99.7906354474
 31
0.0
  0
LINE
  5
490
330
1F
100
AcDbEntity
  8
0
  6
Continuous
 62
     7
370
    25
100
AcDbLine
 10
154.3870401707
 20
95.7448621271
 30
0.0
 11
153.1161696883
 21
96.7599115327
 31
0.0
  0
ARC
  5
491
330
1F
100
AcDbEntity
  8
0
  6
Continuous
 62
     7
370
    25
100
AcDbCircle
 10
170.5757182031
 20
107.1946868533
 30
0.0
 40
4.025492332791059
100
AcDbArc
 50
310.8132101299
 51
349.1921664028
  0
ARC
  5
492
330
1F
100
AcDbEntity
  8
0
  6
Continuous
 62
     7
370
    25
100
AcDbCircle
 10
177.3361965053
 20
114.1170514203
 30
0.0
 40
0.7537989019415103
100
AcDbArc
 50
60.7689536073
 51
100.5230808001
  0
LINE
  5
493
330
1F
100
AcDbEntity
  8
0
  6
PHANTOM
 62
     8
370
    18
100
AcDbLine
 10
180.7340629108
 20
112.8171522132
 30
0.0
 11
177.1985290049
 21
114.8581724927
 31
0.0
  0
LINE
  5
494
330
1F
100
AcDbEntity
  8
0
  6
PHANTOM
 62
     8
370
    18
100
AcDbLine
 10
74.7512554356
 20
51.1005709255
 30
0.0
 11
71.2157215296
 21
53.1415912051
 31
0.0
  0
LINE
  5
495
330
1F
100
AcDbEntity
  8
0
  6
PHANTOM
 62
     8
370
    18
100
AcDbLine
 10
73.941137437
 20
48.5092654971
 30
0.0
 11
70.405603531
 21
50.5502857767
 31
0.0
  0
LINE
  5
496
330
1F
100
AcDbEntity
  8
0
  6
PHANTOM
 62
     8
370
    18
100
AcDbLine
 10
77.828661812
 20
39.3570644353
 30
0.0
 11
74.293127906
 21
41.3980847149
 31
0.0
  0
LINE
  5
497
330
1F
100
AcDbEntity
  8
0
  6
PHANTOM
 62
     8
370
    18
100
AcDbLine
 10
73.2712054814
 20
47.5734492485
 30
0.0
 11
74.6854190437
 21
46.7570411367
 31
0.0
  0
LINE
  5
498
330
1F
100
AcDbEntity
  8
0
  6
PHANTOM
 62
     8
370
    18
100
AcDbLine
 10
77.1165131522
 20
41.0336398317
 30
0.0
 11
75.7022995898
 21
41.8500479435
 31
0.0
  0
LINE
  5
499
330
1F
100
AcDbEntity
  8
0
  6
PHANTOM
 62
     8
370
    18
100
AcDbLine
 10
84.3993002407
 20
48.534285941
 30
0.0
 11
85.8135138031
 21
47.7178778292
 31
0.0
  0
LINE
  5
49A
330
1F
100
AcDbEntity
  8
0
  6
PHANTOM
 62
     8
370
    18
100
AcDbLine
 10
168.3182468344
 20
97.4024996862
 30
0.0
 11
169.7324603968
 21
96.5860915744
 31
0.0
  0
LINE
  5
49B
330
1F
100
AcDbEntity
  8
0
  6
PHANTOM
 62
     8
370
    18
100
AcDbLine
 10
83.175800295
 20
47.9110420657
 30
0.0
 11
81.7615867326
 21
48.7274501775
 31
0.0
  0
LINE
  5
49C
330
1F
100
AcDbEntity
  8
0
  6
PHANTOM
 62
     8
370
    18
100
AcDbLine
 10
76.165484454
 20
42.6447708995
 30
0.0
 11
77.5796980164
 21
41.8283627877
 31
0.0
  0
LWPOLYLINE
  5
49D
330
1F
100
AcDbEntity
  8
0
  6
PHANTOM
 62
     8
370
    18
100
AcDbPolyline
 90
        3
 70
   128
 43
0.0
 10
111.6264494785
 20
77.9641629953
 10
111.0320944306
 20
78.3593886231
 10
110.1978198488
 20
78.9141522048
  0
LINE
  5
49E
330
1F
100
AcDbEntity
  8
0
  6
PHANTOM
 62
     8
370
    18
100
AcDbLine
 10
112.1511948759
 20
75.8138034251
 30
0.0
 11
111.623140945
 21
76.1643979391
 31
0.0
  0
LWPOLYLINE
  5
49F
330
1F
100
AcDbEntity
  8
0
  6
PHANTOM
 62
     8
370
    18
100
AcDbPolyline
 90
        4
 70
   128
 43
0.0
 10
139.6260206656
 20
94.7072774832
 10
139.1099918771
 20
95.0619322739
 10
138.6661106813
 20
95.3670016121
 10
138.2222294362
 20
95.6720709264
  0
LINE
  5
4A0
330
1F
100
AcDbEntity
  8
0
  6
PHANTOM
 62
     8
370
    18
100
AcDbLine
 10
139.7154871177
 20
92.2392154483
 30
0.0
 11
139.2959636285
 21
92.5273939243
 31
0.0
  0
LINE
  5
4A1
330
1F
100
AcDbEntity
  8
0
  6
PHANTOM
 62
     8
370
    18
100
AcDbLine
 10
172.2718040198
 20
108.5045169732
 30
0.0
 11
173.6860175821
 21
107.6881088614
 31
0.0
  0
LINE
  5
4A2
330
1F
100
AcDbEntity
  8
0
  6
PHANTOM
 62
     8
370
    18
100
AcDbLine
 10
172.0424548728
 20
107.5570107265
 30
0.0
 11
173.4566684352
 21
106.7406026147
 31
0.0
  0
LINE
  5
4A3
330
1F
100
AcDbEntity
  8
0
  6
PHANTOM
 62
     8
370
    18
100
AcDbLine
 10
178.7682105323
 20
108.9829723081
 30
0.0
 11
180.1824240947
 21
108.1665641962
 31
0.0
  0
LINE
  5
4A4
330
1F
100
AcDbEntity
  8
0
  6
PHANTOM
 62
     8
370
    18
100
AcDbLine
 10
170.0866172517
 20
99.4768918849
 30
0.0
 11
171.500830814
 21
98.660483773
 31
0.0
  0
LINE
  5
4A5
330
1F
100
AcDbEntity
  8
0
  6
PHANTOM
 62
     8
370
    18
100
AcDbLine
 10
171.6961599947
 20
99.4674439089
 30
0.0
 11
170.2819464323
 21
100.2838520208
 31
0.0
  0
LINE
  5
4A6
330
1F
100
AcDbEntity
  8
0
  6
PHANTOM
 62
     8
370
    18
100
AcDbLine
 10
177.9881372783
 20
100.2988425881
 30
0.0
 11
176.573923716
 21
101.1152506999
 31
0.0
  0
ENDSEC
  0
SECTION
  2
OBJECTS
  0
DICTIONARY
  5
C
330
0
100
AcDbDictionary
281
     1
  3
ACAD_GROUP
350
D
  3
ACAD_LAYOUT
350
1A
  3
ACAD_MLINESTYLE
350
17
  3
ACAD_PLOTSETTINGS
350
19
  3
ACAD_PLOTSTYLENAME
350
E
  3
ACAD_SCALELIST
350
47
  3
DWGPROPS
350
4A7
  0
DICTIONARY
  5
D
102
{ACAD_REACTORS
330
C
102
}
330
C
100
AcDbDictionary
281
     1
  0
DICTIONARY
  5
1A
102
{ACAD_REACTORS
330
C
102
}
330
C
100
AcDbDictionary
281
     1
  3
Layout1
350
1E
  3
Layout2
350
26
  3
Model
350
22
  0
DICTIONARY
  5
17
102
{ACAD_REACTORS
330
C
102
}
330
C
100
AcDbDictionary
281
     1
  3
Standard
350
18
  0
DICTIONARY
  5
19
102
{ACAD_REACTORS
330
C
102
}
330
C
100
AcDbDictionary
281
     1
  0
ACDBDICTIONARYWDFLT
  5
E
102
{ACAD_REACTORS
330
C
102
}
330
C
100
AcDbDictionary
281
     1
  3
Normal
350
F
100
AcDbDictionaryWithDefault
340
F
  0
DICTIONARY
  5
47
102
{ACAD_REACTORS
330
C
102
}
330
C
100
AcDbDictionary
281
     1
  3
A0
350
48
  3
A1
350
49
  3
A2
350
4A
  3
A3
350
4B
  3
A4
350
4C
  3
A5
350
4D
  3
A6
350
4E
  3
A7
350
4F
  3
A8
350
50
  3
A9
350
51
  3
B0
350
52
  3
B1
350
53
  3
B2
350
54
  3
B3
350
55
  3
B4
350
56
  3
B5
350
57
  3
B6
350
58
  3
B7
350
59
  3
B8
350
5A
  3
B9
350
5B
  3
C0
350
5C
  3
C1
350
5D
  3
C2
350
5E
  3
C3
350
5F
  3
C4
350
60
  3
C5
350
61
  3
C6
350
62
  3
C7
350
63
  3
C8
350
64
  3
C9
350
65
  3
D0
350
66
  3
D1
350
67
  3
D2
350
68
  0
XRECORD
  5
4A7
102
{ACAD_REACTORS
330
C
102
}
330
C
100
AcDbXrecord
280
     1
  1
DWGPROPS COOKIE
  2

  3

  4

  6

  7

  8
CH-NTL-RS-WSCAD
  9

300
=
301
=
302
=
303
=
304
=
305
=
306
=
307
=
308
=
309
=
 40
0.0
 41
2460554.307635
 42
2460554.307641146
  1

 90
        0
  0
LAYOUT
  5
1E
102
{ACAD_REACTORS
330
1A
102
}
330
1A
100
AcDbPlotSettings
  1

  2
none_device
  4

  6

 40
0.0
 41
0.0
 42
0.0
 43
0.0
 44
0.0
 45
0.0
 46
0.0
 47
0.0
 48
0.0
 49
0.0
140
0.0
141
0.0
142
1.0
143
1.0
 70
   688
 72
     1
 73
     0
 74
     5
  7

 75
    16
147
1.0
148
0.0
149
0.0
100
AcDbLayout
  1
Layout1
 70
     1
 71
     1
 10
0.0
 20
0.0
 11
420.0
 21
297.0
 12
0.0
 22
0.0
 32
0.0
 14
1.0000000000E+20
 24
1.0000000000E+20
 34
1.0000000000E+20
 15
-1.0000000000E+20
 25
-1.0000000000E+20
 35
-1.0000000000E+20
146
0.0
 13
0.0
 23
0.0
 33
0.0
 16
1.0
 26
0.0
 36
0.0
 17
0.0
 27
1.0
 37
0.0
 76
     0
330
1B
  0
LAYOUT
  5
26
102
{ACAD_REACTORS
330
1A
102
}
330
1A
100
AcDbPlotSettings
  1

  2
none_device
  4

  6

 40
0.0
 41
0.0
 42
0.0
 43
0.0
 44
0.0
 45
0.0
 46
0.0
 47
0.0
 48
0.0
 49
0.0
140
0.0
141
0.0
142
1.0
143
1.0
 70
   688
 72
     1
 73
     0
 74
     5
  7

 75
    16
147
1.0
148
0.0
149
0.0
100
AcDbLayout
  1
Layout2
 70
     1
 71
     2
 10
0.0
 20
0.0
 11
0.0
 21
0.0
 12
0.0
 22
0.0
 32
0.0
 14
0.0
 24
0.0
 34
0.0
 15
0.0
 25
0.0
 35
0.0
146
0.0
 13
0.0
 23
0.0
 33
0.0
 16
1.0
 26
0.0
 36
0.0
 17
0.0
 27
1.0
 37
0.0
 76
     0
330
23
  0
LAYOUT
  5
22
102
{ACAD_REACTORS
330
1A
102
}
330
1A
100
AcDbPlotSettings
  1

  2
none_device
  4
Letter_(8.50_x_11.00_Inches)
  6

 40
6.35
 41
6.35
 42
6.35000508
 43
6.35000508
 44
215.9
 45
279.4
 46
0.0
 47
0.0
 48
0.0
 49
0.0
140
0.0
141
0.0
142
1.0
143
1.0
 70
  1712
 72
     1
 73
     0
 74
     0
  7

 75
     0
147
1.0
148
0.0
149
0.0
100
AcDbLayout
  1
Model
 70
     1
 71
     0
 10
0.0
 20
0.0
 11
420.0
 21
297.0
 12
0.0
 22
0.0
 32
0.0
 14
0.0
 24
0.0
 34
0.0
 15
420.0
 25
297.0
 35
0.0
146
0.0
 13
0.0
 23
0.0
 33
0.0
 16
1.0
 26
0.0
 36
0.0
 17
0.0
 27
1.0
 37
0.0
 76
     0
330
1F
331
29
  0
MLINESTYLE
  5
18
102
{ACAD_REACTORS
330
17
102
}
330
17
100
AcDbMlineStyle
  2
Standard
 70
     0
  3

 62
   256
 51
90.0
 52
90.0
 71
     2
 49
0.5
 62
   256
  6
BYLAYER
 49
-0.5
 62
   256
  6
BYLAYER
  0
ACDBPLACEHOLDER
  5
F
102
{ACAD_REACTORS
330
E
102
}
330
E
  0
SCALE
  5
48
102
{ACAD_REACTORS
330
47
102
}
330
47
100
AcDbScale
 70
     0
300
1:1
140
1.0
141
1.0
290
     1
  0
SCALE
  5
49
102
{ACAD_REACTORS
330
47
102
}
330
47
100
AcDbScale
 70
     0
300
1:2
140
1.0
141
2.0
290
     0
  0
SCALE
  5
4A
102
{ACAD_REACTORS
330
47
102
}
330
47
100
AcDbScale
 70
     0
300
1:4
140
1.0
141
4.0
290
     0
  0
SCALE
  5
4B
102
{ACAD_REACTORS
330
47
102
}
330
47
100
AcDbScale
 70
     0
300
1:5
140
1.0
141
5.0
290
     0
  0
SCALE
  5
4C
102
{ACAD_REACTORS
330
47
102
}
330
47
100
AcDbScale
 70
     0
300
1:8
140
1.0
141
8.0
290
     0
  0
SCALE
  5
4D
102
{ACAD_REACTORS
330
47
102
}
330
47
100
AcDbScale
 70
     0
300
1:10
140
1.0
141
10.0
290
     0
  0
SCALE
  5
4E
102
{ACAD_REACTORS
330
47
102
}
330
47
100
AcDbScale
 70
     0
300
1:16
140
1.0
141
16.0
290
     0
  0
SCALE
  5
4F
102
{ACAD_REACTORS
330
47
102
}
330
47
100
AcDbScale
 70
     0
300
1:20
140
1.0
141
20.0
290
     0
  0
SCALE
  5
50
102
{ACAD_REACTORS
330
47
102
}
330
47
100
AcDbScale
 70
     0
300
1:30
140
1.0
141
30.0
290
     0
  0
SCALE
  5
51
102
{ACAD_REACTORS
330
47
102
}
330
47
100
AcDbScale
 70
     0
300
1:40
140
1.0
141
40.0
290
     0
  0
SCALE
  5
52
102
{ACAD_REACTORS
330
47
102
}
330
47
100
AcDbScale
 70
     0
300
1:50
140
1.0
141
50.0
290
     0
  0
SCALE
  5
53
102
{ACAD_REACTORS
330
47
102
}
330
47
100
AcDbScale
 70
     0
300
1:100
140
1.0
141
100.0
290
     0
  0
SCALE
  5
54
102
{ACAD_REACTORS
330
47
102
}
330
47
100
AcDbScale
 70
     0
300
2:1
140
2.0
141
1.0
290
     0
  0
SCALE
  5
55
102
{ACAD_REACTORS
330
47
102
}
330
47
100
AcDbScale
 70
     0
300
4:1
140
4.0
141
1.0
290
     0
  0
SCALE
  5
56
102
{ACAD_REACTORS
330
47
102
}
330
47
100
AcDbScale
 70
     0
300
8:1
140
8.0
141
1.0
290
     0
  0
SCALE
  5
57
102
{ACAD_REACTORS
330
47
102
}
330
47
100
AcDbScale
 70
     0
300
10:1
140
10.0
141
1.0
290
     0
  0
SCALE
  5
58
102
{ACAD_REACTORS
330
47
102
}
330
47
100
AcDbScale
 70
     0
300
100:1
140
100.0
141
1.0
290
     0
  0
SCALE
  5
59
102
{ACAD_REACTORS
330
47
102
}
330
47
100
AcDbScale
 70
     0
300
1/128" = 1'-0"
140
0.0078125
141
12.0
290
     0
  0
SCALE
  5
5A
102
{ACAD_REACTORS
330
47
102
}
330
47
100
AcDbScale
 70
     0
300
1/64" = 1'-0"
140
0.015625
141
12.0
290
     0
  0
SCALE
  5
5B
102
{ACAD_REACTORS
330
47
102
}
330
47
100
AcDbScale
 70
     0
300
1/32" = 1'-0"
140
0.03125
141
12.0
290
     0
  0
SCALE
  5
5C
102
{ACAD_REACTORS
330
47
102
}
330
47
100
AcDbScale
 70
     0
300
1/16" = 1'-0"
140
0.0625
141
12.0
290
     0
  0
SCALE
  5
5D
102
{ACAD_REACTORS
330
47
102
}
330
47
100
AcDbScale
 70
     0
300
3/32" = 1'-0"
140
0.09375
141
12.0
290
     0
  0
SCALE
  5
5E
102
{ACAD_REACTORS
330
47
102
}
330
47
100
AcDbScale
 70
     0
300
1/8" = 1'-0"
140
0.125
141
12.0
290
     0
  0
SCALE
  5
5F
102
{ACAD_REACTORS
330
47
102
}
330
47
100
AcDbScale
 70
     0
300
3/16" = 1'-0"
140
0.1875
141
12.0
290
     0
  0
SCALE
  5
60
102
{ACAD_REACTORS
330
47
102
}
330
47
100
AcDbScale
 70
     0
300
1/4" = 1'-0"
140
0.25
141
12.0
290
     0
  0
SCALE
  5
61
102
{ACAD_REACTORS
330
47
102
}
330
47
100
AcDbScale
 70
     0
300
3/8" = 1'-0"
140
0.375
141
12.0
290
     0
  0
SCALE
  5
62
102
{ACAD_REACTORS
330
47
102
}
330
47
100
AcDbScale
 70
     0
300
1/2" = 1'-0"
140
0.5
141
12.0
290
     0
  0
SCALE
  5
63
102
{ACAD_REACTORS
330
47
102
}
330
47
100
AcDbScale
 70
     0
300
3/4" = 1'-0"
140
0.75
141
12.0
290
     0
  0
SCALE
  5
64
102
{ACAD_REACTORS
330
47
102
}
330
47
100
AcDbScale
 70
     0
300
1" = 1'-0"
140
1.0
141
12.0
290
     0
  0
SCALE
  5
65
102
{ACAD_REACTORS
330
47
102
}
330
47
100
AcDbScale
 70
     0
300
1-1/2" = 1'-0"
140
1.5
141
12.0
290
     0
  0
SCALE
  5
66
102
{ACAD_REACTORS
330
47
102
}
330
47
100
AcDbScale
 70
     0
300
3" = 1'-0"
140
3.0
141
12.0
290
     0
  0
SCALE
  5
67
102
{ACAD_REACTORS
330
47
102
}
330
47
100
AcDbScale
 70
     0
300
6" = 1'-0"
140
6.0
141
12.0
290
     0
  0
SCALE
  5
68
102
{ACAD_REACTORS
330
47
102
}
330
47
100
AcDbScale
 70
     0
300
1'-0" = 1'-0"
140
12.0
141
12.0
290
     0
  0
ENDSEC
  0
EOF
