  0
SECTION
  2
HEADER
  9
$ACADVER
  1
AC1015
  9
$ACADMAINTVER
 70
     6
  9
$DWGCODEPAGE
  3
ANSI_1252
  9
$INSBASE
 10
0.0
 20
0.0
 30
0.0
  9
$EXTMIN
 10
0.0
 20
0.0
 30
0.0
  9
$EXTMAX
 10
420.0
 20
297.0
 30
0.0
  9
$LIMMIN
 10
0.0
 20
0.0
  9
$LIMMAX
 10
420.0
 20
297.0
  9
$ORTHOMODE
 70
     0
  9
$REGENMODE
 70
     1
  9
$FILLMODE
 70
     1
  9
$QTEXTMODE
 70
     0
  9
$MIRRTEXT
 70
     1
  9
$LTSCALE
 40
1.0
  9
$ATTMODE
 70
     1
  9
$TEXTSIZE
 40
3.5
  9
$TRACEWID
 40
1.0
  9
$TEXTSTYLE
  7
Standard
  9
$CLAYER
  8
0
  9
$CELTYPE
  6
ByLayer
  9
$CECOLOR
 62
   256
  9
$CELTSCALE
 40
1.0
  9
$DISPSILH
 70
     0
  9
$DIMSCALE
 40
1.0
  9
$DIMASZ
 40
3.302
  9
$DIMEXO
 40
1.0
  9
$DIMDLI
 40
3.75
  9
$DIMRND
 40
0.0
  9
$DIMDLE
 40
0.0
  9
$DIMEXE
 40
1.0
  9
$DIMTP
 40
0.0
  9
$DIMTM
 40
0.0
  9
$DIMTXT
 40
3.5
  9
$DIMCEN
 40
2.5
  9
$DIMTSZ
 40
0.0
  9
$DIMTOL
 70
     0
  9
$DIMLIM
 70
     0
  9
$DIMTIH
 70
     1
  9
$DIMTOH
 70
     1
  9
$DIMSE1
 70
     0
  9
$DIMSE2
 70
     0
  9
$DIMTAD
 70
     1
  9
$DIMZIN
 70
     0
  9
$DIMBLK
  1

  9
$DIMASO
 70
     1
  9
$DIMSHO
 70
     1
  9
$DIMPOST
  1

  9
$DIMAPOST
  1

  9
$DIMALT
 70
     0
  9
$DIMALTD
 70
     3
  9
$DIMALTF
 40
0.0393700787
  9
$DIMLFAC
 40
1.0
  9
$DIMTOFL
 70
     1
  9
$DIMTVP
 40
0.0
  9
$DIMTIX
 70
     0
  9
$DIMSOXD
 70
     0
  9
$DIMSAH
 70
     0
  9
$DIMBLK1
  1

  9
$DIMBLK2
  1

  9
$DIMSTYLE
  2
ISO-25
  9
$DIMCLRD
 70
     0
  9
$DIMCLRE
 70
     0
  9
$DIMCLRT
 70
     0
  9
$DIMTFAC
 40
1.0
  9
$DIMGAP
 40
1.524
  9
$DIMJUST
 70
     0
  9
$DIMSD1
 70
     0
  9
$DIMSD2
 70
     0
  9
$DIMTOLJ
 70
     0
  9
$DIMTZIN
 70
     0
  9
$DIMALTZ
 70
     0
  9
$DIMALTTZ
 70
     0
  9
$DIMUPT
 70
     0
  9
$DIMDEC
 70
     2
  9
$DIMTDEC
 70
     2
  9
$DIMALTU
 70
     2
  9
$DIMALTTD
 70
     3
  9
$DIMTXSTY
  7
Standard
  9
$DIMAUNIT
 70
     0
  9
$DIMADEC
 70
     2
  9
$DIMALTRND
 40
0.0
  9
$DIMAZIN
 70
     0
  9
$DIMDSEP
 70
    44
  9
$DIMATFIT
 70
     3
  9
$DIMFRAC
 70
     0
  9
$DIMLDRBLK
  1

  9
$DIMLUNIT
 70
     2
  9
$DIMLWD
 70
    -2
  9
$DIMLWE
 70
    -2
  9
$DIMTMOVE
 70
     0
  9
$LUNITS
 70
     2
  9
$LUPREC
 70
     2
  9
$SKETCHINC
 40
1.0
  9
$FILLETRAD
 40
10.0
  9
$AUNITS
 70
     0
  9
$AUPREC
 70
     2
  9
$MENU
  1
.
  9
$ELEVATION
 40
0.0
  9
$PELEVATION
 40
0.0
  9
$THICKNESS
 40
0.0
  9
$LIMCHECK
 70
     0
  9
$CHAMFERA
 40
0.0
  9
$CHAMFERB
 40
0.0
  9
$CHAMFERC
 40
0.0
  9
$CHAMFERD
 40
0.0
  9
$SKPOLY
 70
     0
  9
$TDCREATE
 40
2460554.390124016
  9
$TDUCREATE
 40
2460554.306790683
  9
$TDUPDATE
 40
2460554.39012956
  9
$TDUUPDATE
 40
2460554.306796227
  9
$TDINDWG
 40
0.0000000116
  9
$TDUSRTIMER
 40
0.0000000116
  9
$USRTIMER
 70
     1
  9
$ANGBASE
 50
0.0
  9
$ANGDIR
 70
     0
  9
$PDMODE
 70
     0
  9
$PDSIZE
 40
-1.0
  9
$PLINEWID
 40
0.0
  9
$SPLFRAME
 70
     0
  9
$SPLINETYPE
 70
     6
  9
$SPLINESEGS
 70
     8
  9
$HANDSEED
  5
434
  9
$SURFTAB1
 70
     6
  9
$SURFTAB2
 70
     6
  9
$SURFTYPE
 70
     6
  9
$SURFU
 70
     6
  9
$SURFV
 70
     6
  9
$UCSBASE
  2

  9
$UCSNAME
  2

  9
$UCSORG
 10
0.0
 20
0.0
 30
0.0
  9
$UCSXDIR
 10
1.0
 20
0.0
 30
0.0
  9
$UCSYDIR
 10
0.0
 20
1.0
 30
0.0
  9
$UCSORTHOREF
  2

  9
$UCSORTHOVIEW
 70
     0
  9
$UCSORGTOP
 10
0.0
 20
0.0
 30
0.0
  9
$UCSORGBOTTOM
 10
0.0
 20
0.0
 30
0.0
  9
$UCSORGLEFT
 10
0.0
 20
0.0
 30
0.0
  9
$UCSORGRIGHT
 10
0.0
 20
0.0
 30
0.0
  9
$UCSORGFRONT
 10
0.0
 20
0.0
 30
0.0
  9
$UCSORGBACK
 10
0.0
 20
0.0
 30
0.0
  9
$PUCSBASE
  2

  9
$PUCSNAME
  2

  9
$PUCSORG
 10
0.0
 20
0.0
 30
0.0
  9
$PUCSXDIR
 10
1.0
 20
0.0
 30
0.0
  9
$PUCSYDIR
 10
0.0
 20
1.0
 30
0.0
  9
$PUCSORTHOREF
  2

  9
$PUCSORTHOVIEW
 70
     0
  9
$PUCSORGTOP
 10
0.0
 20
0.0
 30
0.0
  9
$PUCSORGBOTTOM
 10
0.0
 20
0.0
 30
0.0
  9
$PUCSORGLEFT
 10
0.0
 20
0.0
 30
0.0
  9
$PUCSORGRIGHT
 10
0.0
 20
0.0
 30
0.0
  9
$PUCSORGFRONT
 10
0.0
 20
0.0
 30
0.0
  9
$PUCSORGBACK
 10
0.0
 20
0.0
 30
0.0
  9
$USERI1
 70
     0
  9
$USERI2
 70
     0
  9
$USERI3
 70
     0
  9
$USERI4
 70
     0
  9
$USERI5
 70
     0
  9
$USERR1
 40
0.0
  9
$USERR2
 40
0.0
  9
$USERR3
 40
0.0
  9
$USERR4
 40
0.0
  9
$USERR5
 40
0.0
  9
$WORLDVIEW
 70
     1
  9
$SHADEDGE
 70
     3
  9
$SHADEDIF
 70
    70
  9
$TILEMODE
 70
     1
  9
$MAXACTVP
 70
    64
  9
$PINSBASE
 10
0.0
 20
0.0
 30
0.0
  9
$PLIMCHECK
 70
     0
  9
$PEXTMIN
 10
1.0000000000E+20
 20
1.0000000000E+20
 30
1.0000000000E+20
  9
$PEXTMAX
 10
-1.0000000000E+20
 20
-1.0000000000E+20
 30
-1.0000000000E+20
  9
$PLIMMIN
 10
0.0
 20
0.0
  9
$PLIMMAX
 10
420.0
 20
297.0
  9
$UNITMODE
 70
     0
  9
$VISRETAIN
 70
     1
  9
$PLINEGEN
 70
     0
  9
$PSLTSCALE
 70
     1
  9
$TREEDEPTH
 70
  3020
  9
$CMLSTYLE
  2
Standard
  9
$CMLJUST
 70
     0
  9
$CMLSCALE
 40
20.0
  9
$PROXYGRAPHICS
 70
     1
  9
$MEASUREMENT
 70
     1
  9
$CELWEIGHT
370
    -1
  9
$ENDCAPS
280
     0
  9
$JOINSTYLE
280
     0
  9
$LWDISPLAY
290
     1
  9
$INSUNITS
 70
     4
  9
$HYPERLINKBASE
  1

  9
$STYLESHEET
  1

  9
$XEDIT
290
     1
  9
$CEPSNTYPE
380
     0
  9
$PSTYLEMODE
290
     1
  9
$FINGERPRINTGUID
  2
{8e26a5bb-487c-4f3d-8ea5-39c2735760f9}
  9
$VERSIONGUID
  2
{FAEB1C32-E019-11D5-929B-00C0DF256EC4}
  9
$EXTNAMES
290
     1
  9
$PSVPSCALE
 40
0.0
  9
$OLESTARTUP
290
     0
  0
ENDSEC
  0
SECTION
  2
CLASSES
  0
CLASS
  1
ACDBDICTIONARYWDFLT
  2
AcDbDictionaryWithDefault
  3
ObjectDBX Classes
 90
        0
280
     0
281
     0
  0
CLASS
  1
VISUALSTYLE
  2
AcDbVisualStyle
  3
ObjectDBX Classes
 90
     4095
280
     0
281
     0
  0
CLASS
  1
MATERIAL
  2
AcDbMaterial
  3
ObjectDBX Classes
 90
     1153
280
     0
281
     0
  0
CLASS
  1
SCALE
  2
AcDbScale
  3
ObjectDBX Classes
 90
     1153
280
     0
281
     0
  0
CLASS
  1
TABLESTYLE
  2
AcDbTableStyle
  3
ObjectDBX Classes
 90
     4095
280
     0
281
     0
  0
CLASS
  1
MLEADERSTYLE
  2
AcDbMLeaderStyle
  3
ACDB_MLEADERSTYLE_CLASS
 90
     4095
280
     0
281
     0
  0
CLASS
  1
SUN
  2
AcDbSun
  3
SCENEOE
 90
     1153
280
     0
281
     0
  0
CLASS
  1
ACDBPLACEHOLDER
  2
AcDbPlaceHolder
  3
ObjectDBX Classes
 90
        0
280
     0
281
     0
  0
CLASS
  1
LAYOUT
  2
AcDbLayout
  3
ObjectDBX Classes
 90
        0
280
     0
281
     0
  0
ENDSEC
  0
SECTION
  2
TABLES
  0
TABLE
  2
VPORT
  5
8
330
0
100
AcDbSymbolTable
 70
     1
  0
VPORT
  5
29
330
8
100
AcDbSymbolTableRecord
100
AcDbViewportTableRecord
  2
*Active
 70
     0
 10
0.0
 20
0.0
 11
1.0
 21
1.0
 12
210.0
 22
148.5
 13
0.0
 23
0.0
 14
10.0
 24
10.0
 15
10.0
 25
10.0
 16
0.0
 26
0.0
 36
1.0
 17
0.0
 27
0.0
 37
0.0
 40
297.0
 41
1.4141414141
 42
50.0
 43
0.0
 44
0.0
 50
0.0
 51
0.0
 71
     0
 72
  2000
 73
     1
 74
     3
 75
     0
 76
     0
 77
     0
 78
     0
281
     0
 65
     1
110
0.0
120
0.0
130
0.0
111
1.0
121
0.0
131
0.0
112
0.0
122
1.0
132
0.0
 79
     0
146
0.0
  0
ENDTAB
  0
TABLE
  2
LTYPE
  5
5
330
0
100
AcDbSymbolTable
 70
     6
  0
LTYPE
  5
14
330
5
100
AcDbSymbolTableRecord
100
AcDbLinetypeTableRecord
  2
ByBlock
 70
     0
  3

 72
    65
 73
     0
 40
0.0
  0
LTYPE
  5
15
330
5
100
AcDbSymbolTableRecord
100
AcDbLinetypeTableRecord
  2
ByLayer
 70
     0
  3

 72
    65
 73
     0
 40
0.0
  0
LTYPE
  5
16
330
5
100
AcDbSymbolTableRecord
100
AcDbLinetypeTableRecord
  2
Continuous
 70
     0
  3
Solid line
 72
    65
 73
     0
 40
0.0
  0
LTYPE
  5
6E
330
5
100
AcDbSymbolTableRecord
100
AcDbLinetypeTableRecord
  2
HIDDEN
 70
     0
  3
Hidden __ __ __ __ __ __ __ __ __ __ __ __ __ __
 72
    65
 73
     2
 40
1.905
 49
1.27
 74
     0
 49
-0.635
 74
     0
  0
LTYPE
  5
6F
330
5
100
AcDbSymbolTableRecord
100
AcDbLinetypeTableRecord
  2
PHANTOM
 70
     0
  3
Phantom ______  __  __  ______  __  __  ______
 72
    65
 73
     6
 40
12.7
 49
6.35
 74
     0
 49
-1.27
 74
     0
 49
1.27
 74
     0
 49
-1.27
 74
     0
 49
1.27
 74
     0
 49
-1.27
 74
     0
  0
LTYPE
  5
70
330
5
100
AcDbSymbolTableRecord
100
AcDbLinetypeTableRecord
  2
CENTER
 70
     0
  3
Center ____ _ ____ _ ____ _ ____ _ ____ _ ____
 72
    65
 73
     4
 40
10.16
 49
6.35
 74
     0
 49
-1.27
 74
     0
 49
1.27
 74
     0
 49
-1.27
 74
     0
  0
LTYPE
  5
71
330
5
100
AcDbSymbolTableRecord
100
AcDbLinetypeTableRecord
  2
CENTERX2
 70
     0
  3
Center (2x) ________  __  ________  __  _____
 72
    65
 73
     4
 40
20.32
 49
12.7
 74
     0
 49
-2.54
 74
     0
 49
2.54
 74
     0
 49
-2.54
 74
     0
  0
LTYPE
  5
72
330
5
100
AcDbSymbolTableRecord
100
AcDbLinetypeTableRecord
  2
DOT2
 70
     0
  3
Dot (.5x) ........................................
 72
    65
 73
     2
 40
0.635
 49
0.0
 74
     0
 49
-0.635
 74
     0
  0
ENDTAB
  0
TABLE
  2
LAYER
  5
2
330
0
100
AcDbSymbolTable
 70
     1
  0
LAYER
  5
10
330
2
100
AcDbSymbolTableRecord
100
AcDbLayerTableRecord
  2
0
 70
     0
 62
     7
  6
Continuous
370
    -3
390
F
  0
ENDTAB
  0
TABLE
  2
STYLE
  5
3
330
0
100
AcDbSymbolTable
 70
     4
  0
STYLE
  5
11
330
3
100
AcDbSymbolTableRecord
100
AcDbTextStyleTableRecord
  2
Standard
 70
     0
 40
0.0
 41
1.0
 50
0.0
 71
     0
 42
3.5
  3
txt
  4

  0
STYLE
  5
E9
330
3
100
AcDbSymbolTableRecord
100
AcDbTextStyleTableRecord
  2
SLDTEXTSTYLE0
 70
     0
 40
0.0
 41
0.605
 50
0.0
 71
     0
 42
3.5
  3
TXT
  4

  0
STYLE
  5
193
330
3
100
AcDbSymbolTableRecord
100
AcDbTextStyleTableRecord
  2
SLDTEXTSTYLE1
 70
     0
 40
0.0
 41
0.563
 50
0.0
 71
     0
 42
3.5
  3
TXT
  4

  0
STYLE
  5
2DC
330
3
100
AcDbSymbolTableRecord
100
AcDbTextStyleTableRecord
  2
SLDTEXTSTYLE2
 70
     0
 40
0.0
 41
0.75
 50
0.0
 71
     0
 42
3.5
  3
TXT
  4

  0
ENDTAB
  0
TABLE
  2
VIEW
  5
6
330
0
100
AcDbSymbolTable
 70
     0
  0
ENDTAB
  0
TABLE
  2
UCS
  5
7
330
0
100
AcDbSymbolTable
 70
     0
  0
ENDTAB
  0
TABLE
  2
APPID
  5
9
330
0
100
AcDbSymbolTable
 70
     1
  0
APPID
  5
12
330
9
100
AcDbSymbolTableRecord
100
AcDbRegAppTableRecord
  2
ACAD
 70
     0
  0
ENDTAB
  0
TABLE
  2
DIMSTYLE
  5
A
330
0
100
AcDbSymbolTable
 70
     4
100
AcDbDimStyleTable
  0
DIMSTYLE
105
27
330
A
100
AcDbSymbolTableRecord
100
AcDbDimStyleTableRecord
  2
ISO-25
 70
     0
 41
2.5
 42
0.625
 43
3.75
 44
1.25
 73
     0
 74
     0
 77
     1
 78
     8
140
2.5
141
2.5
143
0.0393700787
147
0.625
171
     3
172
     1
178
     0
271
     2
272
     2
274
     3
278
    44
283
     0
284
     8
340
11
  0
DIMSTYLE
105
2DD
102
{ACAD_REACTORS
330
2DB
102
}
330
A
100
AcDbSymbolTableRecord
100
AcDbDimStyleTableRecord
  2
SLDDIMSTYLE0
 70
     0
 41
3.302
 44
0.0
 45
0.000000001
 73
     0
 74
     0
 77
     1
 78
    12
 79
     3
140
3.5
147
0.875
173
     1
178
     0
271
     0
272
     0
276
     2
284
    12
340
2DC
  0
DIMSTYLE
105
2E8
102
{ACAD_REACTORS
330
2E7
102
}
330
A
100
AcDbSymbolTableRecord
100
AcDbDimStyleTableRecord
  2
SLDDIMSTYLE1
 70
     0
 41
3.302
 44
0.0
 45
0.000000001
 73
     0
 74
     0
 77
     1
 78
    12
 79
     3
140
3.5
147
0.875
173
     1
178
     0
271
     2
272
     2
276
     2
284
    12
340
2DC
  0
DIMSTYLE
105
325
102
{ACAD_REACTORS
330
324
102
}
330
A
100
AcDbSymbolTableRecord
100
AcDbDimStyleTableRecord
  2
SLDDIMSTYLE2
 70
     0
 41
3.302
 44
0.0
 45
0.000000001
 73
     0
 74
     0
 77
     1
 78
    12
 79
     3
140
3.5
147
0.875
172
     1
173
     1
178
     0
271
     2
272
     2
276
     2
284
    12
289
     0
340
2DC
  0
ENDTAB
  0
TABLE
  2
BLOCK_RECORD
  5
1
330
0
100
AcDbSymbolTable
 70
    11
  0
BLOCK_RECORD
  5
1F
330
1
100
AcDbSymbolTableRecord
100
AcDbBlockTableRecord
  2
*Model_Space
340
22
  0
BLOCK_RECORD
  5
1B
330
1
100
AcDbSymbolTableRecord
100
AcDbBlockTableRecord
  2
*Paper_Space
340
1E
  0
BLOCK_RECORD
  5
23
330
1
100
AcDbSymbolTableRecord
100
AcDbBlockTableRecord
  2
*Paper_Space0
340
26
  0
BLOCK_RECORD
  5
73
330
1
100
AcDbSymbolTableRecord
100
AcDbBlockTableRecord
  2
ACO-Logo
340
0
102
{BLKREFS
331
149
102
}
  0
BLOCK_RECORD
  5
E6
330
1
100
AcDbSymbolTableRecord
100
AcDbBlockTableRecord
  2
SW_NOTE_0
340
0
102
{BLKREFS
331
EB
102
}
  0
BLOCK_RECORD
  5
EC
330
1
100
AcDbSymbolTableRecord
100
AcDbBlockTableRecord
  2
SW_NOTE_0_1
340
0
102
{BLKREFS
331
F0
102
}
  0
BLOCK_RECORD
  5
F1
330
1
100
AcDbSymbolTableRecord
100
AcDbBlockTableRecord
  2
SW_NOTE_0_2
340
0
102
{BLKREFS
331
F8
102
}
  0
BLOCK_RECORD
  5
16E
330
1
100
AcDbSymbolTableRecord
100
AcDbBlockTableRecord
  2
SW_NOTE_0_3
340
0
102
{BLKREFS
331
176
102
}
  0
BLOCK_RECORD
  5
2DE
330
1
100
AcDbSymbolTableRecord
100
AcDbBlockTableRecord
  2
_D
340
0
  0
BLOCK_RECORD
  5
2E9
330
1
100
AcDbSymbolTableRecord
100
AcDbBlockTableRecord
  2
_D_1
340
0
  0
BLOCK_RECORD
  5
2F2
330
1
100
AcDbSymbolTableRecord
100
AcDbBlockTableRecord
  2
SW_CENTERMARKSYMBOL_0
340
0
102
{BLKREFS
331
2FD
102
}
  0
BLOCK_RECORD
  5
2FE
330
1
100
AcDbSymbolTableRecord
100
AcDbBlockTableRecord
  2
SW_CENTERMARKSYMBOL_1
340
0
102
{BLKREFS
331
309
102
}
  0
BLOCK_RECORD
  5
326
330
1
100
AcDbSymbolTableRecord
100
AcDbBlockTableRecord
  2
_D_2
340
0
  0
ENDTAB
  0
ENDSEC
  0
SECTION
  2
BLOCKS
  0
BLOCK
  5
20
330
1F
100
AcDbEntity
  8
0
100
AcDbBlockBegin
  2
*Model_Space
 70
     0
 10
0.0
 20
0.0
 30
0.0
  3
*Model_Space
  1

  0
ENDBLK
  5
21
330
1F
100
AcDbEntity
  8
0
100
AcDbBlockEnd
  0
BLOCK
  5
1C
330
1B
100
AcDbEntity
 67
     1
  8
0
100
AcDbBlockBegin
  2
*Paper_Space
 70
     0
 10
0.0
 20
0.0
 30
0.0
  3
*Paper_Space
  1

  0
ENDBLK
  5
1D
330
1B
100
AcDbEntity
 67
     1
  8
0
100
AcDbBlockEnd
  0
BLOCK
  5
24
330
23
100
AcDbEntity
  8
0
100
AcDbBlockBegin
  2
*Paper_Space0
 70
     0
 10
0.0
 20
0.0
 30
0.0
  3
*Paper_Space0
  1

  0
ENDBLK
  5
25
330
23
100
AcDbEntity
  8
0
100
AcDbBlockEnd
  0
BLOCK
  5
74
330
73
100
AcDbEntity
  8
0
100
AcDbBlockBegin
  2
ACO-Logo
 70
     0
 10
0.0
 20
0.0
 30
0.0
  3
ACO-Logo
  1

  0
ARC
  5
76
330
73
100
AcDbEntity
  8
0
  6
Continuous
 62
   179
370
    18
100
AcDbCircle
 10
80.3853261169
 20
4.9940995715
 30
0.0
 40
0.3000000000000441
100
AcDbArc
 50
181.9349323096
 51
274.6062978506
  0
ARC
  5
77
330
73
100
AcDbEntity
  8
0
  6
Continuous
 62
   179
370
    18
100
AcDbCircle
 10
81.2359083165
 20
2.1946665956
 30
0.0
 40
1.000000000000021
100
AcDbArc
 50
221.4087409628
 51
276.0561297228
  0
ARC
  5
78
330
73
100
AcDbEntity
  8
0
  6
Continuous
 62
   179
370
    18
100
AcDbCircle
 10
79.1360017163
 20
3.654242048
 30
0.0
 40
0.300000000000004
100
AcDbArc
 50
181.2730300201
 51
274.4996077095
  0
ARC
  5
79
330
73
100
AcDbEntity
  8
0
  6
Continuous
 62
   179
370
    18
100
AcDbCircle
 10
78.7699033484
 20
3.2873137407
 30
0.0
 40
0.4000000000000358
100
AcDbArc
 50
221.0090869016
 51
274.5606296317
  0
ARC
  5
7A
330
73
100
AcDbEntity
  8
0
  6
Continuous
 62
   179
370
    18
100
AcDbCircle
 10
91.2333953062
 20
4.6062442307
 30
0.0
 40
0.3000000000000493
100
AcDbArc
 50
274.4996077095
 51
3.7249371334
  0
ARC
  5
7B
330
73
100
AcDbEntity
  8
0
  6
Continuous
 62
   179
370
    18
100
AcDbCircle
 10
81.5287571045
 20
9.7648973508
 30
0.0
 40
1.00000000000002
100
AcDbArc
 50
93.1134387481
 51
181.9414863909
  0
ARC
  5
7C
330
73
100
AcDbEntity
  8
0
  6
Continuous
 62
   179
370
    18
100
AcDbCircle
 10
81.6051675115
 20
7.5107903456
 30
0.0
 40
1.0
100
AcDbArc
 50
181.9414863909
 51
274.398705355
  0
ARC
  5
7D
330
73
100
AcDbEntity
  8
0
  6
Continuous
 62
   179
370
    18
100
AcDbCircle
 10
80.1506905656
 20
11.9393118923
 30
0.0
 40
0.300000000000045
100
AcDbArc
 50
93.0418421566
 51
181.9349323096
  0
ARC
  5
7E
330
73
100
AcDbEntity
  8
0
  6
Continuous
 62
   179
370
    18
100
AcDbCircle
 10
78.1879722102
 20
12.3499352608
 30
0.0
 40
0.7999999999953393
100
AcDbArc
 50
92.6995697565
 51
148.2554209065
  0
ARC
  5
7F
330
73
100
AcDbEntity
  8
0
  6
Continuous
 62
   179
370
    18
100
AcDbCircle
 10
78.930862229
 20
12.8855189761
 30
0.0
 40
0.3000000000000031
100
AcDbArc
 50
92.6995697565
 51
181.2730300201
  0
ARC
  5
80
330
73
100
AcDbEntity
  8
0
  6
Continuous
 62
   179
370
    18
100
AcDbCircle
 10
82.327743407
 20
9.8083568568
 30
0.0
 40
1.000000000000034
100
AcDbArc
 50
1.9414863909
 51
93.1134387481
  0
ARC
  5
81
330
73
100
AcDbEntity
  8
0
  6
Continuous
 62
   179
370
    18
100
AcDbCircle
 10
81.5287571045
 20
9.7648973508
 30
0.0
 40
0.3625000000000009
100
AcDbArc
 50
93.1134387481
 51
181.9414863909
  0
ARC
  5
82
330
73
100
AcDbEntity
  8
0
  6
Continuous
 62
   179
370
    18
100
AcDbCircle
 10
82.327743407
 20
9.8083568568
 30
0.0
 40
0.3625000000000146
100
AcDbArc
 50
1.9414863909
 51
93.1134387481
  0
ARC
  5
83
330
73
100
AcDbEntity
  8
0
  6
Continuous
 62
   179
370
    18
100
AcDbCircle
 10
82.4035451983
 20
7.5722040138
 30
0.0
 40
1.000000000000008
100
AcDbArc
 50
274.398705355
 51
1.9414863909
  0
ARC
  5
84
330
73
100
AcDbEntity
  8
0
  6
Continuous
 62
   179
370
    18
100
AcDbCircle
 10
82.4035451983
 20
7.5722040138
 30
0.0
 40
0.3625000000000068
100
AcDbArc
 50
274.398705355
 51
1.9414863909
  0
ARC
  5
85
330
73
100
AcDbEntity
  8
0
  6
Continuous
 62
   179
370
    18
100
AcDbCircle
 10
81.6051675115
 20
7.5107903456
 30
0.0
 40
0.3625000000000111
100
AcDbArc
 50
181.9414863909
 51
274.398705355
  0
ARC
  5
86
330
73
100
AcDbEntity
  8
0
  6
Continuous
 62
   179
370
    18
100
AcDbCircle
 10
88.825822761
 20
8.0662148274
 30
0.0
 40
0.9999999999999997
100
AcDbArc
 50
274.398705355
 51
2.6541955134
  0
ARC
  5
87
330
73
100
AcDbEntity
  8
0
  6
Continuous
 62
   179
370
    18
100
AcDbCircle
 10
90.1578295581
 20
5.7814576687
 30
0.0
 40
0.3000000000000043
100
AcDbArc
 50
274.6062978507
 51
2.5147526475
  0
ARC
  5
88
330
73
100
AcDbEntity
  8
0
  6
Continuous
 62
   179
370
    18
100
AcDbCircle
 10
88.825822761
 20
8.0662148274
 30
0.0
 40
0.3625000000000083
100
AcDbArc
 50
274.398705355
 51
2.6541955134
  0
ARC
  5
89
330
73
100
AcDbEntity
  8
0
  6
Continuous
 62
   179
370
    18
100
AcDbCircle
 10
88.728529747
 20
10.16496413
 30
0.0
 40
1.000000000000001
100
AcDbArc
 50
2.6541955134
 51
93.1134387481
  0
ARC
  5
8A
330
73
100
AcDbEntity
  8
0
  6
Continuous
 62
   179
370
    18
100
AcDbCircle
 10
88.728529747
 20
10.16496413
 30
0.0
 40
0.3625000000000085
100
AcDbArc
 50
2.6541955134
 51
93.1134387481
  0
ARC
  5
8B
330
73
100
AcDbEntity
  8
0
  6
Continuous
 62
   179
370
    18
100
AcDbCircle
 10
89.8647121341
 20
12.455515937
 30
0.0
 40
0.2999999999999984
100
AcDbArc
 50
2.5147526475
 51
93.0418421566
  0
ARC
  5
8C
330
73
100
AcDbEntity
  8
0
  6
Continuous
 62
   179
370
    18
100
AcDbCircle
 10
90.6583795404
 20
13.4384863935
 30
0.0
 40
0.2999999999999911
100
AcDbArc
 50
3.7249371334
 51
92.6995697565
  0
CIRCLE
  5
8D
330
73
100
AcDbEntity
  8
0
  6
Continuous
 62
   179
370
    18
100
AcDbCircle
 10
15.7233972286
 20
6.4054930194
 30
0.0
 40
1.579500000000014
  0
CIRCLE
  5
8E
330
73
100
AcDbEntity
  8
0
  6
Continuous
 62
   179
370
    18
100
AcDbCircle
 10
15.7233972286
 20
6.4054930194
 30
0.0
 40
2.281499999999994
  0
ARC
  5
8F
330
73
100
AcDbEntity
  8
0
  6
Continuous
 62
   179
370
    18
100
AcDbCircle
 10
89.7681336026
 20
2.3106616691
 30
0.0
 40
0.098384530246548
100
AcDbArc
 50
332.3802627259
 51
4.9765441602
  0
ARC
  5
90
330
73
100
AcDbEntity
  8
0
  6
Continuous
 62
   179
370
    18
100
AcDbCircle
 10
89.6886560089
 20
2.3522464185
 30
0.0
 40
0.1880839130754018
100
AcDbArc
 50
303.690067526
 51
332.3802627258
  0
ARC
  5
91
330
73
100
AcDbEntity
  8
0
  6
Continuous
 62
   179
370
    18
100
AcDbCircle
 10
89.4849700869
 20
2.6577753016
 30
0.0
 40
0.5552839311631531
100
AcDbArc
 50
287.108652213
 51
303.690067526
  0
ARC
  5
92
330
73
100
AcDbEntity
  8
0
  6
Continuous
 62
   179
370
    18
100
AcDbCircle
 10
88.0513010646
 20
7.3154864882
 30
0.0
 40
5.428648309393203
100
AcDbArc
 50
285.2551187031
 51
287.108652213
  0
ARC
  5
93
330
73
100
AcDbEntity
  8
0
  6
Continuous
 62
   179
370
    18
100
AcDbCircle
 10
89.1317168954
 20
3.3539617753
 30
0.0
 40
1.322436378825653
100
AcDbArc
 50
281.4991866428
 51
285.255118703
  0
ARC
  5
94
330
73
100
AcDbEntity
  8
0
  6
Continuous
 62
   179
370
    18
100
AcDbCircle
 10
89.3198255509
 20
2.4293110075
 30
0.0
 40
0.3788454141584939
100
AcDbArc
 50
279.1917900003
 51
281.499186643
  0
ARC
  5
95
330
73
100
AcDbEntity
  8
0
  6
Continuous
 62
   179
370
    18
100
AcDbCircle
 10
89.0487250788
 20
4.1046569124
 30
0.0
 40
2.07598399629105
100
AcDbArc
 50
277.7634675038
 51
279.1917900002
  0
ARC
  5
96
330
73
100
AcDbEntity
  8
0
  6
Continuous
 62
   179
370
    18
100
AcDbCircle
 10
9.2588909915
 20
6.4054930194
 30
0.0
 40
1.579500000000074
100
AcDbArc
 50
31.0558004991
 51
330.0
  0
ARC
  5
97
330
73
100
AcDbEntity
  8
0
  6
Continuous
 62
   179
370
    18
100
AcDbCircle
 10
9.2588909915
 20
6.4054930194
 30
0.0
 40
2.281500000000107
100
AcDbArc
 50
30.7309172659
 51
330.0
  0
ARC
  5
98
330
73
100
AcDbEntity
  8
0
  6
Continuous
 62
   179
370
    18
100
AcDbCircle
 10
6.1288847544
 20
4.0685261312
 30
0.0
 40
4.914000000000307
100
AcDbArc
 50
172.3058370354
 51
179.7113029221
  0
ARC
  5
99
330
73
100
AcDbEntity
  8
0
  6
Continuous
 62
   179
370
    18
100
AcDbCircle
 10
-0.5401152456
 20
4.0685261312
 30
0.0
 40
4.91400000000019
100
AcDbArc
 50
0.2886970779
 51
7.6941629646
  0
ARC
  5
9A
330
73
100
AcDbEntity
  8
0
  6
Continuous
 62
   179
370
    18
100
AcDbCircle
 10
-0.5401152456
 20
4.0685261312
 30
0.0
 40
5.616000000000127
100
AcDbArc
 50
0.2526096926
 51
53.5764263577
  0
ARC
  5
9B
330
73
100
AcDbEntity
  8
0
  6
Continuous
 62
   179
370
    18
100
AcDbCircle
 10
6.1288847544
 20
4.0685261312
 30
0.0
 40
5.61600000000074
100
AcDbArc
 50
126.4235736423
 51
179.7473903073
  0
ARC
  5
9C
330
73
100
AcDbEntity
  8
0
  6
Continuous
 62
   179
370
    18
100
AcDbCircle
 10
-0.5401152456
 20
4.0685261312
 30
0.0
 40
4.914000000000161
100
AcDbArc
 50
16.0658750272
 51
47.2678899574
  0
ARC
  5
9D
330
73
100
AcDbEntity
  8
0
  6
Continuous
 62
   179
370
    18
100
AcDbCircle
 10
6.1288847544
 20
4.0685261312
 30
0.0
 40
4.914000000000584
100
AcDbArc
 50
132.7321100426
 51
163.9341249728
  0
LINE
  5
9E
330
73
100
AcDbEntity
  8
0
  6
Continuous
 62
   179
370
    18
100
AcDbLine
 10
78.8017089389
 20
2.8885802402
 30
0.0
 11
90.7982178739
 21
3.8455002136
 31
0.0
  0
LINE
  5
9F
330
73
100
AcDbEntity
  8
0
  6
Continuous
 62
   179
370
    18
100
AcDbLine
 10
76.6545490427
 20
5.8693097374
 30
0.0
 11
78.0344191726
 21
3.5235305166
 31
0.0
  0
LINE
  5
A0
330
73
100
AcDbEntity
  8
0
  6
Continuous
 62
   179
370
    18
100
AcDbLine
 10
91.5327615373
 20
4.6257342197
 30
0.0
 11
90.9577457715
 21
13.4579763825
 31
0.0
  0
LINE
  5
A1
330
73
100
AcDbEntity
  8
0
  6
Continuous
 62
   179
370
    18
100
AcDbLine
 10
78.6309362756
 20
12.8788539549
 30
0.0
 11
78.8360757629
 21
3.6475770268
 31
0.0
  0
LINE
  5
A2
330
73
100
AcDbEntity
  8
0
  6
Continuous
 62
   179
370
    18
100
AcDbLine
 10
80.4094186633
 20
4.6950685544
 30
0.0
 11
90.1819221045
 21
5.4824266516
 31
0.0
  0
LINE
  5
A3
330
73
100
AcDbEntity
  8
0
  6
Continuous
 62
   179
370
    18
100
AcDbLine
 10
79.1595373973
 20
3.3551666867
 30
0.0
 11
91.2569309872
 21
4.3071688694
 31
0.0
  0
LINE
  5
A4
330
73
100
AcDbEntity
  8
0
  6
Continuous
 62
   179
370
    18
100
AcDbLine
 10
79.2585043218
 20
2.925017226
 30
0.0
 11
80.4858981444
 21
1.533240302
 31
0.0
  0
LINE
  5
A5
330
73
100
AcDbEntity
  8
0
  6
Continuous
 62
   179
370
    18
100
AcDbLine
 10
78.0344191726
 20
3.5235305166
 30
0.0
 11
78.3638740472
 21
3.1446574108
 31
0.0
  0
LINE
  5
A6
330
73
100
AcDbEntity
  8
0
  6
Continuous
 62
   179
370
    18
100
AcDbLine
 10
78.3638740472
 20
3.1446574108
 30
0.0
 11
78.4680611395
 21
3.0248422547
 31
0.0
  0
LINE
  5
A7
330
73
100
AcDbEntity
  8
0
  6
Continuous
 62
   179
370
    18
100
AcDbLine
 10
81.3414110113
 20
1.2002475785
 30
0.0
 11
89.3291569519
 21
2.0477010263
 31
0.0
  0
LINE
  5
A8
330
73
100
AcDbEntity
  8
0
  6
Continuous
 62
   179
370
    18
100
AcDbLine
 10
89.8661472522
 20
2.5197759309
 30
0.0
 11
89.8661472522
 21
2.3090867337
 31
0.0
  0
LINE
  5
A9
330
73
100
AcDbEntity
  8
0
  6
Continuous
 62
   179
370
    18
100
AcDbLine
 10
88.676842368
 20
3.6762854359
 30
0.0
 11
89.6713239345
 21
2.7875997807
 31
0.0
  0
LINE
  5
AA
330
73
100
AcDbEntity
  8
0
  6
Continuous
 62
   179
370
    18
100
AcDbLine
 10
89.6713239345
 20
2.7875997807
 30
0.0
 11
89.7459749087
 21
2.7242700694
 31
0.0
  0
LINE
  5
AB
330
73
100
AcDbEntity
  8
0
  6
Continuous
 62
   179
370
    18
100
AcDbLine
 10
90.7982178739
 20
3.8455002136
 30
0.0
 11
91.3961615969
 21
4.3514525945
 31
0.0
  0
LINE
  5
AC
330
73
100
AcDbEntity
  8
0
  6
Continuous
 62
   179
370
    18
100
AcDbLine
 10
90.6442498554
 20
13.7381534621
 30
0.0
 11
78.1502930503
 21
13.1490474438
 31
0.0
  0
LINE
  5
AD
330
73
100
AcDbEntity
  8
0
  6
Continuous
 62
   179
370
    18
100
AcDbLine
 10
80.1347709981
 20
12.2388892068
 30
0.0
 11
89.8487925667
 21
12.7550932515
 31
0.0
  0
LINE
  5
AE
330
73
100
AcDbEntity
  8
0
  6
Continuous
 62
   179
370
    18
100
AcDbLine
 10
76.4935641943
 20
11.7567556248
 30
0.0
 11
76.6545490427
 21
5.8693097374
 31
0.0
  0
LINE
  5
AF
330
73
100
AcDbEntity
  8
0
  6
Continuous
 62
   179
370
    18
100
AcDbLine
 10
79.8508616208
 20
11.929182536
 30
0.0
 11
80.0854971721
 21
4.9839702153
 31
0.0
  0
LINE
  5
B0
330
73
100
AcDbEntity
  8
0
  6
Continuous
 62
   179
370
    18
100
AcDbLine
 10
80.5293311574
 20
9.7310185051
 30
0.0
 11
80.6057415643
 21
7.4769115
 31
0.0
  0
LINE
  5
B1
330
73
100
AcDbEntity
  8
0
  6
Continuous
 62
   179
370
    18
100
AcDbLine
 10
77.507650604
 20
12.7708420346
 30
0.0
 11
76.4935641943
 21
11.7567556248
 31
0.0
  0
LINE
  5
B2
330
73
100
AcDbEntity
  8
0
  6
Continuous
 62
   179
370
    18
100
AcDbLine
 10
86.8848195129
 20
11.0661568594
 30
0.0
 11
88.6742167283
 21
11.1634880887
 31
0.0
  0
LINE
  5
B3
330
73
100
AcDbEntity
  8
0
  6
Continuous
 62
   179
370
    18
100
AcDbLine
 10
87.0766213517
 20
6.9287171941
 30
0.0
 11
88.90708891
 21
7.0695223909
 31
0.0
  0
LINE
  5
B4
330
73
100
AcDbEntity
  8
0
  6
Continuous
 62
   179
370
    18
100
AcDbLine
 10
87.6830038473
 20
7.6147347768
 30
0.0
 11
88.8536252418
 21
7.7047825764
 31
0.0
  0
LINE
  5
B5
330
73
100
AcDbEntity
  8
0
  6
Continuous
 62
   179
370
    18
100
AcDbLine
 10
87.5509212094
 20
10.4639459651
 30
0.0
 11
88.7088412777
 21
10.5269290651
 31
0.0
  0
LINE
  5
B6
330
73
100
AcDbEntity
  8
0
  6
Continuous
 62
   179
370
    18
100
AcDbLine
 10
87.0766218384
 20
6.9287066941
 30
0.0
 11
86.8848195129
 21
11.0661568594
 31
0.0
  0
LINE
  5
B7
330
73
100
AcDbEntity
  8
0
  6
Continuous
 62
   179
370
    18
100
AcDbLine
 10
83.7004598825
 20
6.6667911093
 30
0.0
 11
84.5054929504
 21
10.9267193262
 31
0.0
  0
LINE
  5
B8
330
73
100
AcDbEntity
  8
0
  6
Continuous
 62
   179
370
    18
100
AcDbLine
 10
85.3543248406
 20
10.9728900984
 30
0.0
 11
86.4940946704
 21
6.8816860929
 31
0.0
  0
LINE
  5
B9
330
73
100
AcDbEntity
  8
0
  6
Continuous
 62
   179
370
    18
100
AcDbLine
 10
84.9728575427
 20
9.9667192298
 30
0.0
 11
85.4540299774
 21
8.2395506903
 31
0.0
  0
LINE
  5
BA
330
73
100
AcDbEntity
  8
0
  6
Continuous
 62
   179
370
    18
100
AcDbLine
 10
84.6363094629
 20
8.1858350416
 30
0.0
 11
84.9728575427
 21
9.9667192298
 31
0.0
  0
LINE
  5
BB
330
73
100
AcDbEntity
  8
0
  6
Continuous
 62
   179
370
    18
100
AcDbLine
 10
87.6830038473
 20
7.6147347768
 30
0.0
 11
87.5509212094
 21
10.4639459651
 31
0.0
  0
LINE
  5
BC
330
73
100
AcDbEntity
  8
0
  6
Continuous
 62
   179
370
    18
100
AcDbLine
 10
84.6363094629
 20
8.1858350416
 30
0.0
 11
85.4540299774
 21
8.2395506903
 31
0.0
  0
LINE
  5
BD
330
73
100
AcDbEntity
  8
0
  6
Continuous
 62
   179
370
    18
100
AcDbLine
 10
84.5140586807
 20
7.5389304886
 30
0.0
 11
85.6288154243
 21
7.6121582976
 31
0.0
  0
LINE
  5
BE
330
73
100
AcDbEntity
  8
0
  6
Continuous
 62
   179
370
    18
100
AcDbLine
 10
84.3588137958
 20
6.717433718
 30
0.0
 11
84.5140586807
 21
7.5389304886
 31
0.0
  0
LINE
  5
BF
330
73
100
AcDbEntity
  8
0
  6
Continuous
 62
   179
370
    18
100
AcDbLine
 10
81.6818640104
 20
6.5137358601
 30
0.0
 11
82.4802416972
 21
6.5751495283
 31
0.0
  0
LINE
  5
C0
330
73
100
AcDbEntity
  8
0
  6
Continuous
 62
   179
370
    18
100
AcDbLine
 10
81.6329699923
 20
7.1493580946
 30
0.0
 11
82.4313476791
 21
7.2107717628
 31
0.0
  0
LINE
  5
C1
330
73
100
AcDbEntity
  8
0
  6
Continuous
 62
   179
370
    18
100
AcDbLine
 10
83.7004598825
 20
6.6667911093
 30
0.0
 11
84.3588137958
 21
6.717433718
 31
0.0
  0
LINE
  5
C2
330
73
100
AcDbEntity
  8
0
  6
Continuous
 62
   179
370
    18
100
AcDbLine
 10
82.7059483815
 20
9.3512024135
 30
0.0
 11
83.3423973297
 21
9.3930104243
 31
0.0
  0
LINE
  5
C3
330
73
100
AcDbEntity
  8
0
  6
Continuous
 62
   179
370
    18
100
AcDbLine
 10
82.7491656358
 20
8.0762934118
 30
0.0
 11
83.385614584
 21
8.1181014226
 31
0.0
  0
LINE
  5
C4
330
73
100
AcDbEntity
  8
0
  6
Continuous
 62
   179
370
    18
100
AcDbLine
 10
81.1664651987
 20
9.7526162692
 30
0.0
 11
81.2428756056
 21
7.4985092641
 31
0.0
  0
LINE
  5
C5
330
73
100
AcDbEntity
  8
0
  6
Continuous
 62
   179
370
    18
100
AcDbLine
 10
82.6900353128
 20
9.8206379383
 30
0.0
 11
82.7052632884
 21
9.3714126602
 31
0.0
  0
LINE
  5
C6
330
73
100
AcDbEntity
  8
0
  6
Continuous
 62
   179
370
    18
100
AcDbLine
 10
82.7491656358
 20
8.0762934118
 30
0.0
 11
82.7658371041
 21
7.5844850954
 31
0.0
  0
LINE
  5
C7
330
73
100
AcDbEntity
  8
0
  6
Continuous
 62
   179
370
    18
100
AcDbLine
 10
83.3271693541
 20
9.8422357024
 30
0.0
 11
83.3423973297
 21
9.3930104243
 31
0.0
  0
LINE
  5
C8
330
73
100
AcDbEntity
  8
0
  6
Continuous
 62
   179
370
    18
100
AcDbLine
 10
83.385614584
 20
8.1181014226
 30
0.0
 11
83.4029711454
 21
7.6060828595
 31
0.0
  0
LINE
  5
C9
330
73
100
AcDbEntity
  8
0
  6
Continuous
 62
   179
370
    18
100
AcDbLine
 10
85.6288154243
 20
7.6121582976
 30
0.0
 11
85.8462022593
 21
6.8318482152
 31
0.0
  0
LINE
  5
CA
330
73
100
AcDbEntity
  8
0
  6
Continuous
 62
   179
370
    18
100
AcDbLine
 10
85.8462022593
 20
6.8318482152
 30
0.0
 11
86.4940946704
 21
6.8816860929
 31
0.0
  0
LINE
  5
CB
330
73
100
AcDbEntity
  8
0
  6
Continuous
 62
   179
370
    18
100
AcDbLine
 10
84.5054929504
 20
10.9267193262
 30
0.0
 11
85.3543248406
 21
10.9728900984
 31
0.0
  0
LINE
  5
CC
330
73
100
AcDbEntity
  8
0
  6
Continuous
 62
   179
370
    18
100
AcDbLine
 10
81.4744440858
 20
10.7634213094
 30
0.0
 11
82.2734303883
 21
10.8068808154
 31
0.0
  0
LINE
  5
CD
330
73
100
AcDbEntity
  8
0
  6
Continuous
 62
   179
370
    18
100
AcDbLine
 10
81.5090686352
 20
10.1268622858
 30
0.0
 11
82.3080549377
 21
10.1703217918
 31
0.0
  0
LINE
  5
CE
330
73
100
AcDbEntity
  8
0
  6
Continuous
 62
   179
370
    18
100
AcDbLine
 10
90.4575406452
 20
5.7946206556
 30
0.0
 11
90.1644232213
 21
12.4686789239
 31
0.0
  0
LINE
  5
CF
330
73
100
AcDbEntity
  8
0
  6
Continuous
 62
   179
370
    18
100
AcDbLine
 10
89.8247499755
 20
8.1125227115
 30
0.0
 11
89.7274569615
 21
10.2112720142
 31
0.0
  0
LINE
  5
D0
330
73
100
AcDbEntity
  8
0
  6
Continuous
 62
   179
370
    18
100
AcDbLine
 10
89.1879338763
 20
8.0830014354
 30
0.0
 11
89.0906408622
 21
10.181750738
 31
0.0
  0
LINE
  5
D1
330
73
100
AcDbEntity
  8
0
  6
Continuous
 62
   179
370
    18
100
AcDbLine
 10
89.7459749087
 20
2.7242700694
 30
0.0
 11
89.7974962577
 21
2.6659765769
 31
0.0
  0
LINE
  5
D2
330
73
100
AcDbEntity
  8
0
  6
Continuous
 62
   179
370
    18
100
AcDbLine
 10
89.7974962577
 20
2.6659765769
 30
0.0
 11
89.8351851379
 21
2.60192886
 31
0.0
  0
LINE
  5
D3
330
73
100
AcDbEntity
  8
0
  6
Continuous
 62
   179
370
    18
100
AcDbLine
 10
89.8351851379
 20
2.60192886
 30
0.0
 11
89.8661472522
 21
2.5197759309
 31
0.0
  0
LINE
  5
D4
330
73
100
AcDbEntity
  8
0
  6
Continuous
 62
   179
370
    18
100
AcDbLine
 10
10.6119938288
 20
7.2203138351
 30
0.0
 11
11.2200151261
 21
7.5713550947
 31
0.0
  0
LINE
  5
D5
330
73
100
AcDbEntity
  8
0
  6
Continuous
 62
   179
370
    18
100
AcDbLine
 10
11.2347279503
 20
5.2647430194
 30
0.0
 11
10.6267781168
 21
5.6157430194
 31
0.0
  0
LINE
  5
D6
330
73
100
AcDbEntity
  8
0
  6
Continuous
 62
   179
370
    18
100
AcDbLine
 10
6.4645062371
 20
16.1712617198
 30
0.0
 11
6.4645062371
 21
2.9364593988
 31
0.0
  0
LINE
  5
D7
330
73
100
AcDbEntity
  8
0
  6
Continuous
 62
   179
370
    18
100
AcDbLine
 10
6.4645062371
 20
2.9364593988
 30
0.0
 11
12.0532757459
 21
2.9364593988
 31
0.0
  0
LINE
  5
D8
330
73
100
AcDbEntity
  8
0
  6
Continuous
 62
   179
370
    18
100
AcDbLine
 10
12.0532757459
 20
2.9364593988
 30
0.0
 11
12.0532757459
 21
16.1712617198
 31
0.0
  0
LINE
  5
D9
330
73
100
AcDbEntity
  8
0
  6
Continuous
 62
   179
370
    18
100
AcDbLine
 10
12.0532757459
 20
16.1712617198
 30
0.0
 11
6.4645062371
 21
16.1712617198
 31
0.0
  0
LINE
  5
DA
330
73
100
AcDbEntity
  8
0
  6
Continuous
 62
   179
370
    18
100
AcDbLine
 10
0.0
 20
16.1712617198
 30
0.0
 11
0.0
 21
2.9364593988
 31
0.0
  0
LINE
  5
DB
330
73
100
AcDbEntity
  8
0
  6
Continuous
 62
   179
370
    18
100
AcDbLine
 10
0.0
 20
2.9364593988
 30
0.0
 11
5.5887695089
 21
2.9364593988
 31
0.0
  0
LINE
  5
DC
330
73
100
AcDbEntity
  8
0
  6
Continuous
 62
   179
370
    18
100
AcDbLine
 10
5.5887695089
 20
2.9364593988
 30
0.0
 11
5.5887695089
 21
16.1712617198
 31
0.0
  0
LINE
  5
DD
330
73
100
AcDbEntity
  8
0
  6
Continuous
 62
   179
370
    18
100
AcDbLine
 10
5.5887695089
 20
16.1712617198
 30
0.0
 11
0.0
 21
16.1712617198
 31
0.0
  0
LINE
  5
DE
330
73
100
AcDbEntity
  8
0
  6
Continuous
 62
   179
370
    18
100
AcDbLine
 10
1.2591262606
 20
4.7264381407
 30
0.0
 11
4.3296432482
 21
4.7264381407
 31
0.0
  0
LINE
  5
DF
330
73
100
AcDbEntity
  8
0
  6
Continuous
 62
   179
370
    18
100
AcDbLine
 10
4.3738223747
 20
4.0932862697
 30
0.0
 11
5.0758301722
 21
4.0932862697
 31
0.0
  0
LINE
  5
E0
330
73
100
AcDbEntity
  8
0
  6
Continuous
 62
   179
370
    18
100
AcDbLine
 10
0.5129393366
 20
4.0932862697
 30
0.0
 11
1.2149471342
 21
4.0932862697
 31
0.0
  0
LINE
  5
E1
330
73
100
AcDbEntity
  8
0
  6
Continuous
 62
   179
370
    18
100
AcDbLine
 10
4.1819643097
 20
5.4284381407
 30
0.0
 11
1.4068051992
 21
5.4284381407
 31
0.0
  0
LINE
  5
E2
330
73
100
AcDbEntity
  8
0
  6
Continuous
 62
   179
370
    18
100
AcDbLine
 10
18.517781983
 20
16.1712617198
 30
0.0
 11
18.517781983
 21
2.9364593988
 31
0.0
  0
LINE
  5
E3
330
73
100
AcDbEntity
  8
0
  6
Continuous
 62
   179
370
    18
100
AcDbLine
 10
18.517781983
 20
2.9364593988
 30
0.0
 11
12.9290124742
 21
2.9364593988
 31
0.0
  0
LINE
  5
E4
330
73
100
AcDbEntity
  8
0
  6
Continuous
 62
   179
370
    18
100
AcDbLine
 10
12.9290124742
 20
2.9364593988
 30
0.0
 11
12.9290124742
 21
16.1712617198
 31
0.0
  0
LINE
  5
E5
330
73
100
AcDbEntity
  8
0
  6
Continuous
 62
   179
370
    18
100
AcDbLine
 10
12.9290124742
 20
16.1712617198
 30
0.0
 11
18.517781983
 21
16.1712617198
 31
0.0
  0
INSERT
  5
EB
330
73
100
AcDbEntity
  8
0
  6
Continuous
 62
     7
370
     0
100
AcDbBlockReference
  2
SW_NOTE_0
 10
1.8998941161
 20
-0.3226565443
 30
0.0
  0
INSERT
  5
F0
330
73
100
AcDbEntity
  8
0
  6
Continuous
 62
     7
370
     0
100
AcDbBlockReference
  2
SW_NOTE_0_1
 10
29.1164837035
 20
12.7459167441
 30
0.0
  0
INSERT
  5
F8
330
73
100
AcDbEntity
  8
0
  6
Continuous
 62
     7
370
     0
100
AcDbBlockReference
  2
SW_NOTE_0_2
 10
28.8863479825
 20
8.6365742194
 30
0.0
  0
ENDBLK
  5
75
330
73
100
AcDbEntity
  8
0
100
AcDbBlockEnd
  0
BLOCK
  5
E7
330
E6
100
AcDbEntity
  8
0
100
AcDbBlockBegin
  2
SW_NOTE_0
 70
     0
 10
0.0
 20
0.0
 30
0.0
  3
SW_NOTE_0
  1

  0
MTEXT
  5
EA
330
E6
100
AcDbEntity
  8
0
  6
Continuous
 62
     0
370
     0
100
AcDbMText
 10
7.46875
 20
2.5781354795
 30
0.0
 40
2.0
 41
0.0
 71
     2
 72
     1
  1
www.aco.ch
  7
SLDTEXTSTYLE0
 73
     1
 44
1.0
  0
ENDBLK
  5
E8
330
E6
100
AcDbEntity
  8
0
100
AcDbBlockEnd
  0
BLOCK
  5
ED
330
EC
100
AcDbEntity
  8
0
100
AcDbBlockBegin
  2
SW_NOTE_0_1
 70
     0
 10
0.0
 20
0.0
 30
0.0
  3
SW_NOTE_0_1
  1

  0
MTEXT
  5
EF
330
EC
100
AcDbEntity
  8
0
  6
Continuous
 62
     0
370
     0
100
AcDbMText
 10
0.0
 20
3.8672032193
 30
0.0
 40
3.0
 41
0.0
 71
     1
 72
     1
  1
ACO AG
  7
SLDTEXTSTYLE0
 73
     1
 44
1.0
  0
ENDBLK
  5
EE
330
EC
100
AcDbEntity
  8
0
100
AcDbBlockEnd
  0
BLOCK
  5
F2
330
F1
100
AcDbEntity
  8
0
100
AcDbBlockBegin
  2
SW_NOTE_0_2
 70
     0
 10
0.0
 20
0.0
 30
0.0
  3
SW_NOTE_0_2
  1

  0
MTEXT
  5
F4
330
F1
100
AcDbEntity
  8
0
  6
Continuous
 62
     0
370
     0
100
AcDbMText
 10
0.0
 20
2.5781354795
 30
0.0
 40
2.0
 41
0.0
 71
     1
 72
     1
  1
Industrie Kleinzaun
  7
SLDTEXTSTYLE0
 73
     1
 44
1.0
  0
MTEXT
  5
F5
330
F1
100
AcDbEntity
  8
0
  6
Continuous
 62
     0
370
     0
100
AcDbMText
 10
0.0
 20
-0.4218645465
 30
0.0
 40
2.0
 41
0.0
 71
     1
 72
     1
  1
CH-8754 Netstal
  7
SLDTEXTSTYLE0
 73
     1
 44
1.0
  0
MTEXT
  5
F6
330
F1
100
AcDbEntity
  8
0
  6
Continuous
 62
     0
370
     0
100
AcDbMText
 10
0.0
 20
-3.4218645726
 30
0.0
 40
2.0
 41
0.0
 71
     1
 72
     1
  1
Tel. 055 / 645 53 00
  7
SLDTEXTSTYLE0
 73
     1
 44
1.0
  0
MTEXT
  5
F7
330
F1
100
AcDbEntity
  8
0
  6
Continuous
 62
     0
370
     0
100
AcDbMText
 10
0.0
 20
-6.4218645987
 30
0.0
 40
2.0
 41
0.0
 71
     1
 72
     1
  1
E-Mail: aco@aco.ch
  7
SLDTEXTSTYLE0
 73
     1
 44
1.0
  0
ENDBLK
  5
F3
330
F1
100
AcDbEntity
  8
0
100
AcDbBlockEnd
  0
BLOCK
  5
16F
330
16E
100
AcDbEntity
  8
0
100
AcDbBlockBegin
  2
SW_NOTE_0_3
 70
     0
 10
0.0
 20
0.0
 30
0.0
  3
SW_NOTE_0_3
  1

  0
MTEXT
  5
171
330
16E
100
AcDbEntity
  8
0
  6
Continuous
 62
     0
370
     0
100
AcDbMText
 10
0.0
 20
1.9336016097
 30
0.0
 40
1.5
 41
0.0
 71
     1
 72
     1
  1
Diese Zeichnung darf weder kopiert
  7
SLDTEXTSTYLE0
 73
     1
 44
1.0
  0
MTEXT
  5
172
330
16E
100
AcDbEntity
  8
0
  6
Continuous
 62
     0
370
     0
100
AcDbMText
 10
0.0
 20
-0.5663983345
 30
0.0
 40
1.5
 41
0.0
 71
     1
 72
     1
  1
noch dritten Personen, insbesondere
  7
SLDTEXTSTYLE0
 73
     1
 44
1.0
  0
MTEXT
  5
173
330
16E
100
AcDbEntity
  8
0
  6
Continuous
 62
     0
370
     0
100
AcDbMText
 10
0.0
 20
-3.0663982786
 30
0.0
 40
1.5
 41
0.0
 71
     1
 72
     1
  1
zum Zweck anderweitiger Benutzung
  7
SLDTEXTSTYLE0
 73
     1
 44
1.0
  0
MTEXT
  5
174
330
16E
100
AcDbEntity
  8
0
  6
Continuous
 62
     0
370
     0
100
AcDbMText
 10
0.0
 20
-5.5663982227
 30
0.0
 40
1.5
 41
0.0
 71
     1
 72
     1
  1
mitgeteilt werden und bleibt unser
  7
SLDTEXTSTYLE0
 73
     1
 44
1.0
  0
MTEXT
  5
175
330
16E
100
AcDbEntity
  8
0
  6
Continuous
 62
     0
370
     0
100
AcDbMText
 10
0.0
 20
-8.0663981668
 30
0.0
 40
1.5
 41
0.0
 71
     1
 72
     1
  1
Eigentum.
  7
SLDTEXTSTYLE0
 73
     1
 44
1.0
  0
ENDBLK
  5
170
330
16E
100
AcDbEntity
  8
0
100
AcDbBlockEnd
  0
BLOCK
  5
2DF
330
2DE
100
AcDbEntity
  8
0
100
AcDbBlockBegin
  2
_D
 70
     0
 10
0.0
 20
0.0
 30
0.0
  3
_D
  1

  0
SOLID
  5
2E1
330
2DE
100
AcDbEntity
  8
0
  6
Continuous
 62
     7
370
    18
100
AcDbTrace
 10
66.3186643607
 20
232.9614114916
 30
0.0
 11
69.6228494892
 21
232.4678239747
 31
0.0
 12
69.6184163669
 22
233.4838143031
 32
0.0
 13
69.6184163669
 23
233.4838143031
 33
0.0
  0
SOLID
  5
2E2
330
2DE
100
AcDbEntity
  8
0
  6
Continuous
 62
     7
370
    18
100
AcDbTrace
 10
219.9717130739
 20
233.6318536478
 30
0.0
 11
216.6675279455
 21
234.1254411648
 31
0.0
 12
216.6719610677
 22
233.1094508364
 32
0.0
 13
216.6719610677
 23
233.1094508364
 33
0.0
  0
LINE
  5
2E3
330
2DE
100
AcDbEntity
  8
0
  6
Continuous
 62
     7
370
     0
100
AcDbLine
 10
66.4506599138
 20
202.7104510365
 30
0.0
 11
66.3143010514
 21
233.9614019724
 31
0.0
  0
LINE
  5
2E4
330
2DE
100
AcDbEntity
  8
0
  6
Continuous
 62
     7
370
     0
100
AcDbLine
 10
220.103708627
 20
203.3808931927
 30
0.0
 11
219.9673497646
 21
234.6318441286
 31
0.0
  0
LINE
  5
2E5
330
2DE
100
AcDbEntity
  8
0
  6
Continuous
 62
     7
370
     0
100
AcDbLine
 10
66.3186643607
 20
232.9614114916
 30
0.0
 11
219.9717130739
 21
233.6318536478
 31
0.0
  0
MTEXT
  5
2E6
330
2DE
100
AcDbEntity
  8
0
  6
Continuous
 62
     7
370
    18
100
AcDbMText
 10
143.0350651839
 20
237.8079319256
 30
0.0
 40
3.5
 41
0.0
 71
     1
 72
     1
  1
154
  7
SLDTEXTSTYLE2
 11
0.9999904807207345
 21
0.004363309284749929
 31
0.0
 73
     1
 44
1.0
  0
ENDBLK
  5
2E0
330
2DE
100
AcDbEntity
  8
0
100
AcDbBlockEnd
  0
BLOCK
  5
2EA
330
2E9
100
AcDbEntity
  8
0
100
AcDbBlockBegin
  2
_D_1
 70
     0
 10
0.0
 20
0.0
 30
0.0
  3
_D_1
  1

  0
SOLID
  5
2EC
330
2E9
100
AcDbEntity
  8
0
  6
Continuous
 62
     7
370
    18
100
AcDbTrace
 10
223.5947510678
 20
180.7088956037
 30
0.0
 11
225.2462668315
 21
183.6129899
 31
0.0
 12
224.2969892043
 22
183.9751058847
 32
0.0
 13
224.2969892043
 23
183.9751058847
 33
0.0
  0
SOLID
  5
2ED
330
2E9
100
AcDbEntity
  8
0
  6
Continuous
 62
     7
370
    18
100
AcDbTrace
 10
230.3668132249
 20
198.4616802607
 30
0.0
 11
228.7152974612
 21
195.5575859644
 31
0.0
 12
229.6645750885
 22
195.1954699797
 32
0.0
 13
229.6645750885
 23
195.1954699797
 33
0.0
  0
LINE
  5
2EE
330
2E9
100
AcDbEntity
  8
0
  6
Continuous
 62
     7
370
     0
100
AcDbLine
 10
212.3818220174
 20
184.9862331572
 30
0.0
 11
224.5290794411
 21
180.352482233
 31
0.0
  0
LINE
  5
2EF
330
2E9
100
AcDbEntity
  8
0
  6
Continuous
 62
     7
370
     0
100
AcDbLine
 10
219.1538841745
 20
202.7390178142
 30
0.0
 11
231.3011415982
 21
198.10526689
 31
0.0
  0
LINE
  5
2F0
330
2E9
100
AcDbEntity
  8
0
  6
Continuous
 62
     7
370
     0
100
AcDbLine
 10
223.5947510678
 20
180.7088956037
 30
0.0
 11
230.3668132249
 21
198.4616802607
 31
0.0
  0
MTEXT
  5
2F1
330
2E9
100
AcDbEntity
  8
0
  6
Continuous
 62
     7
370
    18
100
AcDbMText
 10
221.5221235514
 20
187.9342761037
 30
0.0
 40
3.5
 41
0.0
 71
     1
 72
     1
  1
19
  7
SLDTEXTSTYLE2
 11
0.3564133707167673
 21
0.9343283733111781
 31
0.0
 73
     1
 44
1.0
  0
ENDBLK
  5
2EB
330
2E9
100
AcDbEntity
  8
0
100
AcDbBlockEnd
  0
BLOCK
  5
2F3
330
2F2
100
AcDbEntity
  8
0
100
AcDbBlockBegin
  2
SW_CENTERMARKSYMBOL_0
 70
     0
 10
0.0
 20
0.0
 30
0.0
  3
SW_CENTERMARKSYMBOL_0
  1

  0
LINE
  5
2F5
330
2F2
100
AcDbEntity
  8
0
  6
Continuous
 62
     0
370
    18
100
AcDbLine
 10
0.0
 20
0.0
 30
0.0
 11
-2.3339510662
 21
0.8959198739
 31
0.0
  0
LINE
  5
2F6
330
2F2
100
AcDbEntity
  8
0
  6
Continuous
 62
     0
370
    18
100
AcDbLine
 10
0.0
 20
0.0
 30
0.0
 11
-0.8959198739
 21
-2.3339510662
 31
0.0
  0
LINE
  5
2F7
330
2F2
100
AcDbEntity
  8
0
  6
Continuous
 62
     0
370
    18
100
AcDbLine
 10
0.0
 20
0.0
 30
0.0
 11
2.3339510662
 21
-0.8959198739
 31
0.0
  0
LINE
  5
2F8
330
2F2
100
AcDbEntity
  8
0
  6
Continuous
 62
     0
370
    18
100
AcDbLine
 10
0.0
 20
0.0
 30
0.0
 11
0.8959198739
 21
2.3339510662
 31
0.0
  0
LINE
  5
2F9
330
2F2
100
AcDbEntity
  8
0
  6
Continuous
 62
     0
370
    18
100
AcDbLine
 10
-2.3339510662
 20
0.8959198739
 30
0.0
 11
-4.6679021325
 21
1.7918397477
 31
0.0
  0
LINE
  5
2FA
330
2F2
100
AcDbEntity
  8
0
  6
Continuous
 62
     0
370
    18
100
AcDbLine
 10
-0.8959198739
 20
-2.3339510662
 30
0.0
 11
-1.7918397477
 21
-4.6679021325
 31
0.0
  0
LINE
  5
2FB
330
2F2
100
AcDbEntity
  8
0
  6
Continuous
 62
     0
370
    18
100
AcDbLine
 10
2.3339510662
 20
-0.8959198739
 30
0.0
 11
4.6679021325
 21
-1.7918397477
 31
0.0
  0
LINE
  5
2FC
330
2F2
100
AcDbEntity
  8
0
  6
Continuous
 62
     0
370
    18
100
AcDbLine
 10
0.8959198739
 20
2.3339510662
 30
0.0
 11
1.7918397477
 21
4.6679021325
 31
0.0
  0
ENDBLK
  5
2F4
330
2F2
100
AcDbEntity
  8
0
100
AcDbBlockEnd
  0
BLOCK
  5
2FF
330
2FE
100
AcDbEntity
  8
0
100
AcDbBlockBegin
  2
SW_CENTERMARKSYMBOL_1
 70
     0
 10
0.0
 20
0.0
 30
0.0
  3
SW_CENTERMARKSYMBOL_1
  1

  0
LINE
  5
301
330
2FE
100
AcDbEntity
  8
0
  6
Continuous
 62
     0
370
    18
100
AcDbLine
 10
0.0
 20
0.0
 30
0.0
 11
-2.3339510662
 21
0.8959198739
 31
0.0
  0
LINE
  5
302
330
2FE
100
AcDbEntity
  8
0
  6
Continuous
 62
     0
370
    18
100
AcDbLine
 10
0.0
 20
0.0
 30
0.0
 11
-0.8959198739
 21
-2.3339510662
 31
0.0
  0
LINE
  5
303
330
2FE
100
AcDbEntity
  8
0
  6
Continuous
 62
     0
370
    18
100
AcDbLine
 10
0.0
 20
0.0
 30
0.0
 11
2.3339510662
 21
-0.8959198739
 31
0.0
  0
LINE
  5
304
330
2FE
100
AcDbEntity
  8
0
  6
Continuous
 62
     0
370
    18
100
AcDbLine
 10
0.0
 20
0.0
 30
0.0
 11
0.8959198739
 21
2.3339510662
 31
0.0
  0
LINE
  5
305
330
2FE
100
AcDbEntity
  8
0
  6
Continuous
 62
     0
370
    18
100
AcDbLine
 10
-2.3339510662
 20
0.8959198739
 30
0.0
 11
-4.6679021325
 21
1.7918397477
 31
0.0
  0
LINE
  5
306
330
2FE
100
AcDbEntity
  8
0
  6
Continuous
 62
     0
370
    18
100
AcDbLine
 10
-0.8959198739
 20
-2.3339510662
 30
0.0
 11
-1.7918397477
 21
-4.6679021325
 31
0.0
  0
LINE
  5
307
330
2FE
100
AcDbEntity
  8
0
  6
Continuous
 62
     0
370
    18
100
AcDbLine
 10
2.3339510662
 20
-0.8959198739
 30
0.0
 11
4.6679021325
 21
-1.7918397477
 31
0.0
  0
LINE
  5
308
330
2FE
100
AcDbEntity
  8
0
  6
Continuous
 62
     0
370
    18
100
AcDbLine
 10
0.8959198739
 20
2.3339510662
 30
0.0
 11
1.7918397477
 21
4.6679021325
 31
0.0
  0
ENDBLK
  5
300
330
2FE
100
AcDbEntity
  8
0
100
AcDbBlockEnd
  0
BLOCK
  5
327
330
326
100
AcDbEntity
  8
0
100
AcDbBlockBegin
  2
_D_2
 70
     0
 10
0.0
 20
0.0
 30
0.0
  3
_D_2
  1

  0
SOLID
  5
329
330
326
100
AcDbEntity
  8
0
  6
Continuous
 62
     7
370
    18
100
AcDbTrace
 10
297.3186556709
 20
222.9757277016
 30
0.0
 11
300.6206556709
 21
222.4677277016
 31
0.0
 12
300.6206556709
 22
223.4837277016
 32
0.0
 13
300.6206556709
 23
223.4837277016
 33
0.0
  0
SOLID
  5
32A
330
326
100
AcDbEntity
  8
0
  6
Continuous
 62
     7
370
    18
100
AcDbTrace
 10
292.3186556709
 20
222.9757277016
 30
0.0
 11
289.0166556709
 21
223.4837277016
 31
0.0
 12
289.0166556709
 22
222.4677277016
 32
0.0
 13
289.0166556709
 23
222.4677277016
 33
0.0
  0
LINE
  5
32B
330
326
100
AcDbEntity
  8
0
  6
Continuous
 62
     7
370
     0
100
AcDbLine
 10
297.3186556709
 20
217.4581580137
 30
0.0
 11
297.3186556709
 21
223.9757277016
 31
0.0
  0
LINE
  5
32C
330
326
100
AcDbEntity
  8
0
  6
Continuous
 62
     7
370
     0
100
AcDbLine
 10
292.3186556709
 20
217.4581580137
 30
0.0
 11
292.3186556709
 21
223.9757277016
 31
0.0
  0
LINE
  5
32D
330
326
100
AcDbEntity
  8
0
  6
Continuous
 62
     7
370
     0
100
AcDbLine
 10
297.3186556709
 20
222.9757277016
 30
0.0
 11
303.6686556709
 21
222.9757277016
 31
0.0
  0
LINE
  5
32E
330
326
100
AcDbEntity
  8
0
  6
Continuous
 62
     7
370
     0
100
AcDbLine
 10
297.3186556709
 20
222.9757277016
 30
0.0
 11
292.3186556709
 21
222.9757277016
 31
0.0
  0
LINE
  5
32F
330
326
100
AcDbEntity
  8
0
  6
Continuous
 62
     7
370
     0
100
AcDbLine
 10
292.3186556709
 20
222.9757277016
 30
0.0
 11
285.9686556709
 21
222.9757277016
 31
0.0
  0
MTEXT
  5
330
330
326
100
AcDbEntity
  8
0
  6
Continuous
 62
     7
370
    18
100
AcDbMText
 10
293.296525566
 20
227.4874646162
 30
0.0
 40
3.5
 41
0.0
 71
     1
 72
     1
  1
5
  7
SLDTEXTSTYLE2
 73
     1
 44
1.0
  0
ENDBLK
  5
328
330
326
100
AcDbEntity
  8
0
100
AcDbBlockEnd
  0
ENDSEC
  0
SECTION
  2
ENTITIES
  0
LINE
  5
F9
330
1F
100
AcDbEntity
  8
0
  6
CENTERX2
 62
     7
370
    18
100
AcDbLine
 10
352.6174545849
 20
46.9080238789
 30
0.0
 11
352.6174545849
 21
39.4621586124
 31
0.0
  0
LINE
  5
FA
330
1F
100
AcDbEntity
  8
0
  6
Continuous
 62
     7
370
    18
100
AcDbLine
 10
357.7661698132
 20
46.3720107039
 30
0.0
 11
357.7661698132
 21
39.9353173413
 31
0.0
  0
LINE
  5
FB
330
1F
100
AcDbEntity
  8
0
  6
Continuous
 62
     7
370
    18
100
AcDbLine
 10
364.6059427486
 20
44.7376225767
 30
0.0
 11
364.6059427486
 21
41.5697054685
 31
0.0
  0
LINE
  5
FC
330
1F
100
AcDbEntity
  8
0
  6
Continuous
 62
     7
370
    18
100
AcDbLine
 10
364.6059427486
 20
44.7376225767
 30
0.0
 11
357.7661698132
 21
46.3720107039
 31
0.0
  0
LINE
  5
FD
330
1F
100
AcDbEntity
  8
0
  6
Continuous
 62
     7
370
    18
100
AcDbLine
 10
15.0
 20
198.5
 30
0.0
 11
20.0
 21
198.5
 31
0.0
  0
LINE
  5
FE
330
1F
100
AcDbEntity
  8
0
  6
Continuous
 62
     7
370
    18
100
AcDbLine
 10
12.0
 20
148.5
 30
0.0
 11
0.0
 21
148.5
 31
0.0
  0
LINE
  5
FF
330
1F
100
AcDbEntity
  8
0
  6
Continuous
 62
     7
370
    18
100
AcDbLine
 10
357.7661698132
 20
39.9353173413
 30
0.0
 11
364.6059427486
 21
41.5697054685
 31
0.0
  0
LINE
  5
100
330
1F
100
AcDbEntity
  8
0
  6
CENTERX2
 62
     7
370
    18
100
AcDbLine
 10
348.6240467841
 20
43.1536640226
 30
0.0
 11
356.6108623857
 21
43.1536640226
 31
0.0
  0
LINE
  5
101
330
1F
100
AcDbEntity
  8
0
  6
CENTERX2
 62
     7
370
    18
100
AcDbLine
 10
357.1289238876
 20
43.1536640226
 30
0.0
 11
365.6255362296
 21
43.1536640226
 31
0.0
  0
LINE
  5
102
330
1F
100
AcDbEntity
  8
0
  6
Continuous
 62
     7
370
    18
100
AcDbLine
 10
0.0
 20
0.0
 30
0.0
 11
420.0
 21
0.0
 31
0.0
  0
LINE
  5
103
330
1F
100
AcDbEntity
  8
0
  6
Continuous
 62
     7
370
    18
100
AcDbLine
 10
0.0
 20
0.0
 30
0.0
 11
0.0
 21
297.0
 31
0.0
  0
LINE
  5
104
330
1F
100
AcDbEntity
  8
0
  6
Continuous
 62
     7
370
    18
100
AcDbLine
 10
0.0
 20
297.0
 30
0.0
 11
420.0
 21
297.0
 31
0.0
  0
LINE
  5
105
330
1F
100
AcDbEntity
  8
0
  6
Continuous
 62
     7
370
    18
100
AcDbLine
 10
420.0
 20
0.0
 30
0.0
 11
420.0
 21
297.0
 31
0.0
  0
LINE
  5
106
330
1F
100
AcDbEntity
  8
0
  6
Continuous
 62
     7
370
    25
100
AcDbLine
 10
228.0
 20
35.0
 30
0.0
 11
410.0
 21
35.0
 31
0.0
  0
LINE
  5
107
330
1F
100
AcDbEntity
  8
0
  6
Continuous
 62
     7
370
    18
100
AcDbLine
 10
410.0
 20
198.5
 30
0.0
 11
415.0
 21
198.5
 31
0.0
  0
LINE
  5
108
330
1F
100
AcDbEntity
  8
0
  6
Continuous
 62
     7
370
    18
100
AcDbLine
 10
15.0
 20
148.5
 30
0.0
 11
20.0
 21
148.5
 31
0.0
  0
LINE
  5
109
330
1F
100
AcDbEntity
  8
0
  6
Continuous
 62
     7
370
    18
100
AcDbLine
 10
228.0
 20
40.0
 30
0.0
 11
296.6
 21
40.0
 31
0.0
  0
LINE
  5
10A
330
1F
100
AcDbEntity
  8
0
  6
Continuous
 62
     7
370
    18
100
AcDbLine
 10
15.0
 20
248.5
 30
0.0
 11
20.0
 21
248.5
 31
0.0
  0
LINE
  5
10B
330
1F
100
AcDbEntity
  8
0
  6
Continuous
 62
     7
370
    35
100
AcDbLine
 10
20.0
 20
287.0
 30
0.0
 11
20.0
 21
10.0
 31
0.0
  0
LINE
  5
10C
330
1F
100
AcDbEntity
  8
0
  6
Continuous
 62
     7
370
    35
100
AcDbLine
 10
410.0
 20
287.0
 30
0.0
 11
20.0
 21
287.0
 31
0.0
  0
LINE
  5
10D
330
1F
100
AcDbEntity
  8
0
  6
Continuous
 62
     7
370
    35
100
AcDbLine
 10
410.0
 20
5.0
 30
0.0
 11
410.0
 21
287.0
 31
0.0
  0
LINE
  5
10E
330
1F
100
AcDbEntity
  8
0
  6
Continuous
 62
     7
370
    35
100
AcDbLine
 10
20.0
 20
10.0
 30
0.0
 11
415.0
 21
10.0
 31
0.0
  0
LINE
  5
10F
330
1F
100
AcDbEntity
  8
0
  6
Continuous
 62
     7
370
    18
100
AcDbLine
 10
410.0
 20
148.5
 30
0.0
 11
415.0
 21
148.5
 31
0.0
  0
LINE
  5
110
330
1F
100
AcDbEntity
  8
0
  6
Continuous
 62
     7
370
    18
100
AcDbLine
 10
228.0
 20
50.0
 30
0.0
 11
296.6
 21
50.0
 31
0.0
  0
LINE
  5
111
330
1F
100
AcDbEntity
  8
0
  6
Continuous
 62
     7
370
    18
100
AcDbLine
 10
15.0
 20
98.5
 30
0.0
 11
20.0
 21
98.5
 31
0.0
  0
LINE
  5
112
330
1F
100
AcDbEntity
  8
0
  6
Continuous
 62
     7
370
    18
100
AcDbLine
 10
296.6
 20
45.0
 30
0.0
 11
228.0
 21
45.0
 31
0.0
  0
LINE
  5
113
330
1F
100
AcDbEntity
  8
0
  6
Continuous
 62
     7
370
    18
100
AcDbLine
 10
65.0
 20
292.0
 30
0.0
 11
65.0
 21
287.0
 31
0.0
  0
LINE
  5
114
330
1F
100
AcDbEntity
  8
0
  6
Continuous
 62
     7
370
    18
100
AcDbLine
 10
230.0
 20
292.0
 30
0.0
 11
230.0
 21
297.0
 31
0.0
  0
LINE
  5
115
330
1F
100
AcDbEntity
  8
0
  6
Continuous
 62
     7
370
    25
100
AcDbLine
 10
296.6
 20
55.0
 30
0.0
 11
296.6
 21
35.0
 31
0.0
  0
LINE
  5
116
330
1F
100
AcDbEntity
  8
0
  6
Continuous
 62
     7
370
    18
100
AcDbLine
 10
410.0
 20
98.5
 30
0.0
 11
415.0
 21
98.5
 31
0.0
  0
LINE
  5
117
330
1F
100
AcDbEntity
  8
0
100
AcDbLine
 10
230.0
 20
5.0
 30
0.0
 11
230.0
 21
0.0
 31
0.0
  0
LINE
  5
118
330
1F
100
AcDbEntity
  8
0
  6
Continuous
 62
     7
370
    18
100
AcDbLine
 10
125.0
 20
292.0
 30
0.0
 11
125.0
 21
297.0
 31
0.0
  0
LINE
  5
119
330
1F
100
AcDbEntity
  8
0
  6
Continuous
 62
     7
370
    18
100
AcDbLine
 10
125.0
 20
5.0
 30
0.0
 11
125.0
 21
0.0
 31
0.0
  0
LINE
  5
11A
330
1F
100
AcDbEntity
  8
0
  6
Continuous
 62
     7
370
    25
100
AcDbLine
 10
410.0
 20
55.0
 30
0.0
 11
228.0
 21
55.0
 31
0.0
  0
LINE
  5
11B
330
1F
100
AcDbEntity
  8
0
  6
Continuous
 62
     7
370
    18
100
AcDbLine
 10
228.0
 20
55.0
 30
0.0
 11
410.0
 21
55.0
 31
0.0
  0
LINE
  5
11C
330
1F
100
AcDbEntity
  8
0
  6
Continuous
 62
     7
370
    18
100
AcDbLine
 10
410.0
 20
55.0
 30
0.0
 11
228.0
 21
55.0
 31
0.0
  0
LINE
  5
11D
330
1F
100
AcDbEntity
  8
0
  6
Continuous
 62
     7
370
    18
100
AcDbLine
 10
268.0
 20
76.5
 30
0.0
 11
268.0
 21
55.0
 31
0.0
  0
LINE
  5
11E
330
1F
100
AcDbEntity
  8
0
  6
Continuous
 62
     7
370
    18
100
AcDbLine
 10
271.6
 20
55.0
 30
0.0
 11
271.6
 21
40.0
 31
0.0
  0
LINE
  5
11F
330
1F
100
AcDbEntity
  8
0
  6
Continuous
 62
     7
370
    18
100
AcDbLine
 10
247.0
 20
55.0
 30
0.0
 11
247.0
 21
35.0
 31
0.0
  0
LINE
  5
120
330
1F
100
AcDbEntity
  8
0
  6
Continuous
 62
     7
370
    35
100
AcDbLine
 10
228.0
 20
76.5
 30
0.0
 11
228.0
 21
10.0
 31
0.0
  0
LINE
  5
121
330
1F
100
AcDbEntity
  8
0
  6
Continuous
 62
     7
370
    18
100
AcDbLine
 10
15.0
 20
292.0
 30
0.0
 11
415.0
 21
292.0
 31
0.0
  0
LINE
  5
122
330
1F
100
AcDbEntity
  8
0
  6
Continuous
 62
     7
370
    18
100
AcDbLine
 10
228.0
 20
65.75
 30
0.0
 11
310.0
 21
65.75
 31
0.0
  0
LINE
  5
123
330
1F
100
AcDbEntity
  8
0
  6
Continuous
 62
     7
370
    35
100
AcDbLine
 10
228.0
 20
76.5
 30
0.0
 11
410.0
 21
76.5
 31
0.0
  0
LINE
  5
124
330
1F
100
AcDbEntity
  8
0
  6
Continuous
 62
     7
370
    18
100
AcDbLine
 10
15.0
 20
48.5
 30
0.0
 11
20.0
 21
48.5
 31
0.0
  0
LINE
  5
125
330
1F
100
AcDbEntity
  8
0
  6
Continuous
 62
     7
370
    18
100
AcDbLine
 10
410.0
 20
48.5
 30
0.0
 11
415.0
 21
48.5
 31
0.0
  0
LINE
  5
126
330
1F
100
AcDbEntity
  8
0
  6
Continuous
 62
     7
370
    18
100
AcDbLine
 10
332.6610845472
 20
20.0
 30
0.0
 11
332.6610845472
 21
10.0
 31
0.0
  0
LINE
  5
127
330
1F
100
AcDbEntity
  8
0
  6
Continuous
 62
     7
370
    18
100
AcDbLine
 10
410.0
 20
248.5
 30
0.0
 11
415.0
 21
248.5
 31
0.0
  0
LINE
  5
128
330
1F
100
AcDbEntity
  8
0
  6
Continuous
 62
     7
370
    18
100
AcDbLine
 10
65.0
 20
10.0
 30
0.0
 11
65.0
 21
5.0
 31
0.0
  0
LINE
  5
129
330
1F
100
AcDbEntity
  8
0
  6
Continuous
 62
     7
370
    18
100
AcDbLine
 10
115.0
 20
10.0
 30
0.0
 11
115.0
 21
5.0
 31
0.0
  0
LINE
  5
12A
330
1F
100
AcDbEntity
  8
0
  6
Continuous
 62
     7
370
    18
100
AcDbLine
 10
115.0
 20
292.0
 30
0.0
 11
115.0
 21
287.0
 31
0.0
  0
LINE
  5
12B
330
1F
100
AcDbEntity
  8
0
  6
Continuous
 62
     7
370
    18
100
AcDbLine
 10
165.0
 20
10.0
 30
0.0
 11
165.0
 21
5.0
 31
0.0
  0
LINE
  5
12C
330
1F
100
AcDbEntity
  8
0
  6
Continuous
 62
     7
370
    18
100
AcDbLine
 10
165.0
 20
292.0
 30
0.0
 11
165.0
 21
287.0
 31
0.0
  0
LINE
  5
12D
330
1F
100
AcDbEntity
  8
0
  6
Continuous
 62
     7
370
    18
100
AcDbLine
 10
215.0
 20
10.0
 30
0.0
 11
215.0
 21
5.0
 31
0.0
  0
LINE
  5
12E
330
1F
100
AcDbEntity
  8
0
  6
Continuous
 62
     7
370
    18
100
AcDbLine
 10
215.0
 20
292.0
 30
0.0
 11
215.0
 21
287.0
 31
0.0
  0
LINE
  5
12F
330
1F
100
AcDbEntity
  8
0
  6
Continuous
 62
     7
370
    18
100
AcDbLine
 10
265.0
 20
10.0
 30
0.0
 11
265.0
 21
5.0
 31
0.0
  0
LINE
  5
130
330
1F
100
AcDbEntity
  8
0
  6
Continuous
 62
     7
370
    18
100
AcDbLine
 10
265.0
 20
292.0
 30
0.0
 11
265.0
 21
287.0
 31
0.0
  0
LINE
  5
131
330
1F
100
AcDbEntity
  8
0
  6
Continuous
 62
     7
370
    18
100
AcDbLine
 10
347.6610845472
 20
20.0
 30
0.0
 11
347.6610845472
 21
10.0
 31
0.0
  0
LINE
  5
132
330
1F
100
AcDbEntity
  8
0
  6
Continuous
 62
     7
370
    18
100
AcDbLine
 10
362.6610845472
 20
20.0
 30
0.0
 11
362.6610845472
 21
10.0
 31
0.0
  0
LINE
  5
133
330
1F
100
AcDbEntity
  8
0
  6
Continuous
 62
     7
370
    25
100
AcDbLine
 10
327.6610845472
 20
10.0
 30
0.0
 11
327.6610845472
 21
55.0
 31
0.0
  0
LINE
  5
134
330
1F
100
AcDbEntity
  8
0
  6
Continuous
 62
     7
370
    18
100
AcDbLine
 10
20.0
 20
292.0
 30
0.0
 11
20.0
 21
297.0
 31
0.0
  0
LINE
  5
135
330
1F
100
AcDbEntity
  8
0
  6
Continuous
 62
     7
370
    18
100
AcDbLine
 10
20.0
 20
5.0
 30
0.0
 11
20.0
 21
0.0
 31
0.0
  0
LINE
  5
136
330
1F
100
AcDbEntity
  8
0
  6
Continuous
 62
     7
370
    18
100
AcDbLine
 10
315.0
 20
10.0
 30
0.0
 11
315.0
 21
5.0
 31
0.0
  0
LINE
  5
137
330
1F
100
AcDbEntity
  8
0
  6
Continuous
 62
     7
370
    18
100
AcDbLine
 10
315.0
 20
292.0
 30
0.0
 11
315.0
 21
287.0
 31
0.0
  0
LINE
  5
138
330
1F
100
AcDbEntity
  8
0
  6
Continuous
 62
     7
370
    18
100
AcDbLine
 10
365.0
 20
10.0
 30
0.0
 11
365.0
 21
5.0
 31
0.0
  0
LINE
  5
139
330
1F
100
AcDbEntity
  8
0
  6
Continuous
 62
     7
370
    18
100
AcDbLine
 10
365.0
 20
292.0
 30
0.0
 11
365.0
 21
287.0
 31
0.0
  0
LINE
  5
13A
330
1F
100
AcDbEntity
  8
0
  6
Continuous
 62
     7
370
    18
100
AcDbLine
 10
15.0
 20
292.0
 30
0.0
 11
15.0
 21
5.0
 31
0.0
  0
LINE
  5
13B
330
1F
100
AcDbEntity
  8
0
  6
Continuous
 62
     7
370
    18
100
AcDbLine
 10
15.0
 20
5.0
 30
0.0
 11
415.0
 21
5.0
 31
0.0
  0
LINE
  5
13C
330
1F
100
AcDbEntity
  8
0
  6
Continuous
 62
     7
370
    18
100
AcDbLine
 10
415.0
 20
292.0
 30
0.0
 11
415.0
 21
5.0
 31
0.0
  0
LINE
  5
13D
330
1F
100
AcDbEntity
  8
0
  6
Continuous
 62
     7
370
    18
100
AcDbLine
 10
347.6610845472
 20
44.213444
 30
0.0
 11
327.6610845472
 21
44.213444
 31
0.0
  0
LINE
  5
13E
330
1F
100
AcDbEntity
  8
0
  6
Continuous
 62
     7
370
    18
100
AcDbLine
 10
347.6610845472
 20
35.0
 30
0.0
 11
347.6610845472
 21
55.0
 31
0.0
  0
LINE
  5
13F
330
1F
100
AcDbEntity
  8
0
  6
Continuous
 62
     7
370
    18
100
AcDbLine
 10
370.057188
 20
55.012032
 30
0.0
 11
370.057188
 21
35.0
 31
0.0
  0
LINE
  5
140
330
1F
100
AcDbEntity
  8
0
  6
Continuous
 62
     7
370
    18
100
AcDbLine
 10
398.0
 20
35.0
 30
0.0
 11
398.0
 21
20.0
 31
0.0
  0
LINE
  5
141
330
1F
100
AcDbEntity
  8
0
  6
Continuous
 62
     7
370
    18
100
AcDbLine
 10
410.0
 20
15.0
 30
0.0
 11
327.6610845472
 21
15.0
 31
0.0
  0
LINE
  5
142
330
1F
100
AcDbEntity
  8
0
  6
Continuous
 62
     7
370
    18
100
AcDbLine
 10
327.6610845472
 20
20.0
 30
0.0
 11
410.0
 21
20.0
 31
0.0
  0
LINE
  5
143
330
1F
100
AcDbEntity
  8
0
  6
Continuous
 62
     7
370
    18
100
AcDbLine
 10
341.485486
 20
20.0
 30
0.0
 11
341.485486
 21
27.564675
 31
0.0
  0
LINE
  5
144
330
1F
100
AcDbEntity
  8
0
  6
Continuous
 62
     7
370
    25
100
AcDbLine
 10
310.0
 20
76.5
 30
0.0
 11
310.0
 21
55.0
 31
0.0
  0
CIRCLE
  5
145
330
1F
100
AcDbEntity
  8
0
  6
Continuous
 62
     7
370
    18
100
AcDbCircle
 10
11.0
 20
108.5
 30
0.0
 40
2.750000000000001
  0
CIRCLE
  5
146
330
1F
100
AcDbEntity
  8
0
  6
Continuous
 62
     7
370
    18
100
AcDbCircle
 10
11.0
 20
188.5
 30
0.0
 40
2.750000000000001
  0
CIRCLE
  5
147
330
1F
100
AcDbEntity
  8
0
  6
Continuous
 62
     7
370
    18
100
AcDbCircle
 10
352.6174545849
 20
43.1536640226
 30
0.0
 40
3.218346681300138
  0
CIRCLE
  5
148
330
1F
100
AcDbEntity
  8
0
  6
Continuous
 62
     7
370
    18
100
AcDbCircle
 10
352.6174545849
 20
43.1536640226
 30
0.0
 40
1.583958554121555
  0
INSERT
  5
149
330
1F
100
AcDbEntity
  8
0
  6
Continuous
 62
     7
100
AcDbBlockReference
  2
ACO-Logo
 10
314.3510726297
 20
57.6366106772
 30
0.0
  0
POINT
  5
14A
330
1F
100
AcDbEntity
  8
0
100
AcDbPoint
 10
0.0
 20
0.0
 30
0.0
  0
POINT
  5
14B
330
1F
100
AcDbEntity
  8
0
100
AcDbPoint
 10
410.0
 20
10.0
 30
0.0
  0
MTEXT
  5
14C
330
1F
100
AcDbEntity
  8
0
  6
Continuous
 62
     7
370
    18
100
AcDbMText
 10
17.7359443114
 20
124.8017866468
 30
0.0
 40
2.0
 41
0.0
 71
     2
 72
     1
  1
D
  7
SLDTEXTSTYLE0
 73
     1
 44
1.0
  0
MTEXT
  5
14D
330
1F
100
AcDbEntity
  8
0
  6
Continuous
 62
     7
370
    18
100
AcDbMText
 10
17.6274822413
 20
174.7261854936
 30
0.0
 40
2.0
 41
0.0
 71
     2
 72
     1
  1
C
  7
SLDTEXTSTYLE0
 73
     1
 44
1.0
  0
MTEXT
  5
14E
330
1F
100
AcDbEntity
  8
0
  6
Continuous
 62
     7
370
    18
100
AcDbMText
 10
17.5516905072
 20
224.4926420442
 30
0.0
 40
2.0
 41
0.0
 71
     2
 72
     1
  1
B
  7
SLDTEXTSTYLE0
 73
     1
 44
1.0
  0
MTEXT
  5
14F
330
1F
100
AcDbEntity
  8
0
  6
Continuous
 62
     7
370
    18
100
AcDbMText
 10
290.0344258799
 20
290.5428789914
 30
0.0
 40
2.0
 41
0.0
 71
     2
 72
     1
  1
6
  7
SLDTEXTSTYLE0
 73
     1
 44
1.0
  0
MTEXT
  5
150
330
1F
100
AcDbEntity
  8
0
  6
Continuous
 62
     7
370
    18
100
AcDbMText
 10
240.0417859812
 20
290.6369260235
 30
0.0
 40
2.0
 41
0.0
 71
     2
 72
     1
  1
5
  7
SLDTEXTSTYLE0
 73
     1
 44
1.0
  0
MTEXT
  5
151
330
1F
100
AcDbEntity
  8
0
  6
Continuous
 62
     7
370
    18
100
AcDbMText
 10
190.0300404524
 20
290.6343268032
 30
0.0
 40
2.0
 41
0.0
 71
     2
 72
     1
  1
4
  7
SLDTEXTSTYLE0
 73
     1
 44
1.0
  0
MTEXT
  5
152
330
1F
100
AcDbEntity
  8
0
  6
Continuous
 62
     7
370
    18
100
AcDbMText
 10
140.0165868337
 20
290.6378887952
 30
0.0
 40
2.0
 41
0.0
 71
     2
 72
     1
  1
3
  7
SLDTEXTSTYLE0
 73
     1
 44
1.0
  0
MTEXT
  5
153
330
1F
100
AcDbEntity
  8
0
  6
Continuous
 62
     7
370
    18
100
AcDbMText
 10
90.033223
 20
290.5566702875
 30
0.0
 40
2.0
 41
0.0
 71
     2
 72
     1
  1
2
  7
SLDTEXTSTYLE0
 73
     1
 44
1.0
  0
MTEXT
  5
154
330
1F
100
AcDbEntity
  8
0
  6
Continuous
 62
     7
370
    18
100
AcDbMText
 10
40.0509551097
 20
290.5530165805
 30
0.0
 40
2.0
 41
0.0
 71
     2
 72
     1
  1
1
  7
SLDTEXTSTYLE0
 73
     1
 44
1.0
  0
MTEXT
  5
155
330
1F
100
AcDbEntity
  8
0
  6
Continuous
 62
     7
370
    18
100
AcDbMText
 10
17.5609786315
 20
271.2966048816
 30
0.0
 40
2.0
 41
0.0
 71
     2
 72
     1
  1
A
  7
SLDTEXTSTYLE0
 73
     1
 44
1.0
  0
MTEXT
  5
156
330
1F
100
AcDbEntity
  8
0
  6
Continuous
 62
     7
370
    18
100
AcDbMText
 10
89.9333968896
 20
8.5904490253
 30
0.0
 40
2.0
 41
0.0
 71
     2
 72
     1
  1
2
  7
SLDTEXTSTYLE0
 73
     1
 44
1.0
  0
MTEXT
  5
157
330
1F
100
AcDbEntity
  8
0
  6
Continuous
 62
     7
370
    18
100
AcDbMText
 10
39.9009486579
 20
8.6623118453
 30
0.0
 40
2.0
 41
0.0
 71
     2
 72
     1
  1
1
  7
SLDTEXTSTYLE0
 73
     1
 44
1.0
  0
MTEXT
  5
158
330
1F
100
AcDbEntity
  8
0
  6
Continuous
 62
     7
370
    18
100
AcDbMText
 10
190.0227230239
 20
8.7073169286
 30
0.0
 40
2.0
 41
0.0
 71
     2
 72
     1
  1
4
  7
SLDTEXTSTYLE0
 73
     1
 44
1.0
  0
MTEXT
  5
159
330
1F
100
AcDbEntity
  8
0
  6
Continuous
 62
     7
370
    18
100
AcDbMText
 10
140.0453427777
 20
8.5647154541
 30
0.0
 40
2.0
 41
0.0
 71
     2
 72
     1
  1
3
  7
SLDTEXTSTYLE0
 73
     1
 44
1.0
  0
MTEXT
  5
15A
330
1F
100
AcDbEntity
  8
0
  6
Continuous
 62
     7
370
    18
100
AcDbMText
 10
239.8749782531
 20
8.5637526825
 30
0.0
 40
2.0
 41
0.0
 71
     2
 72
     1
  1
5
  7
SLDTEXTSTYLE0
 73
     1
 44
1.0
  0
MTEXT
  5
15B
330
1F
100
AcDbEntity
  8
0
  6
Continuous
 62
     7
370
    18
100
AcDbMText
 10
412.6717254925
 20
224.51208263
 30
0.0
 40
2.0
 41
0.0
 71
     2
 72
     1
  1
B
  7
SLDTEXTSTYLE0
 73
     1
 44
1.0
  0
MTEXT
  5
15C
330
1F
100
AcDbEntity
  8
0
  6
Continuous
 62
     7
370
    18
100
AcDbMText
 10
412.5951211154
 20
271.2798202564
 30
0.0
 40
2.0
 41
0.0
 71
     2
 72
     1
  1
A
  7
SLDTEXTSTYLE0
 73
     1
 44
1.0
  0
MTEXT
  5
15D
330
1F
100
AcDbEntity
  8
0
  6
Continuous
 62
     7
370
    18
100
AcDbMText
 10
412.6491448679
 20
174.7279841048
 30
0.0
 40
2.0
 41
0.0
 71
     2
 72
     1
  1
C
  7
SLDTEXTSTYLE0
 73
     1
 44
1.0
  0
MTEXT
  5
15E
330
1F
100
AcDbEntity
  8
0
  6
Continuous
 62
     7
370
    18
100
AcDbMText
 10
340.0216466634
 20
290.5954278102
 30
0.0
 40
2.0
 41
0.0
 71
     2
 72
     1
  1
7
  7
SLDTEXTSTYLE0
 73
     1
 44
1.0
  0
MTEXT
  5
15F
330
1F
100
AcDbEntity
  8
0
  6
Continuous
 62
     7
370
    18
100
AcDbMText
 10
390.037657264
 20
290.6215496941
 30
0.0
 40
2.0
 41
0.0
 71
     2
 72
     1
  1
8
  7
SLDTEXTSTYLE0
 73
     1
 44
1.0
  0
MTEXT
  5
160
330
1F
100
AcDbEntity
  8
0
  6
Continuous
 62
     7
370
    18
100
AcDbMText
 10
17.6897935208
 20
74.7267628143
 30
0.0
 40
2.0
 41
0.0
 71
     2
 72
     1
  1
E
  7
SLDTEXTSTYLE0
 73
     1
 44
1.0
  0
MTEXT
  5
161
330
1F
100
AcDbEntity
  8
0
  6
Continuous
 62
     7
370
    18
100
AcDbMText
 10
17.5936930126
 20
27.773321616
 30
0.0
 40
2.0
 41
0.0
 71
     2
 72
     1
  1
F
  7
SLDTEXTSTYLE0
 73
     1
 44
1.0
  0
MTEXT
  5
162
330
1F
100
AcDbEntity
  8
0
  6
Continuous
 62
     7
370
    18
100
AcDbMText
 10
339.8003474583
 20
8.7205095051
 30
0.0
 40
2.0
 41
0.0
 71
     2
 72
     1
  1
7
  7
SLDTEXTSTYLE0
 73
     1
 44
1.0
  0
MTEXT
  5
163
330
1F
100
AcDbEntity
  8
0
  6
Continuous
 62
     7
370
    18
100
AcDbMText
 10
289.7886477179
 20
8.6884673623
 30
0.0
 40
2.0
 41
0.0
 71
     2
 72
     1
  1
6
  7
SLDTEXTSTYLE0
 73
     1
 44
1.0
  0
MTEXT
  5
164
330
1F
100
AcDbEntity
  8
0
  6
Continuous
 62
     7
370
    18
100
AcDbMText
 10
412.5160699095
 20
74.5096307526
 30
0.0
 40
2.0
 41
0.0
 71
     2
 72
     1
  1
E
  7
SLDTEXTSTYLE0
 73
     1
 44
1.0
  0
MTEXT
  5
165
330
1F
100
AcDbEntity
  8
0
  6
Continuous
 62
     7
370
    18
100
AcDbMText
 10
412.6234021365
 20
124.4517683275
 30
0.0
 40
2.0
 41
0.0
 71
     2
 72
     1
  1
D
  7
SLDTEXTSTYLE0
 73
     1
 44
1.0
  0
MTEXT
  5
166
330
1F
100
AcDbEntity
  8
0
  6
Continuous
 62
     7
370
    18
100
AcDbMText
 10
411.7952690469
 20
41.8473512857
 30
0.0
 40
1.8
 41
0.0
 71
     3
 72
     1
  1
Plotdatum: 31.08.2024
  7
SLDTEXTSTYLE0
 11
-3.269436733918102E-15
 21
1.0
 31
0.0
 73
     1
 44
1.0
  0
MTEXT
  5
167
330
1F
100
AcDbEntity
  8
0
  6
Continuous
 62
     7
370
    18
100
AcDbMText
 10
412.557933251
 20
8.2549718046
 30
0.0
 40
1.8
 41
0.0
 71
     2
 72
     1
  1
A3
  7
SLDTEXTSTYLE0
 73
     1
 44
1.0
  0
MTEXT
  5
168
330
1F
100
AcDbEntity
  8
0
  6
Continuous
 62
     7
370
    18
100
AcDbMText
 10
390.594604279
 20
8.3847467643
 30
0.0
 40
1.8
 41
0.0
 71
     2
 72
     1
  1
CAD-System: SolidWorks
  7
SLDTEXTSTYLE0
 73
     1
 44
1.0
  0
MTEXT
  5
169
330
1F
100
AcDbEntity
  8
0
  6
Continuous
 62
     7
370
    18
100
AcDbMText
 10
403.9986368527
 20
28.4394692021
 30
0.0
 40
5.0
 41
0.0
 71
     2
 72
     1
  1
A
  7
SLDTEXTSTYLE0
 73
     1
 44
1.0
  0
MTEXT
  5
16A
330
1F
100
AcDbEntity
  8
0
  6
Continuous
 62
     7
370
    18
100
AcDbMText
 10
249.556836311
 20
38.5581729516
 30
0.0
 40
2.0
 41
0.0
 71
     1
 72
     1
  1
Freigegeben
  7
SLDTEXTSTYLE0
 73
     1
 44
1.0
  0
MTEXT
  5
16B
330
1F
100
AcDbEntity
  8
0
  6
Continuous
 62
     7
370
    18
100
AcDbMText
 10
284.096264263
 20
43.5473338598
 30
0.0
 40
2.0
 41
0.0
 71
     2
 72
     1
  1
dca
  7
SLDTEXTSTYLE0
 73
     1
 44
1.0
  0
MTEXT
  5
16C
330
1F
100
AcDbEntity
  8
0
  6
Continuous
 62
     7
370
    18
100
AcDbMText
 10
249.5284668163
 20
43.5603133928
 30
0.0
 40
2.0
 41
0.0
 71
     1
 72
     1
  1
31.08.2024
  7
SLDTEXTSTYLE0
 73
     1
 44
1.0
  0
MTEXT
  5
16D
330
1F
100
AcDbEntity
  8
0
  6
Continuous
 62
     7
370
     0
100
AcDbMText
 10
372.2007348103
 20
38.8723054925
 30
0.0
 40
1.5
 41
0.0
 71
     1
 72
     1
  1
Copyright reserved! © ACO AG
  7
SLDTEXTSTYLE0
 73
     1
 44
1.0
  0
INSERT
  5
176
330
1F
100
AcDbEntity
  8
0
  6
Continuous
 62
     7
370
     0
100
AcDbBlockReference
  2
SW_NOTE_0_3
 10
372.2203831445
 20
51.2202922854
 30
0.0
  0
MTEXT
  5
177
330
1F
100
AcDbEntity
  8
0
  6
Continuous
 62
     7
370
    18
100
AcDbMText
 10
330.2607505021
 20
13.524501801
 30
0.0
 40
2.0
 41
0.0
 71
     2
 72
     1
  1
-
  7
SLDTEXTSTYLE0
 73
     1
 44
1.0
  0
MTEXT
  5
178
330
1F
100
AcDbEntity
  8
0
  6
Continuous
 62
     7
370
    18
100
AcDbMText
 10
364.9468572407
 20
18.4594173137
 30
0.0
 40
2.0
 41
0.0
 71
     1
 72
     1
  1
SAP-Nr.
  7
SLDTEXTSTYLE0
 73
     1
 44
1.0
  0
MTEXT
  5
179
330
1F
100
AcDbEntity
  8
0
  6
Continuous
 62
     7
370
    18
100
AcDbMText
 10
354.24544421
 20
18.5245664709
 30
0.0
 40
2.0
 41
0.0
 71
     2
 72
     1
  1
dca
  7
SLDTEXTSTYLE0
 73
     1
 44
1.0
  0
MTEXT
  5
17A
330
1F
100
AcDbEntity
  8
0
  6
Continuous
 62
     7
370
    18
100
AcDbMText
 10
340.2690141878
 20
18.5245664709
 30
0.0
 40
2.0
 41
0.0
 71
     2
 72
     1
  1
30.08.2024
  7
SLDTEXTSTYLE0
 73
     1
 44
1.0
  0
MTEXT
  5
17B
330
1F
100
AcDbEntity
  8
0
  6
Continuous
 62
     7
370
    18
100
AcDbMText
 10
330.227417144
 20
18.524501801
 30
0.0
 40
2.0
 41
0.0
 71
     2
 72
     1
  1
A
  7
SLDTEXTSTYLE0
 73
     1
 44
1.0
  0
MTEXT
  5
17C
330
1F
100
AcDbEntity
  8
0
  6
Continuous
 62
     7
370
    18
100
AcDbMText
 10
311.764909851
 20
46.3490312465
 30
0.0
 40
5.0
 41
0.0
 71
     2
 72
     1
  1
1:1
  7
SLDTEXTSTYLE0
 73
     1
 44
1.0
  0
MTEXT
  5
17D
330
1F
100
AcDbEntity
  8
0
  6
Continuous
 62
     7
370
    18
100
AcDbMText
 10
230.1851195342
 20
38.7793829468
 30
0.0
 40
2.0
 41
0.0
 71
     1
 72
     1
  1
Status:
  7
SLDTEXTSTYLE0
 73
     1
 44
1.0
  0
MTEXT
  5
17E
330
1F
100
AcDbEntity
  8
0
  6
Continuous
 62
     7
370
    18
100
AcDbMText
 10
344.926838705
 20
28.2772828851
 30
0.0
 40
5.0
 41
0.0
 71
     1
 72
     1
  1
100837
  7
SLDTEXTSTYLE0
 73
     1
 44
1.0
  0
MTEXT
  5
17F
330
1F
100
AcDbEntity
  8
0
  6
Continuous
 62
     7
370
    18
100
AcDbMText
 10
231.1132118803
 20
14.9211049657
 30
0.0
 40
2.5
 41
0.0
 71
     1
 72
     1
  1
Art. Nr.: 2090222
  7
SLDTEXTSTYLE0
 73
     1
 44
1.0
  0
MTEXT
  5
180
330
1F
100
AcDbEntity
  8
0
  6
Continuous
 62
     7
370
    18
100
AcDbMText
 10
231.1475981734
 20
21.4529560996
 30
0.0
 40
2.5
 41
0.0
 71
     1
 72
     1
  1
Eletricitá
  7
SLDTEXTSTYLE0
 73
     1
 44
1.0
  0
MTEXT
  5
181
330
1F
100
AcDbEntity
  8
0
  6
Continuous
 62
     7
370
    18
100
AcDbMText
 10
231.1159560181
 20
33.0904969858
 30
0.0
 40
2.5
 41
0.0
 71
     1
 72
     1
  1
Beschriftungsmöglichkeiten
  7
SLDTEXTSTYLE0
 73
     1
 44
1.0
  0
MTEXT
  5
182
330
1F
100
AcDbEntity
  8
0
  6
Continuous
 62
     7
370
    18
100
AcDbMText
 10
231.1475981734
 20
28.0307932366
 30
0.0
 40
3.5
 41
0.0
 71
     1
 72
     1
  1
Individuelle Beschriftungsschilder
  7
SLDTEXTSTYLE0
 73
     1
 44
1.0
  0
MTEXT
  5
183
330
1F
100
AcDbEntity
  8
0
  6
Continuous
 62
     7
370
    18
100
AcDbMText
 10
348.2746465368
 20
53.819119072
 30
0.0
 40
2.0
 41
0.0
 71
     1
 72
     1
  1
Projektion: ISO-E
  7
SLDTEXTSTYLE0
 73
     1
 44
1.0
  0
MTEXT
  5
184
330
1F
100
AcDbEntity
  8
0
  6
Continuous
 62
     7
370
    18
100
AcDbMText
 10
337.7677091855
 20
49.3670227094
 30
0.0
 40
2.5
 41
0.0
 71
     2
 72
     1
  1
Millimeter
  7
SLDTEXTSTYLE0
 73
     1
 44
1.0
  0
MTEXT
  5
185
330
1F
100
AcDbEntity
  8
0
  6
Continuous
 62
     7
370
    18
100
AcDbMText
 10
337.6323777421
 20
53.855374072
 30
0.0
 40
2.0
 41
0.0
 71
     2
 72
     1
  1
Masseinheit:
  7
SLDTEXTSTYLE0
 73
     1
 44
1.0
  0
MTEXT
  5
186
330
1F
100
AcDbEntity
  8
0
  6
Continuous
 62
     7
370
    18
100
AcDbMText
 10
337.6114490186
 20
43.5452078816
 30
0.0
 40
2.0
 41
0.0
 71
     2
 72
     1
  1
Blatt / Anz.:
  7
SLDTEXTSTYLE0
 73
     1
 44
1.0
  0
MTEXT
  5
187
330
1F
100
AcDbEntity
  8
0
  6
Continuous
 62
     7
370
    18
100
AcDbMText
 10
329.2895578243
 20
28.4139191092
 30
0.0
 40
5.0
 41
0.0
 71
     1
 72
     1
  1
CH
  7
SLDTEXTSTYLE0
 73
     1
 44
1.0
  0
MTEXT
  5
188
330
1F
100
AcDbEntity
  8
0
  6
Continuous
 62
     7
370
    18
100
AcDbMText
 10
330.40704
 20
33.692638072
 30
0.0
 40
2.0
 41
0.0
 71
     1
 72
     1
  1
Zeichnung Nr.:
  7
SLDTEXTSTYLE0
 73
     1
 44
1.0
  0
MTEXT
  5
189
330
1F
100
AcDbEntity
  8
0
  6
Continuous
 62
     7
370
    18
100
AcDbMText
 10
269.897953
 20
75.161075072
 30
0.0
 40
2.0
 41
0.0
 71
     1
 72
     1
  1
Gewicht:
  7
SLDTEXTSTYLE0
 73
     1
 44
1.0
  0
MTEXT
  5
18A
330
1F
100
AcDbEntity
  8
0
  6
Continuous
 62
     7
370
    18
100
AcDbMText
 10
230.0
 20
64.542328072
 30
0.0
 40
2.0
 41
0.0
 71
     1
 72
     1
  1
zul. Abweichung:
  7
SLDTEXTSTYLE0
 73
     1
 44
1.0
  0
MTEXT
  5
18B
330
1F
100
AcDbEntity
  8
0
  6
Continuous
 62
     7
370
    18
100
AcDbMText
 10
269.612607
 20
64.542328072
 30
0.0
 40
2.0
 41
0.0
 71
     1
 72
     1
  1
Oberfläche:
  7
SLDTEXTSTYLE0
 73
     1
 44
1.0
  0
MTEXT
  5
18C
330
1F
100
AcDbEntity
  8
0
  6
Continuous
 62
     7
370
    18
100
AcDbMText
 10
230.261411
 20
43.4433838912
 30
0.0
 40
2.0
 41
0.0
 71
     1
 72
     1
  1
Freigegeben:
  7
SLDTEXTSTYLE0
 73
     1
 44
1.0
  0
MTEXT
  5
18D
330
1F
100
AcDbEntity
  8
0
  6
Continuous
 62
     7
370
    18
100
AcDbMText
 10
230.0
 20
75.161075072
 30
0.0
 40
2.0
 41
0.0
 71
     1
 72
     1
  1
Werkstoff:
  7
SLDTEXTSTYLE0
 73
     1
 44
1.0
  0
MTEXT
  5
18E
330
1F
100
AcDbEntity
  8
0
  6
Continuous
 62
     7
370
    18
100
AcDbMText
 10
254.035545
 20
53.129475072
 30
0.0
 40
2.0
 41
0.0
 71
     1
 72
     1
  1
Datum:
  7
SLDTEXTSTYLE0
 73
     1
 44
1.0
  0
MTEXT
  5
18F
330
1F
100
AcDbEntity
  8
0
  6
Continuous
 62
     7
370
    18
100
AcDbMText
 10
279.934928
 20
53.136060072
 30
0.0
 40
2.0
 41
0.0
 71
     1
 72
     1
  1
Name:
  7
SLDTEXTSTYLE0
 73
     1
 44
1.0
  0
MTEXT
  5
190
330
1F
100
AcDbEntity
  8
0
  6
Continuous
 62
     7
370
    18
100
AcDbMText
 10
312.162455406
 20
53.881591072
 30
0.0
 40
2.0
 41
0.0
 71
     2
 72
     1
  1
Massstab:
  7
SLDTEXTSTYLE0
 73
     1
 44
1.0
  0
MTEXT
  5
191
330
1F
100
AcDbEntity
  8
0
  6
Continuous
 62
     7
370
    18
100
AcDbMText
 10
403.9552944035
 20
33.324874072
 30
0.0
 40
2.0
 41
0.0
 71
     2
 72
     1
  1
Index:
  7
SLDTEXTSTYLE0
 73
     1
 44
1.0
  0
MTEXT
  5
192
330
1F
100
AcDbEntity
  8
0
  6
Continuous
 62
     7
370
    18
100
AcDbMText
 10
230.261411
 20
48.4499477886
 30
0.0
 40
2.0
 41
0.0
 71
     1
 72
     1
  1
Erstellt:
  7
SLDTEXTSTYLE0
 73
     1
 44
1.0
  0
MTEXT
  5
194
330
1F
100
AcDbEntity
  8
0
  6
Continuous
 62
     7
370
    18
100
AcDbMText
 10
337.6348165843
 20
39.869706576
 30
0.0
 40
2.5
 41
0.0
 71
     2
 72
     1
  1
1 / 1
  7
SLDTEXTSTYLE1
 73
     1
 44
1.0
  0
MTEXT
  5
195
330
1F
100
AcDbEntity
  8
0
  6
Continuous
 62
     7
370
    18
100
AcDbMText
 10
269.612607
 20
60.8119428599
 30
0.0
 40
3.0
 41
0.0
 71
     1
 72
     1
  1
DIN ISO 1302
  7
SLDTEXTSTYLE0
 73
     1
 44
1.0
  0
MTEXT
  5
196
330
1F
100
AcDbEntity
  8
0
  6
Continuous
 62
     7
370
    18
100
AcDbMText
 10
230.0
 20
60.8119428599
 30
0.0
 40
3.0
 41
0.0
 71
     1
 72
     1
  1
Norm
  7
SLDTEXTSTYLE0
 73
     1
 44
1.0
  0
MTEXT
  5
197
330
1F
100
AcDbEntity
  8
0
  6
Continuous
 62
     7
370
    18
100
AcDbMText
 10
269.612607
 20
71.2121947186
 30
0.0
 40
3.0
 41
0.0
 71
     1
 72
     1
  1
88.76 g
  7
SLDTEXTSTYLE0
 73
     1
 44
1.0
  0
MTEXT
  5
198
330
1F
100
AcDbEntity
  8
0
  6
Continuous
 62
     7
370
    18
100
AcDbMText
 10
230.0
 20
71.2121947186
 30
0.0
 40
3.0
 41
0.0
 71
     1
 72
     1
  1
Messing
  7
SLDTEXTSTYLE0
 73
     1
 44
1.0
  0
LINE
  5
199
330
1F
100
AcDbEntity
  8
0
  6
Continuous
 62
     7
370
    25
100
AcDbLine
 10
153.4639524333
 20
209.4808349036
 30
0.0
 11
153.4552114169
 21
209.306018047
 31
0.0
  0
SPLINE
  5
19A
330
1F
100
AcDbEntity
  8
0
  6
Continuous
 62
     7
370
    25
100
AcDbSpline
210
0.0
220
0.0
230
1.0
 70
     8
 71
     3
 72
    25
 73
    21
 74
     0
 42
0.00000001
 43
0.00000001
 40
0.0622631762395633
 40
0.0622631762395633
 40
0.0622631762395633
 40
0.0622631762395633
 40
0.125
 40
0.125
 40
0.25
 40
0.25
 40
0.375
 40
0.375
 40
0.5
 40
0.5
 40
0.625
 40
0.625
 40
0.75
 40
0.75
 40
0.875
 40
0.875
 40
1.0
 40
1.0
 40
1.0
 40
1.001649272021824
 40
1.001649272021824
 40
1.001649272021824
 40
1.001649272021824
 10
155.8221837128678
 20
208.318889222098
 30
0.0
 10
155.7825202385612
 20
208.3619415016205
 30
0.0
 10
155.74190298306
 20
208.4050140454881
 30
0.0
 10
155.615971876599
 20
208.5324636770557
 30
0.0
 10
155.527205856858
 20
208.6135474258323
 30
0.0
 10
155.3446402301551
 20
208.7662701702355
 30
0.0
 10
155.2502737291484
 20
208.8389660323864
 30
0.0
 10
155.0527270399429
 20
208.9753907018322
 30
0.0
 10
154.9499083345412
 20
209.0384083887581
 30
0.0
 10
154.7392096436423
 20
209.1530615829377
 30
0.0
 10
154.6308964989744
 20
209.2052978798405
 30
0.0
 10
154.4071460463375
 20
209.2971620306086
 30
0.0
 10
154.2923521726836
 20
209.3361941987511
 30
0.0
 10
154.0601074835367
 20
209.4008753466106
 30
0.0
 10
153.9416656242269
 20
209.4270468926281
 30
0.0
 10
153.7003842053041
 20
209.4630218668211
 30
0.0
 10
153.5818715713486
 20
209.4718929474479
 30
0.0
 10
153.4684422525688
 20
209.4804944349774
 30
0.0
 10
153.4669456461534
 20
209.4806079245192
 30
0.0
 10
153.4654490397381
 20
209.480721414061
 30
0.0
 10
153.4639524333228
 20
209.4808349036029
 30
0.0
  0
SPLINE
  5
19B
330
1F
100
AcDbEntity
  8
0
  6
Continuous
 62
     7
370
    25
100
AcDbSpline
210
0.0
220
0.0
230
1.0
 70
     8
 71
     3
 72
    11
 73
     7
 74
     0
 42
0.00000001
 43
0.00000001
 40
0.0
 40
0.0
 40
0.0
 40
0.0
 40
0.0010074820827224
 40
0.0010074820827224
 40
0.0010074820827224
 40
0.0020149644424951
 40
0.0020149644424951
 40
0.0020149644424951
 40
0.0020149644424951
 10
155.8221837128758
 20
208.3188892220894
 30
0.0
 10
155.8199692761028
 20
208.2782470928254
 30
0.0
 10
155.8176323395821
 20
208.2374996378273
 30
0.0
 10
155.8152330057573
 20
208.1966985449032
 30
0.0
 10
155.8128336711774
 20
208.1558974391384
 30
0.0
 10
155.8103726605546
 20
208.1150433117398
 30
0.0
 10
155.807912037752
 20
208.0741895184885
 30
0.0
  0
SPLINE
  5
19C
330
1F
100
AcDbEntity
  8
0
  6
Continuous
 62
     7
370
    25
100
AcDbSpline
210
0.0
220
0.0
230
1.0
 70
     8
 71
     3
 72
    22
 73
    18
 74
     0
 42
0.00000001
 43
0.00000001
 40
0.0
 40
0.0
 40
0.0
 40
0.0
 40
0.125
 40
0.125
 40
0.25
 40
0.25
 40
0.375
 40
0.375
 40
0.5
 40
0.5
 40
0.625
 40
0.625
 40
0.75
 40
0.75
 40
0.875
 40
0.875
 40
1.0
 40
1.0
 40
1.0
 40
1.0
 10
155.807912037752
 20
208.0741895184885
 30
0.0
 10
155.7316503529574
 20
208.158904714403
 30
0.0
 10
155.6553886334356
 20
208.2436198813246
 30
0.0
 10
155.4953175632376
 20
208.4056211531877
 30
0.0
 10
155.4110883756846
 20
208.4825552828688
 30
0.0
 10
155.2362152468585
 20
208.6288429741443
 30
0.0
 10
155.1458119154408
 20
208.6984592397797
 30
0.0
 10
154.9583247744085
 20
208.8279368410224
 30
0.0
 10
154.8610438361976
 20
208.8875587365142
 30
0.0
 10
154.6608050652928
 20
208.9965200903659
 30
0.0
 10
154.5579633904588
 20
209.0460909598643
 30
0.0
 10
154.3471660682711
 20
209.1326370069277
 30
0.0
 10
154.2391177893778
 20
209.1693835698584
 30
0.0
 10
154.0194512910166
 20
209.2305616368686
 30
0.0
 10
153.9078562243061
 20
209.2551762906329
 30
0.0
 10
153.6825859566135
 20
209.2887640092328
 30
0.0
 10
153.5688985131353
 20
209.2973970118411
 30
0.0
 10
153.4552114169003
 20
209.3060180469768
 30
0.0
  0
LINE
  5
19D
330
1F
100
AcDbEntity
  8
0
  6
Continuous
 62
     7
370
    25
100
AcDbLine
 10
150.4935312227
 20
206.7649984099
 30
0.0
 11
150.6684430363
 21
206.7582299102
 31
0.0
  0
SPLINE
  5
19E
330
1F
100
AcDbEntity
  8
0
  6
Continuous
 62
     7
370
    25
100
AcDbSpline
210
0.0
220
0.0
230
1.0
 70
     8
 71
     3
 72
    36
 73
    32
 74
     0
 42
0.00000001
 43
0.00000001
 40
-0.0010682149308711
 40
-0.0010682149308711
 40
-0.0010682149308711
 40
-0.0010682149308711
 40
0.0
 40
0.0
 40
0.0
 40
0.0625
 40
0.0625
 40
0.125
 40
0.125
 40
0.25
 40
0.25
 40
0.3125
 40
0.3125
 40
0.375
 40
0.375
 40
0.5
 40
0.5
 40
0.625
 40
0.625
 40
0.75
 40
0.75
 40
0.8125
 40
0.8125
 40
0.875
 40
0.875
 40
0.9375
 40
0.9375
 40
1.0
 40
1.0
 40
1.0
 40
1.001135080266923
 40
1.001135080266923
 40
1.001135080266923
 40
1.001135080266923
 10
153.4639524333228
 20
209.4808349036029
 30
0.0
 10
153.4624519626648
 20
209.4808712706838
 30
0.0
 10
153.4609514920068
 20
209.4809076377647
 30
0.0
 10
153.4594510213487
 20
209.4809440048457
 30
0.0
 10
153.3716602468352
 20
209.4830718000034
 30
0.0
 10
153.2805194009153
 20
209.4853767048438
 30
0.0
 10
153.0918211359654
 20
209.4791311947662
 30
0.0
 10
152.9978048355769
 20
209.4702413241548
 30
0.0
 10
152.7219124315909
 20
209.432171557795
 30
0.0
 10
152.5384553148685
 20
209.3912704039636
 30
0.0
 10
152.2705859632847
 20
209.2968663158985
 30
0.0
 10
152.1838259557874
 20
209.2602655846518
 30
0.0
 10
152.0156737528615
 20
209.1801930222449
 30
0.0
 10
151.9329748682447
 20
209.1361371908451
 30
0.0
 10
151.6913865378154
 20
208.9898613901373
 30
0.0
 10
151.5421766615823
 20
208.8756036326944
 30
0.0
 10
151.2679963044161
 20
208.6240136924238
 30
0.0
 10
151.1417954534021
 20
208.486898691908
 30
0.0
 10
150.9173151182858
 20
208.1841336163262
 30
0.0
 10
150.8219970938904
 20
208.0227419987627
 30
0.0
 10
150.704437536449
 20
207.7656348054561
 30
0.0
 10
150.6699575095515
 20
207.6776668058639
 30
0.0
 10
150.611038371203
 20
207.498865942248
 30
0.0
 10
150.5867733725121
 20
207.4089494877098
 30
0.0
 10
150.5456060123069
 20
207.2281302052195
 30
0.0
 10
150.5285457021153
 20
207.135443447759
 30
0.0
 10
150.5055571100755
 20
206.9483057217297
 30
0.0
 10
150.4996395281936
 20
206.8573954078846
 30
0.0
 10
150.4938468311619
 20
206.7697724464317
 30
0.0
 10
150.4937416283444
 20
206.7681811009201
 30
0.0
 10
150.4936364255269
 20
206.7665897554085
 30
0.0
 10
150.4935312227094
 20
206.7649984098969
 30
0.0
  0
SPLINE
  5
19F
330
1F
100
AcDbEntity
  8
0
  6
Continuous
 62
     7
370
    25
100
AcDbSpline
210
0.0
220
0.0
230
1.0
 70
     8
 71
     3
 72
    30
 73
    26
 74
     0
 42
0.00000001
 43
0.00000001
 40
0.0
 40
0.0
 40
0.0
 40
0.0
 40
0.0625
 40
0.0625
 40
0.125
 40
0.125
 40
0.25
 40
0.25
 40
0.3125
 40
0.3125
 40
0.375
 40
0.375
 40
0.5
 40
0.5
 40
0.625
 40
0.625
 40
0.75
 40
0.75
 40
0.8125
 40
0.8125
 40
0.875
 40
0.875
 40
0.9375
 40
0.9375
 40
1.0
 40
1.0
 40
1.0
 40
1.0
 10
153.4552114169003
 20
209.3060180469768
 30
0.0
 10
153.367415822658
 20
209.3081459589206
 30
0.0
 10
153.2796202235841
 20
209.3102737986453
 30
0.0
 10
153.1042966165852
 20
209.304470968072
 30
0.0
 10
153.0167544670565
 20
209.2962208317572
 30
0.0
 10
152.7557674888897
 20
209.2602078287998
 30
0.0
 10
152.5836048845579
 20
209.221656467757
 30
0.0
 10
152.335251687643
 20
209.1341303791067
 30
0.0
 10
152.2542507278165
 20
209.0999979119009
 30
0.0
 10
152.0957063921431
 20
209.0245005277111
 30
0.0
 10
152.0181528164961
 20
208.9831588947808
 30
0.0
 10
151.7929116029156
 20
208.8467808707065
 30
0.0
 10
151.6527371776722
 20
208.7395748108024
 30
0.0
 10
151.3940405598341
 20
208.5021928642706
 30
0.0
 10
151.2746630037985
 20
208.3723125030159
 30
0.0
 10
151.0655628872641
 20
208.0902913111447
 30
0.0
 10
150.9757661495268
 20
207.9382526661237
 30
0.0
 10
150.8662504069382
 20
207.6987375996491
 30
0.0
 10
150.8341520693262
 20
207.6168577522017
 30
0.0
 10
150.7792178578935
 20
207.4501498701846
 30
0.0
 10
150.7562971004211
 20
207.3653286349503
 30
0.0
 10
150.7173051428806
 20
207.1940643745787
 30
0.0
 10
150.7014174089442
 20
207.1075956141334
 30
0.0
 10
150.6800290984234
 20
206.9334848625032
 30
0.0
 10
150.6742360318569
 20
206.8458573872055
 30
0.0
 10
150.6684430362747
 20
206.7582299102105
 30
0.0
  0
LINE
  5
1A0
330
1F
100
AcDbEntity
  8
0
  6
Continuous
 62
     7
370
    25
100
AcDbLine
 10
153.2385908459
 20
203.7695495791
 30
0.0
 11
153.2467292021
 21
203.9444259234
 31
0.0
  0
SPLINE
  5
1A1
330
1F
100
AcDbEntity
  8
0
  6
Continuous
 62
     7
370
    25
100
AcDbSpline
210
0.0
220
0.0
230
1.0
 70
     8
 71
     3
 72
    40
 73
    36
 74
     0
 42
0.00000001
 43
0.00000001
 40
-0.0011179513902813
 40
-0.0011179513902813
 40
-0.0011179513902813
 40
-0.0011179513902813
 40
0.0
 40
0.0
 40
0.0
 40
0.0625
 40
0.0625
 40
0.125
 40
0.125
 40
0.25
 40
0.25
 40
0.3125
 40
0.3125
 40
0.375
 40
0.375
 40
0.4375
 40
0.4375
 40
0.5
 40
0.5
 40
0.5625
 40
0.5625
 40
0.625
 40
0.625
 40
0.6875
 40
0.6875
 40
0.75
 40
0.75
 40
0.875
 40
0.875
 40
0.9375
 40
0.9375
 40
1.0
 40
1.0
 40
1.0
 40
1.001298684523659
 40
1.001298684523659
 40
1.001298684523659
 40
1.001298684523659
 10
150.4935312227094
 20
206.7649984098967
 30
0.0
 10
150.4935131357591
 20
206.7634037051525
 30
0.0
 10
150.4934950488089
 20
206.7618090004081
 30
0.0
 10
150.4934769618586
 20
206.7602142956638
 30
0.0
 10
150.4924657958975
 20
206.6710610038604
 30
0.0
 10
150.491392669707
 20
206.5798038454289
 30
0.0
 10
150.4960114810488
 20
206.3933209745113
 30
0.0
 10
150.5023107786462
 20
206.2976905676581
 30
0.0
 10
150.5366966654607
 20
206.0145399609573
 30
0.0
 10
150.5789508147599
 20
205.8284376667507
 30
0.0
 10
150.6677808126504
 20
205.558689714018
 30
0.0
 10
150.701623633476
 20
205.4698806898743
 30
0.0
 10
150.7792937480916
 20
205.2953634128459
 30
0.0
 10
150.8235512145336
 20
205.2097413060782
 30
0.0
 10
150.9193514674478
 20
205.0459404412782
 30
0.0
 10
150.9717050196664
 20
204.9657155996832
 30
0.0
 10
151.0849963661601
 20
204.812222077192
 30
0.0
 10
151.1449361139058
 20
204.7388019192226
 30
0.0
 10
151.2756966877852
 20
204.5970917816032
 30
0.0
 10
151.3442117610573
 20
204.5312770035337
 30
0.0
 10
151.4891387875611
 20
204.4060174649905
 30
0.0
 10
151.5656451100002
 20
204.3479570858819
 30
0.0
 10
151.7203079154351
 20
204.2406111812814
 30
0.0
 10
151.8010545605304
 20
204.1897649080325
 30
0.0
 10
151.9671929682243
 20
204.0972056997045
 30
0.0
 10
152.0525492502615
 20
204.0552053227976
 30
0.0
 10
152.3136866410119
 20
203.9422315719357
 30
0.0
 10
152.4935134865129
 20
203.8837857304162
 30
0.0
 10
152.7718345205587
 20
203.8217828276167
 30
0.0
 10
152.8669240848873
 20
203.8060687829715
 30
0.0
 10
153.0529385652111
 20
203.7840634355334
 30
0.0
 10
153.144142194409
 20
203.7769566348799
 30
0.0
 10
153.2330486941042
 20
203.7699842177029
 30
0.0
 10
153.2348960780274
 20
203.7698393381784
 30
0.0
 10
153.2367434619507
 20
203.7696944586539
 30
0.0
 10
153.2385908458741
 20
203.7695495791294
 30
0.0
  0
SPLINE
  5
1A2
330
1F
100
AcDbEntity
  8
0
  6
Continuous
 62
     7
370
    25
100
AcDbSpline
210
0.0
220
0.0
230
1.0
 70
     8
 71
     3
 72
    34
 73
    30
 74
     0
 42
0.00000001
 43
0.00000001
 40
0.0
 40
0.0
 40
0.0
 40
0.0
 40
0.0625
 40
0.0625
 40
0.125
 40
0.125
 40
0.25
 40
0.25
 40
0.3125
 40
0.3125
 40
0.375
 40
0.375
 40
0.4375
 40
0.4375
 40
0.5
 40
0.5
 40
0.5625
 40
0.5625
 40
0.625
 40
0.625
 40
0.6875
 40
0.6875
 40
0.75
 40
0.75
 40
0.875
 40
0.875
 40
0.9375
 40
0.9375
 40
1.0
 40
1.0
 40
1.0
 40
1.0
 10
150.6684430362747
 20
206.7582299102105
 30
0.0
 10
150.6674318627462
 20
206.6690759500415
 30
0.0
 10
150.6664207340886
 20
206.5799219874576
 30
0.0
 10
150.6708307810496
 20
206.4018677943114
 30
0.0
 10
150.6767257174705
 20
206.3129073142844
 30
0.0
 10
150.7089702829278
 20
206.047389421318
 30
0.0
 10
150.7485962732974
 20
205.8726980909107
 30
0.0
 10
150.8322546407563
 20
205.6186547069811
 30
0.0
 10
150.8640768054127
 20
205.5352007302318
 30
0.0
 10
150.9365604747769
 20
205.3723368943155
 30
0.0
 10
150.9775112348692
 20
205.2930887624502
 30
0.0
 10
151.0674742202854
 20
205.1392685578662
 30
0.0
 10
151.1162275518471
 20
205.0645587021843
 30
0.0
 10
151.222039571444
 20
204.9211985969954
 30
0.0
 10
151.2785009143404
 20
204.8520767817022
 30
0.0
 10
151.3993238742273
 20
204.7211364122446
 30
0.0
 10
151.4636882643413
 20
204.6592892085304
 30
0.0
 10
151.598499315102
 20
204.5427728434554
 30
0.0
 10
151.6695540398552
 20
204.4888307503004
 30
0.0
 10
151.8159379036773
 20
204.3872309604289
 30
0.0
 10
151.8914117854969
 20
204.3397250404639
 30
0.0
 10
152.0471543434972
 20
204.2529575793717
 30
0.0
 10
152.1272691424087
 20
204.2135298207735
 30
0.0
 10
152.3726750984618
 20
204.107361833407
 30
0.0
 10
152.54307399916
 20
204.0520115918704
 30
0.0
 10
152.8041260260921
 20
203.9938557868377
 30
0.0
 10
152.8920605567362
 20
203.9792926079656
 30
0.0
 10
153.0689146672568
 20
203.9583709273965
 30
0.0
 10
153.1578219339406
 20
203.9513984008461
 30
0.0
 10
153.2467292020578
 20
203.9444259233938
 30
0.0
  0
SPLINE
  5
1A3
330
1F
100
AcDbEntity
  8
0
  6
Continuous
 62
     7
370
    25
100
AcDbSpline
210
0.0
220
0.0
230
1.0
 70
     8
 71
     3
 72
    11
 73
     7
 74
     0
 42
0.00000001
 43
0.00000001
 40
0.0
 40
0.0
 40
0.0
 40
0.0
 40
0.0010076356560982
 40
0.0010076356560982
 40
0.0010076356560982
 40
0.0020152716692074
 40
0.0020152716692074
 40
0.0020152716692074
 40
0.0020152716692074
 10
155.6571420514369
 20
204.7195684943231
 30
0.0
 10
155.6598911050854
 20
204.7605885891807
 30
0.0
 10
155.662540663897
 20
204.8017200279229
 30
0.0
 10
155.6651255533617
 20
204.8429238229044
 30
0.0
 10
155.6677104438264
 20
204.8841276338276
 30
0.0
 10
155.6702308171755
 20
204.9254036348533
 30
0.0
 10
155.6727279194493
 20
204.9667056711686
 30
0.0
  0
SPLINE
  5
1A4
330
1F
100
AcDbEntity
  8
0
  6
Continuous
 62
     7
370
    25
100
AcDbSpline
210
0.0
220
0.0
230
1.0
 70
     8
 71
     3
 72
    31
 73
    27
 74
     0
 42
0.00000001
 43
0.00000001
 40
-0.0020543229610293
 40
-0.0020543229610293
 40
-0.0020543229610293
 40
-0.0020543229610293
 40
0.0
 40
0.0
 40
0.0
 40
0.125
 40
0.125
 40
0.25
 40
0.25
 40
0.3749999999999999
 40
0.3749999999999999
 40
0.4999999999999999
 40
0.4999999999999999
 40
0.5624999999999999
 40
0.5624999999999999
 40
0.6249999999999999
 40
0.6249999999999999
 40
0.6874999999999999
 40
0.6874999999999999
 40
0.7499999999999999
 40
0.7499999999999999
 40
0.8124999999999999
 40
0.8124999999999999
 40
0.8749999999999999
 40
0.8749999999999999
 40
0.935913795454888
 40
0.935913795454888
 40
0.935913795454888
 40
0.935913795454888
 10
153.2385908458739
 20
203.7695495791295
 30
0.0
 10
153.2404437025897
 20
203.7695222577433
 30
0.0
 10
153.2422965593055
 20
203.7694949363571
 30
0.0
 10
153.2441494160213
 20
203.7694676149709
 30
0.0
 10
153.3568907394983
 20
203.7678051824608
 30
0.0
 10
153.4748413400663
 20
203.7659892207417
 30
0.0
 10
153.7156382187247
 20
203.7790352197882
 30
0.0
 10
153.835305702671
 20
203.7933131731904
 30
0.0
 10
154.0715712588486
 20
203.8357309454362
 30
0.0
 10
154.1880450865929
 20
203.8637586577024
 30
0.0
 10
154.4183112475647
 20
203.9340135312927
 30
0.0
 10
154.532350524437
 20
203.9768579339882
 30
0.0
 10
154.697739816012
 20
204.0536912024005
 30
0.0
 10
154.7514256446896
 20
204.0811956106721
 30
0.0
 10
154.8555163951468
 20
204.1375298311683
 30
0.0
 10
154.9071593876778
 20
204.1668658320895
 30
0.0
 10
155.0100260523949
 20
204.2298100442376
 30
0.0
 10
155.0597913667203
 20
204.2627229907406
 30
0.0
 10
155.1558473215776
 20
204.3281114087583
 30
0.0
 10
155.2032000828665
 20
204.3610582751157
 30
0.0
 10
155.2982078119804
 20
204.4296283990226
 30
0.0
 10
155.3453152057727
 20
204.4650796871032
 30
0.0
 10
155.4373308975424
 20
204.5366491495365
 30
0.0
 10
155.4824622408273
 20
204.5727696483153
 30
0.0
 10
155.5711443090278
 20
204.6456058253467
 30
0.0
 10
155.614486437315
 20
204.6825096610847
 30
0.0
 10
155.6571420514369
 20
204.7195684943231
 30
0.0
  0
SPLINE
  5
1A5
330
1F
100
AcDbEntity
  8
0
  6
Continuous
 62
     7
370
    25
100
AcDbSpline
210
0.0
220
0.0
230
1.0
 70
     8
 71
     3
 72
    28
 73
    24
 74
     0
 42
0.00000001
 43
0.00000001
 40
0.0
 40
0.0
 40
0.0
 40
0.0
 40
0.125
 40
0.125
 40
0.25
 40
0.25
 40
0.3749999999999999
 40
0.3749999999999999
 40
0.4999999999999999
 40
0.4999999999999999
 40
0.5624999999999999
 40
0.5624999999999999
 40
0.6249999999999999
 40
0.6249999999999999
 40
0.6874999999999999
 40
0.6874999999999999
 40
0.7499999999999999
 40
0.7499999999999999
 40
0.8124999999999999
 40
0.8124999999999999
 40
0.8749999999999999
 40
0.8749999999999999
 40
0.9999999999999999
 40
0.9999999999999999
 40
0.9999999999999999
 40
0.9999999999999999
 10
153.2467292020577
 20
203.9444259233939
 30
0.0
 10
153.3598175506777
 20
203.9427583738272
 30
0.0
 10
153.4729116889633
 20
203.9411186196219
 30
0.0
 10
153.6986356312961
 20
203.9533479910492
 30
0.0
 10
153.8112172312039
 20
203.9667634125455
 30
0.0
 10
154.0338195919574
 20
204.0067281726369
 30
0.0
 10
154.1439353689523
 20
204.0332409179141
 30
0.0
 10
154.3602963301916
 20
204.0992532734235
 30
0.0
 10
154.4663765945116
 20
204.1391461672865
 30
0.0
 10
154.6201456557492
 20
204.2105811399408
 30
0.0
 10
154.6704728162153
 20
204.2363430493722
 30
0.0
 10
154.7699020133309
 20
204.2901544256113
 30
0.0
 10
154.8190639999399
 20
204.3180962131975
 30
0.0
 10
154.9154659926053
 20
204.3770846838869
 30
0.0
 10
154.9626279510686
 20
204.408252405451
 30
0.0
 10
155.0560827587006
 20
204.4718701396768
 30
0.0
 10
155.102480090241
 20
204.5041556208074
 30
0.0
 10
155.1941241132536
 20
204.5702980491873
 30
0.0
 10
155.2392831255767
 20
204.6042823704714
 30
0.0
 10
155.3285083963136
 20
204.6736814544837
 30
0.0
 10
155.3726431872276
 20
204.7090025479812
 30
0.0
 10
155.5036649395205
 20
204.8166130683937
 30
0.0
 10
155.5883702798575
 20
204.8914694854192
 30
0.0
 10
155.6727279194492
 20
204.9667056711686
 30
0.0
  0
LINE
  5
1A6
330
1F
100
AcDbEntity
  8
0
  6
Continuous
 62
     7
370
    25
100
AcDbLine
 10
137.0568307823
 20
210.5518642744
 30
0.0
 11
136.8776227405
 21
210.7224989886
 31
0.0
  0
LINE
  5
1A7
330
1F
100
AcDbEntity
  8
0
  6
Continuous
 62
     7
370
    25
100
AcDbLine
 10
137.2418033339
 20
202.9978343954
 30
0.0
 11
137.0568307823
 21
210.5518642744
 31
0.0
  0
LINE
  5
1A8
330
1F
100
AcDbEntity
  8
0
  6
Continuous
 62
     7
370
    25
100
AcDbLine
 10
137.2418033339
 20
202.9978343954
 30
0.0
 11
137.0711588408
 21
202.8187453128
 31
0.0
  0
LINE
  5
1A9
330
1F
100
AcDbEntity
  8
0
  6
Continuous
 62
     7
370
    25
100
AcDbLine
 10
137.0711588408
 20
202.8187453128
 30
0.0
 11
136.8776227405
 21
210.7224989886
 31
0.0
  0
SPLINE
  5
1AA
330
1F
100
AcDbEntity
  8
0
  6
Continuous
 62
     7
370
    25
100
AcDbSpline
210
0.0
220
0.0
230
1.0
 70
     8
 71
     3
 72
    44
 73
    40
 74
     0
 42
0.00000001
 43
0.00000001
 40
-0.0002073387383367
 40
-0.0002073387383367
 40
-0.0002073387383367
 40
-0.0002073387383367
 40
0.0
 40
0.0
 40
0.0
 40
0.125
 40
0.125
 40
0.25
 40
0.25
 40
0.3124999999999999
 40
0.3124999999999999
 40
0.3749999999999999
 40
0.3749999999999999
 40
0.4062499999999999
 40
0.4062499999999999
 40
0.4374999999999999
 40
0.4374999999999999
 40
0.4687499999999999
 40
0.4687499999999999
 40
0.4999999999999999
 40
0.4999999999999999
 40
0.5312499999999999
 40
0.5312499999999999
 40
0.5624999999999999
 40
0.5624999999999999
 40
0.6249999999999999
 40
0.6249999999999999
 40
0.6874999999999999
 40
0.6874999999999999
 40
0.7499999999999999
 40
0.7499999999999999
 40
0.8124999999999999
 40
0.8124999999999999
 40
0.8749999999999999
 40
0.8749999999999999
 40
0.9999999999999999
 40
0.9999999999999999
 40
0.9999999999999999
 40
1.003637734395589
 40
1.003637734395589
 40
1.003637734395589
 40
1.003637734395589
 10
138.9358000801075
 20
207.5061549340926
 30
0.0
 10
138.9359186512432
 20
207.5061585551587
 30
0.0
 10
138.936037222379
 20
207.5061621762247
 30
0.0
 10
138.9361557935147
 20
207.5061657972907
 30
0.0
 10
139.0076397433411
 20
207.5083488589613
 30
0.0
 10
139.0838124071371
 20
207.5108156940212
 30
0.0
 10
139.2346897564098
 20
207.521471151006
 30
0.0
 10
139.307575274575
 20
207.5280020021892
 30
0.0
 10
139.4239957315341
 20
207.5433903890793
 30
0.0
 10
139.4639306644518
 20
207.5499646809913
 30
0.0
 10
139.5399297642028
 20
207.56453478589
 30
0.0
 10
139.5755571037973
 20
207.572002922534
 30
0.0
 10
139.6327618145362
 20
207.5850038078807
 30
0.0
 10
139.6523917488582
 20
207.5897214024114
 30
0.0
 10
139.692623736123
 20
207.6004411049786
 30
0.0
 10
139.7134742458411
 20
207.6065867532931
 30
0.0
 10
139.7534154185623
 20
207.6195863819887
 30
0.0
 10
139.7727864999445
 20
207.6264534380066
 30
0.0
 10
139.810438666177
 20
207.6405311830611
 30
0.0
 10
139.8283728440653
 20
207.6475195189192
 30
0.0
 10
139.8667758685512
 20
207.6633882978471
 30
0.0
 10
139.8868532470445
 20
207.6721964891593
 30
0.0
 10
139.9282148493158
 20
207.6926060957386
 30
0.0
 10
139.9493253195797
 20
207.7042672828555
 30
0.0
 10
140.0090257125301
 20
207.7410751196466
 30
0.0
 10
140.0456319813133
 20
207.7683198136592
 30
0.0
 10
140.115593594935
 20
207.8305396846997
 30
0.0
 10
140.1485841354641
 20
207.8656182748029
 30
0.0
 10
140.2069087775222
 20
207.9430973988025
 30
0.0
 10
140.2310425595143
 20
207.9836853637191
 30
0.0
 10
140.2714680767527
 20
208.0657561267948
 30
0.0
 10
140.2878214645011
 20
208.1069468206961
 30
0.0
 10
140.3150101775723
 20
208.1916986646079
 30
0.0
 10
140.3255838351639
 20
208.2350325922361
 30
0.0
 10
140.347723070706
 20
208.3668550991989
 30
0.0
 10
140.3481755398869
 20
208.4502712132899
 30
0.0
 10
140.3489861223749
 20
208.5218118853674
 30
0.0
 10
140.3490097118453
 20
208.5238938530754
 30
0.0
 10
140.3490333013156
 20
208.5259758207834
 30
0.0
 10
140.349056890786
 20
208.5280577884914
 30
0.0
  0
SPLINE
  5
1AB
330
1F
100
AcDbEntity
  8
0
  6
Continuous
 62
     7
370
    25
100
AcDbSpline
210
0.0
220
0.0
230
1.0
 70
     8
 71
     3
 72
    41
 73
    37
 74
     0
 42
0.00000001
 43
0.00000001
 40
-0.0035241485672894
 40
-0.0035241485672894
 40
-0.0035241485672894
 40
-0.0035241485672894
 40
0.0
 40
0.0
 40
0.0
 40
0.0625
 40
0.0625
 40
0.09375
 40
0.09375
 40
0.125
 40
0.125
 40
0.1875
 40
0.1875
 40
0.25
 40
0.25
 40
0.375
 40
0.375
 40
0.4375
 40
0.4375
 40
0.5
 40
0.5
 40
0.5625
 40
0.5625
 40
0.59375
 40
0.59375
 40
0.625
 40
0.625
 40
0.6875
 40
0.6875
 40
0.75
 40
0.75
 40
0.8125
 40
0.8125
 40
0.875
 40
0.875
 40
1.000000077830838
 40
1.000000077830838
 40
1.000000077830838
 40
1.000000077830838
 10
140.349056890786
 20
208.5280577884913
 30
0.0
 10
140.3489319689583
 20
208.5301362427787
 30
0.0
 10
140.3488070471306
 20
208.532214697066
 30
0.0
 10
140.3486821253028
 20
208.5342931513534
 30
0.0
 10
140.3464666641542
 20
208.5711540811579
 30
0.0
 10
140.3441508592294
 20
208.6122838765021
 30
0.0
 10
140.3351287407054
 20
208.6797197911972
 30
0.0
 10
140.331079764087
 20
208.7029679219615
 30
0.0
 10
140.321417829179
 20
208.7477681297468
 30
0.0
 10
140.3157794582339
 20
208.7697490355169
 30
0.0
 10
140.2968576834146
 20
208.8343836554319
 30
0.0
 10
140.2816527849218
 20
208.876592153982
 30
0.0
 10
140.2422152903056
 20
208.9619755240018
 30
0.0
 10
140.217930057614
 20
209.0036365694969
 30
0.0
 10
140.1401269330086
 20
209.1163030538079
 30
0.0
 10
140.080617233555
 20
209.1814836787229
 30
0.0
 10
139.974520873294
 20
209.2686613366195
 30
0.0
 10
139.936260364956
 20
209.2954218426666
 30
0.0
 10
139.856311391691
 20
209.3421024952821
 30
0.0
 10
139.8141997868494
 20
209.3620270283369
 30
0.0
 10
139.7323754337047
 20
209.3946330592495
 30
0.0
 10
139.6935470236682
 20
209.4082704514308
 30
0.0
 10
139.6240784413938
 20
209.4261673278325
 30
0.0
 10
139.6015940926186
 20
209.430734594238
 30
0.0
 10
139.5604638801265
 20
209.4382617419444
 30
0.0
 10
139.5418714621549
 20
209.4413482288968
 30
0.0
 10
139.4827253018594
 20
209.4506504618948
 30
0.0
 10
139.4403001049614
 20
209.4558687221434
 30
0.0
 10
139.360272768838
 20
209.4627847307069
 30
0.0
 10
139.3220885085722
 20
209.465113754576
 30
0.0
 10
139.2454461287456
 20
209.4690241033173
 30
0.0
 10
139.2074098761422
 20
209.4704646050517
 30
0.0
 10
139.1320702200696
 20
209.4727877096379
 30
0.0
 10
139.0950033915949
 20
209.4737583899632
 30
0.0
 10
138.98084818711
 20
209.4758313014617
 30
0.0
 10
138.9008727604748
 20
209.4744201360611
 30
0.0
 10
138.8280296206408
 20
209.4725137501341
 30
0.0
  0
LINE
  5
1AC
330
1F
100
AcDbEntity
  8
0
  6
Continuous
 62
     7
370
    25
100
AcDbLine
 10
138.8280294846
 20
209.4725137466
 30
0.0
 11
138.2386630785
 21
209.4567162053
 31
0.0
  0
LINE
  5
1AD
330
1F
100
AcDbEntity
  8
0
  6
Continuous
 62
     7
370
    25
100
AcDbLine
 10
138.2386630785
 20
209.4567162053
 30
0.0
 11
138.2870177727
 21
207.4889820736
 31
0.0
  0
LINE
  5
1AE
330
1F
100
AcDbEntity
  8
0
  6
Continuous
 62
     7
370
    25
100
AcDbLine
 10
138.2870177727
 20
207.4889820736
 30
0.0
 11
138.9358000801
 21
207.5061549341
 31
0.0
  0
LINE
  5
1AF
330
1F
100
AcDbEntity
  8
0
  6
Continuous
 62
     7
370
    25
100
AcDbLine
 10
137.0568307823
 20
210.5518642744
 30
0.0
 11
138.478850378
 21
210.5867405245
 31
0.0
  0
SPLINE
  5
1B0
330
1F
100
AcDbEntity
  8
0
  6
Continuous
 62
     7
370
    25
100
AcDbSpline
210
0.0
220
0.0
230
1.0
 70
     8
 71
     3
 72
    38
 73
    34
 74
     0
 42
0.00000001
 43
0.00000001
 40
0.0000769284778793
 40
0.0000769284778793
 40
0.0000769284778793
 40
0.0000769284778793
 40
0.125
 40
0.125
 40
0.25
 40
0.25
 40
0.3125
 40
0.3125
 40
0.375
 40
0.375
 40
0.4375
 40
0.4375
 40
0.5
 40
0.5
 40
0.625
 40
0.625
 40
0.6875
 40
0.6875
 40
0.71875
 40
0.71875
 40
0.75
 40
0.75
 40
0.78125
 40
0.78125
 40
0.8125
 40
0.8125
 40
0.875
 40
0.875
 40
0.90625
 40
0.90625
 40
0.9375
 40
0.9375
 40
0.9991948817092068
 40
0.9991948817092068
 40
0.9991948817092068
 40
0.9991948817092068
 10
138.4788503779587
 20
210.5867405245276
 30
0.0
 10
138.6641130610745
 20
210.5905560976461
 30
0.0
 10
138.8435612796446
 20
210.5926730903978
 30
0.0
 10
139.2075106643791
 20
210.5836013230336
 30
0.0
 10
139.3891563898035
 20
210.5754094645444
 30
0.0
 10
139.6559548182958
 20
210.5495706465666
 30
0.0
 10
139.7442943235557
 20
210.5385812658288
 30
0.0
 10
139.9185897327246
 20
210.5106248388651
 30
0.0
 10
140.004738533583
 20
210.493679590565
 30
0.0
 10
140.1698637787277
 20
210.4511015419237
 30
0.0
 10
140.2489948677917
 20
210.4249148797556
 30
0.0
 10
140.4031068835478
 20
210.3600141214934
 30
0.0
 10
140.4778871516832
 20
210.321546073981
 30
0.0
 10
140.692573719619
 20
210.1900254078438
 30
0.0
 10
140.8228382429796
 20
210.0807451888583
 30
0.0
 10
140.9925014648473
 20
209.8923787099898
 30
0.0
 10
141.0447631206414
 20
209.8255787335174
 30
0.0
 10
141.1157952709779
 20
209.7206185111658
 30
0.0
 10
141.1382112015434
 20
209.6847889552079
 30
0.0
 10
141.1818550807806
 20
209.6104679659735
 30
0.0
 10
141.2032844169255
 20
209.5719343375235
 30
0.0
 10
141.2425141474737
 20
209.4964168325808
 30
0.0
 10
141.260082141961
 20
209.4594918949285
 30
0.0
 10
141.2929991205732
 20
209.38223734516
 30
0.0
 10
141.3085490441016
 20
209.3418403618176
 30
0.0
 10
141.352269259317
 20
209.2197394550761
 30
0.0
 10
141.3765281413195
 20
209.1381715471296
 30
0.0
 10
141.4046771729043
 20
209.0138894236485
 30
0.0
 10
141.4127048425096
 20
208.9720063713856
 30
0.0
 10
141.4267996574679
 20
208.8865670179893
 30
0.0
 10
141.4329388761502
 20
208.8430493319222
 30
0.0
 10
141.4479234740103
 20
208.7150278655596
 30
0.0
 10
141.4521838886849
 20
208.6318558094713
 30
0.0
 10
141.4560363402496
 20
208.5399015957349
 30
0.0
  0
SPLINE
  5
1B1
330
1F
100
AcDbEntity
  8
0
  6
Continuous
 62
     7
370
    25
100
AcDbSpline
210
0.0
220
0.0
230
1.0
 70
     8
 71
     3
 72
    35
 73
    31
 74
     0
 42
0.00000001
 43
0.00000001
 40
0.0012961291085058
 40
0.0012961291085058
 40
0.0012961291085058
 40
0.0012961291085058
 40
0.125
 40
0.125
 40
0.25
 40
0.25
 40
0.3125
 40
0.3125
 40
0.375
 40
0.375
 40
0.4375
 40
0.4375
 40
0.5
 40
0.5
 40
0.5625
 40
0.5625
 40
0.625
 40
0.625
 40
0.6875
 40
0.6875
 40
0.75
 40
0.75
 40
0.8125
 40
0.8125
 40
0.875
 40
0.875
 40
1.0
 40
1.0
 40
1.0
 40
1.071468390121442
 40
1.071468390121442
 40
1.071468390121442
 40
1.071468390121442
 10
141.4560363402499
 20
208.539901595735
 30
0.0
 10
141.4560618591399
 20
208.4252140724819
 30
0.0
 10
141.4548983101997
 20
208.318598532714
 30
0.0
 10
141.4353581203753
 20
208.1055003787488
 30
0.0
 10
141.4177886399584
 20
208.0008571492098
 30
0.0
 10
141.3791373374095
 20
207.8440173816837
 30
0.0
 10
141.3645717291888
 20
207.7922527198393
 30
0.0
 10
141.331605032672
 20
207.6924946083691
 30
0.0
 10
141.3128519898574
 20
207.643700424833
 30
0.0
 10
141.270664751717
 20
207.5471914231918
 30
0.0
 10
141.2475683259415
 20
207.5001688110155
 30
0.0
 10
141.1972179388202
 20
207.4101646079117
 30
0.0
 10
141.1688513583846
 20
207.3652978217416
 30
0.0
 10
141.1083873657154
 20
207.2765296132971
 30
0.0
 10
141.0780797417595
 20
207.235475506506
 30
0.0
 10
141.0125102043944
 20
207.1580012296069
 30
0.0
 10
140.9758107301063
 20
207.1194783281318
 30
0.0
 10
140.899061297654
 20
207.0439875237499
 30
0.0
 10
140.8589380471375
 20
207.0071113246123
 30
0.0
 10
140.7777969175704
 20
206.9375121273257
 30
0.0
 10
140.7377420547683
 20
206.9059134939496
 30
0.0
 10
140.652118710469
 20
206.8457898948169
 30
0.0
 10
140.605648587552
 20
206.8161704959371
 30
0.0
 10
140.5119333867925
 20
206.7591335508457
 30
0.0
 10
140.4650466359264
 20
206.7322832919905
 30
0.0
 10
140.3221340399832
 20
206.6571421073991
 30
0.0
 10
140.2246123300462
 20
206.616242909703
 30
0.0
 10
140.1167093971692
 20
206.5728269304786
 30
0.0
 10
140.0550162059523
 20
206.548003969353
 30
0.0
 10
139.9933230147354
 20
206.5231810082273
 30
0.0
 10
139.9316298235186
 20
206.4983580471016
 30
0.0
  0
LINE
  5
1B2
330
1F
100
AcDbEntity
  8
0
  6
Continuous
 62
     7
370
    25
100
AcDbLine
 10
139.9316298235
 20
206.4983580471
 30
0.0
 11
141.8420796229
 21
203.1094037507
 31
0.0
  0
LINE
  5
1B3
330
1F
100
AcDbEntity
  8
0
  6
Continuous
 62
     7
370
    25
100
AcDbLine
 10
141.8420796229
 20
203.1094037507
 30
0.0
 11
140.5948024578
 21
203.0789597486
 31
0.0
  0
LINE
  5
1B4
330
1F
100
AcDbEntity
  8
0
  6
Continuous
 62
     7
370
    25
100
AcDbLine
 10
140.5948024578
 20
203.0789597486
 30
0.0
 11
138.7344698108
 21
206.3837665337
 31
0.0
  0
LINE
  5
1B5
330
1F
100
AcDbEntity
  8
0
  6
Continuous
 62
     7
370
    25
100
AcDbLine
 10
138.7344698108
 20
206.3837665337
 30
0.0
 11
138.3133849053
 21
206.3725887891
 31
0.0
  0
LINE
  5
1B6
330
1F
100
AcDbEntity
  8
0
  6
Continuous
 62
     7
370
    25
100
AcDbLine
 10
138.3133849053
 20
206.3725887891
 30
0.0
 11
138.3959324553
 21
203.0253083894
 31
0.0
  0
LINE
  5
1B7
330
1F
100
AcDbEntity
  8
0
  6
Continuous
 62
     7
370
    25
100
AcDbLine
 10
138.3959324553
 20
203.0253083894
 30
0.0
 11
137.2418033339
 21
202.9978343954
 31
0.0
  0
LINE
  5
1B8
330
1F
100
AcDbEntity
  8
0
  6
Continuous
 62
     7
370
    25
100
AcDbLine
 10
138.3959324553
 20
203.0253083894
 30
0.0
 11
138.5751741096
 21
202.8545483315
 31
0.0
  0
LINE
  5
1B9
330
1F
100
AcDbEntity
  8
0
  6
Continuous
 62
     7
370
    25
100
AcDbLine
 10
138.5751741096
 20
202.8545483315
 30
0.0
 11
137.0711588408
 21
202.8187453128
 31
0.0
  0
LINE
  5
1BA
330
1F
100
AcDbEntity
  8
0
  6
Continuous
 62
     7
370
    25
100
AcDbLine
 10
138.3133849053
 20
206.3725887891
 30
0.0
 11
138.4926147527
 21
206.2023075004
 31
0.0
  0
LINE
  5
1BB
330
1F
100
AcDbEntity
  8
0
  6
Continuous
 62
     7
370
    25
100
AcDbLine
 10
138.4926147527
 20
206.2023075004
 30
0.0
 11
138.5751741096
 21
202.8545483315
 31
0.0
  0
LINE
  5
1BC
330
1F
100
AcDbEntity
  8
0
  6
Continuous
 62
     7
370
    25
100
AcDbLine
 10
138.7344698108
 20
206.3837665337
 30
0.0
 11
138.6337122508
 21
206.2060529488
 31
0.0
  0
LINE
  5
1BD
330
1F
100
AcDbEntity
  8
0
  6
Continuous
 62
     7
370
    25
100
AcDbLine
 10
140.5948024578
 20
203.0789597486
 30
0.0
 11
140.4939200609
 21
202.9014679315
 31
0.0
  0
LINE
  5
1BE
330
1F
100
AcDbEntity
  8
0
  6
Continuous
 62
     7
370
    25
100
AcDbLine
 10
140.4939200609
 20
202.9014679315
 30
0.0
 11
138.6337122508
 21
206.2060529488
 31
0.0
  0
LINE
  5
1BF
330
1F
100
AcDbEntity
  8
0
  6
Continuous
 62
     7
370
    25
100
AcDbLine
 10
141.8420796229
 20
203.1094037507
 30
0.0
 11
142.1375483938
 21
202.9415862194
 31
0.0
  0
LINE
  5
1C0
330
1F
100
AcDbEntity
  8
0
  6
Continuous
 62
     7
370
    25
100
AcDbLine
 10
142.1375483938
 20
202.9415862194
 30
0.0
 11
140.4939200609
 21
202.9014679315
 31
0.0
  0
LINE
  5
1C1
330
1F
100
AcDbEntity
  8
0
  6
Continuous
 62
     7
370
    25
100
AcDbLine
 10
139.9316298235
 20
206.4983580471
 30
0.0
 11
140.1820247821
 21
206.4104971258
 31
0.0
  0
LINE
  5
1C2
330
1F
100
AcDbEntity
  8
0
  6
Continuous
 62
     7
370
    25
100
AcDbLine
 10
140.1820247821
 20
206.4104971258
 30
0.0
 11
142.1375483938
 21
202.9415862194
 31
0.0
  0
LINE
  5
1C3
330
1F
100
AcDbEntity
  8
0
  6
Continuous
 62
     7
370
    25
100
AcDbLine
 10
138.6337122508
 20
206.2060529488
 30
0.0
 11
138.4926147527
 21
206.2023075004
 31
0.0
  0
LWPOLYLINE
  5
1C4
330
1F
100
AcDbEntity
  8
0
  6
Continuous
 62
     7
370
    25
100
AcDbPolyline
 90
        4
 70
   128
 43
0.0
 10
141.4560363402
 20
208.5399015957
 10
141.5220811807
 20
208.5412916791
 10
141.576546859
 20
208.542438214
 10
141.6310124657
 20
208.5435847375
  0
SPLINE
  5
1C5
330
1F
100
AcDbEntity
  8
0
  6
Continuous
 62
     7
370
    25
100
AcDbSpline
210
0.0
220
0.0
230
1.0
 70
     8
 71
     3
 72
    32
 73
    28
 74
     0
 42
0.00000001
 43
0.00000001
 40
0.0
 40
0.0
 40
0.0
 40
0.0
 40
0.125
 40
0.125
 40
0.25
 40
0.25
 40
0.3125
 40
0.3125
 40
0.375
 40
0.375
 40
0.4375
 40
0.4375
 40
0.5
 40
0.5
 40
0.5625
 40
0.5625
 40
0.625
 40
0.625
 40
0.6875
 40
0.6875
 40
0.75
 40
0.75
 40
0.8125
 40
0.8125
 40
0.875
 40
0.875
 40
1.0
 40
1.0
 40
1.0
 40
1.0
 10
141.6310124657378
 20
208.5435847374916
 30
0.0
 10
141.631062462549
 20
208.4278726572117
 30
0.0
 10
141.6299978498792
 20
208.3119257826189
 30
0.0
 10
141.6088530561582
 20
208.0813284310583
 30
0.0
 10
141.5896215515402
 20
207.9668549329927
 30
0.0
 10
141.5480624351473
 20
207.7982157923577
 30
0.0
 10
141.5323907994982
 20
207.7424285677199
 30
0.0
 10
141.4960668005768
 20
207.6325111811302
 30
0.0
 10
141.4752799521601
 20
207.5784187297824
 30
0.0
 10
141.4288935455929
 20
207.4723035614693
 30
0.0
 10
141.4033559297285
 20
207.4202493547637
 30
0.0
 10
141.3468430364329
 20
207.3192293254154
 30
0.0
 10
141.3158425589646
 20
207.2702796722214
 30
0.0
 10
141.2506289671332
 20
207.1745385087773
 30
0.0
 10
141.2162464224577
 20
207.127875264016
 30
0.0
 10
141.1414695993897
 20
207.0395220178921
 30
0.0
 10
141.1014060835919
 20
206.997579356995
 30
0.0
 10
141.0188670523636
 20
206.9163938977511
 30
0.0
 10
140.9762416822258
 20
206.8772006295134
 30
0.0
 10
140.8883345080238
 20
206.8017978313704
 30
0.0
 10
140.842848460396
 20
206.7659111238672
 30
0.0
 10
140.7481181965462
 20
206.6993927532892
 30
0.0
 10
140.6992142208079
 20
206.6682794358376
 30
0.0
 10
140.6003091370909
 20
206.6080838260408
 30
0.0
 10
140.5500795255751
 20
206.5793027813991
 30
0.0
 10
140.3963600269123
 20
206.4984794983241
 30
0.0
 10
140.2893775371561
 20
206.4536917346558
 30
0.0
 10
140.182024782103
 20
206.4104971258426
 30
0.0
  0
LINE
  5
1C6
330
1F
100
AcDbEntity
  8
0
  6
Continuous
 62
     7
370
    25
100
AcDbLine
 10
138.2870177727
 20
207.4889820736
 30
0.0
 11
138.4576355819
 21
207.6685368332
 31
0.0
  0
LINE
  5
1C7
330
1F
100
AcDbEntity
  8
0
  6
Continuous
 62
     7
370
    25
100
AcDbLine
 10
138.2386630785
 20
209.4567162053
 30
0.0
 11
138.4178765856
 21
209.2864797308
 31
0.0
  0
LINE
  5
1C8
330
1F
100
AcDbEntity
  8
0
  6
Continuous
 62
     7
370
    25
100
AcDbLine
 10
138.4178765856
 20
209.2864797308
 30
0.0
 11
138.4576355819
 21
207.6685368332
 31
0.0
  0
LINE
  5
1C9
330
1F
100
AcDbEntity
  8
0
  6
Continuous
 62
     7
370
    25
100
AcDbLine
 10
138.4576355819
 20
207.6685368332
 30
0.0
 11
138.9308145128
 21
207.6810615826
 31
0.0
  0
LINE
  5
1CA
330
1F
100
AcDbEntity
  8
0
  6
Continuous
 62
     7
370
    25
100
AcDbLine
 10
140.3490568908
 20
208.5280577885
 30
0.0
 11
140.1740200301
 21
208.5237946993
 31
0.0
  0
SPLINE
  5
1CB
330
1F
100
AcDbEntity
  8
0
  6
Continuous
 62
     7
370
    25
100
AcDbSpline
210
0.0
220
0.0
230
1.0
 70
     8
 71
     3
 72
    38
 73
    34
 74
     0
 42
0.00000001
 43
0.00000001
 40
0.0
 40
0.0
 40
0.0
 40
0.0
 40
0.125
 40
0.125
 40
0.25
 40
0.25
 40
0.3124999999999999
 40
0.3124999999999999
 40
0.3749999999999999
 40
0.3749999999999999
 40
0.4062499999999999
 40
0.4062499999999999
 40
0.4374999999999999
 40
0.4374999999999999
 40
0.4687499999999999
 40
0.4687499999999999
 40
0.4999999999999999
 40
0.4999999999999999
 40
0.5312499999999999
 40
0.5312499999999999
 40
0.5624999999999999
 40
0.5624999999999999
 40
0.6249999999999999
 40
0.6249999999999999
 40
0.6874999999999999
 40
0.6874999999999999
 40
0.7499999999999999
 40
0.7499999999999999
 40
0.8124999999999999
 40
0.8124999999999999
 40
0.8749999999999999
 40
0.8749999999999999
 40
0.9999999999999999
 40
0.9999999999999999
 40
0.9999999999999999
 40
0.9999999999999999
 10
138.9308145127744
 20
207.6810615825524
 30
0.0
 10
139.0029115205984
 20
207.6832633665454
 30
0.0
 10
139.0749970107316
 20
207.6856062679213
 30
0.0
 10
139.2188515526645
 20
207.695765752856
 30
0.0
 10
139.2907716958835
 20
207.7022801782314
 30
0.0
 10
139.3980042230294
 20
207.7164541013371
 30
0.0
 10
139.4335714686079
 20
207.7223082880378
 30
0.0
 10
139.5043974472522
 20
207.7358866377465
 30
0.0
 10
139.539729533753
 20
207.7432997649035
 30
0.0
 10
139.5925087532621
 20
207.7552948604041
 30
0.0
 10
139.6100431652685
 20
207.759519762675
 30
0.0
 10
139.6448718854703
 20
207.7687997669374
 30
0.0
 10
139.6621543431575
 20
207.7738954856454
 30
0.0
 10
139.6964275605698
 20
207.785050378246
 30
0.0
 10
139.7134303052725
 20
207.7910685044698
 30
0.0
 10
139.747236452483
 20
207.8037082709698
 30
0.0
 10
139.7640666115898
 20
207.8102745335531
 30
0.0
 10
139.7974363566544
 20
207.8240634533274
 30
0.0
 10
139.8139487460035
 20
207.8313424925363
 30
0.0
 10
139.8462641925916
 20
207.847288293839
 30
0.0
 10
139.8620419884818
 20
207.8560144960034
 30
0.0
 10
139.9081013339721
 20
207.884412061212
 30
0.0
 10
139.9372695630815
 20
207.90611304382
 30
0.0
 10
139.9913926303733
 20
207.9542469954803
 30
0.0
 10
140.0162449582056
 20
207.9807577377912
 30
0.0
 10
140.0596573690549
 20
208.0384273262312
 30
0.0
 10
140.0782835070424
 20
208.0695484806971
 30
0.0
 10
140.1102904542344
 20
208.1345281417404
 30
0.0
 10
140.1237484399842
 20
208.1683168900695
 30
0.0
 10
140.1458557791286
 20
208.2372292243998
 30
0.0
 10
140.1544345137146
 20
208.2724168050106
 30
0.0
 10
140.1723399144756
 20
208.3790299867379
 30
0.0
 10
140.1731999936708
 20
208.4514196700768
 30
0.0
 10
140.1740200301419
 20
208.5237946992662
 30
0.0
  0
SPLINE
  5
1CC
330
1F
100
AcDbEntity
  8
0
  6
Continuous
 62
     7
370
    25
100
AcDbSpline
210
0.0
220
0.0
230
1.0
 70
     8
 71
     3
 72
    38
 73
    34
 74
     0
 42
0.00000001
 43
0.00000001
 40
0.0
 40
0.0
 40
0.0
 40
0.0
 40
0.0625
 40
0.0625
 40
0.09375
 40
0.09375
 40
0.125
 40
0.125
 40
0.1875
 40
0.1875
 40
0.25
 40
0.25
 40
0.375
 40
0.375
 40
0.4375
 40
0.4375
 40
0.5
 40
0.5
 40
0.5625
 40
0.5625
 40
0.59375
 40
0.59375
 40
0.625
 40
0.625
 40
0.6875
 40
0.6875
 40
0.75
 40
0.75
 40
0.8125
 40
0.8125
 40
0.875
 40
0.875
 40
1.0
 40
1.0
 40
1.0
 40
1.0
 10
140.1740200301419
 20
208.5237946992662
 30
0.0
 10
140.1718040496418
 20
208.560664258725
 30
0.0
 10
140.1695878504634
 20
208.5975338190129
 30
0.0
 10
140.1622620590574
 20
208.6522908328896
 30
0.0
 10
140.1590922520357
 20
208.6704508531134
 30
0.0
 10
140.1513160050276
 20
208.7065075191427
 30
0.0
 10
140.1467328245209
 20
208.7244046155866
 30
0.0
 10
140.1311632690903
 20
208.7775884061278
 30
0.0
 10
140.1185468312307
 20
208.8124324024603
 30
0.0
 10
140.0876186520612
 20
208.8793929060237
 30
0.0
 10
140.0689985358812
 20
208.9113743580329
 30
0.0
 10
140.0060425616584
 20
209.0025406756972
 30
0.0
 10
139.9558219847405
 20
209.0575560051396
 30
0.0
 10
139.870289989315
 20
209.1278362772582
 30
0.0
 10
139.8399323264222
 20
209.149045754917
 30
0.0
 10
139.7761840334313
 20
209.1862671456714
 30
0.0
 10
139.7427928858772
 20
209.2021235814909
 30
0.0
 10
139.6742366304265
 20
209.2294424113488
 30
0.0
 10
139.6392634729633
 20
209.2415644883015
 30
0.0
 10
139.5857395187871
 20
209.2553536821527
 30
0.0
 10
139.5676754688247
 20
209.2590586278063
 30
0.0
 10
139.5313857070632
 20
209.2656999075543
 30
0.0
 10
139.5131836688744
 20
209.2687319225135
 30
0.0
 10
139.4585440100082
 20
209.2773254014721
 30
0.0
 10
139.4219582204553
 20
209.2818243212129
 30
0.0
 10
139.3484840055031
 20
209.2881739954505
 30
0.0
 10
139.3116686259498
 20
209.2904404629109
 30
0.0
 10
139.238034324895
 20
209.2941973364896
 30
0.0
 10
139.2011965225888
 20
209.295595702882
 30
0.0
 10
139.1274978807096
 20
209.2978682061145
 30
0.0
 10
139.090637488763
 20
209.2988314952949
 30
0.0
 10
138.9800492919707
 20
209.3008396368005
 30
0.0
 10
138.906330887566
 20
209.2995257411121
 30
0.0
 10
138.8326072681121
 20
209.2975963121074
 30
0.0
  0
SPLINE
  5
1CD
330
1F
100
AcDbEntity
  8
0
  6
Continuous
 62
     7
370
    25
100
AcDbSpline
210
0.0
220
0.0
230
1.0
 70
     8
 71
     3
 72
    38
 73
    34
 74
     0
 42
0.00000001
 43
0.00000001
 40
0.0
 40
0.0
 40
0.0
 40
0.0
 40
0.125
 40
0.125
 40
0.25
 40
0.25
 40
0.3125
 40
0.3125
 40
0.375
 40
0.375
 40
0.4375
 40
0.4375
 40
0.5
 40
0.5
 40
0.625
 40
0.625
 40
0.6875
 40
0.6875
 40
0.71875
 40
0.71875
 40
0.75
 40
0.75
 40
0.78125
 40
0.78125
 40
0.8125
 40
0.8125
 40
0.875
 40
0.875
 40
0.90625
 40
0.90625
 40
0.9375
 40
0.9375
 40
1.0
 40
1.0
 40
1.0
 40
1.0
 10
138.4749033255939
 20
210.7616736648025
 30
0.0
 10
138.659872213007
 20
210.765485126474
 30
0.0
 10
138.8448869220437
 20
210.7676717227957
 30
0.0
 10
139.2147932310331
 20
210.7584514740003
 30
0.0
 10
139.3997409309453
 20
210.7501803864934
 30
0.0
 10
139.6759633906034
 20
210.7234288717543
 30
0.0
 10
139.7678123050013
 20
210.7120229235324
 30
0.0
 10
139.9504949248163
 20
210.6827212134589
 30
0.0
 10
140.0414041466418
 20
210.664925940434
 30
0.0
 10
140.2205769084297
 20
210.6187256912758
 30
0.0
 10
140.3086446930243
 20
210.5896550425933
 30
0.0
 10
140.4792798368529
 20
210.5177959466801
 30
0.0
 10
140.5618899943621
 20
210.4752859594675
 30
0.0
 10
140.7987844737347
 20
210.3301603474897
 30
0.0
 10
140.9420028795621
 20
210.2098948918892
 30
0.0
 10
141.1279398971915
 20
210.0034606346932
 30
0.0
 10
141.1851573950337
 20
209.9303235703739
 30
0.0
 10
141.2629658618275
 20
209.8153503653276
 30
0.0
 10
141.2874950620195
 20
209.7761201641951
 30
0.0
 10
141.3343409850052
 20
209.6963464323467
 30
0.0
 10
141.3568487804499
 20
209.6558916924544
 30
0.0
 10
141.3995016389317
 20
209.5737846315961
 30
0.0
 10
141.419383302569
 20
209.5320068547893
 30
0.0
 10
141.4556462350386
 20
209.446899526639
 30
0.0
 10
141.4722620599757
 20
209.4036813581332
 30
0.0
 10
141.5190489492305
 20
209.2730159025283
 30
0.0
 10
141.545512199902
 20
209.1842004691209
 30
0.0
 10
141.5761674176973
 20
209.0488531616989
 30
0.0
 10
141.5848664166295
 20
209.0034107818504
 30
0.0
 10
141.5999258400734
 20
208.912124217267
 30
0.0
 10
141.6063900813094
 20
208.8662933137197
 30
0.0
 10
141.6225235542863
 20
208.7284563745991
 30
0.0
 10
141.6271591866098
 20
208.6360236978845
 30
0.0
 10
141.6310124657377
 20
208.5435847374916
 30
0.0
  0
LINE
  5
1CE
330
1F
100
AcDbEntity
  8
0
  6
Continuous
 62
     7
370
    25
100
AcDbLine
 10
138.8326072681
 20
209.2975963121
 30
0.0
 11
138.4178765856
 21
209.2864797308
 31
0.0
  0
LWPOLYLINE
  5
1CF
330
1F
100
AcDbEntity
  8
0
  6
Continuous
 62
     7
370
    25
100
AcDbPolyline
 90
        4
 70
   128
 43
0.0
 10
153.5375619788
 20
210.5817337385
 10
153.5399016937
 20
210.634186571
 10
153.5422411965
 20
210.686639372
 10
153.5453602616
 20
210.756575422
  0
SPLINE
  5
1D0
330
1F
100
AcDbEntity
  8
0
  6
Continuous
 62
     7
370
    25
100
AcDbSpline
210
0.0
220
0.0
230
1.0
 70
     8
 71
     3
 72
    42
 73
    38
 74
     0
 42
0.00000001
 43
0.00000001
 40
0.0004868362782005
 40
0.0004868362782005
 40
0.0004868362782005
 40
0.0004868362782005
 40
0.0625
 40
0.0625
 40
0.125
 40
0.125
 40
0.1875
 40
0.1875
 40
0.25
 40
0.25
 40
0.3125
 40
0.3125
 40
0.375
 40
0.375
 40
0.4375
 40
0.4375
 40
0.46875
 40
0.46875
 40
0.5
 40
0.5
 40
0.5625
 40
0.5625
 40
0.625
 40
0.625
 40
0.6875
 40
0.6875
 40
0.71875
 40
0.71875
 40
0.75
 40
0.75
 40
0.8125
 40
0.8125
 40
0.875
 40
0.875
 40
0.9375
 40
0.9375
 40
0.9994475865162662
 40
0.9994475865162662
 40
0.9994475865162662
 40
0.9994475865162662
 10
149.3540606465223
 20
206.8203163294023
 30
0.0
 10
149.3621456846008
 20
206.9564838545696
 30
0.0
 10
149.3705905628784
 20
207.0842902050755
 30
0.0
 10
149.4042434265934
 20
207.3428183337069
 30
0.0
 10
149.4272136017623
 20
207.4733691617311
 30
0.0
 10
149.4833738190725
 20
207.7302869859919
 30
0.0
 10
149.5166744762365
 20
207.8553039647959
 30
0.0
 10
149.5995816960505
 20
208.1016759036422
 30
0.0
 10
149.6480644879086
 20
208.2242384059258
 30
0.0
 10
149.7557679790346
 20
208.4623287908508
 30
0.0
 10
149.8153657591899
 20
208.5776158042553
 30
0.0
 10
149.9482291406443
 20
208.8015181954211
 30
0.0
 10
150.020907984225
 20
208.9105119637682
 30
0.0
 10
150.1768128445457
 20
209.1190073318967
 30
0.0
 10
150.260115107814
 20
209.2178370564878
 30
0.0
 10
150.394606234844
 20
209.3610899921955
 30
0.0
 10
150.4409797301155
 20
209.4083840025053
 30
0.0
 10
150.5345407401541
 20
209.4993647242042
 30
0.0
 10
150.5817399565757
 20
209.5428313559981
 30
0.0
 10
150.7286242941503
 20
209.6687068879386
 30
0.0
 10
150.8346329217423
 20
209.7496566761091
 30
0.0
 10
151.0488059194224
 20
209.9003377075172
 30
0.0
 10
151.1590896364842
 20
209.9695998796728
 30
0.0
 10
151.3878008468493
 20
210.0984099587393
 30
0.0
 10
151.5065659872633
 20
210.1591235768948
 30
0.0
 10
151.6849540784486
 20
210.2410547775338
 30
0.0
 10
151.7445127041073
 20
210.266525822938
 30
0.0
 10
151.8661272521365
 20
210.31476631369
 30
0.0
 10
151.9280789535555
 20
210.3376114407507
 30
0.0
 10
152.115199514087
 20
210.4027872150081
 30
0.0
 10
152.2402805791758
 20
210.4407411929438
 30
0.0
 10
152.4938766127899
 20
210.5029510863641
 30
0.0
 10
152.6221260500153
 20
210.5273384777486
 30
0.0
 10
152.8811626819984
 20
210.5630408417401
 30
0.0
 10
153.0130745697653
 20
210.5749427076863
 30
0.0
 10
153.2734685854013
 20
210.5870486287215
 30
0.0
 10
153.4014065872574
 20
210.5849510178762
 30
0.0
 10
153.5375619788611
 20
210.5817337384603
 30
0.0
  0
LWPOLYLINE
  5
1D1
330
1F
100
AcDbEntity
  8
0
  6
Continuous
 62
     7
370
    25
100
AcDbPolyline
 90
        4
 70
   128
 43
0.0
 10
149.3540606465
 20
206.8203163294
 10
149.3016020374
 20
206.8224608658
 10
149.2491434213
 20
206.8246048413
 10
149.1791996113
 20
206.8274624154
  0
SPLINE
  5
1D2
330
1F
100
AcDbEntity
  8
0
  6
Continuous
 62
     7
370
    25
100
AcDbSpline
210
0.0
220
0.0
230
1.0
 70
     8
 71
     3
 72
    42
 73
    38
 74
     0
 42
0.00000001
 43
0.00000001
 40
0.0
 40
0.0
 40
0.0
 40
0.0
 40
0.0625
 40
0.0625
 40
0.125
 40
0.125
 40
0.1875
 40
0.1875
 40
0.25
 40
0.25
 40
0.3125
 40
0.3125
 40
0.375
 40
0.375
 40
0.4375
 40
0.4375
 40
0.46875
 40
0.46875
 40
0.5
 40
0.5
 40
0.5625
 40
0.5625
 40
0.625
 40
0.625
 40
0.6875
 40
0.6875
 40
0.71875
 40
0.71875
 40
0.75
 40
0.75
 40
0.8125
 40
0.8125
 40
0.875
 40
0.875
 40
0.9375
 40
0.9375
 40
1.0
 40
1.0
 40
1.0
 40
1.0
 10
149.1791996113361
 20
206.8274624154488
 30
0.0
 10
149.1872835256608
 20
206.9638298739131
 30
0.0
 10
149.196205468583
 20
207.1001805007919
 30
0.0
 10
149.2314700351739
 20
207.371090066624
 30
0.0
 10
149.25518341149
 20
207.5057526993703
 30
0.0
 10
149.3135220380478
 20
207.7726361562584
 30
0.0
 10
149.3487223169066
 20
207.904832000365
 30
0.0
 10
149.4358554125963
 20
208.1637618032299
 30
0.0
 10
149.4861941936769
 20
208.290948932302
 30
0.0
 10
149.5987897698415
 20
208.5398538072253
 30
0.0
 10
149.6616095189996
 20
208.6613853892483
 30
0.0
 10
149.8010288087668
 20
208.8963358486565
 30
0.0
 10
149.8769209421957
 20
209.010142435413
 30
0.0
 10
150.0405353429739
 20
209.2289479592349
 30
0.0
 10
150.128711911221
 20
209.3335162322779
 30
0.0
 10
150.2689568187098
 20
209.4828977963949
 30
0.0
 10
150.3168027643527
 20
209.5316985920683
 30
0.0
 10
150.4147461779415
 20
209.6269408548086
 30
0.0
 10
150.4649914378475
 20
209.6732204422864
 30
0.0
 10
150.6205397863625
 20
209.8065207784901
 30
0.0
 10
150.729334149895
 20
209.8895176039857
 30
0.0
 10
150.9527378478144
 20
210.0466928768219
 30
0.0
 10
151.0685738600398
 20
210.1194412690322
 30
0.0
 10
151.3065853893133
 20
210.2534892856397
 30
0.0
 10
151.4283400923265
 20
210.3157456148037
 30
0.0
 10
151.6145215255108
 20
210.4012561891793
 30
0.0
 10
151.6773205667033
 20
210.4281134514405
 30
0.0
 10
151.8042846875381
 20
210.4784759424892
 30
0.0
 10
151.8683943751428
 20
210.5021103836426
 30
0.0
 10
152.0619041343453
 20
210.5695115726755
 30
0.0
 10
152.1927213862574
 20
210.6092396657288
 30
0.0
 10
152.458060105096
 20
210.6743301687019
 30
0.0
 10
152.5924483691228
 20
210.699879556635
 30
0.0
 10
152.8630587119211
 20
210.7371770966375
 30
0.0
 10
152.9992731105737
 20
210.7494673899076
 30
0.0
 10
153.2721737899999
 20
210.7621547545213
 30
0.0
 10
153.4087950110151
 20
210.75981834743
 30
0.0
 10
153.5453602615917
 20
210.7565754220304
 30
0.0
  0
SPLINE
  5
1D3
330
1F
100
AcDbEntity
  8
0
  6
Continuous
 62
     7
370
    25
100
AcDbSpline
210
0.0
220
0.0
230
1.0
 70
     8
 71
     3
 72
    11
 73
     7
 74
     0
 42
0.00000001
 43
0.00000001
 40
0.0
 40
0.0
 40
0.0
 40
0.0
 40
0.0010073639885911
 40
0.0010073639885911
 40
0.0010073639885911
 40
0.0020147287208511
 40
0.0020147287208511
 40
0.0020147287208511
 40
0.0020147287208511
 10
156.6567077680967
 20
209.0472126716535
 30
0.0
 10
156.6973553795215
 20
209.0439836586216
 30
0.0
 10
156.737797410975
 20
209.0405725194481
 30
0.0
 10
156.7781437053697
 20
209.0370765962377
 30
0.0
 10
156.8184900338095
 20
209.0335806700773
 30
0.0
 10
156.858738576737
 20
209.0299981345579
 30
0.0
 10
156.8989867016657
 20
209.0264152308362
 30
0.0
  0
SPLINE
  5
1D4
330
1F
100
AcDbEntity
  8
0
  6
Continuous
 62
     7
370
    25
100
AcDbSpline
210
0.0
220
0.0
230
1.0
 70
     8
 71
     3
 72
    24
 73
    20
 74
     0
 42
0.00000001
 43
0.00000001
 40
0.000936170497135
 40
0.000936170497135
 40
0.000936170497135
 40
0.000936170497135
 40
0.125
 40
0.125
 40
0.25
 40
0.25
 40
0.375
 40
0.375
 40
0.5
 40
0.5
 40
0.625
 40
0.625
 40
0.75
 40
0.75
 40
0.875
 40
0.875
 40
0.9375
 40
0.9375
 40
0.9560509296841175
 40
0.9560509296841175
 40
0.9560509296841175
 40
0.9560509296841175
 10
153.5375619788423
 20
210.5817337384611
 30
0.0
 10
153.6981328414702
 20
210.5711967025728
 30
0.0
 10
153.8518969662148
 20
210.5596333695726
 30
0.0
 10
154.1559848982727
 20
210.5136533628414
 30
0.0
 10
154.3093562378828
 20
210.4805714257467
 30
0.0
 10
154.6103817465346
 20
210.3995336047841
 30
0.0
 10
154.7595081983914
 20
210.3513585543189
 30
0.0
 10
155.0473244632577
 20
210.2380285700388
 30
0.0
 10
155.1920983599549
 20
210.1718592603378
 30
0.0
 10
155.4707106609614
 20
210.0301858464807
 30
0.0
 10
155.603129027501
 20
209.9522933896024
 30
0.0
 10
155.8654656812768
 20
209.779131600019
 30
0.0
 10
155.9914612502641
 20
209.6876015225219
 30
0.0
 10
156.2300125982692
 20
209.4898613914978
 30
0.0
 10
156.3438256227868
 20
209.3827444852137
 30
0.0
 10
156.5090077845529
 20
209.2140012439265
 30
0.0
 10
156.5620388287549
 20
209.1574983962031
 30
0.0
 10
156.6270860212251
 20
209.0824741467074
 30
0.0
 10
156.641903640585
 20
209.0649801473897
 30
0.0
 10
156.6567077680968
 20
209.0472126716533
 30
0.0
  0
SPLINE
  5
1D5
330
1F
100
AcDbEntity
  8
0
  6
Continuous
 62
     7
370
    25
100
AcDbSpline
210
0.0
220
0.0
230
1.0
 70
     8
 71
     3
 72
    24
 73
    20
 74
     0
 42
0.00000001
 43
0.00000001
 40
0.0
 40
0.0
 40
0.0
 40
0.0
 40
0.125
 40
0.125
 40
0.25
 40
0.25
 40
0.375
 40
0.375
 40
0.5
 40
0.5
 40
0.625
 40
0.625
 40
0.75
 40
0.75
 40
0.875
 40
0.875
 40
0.9375
 40
0.9375
 40
1.0
 40
1.0
 40
1.0
 40
1.0
 10
153.5453602615917
 20
210.7565754220304
 30
0.0
 10
153.7071234450574
 20
210.7459819494306
 30
0.0
 10
153.8691533129624
 20
210.7339904065003
 30
0.0
 10
154.1899061840541
 20
210.6854905577076
 30
0.0
 10
154.3487351554971
 20
210.6511772846024
 30
0.0
 10
154.6619738999347
 20
210.5668515896675
 30
0.0
 10
154.8166138362199
 20
210.5169261988845
 30
0.0
 10
155.1184347043874
 20
210.3980817913768
 30
0.0
 10
155.2661244880605
 20
210.3305172075308
 30
0.0
 10
155.5553057673762
 20
210.1834695026177
 30
0.0
 10
155.695308573049
 20
210.101106959692
 30
0.0
 10
155.9660711190361
 20
209.9223834509226
 30
0.0
 10
156.0975209201703
 20
209.826962381765
 30
0.0
 10
156.3472860351147
 20
209.6199269291749
 30
0.0
 10
156.4654975053365
 20
209.5085864550466
 30
0.0
 10
156.6357318440491
 20
209.3346821171726
 30
0.0
 10
156.691292688755
 20
209.2755272380693
 30
0.0
 10
156.7975146538906
 20
209.1530127605099
 30
0.0
 10
156.8482506988583
 20
209.0897140115965
 30
0.0
 10
156.8989867016657
 20
209.0264152308362
 30
0.0
  0
LINE
  5
1D6
330
1F
100
AcDbEntity
  8
0
  6
Continuous
 62
     7
370
    25
100
AcDbLine
 10
132.4790484122
 20
209.1773042028
 30
0.0
 11
132.6640848092
 21
209.0130171145
 31
0.0
  0
LINE
  5
1D7
330
1F
100
AcDbEntity
  8
0
  6
Continuous
 62
     7
370
    25
100
AcDbLine
 10
133.9083007502
 20
209.2622631369
 30
0.0
 11
132.4790484122
 21
209.1773042028
 31
0.0
  0
LINE
  5
1D8
330
1F
100
AcDbEntity
  8
0
  6
Continuous
 62
     7
370
    25
100
AcDbLine
 10
133.9083007502
 20
209.2622631369
 30
0.0
 11
134.0932940568
 21
209.0979734873
 31
0.0
  0
LINE
  5
1D9
330
1F
100
AcDbEntity
  8
0
  6
Continuous
 62
     7
370
    25
100
AcDbLine
 10
134.0932940568
 20
209.0979734873
 30
0.0
 11
132.6640848092
 21
209.0130171145
 31
0.0
  0
LINE
  5
1DA
330
1F
100
AcDbEntity
  8
0
  6
Continuous
 62
     7
370
    25
100
AcDbLine
 10
133.841907608
 20
210.3855417768
 30
0.0
 11
134.0062544306
 21
210.5705616145
 31
0.0
  0
LINE
  5
1DB
330
1F
100
AcDbEntity
  8
0
  6
Continuous
 62
     7
370
    25
100
AcDbLine
 10
129.8516813994
 20
210.1491643609
 30
0.0
 11
133.841907608
 21
210.3855417768
 31
0.0
  0
LINE
  5
1DC
330
1F
100
AcDbEntity
  8
0
  6
Continuous
 62
     7
370
    25
100
AcDbLine
 10
129.8516813994
 20
210.1491643609
 30
0.0
 11
129.6666859964
 21
210.313489479
 31
0.0
  0
LINE
  5
1DD
330
1F
100
AcDbEntity
  8
0
  6
Continuous
 62
     7
370
    25
100
AcDbLine
 10
129.6666859964
 20
210.313489479
 30
0.0
 11
134.0062544306
 21
210.5705616145
 31
0.0
  0
LINE
  5
1DE
330
1F
100
AcDbEntity
  8
0
  6
Continuous
 62
     7
370
    25
100
AcDbLine
 10
131.3124186324
 20
209.1089602456
 30
0.0
 11
131.1481178022
 21
208.923894235
 31
0.0
  0
LINE
  5
1DF
330
1F
100
AcDbEntity
  8
0
  6
Continuous
 62
     7
370
    25
100
AcDbLine
 10
131.6910423944
 20
202.7299021776
 30
0.0
 11
131.3124186324
 21
209.1089602456
 31
0.0
  0
LINE
  5
1E0
330
1F
100
AcDbEntity
  8
0
  6
Continuous
 62
     7
370
    25
100
AcDbLine
 10
131.6910423944
 20
202.7299021776
 30
0.0
 11
131.5267340282
 21
202.5449631331
 31
0.0
  0
LINE
  5
1E1
330
1F
100
AcDbEntity
  8
0
  6
Continuous
 62
     7
370
    25
100
AcDbLine
 10
131.5267340282
 20
202.5449631331
 30
0.0
 11
131.1481178022
 21
208.923894235
 31
0.0
  0
ARC
  5
1E2
330
1F
100
AcDbEntity
  8
0
  6
Continuous
 62
     7
370
    25
100
AcDbCircle
 10
206.3500014765
 20
202.4149466259
 30
0.0
 40
2.000000000000033
100
AcDbArc
 50
342.0
 51
72.5522570284
  0
ARC
  5
1E3
330
1F
100
AcDbEntity
  8
0
  6
Continuous
 62
     7
370
    25
100
AcDbCircle
 10
80.1930562581
 20
201.8644796154
 30
0.0
 40
1.999999999999983
100
AcDbArc
 50
107.9477429716
 51
198.5
  0
ARC
  5
1E4
330
1F
100
AcDbEntity
  8
0
  6
Continuous
 62
     7
370
    25
100
AcDbCircle
 10
78.1499054108
 20
200.0919505679
 30
0.0
 40
0.5000000000000082
100
AcDbArc
 50
237.0578370434
 51
18.5
  0
LINE
  5
1E5
330
1F
100
AcDbEntity
  8
0
  6
Continuous
 62
     7
370
    25
100
AcDbLine
 10
67.1915522305
 20
199.840672741
 30
0.0
 11
68.244125373
 21
197.1685601478
 31
0.0
  0
ARC
  5
1E6
330
1F
100
AcDbEntity
  8
0
  6
Continuous
 62
     7
370
    25
100
AcDbCircle
 10
69.0523873665
 20
200.5736751945
 30
0.0
 40
2.000000000000025
100
AcDbArc
 50
110.9515047787
 51
201.5
  0
ARC
  5
1E7
330
1F
100
AcDbEntity
  8
0
  6
Continuous
 62
     7
370
    25
100
AcDbCircle
 10
144.1436912631
 20
4.4581580137
 30
0.0
 40
212.0
100
AcDbArc
 50
69.5484952213
 51
110.9515047787
  0
LINE
  5
1E8
330
1F
100
AcDbEntity
  8
0
  6
Continuous
 62
     7
370
    25
100
AcDbLine
 10
218.3586729651
 20
197.8235625822
 30
0.0
 11
219.3878877434
 21
200.5047587465
 31
0.0
  0
ARC
  5
1E9
330
1F
100
AcDbEntity
  8
0
  6
Continuous
 62
     7
370
    25
100
AcDbCircle
 10
208.4032940931
 20
200.6441615653
 30
0.0
 40
0.5000000000000194
100
AcDbArc
 50
162.0
 51
303.7009883559
  0
ARC
  5
1EA
330
1F
100
AcDbEntity
  8
0
  6
Continuous
 62
     7
370
    25
100
AcDbCircle
 10
144.1340667226
 20
4.4618525286
 30
0.0
 40
209.5
100
AcDbArc
 50
72.5522570284
 51
107.9477429716
  0
ARC
  5
1EB
330
1F
100
AcDbEntity
  8
0
  6
Continuous
 62
     7
370
    25
100
AcDbCircle
 10
68.709334157
 20
197.3518107611
 30
0.0
 40
0.5000000000000121
100
AcDbArc
 50
201.5
 51
335.3130614604
  0
ARC
  5
1EC
330
1F
100
AcDbEntity
  8
0
  6
Continuous
 62
     7
370
    25
100
AcDbCircle
 10
217.8918827518
 20
198.002746557
 30
0.0
 40
0.5000000000000058
100
AcDbArc
 50
205.1869385396
 51
339.0
  0
LINE
  5
1ED
330
1F
100
AcDbEntity
  8
0
  6
Continuous
 62
     7
370
    25
100
AcDbLine
 10
207.927765835
 20
200.7986700625
 30
0.0
 11
208.2521145091
 21
201.7969126371
 31
0.0
  0
ARC
  5
1EE
330
1F
100
AcDbEntity
  8
0
  6
Continuous
 62
     7
370
    25
100
AcDbCircle
 10
74.6152563428
 20
194.6370210573
 30
0.0
 40
6.000000000000059
100
AcDbArc
 50
57.0578370434
 51
155.3130614604
  0
ARC
  5
1EF
330
1F
100
AcDbEntity
  8
0
  6
Continuous
 62
     7
370
    25
100
AcDbCircle
 10
212.0098761542
 20
195.2365219844
 30
0.0
 40
6.000000000000019
100
AcDbArc
 50
25.1869385396
 51
123.7009883559
  0
LINE
  5
1F0
330
1F
100
AcDbEntity
  8
0
  6
Continuous
 62
     7
370
    25
100
AcDbLine
 10
78.2964089477
 20
201.2298703026
 30
0.0
 11
78.6240672384
 21
200.2506028961
 31
0.0
  0
ARC
  5
1F1
330
1F
100
AcDbEntity
  8
0
  6
Continuous
 62
     7
370
    25
100
AcDbCircle
 10
217.5207268904
 20
201.2214946456
 30
0.0
 40
2.000000000000033
100
AcDbArc
 50
339.0
 51
69.5484952213
  0
LINE
  5
1F2
330
1F
100
AcDbEntity
  8
0
  6
Continuous
 62
     7
370
    25
100
AcDbLine
 10
114.3683326656
 20
200.8762119556
 30
0.0
 11
114.5690337779
 21
200.7314370679
 31
0.0
  0
LINE
  5
1F3
330
1F
100
AcDbEntity
  8
0
  6
Continuous
 62
     7
370
    25
100
AcDbLine
 10
114.1893011237
 20
201.9817766834
 30
0.0
 11
114.3683326656
 21
200.8762119556
 31
0.0
  0
LINE
  5
1F4
330
1F
100
AcDbEntity
  8
0
  6
Continuous
 62
     7
370
    25
100
AcDbLine
 10
114.1893011237
 20
201.9817766834
 30
0.0
 11
114.3340588037
 21
202.1824665385
 31
0.0
  0
LINE
  5
1F5
330
1F
100
AcDbEntity
  8
0
  6
Continuous
 62
     7
370
    25
100
AcDbLine
 10
114.3340588037
 20
202.1824665385
 30
0.0
 11
114.5690337779
 21
200.7314370679
 31
0.0
  0
LINE
  5
1F6
330
1F
100
AcDbEntity
  8
0
  6
Continuous
 62
     7
370
    25
100
AcDbLine
 10
111.4180854788
 20
201.5331509749
 30
0.0
 11
114.1893011237
 21
201.9817766834
 31
0.0
  0
LINE
  5
1F7
330
1F
100
AcDbEntity
  8
0
  6
Continuous
 62
     7
370
    25
100
AcDbLine
 10
111.4180854788
 20
201.5331509749
 30
0.0
 11
111.5628115869
 21
201.7338357189
 31
0.0
  0
LINE
  5
1F8
330
1F
100
AcDbEntity
  8
0
  6
Continuous
 62
     7
370
    25
100
AcDbLine
 10
111.5628115869
 20
201.7338357189
 30
0.0
 11
114.3340588037
 21
202.1824665385
 31
0.0
  0
LINE
  5
1F9
330
1F
100
AcDbEntity
  8
0
  6
Continuous
 62
     7
370
    25
100
AcDbLine
 10
111.0308247138
 20
203.9218161242
 30
0.0
 11
111.4180854788
 21
201.5331509749
 31
0.0
  0
LINE
  5
1FA
330
1F
100
AcDbEntity
  8
0
  6
Continuous
 62
     7
370
    25
100
AcDbLine
 10
111.0308247138
 20
203.9218161242
 30
0.0
 11
111.2315557402
 21
203.7770566389
 31
0.0
  0
LINE
  5
1FB
330
1F
100
AcDbEntity
  8
0
  6
Continuous
 62
     7
370
    25
100
AcDbLine
 10
111.2315557402
 20
203.7770566389
 30
0.0
 11
111.5628115869
 21
201.7338357189
 31
0.0
  0
LINE
  5
1FC
330
1F
100
AcDbEntity
  8
0
  6
Continuous
 62
     7
370
    25
100
AcDbLine
 10
113.8021210648
 20
204.370454898
 30
0.0
 11
111.0308247138
 21
203.9218161242
 31
0.0
  0
LINE
  5
1FD
330
1F
100
AcDbEntity
  8
0
  6
Continuous
 62
     7
370
    25
100
AcDbLine
 10
113.8021210648
 20
204.370454898
 30
0.0
 11
114.002802957
 21
204.2256874584
 31
0.0
  0
LINE
  5
1FE
330
1F
100
AcDbEntity
  8
0
  6
Continuous
 62
     7
370
    25
100
AcDbLine
 10
114.002802957
 20
204.2256874584
 30
0.0
 11
111.2315557402
 21
203.7770566389
 31
0.0
  0
LINE
  5
1FF
330
1F
100
AcDbEntity
  8
0
  6
Continuous
 62
     7
370
    25
100
AcDbLine
 10
113.6282101349
 20
205.4450906455
 30
0.0
 11
113.8021210648
 21
204.370454898
 31
0.0
  0
LINE
  5
200
330
1F
100
AcDbEntity
  8
0
  6
Continuous
 62
     7
370
    25
100
AcDbLine
 10
113.6282101349
 20
205.4450906455
 30
0.0
 11
113.7729853688
 21
205.6457833424
 31
0.0
  0
LINE
  5
201
330
1F
100
AcDbEntity
  8
0
  6
Continuous
 62
     7
370
    25
100
AcDbLine
 10
113.7729853688
 20
205.6457833424
 30
0.0
 11
114.002802957
 21
204.2256874584
 31
0.0
  0
LINE
  5
202
330
1F
100
AcDbEntity
  8
0
  6
Continuous
 62
     7
370
    25
100
AcDbLine
 10
110.8570024034
 20
204.9964662181
 30
0.0
 11
113.6282101349
 21
205.4450906455
 31
0.0
  0
LINE
  5
203
330
1F
100
AcDbEntity
  8
0
  6
Continuous
 62
     7
370
    25
100
AcDbLine
 10
110.8570024034
 20
204.9964662181
 30
0.0
 11
111.0017381521
 21
205.1971525228
 31
0.0
  0
LINE
  5
204
330
1F
100
AcDbEntity
  8
0
  6
Continuous
 62
     7
370
    25
100
AcDbLine
 10
111.0017381521
 20
205.1971525228
 30
0.0
 11
113.7729853688
 21
205.6457833424
 31
0.0
  0
LINE
  5
205
330
1F
100
AcDbEntity
  8
0
  6
Continuous
 62
     7
370
    25
100
AcDbLine
 10
110.5734929643
 20
206.745800443
 30
0.0
 11
110.8570024034
 21
204.9964662181
 31
0.0
  0
LINE
  5
206
330
1F
100
AcDbEntity
  8
0
  6
Continuous
 62
     7
370
    25
100
AcDbLine
 10
110.5734929643
 20
206.745800443
 30
0.0
 11
110.7742143465
 21
206.6010393964
 31
0.0
  0
LINE
  5
207
330
1F
100
AcDbEntity
  8
0
  6
Continuous
 62
     7
370
    25
100
AcDbLine
 10
110.7742143465
 20
206.6010393964
 30
0.0
 11
111.0017381521
 21
205.1971525228
 31
0.0
  0
LINE
  5
208
330
1F
100
AcDbEntity
  8
0
  6
Continuous
 62
     7
370
    25
100
AcDbLine
 10
113.344803303
 20
207.1944414812
 30
0.0
 11
110.5734929643
 21
206.745800443
 31
0.0
  0
LINE
  5
209
330
1F
100
AcDbEntity
  8
0
  6
Continuous
 62
     7
370
    25
100
AcDbLine
 10
113.344803303
 20
207.1944414812
 30
0.0
 11
113.5454615632
 21
207.0496702159
 31
0.0
  0
LINE
  5
20A
330
1F
100
AcDbEntity
  8
0
  6
Continuous
 62
     7
370
    25
100
AcDbLine
 10
113.5454615632
 20
207.0496702159
 30
0.0
 11
110.7742143465
 21
206.6010393964
 31
0.0
  0
LINE
  5
20B
330
1F
100
AcDbEntity
  8
0
  6
Continuous
 62
     7
370
    25
100
AcDbLine
 10
113.1669454589
 20
208.2944205106
 30
0.0
 11
113.344803303
 21
207.1944414812
 31
0.0
  0
LINE
  5
20C
330
1F
100
AcDbEntity
  8
0
  6
Continuous
 62
     7
370
    25
100
AcDbLine
 10
113.1669454589
 20
208.2944205106
 30
0.0
 11
113.3117459945
 21
208.4951067429
 31
0.0
  0
LINE
  5
20D
330
1F
100
AcDbEntity
  8
0
  6
Continuous
 62
     7
370
    25
100
AcDbLine
 10
113.3117459945
 20
208.4951067429
 30
0.0
 11
113.5454615632
 21
207.0496702159
 31
0.0
  0
LINE
  5
20E
330
1F
100
AcDbEntity
  8
0
  6
Continuous
 62
     7
370
    25
100
AcDbLine
 10
109.2739628069
 20
207.6644325048
 30
0.0
 11
113.1669454589
 21
208.2944205106
 31
0.0
  0
LINE
  5
20F
330
1F
100
AcDbEntity
  8
0
  6
Continuous
 62
     7
370
    25
100
AcDbLine
 10
109.2739628069
 20
207.6644325048
 30
0.0
 11
109.0732602968
 21
207.8092071664
 31
0.0
  0
LINE
  5
210
330
1F
100
AcDbEntity
  8
0
  6
Continuous
 62
     7
370
    25
100
AcDbLine
 10
109.0732602968
 20
207.8092071664
 30
0.0
 11
113.3117459945
 21
208.4951067429
 31
0.0
  0
LINE
  5
211
330
1F
100
AcDbEntity
  8
0
  6
Continuous
 62
     7
370
    25
100
AcDbLine
 10
114.3683326656
 20
200.8762119556
 30
0.0
 11
110.4753060287
 21
200.246216832
 31
0.0
  0
LINE
  5
212
330
1F
100
AcDbEntity
  8
0
  6
Continuous
 62
     7
370
    25
100
AcDbLine
 10
110.4753060287
 20
200.246216832
 30
0.0
 11
109.2739628069
 21
207.6644325048
 31
0.0
  0
LINE
  5
213
330
1F
100
AcDbEntity
  8
0
  6
Continuous
 62
     7
370
    25
100
AcDbLine
 10
116.6215888812
 20
208.8142852029
 30
0.0
 11
116.4257990701
 21
208.9656848109
 31
0.0
  0
LINE
  5
214
330
1F
100
AcDbEntity
  8
0
  6
Continuous
 62
     7
370
    25
100
AcDbLine
 10
117.5786376702
 20
201.3392734591
 30
0.0
 11
116.6215888812
 21
208.8142852029
 31
0.0
  0
LINE
  5
215
330
1F
100
AcDbEntity
  8
0
  6
Continuous
 62
     7
370
    25
100
AcDbLine
 10
117.5786376702
 20
201.3392734591
 30
0.0
 11
117.4272958759
 21
201.1435126601
 31
0.0
  0
LINE
  5
216
330
1F
100
AcDbEntity
  8
0
  6
Continuous
 62
     7
370
    25
100
AcDbLine
 10
117.4272958759
 20
201.1435126601
 30
0.0
 11
116.4257990701
 21
208.9656848109
 31
0.0
  0
LINE
  5
217
330
1F
100
AcDbEntity
  8
0
  6
Continuous
 62
     7
370
    25
100
AcDbLine
 10
120.8889442372
 20
201.7626900252
 30
0.0
 11
117.5786376702
 21
201.3392734591
 31
0.0
  0
LINE
  5
218
330
1F
100
AcDbEntity
  8
0
  6
Continuous
 62
     7
370
    25
100
AcDbLine
 10
120.8889442372
 20
201.7626900252
 30
0.0
 11
121.0847432435
 21
201.6113315083
 31
0.0
  0
LINE
  5
219
330
1F
100
AcDbEntity
  8
0
  6
Continuous
 62
     7
370
    25
100
AcDbLine
 10
121.0847432435
 20
201.6113315083
 30
0.0
 11
117.4272958759
 21
201.1435126601
 31
0.0
  0
LINE
  5
21A
330
1F
100
AcDbEntity
  8
0
  6
Continuous
 62
     7
370
    25
100
AcDbLine
 10
120.7514337121
 20
202.8360152697
 30
0.0
 11
120.8889442372
 21
201.7626900252
 31
0.0
  0
LINE
  5
21B
330
1F
100
AcDbEntity
  8
0
  6
Continuous
 62
     7
370
    25
100
AcDbLine
 10
120.7514337121
 20
202.8360152697
 30
0.0
 11
120.9027578371
 21
203.0318011831
 31
0.0
  0
LINE
  5
21C
330
1F
100
AcDbEntity
  8
0
  6
Continuous
 62
     7
370
    25
100
AcDbLine
 10
120.9027578371
 20
203.0318011831
 30
0.0
 11
121.0847432435
 21
201.6113315083
 31
0.0
  0
LINE
  5
21D
330
1F
100
AcDbEntity
  8
0
  6
Continuous
 62
     7
370
    25
100
AcDbLine
 10
118.5822435525
 20
202.5582150914
 30
0.0
 11
120.7514337121
 21
202.8360152697
 31
0.0
  0
LINE
  5
21E
330
1F
100
AcDbEntity
  8
0
  6
Continuous
 62
     7
370
    25
100
AcDbLine
 10
118.5822435525
 20
202.5582150914
 30
0.0
 11
118.7335850538
 21
202.7540032301
 31
0.0
  0
LINE
  5
21F
330
1F
100
AcDbEntity
  8
0
  6
Continuous
 62
     7
370
    25
100
AcDbLine
 10
118.7335850538
 20
202.7540032301
 30
0.0
 11
120.9027578371
 21
203.0318011831
 31
0.0
  0
LINE
  5
220
330
1F
100
AcDbEntity
  8
0
  6
Continuous
 62
     7
370
    25
100
AcDbLine
 10
117.7627236798
 20
208.9599837576
 30
0.0
 11
118.5822435525
 21
202.5582150914
 31
0.0
  0
LINE
  5
221
330
1F
100
AcDbEntity
  8
0
  6
Continuous
 62
     7
370
    25
100
AcDbLine
 10
117.7627236798
 20
208.9599837576
 30
0.0
 11
117.9140736544
 21
209.1557057061
 31
0.0
  0
LINE
  5
222
330
1F
100
AcDbEntity
  8
0
  6
Continuous
 62
     7
370
    25
100
AcDbLine
 10
117.9140736544
 20
209.1557057061
 30
0.0
 11
118.7335850538
 21
202.7540032301
 31
0.0
  0
LINE
  5
223
330
1F
100
AcDbEntity
  8
0
  6
Continuous
 62
     7
370
    25
100
AcDbLine
 10
116.6215888812
 20
208.8142852029
 30
0.0
 11
117.7627236798
 21
208.9599837576
 31
0.0
  0
LINE
  5
224
330
1F
100
AcDbEntity
  8
0
  6
Continuous
 62
     7
370
    25
100
AcDbLine
 10
116.4257990701
 20
208.9656848109
 30
0.0
 11
117.9140736544
 21
209.1557057061
 31
0.0
  0
LINE
  5
225
330
1F
100
AcDbEntity
  8
0
  6
Continuous
 62
     7
370
    25
100
AcDbLine
 10
123.2195801213
 20
209.6140915571
 30
0.0
 11
123.0291812786
 21
209.7721549575
 31
0.0
  0
LINE
  5
226
330
1F
100
AcDbEntity
  8
0
  6
Continuous
 62
     7
370
    25
100
AcDbLine
 10
123.9181019652
 20
202.0875723204
 30
0.0
 11
123.2195801213
 21
209.6140915571
 31
0.0
  0
LINE
  5
227
330
1F
100
AcDbEntity
  8
0
  6
Continuous
 62
     7
370
    25
100
AcDbLine
 10
123.9181019652
 20
202.0875723204
 30
0.0
 11
123.7600427666
 21
201.8971785391
 31
0.0
  0
LINE
  5
228
330
1F
100
AcDbEntity
  8
0
  6
Continuous
 62
     7
370
    25
100
AcDbLine
 10
123.7600427666
 20
201.8971785391
 30
0.0
 11
123.0291812786
 21
209.7721549575
 31
0.0
  0
LINE
  5
229
330
1F
100
AcDbEntity
  8
0
  6
Continuous
 62
     7
370
    25
100
AcDbLine
 10
127.8682895018
 20
202.4540757506
 30
0.0
 11
123.9181019652
 21
202.0875723204
 31
0.0
  0
LINE
  5
22A
330
1F
100
AcDbEntity
  8
0
  6
Continuous
 62
     7
370
    25
100
AcDbLine
 10
127.8682895018
 20
202.4540757506
 30
0.0
 11
128.0586496373
 21
202.2960087589
 31
0.0
  0
LINE
  5
22B
330
1F
100
AcDbEntity
  8
0
  6
Continuous
 62
     7
370
    25
100
AcDbLine
 10
128.0586496373
 20
202.2960087589
 30
0.0
 11
123.7600427666
 21
201.8971785391
 31
0.0
  0
LINE
  5
22C
330
1F
100
AcDbEntity
  8
0
  6
Continuous
 62
     7
370
    25
100
AcDbLine
 10
127.7641926403
 20
203.5784262481
 30
0.0
 11
127.8682895018
 21
202.4540757506
 31
0.0
  0
LINE
  5
22D
330
1F
100
AcDbEntity
  8
0
  6
Continuous
 62
     7
370
    25
100
AcDbLine
 10
127.7641926403
 20
203.5784262481
 30
0.0
 11
127.9222933954
 21
203.7687929161
 31
0.0
  0
LINE
  5
22E
330
1F
100
AcDbEntity
  8
0
  6
Continuous
 62
     7
370
    25
100
AcDbLine
 10
127.9222933954
 20
203.7687929161
 30
0.0
 11
128.0586496373
 21
202.2960087589
 31
0.0
  0
LINE
  5
22F
330
1F
100
AcDbEntity
  8
0
  6
Continuous
 62
     7
370
    25
100
AcDbLine
 10
124.9546424795
 20
203.3182519372
 30
0.0
 11
127.7641926403
 21
203.5784262481
 31
0.0
  0
LINE
  5
230
330
1F
100
AcDbEntity
  8
0
  6
Continuous
 62
     7
370
    25
100
AcDbLine
 10
124.9546424795
 20
203.3182519372
 30
0.0
 11
125.1126796923
 21
203.5086127209
 31
0.0
  0
LINE
  5
231
330
1F
100
AcDbEntity
  8
0
  6
Continuous
 62
     7
370
    25
100
AcDbLine
 10
125.1126796923
 20
203.5086127209
 30
0.0
 11
127.9222933954
 21
203.7687929161
 31
0.0
  0
LINE
  5
232
330
1F
100
AcDbEntity
  8
0
  6
Continuous
 62
     7
370
    25
100
AcDbLine
 10
124.7296812565
 20
205.7384417155
 30
0.0
 11
124.9546424795
 21
203.3182519372
 31
0.0
  0
LINE
  5
233
330
1F
100
AcDbEntity
  8
0
  6
Continuous
 62
     7
370
    25
100
AcDbLine
 10
124.7296812565
 20
205.7384417155
 30
0.0
 11
124.9201077972
 21
205.5803499114
 31
0.0
  0
LINE
  5
234
330
1F
100
AcDbEntity
  8
0
  6
Continuous
 62
     7
370
    25
100
AcDbLine
 10
124.9201077972
 20
205.5803499114
 30
0.0
 11
125.1126796923
 21
203.5086127209
 31
0.0
  0
LINE
  5
235
330
1F
100
AcDbEntity
  8
0
  6
Continuous
 62
     7
370
    25
100
AcDbLine
 10
127.5392921762
 20
205.998621653
 30
0.0
 11
124.7296812565
 21
205.7384417155
 31
0.0
  0
LINE
  5
236
330
1F
100
AcDbEntity
  8
0
  6
Continuous
 62
     7
370
    25
100
AcDbLine
 10
127.5392921762
 20
205.998621653
 30
0.0
 11
127.7297215003
 21
205.8405301066
 31
0.0
  0
LINE
  5
237
330
1F
100
AcDbEntity
  8
0
  6
Continuous
 62
     7
370
    25
100
AcDbLine
 10
127.7297215003
 20
205.8405301066
 30
0.0
 11
124.9201077972
 21
205.5803499114
 31
0.0
  0
LINE
  5
238
330
1F
100
AcDbEntity
  8
0
  6
Continuous
 62
     7
370
    25
100
AcDbLine
 10
127.4378641374
 20
207.0896211038
 30
0.0
 11
127.5392921762
 21
205.998621653
 31
0.0
  0
LINE
  5
239
330
1F
100
AcDbEntity
  8
0
  6
Continuous
 62
     7
370
    25
100
AcDbLine
 10
127.4378641374
 20
207.0896211038
 30
0.0
 11
127.5958985687
 21
207.2799816299
 31
0.0
  0
LINE
  5
23A
330
1F
100
AcDbEntity
  8
0
  6
Continuous
 62
     7
370
    25
100
AcDbLine
 10
127.5958985687
 20
207.2799816299
 30
0.0
 11
127.7297215003
 21
205.8405301066
 31
0.0
  0
LINE
  5
23B
330
1F
100
AcDbEntity
  8
0
  6
Continuous
 62
     7
370
    25
100
AcDbLine
 10
124.6283285885
 20
206.8294481459
 30
0.0
 11
127.4378641374
 21
207.0896211038
 31
0.0
  0
LINE
  5
23C
330
1F
100
AcDbEntity
  8
0
  6
Continuous
 62
     7
370
    25
100
AcDbLine
 10
124.6283285885
 20
206.8294481459
 30
0.0
 11
124.7862848656
 21
207.0198014347
 31
0.0
  0
LINE
  5
23D
330
1F
100
AcDbEntity
  8
0
  6
Continuous
 62
     7
370
    25
100
AcDbLine
 10
124.7862848656
 20
207.0198014347
 30
0.0
 11
127.5958985687
 21
207.2799816299
 31
0.0
  0
LINE
  5
23E
330
1F
100
AcDbEntity
  8
0
  6
Continuous
 62
     7
370
    25
100
AcDbLine
 10
124.4627637127
 20
208.601698069
 30
0.0
 11
124.6283285885
 21
206.8294481459
 31
0.0
  0
LINE
  5
23F
330
1F
100
AcDbEntity
  8
0
  6
Continuous
 62
     7
370
    25
100
AcDbLine
 10
124.4627637127
 20
208.601698069
 30
0.0
 11
124.6532712826
 21
208.4436137685
 31
0.0
  0
LINE
  5
240
330
1F
100
AcDbEntity
  8
0
  6
Continuous
 62
     7
370
    25
100
AcDbLine
 10
124.6532712826
 20
208.4436137685
 30
0.0
 11
124.7862848656
 21
207.0198014347
 31
0.0
  0
LINE
  5
241
330
1F
100
AcDbEntity
  8
0
  6
Continuous
 62
     7
370
    25
100
AcDbLine
 10
127.2726093052
 20
208.861899738
 30
0.0
 11
124.4627637127
 21
208.601698069
 31
0.0
  0
LINE
  5
242
330
1F
100
AcDbEntity
  8
0
  6
Continuous
 62
     7
370
    25
100
AcDbLine
 10
127.2726093052
 20
208.861899738
 30
0.0
 11
127.4628849857
 21
208.7037939637
 31
0.0
  0
LINE
  5
243
330
1F
100
AcDbEntity
  8
0
  6
Continuous
 62
     7
370
    25
100
AcDbLine
 10
127.4628849857
 20
208.7037939637
 30
0.0
 11
124.6532712826
 21
208.4436137685
 31
0.0
  0
LINE
  5
244
330
1F
100
AcDbEntity
  8
0
  6
Continuous
 62
     7
370
    25
100
AcDbLine
 10
127.1696028788
 20
209.9805796989
 30
0.0
 11
127.2726093052
 21
208.861899738
 31
0.0
  0
LINE
  5
245
330
1F
100
AcDbEntity
  8
0
  6
Continuous
 62
     7
370
    25
100
AcDbLine
 10
127.1696028788
 20
209.9805796989
 30
0.0
 11
127.3277881493
 21
210.1709851772
 31
0.0
  0
LINE
  5
246
330
1F
100
AcDbEntity
  8
0
  6
Continuous
 62
     7
370
    25
100
AcDbLine
 10
127.3277881493
 20
210.1709851772
 30
0.0
 11
127.4628849857
 21
208.7037939637
 31
0.0
  0
LINE
  5
247
330
1F
100
AcDbEntity
  8
0
  6
Continuous
 62
     7
370
    25
100
AcDbLine
 10
123.2195801213
 20
209.6140915571
 30
0.0
 11
127.1696028788
 21
209.9805796989
 31
0.0
  0
LINE
  5
248
330
1F
100
AcDbEntity
  8
0
  6
Continuous
 62
     7
370
    25
100
AcDbLine
 10
123.0291812786
 20
209.7721549575
 30
0.0
 11
127.3277881493
 21
210.1709851772
 31
0.0
  0
LINE
  5
249
330
1F
100
AcDbEntity
  8
0
  6
Continuous
 62
     7
370
    25
100
AcDbLine
 10
129.9180695644
 20
209.0259699284
 30
0.0
 11
129.8516813994
 21
210.1491643609
 31
0.0
  0
LINE
  5
24A
330
1F
100
AcDbEntity
  8
0
  6
Continuous
 62
     7
370
    25
100
AcDbLine
 10
129.9180695644
 20
209.0259699284
 30
0.0
 11
129.7537256225
 21
208.8409013517
 31
0.0
  0
LINE
  5
24B
330
1F
100
AcDbEntity
  8
0
  6
Continuous
 62
     7
370
    25
100
AcDbLine
 10
129.7537256225
 20
208.8409013517
 30
0.0
 11
129.6666859964
 21
210.313489479
 31
0.0
  0
LINE
  5
24C
330
1F
100
AcDbEntity
  8
0
  6
Continuous
 62
     7
370
    25
100
AcDbLine
 10
131.3124186324
 20
209.1089602456
 30
0.0
 11
129.9180695644
 21
209.0259699284
 31
0.0
  0
LINE
  5
24D
330
1F
100
AcDbEntity
  8
0
  6
Continuous
 62
     7
370
    25
100
AcDbLine
 10
131.1481178022
 20
208.923894235
 30
0.0
 11
129.7537256225
 21
208.8409013517
 31
0.0
  0
LINE
  5
24E
330
1F
100
AcDbEntity
  8
0
  6
Continuous
 62
     7
370
    25
100
AcDbLine
 10
174.9623101502
 20
210.9949242253
 30
0.0
 11
176.1753128622
 21
210.8158725337
 31
0.0
  0
LINE
  5
24F
330
1F
100
AcDbEntity
  8
0
  6
Continuous
 62
     7
370
    25
100
AcDbLine
 10
176.1753128622
 20
210.8158725337
 30
0.0
 11
174.3082371366
 21
209.3264096949
 31
0.0
  0
LINE
  5
250
330
1F
100
AcDbEntity
  8
0
  6
Continuous
 62
     7
370
    25
100
AcDbLine
 10
174.3082371366
 20
209.3264096949
 30
0.0
 11
173.6553137042
 21
209.4235442708
 31
0.0
  0
LINE
  5
251
330
1F
100
AcDbEntity
  8
0
  6
Continuous
 62
     7
370
    25
100
AcDbLine
 10
173.6553137042
 20
209.4235442708
 30
0.0
 11
174.9623101502
 21
210.9949242253
 31
0.0
  0
LINE
  5
252
330
1F
100
AcDbEntity
  8
0
  6
Continuous
 62
     7
370
    25
100
AcDbLine
 10
132.8576578856
 20
202.7984868707
 30
0.0
 11
131.6910423944
 21
202.7299021776
 31
0.0
  0
LINE
  5
253
330
1F
100
AcDbEntity
  8
0
  6
Continuous
 62
     7
370
    25
100
AcDbLine
 10
132.8576578856
 20
202.7984868707
 30
0.0
 11
133.0427010352
 21
202.6340860127
 31
0.0
  0
LINE
  5
254
330
1F
100
AcDbEntity
  8
0
  6
Continuous
 62
     7
370
    25
100
AcDbLine
 10
133.0427010352
 20
202.6340860127
 30
0.0
 11
131.5267340282
 21
202.5449631331
 31
0.0
  0
LINE
  5
255
330
1F
100
AcDbEntity
  8
0
  6
Continuous
 62
     7
370
    25
100
AcDbLine
 10
132.4790484122
 20
209.1773042028
 30
0.0
 11
132.8576578856
 21
202.7984868707
 31
0.0
  0
LINE
  5
256
330
1F
100
AcDbEntity
  8
0
  6
Continuous
 62
     7
370
    25
100
AcDbLine
 10
132.6640848092
 20
209.0130171145
 30
0.0
 11
133.0427010352
 21
202.6340860127
 31
0.0
  0
LINE
  5
257
330
1F
100
AcDbEntity
  8
0
  6
Continuous
 62
     7
370
    25
100
AcDbLine
 10
133.841907608
 20
210.3855417768
 30
0.0
 11
133.9083007502
 21
209.2622631369
 31
0.0
  0
LINE
  5
258
330
1F
100
AcDbEntity
  8
0
  6
Continuous
 62
     7
370
    25
100
AcDbLine
 10
134.0062544306
 20
210.5705616145
 30
0.0
 11
134.0932940568
 21
209.0979734873
 31
0.0
  0
LINE
  5
259
330
1F
100
AcDbEntity
  8
0
  6
Continuous
 62
     7
370
    25
100
AcDbLine
 10
160.1107727367
 20
210.0844184189
 30
0.0
 11
159.9503635227
 21
210.2728784324
 31
0.0
  0
LINE
  5
25A
330
1F
100
AcDbEntity
  8
0
  6
Continuous
 62
     7
370
    25
100
AcDbLine
 10
159.5045496615
 20
202.5338637687
 30
0.0
 11
160.1107727367
 21
210.0844184189
 31
0.0
  0
LINE
  5
25B
330
1F
100
AcDbEntity
  8
0
  6
Continuous
 62
     7
370
    25
100
AcDbLine
 10
159.5045496615
 20
202.5338637687
 30
0.0
 11
159.3161332213
 21
202.3734916424
 31
0.0
  0
LINE
  5
25C
330
1F
100
AcDbEntity
  8
0
  6
Continuous
 62
     7
370
    25
100
AcDbLine
 10
159.3161332213
 20
202.3734916424
 30
0.0
 11
159.9503635227
 21
210.2728784324
 31
0.0
  0
ARC
  5
25D
330
1F
100
AcDbEntity
  8
0
  6
Continuous
 62
     7
370
    25
100
AcDbCircle
 10
80.7210111338
 20
192.4077255561
 30
0.0
 40
0.5000000000000239
100
AcDbArc
 50
18.5
 51
159.9421629566
  0
ARC
  5
25E
330
1F
100
AcDbEntity
  8
0
  6
Continuous
 62
     7
370
    25
100
AcDbCircle
 10
83.3662576871
 20
192.3807802209
 30
0.0
 40
1.999999999999983
100
AcDbArc
 50
198.5
 51
287.9197796576
  0
ARC
  5
25F
330
1F
100
AcDbEntity
  8
0
  6
Continuous
 62
     7
370
    25
100
AcDbCircle
 10
144.1340667226
 20
4.4618525286
 30
0.0
 40
195.5000000000001
100
AcDbArc
 50
72.5802203424
 51
107.9197796576
  0
LINE
  5
260
330
1F
100
AcDbEntity
  8
0
  6
Continuous
 62
     7
370
    25
100
AcDbLine
 10
205.1617937454
 20
192.2858832979
 30
0.0
 11
205.4380309217
 21
193.1360539079
 31
0.0
  0
ARC
  5
261
330
1F
100
AcDbEntity
  8
0
  6
Continuous
 62
     7
370
    25
100
AcDbCircle
 10
205.9135591799
 20
192.9815454107
 30
0.0
 40
0.5000000000000107
100
AcDbArc
 50
20.2990116441
 51
162.0
  0
LINE
  5
262
330
1F
100
AcDbEntity
  8
0
  6
Continuous
 62
     7
370
    25
100
AcDbLine
 10
214.0121032264
 20
186.500361287
 30
0.0
 11
214.9968836083
 21
189.0658018912
 31
0.0
  0
ARC
  5
263
330
1F
100
AcDbEntity
  8
0
  6
Continuous
 62
     7
370
    25
100
AcDbCircle
 10
212.1449423734
 20
187.2170971861
 30
0.0
 40
2.000000000000023
100
AcDbArc
 50
249.5906886028
 51
339.0
  0
ARC
  5
264
330
1F
100
AcDbEntity
  8
0
  6
Continuous
 62
     7
370
    25
100
AcDbCircle
 10
144.1436912631
 20
4.4581580137
 30
0.0
 40
193.0
100
AcDbArc
 50
69.5906886028
 51
110.9093113972
  0
ARC
  5
265
330
1F
100
AcDbEntity
  8
0
  6
Continuous
 62
     7
370
    25
100
AcDbCircle
 10
74.5501770617
 20
186.6167229539
 30
0.0
 40
2.000000000000025
100
AcDbArc
 50
201.5
 51
290.9093113972
  0
LINE
  5
266
330
1F
100
AcDbEntity
  8
0
  6
Continuous
 62
     7
370
    25
100
AcDbLine
 10
71.6822116327
 20
188.4404696996
 30
0.0
 11
72.6893419257
 21
185.8837205005
 31
0.0
  0
ARC
  5
267
330
1F
100
AcDbEntity
  8
0
  6
Continuous
 62
     7
370
    25
100
AcDbCircle
 10
203.2596807128
 20
192.9039172867
 30
0.0
 40
1.999999999999989
100
AcDbArc
 50
252.5802203424
 51
342.0
  0
LINE
  5
268
330
1F
100
AcDbEntity
  8
0
  6
Continuous
 62
     7
370
    25
100
AcDbLine
 10
81.1951729614
 20
192.5663778843
 30
0.0
 11
81.4696103766
 21
191.7461709081
 31
0.0
  0
ARC
  5
269
330
1F
100
AcDbEntity
  8
0
  6
Continuous
 62
     7
370
    25
100
AcDbCircle
 10
72.1474204167
 20
188.623720313
 30
0.0
 40
0.500000000000009
100
AcDbArc
 50
67.6869385396
 51
201.5
  0
ARC
  5
26A
330
1F
100
AcDbEntity
  8
0
  6
Continuous
 62
     7
370
    25
100
AcDbCircle
 10
214.5300933951
 20
189.244985866
 30
0.0
 40
0.5000000000000282
100
AcDbArc
 50
339.0
 51
112.8130614604
  0
ARC
  5
26B
330
1F
100
AcDbEntity
  8
0
  6
Continuous
 62
     7
370
    25
100
AcDbCircle
 10
74.6152563428
 20
194.6370210573
 30
0.0
 40
6.000000000000005
100
AcDbArc
 50
247.6869385396
 51
339.9421629566
  0
ARC
  5
26C
330
1F
100
AcDbEntity
  8
0
  6
Continuous
 62
     7
370
    25
100
AcDbCircle
 10
212.0098761542
 20
195.2365219844
 30
0.0
 40
6.000000000000012
100
AcDbArc
 50
200.2990116441
 51
292.8130614604
  0
LINE
  5
26D
330
1F
100
AcDbEntity
  8
0
  6
Continuous
 62
     7
370
    25
100
AcDbLine
 10
166.5873119005
 20
208.2800809983
 30
0.0
 11
166.7426906481
 21
208.0875482782
 31
0.0
  0
LINE
  5
26E
330
1F
100
AcDbEntity
  8
0
  6
Continuous
 62
     7
370
    25
100
AcDbLine
 10
168.0125553454
 20
208.1281447676
 30
0.0
 11
166.5873119005
 21
208.2800809983
 31
0.0
  0
LINE
  5
26F
330
1F
100
AcDbEntity
  8
0
  6
Continuous
 62
     7
370
    25
100
AcDbLine
 10
168.0125553454
 20
208.1281447676
 30
0.0
 11
168.1678311141
 21
207.9356230254
 31
0.0
  0
LINE
  5
270
330
1F
100
AcDbEntity
  8
0
  6
Continuous
 62
     7
370
    25
100
AcDbLine
 10
168.1678311141
 20
207.9356230254
 30
0.0
 11
166.7426906481
 21
208.0875482782
 31
0.0
  0
LINE
  5
271
330
1F
100
AcDbEntity
  8
0
  6
Continuous
 62
     7
370
    25
100
AcDbLine
 10
168.1329625678
 20
209.2473968313
 30
0.0
 11
168.3256651044
 21
209.402777701
 31
0.0
  0
LINE
  5
272
330
1F
100
AcDbEntity
  8
0
  6
Continuous
 62
     7
370
    25
100
AcDbLine
 10
164.1584773543
 20
209.6721209729
 30
0.0
 11
168.1329625678
 21
209.2473968313
 31
0.0
  0
LINE
  5
273
330
1F
100
AcDbEntity
  8
0
  6
Continuous
 62
     7
370
    25
100
AcDbLine
 10
164.1584773543
 20
209.6721209729
 30
0.0
 11
164.0032063739
 21
209.8646872253
 31
0.0
  0
LINE
  5
274
330
1F
100
AcDbEntity
  8
0
  6
Continuous
 62
     7
370
    25
100
AcDbLine
 10
164.0032063739
 20
209.8646872253
 30
0.0
 11
168.3256651044
 21
209.402777701
 31
0.0
  0
LINE
  5
275
330
1F
100
AcDbEntity
  8
0
  6
Continuous
 62
     7
370
    25
100
AcDbLine
 10
110.4753060287
 20
200.246216832
 30
0.0
 11
110.3305480802
 21
200.0455374914
 31
0.0
  0
LINE
  5
276
330
1F
100
AcDbEntity
  8
0
  6
Continuous
 62
     7
370
    25
100
AcDbLine
 10
114.5690337779
 20
200.7314370679
 30
0.0
 11
110.3305480802
 21
200.0455374914
 31
0.0
  0
LINE
  5
277
330
1F
100
AcDbEntity
  8
0
  6
Continuous
 62
     7
370
    25
100
AcDbLine
 10
171.6480763998
 20
202.8195843224
 30
0.0
 11
171.7402054598
 21
202.6291560581
 31
0.0
  0
LINE
  5
278
330
1F
100
AcDbEntity
  8
0
  6
Continuous
 62
     7
370
    25
100
AcDbLine
 10
175.0594116704
 20
202.3173195097
 30
0.0
 11
171.6480763998
 21
202.8195843224
 31
0.0
  0
LINE
  5
279
330
1F
100
AcDbEntity
  8
0
  6
Continuous
 62
     7
370
    25
100
AcDbLine
 10
175.0594116704
 20
202.3173195097
 30
0.0
 11
174.9143470356
 21
202.161814241
 31
0.0
  0
LINE
  5
27A
330
1F
100
AcDbEntity
  8
0
  6
Continuous
 62
     7
370
    25
100
AcDbLine
 10
174.9143470356
 20
202.161814241
 30
0.0
 11
171.7402054598
 21
202.6291560581
 31
0.0
  0
LINE
  5
27B
330
1F
100
AcDbEntity
  8
0
  6
Continuous
 62
     7
370
    25
100
AcDbLine
 10
144.9817543015
 20
210.6641639263
 30
0.0
 11
144.8079760418
 21
210.8403619701
 31
0.0
  0
LINE
  5
27C
330
1F
100
AcDbEntity
  8
0
  6
Continuous
 62
     7
370
    25
100
AcDbLine
 10
144.930287541
 20
203.1269760906
 30
0.0
 11
144.9817543015
 21
210.6641639263
 31
0.0
  0
LINE
  5
27D
330
1F
100
AcDbEntity
  8
0
  6
Continuous
 62
     7
370
    25
100
AcDbLine
 10
144.930287541
 20
203.1269760906
 30
0.0
 11
144.7541197147
 21
202.9532276335
 31
0.0
  0
LINE
  5
27E
330
1F
100
AcDbEntity
  8
0
  6
Continuous
 62
     7
370
    25
100
AcDbLine
 10
144.7541197147
 20
202.9532276335
 30
0.0
 11
144.8079760418
 21
210.8403619701
 31
0.0
  0
LINE
  5
27F
330
1F
100
AcDbEntity
  8
0
  6
Continuous
 62
     7
370
    25
100
AcDbLine
 10
146.0717154009
 20
203.1189862128
 30
0.0
 11
144.930287541
 21
203.1269760906
 31
0.0
  0
LINE
  5
280
330
1F
100
AcDbEntity
  8
0
  6
Continuous
 62
     7
370
    25
100
AcDbLine
 10
146.0717154009
 20
203.1189862128
 30
0.0
 11
146.2454936605
 21
202.942788169
 31
0.0
  0
LINE
  5
281
330
1F
100
AcDbEntity
  8
0
  6
Continuous
 62
     7
370
    25
100
AcDbLine
 10
146.2454936605
 20
202.942788169
 30
0.0
 11
144.7541197147
 21
202.9532276335
 31
0.0
  0
LINE
  5
282
330
1F
100
AcDbEntity
  8
0
  6
Continuous
 62
     7
370
    25
100
AcDbLine
 10
146.1231821614
 20
210.6561740485
 30
0.0
 11
146.0717154009
 21
203.1189862128
 31
0.0
  0
LINE
  5
283
330
1F
100
AcDbEntity
  8
0
  6
Continuous
 62
     7
370
    25
100
AcDbLine
 10
146.1231821614
 20
210.6561740485
 30
0.0
 11
146.2993499877
 21
210.8299225057
 31
0.0
  0
LINE
  5
284
330
1F
100
AcDbEntity
  8
0
  6
Continuous
 62
     7
370
    25
100
AcDbLine
 10
146.2993499877
 20
210.8299225057
 30
0.0
 11
146.2454936605
 21
202.942788169
 31
0.0
  0
LINE
  5
285
330
1F
100
AcDbEntity
  8
0
  6
Continuous
 62
     7
370
    25
100
AcDbLine
 10
144.9817543015
 20
210.6641639263
 30
0.0
 11
146.1231821614
 21
210.6561740485
 31
0.0
  0
LINE
  5
286
330
1F
100
AcDbEntity
  8
0
  6
Continuous
 62
     7
370
    25
100
AcDbLine
 10
144.8079760418
 20
210.8403619701
 30
0.0
 11
146.2993499877
 21
210.8299225057
 31
0.0
  0
SPLINE
  5
287
330
1F
100
AcDbEntity
  8
0
  6
Continuous
 62
     7
370
    25
100
AcDbSpline
210
0.0
220
0.0
230
1.0
 70
     8
 71
     3
 72
    32
 73
    28
 74
     0
 42
0.00000001
 43
0.00000001
 40
0.0004155444174613
 40
0.0004155444174613
 40
0.0004155444174613
 40
0.0004155444174613
 40
0.0625
 40
0.0625
 40
0.125
 40
0.125
 40
0.1875
 40
0.1875
 40
0.25
 40
0.25
 40
0.3125
 40
0.3125
 40
0.375
 40
0.375
 40
0.5
 40
0.5
 40
0.625
 40
0.625
 40
0.75
 40
0.75
 40
0.8125
 40
0.8125
 40
0.875
 40
0.875
 40
0.9375
 40
0.9375
 40
0.9995115838190317
 40
0.9995115838190317
 40
0.9995115838190317
 40
0.9995115838190317
 10
153.1706354252826
 20
202.6835120472022
 30
0.0
 10
153.0344120554314
 20
202.6921664178087
 30
0.0
 10
152.9010265646755
 20
202.7007519350223
 30
0.0
 10
152.6404426238639
 20
202.7302174651872
 30
0.0
 10
152.5108617502547
 20
202.7519681804161
 30
0.0
 10
152.2513484837785
 20
202.8068039126889
 30
0.0
 10
152.1226981371443
 20
202.8392874761572
 30
0.0
 10
151.8713405457081
 20
202.9163342082144
 30
0.0
 10
151.7479058635401
 20
202.9613707354834
 30
0.0
 10
151.5051733890496
 20
203.0637414550604
 30
0.0
 10
151.3864433958383
 20
203.1206227535178
 30
0.0
 10
151.157976465182
 20
203.246935719802
 30
0.0
 10
151.0474774686379
 20
203.3170280883299
 30
0.0
 10
150.72627852115
 20
203.5452381188547
 30
0.0
 10
150.5279481676079
 20
203.7196940258549
 30
0.0
 10
150.1715111562665
 20
204.1057644694999
 30
0.0
 10
150.0115347094009
 20
204.3175419934971
 30
0.0
 10
149.7429812750489
 20
204.7665690857409
 30
0.0
 10
149.6358664442941
 20
205.0063654886703
 30
0.0
 10
149.5110117706893
 20
205.381622834105
 30
0.0
 10
149.4756034667031
 20
205.5081273939156
 30
0.0
 10
149.4187786401792
 20
205.7642513461063
 30
0.0
 10
149.3969936941944
 20
205.8945951092262
 30
0.0
 10
149.3648367245476
 20
206.1570276517018
 30
0.0
 10
149.354766614087
 20
206.2881338662577
 30
0.0
 10
149.3481218000032
 20
206.5504967762692
 30
0.0
 10
149.351003920497
 20
206.6840331409904
 30
0.0
 10
149.3540606465229
 20
206.8203163294123
 30
0.0
  0
LWPOLYLINE
  5
288
330
1F
100
AcDbEntity
  8
0
  6
Continuous
 62
     7
370
    25
100
AcDbPolyline
 90
        4
 70
   128
 43
0.0
 10
153.1706354253
 20
202.6835120472
 10
153.1681283728
 20
202.6310720953
 10
153.1656213047
 20
202.5786321485
 10
153.1622785657
 20
202.5087128886
  0
SPLINE
  5
289
330
1F
100
AcDbEntity
  8
0
  6
Continuous
 62
     7
370
    25
100
AcDbSpline
210
0.0
220
0.0
230
1.0
 70
     8
 71
     3
 72
    32
 73
    28
 74
     0
 42
0.00000001
 43
0.00000001
 40
0.0
 40
0.0
 40
0.0
 40
0.0
 40
0.0625
 40
0.0625
 40
0.125
 40
0.125
 40
0.1875
 40
0.1875
 40
0.25
 40
0.25
 40
0.3125
 40
0.3125
 40
0.375
 40
0.375
 40
0.5
 40
0.5
 40
0.625
 40
0.625
 40
0.75
 40
0.75
 40
0.8125
 40
0.8125
 40
0.875
 40
0.875
 40
0.9375
 40
0.9375
 40
1.0
 40
1.0
 40
1.0
 40
1.0
 10
153.1622785656987
 20
202.5087128885552
 30
0.0
 10
153.0251080876201
 20
202.5174262080056
 30
0.0
 10
152.8879376105072
 20
202.526139567101
 30
0.0
 10
152.6150802247845
 20
202.5569929194267
 30
0.0
 10
152.4794187248132
 20
202.5797712409596
 30
0.0
 10
152.2104428003497
 20
202.6366064534564
 30
0.0
 10
152.0770712354245
 20
202.6702602437701
 30
0.0
 10
151.8144083867428
 20
202.7507722910461
 30
0.0
 10
151.6851752382508
 20
202.7979247647137
 30
0.0
 10
151.4319125974687
 20
202.9047365079117
 30
0.0
 10
151.3077807206496
 20
202.964173890197
 30
0.0
 10
151.0673145406454
 20
203.0971209061111
 30
0.0
 10
150.9510976084852
 20
203.1708600821675
 30
0.0
 10
150.615002983837
 20
203.4096534060857
 30
0.0
 10
150.4075814279674
 20
203.5921208526318
 30
0.0
 10
150.0347513534725
 20
203.9959472446347
 30
0.0
 10
149.8681515798235
 20
204.2163830873895
 30
0.0
 10
149.5860264574652
 20
204.6881023327019
 30
0.0
 10
149.4733749608518
 20
204.9404934882116
 30
0.0
 10
149.3432144369793
 20
205.3316978496082
 30
0.0
 10
149.306122081117
 20
205.4641783176928
 30
0.0
 10
149.2466129624231
 20
205.7324010553231
 30
0.0
 10
149.2239540724061
 20
205.8681011099413
 30
0.0
 10
149.1905196941997
 20
206.1409585666823
 30
0.0
 10
149.1799864980212
 20
206.2781318052322
 30
0.0
 10
149.1730333805975
 20
206.5526676351785
 30
0.0
 10
149.1761164767152
 20
206.6900650264294
 30
0.0
 10
149.1791996113361
 20
206.8274624154488
 30
0.0
  0
SPLINE
  5
28A
330
1F
100
AcDbEntity
  8
0
  6
Continuous
 62
     7
370
    25
100
AcDbSpline
210
0.0
220
0.0
230
1.0
 70
     8
 71
     3
 72
    32
 73
    28
 74
     0
 42
0.00000001
 43
0.00000001
 40
0.0458233125109281
 40
0.0458233125109281
 40
0.0458233125109281
 40
0.0458233125109281
 40
0.125
 40
0.125
 40
0.1875
 40
0.1875
 40
0.25
 40
0.25
 40
0.375
 40
0.375
 40
0.4375
 40
0.4375
 40
0.5
 40
0.5
 40
0.5625
 40
0.5625
 40
0.625
 40
0.625
 40
0.6875
 40
0.6875
 40
0.75
 40
0.75
 40
0.875
 40
0.875
 40
0.9375
 40
0.9375
 40
0.999287749473434
 40
0.999287749473434
 40
0.999287749473434
 40
0.999287749473434
 10
156.3942586348955
 20
203.8820429220609
 30
0.0
 10
156.3186415136664
 20
203.8166645016265
 30
0.0
 10
156.2431566447585
 20
203.7530119138245
 30
0.0
 10
156.1048864644373
 20
203.6430248827652
 30
0.0
 10
156.043083005027
 20
203.5959177285291
 30
0.0
 10
155.9168747201365
 20
203.5030326868249
 30
0.0
 10
155.8524773945659
 20
203.4569628882326
 30
0.0
 10
155.6597287013907
 20
203.3231432816867
 30
0.0
 10
155.5295829151438
 20
203.2404805947439
 30
0.0
 10
155.3280131659972
 20
203.127016190296
 30
0.0
 10
155.260217357213
 20
203.0912403210288
 30
0.0
 10
155.1223470258743
 20
203.0237859795788
 30
0.0
 10
155.0521327149083
 20
202.9918538451452
 30
0.0
 10
154.9114084557567
 20
202.9331953608879
 30
0.0
 10
154.8409317069489
 20
202.9068408106424
 30
0.0
 10
154.696293561303
 20
202.8587477493101
 30
0.0
 10
154.6225929459231
 20
202.8369229658121
 30
0.0
 10
154.4738311405279
 20
202.7972374435743
 30
0.0
 10
154.398810642789
 20
202.7792830347776
 30
0.0
 10
154.2491998813414
 20
202.7485040838633
 30
0.0
 10
154.17388245555
 20
202.7356959696479
 30
0.0
 10
153.944829529112
 20
202.703024086111
 30
0.0
 10
153.7919541431203
 20
202.6901313495439
 30
0.0
 10
153.5575649500117
 20
202.6800092736508
 30
0.0
 10
153.4801755195375
 20
202.678007807799
 30
0.0
 10
153.3274093860628
 20
202.6785258890089
 30
0.0
 10
153.2498406292272
 20
202.6809688843848
 30
0.0
 10
153.1706354252814
 20
202.6835120472023
 30
0.0
  0
SPLINE
  5
28B
330
1F
100
AcDbEntity
  8
0
  6
Continuous
 62
     7
370
    25
100
AcDbSpline
210
0.0
220
0.0
230
1.0
 70
     8
 71
     3
 72
    11
 73
     7
 74
     0
 42
0.00000001
 43
0.00000001
 40
0.0
 40
0.0
 40
0.0
 40
0.0
 40
0.0010076524335454
 40
0.0010076524335454
 40
0.0010076524335454
 40
0.0020153050213257
 40
0.0020153050213257
 40
0.0020153050213257
 40
0.0020153050213257
 10
156.3942586348945
 20
203.88204292206
 30
0.0
 10
156.4355860631784
 20
203.8792251933758
 30
0.0
 10
156.4768455197069
 20
203.8764858999155
 30
0.0
 10
156.5180647612473
 20
203.8737930055975
 30
0.0
 10
156.5592840097139
 20
203.871100110827
 30
0.0
 10
156.6004628707209
 20
203.8684538162344
 30
0.0
 10
156.6416271983886
 20
203.865824289213
 30
0.0
  0
SPLINE
  5
28C
330
1F
100
AcDbEntity
  8
0
  6
Continuous
 62
     7
370
    25
100
AcDbSpline
210
0.0
220
0.0
230
1.0
 70
     8
 71
     3
 72
    32
 73
    28
 74
     0
 42
0.00000001
 43
0.00000001
 40
0.0
 40
0.0
 40
0.0
 40
0.0
 40
0.125
 40
0.125
 40
0.1875
 40
0.1875
 40
0.25
 40
0.25
 40
0.375
 40
0.375
 40
0.4375
 40
0.4375
 40
0.5
 40
0.5
 40
0.5625
 40
0.5625
 40
0.625
 40
0.625
 40
0.6875
 40
0.6875
 40
0.75
 40
0.75
 40
0.875
 40
0.875
 40
0.9375
 40
0.9375
 40
1.0
 40
1.0
 40
1.0
 40
1.0
 10
156.6416271983886
 20
203.865824289213
 30
0.0
 10
156.5212384697419
 20
203.7599165720923
 30
0.0
 10
156.4003225214436
 20
203.6544456877928
 30
0.0
 10
156.2120549990828
 20
203.5046882654278
 30
0.0
 10
156.1482751235979
 20
203.4560783901479
 30
0.0
 10
156.0191153311351
 20
203.3610211379764
 30
0.0
 10
155.9538859803034
 20
203.3143541602911
 30
0.0
 10
155.7562797688046
 20
203.1771621262727
 30
0.0
 10
155.6207983140317
 20
203.0910316443413
 30
0.0
 10
155.4111525505871
 20
202.9730212204064
 30
0.0
 10
155.3402107833024
 20
202.9355804807366
 30
0.0
 10
155.1961511959688
 20
202.8650979881037
 30
0.0
 10
155.1231136830532
 20
202.8318710866457
 30
0.0
 10
154.9750711710122
 20
202.7701621159926
 30
0.0
 10
154.8999220435685
 20
202.7420588822929
 30
0.0
 10
154.7477213095029
 20
202.6914512133268
 30
0.0
 10
154.6707935052758
 20
202.6686848703602
 30
0.0
 10
154.5158341484233
 20
202.6273460129796
 30
0.0
 10
154.4378057864103
 20
202.6086635971401
 30
0.0
 10
154.2807229952459
 20
202.5763474498676
 30
0.0
 10
154.2016331791209
 20
202.5629059073406
 30
0.0
 10
153.9634535601378
 20
202.5289322003902
 30
0.0
 10
153.8034907710436
 20
202.5154891453468
 30
0.0
 10
153.5631206691639
 20
202.5051087853262
 30
0.0
 10
153.4829324474228
 20
202.5030201260187
 30
0.0
 10
153.3225901481093
 20
202.503563898235
 30
0.0
 10
153.2424343558442
 20
202.5061383735447
 30
0.0
 10
153.1622785656987
 20
202.5087128885551
 30
0.0
  0
LINE
  5
28D
330
1F
100
AcDbEntity
  8
0
  6
Continuous
 62
     7
370
    25
100
AcDbLine
 10
173.6553137042
 20
209.4235442708
 30
0.0
 11
173.3218451102
 21
209.2962509222
 31
0.0
  0
LINE
  5
28E
330
1F
100
AcDbEntity
  8
0
  6
Continuous
 62
     7
370
    25
100
AcDbLine
 10
174.3082371366
 20
209.3264096949
 30
0.0
 11
174.3578205652
 21
209.1421301915
 31
0.0
  0
LINE
  5
28F
330
1F
100
AcDbEntity
  8
0
  6
Continuous
 62
     7
370
    25
100
AcDbLine
 10
174.3578205652
 20
209.1421301915
 30
0.0
 11
173.3218451102
 21
209.2962509222
 31
0.0
  0
LINE
  5
290
330
1F
100
AcDbEntity
  8
0
  6
Continuous
 62
     7
370
    25
100
AcDbLine
 10
110.3305480802
 20
200.0455374914
 30
0.0
 11
109.0732602968
 21
207.8092071664
 31
0.0
  0
LINE
  5
291
330
1F
100
AcDbEntity
  8
0
  6
Continuous
 62
     7
370
    25
100
AcDbLine
 10
174.0067130355
 20
206.9904628343
 30
0.0
 11
172.2254649967
 21
203.8573720412
 31
0.0
  0
LINE
  5
292
330
1F
100
AcDbEntity
  8
0
  6
Continuous
 62
     7
370
    25
100
AcDbLine
 10
172.2254649967
 20
203.8573720412
 30
0.0
 11
174.7988123183
 21
203.4777938306
 31
0.0
  0
LINE
  5
293
330
1F
100
AcDbEntity
  8
0
  6
Continuous
 62
     7
370
    25
100
AcDbLine
 10
174.7988123183
 20
203.4777938306
 30
0.0
 11
174.0067130355
 21
206.9904628343
 31
0.0
  0
LINE
  5
294
330
1F
100
AcDbEntity
  8
0
  6
Continuous
 62
     7
370
    25
100
AcDbLine
 10
173.5709533024
 20
208.4956081868
 30
0.0
 11
174.8353114025
 21
208.3084726789
 31
0.0
  0
LINE
  5
295
330
1F
100
AcDbEntity
  8
0
  6
Continuous
 62
     7
370
    25
100
AcDbLine
 10
174.8353114025
 20
208.3084726789
 30
0.0
 11
176.5980662097
 21
200.4533307375
 31
0.0
  0
LINE
  5
296
330
1F
100
AcDbEntity
  8
0
  6
Continuous
 62
     7
370
    25
100
AcDbLine
 10
176.5980662097
 20
200.4533307375
 30
0.0
 11
175.4300477365
 21
200.62517536
 31
0.0
  0
LINE
  5
297
330
1F
100
AcDbEntity
  8
0
  6
Continuous
 62
     7
370
    25
100
AcDbLine
 10
175.4300477365
 20
200.62517536
 30
0.0
 11
175.0594116704
 21
202.3173195097
 31
0.0
  0
LINE
  5
298
330
1F
100
AcDbEntity
  8
0
  6
Continuous
 62
     7
370
    25
100
AcDbLine
 10
171.6480763998
 20
202.8195843224
 30
0.0
 11
170.7782550323
 21
201.3123386741
 31
0.0
  0
LINE
  5
299
330
1F
100
AcDbEntity
  8
0
  6
Continuous
 62
     7
370
    25
100
AcDbLine
 10
170.7782550323
 20
201.3123386741
 30
0.0
 11
169.6086514814
 21
201.484416501
 31
0.0
  0
LINE
  5
29A
330
1F
100
AcDbEntity
  8
0
  6
Continuous
 62
     7
370
    25
100
AcDbLine
 10
169.6086514814
 20
201.484416501
 30
0.0
 11
173.5709533024
 21
208.4956081868
 31
0.0
  0
LINE
  5
29B
330
1F
100
AcDbEntity
  8
0
  6
Continuous
 62
     7
370
    25
100
AcDbLine
 10
173.5709533024
 20
208.4956081868
 30
0.0
 11
173.477728372
 21
208.6862897625
 31
0.0
  0
LINE
  5
29C
330
1F
100
AcDbEntity
  8
0
  6
Continuous
 62
     7
370
    25
100
AcDbLine
 10
169.6086514814
 20
201.484416501
 30
0.0
 11
169.3308147725
 21
201.3484322585
 31
0.0
  0
LINE
  5
29D
330
1F
100
AcDbEntity
  8
0
  6
Continuous
 62
     7
370
    25
100
AcDbLine
 10
169.3308147725
 20
201.3484322585
 30
0.0
 11
173.477728372
 21
208.6862897625
 31
0.0
  0
LINE
  5
29E
330
1F
100
AcDbEntity
  8
0
  6
Continuous
 62
     7
370
    25
100
AcDbLine
 10
156.6567077681
 20
209.0472126717
 30
0.0
 11
155.8221837129
 21
208.3188892221
 31
0.0
  0
LINE
  5
29F
330
1F
100
AcDbEntity
  8
0
  6
Continuous
 62
     7
370
    25
100
AcDbLine
 10
155.6571420514
 20
204.7195684943
 30
0.0
 11
156.3942586349
 21
203.8820429221
 31
0.0
  0
LINE
  5
2A0
330
1F
100
AcDbEntity
  8
0
  6
Continuous
 62
     7
370
    25
100
AcDbLine
 10
170.7782550323
 20
201.3123386741
 30
0.0
 11
170.8703909214
 21
201.1219222434
 31
0.0
  0
LINE
  5
2A1
330
1F
100
AcDbEntity
  8
0
  6
Continuous
 62
     7
370
    25
100
AcDbLine
 10
171.7402054598
 20
202.6291560581
 30
0.0
 11
170.8703909214
 21
201.1219222434
 31
0.0
  0
LINE
  5
2A2
330
1F
100
AcDbEntity
  8
0
  6
Continuous
 62
     7
370
    25
100
AcDbLine
 10
160.6492247044
 20
202.4416930724
 30
0.0
 11
159.5045496615
 21
202.5338637687
 31
0.0
  0
LINE
  5
2A3
330
1F
100
AcDbEntity
  8
0
  6
Continuous
 62
     7
370
    25
100
AcDbLine
 10
160.6492247044
 20
202.4416930724
 30
0.0
 11
160.8096339184
 21
202.2532330589
 31
0.0
  0
LINE
  5
2A4
330
1F
100
AcDbEntity
  8
0
  6
Continuous
 62
     7
370
    25
100
AcDbLine
 10
160.8096339184
 20
202.2532330589
 30
0.0
 11
159.3161332213
 21
202.3734916424
 31
0.0
  0
LINE
  5
2A5
330
1F
100
AcDbEntity
  8
0
  6
Continuous
 62
     7
370
    25
100
AcDbLine
 10
161.2554477795
 20
209.9922477226
 30
0.0
 11
160.6492247044
 21
202.4416930724
 31
0.0
  0
LINE
  5
2A6
330
1F
100
AcDbEntity
  8
0
  6
Continuous
 62
     7
370
    25
100
AcDbLine
 10
161.2554477795
 20
209.9922477226
 30
0.0
 11
161.4438642198
 21
210.1526198489
 31
0.0
  0
LINE
  5
2A7
330
1F
100
AcDbEntity
  8
0
  6
Continuous
 62
     7
370
    25
100
AcDbLine
 10
161.4438642198
 20
210.1526198489
 30
0.0
 11
160.8096339184
 21
202.2532330589
 31
0.0
  0
LINE
  5
2A8
330
1F
100
AcDbEntity
  8
0
  6
Continuous
 62
     7
370
    25
100
AcDbLine
 10
160.1107727367
 20
210.0844184189
 30
0.0
 11
161.2554477795
 21
209.9922477226
 31
0.0
  0
LINE
  5
2A9
330
1F
100
AcDbEntity
  8
0
  6
Continuous
 62
     7
370
    25
100
AcDbLine
 10
159.9503635227
 20
210.2728784324
 30
0.0
 11
161.4438642198
 21
210.1526198489
 31
0.0
  0
LINE
  5
2AA
330
1F
100
AcDbEntity
  8
0
  6
Continuous
 62
     7
370
    25
100
AcDbLine
 10
164.0380616975
 20
208.5527905075
 30
0.0
 11
164.1584773543
 21
209.6721209729
 31
0.0
  0
LINE
  5
2AB
330
1F
100
AcDbEntity
  8
0
  6
Continuous
 62
     7
370
    25
100
AcDbLine
 10
164.0380616975
 20
208.5527905075
 30
0.0
 11
163.8453723836
 21
208.3975325497
 31
0.0
  0
LINE
  5
2AC
330
1F
100
AcDbEntity
  8
0
  6
Continuous
 62
     7
370
    25
100
AcDbLine
 10
163.8453723836
 20
208.3975325497
 30
0.0
 11
164.0032063739
 21
209.8646872253
 31
0.0
  0
LINE
  5
2AD
330
1F
100
AcDbEntity
  8
0
  6
Continuous
 62
     7
370
    25
100
AcDbLine
 10
165.4249684286
 20
208.4035911769
 30
0.0
 11
164.0380616975
 21
208.5527905075
 31
0.0
  0
LINE
  5
2AE
330
1F
100
AcDbEntity
  8
0
  6
Continuous
 62
     7
370
    25
100
AcDbLine
 10
165.4249684286
 20
208.4035911769
 30
0.0
 11
165.2323821213
 21
208.248322138
 31
0.0
  0
LINE
  5
2AF
330
1F
100
AcDbEntity
  8
0
  6
Continuous
 62
     7
370
    25
100
AcDbLine
 10
165.2323821213
 20
208.248322138
 30
0.0
 11
163.8453723836
 21
208.3975325497
 31
0.0
  0
LINE
  5
2B0
330
1F
100
AcDbEntity
  8
0
  6
Continuous
 62
     7
370
    25
100
AcDbLine
 10
164.7452253773
 20
202.0496182059
 30
0.0
 11
165.4249684286
 21
208.4035911769
 31
0.0
  0
LINE
  5
2B1
330
1F
100
AcDbEntity
  8
0
  6
Continuous
 62
     7
370
    25
100
AcDbLine
 10
164.7452253773
 20
202.0496182059
 30
0.0
 11
164.5526183492
 21
201.8941554778
 31
0.0
  0
LINE
  5
2B2
330
1F
100
AcDbEntity
  8
0
  6
Continuous
 62
     7
370
    25
100
AcDbLine
 10
164.5526183492
 20
201.8941554778
 30
0.0
 11
165.2323821213
 21
208.248322138
 31
0.0
  0
LINE
  5
2B3
330
1F
100
AcDbEntity
  8
0
  6
Continuous
 62
     7
370
    25
100
AcDbLine
 10
165.9075453194
 20
201.9258880805
 30
0.0
 11
164.7452253773
 21
202.0496182059
 31
0.0
  0
LINE
  5
2B4
330
1F
100
AcDbEntity
  8
0
  6
Continuous
 62
     7
370
    25
100
AcDbLine
 10
165.9075453194
 20
201.9258880805
 30
0.0
 11
166.062926876
 21
201.733381618
 31
0.0
  0
LINE
  5
2B5
330
1F
100
AcDbEntity
  8
0
  6
Continuous
 62
     7
370
    25
100
AcDbLine
 10
166.062926876
 20
201.733381618
 30
0.0
 11
164.5526183492
 21
201.8941554778
 31
0.0
  0
LINE
  5
2B6
330
1F
100
AcDbEntity
  8
0
  6
Continuous
 62
     7
370
    25
100
AcDbLine
 10
166.5873119005
 20
208.2800809983
 30
0.0
 11
165.9075453194
 21
201.9258880805
 31
0.0
  0
LINE
  5
2B7
330
1F
100
AcDbEntity
  8
0
  6
Continuous
 62
     7
370
    25
100
AcDbLine
 10
166.7426906481
 20
208.0875482782
 30
0.0
 11
166.062926876
 21
201.733381618
 31
0.0
  0
LINE
  5
2B8
330
1F
100
AcDbEntity
  8
0
  6
Continuous
 62
     7
370
    25
100
AcDbLine
 10
174.9623101502
 20
210.9949242253
 30
0.0
 11
174.8906326222
 21
211.1823778943
 31
0.0
  0
LINE
  5
2B9
330
1F
100
AcDbEntity
  8
0
  6
Continuous
 62
     7
370
    25
100
AcDbLine
 10
173.3218451102
 20
209.2962509222
 30
0.0
 11
174.8906326222
 21
211.1823778943
 31
0.0
  0
LINE
  5
2BA
330
1F
100
AcDbEntity
  8
0
  6
Continuous
 62
     7
370
    25
100
AcDbLine
 10
168.1329625678
 20
209.2473968313
 30
0.0
 11
168.0125553454
 21
208.1281447676
 31
0.0
  0
LINE
  5
2BB
330
1F
100
AcDbEntity
  8
0
  6
Continuous
 62
     7
370
    25
100
AcDbLine
 10
168.3256651044
 20
209.402777701
 30
0.0
 11
168.1678311141
 21
207.9356230254
 31
0.0
  0
LINE
  5
2BC
330
1F
100
AcDbEntity
  8
0
  6
Continuous
 62
     7
370
    25
100
AcDbLine
 10
176.1753128622
 20
210.8158725337
 30
0.0
 11
176.5991802225
 21
210.9301786742
 31
0.0
  0
LINE
  5
2BD
330
1F
100
AcDbEntity
  8
0
  6
Continuous
 62
     7
370
    25
100
AcDbLine
 10
176.5991802225
 20
210.9301786742
 30
0.0
 11
174.3578205652
 21
209.1421301915
 31
0.0
  0
LINE
  5
2BE
330
1F
100
AcDbEntity
  8
0
  6
Continuous
 62
     7
370
    25
100
AcDbLine
 10
174.8353114025
 20
208.3084726789
 30
0.0
 11
174.9797436133
 21
208.4639790224
 31
0.0
  0
LINE
  5
2BF
330
1F
100
AcDbEntity
  8
0
  6
Continuous
 62
     7
370
    25
100
AcDbLine
 10
173.477728372
 20
208.6862897625
 30
0.0
 11
174.9797436133
 21
208.4639790224
 31
0.0
  0
LINE
  5
2C0
330
1F
100
AcDbEntity
  8
0
  6
Continuous
 62
     7
370
    25
100
AcDbLine
 10
174.0067130355
 20
206.9904628343
 30
0.0
 11
173.9354441361
 21
206.5110702088
 31
0.0
  0
LINE
  5
2C1
330
1F
100
AcDbEntity
  8
0
  6
Continuous
 62
     7
370
    25
100
AcDbLine
 10
174.7988123183
 20
203.4777938306
 30
0.0
 11
174.5720137563
 21
203.6881180587
 31
0.0
  0
LINE
  5
2C2
330
1F
100
AcDbEntity
  8
0
  6
Continuous
 62
     7
370
    25
100
AcDbLine
 10
174.5720137563
 20
203.6881180587
 30
0.0
 11
173.9354441361
 21
206.5110702088
 31
0.0
  0
LINE
  5
2C3
330
1F
100
AcDbEntity
  8
0
  6
Continuous
 62
     7
370
    25
100
AcDbLine
 10
170.8703909214
 20
201.1219222434
 30
0.0
 11
169.3308147725
 21
201.3484322585
 31
0.0
  0
LINE
  5
2C4
330
1F
100
AcDbEntity
  8
0
  6
Continuous
 62
     7
370
    25
100
AcDbLine
 10
172.2254649967
 20
203.8573720412
 30
0.0
 11
172.5039463276
 21
203.9931656236
 31
0.0
  0
LINE
  5
2C5
330
1F
100
AcDbEntity
  8
0
  6
Continuous
 62
     7
370
    25
100
AcDbLine
 10
172.5039463276
 20
203.9931656236
 30
0.0
 11
174.5720137563
 21
203.6881180587
 31
0.0
  0
LINE
  5
2C6
330
1F
100
AcDbEntity
  8
0
  6
Continuous
 62
     7
370
    25
100
AcDbLine
 10
174.8906326222
 20
211.1823778943
 30
0.0
 11
176.5991802225
 21
210.9301786742
 31
0.0
  0
LINE
  5
2C7
330
1F
100
AcDbEntity
  8
0
  6
Continuous
 62
     7
370
    25
100
AcDbLine
 10
175.4300477365
 20
200.62517536
 30
0.0
 11
175.2849860562
 21
200.4696566023
 31
0.0
  0
LINE
  5
2C8
330
1F
100
AcDbEntity
  8
0
  6
Continuous
 62
     7
370
    25
100
AcDbLine
 10
175.2849860562
 20
200.4696566023
 30
0.0
 11
174.9143470356
 21
202.161814241
 31
0.0
  0
LINE
  5
2C9
330
1F
100
AcDbEntity
  8
0
  6
Continuous
 62
     7
370
    25
100
AcDbLine
 10
176.5980662097
 20
200.4533307375
 30
0.0
 11
176.8245622051
 21
200.2431465871
 31
0.0
  0
LINE
  5
2CA
330
1F
100
AcDbEntity
  8
0
  6
Continuous
 62
     7
370
    25
100
AcDbLine
 10
176.8245622051
 20
200.2431465871
 30
0.0
 11
175.2849860562
 21
200.4696566023
 31
0.0
  0
LINE
  5
2CB
330
1F
100
AcDbEntity
  8
0
  6
Continuous
 62
     7
370
    25
100
AcDbLine
 10
174.9797436133
 20
208.4639790224
 30
0.0
 11
176.8245622051
 21
200.2431465871
 31
0.0
  0
LINE
  5
2CC
330
1F
100
AcDbEntity
  8
0
  6
Continuous
 62
     7
370
    25
100
AcDbLine
 10
173.9354441361
 20
206.5110702088
 30
0.0
 11
172.5039463276
 21
203.9931656236
 31
0.0
  0
LINE
  5
2CD
330
1F
100
AcDbEntity
  8
0
  6
Continuous
 62
     7
370
    25
100
AcDbLine
 10
156.8989867017
 20
209.0264152308
 30
0.0
 11
155.8079120378
 21
208.0741895185
 31
0.0
  0
LINE
  5
2CE
330
1F
100
AcDbEntity
  8
0
  6
Continuous
 62
     7
370
    25
100
AcDbLine
 10
136.8776227405
 20
210.7224989886
 30
0.0
 11
138.4749033256
 21
210.7616736648
 31
0.0
  0
LINE
  5
2CF
330
1F
100
AcDbEntity
  8
0
  6
Continuous
 62
     7
370
    25
100
AcDbLine
 10
155.6727279194
 20
204.9667056712
 30
0.0
 11
156.6416271984
 21
203.8658242892
 31
0.0
  0
CIRCLE
  5
2D0
330
1F
100
AcDbEntity
  8
0
  6
Continuous
 62
     7
370
    25
100
AcDbCircle
 10
74.6152563428
 20
194.6370210573
 30
0.0
 40
2.499999999999998
  0
CIRCLE
  5
2D1
330
1F
100
AcDbEntity
  8
0
  6
Continuous
 62
     7
370
    25
100
AcDbCircle
 10
212.0098761542
 20
195.2365219844
 30
0.0
 40
2.499999999999988
  0
LINE
  5
2D2
330
1F
100
AcDbEntity
  8
0
  6
Continuous
 62
     7
370
    25
100
AcDbLine
 10
214.9968836083
 20
189.0658018912
 30
0.0
 11
218.3586729651
 21
197.8235625822
 31
0.0
  0
LINE
  5
2D3
330
1F
100
AcDbEntity
  8
0
  6
Continuous
 62
     7
370
    25
100
AcDbLine
 10
68.244125373
 20
197.1685601478
 30
0.0
 11
71.6822116327
 21
188.4404696996
 31
0.0
  0
LINE
  5
2D4
330
1F
100
AcDbEntity
  8
0
  6
PHANTOM
 62
     8
370
    18
100
AcDbLine
 10
138.9358000801
 20
207.5061549341
 30
0.0
 11
138.9308145128
 21
207.6810615826
 31
0.0
  0
LINE
  5
2D5
330
1F
100
AcDbEntity
  8
0
  6
PHANTOM
 62
     8
370
    18
100
AcDbLine
 10
138.8280294846
 20
209.4725137466
 30
0.0
 11
138.8326072681
 21
209.2975963121
 31
0.0
  0
LWPOLYLINE
  5
2D6
330
1F
100
AcDbEntity
  8
0
  6
PHANTOM
 62
     8
370
    18
100
AcDbPolyline
 90
        3
 70
   128
 43
0.0
 10
138.478850378
 20
210.5867405245
 10
138.4772228611
 20
210.6588767926
 10
138.4749033256
 20
210.7616736648
  0
LINE
  5
2D7
330
1F
100
AcDbEntity
  8
0
  6
Continuous
 62
     7
370
    18
100
AcDbLine
 10
67.8776241463
 20
198.0989777157
 30
0.0
 11
66.0885219964
 21
202.6408781238
 31
0.0
  0
LINE
  5
2D8
330
1F
100
AcDbEntity
  8
0
  6
Continuous
 62
     7
370
    18
100
AcDbLine
 10
67.4050621189
 20
202.0794211103
 30
0.0
 11
65.5228532507
 21
201.3484396413
 31
0.0
  0
LINE
  5
2D9
330
1F
100
AcDbEntity
  8
0
  6
Continuous
 62
     7
370
    18
100
AcDbLine
 10
219.746255693
 20
201.438339173
 30
0.0
 11
220.4664398859
 21
203.3144831385
 31
0.0
  0
LINE
  5
2DA
330
1F
100
AcDbEntity
  8
0
  6
Continuous
 62
     7
370
    18
100
AcDbLine
 10
219.1548494678
 20
202.7415586694
 30
0.0
 11
221.0433656029
 21
202.0270301965
 31
0.0
  0
DIMENSION
  5
2DB
330
1F
100
AcDbEntity
  8
0
  6
Continuous
 62
     7
370
    18
100
AcDbDimension
  2
_D
 10
219.9717130739
 20
233.6318536478
 30
0.0
 11
146.9338810345
 21
233.3131639635
 31
0.0
 70
   160
  1
<>
 71
     2
 42
-1.0
  3
SLDDIMSTYLE0
100
AcDbAlignedDimension
 13
66.4550232231
 23
201.7104605558
 33
0.0
 14
220.1080719363
 24
202.380902712
 34
0.0
 50
0.25
100
AcDbRotatedDimension
  0
DIMENSION
  5
2E7
330
1F
100
AcDbEntity
  8
0
  6
Continuous
 62
     7
370
    18
100
AcDbDimension
  2
_D_1
 10
230.3668132249
 20
198.4616802607
 30
0.0
 11
226.6592919712
 21
188.7425098068
 31
0.0
 70
   160
  1
<>
 71
     2
 42
-1.0
  3
SLDDIMSTYLE1
100
AcDbAlignedDimension
 13
211.447493644
 23
185.3426465279
 33
0.0
 14
218.2195558012
 24
203.095431185
 34
0.0
 50
69.119908506
100
AcDbRotatedDimension
  0
INSERT
  5
2FD
330
1F
100
AcDbEntity
  8
0
  6
Continuous
 62
     7
370
     0
100
AcDbBlockReference
  2
SW_CENTERMARKSYMBOL_0
 10
74.6152563428
 20
194.6370210573
 30
0.0
  0
INSERT
  5
309
330
1F
100
AcDbEntity
  8
0
  6
Continuous
 62
     7
370
     0
100
AcDbBlockReference
  2
SW_CENTERMARKSYMBOL_1
 10
212.0098761542
 20
195.2365219844
 30
0.0
  0
LINE
  5
30A
330
1F
100
AcDbEntity
  8
0
  6
Continuous
 62
     7
370
    25
100
AcDbLine
 10
295.3186556709
 20
196.8518107611
 30
0.0
 11
297.3186556709
 21
196.8518107611
 31
0.0
  0
LINE
  5
30B
330
1F
100
AcDbEntity
  8
0
  6
Continuous
 62
     7
370
    25
100
AcDbLine
 10
297.3186556709
 20
216.4581580137
 30
0.0
 11
292.3186556709
 21
216.4581580137
 31
0.0
  0
LINE
  5
30C
330
1F
100
AcDbEntity
  8
0
  6
Continuous
 62
     7
370
    25
100
AcDbLine
 10
297.3186556709
 20
189.123720313
 30
0.0
 11
295.3186556709
 21
189.123720313
 31
0.0
  0
LINE
  5
30D
330
1F
100
AcDbEntity
  8
0
  6
Continuous
 62
     7
370
    25
100
AcDbLine
 10
292.3186556709
 20
184.6167229539
 30
0.0
 11
297.3186556709
 21
184.6167229539
 31
0.0
  0
LINE
  5
30E
330
1F
100
AcDbEntity
  8
0
  6
Continuous
 62
     7
370
    25
100
AcDbLine
 10
297.3186556709
 20
192.9077255561
 30
0.0
 11
295.3186556709
 21
192.9077255561
 31
0.0
  0
LINE
  5
30F
330
1F
100
AcDbEntity
  8
0
  6
Continuous
 62
     7
370
    25
100
AcDbLine
 10
297.3186556709
 20
199.840672741
 30
0.0
 11
297.3186556709
 21
197.1685601478
 31
0.0
  0
LINE
  5
310
330
1F
100
AcDbEntity
  8
0
  6
Continuous
 62
     7
370
    25
100
AcDbLine
 10
295.3186556709
 20
197.1685601478
 30
0.0
 11
295.3186556709
 21
188.4404696996
 31
0.0
  0
LINE
  5
311
330
1F
100
AcDbEntity
  8
0
  6
Continuous
 62
     7
370
    25
100
AcDbLine
 10
297.3186556709
 20
188.4404696996
 30
0.0
 11
297.3186556709
 21
185.8837205005
 31
0.0
  0
LINE
  5
312
330
1F
100
AcDbEntity
  8
0
  6
Continuous
 62
     7
370
    25
100
AcDbLine
 10
292.3186556709
 20
199.840672741
 30
0.0
 11
292.3186556709
 21
185.8837205005
 31
0.0
  0
LINE
  5
313
330
1F
100
AcDbEntity
  8
0
  6
Continuous
 62
     7
370
    25
100
AcDbLine
 10
297.3186556709
 20
202.4414420248
 30
0.0
 11
297.3186556709
 21
199.840672741
 31
0.0
  0
LINE
  5
314
330
1F
100
AcDbEntity
  8
0
  6
Continuous
 62
     7
370
    25
100
AcDbLine
 10
292.3186556709
 20
202.4414420248
 30
0.0
 11
292.3186556709
 21
199.840672741
 31
0.0
  0
LINE
  5
315
330
1F
100
AcDbEntity
  8
0
  6
Continuous
 62
     7
370
    25
100
AcDbLine
 10
297.3186556709
 20
197.1685601478
 30
0.0
 11
297.3186556709
 21
196.8518107611
 31
0.0
  0
LINE
  5
316
330
1F
100
AcDbEntity
  8
0
  6
Continuous
 62
     7
370
    25
100
AcDbLine
 10
297.3186556709
 20
216.4581580137
 30
0.0
 11
297.3186556709
 21
202.4414420248
 31
0.0
  0
LINE
  5
317
330
1F
100
AcDbEntity
  8
0
  6
Continuous
 62
     7
370
    25
100
AcDbLine
 10
292.3186556709
 20
216.4581580137
 30
0.0
 11
292.3186556709
 21
202.4414420248
 31
0.0
  0
LINE
  5
318
330
1F
100
AcDbEntity
  8
0
  6
Continuous
 62
     7
370
    25
100
AcDbLine
 10
297.3186556709
 20
189.123720313
 30
0.0
 11
297.3186556709
 21
188.4404696996
 31
0.0
  0
LINE
  5
319
330
1F
100
AcDbEntity
  8
0
  6
Continuous
 62
     7
370
    25
100
AcDbLine
 10
297.3186556709
 20
189.123720313
 30
0.0
 11
297.3186556709
 21
192.5792098254
 31
0.0
  0
LINE
  5
31A
330
1F
100
AcDbEntity
  8
0
  6
Continuous
 62
     7
370
    25
100
AcDbLine
 10
297.3186556709
 20
185.8837205005
 30
0.0
 11
297.3186556709
 21
184.6167229539
 31
0.0
  0
LINE
  5
31B
330
1F
100
AcDbEntity
  8
0
  6
Continuous
 62
     7
370
    25
100
AcDbLine
 10
292.3186556709
 20
185.8837205005
 30
0.0
 11
292.3186556709
 21
184.6167229539
 31
0.0
  0
LINE
  5
31C
330
1F
100
AcDbEntity
  8
0
  6
Continuous
 62
     7
370
    25
100
AcDbLine
 10
297.3186556709
 20
192.9077255561
 30
0.0
 11
297.3186556709
 21
192.5792098254
 31
0.0
  0
LINE
  5
31D
330
1F
100
AcDbEntity
  8
0
  6
Continuous
 62
     7
370
    25
100
AcDbLine
 10
297.3186556709
 20
192.9077255561
 30
0.0
 11
297.3186556709
 21
196.8518107611
 31
0.0
  0
LINE
  5
31E
330
1F
100
AcDbEntity
  8
0
  6
PHANTOM
 62
     8
370
    18
100
AcDbLine
 10
297.3186556709
 20
185.8837205005
 30
0.0
 11
292.3186556709
 21
185.8837205005
 31
0.0
  0
LINE
  5
31F
330
1F
100
AcDbEntity
  8
0
  6
PHANTOM
 62
     8
370
    18
100
AcDbLine
 10
297.3186556709
 20
199.840672741
 30
0.0
 11
292.3186556709
 21
199.840672741
 31
0.0
  0
LINE
  5
320
330
1F
100
AcDbEntity
  8
0
  6
PHANTOM
 62
     8
370
    18
100
AcDbLine
 10
295.3186556709
 20
197.1685601478
 30
0.0
 11
297.3186556709
 21
197.1685601478
 31
0.0
  0
LINE
  5
321
330
1F
100
AcDbEntity
  8
0
  6
PHANTOM
 62
     8
370
    18
100
AcDbLine
 10
297.3186556709
 20
188.4404696996
 30
0.0
 11
295.3186556709
 21
188.4404696996
 31
0.0
  0
LINE
  5
322
330
1F
100
AcDbEntity
  8
0
  6
PHANTOM
 62
     8
370
    18
100
AcDbLine
 10
297.3186556709
 20
202.4414420248
 30
0.0
 11
292.3186556709
 21
202.4414420248
 31
0.0
  0
LINE
  5
323
330
1F
100
AcDbEntity
  8
0
  6
PHANTOM
 62
     8
370
    18
100
AcDbLine
 10
297.3186556709
 20
192.5792098254
 30
0.0
 11
295.3186556709
 21
192.5792098254
 31
0.0
  0
DIMENSION
  5
324
330
1F
100
AcDbEntity
  8
0
  6
Continuous
 62
     7
370
    18
100
AcDbDimension
  2
_D_2
 10
292.3186556709
 20
222.9757277016
 30
0.0
 11
294.5895811627
 21
222.9757277016
 31
0.0
 70
   160
  1
<>
 71
     2
 42
-1.0
  3
SLDDIMSTYLE2
100
AcDbAlignedDimension
 13
297.3186556709
 23
216.4581580137
 33
0.0
 14
292.3186556709
 24
216.4581580137
 34
0.0
 50
0.0
100
AcDbRotatedDimension
  0
LINE
  5
331
330
1F
100
AcDbEntity
  8
0
  6
Continuous
 62
     7
370
    25
100
AcDbLine
 10
73.350178084
 20
47.4799565344
 30
0.0
 11
74.7643916464
 21
46.6635484226
 31
0.0
  0
LINE
  5
332
330
1F
100
AcDbEntity
  8
0
  6
Continuous
 62
     7
370
    25
100
AcDbLine
 10
74.6090183167
 20
41.0241138584
 30
0.0
 11
78.1445522227
 21
38.9830935789
 31
0.0
  0
LINE
  5
333
330
1F
100
AcDbEntity
  8
0
  6
Continuous
 62
     7
370
    25
100
AcDbLine
 10
83.7578892564
 20
48.3957651978
 30
0.0
 11
82.343675694
 21
49.2121733096
 31
0.0
  0
LINE
  5
334
330
1F
100
AcDbEntity
  8
0
  6
Continuous
 62
     7
370
    25
100
AcDbLine
 10
126.0948418254
 20
86.8647934957
 30
0.0
 11
124.7733807342
 21
87.8293068441
 31
0.0
  0
LINE
  5
335
330
1F
100
AcDbEntity
  8
0
  6
Continuous
 62
     7
370
    25
100
AcDbLine
 10
131.4388090278
 20
86.335395033
 30
0.0
 11
132.9350925871
 21
85.6732866566
 31
0.0
  0
SPLINE
  5
336
330
1F
100
AcDbEntity
  8
0
  6
Continuous
 62
     7
370
    25
100
AcDbSpline
210
0.0
220
0.0
230
1.0
 70
     8
 71
     3
 72
     9
 73
     5
 74
     0
 42
0.00000001
 43
0.00000001
 40
0.0
 40
0.0
 40
0.0
 40
0.0
 40
0.4997368909026297
 40
1.0
 40
1.0
 40
1.0
 40
1.0
 10
137.1448662789109
 20
92.59059708433051
 30
0.0
 10
136.9404562723722
 20
92.73972214842249
 30
0.0
 10
136.5314210175016
 20
93.03812930388119
 30
0.0
 10
136.0590724525564
 20
93.38302633028628
 30
0.0
 10
135.8227738908793
 20
93.55556558903405
 30
0.0
  0
LINE
  5
337
330
1F
100
AcDbEntity
  8
0
  6
Continuous
 62
     7
370
    25
100
AcDbLine
 10
172.1287244457
 20
107.1919363653
 30
0.0
 11
173.542938008
 21
106.3755282535
 31
0.0
  0
LINE
  5
338
330
1F
100
AcDbEntity
  8
0
  6
Continuous
 62
     7
370
    25
100
AcDbLine
 10
172.2823889338
 20
99.9684184101
 30
0.0
 11
170.8681753714
 21
100.7848265219
 31
0.0
  0
LINE
  5
339
330
1F
100
AcDbEntity
  8
0
  6
Continuous
 62
     7
370
    25
100
AcDbLine
 10
181.2398349818
 20
112.7338394789
 30
0.0
 11
177.7043010759
 21
114.7748597585
 31
0.0
  0
LINE
  5
33A
330
1F
100
AcDbEntity
  8
0
  6
Continuous
 62
     7
370
    25
100
AcDbLine
 10
178.8381698301
 20
108.9083935852
 30
0.0
 11
180.2523833925
 21
108.0919854734
 31
0.0
  0
LINE
  5
33B
330
1F
100
AcDbEntity
  8
0
  6
Continuous
 62
     7
370
    25
100
AcDbLine
 10
178.3751987077
 20
100.4346692603
 30
0.0
 11
176.9609851454
 21
101.2510773721
 31
0.0
  0
LWPOLYLINE
  5
33C
330
1F
100
AcDbEntity
  8
0
  6
Continuous
 62
     7
370
    25
100
AcDbPolyline
 90
        9
 70
   128
 43
0.0
 10
173.6860175821
 20
107.6881088614
 10
173.7456306908
 20
108.0371786866
 10
173.7506031066
 20
108.3620960641
 10
173.7007413979
 20
108.6502213938
 10
173.5979852333
 20
108.8903463215
 10
173.446331927
 20
109.0731297554
 10
173.2516809394
 20
109.1914612431
 10
173.0216043821
 20
109.2407375752
 10
172.7650524557
 20
109.2190418547
  0
LWPOLYLINE
  5
33D
330
1F
100
AcDbEntity
  8
0
  6
Continuous
 62
     7
370
    25
100
AcDbPolyline
 90
       28
 70
   128
 43
0.0
 10
172.7650524557
 20
109.2190418547
 10
169.5201949765
 20
108.4765725627
 10
166.2537843308
 20
107.635639017
 10
162.9675304345
 20
106.6966814334
 10
159.6631535915
 20
105.6601913418
 10
156.3423835926
 20
104.526711329
 10
153.0069588101
 20
103.2968347545
 10
149.658625288
 20
101.9712054398
 10
146.2991358277
 20
100.5505173317
 10
142.9302490708
 20
99.0355141388
 10
139.553728578
 20
97.426988942
 10
136.1713419062
 20
95.7257837797
 10
132.7848596831
 20
93.9327892069
 10
129.3960546806
 20
92.0489438288
 10
126.0067008862
 20
90.0752338098
 10
122.6185725751
 20
88.0126923568
 10
119.2334433805
 20
85.8623991789
 10
115.8530853659
 20
83.6254799217
 10
112.4792680972
 20
81.3031055782
 10
109.1137577161
 20
78.896491876
 10
105.758316016
 20
76.4068986407
 10
102.4146995194
 20
73.8356291361
 10
99.0846585584
 20
71.1840293828
 10
95.7699363586
 20
68.4534874526
 10
92.4722681266
 20
65.6454327425
 10
89.1933801412
 20
62.7613352264
 10
85.9349888502
 20
59.8027046853
 10
82.6987999718
 20
56.7710899169
  0
ARC
  5
33E
330
1F
100
AcDbEntity
  8
0
  6
Continuous
 62
     7
370
    25
100
AcDbCircle
 10
84.5340009241
 20
54.6755050996
 30
0.0
 40
2.785576827488791
100
AcDbArc
 50
131.2101388476
 51
190.3164790435
  0
LINE
  5
33F
330
1F
100
AcDbEntity
  8
0
  6
Continuous
 62
     7
370
    25
100
AcDbLine
 10
81.7934569258
 20
54.1766495542
 30
0.0
 11
82.0251463251
 21
53.5107891943
 31
0.0
  0
ARC
  5
340
330
1F
100
AcDbEntity
  8
0
  6
Continuous
 62
     7
370
    25
100
AcDbCircle
 10
81.4028101422
 20
53.365964986
 30
0.0
 40
0.6389650818680813
100
AcDbArc
 50
278.5316003545
 51
13.1001783332
  0
LWPOLYLINE
  5
341
330
1F
100
AcDbEntity
  8
0
  6
Continuous
 62
     7
370
    25
100
AcDbPolyline
 90
       13
 70
   128
 43
0.0
 10
81.4976037179
 20
52.7340705693
 10
80.9669960773
 20
52.7652778188
 10
80.4001698694
 20
52.684871162
 10
79.8086812724
 20
52.4944898908
 10
79.2045892697
 20
52.1980154067
 10
78.6002097966
 20
51.8014920877
 10
78.0078646493
 20
51.3130040595
 10
77.4396302741
 20
50.7425103795
 10
76.9070915583
 20
50.1016419968
 10
76.4211056435
 20
49.4034646258
 10
75.9915805753
 20
48.6622123688
 10
75.6272733031
 20
47.8929975181
 10
75.335611147
 20
47.1115024539
  0
LWPOLYLINE
  5
342
330
1F
100
AcDbEntity
  8
0
  6
Continuous
 62
     7
370
    25
100
AcDbPolyline
 90
        9
 70
   128
 43
0.0
 10
74.6854190437
 20
46.7570411367
 10
74.7366306206
 20
46.6836095996
 10
74.8113452728
 20
46.6451239893
 10
74.9032404698
 20
46.6448410489
 10
75.0045398228
 20
46.6827847216
 10
75.1066711412
 20
46.7557441241
 10
75.2009918313
 20
46.8575452593
 10
75.2795202535
 20
46.9795734746
 10
75.335611147
 20
47.1115024539
  0
LINE
  5
343
330
1F
100
AcDbEntity
  8
0
  6
Continuous
 62
     7
370
    25
100
AcDbLine
 10
73.941137437
 20
48.5092654971
 30
0.0
 11
74.6854190437
 21
46.7570411367
 31
0.0
  0
ARC
  5
344
330
1F
100
AcDbEntity
  8
0
  6
Continuous
 62
     7
370
    25
100
AcDbCircle
 10
76.5649818413
 20
49.1112608864
 30
0.0
 40
2.692017441769746
100
AcDbArc
 50
132.3565696012
 51
192.9218832888
  0
LWPOLYLINE
  5
345
330
1F
100
AcDbEntity
  8
0
  6
Continuous
 62
     7
370
    25
100
AcDbPolyline
 90
       33
 70
   128
 43
0.0
 10
180.7340629108
 20
112.8171522132
 10
177.549183305
 20
112.3029754385
 10
174.3392184646
 20
111.6909355865
 10
171.1058052078
 20
110.9813447473
 10
167.8505923094
 20
110.1745647537
 10
164.5752396603
 20
109.2710069974
 10
161.2814174211
 20
108.2711322183
 10
157.9708051702
 20
107.1754502704
 10
154.6450910477
 20
105.9845198614
 10
151.3059708942
 20
104.6989482679
 10
147.9551473865
 20
103.3193910257
 10
144.5943291689
 20
101.8465515956
 10
141.2252299825
 20
100.2811810044
 10
137.8495677907
 20
98.6240774626
 10
134.4690639037
 20
96.8760859566
 10
131.0854421005
 20
95.0380978183
 10
127.7004277499
 20
93.1110502707
 10
124.315746931
 20
91.0959259494
 10
120.9331255526
 20
88.9937524022
 10
117.5542884734
 20
86.8056015646
 10
114.1809586225
 20
84.5325892138
 10
110.8148561207
 20
82.175874399
 10
107.4576974035
 20
79.736658851
 10
104.1111943459
 20
77.2161863693
 10
100.777053389
 20
74.6157421874
 10
97.4569746708
 20
71.936652318
 10
94.1526511582
 20
69.1802828768
 10
90.8657677846
 20
66.3480393854
 10
87.5980005902
 20
63.4413660551
 10
84.3510158676
 20
60.4617450504
 10
81.1264693119
 20
57.4106957328
 10
77.9260051767
 20
54.2897738867
 10
74.7512554356
 20
51.1005709255
  0
LWPOLYLINE
  5
346
330
1F
100
AcDbEntity
  8
0
  6
Continuous
 62
     7
370
    25
100
AcDbPolyline
 90
        9
 70
   128
 43
0.0
 10
181.5601983499
 20
111.1786802744
 10
181.6339885852
 20
111.531887188
 10
181.6535525492
 20
111.8644726393
 10
181.6181292479
 20
112.163499804
 10
181.5290965678
 20
112.4173371995
 10
181.3899176794
 20
112.6161111232
 10
181.2060063279
 20
112.7520897178
 10
180.9845162501
 20
112.8199837224
 10
180.7340629108
 20
112.8171522132
  0
LINE
  5
347
330
1F
100
AcDbEntity
  8
0
  6
Continuous
 62
     7
370
    25
100
AcDbLine
 10
180.8324336008
 20
108.5692445346
 30
0.0
 11
181.5601983499
 21
111.1786802744
 31
0.0
  0
LWPOLYLINE
  5
348
330
1F
100
AcDbEntity
  8
0
  6
Continuous
 62
     7
370
    25
100
AcDbPolyline
 90
        9
 70
   128
 43
0.0
 10
180.1824240947
 20
108.1665641962
 10
180.2392651388
 20
108.1003984599
 10
180.3183701523
 20
108.0701643476
 10
180.4130450818
 20
108.0784203414
 10
180.5152783111
 20
108.1244677997
 10
180.6164186226
 20
108.2044100777
 10
180.7079072841
 20
108.3114822708
 10
180.7820023089
 20
108.436623677
 10
180.8324336008
 20
108.5692445346
  0
LWPOLYLINE
  5
349
330
1F
100
AcDbEntity
  8
0
  6
Continuous
 62
     7
370
    25
100
AcDbPolyline
 90
       13
 70
   128
 43
0.0
 10
180.1824240947
 20
108.1665641962
 10
179.885260832
 20
108.6067150988
 10
179.5155025496
 20
108.9496895228
 10
179.0807274005
 20
109.1884582475
 10
178.5898460507
 20
109.3181277355
 10
178.0529190563
 20
109.3360404258
 10
177.4809506738
 20
109.2418291999
 10
176.8856633284
 20
109.0374249059
 10
176.2792573651
 20
108.727016786
 10
175.6741610035
 20
108.3169666186
 10
175.0827756231
 20
107.815678334
 10
174.5172215985
 20
107.2334257774
 10
173.9890898937
 20
106.5821421471
  0
LWPOLYLINE
  5
34A
330
1F
100
AcDbEntity
  8
0
  6
Continuous
 62
     7
370
    25
100
AcDbPolyline
 90
        9
 70
   128
 43
0.0
 10
173.4566684352
 20
106.7406026147
 10
173.4393687477
 20
106.6065009631
 10
173.4555894084
 20
106.4915560483
 10
173.5037925191
 20
106.4066659187
 10
173.5794078923
 20
106.3598790972
 10
173.6752663546
 20
106.3556314916
 10
173.7822794642
 20
106.3943258217
 10
173.8903011953
 20
106.4722934375
 10
173.9890898937
 20
106.5821421471
  0
LINE
  5
34B
330
1F
100
AcDbEntity
  8
0
  6
Continuous
 62
     7
370
    25
100
AcDbLine
 10
173.4566684352
 20
106.7406026147
 30
0.0
 11
173.6860175821
 21
107.6881088614
 31
0.0
  0
LWPOLYLINE
  5
34C
330
1F
100
AcDbEntity
  8
0
  6
Continuous
 62
     7
370
    25
100
AcDbPolyline
 90
       33
 70
   128
 43
0.0
 10
177.1985290049
 20
114.8581724927
 10
174.013649399
 20
114.343995718
 10
170.8036845587
 20
113.7319558661
 10
167.5702713018
 20
113.0223650268
 10
164.3150584034
 20
112.2155850333
 10
161.0397057544
 20
111.3120272769
 10
157.7458835152
 20
110.3121524978
 10
154.4352712643
 20
109.2164705499
 10
151.1095571418
 20
108.025540141
 10
147.7704369883
 20
106.7399685475
 10
144.4196134805
 20
105.3604113053
 10
141.058795263
 20
103.8875718751
 10
137.6896960766
 20
102.322201284
 10
134.3140338848
 20
100.6650977421
 10
130.9335299978
 20
98.9171062361
 10
127.5499081946
 20
97.0791180979
 10
124.164893844
 20
95.1520705502
 10
120.7802130251
 20
93.136946229
 10
117.3975916466
 20
91.0347726817
 10
114.0187545674
 20
88.8466218442
 10
110.6454247165
 20
86.5736094933
 10
107.2793222148
 20
84.2168946785
 10
103.9221634976
 20
81.7776791306
 10
100.5756604399
 20
79.2572066488
 10
97.2415194831
 20
76.6567624669
 10
93.9214407648
 20
73.9776725976
 10
90.6171172523
 20
71.2213031563
 10
87.3302338787
 20
68.389059665
 10
84.0624666843
 20
65.4823863347
 10
80.8154819616
 20
62.5027653299
 10
77.5909354059
 20
59.4517160124
 10
74.3904712707
 20
56.3307941663
 10
71.2157215296
 20
53.1415912051
  0
LINE
  5
34D
330
1F
100
AcDbEntity
  8
0
  6
Continuous
 62
     7
370
    25
100
AcDbLine
 10
141.3715939507
 20
90.7456081475
 30
0.0
 11
141.7816447439
 21
95.4085264814
 31
0.0
  0
LINE
  5
34E
330
1F
100
AcDbEntity
  8
0
  6
Continuous
 62
     7
370
    25
100
AcDbLine
 10
140.9831010172
 20
97.0296004151
 30
0.0
 11
144.039540897
 21
98.4168776225
 31
0.0
  0
LINE
  5
34F
330
1F
100
AcDbEntity
  8
0
  6
Continuous
 62
     7
370
    25
100
AcDbLine
 10
140.8714955324
 20
95.7671802701
 30
0.0
 11
140.9831010172
 21
97.0296004151
 31
0.0
  0
LINE
  5
350
330
1F
100
AcDbEntity
  8
0
  6
Continuous
 62
     7
370
    25
100
AcDbLine
 10
138.1173083541
 20
95.7085183049
 30
0.0
 11
139.1733728247
 21
96.2199753056
 31
0.0
  0
LINE
  5
351
330
1F
100
AcDbEntity
  8
0
  6
Continuous
 62
     7
370
    25
100
AcDbLine
 10
137.6688398071
 20
88.9994512206
 30
0.0
 11
138.1173083541
 21
95.7085183049
 31
0.0
  0
SPLINE
  5
352
330
1F
100
AcDbEntity
  8
0
  6
Continuous
 62
     7
370
    25
100
AcDbSpline
210
0.0
220
0.0
230
1.0
 70
     8
 71
     3
 72
    13
 73
     9
 74
     0
 42
0.00000001
 43
0.00000001
 40
0.0
 40
0.0
 40
0.0
 40
0.0
 40
0.0546688184716497
 40
0.2309565822677881
 40
0.4071219551635287
 40
0.5844580060090993
 40
0.7618843056834855
 40
1.0
 40
1.0
 40
1.0
 40
1.0
 10
131.4440511550977
 20
86.34570764155453
 30
0.0
 10
131.4069118973945
 20
86.35867064874472
 30
0.0
 10
131.2500115606599
 20
86.4134348071857
 30
0.0
 10
131.0248326135567
 20
86.60447363034815
 30
0.0
 10
130.7793162953164
 20
86.91486701905104
 30
0.0
 10
130.6126278875946
 20
87.31917064153333
 30
0.0
 10
130.4996533925465
 20
87.83865349239267
 30
0.0
 10
130.5004746884909
 20
88.25804255767832
 30
0.0
 10
130.5009453110919
 20
88.49836271764616
 30
0.0
  0
SPLINE
  5
353
330
1F
100
AcDbEntity
  8
0
  6
Continuous
 62
     7
370
    25
100
AcDbSpline
210
0.0
220
0.0
230
1.0
 70
     8
 71
     3
 72
    28
 73
    24
 74
     0
 42
0.00000001
 43
0.00000001
 40
0.0
 40
0.0
 40
0.0
 40
0.0
 40
0.125
 40
0.125
 40
0.25
 40
0.25
 40
0.3749999999999999
 40
0.3749999999999999
 40
0.4999999999999999
 40
0.4999999999999999
 40
0.5624999999999999
 40
0.5624999999999999
 40
0.6249999999999999
 40
0.6249999999999999
 40
0.6874999999999999
 40
0.6874999999999999
 40
0.7499999999999999
 40
0.7499999999999999
 40
0.8124999999999999
 40
0.8124999999999999
 40
0.8749999999999999
 40
0.8749999999999999
 40
0.9999999999999999
 40
0.9999999999999999
 40
0.9999999999999999
 40
0.9999999999999999
 10
133.3771230673677
 20
87.80462783619969
 30
0.0
 10
133.4570886055503
 20
87.84942933650544
 30
0.0
 10
133.5370582376442
 20
87.89425589622357
 30
0.0
 10
133.6966691679439
 20
87.99638310587419
 30
0.0
 10
133.7762763806755
 20
88.05329361073791
 30
0.0
 10
133.9336800194725
 20
88.17679365490477
 30
0.0
 10
134.0115436321012
 20
88.2433921002479
 30
0.0
 10
134.1645339349776
 20
88.38561330452885
 30
0.0
 10
134.2395440092284
 20
88.46148987461977
 30
0.0
 10
134.3482751551661
 20
88.5825885996588
 30
0.0
 10
134.3838618316096
 20
88.6241680011264
 30
0.0
 10
134.4541688911379
 20
88.70869458750794
 30
0.0
 10
134.4889316652458
 20
88.7515783197596
 30
0.0
 10
134.5570981679793
 20
88.83909649791225
 30
0.0
 10
134.5904467086228
 20
88.88379791731224
 30
0.0
 10
134.6565292368338
 20
88.9738930251871
 30
0.0
 10
134.689337104595
 20
89.01919501707981
 30
0.0
 10
134.7541392147224
 20
89.11061247114301
 30
0.0
 10
134.7860714585678
 20
89.15679614842698
 30
0.0
 10
134.849163252559
 20
89.24988545023507
 30
0.0
 10
134.8803712625006
 20
89.29674256525408
 30
0.0
 10
134.9730176320299
 20
89.43809455765778
 30
0.0
 10
135.0329133525849
 20
89.53379494067357
 30
0.0
 10
135.0925632115851
 20
89.62966348749704
 30
0.0
  0
SPLINE
  5
354
330
1F
100
AcDbEntity
  8
0
  6
Continuous
 62
     7
370
    25
100
AcDbSpline
210
0.0
220
0.0
230
1.0
 70
     8
 71
     3
 72
     9
 73
     5
 74
     0
 42
0.00000001
 43
0.00000001
 40
0.0
 40
0.0
 40
0.0
 40
0.0
 40
0.1968856091324135
 40
1.0
 40
1.0
 40
1.0
 40
1.0
 10
132.8818526124434
 20
87.62548616011526
 30
0.0
 10
132.9124604529138
 20
87.62790837046502
 30
0.0
 10
133.067920471578
 20
87.64021099817066
 30
0.0
 10
133.2394029894683
 20
87.7313959162554
 30
0.0
 10
133.3771230673682
 20
87.80462783619939
 30
0.0
  0
SPLINE
  5
355
330
1F
100
AcDbEntity
  8
0
  6
Continuous
 62
     7
370
    25
100
AcDbSpline
210
0.0
220
0.0
230
1.0
 70
     8
 71
     3
 72
    12
 73
     8
 74
     0
 42
0.00000001
 43
0.00000001
 40
0.0
 40
0.0
 40
0.0
 40
0.0
 40
0.2250572912628814
 40
0.4570481556350398
 40
0.6755829820114722
 40
0.9008333581026399
 40
1.0
 40
1.0
 40
1.0
 40
1.0
 10
133.5882871146376
 20
93.48892832822608
 30
0.0
 10
133.7781770475776
 20
93.57771830361536
 30
0.0
 10
134.1638070493292
 20
93.75803369914348
 30
0.0
 10
134.7089500791966
 20
93.85632684315675
 30
0.0
 10
135.21199184709
 20
93.83234590022846
 30
0.0
 10
135.5810447717471
 20
93.7213382086384
 30
0.0
 10
135.761183622846
 20
93.58619046462383
 30
0.0
 10
135.8162478270899
 20
93.54487898220829
 30
0.0
  0
SPLINE
  5
356
330
1F
100
AcDbEntity
  8
0
  6
Continuous
 62
     7
370
    25
100
AcDbSpline
210
0.0
220
0.0
230
1.0
 70
     8
 71
     3
 72
    42
 73
    38
 74
     0
 42
0.00000001
 43
0.00000001
 40
0.0
 40
0.0
 40
0.0
 40
0.0
 40
0.0625
 40
0.0625
 40
0.125
 40
0.125
 40
0.1875
 40
0.1875
 40
0.25
 40
0.25
 40
0.3125
 40
0.3125
 40
0.375
 40
0.375
 40
0.4375
 40
0.4375
 40
0.46875
 40
0.46875
 40
0.5
 40
0.5
 40
0.5625
 40
0.5625
 40
0.625
 40
0.625
 40
0.6875
 40
0.6875
 40
0.71875
 40
0.71875
 40
0.75
 40
0.75
 40
0.8125
 40
0.8125
 40
0.875
 40
0.875
 40
0.9375
 40
0.9375
 40
1.0
 40
1.0
 40
1.0
 40
1.0
 10
130.5009453110919
 20
88.49836271764616
 30
0.0
 10
130.5066615017295
 20
88.61301219951034
 30
0.0
 10
130.5129702680711
 20
88.7279900243706
 30
0.0
 10
130.5379060822432
 20
88.96359388031513
 30
0.0
 10
130.5546739714411
 20
89.08323131218005
 30
0.0
 10
130.5959256098852
 20
89.32496661072348
 30
0.0
 10
130.620815965766
 20
89.44727880919767
 30
0.0
 10
130.6824283685939
 20
89.694273643715
 30
0.0
 10
130.7180232620527
 20
89.81867561995566
 30
0.0
 10
130.7976403574902
 20
90.0678785794759
 30
0.0
 10
130.8420606281124
 20
90.1927573525284
 30
0.0
 10
130.940644953335
 20
90.4415155109618
 30
0.0
 10
130.9943087955213
 20
90.56542271038734
 30
0.0
 10
131.1100016478113
 20
90.81087441245705
 30
0.0
 10
131.1723518971605
 20
90.93225270781996
 30
0.0
 10
131.2715200222729
 20
91.11147739152264
 30
0.0
 10
131.3053522148892
 20
91.17085614191284
 30
0.0
 10
131.3746086668104
 20
91.28860623513336
 30
0.0
 10
131.4101374308124
 20
91.34690572595017
 30
0.0
 10
131.5201267228497
 20
91.51924635745276
 30
0.0
 10
131.5970559550584
 20
91.63142695318105
 30
0.0
 10
131.7550262247994
 20
91.85096127366747
 30
0.0
 10
131.8369346545495
 20
91.95764803491721
 30
0.0
 10
132.0052342208995
 20
92.16426098283273
 30
0.0
 10
132.0913277970414
 20
92.26479657998951
 30
0.0
 10
132.222977950977
 20
92.41061946997625
 30
0.0
 10
132.2673835788563
 20
92.45818434403013
 30
0.0
 10
132.357160769666
 20
92.55113464243955
 30
0.0
 10
132.402493164511
 20
92.59660296271093
 30
0.0
 10
132.5393252274689
 20
92.73063025289083
 30
0.0
 10
132.6318269933921
 20
92.81646999506091
 30
0.0
 10
132.8194498007942
 20
92.97793138842489
 30
0.0
 10
132.9144766535995
 20
93.05365134083357
 30
0.0
 10
133.1058270620513
 20
93.19457054393035
 30
0.0
 10
133.2021451870339
 20
93.26020933997903
 30
0.0
 10
133.3951151080466
 20
93.3819682551841
 30
0.0
 10
133.4917208998804
 20
93.43582981998286
 30
0.0
 10
133.5882871146376
 20
93.48892832822608
 30
0.0
  0
LINE
  5
357
330
1F
100
AcDbEntity
  8
0
  6
Continuous
 62
     7
370
    25
100
AcDbLine
 10
127.410023483
 20
89.9907077877
 30
0.0
 11
128.4645841134
 21
90.5909684325
 31
0.0
  0
LINE
  5
358
330
1F
100
AcDbEntity
  8
0
  6
Continuous
 62
     7
370
    25
100
AcDbLine
 10
127.3719413089
 20
83.5285563418
 30
0.0
 11
127.410023483
 21
89.9907077877
 31
0.0
  0
LINE
  5
359
330
1F
100
AcDbEntity
  8
0
  6
Continuous
 62
     7
370
    25
100
AcDbLine
 10
124.3595252445
 20
81.747261655
 30
0.0
 11
124.2528534814
 21
81.9045068086
 31
0.0
  0
SPLINE
  5
35A
330
1F
100
AcDbEntity
  8
0
  6
Continuous
 62
     7
370
    25
100
AcDbSpline
210
0.0
220
0.0
230
1.0
 70
     8
 71
     3
 72
    11
 73
     7
 74
     0
 42
0.00000001
 43
0.00000001
 40
0.0
 40
0.0
 40
0.0
 40
0.0
 40
0.2583877821699966
 40
0.516144772699291
 40
0.7579070212680109
 40
1.0
 40
1.0
 40
1.0
 40
1.0
 10
122.9318648196137
 20
87.34126960580672
 30
0.0
 10
123.1018956978966
 20
87.44204092571384
 30
0.0
 10
123.4415423649569
 20
87.64333755658107
 30
0.0
 10
123.936979166516
 20
87.88216759450171
 30
0.0
 10
124.4203989917371
 20
88.00789316791816
 30
0.0
 10
124.6555104245043
 20
87.8885475033459
 30
0.0
 10
124.7731464938924
 20
87.82883388281476
 30
0.0
  0
LINE
  5
35B
330
1F
100
AcDbEntity
  8
0
  6
Continuous
 62
     7
370
    25
100
AcDbLine
 10
121.8024168864
 20
86.6572654707
 30
0.0
 11
122.9318648196
 21
87.3412696058
 31
0.0
  0
LINE
  5
35C
330
1F
100
AcDbEntity
  8
0
  6
Continuous
 62
     7
370
    25
100
AcDbLine
 10
121.9392675754
 20
80.2825302484
 30
0.0
 11
121.8024168864
 21
86.6572654707
 31
0.0
  0
LWPOLYLINE
  5
35D
330
1F
100
AcDbEntity
  8
0
  6
Continuous
 62
     7
370
    25
100
AcDbPolyline
 90
       31
 70
   128
 43
0.0
 10
78.4097864121
 20
50.3785501917
 10
78.7390702813
 20
50.3748972907
 10
79.0262753939
 20
50.2721292699
 10
79.2588495083
 20
50.074737585
 10
79.4266280198
 20
49.7913491996
 10
79.5222782022
 20
49.4343495461
 10
79.5416196837
 20
49.0193412224
 10
79.4838071486
 20
48.5644620838
 10
79.3513672822
 20
48.0895925313
 10
79.1500883422
 20
47.615486643
 10
78.888767184
 20
47.1628651213
 10
78.5788247963
 20
46.7515096985
 10
78.2338071486
 20
46.3993985807
 10
77.8687931678
 20
46.1219207132
 10
77.4997357163
 20
45.9312032103
 10
77.1427643757
 20
45.835581342
 10
76.8134805065
 20
45.839234243
 10
76.5262753939
 20
45.9420022637
 10
76.2937012794
 20
46.1393939487
 10
76.125922768
 20
46.4227823341
 10
76.0302725855
 20
46.7797819876
 10
76.0109311041
 20
47.1947903112
 10
76.0687436391
 20
47.6496694499
 10
76.2011835055
 20
48.1245390024
 10
76.4024624456
 20
48.5986448907
 10
76.6637836038
 20
49.0512664124
 10
76.9737259915
 20
49.4626218351
 10
77.3187436391
 20
49.814732953
 10
77.68375762
 20
50.0922108205
 10
78.0528150715
 20
50.2829283234
 10
78.4097864121
 20
50.3785501917
  0
LWPOLYLINE
  5
35E
330
1F
100
AcDbEntity
  8
0
  6
Continuous
 62
     7
370
    25
100
AcDbPolyline
 90
       31
 70
   128
 43
0.0
 10
175.5624537793
 20
106.9531082328
 10
175.8917376485
 20
106.9494553319
 10
176.1789427611
 20
106.8466873111
 10
176.4115168755
 20
106.6492956261
 10
176.579295387
 20
106.3659072408
 10
176.6749455694
 20
106.0089075873
 10
176.6942870509
 20
105.5938992636
 10
176.6364745158
 20
105.139020125
 10
176.5040346494
 20
104.6641505725
 10
176.3027557094
 20
104.1900446842
 10
176.0414345512
 20
103.7374231625
 10
175.7314921635
 20
103.3260677397
 10
175.3864745158
 20
102.9739566219
 10
175.021460535
 20
102.6964787543
 10
174.6524030835
 20
102.5057612514
 10
174.2954317429
 20
102.4101393832
 10
173.9661478737
 20
102.4137922841
 10
173.6789427611
 20
102.5165603049
 10
173.4463686467
 20
102.7139519899
 10
173.2785901352
 20
102.9973403753
 10
173.1829399528
 20
103.3543400288
 10
173.1635984713
 20
103.7693483524
 10
173.2214110064
 20
104.2242274911
 10
173.3538508728
 20
104.6990970436
 10
173.5551298128
 20
105.1732029319
 10
173.816450971
 20
105.6258244536
 10
174.1263933587
 20
106.0371798763
 10
174.4714110064
 20
106.3892909942
 10
174.8364249872
 20
106.6667688617
 10
175.2054824387
 20
106.8574863646
 10
175.5624537793
 20
106.9531082328
  0
LWPOLYLINE
  5
35F
330
1F
100
AcDbEntity
  8
0
  6
Continuous
 62
     7
370
    25
100
AcDbPolyline
 90
        3
 70
   128
 43
0.0
 10
172.2718040198
 20
108.5045169732
 10
172.3314171284
 20
108.8535867984
 10
172.3393727812
 20
109.1269847881
  0
LINE
  5
360
330
1F
100
AcDbEntity
  8
0
  6
Continuous
 62
     7
370
    25
100
AcDbLine
 10
172.0424548728
 20
107.5570107265
 30
0.0
 11
172.2718040198
 21
108.5045169732
 31
0.0
  0
ARC
  5
361
330
1F
100
AcDbEntity
  8
0
  6
Continuous
 62
     7
370
    25
100
AcDbCircle
 10
172.3291602442
 20
107.4320309439
 30
0.0
 40
0.3127617560310413
100
AcDbArc
 50
156.4467881197
 51
230.1441896827
  0
LINE
  5
362
330
1F
100
AcDbEntity
  8
0
  6
Continuous
 62
     7
370
    25
100
AcDbLine
 10
178.7682105323
 20
108.9829723081
 30
0.0
 11
178.5513024899
 21
109.3233331429
 31
0.0
  0
LWPOLYLINE
  5
363
330
1F
100
AcDbEntity
  8
0
  6
Continuous
 62
     7
370
    25
100
AcDbPolyline
 90
        3
 70
   128
 43
0.0
 10
178.8381698301
 20
108.9083935852
 10
178.8250515765
 20
108.9168065717
 10
178.7682105323
 20
108.9829723081
  0
LINE
  5
364
330
1F
100
AcDbEntity
  8
0
  6
Continuous
 62
     7
370
    25
100
AcDbLine
 10
177.12336468
 20
101.1573376621
 30
0.0
 11
179.2231331085
 21
108.686159015
 31
0.0
  0
LWPOLYLINE
  5
365
330
1F
100
AcDbEntity
  8
0
  6
Continuous
 62
     7
370
    25
100
AcDbPolyline
 90
        6
 70
   128
 43
0.0
 10
176.573923716
 20
101.1152506999
 10
176.6735187099
 20
101.2023813203
 10
176.7762859214
 20
101.2569891648
 10
176.8735289462
 20
101.2744531886
 10
176.9570188496
 20
101.2532955445
 10
176.9609851454
 20
101.2510773721
  0
ARC
  5
366
330
1F
100
AcDbEntity
  8
0
  6
Continuous
 62
     7
370
    25
100
AcDbCircle
 10
172.7615057174
 20
104.0105090328
 30
0.0
 40
4.787175765499512
100
AcDbArc
 50
269.5127630263
 51
322.7859328868
  0
LWPOLYLINE
  5
367
330
1F
100
AcDbEntity
  8
0
  6
Continuous
 62
     7
370
    25
100
AcDbPolyline
 90
        8
 70
   128
 43
0.0
 10
170.2819464323
 20
100.2838520208
 10
170.3311262662
 20
100.4243960901
 10
170.4075234547
 20
100.5580574459
 10
170.5038946998
 20
100.6721635139
 10
170.6111029422
 20
100.7558957777
 10
170.7189836552
 20
100.8013154929
 10
170.8173085549
 20
100.8041163686
 10
170.8681753714
 20
100.7848265219
  0
LINE
  5
368
330
1F
100
AcDbEntity
  8
0
  6
Continuous
 62
     7
370
    25
100
AcDbLine
 10
170.0866172517
 20
99.4768918849
 30
0.0
 11
170.2819464323
 21
100.2838520208
 31
0.0
  0
ARC
  5
369
330
1F
100
AcDbEntity
  8
0
  6
Continuous
 62
     7
370
    25
100
AcDbCircle
 10
167.3338690248
 20
100.0326016817
 30
0.0
 40
2.808279932381964
100
AcDbArc
 50
290.5195493307
 51
348.5868322193
  0
LWPOLYLINE
  5
36A
330
1F
100
AcDbEntity
  8
0
  6
Continuous
 62
     7
370
    25
100
AcDbPolyline
 90
       27
 70
   128
 43
0.0
 10
84.3993002407
 20
48.534285941
 10
87.5313041345
 20
51.4646953823
 10
90.6854813281
 20
54.3217988228
 10
93.8600568311
 20
57.103988448
 10
97.0532441741
 20
59.809698601
 10
100.263246414
 20
62.4374066628
 10
103.4882571452
 20
64.9856339097
 10
106.7264615162
 20
67.4529463451
 10
109.9760372508
 20
69.837955507
 10
113.2351556738
 20
72.1393192485
 10
116.5019827399
 20
74.3557424939
 10
119.7746800656
 20
76.485977967
 10
123.0514059642
 20
78.5288268931
 10
126.3303164818
 20
80.4831396737
 10
129.6095664353
 20
82.3478165335
 10
132.8873104504
 20
84.1218081391
 10
136.1617040004
 20
85.8041161893
 10
139.4309044438
 20
87.3937939776
 10
142.6930720618
 20
88.8899469243
 10
145.9463710931
 20
90.2917330801
 10
149.1889707671
 20
91.5983635999
 10
152.4190463344
 20
92.8091031868
 10
155.6347800931
 20
93.9232705059
 10
158.8343624124
 20
94.9402385677
 10
162.0159927504
 20
95.8594350805
 10
165.1778806676
 20
96.6803427733
 10
168.3182468344
 20
97.4024996862
  0
LWPOLYLINE
  5
36B
330
1F
100
AcDbEntity
  8
0
  6
Continuous
 62
     7
370
    25
100
AcDbPolyline
 90
        3
 70
   128
 43
0.0
 10
83.8864661609
 20
48.1614762801
 10
84.1302022039
 20
48.311009308
 10
84.3993002407
 20
48.534285941
  0
LWPOLYLINE
  5
36C
330
1F
100
AcDbEntity
  8
0
  6
Continuous
 62
     7
370
    25
100
AcDbPolyline
 90
        8
 70
   128
 43
0.0
 10
81.7615867326
 20
48.7274501775
 10
81.8141001095
 20
48.8676247872
 10
81.8930262861
 20
48.9994412755
 10
81.9909092831
 20
49.1104472335
 10
82.0985023126
 20
49.1901561765
 10
82.2056413014
 20
49.2310381787
 10
82.3022050689
 20
49.2292312088
 10
82.343675694
 20
49.2121733096
  0
LWPOLYLINE
  5
36D
330
1F
100
AcDbEntity
  8
0
  6
Continuous
 62
     7
370
    25
100
AcDbPolyline
 90
       12
 70
   128
 43
0.0
 10
76.165484454
 20
42.6447708995
 10
76.755189342
 20
42.7623667451
 10
77.3667334969
 20
42.9942764714
 10
77.9870370457
 20
43.3355399298
 10
78.6028327668
 20
43.7788580845
 10
79.2009498533
 20
44.3147491258
 10
79.7685956139
 20
44.93175127
 10
80.2936290861
 20
45.6166679068
 10
80.7648207107
 20
46.3548498524
 10
81.1720925129
 20
47.13050867
 10
81.5067336522
 20
47.9270543572
 10
81.7615867326
 20
48.7274501775
  0
ARC
  5
36E
330
1F
100
AcDbEntity
  8
0
  6
Continuous
 62
     7
370
    25
100
AcDbCircle
 10
76.3513447144
 20
42.0041073158
 30
0.0
 40
0.6670786040087374
100
AcDbArc
 50
106.1777537061
 51
193.3527940318
  0
LINE
  5
36F
330
1F
100
AcDbEntity
  8
0
  6
Continuous
 62
     7
370
    25
100
AcDbLine
 10
73.2712054814
 20
47.5734492485
 30
0.0
 11
75.7022995898
 21
41.8500479435
 31
0.0
  0
LWPOLYLINE
  5
370
330
1F
100
AcDbEntity
  8
0
  6
Continuous
 62
     7
370
    25
100
AcDbPolyline
 90
        3
 70
   128
 43
0.0
 10
73.350178084
 20
47.4799565344
 10
73.3224170583
 20
47.5000177115
 10
73.2712054814
 20
47.5734492485
  0
LINE
  5
371
330
1F
100
AcDbEntity
  8
0
  6
Continuous
 62
     7
370
    25
100
AcDbLine
 10
102.1417636559
 20
72.9285902793
 30
0.0
 11
105.1388256347
 21
75.2188223291
 31
0.0
  0
LINE
  5
372
330
1F
100
AcDbEntity
  8
0
  6
Continuous
 62
     7
370
    25
100
AcDbLine
 10
103.0308003735
 20
67.1024671123
 30
0.0
 11
102.1417636559
 21
72.9285902793
 31
0.0
  0
LINE
  5
373
330
1F
100
AcDbEntity
  8
0
  6
Continuous
 62
     7
370
    25
100
AcDbLine
 10
110.0632309936
 20
73.5350584082
 30
0.0
 11
110.5064815847
 21
73.8564921944
 31
0.0
  0
LINE
  5
374
330
1F
100
AcDbEntity
  8
0
  6
Continuous
 62
     7
370
    25
100
AcDbLine
 10
107.3407936815
 20
76.8742376226
 30
0.0
 11
108.3931627323
 21
77.6369171603
 31
0.0
  0
LINE
  5
375
330
1F
100
AcDbEntity
  8
0
  6
Continuous
 62
     7
370
    25
100
AcDbLine
 10
108.0489588642
 20
70.895929882
 30
0.0
 11
107.3407936815
 21
76.8742376226
 31
0.0
  0
LINE
  5
376
330
1F
100
AcDbEntity
  8
0
  6
Continuous
 62
     7
370
    25
100
AcDbLine
 10
114.631978902
 20
76.7502564365
 30
0.0
 11
115.4700427788
 21
77.3236789079
 31
0.0
  0
LINE
  5
377
330
1F
100
AcDbEntity
  8
0
  6
Continuous
 62
     7
370
    25
100
AcDbLine
 10
112.0100900199
 20
80.2282808111
 30
0.0
 11
115.0496640878
 21
82.3086507219
 31
0.0
  0
LINE
  5
378
330
1F
100
AcDbEntity
  8
0
  6
Continuous
 62
     7
370
    25
100
AcDbLine
 10
112.5268871341
 20
74.0963817966
 30
0.0
 11
112.0100900199
 21
80.2282808111
 31
0.0
  0
LINE
  5
379
330
1F
100
AcDbEntity
  8
0
  6
Continuous
 62
     7
370
    25
100
AcDbLine
 10
118.0187671926
 20
77.7957192289
 30
0.0
 11
117.8063458529
 21
81.8058466361
 31
0.0
  0
LINE
  5
37A
330
1F
100
AcDbEntity
  8
0
  6
Continuous
 62
     7
370
    25
100
AcDbLine
 10
116.703514616
 20
83.3797588878
 30
0.0
 11
119.7720528832
 21
85.3610982138
 31
0.0
  0
LINE
  5
37B
330
1F
100
AcDbEntity
  8
0
  6
Continuous
 62
     7
370
    25
100
AcDbLine
 10
116.7650609258
 20
82.2128605111
 30
0.0
 11
116.703514616
 21
83.3797588878
 31
0.0
  0
LINE
  5
37C
330
1F
100
AcDbEntity
  8
0
  6
Continuous
 62
     7
370
    25
100
AcDbLine
 10
148.9605239345
 20
93.9634427067
 30
0.0
 11
148.9430404168
 21
94.0455243142
 31
0.0
  0
LINE
  5
37D
330
1F
100
AcDbEntity
  8
0
  6
Continuous
 62
     7
370
    25
100
AcDbLine
 10
147.6825997706
 20
99.9349291015
 30
0.0
 11
148.2065374999
 21
100.1478433409
 31
0.0
  0
LINE
  5
37E
330
1F
100
AcDbEntity
  8
0
  6
Continuous
 62
     7
370
    25
100
AcDbLine
 10
144.7502890434
 20
92.2504820269
 30
0.0
 11
147.6825997706
 21
99.9349291015
 31
0.0
  0
LINE
  5
37F
330
1F
100
AcDbEntity
  8
0
  6
Continuous
 62
     7
370
    25
100
AcDbLine
 10
147.5723736591
 20
100.3693551024
 30
0.0
 11
148.0461216801
 21
101.3005731865
 31
0.0
  0
ARC
  5
380
330
1F
100
AcDbEntity
  8
0
  6
Continuous
 62
     7
370
    25
100
AcDbCircle
 10
175.1078329295
 20
98.1408671277
 30
0.0
 40
2.716354245727096
100
AcDbArc
 50
287.9613979255
 51
347.4170384048
  0
LWPOLYLINE
  5
381
330
1F
100
AcDbEntity
  8
0
  6
Continuous
 62
     7
370
    25
100
AcDbPolyline
 90
       31
 70
   128
 43
0.0
 10
79.6491893739
 20
39.4810215832
 10
82.7274627225
 20
42.5673932491
 10
85.8320997138
 20
45.5831662584
 10
88.961306466
 20
48.5265980756
 10
92.1132749008
 20
51.3959879644
 10
95.286183788
 20
54.1896779706
 10
98.4781997978
 20
56.9060538798
 10
101.6874785601
 20
59.5435461503
 10
104.9121657305
 20
62.10063082
 10
108.1503980614
 20
64.5758303867
 10
111.4003044785
 20
66.9677146623
 10
114.6600071625
 20
69.2749015986
 10
117.9276226334
 20
71.4960580863
 10
121.2012628394
 20
73.6299007252
 10
124.4790362473
 20
75.6751965653
 10
127.759048936
 20
77.63076382
 10
131.0394056904
 20
79.4954725483
 10
134.3182110964
 20
81.268245308
 10
137.5935706367
 20
82.9480577781
 10
140.8635917846
 20
84.5339393509
 10
144.1263850983
 20
86.0249736924
 10
147.380065312
 20
87.4202992722
 10
150.6227524259
 20
88.719109861
 10
153.8525727917
 20
89.9206549967
 10
157.0676601959
 20
91.0242404178
 10
160.2661569375
 20
92.0292284646
 10
163.4462149021
 20
92.9350384477
 10
166.605996629
 20
93.7411469836
 10
169.7436763735
 20
94.4470882969
 10
172.8574411614
 20
95.0524544895
 10
175.9454918369
 20
95.5568957766
  0
LWPOLYLINE
  5
382
330
1F
100
AcDbEntity
  8
0
  6
Continuous
 62
     7
370
    25
100
AcDbPolyline
 90
        9
 70
   128
 43
0.0
 10
77.828661812
 20
39.3570644353
 10
77.9540772535
 20
39.1463068987
 10
78.1246422439
 20
38.9950544007
 10
78.3338875517
 20
38.9090436836
 10
78.5738768688
 20
38.8915369834
 10
78.8355078205
 20
38.9431982985
 10
79.1088572029
 20
39.0620682058
 10
79.3835573526
 20
39.2436381777
 10
79.6491893739
 20
39.4810215832
  0
LINE
  5
383
330
1F
100
AcDbEntity
  8
0
  6
Continuous
 62
     7
370
    25
100
AcDbLine
 10
77.1165131522
 20
41.0336398317
 30
0.0
 11
77.828661812
 21
39.3570644353
 31
0.0
  0
ARC
  5
384
330
1F
100
AcDbEntity
  8
0
  6
Continuous
 62
     7
370
    25
100
AcDbCircle
 10
77.7655582768
 20
41.187699204
 30
0.0
 40
0.6670786040087145
100
AcDbArc
 50
106.177753706
 51
193.3527940318
  0
LWPOLYLINE
  5
385
330
1F
100
AcDbEntity
  8
0
  6
Continuous
 62
     7
370
    25
100
AcDbPolyline
 90
       12
 70
   128
 43
0.0
 10
77.5796980164
 20
41.8283627877
 10
78.1694029043
 20
41.9459586333
 10
78.7809470593
 20
42.1778683595
 10
79.4012506081
 20
42.519131818
 10
80.0170463292
 20
42.9624499727
 10
80.6151634157
 20
43.498341014
 10
81.1828091763
 20
44.1153431582
 10
81.7078426484
 20
44.800259795
 10
82.1790342731
 20
45.5384417406
 10
82.5863060753
 20
46.3141005582
 10
82.9209472146
 20
47.1106462454
 10
83.175800295
 20
47.9110420657
  0
LWPOLYLINE
  5
386
330
1F
100
AcDbEntity
  8
0
  6
Continuous
 62
     7
370
    25
100
AcDbPolyline
 90
        9
 70
   128
 43
0.0
 10
83.8431926169
 20
48.2858416487
 10
83.7932850141
 20
48.3684978554
 10
83.7164186312
 20
48.412823097
 10
83.6198548638
 20
48.4146300669
 10
83.5127158749
 20
48.3737480646
 10
83.4051228455
 20
48.2940391217
 10
83.3072398485
 20
48.1830331637
 10
83.2283136719
 20
48.0512166754
 10
83.175800295
 20
47.9110420657
  0
LINE
  5
387
330
1F
100
AcDbEntity
  8
0
  6
Continuous
 62
     7
370
    25
100
AcDbLine
 10
83.8431926169
 20
48.2858416487
 30
0.0
 11
84.0372491743
 21
47.7281356444
 31
0.0
  0
LWPOLYLINE
  5
388
330
1F
100
AcDbEntity
  8
0
  6
Continuous
 62
     7
370
    25
100
AcDbPolyline
 90
        9
 70
   128
 43
0.0
 10
84.0372491743
 20
47.7281356444
 10
84.1496754806
 20
47.5026557326
 10
84.3087153279
 20
47.3347599209
 10
84.5083352051
 20
47.2308176903
 10
84.7409621124
 20
47.1947723077
 10
84.9977708588
 20
47.2279912305
 10
85.2690188646
 20
47.3292142291
 10
85.5444157663
 20
47.4946011961
 10
85.8135138031
 20
47.7178778292
  0
LWPOLYLINE
  5
389
330
1F
100
AcDbEntity
  8
0
  6
Continuous
 62
     7
370
    25
100
AcDbPolyline
 90
       27
 70
   128
 43
0.0
 10
85.8135138031
 20
47.7178778292
 10
88.9455176969
 20
50.6482872705
 10
92.0996948905
 20
53.505390711
 10
95.2742703935
 20
56.2875803362
 10
98.4674577365
 20
58.9932904892
 10
101.6774599764
 20
61.6209985509
 10
104.9024707076
 20
64.1692257978
 10
108.1406750786
 20
66.6365382333
 10
111.3902508132
 20
69.0215473952
 10
114.6493692362
 20
71.3229111367
 10
117.9161963022
 20
73.5393343821
 10
121.188893628
 20
75.6695698551
 10
124.4656195266
 20
77.7124187812
 10
127.7445300442
 20
79.6667315619
 10
131.0237799977
 20
81.5314084217
 10
134.3015240128
 20
83.3054000272
 10
137.5759175627
 20
84.9877080775
 10
140.8451180062
 20
86.5773858658
 10
144.1072856242
 20
88.0735388125
 10
147.3605846555
 20
89.4753249682
 10
150.6031843295
 20
90.781955488
 10
153.8332598968
 20
91.992695075
 10
157.0489936555
 20
93.1068623941
 10
160.2485759748
 20
94.1238304558
 10
163.4302063128
 20
95.0430269687
 10
166.59209423
 20
95.8639346615
 10
169.7324603968
 20
96.5860915744
  0
ARC
  5
38A
330
1F
100
AcDbEntity
  8
0
  6
Continuous
 62
     7
370
    25
100
AcDbCircle
 10
168.7480825872
 20
99.2161935699
 30
0.0
 40
2.80827993238168
100
AcDbArc
 50
290.5195493307
 51
348.5868322193
  0
LINE
  5
38B
330
1F
100
AcDbEntity
  8
0
  6
Continuous
 62
     7
370
    25
100
AcDbLine
 10
171.500830814
 20
98.660483773
 30
0.0
 11
171.6961599947
 21
99.4674439089
 31
0.0
  0
LWPOLYLINE
  5
38C
330
1F
100
AcDbEntity
  8
0
  6
Continuous
 62
     7
370
    25
100
AcDbPolyline
 90
        9
 70
   128
 43
0.0
 10
172.3640051793
 20
99.8684571879
 10
172.3109689161
 20
99.9476247388
 10
172.2315221172
 20
99.9877082567
 10
172.1331972176
 20
99.9849073811
 10
172.0253165045
 20
99.9394876659
 10
171.9181082622
 20
99.8557554021
 10
171.8217370171
 20
99.741649334
 10
171.7453398286
 20
99.6079879783
 10
171.6961599947
 20
99.4674439089
  0
LWPOLYLINE
  5
38D
330
1F
100
AcDbEntity
  8
0
  6
Continuous
 62
     7
370
    25
100
AcDbPolyline
 90
       13
 70
   128
 43
0.0
 10
172.3640051793
 20
99.8684571879
 10
172.5974230213
 20
99.4021508329
 10
172.8985565248
 20
99.016528116
 10
173.2619617748
 20
98.718560355
 10
173.6810691026
 20
98.5136342346
 10
174.1483018527
 20
98.4054544253
 10
174.6552133549
 20
98.3959766103
 10
175.1926396229
 20
98.4853721302
 10
175.7508650225
 20
98.6720248857
 10
176.3197979109
 20
98.9525605538
 10
176.8891530744
 20
99.3219075884
 10
177.4486376658
 20
99.7733889047
 10
177.9881372783
 20
100.2988425881
  0
LWPOLYLINE
  5
38E
330
1F
100
AcDbEntity
  8
0
  6
Continuous
 62
     7
370
    25
100
AcDbPolyline
 90
        9
 70
   128
 43
0.0
 10
178.4552895497
 20
100.0458794592
 10
178.4777894936
 20
100.1747570779
 10
178.470454091
 20
100.288985529
 10
178.4339040811
 20
100.3788985308
 10
178.371232412
 20
100.4368874327
 10
178.2877425086
 20
100.4580450767
 10
178.1904994838
 20
100.440581053
 10
178.0877322723
 20
100.3859732085
 10
177.9881372783
 20
100.2988425881
  0
LINE
  5
38F
330
1F
100
AcDbEntity
  8
0
  6
Continuous
 62
     7
370
    25
100
AcDbLine
 10
177.7589446637
 20
97.5491011593
 30
0.0
 11
178.4552895497
 21
100.0458794592
 31
0.0
  0
ARC
  5
390
330
1F
100
AcDbEntity
  8
0
  6
Continuous
 62
     7
370
    25
100
AcDbCircle
 10
73.0294479354
 20
51.1522811659
 30
0.0
 40
2.692017441769817
100
AcDbArc
 50
132.3565696012
 51
192.9218832888
  0
LINE
  5
391
330
1F
100
AcDbEntity
  8
0
  6
Continuous
 62
     7
370
    25
100
AcDbLine
 10
70.405603531
 20
50.5502857767
 30
0.0
 11
74.293127906
 21
41.3980847149
 31
0.0
  0
ARC
  5
392
330
1F
100
AcDbEntity
  8
0
  6
Continuous
 62
     7
370
    25
100
AcDbCircle
 10
73.4230508359
 20
50.6201288121
 30
0.0
 40
4.025492332790662
100
AcDbArc
 50
310.8132101299
 51
349.1921664028
  0
ARC
  5
393
330
1F
100
AcDbEntity
  8
0
  6
Continuous
 62
     7
370
    25
100
AcDbCircle
 10
74.9886587347
 20
41.6651938782
 30
0.0
 40
0.7450573392211266
100
AcDbArc
 50
201.0086075295
 51
239.3664570934
  0
LINE
  5
394
330
1F
100
AcDbEntity
  8
0
  6
Continuous
 62
     7
370
    25
100
AcDbLine
 10
106.4506497565
 20
74.1794375523
 30
0.0
 11
105.1388256347
 21
75.2188223291
 31
0.0
  0
LINE
  5
395
330
1F
100
AcDbEntity
  8
0
  6
Continuous
 62
     7
370
    25
100
AcDbLine
 10
103.6978953242
 20
72.0758953265
 30
0.0
 11
106.4506497565
 21
74.1794375523
 31
0.0
  0
LINE
  5
396
330
1F
100
AcDbEntity
  8
0
  6
Continuous
 62
     7
370
    25
100
AcDbLine
 10
103.6978953242
 20
72.0758953265
 30
0.0
 11
102.1417636559
 21
72.9285902793
 31
0.0
  0
LINE
  5
397
330
1F
100
AcDbEntity
  8
0
  6
Continuous
 62
     7
370
    25
100
AcDbLine
 10
106.4506497565
 20
74.1794375523
 30
0.0
 11
106.5764142441
 21
73.3538620759
 31
0.0
  0
LINE
  5
398
330
1F
100
AcDbEntity
  8
0
  6
Continuous
 62
     7
370
    25
100
AcDbLine
 10
106.5764142441
 20
73.3538620759
 30
0.0
 11
104.6168019109
 21
71.8562682379
 31
0.0
  0
LINE
  5
399
330
1F
100
AcDbEntity
  8
0
  6
Continuous
 62
     7
370
    25
100
AcDbLine
 10
104.6168019109
 20
71.8562682379
 30
0.0
 11
104.8172733578
 21
70.5435951526
 31
0.0
  0
LINE
  5
39A
330
1F
100
AcDbEntity
  8
0
  6
Continuous
 62
     7
370
    25
100
AcDbLine
 10
104.8172733578
 20
70.5435951526
 30
0.0
 11
106.7768131368
 21
72.0411335426
 31
0.0
  0
LINE
  5
39B
330
1F
100
AcDbEntity
  8
0
  6
Continuous
 62
     7
370
    25
100
AcDbLine
 10
106.7768131368
 20
72.0411335426
 30
0.0
 11
106.8997867347
 21
71.2346407437
 31
0.0
  0
LINE
  5
39C
330
1F
100
AcDbEntity
  8
0
  6
Continuous
 62
     7
370
    25
100
AcDbLine
 10
106.8997867347
 20
71.2346407437
 30
0.0
 11
104.9401842922
 21
69.7370544645
 31
0.0
  0
LINE
  5
39D
330
1F
100
AcDbEntity
  8
0
  6
Continuous
 62
     7
370
    25
100
AcDbLine
 10
104.9401842922
 20
69.7370544645
 30
0.0
 11
105.2140190052
 21
67.9446932991
 31
0.0
  0
LINE
  5
39E
330
1F
100
AcDbEntity
  8
0
  6
Continuous
 62
     7
370
    25
100
AcDbLine
 10
105.2140190052
 20
67.9446932991
 30
0.0
 11
107.1735643799
 21
69.4422359655
 31
0.0
  0
LINE
  5
39F
330
1F
100
AcDbEntity
  8
0
  6
Continuous
 62
     7
370
    25
100
AcDbLine
 10
107.1735643799
 20
69.4422359655
 30
0.0
 11
107.3001587972
 21
68.6125786466
 31
0.0
  0
LINE
  5
3A0
330
1F
100
AcDbEntity
  8
0
  6
Continuous
 62
     7
370
    25
100
AcDbLine
 10
107.3001587972
 20
68.6125786466
 30
0.0
 11
104.5473732628
 21
66.5090126539
 31
0.0
  0
LINE
  5
3A1
330
1F
100
AcDbEntity
  8
0
  6
Continuous
 62
     7
370
    25
100
AcDbLine
 10
104.5473732628
 20
66.5090126539
 30
0.0
 11
103.6978953242
 21
72.0758953265
 31
0.0
  0
LINE
  5
3A2
330
1F
100
AcDbEntity
  8
0
  6
Continuous
 62
     7
370
    25
100
AcDbLine
 10
104.5473732628
 20
66.5090126539
 30
0.0
 11
103.0308003735
 21
67.1024671123
 31
0.0
  0
LINE
  5
3A3
330
1F
100
AcDbEntity
  8
0
  6
Continuous
 62
     7
370
    25
100
AcDbLine
 10
106.7768131368
 20
72.0411335426
 30
0.0
 11
105.8350552514
 21
72.787293556
 31
0.0
  0
LINE
  5
3A4
330
1F
100
AcDbEntity
  8
0
  6
Continuous
 62
     7
370
    25
100
AcDbLine
 10
109.7003557013
 20
76.5989124163
 30
0.0
 11
108.3931627323
 21
77.6369171603
 31
0.0
  0
LINE
  5
3A5
330
1F
100
AcDbEntity
  8
0
  6
Continuous
 62
     7
370
    25
100
AcDbLine
 10
108.8934515469
 20
76.0141277469
 30
0.0
 11
109.7003557013
 21
76.5989124163
 31
0.0
  0
LINE
  5
3A6
330
1F
100
AcDbEntity
  8
0
  6
Continuous
 62
     7
370
    25
100
AcDbLine
 10
108.8934515469
 20
76.0141277469
 30
0.0
 11
107.3407936815
 21
76.8742376226
 31
0.0
  0
LINE
  5
3A7
330
1F
100
AcDbEntity
  8
0
  6
Continuous
 62
     7
370
    25
100
AcDbLine
 10
109.5701872356
 20
70.3011467862
 30
0.0
 11
108.8934515469
 21
76.0141277469
 31
0.0
  0
LINE
  5
3A8
330
1F
100
AcDbEntity
  8
0
  6
Continuous
 62
     7
370
    25
100
AcDbLine
 10
109.5701872356
 20
70.3011467862
 30
0.0
 11
108.0489588642
 21
70.895929882
 31
0.0
  0
LINE
  5
3A9
330
1F
100
AcDbEntity
  8
0
  6
Continuous
 62
     7
370
    25
100
AcDbLine
 10
109.7003557013
 20
76.5989124163
 30
0.0
 11
110.2798437606
 21
71.706138368
 31
0.0
  0
LINE
  5
3AA
330
1F
100
AcDbEntity
  8
0
  6
Continuous
 62
     7
370
    25
100
AcDbLine
 10
110.2798437606
 20
71.706138368
 30
0.0
 11
111.8136928321
 21
72.8184457723
 31
0.0
  0
LINE
  5
3AB
330
1F
100
AcDbEntity
  8
0
  6
Continuous
 62
     7
370
    25
100
AcDbLine
 10
111.8136928321
 20
72.8184457723
 30
0.0
 11
111.9109274569
 21
71.9981642598
 31
0.0
  0
LINE
  5
3AC
330
1F
100
AcDbEntity
  8
0
  6
Continuous
 62
     7
370
    25
100
AcDbLine
 10
111.9109274569
 20
71.9981642598
 30
0.0
 11
109.5701872356
 21
70.3011467862
 31
0.0
  0
LINE
  5
3AD
330
1F
100
AcDbEntity
  8
0
  6
Continuous
 62
     7
370
    25
100
AcDbLine
 10
107.1735643799
 20
69.4422359655
 30
0.0
 11
105.8875975112
 21
70.4610957327
 31
0.0
  0
LINE
  5
3AE
330
1F
100
AcDbEntity
  8
0
  6
Continuous
 62
     7
370
    25
100
AcDbLine
 10
116.3520237727
 20
81.2721968972
 30
0.0
 11
115.0496640878
 21
82.3086507219
 31
0.0
  0
LINE
  5
3AF
330
1F
100
AcDbEntity
  8
0
  6
Continuous
 62
     7
370
    25
100
AcDbLine
 10
113.558935895
 20
79.3605290618
 30
0.0
 11
116.3520237727
 21
81.2721968972
 31
0.0
  0
LINE
  5
3B0
330
1F
100
AcDbEntity
  8
0
  6
Continuous
 62
     7
370
    25
100
AcDbLine
 10
113.558935895
 20
79.3605290618
 30
0.0
 11
112.0100900199
 21
80.2282808111
 31
0.0
  0
LINE
  5
3B1
330
1F
100
AcDbEntity
  8
0
  6
Continuous
 62
     7
370
    25
100
AcDbLine
 10
116.3520237727
 20
81.2721968972
 30
0.0
 11
116.4248603153
 21
80.4007966948
 31
0.0
  0
LINE
  5
3B2
330
1F
100
AcDbEntity
  8
0
  6
Continuous
 62
     7
370
    25
100
AcDbLine
 10
116.4248603153
 20
80.4007966948
 30
0.0
 11
114.4379994428
 21
79.0413410454
 31
0.0
  0
LINE
  5
3B3
330
1F
100
AcDbEntity
  8
0
  6
Continuous
 62
     7
370
    25
100
AcDbLine
 10
114.4379994428
 20
79.0413410454
 30
0.0
 11
114.5550714892
 21
77.6618109081
 31
0.0
  0
LINE
  5
3B4
330
1F
100
AcDbEntity
  8
0
  6
Continuous
 62
     7
370
    25
100
AcDbLine
 10
114.5550714892
 20
77.6618109081
 30
0.0
 11
116.5417131278
 21
79.0211165527
 31
0.0
  0
LINE
  5
3B5
330
1F
100
AcDbEntity
  8
0
  6
Continuous
 62
     7
370
    25
100
AcDbLine
 10
116.5417131278
 20
79.0211165527
 30
0.0
 11
116.6134335818
 21
78.1716743121
 31
0.0
  0
LINE
  5
3B6
330
1F
100
AcDbEntity
  8
0
  6
Continuous
 62
     7
370
    25
100
AcDbLine
 10
116.6134335818
 20
78.1716743121
 30
0.0
 11
114.626738648
 21
76.8123322018
 31
0.0
  0
LINE
  5
3B7
330
1F
100
AcDbEntity
  8
0
  6
Continuous
 62
     7
370
    25
100
AcDbLine
 10
114.626738648
 20
76.8123322018
 30
0.0
 11
114.7858102543
 21
74.9279785589
 31
0.0
  0
LINE
  5
3B8
330
1F
100
AcDbEntity
  8
0
  6
Continuous
 62
     7
370
    25
100
AcDbLine
 10
114.7858102543
 20
74.9279785589
 30
0.0
 11
116.7724622251
 21
76.287291273
 31
0.0
  0
LINE
  5
3B9
330
1F
100
AcDbEntity
  8
0
  6
Continuous
 62
     7
370
    25
100
AcDbLine
 10
116.7724622251
 20
76.287291273
 30
0.0
 11
116.8460698218
 21
75.411705966
 31
0.0
  0
LINE
  5
3BA
330
1F
100
AcDbEntity
  8
0
  6
Continuous
 62
     7
370
    25
100
AcDbLine
 10
116.8460698218
 20
75.411705966
 30
0.0
 11
114.0528654277
 21
73.4999583834
 31
0.0
  0
LINE
  5
3BB
330
1F
100
AcDbEntity
  8
0
  6
Continuous
 62
     7
370
    25
100
AcDbLine
 10
114.0528654277
 20
73.4999583834
 30
0.0
 11
113.558935895
 21
79.3605290618
 31
0.0
  0
LINE
  5
3BC
330
1F
100
AcDbEntity
  8
0
  6
Continuous
 62
     7
370
    25
100
AcDbLine
 10
114.0528654277
 20
73.4999583834
 30
0.0
 11
112.5268871341
 21
74.0963817966
 31
0.0
  0
LINE
  5
3BD
330
1F
100
AcDbEntity
  8
0
  6
Continuous
 62
     7
370
    25
100
AcDbLine
 10
111.8136928321
 20
72.8184457723
 30
0.0
 11
110.5064815847
 21
73.8564921944
 31
0.0
  0
LINE
  5
3BE
330
1F
100
AcDbEntity
  8
0
  6
Continuous
 62
     7
370
    25
100
AcDbLine
 10
116.5417131278
 20
79.0211165527
 30
0.0
 11
115.5554142106
 21
79.8059017853
 31
0.0
  0
LINE
  5
3BF
330
1F
100
AcDbEntity
  8
0
  6
Continuous
 62
     7
370
    25
100
AcDbLine
 10
121.0700556929
 20
84.3265268138
 30
0.0
 11
119.7720528832
 21
85.3610982138
 31
0.0
  0
LINE
  5
3C0
330
1F
100
AcDbEntity
  8
0
  6
Continuous
 62
     7
370
    25
100
AcDbLine
 10
118.2485396823
 20
82.5046884844
 30
0.0
 11
121.0700556929
 21
84.3265268138
 31
0.0
  0
LINE
  5
3C1
330
1F
100
AcDbEntity
  8
0
  6
Continuous
 62
     7
370
    25
100
AcDbLine
 10
118.2485396823
 20
82.5046884844
 30
0.0
 11
116.703514616
 21
83.3797588878
 31
0.0
  0
LINE
  5
3C2
330
1F
100
AcDbEntity
  8
0
  6
Continuous
 62
     7
370
    25
100
AcDbLine
 10
121.0700556929
 20
84.3265268138
 30
0.0
 11
121.1170027339
 21
83.4364259112
 31
0.0
  0
LINE
  5
3C3
330
1F
100
AcDbEntity
  8
0
  6
Continuous
 62
     7
370
    25
100
AcDbLine
 10
121.1170027339
 20
83.4364259112
 30
0.0
 11
120.1063687137
 21
82.7836268728
 31
0.0
  0
LINE
  5
3C4
330
1F
100
AcDbEntity
  8
0
  6
Continuous
 62
     7
370
    25
100
AcDbLine
 10
120.1063687137
 20
82.7836268728
 30
0.0
 11
120.3740860398
 21
77.7296121122
 31
0.0
  0
LINE
  5
3C5
330
1F
100
AcDbEntity
  8
0
  6
Continuous
 62
     7
370
    25
100
AcDbLine
 10
120.3740860398
 20
77.7296121122
 30
0.0
 11
119.5491643149
 21
77.1973927361
 31
0.0
  0
LINE
  5
3C6
330
1F
100
AcDbEntity
  8
0
  6
Continuous
 62
     7
370
    25
100
AcDbLine
 10
119.5491643149
 20
77.1973927361
 30
0.0
 11
119.2814368853
 21
82.2515982347
 31
0.0
  0
LINE
  5
3C7
330
1F
100
AcDbEntity
  8
0
  6
Continuous
 62
     7
370
    25
100
AcDbLine
 10
119.2814368853
 20
82.2515982347
 30
0.0
 11
118.2954832039
 21
81.6146543087
 31
0.0
  0
LINE
  5
3C8
330
1F
100
AcDbEntity
  8
0
  6
Continuous
 62
     7
370
    25
100
AcDbLine
 10
118.2954832039
 20
81.6146543087
 30
0.0
 11
118.2485396823
 21
82.5046884844
 31
0.0
  0
LINE
  5
3C9
330
1F
100
AcDbEntity
  8
0
  6
Continuous
 62
     7
370
    25
100
AcDbLine
 10
118.2954832039
 20
81.6146543087
 30
0.0
 11
116.7650609258
 21
82.2128605111
 31
0.0
  0
LINE
  5
3CA
330
1F
100
AcDbEntity
  8
0
  6
Continuous
 62
     7
370
    25
100
AcDbLine
 10
116.7724622251
 20
76.287291273
 30
0.0
 11
115.4700427788
 21
77.3236789079
 31
0.0
  0
LINE
  5
3CB
330
1F
100
AcDbEntity
  8
0
  6
Continuous
 62
     7
370
    25
100
AcDbLine
 10
119.5491643149
 20
77.1973927361
 30
0.0
 11
118.0187671926
 21
77.7957192289
 31
0.0
  0
SPLINE
  5
3CC
330
1F
100
AcDbEntity
  8
0
  6
Continuous
 62
     7
370
    25
100
AcDbSpline
210
0.0
220
0.0
230
1.0
 70
     8
 71
     3
 72
    44
 73
    40
 74
     0
 42
0.00000001
 43
0.00000001
 40
-0.0002073387383367
 40
-0.0002073387383367
 40
-0.0002073387383367
 40
-0.0002073387383367
 40
0.0
 40
0.0
 40
0.0
 40
0.125
 40
0.125
 40
0.25
 40
0.25
 40
0.3124999999999999
 40
0.3124999999999999
 40
0.3749999999999999
 40
0.3749999999999999
 40
0.4062499999999999
 40
0.4062499999999999
 40
0.4374999999999999
 40
0.4374999999999999
 40
0.4687499999999999
 40
0.4687499999999999
 40
0.4999999999999999
 40
0.4999999999999999
 40
0.5312499999999999
 40
0.5312499999999999
 40
0.5624999999999999
 40
0.5624999999999999
 40
0.6249999999999999
 40
0.6249999999999999
 40
0.6874999999999999
 40
0.6874999999999999
 40
0.7499999999999999
 40
0.7499999999999999
 40
0.8124999999999999
 40
0.8124999999999999
 40
0.8749999999999999
 40
0.8749999999999999
 40
0.9999999999999999
 40
0.9999999999999999
 40
0.9999999999999999
 40
1.003637734395589
 40
1.003637734395589
 40
1.003637734395589
 40
1.003637734395589
 10
124.6719816025306
 20
84.05473751104944
 30
0.0
 10
124.6720654449848
 20
84.05478886901618
 30
0.0
 10
124.6721492874389
 20
84.05484022698289
 30
0.0
 10
124.672233129893
 20
84.05489158494962
 30
0.0
 10
124.7227799155614
 20
84.08585418215011
 30
0.0
 10
124.7766421226724
 20
84.11896244396385
 30
0.0
 10
124.8833285194707
 20
84.18925180537951
 30
0.0
 10
124.9348663636156
 20
84.22433667603919
 30
0.0
 10
125.0171880582002
 20
84.28442522468585
 30
0.0
 10
125.0454263200725
 20
84.30609500393076
 30
0.0
 10
125.0991657988705
 20
84.34901522997798
 30
0.0
 10
125.1243581322934
 20
84.36965649286037
 30
0.0
 10
125.1648079711727
 20
84.40362344127747
 30
0.0
 10
125.1786884308461
 20
84.41548856855324
 30
0.0
 10
125.2071367418616
 20
84.44066450356947
 30
0.0
 10
125.2218802786745
 20
84.45419393886847
 30
0.0
 10
125.2501229527541
 20
84.48111281494045
 30
0.0
 10
125.2638203757584
 20
84.49462740042418
 30
0.0
 10
125.2904444778278
 20
84.52149222077043
 30
0.0
 10
125.3031258566276
 20
84.53451928635918
 30
0.0
 10
125.3302808956596
 20
84.56315306234302
 30
0.0
 10
125.3444777461407
 20
84.5785409773614
 30
0.0
 10
125.3737248155875
 20
84.61209022789404
 30
0.0
 10
125.3886521722651
 20
84.63022944267392
 30
0.0
 10
125.4308667249599
 20
84.68465448615301
 30
0.0
 10
125.4567512658504
 20
84.72184371811079
 30
0.0
 10
125.5062215972651
 20
84.80120739656397
 30
0.0
 10
125.5295494321882
 20
84.84331736945735
 30
0.0
 10
125.5707911820977
 20
84.93039059171988
 30
0.0
 10
125.5878563430001
 20
84.97338382923938
 30
0.0
 10
125.6164415003723
 20
85.05689981685224
 30
0.0
 10
125.6280050917446
 20
85.09720921869935
 30
0.0
 10
125.647230415129
 20
85.17751110108662
 30
0.0
 10
125.6547071201139
 20
85.21721123144907
 30
0.0
 10
125.670361923696
 20
85.33388701405231
 30
0.0
 10
125.6706818677221
 20
85.40218437533132
 30
0.0
 10
125.6712550360961
 20
85.46093113685166
 30
0.0
 10
125.6712717163705
 20
85.46264077777174
 30
0.0
 10
125.671288396645
 20
85.46435041869182
 30
0.0
 10
125.6713050769195
 20
85.46606005961193
 30
0.0
  0
SPLINE
  5
3CD
330
1F
100
AcDbEntity
  8
0
  6
Continuous
 62
     7
370
    25
100
AcDbSpline
210
0.0
220
0.0
230
1.0
 70
     8
 71
     3
 72
    41
 73
    37
 74
     0
 42
0.00000001
 43
0.00000001
 40
-0.0035241485672894
 40
-0.0035241485672894
 40
-0.0035241485672894
 40
-0.0035241485672894
 40
0.0
 40
0.0
 40
0.0
 40
0.0625
 40
0.0625
 40
0.09375
 40
0.09375
 40
0.125
 40
0.125
 40
0.1875
 40
0.1875
 40
0.25
 40
0.25
 40
0.375
 40
0.375
 40
0.4375
 40
0.4375
 40
0.5
 40
0.5
 40
0.5625
 40
0.5625
 40
0.59375
 40
0.59375
 40
0.625
 40
0.625
 40
0.6875
 40
0.6875
 40
0.75
 40
0.75
 40
0.8125
 40
0.8125
 40
0.875
 40
0.875
 40
1.000000077830838
 40
1.000000077830838
 40
1.000000077830838
 40
1.000000077830838
 10
125.6713050769193
 20
85.46606005961199
 30
0.0
 10
125.6712167438478
 20
85.46770620876651
 30
0.0
 10
125.6711284107763
 20
85.469352357921
 30
0.0
 10
125.6710400777048
 20
85.47099850707548
 30
0.0
 10
125.6694735101032
 20
85.50019260039832
 30
0.0
 10
125.6678359887369
 20
85.53283143591835
 30
0.0
 10
125.6614563875479
 20
85.58421274707942
 30
0.0
 10
125.6585933287242
 20
85.60154298597061
 30
0.0
 10
125.6517613090313
 20
85.63418014299076
 30
0.0
 10
125.6477743787012
 20
85.64982684374581
 30
0.0
 10
125.6343946634144
 20
85.69487970354083
 30
0.0
 10
125.6236431765828
 20
85.7231379639809
 30
0.0
 10
125.5957566567068
 20
85.7767584250011
 30
0.0
 10
125.5785844039878
 20
85.8008630384303
 30
0.0
 10
125.5235692869819
 20
85.86110026997542
 30
0.0
 10
125.4814895749519
 20
85.89003080967966
 30
0.0
 10
125.4064681191521
 20
85.91790596066087
 30
0.0
 10
125.3794138542546
 20
85.92413891131027
 30
0.0
 10
125.32288139311
 20
85.92962007414354
 30
0.0
 10
125.2931039917599
 20
85.9286991406433
 30
0.0
 10
125.2352454367851
 20
85.92192226277106
 30
0.0
 10
125.2077896047456
 20
85.91720783559326
 30
0.0
 10
125.15866789914
 20
85.90346400853768
 30
0.0
 10
125.1427690636504
 20
85.89801516559203
 30
0.0
 10
125.1136856114857
 20
85.8873718693316
 30
0.0
 10
125.1005387866592
 20
85.88230261146838
 30
0.0
 10
125.0587161356331
 20
85.86575456182871
 30
0.0
 10
125.0287169912134
 20
85.85269734684215
 30
0.0
 10
124.9721291191603
 20
85.82567706690025
 30
0.0
 10
124.9451287697918
 20
85.81199184002871
 30
0.0
 10
124.89093442329
 20
85.78389906906474
 30
0.0
 10
124.8640387311433
 20
85.76954874493615
 30
0.0
 10
124.8107655494421
 20
85.74069170146123
 30
0.0
 10
124.7845553436705
 20
85.72635347183902
 30
0.0
 10
124.7038354244715
 20
85.68144747120282
 30
0.0
 10
124.6472842579695
 20
85.64764890353516
 30
0.0
 10
124.5957763798299
 20
85.61635739649707
 30
0.0
  0
LINE
  5
3CE
330
1F
100
AcDbEntity
  8
0
  6
Continuous
 62
     7
370
    25
100
AcDbLine
 10
124.5957762836
 20
85.616357338
 30
0.0
 11
124.1790313013
 21
85.3628762435
 31
0.0
  0
LINE
  5
3CF
330
1F
100
AcDbEntity
  8
0
  6
Continuous
 62
     7
370
    25
100
AcDbLine
 10
124.1790313013
 20
85.3628762435
 30
0.0
 11
124.2132232334
 21
83.7758796003
 31
0.0
  0
LINE
  5
3D0
330
1F
100
AcDbEntity
  8
0
  6
Continuous
 62
     7
370
    25
100
AcDbLine
 10
124.2132232334
 20
83.7758796003
 30
0.0
 11
124.6719816025
 21
84.054737511
 31
0.0
  0
LINE
  5
3D1
330
1F
100
AcDbEntity
  8
0
  6
Continuous
 62
     7
370
    25
100
AcDbLine
 10
123.3433496704
 20
85.7746806003
 30
0.0
 11
124.3488693695
 21
86.3836326484
 31
0.0
  0
SPLINE
  5
3D2
330
1F
100
AcDbEntity
  8
0
  6
Continuous
 62
     7
370
    25
100
AcDbSpline
210
0.0
220
0.0
230
1.0
 70
     8
 71
     3
 72
    38
 73
    34
 74
     0
 42
0.00000001
 43
0.00000001
 40
0.0000769284778793
 40
0.0000769284778793
 40
0.0000769284778793
 40
0.0000769284778793
 40
0.125
 40
0.125
 40
0.25
 40
0.25
 40
0.3125
 40
0.3125
 40
0.375
 40
0.375
 40
0.4375
 40
0.4375
 40
0.5
 40
0.5
 40
0.625
 40
0.625
 40
0.6875
 40
0.6875
 40
0.71875
 40
0.71875
 40
0.75
 40
0.75
 40
0.78125
 40
0.78125
 40
0.8125
 40
0.8125
 40
0.875
 40
0.875
 40
0.90625
 40
0.90625
 40
0.9375
 40
0.9375
 40
0.9991948817092068
 40
0.9991948817092068
 40
0.9991948817092068
 40
0.9991948817092068
 10
124.3488693694798
 20
86.38363264838227
 30
0.0
 10
124.4798698690118
 20
86.46237319821118
 30
0.0
 10
124.6067589212344
 20
86.53735329983786
 30
0.0
 10
124.8641099991891
 20
86.67851144654404
 30
0.0
 10
124.9925529234101
 20
86.74597098161965
 30
0.0
 10
125.1812079014069
 20
86.83378073283122
 30
0.0
 10
125.2436733646228
 20
86.86086799930573
 30
0.0
 10
125.3669188303758
 20
86.9091885286848
 30
0.0
 10
125.4278352316539
 20
86.93051833180252
 30
0.0
 10
125.5445964122408
 20
86.96315641219793
 30
0.0
 10
125.6005505419207
 20
86.97407556531525
 30
0.0
 10
125.7095241933242
 20
86.98399059736813
 30
0.0
 10
125.7624018280217
 20
86.98310547537572
 30
0.0
 10
125.9142081560387
 20
86.96334941164935
 30
0.0
 10
126.006319083855
 20
86.927292159693
 30
0.0
 10
126.1262890985556
 20
86.84274045741111
 30
0.0
 10
126.1632436697637
 20
86.80952897025213
 30
0.0
 10
126.2134709849489
 20
86.75282027694497
 30
0.0
 10
126.2293214414583
 20
86.7327142560074
 30
0.0
 10
126.2601823244243
 20
86.68984374363814
 30
0.0
 10
126.2753351533286
 20
86.66712700530846
 30
0.0
 10
126.3030747618233
 20
86.6214776156331
 30
0.0
 10
126.3154972098572
 20
86.59849822366766
 30
0.0
 10
126.3387730286501
 20
86.5488535750556
 30
0.0
 10
126.3497684850239
 20
86.52221533133286
 30
0.0
 10
126.3806833456777
 20
86.44036172698641
 30
0.0
 10
126.3978369656456
 20
86.38366077523327
 30
0.0
 10
126.417741336763
 20
86.29366989808598
 30
0.0
 10
126.4234177563781
 20
86.26274760387939
 30
0.0
 10
126.4333842956147
 20
86.19873644552354
 30
0.0
 10
126.4377253787761
 20
86.16570853277707
 30
0.0
 10
126.4483210895364
 20
86.06729055431734
 30
0.0
 10
126.4513336576434
 20
86.00111629466281
 30
0.0
 10
126.454057752269
 20
85.92760451267606
 30
0.0
  0
SPLINE
  5
3D3
330
1F
100
AcDbEntity
  8
0
  6
Continuous
 62
     7
370
    25
100
AcDbSpline
210
0.0
220
0.0
230
1.0
 70
     8
 71
     3
 72
    35
 73
    31
 74
     0
 42
0.00000001
 43
0.00000001
 40
0.0012961291085058
 40
0.0012961291085058
 40
0.0012961291085058
 40
0.0012961291085058
 40
0.125
 40
0.125
 40
0.25
 40
0.25
 40
0.3125
 40
0.3125
 40
0.375
 40
0.375
 40
0.4375
 40
0.4375
 40
0.5
 40
0.5
 40
0.5625
 40
0.5625
 40
0.625
 40
0.625
 40
0.6875
 40
0.6875
 40
0.75
 40
0.75
 40
0.8125
 40
0.8125
 40
0.875
 40
0.875
 40
1.0
 40
1.0
 40
1.0
 40
1.071468390121442
 40
1.071468390121442
 40
1.071468390121442
 40
1.071468390121442
 10
126.4540577522694
 20
85.92760451267623
 30
0.0
 10
126.4540757968498
 20
85.83396788624015
 30
0.0
 10
126.4532530435037
 20
85.74643698144199
 30
0.0
 10
126.4394360427732
 20
85.56445725705228
 30
0.0
 10
126.4270125440285
 20
85.47183985627973
 30
0.0
 10
126.3996819458944
 20
85.32799616670128
 30
0.0
 10
126.3893825055495
 20
85.27978246733936
 30
0.0
 10
126.3660715308892
 20
85.18486875877915
 30
0.0
 10
126.3528111271471
 20
85.1373712484017
 30
0.0
 10
126.3229802449785
 20
85.04134670813069
 30
0.0
 10
126.3066486056914
 20
84.9935227715286
 30
0.0
 10
126.2710455055226
 20
84.89947743421352
 30
0.0
 10
126.2509873041375
 20
84.85126251902128
 30
0.0
 10
126.2082328049035
 20
84.7540980069842
 30
0.0
 10
126.1868020784827
 20
84.70820395826995
 30
0.0
 10
126.1404374139725
 20
84.61817729821384
 30
0.0
 10
126.1144869668374
 20
84.57174090271292
 30
0.0
 10
126.0602169226981
 20
84.4787701503971
 30
0.0
 10
126.0318455001747
 20
84.43228075521684
 30
0.0
 10
125.9744700572247
 20
84.34232803196728
 30
0.0
 10
125.9461469921178
 20
84.30017590076116
 30
0.0
 10
125.8856021447359
 20
84.21613073188816
 30
0.0
 10
125.8527428056987
 20
84.17297599122591
 30
0.0
 10
125.7864761517414
 20
84.08814807272286
 30
0.0
 10
125.7533222122562
 20
84.04708437868585
 30
0.0
 10
125.6522677465477
 20
83.92739103350874
 30
0.0
 10
125.5833094841385
 20
83.85418641188078
 30
0.0
 10
125.5070105885912
 20
83.77468907811098
 30
0.0
 10
125.4633869147287
 20
83.72923670640317
 30
0.0
 10
125.4197632408662
 20
83.68378433469536
 30
0.0
 10
125.3761395670037
 20
83.63833196298759
 30
0.0
  0
LINE
  5
3D4
330
1F
100
AcDbEntity
  8
0
  6
Continuous
 62
     7
370
    25
100
AcDbLine
 10
125.376139567
 20
83.638331963
 30
0.0
 11
126.7270315753
 21
81.6509658271
 31
0.0
  0
LINE
  5
3D5
330
1F
100
AcDbEntity
  8
0
  6
Continuous
 62
     7
370
    25
100
AcDbLine
 10
126.7270315753
 20
81.6509658271
 30
0.0
 11
125.8450734338
 21
81.1169634593
 31
0.0
  0
LINE
  5
3D6
330
1F
100
AcDbEntity
  8
0
  6
Continuous
 62
     7
370
    25
100
AcDbLine
 10
125.8450734338
 20
81.1169634593
 30
0.0
 11
124.5296196039
 21
83.0560777428
 31
0.0
  0
LINE
  5
3D7
330
1F
100
AcDbEntity
  8
0
  6
Continuous
 62
     7
370
    25
100
AcDbLine
 10
124.5296196039
 20
83.0560777428
 30
0.0
 11
124.2318676117
 21
82.8750620919
 31
0.0
  0
LINE
  5
3D8
330
1F
100
AcDbEntity
  8
0
  6
Continuous
 62
     7
370
    25
100
AcDbLine
 10
124.2318676117
 20
82.8750620919
 30
0.0
 11
124.2902375441
 21
80.1755672814
 31
0.0
  0
LINE
  5
3D9
330
1F
100
AcDbEntity
  8
0
  6
Continuous
 62
     7
370
    25
100
AcDbLine
 10
124.2902375441
 20
80.1755672814
 30
0.0
 11
123.474145016
 21
79.6820134556
 31
0.0
  0
LINE
  5
3DA
330
1F
100
AcDbEntity
  8
0
  6
Continuous
 62
     7
370
    25
100
AcDbLine
 10
123.474145016
 20
79.6820134556
 30
0.0
 11
123.3433496704
 21
85.7746806003
 31
0.0
  0
LINE
  5
3DB
330
1F
100
AcDbEntity
  8
0
  6
Continuous
 62
     7
370
    25
100
AcDbLine
 10
123.3433496704
 20
85.7746806003
 30
0.0
 11
121.8024168864
 21
86.6572654707
 31
0.0
  0
LINE
  5
3DC
330
1F
100
AcDbEntity
  8
0
  6
Continuous
 62
     7
370
    25
100
AcDbLine
 10
123.474145016
 20
79.6820134556
 30
0.0
 11
121.9392675754
 21
80.2825302484
 31
0.0
  0
LINE
  5
3DD
330
1F
100
AcDbEntity
  8
0
  6
Continuous
 62
     7
370
    25
100
AcDbLine
 10
125.6713050769
 20
85.4660600596
 30
0.0
 11
124.9676629724
 21
85.8052926043
 31
0.0
  0
LINE
  5
3DE
330
1F
100
AcDbEntity
  8
0
  6
Continuous
 62
     7
370
    25
100
AcDbLine
 10
125.8450734338
 20
81.1169634593
 30
0.0
 11
124.3595252445
 21
81.747261655
 31
0.0
  0
LINE
  5
3DF
330
1F
100
AcDbEntity
  8
0
  6
Continuous
 62
     7
370
    25
100
AcDbLine
 10
129.7542282112
 20
89.5607751932
 30
0.0
 11
128.4645841134
 21
90.5909684325
 31
0.0
  0
LINE
  5
3E0
330
1F
100
AcDbEntity
  8
0
  6
Continuous
 62
     7
370
    25
100
AcDbLine
 10
128.9471168312
 20
89.1013637725
 30
0.0
 11
129.7542282112
 21
89.5607751932
 31
0.0
  0
LINE
  5
3E1
330
1F
100
AcDbEntity
  8
0
  6
Continuous
 62
     7
370
    25
100
AcDbLine
 10
128.9471168312
 20
89.1013637725
 30
0.0
 11
127.410023483
 21
89.9907077877
 31
0.0
  0
LINE
  5
3E2
330
1F
100
AcDbEntity
  8
0
  6
Continuous
 62
     7
370
    25
100
AcDbLine
 10
128.9107243358
 20
82.9259333574
 30
0.0
 11
128.9471168312
 21
89.1013637725
 31
0.0
  0
LINE
  5
3E3
330
1F
100
AcDbEntity
  8
0
  6
Continuous
 62
     7
370
    25
100
AcDbLine
 10
128.9107243358
 20
82.9259333574
 30
0.0
 11
127.3719413089
 21
83.5285563418
 31
0.0
  0
LINE
  5
3E4
330
1F
100
AcDbEntity
  8
0
  6
Continuous
 62
     7
370
    25
100
AcDbLine
 10
129.7542282112
 20
89.5607751932
 30
0.0
 11
129.7178357158
 21
83.3853447781
 31
0.0
  0
LINE
  5
3E5
330
1F
100
AcDbEntity
  8
0
  6
Continuous
 62
     7
370
    25
100
AcDbLine
 10
129.7178357158
 20
83.3853447781
 30
0.0
 11
128.9107243358
 21
82.9259333574
 31
0.0
  0
LWPOLYLINE
  5
3E6
330
1F
100
AcDbEntity
  8
0
  6
Continuous
 62
     7
370
    25
100
AcDbPolyline
 90
        4
 70
   128
 43
0.0
 10
134.9969864584
 20
92.5265715555
 10
134.5743744788
 20
92.815280299
 10
134.1517623467
 20
93.1039889317
 10
133.5882871146
 20
93.4889283282
  0
SPLINE
  5
3E7
330
1F
100
AcDbEntity
  8
0
  6
Continuous
 62
     7
370
    25
100
AcDbSpline
210
0.0
220
0.0
230
1.0
 70
     8
 71
     3
 72
    42
 73
    38
 74
     0
 42
0.00000001
 43
0.00000001
 40
0.0004868362782005
 40
0.0004868362782005
 40
0.0004868362782005
 40
0.0004868362782005
 40
0.0625
 40
0.0625
 40
0.125
 40
0.125
 40
0.1875
 40
0.1875
 40
0.25
 40
0.25
 40
0.3125
 40
0.3125
 40
0.375
 40
0.375
 40
0.4375
 40
0.4375
 40
0.46875
 40
0.46875
 40
0.5
 40
0.5
 40
0.5625
 40
0.5625
 40
0.625
 40
0.625
 40
0.6875
 40
0.6875
 40
0.71875
 40
0.71875
 40
0.75
 40
0.75
 40
0.8125
 40
0.8125
 40
0.875
 40
0.875
 40
0.9375
 40
0.9375
 40
0.9994475865162662
 40
0.9994475865162662
 40
0.9994475865162662
 40
0.9994475865162662
 10
132.0388042972105
 20
87.74749851870511
 30
0.0
 10
132.044521282462
 20
87.8619852055936
 30
0.0
 10
132.0504927131583
 20
87.96979154036444
 30
0.0
 10
132.0742888812975
 20
88.19462754387392
 30
0.0
 10
132.0905312479245
 20
88.31060414165007
 30
0.0
 10
132.1302425184174
 20
88.54331285894682
 30
0.0
 10
132.1537896389161
 20
88.65898778763773
 30
0.0
 10
132.212413896256
 20
88.89400359400165
 30
0.0
 10
132.2466964071497
 20
89.01387175140135
 30
0.0
 10
132.3228542760822
 20
89.25224726952366
 30
0.0
 10
132.3649962705738
 20
89.37071187663162
 30
0.0
 10
132.4589448685715
 20
89.607772688089
 30
0.0
 10
132.5103365717162
 20
89.72643834691424
 30
0.0
 10
132.6205779556689
 20
89.9603243203995
 30
0.0
 10
132.6794815509141
 20
90.07502714568824
 30
0.0
 10
132.7745811388465
 20
90.24689883765377
 30
0.0
 10
132.8073721518203
 20
90.3044461760861
 30
0.0
 10
132.8735297764733
 20
90.416927632221
 30
0.0
 10
132.9069046624716
 20
90.47168682261511
 30
0.0
 10
133.0107675736208
 20
90.63442811401018
 30
0.0
 10
133.0857269930553
 20
90.74380007150951
 30
0.0
 10
133.237170172062
 20
90.95426356955097
 30
0.0
 10
133.3151525362508
 20
91.0558372204415
 30
0.0
 10
133.4768757840334
 20
91.25437675068493
 30
0.0
 10
133.5608554201887
 20
91.352432309764
 30
0.0
 10
133.6869948491487
 20
91.49215122120071
 30
0.0
 10
133.7291091572301
 20
91.53726144185298
 30
0.0
 10
133.8151036288325
 20
91.62629532310079
 30
0.0
 10
133.8589100970119
 20
91.6702382374884
 30
0.0
 10
133.9912243142632
 20
91.7998402888692
 30
0.0
 10
134.0796699835855
 20
91.88188985891408
 30
0.0
 10
134.2589894586361
 20
92.0362057052791
 30
0.0
 10
134.3496755053815
 20
92.10847094608371
 30
0.0
 10
134.5328420644325
 20
92.24336318716873
 30
0.0
 10
134.6261178547916
 20
92.30692851406067
 30
0.0
 10
134.8102442290282
 20
92.42310738596906
 30
0.0
 10
134.9007100577121
 20
92.47361941236932
 30
0.0
 10
134.9969864584102
 20
92.52657155550986
 30
0.0
  0
LWPOLYLINE
  5
3E8
330
1F
100
AcDbEntity
  8
0
  6
Continuous
 62
     7
370
    25
100
AcDbPolyline
 90
        4
 70
   128
 43
0.0
 10
132.0388042972
 20
87.7474985187
 10
131.5774438925
 20
87.9727596787
 10
131.1160834817
 20
88.1980203783
 10
130.5009453111
 20
88.4983627176
  0
LINE
  5
3E9
330
1F
100
AcDbEntity
  8
0
  6
Continuous
 62
     7
370
    25
100
AcDbLine
 10
137.2025555975
 20
92.5468204399
 30
0.0
 11
136.612457979
 21
91.611458515
 31
0.0
  0
SPLINE
  5
3EA
330
1F
100
AcDbEntity
  8
0
  6
Continuous
 62
     7
370
    25
100
AcDbSpline
210
0.0
220
0.0
230
1.0
 70
     8
 71
     3
 72
    25
 73
    21
 74
     0
 42
0.00000001
 43
0.00000001
 40
0.0622631762395633
 40
0.0622631762395633
 40
0.0622631762395633
 40
0.0622631762395633
 40
0.125
 40
0.125
 40
0.25
 40
0.25
 40
0.375
 40
0.375
 40
0.5
 40
0.5
 40
0.625
 40
0.625
 40
0.75
 40
0.75
 40
0.875
 40
0.875
 40
1.0
 40
1.0
 40
1.0
 40
1.001649272021824
 40
1.001649272021824
 40
1.001649272021824
 40
1.001649272021824
 10
136.6124579789725
 20
91.61145851499289
 30
0.0
 10
136.5844116673249
 20
91.6304216671843
 30
0.0
 10
136.5556909305268
 20
91.64901202868836
 30
0.0
 10
136.4666441911859
 20
91.70167426590025
 30
0.0
 10
136.4038771366881
 20
91.73164780667159
 30
0.0
 10
136.2747837440349
 20
91.78182813108995
 30
0.0
 10
136.2080565512562
 20
91.80266648093827
 30
0.0
 10
136.0683699477181
 20
91.83342343152329
 30
0.0
 10
135.9956661438957
 20
91.84290893220034
 30
0.0
 10
135.846679670774
 20
91.85051988426088
 30
0.0
 10
135.7700907116876
 20
91.84895908758192
 30
0.0
 10
135.6118752493346
 20
91.83263407355494
 30
0.0
 10
135.5307037228352
 20
91.81764610700033
 30
0.0
 10
135.3664819282449
 20
91.77565767991358
 30
0.0
 10
135.2827308863506
 20
91.74867936798708
 30
0.0
 10
135.112119158856
 20
91.67956234880184
 30
0.0
 10
135.0283180717297
 20
91.63842861032178
 30
0.0
 10
134.9481114312351
 20
91.5991497679474
 30
0.0
 10
134.9470531706901
 20
91.59863151598115
 30
0.0
 10
134.945994910145
 20
91.59811326401493
 30
0.0
 10
134.9449366496
 20
91.59759501204873
 30
0.0
  0
SPLINE
  5
3EB
330
1F
100
AcDbEntity
  8
0
  6
Continuous
 62
     7
370
    25
100
AcDbSpline
210
0.0
220
0.0
230
1.0
 70
     8
 71
     3
 72
    36
 73
    32
 74
     0
 42
0.00000001
 43
0.00000001
 40
-0.0010682149308711
 40
-0.0010682149308711
 40
-0.0010682149308711
 40
-0.0010682149308711
 40
0.0
 40
0.0
 40
0.0
 40
0.0625
 40
0.0625
 40
0.125
 40
0.125
 40
0.25
 40
0.25
 40
0.3125
 40
0.3125
 40
0.375
 40
0.375
 40
0.5
 40
0.5
 40
0.625
 40
0.625
 40
0.75
 40
0.75
 40
0.8125
 40
0.8125
 40
0.875
 40
0.875
 40
0.9375
 40
0.9375
 40
1.0
 40
1.0
 40
1.0
 40
1.001135080266923
 40
1.001135080266923
 40
1.001135080266923
 40
1.001135080266923
 10
134.9449366496
 20
91.59759501204876
 30
0.0
 10
134.9438756566227
 20
91.59701220904614
 30
0.0
 10
134.9428146636455
 20
91.59642940604354
 30
0.0
 10
134.9417536706682
 20
91.59584660304093
 30
0.0
 10
134.8796762186841
 20
91.56174748439864
 30
0.0
 10
134.815229908491
 20
91.5264254703046
 30
0.0
 10
134.6818000857468
 20
91.4442983593392
 30
0.0
 10
134.6153205222
 20
91.39866158203216
 30
0.0
 10
134.4202351324637
 20
91.25495566579822
 30
0.0
 10
134.2905113611723
 20
91.14667026530981
 30
0.0
 10
134.1010991261954
 20
90.96024011882497
 30
0.0
 10
134.0397505365582
 20
90.89493834106585
 30
0.0
 10
133.9208489735979
 20
90.76091541470358
 30
0.0
 10
133.8623720314888
 20
90.69118401024417
 30
0.0
 10
133.6915432847867
 20
90.47312651283288
 30
0.0
 10
133.5860359694822
 20
90.31892231414582
 30
0.0
 10
133.3921611796619
 20
90.00156732620853
 30
0.0
 10
133.3029237021184
 20
89.83809163312223
 30
0.0
 10
133.1441921349146
 20
89.49923780922919
 30
0.0
 10
133.0767921134954
 20
89.32854576263269
 30
0.0
 10
132.9936649532352
 20
89.07061895810983
 30
0.0
 10
132.9692838924005
 20
88.98471460947532
 30
0.0
 10
132.9276217701326
 20
88.81466537588778
 30
0.0
 10
132.9104638250128
 20
88.73133985021498
 30
0.0
 10
132.8813541054482
 20
88.56688884307884
 30
0.0
 10
132.8692906444225
 20
88.4842422350757
 30
0.0
 10
132.8530352551012
 20
88.32205260781892
 30
0.0
 10
132.8488508928243
 20
88.24540504541773
 30
0.0
 10
132.8447548374718
 20
88.17149271891006
 30
0.0
 10
132.8446804478462
 20
88.17015037613723
 30
0.0
 10
132.8446060582206
 20
88.16880803336444
 30
0.0
 10
132.8445316685949
 20
88.16746569059164
 30
0.0
  0
SPLINE
  5
3EC
330
1F
100
AcDbEntity
  8
0
  6
Continuous
 62
     7
370
    25
100
AcDbSpline
210
0.0
220
0.0
230
1.0
 70
     8
 71
     3
 72
    40
 73
    36
 74
     0
 42
0.00000001
 43
0.00000001
 40
-0.0011179513902813
 40
-0.0011179513902813
 40
-0.0011179513902813
 40
-0.0011179513902813
 40
0.0
 40
0.0
 40
0.0
 40
0.0625
 40
0.0625
 40
0.125
 40
0.125
 40
0.25
 40
0.25
 40
0.3125
 40
0.3125
 40
0.375
 40
0.375
 40
0.4375
 40
0.4375
 40
0.5
 40
0.5
 40
0.5625
 40
0.5625
 40
0.625
 40
0.625
 40
0.6875
 40
0.6875
 40
0.75
 40
0.75
 40
0.875
 40
0.875
 40
0.9375
 40
0.9375
 40
1.0
 40
1.0
 40
1.0
 40
1.001298684523659
 40
1.001298684523659
 40
1.001298684523659
 40
1.001298684523659
 10
132.8445316685948
 20
88.16746569059156
 30
0.0
 10
132.8445188791896
 20
88.16615616591844
 30
0.0
 10
132.8445060897844
 20
88.16484664124535
 30
0.0
 10
132.8444933003792
 20
88.16353711657224
 30
0.0
 10
132.8437782980713
 20
88.09032705325434
 30
0.0
 10
132.8430194832649
 20
88.01537380455471
 30
0.0
 10
132.8462854760857
 20
87.86498834725617
 30
0.0
 10
132.8507397521335
 20
87.7894736160319
 30
0.0
 10
132.8750542458772
 20
87.57230604821426
 30
0.0
 10
132.9049324413799
 20
87.43759424493203
 30
0.0
 10
132.967744735261
 20
87.25359479802871
 30
0.0
 10
132.9916752233614
 20
87.19489338207609
 30
0.0
 10
133.0465962881015
 20
87.08409815881238
 30
0.0
 10
133.0778910427408
 20
87.03225029154291
 30
0.0
 10
133.1456320512158
 20
86.93760625220845
 30
0.0
 10
133.1826516030088
 20
86.89347032727606
 30
0.0
 10
133.2627606823642
 20
86.81438258894025
 30
0.0
 10
133.3051444844579
 20
86.77889968168326
 30
0.0
 10
133.3976061729599
 20
86.71656456746996
 30
0.0
 10
133.446053645884
 20
86.69079224595173
 30
0.0
 10
133.5485325291021
 20
86.64767252068326
 30
0.0
 10
133.6026306685024
 20
86.63149404270997
 30
0.0
 10
133.7119937870228
 20
86.60697571509208
 30
0.0
 10
133.7690902873277
 20
86.59841876588123
 30
0.0
 10
133.8865678820236
 20
86.59065876662886
 30
0.0
 10
133.946923887869
 20
86.59120652529487
 30
0.0
 10
134.1315759076899
 20
86.60555618909876
 30
0.0
 10
134.2587326895831
 20
86.63123882190834
 30
0.0
 10
134.4555353801037
 20
86.69422269626007
 30
0.0
 10
134.5227738558605
 20
86.72020748332123
 30
0.0
 10
134.6543059562964
 20
86.77817108438477
 30
0.0
 10
134.7187966609711
 20
86.80959778296166
 30
0.0
 10
134.7816630497971
 20
86.84019651355158
 30
0.0
 10
134.7829693474967
 20
86.84083232311734
 30
0.0
 10
134.7842756451963
 20
86.84146813268309
 30
0.0
 10
134.7855819428959
 20
86.84210394224884
 30
0.0
  0
SPLINE
  5
3ED
330
1F
100
AcDbEntity
  8
0
  6
Continuous
 62
     7
370
    25
100
AcDbSpline
210
0.0
220
0.0
230
1.0
 70
     8
 71
     3
 72
    31
 73
    27
 74
     0
 42
0.00000001
 43
0.00000001
 40
-0.0020543229610293
 40
-0.0020543229610293
 40
-0.0020543229610293
 40
-0.0020543229610293
 40
0.0
 40
0.0
 40
0.0
 40
0.125
 40
0.125
 40
0.25
 40
0.25
 40
0.3749999999999999
 40
0.3749999999999999
 40
0.4999999999999999
 40
0.4999999999999999
 40
0.5624999999999999
 40
0.5624999999999999
 40
0.6249999999999999
 40
0.6249999999999999
 40
0.6874999999999999
 40
0.6874999999999999
 40
0.7499999999999999
 40
0.7499999999999999
 40
0.8124999999999999
 40
0.8124999999999999
 40
0.8749999999999999
 40
0.8749999999999999
 40
0.935913795454888
 40
0.935913795454888
 40
0.935913795454888
 40
0.935913795454888
 10
134.7855819428954
 20
86.84210394224908
 30
0.0
 10
134.7868921104438
 20
86.84283797684864
 30
0.0
 10
134.7882022779921
 20
86.84357201144816
 30
0.0
 10
134.7895124455404
 20
86.8443060460477
 30
0.0
 10
134.8692325998911
 20
86.88897006756818
 30
0.0
 10
134.9526362693976
 20
86.9356351742609
 30
0.0
 10
135.1229053751855
 20
87.04458202743332
 30
0.0
 10
135.2075230645715
 20
87.10508931140407
 30
0.0
 10
135.3745880415055
 20
87.23616971189583
 30
0.0
 10
135.4569474749342
 20
87.30660057171774
 30
0.0
 10
135.6197702388351
 20
87.45796212408588
 30
0.0
 10
135.7004081848332
 20
87.53949762280014
 30
0.0
 10
135.8173560744415
 20
87.66974770179453
 30
0.0
 10
135.855317687953
 20
87.71412094666623
 30
0.0
 10
135.9289209634601
 20
87.80261040332663
 30
0.0
 10
135.9654380736795
 20
87.84764532434686
 30
0.0
 10
136.0381757898591
 20
87.94103243219334
 30
0.0
 10
136.0733651810864
 20
87.98822159940384
 30
0.0
 10
136.1412869981394
 20
88.08082434170717
 30
0.0
 10
136.1747704567547
 20
88.12705639192842
 30
0.0
 10
136.2419510662762
 20
88.22182923694163
 30
0.0
 10
136.2752610238708
 20
88.27000608970282
 30
0.0
 10
136.3403259434967
 20
88.36600665525224
 30
0.0
 10
136.3722386223776
 20
88.41392331402845
 30
0.0
 10
136.4349463141718
 20
88.50959740508235
 30
0.0
 10
136.4655938269947
 20
88.55742332563615
 30
0.0
 10
136.4957559009959
 20
88.6050955701082
 30
0.0
  0
LINE
  5
3EE
330
1F
100
AcDbEntity
  8
0
  6
Continuous
 62
     7
370
    25
100
AcDbLine
 10
136.495755901
 20
88.6050955701
 30
0.0
 11
137.0169760357
 21
88.2221157384
 31
0.0
  0
SPLINE
  5
3EF
330
1F
100
AcDbEntity
  8
0
  6
Continuous
 62
     7
370
    25
100
AcDbSpline
210
0.0
220
0.0
230
1.0
 70
     8
 71
     3
 72
    32
 73
    28
 74
     0
 42
0.00000001
 43
0.00000001
 40
0.0458233125109281
 40
0.0458233125109281
 40
0.0458233125109281
 40
0.0458233125109281
 40
0.125
 40
0.125
 40
0.1875
 40
0.1875
 40
0.25
 40
0.25
 40
0.375
 40
0.375
 40
0.4375
 40
0.4375
 40
0.5
 40
0.5
 40
0.5625
 40
0.5625
 40
0.625
 40
0.625
 40
0.6875
 40
0.6875
 40
0.75
 40
0.75
 40
0.875
 40
0.875
 40
0.9375
 40
0.9375
 40
0.999287749473434
 40
0.999287749473434
 40
0.999287749473434
 40
0.999287749473434
 10
137.0169760356849
 20
88.2221157384053
 30
0.0
 10
136.96350665649
 20
88.1378643743219
 30
0.0
 10
136.9101307938083
 20
88.0550762089513
 30
0.0
 10
136.8123590116672
 20
87.90882486089451
 30
0.0
 10
136.7686573664174
 20
87.84513152412835
 30
0.0
 10
136.6794146323294
 20
87.71776836298118
 30
0.0
 10
136.6338788467282
 20
87.6538632427474
 30
0.0
 10
136.4975849387192
 20
87.46591327424655
 30
0.0
 10
136.4055579707211
 20
87.34528977893186
 30
0.0
 10
136.2630266342175
 20
87.17035987285318
 30
0.0
 10
136.2150877580902
 20
87.11347289139626
 30
0.0
 10
136.1175987118761
 20
87.00211444022118
 30
0.0
 10
136.0679496964557
 20
86.94737878272618
 30
0.0
 10
135.9684426185322
 20
86.84203752301595
 30
0.0
 10
135.9186080315341
 20
86.79174906245076
 30
0.0
 10
135.8163334179297
 20
86.6934372374123
 30
0.0
 10
135.764219213017
 20
86.64553152085436
 30
0.0
 10
135.6590287316405
 20
86.5524014999792
 30
0.0
 10
135.6059812289613
 20
86.50711732098995
 30
0.0
 10
135.5001904450033
 20
86.42091333179047
 30
0.0
 10
135.4469329824846
 20
86.37971010512146
 30
0.0
 10
135.2849681049497
 20
86.259531845222
 30
0.0
 10
135.1768688828384
 20
86.18660004702718
 30
0.0
 10
135.0111306949545
 20
86.0826563396708
 30
0.0
 10
134.9564081038741
 20
86.049431381715
 30
0.0
 10
134.8483861349584
 20
85.98749466087641
 30
0.0
 10
134.7935367409918
 20
85.95782558515185
 30
0.0
 10
134.7375302041764
 20
85.9275702958836
 30
0.0
  0
SPLINE
  5
3F0
330
1F
100
AcDbEntity
  8
0
  6
Continuous
 62
     7
370
    25
100
AcDbSpline
210
0.0
220
0.0
230
1.0
 70
     8
 71
     3
 72
    32
 73
    28
 74
     0
 42
0.00000001
 43
0.00000001
 40
0.0004155444174613
 40
0.0004155444174613
 40
0.0004155444174613
 40
0.0004155444174613
 40
0.0625
 40
0.0625
 40
0.125
 40
0.125
 40
0.1875
 40
0.1875
 40
0.25
 40
0.25
 40
0.3125
 40
0.3125
 40
0.375
 40
0.375
 40
0.5
 40
0.5
 40
0.625
 40
0.625
 40
0.75
 40
0.75
 40
0.8125
 40
0.8125
 40
0.875
 40
0.875
 40
0.9375
 40
0.9375
 40
0.9995115838190317
 40
0.9995115838190317
 40
0.9995115838190317
 40
0.9995115838190317
 10
134.7375302041773
 20
85.92757029588402
 30
0.0
 10
134.6412057355994
 20
85.87903001060226
 30
0.0
 10
134.546887950574
 20
85.83159193747203
 30
0.0
 10
134.3626272789579
 20
85.74928032385084
 30
0.0
 10
134.2709997645167
 20
85.71414523234711
 30
0.0
 10
134.0874961739835
 20
85.65298647775916
 30
0.0
 10
133.9965266414764
 20
85.62699503975598
 30
0.0
 10
133.8187899840692
 20
85.5873016525947
 30
0.0
 10
133.7315084832745
 20
85.57368927723441
 30
0.0
 10
133.5598707045482
 20
85.55819476712264
 30
0.0
 10
133.4759159212182
 20
85.55617460395901
 30
0.0
 10
133.3143654052743
 20
85.56605316826493
 30
0.0
 10
133.2362308155037
 20
85.57818030920625
 30
0.0
 10
133.009108861625
 20
85.63340839969239
 30
0.0
 10
132.8688681237202
 20
85.6948995129064
 30
0.0
 10
132.6168290959349
 20
85.86464275269887
 30
0.0
 10
132.5037086655261
 20
85.97226470962194
 30
0.0
 10
132.3138127109848
 20
86.22928905494997
 30
0.0
 10
132.2380710877925
 20
86.3813678961228
 30
0.0
 10
132.1497855014237
 20
86.63681464946518
 30
0.0
 10
132.1247480495647
 20
86.72565697214013
 30
0.0
 10
132.0845668293899
 20
86.91159650734167
 30
0.0
 10
132.0691625463563
 20
87.00913480619512
 30
0.0
 10
132.0464241350567
 20
87.21029508205774
 30
0.0
 10
132.0393034916627
 20
87.31323799700097
 30
0.0
 10
132.0346048985643
 20
87.52475558049069
 30
0.0
 10
132.0366428655096
 20
87.63496996543168
 30
0.0
 10
132.0388042972108
 20
87.74749851871361
 30
0.0
  0
SPLINE
  5
3F1
330
1F
100
AcDbEntity
  8
0
  6
Continuous
 62
     7
370
    25
100
AcDbSpline
210
0.0
220
0.0
230
1.0
 70
     8
 71
     3
 72
    12
 73
     8
 74
     0
 42
0.00000001
 43
0.00000001
 40
0.0
 40
0.0
 40
0.0
 40
0.0
 40
0.2237097960559262
 40
0.4542425014844053
 40
0.6723186312539788
 40
0.8970562456435826
 40
1.0
 40
1.0
 40
1.0
 40
1.0
 10
134.9969864583991
 20
92.52657155550384
 30
0.0
 10
135.1786508149802
 20
92.61161933153281
 30
0.0
 10
135.5475200966065
 20
92.7843087497442
 30
0.0
 10
136.0694716978904
 20
92.87876892194159
 30
0.0
 10
136.5533253163205
 20
92.85881997053674
 30
0.0
 10
136.9077912098386
 20
92.74754730937326
 30
0.0
 10
137.0874049339501
 20
92.62359650102577
 30
0.0
 10
137.1438320392345
 20
92.58465635128327
 30
0.0
  0
LINE
  5
3F2
330
1F
100
AcDbEntity
  8
0
  6
Continuous
 62
     7
370
    25
100
AcDbLine
 10
134.7855819429
 20
86.8421039422
 30
0.0
 11
133.3771230674
 21
87.8046278362
 31
0.0
  0
LINE
  5
3F3
330
1F
100
AcDbEntity
  8
0
  6
Continuous
 62
     7
370
    25
100
AcDbLine
 10
136.612457979
 20
91.611458515
 30
0.0
 11
136.1850465545
 21
91.794900817
 31
0.0
  0
SPLINE
  5
3F4
330
1F
100
AcDbEntity
  8
0
  6
Continuous
 62
     7
370
    25
100
AcDbSpline
210
0.0
220
0.0
230
1.0
 70
     8
 71
     3
 72
    11
 73
     7
 74
     0
 42
0.00000001
 43
0.00000001
 40
0.0
 40
0.0
 40
0.0
 40
0.0
 40
0.0010076356560982
 40
0.0010076356560982
 40
0.0010076356560982
 40
0.0020152716692074
 40
0.0020152716692074
 40
0.0020152716692074
 40
0.0020152716692074
 10
136.4957559009963
 20
88.60509557010798
 30
0.0
 10
136.2619836366136
 20
88.77578835701964
 30
0.0
 10
136.0281501176973
 20
88.94652619385494
 30
0.0
 10
135.7942768633251
 20
89.1172932547235
 30
0.0
 10
135.5604035184679
 20
89.28806038166145
 30
0.0
 10
135.3264905093216
 20
89.45885668017453
 30
0.0
 10
135.0925632115856
 20
89.62966348749674
 30
0.0
  0
LINE
  5
3F5
330
1F
100
AcDbEntity
  8
0
  6
Continuous
 62
     7
370
    25
100
AcDbLine
 10
140.4543558445
 20
95.1957044524
 30
0.0
 11
139.1733728247
 21
96.2199753056
 31
0.0
  0
LINE
  5
3F6
330
1F
100
AcDbEntity
  8
0
  6
Continuous
 62
     7
370
    25
100
AcDbLine
 10
139.6449483595
 20
94.8037045925
 30
0.0
 11
140.4543558445
 21
95.1957044524
 31
0.0
  0
LINE
  5
3F7
330
1F
100
AcDbEntity
  8
0
  6
Continuous
 62
     7
370
    25
100
AcDbLine
 10
139.6449483595
 20
94.8037045925
 30
0.0
 11
138.1173083541
 21
95.7085183049
 31
0.0
  0
LINE
  5
3F8
330
1F
100
AcDbEntity
  8
0
  6
Continuous
 62
     7
370
    25
100
AcDbLine
 10
139.2162839121
 20
88.3909058501
 30
0.0
 11
139.6449483595
 21
94.8037045925
 31
0.0
  0
LINE
  5
3F9
330
1F
100
AcDbEntity
  8
0
  6
Continuous
 62
     7
370
    25
100
AcDbLine
 10
139.2162839121
 20
88.3909058501
 30
0.0
 11
137.6688398071
 21
88.9994512206
 31
0.0
  0
LINE
  5
3FA
330
1F
100
AcDbEntity
  8
0
  6
Continuous
 62
     7
370
    25
100
AcDbLine
 10
140.4543558445
 20
95.1957044524
 30
0.0
 11
140.0256913971
 21
88.7829057101
 31
0.0
  0
LINE
  5
3FB
330
1F
100
AcDbEntity
  8
0
  6
Continuous
 62
     7
370
    25
100
AcDbLine
 10
140.0256913971
 20
88.7829057101
 30
0.0
 11
139.2162839121
 21
88.3909058501
 31
0.0
  0
LINE
  5
3FC
330
1F
100
AcDbEntity
  8
0
  6
Continuous
 62
     7
370
    25
100
AcDbLine
 10
145.317493189
 20
97.394932732
 30
0.0
 11
144.039540897
 21
98.4168776225
 31
0.0
  0
LINE
  5
3FD
330
1F
100
AcDbEntity
  8
0
  6
Continuous
 62
     7
370
    25
100
AcDbLine
 10
142.5071077428
 20
96.1193363432
 30
0.0
 11
145.317493189
 21
97.394932732
 31
0.0
  0
LINE
  5
3FE
330
1F
100
AcDbEntity
  8
0
  6
Continuous
 62
     7
370
    25
100
AcDbLine
 10
142.5071077428
 20
96.1193363432
 30
0.0
 11
140.9831010172
 21
97.0296004151
 31
0.0
  0
LINE
  5
3FF
330
1F
100
AcDbEntity
  8
0
  6
Continuous
 62
     7
370
    25
100
AcDbLine
 10
145.317493189
 20
97.394932732
 30
0.0
 11
145.2323524255
 21
96.4318670267
 31
0.0
  0
LINE
  5
400
330
1F
100
AcDbEntity
  8
0
  6
Continuous
 62
     7
370
    25
100
AcDbLine
 10
145.2323524255
 20
96.4318670267
 30
0.0
 11
144.2245531208
 21
95.974139005
 31
0.0
  0
LINE
  5
401
330
1F
100
AcDbEntity
  8
0
  6
Continuous
 62
     7
370
    25
100
AcDbLine
 10
144.2245531208
 20
95.974139005
 30
0.0
 11
143.7438855617
 21
90.5081976855
 31
0.0
  0
LINE
  5
402
330
1F
100
AcDbEntity
  8
0
  6
Continuous
 62
     7
370
    25
100
AcDbLine
 10
143.7438855617
 20
90.5081976855
 30
0.0
 11
142.9220012487
 21
90.1347646679
 31
0.0
  0
LINE
  5
403
330
1F
100
AcDbEntity
  8
0
  6
Continuous
 62
     7
370
    25
100
AcDbLine
 10
142.9220012487
 20
90.1347646679
 30
0.0
 11
143.4026521698
 21
95.600516787
 31
0.0
  0
LINE
  5
404
330
1F
100
AcDbEntity
  8
0
  6
Continuous
 62
     7
370
    25
100
AcDbLine
 10
143.4026521698
 20
95.600516787
 30
0.0
 11
142.4219610153
 21
95.1562031767
 31
0.0
  0
LINE
  5
405
330
1F
100
AcDbEntity
  8
0
  6
Continuous
 62
     7
370
    25
100
AcDbLine
 10
142.4219610153
 20
95.1562031767
 30
0.0
 11
142.5071077428
 21
96.1193363432
 31
0.0
  0
LINE
  5
406
330
1F
100
AcDbEntity
  8
0
  6
Continuous
 62
     7
370
    25
100
AcDbLine
 10
142.4219610153
 20
95.1562031767
 30
0.0
 11
140.8714955324
 21
95.7671802701
 31
0.0
  0
LINE
  5
407
330
1F
100
AcDbEntity
  8
0
  6
Continuous
 62
     7
370
    25
100
AcDbLine
 10
142.9220012487
 20
90.1347646679
 30
0.0
 11
141.3715939507
 21
90.7456081475
 31
0.0
  0
LINE
  5
408
330
1F
100
AcDbEntity
  8
0
  6
Continuous
 62
     7
370
    25
100
AcDbLine
 10
150.1465711756
 20
101.6096275515
 30
0.0
 11
149.6125925507
 21
101.952350191
 31
0.0
  0
LINE
  5
409
330
1F
100
AcDbEntity
  8
0
  6
Continuous
 62
     7
370
    25
100
AcDbLine
 10
149.2223851256
 20
99.7930104373
 30
0.0
 11
150.1465711756
 21
101.6096275515
 31
0.0
  0
LINE
  5
40A
330
1F
100
AcDbEntity
  8
0
  6
Continuous
 62
     7
370
    25
100
AcDbLine
 10
149.2223851256
 20
99.7930104373
 30
0.0
 11
147.5723736591
 21
100.3693551024
 31
0.0
  0
LINE
  5
40B
330
1F
100
AcDbEntity
  8
0
  6
Continuous
 62
     7
370
    25
100
AcDbLine
 10
150.1465711756
 20
101.6096275515
 30
0.0
 11
151.0042936188
 21
101.9585771647
 31
0.0
  0
LINE
  5
40C
330
1F
100
AcDbEntity
  8
0
  6
Continuous
 62
     7
370
    25
100
AcDbLine
 10
151.0042936188
 20
101.9585771647
 30
0.0
 11
149.6840717123
 21
99.9802220852
 31
0.0
  0
LINE
  5
40D
330
1F
100
AcDbEntity
  8
0
  6
Continuous
 62
     7
370
    25
100
AcDbLine
 10
149.6840717123
 20
99.9802220852
 30
0.0
 11
149.2223851256
 21
99.7930104373
 31
0.0
  0
LINE
  5
40E
330
1F
100
AcDbEntity
  8
0
  6
Continuous
 62
     7
370
    25
100
AcDbLine
 10
149.1627333135
 20
99.0008764958
 30
0.0
 11
147.6825997706
 21
99.9349291015
 31
0.0
  0
LINE
  5
40F
330
1F
100
AcDbEntity
  8
0
  6
Continuous
 62
     7
370
    25
100
AcDbLine
 10
146.3609628267
 20
91.6585246703
 30
0.0
 11
149.1627333135
 21
99.0008764958
 31
0.0
  0
LINE
  5
410
330
1F
100
AcDbEntity
  8
0
  6
Continuous
 62
     7
370
    25
100
AcDbLine
 10
146.3609628267
 20
91.6585246703
 30
0.0
 11
144.7502890434
 21
92.2504820269
 31
0.0
  0
LINE
  5
411
330
1F
100
AcDbEntity
  8
0
  6
Continuous
 62
     7
370
    25
100
AcDbLine
 10
149.4708619757
 20
97.9497427781
 30
0.0
 11
148.2113294085
 21
94.6643336042
 31
0.0
  0
LINE
  5
412
330
1F
100
AcDbEntity
  8
0
  6
Continuous
 62
     7
370
    25
100
AcDbLine
 10
148.2113294085
 20
94.6643336042
 30
0.0
 11
150.03096075
 21
95.4048433179
 31
0.0
  0
LINE
  5
413
330
1F
100
AcDbEntity
  8
0
  6
Continuous
 62
     7
370
    25
100
AcDbLine
 10
150.03096075
 20
95.4048433179
 30
0.0
 11
149.4708619757
 21
97.9497427781
 31
0.0
  0
LINE
  5
414
330
1F
100
AcDbEntity
  8
0
  6
Continuous
 62
     7
370
    25
100
AcDbLine
 10
149.1627333135
 20
99.0008764958
 30
0.0
 11
150.0567694999
 21
99.3641888209
 31
0.0
  0
LINE
  5
415
330
1F
100
AcDbEntity
  8
0
  6
Continuous
 62
     7
370
    25
100
AcDbLine
 10
150.0567694999
 20
99.3641888209
 30
0.0
 11
151.3032253776
 21
93.6697085044
 31
0.0
  0
LINE
  5
416
330
1F
100
AcDbEntity
  8
0
  6
Continuous
 62
     7
370
    25
100
AcDbLine
 10
151.3032253776
 20
93.6697085044
 30
0.0
 11
150.4773115946
 21
93.3332367738
 31
0.0
  0
LINE
  5
417
330
1F
100
AcDbEntity
  8
0
  6
Continuous
 62
     7
370
    25
100
AcDbLine
 10
150.4773115946
 20
93.3332367738
 30
0.0
 11
150.2152323189
 21
94.5636463861
 31
0.0
  0
LINE
  5
418
330
1F
100
AcDbEntity
  8
0
  6
Continuous
 62
     7
370
    25
100
AcDbLine
 10
150.2152323189
 20
94.5636463861
 30
0.0
 11
147.8030540162
 21
93.5812452106
 31
0.0
  0
LINE
  5
419
330
1F
100
AcDbEntity
  8
0
  6
Continuous
 62
     7
370
    25
100
AcDbLine
 10
147.8030540162
 20
93.5812452106
 30
0.0
 11
147.1879974289
 21
91.9954530151
 31
0.0
  0
LINE
  5
41A
330
1F
100
AcDbEntity
  8
0
  6
Continuous
 62
     7
370
    25
100
AcDbLine
 10
147.1879974289
 20
91.9954530151
 30
0.0
 11
146.3609628267
 21
91.6585246703
 31
0.0
  0
LINE
  5
41B
330
1F
100
AcDbEntity
  8
0
  6
Continuous
 62
     7
370
    25
100
AcDbLine
 10
151.0042936188
 20
101.9585771647
 30
0.0
 11
150.5987666405
 21
102.3525601309
 31
0.0
  0
LINE
  5
41C
330
1F
100
AcDbEntity
  8
0
  6
Continuous
 62
     7
370
    25
100
AcDbLine
 10
150.0567694999
 20
99.3641888209
 30
0.0
 11
149.4007555559
 21
99.8653387725
 31
0.0
  0
LINE
  5
41D
330
1F
100
AcDbEntity
  8
0
  6
Continuous
 62
     7
370
    25
100
AcDbLine
 10
150.03096075
 20
95.4048433179
 30
0.0
 11
148.7701391994
 21
96.121952773
 31
0.0
  0
LINE
  5
41E
330
1F
100
AcDbEntity
  8
0
  6
Continuous
 62
     7
370
    25
100
AcDbLine
 10
150.4773115946
 20
93.3332367738
 30
0.0
 11
148.9605239345
 21
93.9634427067
 31
0.0
  0
ARC
  5
41F
330
1F
100
AcDbEntity
  8
0
  6
Continuous
 62
     7
370
    25
100
AcDbCircle
 10
170.5757182031
 20
107.1946868533
 30
0.0
 40
4.025492332791059
100
AcDbArc
 50
310.8132101299
 51
349.1921664028
  0
ARC
  5
420
330
1F
100
AcDbEntity
  8
0
  6
Continuous
 62
     7
370
    25
100
AcDbCircle
 10
177.3361965053
 20
114.1170514203
 30
0.0
 40
0.7537989019415103
100
AcDbArc
 50
60.7689536073
 51
100.5230808001
  0
LINE
  5
421
330
1F
100
AcDbEntity
  8
0
  6
PHANTOM
 62
     8
370
    18
100
AcDbLine
 10
180.7340629108
 20
112.8171522132
 30
0.0
 11
177.1985290049
 21
114.8581724927
 31
0.0
  0
LINE
  5
422
330
1F
100
AcDbEntity
  8
0
  6
PHANTOM
 62
     8
370
    18
100
AcDbLine
 10
74.7512554356
 20
51.1005709255
 30
0.0
 11
71.2157215296
 21
53.1415912051
 31
0.0
  0
LINE
  5
423
330
1F
100
AcDbEntity
  8
0
  6
PHANTOM
 62
     8
370
    18
100
AcDbLine
 10
73.941137437
 20
48.5092654971
 30
0.0
 11
70.405603531
 21
50.5502857767
 31
0.0
  0
LINE
  5
424
330
1F
100
AcDbEntity
  8
0
  6
PHANTOM
 62
     8
370
    18
100
AcDbLine
 10
77.828661812
 20
39.3570644353
 30
0.0
 11
74.293127906
 21
41.3980847149
 31
0.0
  0
LINE
  5
425
330
1F
100
AcDbEntity
  8
0
  6
PHANTOM
 62
     8
370
    18
100
AcDbLine
 10
73.2712054814
 20
47.5734492485
 30
0.0
 11
74.6854190437
 21
46.7570411367
 31
0.0
  0
LINE
  5
426
330
1F
100
AcDbEntity
  8
0
  6
PHANTOM
 62
     8
370
    18
100
AcDbLine
 10
77.1165131522
 20
41.0336398317
 30
0.0
 11
75.7022995898
 21
41.8500479435
 31
0.0
  0
LINE
  5
427
330
1F
100
AcDbEntity
  8
0
  6
PHANTOM
 62
     8
370
    18
100
AcDbLine
 10
84.3993002407
 20
48.534285941
 30
0.0
 11
85.8135138031
 21
47.7178778292
 31
0.0
  0
LINE
  5
428
330
1F
100
AcDbEntity
  8
0
  6
PHANTOM
 62
     8
370
    18
100
AcDbLine
 10
168.3182468344
 20
97.4024996862
 30
0.0
 11
169.7324603968
 21
96.5860915744
 31
0.0
  0
LINE
  5
429
330
1F
100
AcDbEntity
  8
0
  6
PHANTOM
 62
     8
370
    18
100
AcDbLine
 10
83.175800295
 20
47.9110420657
 30
0.0
 11
81.7615867326
 21
48.7274501775
 31
0.0
  0
LINE
  5
42A
330
1F
100
AcDbEntity
  8
0
  6
PHANTOM
 62
     8
370
    18
100
AcDbLine
 10
76.165484454
 20
42.6447708995
 30
0.0
 11
77.5796980164
 21
41.8283627877
 31
0.0
  0
LWPOLYLINE
  5
42B
330
1F
100
AcDbEntity
  8
0
  6
PHANTOM
 62
     8
370
    18
100
AcDbPolyline
 90
        3
 70
   128
 43
0.0
 10
124.3488693695
 20
86.3836326484
 10
123.7645466808
 20
86.7785284453
 10
122.9318648196
 20
87.3412696058
  0
LINE
  5
42C
330
1F
100
AcDbEntity
  8
0
  6
PHANTOM
 62
     8
370
    18
100
AcDbLine
 10
124.6719816025
 20
84.054737511
 30
0.0
 11
124.200354837
 21
84.373157981
 31
0.0
  0
LINE
  5
42D
330
1F
100
AcDbEntity
  8
0
  6
PHANTOM
 62
     8
370
    18
100
AcDbLine
 10
172.2718040198
 20
108.5045169732
 30
0.0
 11
173.6860175821
 21
107.6881088614
 31
0.0
  0
LINE
  5
42E
330
1F
100
AcDbEntity
  8
0
  6
PHANTOM
 62
     8
370
    18
100
AcDbLine
 10
172.0424548728
 20
107.5570107265
 30
0.0
 11
173.4566684352
 21
106.7406026147
 31
0.0
  0
LINE
  5
42F
330
1F
100
AcDbEntity
  8
0
  6
PHANTOM
 62
     8
370
    18
100
AcDbLine
 10
178.7682105323
 20
108.9829723081
 30
0.0
 11
180.1824240947
 21
108.1665641962
 31
0.0
  0
LINE
  5
430
330
1F
100
AcDbEntity
  8
0
  6
PHANTOM
 62
     8
370
    18
100
AcDbLine
 10
170.0866172517
 20
99.4768918849
 30
0.0
 11
171.500830814
 21
98.660483773
 31
0.0
  0
LINE
  5
431
330
1F
100
AcDbEntity
  8
0
  6
PHANTOM
 62
     8
370
    18
100
AcDbLine
 10
171.6961599947
 20
99.4674439089
 30
0.0
 11
170.2819464323
 21
100.2838520208
 31
0.0
  0
LINE
  5
432
330
1F
100
AcDbEntity
  8
0
  6
PHANTOM
 62
     8
370
    18
100
AcDbLine
 10
177.9881372783
 20
100.2988425881
 30
0.0
 11
176.573923716
 21
101.1152506999
 31
0.0
  0
ENDSEC
  0
SECTION
  2
OBJECTS
  0
DICTIONARY
  5
C
330
0
100
AcDbDictionary
281
     1
  3
ACAD_GROUP
350
D
  3
ACAD_LAYOUT
350
1A
  3
ACAD_MLINESTYLE
350
17
  3
ACAD_PLOTSETTINGS
350
19
  3
ACAD_PLOTSTYLENAME
350
E
  3
ACAD_SCALELIST
350
47
  3
DWGPROPS
350
433
  0
DICTIONARY
  5
D
102
{ACAD_REACTORS
330
C
102
}
330
C
100
AcDbDictionary
281
     1
  0
DICTIONARY
  5
1A
102
{ACAD_REACTORS
330
C
102
}
330
C
100
AcDbDictionary
281
     1
  3
Layout1
350
1E
  3
Layout2
350
26
  3
Model
350
22
  0
DICTIONARY
  5
17
102
{ACAD_REACTORS
330
C
102
}
330
C
100
AcDbDictionary
281
     1
  3
Standard
350
18
  0
DICTIONARY
  5
19
102
{ACAD_REACTORS
330
C
102
}
330
C
100
AcDbDictionary
281
     1
  0
ACDBDICTIONARYWDFLT
  5
E
102
{ACAD_REACTORS
330
C
102
}
330
C
100
AcDbDictionary
281
     1
  3
Normal
350
F
100
AcDbDictionaryWithDefault
340
F
  0
DICTIONARY
  5
47
102
{ACAD_REACTORS
330
C
102
}
330
C
100
AcDbDictionary
281
     1
  3
A0
350
48
  3
A1
350
49
  3
A2
350
4A
  3
A3
350
4B
  3
A4
350
4C
  3
A5
350
4D
  3
A6
350
4E
  3
A7
350
4F
  3
A8
350
50
  3
A9
350
51
  3
B0
350
52
  3
B1
350
53
  3
B2
350
54
  3
B3
350
55
  3
B4
350
56
  3
B5
350
57
  3
B6
350
58
  3
B7
350
59
  3
B8
350
5A
  3
B9
350
5B
  3
C0
350
5C
  3
C1
350
5D
  3
C2
350
5E
  3
C3
350
5F
  3
C4
350
60
  3
C5
350
61
  3
C6
350
62
  3
C7
350
63
  3
C8
350
64
  3
C9
350
65
  3
D0
350
66
  3
D1
350
67
  3
D2
350
68
  0
XRECORD
  5
433
102
{ACAD_REACTORS
330
C
102
}
330
C
100
AcDbXrecord
280
     1
  1
DWGPROPS COOKIE
  2

  3

  4

  6

  7

  8
CH-NTL-RS-WSCAD
  9

300
=
301
=
302
=
303
=
304
=
305
=
306
=
307
=
308
=
309
=
 40
0.0
 41
2460554.306790683
 42
2460554.306796227
  1

 90
        0
  0
LAYOUT
  5
1E
102
{ACAD_REACTORS
330
1A
102
}
330
1A
100
AcDbPlotSettings
  1

  2
none_device
  4

  6

 40
0.0
 41
0.0
 42
0.0
 43
0.0
 44
0.0
 45
0.0
 46
0.0
 47
0.0
 48
0.0
 49
0.0
140
0.0
141
0.0
142
1.0
143
1.0
 70
   688
 72
     1
 73
     0
 74
     5
  7

 75
    16
147
1.0
148
0.0
149
0.0
100
AcDbLayout
  1
Layout1
 70
     1
 71
     1
 10
0.0
 20
0.0
 11
420.0
 21
297.0
 12
0.0
 22
0.0
 32
0.0
 14
1.0000000000E+20
 24
1.0000000000E+20
 34
1.0000000000E+20
 15
-1.0000000000E+20
 25
-1.0000000000E+20
 35
-1.0000000000E+20
146
0.0
 13
0.0
 23
0.0
 33
0.0
 16
1.0
 26
0.0
 36
0.0
 17
0.0
 27
1.0
 37
0.0
 76
     0
330
1B
  0
LAYOUT
  5
26
102
{ACAD_REACTORS
330
1A
102
}
330
1A
100
AcDbPlotSettings
  1

  2
none_device
  4

  6

 40
0.0
 41
0.0
 42
0.0
 43
0.0
 44
0.0
 45
0.0
 46
0.0
 47
0.0
 48
0.0
 49
0.0
140
0.0
141
0.0
142
1.0
143
1.0
 70
   688
 72
     1
 73
     0
 74
     5
  7

 75
    16
147
1.0
148
0.0
149
0.0
100
AcDbLayout
  1
Layout2
 70
     1
 71
     2
 10
0.0
 20
0.0
 11
0.0
 21
0.0
 12
0.0
 22
0.0
 32
0.0
 14
0.0
 24
0.0
 34
0.0
 15
0.0
 25
0.0
 35
0.0
146
0.0
 13
0.0
 23
0.0
 33
0.0
 16
1.0
 26
0.0
 36
0.0
 17
0.0
 27
1.0
 37
0.0
 76
     0
330
23
  0
LAYOUT
  5
22
102
{ACAD_REACTORS
330
1A
102
}
330
1A
100
AcDbPlotSettings
  1

  2
none_device
  4
Letter_(8.50_x_11.00_Inches)
  6

 40
6.35
 41
6.35
 42
6.35000508
 43
6.35000508
 44
215.9
 45
279.4
 46
0.0
 47
0.0
 48
0.0
 49
0.0
140
0.0
141
0.0
142
1.0
143
1.0
 70
  1712
 72
     1
 73
     0
 74
     0
  7

 75
     0
147
1.0
148
0.0
149
0.0
100
AcDbLayout
  1
Model
 70
     1
 71
     0
 10
0.0
 20
0.0
 11
420.0
 21
297.0
 12
0.0
 22
0.0
 32
0.0
 14
0.0
 24
0.0
 34
0.0
 15
420.0
 25
297.0
 35
0.0
146
0.0
 13
0.0
 23
0.0
 33
0.0
 16
1.0
 26
0.0
 36
0.0
 17
0.0
 27
1.0
 37
0.0
 76
     0
330
1F
331
29
  0
MLINESTYLE
  5
18
102
{ACAD_REACTORS
330
17
102
}
330
17
100
AcDbMlineStyle
  2
Standard
 70
     0
  3

 62
   256
 51
90.0
 52
90.0
 71
     2
 49
0.5
 62
   256
  6
BYLAYER
 49
-0.5
 62
   256
  6
BYLAYER
  0
ACDBPLACEHOLDER
  5
F
102
{ACAD_REACTORS
330
E
102
}
330
E
  0
SCALE
  5
48
102
{ACAD_REACTORS
330
47
102
}
330
47
100
AcDbScale
 70
     0
300
1:1
140
1.0
141
1.0
290
     1
  0
SCALE
  5
49
102
{ACAD_REACTORS
330
47
102
}
330
47
100
AcDbScale
 70
     0
300
1:2
140
1.0
141
2.0
290
     0
  0
SCALE
  5
4A
102
{ACAD_REACTORS
330
47
102
}
330
47
100
AcDbScale
 70
     0
300
1:4
140
1.0
141
4.0
290
     0
  0
SCALE
  5
4B
102
{ACAD_REACTORS
330
47
102
}
330
47
100
AcDbScale
 70
     0
300
1:5
140
1.0
141
5.0
290
     0
  0
SCALE
  5
4C
102
{ACAD_REACTORS
330
47
102
}
330
47
100
AcDbScale
 70
     0
300
1:8
140
1.0
141
8.0
290
     0
  0
SCALE
  5
4D
102
{ACAD_REACTORS
330
47
102
}
330
47
100
AcDbScale
 70
     0
300
1:10
140
1.0
141
10.0
290
     0
  0
SCALE
  5
4E
102
{ACAD_REACTORS
330
47
102
}
330
47
100
AcDbScale
 70
     0
300
1:16
140
1.0
141
16.0
290
     0
  0
SCALE
  5
4F
102
{ACAD_REACTORS
330
47
102
}
330
47
100
AcDbScale
 70
     0
300
1:20
140
1.0
141
20.0
290
     0
  0
SCALE
  5
50
102
{ACAD_REACTORS
330
47
102
}
330
47
100
AcDbScale
 70
     0
300
1:30
140
1.0
141
30.0
290
     0
  0
SCALE
  5
51
102
{ACAD_REACTORS
330
47
102
}
330
47
100
AcDbScale
 70
     0
300
1:40
140
1.0
141
40.0
290
     0
  0
SCALE
  5
52
102
{ACAD_REACTORS
330
47
102
}
330
47
100
AcDbScale
 70
     0
300
1:50
140
1.0
141
50.0
290
     0
  0
SCALE
  5
53
102
{ACAD_REACTORS
330
47
102
}
330
47
100
AcDbScale
 70
     0
300
1:100
140
1.0
141
100.0
290
     0
  0
SCALE
  5
54
102
{ACAD_REACTORS
330
47
102
}
330
47
100
AcDbScale
 70
     0
300
2:1
140
2.0
141
1.0
290
     0
  0
SCALE
  5
55
102
{ACAD_REACTORS
330
47
102
}
330
47
100
AcDbScale
 70
     0
300
4:1
140
4.0
141
1.0
290
     0
  0
SCALE
  5
56
102
{ACAD_REACTORS
330
47
102
}
330
47
100
AcDbScale
 70
     0
300
8:1
140
8.0
141
1.0
290
     0
  0
SCALE
  5
57
102
{ACAD_REACTORS
330
47
102
}
330
47
100
AcDbScale
 70
     0
300
10:1
140
10.0
141
1.0
290
     0
  0
SCALE
  5
58
102
{ACAD_REACTORS
330
47
102
}
330
47
100
AcDbScale
 70
     0
300
100:1
140
100.0
141
1.0
290
     0
  0
SCALE
  5
59
102
{ACAD_REACTORS
330
47
102
}
330
47
100
AcDbScale
 70
     0
300
1/128" = 1'-0"
140
0.0078125
141
12.0
290
     0
  0
SCALE
  5
5A
102
{ACAD_REACTORS
330
47
102
}
330
47
100
AcDbScale
 70
     0
300
1/64" = 1'-0"
140
0.015625
141
12.0
290
     0
  0
SCALE
  5
5B
102
{ACAD_REACTORS
330
47
102
}
330
47
100
AcDbScale
 70
     0
300
1/32" = 1'-0"
140
0.03125
141
12.0
290
     0
  0
SCALE
  5
5C
102
{ACAD_REACTORS
330
47
102
}
330
47
100
AcDbScale
 70
     0
300
1/16" = 1'-0"
140
0.0625
141
12.0
290
     0
  0
SCALE
  5
5D
102
{ACAD_REACTORS
330
47
102
}
330
47
100
AcDbScale
 70
     0
300
3/32" = 1'-0"
140
0.09375
141
12.0
290
     0
  0
SCALE
  5
5E
102
{ACAD_REACTORS
330
47
102
}
330
47
100
AcDbScale
 70
     0
300
1/8" = 1'-0"
140
0.125
141
12.0
290
     0
  0
SCALE
  5
5F
102
{ACAD_REACTORS
330
47
102
}
330
47
100
AcDbScale
 70
     0
300
3/16" = 1'-0"
140
0.1875
141
12.0
290
     0
  0
SCALE
  5
60
102
{ACAD_REACTORS
330
47
102
}
330
47
100
AcDbScale
 70
     0
300
1/4" = 1'-0"
140
0.25
141
12.0
290
     0
  0
SCALE
  5
61
102
{ACAD_REACTORS
330
47
102
}
330
47
100
AcDbScale
 70
     0
300
3/8" = 1'-0"
140
0.375
141
12.0
290
     0
  0
SCALE
  5
62
102
{ACAD_REACTORS
330
47
102
}
330
47
100
AcDbScale
 70
     0
300
1/2" = 1'-0"
140
0.5
141
12.0
290
     0
  0
SCALE
  5
63
102
{ACAD_REACTORS
330
47
102
}
330
47
100
AcDbScale
 70
     0
300
3/4" = 1'-0"
140
0.75
141
12.0
290
     0
  0
SCALE
  5
64
102
{ACAD_REACTORS
330
47
102
}
330
47
100
AcDbScale
 70
     0
300
1" = 1'-0"
140
1.0
141
12.0
290
     0
  0
SCALE
  5
65
102
{ACAD_REACTORS
330
47
102
}
330
47
100
AcDbScale
 70
     0
300
1-1/2" = 1'-0"
140
1.5
141
12.0
290
     0
  0
SCALE
  5
66
102
{ACAD_REACTORS
330
47
102
}
330
47
100
AcDbScale
 70
     0
300
3" = 1'-0"
140
3.0
141
12.0
290
     0
  0
SCALE
  5
67
102
{ACAD_REACTORS
330
47
102
}
330
47
100
AcDbScale
 70
     0
300
6" = 1'-0"
140
6.0
141
12.0
290
     0
  0
SCALE
  5
68
102
{ACAD_REACTORS
330
47
102
}
330
47
100
AcDbScale
 70
     0
300
1'-0" = 1'-0"
140
12.0
141
12.0
290
     0
  0
ENDSEC
  0
EOF
