  0
SECTION
  2
HEADER
  9
$ACADVER
  1
AC1015
  9
$ACADMAINTVER
 70
     6
  9
$DWGCODEPAGE
  3
ANSI_1252
  9
$INSBASE
 10
0.0
 20
0.0
 30
0.0
  9
$EXTMIN
 10
0.0
 20
0.0
 30
0.0
  9
$EXTMAX
 10
420.0
 20
297.0
 30
0.0
  9
$LIMMIN
 10
0.0
 20
0.0
  9
$LIMMAX
 10
420.0
 20
297.0
  9
$ORTHOMODE
 70
     0
  9
$REGENMODE
 70
     1
  9
$FILLMODE
 70
     1
  9
$QTEXTMODE
 70
     0
  9
$MIRRTEXT
 70
     1
  9
$LTSCALE
 40
1.0
  9
$ATTMODE
 70
     1
  9
$TEXTSIZE
 40
3.5
  9
$TRACEWID
 40
1.0
  9
$TEXTSTYLE
  7
Standard
  9
$CLAYER
  8
0
  9
$CELTYPE
  6
ByLayer
  9
$CECOLOR
 62
   256
  9
$CELTSCALE
 40
1.0
  9
$DISPSILH
 70
     0
  9
$DIMSCALE
 40
1.0
  9
$DIMASZ
 40
3.302
  9
$DIMEXO
 40
1.0
  9
$DIMDLI
 40
3.75
  9
$DIMRND
 40
0.0
  9
$DIMDLE
 40
0.0
  9
$DIMEXE
 40
1.0
  9
$DIMTP
 40
0.0
  9
$DIMTM
 40
0.0
  9
$DIMTXT
 40
3.5
  9
$DIMCEN
 40
2.5
  9
$DIMTSZ
 40
0.0
  9
$DIMTOL
 70
     0
  9
$DIMLIM
 70
     0
  9
$DIMTIH
 70
     1
  9
$DIMTOH
 70
     1
  9
$DIMSE1
 70
     0
  9
$DIMSE2
 70
     0
  9
$DIMTAD
 70
     1
  9
$DIMZIN
 70
     0
  9
$DIMBLK
  1

  9
$DIMASO
 70
     1
  9
$DIMSHO
 70
     1
  9
$DIMPOST
  1

  9
$DIMAPOST
  1

  9
$DIMALT
 70
     0
  9
$DIMALTD
 70
     3
  9
$DIMALTF
 40
0.0393700787
  9
$DIMLFAC
 40
1.0
  9
$DIMTOFL
 70
     1
  9
$DIMTVP
 40
0.0
  9
$DIMTIX
 70
     0
  9
$DIMSOXD
 70
     0
  9
$DIMSAH
 70
     0
  9
$DIMBLK1
  1

  9
$DIMBLK2
  1

  9
$DIMSTYLE
  2
ISO-25
  9
$DIMCLRD
 70
     0
  9
$DIMCLRE
 70
     0
  9
$DIMCLRT
 70
     0
  9
$DIMTFAC
 40
1.0
  9
$DIMGAP
 40
1.524
  9
$DIMJUST
 70
     0
  9
$DIMSD1
 70
     0
  9
$DIMSD2
 70
     0
  9
$DIMTOLJ
 70
     0
  9
$DIMTZIN
 70
     0
  9
$DIMALTZ
 70
     0
  9
$DIMALTTZ
 70
     0
  9
$DIMUPT
 70
     0
  9
$DIMDEC
 70
     2
  9
$DIMTDEC
 70
     2
  9
$DIMALTU
 70
     2
  9
$DIMALTTD
 70
     3
  9
$DIMTXSTY
  7
Standard
  9
$DIMAUNIT
 70
     0
  9
$DIMADEC
 70
     2
  9
$DIMALTRND
 40
0.0
  9
$DIMAZIN
 70
     0
  9
$DIMDSEP
 70
    44
  9
$DIMATFIT
 70
     3
  9
$DIMFRAC
 70
     0
  9
$DIMLDRBLK
  1

  9
$DIMLUNIT
 70
     2
  9
$DIMLWD
 70
    -2
  9
$DIMLWE
 70
    -2
  9
$DIMTMOVE
 70
     0
  9
$LUNITS
 70
     2
  9
$LUPREC
 70
     2
  9
$SKETCHINC
 40
1.0
  9
$FILLETRAD
 40
10.0
  9
$AUNITS
 70
     0
  9
$AUPREC
 70
     2
  9
$MENU
  1
.
  9
$ELEVATION
 40
0.0
  9
$PELEVATION
 40
0.0
  9
$THICKNESS
 40
0.0
  9
$LIMCHECK
 70
     0
  9
$CHAMFERA
 40
0.0
  9
$CHAMFERB
 40
0.0
  9
$CHAMFERC
 40
0.0
  9
$CHAMFERD
 40
0.0
  9
$SKPOLY
 70
     0
  9
$TDCREATE
 40
2460554.392292014
  9
$TDUCREATE
 40
2460554.30895868
  9
$TDUPDATE
 40
2460554.392296308
  9
$TDUUPDATE
 40
2460554.308962975
  9
$TDINDWG
 40
0.0000000116
  9
$TDUSRTIMER
 40
0.0000000116
  9
$USRTIMER
 70
     1
  9
$ANGBASE
 50
0.0
  9
$ANGDIR
 70
     0
  9
$PDMODE
 70
     0
  9
$PDSIZE
 40
-1.0
  9
$PLINEWID
 40
0.0
  9
$SPLFRAME
 70
     0
  9
$SPLINETYPE
 70
     6
  9
$SPLINESEGS
 70
     8
  9
$HANDSEED
  5
4B0
  9
$SURFTAB1
 70
     6
  9
$SURFTAB2
 70
     6
  9
$SURFTYPE
 70
     6
  9
$SURFU
 70
     6
  9
$SURFV
 70
     6
  9
$UCSBASE
  2

  9
$UCSNAME
  2

  9
$UCSORG
 10
0.0
 20
0.0
 30
0.0
  9
$UCSXDIR
 10
1.0
 20
0.0
 30
0.0
  9
$UCSYDIR
 10
0.0
 20
1.0
 30
0.0
  9
$UCSORTHOREF
  2

  9
$UCSORTHOVIEW
 70
     0
  9
$UCSORGTOP
 10
0.0
 20
0.0
 30
0.0
  9
$UCSORGBOTTOM
 10
0.0
 20
0.0
 30
0.0
  9
$UCSORGLEFT
 10
0.0
 20
0.0
 30
0.0
  9
$UCSORGRIGHT
 10
0.0
 20
0.0
 30
0.0
  9
$UCSORGFRONT
 10
0.0
 20
0.0
 30
0.0
  9
$UCSORGBACK
 10
0.0
 20
0.0
 30
0.0
  9
$PUCSBASE
  2

  9
$PUCSNAME
  2

  9
$PUCSORG
 10
0.0
 20
0.0
 30
0.0
  9
$PUCSXDIR
 10
1.0
 20
0.0
 30
0.0
  9
$PUCSYDIR
 10
0.0
 20
1.0
 30
0.0
  9
$PUCSORTHOREF
  2

  9
$PUCSORTHOVIEW
 70
     0
  9
$PUCSORGTOP
 10
0.0
 20
0.0
 30
0.0
  9
$PUCSORGBOTTOM
 10
0.0
 20
0.0
 30
0.0
  9
$PUCSORGLEFT
 10
0.0
 20
0.0
 30
0.0
  9
$PUCSORGRIGHT
 10
0.0
 20
0.0
 30
0.0
  9
$PUCSORGFRONT
 10
0.0
 20
0.0
 30
0.0
  9
$PUCSORGBACK
 10
0.0
 20
0.0
 30
0.0
  9
$USERI1
 70
     0
  9
$USERI2
 70
     0
  9
$USERI3
 70
     0
  9
$USERI4
 70
     0
  9
$USERI5
 70
     0
  9
$USERR1
 40
0.0
  9
$USERR2
 40
0.0
  9
$USERR3
 40
0.0
  9
$USERR4
 40
0.0
  9
$USERR5
 40
0.0
  9
$WORLDVIEW
 70
     1
  9
$SHADEDGE
 70
     3
  9
$SHADEDIF
 70
    70
  9
$TILEMODE
 70
     1
  9
$MAXACTVP
 70
    64
  9
$PINSBASE
 10
0.0
 20
0.0
 30
0.0
  9
$PLIMCHECK
 70
     0
  9
$PEXTMIN
 10
1.0000000000E+20
 20
1.0000000000E+20
 30
1.0000000000E+20
  9
$PEXTMAX
 10
-1.0000000000E+20
 20
-1.0000000000E+20
 30
-1.0000000000E+20
  9
$PLIMMIN
 10
0.0
 20
0.0
  9
$PLIMMAX
 10
420.0
 20
297.0
  9
$UNITMODE
 70
     0
  9
$VISRETAIN
 70
     1
  9
$PLINEGEN
 70
     0
  9
$PSLTSCALE
 70
     1
  9
$TREEDEPTH
 70
  3020
  9
$CMLSTYLE
  2
Standard
  9
$CMLJUST
 70
     0
  9
$CMLSCALE
 40
20.0
  9
$PROXYGRAPHICS
 70
     1
  9
$MEASUREMENT
 70
     1
  9
$CELWEIGHT
370
    -1
  9
$ENDCAPS
280
     0
  9
$JOINSTYLE
280
     0
  9
$LWDISPLAY
290
     1
  9
$INSUNITS
 70
     4
  9
$HYPERLINKBASE
  1

  9
$STYLESHEET
  1

  9
$XEDIT
290
     1
  9
$CEPSNTYPE
380
     0
  9
$PSTYLEMODE
290
     1
  9
$FINGERPRINTGUID
  2
{37c2b176-cb66-426d-a5c3-b8439ced03b0}
  9
$VERSIONGUID
  2
{FAEB1C32-E019-11D5-929B-00C0DF256EC4}
  9
$EXTNAMES
290
     1
  9
$PSVPSCALE
 40
0.0
  9
$OLESTARTUP
290
     0
  0
ENDSEC
  0
SECTION
  2
CLASSES
  0
CLASS
  1
ACDBDICTIONARYWDFLT
  2
AcDbDictionaryWithDefault
  3
ObjectDBX Classes
 90
        0
280
     0
281
     0
  0
CLASS
  1
VISUALSTYLE
  2
AcDbVisualStyle
  3
ObjectDBX Classes
 90
     4095
280
     0
281
     0
  0
CLASS
  1
MATERIAL
  2
AcDbMaterial
  3
ObjectDBX Classes
 90
     1153
280
     0
281
     0
  0
CLASS
  1
SCALE
  2
AcDbScale
  3
ObjectDBX Classes
 90
     1153
280
     0
281
     0
  0
CLASS
  1
TABLESTYLE
  2
AcDbTableStyle
  3
ObjectDBX Classes
 90
     4095
280
     0
281
     0
  0
CLASS
  1
MLEADERSTYLE
  2
AcDbMLeaderStyle
  3
ACDB_MLEADERSTYLE_CLASS
 90
     4095
280
     0
281
     0
  0
CLASS
  1
SUN
  2
AcDbSun
  3
SCENEOE
 90
     1153
280
     0
281
     0
  0
CLASS
  1
ACDBPLACEHOLDER
  2
AcDbPlaceHolder
  3
ObjectDBX Classes
 90
        0
280
     0
281
     0
  0
CLASS
  1
LAYOUT
  2
AcDbLayout
  3
ObjectDBX Classes
 90
        0
280
     0
281
     0
  0
ENDSEC
  0
SECTION
  2
TABLES
  0
TABLE
  2
VPORT
  5
8
330
0
100
AcDbSymbolTable
 70
     1
  0
VPORT
  5
29
330
8
100
AcDbSymbolTableRecord
100
AcDbViewportTableRecord
  2
*Active
 70
     0
 10
0.0
 20
0.0
 11
1.0
 21
1.0
 12
210.0
 22
148.5
 13
0.0
 23
0.0
 14
10.0
 24
10.0
 15
10.0
 25
10.0
 16
0.0
 26
0.0
 36
1.0
 17
0.0
 27
0.0
 37
0.0
 40
297.0
 41
1.4141414141
 42
50.0
 43
0.0
 44
0.0
 50
0.0
 51
0.0
 71
     0
 72
  2000
 73
     1
 74
     3
 75
     0
 76
     0
 77
     0
 78
     0
281
     0
 65
     1
110
0.0
120
0.0
130
0.0
111
1.0
121
0.0
131
0.0
112
0.0
122
1.0
132
0.0
 79
     0
146
0.0
  0
ENDTAB
  0
TABLE
  2
LTYPE
  5
5
330
0
100
AcDbSymbolTable
 70
     6
  0
LTYPE
  5
14
330
5
100
AcDbSymbolTableRecord
100
AcDbLinetypeTableRecord
  2
ByBlock
 70
     0
  3

 72
    65
 73
     0
 40
0.0
  0
LTYPE
  5
15
330
5
100
AcDbSymbolTableRecord
100
AcDbLinetypeTableRecord
  2
ByLayer
 70
     0
  3

 72
    65
 73
     0
 40
0.0
  0
LTYPE
  5
16
330
5
100
AcDbSymbolTableRecord
100
AcDbLinetypeTableRecord
  2
Continuous
 70
     0
  3
Solid line
 72
    65
 73
     0
 40
0.0
  0
LTYPE
  5
6E
330
5
100
AcDbSymbolTableRecord
100
AcDbLinetypeTableRecord
  2
HIDDEN
 70
     0
  3
Hidden __ __ __ __ __ __ __ __ __ __ __ __ __ __
 72
    65
 73
     2
 40
1.905
 49
1.27
 74
     0
 49
-0.635
 74
     0
  0
LTYPE
  5
6F
330
5
100
AcDbSymbolTableRecord
100
AcDbLinetypeTableRecord
  2
PHANTOM
 70
     0
  3
Phantom ______  __  __  ______  __  __  ______
 72
    65
 73
     6
 40
12.7
 49
6.35
 74
     0
 49
-1.27
 74
     0
 49
1.27
 74
     0
 49
-1.27
 74
     0
 49
1.27
 74
     0
 49
-1.27
 74
     0
  0
LTYPE
  5
70
330
5
100
AcDbSymbolTableRecord
100
AcDbLinetypeTableRecord
  2
CENTER
 70
     0
  3
Center ____ _ ____ _ ____ _ ____ _ ____ _ ____
 72
    65
 73
     4
 40
10.16
 49
6.35
 74
     0
 49
-1.27
 74
     0
 49
1.27
 74
     0
 49
-1.27
 74
     0
  0
LTYPE
  5
71
330
5
100
AcDbSymbolTableRecord
100
AcDbLinetypeTableRecord
  2
CENTERX2
 70
     0
  3
Center (2x) ________  __  ________  __  _____
 72
    65
 73
     4
 40
20.32
 49
12.7
 74
     0
 49
-2.54
 74
     0
 49
2.54
 74
     0
 49
-2.54
 74
     0
  0
LTYPE
  5
72
330
5
100
AcDbSymbolTableRecord
100
AcDbLinetypeTableRecord
  2
DOT2
 70
     0
  3
Dot (.5x) ........................................
 72
    65
 73
     2
 40
0.635
 49
0.0
 74
     0
 49
-0.635
 74
     0
  0
ENDTAB
  0
TABLE
  2
LAYER
  5
2
330
0
100
AcDbSymbolTable
 70
     1
  0
LAYER
  5
10
330
2
100
AcDbSymbolTableRecord
100
AcDbLayerTableRecord
  2
0
 70
     0
 62
     7
  6
Continuous
370
    -3
390
F
  0
ENDTAB
  0
TABLE
  2
STYLE
  5
3
330
0
100
AcDbSymbolTable
 70
     4
  0
STYLE
  5
11
330
3
100
AcDbSymbolTableRecord
100
AcDbTextStyleTableRecord
  2
Standard
 70
     0
 40
0.0
 41
1.0
 50
0.0
 71
     0
 42
3.5
  3
txt
  4

  0
STYLE
  5
E9
330
3
100
AcDbSymbolTableRecord
100
AcDbTextStyleTableRecord
  2
SLDTEXTSTYLE0
 70
     0
 40
0.0
 41
0.605
 50
0.0
 71
     0
 42
3.5
  3
TXT
  4

  0
STYLE
  5
196
330
3
100
AcDbSymbolTableRecord
100
AcDbTextStyleTableRecord
  2
SLDTEXTSTYLE1
 70
     0
 40
0.0
 41
0.563
 50
0.0
 71
     0
 42
3.5
  3
TXT
  4

  0
STYLE
  5
32A
330
3
100
AcDbSymbolTableRecord
100
AcDbTextStyleTableRecord
  2
SLDTEXTSTYLE2
 70
     0
 40
0.0
 41
0.75
 50
0.0
 71
     0
 42
3.5
  3
TXT
  4

  0
ENDTAB
  0
TABLE
  2
VIEW
  5
6
330
0
100
AcDbSymbolTable
 70
     0
  0
ENDTAB
  0
TABLE
  2
UCS
  5
7
330
0
100
AcDbSymbolTable
 70
     0
  0
ENDTAB
  0
TABLE
  2
APPID
  5
9
330
0
100
AcDbSymbolTable
 70
     1
  0
APPID
  5
12
330
9
100
AcDbSymbolTableRecord
100
AcDbRegAppTableRecord
  2
ACAD
 70
     0
  0
ENDTAB
  0
TABLE
  2
DIMSTYLE
  5
A
330
0
100
AcDbSymbolTable
 70
     4
100
AcDbDimStyleTable
  0
DIMSTYLE
105
27
330
A
100
AcDbSymbolTableRecord
100
AcDbDimStyleTableRecord
  2
ISO-25
 70
     0
 41
2.5
 42
0.625
 43
3.75
 44
1.25
 73
     0
 74
     0
 77
     1
 78
     8
140
2.5
141
2.5
143
0.0393700787
147
0.625
171
     3
172
     1
178
     0
271
     2
272
     2
274
     3
278
    44
283
     0
284
     8
340
11
  0
DIMSTYLE
105
32B
102
{ACAD_REACTORS
330
329
102
}
330
A
100
AcDbSymbolTableRecord
100
AcDbDimStyleTableRecord
  2
SLDDIMSTYLE0
 70
     0
 41
3.302
 44
0.0
 45
0.000000001
 73
     0
 74
     0
 77
     1
 78
    12
 79
     3
140
3.5
147
0.875
173
     1
178
     0
271
     0
272
     0
276
     2
284
    12
340
32A
  0
DIMSTYLE
105
336
102
{ACAD_REACTORS
330
335
102
}
330
A
100
AcDbSymbolTableRecord
100
AcDbDimStyleTableRecord
  2
SLDDIMSTYLE1
 70
     0
 41
3.302
 44
0.0
 45
0.000000001
 73
     0
 74
     0
 77
     1
 78
    12
 79
     3
140
3.5
147
0.875
173
     1
178
     0
271
     2
272
     2
276
     2
284
    12
340
32A
  0
DIMSTYLE
105
373
102
{ACAD_REACTORS
330
372
102
}
330
A
100
AcDbSymbolTableRecord
100
AcDbDimStyleTableRecord
  2
SLDDIMSTYLE2
 70
     0
 41
3.302
 44
0.0
 45
0.000000001
 73
     0
 74
     0
 77
     1
 78
    12
 79
     3
140
3.5
147
0.875
172
     1
173
     1
178
     0
271
     2
272
     2
276
     2
284
    12
289
     0
340
32A
  0
ENDTAB
  0
TABLE
  2
BLOCK_RECORD
  5
1
330
0
100
AcDbSymbolTable
 70
    11
  0
BLOCK_RECORD
  5
1F
330
1
100
AcDbSymbolTableRecord
100
AcDbBlockTableRecord
  2
*Model_Space
340
22
  0
BLOCK_RECORD
  5
1B
330
1
100
AcDbSymbolTableRecord
100
AcDbBlockTableRecord
  2
*Paper_Space
340
1E
  0
BLOCK_RECORD
  5
23
330
1
100
AcDbSymbolTableRecord
100
AcDbBlockTableRecord
  2
*Paper_Space0
340
26
  0
BLOCK_RECORD
  5
73
330
1
100
AcDbSymbolTableRecord
100
AcDbBlockTableRecord
  2
ACO-Logo
340
0
102
{BLKREFS
331
149
102
}
  0
BLOCK_RECORD
  5
E6
330
1
100
AcDbSymbolTableRecord
100
AcDbBlockTableRecord
  2
SW_NOTE_0
340
0
102
{BLKREFS
331
EB
102
}
  0
BLOCK_RECORD
  5
EC
330
1
100
AcDbSymbolTableRecord
100
AcDbBlockTableRecord
  2
SW_NOTE_0_1
340
0
102
{BLKREFS
331
F0
102
}
  0
BLOCK_RECORD
  5
F1
330
1
100
AcDbSymbolTableRecord
100
AcDbBlockTableRecord
  2
SW_NOTE_0_2
340
0
102
{BLKREFS
331
F8
102
}
  0
BLOCK_RECORD
  5
170
330
1
100
AcDbSymbolTableRecord
100
AcDbBlockTableRecord
  2
SW_NOTE_0_3
340
0
102
{BLKREFS
331
178
102
}
  0
BLOCK_RECORD
  5
32C
330
1
100
AcDbSymbolTableRecord
100
AcDbBlockTableRecord
  2
_D
340
0
  0
BLOCK_RECORD
  5
337
330
1
100
AcDbSymbolTableRecord
100
AcDbBlockTableRecord
  2
_D_1
340
0
  0
BLOCK_RECORD
  5
340
330
1
100
AcDbSymbolTableRecord
100
AcDbBlockTableRecord
  2
SW_CENTERMARKSYMBOL_0
340
0
102
{BLKREFS
331
34B
102
}
  0
BLOCK_RECORD
  5
34C
330
1
100
AcDbSymbolTableRecord
100
AcDbBlockTableRecord
  2
SW_CENTERMARKSYMBOL_1
340
0
102
{BLKREFS
331
357
102
}
  0
BLOCK_RECORD
  5
374
330
1
100
AcDbSymbolTableRecord
100
AcDbBlockTableRecord
  2
_D_2
340
0
  0
ENDTAB
  0
ENDSEC
  0
SECTION
  2
BLOCKS
  0
BLOCK
  5
20
330
1F
100
AcDbEntity
  8
0
100
AcDbBlockBegin
  2
*Model_Space
 70
     0
 10
0.0
 20
0.0
 30
0.0
  3
*Model_Space
  1

  0
ENDBLK
  5
21
330
1F
100
AcDbEntity
  8
0
100
AcDbBlockEnd
  0
BLOCK
  5
1C
330
1B
100
AcDbEntity
 67
     1
  8
0
100
AcDbBlockBegin
  2
*Paper_Space
 70
     0
 10
0.0
 20
0.0
 30
0.0
  3
*Paper_Space
  1

  0
ENDBLK
  5
1D
330
1B
100
AcDbEntity
 67
     1
  8
0
100
AcDbBlockEnd
  0
BLOCK
  5
24
330
23
100
AcDbEntity
  8
0
100
AcDbBlockBegin
  2
*Paper_Space0
 70
     0
 10
0.0
 20
0.0
 30
0.0
  3
*Paper_Space0
  1

  0
ENDBLK
  5
25
330
23
100
AcDbEntity
  8
0
100
AcDbBlockEnd
  0
BLOCK
  5
74
330
73
100
AcDbEntity
  8
0
100
AcDbBlockBegin
  2
ACO-Logo
 70
     0
 10
0.0
 20
0.0
 30
0.0
  3
ACO-Logo
  1

  0
ARC
  5
76
330
73
100
AcDbEntity
  8
0
  6
Continuous
 62
   179
370
    18
100
AcDbCircle
 10
80.3853261169
 20
4.9940995715
 30
0.0
 40
0.3000000000000441
100
AcDbArc
 50
181.9349323096
 51
274.6062978506
  0
ARC
  5
77
330
73
100
AcDbEntity
  8
0
  6
Continuous
 62
   179
370
    18
100
AcDbCircle
 10
81.2359083165
 20
2.1946665956
 30
0.0
 40
1.000000000000021
100
AcDbArc
 50
221.4087409628
 51
276.0561297228
  0
ARC
  5
78
330
73
100
AcDbEntity
  8
0
  6
Continuous
 62
   179
370
    18
100
AcDbCircle
 10
79.1360017163
 20
3.654242048
 30
0.0
 40
0.300000000000004
100
AcDbArc
 50
181.2730300201
 51
274.4996077095
  0
ARC
  5
79
330
73
100
AcDbEntity
  8
0
  6
Continuous
 62
   179
370
    18
100
AcDbCircle
 10
78.7699033484
 20
3.2873137407
 30
0.0
 40
0.4000000000000358
100
AcDbArc
 50
221.0090869016
 51
274.5606296317
  0
ARC
  5
7A
330
73
100
AcDbEntity
  8
0
  6
Continuous
 62
   179
370
    18
100
AcDbCircle
 10
91.2333953062
 20
4.6062442307
 30
0.0
 40
0.3000000000000493
100
AcDbArc
 50
274.4996077095
 51
3.7249371334
  0
ARC
  5
7B
330
73
100
AcDbEntity
  8
0
  6
Continuous
 62
   179
370
    18
100
AcDbCircle
 10
81.5287571045
 20
9.7648973508
 30
0.0
 40
1.00000000000002
100
AcDbArc
 50
93.1134387481
 51
181.9414863909
  0
ARC
  5
7C
330
73
100
AcDbEntity
  8
0
  6
Continuous
 62
   179
370
    18
100
AcDbCircle
 10
81.6051675115
 20
7.5107903456
 30
0.0
 40
1.0
100
AcDbArc
 50
181.9414863909
 51
274.398705355
  0
ARC
  5
7D
330
73
100
AcDbEntity
  8
0
  6
Continuous
 62
   179
370
    18
100
AcDbCircle
 10
80.1506905656
 20
11.9393118923
 30
0.0
 40
0.300000000000045
100
AcDbArc
 50
93.0418421566
 51
181.9349323096
  0
ARC
  5
7E
330
73
100
AcDbEntity
  8
0
  6
Continuous
 62
   179
370
    18
100
AcDbCircle
 10
78.1879722102
 20
12.3499352608
 30
0.0
 40
0.7999999999953393
100
AcDbArc
 50
92.6995697565
 51
148.2554209065
  0
ARC
  5
7F
330
73
100
AcDbEntity
  8
0
  6
Continuous
 62
   179
370
    18
100
AcDbCircle
 10
78.930862229
 20
12.8855189761
 30
0.0
 40
0.3000000000000031
100
AcDbArc
 50
92.6995697565
 51
181.2730300201
  0
ARC
  5
80
330
73
100
AcDbEntity
  8
0
  6
Continuous
 62
   179
370
    18
100
AcDbCircle
 10
82.327743407
 20
9.8083568568
 30
0.0
 40
1.000000000000034
100
AcDbArc
 50
1.9414863909
 51
93.1134387481
  0
ARC
  5
81
330
73
100
AcDbEntity
  8
0
  6
Continuous
 62
   179
370
    18
100
AcDbCircle
 10
81.5287571045
 20
9.7648973508
 30
0.0
 40
0.3625000000000009
100
AcDbArc
 50
93.1134387481
 51
181.9414863909
  0
ARC
  5
82
330
73
100
AcDbEntity
  8
0
  6
Continuous
 62
   179
370
    18
100
AcDbCircle
 10
82.327743407
 20
9.8083568568
 30
0.0
 40
0.3625000000000146
100
AcDbArc
 50
1.9414863909
 51
93.1134387481
  0
ARC
  5
83
330
73
100
AcDbEntity
  8
0
  6
Continuous
 62
   179
370
    18
100
AcDbCircle
 10
82.4035451983
 20
7.5722040138
 30
0.0
 40
1.000000000000008
100
AcDbArc
 50
274.398705355
 51
1.9414863909
  0
ARC
  5
84
330
73
100
AcDbEntity
  8
0
  6
Continuous
 62
   179
370
    18
100
AcDbCircle
 10
82.4035451983
 20
7.5722040138
 30
0.0
 40
0.3625000000000068
100
AcDbArc
 50
274.398705355
 51
1.9414863909
  0
ARC
  5
85
330
73
100
AcDbEntity
  8
0
  6
Continuous
 62
   179
370
    18
100
AcDbCircle
 10
81.6051675115
 20
7.5107903456
 30
0.0
 40
0.3625000000000111
100
AcDbArc
 50
181.9414863909
 51
274.398705355
  0
ARC
  5
86
330
73
100
AcDbEntity
  8
0
  6
Continuous
 62
   179
370
    18
100
AcDbCircle
 10
88.825822761
 20
8.0662148274
 30
0.0
 40
0.9999999999999997
100
AcDbArc
 50
274.398705355
 51
2.6541955134
  0
ARC
  5
87
330
73
100
AcDbEntity
  8
0
  6
Continuous
 62
   179
370
    18
100
AcDbCircle
 10
90.1578295581
 20
5.7814576687
 30
0.0
 40
0.3000000000000043
100
AcDbArc
 50
274.6062978507
 51
2.5147526475
  0
ARC
  5
88
330
73
100
AcDbEntity
  8
0
  6
Continuous
 62
   179
370
    18
100
AcDbCircle
 10
88.825822761
 20
8.0662148274
 30
0.0
 40
0.3625000000000083
100
AcDbArc
 50
274.398705355
 51
2.6541955134
  0
ARC
  5
89
330
73
100
AcDbEntity
  8
0
  6
Continuous
 62
   179
370
    18
100
AcDbCircle
 10
88.728529747
 20
10.16496413
 30
0.0
 40
1.000000000000001
100
AcDbArc
 50
2.6541955134
 51
93.1134387481
  0
ARC
  5
8A
330
73
100
AcDbEntity
  8
0
  6
Continuous
 62
   179
370
    18
100
AcDbCircle
 10
88.728529747
 20
10.16496413
 30
0.0
 40
0.3625000000000085
100
AcDbArc
 50
2.6541955134
 51
93.1134387481
  0
ARC
  5
8B
330
73
100
AcDbEntity
  8
0
  6
Continuous
 62
   179
370
    18
100
AcDbCircle
 10
89.8647121341
 20
12.455515937
 30
0.0
 40
0.2999999999999984
100
AcDbArc
 50
2.5147526475
 51
93.0418421566
  0
ARC
  5
8C
330
73
100
AcDbEntity
  8
0
  6
Continuous
 62
   179
370
    18
100
AcDbCircle
 10
90.6583795404
 20
13.4384863935
 30
0.0
 40
0.2999999999999911
100
AcDbArc
 50
3.7249371334
 51
92.6995697565
  0
CIRCLE
  5
8D
330
73
100
AcDbEntity
  8
0
  6
Continuous
 62
   179
370
    18
100
AcDbCircle
 10
15.7233972286
 20
6.4054930194
 30
0.0
 40
1.579500000000014
  0
CIRCLE
  5
8E
330
73
100
AcDbEntity
  8
0
  6
Continuous
 62
   179
370
    18
100
AcDbCircle
 10
15.7233972286
 20
6.4054930194
 30
0.0
 40
2.281499999999994
  0
ARC
  5
8F
330
73
100
AcDbEntity
  8
0
  6
Continuous
 62
   179
370
    18
100
AcDbCircle
 10
89.7681336026
 20
2.3106616691
 30
0.0
 40
0.098384530246548
100
AcDbArc
 50
332.3802627259
 51
4.9765441602
  0
ARC
  5
90
330
73
100
AcDbEntity
  8
0
  6
Continuous
 62
   179
370
    18
100
AcDbCircle
 10
89.6886560089
 20
2.3522464185
 30
0.0
 40
0.1880839130754018
100
AcDbArc
 50
303.690067526
 51
332.3802627258
  0
ARC
  5
91
330
73
100
AcDbEntity
  8
0
  6
Continuous
 62
   179
370
    18
100
AcDbCircle
 10
89.4849700869
 20
2.6577753016
 30
0.0
 40
0.5552839311631531
100
AcDbArc
 50
287.108652213
 51
303.690067526
  0
ARC
  5
92
330
73
100
AcDbEntity
  8
0
  6
Continuous
 62
   179
370
    18
100
AcDbCircle
 10
88.0513010646
 20
7.3154864882
 30
0.0
 40
5.428648309393203
100
AcDbArc
 50
285.2551187031
 51
287.108652213
  0
ARC
  5
93
330
73
100
AcDbEntity
  8
0
  6
Continuous
 62
   179
370
    18
100
AcDbCircle
 10
89.1317168954
 20
3.3539617753
 30
0.0
 40
1.322436378825653
100
AcDbArc
 50
281.4991866428
 51
285.255118703
  0
ARC
  5
94
330
73
100
AcDbEntity
  8
0
  6
Continuous
 62
   179
370
    18
100
AcDbCircle
 10
89.3198255509
 20
2.4293110075
 30
0.0
 40
0.3788454141584939
100
AcDbArc
 50
279.1917900003
 51
281.499186643
  0
ARC
  5
95
330
73
100
AcDbEntity
  8
0
  6
Continuous
 62
   179
370
    18
100
AcDbCircle
 10
89.0487250788
 20
4.1046569124
 30
0.0
 40
2.07598399629105
100
AcDbArc
 50
277.7634675038
 51
279.1917900002
  0
ARC
  5
96
330
73
100
AcDbEntity
  8
0
  6
Continuous
 62
   179
370
    18
100
AcDbCircle
 10
9.2588909915
 20
6.4054930194
 30
0.0
 40
1.579500000000074
100
AcDbArc
 50
31.0558004991
 51
330.0
  0
ARC
  5
97
330
73
100
AcDbEntity
  8
0
  6
Continuous
 62
   179
370
    18
100
AcDbCircle
 10
9.2588909915
 20
6.4054930194
 30
0.0
 40
2.281500000000107
100
AcDbArc
 50
30.7309172659
 51
330.0
  0
ARC
  5
98
330
73
100
AcDbEntity
  8
0
  6
Continuous
 62
   179
370
    18
100
AcDbCircle
 10
6.1288847544
 20
4.0685261312
 30
0.0
 40
4.914000000000307
100
AcDbArc
 50
172.3058370354
 51
179.7113029221
  0
ARC
  5
99
330
73
100
AcDbEntity
  8
0
  6
Continuous
 62
   179
370
    18
100
AcDbCircle
 10
-0.5401152456
 20
4.0685261312
 30
0.0
 40
4.91400000000019
100
AcDbArc
 50
0.2886970779
 51
7.6941629646
  0
ARC
  5
9A
330
73
100
AcDbEntity
  8
0
  6
Continuous
 62
   179
370
    18
100
AcDbCircle
 10
-0.5401152456
 20
4.0685261312
 30
0.0
 40
5.616000000000127
100
AcDbArc
 50
0.2526096926
 51
53.5764263577
  0
ARC
  5
9B
330
73
100
AcDbEntity
  8
0
  6
Continuous
 62
   179
370
    18
100
AcDbCircle
 10
6.1288847544
 20
4.0685261312
 30
0.0
 40
5.61600000000074
100
AcDbArc
 50
126.4235736423
 51
179.7473903073
  0
ARC
  5
9C
330
73
100
AcDbEntity
  8
0
  6
Continuous
 62
   179
370
    18
100
AcDbCircle
 10
-0.5401152456
 20
4.0685261312
 30
0.0
 40
4.914000000000161
100
AcDbArc
 50
16.0658750272
 51
47.2678899574
  0
ARC
  5
9D
330
73
100
AcDbEntity
  8
0
  6
Continuous
 62
   179
370
    18
100
AcDbCircle
 10
6.1288847544
 20
4.0685261312
 30
0.0
 40
4.914000000000584
100
AcDbArc
 50
132.7321100426
 51
163.9341249728
  0
LINE
  5
9E
330
73
100
AcDbEntity
  8
0
  6
Continuous
 62
   179
370
    18
100
AcDbLine
 10
78.8017089389
 20
2.8885802402
 30
0.0
 11
90.7982178739
 21
3.8455002136
 31
0.0
  0
LINE
  5
9F
330
73
100
AcDbEntity
  8
0
  6
Continuous
 62
   179
370
    18
100
AcDbLine
 10
76.6545490427
 20
5.8693097374
 30
0.0
 11
78.0344191726
 21
3.5235305166
 31
0.0
  0
LINE
  5
A0
330
73
100
AcDbEntity
  8
0
  6
Continuous
 62
   179
370
    18
100
AcDbLine
 10
91.5327615373
 20
4.6257342197
 30
0.0
 11
90.9577457715
 21
13.4579763825
 31
0.0
  0
LINE
  5
A1
330
73
100
AcDbEntity
  8
0
  6
Continuous
 62
   179
370
    18
100
AcDbLine
 10
78.6309362756
 20
12.8788539549
 30
0.0
 11
78.8360757629
 21
3.6475770268
 31
0.0
  0
LINE
  5
A2
330
73
100
AcDbEntity
  8
0
  6
Continuous
 62
   179
370
    18
100
AcDbLine
 10
80.4094186633
 20
4.6950685544
 30
0.0
 11
90.1819221045
 21
5.4824266516
 31
0.0
  0
LINE
  5
A3
330
73
100
AcDbEntity
  8
0
  6
Continuous
 62
   179
370
    18
100
AcDbLine
 10
79.1595373973
 20
3.3551666867
 30
0.0
 11
91.2569309872
 21
4.3071688694
 31
0.0
  0
LINE
  5
A4
330
73
100
AcDbEntity
  8
0
  6
Continuous
 62
   179
370
    18
100
AcDbLine
 10
79.2585043218
 20
2.925017226
 30
0.0
 11
80.4858981444
 21
1.533240302
 31
0.0
  0
LINE
  5
A5
330
73
100
AcDbEntity
  8
0
  6
Continuous
 62
   179
370
    18
100
AcDbLine
 10
78.0344191726
 20
3.5235305166
 30
0.0
 11
78.3638740472
 21
3.1446574108
 31
0.0
  0
LINE
  5
A6
330
73
100
AcDbEntity
  8
0
  6
Continuous
 62
   179
370
    18
100
AcDbLine
 10
78.3638740472
 20
3.1446574108
 30
0.0
 11
78.4680611395
 21
3.0248422547
 31
0.0
  0
LINE
  5
A7
330
73
100
AcDbEntity
  8
0
  6
Continuous
 62
   179
370
    18
100
AcDbLine
 10
81.3414110113
 20
1.2002475785
 30
0.0
 11
89.3291569519
 21
2.0477010263
 31
0.0
  0
LINE
  5
A8
330
73
100
AcDbEntity
  8
0
  6
Continuous
 62
   179
370
    18
100
AcDbLine
 10
89.8661472522
 20
2.5197759309
 30
0.0
 11
89.8661472522
 21
2.3090867337
 31
0.0
  0
LINE
  5
A9
330
73
100
AcDbEntity
  8
0
  6
Continuous
 62
   179
370
    18
100
AcDbLine
 10
88.676842368
 20
3.6762854359
 30
0.0
 11
89.6713239345
 21
2.7875997807
 31
0.0
  0
LINE
  5
AA
330
73
100
AcDbEntity
  8
0
  6
Continuous
 62
   179
370
    18
100
AcDbLine
 10
89.6713239345
 20
2.7875997807
 30
0.0
 11
89.7459749087
 21
2.7242700694
 31
0.0
  0
LINE
  5
AB
330
73
100
AcDbEntity
  8
0
  6
Continuous
 62
   179
370
    18
100
AcDbLine
 10
90.7982178739
 20
3.8455002136
 30
0.0
 11
91.3961615969
 21
4.3514525945
 31
0.0
  0
LINE
  5
AC
330
73
100
AcDbEntity
  8
0
  6
Continuous
 62
   179
370
    18
100
AcDbLine
 10
90.6442498554
 20
13.7381534621
 30
0.0
 11
78.1502930503
 21
13.1490474438
 31
0.0
  0
LINE
  5
AD
330
73
100
AcDbEntity
  8
0
  6
Continuous
 62
   179
370
    18
100
AcDbLine
 10
80.1347709981
 20
12.2388892068
 30
0.0
 11
89.8487925667
 21
12.7550932515
 31
0.0
  0
LINE
  5
AE
330
73
100
AcDbEntity
  8
0
  6
Continuous
 62
   179
370
    18
100
AcDbLine
 10
76.4935641943
 20
11.7567556248
 30
0.0
 11
76.6545490427
 21
5.8693097374
 31
0.0
  0
LINE
  5
AF
330
73
100
AcDbEntity
  8
0
  6
Continuous
 62
   179
370
    18
100
AcDbLine
 10
79.8508616208
 20
11.929182536
 30
0.0
 11
80.0854971721
 21
4.9839702153
 31
0.0
  0
LINE
  5
B0
330
73
100
AcDbEntity
  8
0
  6
Continuous
 62
   179
370
    18
100
AcDbLine
 10
80.5293311574
 20
9.7310185051
 30
0.0
 11
80.6057415643
 21
7.4769115
 31
0.0
  0
LINE
  5
B1
330
73
100
AcDbEntity
  8
0
  6
Continuous
 62
   179
370
    18
100
AcDbLine
 10
77.507650604
 20
12.7708420346
 30
0.0
 11
76.4935641943
 21
11.7567556248
 31
0.0
  0
LINE
  5
B2
330
73
100
AcDbEntity
  8
0
  6
Continuous
 62
   179
370
    18
100
AcDbLine
 10
86.8848195129
 20
11.0661568594
 30
0.0
 11
88.6742167283
 21
11.1634880887
 31
0.0
  0
LINE
  5
B3
330
73
100
AcDbEntity
  8
0
  6
Continuous
 62
   179
370
    18
100
AcDbLine
 10
87.0766213517
 20
6.9287171941
 30
0.0
 11
88.90708891
 21
7.0695223909
 31
0.0
  0
LINE
  5
B4
330
73
100
AcDbEntity
  8
0
  6
Continuous
 62
   179
370
    18
100
AcDbLine
 10
87.6830038473
 20
7.6147347768
 30
0.0
 11
88.8536252418
 21
7.7047825764
 31
0.0
  0
LINE
  5
B5
330
73
100
AcDbEntity
  8
0
  6
Continuous
 62
   179
370
    18
100
AcDbLine
 10
87.5509212094
 20
10.4639459651
 30
0.0
 11
88.7088412777
 21
10.5269290651
 31
0.0
  0
LINE
  5
B6
330
73
100
AcDbEntity
  8
0
  6
Continuous
 62
   179
370
    18
100
AcDbLine
 10
87.0766218384
 20
6.9287066941
 30
0.0
 11
86.8848195129
 21
11.0661568594
 31
0.0
  0
LINE
  5
B7
330
73
100
AcDbEntity
  8
0
  6
Continuous
 62
   179
370
    18
100
AcDbLine
 10
83.7004598825
 20
6.6667911093
 30
0.0
 11
84.5054929504
 21
10.9267193262
 31
0.0
  0
LINE
  5
B8
330
73
100
AcDbEntity
  8
0
  6
Continuous
 62
   179
370
    18
100
AcDbLine
 10
85.3543248406
 20
10.9728900984
 30
0.0
 11
86.4940946704
 21
6.8816860929
 31
0.0
  0
LINE
  5
B9
330
73
100
AcDbEntity
  8
0
  6
Continuous
 62
   179
370
    18
100
AcDbLine
 10
84.9728575427
 20
9.9667192298
 30
0.0
 11
85.4540299774
 21
8.2395506903
 31
0.0
  0
LINE
  5
BA
330
73
100
AcDbEntity
  8
0
  6
Continuous
 62
   179
370
    18
100
AcDbLine
 10
84.6363094629
 20
8.1858350416
 30
0.0
 11
84.9728575427
 21
9.9667192298
 31
0.0
  0
LINE
  5
BB
330
73
100
AcDbEntity
  8
0
  6
Continuous
 62
   179
370
    18
100
AcDbLine
 10
87.6830038473
 20
7.6147347768
 30
0.0
 11
87.5509212094
 21
10.4639459651
 31
0.0
  0
LINE
  5
BC
330
73
100
AcDbEntity
  8
0
  6
Continuous
 62
   179
370
    18
100
AcDbLine
 10
84.6363094629
 20
8.1858350416
 30
0.0
 11
85.4540299774
 21
8.2395506903
 31
0.0
  0
LINE
  5
BD
330
73
100
AcDbEntity
  8
0
  6
Continuous
 62
   179
370
    18
100
AcDbLine
 10
84.5140586807
 20
7.5389304886
 30
0.0
 11
85.6288154243
 21
7.6121582976
 31
0.0
  0
LINE
  5
BE
330
73
100
AcDbEntity
  8
0
  6
Continuous
 62
   179
370
    18
100
AcDbLine
 10
84.3588137958
 20
6.717433718
 30
0.0
 11
84.5140586807
 21
7.5389304886
 31
0.0
  0
LINE
  5
BF
330
73
100
AcDbEntity
  8
0
  6
Continuous
 62
   179
370
    18
100
AcDbLine
 10
81.6818640104
 20
6.5137358601
 30
0.0
 11
82.4802416972
 21
6.5751495283
 31
0.0
  0
LINE
  5
C0
330
73
100
AcDbEntity
  8
0
  6
Continuous
 62
   179
370
    18
100
AcDbLine
 10
81.6329699923
 20
7.1493580946
 30
0.0
 11
82.4313476791
 21
7.2107717628
 31
0.0
  0
LINE
  5
C1
330
73
100
AcDbEntity
  8
0
  6
Continuous
 62
   179
370
    18
100
AcDbLine
 10
83.7004598825
 20
6.6667911093
 30
0.0
 11
84.3588137958
 21
6.717433718
 31
0.0
  0
LINE
  5
C2
330
73
100
AcDbEntity
  8
0
  6
Continuous
 62
   179
370
    18
100
AcDbLine
 10
82.7059483815
 20
9.3512024135
 30
0.0
 11
83.3423973297
 21
9.3930104243
 31
0.0
  0
LINE
  5
C3
330
73
100
AcDbEntity
  8
0
  6
Continuous
 62
   179
370
    18
100
AcDbLine
 10
82.7491656358
 20
8.0762934118
 30
0.0
 11
83.385614584
 21
8.1181014226
 31
0.0
  0
LINE
  5
C4
330
73
100
AcDbEntity
  8
0
  6
Continuous
 62
   179
370
    18
100
AcDbLine
 10
81.1664651987
 20
9.7526162692
 30
0.0
 11
81.2428756056
 21
7.4985092641
 31
0.0
  0
LINE
  5
C5
330
73
100
AcDbEntity
  8
0
  6
Continuous
 62
   179
370
    18
100
AcDbLine
 10
82.6900353128
 20
9.8206379383
 30
0.0
 11
82.7052632884
 21
9.3714126602
 31
0.0
  0
LINE
  5
C6
330
73
100
AcDbEntity
  8
0
  6
Continuous
 62
   179
370
    18
100
AcDbLine
 10
82.7491656358
 20
8.0762934118
 30
0.0
 11
82.7658371041
 21
7.5844850954
 31
0.0
  0
LINE
  5
C7
330
73
100
AcDbEntity
  8
0
  6
Continuous
 62
   179
370
    18
100
AcDbLine
 10
83.3271693541
 20
9.8422357024
 30
0.0
 11
83.3423973297
 21
9.3930104243
 31
0.0
  0
LINE
  5
C8
330
73
100
AcDbEntity
  8
0
  6
Continuous
 62
   179
370
    18
100
AcDbLine
 10
83.385614584
 20
8.1181014226
 30
0.0
 11
83.4029711454
 21
7.6060828595
 31
0.0
  0
LINE
  5
C9
330
73
100
AcDbEntity
  8
0
  6
Continuous
 62
   179
370
    18
100
AcDbLine
 10
85.6288154243
 20
7.6121582976
 30
0.0
 11
85.8462022593
 21
6.8318482152
 31
0.0
  0
LINE
  5
CA
330
73
100
AcDbEntity
  8
0
  6
Continuous
 62
   179
370
    18
100
AcDbLine
 10
85.8462022593
 20
6.8318482152
 30
0.0
 11
86.4940946704
 21
6.8816860929
 31
0.0
  0
LINE
  5
CB
330
73
100
AcDbEntity
  8
0
  6
Continuous
 62
   179
370
    18
100
AcDbLine
 10
84.5054929504
 20
10.9267193262
 30
0.0
 11
85.3543248406
 21
10.9728900984
 31
0.0
  0
LINE
  5
CC
330
73
100
AcDbEntity
  8
0
  6
Continuous
 62
   179
370
    18
100
AcDbLine
 10
81.4744440858
 20
10.7634213094
 30
0.0
 11
82.2734303883
 21
10.8068808154
 31
0.0
  0
LINE
  5
CD
330
73
100
AcDbEntity
  8
0
  6
Continuous
 62
   179
370
    18
100
AcDbLine
 10
81.5090686352
 20
10.1268622858
 30
0.0
 11
82.3080549377
 21
10.1703217918
 31
0.0
  0
LINE
  5
CE
330
73
100
AcDbEntity
  8
0
  6
Continuous
 62
   179
370
    18
100
AcDbLine
 10
90.4575406452
 20
5.7946206556
 30
0.0
 11
90.1644232213
 21
12.4686789239
 31
0.0
  0
LINE
  5
CF
330
73
100
AcDbEntity
  8
0
  6
Continuous
 62
   179
370
    18
100
AcDbLine
 10
89.8247499755
 20
8.1125227115
 30
0.0
 11
89.7274569615
 21
10.2112720142
 31
0.0
  0
LINE
  5
D0
330
73
100
AcDbEntity
  8
0
  6
Continuous
 62
   179
370
    18
100
AcDbLine
 10
89.1879338763
 20
8.0830014354
 30
0.0
 11
89.0906408622
 21
10.181750738
 31
0.0
  0
LINE
  5
D1
330
73
100
AcDbEntity
  8
0
  6
Continuous
 62
   179
370
    18
100
AcDbLine
 10
89.7459749087
 20
2.7242700694
 30
0.0
 11
89.7974962577
 21
2.6659765769
 31
0.0
  0
LINE
  5
D2
330
73
100
AcDbEntity
  8
0
  6
Continuous
 62
   179
370
    18
100
AcDbLine
 10
89.7974962577
 20
2.6659765769
 30
0.0
 11
89.8351851379
 21
2.60192886
 31
0.0
  0
LINE
  5
D3
330
73
100
AcDbEntity
  8
0
  6
Continuous
 62
   179
370
    18
100
AcDbLine
 10
89.8351851379
 20
2.60192886
 30
0.0
 11
89.8661472522
 21
2.5197759309
 31
0.0
  0
LINE
  5
D4
330
73
100
AcDbEntity
  8
0
  6
Continuous
 62
   179
370
    18
100
AcDbLine
 10
10.6119938288
 20
7.2203138351
 30
0.0
 11
11.2200151261
 21
7.5713550947
 31
0.0
  0
LINE
  5
D5
330
73
100
AcDbEntity
  8
0
  6
Continuous
 62
   179
370
    18
100
AcDbLine
 10
11.2347279503
 20
5.2647430194
 30
0.0
 11
10.6267781168
 21
5.6157430194
 31
0.0
  0
LINE
  5
D6
330
73
100
AcDbEntity
  8
0
  6
Continuous
 62
   179
370
    18
100
AcDbLine
 10
6.4645062371
 20
16.1712617198
 30
0.0
 11
6.4645062371
 21
2.9364593988
 31
0.0
  0
LINE
  5
D7
330
73
100
AcDbEntity
  8
0
  6
Continuous
 62
   179
370
    18
100
AcDbLine
 10
6.4645062371
 20
2.9364593988
 30
0.0
 11
12.0532757459
 21
2.9364593988
 31
0.0
  0
LINE
  5
D8
330
73
100
AcDbEntity
  8
0
  6
Continuous
 62
   179
370
    18
100
AcDbLine
 10
12.0532757459
 20
2.9364593988
 30
0.0
 11
12.0532757459
 21
16.1712617198
 31
0.0
  0
LINE
  5
D9
330
73
100
AcDbEntity
  8
0
  6
Continuous
 62
   179
370
    18
100
AcDbLine
 10
12.0532757459
 20
16.1712617198
 30
0.0
 11
6.4645062371
 21
16.1712617198
 31
0.0
  0
LINE
  5
DA
330
73
100
AcDbEntity
  8
0
  6
Continuous
 62
   179
370
    18
100
AcDbLine
 10
0.0
 20
16.1712617198
 30
0.0
 11
0.0
 21
2.9364593988
 31
0.0
  0
LINE
  5
DB
330
73
100
AcDbEntity
  8
0
  6
Continuous
 62
   179
370
    18
100
AcDbLine
 10
0.0
 20
2.9364593988
 30
0.0
 11
5.5887695089
 21
2.9364593988
 31
0.0
  0
LINE
  5
DC
330
73
100
AcDbEntity
  8
0
  6
Continuous
 62
   179
370
    18
100
AcDbLine
 10
5.5887695089
 20
2.9364593988
 30
0.0
 11
5.5887695089
 21
16.1712617198
 31
0.0
  0
LINE
  5
DD
330
73
100
AcDbEntity
  8
0
  6
Continuous
 62
   179
370
    18
100
AcDbLine
 10
5.5887695089
 20
16.1712617198
 30
0.0
 11
0.0
 21
16.1712617198
 31
0.0
  0
LINE
  5
DE
330
73
100
AcDbEntity
  8
0
  6
Continuous
 62
   179
370
    18
100
AcDbLine
 10
1.2591262606
 20
4.7264381407
 30
0.0
 11
4.3296432482
 21
4.7264381407
 31
0.0
  0
LINE
  5
DF
330
73
100
AcDbEntity
  8
0
  6
Continuous
 62
   179
370
    18
100
AcDbLine
 10
4.3738223747
 20
4.0932862697
 30
0.0
 11
5.0758301722
 21
4.0932862697
 31
0.0
  0
LINE
  5
E0
330
73
100
AcDbEntity
  8
0
  6
Continuous
 62
   179
370
    18
100
AcDbLine
 10
0.5129393366
 20
4.0932862697
 30
0.0
 11
1.2149471342
 21
4.0932862697
 31
0.0
  0
LINE
  5
E1
330
73
100
AcDbEntity
  8
0
  6
Continuous
 62
   179
370
    18
100
AcDbLine
 10
4.1819643097
 20
5.4284381407
 30
0.0
 11
1.4068051992
 21
5.4284381407
 31
0.0
  0
LINE
  5
E2
330
73
100
AcDbEntity
  8
0
  6
Continuous
 62
   179
370
    18
100
AcDbLine
 10
18.517781983
 20
16.1712617198
 30
0.0
 11
18.517781983
 21
2.9364593988
 31
0.0
  0
LINE
  5
E3
330
73
100
AcDbEntity
  8
0
  6
Continuous
 62
   179
370
    18
100
AcDbLine
 10
18.517781983
 20
2.9364593988
 30
0.0
 11
12.9290124742
 21
2.9364593988
 31
0.0
  0
LINE
  5
E4
330
73
100
AcDbEntity
  8
0
  6
Continuous
 62
   179
370
    18
100
AcDbLine
 10
12.9290124742
 20
2.9364593988
 30
0.0
 11
12.9290124742
 21
16.1712617198
 31
0.0
  0
LINE
  5
E5
330
73
100
AcDbEntity
  8
0
  6
Continuous
 62
   179
370
    18
100
AcDbLine
 10
12.9290124742
 20
16.1712617198
 30
0.0
 11
18.517781983
 21
16.1712617198
 31
0.0
  0
INSERT
  5
EB
330
73
100
AcDbEntity
  8
0
  6
Continuous
 62
     7
370
     0
100
AcDbBlockReference
  2
SW_NOTE_0
 10
1.8998941161
 20
-0.3226565443
 30
0.0
  0
INSERT
  5
F0
330
73
100
AcDbEntity
  8
0
  6
Continuous
 62
     7
370
     0
100
AcDbBlockReference
  2
SW_NOTE_0_1
 10
29.1164837035
 20
12.7459167441
 30
0.0
  0
INSERT
  5
F8
330
73
100
AcDbEntity
  8
0
  6
Continuous
 62
     7
370
     0
100
AcDbBlockReference
  2
SW_NOTE_0_2
 10
28.8863479825
 20
8.6365742194
 30
0.0
  0
ENDBLK
  5
75
330
73
100
AcDbEntity
  8
0
100
AcDbBlockEnd
  0
BLOCK
  5
E7
330
E6
100
AcDbEntity
  8
0
100
AcDbBlockBegin
  2
SW_NOTE_0
 70
     0
 10
0.0
 20
0.0
 30
0.0
  3
SW_NOTE_0
  1

  0
MTEXT
  5
EA
330
E6
100
AcDbEntity
  8
0
  6
Continuous
 62
     0
370
     0
100
AcDbMText
 10
7.46875
 20
2.5781354795
 30
0.0
 40
2.0
 41
0.0
 71
     2
 72
     1
  1
www.aco.ch
  7
SLDTEXTSTYLE0
 73
     1
 44
1.0
  0
ENDBLK
  5
E8
330
E6
100
AcDbEntity
  8
0
100
AcDbBlockEnd
  0
BLOCK
  5
ED
330
EC
100
AcDbEntity
  8
0
100
AcDbBlockBegin
  2
SW_NOTE_0_1
 70
     0
 10
0.0
 20
0.0
 30
0.0
  3
SW_NOTE_0_1
  1

  0
MTEXT
  5
EF
330
EC
100
AcDbEntity
  8
0
  6
Continuous
 62
     0
370
     0
100
AcDbMText
 10
0.0
 20
3.8672032193
 30
0.0
 40
3.0
 41
0.0
 71
     1
 72
     1
  1
ACO AG
  7
SLDTEXTSTYLE0
 73
     1
 44
1.0
  0
ENDBLK
  5
EE
330
EC
100
AcDbEntity
  8
0
100
AcDbBlockEnd
  0
BLOCK
  5
F2
330
F1
100
AcDbEntity
  8
0
100
AcDbBlockBegin
  2
SW_NOTE_0_2
 70
     0
 10
0.0
 20
0.0
 30
0.0
  3
SW_NOTE_0_2
  1

  0
MTEXT
  5
F4
330
F1
100
AcDbEntity
  8
0
  6
Continuous
 62
     0
370
     0
100
AcDbMText
 10
0.0
 20
2.5781354795
 30
0.0
 40
2.0
 41
0.0
 71
     1
 72
     1
  1
Industrie Kleinzaun
  7
SLDTEXTSTYLE0
 73
     1
 44
1.0
  0
MTEXT
  5
F5
330
F1
100
AcDbEntity
  8
0
  6
Continuous
 62
     0
370
     0
100
AcDbMText
 10
0.0
 20
-0.4218645465
 30
0.0
 40
2.0
 41
0.0
 71
     1
 72
     1
  1
CH-8754 Netstal
  7
SLDTEXTSTYLE0
 73
     1
 44
1.0
  0
MTEXT
  5
F6
330
F1
100
AcDbEntity
  8
0
  6
Continuous
 62
     0
370
     0
100
AcDbMText
 10
0.0
 20
-3.4218645726
 30
0.0
 40
2.0
 41
0.0
 71
     1
 72
     1
  1
Tel. 055 / 645 53 00
  7
SLDTEXTSTYLE0
 73
     1
 44
1.0
  0
MTEXT
  5
F7
330
F1
100
AcDbEntity
  8
0
  6
Continuous
 62
     0
370
     0
100
AcDbMText
 10
0.0
 20
-6.4218645987
 30
0.0
 40
2.0
 41
0.0
 71
     1
 72
     1
  1
E-Mail: aco@aco.ch
  7
SLDTEXTSTYLE0
 73
     1
 44
1.0
  0
ENDBLK
  5
F3
330
F1
100
AcDbEntity
  8
0
100
AcDbBlockEnd
  0
BLOCK
  5
171
330
170
100
AcDbEntity
  8
0
100
AcDbBlockBegin
  2
SW_NOTE_0_3
 70
     0
 10
0.0
 20
0.0
 30
0.0
  3
SW_NOTE_0_3
  1

  0
MTEXT
  5
173
330
170
100
AcDbEntity
  8
0
  6
Continuous
 62
     0
370
     0
100
AcDbMText
 10
0.0
 20
1.9336016097
 30
0.0
 40
1.5
 41
0.0
 71
     1
 72
     1
  1
Diese Zeichnung darf weder kopiert
  7
SLDTEXTSTYLE0
 73
     1
 44
1.0
  0
MTEXT
  5
174
330
170
100
AcDbEntity
  8
0
  6
Continuous
 62
     0
370
     0
100
AcDbMText
 10
0.0
 20
-0.5663983345
 30
0.0
 40
1.5
 41
0.0
 71
     1
 72
     1
  1
noch dritten Personen, insbesondere
  7
SLDTEXTSTYLE0
 73
     1
 44
1.0
  0
MTEXT
  5
175
330
170
100
AcDbEntity
  8
0
  6
Continuous
 62
     0
370
     0
100
AcDbMText
 10
0.0
 20
-3.0663982786
 30
0.0
 40
1.5
 41
0.0
 71
     1
 72
     1
  1
zum Zweck anderweitiger Benutzung
  7
SLDTEXTSTYLE0
 73
     1
 44
1.0
  0
MTEXT
  5
176
330
170
100
AcDbEntity
  8
0
  6
Continuous
 62
     0
370
     0
100
AcDbMText
 10
0.0
 20
-5.5663982227
 30
0.0
 40
1.5
 41
0.0
 71
     1
 72
     1
  1
mitgeteilt werden und bleibt unser
  7
SLDTEXTSTYLE0
 73
     1
 44
1.0
  0
MTEXT
  5
177
330
170
100
AcDbEntity
  8
0
  6
Continuous
 62
     0
370
     0
100
AcDbMText
 10
0.0
 20
-8.0663981668
 30
0.0
 40
1.5
 41
0.0
 71
     1
 72
     1
  1
Eigentum.
  7
SLDTEXTSTYLE0
 73
     1
 44
1.0
  0
ENDBLK
  5
172
330
170
100
AcDbEntity
  8
0
100
AcDbBlockEnd
  0
BLOCK
  5
32D
330
32C
100
AcDbEntity
  8
0
100
AcDbBlockBegin
  2
_D
 70
     0
 10
0.0
 20
0.0
 30
0.0
  3
_D
  1

  0
SOLID
  5
32F
330
32C
100
AcDbEntity
  8
0
  6
Continuous
 62
     7
370
    18
100
AcDbTrace
 10
66.3186643607
 20
232.9614114916
 30
0.0
 11
69.6228494892
 21
232.4678239747
 31
0.0
 12
69.6184163669
 22
233.4838143031
 32
0.0
 13
69.6184163669
 23
233.4838143031
 33
0.0
  0
SOLID
  5
330
330
32C
100
AcDbEntity
  8
0
  6
Continuous
 62
     7
370
    18
100
AcDbTrace
 10
219.9717130739
 20
233.6318536478
 30
0.0
 11
216.6675279455
 21
234.1254411648
 31
0.0
 12
216.6719610677
 22
233.1094508364
 32
0.0
 13
216.6719610677
 23
233.1094508364
 33
0.0
  0
LINE
  5
331
330
32C
100
AcDbEntity
  8
0
  6
Continuous
 62
     7
370
     0
100
AcDbLine
 10
66.4506599138
 20
202.7104510365
 30
0.0
 11
66.3143010514
 21
233.9614019724
 31
0.0
  0
LINE
  5
332
330
32C
100
AcDbEntity
  8
0
  6
Continuous
 62
     7
370
     0
100
AcDbLine
 10
220.103708627
 20
203.3808931927
 30
0.0
 11
219.9673497646
 21
234.6318441286
 31
0.0
  0
LINE
  5
333
330
32C
100
AcDbEntity
  8
0
  6
Continuous
 62
     7
370
     0
100
AcDbLine
 10
66.3186643607
 20
232.9614114916
 30
0.0
 11
219.9717130739
 21
233.6318536478
 31
0.0
  0
MTEXT
  5
334
330
32C
100
AcDbEntity
  8
0
  6
Continuous
 62
     7
370
    18
100
AcDbMText
 10
143.0350651839
 20
237.8079319256
 30
0.0
 40
3.5
 41
0.0
 71
     1
 72
     1
  1
154
  7
SLDTEXTSTYLE2
 11
0.9999904807207345
 21
0.004363309284749929
 31
0.0
 73
     1
 44
1.0
  0
ENDBLK
  5
32E
330
32C
100
AcDbEntity
  8
0
100
AcDbBlockEnd
  0
BLOCK
  5
338
330
337
100
AcDbEntity
  8
0
100
AcDbBlockBegin
  2
_D_1
 70
     0
 10
0.0
 20
0.0
 30
0.0
  3
_D_1
  1

  0
SOLID
  5
33A
330
337
100
AcDbEntity
  8
0
  6
Continuous
 62
     7
370
    18
100
AcDbTrace
 10
223.5947510678
 20
180.7088956037
 30
0.0
 11
225.2462668315
 21
183.6129899
 31
0.0
 12
224.2969892043
 22
183.9751058847
 32
0.0
 13
224.2969892043
 23
183.9751058847
 33
0.0
  0
SOLID
  5
33B
330
337
100
AcDbEntity
  8
0
  6
Continuous
 62
     7
370
    18
100
AcDbTrace
 10
230.3668132249
 20
198.4616802607
 30
0.0
 11
228.7152974612
 21
195.5575859644
 31
0.0
 12
229.6645750885
 22
195.1954699797
 32
0.0
 13
229.6645750885
 23
195.1954699797
 33
0.0
  0
LINE
  5
33C
330
337
100
AcDbEntity
  8
0
  6
Continuous
 62
     7
370
     0
100
AcDbLine
 10
212.3818220174
 20
184.9862331572
 30
0.0
 11
224.5290794411
 21
180.352482233
 31
0.0
  0
LINE
  5
33D
330
337
100
AcDbEntity
  8
0
  6
Continuous
 62
     7
370
     0
100
AcDbLine
 10
219.1538841745
 20
202.7390178142
 30
0.0
 11
231.3011415982
 21
198.10526689
 31
0.0
  0
LINE
  5
33E
330
337
100
AcDbEntity
  8
0
  6
Continuous
 62
     7
370
     0
100
AcDbLine
 10
223.5947510678
 20
180.7088956037
 30
0.0
 11
230.3668132249
 21
198.4616802607
 31
0.0
  0
MTEXT
  5
33F
330
337
100
AcDbEntity
  8
0
  6
Continuous
 62
     7
370
    18
100
AcDbMText
 10
221.5221235514
 20
187.9342761037
 30
0.0
 40
3.5
 41
0.0
 71
     1
 72
     1
  1
19
  7
SLDTEXTSTYLE2
 11
0.3564133707167673
 21
0.9343283733111781
 31
0.0
 73
     1
 44
1.0
  0
ENDBLK
  5
339
330
337
100
AcDbEntity
  8
0
100
AcDbBlockEnd
  0
BLOCK
  5
341
330
340
100
AcDbEntity
  8
0
100
AcDbBlockBegin
  2
SW_CENTERMARKSYMBOL_0
 70
     0
 10
0.0
 20
0.0
 30
0.0
  3
SW_CENTERMARKSYMBOL_0
  1

  0
LINE
  5
343
330
340
100
AcDbEntity
  8
0
  6
Continuous
 62
     0
370
    18
100
AcDbLine
 10
0.0
 20
0.0
 30
0.0
 11
-2.3339510662
 21
0.8959198739
 31
0.0
  0
LINE
  5
344
330
340
100
AcDbEntity
  8
0
  6
Continuous
 62
     0
370
    18
100
AcDbLine
 10
0.0
 20
0.0
 30
0.0
 11
-0.8959198739
 21
-2.3339510662
 31
0.0
  0
LINE
  5
345
330
340
100
AcDbEntity
  8
0
  6
Continuous
 62
     0
370
    18
100
AcDbLine
 10
0.0
 20
0.0
 30
0.0
 11
2.3339510662
 21
-0.8959198739
 31
0.0
  0
LINE
  5
346
330
340
100
AcDbEntity
  8
0
  6
Continuous
 62
     0
370
    18
100
AcDbLine
 10
0.0
 20
0.0
 30
0.0
 11
0.8959198739
 21
2.3339510662
 31
0.0
  0
LINE
  5
347
330
340
100
AcDbEntity
  8
0
  6
Continuous
 62
     0
370
    18
100
AcDbLine
 10
-2.3339510662
 20
0.8959198739
 30
0.0
 11
-4.6679021325
 21
1.7918397477
 31
0.0
  0
LINE
  5
348
330
340
100
AcDbEntity
  8
0
  6
Continuous
 62
     0
370
    18
100
AcDbLine
 10
-0.8959198739
 20
-2.3339510662
 30
0.0
 11
-1.7918397477
 21
-4.6679021325
 31
0.0
  0
LINE
  5
349
330
340
100
AcDbEntity
  8
0
  6
Continuous
 62
     0
370
    18
100
AcDbLine
 10
2.3339510662
 20
-0.8959198739
 30
0.0
 11
4.6679021325
 21
-1.7918397477
 31
0.0
  0
LINE
  5
34A
330
340
100
AcDbEntity
  8
0
  6
Continuous
 62
     0
370
    18
100
AcDbLine
 10
0.8959198739
 20
2.3339510662
 30
0.0
 11
1.7918397477
 21
4.6679021325
 31
0.0
  0
ENDBLK
  5
342
330
340
100
AcDbEntity
  8
0
100
AcDbBlockEnd
  0
BLOCK
  5
34D
330
34C
100
AcDbEntity
  8
0
100
AcDbBlockBegin
  2
SW_CENTERMARKSYMBOL_1
 70
     0
 10
0.0
 20
0.0
 30
0.0
  3
SW_CENTERMARKSYMBOL_1
  1

  0
LINE
  5
34F
330
34C
100
AcDbEntity
  8
0
  6
Continuous
 62
     0
370
    18
100
AcDbLine
 10
0.0
 20
0.0
 30
0.0
 11
-2.3339510662
 21
0.8959198739
 31
0.0
  0
LINE
  5
350
330
34C
100
AcDbEntity
  8
0
  6
Continuous
 62
     0
370
    18
100
AcDbLine
 10
0.0
 20
0.0
 30
0.0
 11
-0.8959198739
 21
-2.3339510662
 31
0.0
  0
LINE
  5
351
330
34C
100
AcDbEntity
  8
0
  6
Continuous
 62
     0
370
    18
100
AcDbLine
 10
0.0
 20
0.0
 30
0.0
 11
2.3339510662
 21
-0.8959198739
 31
0.0
  0
LINE
  5
352
330
34C
100
AcDbEntity
  8
0
  6
Continuous
 62
     0
370
    18
100
AcDbLine
 10
0.0
 20
0.0
 30
0.0
 11
0.8959198739
 21
2.3339510662
 31
0.0
  0
LINE
  5
353
330
34C
100
AcDbEntity
  8
0
  6
Continuous
 62
     0
370
    18
100
AcDbLine
 10
-2.3339510662
 20
0.8959198739
 30
0.0
 11
-4.6679021325
 21
1.7918397477
 31
0.0
  0
LINE
  5
354
330
34C
100
AcDbEntity
  8
0
  6
Continuous
 62
     0
370
    18
100
AcDbLine
 10
-0.8959198739
 20
-2.3339510662
 30
0.0
 11
-1.7918397477
 21
-4.6679021325
 31
0.0
  0
LINE
  5
355
330
34C
100
AcDbEntity
  8
0
  6
Continuous
 62
     0
370
    18
100
AcDbLine
 10
2.3339510662
 20
-0.8959198739
 30
0.0
 11
4.6679021325
 21
-1.7918397477
 31
0.0
  0
LINE
  5
356
330
34C
100
AcDbEntity
  8
0
  6
Continuous
 62
     0
370
    18
100
AcDbLine
 10
0.8959198739
 20
2.3339510662
 30
0.0
 11
1.7918397477
 21
4.6679021325
 31
0.0
  0
ENDBLK
  5
34E
330
34C
100
AcDbEntity
  8
0
100
AcDbBlockEnd
  0
BLOCK
  5
375
330
374
100
AcDbEntity
  8
0
100
AcDbBlockBegin
  2
_D_2
 70
     0
 10
0.0
 20
0.0
 30
0.0
  3
_D_2
  1

  0
SOLID
  5
377
330
374
100
AcDbEntity
  8
0
  6
Continuous
 62
     7
370
    18
100
AcDbTrace
 10
297.3186556709
 20
222.9757277016
 30
0.0
 11
300.6206556709
 21
222.4677277016
 31
0.0
 12
300.6206556709
 22
223.4837277016
 32
0.0
 13
300.6206556709
 23
223.4837277016
 33
0.0
  0
SOLID
  5
378
330
374
100
AcDbEntity
  8
0
  6
Continuous
 62
     7
370
    18
100
AcDbTrace
 10
292.3186556709
 20
222.9757277016
 30
0.0
 11
289.0166556709
 21
223.4837277016
 31
0.0
 12
289.0166556709
 22
222.4677277016
 32
0.0
 13
289.0166556709
 23
222.4677277016
 33
0.0
  0
LINE
  5
379
330
374
100
AcDbEntity
  8
0
  6
Continuous
 62
     7
370
     0
100
AcDbLine
 10
297.3186556709
 20
217.4581580137
 30
0.0
 11
297.3186556709
 21
223.9757277016
 31
0.0
  0
LINE
  5
37A
330
374
100
AcDbEntity
  8
0
  6
Continuous
 62
     7
370
     0
100
AcDbLine
 10
292.3186556709
 20
217.4581580137
 30
0.0
 11
292.3186556709
 21
223.9757277016
 31
0.0
  0
LINE
  5
37B
330
374
100
AcDbEntity
  8
0
  6
Continuous
 62
     7
370
     0
100
AcDbLine
 10
297.3186556709
 20
222.9757277016
 30
0.0
 11
303.6686556709
 21
222.9757277016
 31
0.0
  0
LINE
  5
37C
330
374
100
AcDbEntity
  8
0
  6
Continuous
 62
     7
370
     0
100
AcDbLine
 10
297.3186556709
 20
222.9757277016
 30
0.0
 11
292.3186556709
 21
222.9757277016
 31
0.0
  0
LINE
  5
37D
330
374
100
AcDbEntity
  8
0
  6
Continuous
 62
     7
370
     0
100
AcDbLine
 10
292.3186556709
 20
222.9757277016
 30
0.0
 11
285.9686556709
 21
222.9757277016
 31
0.0
  0
MTEXT
  5
37E
330
374
100
AcDbEntity
  8
0
  6
Continuous
 62
     7
370
    18
100
AcDbMText
 10
293.296525566
 20
227.4874646162
 30
0.0
 40
3.5
 41
0.0
 71
     1
 72
     1
  1
5
  7
SLDTEXTSTYLE2
 73
     1
 44
1.0
  0
ENDBLK
  5
376
330
374
100
AcDbEntity
  8
0
100
AcDbBlockEnd
  0
ENDSEC
  0
SECTION
  2
ENTITIES
  0
LINE
  5
F9
330
1F
100
AcDbEntity
  8
0
  6
CENTERX2
 62
     7
370
    18
100
AcDbLine
 10
352.6174545849
 20
46.9080238789
 30
0.0
 11
352.6174545849
 21
39.4621586124
 31
0.0
  0
LINE
  5
FA
330
1F
100
AcDbEntity
  8
0
  6
Continuous
 62
     7
370
    18
100
AcDbLine
 10
357.7661698132
 20
46.3720107039
 30
0.0
 11
357.7661698132
 21
39.9353173413
 31
0.0
  0
LINE
  5
FB
330
1F
100
AcDbEntity
  8
0
  6
Continuous
 62
     7
370
    18
100
AcDbLine
 10
364.6059427486
 20
44.7376225767
 30
0.0
 11
364.6059427486
 21
41.5697054685
 31
0.0
  0
LINE
  5
FC
330
1F
100
AcDbEntity
  8
0
  6
Continuous
 62
     7
370
    18
100
AcDbLine
 10
364.6059427486
 20
44.7376225767
 30
0.0
 11
357.7661698132
 21
46.3720107039
 31
0.0
  0
LINE
  5
FD
330
1F
100
AcDbEntity
  8
0
  6
Continuous
 62
     7
370
    18
100
AcDbLine
 10
15.0
 20
198.5
 30
0.0
 11
20.0
 21
198.5
 31
0.0
  0
LINE
  5
FE
330
1F
100
AcDbEntity
  8
0
  6
Continuous
 62
     7
370
    18
100
AcDbLine
 10
12.0
 20
148.5
 30
0.0
 11
0.0
 21
148.5
 31
0.0
  0
LINE
  5
FF
330
1F
100
AcDbEntity
  8
0
  6
Continuous
 62
     7
370
    18
100
AcDbLine
 10
357.7661698132
 20
39.9353173413
 30
0.0
 11
364.6059427486
 21
41.5697054685
 31
0.0
  0
LINE
  5
100
330
1F
100
AcDbEntity
  8
0
  6
CENTERX2
 62
     7
370
    18
100
AcDbLine
 10
348.6240467841
 20
43.1536640226
 30
0.0
 11
356.6108623857
 21
43.1536640226
 31
0.0
  0
LINE
  5
101
330
1F
100
AcDbEntity
  8
0
  6
CENTERX2
 62
     7
370
    18
100
AcDbLine
 10
357.1289238876
 20
43.1536640226
 30
0.0
 11
365.6255362296
 21
43.1536640226
 31
0.0
  0
LINE
  5
102
330
1F
100
AcDbEntity
  8
0
  6
Continuous
 62
     7
370
    18
100
AcDbLine
 10
0.0
 20
0.0
 30
0.0
 11
420.0
 21
0.0
 31
0.0
  0
LINE
  5
103
330
1F
100
AcDbEntity
  8
0
  6
Continuous
 62
     7
370
    18
100
AcDbLine
 10
0.0
 20
0.0
 30
0.0
 11
0.0
 21
297.0
 31
0.0
  0
LINE
  5
104
330
1F
100
AcDbEntity
  8
0
  6
Continuous
 62
     7
370
    18
100
AcDbLine
 10
0.0
 20
297.0
 30
0.0
 11
420.0
 21
297.0
 31
0.0
  0
LINE
  5
105
330
1F
100
AcDbEntity
  8
0
  6
Continuous
 62
     7
370
    18
100
AcDbLine
 10
420.0
 20
0.0
 30
0.0
 11
420.0
 21
297.0
 31
0.0
  0
LINE
  5
106
330
1F
100
AcDbEntity
  8
0
  6
Continuous
 62
     7
370
    25
100
AcDbLine
 10
228.0
 20
35.0
 30
0.0
 11
410.0
 21
35.0
 31
0.0
  0
LINE
  5
107
330
1F
100
AcDbEntity
  8
0
  6
Continuous
 62
     7
370
    18
100
AcDbLine
 10
410.0
 20
198.5
 30
0.0
 11
415.0
 21
198.5
 31
0.0
  0
LINE
  5
108
330
1F
100
AcDbEntity
  8
0
  6
Continuous
 62
     7
370
    18
100
AcDbLine
 10
15.0
 20
148.5
 30
0.0
 11
20.0
 21
148.5
 31
0.0
  0
LINE
  5
109
330
1F
100
AcDbEntity
  8
0
  6
Continuous
 62
     7
370
    18
100
AcDbLine
 10
228.0
 20
40.0
 30
0.0
 11
296.6
 21
40.0
 31
0.0
  0
LINE
  5
10A
330
1F
100
AcDbEntity
  8
0
  6
Continuous
 62
     7
370
    18
100
AcDbLine
 10
15.0
 20
248.5
 30
0.0
 11
20.0
 21
248.5
 31
0.0
  0
LINE
  5
10B
330
1F
100
AcDbEntity
  8
0
  6
Continuous
 62
     7
370
    35
100
AcDbLine
 10
20.0
 20
287.0
 30
0.0
 11
20.0
 21
10.0
 31
0.0
  0
LINE
  5
10C
330
1F
100
AcDbEntity
  8
0
  6
Continuous
 62
     7
370
    35
100
AcDbLine
 10
410.0
 20
287.0
 30
0.0
 11
20.0
 21
287.0
 31
0.0
  0
LINE
  5
10D
330
1F
100
AcDbEntity
  8
0
  6
Continuous
 62
     7
370
    35
100
AcDbLine
 10
410.0
 20
5.0
 30
0.0
 11
410.0
 21
287.0
 31
0.0
  0
LINE
  5
10E
330
1F
100
AcDbEntity
  8
0
  6
Continuous
 62
     7
370
    35
100
AcDbLine
 10
20.0
 20
10.0
 30
0.0
 11
415.0
 21
10.0
 31
0.0
  0
LINE
  5
10F
330
1F
100
AcDbEntity
  8
0
  6
Continuous
 62
     7
370
    18
100
AcDbLine
 10
410.0
 20
148.5
 30
0.0
 11
415.0
 21
148.5
 31
0.0
  0
LINE
  5
110
330
1F
100
AcDbEntity
  8
0
  6
Continuous
 62
     7
370
    18
100
AcDbLine
 10
228.0
 20
50.0
 30
0.0
 11
296.6
 21
50.0
 31
0.0
  0
LINE
  5
111
330
1F
100
AcDbEntity
  8
0
  6
Continuous
 62
     7
370
    18
100
AcDbLine
 10
15.0
 20
98.5
 30
0.0
 11
20.0
 21
98.5
 31
0.0
  0
LINE
  5
112
330
1F
100
AcDbEntity
  8
0
  6
Continuous
 62
     7
370
    18
100
AcDbLine
 10
296.6
 20
45.0
 30
0.0
 11
228.0
 21
45.0
 31
0.0
  0
LINE
  5
113
330
1F
100
AcDbEntity
  8
0
  6
Continuous
 62
     7
370
    18
100
AcDbLine
 10
65.0
 20
292.0
 30
0.0
 11
65.0
 21
287.0
 31
0.0
  0
LINE
  5
114
330
1F
100
AcDbEntity
  8
0
  6
Continuous
 62
     7
370
    18
100
AcDbLine
 10
230.0
 20
292.0
 30
0.0
 11
230.0
 21
297.0
 31
0.0
  0
LINE
  5
115
330
1F
100
AcDbEntity
  8
0
  6
Continuous
 62
     7
370
    25
100
AcDbLine
 10
296.6
 20
55.0
 30
0.0
 11
296.6
 21
35.0
 31
0.0
  0
LINE
  5
116
330
1F
100
AcDbEntity
  8
0
  6
Continuous
 62
     7
370
    18
100
AcDbLine
 10
410.0
 20
98.5
 30
0.0
 11
415.0
 21
98.5
 31
0.0
  0
LINE
  5
117
330
1F
100
AcDbEntity
  8
0
100
AcDbLine
 10
230.0
 20
5.0
 30
0.0
 11
230.0
 21
0.0
 31
0.0
  0
LINE
  5
118
330
1F
100
AcDbEntity
  8
0
  6
Continuous
 62
     7
370
    18
100
AcDbLine
 10
125.0
 20
292.0
 30
0.0
 11
125.0
 21
297.0
 31
0.0
  0
LINE
  5
119
330
1F
100
AcDbEntity
  8
0
  6
Continuous
 62
     7
370
    18
100
AcDbLine
 10
125.0
 20
5.0
 30
0.0
 11
125.0
 21
0.0
 31
0.0
  0
LINE
  5
11A
330
1F
100
AcDbEntity
  8
0
  6
Continuous
 62
     7
370
    25
100
AcDbLine
 10
410.0
 20
55.0
 30
0.0
 11
228.0
 21
55.0
 31
0.0
  0
LINE
  5
11B
330
1F
100
AcDbEntity
  8
0
  6
Continuous
 62
     7
370
    18
100
AcDbLine
 10
228.0
 20
55.0
 30
0.0
 11
410.0
 21
55.0
 31
0.0
  0
LINE
  5
11C
330
1F
100
AcDbEntity
  8
0
  6
Continuous
 62
     7
370
    18
100
AcDbLine
 10
410.0
 20
55.0
 30
0.0
 11
228.0
 21
55.0
 31
0.0
  0
LINE
  5
11D
330
1F
100
AcDbEntity
  8
0
  6
Continuous
 62
     7
370
    18
100
AcDbLine
 10
268.0
 20
76.5
 30
0.0
 11
268.0
 21
55.0
 31
0.0
  0
LINE
  5
11E
330
1F
100
AcDbEntity
  8
0
  6
Continuous
 62
     7
370
    18
100
AcDbLine
 10
271.6
 20
55.0
 30
0.0
 11
271.6
 21
40.0
 31
0.0
  0
LINE
  5
11F
330
1F
100
AcDbEntity
  8
0
  6
Continuous
 62
     7
370
    18
100
AcDbLine
 10
247.0
 20
55.0
 30
0.0
 11
247.0
 21
35.0
 31
0.0
  0
LINE
  5
120
330
1F
100
AcDbEntity
  8
0
  6
Continuous
 62
     7
370
    35
100
AcDbLine
 10
228.0
 20
76.5
 30
0.0
 11
228.0
 21
10.0
 31
0.0
  0
LINE
  5
121
330
1F
100
AcDbEntity
  8
0
  6
Continuous
 62
     7
370
    18
100
AcDbLine
 10
15.0
 20
292.0
 30
0.0
 11
415.0
 21
292.0
 31
0.0
  0
LINE
  5
122
330
1F
100
AcDbEntity
  8
0
  6
Continuous
 62
     7
370
    18
100
AcDbLine
 10
228.0
 20
65.75
 30
0.0
 11
310.0
 21
65.75
 31
0.0
  0
LINE
  5
123
330
1F
100
AcDbEntity
  8
0
  6
Continuous
 62
     7
370
    35
100
AcDbLine
 10
228.0
 20
76.5
 30
0.0
 11
410.0
 21
76.5
 31
0.0
  0
LINE
  5
124
330
1F
100
AcDbEntity
  8
0
  6
Continuous
 62
     7
370
    18
100
AcDbLine
 10
15.0
 20
48.5
 30
0.0
 11
20.0
 21
48.5
 31
0.0
  0
LINE
  5
125
330
1F
100
AcDbEntity
  8
0
  6
Continuous
 62
     7
370
    18
100
AcDbLine
 10
410.0
 20
48.5
 30
0.0
 11
415.0
 21
48.5
 31
0.0
  0
LINE
  5
126
330
1F
100
AcDbEntity
  8
0
  6
Continuous
 62
     7
370
    18
100
AcDbLine
 10
332.6610845472
 20
20.0
 30
0.0
 11
332.6610845472
 21
10.0
 31
0.0
  0
LINE
  5
127
330
1F
100
AcDbEntity
  8
0
  6
Continuous
 62
     7
370
    18
100
AcDbLine
 10
410.0
 20
248.5
 30
0.0
 11
415.0
 21
248.5
 31
0.0
  0
LINE
  5
128
330
1F
100
AcDbEntity
  8
0
  6
Continuous
 62
     7
370
    18
100
AcDbLine
 10
65.0
 20
10.0
 30
0.0
 11
65.0
 21
5.0
 31
0.0
  0
LINE
  5
129
330
1F
100
AcDbEntity
  8
0
  6
Continuous
 62
     7
370
    18
100
AcDbLine
 10
115.0
 20
10.0
 30
0.0
 11
115.0
 21
5.0
 31
0.0
  0
LINE
  5
12A
330
1F
100
AcDbEntity
  8
0
  6
Continuous
 62
     7
370
    18
100
AcDbLine
 10
115.0
 20
292.0
 30
0.0
 11
115.0
 21
287.0
 31
0.0
  0
LINE
  5
12B
330
1F
100
AcDbEntity
  8
0
  6
Continuous
 62
     7
370
    18
100
AcDbLine
 10
165.0
 20
10.0
 30
0.0
 11
165.0
 21
5.0
 31
0.0
  0
LINE
  5
12C
330
1F
100
AcDbEntity
  8
0
  6
Continuous
 62
     7
370
    18
100
AcDbLine
 10
165.0
 20
292.0
 30
0.0
 11
165.0
 21
287.0
 31
0.0
  0
LINE
  5
12D
330
1F
100
AcDbEntity
  8
0
  6
Continuous
 62
     7
370
    18
100
AcDbLine
 10
215.0
 20
10.0
 30
0.0
 11
215.0
 21
5.0
 31
0.0
  0
LINE
  5
12E
330
1F
100
AcDbEntity
  8
0
  6
Continuous
 62
     7
370
    18
100
AcDbLine
 10
215.0
 20
292.0
 30
0.0
 11
215.0
 21
287.0
 31
0.0
  0
LINE
  5
12F
330
1F
100
AcDbEntity
  8
0
  6
Continuous
 62
     7
370
    18
100
AcDbLine
 10
265.0
 20
10.0
 30
0.0
 11
265.0
 21
5.0
 31
0.0
  0
LINE
  5
130
330
1F
100
AcDbEntity
  8
0
  6
Continuous
 62
     7
370
    18
100
AcDbLine
 10
265.0
 20
292.0
 30
0.0
 11
265.0
 21
287.0
 31
0.0
  0
LINE
  5
131
330
1F
100
AcDbEntity
  8
0
  6
Continuous
 62
     7
370
    18
100
AcDbLine
 10
347.6610845472
 20
20.0
 30
0.0
 11
347.6610845472
 21
10.0
 31
0.0
  0
LINE
  5
132
330
1F
100
AcDbEntity
  8
0
  6
Continuous
 62
     7
370
    18
100
AcDbLine
 10
362.6610845472
 20
20.0
 30
0.0
 11
362.6610845472
 21
10.0
 31
0.0
  0
LINE
  5
133
330
1F
100
AcDbEntity
  8
0
  6
Continuous
 62
     7
370
    25
100
AcDbLine
 10
327.6610845472
 20
10.0
 30
0.0
 11
327.6610845472
 21
55.0
 31
0.0
  0
LINE
  5
134
330
1F
100
AcDbEntity
  8
0
  6
Continuous
 62
     7
370
    18
100
AcDbLine
 10
20.0
 20
292.0
 30
0.0
 11
20.0
 21
297.0
 31
0.0
  0
LINE
  5
135
330
1F
100
AcDbEntity
  8
0
  6
Continuous
 62
     7
370
    18
100
AcDbLine
 10
20.0
 20
5.0
 30
0.0
 11
20.0
 21
0.0
 31
0.0
  0
LINE
  5
136
330
1F
100
AcDbEntity
  8
0
  6
Continuous
 62
     7
370
    18
100
AcDbLine
 10
315.0
 20
10.0
 30
0.0
 11
315.0
 21
5.0
 31
0.0
  0
LINE
  5
137
330
1F
100
AcDbEntity
  8
0
  6
Continuous
 62
     7
370
    18
100
AcDbLine
 10
315.0
 20
292.0
 30
0.0
 11
315.0
 21
287.0
 31
0.0
  0
LINE
  5
138
330
1F
100
AcDbEntity
  8
0
  6
Continuous
 62
     7
370
    18
100
AcDbLine
 10
365.0
 20
10.0
 30
0.0
 11
365.0
 21
5.0
 31
0.0
  0
LINE
  5
139
330
1F
100
AcDbEntity
  8
0
  6
Continuous
 62
     7
370
    18
100
AcDbLine
 10
365.0
 20
292.0
 30
0.0
 11
365.0
 21
287.0
 31
0.0
  0
LINE
  5
13A
330
1F
100
AcDbEntity
  8
0
  6
Continuous
 62
     7
370
    18
100
AcDbLine
 10
15.0
 20
292.0
 30
0.0
 11
15.0
 21
5.0
 31
0.0
  0
LINE
  5
13B
330
1F
100
AcDbEntity
  8
0
  6
Continuous
 62
     7
370
    18
100
AcDbLine
 10
15.0
 20
5.0
 30
0.0
 11
415.0
 21
5.0
 31
0.0
  0
LINE
  5
13C
330
1F
100
AcDbEntity
  8
0
  6
Continuous
 62
     7
370
    18
100
AcDbLine
 10
415.0
 20
292.0
 30
0.0
 11
415.0
 21
5.0
 31
0.0
  0
LINE
  5
13D
330
1F
100
AcDbEntity
  8
0
  6
Continuous
 62
     7
370
    18
100
AcDbLine
 10
347.6610845472
 20
44.213444
 30
0.0
 11
327.6610845472
 21
44.213444
 31
0.0
  0
LINE
  5
13E
330
1F
100
AcDbEntity
  8
0
  6
Continuous
 62
     7
370
    18
100
AcDbLine
 10
347.6610845472
 20
35.0
 30
0.0
 11
347.6610845472
 21
55.0
 31
0.0
  0
LINE
  5
13F
330
1F
100
AcDbEntity
  8
0
  6
Continuous
 62
     7
370
    18
100
AcDbLine
 10
370.057188
 20
55.012032
 30
0.0
 11
370.057188
 21
35.0
 31
0.0
  0
LINE
  5
140
330
1F
100
AcDbEntity
  8
0
  6
Continuous
 62
     7
370
    18
100
AcDbLine
 10
398.0
 20
35.0
 30
0.0
 11
398.0
 21
20.0
 31
0.0
  0
LINE
  5
141
330
1F
100
AcDbEntity
  8
0
  6
Continuous
 62
     7
370
    18
100
AcDbLine
 10
410.0
 20
15.0
 30
0.0
 11
327.6610845472
 21
15.0
 31
0.0
  0
LINE
  5
142
330
1F
100
AcDbEntity
  8
0
  6
Continuous
 62
     7
370
    18
100
AcDbLine
 10
327.6610845472
 20
20.0
 30
0.0
 11
410.0
 21
20.0
 31
0.0
  0
LINE
  5
143
330
1F
100
AcDbEntity
  8
0
  6
Continuous
 62
     7
370
    18
100
AcDbLine
 10
341.485486
 20
20.0
 30
0.0
 11
341.485486
 21
27.564675
 31
0.0
  0
LINE
  5
144
330
1F
100
AcDbEntity
  8
0
  6
Continuous
 62
     7
370
    25
100
AcDbLine
 10
310.0
 20
76.5
 30
0.0
 11
310.0
 21
55.0
 31
0.0
  0
CIRCLE
  5
145
330
1F
100
AcDbEntity
  8
0
  6
Continuous
 62
     7
370
    18
100
AcDbCircle
 10
11.0
 20
108.5
 30
0.0
 40
2.750000000000001
  0
CIRCLE
  5
146
330
1F
100
AcDbEntity
  8
0
  6
Continuous
 62
     7
370
    18
100
AcDbCircle
 10
11.0
 20
188.5
 30
0.0
 40
2.750000000000001
  0
CIRCLE
  5
147
330
1F
100
AcDbEntity
  8
0
  6
Continuous
 62
     7
370
    18
100
AcDbCircle
 10
352.6174545849
 20
43.1536640226
 30
0.0
 40
3.218346681300138
  0
CIRCLE
  5
148
330
1F
100
AcDbEntity
  8
0
  6
Continuous
 62
     7
370
    18
100
AcDbCircle
 10
352.6174545849
 20
43.1536640226
 30
0.0
 40
1.583958554121555
  0
INSERT
  5
149
330
1F
100
AcDbEntity
  8
0
  6
Continuous
 62
     7
100
AcDbBlockReference
  2
ACO-Logo
 10
314.3510726297
 20
57.6366106772
 30
0.0
  0
POINT
  5
14A
330
1F
100
AcDbEntity
  8
0
100
AcDbPoint
 10
0.0
 20
0.0
 30
0.0
  0
POINT
  5
14B
330
1F
100
AcDbEntity
  8
0
100
AcDbPoint
 10
410.0
 20
10.0
 30
0.0
  0
MTEXT
  5
14C
330
1F
100
AcDbEntity
  8
0
  6
Continuous
 62
     7
370
    18
100
AcDbMText
 10
17.7359443114
 20
124.8017866468
 30
0.0
 40
2.0
 41
0.0
 71
     2
 72
     1
  1
D
  7
SLDTEXTSTYLE0
 73
     1
 44
1.0
  0
MTEXT
  5
14D
330
1F
100
AcDbEntity
  8
0
  6
Continuous
 62
     7
370
    18
100
AcDbMText
 10
17.6274822413
 20
174.7261854936
 30
0.0
 40
2.0
 41
0.0
 71
     2
 72
     1
  1
C
  7
SLDTEXTSTYLE0
 73
     1
 44
1.0
  0
MTEXT
  5
14E
330
1F
100
AcDbEntity
  8
0
  6
Continuous
 62
     7
370
    18
100
AcDbMText
 10
17.5516905072
 20
224.4926420442
 30
0.0
 40
2.0
 41
0.0
 71
     2
 72
     1
  1
B
  7
SLDTEXTSTYLE0
 73
     1
 44
1.0
  0
MTEXT
  5
14F
330
1F
100
AcDbEntity
  8
0
  6
Continuous
 62
     7
370
    18
100
AcDbMText
 10
290.0344258799
 20
290.5428789914
 30
0.0
 40
2.0
 41
0.0
 71
     2
 72
     1
  1
6
  7
SLDTEXTSTYLE0
 73
     1
 44
1.0
  0
MTEXT
  5
150
330
1F
100
AcDbEntity
  8
0
  6
Continuous
 62
     7
370
    18
100
AcDbMText
 10
240.0417859812
 20
290.6369260235
 30
0.0
 40
2.0
 41
0.0
 71
     2
 72
     1
  1
5
  7
SLDTEXTSTYLE0
 73
     1
 44
1.0
  0
MTEXT
  5
151
330
1F
100
AcDbEntity
  8
0
  6
Continuous
 62
     7
370
    18
100
AcDbMText
 10
190.0300404524
 20
290.6343268032
 30
0.0
 40
2.0
 41
0.0
 71
     2
 72
     1
  1
4
  7
SLDTEXTSTYLE0
 73
     1
 44
1.0
  0
MTEXT
  5
152
330
1F
100
AcDbEntity
  8
0
  6
Continuous
 62
     7
370
    18
100
AcDbMText
 10
140.0165868337
 20
290.6378887952
 30
0.0
 40
2.0
 41
0.0
 71
     2
 72
     1
  1
3
  7
SLDTEXTSTYLE0
 73
     1
 44
1.0
  0
MTEXT
  5
153
330
1F
100
AcDbEntity
  8
0
  6
Continuous
 62
     7
370
    18
100
AcDbMText
 10
90.033223
 20
290.5566702875
 30
0.0
 40
2.0
 41
0.0
 71
     2
 72
     1
  1
2
  7
SLDTEXTSTYLE0
 73
     1
 44
1.0
  0
MTEXT
  5
154
330
1F
100
AcDbEntity
  8
0
  6
Continuous
 62
     7
370
    18
100
AcDbMText
 10
40.0509551097
 20
290.5530165805
 30
0.0
 40
2.0
 41
0.0
 71
     2
 72
     1
  1
1
  7
SLDTEXTSTYLE0
 73
     1
 44
1.0
  0
MTEXT
  5
155
330
1F
100
AcDbEntity
  8
0
  6
Continuous
 62
     7
370
    18
100
AcDbMText
 10
17.5609786315
 20
271.2966048816
 30
0.0
 40
2.0
 41
0.0
 71
     2
 72
     1
  1
A
  7
SLDTEXTSTYLE0
 73
     1
 44
1.0
  0
MTEXT
  5
156
330
1F
100
AcDbEntity
  8
0
  6
Continuous
 62
     7
370
    18
100
AcDbMText
 10
89.9333968896
 20
8.5904490253
 30
0.0
 40
2.0
 41
0.0
 71
     2
 72
     1
  1
2
  7
SLDTEXTSTYLE0
 73
     1
 44
1.0
  0
MTEXT
  5
157
330
1F
100
AcDbEntity
  8
0
  6
Continuous
 62
     7
370
    18
100
AcDbMText
 10
39.9009486579
 20
8.6623118453
 30
0.0
 40
2.0
 41
0.0
 71
     2
 72
     1
  1
1
  7
SLDTEXTSTYLE0
 73
     1
 44
1.0
  0
MTEXT
  5
158
330
1F
100
AcDbEntity
  8
0
  6
Continuous
 62
     7
370
    18
100
AcDbMText
 10
190.0227230239
 20
8.7073169286
 30
0.0
 40
2.0
 41
0.0
 71
     2
 72
     1
  1
4
  7
SLDTEXTSTYLE0
 73
     1
 44
1.0
  0
MTEXT
  5
159
330
1F
100
AcDbEntity
  8
0
  6
Continuous
 62
     7
370
    18
100
AcDbMText
 10
140.0453427777
 20
8.5647154541
 30
0.0
 40
2.0
 41
0.0
 71
     2
 72
     1
  1
3
  7
SLDTEXTSTYLE0
 73
     1
 44
1.0
  0
MTEXT
  5
15A
330
1F
100
AcDbEntity
  8
0
  6
Continuous
 62
     7
370
    18
100
AcDbMText
 10
239.8749782531
 20
8.5637526825
 30
0.0
 40
2.0
 41
0.0
 71
     2
 72
     1
  1
5
  7
SLDTEXTSTYLE0
 73
     1
 44
1.0
  0
MTEXT
  5
15B
330
1F
100
AcDbEntity
  8
0
  6
Continuous
 62
     7
370
    18
100
AcDbMText
 10
412.6717254925
 20
224.51208263
 30
0.0
 40
2.0
 41
0.0
 71
     2
 72
     1
  1
B
  7
SLDTEXTSTYLE0
 73
     1
 44
1.0
  0
MTEXT
  5
15C
330
1F
100
AcDbEntity
  8
0
  6
Continuous
 62
     7
370
    18
100
AcDbMText
 10
412.5951211154
 20
271.2798202564
 30
0.0
 40
2.0
 41
0.0
 71
     2
 72
     1
  1
A
  7
SLDTEXTSTYLE0
 73
     1
 44
1.0
  0
MTEXT
  5
15D
330
1F
100
AcDbEntity
  8
0
  6
Continuous
 62
     7
370
    18
100
AcDbMText
 10
412.6491448679
 20
174.7279841048
 30
0.0
 40
2.0
 41
0.0
 71
     2
 72
     1
  1
C
  7
SLDTEXTSTYLE0
 73
     1
 44
1.0
  0
MTEXT
  5
15E
330
1F
100
AcDbEntity
  8
0
  6
Continuous
 62
     7
370
    18
100
AcDbMText
 10
340.0216466634
 20
290.5954278102
 30
0.0
 40
2.0
 41
0.0
 71
     2
 72
     1
  1
7
  7
SLDTEXTSTYLE0
 73
     1
 44
1.0
  0
MTEXT
  5
15F
330
1F
100
AcDbEntity
  8
0
  6
Continuous
 62
     7
370
    18
100
AcDbMText
 10
390.037657264
 20
290.6215496941
 30
0.0
 40
2.0
 41
0.0
 71
     2
 72
     1
  1
8
  7
SLDTEXTSTYLE0
 73
     1
 44
1.0
  0
MTEXT
  5
160
330
1F
100
AcDbEntity
  8
0
  6
Continuous
 62
     7
370
    18
100
AcDbMText
 10
17.6897935208
 20
74.7267628143
 30
0.0
 40
2.0
 41
0.0
 71
     2
 72
     1
  1
E
  7
SLDTEXTSTYLE0
 73
     1
 44
1.0
  0
MTEXT
  5
161
330
1F
100
AcDbEntity
  8
0
  6
Continuous
 62
     7
370
    18
100
AcDbMText
 10
17.5936930126
 20
27.773321616
 30
0.0
 40
2.0
 41
0.0
 71
     2
 72
     1
  1
F
  7
SLDTEXTSTYLE0
 73
     1
 44
1.0
  0
MTEXT
  5
162
330
1F
100
AcDbEntity
  8
0
  6
Continuous
 62
     7
370
    18
100
AcDbMText
 10
339.8003474583
 20
8.7205095051
 30
0.0
 40
2.0
 41
0.0
 71
     2
 72
     1
  1
7
  7
SLDTEXTSTYLE0
 73
     1
 44
1.0
  0
MTEXT
  5
163
330
1F
100
AcDbEntity
  8
0
  6
Continuous
 62
     7
370
    18
100
AcDbMText
 10
289.7886477179
 20
8.6884673623
 30
0.0
 40
2.0
 41
0.0
 71
     2
 72
     1
  1
6
  7
SLDTEXTSTYLE0
 73
     1
 44
1.0
  0
MTEXT
  5
164
330
1F
100
AcDbEntity
  8
0
  6
Continuous
 62
     7
370
    18
100
AcDbMText
 10
412.5160699095
 20
74.5096307526
 30
0.0
 40
2.0
 41
0.0
 71
     2
 72
     1
  1
E
  7
SLDTEXTSTYLE0
 73
     1
 44
1.0
  0
MTEXT
  5
165
330
1F
100
AcDbEntity
  8
0
  6
Continuous
 62
     7
370
    18
100
AcDbMText
 10
412.6234021365
 20
124.4517683275
 30
0.0
 40
2.0
 41
0.0
 71
     2
 72
     1
  1
D
  7
SLDTEXTSTYLE0
 73
     1
 44
1.0
  0
MTEXT
  5
166
330
1F
100
AcDbEntity
  8
0
  6
Continuous
 62
     7
370
    18
100
AcDbMText
 10
411.7952690469
 20
41.8473512857
 30
0.0
 40
1.8
 41
0.0
 71
     3
 72
     1
  1
Plotdatum: 31.08.2024
  7
SLDTEXTSTYLE0
 11
-3.269436733918102E-15
 21
1.0
 31
0.0
 73
     1
 44
1.0
  0
MTEXT
  5
167
330
1F
100
AcDbEntity
  8
0
  6
Continuous
 62
     7
370
    18
100
AcDbMText
 10
412.557933251
 20
8.2549718046
 30
0.0
 40
1.8
 41
0.0
 71
     2
 72
     1
  1
A3
  7
SLDTEXTSTYLE0
 73
     1
 44
1.0
  0
MTEXT
  5
168
330
1F
100
AcDbEntity
  8
0
  6
Continuous
 62
     7
370
    18
100
AcDbMText
 10
390.594604279
 20
8.3847467643
 30
0.0
 40
1.8
 41
0.0
 71
     2
 72
     1
  1
CAD-System: SolidWorks
  7
SLDTEXTSTYLE0
 73
     1
 44
1.0
  0
MTEXT
  5
169
330
1F
100
AcDbEntity
  8
0
  6
Continuous
 62
     7
370
    18
100
AcDbMText
 10
403.9986368527
 20
28.4394692021
 30
0.0
 40
5.0
 41
0.0
 71
     2
 72
     1
  1
A
  7
SLDTEXTSTYLE0
 73
     1
 44
1.0
  0
MTEXT
  5
16A
330
1F
100
AcDbEntity
  8
0
  6
Continuous
 62
     7
370
    18
100
AcDbMText
 10
249.556836311
 20
38.5581729516
 30
0.0
 40
2.0
 41
0.0
 71
     1
 72
     1
  1
Freigegeben
  7
SLDTEXTSTYLE0
 73
     1
 44
1.0
  0
MTEXT
  5
16B
330
1F
100
AcDbEntity
  8
0
  6
Continuous
 62
     7
370
    18
100
AcDbMText
 10
284.096264263
 20
43.5473338598
 30
0.0
 40
2.0
 41
0.0
 71
     2
 72
     1
  1
dca
  7
SLDTEXTSTYLE0
 73
     1
 44
1.0
  0
MTEXT
  5
16C
330
1F
100
AcDbEntity
  8
0
  6
Continuous
 62
     7
370
    18
100
AcDbMText
 10
249.5284668163
 20
43.5603133928
 30
0.0
 40
2.0
 41
0.0
 71
     1
 72
     1
  1
31.08.2024
  7
SLDTEXTSTYLE0
 73
     1
 44
1.0
  0
MTEXT
  5
16D
330
1F
100
AcDbEntity
  8
0
  6
Continuous
 62
     7
370
    18
100
AcDbMText
 10
284.1309088133
 20
48.5138972561
 30
0.0
 40
2.0
 41
0.0
 71
     2
 72
     1
  1
AB
  7
SLDTEXTSTYLE0
 73
     1
 44
1.0
  0
MTEXT
  5
16E
330
1F
100
AcDbEntity
  8
0
  6
Continuous
 62
     7
370
    18
100
AcDbMText
 10
249.5284668163
 20
48.4989062069
 30
0.0
 40
2.0
 41
0.0
 71
     1
 72
     1
  1
01.06.2022
  7
SLDTEXTSTYLE0
 73
     1
 44
1.0
  0
MTEXT
  5
16F
330
1F
100
AcDbEntity
  8
0
  6
Continuous
 62
     7
370
     0
100
AcDbMText
 10
372.2007348103
 20
38.8723054925
 30
0.0
 40
1.5
 41
0.0
 71
     1
 72
     1
  1
Copyright reserved! © ACO AG
  7
SLDTEXTSTYLE0
 73
     1
 44
1.0
  0
INSERT
  5
178
330
1F
100
AcDbEntity
  8
0
  6
Continuous
 62
     7
370
     0
100
AcDbBlockReference
  2
SW_NOTE_0_3
 10
372.2203831445
 20
51.2202922854
 30
0.0
  0
MTEXT
  5
179
330
1F
100
AcDbEntity
  8
0
  6
Continuous
 62
     7
370
    18
100
AcDbMText
 10
364.9468572407
 20
13.5417229519
 30
0.0
 40
2.0
 41
0.0
 71
     1
 72
     1
  1
Erstausgabe
  7
SLDTEXTSTYLE0
 73
     1
 44
1.0
  0
MTEXT
  5
17A
330
1F
100
AcDbEntity
  8
0
  6
Continuous
 62
     7
370
    18
100
AcDbMText
 10
330.2607505021
 20
13.524501801
 30
0.0
 40
2.0
 41
0.0
 71
     2
 72
     1
  1
-
  7
SLDTEXTSTYLE0
 73
     1
 44
1.0
  0
MTEXT
  5
17B
330
1F
100
AcDbEntity
  8
0
  6
Continuous
 62
     7
370
    18
100
AcDbMText
 10
364.9468572407
 20
18.4594173137
 30
0.0
 40
2.0
 41
0.0
 71
     1
 72
     1
  1
SAP-Nr.
  7
SLDTEXTSTYLE0
 73
     1
 44
1.0
  0
MTEXT
  5
17C
330
1F
100
AcDbEntity
  8
0
  6
Continuous
 62
     7
370
    18
100
AcDbMText
 10
354.24544421
 20
18.5245664709
 30
0.0
 40
2.0
 41
0.0
 71
     2
 72
     1
  1
dca
  7
SLDTEXTSTYLE0
 73
     1
 44
1.0
  0
MTEXT
  5
17D
330
1F
100
AcDbEntity
  8
0
  6
Continuous
 62
     7
370
    18
100
AcDbMText
 10
340.2690141878
 20
18.5245664709
 30
0.0
 40
2.0
 41
0.0
 71
     2
 72
     1
  1
30.08.2024
  7
SLDTEXTSTYLE0
 73
     1
 44
1.0
  0
MTEXT
  5
17E
330
1F
100
AcDbEntity
  8
0
  6
Continuous
 62
     7
370
    18
100
AcDbMText
 10
330.227417144
 20
18.524501801
 30
0.0
 40
2.0
 41
0.0
 71
     2
 72
     1
  1
A
  7
SLDTEXTSTYLE0
 73
     1
 44
1.0
  0
MTEXT
  5
17F
330
1F
100
AcDbEntity
  8
0
  6
Continuous
 62
     7
370
    18
100
AcDbMText
 10
311.764909851
 20
46.3490312465
 30
0.0
 40
5.0
 41
0.0
 71
     2
 72
     1
  1
1:1
  7
SLDTEXTSTYLE0
 73
     1
 44
1.0
  0
MTEXT
  5
180
330
1F
100
AcDbEntity
  8
0
  6
Continuous
 62
     7
370
    18
100
AcDbMText
 10
230.1851195342
 20
38.7793829468
 30
0.0
 40
2.0
 41
0.0
 71
     1
 72
     1
  1
Status:
  7
SLDTEXTSTYLE0
 73
     1
 44
1.0
  0
MTEXT
  5
181
330
1F
100
AcDbEntity
  8
0
  6
Continuous
 62
     7
370
    18
100
AcDbMText
 10
344.926838705
 20
28.2772828851
 30
0.0
 40
5.0
 41
0.0
 71
     1
 72
     1
  1
102450
  7
SLDTEXTSTYLE0
 73
     1
 44
1.0
  0
MTEXT
  5
182
330
1F
100
AcDbEntity
  8
0
  6
Continuous
 62
     7
370
    18
100
AcDbMText
 10
231.1132118803
 20
14.9211049657
 30
0.0
 40
2.5
 41
0.0
 71
     1
 72
     1
  1
Art. Nr.: 2090288
  7
SLDTEXTSTYLE0
 73
     1
 44
1.0
  0
MTEXT
  5
183
330
1F
100
AcDbEntity
  8
0
  6
Continuous
 62
     7
370
    18
100
AcDbMText
 10
231.1475981734
 20
21.4529560996
 30
0.0
 40
2.5
 41
0.0
 71
     1
 72
     1
  1
Hebeanlage
  7
SLDTEXTSTYLE0
 73
     1
 44
1.0
  0
MTEXT
  5
184
330
1F
100
AcDbEntity
  8
0
  6
Continuous
 62
     7
370
    18
100
AcDbMText
 10
231.1159560181
 20
33.0904969858
 30
0.0
 40
2.5
 41
0.0
 71
     1
 72
     1
  1
Bauelemente
  7
SLDTEXTSTYLE0
 73
     1
 44
1.0
  0
MTEXT
  5
185
330
1F
100
AcDbEntity
  8
0
  6
Continuous
 62
     7
370
    18
100
AcDbMText
 10
231.1475981734
 20
28.0307932366
 30
0.0
 40
3.5
 41
0.0
 71
     1
 72
     1
  1
Individuelle Beschriftungsschilder
  7
SLDTEXTSTYLE0
 73
     1
 44
1.0
  0
MTEXT
  5
186
330
1F
100
AcDbEntity
  8
0
  6
Continuous
 62
     7
370
    18
100
AcDbMText
 10
348.2746465368
 20
53.819119072
 30
0.0
 40
2.0
 41
0.0
 71
     1
 72
     1
  1
Projektion: ISO-E
  7
SLDTEXTSTYLE0
 73
     1
 44
1.0
  0
MTEXT
  5
187
330
1F
100
AcDbEntity
  8
0
  6
Continuous
 62
     7
370
    18
100
AcDbMText
 10
337.7677091855
 20
49.3670227094
 30
0.0
 40
2.5
 41
0.0
 71
     2
 72
     1
  1
Millimeter
  7
SLDTEXTSTYLE0
 73
     1
 44
1.0
  0
MTEXT
  5
188
330
1F
100
AcDbEntity
  8
0
  6
Continuous
 62
     7
370
    18
100
AcDbMText
 10
337.6323777421
 20
53.855374072
 30
0.0
 40
2.0
 41
0.0
 71
     2
 72
     1
  1
Masseinheit:
  7
SLDTEXTSTYLE0
 73
     1
 44
1.0
  0
MTEXT
  5
189
330
1F
100
AcDbEntity
  8
0
  6
Continuous
 62
     7
370
    18
100
AcDbMText
 10
337.6114490186
 20
43.5452078816
 30
0.0
 40
2.0
 41
0.0
 71
     2
 72
     1
  1
Blatt / Anz.:
  7
SLDTEXTSTYLE0
 73
     1
 44
1.0
  0
MTEXT
  5
18A
330
1F
100
AcDbEntity
  8
0
  6
Continuous
 62
     7
370
    18
100
AcDbMText
 10
329.2895578243
 20
28.4139191092
 30
0.0
 40
5.0
 41
0.0
 71
     1
 72
     1
  1
CH
  7
SLDTEXTSTYLE0
 73
     1
 44
1.0
  0
MTEXT
  5
18B
330
1F
100
AcDbEntity
  8
0
  6
Continuous
 62
     7
370
    18
100
AcDbMText
 10
330.40704
 20
33.692638072
 30
0.0
 40
2.0
 41
0.0
 71
     1
 72
     1
  1
Zeichnung Nr.:
  7
SLDTEXTSTYLE0
 73
     1
 44
1.0
  0
MTEXT
  5
18C
330
1F
100
AcDbEntity
  8
0
  6
Continuous
 62
     7
370
    18
100
AcDbMText
 10
269.897953
 20
75.161075072
 30
0.0
 40
2.0
 41
0.0
 71
     1
 72
     1
  1
Gewicht:
  7
SLDTEXTSTYLE0
 73
     1
 44
1.0
  0
MTEXT
  5
18D
330
1F
100
AcDbEntity
  8
0
  6
Continuous
 62
     7
370
    18
100
AcDbMText
 10
230.0
 20
64.542328072
 30
0.0
 40
2.0
 41
0.0
 71
     1
 72
     1
  1
zul. Abweichung:
  7
SLDTEXTSTYLE0
 73
     1
 44
1.0
  0
MTEXT
  5
18E
330
1F
100
AcDbEntity
  8
0
  6
Continuous
 62
     7
370
    18
100
AcDbMText
 10
269.612607
 20
64.542328072
 30
0.0
 40
2.0
 41
0.0
 71
     1
 72
     1
  1
Oberfläche:
  7
SLDTEXTSTYLE0
 73
     1
 44
1.0
  0
MTEXT
  5
18F
330
1F
100
AcDbEntity
  8
0
  6
Continuous
 62
     7
370
    18
100
AcDbMText
 10
230.261411
 20
43.4433838912
 30
0.0
 40
2.0
 41
0.0
 71
     1
 72
     1
  1
Freigegeben:
  7
SLDTEXTSTYLE0
 73
     1
 44
1.0
  0
MTEXT
  5
190
330
1F
100
AcDbEntity
  8
0
  6
Continuous
 62
     7
370
    18
100
AcDbMText
 10
230.0
 20
75.161075072
 30
0.0
 40
2.0
 41
0.0
 71
     1
 72
     1
  1
Werkstoff:
  7
SLDTEXTSTYLE0
 73
     1
 44
1.0
  0
MTEXT
  5
191
330
1F
100
AcDbEntity
  8
0
  6
Continuous
 62
     7
370
    18
100
AcDbMText
 10
254.035545
 20
53.129475072
 30
0.0
 40
2.0
 41
0.0
 71
     1
 72
     1
  1
Datum:
  7
SLDTEXTSTYLE0
 73
     1
 44
1.0
  0
MTEXT
  5
192
330
1F
100
AcDbEntity
  8
0
  6
Continuous
 62
     7
370
    18
100
AcDbMText
 10
279.934928
 20
53.136060072
 30
0.0
 40
2.0
 41
0.0
 71
     1
 72
     1
  1
Name:
  7
SLDTEXTSTYLE0
 73
     1
 44
1.0
  0
MTEXT
  5
193
330
1F
100
AcDbEntity
  8
0
  6
Continuous
 62
     7
370
    18
100
AcDbMText
 10
312.162455406
 20
53.881591072
 30
0.0
 40
2.0
 41
0.0
 71
     2
 72
     1
  1
Massstab:
  7
SLDTEXTSTYLE0
 73
     1
 44
1.0
  0
MTEXT
  5
194
330
1F
100
AcDbEntity
  8
0
  6
Continuous
 62
     7
370
    18
100
AcDbMText
 10
403.9552944035
 20
33.324874072
 30
0.0
 40
2.0
 41
0.0
 71
     2
 72
     1
  1
Index:
  7
SLDTEXTSTYLE0
 73
     1
 44
1.0
  0
MTEXT
  5
195
330
1F
100
AcDbEntity
  8
0
  6
Continuous
 62
     7
370
    18
100
AcDbMText
 10
230.261411
 20
48.4499477886
 30
0.0
 40
2.0
 41
0.0
 71
     1
 72
     1
  1
Erstellt:
  7
SLDTEXTSTYLE0
 73
     1
 44
1.0
  0
MTEXT
  5
197
330
1F
100
AcDbEntity
  8
0
  6
Continuous
 62
     7
370
    18
100
AcDbMText
 10
337.6348165843
 20
39.869706576
 30
0.0
 40
2.5
 41
0.0
 71
     2
 72
     1
  1
1 / 1
  7
SLDTEXTSTYLE1
 73
     1
 44
1.0
  0
MTEXT
  5
198
330
1F
100
AcDbEntity
  8
0
  6
Continuous
 62
     7
370
    18
100
AcDbMText
 10
269.612607
 20
60.8119428599
 30
0.0
 40
3.0
 41
0.0
 71
     1
 72
     1
  1
DIN ISO 1302
  7
SLDTEXTSTYLE0
 73
     1
 44
1.0
  0
MTEXT
  5
199
330
1F
100
AcDbEntity
  8
0
  6
Continuous
 62
     7
370
    18
100
AcDbMText
 10
230.0
 20
60.8119428599
 30
0.0
 40
3.0
 41
0.0
 71
     1
 72
     1
  1
Norm
  7
SLDTEXTSTYLE0
 73
     1
 44
1.0
  0
MTEXT
  5
19A
330
1F
100
AcDbEntity
  8
0
  6
Continuous
 62
     7
370
    18
100
AcDbMText
 10
269.612607
 20
71.2121947186
 30
0.0
 40
3.0
 41
0.0
 71
     1
 72
     1
  1
89.68 g
  7
SLDTEXTSTYLE0
 73
     1
 44
1.0
  0
MTEXT
  5
19B
330
1F
100
AcDbEntity
  8
0
  6
Continuous
 62
     7
370
    18
100
AcDbMText
 10
230.0
 20
71.2121947186
 30
0.0
 40
3.0
 41
0.0
 71
     1
 72
     1
  1
Messing
  7
SLDTEXTSTYLE0
 73
     1
 44
1.0
  0
SPLINE
  5
19C
330
1F
100
AcDbEntity
  8
0
  6
Continuous
 62
     7
370
    25
100
AcDbSpline
210
0.0
220
0.0
230
1.0
 70
     8
 71
     3
 72
    40
 73
    36
 74
     0
 42
0.00000001
 43
0.00000001
 40
-0.0026755454613207
 40
-0.0026755454613207
 40
-0.0026755454613207
 40
-0.0026755454613207
 40
0.0
 40
0.0
 40
0.0
 40
0.0625
 40
0.0625
 40
0.125
 40
0.125
 40
0.1875
 40
0.1875
 40
0.25
 40
0.25
 40
0.3124999999999999
 40
0.3124999999999999
 40
0.3749999999999999
 40
0.3749999999999999
 40
0.4374999999999999
 40
0.4374999999999999
 40
0.4999999999999999
 40
0.4999999999999999
 40
0.5624999999999999
 40
0.5624999999999999
 40
0.6249999999999999
 40
0.6249999999999999
 40
0.6874999999999999
 40
0.6874999999999999
 40
0.7499999999999999
 40
0.7499999999999999
 40
0.8749999999999999
 40
0.8749999999999999
 40
0.9999999999999999
 40
0.9999999999999999
 40
0.9999999999999999
 40
1.000466072511363
 40
1.000466072511363
 40
1.000466072511363
 40
1.000466072511363
 10
122.2047167226426
 20
204.1277092439743
 30
0.0
 10
122.204423702848
 20
204.1296558727499
 30
0.0
 10
122.2041306830534
 20
204.1316025015254
 30
0.0
 10
122.2038376632588
 20
204.133549130301
 30
0.0
 10
122.1969928021162
 20
204.1790218386641
 30
0.0
 10
122.1890539837891
 20
204.23209368485
 30
0.0
 10
122.1634451630529
 20
204.3397577546086
 30
0.0
 10
122.1472015843328
 20
204.3912347512091
 30
0.0
 10
122.1078045136079
 20
204.49328036714
 30
0.0
 10
122.083724883565
 20
204.544447276555
 30
0.0
 10
122.028887076641
 20
204.6406078602537
 30
0.0
 10
121.998458796201
 20
204.6861670266877
 30
0.0
 10
121.9300566560091
 20
204.7737715957696
 30
0.0
 10
121.8918256571781
 20
204.8158345212459
 30
0.0
 10
121.8083213452217
 20
204.8926705445949
 30
0.0
 10
121.7657289373732
 20
204.9256491648231
 30
0.0
 10
121.6770606368228
 20
204.9870755374925
 30
0.0
 10
121.6301127666225
 20
205.0154725894726
 30
0.0
 10
121.5322661986449
 20
205.0654483668834
 30
0.0
 10
121.4810412262957
 20
205.0870386637268
 30
0.0
 10
121.3786828078065
 20
205.1224818458828
 30
0.0
 10
121.327233954082
 20
205.1365834410868
 30
0.0
 10
121.2264355698911
 20
205.1596790310393
 30
0.0
 10
121.1773580345329
 20
205.1690031103304
 30
0.0
 10
121.0758009463233
 20
205.1845965615839
 30
0.0
 10
121.0232011940483
 20
205.1902942732149
 30
0.0
 10
120.9216665314433
 20
205.1970954734587
 30
0.0
 10
120.8729382391436
 20
205.1986677481824
 30
0.0
 10
120.7266985556124
 20
205.2016400748163
 30
0.0
 10
120.6265280605209
 20
205.1995959964586
 30
0.0
 10
120.4306102789983
 20
205.1862581458065
 30
0.0
 10
120.3343724328367
 20
205.175423224941
 30
0.0
 10
120.2417753473189
 20
205.164940229289
 30
0.0
 10
120.2414300916693
 20
205.1649011426002
 30
0.0
 10
120.2410848360198
 20
205.1648620559113
 30
0.0
 10
120.2407395803702
 20
205.1648229692224
 30
0.0
  0
LINE
  5
19D
330
1F
100
AcDbEntity
  8
0
  6
Continuous
 62
     7
370
    25
100
AcDbLine
 10
122.2047167226
 20
204.127709244
 30
0.0
 11
122.0308096938
 21
204.1075032714
 31
0.0
  0
SPLINE
  5
19E
330
1F
100
AcDbEntity
  8
0
  6
Continuous
 62
     7
370
    25
100
AcDbSpline
210
0.0
220
0.0
230
1.0
 70
     8
 71
     3
 72
    34
 73
    30
 74
     0
 42
0.00000001
 43
0.00000001
 40
0.0
 40
0.0
 40
0.0
 40
0.0
 40
0.0625
 40
0.0625
 40
0.125
 40
0.125
 40
0.1875
 40
0.1875
 40
0.25
 40
0.25
 40
0.3124999999999999
 40
0.3124999999999999
 40
0.3749999999999999
 40
0.3749999999999999
 40
0.4374999999999999
 40
0.4374999999999999
 40
0.4999999999999999
 40
0.4999999999999999
 40
0.5624999999999999
 40
0.5624999999999999
 40
0.6249999999999999
 40
0.6249999999999999
 40
0.6874999999999999
 40
0.6874999999999999
 40
0.7499999999999999
 40
0.7499999999999999
 40
0.8749999999999999
 40
0.8749999999999999
 40
0.9999999999999999
 40
0.9999999999999999
 40
0.9999999999999999
 40
0.9999999999999999
 10
122.0308096937928
 20
204.1075032714255
 30
0.0
 10
122.0238491936891
 20
204.1537442051097
 30
0.0
 10
122.0168326592156
 20
204.1999833422577
 30
0.0
 10
121.9952103058469
 20
204.2908875549925
 30
0.0
 10
121.9811079939962
 20
204.335619966975
 30
0.0
 10
121.9474291271364
 20
204.4228544154588
 30
0.0
 10
121.9274683836256
 20
204.4652333100188
 30
0.0
 10
121.8811467144282
 20
204.5464604477866
 30
0.0
 10
121.8551114205965
 20
204.585437292034
 30
0.0
 10
121.7975717343351
 20
204.6591300145377
 30
0.0
 10
121.7659851599434
 20
204.693845636269
 30
0.0
 10
121.6972028410854
 20
204.7571352722631
 30
0.0
 10
121.6601778646433
 20
204.7859076628399
 30
0.0
 10
121.5833248663128
 20
204.8391488034125
 30
0.0
 10
121.5432373937771
 20
204.8633652190825
 30
0.0
 10
121.4599609233504
 20
204.9058992257323
 30
0.0
 10
121.416788959603
 20
204.9241166971768
 30
0.0
 10
121.3284283744272
 20
204.9547129060461
 30
0.0
 10
121.2833124054363
 20
204.9671353962088
 30
0.0
 10
121.192198749604
 20
204.988011949759
 30
0.0
 10
121.1462211726361
 20
204.9967560621475
 30
0.0
 10
121.0538267938766
 20
205.0109426411592
 30
0.0
 10
121.007360869001
 20
205.0159858883649
 30
0.0
 10
120.9141180827173
 20
205.0222316583992
 30
0.0
 10
120.8673646060913
 20
205.0237675664614
 30
0.0
 10
120.7271786904255
 20
205.0266168515661
 30
0.0
 10
120.6337047154639
 20
205.0247022312628
 30
0.0
 10
120.4472031401101
 20
205.0120054230711
 30
0.0
 10
120.3542988269389
 20
205.0015840362848
 30
0.0
 10
120.2614588751652
 20
204.9910735455524
 30
0.0
  0
LINE
  5
19F
330
1F
100
AcDbEntity
  8
0
  6
Continuous
 62
     7
370
    25
100
AcDbLine
 10
119.7581625959
 20
205.1043589713
 30
0.0
 11
119.9537127068
 21
204.9525147989
 31
0.0
  0
LINE
  5
1A0
330
1F
100
AcDbEntity
  8
0
  6
Continuous
 62
     7
370
    25
100
AcDbLine
 10
120.2407395804
 20
205.1648229692
 30
0.0
 11
119.7581625959
 21
205.1043589713
 31
0.0
  0
LINE
  5
1A1
330
1F
100
AcDbEntity
  8
0
  6
Continuous
 62
     7
370
    25
100
AcDbLine
 10
120.2614588752
 20
204.9910735456
 30
0.0
 11
119.9537127068
 21
204.9525147989
 31
0.0
  0
LINE
  5
1A2
330
1F
100
AcDbEntity
  8
0
  6
Continuous
 62
     7
370
    25
100
AcDbLine
 10
120.1343632709
 20
206.1483568591
 30
0.0
 11
120.1096702032
 21
206.3216060637
 31
0.0
  0
LINE
  5
1A3
330
1F
100
AcDbEntity
  8
0
  6
Continuous
 62
     7
370
    25
100
AcDbLine
 10
119.6339991658
 20
206.0852581943
 30
0.0
 11
120.1343632709
 21
206.1483568591
 31
0.0
  0
LINE
  5
1A4
330
1F
100
AcDbEntity
  8
0
  6
Continuous
 62
     7
370
    25
100
AcDbLine
 10
119.6339991658
 20
206.0852581943
 30
0.0
 11
119.7857150245
 21
206.2807535345
 31
0.0
  0
LINE
  5
1A5
330
1F
100
AcDbEntity
  8
0
  6
Continuous
 62
     7
370
    25
100
AcDbLine
 10
119.7857150245
 20
206.2807535345
 30
0.0
 11
120.1096702032
 21
206.3216060637
 31
0.0
  0
LINE
  5
1A6
330
1F
100
AcDbEntity
  8
0
  6
Continuous
 62
     7
370
    25
100
AcDbLine
 10
121.2457188492
 20
207.3274683963
 30
0.0
 11
121.071838635
 21
207.306282565
 31
0.0
  0
SPLINE
  5
1A7
330
1F
100
AcDbEntity
  8
0
  6
Continuous
 62
     7
370
    25
100
AcDbSpline
210
0.0
220
0.0
230
1.0
 70
     8
 71
     3
 72
    24
 73
    20
 74
     0
 42
0.00000001
 43
0.00000001
 40
-0.0018204591104808
 40
-0.0018204591104808
 40
-0.0018204591104808
 40
-0.0018204591104808
 40
0.0
 40
0.0
 40
0.0
 40
0.25
 40
0.25
 40
0.5
 40
0.5
 40
0.625
 40
0.625
 40
0.75
 40
0.75
 40
0.875
 40
0.875
 40
1.0
 40
1.0
 40
1.0
 40
1.005229725352763
 40
1.005229725352763
 40
1.005229725352763
 40
1.005229725352763
 10
120.1343632708956
 20
206.1483568591189
 30
0.0
 10
120.1352926489902
 20
206.1485046567938
 30
0.0
 10
120.1362220270848
 20
206.1486524544687
 30
0.0
 10
120.1371514051794
 20
206.1488002521435
 30
0.0
 10
120.2647810356998
 20
206.1690970105277
 30
0.0
 10
120.4071435540633
 20
206.1922165146837
 30
0.0
 10
120.6873883986102
 20
206.2876525288556
 30
0.0
 10
120.8259184320148
 20
206.3583932494051
 30
0.0
 10
121.0057905478659
 20
206.5166892110237
 30
0.0
 10
121.0604797884047
 20
206.5791881347379
 30
0.0
 10
121.1491113572572
 20
206.7156823559973
 30
0.0
 10
121.1834978483827
 20
206.7899196096466
 30
0.0
 10
121.2321783430957
 20
206.941662806736
 30
0.0
 10
121.2473447000126
 20
207.020209583707
 30
0.0
 10
121.2571687661788
 20
207.1805611323983
 30
0.0
 10
121.2511683878488
 20
207.2547611193571
 30
0.0
 10
121.2463265631627
 20
207.3193603292545
 30
0.0
 10
121.2461239918562
 20
207.3220630182606
 30
0.0
 10
121.2459214205497
 20
207.3247657072667
 30
0.0
 10
121.2457188492432
 20
207.3274683962728
 30
0.0
  0
SPLINE
  5
1A8
330
1F
100
AcDbEntity
  8
0
  6
Continuous
 62
     7
370
    25
100
AcDbSpline
210
0.0
220
0.0
230
1.0
 70
     8
 71
     3
 72
    18
 73
    14
 74
     0
 42
0.00000001
 43
0.00000001
 40
0.0
 40
0.0
 40
0.0
 40
0.0
 40
0.25
 40
0.25
 40
0.5
 40
0.5
 40
0.625
 40
0.625
 40
0.75
 40
0.75
 40
0.875
 40
0.875
 40
1.0
 40
1.0
 40
1.0
 40
1.0
 10
120.1096702032299
 20
206.3216060637401
 30
0.0
 10
120.2380368426314
 20
206.3420200276948
 30
0.0
 10
120.3674480866941
 20
206.3635436457472
 30
0.0
 10
120.6142707370192
 20
206.4475978805956
 30
0.0
 10
120.7322829079967
 20
206.5090764062344
 30
0.0
 10
120.8792107944583
 20
206.6383798580371
 30
0.0
 10
120.9224938245162
 20
206.6879818265549
 30
0.0
 10
120.9935919933124
 20
206.7974742944413
 30
0.0
 10
121.0212827820628
 20
206.8570810393352
 30
0.0
 10
121.0611664095743
 20
206.9814033251365
 30
0.0
 10
121.0736271000127
 20
207.0461263571795
 30
0.0
 10
121.0815866500198
 20
207.176044550976
 30
0.0
 10
121.0767192072034
 20
207.241166383749
 30
0.0
 10
121.071838635027
 20
207.3062825650318
 30
0.0
  0
LINE
  5
1A9
330
1F
100
AcDbEntity
  8
0
  6
Continuous
 62
     7
370
    25
100
AcDbLine
 10
173.9063210077
 20
207.5102449483
 30
0.0
 11
173.8805952643
 21
207.3371020936
 31
0.0
  0
SPLINE
  5
1AA
330
1F
100
AcDbEntity
  8
0
  6
Continuous
 62
     7
370
    25
100
AcDbSpline
210
0.0
220
0.0
230
1.0
 70
     8
 71
     3
 72
    23
 73
    19
 74
     0
 42
0.00000001
 43
0.00000001
 40
0.0654371867466584
 40
0.0654371867466584
 40
0.0654371867466584
 40
0.0654371867466584
 40
0.125
 40
0.125
 40
0.25
 40
0.25
 40
0.375
 40
0.375
 40
0.5
 40
0.5
 40
0.75
 40
0.75
 40
0.875
 40
0.875
 40
1.0
 40
1.0
 40
1.0
 40
1.001826177842812
 40
1.001826177842812
 40
1.001826177842812
 40
1.001826177842812
 10
176.0716535745847
 20
206.1973459753179
 30
0.0
 10
176.0391140760223
 20
206.2402601034881
 30
0.0
 10
176.0056191675197
 20
206.2832759512146
 30
0.0
 10
175.8972779963359
 20
206.4155875305029
 30
0.0
 10
175.8186638878823
 20
206.5012970124194
 30
0.0
 10
175.6566133299116
 20
206.6638724680934
 30
0.0
 10
175.572295495764
 20
206.7423368768875
 30
0.0
 10
175.3926256880077
 20
206.8911026633648
 30
0.0
 10
175.2980587646595
 20
206.9601615389377
 30
0.0
 10
175.0063645085938
 20
207.1503723644333
 30
0.0
 10
174.7990000524724
 20
207.2572756905969
 30
0.0
 10
174.4709853669031
 20
207.3805648724754
 30
0.0
 10
174.3589887065028
 20
207.4153071416773
 30
0.0
 10
174.1312743656591
 20
207.4705808602815
 30
0.0
 10
174.0192774914742
 20
207.4902708903678
 30
0.0
 10
173.9110638253077
 20
207.5094062774641
 30
0.0
 10
173.9094828861122
 20
207.5096858344235
 30
0.0
 10
173.9079019469166
 20
207.509965391383
 30
0.0
 10
173.9063210077211
 20
207.5102449483425
 30
0.0
  0
SPLINE
  5
1AB
330
1F
100
AcDbEntity
  8
0
  6
Continuous
 62
     7
370
    25
100
AcDbSpline
210
0.0
220
0.0
230
1.0
 70
     8
 71
     3
 72
    11
 73
     7
 74
     0
 42
0.00000001
 43
0.00000001
 40
0.0
 40
0.0
 40
0.0
 40
0.0
 40
0.0010075948635066
 40
0.0010075948635066
 40
0.0010075948635066
 40
0.0020151901550146
 40
0.0020151901550146
 40
0.0020151901550146
 40
0.0020151901550146
 10
176.0716535745847
 20
206.1973459753179
 30
0.0
 10
176.0657982581706
 20
206.1567936664985
 30
0.0
 10
176.0597810903274
 20
206.1161238852197
 30
0.0
 10
176.0536807613778
 20
206.0753937619282
 30
0.0
 10
176.0475804294628
 20
206.0346636188373
 30
0.0
 10
176.0413980855245
 20
205.9938739621857
 30
0.0
 10
176.0352163037558
 20
205.9530847145664
 30
0.0
  0
SPLINE
  5
1AC
330
1F
100
AcDbEntity
  8
0
  6
Continuous
 62
     7
370
    25
100
AcDbSpline
210
0.0
220
0.0
230
1.0
 70
     8
 71
     3
 72
    20
 73
    16
 74
     0
 42
0.00000001
 43
0.00000001
 40
0.0
 40
0.0
 40
0.0
 40
0.0
 40
0.125
 40
0.125
 40
0.25
 40
0.25
 40
0.375
 40
0.375
 40
0.5
 40
0.5
 40
0.75
 40
0.75
 40
0.875
 40
0.875
 40
1.0
 40
1.0
 40
1.0
 40
1.0
 10
176.0352163037558
 20
205.9530847145664
 30
0.0
 10
175.9700299030389
 20
206.0416215084227
 30
0.0
 10
175.9048434592709
 20
206.1301582732428
 30
0.0
 10
175.7657028453071
 20
206.300083656101
 30
0.0
 10
175.6913379186232
 20
206.381179004558
 30
0.0
 10
175.5360842086453
 20
206.5369355953521
 30
0.0
 10
175.4554905794368
 20
206.6118781843965
 30
0.0
 10
175.2862453293365
 20
206.7520124865338
 30
0.0
 10
175.1973384203803
 20
206.8169477224321
 30
0.0
 10
174.9210777554225
 20
206.9970944607506
 30
0.0
 10
174.724576591832
 20
207.0983197965606
 30
0.0
 10
174.4158528788316
 20
207.214358181106
 30
0.0
 10
174.3106067158144
 20
207.2469927176425
 30
0.0
 10
174.0971079494685
 20
207.298815851756
 30
0.0
 10
173.9888516057974
 20
207.3179591602309
 30
0.0
 10
173.8805952643207
 20
207.3371020936101
 30
0.0
  0
LINE
  5
1AD
330
1F
100
AcDbEntity
  8
0
  6
Continuous
 62
     7
370
    25
100
AcDbLine
 10
170.6266078454
 20
205.1398321928
 30
0.0
 11
170.7998837186
 21
205.1150441345
 31
0.0
  0
SPLINE
  5
1AE
330
1F
100
AcDbEntity
  8
0
  6
Continuous
 62
     7
370
    25
100
AcDbSpline
210
0.0
220
0.0
230
1.0
 70
     8
 71
     3
 72
    32
 73
    28
 74
     0
 42
0.00000001
 43
0.00000001
 40
-0.0011369059206436
 40
-0.0011369059206436
 40
-0.0011369059206436
 40
-0.0011369059206436
 40
0.0
 40
0.0
 40
0.0
 40
0.0625
 40
0.0625
 40
0.125
 40
0.125
 40
0.25
 40
0.25
 40
0.3749999999999999
 40
0.3749999999999999
 40
0.4999999999999999
 40
0.4999999999999999
 40
0.6249999999999999
 40
0.6249999999999999
 40
0.7499999999999999
 40
0.7499999999999999
 40
0.8749999999999999
 40
0.8749999999999999
 40
0.9374999999999999
 40
0.9374999999999999
 40
0.9999999999999999
 40
0.9999999999999999
 40
0.9999999999999999
 40
1.001104737082967
 40
1.001104737082967
 40
1.001104737082967
 40
1.001104737082967
 10
173.9063210077211
 20
207.5102449483424
 30
0.0
 10
173.9047270798004
 20
207.5104371162834
 30
0.0
 10
173.9031331518798
 20
207.5106292842244
 30
0.0
 10
173.9015392239591
 20
207.5108214521654
 30
0.0
 10
173.8139150034918
 20
207.5213856475795
 30
0.0
 10
173.7234850824392
 20
207.5323571142968
 30
0.0
 10
173.5362701609127
 20
207.5457675296126
 30
0.0
 10
173.4417035648351
 20
207.5476157650825
 30
0.0
 10
173.1607458842077
 20
207.5399582437247
 30
0.0
 10
172.9750305695417
 20
207.5187599093924
 30
0.0
 10
172.6054261619587
 20
207.4373095372746
 30
0.0
 10
172.4251514493293
 20
207.375505890644
 30
0.0
 10
172.0834099983987
 20
207.2189860065589
 30
0.0
 10
171.9202460700331
 20
207.1237454036921
 30
0.0
 10
171.6159526939985
 20
206.9050371253039
 30
0.0
 10
171.4745725697239
 20
206.783254922542
 30
0.0
 10
171.2138572387929
 20
206.5112909992658
 30
0.0
 10
171.0967994604896
 20
206.3606062377376
 30
0.0
 10
170.8999134879839
 20
206.0362592411277
 30
0.0
 10
170.8207502327525
 20
205.8635472986384
 30
0.0
 10
170.7279138798432
 20
205.5982798290658
 30
0.0
 10
170.7007050085986
 20
205.5073441990036
 30
0.0
 10
170.6575475447456
 20
205.3219624809
 30
0.0
 10
170.6422278835841
 20
205.2314671301454
 30
0.0
 10
170.6273944248127
 20
205.1444466603246
 30
0.0
 10
170.6271322316611
 20
205.1429085044849
 30
0.0
 10
170.6268700385096
 20
205.141370348645
 30
0.0
 10
170.626607845358
 20
205.1398321928052
 30
0.0
  0
SPLINE
  5
1AF
330
1F
100
AcDbEntity
  8
0
  6
Continuous
 62
     7
370
    25
100
AcDbSpline
210
0.0
220
0.0
230
1.0
 70
     8
 71
     3
 72
    26
 73
    22
 74
     0
 42
0.00000001
 43
0.00000001
 40
0.0
 40
0.0
 40
0.0
 40
0.0
 40
0.0625
 40
0.0625
 40
0.125
 40
0.125
 40
0.25
 40
0.25
 40
0.3749999999999999
 40
0.3749999999999999
 40
0.4999999999999999
 40
0.4999999999999999
 40
0.6249999999999999
 40
0.6249999999999999
 40
0.7499999999999999
 40
0.7499999999999999
 40
0.8749999999999999
 40
0.8749999999999999
 40
0.9374999999999999
 40
0.9374999999999999
 40
0.9999999999999999
 40
0.9999999999999999
 40
0.9999999999999999
 40
0.9999999999999999
 10
173.8805952643206
 20
207.3371020936096
 30
0.0
 10
173.7929680432168
 20
207.3476666507636
 30
0.0
 10
173.7053408127518
 20
207.3582311476844
 30
0.0
 10
173.5294107598017
 20
207.3708332200888
 30
0.0
 10
173.4410503464879
 20
207.3725556568857
 30
0.0
 10
173.1763540843335
 20
207.3653413407867
 30
0.0
 10
173.0002301075914
 20
207.3451374416212
 30
0.0
 10
172.6555396632884
 20
207.2691774059121
 30
0.0
 10
172.4876104464755
 20
207.2116557533127
 30
0.0
 10
172.166675382863
 20
207.0646653335794
 30
0.0
 10
172.0135332655348
 20
206.9753104110008
 30
0.0
 10
171.7269100616503
 20
206.7693024180764
 30
0.0
 10
171.5926516647601
 20
206.653578641822
 30
0.0
 10
171.3484026367757
 20
206.3987914648092
 30
0.0
 10
171.2395211323022
 20
206.2585175750862
 30
0.0
 10
171.0563446357249
 20
205.9567553640569
 30
0.0
 10
170.9823368901164
 20
205.7955507913438
 30
0.0
 10
170.8948533771402
 20
205.5455783529393
 30
0.0
 10
170.8695401217076
 20
205.4608615912726
 30
0.0
 10
170.8295526597793
 20
205.2890964981625
 30
0.0
 10
170.8147181518483
 20
205.2020703211213
 30
0.0
 10
170.7998837185615
 20
205.1150441345072
 30
0.0
  0
LINE
  5
1B0
330
1F
100
AcDbEntity
  8
0
  6
Continuous
 62
     7
370
    25
100
AcDbLine
 10
173.1714952483
 20
201.8417336157
 30
0.0
 11
173.1967311013
 21
202.0149259122
 31
0.0
  0
SPLINE
  5
1B1
330
1F
100
AcDbEntity
  8
0
  6
Continuous
 62
     7
370
    25
100
AcDbSpline
210
0.0
220
0.0
230
1.0
 70
     8
 71
     3
 72
    38
 73
    34
 74
     0
 42
0.00000001
 43
0.00000001
 40
-0.0010712211159412
 40
-0.0010712211159412
 40
-0.0010712211159412
 40
-0.0010712211159412
 40
0.0
 40
0.0
 40
0.0
 40
0.0625
 40
0.0625
 40
0.125
 40
0.125
 40
0.1875
 40
0.1875
 40
0.25
 40
0.25
 40
0.375
 40
0.375
 40
0.5
 40
0.5
 40
0.625
 40
0.625
 40
0.6875
 40
0.6875
 40
0.75
 40
0.75
 40
0.8125
 40
0.8125
 40
0.875
 40
0.875
 40
0.9375
 40
0.9375
 40
1.0
 40
1.0
 40
1.0
 40
1.00089660137124
 40
1.00089660137124
 40
1.00089660137124
 40
1.00089660137124
 10
170.6266078453581
 20
205.1398321928052
 30
0.0
 10
170.6264282653522
 20
205.1382822244302
 30
0.0
 10
170.6262486853464
 20
205.1367322560552
 30
0.0
 10
170.6260691053405
 20
205.1351822876802
 30
0.0
 10
170.6155915762865
 20
205.0447499558321
 30
0.0
 10
170.6046777581556
 20
204.9512567096144
 30
0.0
 10
170.5925290651455
 20
204.7573402205527
 30
0.0
 10
170.5916812682187
 20
204.659599796173
 30
0.0
 10
170.6007924682536
 20
204.4648241544533
 30
0.0
 10
170.6107244306629
 20
204.3682199731337
 30
0.0
 10
170.6394779684734
 20
204.1772048464246
 30
0.0
 10
170.6585411717097
 20
204.0814443370278
 30
0.0
 10
170.7336085758549
 20
203.7970624641974
 30
0.0
 10
170.8050305705375
 20
203.6157650616515
 30
0.0
 10
170.9812980993692
 20
203.2704592750285
 30
0.0
 10
171.0880866810721
 20
203.1073064174223
 30
0.0
 10
171.3244566274247
 20
202.8051893288118
 30
0.0
 10
171.4577768321132
 20
202.662772529301
 30
0.0
 10
171.6769351103556
 20
202.4722151552854
 30
0.0
 10
171.7536045672052
 20
202.4119255015114
 30
0.0
 10
171.9133883838585
 20
202.3003300758419
 30
0.0
 10
171.995656318698
 20
202.2493764138746
 30
0.0
 10
172.1640261665839
 20
202.1552033680613
 30
0.0
 10
172.2509345224401
 20
202.1117614762519
 30
0.0
 10
172.4289321619128
 20
202.0343686377741
 30
0.0
 10
172.5192633999773
 20
202.0005293661117
 30
0.0
 10
172.7023150703818
 20
201.9407857448421
 30
0.0
 10
172.7961255931725
 20
201.9147639516804
 30
0.0
 10
172.9851727867844
 20
201.8730840785543
 30
0.0
 10
173.0778468808665
 20
201.8575278669129
 30
0.0
 10
173.1676312120861
 20
201.8423853041319
 30
0.0
 10
173.1689192241579
 20
201.842168074651
 30
0.0
 10
173.1702072362297
 20
201.8419508451701
 30
0.0
 10
173.1714952483015
 20
201.8417336156893
 30
0.0
  0
SPLINE
  5
1B2
330
1F
100
AcDbEntity
  8
0
  6
Continuous
 62
     7
370
    25
100
AcDbSpline
210
0.0
220
0.0
230
1.0
 70
     8
 71
     3
 72
    32
 73
    28
 74
     0
 42
0.00000001
 43
0.00000001
 40
0.0
 40
0.0
 40
0.0
 40
0.0
 40
0.0625
 40
0.0625
 40
0.125
 40
0.125
 40
0.1875
 40
0.1875
 40
0.25
 40
0.25
 40
0.375
 40
0.375
 40
0.5
 40
0.5
 40
0.625
 40
0.625
 40
0.6875
 40
0.6875
 40
0.75
 40
0.75
 40
0.8125
 40
0.8125
 40
0.875
 40
0.875
 40
0.9375
 40
0.9375
 40
1.0
 40
1.0
 40
1.0
 40
1.0
 10
170.7998837185618
 20
205.1150441345073
 30
0.0
 10
170.7894056869678
 20
205.0246074649976
 30
0.0
 10
170.7789277190371
 20
204.9341707861161
 30
0.0
 10
170.7675489974377
 20
204.7525446072598
 30
0.0
 10
170.7667691038021
 20
204.6613276920569
 30
0.0
 10
170.7752770332663
 20
204.4794485266515
 30
0.0
 10
170.7845762669411
 20
204.3887927350152
 30
0.0
 10
170.8116820542666
 20
204.2087239143187
 30
0.0
 10
170.8295148948956
 20
204.1193166568608
 30
0.0
 10
170.8992082732265
 20
203.8552935003839
 30
0.0
 10
170.9662288007228
 20
203.6848356863116
 30
0.0
 10
171.1317928330182
 20
203.3604979091379
 30
0.0
 10
171.2318820462015
 20
203.2074776705376
 30
0.0
 10
171.4562830890861
 20
202.920658676063
 30
0.0
 10
171.5812771688006
 20
202.7872607323026
 30
0.0
 10
171.7874018045971
 20
202.6080360644551
 30
0.0
 10
171.8590682154343
 20
202.5516962313828
 30
0.0
 10
172.0083052358539
 20
202.4474668485907
 30
0.0
 10
172.0857925700541
 20
202.3994489818454
 30
0.0
 10
172.2447214026166
 20
202.3105565076636
 30
0.0
 10
172.3262423243365
 20
202.2698192664101
 30
0.0
 10
172.4931642861952
 20
202.1972421002728
 30
0.0
 10
172.5785077493448
 20
202.1652543869338
 30
0.0
 10
172.751650718798
 20
202.1087447242534
 30
0.0
 10
172.8394882990042
 20
202.0843831874611
 30
0.0
 10
173.017156175307
 20
202.0452121558508
 30
0.0
 10
173.1069436343561
 20
202.0300690038537
 30
0.0
 10
173.1967311012949
 20
202.0149259121942
 30
0.0
  0
LINE
  5
1B3
330
1F
100
AcDbEntity
  8
0
  6
Continuous
 62
     7
370
    25
100
AcDbLine
 10
175.8392350134
 20
203.1691054999
 30
0.0
 11
175.5356272669
 21
203.036577842
 31
0.0
  0
SPLINE
  5
1B4
330
1F
100
AcDbEntity
  8
0
  6
Continuous
 62
     7
370
    25
100
AcDbSpline
210
0.0
220
0.0
230
1.0
 70
     8
 71
     3
 72
    32
 73
    28
 74
     0
 42
0.00000001
 43
0.00000001
 40
-0.0014441757451988
 40
-0.0014441757451988
 40
-0.0014441757451988
 40
-0.0014441757451988
 40
0.0
 40
0.0
 40
0.0
 40
0.125
 40
0.125
 40
0.25
 40
0.25
 40
0.3125
 40
0.3125
 40
0.375
 40
0.375
 40
0.5
 40
0.5
 40
0.5625
 40
0.5625
 40
0.625
 40
0.625
 40
0.75
 40
0.75
 40
0.875
 40
0.875
 40
1.0
 40
1.0
 40
1.0
 40
1.103775953014776
 40
1.103775953014776
 40
1.103775953014776
 40
1.103775953014776
 10
173.1714952483014
 20
201.8417336156893
 30
0.0
 10
173.1727916961786
 20
201.8415742635152
 30
0.0
 10
173.1740881440558
 20
201.8414149113412
 30
0.0
 10
173.175384591933
 20
201.8412555591671
 30
0.0
 10
173.2875980709303
 20
201.8274629014355
 30
0.0
 10
173.4062595540618
 20
201.8134260112979
 30
0.0
 10
173.6473984864542
 20
201.8020505620505
 30
0.0
 10
173.769631969146
 20
201.8046127803496
 30
0.0
 10
173.9493874855948
 20
201.8197645068605
 30
0.0
 10
174.0091579975652
 20
201.8263778544629
 30
0.0
 10
174.1307677989507
 20
201.8448865638579
 30
0.0
 10
174.1917307502804
 20
201.8570019492021
 30
0.0
 10
174.369951210725
 20
201.899661468503
 30
0.0
 10
174.4862576043852
 20
201.9354586360504
 30
0.0
 10
174.6606833117313
 20
202.0103716818373
 30
0.0
 10
174.7160545883007
 20
202.0381261831197
 30
0.0
 10
174.8225956112861
 20
202.0956677266176
 30
0.0
 10
174.8757739497812
 20
202.1266854687998
 30
0.0
 10
175.0318337610967
 20
202.2279355965759
 30
0.0
 10
175.1293724463151
 20
202.3057422070915
 30
0.0
 10
175.3078700033858
 20
202.4706723747125
 30
0.0
 10
175.3909583275152
 20
202.5578069310689
 30
0.0
 10
175.5461605017363
 20
202.7449121878941
 30
0.0
 10
175.6157451388109
 20
202.8443446465782
 30
0.0
 10
175.6797709252519
 20
202.9373827275048
 30
0.0
 10
175.7329256212954
 20
203.0146236516233
 30
0.0
 10
175.786080317339
 20
203.0918645757419
 30
0.0
 10
175.8392350133825
 20
203.1691054998604
 30
0.0
  0
SPLINE
  5
1B5
330
1F
100
AcDbEntity
  8
0
  6
Continuous
 62
     7
370
    25
100
AcDbSpline
210
0.0
220
0.0
230
1.0
 70
     8
 71
     3
 72
    26
 73
    22
 74
     0
 42
0.00000001
 43
0.00000001
 40
0.0
 40
0.0
 40
0.0
 40
0.0
 40
0.125
 40
0.125
 40
0.25
 40
0.25
 40
0.3125
 40
0.3125
 40
0.375
 40
0.375
 40
0.5
 40
0.5
 40
0.5625
 40
0.5625
 40
0.625
 40
0.625
 40
0.75
 40
0.75
 40
0.875
 40
0.875
 40
1.0
 40
1.0
 40
1.0
 40
1.0
 10
173.1967311012947
 20
202.0149259121939
 30
0.0
 10
173.3091614811401
 20
202.0011065942438
 30
0.0
 10
173.4218639201398
 20
201.9878618084784
 30
0.0
 10
173.6482845273429
 20
201.9771806762622
 30
0.0
 10
173.7618293031834
 20
201.9795529146346
 30
0.0
 10
173.931243522277
 20
201.9938329667488
 30
0.0
 10
173.9876161614552
 20
202.0000915620534
 30
0.0
 10
174.0996538582668
 20
202.0171434172977
 30
0.0
 10
174.1552836541242
 20
202.0281980110809
 30
0.0
 10
174.3206475526664
 20
202.0677801381729
 30
0.0
 10
174.4293651217548
 20
202.1014568477909
 30
0.0
 10
174.5855533032234
 20
202.1685371601889
 30
0.0
 10
174.6362981696841
 20
202.1939172667087
 30
0.0
 10
174.7360504996575
 20
202.2477923148733
 30
0.0
 10
174.7850158762976
 20
202.2763802459303
 30
0.0
 10
174.9276426185317
 20
202.3689151256413
 30
0.0
 10
175.0166327092194
 20
202.4398082904332
 30
0.0
 10
175.1831155885708
 20
202.5936370049785
 30
0.0
 10
175.2615238680381
 20
202.6758373253955
 30
0.0
 10
175.4062440717589
 20
202.8503059602988
 30
0.0
 10
175.4714161045443
 20
202.9432703850166
 30
0.0
 10
175.5356272669246
 20
203.0365778420336
 30
0.0
  0
LINE
  5
1B6
330
1F
100
AcDbEntity
  8
0
  6
Continuous
 62
     7
370
    25
100
AcDbLine
 10
118.1075039598
 20
209.0077999287
 30
0.0
 11
117.9119727375
 21
209.1596325111
 31
0.0
  0
LINE
  5
1B7
330
1F
100
AcDbEntity
  8
0
  6
Continuous
 62
     7
370
    25
100
AcDbLine
 10
119.0503204223
 20
201.5386042709
 30
0.0
 11
118.1075039598
 21
209.0077999287
 31
0.0
  0
LINE
  5
1B8
330
1F
100
AcDbEntity
  8
0
  6
Continuous
 62
     7
370
    25
100
AcDbLine
 10
119.0503204223
 20
201.5386042709
 30
0.0
 11
118.898625203
 21
201.3431585686
 31
0.0
  0
LINE
  5
1B9
330
1F
100
AcDbEntity
  8
0
  6
Continuous
 62
     7
370
    25
100
AcDbLine
 10
118.898625203
 20
201.3431585686
 30
0.0
 11
117.9119727375
 21
209.1596325111
 31
0.0
  0
LINE
  5
1BA
330
1F
100
AcDbEntity
  8
0
  6
Continuous
 62
     7
370
    25
100
AcDbLine
 10
120.0551147961
 20
202.7537069934
 30
0.0
 11
120.601561532
 21
202.823715761
 31
0.0
  0
SPLINE
  5
1BB
330
1F
100
AcDbEntity
  8
0
  6
Continuous
 62
     7
370
    25
100
AcDbSpline
210
0.0
220
0.0
230
1.0
 70
     8
 71
     3
 72
    34
 73
    30
 74
     0
 42
0.00000001
 43
0.00000001
 40
-0.0001415146697861
 40
-0.0001415146697861
 40
-0.0001415146697861
 40
-0.0001415146697861
 40
0.0
 40
0.0
 40
0.0
 40
0.125
 40
0.125
 40
0.25
 40
0.25
 40
0.375
 40
0.375
 40
0.4375
 40
0.4375
 40
0.5
 40
0.5
 40
0.5625
 40
0.5625
 40
0.625
 40
0.625
 40
0.75
 40
0.75
 40
0.875
 40
0.875
 40
0.9375
 40
0.9375
 40
1.0
 40
1.0
 40
1.0
 40
1.002825890668747
 40
1.002825890668747
 40
1.002825890668747
 40
1.002825890668747
 10
120.6015615635083
 20
202.823715518547
 30
0.0
 10
120.601658458302
 20
202.8237280973372
 30
0.0
 10
120.6017553530957
 20
202.8237406761275
 30
0.0
 10
120.6018522478893
 20
202.8237532549177
 30
0.0
 10
120.6874394822553
 20
202.8348641085394
 30
0.0
 10
120.7767631873926
 20
202.8465228854577
 30
0.0
 10
120.9549672394222
 20
202.8764439844961
 30
0.0
 10
121.0420094298044
 20
202.8934660377691
 30
0.0
 10
121.2194792787056
 20
202.933532623558
 30
0.0
 10
121.3096428112906
 20
202.9579381783471
 30
0.0
 10
121.4411212090374
 20
203.0007666380503
 30
0.0
 10
121.4848332559104
 20
203.0161341817261
 30
0.0
 10
121.5718589726048
 20
203.0494657415423
 30
0.0
 10
121.6160638511697
 20
203.0675012438443
 30
0.0
 10
121.7070614575536
 20
203.1114001570655
 30
0.0
 10
121.7526935856152
 20
203.1371504502366
 30
0.0
 10
121.8392719034746
 20
203.1952253662603
 30
0.0
 10
121.8808868755598
 20
203.2278257766061
 30
0.0
 10
121.9979195894694
 20
203.3370160529187
 30
0.0
 10
122.0644030225009
 20
203.4245678713089
 30
0.0
 10
122.1613856950629
 20
203.6160435569627
 30
0.0
 10
122.193014938065
 20
203.7188232607243
 30
0.0
 10
122.2137098555696
 20
203.8782799841139
 30
0.0
 10
122.2153907783549
 20
203.9324379834617
 30
0.0
 10
122.2126734467131
 20
204.0318919274
 30
0.0
 10
122.2087632702629
 20
204.0784321005669
 30
0.0
 10
122.2052000471086
 20
204.1218235132625
 30
0.0
 10
122.2050389386437
 20
204.1237854234744
 30
0.0
 10
122.2048778301787
 20
204.1257473336862
 30
0.0
 10
122.2047167217137
 20
204.127709243898
 30
0.0
  0
LINE
  5
1BC
330
1F
100
AcDbEntity
  8
0
  6
Continuous
 62
     7
370
    25
100
AcDbLine
 10
119.7581625959
 20
205.1043589713
 30
0.0
 11
120.0551147961
 21
202.7537069934
 31
0.0
  0
SPLINE
  5
1BD
330
1F
100
AcDbEntity
  8
0
  6
Continuous
 62
     7
370
    25
100
AcDbSpline
210
0.0
220
0.0
230
1.0
 70
     8
 71
     3
 72
    30
 73
    26
 74
     0
 42
0.00000001
 43
0.00000001
 40
-0.0055677983162526
 40
-0.0055677983162526
 40
-0.0055677983162526
 40
-0.0055677983162526
 40
0.0
 40
0.0
 40
0.0
 40
0.125
 40
0.125
 40
0.25
 40
0.25
 40
0.3125
 40
0.3125
 40
0.375
 40
0.375
 40
0.5
 40
0.5
 40
0.625
 40
0.625
 40
0.75
 40
0.75
 40
0.875
 40
0.875
 40
1.0
 40
1.0
 40
1.0
 40
1.001513542145848
 40
1.001513542145848
 40
1.001513542145848
 40
1.001513542145848
 10
121.2457188492432
 20
207.3274683962729
 30
0.0
 10
121.2452665230183
 20
207.3301406886734
 30
0.0
 10
121.2448141967935
 20
207.3328129810738
 30
0.0
 10
121.2443618705687
 20
207.3354852734743
 30
0.0
 10
121.2342069089678
 20
207.3954796430763
 30
0.0
 10
121.2227283629676
 20
207.4664128565983
 30
0.0
 10
121.1739349736772
 20
207.6145154846794
 30
0.0
 10
121.140362913526
 20
207.6820685344973
 30
0.0
 10
121.0794857726161
 20
207.7772953538053
 30
0.0
 10
121.0569743780329
 20
207.8083727756104
 30
0.0
 10
121.0067943634439
 20
207.8680364378079
 30
0.0
 10
120.9788325354634
 20
207.8966267990588
 30
0.0
 10
120.8917744357802
 20
207.973714258351
 30
0.0
 10
120.8300350189351
 20
208.0152072562777
 30
0.0
 10
120.6962912501014
 20
208.0852414005735
 30
0.0
 10
120.6224620394075
 20
208.1121401209423
 30
0.0
 10
120.4803194091857
 20
208.1466573873845
 30
0.0
 10
120.4123595122663
 20
208.1564406635061
 30
0.0
 10
120.2743320378778
 20
208.1684107174526
 30
0.0
 10
120.20375135477
 20
208.1693935485975
 30
0.0
 10
120.0688988986298
 20
208.1629969644397
 30
0.0
 10
120.0047285108772
 20
208.1564017901871
 30
0.0
 10
119.9436618049523
 20
208.1502065465279
 30
0.0
 10
119.9429223886873
 20
208.1501315324288
 30
0.0
 10
119.9421829724223
 20
208.1500565183298
 30
0.0
 10
119.9414435561573
 20
208.1499815042308
 30
0.0
  0
LINE
  5
1BE
330
1F
100
AcDbEntity
  8
0
  6
Continuous
 62
     7
370
    25
100
AcDbLine
 10
119.9414435562
 20
208.1499815042
 30
0.0
 11
119.3826602538
 21
208.078867181
 31
0.0
  0
LINE
  5
1BF
330
1F
100
AcDbEntity
  8
0
  6
Continuous
 62
     7
370
    25
100
AcDbLine
 10
119.3826602538
 20
208.078867181
 30
0.0
 11
119.6339991658
 21
206.0852581943
 31
0.0
  0
LINE
  5
1C0
330
1F
100
AcDbEntity
  8
0
  6
Continuous
 62
     7
370
    25
100
AcDbLine
 10
118.1075039598
 20
209.0077999287
 30
0.0
 11
119.1608394198
 21
209.139861136
 31
0.0
  0
SPLINE
  5
1C1
330
1F
100
AcDbEntity
  8
0
  6
Continuous
 62
     7
370
    25
100
AcDbSpline
210
0.0
220
0.0
230
1.0
 70
     8
 71
     3
 72
    16
 73
    12
 74
     0
 42
0.00000001
 43
0.00000001
 40
0.0002195401507391
 40
0.0002195401507391
 40
0.0002195401507391
 40
0.0002195401507391
 40
0.25
 40
0.25
 40
0.4999999999999999
 40
0.4999999999999999
 40
0.7499999999999999
 40
0.7499999999999999
 40
0.8749999999999999
 40
0.8749999999999999
 40
0.997805784309191
 40
0.997805784309191
 40
0.997805784309191
 40
0.997805784309191
 10
119.1608394197871
 20
209.1398611359803
 30
0.0
 10
119.2921243526371
 20
209.1557883743392
 30
0.0
 10
119.4198644314452
 20
209.1707881069957
 30
0.0
 10
119.6791699313555
 20
209.1956230688883
 30
0.0
 10
119.8095833887311
 20
209.2071059361613
 30
0.0
 10
120.0664541708002
 20
209.2229306887607
 30
0.0
 10
120.194291560914
 20
209.2270487998432
 30
0.0
 10
120.3843573239164
 20
209.2250447302017
 30
0.0
 10
120.4474895855206
 20
209.2230395284379
 30
0.0
 10
120.5695409454617
 20
209.2149514122893
 30
0.0
 10
120.6281024129899
 20
209.2082409590632
 30
0.0
 10
120.6930054301435
 20
209.2004007091829
 30
0.0
  0
SPLINE
  5
1C2
330
1F
100
AcDbEntity
  8
0
  6
Continuous
 62
     7
370
    25
100
AcDbSpline
210
0.0
220
0.0
230
1.0
 70
     8
 71
     3
 72
    32
 73
    28
 74
     0
 42
0.00000001
 43
0.00000001
 40
0.0013331222706969
 40
0.0013331222706969
 40
0.0013331222706969
 40
0.0013331222706969
 40
0.125
 40
0.125
 40
0.1875
 40
0.1875
 40
0.25
 40
0.25
 40
0.3125
 40
0.3125
 40
0.375
 40
0.375
 40
0.4375
 40
0.4375
 40
0.5
 40
0.5
 40
0.625
 40
0.625
 40
0.75
 40
0.75
 40
0.8125
 40
0.8125
 40
0.875
 40
0.875
 40
0.9375
 40
0.9375
 40
0.9981605191570379
 40
0.9981605191570379
 40
0.9981605191570379
 40
0.9981605191570379
 10
120.6930054301435
 20
209.2004007091829
 30
0.0
 10
120.8003202025443
 20
209.1830098249202
 30
0.0
 10
120.9018960611831
 20
209.16600255609
 30
0.0
 10
121.0439575721138
 20
209.1279820319031
 30
0.0
 10
121.0910289257703
 20
209.1126363018682
 30
0.0
 10
121.1887795076328
 20
209.077622040646
 30
0.0
 10
121.2376732027317
 20
209.0589538991907
 30
0.0
 10
121.3285101125701
 20
209.0195088512735
 30
0.0
 10
121.3722658869052
 20
208.9976105950319
 30
0.0
 10
121.4627612385349
 20
208.9485140355152
 30
0.0
 10
121.5077024684026
 20
208.9227010732644
 30
0.0
 10
121.5893275711962
 20
208.8699623913444
 30
0.0
 10
121.6281641331883
 20
208.8412528363441
 30
0.0
 10
121.7087072883395
 20
208.7773695681198
 30
0.0
 10
121.7485802025768
 20
208.7440330151115
 30
0.0
 10
121.8590641802517
 20
208.6432819760313
 30
0.0
 10
121.925591438417
 20
208.5697869303388
 30
0.0
 10
122.0467223044097
 20
208.4102342406899
 30
0.0
 10
122.0981112931898
 20
208.3275418290593
 30
0.0
 10
122.1659277257494
 20
208.1921503287583
 30
0.0
 10
122.1863130639038
 20
208.1470433859676
 30
0.0
 10
122.2210449714418
 20
208.0568059174925
 30
0.0
 10
122.2364924198741
 20
208.0088267793234
 30
0.0
 10
122.2654536282082
 20
207.9093583272492
 30
0.0
 10
122.2780035358414
 20
207.8609899682298
 30
0.0
 10
122.2970074878342
 20
207.7668223902504
 30
0.0
 10
122.3044517941064
 20
207.7170403429801
 30
0.0
 10
122.3121794618366
 20
207.6643036810422
 30
0.0
  0
SPLINE
  5
1C3
330
1F
100
AcDbEntity
  8
0
  6
Continuous
 62
     7
370
    25
100
AcDbSpline
210
0.0
220
0.0
230
1.0
 70
     8
 71
     3
 72
    23
 73
    19
 74
     0
 42
0.00000001
 43
0.00000001
 40
0.0027311958398661
 40
0.0027311958398661
 40
0.0027311958398661
 40
0.0027311958398661
 40
0.125
 40
0.125
 40
0.25
 40
0.25
 40
0.5
 40
0.5
 40
0.625
 40
0.625
 40
0.75
 40
0.75
 40
0.875
 40
0.875
 40
1.0
 40
1.0
 40
1.0
 40
1.156490764415945
 40
1.156490764415945
 40
1.156490764415945
 40
1.156490764415945
 10
122.3121794618366
 20
207.6643036810422
 30
0.0
 10
122.3186705572204
 20
207.5921783549244
 30
0.0
 10
122.3245881509925
 20
207.524075375795
 30
0.0
 10
122.3274875819933
 20
207.392994097848
 30
0.0
 10
122.3245273765958
 20
207.3265153923105
 30
0.0
 10
122.3023931357033
 20
207.1287701571931
 30
0.0
 10
122.2702281573277
 20
206.9981496647589
 30
0.0
 10
122.1969324925125
 20
206.8144947175645
 30
0.0
 10
122.1684679793265
 20
206.7557501574724
 30
0.0
 10
122.1022246757177
 20
206.6406114529157
 30
0.0
 10
122.0640644231788
 20
206.5830049085112
 30
0.0
 10
121.9834708724283
 20
206.4716012621826
 30
0.0
 10
121.9416270832052
 20
206.4191941735547
 30
0.0
 10
121.8505399901204
 20
206.3176199729869
 30
0.0
 10
121.8004466183182
 20
206.2669656525354
 30
0.0
 10
121.7482540156633
 20
206.2142962547501
 30
0.0
 10
121.6829127333726
 20
206.1483580601841
 30
0.0
 10
121.617571451082
 20
206.0824198656182
 30
0.0
 10
121.5522301687913
 20
206.0164816710522
 30
0.0
  0
SPLINE
  5
1C4
330
1F
100
AcDbEntity
  8
0
  6
Continuous
 62
     7
370
    25
100
AcDbSpline
210
0.0
220
0.0
230
1.0
 70
     8
 71
     3
 72
    33
 73
    29
 74
     0
 42
0.00000001
 43
0.00000001
 40
-0.1058105665936282
 40
-0.1058105665936282
 40
-0.1058105665936282
 40
-0.1058105665936282
 40
0.0
 40
0.0
 40
0.0
 40
0.125
 40
0.125
 40
0.1875
 40
0.1875
 40
0.25
 40
0.25
 40
0.3125
 40
0.3125
 40
0.375
 40
0.375
 40
0.5
 40
0.5
 40
0.625
 40
0.625
 40
0.6875
 40
0.6875
 40
0.75
 40
0.75
 40
0.875
 40
0.875
 40
0.9375
 40
0.9375
 40
0.9985463413406106
 40
0.9985463413406106
 40
0.9985463413406106
 40
0.9985463413406106
 10
121.5522301687912
 20
206.0164816710521
 30
0.0
 10
121.6399903276045
 20
205.9862246925774
 30
0.0
 10
121.7277504864178
 20
205.9559677141026
 30
0.0
 10
121.8155106452311
 20
205.9257107356279
 30
0.0
 10
121.9191866787768
 20
205.889966457612
 30
0.0
 10
122.0161178473809
 20
205.8557491210068
 30
0.0
 10
122.1575723011666
 20
205.7949968591667
 30
0.0
 10
122.2038976803457
 20
205.7734454905884
 30
0.0
 10
122.2959430610168
 20
205.7274449576644
 30
0.0
 10
122.3416867290063
 20
205.7031074204591
 30
0.0
 10
122.4299596926775
 20
205.652582547553
 30
0.0
 10
122.4725144118016
 20
205.6262242366424
 30
0.0
 10
122.5563417893686
 20
205.5698894034221
 30
0.0
 10
122.5975922422001
 20
205.5400756132383
 30
0.0
 10
122.71612141587
 20
205.44750483784
 30
0.0
 10
122.789040483517
 20
205.3801824418457
 30
0.0
 10
122.9222737005606
 20
205.233596957074
 30
0.0
 10
122.9831492683712
 20
205.1536404946277
 30
0.0
 10
123.0617466940675
 20
205.029061983739
 30
0.0
 10
123.0859646293498
 20
204.9860110647534
 30
0.0
 10
123.133175397507
 20
204.8954148510301
 30
0.0
 10
123.155239762097
 20
204.8499699196936
 30
0.0
 10
123.2121863701056
 20
204.7157884368173
 30
0.0
 10
123.2424129995216
 20
204.618413972503
 30
0.0
 10
123.2819192546256
 20
204.4678729815232
 30
0.0
 10
123.2934157272798
 20
204.4191645935709
 30
0.0
 10
123.3109743235075
 20
204.3238353631401
 30
0.0
 10
123.3178659011212
 20
204.273697113501
 30
0.0
 10
123.3250030453041
 20
204.2208968332391
 30
0.0
  0
SPLINE
  5
1C5
330
1F
100
AcDbEntity
  8
0
  6
Continuous
 62
     7
370
    25
100
AcDbSpline
210
0.0
220
0.0
230
1.0
 70
     8
 71
     3
 72
    32
 73
    28
 74
     0
 42
0.00000001
 43
0.00000001
 40
0.0009462360664815
 40
0.0009462360664815
 40
0.0009462360664815
 40
0.0009462360664815
 40
0.0625
 40
0.0625
 40
0.125
 40
0.125
 40
0.1875
 40
0.1875
 40
0.25
 40
0.25
 40
0.375
 40
0.375
 40
0.5
 40
0.5
 40
0.625
 40
0.625
 40
0.6875
 40
0.6875
 40
0.71875
 40
0.71875
 40
0.75
 40
0.75
 40
0.875
 40
0.875
 40
0.9375
 40
0.9375
 40
0.9997770735793237
 40
0.9997770735793237
 40
0.9997770735793237
 40
0.9997770735793237
 10
123.3250030453041
 20
204.2208968332391
 30
0.0
 10
123.3324862651909
 20
204.1385927409749
 30
0.0
 10
123.3395462793104
 20
204.0593494947161
 30
0.0
 10
123.3451050150522
 20
203.9057892333806
 30
0.0
 10
123.3428975575226
 20
203.8311284186727
 30
0.0
 10
123.3287021176156
 20
203.677521235684
 30
0.0
 10
123.3171168115498
 20
203.5995857630629
 30
0.0
 10
123.2865561181079
 20
203.4473551169946
 30
0.0
 10
123.2673573958041
 20
203.3731168142187
 30
0.0
 10
123.1956734316363
 20
203.1541868416694
 30
0.0
 10
123.1296677737651
 20
203.0104433098855
 30
0.0
 10
122.9726342743102
 20
202.7421967002514
 30
0.0
 10
122.8797815968911
 20
202.616641043576
 30
0.0
 10
122.6694325389036
 20
202.3909461898847
 30
0.0
 10
122.5521719370258
 20
202.2917473859369
 30
0.0
 10
122.3590155959427
 20
202.1684769115189
 30
0.0
 10
122.2896908601029
 20
202.1295467491534
 30
0.0
 10
122.1867365189026
 20
202.0788809303752
 30
0.0
 10
122.1523755699288
 20
202.0634201493681
 30
0.0
 10
122.0807579490519
 20
202.0336569779439
 30
0.0
 10
122.043694476355
 20
202.019381141974
 30
0.0
 10
121.8567165744098
 20
201.9509355553337
 30
0.0
 10
121.7033686192
 20
201.9074411225482
 30
0.0
 10
121.4672336128241
 20
201.8557745939339
 30
0.0
 10
121.3876786593815
 20
201.8406180332967
 30
0.0
 10
121.2283473597253
 20
201.8144242330218
 30
0.0
 10
121.1475191674431
 20
201.8033713485236
 30
0.0
 10
121.0645826500467
 20
201.7920679575975
 30
0.0
  0
LINE
  5
1C6
330
1F
100
AcDbEntity
  8
0
  6
Continuous
 62
     7
370
    25
100
AcDbLine
 10
121.06458265
 20
201.7920679576
 30
0.0
 11
119.0503204223
 21
201.5386042709
 31
0.0
  0
LINE
  5
1C7
330
1F
100
AcDbEntity
  8
0
  6
Continuous
 62
     7
370
    25
100
AcDbLine
 10
121.0873206571
 20
201.6185719736
 30
0.0
 11
118.898625203
 21
201.3431585686
 31
0.0
  0
LWPOLYLINE
  5
1C8
330
1F
100
AcDbEntity
  8
0
  6
Continuous
 62
     7
370
    25
100
AcDbPolyline
 90
        3
 70
   128
 43
0.0
 10
123.3250030453
 20
204.2208968332
 10
123.40115234
 20
204.2295008994
 10
123.4989155205
 20
204.240545853
  0
SPLINE
  5
1C9
330
1F
100
AcDbEntity
  8
0
  6
Continuous
 62
     7
370
    25
100
AcDbSpline
210
0.0
220
0.0
230
1.0
 70
     8
 71
     3
 72
    32
 73
    28
 74
     0
 42
0.00000001
 43
0.00000001
 40
0.0
 40
0.0
 40
0.0
 40
0.0
 40
0.0625
 40
0.0625
 40
0.125
 40
0.125
 40
0.1875
 40
0.1875
 40
0.25
 40
0.25
 40
0.375
 40
0.375
 40
0.5
 40
0.5
 40
0.625
 40
0.625
 40
0.6875
 40
0.6875
 40
0.71875
 40
0.71875
 40
0.75
 40
0.75
 40
0.875
 40
0.875
 40
0.9375
 40
0.9375
 40
1.0
 40
1.0
 40
1.0
 40
1.0
 10
123.4989155204718
 20
204.2405458529657
 30
0.0
 10
123.5065258367362
 20
204.1568834072865
 30
0.0
 10
123.514136081929
 20
204.0732209506175
 30
0.0
 10
123.5201984033415
 20
203.9057488968948
 30
0.0
 10
123.5177618226267
 20
203.821837023292
 30
0.0
 10
123.5023076443015
 20
203.6546091508593
 30
0.0
 10
123.4899135948054
 20
203.5713338190624
 30
0.0
 10
123.4568683629334
 20
203.4067270582603
 30
0.0
 10
123.4358555319532
 20
203.3254116181807
 30
0.0
 10
123.3575479877846
 20
203.0862525633024
 30
0.0
 10
123.2869261829982
 20
202.932725490024
 30
0.0
 10
123.1173863527177
 20
202.6431154101531
 30
0.0
 10
123.0170431372568
 20
202.507275838744
 30
0.0
 10
122.7881765757875
 20
202.2617125591272
 30
0.0
 10
122.6589317533389
 20
202.1523064031049
 30
0.0
 10
122.4468347309187
 20
202.0169481624217
 30
0.0
 10
122.3735623523695
 20
201.9758037093192
 30
0.0
 10
122.2606921315262
 20
201.9202580996707
 30
0.0
 10
122.2224426269978
 20
201.9030529111688
 30
0.0
 10
122.1449907241718
 20
201.8708650989864
 30
0.0
 10
122.105829267697
 20
201.8557938459659
 30
0.0
 10
121.9089235677814
 20
201.7837140652602
 30
0.0
 10
121.7472000486719
 20
201.737914697705
 30
0.0
 10
121.501418480708
 20
201.6841374927072
 30
0.0
 10
121.4190014192547
 20
201.6684413403157
 30
0.0
 10
121.2535098589027
 20
201.6412348033729
 30
0.0
 10
121.1704154715899
 20
201.629896702353
 30
0.0
 10
121.0873206571051
 20
201.618571973605
 30
0.0
  0
LINE
  5
1CA
330
1F
100
AcDbEntity
  8
0
  6
Continuous
 62
     7
370
    25
100
AcDbLine
 10
120.0551147961
 20
202.7537069934
 30
0.0
 11
120.2067436073
 21
202.9495406289
 31
0.0
  0
LINE
  5
1CB
330
1F
100
AcDbEntity
  8
0
  6
Continuous
 62
     7
370
    25
100
AcDbLine
 10
120.2067436073
 20
202.9495406289
 30
0.0
 11
120.5793258171
 21
202.997274506
 31
0.0
  0
LINE
  5
1CC
330
1F
100
AcDbEntity
  8
0
  6
Continuous
 62
     7
370
    25
100
AcDbLine
 10
119.9537127068
 20
204.9525147989
 30
0.0
 11
120.2067436073
 21
202.9495406289
 31
0.0
  0
SPLINE
  5
1CD
330
1F
100
AcDbEntity
  8
0
  6
Continuous
 62
     7
370
    25
100
AcDbSpline
210
0.0
220
0.0
230
1.0
 70
     8
 71
     3
 72
    28
 73
    24
 74
     0
 42
0.00000001
 43
0.00000001
 40
0.0
 40
0.0
 40
0.0
 40
0.0
 40
0.125
 40
0.125
 40
0.25
 40
0.25
 40
0.375
 40
0.375
 40
0.4375
 40
0.4375
 40
0.5
 40
0.5
 40
0.5625
 40
0.5625
 40
0.625
 40
0.625
 40
0.75
 40
0.75
 40
0.875
 40
0.875
 40
0.9375
 40
0.9375
 40
1.0
 40
1.0
 40
1.0
 40
1.0
 10
120.5793258171118
 20
202.9972745059857
 30
0.0
 10
120.665349172164
 20
203.0084419763951
 30
0.0
 10
120.7513630415728
 20
203.0196847397104
 30
0.0
 10
120.9224198610147
 20
203.0484057936728
 30
0.0
 10
121.007601483328
 20
203.0650791219298
 30
0.0
 10
121.176819249213
 20
203.1032826681959
 30
0.0
 10
121.260626593167
 20
203.1259981159988
 30
0.0
 10
121.3843365383976
 20
203.1662960398037
 30
0.0
 10
121.4252516958177
 20
203.180686428869
 30
0.0
 10
121.5062718491772
 20
203.2117178078485
 30
0.0
 10
121.5464714405401
 20
203.2282028800826
 30
0.0
 10
121.6245987190933
 20
203.2658928898415
 30
0.0
 10
121.6624707310719
 20
203.2873274239369
 30
0.0
 10
121.7345482728033
 20
203.3356755188327
 30
0.0
 10
121.768765261196
 20
203.3625254116572
 30
0.0
 10
121.8640627334688
 20
203.4514369376021
 30
0.0
 10
121.9175240722569
 20
203.5218292699754
 30
0.0
 10
121.9960717329369
 20
203.6769081969144
 30
0.0
 10
122.0221100162767
 20
203.7615088428066
 30
0.0
 10
122.0388792644509
 20
203.8907177838073
 30
0.0
 10
122.0403040750899
 20
203.9340516554428
 30
0.0
 10
122.0379360616994
 20
204.0207197051594
 30
0.0
 10
122.0343729461595
 20
204.0641115001513
 30
0.0
 10
122.0308096937931
 20
204.1075032714255
 30
0.0
  0
LINE
  5
1CE
330
1F
100
AcDbEntity
  8
0
  6
Continuous
 62
     7
370
    25
100
AcDbLine
 10
121.5522301688
 20
206.0164816711
 30
0.0
 11
121.8725430429
 21
206.0911325316
 31
0.0
  0
SPLINE
  5
1CF
330
1F
100
AcDbEntity
  8
0
  6
Continuous
 62
     7
370
    25
100
AcDbSpline
210
0.0
220
0.0
230
1.0
 70
     8
 71
     3
 72
    30
 73
    26
 74
     0
 42
0.00000001
 43
0.00000001
 40
0.0
 40
0.0
 40
0.0
 40
0.0
 40
0.125
 40
0.125
 40
0.1875
 40
0.1875
 40
0.25
 40
0.25
 40
0.3125
 40
0.3125
 40
0.375
 40
0.375
 40
0.5
 40
0.5
 40
0.625
 40
0.625
 40
0.6875
 40
0.6875
 40
0.75
 40
0.75
 40
0.875
 40
0.875
 40
0.9375
 40
0.9375
 40
1.0
 40
1.0
 40
1.0
 40
1.0
 10
121.8725430429067
 20
206.0911325316447
 30
0.0
 10
121.9758348773842
 20
206.0555207135767
 30
0.0
 10
122.0790365629124
 20
206.0191591506835
 30
0.0
 10
122.2296890157302
 20
205.9544565047794
 30
0.0
 10
122.2792552932723
 20
205.9313965895062
 30
0.0
 10
122.3770296523116
 20
205.8825329471906
 30
0.0
 10
122.4253121887799
 20
205.8568548293683
 30
0.0
 10
122.5201760321293
 20
205.8025575263111
 30
0.0
 10
122.5666629105739
 20
205.7737722196395
 30
0.0
 10
122.6573911464678
 20
205.7127997771501
 30
0.0
 10
122.7017295465401
 20
205.6807630137343
 30
0.0
 10
122.8309526820065
 20
205.5798402959636
 30
0.0
 10
122.9116166750441
 20
205.505472628927
 30
0.0
 10
123.0586661150214
 20
205.3436862955274
 30
0.0
 10
123.1252126819213
 20
205.2563939126883
 30
0.0
 10
123.2126943988792
 20
205.1177336129398
 30
0.0
 10
123.2394776555704
 20
205.0700569107723
 30
0.0
 10
123.2900066892839
 20
204.9730930422317
 30
0.0
 10
123.3139462241552
 20
204.9239022086166
 30
0.0
 10
123.377988853504
 20
204.7730005635942
 30
0.0
 10
123.4102429677645
 20
204.66822671194
 30
0.0
 10
123.4518739378252
 20
204.5095893423395
 30
0.0
 10
123.4644863605016
 20
204.4563548443886
 30
0.0
 10
123.4842756555299
 20
204.3489147729664
 30
0.0
 10
123.4915956363448
 20
204.2947303176863
 30
0.0
 10
123.4989155204724
 20
204.2405458529657
 30
0.0
  0
LWPOLYLINE
  5
1D0
330
1F
100
AcDbEntity
  8
0
  6
Continuous
 62
     7
370
    25
100
AcDbPolyline
 90
        4
 70
   128
 43
0.0
 10
122.3121794618
 20
207.664303681
 10
122.3735014204
 20
207.6715501283
 10
122.4297582496
 20
207.6781975954
 10
122.4860150518
 20
207.6848448499
  0
SPLINE
  5
1D1
330
1F
100
AcDbEntity
  8
0
  6
Continuous
 62
     7
370
    25
100
AcDbSpline
210
0.0
220
0.0
230
1.0
 70
     8
 71
     3
 72
    20
 73
    16
 74
     0
 42
0.00000001
 43
0.00000001
 40
0.0
 40
0.0
 40
0.0
 40
0.0
 40
0.125
 40
0.125
 40
0.25
 40
0.25
 40
0.5
 40
0.5
 40
0.625
 40
0.625
 40
0.75
 40
0.75
 40
0.875
 40
0.875
 40
1.0
 40
1.0
 40
1.0
 40
1.0
 10
122.4860150518239
 20
207.6848448499015
 30
0.0
 10
122.492667241922
 20
207.6110142248551
 30
0.0
 10
122.4993183412554
 20
207.5371832098604
 30
0.0
 10
122.5025944414167
 20
207.3890729876675
 30
0.0
 10
122.4992870315655
 20
207.3148083371126
 30
0.0
 10
122.4745479452504
 20
207.0937916490723
 30
0.0
 10
122.4388427004614
 20
206.9485799045401
 30
0.0
 10
122.3563948239668
 20
206.7419925129571
 30
0.0
 10
122.3239593935331
 20
206.6751381453175
 30
0.0
 10
122.2500672351008
 20
206.5467048116412
 30
0.0
 10
122.2089987333503
 20
206.484819980416
 30
0.0
 10
122.1220739346459
 20
206.3646647180054
 30
0.0
 10
122.0757817667657
 20
206.3067066327733
 30
0.0
 10
121.9769245580062
 20
206.1964677089738
 30
0.0
 10
121.9247338256976
 20
206.1438000928863
 30
0.0
 10
121.8725430429067
 20
206.0911325316453
 30
0.0
  0
LINE
  5
1D2
330
1F
100
AcDbEntity
  8
0
  6
Continuous
 62
     7
370
    25
100
AcDbLine
 10
119.3826602538
 20
208.078867181
 30
0.0
 11
119.5781242185
 21
207.927354505
 31
0.0
  0
LINE
  5
1D3
330
1F
100
AcDbEntity
  8
0
  6
Continuous
 62
     7
370
    25
100
AcDbLine
 10
119.5781242185
 20
207.927354505
 30
0.0
 11
119.7857150245
 21
206.2807535345
 31
0.0
  0
LINE
  5
1D4
330
1F
100
AcDbEntity
  8
0
  6
Continuous
 62
     7
370
    25
100
AcDbLine
 10
119.9414435562
 20
208.1499815042
 30
0.0
 11
119.9613224949
 21
207.9761227592
 31
0.0
  0
SPLINE
  5
1D5
330
1F
100
AcDbEntity
  8
0
  6
Continuous
 62
     7
370
    25
100
AcDbSpline
210
0.0
220
0.0
230
1.0
 70
     8
 71
     3
 72
    24
 73
    20
 74
     0
 42
0.00000001
 43
0.00000001
 40
0.0
 40
0.0
 40
0.0
 40
0.0
 40
0.125
 40
0.125
 40
0.25
 40
0.25
 40
0.3125
 40
0.3125
 40
0.375
 40
0.375
 40
0.5
 40
0.5
 40
0.625
 40
0.625
 40
0.75
 40
0.75
 40
0.875
 40
0.875
 40
1.0
 40
1.0
 40
1.0
 40
1.0
 10
121.0718386350269
 20
207.3062825650318
 30
0.0
 10
121.0615712186398
 20
207.3669413011287
 30
0.0
 10
121.0512867520483
 20
207.427599585074
 30
0.0
 10
121.0129959739224
 20
207.5438235527814
 30
0.0
 10
120.985484763678
 20
207.5994777546172
 30
0.0
 10
120.9357854723084
 20
207.6772196967378
 30
0.0
 10
120.9177032909465
 20
207.7021185672505
 30
0.0
 10
120.8782416201736
 20
207.7490382192737
 30
0.0
 10
120.8567809373483
 20
207.7709850766666
 30
0.0
 10
120.7878829824606
 20
207.8319922213365
 30
0.0
 10
120.736407857601
 20
207.8667190928649
 30
0.0
 10
120.6275771399024
 20
207.9237076752661
 30
0.0
 10
120.5697404878099
 20
207.9448802388921
 30
0.0
 10
120.4504598602259
 20
207.9738457743643
 30
0.0
 10
120.3893541831534
 20
207.9828016621557
 30
0.0
 10
120.26710198088
 20
207.9934036499088
 30
0.0
 10
120.2057711846878
 20
207.9943152990767
 30
0.0
 10
120.0834603765911
 20
207.9885136025704
 30
0.0
 10
120.0223914278391
 20
207.9823182287021
 30
0.0
 10
119.961322494916
 20
207.9761227591951
 30
0.0
  0
LWPOLYLINE
  5
1D6
330
1F
100
AcDbEntity
  8
0
  6
Continuous
 62
     7
370
    25
100
AcDbPolyline
 90
        4
 70
   128
 43
0.0
 10
120.6930054301
 20
209.2004007092
 10
120.7024480773
 20
209.2671881532
 10
120.7099771388
 20
209.3204391442
 10
120.7175069294
 20
209.373689987
  0
SPLINE
  5
1D7
330
1F
100
AcDbEntity
  8
0
  6
Continuous
 62
     7
370
    25
100
AcDbSpline
210
0.0
220
0.0
230
1.0
 70
     8
 71
     3
 72
    32
 73
    28
 74
     0
 42
0.00000001
 43
0.00000001
 40
0.0
 40
0.0
 40
0.0
 40
0.0
 40
0.125
 40
0.125
 40
0.1875
 40
0.1875
 40
0.25
 40
0.25
 40
0.3125
 40
0.3125
 40
0.375
 40
0.375
 40
0.4375
 40
0.4375
 40
0.5
 40
0.5
 40
0.625
 40
0.625
 40
0.75
 40
0.75
 40
0.8125
 40
0.8125
 40
0.875
 40
0.875
 40
0.9375
 40
0.9375
 40
1.0
 40
1.0
 40
1.0
 40
1.0
 10
120.7175069294266
 20
209.3736899870124
 30
0.0
 10
120.8260512496692
 20
209.3561107087975
 30
0.0
 10
120.9351417082162
 20
209.3382404930792
 30
0.0
 10
121.0946827398727
 20
209.2955418397965
 30
0.0
 10
121.1470454335359
 20
209.2784352659354
 30
0.0
 10
121.2507744304312
 20
209.241279541358
 30
0.0
 10
121.302298824454
 20
209.2216534319174
 30
0.0
 10
121.403274039603
 20
209.1778059129624
 30
0.0
 10
121.4525273934309
 20
209.1531362966145
 30
0.0
 10
121.5493829137342
 20
209.1005891525043
 30
0.0
 10
121.5972426135881
 20
209.0731711352818
 30
0.0
 10
121.6897037257133
 20
209.013431198883
 30
0.0
 10
121.7340015460122
 20
208.98064142251
 30
0.0
 10
121.8203387538034
 20
208.9121625767134
 30
0.0
 10
121.8626321200367
 20
208.8768350139762
 30
0.0
 10
121.9846652064375
 20
208.7655522569924
 30
0.0
 10
122.0589161988728
 20
208.6835469717819
 30
0.0
 10
122.1921268921912
 20
208.5080828246851
 30
0.0
 10
122.250424634933
 20
208.4141615188726
 30
0.0
 10
122.324444057904
 20
208.2663861254575
 30
0.0
 10
122.3472056826411
 20
208.2161484394643
 30
0.0
 10
122.3867504705907
 20
208.1134065890914
 30
0.0
 10
122.4035699012448
 20
208.0609141791892
 30
0.0
 10
122.434378334165
 20
207.95510134208
 30
0.0
 10
122.4482812887221
 20
207.9017569320601
 30
0.0
 10
122.4700524577514
 20
207.7938774516223
 30
0.0
 10
122.4780338086204
 20
207.7393611563274
 30
0.0
 10
122.486015051824
 20
207.6848448499015
 30
0.0
  0
LINE
  5
1D8
330
1F
100
AcDbEntity
  8
0
  6
Continuous
 62
     7
370
    25
100
AcDbLine
 10
119.9613224949
 20
207.9761227592
 30
0.0
 11
119.5781242185
 21
207.927354505
 31
0.0
  0
SPLINE
  5
1D9
330
1F
100
AcDbEntity
  8
0
  6
Continuous
 62
     7
370
    25
100
AcDbSpline
210
0.0
220
0.0
230
1.0
 70
     8
 71
     3
 72
    16
 73
    12
 74
     0
 42
0.00000001
 43
0.00000001
 40
0.0
 40
0.0
 40
0.0
 40
0.0
 40
0.25
 40
0.25
 40
0.4999999999999999
 40
0.4999999999999999
 40
0.7499999999999999
 40
0.7499999999999999
 40
0.8749999999999999
 40
0.8749999999999999
 40
0.9999999999999999
 40
0.9999999999999999
 40
0.9999999999999999
 40
0.9999999999999999
 10
119.1394187220029
 20
209.3135227053514
 30
0.0
 10
119.2704016749673
 20
209.3294141786993
 30
0.0
 10
119.4014399335451
 20
209.3448015162629
 30
0.0
 10
119.6641163328922
 20
209.3699593260243
 30
0.0
 10
119.7955673816194
 20
209.3815515249285
 30
0.0
 10
120.0589516924248
 20
209.3977775486826
 30
0.0
 10
120.1909132911344
 20
209.402071474904
 30
0.0
 10
120.388813752771
 20
209.3999847944471
 30
0.0
 10
120.4547950108394
 20
209.397916522849
 30
0.0
 10
120.5864562674233
 20
209.389191573402
 30
0.0
 10
120.6520044551223
 20
209.3816148977495
 30
0.0
 10
120.7175069294267
 20
209.3736899870126
 30
0.0
  0
LINE
  5
1DA
330
1F
100
AcDbEntity
  8
0
  6
Continuous
 62
     7
370
    25
100
AcDbLine
 10
117.9119727375
 20
209.1596325111
 30
0.0
 11
119.139418722
 21
209.3135227054
 31
0.0
  0
LINE
  5
1DB
330
1F
100
AcDbEntity
  8
0
  6
Continuous
 62
     7
370
    25
100
AcDbLine
 10
126.9212477228
 20
202.3594680573
 30
0.0
 11
126.7582314393
 21
202.173290444
 31
0.0
  0
LINE
  5
1DC
330
1F
100
AcDbEntity
  8
0
  6
Continuous
 62
     7
370
    25
100
AcDbLine
 10
130.869591273
 20
202.6214276596
 30
0.0
 11
126.9212477228
 21
202.3594680573
 31
0.0
  0
LINE
  5
1DD
330
1F
100
AcDbEntity
  8
0
  6
Continuous
 62
     7
370
    25
100
AcDbLine
 10
130.869591273
 20
202.6214276596
 30
0.0
 11
131.0557711647
 21
202.4584180635
 31
0.0
  0
LINE
  5
1DE
330
1F
100
AcDbEntity
  8
0
  6
Continuous
 62
     7
370
    25
100
AcDbLine
 10
131.0557711647
 20
202.4584180635
 30
0.0
 11
126.7582314393
 21
202.173290444
 31
0.0
  0
ARC
  5
1DF
330
1F
100
AcDbEntity
  8
0
  6
Continuous
 62
     7
370
    25
100
AcDbCircle
 10
144.1340667226
 20
4.4618525286
 30
0.0
 40
209.5
100
AcDbArc
 50
72.5522570284
 51
107.9477429716
  0
ARC
  5
1E0
330
1F
100
AcDbEntity
  8
0
  6
Continuous
 62
     7
370
    25
100
AcDbCircle
 10
80.1930562581
 20
201.8644796154
 30
0.0
 40
1.999999999999983
100
AcDbArc
 50
107.9477429716
 51
198.5
  0
LINE
  5
1E1
330
1F
100
AcDbEntity
  8
0
  6
Continuous
 62
     7
370
    25
100
AcDbLine
 10
78.2964089477
 20
201.2298703026
 30
0.0
 11
78.6240672384
 21
200.2506028961
 31
0.0
  0
ARC
  5
1E2
330
1F
100
AcDbEntity
  8
0
  6
Continuous
 62
     7
370
    25
100
AcDbCircle
 10
78.1499054108
 20
200.0919505679
 30
0.0
 40
0.5000000000000082
100
AcDbArc
 50
237.0578370434
 51
18.5
  0
ARC
  5
1E3
330
1F
100
AcDbEntity
  8
0
  6
Continuous
 62
     7
370
    25
100
AcDbCircle
 10
74.6152563428
 20
194.6370210573
 30
0.0
 40
6.000000000000059
100
AcDbArc
 50
57.0578370434
 51
155.3130614604
  0
ARC
  5
1E4
330
1F
100
AcDbEntity
  8
0
  6
Continuous
 62
     7
370
    25
100
AcDbCircle
 10
68.709334157
 20
197.3518107611
 30
0.0
 40
0.5000000000000121
100
AcDbArc
 50
201.5
 51
335.3130614604
  0
LINE
  5
1E5
330
1F
100
AcDbEntity
  8
0
  6
Continuous
 62
     7
370
    25
100
AcDbLine
 10
67.1915522305
 20
199.840672741
 30
0.0
 11
68.244125373
 21
197.1685601478
 31
0.0
  0
ARC
  5
1E6
330
1F
100
AcDbEntity
  8
0
  6
Continuous
 62
     7
370
    25
100
AcDbCircle
 10
69.0523873665
 20
200.5736751945
 30
0.0
 40
2.000000000000025
100
AcDbArc
 50
110.9515047787
 51
201.5
  0
ARC
  5
1E7
330
1F
100
AcDbEntity
  8
0
  6
Continuous
 62
     7
370
    25
100
AcDbCircle
 10
144.1436912631
 20
4.4581580137
 30
0.0
 40
212.0
100
AcDbArc
 50
69.5484952213
 51
110.9515047787
  0
ARC
  5
1E8
330
1F
100
AcDbEntity
  8
0
  6
Continuous
 62
     7
370
    25
100
AcDbCircle
 10
217.5207268904
 20
201.2214946456
 30
0.0
 40
2.000000000000033
100
AcDbArc
 50
339.0
 51
69.5484952213
  0
LINE
  5
1E9
330
1F
100
AcDbEntity
  8
0
  6
Continuous
 62
     7
370
    25
100
AcDbLine
 10
218.3586729651
 20
197.8235625822
 30
0.0
 11
219.3878877434
 21
200.5047587465
 31
0.0
  0
ARC
  5
1EA
330
1F
100
AcDbEntity
  8
0
  6
Continuous
 62
     7
370
    25
100
AcDbCircle
 10
217.8918827518
 20
198.002746557
 30
0.0
 40
0.5000000000000058
100
AcDbArc
 50
205.1869385396
 51
339.0
  0
ARC
  5
1EB
330
1F
100
AcDbEntity
  8
0
  6
Continuous
 62
     7
370
    25
100
AcDbCircle
 10
212.0098761542
 20
195.2365219844
 30
0.0
 40
6.000000000000019
100
AcDbArc
 50
25.1869385396
 51
123.7009883559
  0
ARC
  5
1EC
330
1F
100
AcDbEntity
  8
0
  6
Continuous
 62
     7
370
    25
100
AcDbCircle
 10
208.4032940931
 20
200.6441615653
 30
0.0
 40
0.5000000000000194
100
AcDbArc
 50
162.0
 51
303.7009883559
  0
LINE
  5
1ED
330
1F
100
AcDbEntity
  8
0
  6
Continuous
 62
     7
370
    25
100
AcDbLine
 10
207.927765835
 20
200.7986700625
 30
0.0
 11
208.2521145091
 21
201.7969126371
 31
0.0
  0
ARC
  5
1EE
330
1F
100
AcDbEntity
  8
0
  6
Continuous
 62
     7
370
    25
100
AcDbCircle
 10
206.3500014765
 20
202.4149466259
 30
0.0
 40
2.000000000000033
100
AcDbArc
 50
342.0
 51
72.5522570284
  0
ARC
  5
1EF
330
1F
100
AcDbEntity
  8
0
  6
Continuous
 62
     7
370
    25
100
AcDbCircle
 10
72.1474204167
 20
188.623720313
 30
0.0
 40
0.500000000000009
100
AcDbArc
 50
67.6869385396
 51
201.5
  0
ARC
  5
1F0
330
1F
100
AcDbEntity
  8
0
  6
Continuous
 62
     7
370
    25
100
AcDbCircle
 10
74.6152563428
 20
194.6370210573
 30
0.0
 40
6.000000000000005
100
AcDbArc
 50
247.6869385396
 51
339.9421629566
  0
ARC
  5
1F1
330
1F
100
AcDbEntity
  8
0
  6
Continuous
 62
     7
370
    25
100
AcDbCircle
 10
80.7210111338
 20
192.4077255561
 30
0.0
 40
0.5000000000000239
100
AcDbArc
 50
18.5
 51
159.9421629566
  0
ARC
  5
1F2
330
1F
100
AcDbEntity
  8
0
  6
Continuous
 62
     7
370
    25
100
AcDbCircle
 10
83.3662576871
 20
192.3807802209
 30
0.0
 40
1.999999999999983
100
AcDbArc
 50
198.5
 51
287.9197796576
  0
ARC
  5
1F3
330
1F
100
AcDbEntity
  8
0
  6
Continuous
 62
     7
370
    25
100
AcDbCircle
 10
144.1340667226
 20
4.4618525286
 30
0.0
 40
195.5000000000001
100
AcDbArc
 50
72.5802203424
 51
107.9197796576
  0
ARC
  5
1F4
330
1F
100
AcDbEntity
  8
0
  6
Continuous
 62
     7
370
    25
100
AcDbCircle
 10
203.2596807128
 20
192.9039172867
 30
0.0
 40
1.999999999999989
100
AcDbArc
 50
252.5802203424
 51
342.0
  0
ARC
  5
1F5
330
1F
100
AcDbEntity
  8
0
  6
Continuous
 62
     7
370
    25
100
AcDbCircle
 10
205.9135591799
 20
192.9815454107
 30
0.0
 40
0.5000000000000107
100
AcDbArc
 50
20.2990116441
 51
162.0
  0
ARC
  5
1F6
330
1F
100
AcDbEntity
  8
0
  6
Continuous
 62
     7
370
    25
100
AcDbCircle
 10
212.0098761542
 20
195.2365219844
 30
0.0
 40
6.000000000000012
100
AcDbArc
 50
200.2990116441
 51
292.8130614604
  0
ARC
  5
1F7
330
1F
100
AcDbEntity
  8
0
  6
Continuous
 62
     7
370
    25
100
AcDbCircle
 10
214.5300933951
 20
189.244985866
 30
0.0
 40
0.5000000000000282
100
AcDbArc
 50
339.0
 51
112.8130614604
  0
LINE
  5
1F8
330
1F
100
AcDbEntity
  8
0
  6
Continuous
 62
     7
370
    25
100
AcDbLine
 10
214.0121032264
 20
186.500361287
 30
0.0
 11
214.9968836083
 21
189.0658018912
 31
0.0
  0
ARC
  5
1F9
330
1F
100
AcDbEntity
  8
0
  6
Continuous
 62
     7
370
    25
100
AcDbCircle
 10
212.1449423734
 20
187.2170971861
 30
0.0
 40
2.000000000000023
100
AcDbArc
 50
249.5906886028
 51
339.0
  0
ARC
  5
1FA
330
1F
100
AcDbEntity
  8
0
  6
Continuous
 62
     7
370
    25
100
AcDbCircle
 10
144.1436912631
 20
4.4581580137
 30
0.0
 40
193.0
100
AcDbArc
 50
69.5906886028
 51
110.9093113972
  0
ARC
  5
1FB
330
1F
100
AcDbEntity
  8
0
  6
Continuous
 62
     7
370
    25
100
AcDbCircle
 10
74.5501770617
 20
186.6167229539
 30
0.0
 40
2.000000000000025
100
AcDbArc
 50
201.5
 51
290.9093113972
  0
LINE
  5
1FC
330
1F
100
AcDbEntity
  8
0
  6
Continuous
 62
     7
370
    25
100
AcDbLine
 10
71.6822116327
 20
188.4404696996
 30
0.0
 11
72.6893419257
 21
185.8837205005
 31
0.0
  0
LINE
  5
1FD
330
1F
100
AcDbEntity
  8
0
  6
Continuous
 62
     7
370
    25
100
AcDbLine
 10
81.1951729614
 20
192.5663778843
 30
0.0
 11
81.4696103766
 21
191.7461709081
 31
0.0
  0
LINE
  5
1FE
330
1F
100
AcDbEntity
  8
0
  6
Continuous
 62
     7
370
    25
100
AcDbLine
 10
205.1617937454
 20
192.2858832979
 30
0.0
 11
205.4380309217
 21
193.1360539079
 31
0.0
  0
LINE
  5
1FF
330
1F
100
AcDbEntity
  8
0
  6
Continuous
 62
     7
370
    25
100
AcDbLine
 10
134.7252339916
 20
202.8749873641
 30
0.0
 11
134.8495904919
 21
202.7038840464
 31
0.0
  0
LINE
  5
200
330
1F
100
AcDbEntity
  8
0
  6
Continuous
 62
     7
370
    25
100
AcDbLine
 10
135.3201967572
 20
204.5269710107
 30
0.0
 11
134.7252339916
 21
202.8749873641
 31
0.0
  0
LINE
  5
201
330
1F
100
AcDbEntity
  8
0
  6
Continuous
 62
     7
370
    25
100
AcDbLine
 10
135.3201967572
 20
204.5269710107
 30
0.0
 11
135.4445307093
 21
204.3558050853
 31
0.0
  0
LINE
  5
202
330
1F
100
AcDbEntity
  8
0
  6
Continuous
 62
     7
370
    25
100
AcDbLine
 10
135.4445307093
 20
204.3558050853
 30
0.0
 11
134.8495904919
 21
202.7038840464
 31
0.0
  0
LINE
  5
203
330
1F
100
AcDbEntity
  8
0
  6
Continuous
 62
     7
370
    25
100
AcDbLine
 10
103.6408522616
 20
202.4521368436
 30
0.0
 11
103.8464883283
 21
202.3144796855
 31
0.0
  0
LINE
  5
204
330
1F
100
AcDbEntity
  8
0
  6
Continuous
 62
     7
370
    25
100
AcDbLine
 10
106.5628773407
 20
203.0307175573
 30
0.0
 11
103.6408522616
 21
202.4521368436
 31
0.0
  0
LINE
  5
205
330
1F
100
AcDbEntity
  8
0
  6
Continuous
 62
     7
370
    25
100
AcDbLine
 10
106.5628773407
 20
203.0307175573
 30
0.0
 11
106.4252236784
 21
202.8250867128
 31
0.0
  0
LINE
  5
206
330
1F
100
AcDbEntity
  8
0
  6
Continuous
 62
     7
370
    25
100
AcDbLine
 10
106.4252236784
 20
202.8250867128
 30
0.0
 11
103.8464883283
 21
202.3144796855
 31
0.0
  0
LINE
  5
207
330
1F
100
AcDbEntity
  8
0
  6
Continuous
 62
     7
370
    25
100
AcDbLine
 10
107.2323565321
 20
199.6500755137
 30
0.0
 11
106.5628773407
 21
203.0307175573
 31
0.0
  0
LINE
  5
208
330
1F
100
AcDbEntity
  8
0
  6
Continuous
 62
     7
370
    25
100
AcDbLine
 10
107.2323565321
 20
199.6500755137
 30
0.0
 11
107.0946935651
 21
199.444491655
 31
0.0
  0
LINE
  5
209
330
1F
100
AcDbEntity
  8
0
  6
Continuous
 62
     7
370
    25
100
AcDbLine
 10
107.0946935651
 20
199.444491655
 30
0.0
 11
106.4252236784
 21
202.8250867128
 31
0.0
  0
LINE
  5
20A
330
1F
100
AcDbEntity
  8
0
  6
Continuous
 62
     7
370
    25
100
AcDbLine
 10
108.3708722454
 20
199.8751854087
 30
0.0
 11
107.2323565321
 21
199.6500755137
 31
0.0
  0
LINE
  5
20B
330
1F
100
AcDbEntity
  8
0
  6
Continuous
 62
     7
370
    25
100
AcDbLine
 10
108.3708722454
 20
199.8751854087
 30
0.0
 11
108.57650786
 21
199.7374793199
 31
0.0
  0
LINE
  5
20C
330
1F
100
AcDbEntity
  8
0
  6
Continuous
 62
     7
370
    25
100
AcDbLine
 10
108.57650786
 20
199.7374793199
 30
0.0
 11
107.0946935651
 21
199.444491655
 31
0.0
  0
LINE
  5
20D
330
1F
100
AcDbEntity
  8
0
  6
Continuous
 62
     7
370
    25
100
AcDbLine
 10
106.9123964713
 20
207.2421891192
 30
0.0
 11
108.3708722454
 21
199.8751854087
 31
0.0
  0
LINE
  5
20E
330
1F
100
AcDbEntity
  8
0
  6
Continuous
 62
     7
370
    25
100
AcDbLine
 10
106.9123964713
 20
207.2421891192
 30
0.0
 11
107.0500691928
 21
207.4477749066
 31
0.0
  0
LINE
  5
20F
330
1F
100
AcDbEntity
  8
0
  6
Continuous
 62
     7
370
    25
100
AcDbLine
 10
107.0500691928
 20
207.4477749066
 30
0.0
 11
108.57650786
 21
199.7374793199
 31
0.0
  0
LINE
  5
210
330
1F
100
AcDbEntity
  8
0
  6
Continuous
 62
     7
370
    25
100
AcDbLine
 10
105.7739175196
 20
207.0170864927
 30
0.0
 11
106.9123964713
 21
207.2421891192
 31
0.0
  0
LINE
  5
211
330
1F
100
AcDbEntity
  8
0
  6
Continuous
 62
     7
370
    25
100
AcDbLine
 10
105.7739175196
 20
207.0170864927
 30
0.0
 11
105.5682548979
 21
207.1547872416
 31
0.0
  0
LINE
  5
212
330
1F
100
AcDbEntity
  8
0
  6
Continuous
 62
     7
370
    25
100
AcDbLine
 10
105.5682548979
 20
207.1547872416
 30
0.0
 11
107.0500691928
 21
207.4477749066
 31
0.0
  0
LINE
  5
213
330
1F
100
AcDbEntity
  8
0
  6
Continuous
 62
     7
370
    25
100
AcDbLine
 10
106.3502583488
 20
204.1082947034
 30
0.0
 11
105.7739175196
 21
207.0170864927
 31
0.0
  0
LINE
  5
214
330
1F
100
AcDbEntity
  8
0
  6
Continuous
 62
     7
370
    25
100
AcDbLine
 10
106.3502583488
 20
204.1082947034
 30
0.0
 11
106.1446050404
 21
204.2459484475
 31
0.0
  0
LINE
  5
215
330
1F
100
AcDbEntity
  8
0
  6
Continuous
 62
     7
370
    25
100
AcDbLine
 10
106.1446050404
 20
204.2459484475
 30
0.0
 11
105.5682548979
 21
207.1547872416
 31
0.0
  0
LINE
  5
216
330
1F
100
AcDbEntity
  8
0
  6
Continuous
 62
     7
370
    25
100
AcDbLine
 10
127.9847060589
 20
203.5571157879
 30
0.0
 11
128.1477686863
 21
203.7433092356
 31
0.0
  0
LINE
  5
217
330
1F
100
AcDbEntity
  8
0
  6
Continuous
 62
     7
370
    25
100
AcDbLine
 10
127.8248982947
 20
205.9770561886
 30
0.0
 11
127.9847060589
 21
203.5571157879
 31
0.0
  0
LINE
  5
218
330
1F
100
AcDbEntity
  8
0
  6
Continuous
 62
     7
370
    25
100
AcDbLine
 10
127.8248982947
 20
205.9770561886
 30
0.0
 11
128.0110209639
 21
205.8140555468
 31
0.0
  0
LINE
  5
219
330
1F
100
AcDbEntity
  8
0
  6
Continuous
 62
     7
370
    25
100
AcDbLine
 10
128.0110209639
 20
205.8140555468
 30
0.0
 11
128.1477686863
 21
203.7433092356
 31
0.0
  0
LINE
  5
21A
330
1F
100
AcDbEntity
  8
0
  6
Continuous
 62
     7
370
    25
100
AcDbLine
 10
130.6351335398
 20
206.1637113582
 30
0.0
 11
130.8213677496
 21
206.000718125
 31
0.0
  0
LINE
  5
21B
330
1F
100
AcDbEntity
  8
0
  6
Continuous
 62
     7
370
    25
100
AcDbLine
 10
130.5623796807
 20
207.2548074578
 30
0.0
 11
130.6351335398
 21
206.1637113582
 31
0.0
  0
LINE
  5
21C
330
1F
100
AcDbEntity
  8
0
  6
Continuous
 62
     7
370
    25
100
AcDbLine
 10
130.5623796807
 20
207.2548074578
 30
0.0
 11
130.725330754
 21
207.4409934961
 31
0.0
  0
LINE
  5
21D
330
1F
100
AcDbEntity
  8
0
  6
Continuous
 62
     7
370
    25
100
AcDbLine
 10
130.725330754
 20
207.4409934961
 30
0.0
 11
130.8213677496
 21
206.000718125
 31
0.0
  0
LINE
  5
21E
330
1F
100
AcDbEntity
  8
0
  6
Continuous
 62
     7
370
    25
100
AcDbLine
 10
110.788981774
 20
207.9724729219
 30
0.0
 11
110.5892848131
 21
208.1186205084
 31
0.0
  0
LINE
  5
21F
330
1F
100
AcDbEntity
  8
0
  6
Continuous
 62
     7
370
    25
100
AcDbLine
 10
111.9472015628
 20
200.4937589024
 30
0.0
 11
110.788981774
 21
207.9724729219
 31
0.0
  0
LINE
  5
220
330
1F
100
AcDbEntity
  8
0
  6
Continuous
 62
     7
370
    25
100
AcDbLine
 10
111.9472015628
 20
200.4937589024
 30
0.0
 11
111.8010631959
 21
200.2940745393
 31
0.0
  0
LINE
  5
221
330
1F
100
AcDbEntity
  8
0
  6
Continuous
 62
     7
370
    25
100
AcDbLine
 10
111.8010631959
 20
200.2940745393
 30
0.0
 11
110.5892848131
 21
208.1186205084
 31
0.0
  0
LINE
  5
222
330
1F
100
AcDbEntity
  8
0
  6
Continuous
 62
     7
370
    25
100
AcDbLine
 10
115.8729433443
 20
201.1014803919
 30
0.0
 11
111.9472015628
 21
200.4937589024
 31
0.0
  0
LINE
  5
223
330
1F
100
AcDbEntity
  8
0
  6
Continuous
 62
     7
370
    25
100
AcDbLine
 10
115.8729433443
 20
201.1014803919
 30
0.0
 11
116.0726709983
 21
200.9553375567
 31
0.0
  0
LINE
  5
224
330
1F
100
AcDbEntity
  8
0
  6
Continuous
 62
     7
370
    25
100
AcDbLine
 10
116.0726709983
 20
200.9553375567
 30
0.0
 11
111.8010631959
 21
200.2940745393
 31
0.0
  0
LINE
  5
225
330
1F
100
AcDbEntity
  8
0
  6
Continuous
 62
     7
370
    25
100
AcDbLine
 10
115.6996842371
 20
202.2189164463
 30
0.0
 11
115.8729433443
 21
201.1014803919
 31
0.0
  0
LINE
  5
226
330
1F
100
AcDbEntity
  8
0
  6
Continuous
 62
     7
370
    25
100
AcDbLine
 10
115.6996842371
 20
202.2189164463
 30
0.0
 11
115.8457932796
 21
202.4185872919
 31
0.0
  0
LINE
  5
227
330
1F
100
AcDbEntity
  8
0
  6
Continuous
 62
     7
370
    25
100
AcDbLine
 10
115.8457932796
 20
202.4185872919
 30
0.0
 11
116.0726709983
 21
200.9553375567
 31
0.0
  0
LINE
  5
228
330
1F
100
AcDbEntity
  8
0
  6
Continuous
 62
     7
370
    25
100
AcDbLine
 10
112.9074752379
 20
201.786815654
 30
0.0
 11
115.6996842371
 21
202.2189164463
 31
0.0
  0
LINE
  5
229
330
1F
100
AcDbEntity
  8
0
  6
Continuous
 62
     7
370
    25
100
AcDbLine
 10
112.9074752379
 20
201.786815654
 30
0.0
 11
113.0536442227
 21
201.9864957757
 31
0.0
  0
LINE
  5
22A
330
1F
100
AcDbEntity
  8
0
  6
Continuous
 62
     7
370
    25
100
AcDbLine
 10
113.0536442227
 20
201.9864957757
 30
0.0
 11
115.8457932796
 21
202.4185872919
 31
0.0
  0
LINE
  5
22B
330
1F
100
AcDbEntity
  8
0
  6
Continuous
 62
     7
370
    25
100
AcDbLine
 10
112.5354949044
 20
204.1914115064
 30
0.0
 11
112.9074752379
 21
201.786815654
 31
0.0
  0
LINE
  5
22C
330
1F
100
AcDbEntity
  8
0
  6
Continuous
 62
     7
370
    25
100
AcDbLine
 10
112.5354949044
 20
204.1914115064
 30
0.0
 11
112.7351639621
 21
204.0452506206
 31
0.0
  0
LINE
  5
22D
330
1F
100
AcDbEntity
  8
0
  6
Continuous
 62
     7
370
    25
100
AcDbLine
 10
112.7351639621
 20
204.0452506206
 30
0.0
 11
113.0536442227
 21
201.9864957757
 31
0.0
  0
LINE
  5
22E
330
1F
100
AcDbEntity
  8
0
  6
Continuous
 62
     7
370
    25
100
AcDbLine
 10
115.327697023
 20
204.623511234
 30
0.0
 11
112.5354949044
 21
204.1914115064
 31
0.0
  0
LINE
  5
22F
330
1F
100
AcDbEntity
  8
0
  6
Continuous
 62
     7
370
    25
100
AcDbLine
 10
115.327697023
 20
204.623511234
 30
0.0
 11
115.527313019
 21
204.4773421368
 31
0.0
  0
LINE
  5
230
330
1F
100
AcDbEntity
  8
0
  6
Continuous
 62
     7
370
    25
100
AcDbLine
 10
115.527313019
 20
204.4773421368
 30
0.0
 11
112.7351639621
 21
204.0452506206
 31
0.0
  0
LINE
  5
231
330
1F
100
AcDbEntity
  8
0
  6
Continuous
 62
     7
370
    25
100
AcDbLine
 10
115.1602852308
 20
205.7079156938
 30
0.0
 11
115.327697023
 21
204.623511234
 31
0.0
  0
LINE
  5
232
330
1F
100
AcDbEntity
  8
0
  6
Continuous
 62
     7
370
    25
100
AcDbLine
 10
115.1602852308
 20
205.7079156938
 30
0.0
 11
115.3065072996
 21
205.9076040304
 31
0.0
  0
LINE
  5
233
330
1F
100
AcDbEntity
  8
0
  6
Continuous
 62
     7
370
    25
100
AcDbLine
 10
115.3065072996
 20
205.9076040304
 30
0.0
 11
115.527313019
 21
204.4773421368
 31
0.0
  0
LINE
  5
234
330
1F
100
AcDbEntity
  8
0
  6
Continuous
 62
     7
370
    25
100
AcDbLine
 10
112.3683277334
 20
205.2758538219
 30
0.0
 11
115.1602852308
 21
205.7079156938
 31
0.0
  0
LINE
  5
235
330
1F
100
AcDbEntity
  8
0
  6
Continuous
 62
     7
370
    25
100
AcDbLine
 10
112.3683277334
 20
205.2758538219
 30
0.0
 11
112.5143582427
 21
205.4755125142
 31
0.0
  0
LINE
  5
236
330
1F
100
AcDbEntity
  8
0
  6
Continuous
 62
     7
370
    25
100
AcDbLine
 10
112.5143582427
 20
205.4755125142
 30
0.0
 11
115.3065072996
 21
205.9076040304
 31
0.0
  0
LINE
  5
237
330
1F
100
AcDbEntity
  8
0
  6
Continuous
 62
     7
370
    25
100
AcDbLine
 10
112.0945542428
 20
207.0362746599
 30
0.0
 11
112.3683277334
 21
205.2758538219
 31
0.0
  0
LINE
  5
238
330
1F
100
AcDbEntity
  8
0
  6
Continuous
 62
     7
370
    25
100
AcDbLine
 10
112.0945542428
 20
207.0362746599
 30
0.0
 11
112.2943618718
 21
206.8901352183
 31
0.0
  0
LINE
  5
239
330
1F
100
AcDbEntity
  8
0
  6
Continuous
 62
     7
370
    25
100
AcDbLine
 10
112.2943618718
 20
206.8901352183
 30
0.0
 11
112.5143582427
 21
205.4755125142
 31
0.0
  0
LINE
  5
23A
330
1F
100
AcDbEntity
  8
0
  6
Continuous
 62
     7
370
    25
100
AcDbLine
 10
114.8868273592
 20
207.4683853745
 30
0.0
 11
112.0945542428
 21
207.0362746599
 31
0.0
  0
LINE
  5
23B
330
1F
100
AcDbEntity
  8
0
  6
Continuous
 62
     7
370
    25
100
AcDbLine
 10
114.8868273592
 20
207.4683853745
 30
0.0
 11
115.0865109287
 21
207.3222267344
 31
0.0
  0
LINE
  5
23C
330
1F
100
AcDbEntity
  8
0
  6
Continuous
 62
     7
370
    25
100
AcDbLine
 10
115.0865109287
 20
207.3222267344
 30
0.0
 11
112.2943618718
 21
206.8901352183
 31
0.0
  0
LINE
  5
23D
330
1F
100
AcDbEntity
  8
0
  6
Continuous
 62
     7
370
    25
100
AcDbLine
 10
114.7147395003
 20
208.5801968796
 30
0.0
 11
114.8868273592
 21
207.4683853745
 31
0.0
  0
LINE
  5
23E
330
1F
100
AcDbEntity
  8
0
  6
Continuous
 62
     7
370
    25
100
AcDbLine
 10
114.7147395003
 20
208.5801968796
 30
0.0
 11
114.8608926155
 21
208.7798835259
 31
0.0
  0
LINE
  5
23F
330
1F
100
AcDbEntity
  8
0
  6
Continuous
 62
     7
370
    25
100
AcDbLine
 10
114.8608926155
 20
208.7798835259
 30
0.0
 11
115.0865109287
 21
207.3222267344
 31
0.0
  0
LINE
  5
240
330
1F
100
AcDbEntity
  8
0
  6
Continuous
 62
     7
370
    25
100
AcDbLine
 10
110.788981774
 20
207.9724729219
 30
0.0
 11
114.7147395003
 21
208.5801968796
 31
0.0
  0
LINE
  5
241
330
1F
100
AcDbEntity
  8
0
  6
Continuous
 62
     7
370
    25
100
AcDbLine
 10
110.5892848131
 20
208.1186205084
 30
0.0
 11
114.8608926155
 21
208.7798835259
 31
0.0
  0
LINE
  5
242
330
1F
100
AcDbEntity
  8
0
  6
Continuous
 62
     7
370
    25
100
AcDbLine
 10
103.4282332671
 20
203.5297139892
 30
0.0
 11
106.3502583488
 21
204.1082947034
 31
0.0
  0
LINE
  5
243
330
1F
100
AcDbEntity
  8
0
  6
Continuous
 62
     7
370
    25
100
AcDbLine
 10
103.4282332671
 20
203.5297139892
 30
0.0
 11
103.5658696903
 21
203.7353414202
 31
0.0
  0
LINE
  5
244
330
1F
100
AcDbEntity
  8
0
  6
Continuous
 62
     7
370
    25
100
AcDbLine
 10
103.5658696903
 20
203.7353414202
 30
0.0
 11
106.1446050404
 21
204.2459484475
 31
0.0
  0
LINE
  5
245
330
1F
100
AcDbEntity
  8
0
  6
Continuous
 62
     7
370
    25
100
AcDbLine
 10
102.8518883586
 20
206.4385263671
 30
0.0
 11
103.4282332671
 21
203.5297139892
 31
0.0
  0
LINE
  5
246
330
1F
100
AcDbEntity
  8
0
  6
Continuous
 62
     7
370
    25
100
AcDbLine
 10
102.8518883586
 20
206.4385263671
 30
0.0
 11
102.9895195477
 21
206.6441802144
 31
0.0
  0
LINE
  5
247
330
1F
100
AcDbEntity
  8
0
  6
Continuous
 62
     7
370
    25
100
AcDbLine
 10
102.9895195477
 20
206.6441802144
 30
0.0
 11
103.5658696903
 21
203.7353414202
 31
0.0
  0
LINE
  5
248
330
1F
100
AcDbEntity
  8
0
  6
Continuous
 62
     7
370
    25
100
AcDbLine
 10
101.7056791347
 20
206.2113858563
 30
0.0
 11
102.8518883586
 21
206.4385263671
 31
0.0
  0
LINE
  5
249
330
1F
100
AcDbEntity
  8
0
  6
Continuous
 62
     7
370
    25
100
AcDbLine
 10
101.7056791347
 20
206.2113858563
 30
0.0
 11
101.5000580543
 21
206.3490185307
 31
0.0
  0
LINE
  5
24A
330
1F
100
AcDbEntity
  8
0
  6
Continuous
 62
     7
370
    25
100
AcDbLine
 10
101.5000580543
 20
206.3490185307
 30
0.0
 11
102.9895195477
 21
206.6441802144
 31
0.0
  0
LINE
  5
24B
330
1F
100
AcDbEntity
  8
0
  6
Continuous
 62
     7
370
    25
100
AcDbLine
 10
103.6408522616
 20
202.4521368436
 30
0.0
 11
104.3103273797
 21
199.071515369
 31
0.0
  0
LINE
  5
24C
330
1F
100
AcDbEntity
  8
0
  6
Continuous
 62
     7
370
    25
100
AcDbLine
 10
104.3103273797
 20
199.071515369
 30
0.0
 11
103.1641549097
 21
198.8443821417
 31
0.0
  0
LINE
  5
24D
330
1F
100
AcDbEntity
  8
0
  6
Continuous
 62
     7
370
    25
100
AcDbLine
 10
103.1641549097
 20
198.8443821417
 30
0.0
 11
101.7056791347
 21
206.2113858563
 31
0.0
  0
LINE
  5
24E
330
1F
100
AcDbEntity
  8
0
  6
Continuous
 62
     7
370
    25
100
AcDbLine
 10
103.1641549097
 20
198.8443821417
 30
0.0
 11
103.0264967215
 21
198.638722944
 31
0.0
  0
LINE
  5
24F
330
1F
100
AcDbEntity
  8
0
  6
Continuous
 62
     7
370
    25
100
AcDbLine
 10
103.0264967215
 20
198.638722944
 30
0.0
 11
101.5000580543
 21
206.3490185307
 31
0.0
  0
LINE
  5
250
330
1F
100
AcDbEntity
  8
0
  6
Continuous
 62
     7
370
    25
100
AcDbLine
 10
104.3103273797
 20
199.071515369
 30
0.0
 11
104.5159582149
 21
198.9338846277
 31
0.0
  0
LINE
  5
251
330
1F
100
AcDbEntity
  8
0
  6
Continuous
 62
     7
370
    25
100
AcDbLine
 10
104.5159582149
 20
198.9338846277
 30
0.0
 11
103.0264967215
 21
198.638722944
 31
0.0
  0
LINE
  5
252
330
1F
100
AcDbEntity
  8
0
  6
Continuous
 62
     7
370
    25
100
AcDbLine
 10
103.8464883283
 20
202.3144796855
 30
0.0
 11
104.5159582149
 21
198.9338846277
 31
0.0
  0
LINE
  5
253
330
1F
100
AcDbEntity
  8
0
  6
Continuous
 62
     7
370
    25
100
AcDbLine
 10
182.154742276
 20
206.0224374378
 30
0.0
 11
182.2970565535
 21
205.8199598439
 31
0.0
  0
LINE
  5
254
330
1F
100
AcDbEntity
  8
0
  6
Continuous
 62
     7
370
    25
100
AcDbLine
 10
184.9305371412
 20
205.537701371
 30
0.0
 11
182.154742276
 21
206.0224374378
 31
0.0
  0
LINE
  5
255
330
1F
100
AcDbEntity
  8
0
  6
Continuous
 62
     7
370
    25
100
AcDbLine
 10
184.9305371412
 20
205.537701371
 30
0.0
 11
185.072796221
 21
205.3352334162
 31
0.0
  0
LINE
  5
256
330
1F
100
AcDbEntity
  8
0
  6
Continuous
 62
     7
370
    25
100
AcDbLine
 10
185.072796221
 20
205.3352334162
 30
0.0
 11
182.2970565535
 21
205.8199598439
 31
0.0
  0
LINE
  5
257
330
1F
100
AcDbEntity
  8
0
  6
Continuous
 62
     7
370
    25
100
AcDbLine
 10
185.1234922327
 20
206.6422984284
 30
0.0
 11
184.9305371412
 21
205.537701371
 31
0.0
  0
LINE
  5
258
330
1F
100
AcDbEntity
  8
0
  6
Continuous
 62
     7
370
    25
100
AcDbLine
 10
185.1234922327
 20
206.6422984284
 30
0.0
 11
185.3259642818
 21
206.7845276161
 31
0.0
  0
LINE
  5
259
330
1F
100
AcDbEntity
  8
0
  6
Continuous
 62
     7
370
    25
100
AcDbLine
 10
185.3259642818
 20
206.7845276161
 30
0.0
 11
185.072796221
 21
205.3352334162
 31
0.0
  0
LINE
  5
25A
330
1F
100
AcDbEntity
  8
0
  6
Continuous
 62
     7
370
    25
100
AcDbLine
 10
126.4223377686
 20
209.8834526571
 30
0.0
 11
126.2361670943
 21
210.0464628648
 31
0.0
  0
LINE
  5
25B
330
1F
100
AcDbEntity
  8
0
  6
Continuous
 62
     7
370
    25
100
AcDbLine
 10
126.9212477228
 20
202.3594680573
 30
0.0
 11
126.4223377686
 21
209.8834526571
 31
0.0
  0
LINE
  5
25C
330
1F
100
AcDbEntity
  8
0
  6
Continuous
 62
     7
370
    25
100
AcDbLine
 10
126.7582314393
 20
202.173290444
 30
0.0
 11
126.2361670943
 21
210.0464628648
 31
0.0
  0
LINE
  5
25D
330
1F
100
AcDbEntity
  8
0
  6
Continuous
 62
     7
370
    25
100
AcDbLine
 10
181.2227702232
 20
207.3243513041
 30
0.0
 11
185.1234922327
 21
206.6422984284
 31
0.0
  0
LINE
  5
25E
330
1F
100
AcDbEntity
  8
0
  6
Continuous
 62
     7
370
    25
100
AcDbLine
 10
182.154742276
 20
206.0224374378
 30
0.0
 11
181.8494280968
 21
204.2713182884
 31
0.0
  0
LINE
  5
25F
330
1F
100
AcDbEntity
  8
0
  6
Continuous
 62
     7
370
    25
100
AcDbLine
 10
181.8494280968
 20
204.2713182884
 30
0.0
 11
184.6251745282
 21
203.7865906796
 31
0.0
  0
LINE
  5
260
330
1F
100
AcDbEntity
  8
0
  6
Continuous
 62
     7
370
    25
100
AcDbLine
 10
184.6251745282
 20
203.7865906796
 30
0.0
 11
184.4373356987
 21
202.7089974559
 31
0.0
  0
LINE
  5
261
330
1F
100
AcDbEntity
  8
0
  6
Continuous
 62
     7
370
    25
100
AcDbLine
 10
184.4373356987
 20
202.7089974559
 30
0.0
 11
181.6616990592
 21
203.1937058919
 31
0.0
  0
LINE
  5
262
330
1F
100
AcDbEntity
  8
0
  6
Continuous
 62
     7
370
    25
100
AcDbLine
 10
181.6616990592
 20
203.1937058919
 30
0.0
 11
181.2434800569
 21
200.8029162951
 31
0.0
  0
LINE
  5
263
330
1F
100
AcDbEntity
  8
0
  6
Continuous
 62
     7
370
    25
100
AcDbLine
 10
181.2434800569
 20
200.8029162951
 30
0.0
 11
184.0193358319
 21
200.3181695916
 31
0.0
  0
LINE
  5
264
330
1F
100
AcDbEntity
  8
0
  6
Continuous
 62
     7
370
    25
100
AcDbLine
 10
184.0193358319
 20
200.3181695916
 30
0.0
 11
183.8260186628
 21
199.2086503513
 31
0.0
  0
LINE
  5
265
330
1F
100
AcDbEntity
  8
0
  6
Continuous
 62
     7
370
    25
100
AcDbLine
 10
183.8260186628
 20
199.2086503513
 30
0.0
 11
179.9253226567
 21
199.8906986803
 31
0.0
  0
LINE
  5
266
330
1F
100
AcDbEntity
  8
0
  6
Continuous
 62
     7
370
    25
100
AcDbLine
 10
179.9253226567
 20
199.8906986803
 30
0.0
 11
181.2227702232
 21
207.3243513041
 31
0.0
  0
LINE
  5
267
330
1F
100
AcDbEntity
  8
0
  6
Continuous
 62
     7
370
    25
100
AcDbLine
 10
130.795109249
 20
203.7437821124
 30
0.0
 11
130.869591273
 21
202.6214276596
 31
0.0
  0
LINE
  5
268
330
1F
100
AcDbEntity
  8
0
  6
Continuous
 62
     7
370
    25
100
AcDbLine
 10
130.795109249
 20
203.7437821124
 30
0.0
 11
130.958115472
 21
203.9299718137
 31
0.0
  0
LINE
  5
269
330
1F
100
AcDbEntity
  8
0
  6
Continuous
 62
     7
370
    25
100
AcDbLine
 10
130.958115472
 20
203.9299718137
 30
0.0
 11
131.0557711647
 21
202.4584180635
 31
0.0
  0
LINE
  5
26A
330
1F
100
AcDbEntity
  8
0
  6
Continuous
 62
     7
370
    25
100
AcDbLine
 10
127.9847060589
 20
203.5571157879
 30
0.0
 11
130.795109249
 21
203.7437821124
 31
0.0
  0
LINE
  5
26B
330
1F
100
AcDbEntity
  8
0
  6
Continuous
 62
     7
370
    25
100
AcDbLine
 10
128.1477686863
 20
203.7433092356
 30
0.0
 11
130.958115472
 21
203.9299718137
 31
0.0
  0
LINE
  5
26C
330
1F
100
AcDbEntity
  8
0
  6
Continuous
 62
     7
370
    25
100
AcDbLine
 10
159.1536947485
 20
202.56013686
 30
0.0
 11
158.884951588
 21
202.4070703882
 31
0.0
  0
LINE
  5
26D
330
1F
100
AcDbEntity
  8
0
  6
Continuous
 62
     7
370
    25
100
AcDbLine
 10
160.3420862268
 20
202.460533346
 30
0.0
 11
159.1536947485
 21
202.56013686
 31
0.0
  0
LINE
  5
26E
330
1F
100
AcDbEntity
  8
0
  6
Continuous
 62
     7
370
    25
100
AcDbLine
 10
160.3420862268
 20
202.460533346
 30
0.0
 11
160.4459269015
 21
202.2762392358
 31
0.0
  0
LINE
  5
26F
330
1F
100
AcDbEntity
  8
0
  6
Continuous
 62
     7
370
    25
100
AcDbLine
 10
160.4459269015
 20
202.2762392358
 30
0.0
 11
158.884951588
 21
202.4070703882
 31
0.0
  0
LINE
  5
270
330
1F
100
AcDbEntity
  8
0
  6
Continuous
 62
     7
370
    25
100
AcDbLine
 10
130.6351335398
 20
206.1637113582
 30
0.0
 11
127.8248982947
 21
205.9770561886
 31
0.0
  0
LINE
  5
271
330
1F
100
AcDbEntity
  8
0
  6
Continuous
 62
     7
370
    25
100
AcDbLine
 10
130.8213677496
 20
206.000718125
 30
0.0
 11
128.0110209639
 21
205.8140555468
 31
0.0
  0
LINE
  5
272
330
1F
100
AcDbEntity
  8
0
  6
Continuous
 62
     7
370
    25
100
AcDbLine
 10
161.1221268874
 20
204.0311729791
 30
0.0
 11
161.2259713146
 21
203.8468864248
 31
0.0
  0
LINE
  5
273
330
1F
100
AcDbEntity
  8
0
  6
Continuous
 62
     7
370
    25
100
AcDbLine
 10
164.5786358911
 20
203.7416997505
 30
0.0
 11
161.1221268874
 21
204.0311729791
 31
0.0
  0
LINE
  5
274
330
1F
100
AcDbEntity
  8
0
  6
Continuous
 62
     7
370
    25
100
AcDbLine
 10
164.5786358911
 20
203.7416997505
 30
0.0
 11
164.443706069
 21
203.5774098902
 31
0.0
  0
LINE
  5
275
330
1F
100
AcDbEntity
  8
0
  6
Continuous
 62
     7
370
    25
100
AcDbLine
 10
164.443706069
 20
203.5774098902
 30
0.0
 11
161.2259713146
 21
203.8468864248
 31
0.0
  0
LINE
  5
276
330
1F
100
AcDbEntity
  8
0
  6
Continuous
 62
     7
370
    25
100
AcDbLine
 10
127.7518848083
 20
207.0681350438
 30
0.0
 11
130.5623796807
 21
207.2548074578
 31
0.0
  0
LINE
  5
277
330
1F
100
AcDbEntity
  8
0
  6
Continuous
 62
     7
370
    25
100
AcDbLine
 10
127.7518848083
 20
207.0681350438
 30
0.0
 11
127.9149839683
 21
207.254330918
 31
0.0
  0
LINE
  5
278
330
1F
100
AcDbEntity
  8
0
  6
Continuous
 62
     7
370
    25
100
AcDbLine
 10
127.9149839683
 20
207.254330918
 30
0.0
 11
130.725330754
 21
207.4409934961
 31
0.0
  0
LINE
  5
279
330
1F
100
AcDbEntity
  8
0
  6
Continuous
 62
     7
370
    25
100
AcDbLine
 10
127.6351545833
 20
208.8414003447
 30
0.0
 11
127.7518848083
 21
207.0681350438
 31
0.0
  0
LINE
  5
27A
330
1F
100
AcDbEntity
  8
0
  6
Continuous
 62
     7
370
    25
100
AcDbLine
 10
127.6351545833
 20
208.8414003447
 30
0.0
 11
127.8212407553
 21
208.6783972788
 31
0.0
  0
LINE
  5
27B
330
1F
100
AcDbEntity
  8
0
  6
Continuous
 62
     7
370
    25
100
AcDbLine
 10
127.8212407553
 20
208.6783972788
 30
0.0
 11
127.9149839683
 21
207.254330918
 31
0.0
  0
LINE
  5
27C
330
1F
100
AcDbEntity
  8
0
  6
Continuous
 62
     7
370
    25
100
AcDbLine
 10
130.445342301
 20
209.0280523576
 30
0.0
 11
127.6351545833
 21
208.8414003447
 31
0.0
  0
LINE
  5
27D
330
1F
100
AcDbEntity
  8
0
  6
Continuous
 62
     7
370
    25
100
AcDbLine
 10
130.445342301
 20
209.0280523576
 30
0.0
 11
130.631587541
 21
208.865059857
 31
0.0
  0
LINE
  5
27E
330
1F
100
AcDbEntity
  8
0
  6
Continuous
 62
     7
370
    25
100
AcDbLine
 10
130.631587541
 20
208.865059857
 30
0.0
 11
127.8212407553
 21
208.6783972788
 31
0.0
  0
LINE
  5
27F
330
1F
100
AcDbEntity
  8
0
  6
Continuous
 62
     7
370
    25
100
AcDbLine
 10
130.370765923
 20
210.1454178727
 30
0.0
 11
130.445342301
 21
209.0280523576
 31
0.0
  0
LINE
  5
280
330
1F
100
AcDbEntity
  8
0
  6
Continuous
 62
     7
370
    25
100
AcDbLine
 10
130.370765923
 20
210.1454178727
 30
0.0
 11
130.5337068197
 21
210.3315904843
 31
0.0
  0
LINE
  5
281
330
1F
100
AcDbEntity
  8
0
  6
Continuous
 62
     7
370
    25
100
AcDbLine
 10
130.5337068197
 20
210.3315904843
 30
0.0
 11
130.631587541
 21
208.865059857
 31
0.0
  0
LINE
  5
282
330
1F
100
AcDbEntity
  8
0
  6
Continuous
 62
     7
370
    25
100
AcDbLine
 10
126.4223377686
 20
209.8834526571
 30
0.0
 11
130.370765923
 21
210.1454178727
 31
0.0
  0
LINE
  5
283
330
1F
100
AcDbEntity
  8
0
  6
Continuous
 62
     7
370
    25
100
AcDbLine
 10
126.2361670943
 20
210.0464628648
 30
0.0
 11
130.5337068197
 21
210.3315904843
 31
0.0
  0
LINE
  5
284
330
1F
100
AcDbEntity
  8
0
  6
Continuous
 62
     7
370
    25
100
AcDbLine
 10
136.9131108307
 20
209.0825445317
 30
0.0
 11
135.7098687856
 21
205.6613313656
 31
0.0
  0
LINE
  5
285
330
1F
100
AcDbEntity
  8
0
  6
Continuous
 62
     7
370
    25
100
AcDbLine
 10
135.7098687856
 20
205.6613313656
 30
0.0
 11
138.3250258987
 21
205.7430401653
 31
0.0
  0
LINE
  5
286
330
1F
100
AcDbEntity
  8
0
  6
Continuous
 62
     7
370
    25
100
AcDbLine
 10
138.3250258987
 20
205.7430401653
 30
0.0
 11
136.9131108307
 21
209.0825445317
 31
0.0
  0
LINE
  5
287
330
1F
100
AcDbEntity
  8
0
  6
Continuous
 62
     7
370
    25
100
AcDbLine
 10
136.2124819674
 20
210.5037484675
 30
0.0
 11
137.5030637955
 21
210.5439594029
 31
0.0
  0
LINE
  5
288
330
1F
100
AcDbEntity
  8
0
  6
Continuous
 62
     7
370
    25
100
AcDbLine
 10
137.5030637955
 20
210.5439594029
 30
0.0
 11
140.6538969368
 21
203.0601625455
 31
0.0
  0
LINE
  5
289
330
1F
100
AcDbEntity
  8
0
  6
Continuous
 62
     7
370
    25
100
AcDbLine
 10
140.6538969368
 20
203.0601625455
 30
0.0
 11
139.4622474024
 21
203.022834358
 31
0.0
  0
LINE
  5
28A
330
1F
100
AcDbEntity
  8
0
  6
Continuous
 62
     7
370
    25
100
AcDbLine
 10
139.4622474024
 20
203.022834358
 30
0.0
 11
138.7921071934
 21
204.6358007083
 31
0.0
  0
LINE
  5
28B
330
1F
100
AcDbEntity
  8
0
  6
Continuous
 62
     7
370
    25
100
AcDbLine
 10
138.7921071934
 20
204.6358007083
 30
0.0
 11
135.3201967572
 21
204.5269710107
 31
0.0
  0
LINE
  5
28C
330
1F
100
AcDbEntity
  8
0
  6
Continuous
 62
     7
370
    25
100
AcDbLine
 10
134.7252339916
 20
202.8749873641
 30
0.0
 11
133.5299277505
 21
202.8368969086
 31
0.0
  0
LINE
  5
28D
330
1F
100
AcDbEntity
  8
0
  6
Continuous
 62
     7
370
    25
100
AcDbLine
 10
133.5299277505
 20
202.8368969086
 30
0.0
 11
136.2124819674
 21
210.5037484675
 31
0.0
  0
LINE
  5
28E
330
1F
100
AcDbEntity
  8
0
  6
Continuous
 62
     7
370
    25
100
AcDbLine
 10
136.2124819674
 20
210.5037484675
 30
0.0
 11
136.0869876009
 21
210.6749006506
 31
0.0
  0
LINE
  5
28F
330
1F
100
AcDbEntity
  8
0
  6
Continuous
 62
     7
370
    25
100
AcDbLine
 10
133.5299277505
 20
202.8368969086
 30
0.0
 11
133.2805141532
 21
202.6538827744
 31
0.0
  0
LINE
  5
290
330
1F
100
AcDbEntity
  8
0
  6
Continuous
 62
     7
370
    25
100
AcDbLine
 10
133.2805141532
 20
202.6538827744
 30
0.0
 11
136.0869876009
 21
210.6749006506
 31
0.0
  0
LINE
  5
291
330
1F
100
AcDbEntity
  8
0
  6
Continuous
 62
     7
370
    25
100
AcDbLine
 10
134.8495904919
 20
202.7038840464
 30
0.0
 11
133.2805141532
 21
202.6538827744
 31
0.0
  0
LWPOLYLINE
  5
292
330
1F
100
AcDbEntity
  8
0
  6
Continuous
 62
     7
370
    25
100
AcDbPolyline
 90
        3
 70
   128
 43
0.0
 10
175.8353783345
 20
207.986546793
 10
175.8814993218
 20
208.0609077997
 10
175.9276202092
 20
208.135268842
  0
SPLINE
  5
293
330
1F
100
AcDbEntity
  8
0
  6
Continuous
 62
     7
370
    25
100
AcDbSpline
210
0.0
220
0.0
230
1.0
 70
     8
 71
     3
 72
    18
 73
    14
 74
     0
 42
0.00000001
 43
0.00000001
 40
0.0011569404584316
 40
0.0011569404584316
 40
0.0011569404584316
 40
0.0011569404584316
 40
0.125
 40
0.125
 40
0.25
 40
0.25
 40
0.5
 40
0.5
 40
0.75
 40
0.75
 40
0.875
 40
0.875
 40
0.9984186554040912
 40
0.9984186554040912
 40
0.9984186554040912
 40
0.9984186554040912
 10
174.0566813082941
 20
208.6145055165484
 30
0.0
 10
174.1370765954135
 20
208.6019251976211
 30
0.0
 10
174.2158374038031
 20
208.589556271155
 30
0.0
 10
174.370038039206
 20
208.5608655330946
 30
0.0
 10
174.4472025312671
 20
208.544117601887
 30
0.0
 10
174.6788988879021
 20
208.4881332114359
 30
0.0
 10
174.8307317026985
 20
208.4436845234361
 30
0.0
 10
175.1297366009207
 20
208.3387368261019
 30
0.0
 10
175.2746782237811
 20
208.2784952135304
 30
0.0
 10
175.4918498508223
 20
208.1764892826025
 30
0.0
 10
175.5627188260878
 20
208.1416125605191
 30
0.0
 10
175.6981003530189
 20
208.0682389253258
 30
0.0
 10
175.7656659839819
 20
208.0280800344516
 30
0.0
 10
175.8353783345377
 20
207.9865467929498
 30
0.0
  0
LWPOLYLINE
  5
294
330
1F
100
AcDbEntity
  8
0
  6
Continuous
 62
     7
370
    25
100
AcDbPolyline
 90
        3
 70
   128
 43
0.0
 10
174.0566813083
 20
208.6145055165
 10
174.0690790565
 20
208.7011188248
 10
174.0814778412
 20
208.787731965
  0
SPLINE
  5
295
330
1F
100
AcDbEntity
  8
0
  6
Continuous
 62
     7
370
    25
100
AcDbSpline
210
0.0
220
0.0
230
1.0
 70
     8
 71
     3
 72
    18
 73
    14
 74
     0
 42
0.00000001
 43
0.00000001
 40
0.0
 40
0.0
 40
0.0
 40
0.0
 40
0.125
 40
0.125
 40
0.25
 40
0.25
 40
0.5
 40
0.5
 40
0.75
 40
0.75
 40
0.875
 40
0.875
 40
1.0
 40
1.0
 40
1.0
 40
1.0
 10
174.0814778412405
 20
208.7877319650408
 30
0.0
 10
174.1626543431322
 20
208.7750300456489
 30
0.0
 10
174.2438308397872
 20
208.7623280877663
 30
0.0
 10
174.4053419558996
 20
208.7322771514654
 30
0.0
 10
174.4856639218387
 20
208.7148370710346
 30
0.0
 10
174.7252664792182
 20
208.6569423195833
 30
0.0
 10
174.8831321158871
 20
208.6107349539319
 30
0.0
 10
175.1932350100767
 20
208.5018919723425
 30
0.0
 10
175.3450935006314
 20
208.4387388915713
 30
0.0
 10
175.5682270544378
 20
208.3339326330284
 30
0.0
 10
175.6420084071186
 20
208.2976632821219
 30
0.0
 10
175.7864237829446
 20
208.2193935084478
 30
0.0
 10
175.8570222447565
 20
208.1773316185437
 30
0.0
 10
175.9276202092021
 20
208.1352688420365
 30
0.0
  0
LINE
  5
296
330
1F
100
AcDbEntity
  8
0
  6
Continuous
 62
     7
370
    25
100
AcDbLine
 10
138.7921071934
 20
204.6358007083
 30
0.0
 11
138.6768633162
 21
204.4571250319
 31
0.0
  0
LINE
  5
297
330
1F
100
AcDbEntity
  8
0
  6
Continuous
 62
     7
370
    25
100
AcDbLine
 10
138.6768633162
 20
204.4571250319
 30
0.0
 11
135.4445307093
 21
204.3558050853
 31
0.0
  0
LINE
  5
298
330
1F
100
AcDbEntity
  8
0
  6
Continuous
 62
     7
370
    25
100
AcDbLine
 10
139.4622474024
 20
203.022834358
 30
0.0
 11
139.3470024872
 21
202.84416118
 31
0.0
  0
LINE
  5
299
330
1F
100
AcDbEntity
  8
0
  6
Continuous
 62
     7
370
    25
100
AcDbLine
 10
139.3470024872
 20
202.84416118
 30
0.0
 11
138.6768633162
 21
204.4571250319
 31
0.0
  0
LINE
  5
29A
330
1F
100
AcDbEntity
  8
0
  6
Continuous
 62
     7
370
    25
100
AcDbLine
 10
140.6538969368
 20
203.0601625455
 30
0.0
 11
140.914024571
 21
202.8932478388
 31
0.0
  0
LINE
  5
29B
330
1F
100
AcDbEntity
  8
0
  6
Continuous
 62
     7
370
    25
100
AcDbLine
 10
140.914024571
 20
202.8932478388
 30
0.0
 11
139.3470024872
 21
202.84416118
 31
0.0
  0
LINE
  5
29C
330
1F
100
AcDbEntity
  8
0
  6
Continuous
 62
     7
370
    25
100
AcDbLine
 10
137.5030637955
 20
210.5439594029
 30
0.0
 11
137.6177081828
 21
210.7225936407
 31
0.0
  0
LINE
  5
29D
330
1F
100
AcDbEntity
  8
0
  6
Continuous
 62
     7
370
    25
100
AcDbLine
 10
137.6177081828
 20
210.7225936407
 30
0.0
 11
140.914024571
 21
202.8932478388
 31
0.0
  0
LINE
  5
29E
330
1F
100
AcDbEntity
  8
0
  6
Continuous
 62
     7
370
    25
100
AcDbLine
 10
136.0869876009
 20
210.6749006506
 30
0.0
 11
137.6177081828
 21
210.7225936407
 31
0.0
  0
LINE
  5
29F
330
1F
100
AcDbEntity
  8
0
  6
Continuous
 62
     7
370
    25
100
AcDbLine
 10
136.9131108307
 20
209.0825445317
 30
0.0
 11
136.9280976713
 21
208.5977659668
 31
0.0
  0
LINE
  5
2A0
330
1F
100
AcDbEntity
  8
0
  6
Continuous
 62
     7
370
    25
100
AcDbLine
 10
138.3250258987
 20
205.7430401653
 30
0.0
 11
138.0644790392
 21
205.9099622697
 31
0.0
  0
LINE
  5
2A1
330
1F
100
AcDbEntity
  8
0
  6
Continuous
 62
     7
370
    25
100
AcDbLine
 10
138.0644790392
 20
205.9099622697
 30
0.0
 11
136.9280976713
 21
208.5977659668
 31
0.0
  0
LINE
  5
2A2
330
1F
100
AcDbEntity
  8
0
  6
Continuous
 62
     7
370
    25
100
AcDbLine
 10
135.7098687856
 20
205.6613313656
 30
0.0
 11
135.9596670114
 21
205.8441988541
 31
0.0
  0
LINE
  5
2A3
330
1F
100
AcDbEntity
  8
0
  6
Continuous
 62
     7
370
    25
100
AcDbLine
 10
136.9280976713
 20
208.5977659668
 30
0.0
 11
135.9596670114
 21
205.8441988541
 31
0.0
  0
LINE
  5
2A4
330
1F
100
AcDbEntity
  8
0
  6
Continuous
 62
     7
370
    25
100
AcDbLine
 10
135.9596670114
 20
205.8441988541
 30
0.0
 11
138.0644790392
 21
205.9099622697
 31
0.0
  0
LINE
  5
2A5
330
1F
100
AcDbEntity
  8
0
  6
Continuous
 62
     7
370
    25
100
AcDbLine
 10
144.9343102521
 20
208.6766858052
 30
0.0
 11
145.1021338334
 21
208.0866241053
 31
0.0
  0
LINE
  5
2A6
330
1F
100
AcDbEntity
  8
0
  6
Continuous
 62
     7
370
    25
100
AcDbLine
 10
148.5081884161
 20
203.055821589
 30
0.0
 11
144.9343102521
 21
208.6766858052
 31
0.0
  0
LINE
  5
2A7
330
1F
100
AcDbEntity
  8
0
  6
Continuous
 62
     7
370
    25
100
AcDbLine
 10
148.5081884161
 20
203.055821589
 30
0.0
 11
148.4113441196
 21
202.8820197993
 31
0.0
  0
LINE
  5
2A8
330
1F
100
AcDbEntity
  8
0
  6
Continuous
 62
     7
370
    25
100
AcDbLine
 10
148.4113441196
 20
202.8820197993
 30
0.0
 11
145.1021338334
 21
208.0866241053
 31
0.0
  0
LINE
  5
2A9
330
1F
100
AcDbEntity
  8
0
  6
Continuous
 62
     7
370
    25
100
AcDbLine
 10
149.67770925
 20
203.0414662703
 30
0.0
 11
148.5081884161
 21
203.055821589
 31
0.0
  0
LINE
  5
2AA
330
1F
100
AcDbEntity
  8
0
  6
Continuous
 62
     7
370
    25
100
AcDbLine
 10
149.67770925
 20
203.0414662703
 30
0.0
 11
149.8505523455
 21
202.8643541946
 31
0.0
  0
LINE
  5
2AB
330
1F
100
AcDbEntity
  8
0
  6
Continuous
 62
     7
370
    25
100
AcDbLine
 10
149.8505523455
 20
202.8643541946
 30
0.0
 11
148.4113441196
 21
202.8820197993
 31
0.0
  0
LINE
  5
2AC
330
1F
100
AcDbEntity
  8
0
  6
Continuous
 62
     7
370
    25
100
AcDbLine
 10
149.7688875056
 20
210.5627070405
 30
0.0
 11
149.67770925
 21
203.0414662703
 31
0.0
  0
LINE
  5
2AD
330
1F
100
AcDbEntity
  8
0
  6
Continuous
 62
     7
370
    25
100
AcDbLine
 10
149.7688875056
 20
210.5627070405
 30
0.0
 11
149.9459728253
 21
210.7355335479
 31
0.0
  0
LINE
  5
2AE
330
1F
100
AcDbEntity
  8
0
  6
Continuous
 62
     7
370
    25
100
AcDbLine
 10
149.9459728253
 20
210.7355335479
 30
0.0
 11
149.8505523455
 21
202.8643541946
 31
0.0
  0
LINE
  5
2AF
330
1F
100
AcDbEntity
  8
0
  6
Continuous
 62
     7
370
    25
100
AcDbLine
 10
148.620274714
 20
210.5767424395
 30
0.0
 11
149.7688875056
 21
210.5627070405
 31
0.0
  0
LINE
  5
2B0
330
1F
100
AcDbEntity
  8
0
  6
Continuous
 62
     7
370
    25
100
AcDbLine
 10
148.620274714
 20
210.5767424395
 30
0.0
 11
148.4474017378
 21
210.7538452395
 31
0.0
  0
LINE
  5
2B1
330
1F
100
AcDbEntity
  8
0
  6
Continuous
 62
     7
370
    25
100
AcDbLine
 10
148.4474017378
 20
210.7538452395
 30
0.0
 11
149.9459728253
 21
210.7355335479
 31
0.0
  0
LINE
  5
2B2
330
1F
100
AcDbEntity
  8
0
  6
Continuous
 62
     7
370
    25
100
AcDbLine
 10
148.5534214224
 20
204.9835698419
 30
0.0
 11
148.620274714
 21
210.5767424395
 31
0.0
  0
LINE
  5
2B3
330
1F
100
AcDbEntity
  8
0
  6
Continuous
 62
     7
370
    25
100
AcDbLine
 10
148.5534214224
 20
204.9835698419
 30
0.0
 11
148.3854939706
 21
205.5744319414
 31
0.0
  0
LINE
  5
2B4
330
1F
100
AcDbEntity
  8
0
  6
Continuous
 62
     7
370
    25
100
AcDbLine
 10
148.3854939706
 20
205.5744319414
 30
0.0
 11
148.4474017378
 21
210.7538452395
 31
0.0
  0
LINE
  5
2B5
330
1F
100
AcDbEntity
  8
0
  6
Continuous
 62
     7
370
    25
100
AcDbLine
 10
144.9735481503
 20
210.6210886021
 30
0.0
 11
148.5534214224
 21
204.9835698419
 31
0.0
  0
LINE
  5
2B6
330
1F
100
AcDbEntity
  8
0
  6
Continuous
 62
     7
370
    25
100
AcDbLine
 10
144.9735481503
 20
210.6210886021
 30
0.0
 11
145.0704512129
 21
210.7949004654
 31
0.0
  0
LINE
  5
2B7
330
1F
100
AcDbEntity
  8
0
  6
Continuous
 62
     7
370
    25
100
AcDbLine
 10
145.0704512129
 20
210.7949004654
 30
0.0
 11
148.3854939706
 21
205.5744319414
 31
0.0
  0
LINE
  5
2B8
330
1F
100
AcDbEntity
  8
0
  6
Continuous
 62
     7
370
    25
100
AcDbLine
 10
143.809109447
 20
210.6352488955
 30
0.0
 11
144.9735481503
 21
210.6210886021
 31
0.0
  0
LINE
  5
2B9
330
1F
100
AcDbEntity
  8
0
  6
Continuous
 62
     7
370
    25
100
AcDbLine
 10
143.809109447
 20
210.6352488955
 30
0.0
 11
143.6362661099
 21
210.8123410416
 31
0.0
  0
LINE
  5
2BA
330
1F
100
AcDbEntity
  8
0
  6
Continuous
 62
     7
370
    25
100
AcDbLine
 10
143.6362661099
 20
210.8123410416
 30
0.0
 11
145.0704512129
 21
210.7949004654
 31
0.0
  0
LINE
  5
2BB
330
1F
100
AcDbEntity
  8
0
  6
Continuous
 62
     7
370
    25
100
AcDbLine
 10
144.9343102521
 20
208.6766858052
 30
0.0
 11
144.8665774992
 21
203.0999523842
 31
0.0
  0
LINE
  5
2BC
330
1F
100
AcDbEntity
  8
0
  6
Continuous
 62
     7
370
    25
100
AcDbLine
 10
144.8665774992
 20
203.0999523842
 30
0.0
 11
143.7179309498
 21
203.1139881957
 31
0.0
  0
LINE
  5
2BD
330
1F
100
AcDbEntity
  8
0
  6
Continuous
 62
     7
370
    25
100
AcDbLine
 10
143.7179309498
 20
203.1139881957
 30
0.0
 11
143.809109447
 21
210.6352488955
 31
0.0
  0
LINE
  5
2BE
330
1F
100
AcDbEntity
  8
0
  6
Continuous
 62
     7
370
    25
100
AcDbLine
 10
153.7585000176
 20
210.4594420808
 30
0.0
 11
153.5932535899
 21
210.6436279133
 31
0.0
  0
LINE
  5
2BF
330
1F
100
AcDbEntity
  8
0
  6
Continuous
 62
     7
370
    25
100
AcDbLine
 10
153.3490471508
 20
202.908827495
 30
0.0
 11
153.7585000176
 21
210.4594420808
 31
0.0
  0
LINE
  5
2C0
330
1F
100
AcDbEntity
  8
0
  6
Continuous
 62
     7
370
    25
100
AcDbLine
 10
153.3490471508
 20
202.908827495
 30
0.0
 11
153.1648515634
 21
202.7435767675
 31
0.0
  0
LINE
  5
2C1
330
1F
100
AcDbEntity
  8
0
  6
Continuous
 62
     7
370
    25
100
AcDbLine
 10
153.1648515634
 20
202.7435767675
 30
0.0
 11
153.5932535899
 21
210.6436279133
 31
0.0
  0
LINE
  5
2C2
330
1F
100
AcDbEntity
  8
0
  6
Continuous
 62
     7
370
    25
100
AcDbLine
 10
156.693634845
 20
202.7275504514
 30
0.0
 11
153.3490471508
 21
202.908827495
 31
0.0
  0
LINE
  5
2C3
330
1F
100
AcDbEntity
  8
0
  6
Continuous
 62
     7
370
    25
100
AcDbLine
 10
156.693634845
 20
202.7275504514
 30
0.0
 11
156.8588103827
 21
202.543363768
 31
0.0
  0
LINE
  5
2C4
330
1F
100
AcDbEntity
  8
0
  6
Continuous
 62
     7
370
    25
100
AcDbLine
 10
156.8588103827
 20
202.543363768
 30
0.0
 11
153.1648515634
 21
202.7435767675
 31
0.0
  0
LINE
  5
2C5
330
1F
100
AcDbEntity
  8
0
  6
Continuous
 62
     7
370
    25
100
AcDbLine
 10
156.7528321739
 20
203.8110892786
 30
0.0
 11
156.693634845
 21
202.7275504514
 31
0.0
  0
LINE
  5
2C6
330
1F
100
AcDbEntity
  8
0
  6
Continuous
 62
     7
370
    25
100
AcDbLine
 10
156.7528321739
 20
203.8110892786
 30
0.0
 11
156.9370982545
 21
203.9763329633
 31
0.0
  0
LINE
  5
2C7
330
1F
100
AcDbEntity
  8
0
  6
Continuous
 62
     7
370
    25
100
AcDbLine
 10
156.9370982545
 20
203.9763329633
 30
0.0
 11
156.8588103827
 21
202.543363768
 31
0.0
  0
LINE
  5
2C8
330
1F
100
AcDbEntity
  8
0
  6
Continuous
 62
     7
370
    25
100
AcDbLine
 10
154.5622525927
 20
203.9298593272
 30
0.0
 11
156.7528321739
 21
203.8110892786
 31
0.0
  0
LINE
  5
2C9
330
1F
100
AcDbEntity
  8
0
  6
Continuous
 62
     7
370
    25
100
AcDbLine
 10
154.5622525927
 20
203.9298593272
 30
0.0
 11
154.746432351
 21
204.0951076922
 31
0.0
  0
LINE
  5
2CA
330
1F
100
AcDbEntity
  8
0
  6
Continuous
 62
     7
370
    25
100
AcDbLine
 10
154.746432351
 20
204.0951076922
 30
0.0
 11
156.9370982545
 21
203.9763329633
 31
0.0
  0
LINE
  5
2CB
330
1F
100
AcDbEntity
  8
0
  6
Continuous
 62
     7
370
    25
100
AcDbLine
 10
154.9123663203
 20
210.3969333874
 30
0.0
 11
154.5622525927
 21
203.9298593272
 31
0.0
  0
LINE
  5
2CC
330
1F
100
AcDbEntity
  8
0
  6
Continuous
 62
     7
370
    25
100
AcDbLine
 10
154.9123663203
 20
210.3969333874
 30
0.0
 11
155.0965465057
 21
210.5621896428
 31
0.0
  0
LINE
  5
2CD
330
1F
100
AcDbEntity
  8
0
  6
Continuous
 62
     7
370
    25
100
AcDbLine
 10
155.0965465057
 20
210.5621896428
 30
0.0
 11
154.746432351
 21
204.0951076922
 31
0.0
  0
LINE
  5
2CE
330
1F
100
AcDbEntity
  8
0
  6
Continuous
 62
     7
370
    25
100
AcDbLine
 10
153.7585000176
 20
210.4594420808
 30
0.0
 11
154.9123663203
 21
210.3969333874
 31
0.0
  0
LINE
  5
2CF
330
1F
100
AcDbEntity
  8
0
  6
Continuous
 62
     7
370
    25
100
AcDbLine
 10
153.5932535899
 20
210.6436279133
 30
0.0
 11
155.0965465057
 21
210.5621896428
 31
0.0
  0
LINE
  5
2D0
330
1F
100
AcDbEntity
  8
0
  6
Continuous
 62
     7
370
    25
100
AcDbLine
 10
161.6372621212
 20
205.11202222
 30
0.0
 11
164.2432230899
 21
204.8926991664
 31
0.0
  0
LINE
  5
2D1
330
1F
100
AcDbEntity
  8
0
  6
Continuous
 62
     7
370
    25
100
AcDbLine
 10
164.2432230899
 20
204.8926991664
 30
0.0
 11
163.2254626862
 21
208.3672126462
 31
0.0
  0
LINE
  5
2D2
330
1F
100
AcDbEntity
  8
0
  6
Continuous
 62
     7
370
    25
100
AcDbLine
 10
163.2254626862
 20
208.3672126462
 30
0.0
 11
161.6372621212
 21
205.11202222
 31
0.0
  0
LINE
  5
2D3
330
1F
100
AcDbEntity
  8
0
  6
Continuous
 62
     7
370
    25
100
AcDbLine
 10
162.6936281832
 20
209.8566778323
 30
0.0
 11
163.97708495
 21
209.7487011233
 31
0.0
  0
LINE
  5
2D4
330
1F
100
AcDbEntity
  8
0
  6
Continuous
 62
     7
370
    25
100
AcDbLine
 10
163.97708495
 20
209.7487011233
 30
0.0
 11
166.2453362695
 21
201.9645484997
 31
0.0
  0
LINE
  5
2D5
330
1F
100
AcDbEntity
  8
0
  6
Continuous
 62
     7
370
    25
100
AcDbLine
 10
166.2453362695
 20
201.9645484997
 30
0.0
 11
165.0592363289
 21
202.0651246063
 31
0.0
  0
LINE
  5
2D6
330
1F
100
AcDbEntity
  8
0
  6
Continuous
 62
     7
370
    25
100
AcDbLine
 10
165.0592363289
 20
202.0651246063
 30
0.0
 11
164.5786358911
 21
203.7416997505
 31
0.0
  0
LINE
  5
2D7
330
1F
100
AcDbEntity
  8
0
  6
Continuous
 62
     7
370
    25
100
AcDbLine
 10
161.1221268874
 20
204.0311729791
 30
0.0
 11
160.3420862268
 21
202.460533346
 31
0.0
  0
LINE
  5
2D8
330
1F
100
AcDbEntity
  8
0
  6
Continuous
 62
     7
370
    25
100
AcDbLine
 10
159.1536947485
 20
202.56013686
 30
0.0
 11
162.6936281832
 21
209.8566778323
 31
0.0
  0
LINE
  5
2D9
330
1F
100
AcDbEntity
  8
0
  6
Continuous
 62
     7
370
    25
100
AcDbLine
 10
162.6936281832
 20
209.8566778323
 30
0.0
 11
162.5886220041
 21
210.0411074222
 31
0.0
  0
LINE
  5
2DA
330
1F
100
AcDbEntity
  8
0
  6
Continuous
 62
     7
370
    25
100
AcDbLine
 10
158.884951588
 20
202.4070703882
 30
0.0
 11
162.5886220041
 21
210.0411074222
 31
0.0
  0
LINE
  5
2DB
330
1F
100
AcDbEntity
  8
0
  6
Continuous
 62
     7
370
    25
100
AcDbLine
 10
181.2434800569
 20
200.8029162951
 30
0.0
 11
181.4459997077
 21
200.9451756631
 31
0.0
  0
LINE
  5
2DC
330
1F
100
AcDbEntity
  8
0
  6
Continuous
 62
     7
370
    25
100
AcDbLine
 10
181.6616990592
 20
203.1937058919
 30
0.0
 11
181.8039170765
 21
202.9912451078
 31
0.0
  0
LINE
  5
2DD
330
1F
100
AcDbEntity
  8
0
  6
Continuous
 62
     7
370
    25
100
AcDbLine
 10
181.8039170765
 20
202.9912451078
 30
0.0
 11
181.4459997077
 21
200.9451756631
 31
0.0
  0
LINE
  5
2DE
330
1F
100
AcDbEntity
  8
0
  6
Continuous
 62
     7
370
    25
100
AcDbLine
 10
161.2259713146
 20
203.8468864248
 30
0.0
 11
160.4459269015
 21
202.2762392358
 31
0.0
  0
LINE
  5
2DF
330
1F
100
AcDbEntity
  8
0
  6
Continuous
 62
     7
370
    25
100
AcDbLine
 10
143.7179309498
 20
203.1139881957
 30
0.0
 11
143.5408456301
 21
202.9411616883
 31
0.0
  0
LINE
  5
2E0
330
1F
100
AcDbEntity
  8
0
  6
Continuous
 62
     7
370
    25
100
AcDbLine
 10
144.8665774992
 20
203.0999523842
 30
0.0
 11
145.0394167176
 21
202.9228499968
 31
0.0
  0
LINE
  5
2E1
330
1F
100
AcDbEntity
  8
0
  6
Continuous
 62
     7
370
    25
100
AcDbLine
 10
145.0394167176
 20
202.9228499968
 30
0.0
 11
143.5408456301
 21
202.9411616883
 31
0.0
  0
LINE
  5
2E2
330
1F
100
AcDbEntity
  8
0
  6
Continuous
 62
     7
370
    25
100
AcDbLine
 10
165.0592363289
 20
202.0651246063
 30
0.0
 11
164.9242694732
 21
201.9009639374
 31
0.0
  0
LINE
  5
2E3
330
1F
100
AcDbEntity
  8
0
  6
Continuous
 62
     7
370
    25
100
AcDbLine
 10
164.9242694732
 20
201.9009639374
 30
0.0
 11
164.443706069
 21
203.5774098902
 31
0.0
  0
LINE
  5
2E4
330
1F
100
AcDbEntity
  8
0
  6
Continuous
 62
     7
370
    25
100
AcDbLine
 10
166.2453362695
 20
201.9645484997
 30
0.0
 11
166.4846749659
 21
201.768648351
 31
0.0
  0
LINE
  5
2E5
330
1F
100
AcDbEntity
  8
0
  6
Continuous
 62
     7
370
    25
100
AcDbLine
 10
166.4846749659
 20
201.768648351
 30
0.0
 11
164.9242694732
 21
201.9009639374
 31
0.0
  0
LINE
  5
2E6
330
1F
100
AcDbEntity
  8
0
  6
Continuous
 62
     7
370
    25
100
AcDbLine
 10
163.97708495
 20
209.7487011233
 30
0.0
 11
164.1114665892
 21
209.9129911109
 31
0.0
  0
LINE
  5
2E7
330
1F
100
AcDbEntity
  8
0
  6
Continuous
 62
     7
370
    25
100
AcDbLine
 10
164.1114665892
 20
209.9129911109
 30
0.0
 11
166.4846749659
 21
201.768648351
 31
0.0
  0
LINE
  5
2E8
330
1F
100
AcDbEntity
  8
0
  6
Continuous
 62
     7
370
    25
100
AcDbLine
 10
162.5886220041
 20
210.0411074222
 30
0.0
 11
164.1114665892
 21
209.9129911109
 31
0.0
  0
LINE
  5
2E9
330
1F
100
AcDbEntity
  8
0
  6
Continuous
 62
     7
370
    25
100
AcDbLine
 10
163.2254626862
 20
208.3672126462
 30
0.0
 11
163.1845716628
 21
207.8843578933
 31
0.0
  0
LINE
  5
2EA
330
1F
100
AcDbEntity
  8
0
  6
Continuous
 62
     7
370
    25
100
AcDbLine
 10
164.2432230899
 20
204.8926991664
 30
0.0
 11
164.0035489067
 21
205.0884665782
 31
0.0
  0
LINE
  5
2EB
330
1F
100
AcDbEntity
  8
0
  6
Continuous
 62
     7
370
    25
100
AcDbLine
 10
164.0035489067
 20
205.0884665782
 30
0.0
 11
163.1845716628
 21
207.8843578933
 31
0.0
  0
LINE
  5
2EC
330
1F
100
AcDbEntity
  8
0
  6
Continuous
 62
     7
370
    25
100
AcDbLine
 10
161.6372621212
 20
205.11202222
 30
0.0
 11
161.9065693779
 21
205.2649527033
 31
0.0
  0
LINE
  5
2ED
330
1F
100
AcDbEntity
  8
0
  6
Continuous
 62
     7
370
    25
100
AcDbLine
 10
163.1845716628
 20
207.8843578933
 30
0.0
 11
161.9065693779
 21
205.2649527033
 31
0.0
  0
LINE
  5
2EE
330
1F
100
AcDbEntity
  8
0
  6
Continuous
 62
     7
370
    25
100
AcDbLine
 10
161.9065693779
 20
205.2649527033
 30
0.0
 11
164.0035489067
 21
205.0884665782
 31
0.0
  0
LINE
  5
2EF
330
1F
100
AcDbEntity
  8
0
  6
Continuous
 62
     7
370
    25
100
AcDbLine
 10
184.0193358319
 20
200.3181695916
 30
0.0
 11
184.2217393752
 21
200.4604492355
 31
0.0
  0
LINE
  5
2F0
330
1F
100
AcDbEntity
  8
0
  6
Continuous
 62
     7
370
    25
100
AcDbLine
 10
181.4459997077
 20
200.9451756631
 30
0.0
 11
184.2217393752
 21
200.4604492355
 31
0.0
  0
SPLINE
  5
2F1
330
1F
100
AcDbEntity
  8
0
  6
Continuous
 62
     7
370
    25
100
AcDbSpline
210
0.0
220
0.0
230
1.0
 70
     8
 71
     3
 72
    11
 73
     7
 74
     0
 42
0.00000001
 43
0.00000001
 40
0.0
 40
0.0
 40
0.0
 40
0.0
 40
0.0010075098985765
 40
0.0010075098985765
 40
0.0010075098985765
 40
0.0020150200456056
 40
0.0020150200456056
 40
0.0020150200456056
 40
0.0020150200456056
 10
176.9851894537071
 20
206.870898976927
 30
0.0
 10
177.0257636632067
 20
206.8645836142455
 30
0.0
 10
177.0662327630774
 20
206.8581895244155
 30
0.0
 10
177.1066395637502
 20
206.8517487809678
 30
0.0
 10
177.147046375349
 20
206.8453080357786
 30
0.0
 10
177.1873905565671
 20
206.8388203862709
 30
0.0
 10
177.2277115366387
 20
206.8323153631582
 30
0.0
  0
SPLINE
  5
2F2
330
1F
100
AcDbEntity
  8
0
  6
Continuous
 62
     7
370
    25
100
AcDbSpline
210
0.0
220
0.0
230
1.0
 70
     8
 71
     3
 72
    20
 73
    16
 74
     0
 42
0.00000001
 43
0.00000001
 40
0.001678118041208
 40
0.001678118041208
 40
0.001678118041208
 40
0.001678118041208
 40
0.125
 40
0.125
 40
0.25
 40
0.25
 40
0.375
 40
0.375
 40
0.5
 40
0.5
 40
0.625
 40
0.625
 40
0.75
 40
0.75
 40
0.9065188009963867
 40
0.9065188009963867
 40
0.9065188009963867
 40
0.9065188009963867
 10
175.8353783345214
 20
207.98654679296
 30
0.0
 10
175.8995608072498
 20
207.945134213785
 30
0.0
 10
175.9611225710889
 20
207.9053031684056
 30
0.0
 10
176.0799050166534
 20
207.8218814131203
 30
0.0
 10
176.137587496111
 20
207.7781290093263
 30
0.0
 10
176.2502442420798
 20
207.6853534509747
 30
0.0
 10
176.3062971583085
 20
207.6358066868931
 30
0.0
 10
176.4158299063658
 20
207.5350105872606
 30
0.0
 10
176.468351845048
 20
207.4841019712755
 30
0.0
 10
176.5708519370545
 20
207.3778536756751
 30
0.0
 10
176.6215256742508
 20
207.3222801028453
 30
0.0
 10
176.7207060483775
 20
207.209828000186
 30
0.0
 10
176.7687441642689
 20
207.1530980455086
 30
0.0
 10
176.8737062004332
 20
207.0224291803216
 30
0.0
 10
176.9296163221271
 20
206.9476551342842
 30
0.0
 10
176.9851894537104
 20
206.8708989769225
 30
0.0
  0
SPLINE
  5
2F3
330
1F
100
AcDbEntity
  8
0
  6
Continuous
 62
     7
370
    25
100
AcDbSpline
210
0.0
220
0.0
230
1.0
 70
     8
 71
     3
 72
    20
 73
    16
 74
     0
 42
0.00000001
 43
0.00000001
 40
0.0
 40
0.0
 40
0.0
 40
0.0
 40
0.125
 40
0.125
 40
0.25
 40
0.25
 40
0.375
 40
0.375
 40
0.5
 40
0.5
 40
0.625
 40
0.625
 40
0.75
 40
0.75
 40
1.0
 40
1.0
 40
1.0
 40
1.0
 10
175.9276202092022
 20
208.1352688420365
 30
0.0
 10
175.9925392191648
 20
208.0933834456523
 30
0.0
 10
176.0574489167705
 20
208.0514712965969
 30
0.0
 10
176.1839049600124
 20
207.9626603184212
 30
0.0
 10
176.2455160100807
 20
207.9159217380143
 30
0.0
 10
176.3647836336792
 20
207.8177019648256
 30
0.0
 10
176.4226918792564
 20
207.766487258178
 30
0.0
 10
176.5364073178361
 20
207.6618420902285
 30
0.0
 10
176.5918952110746
 20
207.6080612686184
 30
0.0
 10
176.6991665147068
 20
207.4968672906798
 30
0.0
 10
176.7512388959227
 20
207.4397398671377
 30
0.0
 10
176.8534507703134
 20
207.3238506062072
 30
0.0
 10
176.9033845245867
 20
207.2648884001476
 30
0.0
 10
177.0485291285855
 20
207.084195634524
 30
0.0
 10
177.1385220018267
 20
206.9584255225149
 30
0.0
 10
177.2277115366387
 20
206.8323153631582
 30
0.0
  0
LINE
  5
2F4
330
1F
100
AcDbEntity
  8
0
  6
Continuous
 62
     7
370
    25
100
AcDbLine
 10
184.4373356987
 20
202.7089974559
 30
0.0
 11
184.579656744
 21
202.5065186802
 31
0.0
  0
LINE
  5
2F5
330
1F
100
AcDbEntity
  8
0
  6
Continuous
 62
     7
370
    25
100
AcDbLine
 10
184.6251745282
 20
203.7865906796
 30
0.0
 11
184.8275911527
 21
203.9288680391
 31
0.0
  0
LINE
  5
2F6
330
1F
100
AcDbEntity
  8
0
  6
Continuous
 62
     7
370
    25
100
AcDbLine
 10
184.8275911527
 20
203.9288680391
 30
0.0
 11
184.579656744
 21
202.5065186802
 31
0.0
  0
SPLINE
  5
2F7
330
1F
100
AcDbEntity
  8
0
  6
Continuous
 62
     7
370
    25
100
AcDbSpline
210
0.0
220
0.0
230
1.0
 70
     8
 71
     3
 72
    26
 73
    22
 74
     0
 42
0.00000001
 43
0.00000001
 40
0.0009915430930103
 40
0.0009915430930103
 40
0.0009915430930103
 40
0.0009915430930103
 40
0.125
 40
0.125
 40
0.25
 40
0.25
 40
0.3749999999999999
 40
0.3749999999999999
 40
0.4374999999999999
 40
0.4374999999999999
 40
0.4999999999999999
 40
0.4999999999999999
 40
0.6249999999999999
 40
0.6249999999999999
 40
0.7499999999999999
 40
0.7499999999999999
 40
0.8124999999999999
 40
0.8124999999999999
 40
0.8749999999999999
 40
0.8749999999999999
 40
0.9993651396584982
 40
0.9993651396584982
 40
0.9993651396584982
 40
0.9993651396584982
 10
170.8412675894953
 20
207.7543358375261
 30
0.0
 10
170.9563664036727
 20
207.8476095562025
 30
0.0
 10
171.0668815768564
 20
207.935127652784
 30
0.0
 10
171.3008401765626
 20
208.0944146095932
 30
0.0
 10
171.423884942137
 20
208.1673960389556
 30
0.0
 10
171.6778063232926
 20
208.3013684901269
 30
0.0
 10
171.8068260389266
 20
208.3610124553711
 30
0.0
 10
172.0058417981466
 20
208.4379322458296
 30
0.0
 10
172.0736144264351
 20
208.4618034512226
 30
0.0
 10
172.2101429456239
 20
208.5064001530153
 30
0.0
 10
172.2780111326482
 20
208.5266922822657
 30
0.0
 10
172.483144571416
 20
208.5799610052686
 30
0.0
 10
172.6242759228793
 20
208.6065920733118
 30
0.0
 10
172.9088486881545
 20
208.6471106665171
 30
0.0
 10
173.0506016600624
 20
208.6598556793144
 30
0.0
 10
173.2655158267406
 20
208.6670416381604
 30
0.0
 10
173.3380781637881
 20
208.6676475872943
 30
0.0
 10
173.4827577923008
 20
208.6662973215915
 30
0.0
 10
173.5541583659098
 20
208.6641619890719
 30
0.0
 10
173.7670236174454
 20
208.6512553749411
 30
0.0
 10
173.9092839020883
 20
208.633642765418
 30
0.0
 10
174.0566813082948
 20
208.6145055165483
 30
0.0
  0
LWPOLYLINE
  5
2F8
330
1F
100
AcDbEntity
  8
0
  6
Continuous
 62
     7
370
    25
100
AcDbPolyline
 90
        4
 70
   128
 43
0.0
 10
170.8412675895
 20
207.7543358375
 10
170.8073832715
 20
207.7944428841
 10
170.773498169
 20
207.834549226
 10
170.7283174094
 20
207.8880222729
  0
SPLINE
  5
2F9
330
1F
100
AcDbEntity
  8
0
  6
Continuous
 62
     7
370
    25
100
AcDbSpline
210
0.0
220
0.0
230
1.0
 70
     8
 71
     3
 72
    26
 73
    22
 74
     0
 42
0.00000001
 43
0.00000001
 40
0.0
 40
0.0
 40
0.0
 40
0.0
 40
0.125
 40
0.125
 40
0.25
 40
0.25
 40
0.3749999999999999
 40
0.3749999999999999
 40
0.4374999999999999
 40
0.4374999999999999
 40
0.4999999999999999
 40
0.4999999999999999
 40
0.6249999999999999
 40
0.6249999999999999
 40
0.7499999999999999
 40
0.7499999999999999
 40
0.8124999999999999
 40
0.8124999999999999
 40
0.8749999999999999
 40
0.8749999999999999
 40
0.9999999999999999
 40
0.9999999999999999
 40
0.9999999999999999
 40
0.9999999999999999
 10
170.7283174093982
 20
207.888022272932
 30
0.0
 10
170.844296267515
 20
207.9820413215901
 30
0.0
 10
170.9614502769792
 20
208.075028145132
 30
0.0
 10
171.2083919143263
 20
208.2431543934744
 30
0.0
 10
171.3370839783972
 20
208.3194373012929
 30
0.0
 10
171.6013025980924
 20
208.4588427177075
 30
0.0
 10
171.7371071272084
 20
208.5216579620594
 30
0.0
 10
171.9460794513954
 20
208.6024259761641
 30
0.0
 10
172.0165480797932
 20
208.6272385703192
 30
0.0
 10
172.158547576724
 20
208.6736223523478
 30
0.0
 10
172.2301256018276
 20
208.6950381440938
 30
0.0
 10
172.4469780565825
 20
208.7513500436513
 30
0.0
 10
172.5940209559593
 20
208.7790263537699
 30
0.0
 10
172.8897732535991
 20
208.8211367321581
 30
0.0
 10
173.0387596423187
 20
208.834534835448
 30
0.0
 10
173.2626658308559
 20
208.8420214564134
 30
0.0
 10
173.3373657861429
 20
208.8426391833829
 30
0.0
 10
173.4867360589959
 20
208.841245140113
 30
0.0
 10
173.5614022012218
 20
208.8390214443754
 30
0.0
 10
173.7850289129754
 20
208.8254623340531
 30
0.0
 10
173.9334296852814
 20
208.8069622839205
 30
0.0
 10
174.0814778412405
 20
208.787731965041
 30
0.0
  0
SPLINE
  5
2FA
330
1F
100
AcDbEntity
  8
0
  6
Continuous
 62
     7
370
    25
100
AcDbSpline
210
0.0
220
0.0
230
1.0
 70
     8
 71
     3
 72
    18
 73
    14
 74
     0
 42
0.00000001
 43
0.00000001
 40
0.0014274720424363
 40
0.0014274720424363
 40
0.0014274720424363
 40
0.0014274720424363
 40
0.125
 40
0.125
 40
0.25
 40
0.25
 40
0.5
 40
0.5
 40
0.75
 40
0.75
 40
0.875
 40
0.875
 40
0.9988004465915233
 40
0.9988004465915233
 40
0.9988004465915233
 40
0.9988004465915233
 10
169.4891813341748
 20
205.3236795577694
 30
0.0
 10
169.5099220305499
 20
205.4443811856581
 30
0.0
 10
169.5303152194344
 20
205.5622742371997
 30
0.0
 10
169.5814650528737
 20
205.7914899801277
 30
0.0
 10
169.6130696959933
 20
205.9054110730798
 30
0.0
 10
169.7239628445386
 20
206.2432689360315
 30
0.0
 10
169.8185344432355
 20
206.4621504285495
 30
0.0
 10
170.0471777956854
 20
206.8756032761569
 30
0.0
 10
170.1826631104996
 20
207.0692214339469
 30
0.0
 10
170.4125367792423
 20
207.3428816471427
 30
0.0
 10
170.49234258832
 20
207.4302138741856
 30
0.0
 10
170.6594612628729
 20
207.5940720428649
 30
0.0
 10
170.7491618903912
 20
207.6732385456256
 30
0.0
 10
170.8412675895007
 20
207.7543358375307
 30
0.0
  0
LWPOLYLINE
  5
2FB
330
1F
100
AcDbEntity
  8
0
  6
Continuous
 62
     7
370
    25
100
AcDbPolyline
 90
        4
 70
   128
 43
0.0
 10
169.4891813342
 20
205.3236795578
 10
169.437229653
 20
205.3313127203
 10
169.3852780694
 20
205.3389463712
 10
169.3160119785
 20
205.3491250822
  0
SPLINE
  5
2FC
330
1F
100
AcDbEntity
  8
0
  6
Continuous
 62
     7
370
    25
100
AcDbSpline
210
0.0
220
0.0
230
1.0
 70
     8
 71
     3
 72
    18
 73
    14
 74
     0
 42
0.00000001
 43
0.00000001
 40
0.0
 40
0.0
 40
0.0
 40
0.0
 40
0.125
 40
0.125
 40
0.25
 40
0.25
 40
0.5
 40
0.5
 40
0.75
 40
0.75
 40
0.875
 40
0.875
 40
1.0
 40
1.0
 40
1.0
 40
1.0
 10
169.3160119785482
 20
205.3491250821826
 30
0.0
 10
169.3370005398899
 20
205.4712831669277
 30
0.0
 10
169.3579891450473
 20
205.5934412455728
 30
0.0
 10
169.411943523625
 20
205.8352248734574
 30
0.0
 10
169.4451276124809
 20
205.9548268837862
 30
0.0
 10
169.5610936410871
 20
206.3081402781815
 30
0.0
 10
169.6597768170863
 20
206.5366396911441
 30
0.0
 10
169.8996895805286
 20
206.9704708693785
 30
0.0
 10
170.0424555937173
 20
207.174352906435
 30
0.0
 10
170.2816687175431
 20
207.4591315610608
 30
0.0
 10
170.3653698887676
 20
207.550771682274
 30
0.0
 10
170.5422340294587
 20
207.7241851866223
 30
0.0
 10
170.6352757042459
 20
207.8061037483695
 30
0.0
 10
170.728317409398
 20
207.8880222729322
 30
0.0
  0
SPLINE
  5
2FD
330
1F
100
AcDbEntity
  8
0
  6
Continuous
 62
     7
370
    25
100
AcDbSpline
210
0.0
220
0.0
230
1.0
 70
     8
 71
     3
 72
    38
 73
    34
 74
     0
 42
0.00000001
 43
0.00000001
 40
0.0003863196206833
 40
0.0003863196206833
 40
0.0003863196206833
 40
0.0003863196206833
 40
0.0625
 40
0.0625
 40
0.125
 40
0.125
 40
0.15625
 40
0.15625
 40
0.1875
 40
0.1875
 40
0.25
 40
0.25
 40
0.3125
 40
0.3125
 40
0.375
 40
0.375
 40
0.5
 40
0.5
 40
0.5625
 40
0.5625
 40
0.625
 40
0.625
 40
0.6875
 40
0.6875
 40
0.75
 40
0.75
 40
0.8125
 40
0.8125
 40
0.875
 40
0.875
 40
0.9375
 40
0.9375
 40
0.9993662824181616
 40
0.9993662824181616
 40
0.9993662824181616
 40
0.9993662824181616
 10
172.9567834498409
 20
200.7791229045551
 30
0.0
 10
172.8195464440091
 20
200.8010264357263
 30
0.0
 10
172.6903010182087
 20
200.8224194394139
 30
0.0
 10
172.4308706482588
 20
200.8816564436347
 30
0.0
 10
172.2999375831821
 20
200.9170631002661
 30
0.0
 10
172.1099944576
 20
200.9778136996187
 30
0.0
 10
172.047468809198
 20
200.9997177461779
 30
0.0
 10
171.9221729421591
 20
201.0467962848065
 30
0.0
 10
171.8593066900946
 20
201.0718830481265
 30
0.0
 10
171.6739397182438
 20
201.149861760903
 30
0.0
 10
171.5556728013241
 20
201.206695032452
 30
0.0
 10
171.3217568013988
 20
201.3351654392053
 30
0.0
 10
171.2080432076556
 20
201.4042754043025
 30
0.0
 10
170.9902041820686
 20
201.5549758369619
 30
0.0
 10
170.88463357096
 20
201.636695761484
 30
0.0
 10
170.5818500380348
 20
201.8962233000616
 30
0.0
 10
170.3982047123916
 20
202.0895455023837
 30
0.0
 10
170.1592651398334
 20
202.4067155468869
 30
0.0
 10
170.0858738848462
 20
202.5167308232875
 30
0.0
 10
169.95004859955
 20
202.7456503711657
 30
0.0
 10
169.8866551409481
 20
202.8641586924203
 30
0.0
 10
169.7748167396363
 20
203.1037209075744
 30
0.0
 10
169.724116026977
 20
203.2292044432296
 30
0.0
 10
169.6341049308263
 20
203.4800775710423
 30
0.0
 10
169.5969733404752
 20
203.6061463844398
 30
0.0
 10
169.5323710364061
 20
203.867107205725
 30
0.0
 10
169.5055554016581
 20
203.997463408805
 30
0.0
 10
169.4668766139968
 20
204.2597858390439
 30
0.0
 10
169.4553432960614
 20
204.391715488276
 30
0.0
 10
169.4429212795105
 20
204.6602347004523
 30
0.0
 10
169.442429357021
 20
204.7922115100298
 30
0.0
 10
169.4571345964387
 20
205.0559171802772
 30
0.0
 10
169.4724591404793
 20
205.1868201967633
 30
0.0
 10
169.4891813341765
 20
205.3236795577822
 30
0.0
  0
LINE
  5
2FE
330
1F
100
AcDbEntity
  8
0
  6
Continuous
 62
     7
370
    25
100
AcDbLine
 10
172.9567834498
 20
200.7791229046
 30
0.0
 11
172.9317783337
 21
200.6059219601
 31
0.0
  0
SPLINE
  5
2FF
330
1F
100
AcDbEntity
  8
0
  6
Continuous
 62
     7
370
    25
100
AcDbSpline
210
0.0
220
0.0
230
1.0
 70
     8
 71
     3
 72
    38
 73
    34
 74
     0
 42
0.00000001
 43
0.00000001
 40
0.0
 40
0.0
 40
0.0
 40
0.0
 40
0.0625
 40
0.0625
 40
0.125
 40
0.125
 40
0.15625
 40
0.15625
 40
0.1875
 40
0.1875
 40
0.25
 40
0.25
 40
0.3125
 40
0.3125
 40
0.375
 40
0.375
 40
0.5
 40
0.5
 40
0.5625
 40
0.5625
 40
0.625
 40
0.625
 40
0.6875
 40
0.6875
 40
0.75
 40
0.75
 40
0.8125
 40
0.8125
 40
0.875
 40
0.875
 40
0.9375
 40
0.9375
 40
1.0
 40
1.0
 40
1.0
 40
1.0
 10
172.9317783336967
 20
200.6059219601387
 30
0.0
 10
172.7945676941064
 20
200.6278120608488
 30
0.0
 10
172.6574665877909
 20
200.6504359309556
 30
0.0
 10
172.3866074541467
 20
200.712282519522
 30
0.0
 10
172.2523008688939
 20
200.7485899201799
 30
0.0
 10
172.0538568142227
 20
200.8120594214459
 30
0.0
 10
171.9883008437104
 20
200.8350281491929
 30
0.0
 10
171.8582514016184
 20
200.88389279054
 30
0.0
 10
171.7937040708125
 20
200.9096508044271
 30
0.0
 10
171.6015978681824
 20
200.9904645247125
 30
0.0
 10
171.4762707128136
 20
201.0506734173347
 30
0.0
 10
171.2326938329072
 20
201.184449732662
 30
0.0
 10
171.113824692232
 20
201.2566883059663
 30
0.0
 10
170.8853243351869
 20
201.4147642173415
 30
0.0
 10
170.7753100747598
 20
201.499942883993
 30
0.0
 10
170.4588767406275
 20
201.7711701981172
 30
0.0
 10
170.2663510523806
 20
201.973769009325
 30
0.0
 10
170.0155565993553
 20
202.3066753043686
 30
0.0
 10
169.9383665168896
 20
202.4224300277628
 30
0.0
 10
169.7965905757027
 20
202.6613787923812
 30
0.0
 10
169.7309429591299
 20
202.7840599620864
 30
0.0
 10
169.6134275721742
 20
203.0357824999507
 30
0.0
 10
169.5613305195235
 20
203.1647840169468
 30
0.0
 10
169.4674958193492
 20
203.4263140519277
 30
0.0
 10
169.4282104496826
 20
203.5597069150236
 30
0.0
 10
169.3614335565929
 20
203.8294519776844
 30
0.0
 10
169.3333770511511
 20
203.9656499163601
 30
0.0
 10
169.2928435262554
 20
204.2405513153072
 30
0.0
 10
169.2807625942855
 20
204.3790967023486
 30
0.0
 10
169.2679211965178
 20
204.6566814472152
 30
0.0
 10
169.2673777975269
 20
204.7957552271437
 30
0.0
 10
169.2828492786477
 20
205.0732017456421
 30
0.0
 10
169.2991552407303
 20
205.2112712320018
 30
0.0
 10
169.3160119785476
 20
205.3491250821827
 30
0.0
  0
SPLINE
  5
300
330
1F
100
AcDbEntity
  8
0
  6
Continuous
 62
     7
370
    25
100
AcDbSpline
210
0.0
220
0.0
230
1.0
 70
     8
 71
     3
 72
    40
 73
    36
 74
     0
 42
0.00000001
 43
0.00000001
 40
0.0007934871314442
 40
0.0007934871314442
 40
0.0007934871314442
 40
0.0007934871314442
 40
0.0625
 40
0.0625
 40
0.125
 40
0.125
 40
0.1875
 40
0.1875
 40
0.25
 40
0.25
 40
0.3125
 40
0.3125
 40
0.375
 40
0.375
 40
0.4375
 40
0.4375
 40
0.5
 40
0.5
 40
0.5625
 40
0.5625
 40
0.625
 40
0.625
 40
0.6875
 40
0.6875
 40
0.75
 40
0.75
 40
0.8125
 40
0.8125
 40
0.84375
 40
0.84375
 40
0.875
 40
0.875
 40
0.9375
 40
0.9375
 40
0.9995800989615665
 40
0.9995800989615665
 40
0.9995800989615665
 40
0.9995800989615665
 10
177.1892723361914
 20
203.8802545705456
 30
0.0
 10
177.1683028534061
 20
203.7552105434264
 30
0.0
 10
177.1477468490574
 20
203.638619985429
 30
0.0
 10
177.0899037439371
 20
203.4041795205622
 30
0.0
 10
177.0546321178234
 20
203.2869297390549
 30
0.0
 10
176.9723661447162
 20
203.0587153963862
 30
0.0
 10
176.9245685898349
 20
202.9451758506148
 30
0.0
 10
176.8200760429908
 20
202.724480087742
 30
0.0
 10
176.7624984805905
 20
202.6175858240335
 30
0.0
 10
176.6361227442887
 20
202.4085816667572
 30
0.0
 10
176.568031851611
 20
202.3076483384906
 30
0.0
 10
176.4214949778993
 20
202.1109361711994
 30
0.0
 10
176.3436871373003
 20
202.0145055909318
 30
0.0
 10
176.1818710478981
 20
201.8316544717482
 30
0.0
 10
176.0961548884221
 20
201.7437930421533
 30
0.0
 10
175.9177399731796
 20
201.5763416314083
 30
0.0
 10
175.8249922829193
 20
201.4969740134379
 30
0.0
 10
175.6324453468782
 20
201.3503443169259
 30
0.0
 10
175.5309443027095
 20
201.2817122610169
 30
0.0
 10
175.3230282258865
 20
201.1551295843995
 30
0.0
 10
175.216158808609
 20
201.0977682157031
 30
0.0
 10
174.9961853144086
 20
200.994600260894
 30
0.0
 10
174.8842507102638
 20
200.9495920226389
 30
0.0
 10
174.6540327253356
 20
200.8720152081298
 30
0.0
 10
174.5366410022036
 20
200.8390493226222
 30
0.0
 10
174.2998258663869
 20
200.7866643215282
 30
0.0
 10
174.1799209994331
 20
200.7671939249148
 30
0.0
 10
173.9975564773881
 20
200.7465030196167
 30
0.0
 10
173.9363552168061
 20
200.7409135905119
 30
0.0
 10
173.8146919230509
 20
200.7327643554243
 30
0.0
 10
173.7543383701446
 20
200.7302828009985
 30
0.0
 10
173.5718246639276
 20
200.7278948416455
 30
0.0
 10
173.4467157277263
 20
200.7318077386052
 30
0.0
 10
173.2027699203294
 20
200.7479884628715
 30
0.0
 10
173.0835144814211
 20
200.7627489178736
 30
0.0
 10
172.9567834498332
 20
200.7791229045562
 30
0.0
  0
LWPOLYLINE
  5
301
330
1F
100
AcDbEntity
  8
0
  6
Continuous
 62
     7
370
    25
100
AcDbPolyline
 90
        4
 70
   128
 43
0.0
 10
177.1892723362
 20
203.8802545705
 10
177.2412869893
 20
203.8730294388
 10
177.2933018024
 20
203.8658057546
 10
177.3626546821
 20
203.8561765233
  0
SPLINE
  5
302
330
1F
100
AcDbEntity
  8
0
  6
Continuous
 62
     7
370
    25
100
AcDbSpline
210
0.0
220
0.0
230
1.0
 70
     8
 71
     3
 72
    40
 73
    36
 74
     0
 42
0.00000001
 43
0.00000001
 40
0.0
 40
0.0
 40
0.0
 40
0.0
 40
0.0625
 40
0.0625
 40
0.125
 40
0.125
 40
0.1875
 40
0.1875
 40
0.25
 40
0.25
 40
0.3125
 40
0.3125
 40
0.375
 40
0.375
 40
0.4375
 40
0.4375
 40
0.5
 40
0.5
 40
0.5625
 40
0.5625
 40
0.625
 40
0.625
 40
0.6875
 40
0.6875
 40
0.75
 40
0.75
 40
0.8125
 40
0.8125
 40
0.84375
 40
0.84375
 40
0.875
 40
0.875
 40
0.9375
 40
0.9375
 40
1.0
 40
1.0
 40
1.0
 40
1.0
 10
177.3626546820969
 20
203.8561765233176
 30
0.0
 10
177.3415505088457
 20
203.7301815592418
 30
0.0
 10
177.3194979335983
 20
203.6042768385713
 30
0.0
 10
177.2582880091012
 20
203.3561905140909
 30
0.0
 10
177.2214267750691
 20
203.2336554537126
 30
0.0
 10
177.134789357611
 20
202.993314267636
 30
0.0
 10
177.0851372398916
 20
202.8754133732452
 30
0.0
 10
176.9758010207949
 20
202.6444874286234
 30
0.0
 10
176.915151317523
 20
202.5318769392969
 30
0.0
 10
176.7829365816754
 20
202.3132160615673
 30
0.0
 10
176.7114020952817
 20
202.2072089824945
 30
0.0
 10
176.558769893082
 20
202.0023144003879
 30
0.0
 10
176.4784696424827
 20
201.9027795041853
 30
0.0
 10
176.309158443693
 20
201.7114589619764
 30
0.0
 10
176.2198416886113
 20
201.6199065712354
 30
0.0
 10
176.0335441899761
 20
201.4450569583598
 30
0.0
 10
175.9363621416387
 20
201.3618474113977
 30
0.0
 10
175.7330965935435
 20
201.2070552031714
 30
0.0
 10
175.6270984779077
 20
201.1353976547452
 30
0.0
 10
175.408858204437
 20
201.0025294407602
 30
0.0
 10
175.2961462350044
 20
200.9420166427851
 30
0.0
 10
175.0647958979132
 20
200.8335129293453
 30
0.0
 10
174.9460898438789
 20
200.7857854518089
 30
0.0
 10
174.7039441395748
 20
200.7041893393762
 30
0.0
 10
174.5807688467521
 20
200.6696034642951
 30
0.0
 10
174.3312830089711
 20
200.614415623782
 30
0.0
 10
174.2050150054916
 20
200.593941103977
 30
0.0
 10
174.0145987661571
 20
200.5723366579054
 30
0.0
 10
173.9509550499322
 20
200.5665221025027
 30
0.0
 10
173.8234803141438
 20
200.5579836067109
 30
0.0
 10
173.7596483196632
 20
200.5553599724028
 30
0.0
 10
173.5680722032135
 20
200.5528534413348
 30
0.0
 10
173.4402092914034
 20
200.5568774882932
 30
0.0
 10
173.1852928399843
 20
200.5737858876622
 30
0.0
 10
173.0584971513948
 20
200.5895410880806
 30
0.0
 10
172.9317783336967
 20
200.6059219601388
 30
0.0
  0
LINE
  5
303
330
1F
100
AcDbEntity
  8
0
  6
Continuous
 62
     7
370
    25
100
AcDbLine
 10
181.2227702232
 20
207.3243513041
 30
0.0
 11
181.0804931305
 21
207.5268609073
 31
0.0
  0
LINE
  5
304
330
1F
100
AcDbEntity
  8
0
  6
Continuous
 62
     7
370
    25
100
AcDbLine
 10
181.0804931305
 20
207.5268609073
 30
0.0
 11
185.3259642818
 21
206.7845276161
 31
0.0
  0
LINE
  5
305
330
1F
100
AcDbEntity
  8
0
  6
Continuous
 62
     7
370
    25
100
AcDbLine
 10
179.9253226567
 20
199.8906986803
 30
0.0
 11
179.7228751347
 21
199.7484652039
 31
0.0
  0
LINE
  5
306
330
1F
100
AcDbEntity
  8
0
  6
Continuous
 62
     7
370
    25
100
AcDbLine
 10
183.8260186628
 20
199.2086503513
 30
0.0
 11
183.968346286
 21
199.0061319127
 31
0.0
  0
LINE
  5
307
330
1F
100
AcDbEntity
  8
0
  6
Continuous
 62
     7
370
    25
100
AcDbLine
 10
183.968346286
 20
199.0061319127
 30
0.0
 11
179.7228751347
 21
199.7484652039
 31
0.0
  0
LINE
  5
308
330
1F
100
AcDbEntity
  8
0
  6
Continuous
 62
     7
370
    25
100
AcDbLine
 10
184.2217393752
 20
200.4604492355
 30
0.0
 11
183.968346286
 21
199.0061319127
 31
0.0
  0
LINE
  5
309
330
1F
100
AcDbEntity
  8
0
  6
Continuous
 62
     7
370
    25
100
AcDbLine
 10
181.8494280968
 20
204.2713182884
 30
0.0
 11
182.0518514851
 21
204.4135944668
 31
0.0
  0
LINE
  5
30A
330
1F
100
AcDbEntity
  8
0
  6
Continuous
 62
     7
370
    25
100
AcDbLine
 10
182.2970565535
 20
205.8199598439
 30
0.0
 11
182.0518514851
 21
204.4135944668
 31
0.0
  0
LINE
  5
30B
330
1F
100
AcDbEntity
  8
0
  6
Continuous
 62
     7
370
    25
100
AcDbLine
 10
176.9851894537
 20
206.8708989769
 30
0.0
 11
176.0716535746
 21
206.1973459753
 31
0.0
  0
LINE
  5
30C
330
1F
100
AcDbEntity
  8
0
  6
Continuous
 62
     7
370
    25
100
AcDbLine
 10
175.8392350134
 20
203.1691054999
 30
0.0
 11
173.4791994718
 21
203.5134842593
 31
0.0
  0
LINE
  5
30D
330
1F
100
AcDbEntity
  8
0
  6
Continuous
 62
     7
370
    25
100
AcDbLine
 10
173.4791994718
 20
203.5134842593
 30
0.0
 11
173.6311677518
 21
204.5593425205
 31
0.0
  0
LINE
  5
30E
330
1F
100
AcDbEntity
  8
0
  6
Continuous
 62
     7
370
    25
100
AcDbLine
 10
173.6311677518
 20
204.5593425205
 30
0.0
 11
177.2066267866
 21
204.0374912273
 31
0.0
  0
LINE
  5
30F
330
1F
100
AcDbEntity
  8
0
  6
Continuous
 62
     7
370
    25
100
AcDbLine
 10
177.2066267866
 20
204.0374912273
 30
0.0
 11
177.1892723362
 21
203.8802545705
 31
0.0
  0
LINE
  5
310
330
1F
100
AcDbEntity
  8
0
  6
Continuous
 62
     7
370
    25
100
AcDbLine
 10
143.5408456301
 20
202.9411616883
 30
0.0
 11
143.6362661099
 21
210.8123410416
 31
0.0
  0
LINE
  5
311
330
1F
100
AcDbEntity
  8
0
  6
Continuous
 62
     7
370
    25
100
AcDbLine
 10
179.7228751347
 20
199.7484652039
 30
0.0
 11
181.0804931305
 21
207.5268609073
 31
0.0
  0
LINE
  5
312
330
1F
100
AcDbEntity
  8
0
  6
Continuous
 62
     7
370
    25
100
AcDbLine
 10
145.1021338334
 20
208.0866241053
 30
0.0
 11
145.0394167176
 21
202.9228499968
 31
0.0
  0
LINE
  5
313
330
1F
100
AcDbEntity
  8
0
  6
Continuous
 62
     7
370
    25
100
AcDbLine
 10
182.0518514851
 20
204.4135944668
 30
0.0
 11
184.8275911527
 21
203.9288680391
 31
0.0
  0
LINE
  5
314
330
1F
100
AcDbEntity
  8
0
  6
Continuous
 62
     7
370
    25
100
AcDbLine
 10
184.579656744
 20
202.5065186802
 30
0.0
 11
181.8039170765
 21
202.9912451078
 31
0.0
  0
LINE
  5
315
330
1F
100
AcDbEntity
  8
0
  6
Continuous
 62
     7
370
    25
100
AcDbLine
 10
177.2277115366
 20
206.8323153632
 30
0.0
 11
176.0352163038
 21
205.9530847146
 31
0.0
  0
LINE
  5
316
330
1F
100
AcDbEntity
  8
0
  6
Continuous
 62
     7
370
    25
100
AcDbLine
 10
177.2066267866
 20
204.0374912273
 30
0.0
 11
177.3990834873
 21
204.1862326998
 31
0.0
  0
LINE
  5
317
330
1F
100
AcDbEntity
  8
0
  6
Continuous
 62
     7
370
    25
100
AcDbLine
 10
177.3990834873
 20
204.1862326998
 30
0.0
 11
177.3626546821
 21
203.8561765233
 31
0.0
  0
LINE
  5
318
330
1F
100
AcDbEntity
  8
0
  6
Continuous
 62
     7
370
    25
100
AcDbLine
 10
173.6311677518
 20
204.5593425205
 30
0.0
 11
173.4831856873
 21
204.7577722732
 31
0.0
  0
LINE
  5
319
330
1F
100
AcDbEntity
  8
0
  6
Continuous
 62
     7
370
    25
100
AcDbLine
 10
173.4831856873
 20
204.7577722732
 30
0.0
 11
177.3990834873
 21
204.1862326998
 31
0.0
  0
LINE
  5
31A
330
1F
100
AcDbEntity
  8
0
  6
Continuous
 62
     7
370
    25
100
AcDbLine
 10
173.4791994718
 20
203.5134842593
 30
0.0
 11
173.2808949424
 21
203.3655906501
 31
0.0
  0
LINE
  5
31B
330
1F
100
AcDbEntity
  8
0
  6
Continuous
 62
     7
370
    25
100
AcDbLine
 10
175.5356272669
 20
203.036577842
 30
0.0
 11
173.2808949424
 21
203.3655906501
 31
0.0
  0
LINE
  5
31C
330
1F
100
AcDbEntity
  8
0
  6
Continuous
 62
     7
370
    25
100
AcDbLine
 10
173.2808949424
 20
203.3655906501
 30
0.0
 11
173.4831856873
 21
204.7577722732
 31
0.0
  0
CIRCLE
  5
31D
330
1F
100
AcDbEntity
  8
0
  6
Continuous
 62
     7
370
    25
100
AcDbCircle
 10
74.6152563428
 20
194.6370210573
 30
0.0
 40
2.499999999999998
  0
CIRCLE
  5
31E
330
1F
100
AcDbEntity
  8
0
  6
Continuous
 62
     7
370
    25
100
AcDbCircle
 10
212.0098761542
 20
195.2365219844
 30
0.0
 40
2.499999999999988
  0
LINE
  5
31F
330
1F
100
AcDbEntity
  8
0
  6
Continuous
 62
     7
370
    25
100
AcDbLine
 10
214.9968836083
 20
189.0658018912
 30
0.0
 11
218.3586729651
 21
197.8235625822
 31
0.0
  0
LINE
  5
320
330
1F
100
AcDbEntity
  8
0
  6
Continuous
 62
     7
370
    25
100
AcDbLine
 10
68.244125373
 20
197.1685601478
 30
0.0
 11
71.6822116327
 21
188.4404696996
 31
0.0
  0
LINE
  5
321
330
1F
100
AcDbEntity
  8
0
  6
PHANTOM
 62
     8
370
    18
100
AcDbLine
 10
120.2407395804
 20
205.1648229692
 30
0.0
 11
120.2614588752
 21
204.9910735456
 31
0.0
  0
LWPOLYLINE
  5
322
330
1F
100
AcDbEntity
  8
0
  6
PHANTOM
 62
     8
370
    18
100
AcDbPolyline
 90
        3
 70
   128
 43
0.0
 10
121.06458265
 20
201.7920679576
 10
121.0747414485
 20
201.7145543897
 10
121.0873206571
 20
201.6185719736
  0
LINE
  5
323
330
1F
100
AcDbEntity
  8
0
  6
PHANTOM
 62
     8
370
    18
100
AcDbLine
 10
120.601561532
 20
202.823715761
 30
0.0
 11
120.5793258171
 21
202.997274506
 31
0.0
  0
LWPOLYLINE
  5
324
330
1F
100
AcDbEntity
  8
0
  6
PHANTOM
 62
     8
370
    18
100
AcDbPolyline
 90
        3
 70
   128
 43
0.0
 10
119.1608394198
 20
209.139861136
 10
119.1522689026
 20
209.2093444572
 10
119.139418722
 20
209.3135227054
  0
LINE
  5
325
330
1F
100
AcDbEntity
  8
0
  6
Continuous
 62
     7
370
    18
100
AcDbLine
 10
67.8776241463
 20
198.0989777157
 30
0.0
 11
66.0885219964
 21
202.6408781238
 31
0.0
  0
LINE
  5
326
330
1F
100
AcDbEntity
  8
0
  6
Continuous
 62
     7
370
    18
100
AcDbLine
 10
67.4050621189
 20
202.0794211103
 30
0.0
 11
65.5228532507
 21
201.3484396413
 31
0.0
  0
LINE
  5
327
330
1F
100
AcDbEntity
  8
0
  6
Continuous
 62
     7
370
    18
100
AcDbLine
 10
219.746255693
 20
201.438339173
 30
0.0
 11
220.4664398859
 21
203.3144831385
 31
0.0
  0
LINE
  5
328
330
1F
100
AcDbEntity
  8
0
  6
Continuous
 62
     7
370
    18
100
AcDbLine
 10
219.1548494678
 20
202.7415586694
 30
0.0
 11
221.0433656029
 21
202.0270301965
 31
0.0
  0
DIMENSION
  5
329
330
1F
100
AcDbEntity
  8
0
  6
Continuous
 62
     7
370
    18
100
AcDbDimension
  2
_D
 10
219.9717130739
 20
233.6318536478
 30
0.0
 11
146.9338810345
 21
233.3131639635
 31
0.0
 70
   160
  1
<>
 71
     2
 42
-1.0
  3
SLDDIMSTYLE0
100
AcDbAlignedDimension
 13
66.4550232231
 23
201.7104605558
 33
0.0
 14
220.1080719363
 24
202.380902712
 34
0.0
 50
0.25
100
AcDbRotatedDimension
  0
DIMENSION
  5
335
330
1F
100
AcDbEntity
  8
0
  6
Continuous
 62
     7
370
    18
100
AcDbDimension
  2
_D_1
 10
230.3668132249
 20
198.4616802607
 30
0.0
 11
226.6592919712
 21
188.7425098068
 31
0.0
 70
   160
  1
<>
 71
     2
 42
-1.0
  3
SLDDIMSTYLE1
100
AcDbAlignedDimension
 13
211.447493644
 23
185.3426465279
 33
0.0
 14
218.2195558012
 24
203.095431185
 34
0.0
 50
69.119908506
100
AcDbRotatedDimension
  0
INSERT
  5
34B
330
1F
100
AcDbEntity
  8
0
  6
Continuous
 62
     7
370
     0
100
AcDbBlockReference
  2
SW_CENTERMARKSYMBOL_0
 10
74.6152563428
 20
194.6370210573
 30
0.0
  0
INSERT
  5
357
330
1F
100
AcDbEntity
  8
0
  6
Continuous
 62
     7
370
     0
100
AcDbBlockReference
  2
SW_CENTERMARKSYMBOL_1
 10
212.0098761542
 20
195.2365219844
 30
0.0
  0
LINE
  5
358
330
1F
100
AcDbEntity
  8
0
  6
Continuous
 62
     7
370
    25
100
AcDbLine
 10
295.3186556709
 20
196.8518107611
 30
0.0
 11
297.3186556709
 21
196.8518107611
 31
0.0
  0
LINE
  5
359
330
1F
100
AcDbEntity
  8
0
  6
Continuous
 62
     7
370
    25
100
AcDbLine
 10
297.3186556709
 20
216.4581580137
 30
0.0
 11
292.3186556709
 21
216.4581580137
 31
0.0
  0
LINE
  5
35A
330
1F
100
AcDbEntity
  8
0
  6
Continuous
 62
     7
370
    25
100
AcDbLine
 10
297.3186556709
 20
189.123720313
 30
0.0
 11
295.3186556709
 21
189.123720313
 31
0.0
  0
LINE
  5
35B
330
1F
100
AcDbEntity
  8
0
  6
Continuous
 62
     7
370
    25
100
AcDbLine
 10
292.3186556709
 20
184.6167229539
 30
0.0
 11
297.3186556709
 21
184.6167229539
 31
0.0
  0
LINE
  5
35C
330
1F
100
AcDbEntity
  8
0
  6
Continuous
 62
     7
370
    25
100
AcDbLine
 10
297.3186556709
 20
192.9077255561
 30
0.0
 11
295.3186556709
 21
192.9077255561
 31
0.0
  0
LINE
  5
35D
330
1F
100
AcDbEntity
  8
0
  6
Continuous
 62
     7
370
    25
100
AcDbLine
 10
297.3186556709
 20
199.840672741
 30
0.0
 11
297.3186556709
 21
197.1685601478
 31
0.0
  0
LINE
  5
35E
330
1F
100
AcDbEntity
  8
0
  6
Continuous
 62
     7
370
    25
100
AcDbLine
 10
295.3186556709
 20
197.1685601478
 30
0.0
 11
295.3186556709
 21
188.4404696996
 31
0.0
  0
LINE
  5
35F
330
1F
100
AcDbEntity
  8
0
  6
Continuous
 62
     7
370
    25
100
AcDbLine
 10
297.3186556709
 20
188.4404696996
 30
0.0
 11
297.3186556709
 21
185.8837205005
 31
0.0
  0
LINE
  5
360
330
1F
100
AcDbEntity
  8
0
  6
Continuous
 62
     7
370
    25
100
AcDbLine
 10
292.3186556709
 20
199.840672741
 30
0.0
 11
292.3186556709
 21
185.8837205005
 31
0.0
  0
LINE
  5
361
330
1F
100
AcDbEntity
  8
0
  6
Continuous
 62
     7
370
    25
100
AcDbLine
 10
297.3186556709
 20
202.4414420248
 30
0.0
 11
297.3186556709
 21
199.840672741
 31
0.0
  0
LINE
  5
362
330
1F
100
AcDbEntity
  8
0
  6
Continuous
 62
     7
370
    25
100
AcDbLine
 10
292.3186556709
 20
202.4414420248
 30
0.0
 11
292.3186556709
 21
199.840672741
 31
0.0
  0
LINE
  5
363
330
1F
100
AcDbEntity
  8
0
  6
Continuous
 62
     7
370
    25
100
AcDbLine
 10
297.3186556709
 20
197.1685601478
 30
0.0
 11
297.3186556709
 21
196.8518107611
 31
0.0
  0
LINE
  5
364
330
1F
100
AcDbEntity
  8
0
  6
Continuous
 62
     7
370
    25
100
AcDbLine
 10
297.3186556709
 20
216.4581580137
 30
0.0
 11
297.3186556709
 21
202.4414420248
 31
0.0
  0
LINE
  5
365
330
1F
100
AcDbEntity
  8
0
  6
Continuous
 62
     7
370
    25
100
AcDbLine
 10
292.3186556709
 20
216.4581580137
 30
0.0
 11
292.3186556709
 21
202.4414420248
 31
0.0
  0
LINE
  5
366
330
1F
100
AcDbEntity
  8
0
  6
Continuous
 62
     7
370
    25
100
AcDbLine
 10
297.3186556709
 20
189.123720313
 30
0.0
 11
297.3186556709
 21
188.4404696996
 31
0.0
  0
LINE
  5
367
330
1F
100
AcDbEntity
  8
0
  6
Continuous
 62
     7
370
    25
100
AcDbLine
 10
297.3186556709
 20
189.123720313
 30
0.0
 11
297.3186556709
 21
192.5792098254
 31
0.0
  0
LINE
  5
368
330
1F
100
AcDbEntity
  8
0
  6
Continuous
 62
     7
370
    25
100
AcDbLine
 10
297.3186556709
 20
185.8837205005
 30
0.0
 11
297.3186556709
 21
184.6167229539
 31
0.0
  0
LINE
  5
369
330
1F
100
AcDbEntity
  8
0
  6
Continuous
 62
     7
370
    25
100
AcDbLine
 10
292.3186556709
 20
185.8837205005
 30
0.0
 11
292.3186556709
 21
184.6167229539
 31
0.0
  0
LINE
  5
36A
330
1F
100
AcDbEntity
  8
0
  6
Continuous
 62
     7
370
    25
100
AcDbLine
 10
297.3186556709
 20
192.9077255561
 30
0.0
 11
297.3186556709
 21
192.5792098254
 31
0.0
  0
LINE
  5
36B
330
1F
100
AcDbEntity
  8
0
  6
Continuous
 62
     7
370
    25
100
AcDbLine
 10
297.3186556709
 20
192.9077255561
 30
0.0
 11
297.3186556709
 21
196.8518107611
 31
0.0
  0
LINE
  5
36C
330
1F
100
AcDbEntity
  8
0
  6
PHANTOM
 62
     8
370
    18
100
AcDbLine
 10
297.3186556709
 20
185.8837205005
 30
0.0
 11
292.3186556709
 21
185.8837205005
 31
0.0
  0
LINE
  5
36D
330
1F
100
AcDbEntity
  8
0
  6
PHANTOM
 62
     8
370
    18
100
AcDbLine
 10
297.3186556709
 20
199.840672741
 30
0.0
 11
292.3186556709
 21
199.840672741
 31
0.0
  0
LINE
  5
36E
330
1F
100
AcDbEntity
  8
0
  6
PHANTOM
 62
     8
370
    18
100
AcDbLine
 10
295.3186556709
 20
197.1685601478
 30
0.0
 11
297.3186556709
 21
197.1685601478
 31
0.0
  0
LINE
  5
36F
330
1F
100
AcDbEntity
  8
0
  6
PHANTOM
 62
     8
370
    18
100
AcDbLine
 10
297.3186556709
 20
188.4404696996
 30
0.0
 11
295.3186556709
 21
188.4404696996
 31
0.0
  0
LINE
  5
370
330
1F
100
AcDbEntity
  8
0
  6
PHANTOM
 62
     8
370
    18
100
AcDbLine
 10
297.3186556709
 20
202.4414420248
 30
0.0
 11
292.3186556709
 21
202.4414420248
 31
0.0
  0
LINE
  5
371
330
1F
100
AcDbEntity
  8
0
  6
PHANTOM
 62
     8
370
    18
100
AcDbLine
 10
297.3186556709
 20
192.5792098254
 30
0.0
 11
295.3186556709
 21
192.5792098254
 31
0.0
  0
DIMENSION
  5
372
330
1F
100
AcDbEntity
  8
0
  6
Continuous
 62
     7
370
    18
100
AcDbDimension
  2
_D_2
 10
292.3186556709
 20
222.9757277016
 30
0.0
 11
294.5895811627
 21
222.9757277016
 31
0.0
 70
   160
  1
<>
 71
     2
 42
-1.0
  3
SLDDIMSTYLE2
100
AcDbAlignedDimension
 13
297.3186556709
 23
216.4581580137
 33
0.0
 14
292.3186556709
 24
216.4581580137
 34
0.0
 50
0.0
100
AcDbRotatedDimension
  0
LINE
  5
37F
330
1F
100
AcDbEntity
  8
0
  6
Continuous
 62
     7
370
    25
100
AcDbLine
 10
73.350178084
 20
47.4799565344
 30
0.0
 11
74.7643916464
 21
46.6635484226
 31
0.0
  0
LINE
  5
380
330
1F
100
AcDbEntity
  8
0
  6
Continuous
 62
     7
370
    25
100
AcDbLine
 10
74.6090183167
 20
41.0241138584
 30
0.0
 11
78.1445522227
 21
38.9830935789
 31
0.0
  0
LINE
  5
381
330
1F
100
AcDbEntity
  8
0
  6
Continuous
 62
     7
370
    25
100
AcDbLine
 10
83.7578892564
 20
48.3957651978
 30
0.0
 11
82.343675694
 21
49.2121733096
 31
0.0
  0
LINE
  5
382
330
1F
100
AcDbEntity
  8
0
  6
Continuous
 62
     7
370
    25
100
AcDbLine
 10
112.6338721214
 20
77.9836014828
 30
0.0
 11
111.3126464302
 21
78.9479093168
 31
0.0
  0
LINE
  5
383
330
1F
100
AcDbEntity
  8
0
  6
Continuous
 62
     7
370
    25
100
AcDbLine
 10
113.3193542882
 20
75.6821510227
 30
0.0
 11
112.6236773371
 21
76.189913988
 31
0.0
  0
LINE
  5
384
330
1F
100
AcDbEntity
  8
0
  6
Continuous
 62
     7
370
    25
100
AcDbLine
 10
145.6800072083
 20
93.0018054233
 30
0.0
 11
147.1754812998
 21
92.340049551
 31
0.0
  0
LINE
  5
385
330
1F
100
AcDbEntity
  8
0
  6
Continuous
 62
     7
370
    25
100
AcDbLine
 10
151.3485520587
 20
99.2670089726
 30
0.0
 11
150.0269390021
 21
100.2316332016
 31
0.0
  0
LINE
  5
386
330
1F
100
AcDbEntity
  8
0
  6
Continuous
 62
     7
370
    25
100
AcDbLine
 10
172.1287244457
 20
107.1919363653
 30
0.0
 11
173.542938008
 21
106.3755282535
 31
0.0
  0
LINE
  5
387
330
1F
100
AcDbEntity
  8
0
  6
Continuous
 62
     7
370
    25
100
AcDbLine
 10
172.2823889338
 20
99.9684184101
 30
0.0
 11
170.8681753714
 21
100.7848265219
 31
0.0
  0
LINE
  5
388
330
1F
100
AcDbEntity
  8
0
  6
Continuous
 62
     7
370
    25
100
AcDbLine
 10
181.2398349818
 20
112.7338394789
 30
0.0
 11
177.7043010759
 21
114.7748597585
 31
0.0
  0
LINE
  5
389
330
1F
100
AcDbEntity
  8
0
  6
Continuous
 62
     7
370
    25
100
AcDbLine
 10
178.8381698301
 20
108.9083935852
 30
0.0
 11
180.2523833925
 21
108.0919854734
 31
0.0
  0
LINE
  5
38A
330
1F
100
AcDbEntity
  8
0
  6
Continuous
 62
     7
370
    25
100
AcDbLine
 10
178.3751987077
 20
100.4346692603
 30
0.0
 11
176.9609851454
 21
101.2510773721
 31
0.0
  0
LWPOLYLINE
  5
38B
330
1F
100
AcDbEntity
  8
0
  6
Continuous
 62
     7
370
    25
100
AcDbPolyline
 90
        9
 70
   128
 43
0.0
 10
173.6860175821
 20
107.6881088614
 10
173.7456306908
 20
108.0371786866
 10
173.7506031066
 20
108.3620960641
 10
173.7007413979
 20
108.6502213938
 10
173.5979852333
 20
108.8903463215
 10
173.446331927
 20
109.0731297554
 10
173.2516809394
 20
109.1914612431
 10
173.0216043821
 20
109.2407375752
 10
172.7650524557
 20
109.2190418547
  0
LWPOLYLINE
  5
38C
330
1F
100
AcDbEntity
  8
0
  6
Continuous
 62
     7
370
    25
100
AcDbPolyline
 90
       28
 70
   128
 43
0.0
 10
172.7650524557
 20
109.2190418547
 10
169.5201949765
 20
108.4765725627
 10
166.2537843308
 20
107.635639017
 10
162.9675304345
 20
106.6966814334
 10
159.6631535915
 20
105.6601913418
 10
156.3423835926
 20
104.526711329
 10
153.0069588101
 20
103.2968347545
 10
149.658625288
 20
101.9712054398
 10
146.2991358277
 20
100.5505173317
 10
142.9302490708
 20
99.0355141388
 10
139.553728578
 20
97.426988942
 10
136.1713419062
 20
95.7257837797
 10
132.7848596831
 20
93.9327892069
 10
129.3960546806
 20
92.0489438288
 10
126.0067008862
 20
90.0752338098
 10
122.6185725751
 20
88.0126923568
 10
119.2334433805
 20
85.8623991789
 10
115.8530853659
 20
83.6254799217
 10
112.4792680972
 20
81.3031055782
 10
109.1137577161
 20
78.896491876
 10
105.758316016
 20
76.4068986407
 10
102.4146995194
 20
73.8356291361
 10
99.0846585584
 20
71.1840293828
 10
95.7699363586
 20
68.4534874526
 10
92.4722681266
 20
65.6454327425
 10
89.1933801412
 20
62.7613352264
 10
85.9349888502
 20
59.8027046853
 10
82.6987999718
 20
56.7710899169
  0
ARC
  5
38D
330
1F
100
AcDbEntity
  8
0
  6
Continuous
 62
     7
370
    25
100
AcDbCircle
 10
84.5340009241
 20
54.6755050996
 30
0.0
 40
2.785576827488867
100
AcDbArc
 50
131.2101388476
 51
190.3164790435
  0
LINE
  5
38E
330
1F
100
AcDbEntity
  8
0
  6
Continuous
 62
     7
370
    25
100
AcDbLine
 10
81.7934569258
 20
54.1766495542
 30
0.0
 11
82.0251463251
 21
53.5107891943
 31
0.0
  0
ARC
  5
38F
330
1F
100
AcDbEntity
  8
0
  6
Continuous
 62
     7
370
    25
100
AcDbCircle
 10
81.4028101422
 20
53.365964986
 30
0.0
 40
0.6389650818680832
100
AcDbArc
 50
278.5316003545
 51
13.1001783332
  0
LWPOLYLINE
  5
390
330
1F
100
AcDbEntity
  8
0
  6
Continuous
 62
     7
370
    25
100
AcDbPolyline
 90
       13
 70
   128
 43
0.0
 10
81.4976037179
 20
52.7340705693
 10
80.9669960773
 20
52.7652778188
 10
80.4001698694
 20
52.684871162
 10
79.8086812724
 20
52.4944898908
 10
79.2045892697
 20
52.1980154067
 10
78.6002097966
 20
51.8014920877
 10
78.0078646493
 20
51.3130040595
 10
77.4396302741
 20
50.7425103795
 10
76.9070915583
 20
50.1016419968
 10
76.4211056435
 20
49.4034646258
 10
75.9915805753
 20
48.6622123688
 10
75.6272733031
 20
47.8929975181
 10
75.335611147
 20
47.1115024539
  0
LWPOLYLINE
  5
391
330
1F
100
AcDbEntity
  8
0
  6
Continuous
 62
     7
370
    25
100
AcDbPolyline
 90
        9
 70
   128
 43
0.0
 10
74.6854190437
 20
46.7570411367
 10
74.7366306206
 20
46.6836095996
 10
74.8113452728
 20
46.6451239893
 10
74.9032404698
 20
46.6448410489
 10
75.0045398228
 20
46.6827847216
 10
75.1066711412
 20
46.7557441241
 10
75.2009918313
 20
46.8575452593
 10
75.2795202535
 20
46.9795734746
 10
75.335611147
 20
47.1115024539
  0
LINE
  5
392
330
1F
100
AcDbEntity
  8
0
  6
Continuous
 62
     7
370
    25
100
AcDbLine
 10
73.941137437
 20
48.5092654971
 30
0.0
 11
74.6854190437
 21
46.7570411367
 31
0.0
  0
ARC
  5
393
330
1F
100
AcDbEntity
  8
0
  6
Continuous
 62
     7
370
    25
100
AcDbCircle
 10
76.5649818413
 20
49.1112608864
 30
0.0
 40
2.692017441769772
100
AcDbArc
 50
132.3565696012
 51
192.9218832888
  0
LWPOLYLINE
  5
394
330
1F
100
AcDbEntity
  8
0
  6
Continuous
 62
     7
370
    25
100
AcDbPolyline
 90
       33
 70
   128
 43
0.0
 10
180.7340629108
 20
112.8171522132
 10
177.549183305
 20
112.3029754385
 10
174.3392184646
 20
111.6909355865
 10
171.1058052078
 20
110.9813447473
 10
167.8505923094
 20
110.1745647537
 10
164.5752396603
 20
109.2710069974
 10
161.2814174211
 20
108.2711322183
 10
157.9708051702
 20
107.1754502704
 10
154.6450910477
 20
105.9845198614
 10
151.3059708942
 20
104.6989482679
 10
147.9551473865
 20
103.3193910257
 10
144.5943291689
 20
101.8465515956
 10
141.2252299825
 20
100.2811810044
 10
137.8495677907
 20
98.6240774626
 10
134.4690639037
 20
96.8760859566
 10
131.0854421005
 20
95.0380978183
 10
127.7004277499
 20
93.1110502707
 10
124.315746931
 20
91.0959259494
 10
120.9331255526
 20
88.9937524022
 10
117.5542884734
 20
86.8056015646
 10
114.1809586225
 20
84.5325892138
 10
110.8148561207
 20
82.175874399
 10
107.4576974035
 20
79.736658851
 10
104.1111943459
 20
77.2161863693
 10
100.777053389
 20
74.6157421874
 10
97.4569746708
 20
71.936652318
 10
94.1526511582
 20
69.1802828768
 10
90.8657677846
 20
66.3480393854
 10
87.5980005902
 20
63.4413660551
 10
84.3510158676
 20
60.4617450504
 10
81.1264693119
 20
57.4106957328
 10
77.9260051767
 20
54.2897738867
 10
74.7512554356
 20
51.1005709255
  0
LWPOLYLINE
  5
395
330
1F
100
AcDbEntity
  8
0
  6
Continuous
 62
     7
370
    25
100
AcDbPolyline
 90
        9
 70
   128
 43
0.0
 10
181.5601983499
 20
111.1786802744
 10
181.6339885852
 20
111.531887188
 10
181.6535525492
 20
111.8644726393
 10
181.6181292479
 20
112.163499804
 10
181.5290965678
 20
112.4173371995
 10
181.3899176794
 20
112.6161111232
 10
181.2060063279
 20
112.7520897178
 10
180.9845162501
 20
112.8199837224
 10
180.7340629108
 20
112.8171522132
  0
LINE
  5
396
330
1F
100
AcDbEntity
  8
0
  6
Continuous
 62
     7
370
    25
100
AcDbLine
 10
180.8324336008
 20
108.5692445346
 30
0.0
 11
181.5601983499
 21
111.1786802744
 31
0.0
  0
LWPOLYLINE
  5
397
330
1F
100
AcDbEntity
  8
0
  6
Continuous
 62
     7
370
    25
100
AcDbPolyline
 90
        9
 70
   128
 43
0.0
 10
180.1824240947
 20
108.1665641962
 10
180.2392651388
 20
108.1003984599
 10
180.3183701523
 20
108.0701643476
 10
180.4130450818
 20
108.0784203414
 10
180.5152783111
 20
108.1244677997
 10
180.6164186226
 20
108.2044100777
 10
180.7079072841
 20
108.3114822708
 10
180.7820023089
 20
108.436623677
 10
180.8324336008
 20
108.5692445346
  0
LWPOLYLINE
  5
398
330
1F
100
AcDbEntity
  8
0
  6
Continuous
 62
     7
370
    25
100
AcDbPolyline
 90
       13
 70
   128
 43
0.0
 10
180.1824240947
 20
108.1665641962
 10
179.885260832
 20
108.6067150988
 10
179.5155025496
 20
108.9496895228
 10
179.0807274005
 20
109.1884582475
 10
178.5898460507
 20
109.3181277355
 10
178.0529190563
 20
109.3360404258
 10
177.4809506738
 20
109.2418291999
 10
176.8856633284
 20
109.0374249059
 10
176.2792573651
 20
108.727016786
 10
175.6741610035
 20
108.3169666186
 10
175.0827756231
 20
107.815678334
 10
174.5172215985
 20
107.2334257774
 10
173.9890898937
 20
106.5821421471
  0
LWPOLYLINE
  5
399
330
1F
100
AcDbEntity
  8
0
  6
Continuous
 62
     7
370
    25
100
AcDbPolyline
 90
        9
 70
   128
 43
0.0
 10
173.4566684352
 20
106.7406026147
 10
173.4393687477
 20
106.6065009631
 10
173.4555894084
 20
106.4915560483
 10
173.5037925191
 20
106.4066659187
 10
173.5794078923
 20
106.3598790972
 10
173.6752663546
 20
106.3556314916
 10
173.7822794642
 20
106.3943258217
 10
173.8903011953
 20
106.4722934375
 10
173.9890898937
 20
106.5821421471
  0
LINE
  5
39A
330
1F
100
AcDbEntity
  8
0
  6
Continuous
 62
     7
370
    25
100
AcDbLine
 10
173.4566684352
 20
106.7406026147
 30
0.0
 11
173.6860175821
 21
107.6881088614
 31
0.0
  0
LWPOLYLINE
  5
39B
330
1F
100
AcDbEntity
  8
0
  6
Continuous
 62
     7
370
    25
100
AcDbPolyline
 90
       33
 70
   128
 43
0.0
 10
177.1985290049
 20
114.8581724927
 10
174.013649399
 20
114.343995718
 10
170.8036845587
 20
113.7319558661
 10
167.5702713018
 20
113.0223650268
 10
164.3150584034
 20
112.2155850333
 10
161.0397057544
 20
111.3120272769
 10
157.7458835152
 20
110.3121524978
 10
154.4352712643
 20
109.2164705499
 10
151.1095571418
 20
108.025540141
 10
147.7704369883
 20
106.7399685475
 10
144.4196134805
 20
105.3604113053
 10
141.058795263
 20
103.8875718751
 10
137.6896960766
 20
102.322201284
 10
134.3140338848
 20
100.6650977421
 10
130.9335299978
 20
98.9171062361
 10
127.5499081946
 20
97.0791180979
 10
124.164893844
 20
95.1520705502
 10
120.7802130251
 20
93.136946229
 10
117.3975916466
 20
91.0347726817
 10
114.0187545674
 20
88.8466218442
 10
110.6454247165
 20
86.5736094933
 10
107.2793222148
 20
84.2168946785
 10
103.9221634976
 20
81.7776791306
 10
100.5756604399
 20
79.2572066488
 10
97.2415194831
 20
76.6567624669
 10
93.9214407648
 20
73.9776725976
 10
90.6171172523
 20
71.2213031563
 10
87.3302338787
 20
68.389059665
 10
84.0624666843
 20
65.4823863347
 10
80.8154819616
 20
62.5027653299
 10
77.5909354059
 20
59.4517160124
 10
74.3904712707
 20
56.3307941663
 10
71.2157215296
 20
53.1415912051
  0
LINE
  5
39C
330
1F
100
AcDbEntity
  8
0
  6
Continuous
 62
     7
370
    25
100
AcDbLine
 10
135.8004277926
 20
89.2412819448
 30
0.0
 11
135.9866080495
 21
89.3371048515
 31
0.0
  0
LINE
  5
39D
330
1F
100
AcDbEntity
  8
0
  6
Continuous
 62
     7
370
    25
100
AcDbLine
 10
133.6221528118
 20
93.4162523286
 30
0.0
 11
134.6851414268
 21
93.9634049225
 31
0.0
  0
LINE
  5
39E
330
1F
100
AcDbEntity
  8
0
  6
Continuous
 62
     7
370
    25
100
AcDbLine
 10
133.3192268338
 20
86.7906627073
 30
0.0
 11
133.6221528118
 21
93.4162523286
 31
0.0
  0
LINE
  5
39F
330
1F
100
AcDbEntity
  8
0
  6
Continuous
 62
     7
370
    25
100
AcDbLine
 10
129.9579894859
 20
84.9633060745
 30
0.0
 11
128.9011641857
 21
86.2725871049
 31
0.0
  0
LINE
  5
3A0
330
1F
100
AcDbEntity
  8
0
  6
Continuous
 62
     7
370
    25
100
AcDbLine
 10
129.9834860723
 20
91.4056916765
 30
0.0
 11
131.0431358503
 21
92.002462229
 31
0.0
  0
LINE
  5
3A1
330
1F
100
AcDbEntity
  8
0
  6
Continuous
 62
     7
370
    25
100
AcDbLine
 10
129.9465419409
 20
87.8151404809
 30
0.0
 11
129.9834860723
 21
91.4056916765
 31
0.0
  0
LINE
  5
3A2
330
1F
100
AcDbEntity
  8
0
  6
Continuous
 62
     7
370
    25
100
AcDbLine
 10
126.5814994446
 20
89.4895308094
 30
0.0
 11
127.5956214564
 21
90.0607300431
 31
0.0
  0
LINE
  5
3A3
330
1F
100
AcDbEntity
  8
0
  6
Continuous
 62
     7
370
    25
100
AcDbLine
 10
126.5140269762
 20
83.0234406029
 30
0.0
 11
126.5814994446
 21
89.4895308094
 31
0.0
  0
LINE
  5
3A4
330
1F
100
AcDbEntity
  8
0
  6
Continuous
 62
     7
370
    25
100
AcDbLine
 10
121.2433534178
 20
86.2956590143
 30
0.0
 11
122.3257363213
 21
86.9594486372
 31
0.0
  0
LINE
  5
3A5
330
1F
100
AcDbEntity
  8
0
  6
Continuous
 62
     7
370
    25
100
AcDbLine
 10
119.2588770117
 20
78.6005567214
 30
0.0
 11
121.2433534178
 21
86.2956590143
 31
0.0
  0
LWPOLYLINE
  5
3A6
330
1F
100
AcDbEntity
  8
0
  6
Continuous
 62
     7
370
    25
100
AcDbPolyline
 90
       31
 70
   128
 43
0.0
 10
78.4097864121
 20
50.3785501917
 10
78.7390702813
 20
50.3748972907
 10
79.0262753939
 20
50.2721292699
 10
79.2588495083
 20
50.074737585
 10
79.4266280198
 20
49.7913491996
 10
79.5222782022
 20
49.4343495461
 10
79.5416196837
 20
49.0193412224
 10
79.4838071486
 20
48.5644620838
 10
79.3513672822
 20
48.0895925313
 10
79.1500883422
 20
47.615486643
 10
78.888767184
 20
47.1628651213
 10
78.5788247963
 20
46.7515096985
 10
78.2338071486
 20
46.3993985807
 10
77.8687931678
 20
46.1219207132
 10
77.4997357163
 20
45.9312032103
 10
77.1427643757
 20
45.835581342
 10
76.8134805065
 20
45.839234243
 10
76.5262753939
 20
45.9420022637
 10
76.2937012794
 20
46.1393939487
 10
76.125922768
 20
46.4227823341
 10
76.0302725855
 20
46.7797819876
 10
76.0109311041
 20
47.1947903112
 10
76.0687436391
 20
47.6496694499
 10
76.2011835055
 20
48.1245390024
 10
76.4024624456
 20
48.5986448907
 10
76.6637836038
 20
49.0512664124
 10
76.9737259915
 20
49.4626218351
 10
77.3187436391
 20
49.814732953
 10
77.68375762
 20
50.0922108205
 10
78.0528150715
 20
50.2829283234
 10
78.4097864121
 20
50.3785501917
  0
LWPOLYLINE
  5
3A7
330
1F
100
AcDbEntity
  8
0
  6
Continuous
 62
     7
370
    25
100
AcDbPolyline
 90
       31
 70
   128
 43
0.0
 10
175.5624537793
 20
106.9531082328
 10
175.8917376485
 20
106.9494553319
 10
176.1789427611
 20
106.8466873111
 10
176.4115168755
 20
106.6492956261
 10
176.579295387
 20
106.3659072408
 10
176.6749455694
 20
106.0089075873
 10
176.6942870509
 20
105.5938992636
 10
176.6364745158
 20
105.139020125
 10
176.5040346494
 20
104.6641505725
 10
176.3027557094
 20
104.1900446842
 10
176.0414345512
 20
103.7374231625
 10
175.7314921635
 20
103.3260677397
 10
175.3864745158
 20
102.9739566219
 10
175.021460535
 20
102.6964787543
 10
174.6524030835
 20
102.5057612514
 10
174.2954317429
 20
102.4101393832
 10
173.9661478737
 20
102.4137922841
 10
173.6789427611
 20
102.5165603049
 10
173.4463686467
 20
102.7139519899
 10
173.2785901352
 20
102.9973403753
 10
173.1829399528
 20
103.3543400288
 10
173.1635984713
 20
103.7693483524
 10
173.2214110064
 20
104.2242274911
 10
173.3538508728
 20
104.6990970436
 10
173.5551298128
 20
105.1732029319
 10
173.816450971
 20
105.6258244536
 10
174.1263933587
 20
106.0371798763
 10
174.4714110064
 20
106.3892909942
 10
174.8364249872
 20
106.6667688617
 10
175.2054824387
 20
106.8574863646
 10
175.5624537793
 20
106.9531082328
  0
LWPOLYLINE
  5
3A8
330
1F
100
AcDbEntity
  8
0
  6
Continuous
 62
     7
370
    25
100
AcDbPolyline
 90
        3
 70
   128
 43
0.0
 10
172.2718040198
 20
108.5045169732
 10
172.3314171284
 20
108.8535867984
 10
172.3393727812
 20
109.1269847881
  0
LINE
  5
3A9
330
1F
100
AcDbEntity
  8
0
  6
Continuous
 62
     7
370
    25
100
AcDbLine
 10
172.0424548728
 20
107.5570107265
 30
0.0
 11
172.2718040198
 21
108.5045169732
 31
0.0
  0
ARC
  5
3AA
330
1F
100
AcDbEntity
  8
0
  6
Continuous
 62
     7
370
    25
100
AcDbCircle
 10
172.3291602442
 20
107.4320309439
 30
0.0
 40
0.3127617560309836
100
AcDbArc
 50
156.4467881197
 51
230.1441896827
  0
LINE
  5
3AB
330
1F
100
AcDbEntity
  8
0
  6
Continuous
 62
     7
370
    25
100
AcDbLine
 10
178.7682105323
 20
108.9829723081
 30
0.0
 11
178.5513024899
 21
109.3233331429
 31
0.0
  0
LWPOLYLINE
  5
3AC
330
1F
100
AcDbEntity
  8
0
  6
Continuous
 62
     7
370
    25
100
AcDbPolyline
 90
        3
 70
   128
 43
0.0
 10
178.8381698301
 20
108.9083935852
 10
178.8250515765
 20
108.9168065717
 10
178.7682105323
 20
108.9829723081
  0
LINE
  5
3AD
330
1F
100
AcDbEntity
  8
0
  6
Continuous
 62
     7
370
    25
100
AcDbLine
 10
177.12336468
 20
101.1573376621
 30
0.0
 11
179.2231331085
 21
108.686159015
 31
0.0
  0
LWPOLYLINE
  5
3AE
330
1F
100
AcDbEntity
  8
0
  6
Continuous
 62
     7
370
    25
100
AcDbPolyline
 90
        6
 70
   128
 43
0.0
 10
176.573923716
 20
101.1152506999
 10
176.6735187099
 20
101.2023813203
 10
176.7762859214
 20
101.2569891648
 10
176.8735289462
 20
101.2744531886
 10
176.9570188496
 20
101.2532955445
 10
176.9609851454
 20
101.2510773721
  0
ARC
  5
3AF
330
1F
100
AcDbEntity
  8
0
  6
Continuous
 62
     7
370
    25
100
AcDbCircle
 10
172.7615057174
 20
104.0105090328
 30
0.0
 40
4.787175765499595
100
AcDbArc
 50
269.5127630263
 51
322.7859328868
  0
LWPOLYLINE
  5
3B0
330
1F
100
AcDbEntity
  8
0
  6
Continuous
 62
     7
370
    25
100
AcDbPolyline
 90
        8
 70
   128
 43
0.0
 10
170.2819464323
 20
100.2838520208
 10
170.3311262662
 20
100.4243960901
 10
170.4075234547
 20
100.5580574459
 10
170.5038946998
 20
100.6721635139
 10
170.6111029422
 20
100.7558957777
 10
170.7189836552
 20
100.8013154929
 10
170.8173085549
 20
100.8041163686
 10
170.8681753714
 20
100.7848265219
  0
LINE
  5
3B1
330
1F
100
AcDbEntity
  8
0
  6
Continuous
 62
     7
370
    25
100
AcDbLine
 10
170.0866172517
 20
99.4768918849
 30
0.0
 11
170.2819464323
 21
100.2838520208
 31
0.0
  0
ARC
  5
3B2
330
1F
100
AcDbEntity
  8
0
  6
Continuous
 62
     7
370
    25
100
AcDbCircle
 10
167.3338690248
 20
100.0326016817
 30
0.0
 40
2.808279932381854
100
AcDbArc
 50
290.5195493307
 51
348.5868322193
  0
LWPOLYLINE
  5
3B3
330
1F
100
AcDbEntity
  8
0
  6
Continuous
 62
     7
370
    25
100
AcDbPolyline
 90
       27
 70
   128
 43
0.0
 10
84.3993002407
 20
48.534285941
 10
87.5313041345
 20
51.4646953823
 10
90.6854813281
 20
54.3217988228
 10
93.8600568311
 20
57.103988448
 10
97.0532441741
 20
59.809698601
 10
100.263246414
 20
62.4374066628
 10
103.4882571452
 20
64.9856339097
 10
106.7264615162
 20
67.4529463451
 10
109.9760372508
 20
69.837955507
 10
113.2351556738
 20
72.1393192485
 10
116.5019827399
 20
74.3557424939
 10
119.7746800656
 20
76.485977967
 10
123.0514059642
 20
78.5288268931
 10
126.3303164818
 20
80.4831396737
 10
129.6095664353
 20
82.3478165335
 10
132.8873104504
 20
84.1218081391
 10
136.1617040004
 20
85.8041161893
 10
139.4309044438
 20
87.3937939776
 10
142.6930720618
 20
88.8899469243
 10
145.9463710931
 20
90.2917330801
 10
149.1889707671
 20
91.5983635999
 10
152.4190463344
 20
92.8091031868
 10
155.6347800931
 20
93.9232705059
 10
158.8343624124
 20
94.9402385677
 10
162.0159927504
 20
95.8594350805
 10
165.1778806676
 20
96.6803427733
 10
168.3182468344
 20
97.4024996862
  0
LWPOLYLINE
  5
3B4
330
1F
100
AcDbEntity
  8
0
  6
Continuous
 62
     7
370
    25
100
AcDbPolyline
 90
        3
 70
   128
 43
0.0
 10
83.8864661609
 20
48.1614762801
 10
84.1302022039
 20
48.311009308
 10
84.3993002407
 20
48.534285941
  0
LWPOLYLINE
  5
3B5
330
1F
100
AcDbEntity
  8
0
  6
Continuous
 62
     7
370
    25
100
AcDbPolyline
 90
        8
 70
   128
 43
0.0
 10
81.7615867326
 20
48.7274501775
 10
81.8141001095
 20
48.8676247872
 10
81.8930262861
 20
48.9994412755
 10
81.9909092831
 20
49.1104472335
 10
82.0985023126
 20
49.1901561765
 10
82.2056413014
 20
49.2310381787
 10
82.3022050689
 20
49.2292312088
 10
82.343675694
 20
49.2121733096
  0
LWPOLYLINE
  5
3B6
330
1F
100
AcDbEntity
  8
0
  6
Continuous
 62
     7
370
    25
100
AcDbPolyline
 90
       12
 70
   128
 43
0.0
 10
76.165484454
 20
42.6447708995
 10
76.755189342
 20
42.7623667451
 10
77.3667334969
 20
42.9942764714
 10
77.9870370457
 20
43.3355399298
 10
78.6028327668
 20
43.7788580845
 10
79.2009498533
 20
44.3147491258
 10
79.7685956139
 20
44.93175127
 10
80.2936290861
 20
45.6166679068
 10
80.7648207107
 20
46.3548498524
 10
81.1720925129
 20
47.13050867
 10
81.5067336522
 20
47.9270543572
 10
81.7615867326
 20
48.7274501775
  0
ARC
  5
3B7
330
1F
100
AcDbEntity
  8
0
  6
Continuous
 62
     7
370
    25
100
AcDbCircle
 10
76.3513447144
 20
42.0041073158
 30
0.0
 40
0.6670786040087495
100
AcDbArc
 50
106.1777537061
 51
193.3527940318
  0
LINE
  5
3B8
330
1F
100
AcDbEntity
  8
0
  6
Continuous
 62
     7
370
    25
100
AcDbLine
 10
73.2712054814
 20
47.5734492485
 30
0.0
 11
75.7022995898
 21
41.8500479435
 31
0.0
  0
LWPOLYLINE
  5
3B9
330
1F
100
AcDbEntity
  8
0
  6
Continuous
 62
     7
370
    25
100
AcDbPolyline
 90
        3
 70
   128
 43
0.0
 10
73.350178084
 20
47.4799565344
 10
73.3224170583
 20
47.5000177115
 10
73.2712054814
 20
47.5734492485
  0
LINE
  5
3BA
330
1F
100
AcDbEntity
  8
0
  6
Continuous
 62
     7
370
    25
100
AcDbLine
 10
100.7427057029
 20
65.2907997196
 30
0.0
 11
100.5680951953
 21
66.2081811238
 31
0.0
  0
LINE
  5
3BB
330
1F
100
AcDbEntity
  8
0
  6
Continuous
 62
     7
370
    25
100
AcDbLine
 10
99.6633505703
 20
70.9634722828
 30
0.0
 11
100.7111515067
 21
71.8075912739
 31
0.0
  0
LINE
  5
3BC
330
1F
100
AcDbEntity
  8
0
  6
Continuous
 62
     7
370
    25
100
AcDbLine
 10
100.0708916644
 20
68.823555158
 30
0.0
 11
99.6633505703
 21
70.9634722828
 31
0.0
  0
LINE
  5
3BD
330
1F
100
AcDbEntity
  8
0
  6
Continuous
 62
     7
370
    25
100
AcDbLine
 10
99.217317396
 20
68.1356267001
 30
0.0
 11
100.0708916644
 21
68.823555158
 31
0.0
  0
LINE
  5
3BE
330
1F
100
AcDbEntity
  8
0
  6
Continuous
 62
     7
370
    25
100
AcDbLine
 10
96.7867009949
 20
68.6448747936
 30
0.0
 11
97.8399093173
 21
69.4938905772
 31
0.0
  0
LINE
  5
3BF
330
1F
100
AcDbEntity
  8
0
  6
Continuous
 62
     7
370
    25
100
AcDbLine
 10
97.8660561276
 20
62.9722022304
 30
0.0
 11
96.7867009949
 21
68.6448747936
 31
0.0
  0
LINE
  5
3C0
330
1F
100
AcDbEntity
  8
0
  6
Continuous
 62
     7
370
    25
100
AcDbLine
 10
103.2137548719
 20
73.8000862573
 30
0.0
 11
106.2342377155
 21
76.0837221286
 31
0.0
  0
LINE
  5
3C1
330
1F
100
AcDbEntity
  8
0
  6
Continuous
 62
     7
370
    25
100
AcDbLine
 10
104.0706115836
 20
67.9056779897
 30
0.0
 11
103.2137548719
 21
73.8000862573
 31
0.0
  0
SPLINE
  5
3C2
330
1F
100
AcDbEntity
  8
0
  6
Continuous
 62
     7
370
    25
100
AcDbSpline
210
0.0
220
0.0
230
1.0
 70
     8
 71
     3
 72
    10
 73
     6
 74
     0
 42
0.00000001
 43
0.00000001
 40
0.0
 40
0.0
 40
0.0
 40
0.0
 40
0.5160074964694524
 40
0.9517861789403598
 40
1.0
 40
1.0
 40
1.0
 40
1.0
 10
110.3754894116663
 20
78.95928305531882
 30
0.0
 10
110.5537854361944
 20
79.01306640628924
 30
0.0
 10
110.8826560302593
 20
79.11227087611003
 30
0.0
 10
111.2043297194092
 20
79.0658288899446
 30
0.0
 10
111.2963911755661
 20
78.95001890291827
 30
0.0
 10
111.3055620502001
 20
78.93848227383693
 30
0.0
  0
SPLINE
  5
3C3
330
1F
100
AcDbEntity
  8
0
  6
Continuous
 62
     7
370
    25
100
AcDbSpline
210
0.0
220
0.0
230
1.0
 70
     8
 71
     3
 72
    16
 73
    12
 74
     0
 42
0.00000001
 43
0.00000001
 40
0.0
 40
0.0
 40
0.0
 40
0.0
 40
0.25
 40
0.25
 40
0.4999999999999999
 40
0.4999999999999999
 40
0.7499999999999999
 40
0.7499999999999999
 40
0.8749999999999999
 40
0.8749999999999999
 40
0.9999999999999999
 40
0.9999999999999999
 40
0.9999999999999999
 40
0.9999999999999999
 10
109.2596125388866
 20
78.2659720074459
 30
0.0
 10
109.3522314731476
 20
78.33241581665068
 30
0.0
 10
109.4448895143828
 20
78.3984705543887
 30
0.0
 10
109.6306297776188
 20
78.52623850440222
 30
0.0
 10
109.7235797055678
 20
78.5893628591512
 30
0.0
 10
109.9098205377965
 20
78.71012661369531
 30
0.0
 10
110.0031314791002
 20
78.76750003951611
 30
0.0
 10
110.1430682375234
 20
78.84657995086847
 30
0.0
 10
110.1897240325349
 20
78.87182493985623
 30
0.0
 10
110.2828225998848
 20
78.918445321495
 30
0.0
 10
110.3291721679012
 20
78.93901569268277
 30
0.0
 10
110.3754894116664
 20
78.95928305531874
 30
0.0
  0
LINE
  5
3C4
330
1F
100
AcDbEntity
  8
0
  6
Continuous
 62
     7
370
    25
100
AcDbLine
 10
108.3916771597
 20
77.639265954
 30
0.0
 11
109.2596125389
 21
78.2659720074
 31
0.0
  0
LINE
  5
3C5
330
1F
100
AcDbEntity
  8
0
  6
Continuous
 62
     7
370
    25
100
AcDbLine
 10
109.0893458088
 20
71.6595515131
 30
0.0
 11
108.3916771597
 21
77.639265954
 31
0.0
  0
LINE
  5
3C6
330
1F
100
AcDbEntity
  8
0
  6
Continuous
 62
     7
370
    25
100
AcDbLine
 10
116.8210911138
 20
78.1742097013
 30
0.0
 11
117.6166931556
 21
78.6945229405
 31
0.0
  0
LINE
  5
3C7
330
1F
100
AcDbEntity
  8
0
  6
Continuous
 62
     7
370
    25
100
AcDbLine
 10
114.2777714373
 20
81.7613690297
 30
0.0
 11
117.3165909196
 21
83.7484605139
 31
0.0
  0
LINE
  5
3C8
330
1F
100
AcDbEntity
  8
0
  6
Continuous
 62
     7
370
    25
100
AcDbLine
 10
114.6469266759
 20
75.5457112121
 30
0.0
 11
114.2777714373
 21
81.7613690297
 31
0.0
  0
LINE
  5
3C9
330
1F
100
AcDbEntity
  8
0
  6
Continuous
 62
     7
370
    25
100
AcDbLine
 10
139.9828388168
 20
96.5962156287
 30
0.0
 11
141.0596525496
 21
97.113234768
 31
0.0
  0
LINE
  5
3CA
330
1F
100
AcDbEntity
  8
0
  6
Continuous
 62
     7
370
    25
100
AcDbLine
 10
137.3639483503
 20
88.8508595454
 30
0.0
 11
139.9828388168
 21
96.5962156287
 31
0.0
  0
SPLINE
  5
3CB
330
1F
100
AcDbEntity
  8
0
  6
Continuous
 62
     7
370
    25
100
AcDbSpline
210
0.0
220
0.0
230
1.0
 70
     8
 71
     3
 72
    26
 73
    22
 74
     0
 42
0.00000001
 43
0.00000001
 40
0.0
 40
0.0
 40
0.0
 40
0.0
 40
0.125
 40
0.125
 40
0.25
 40
0.25
 40
0.3749999999999999
 40
0.3749999999999999
 40
0.4374999999999999
 40
0.4374999999999999
 40
0.4999999999999999
 40
0.4999999999999999
 40
0.6249999999999999
 40
0.6249999999999999
 40
0.7499999999999999
 40
0.7499999999999999
 40
0.8124999999999999
 40
0.8124999999999999
 40
0.8749999999999999
 40
0.8749999999999999
 40
0.9999999999999999
 40
0.9999999999999999
 40
0.9999999999999999
 40
0.9999999999999999
 10
145.7384726346889
 20
98.16079041120976
 30
0.0
 10
145.8204820717376
 20
98.28490384181701
 30
0.0
 10
145.9033224662729
 20
98.40865412003616
 30
0.0
 10
146.0779365725984
 20
98.64673864129541
 30
0.0
 10
146.1689356037877
 20
98.76155937129589
 30
0.0
 10
146.35576638149
 20
98.98324469540326
 30
0.0
 10
146.4517946849437
 20
99.08997186562135
 30
0.0
 10
146.5995604324567
 20
99.24122559573925
 30
0.0
 10
146.6493892774577
 20
99.29025167144212
 30
0.0
 10
146.7497980846625
 20
99.38609069306258
 30
0.0
 10
146.8004113915972
 20
99.43279600120344
 30
0.0
 10
146.9537492328713
 20
99.56729701695218
 30
0.0
 10
147.057724264146
 20
99.64991936160506
 30
0.0
 10
147.2668527193586
 20
99.80503149160467
 30
0.0
 10
147.3722020051268
 20
99.87678843789358
 30
0.0
 10
147.5305275893911
 20
99.97430098375956
 30
0.0
 10
147.5833484343288
 20
100.0052982077653
 30
0.0
 10
147.6889691671709
 20
100.0651334657531
 30
0.0
 10
147.7417661026638
 20
100.0937967495259
 30
0.0
 10
147.8998940669993
 20
100.1740105133229
 30
0.0
 10
148.0048292594302
 20
100.2194822645234
 30
0.0
 10
148.109515114451
 20
100.2642137820654
 30
0.0
  0
SPLINE
  5
3CC
330
1F
100
AcDbEntity
  8
0
  6
Continuous
 62
     7
370
    25
100
AcDbSpline
210
0.0
220
0.0
230
1.0
 70
     8
 71
     3
 72
    18
 73
    14
 74
     0
 42
0.00000001
 43
0.00000001
 40
0.0
 40
0.0
 40
0.0
 40
0.0
 40
0.125
 40
0.125
 40
0.25
 40
0.25
 40
0.5
 40
0.5
 40
0.75
 40
0.75
 40
0.875
 40
0.875
 40
1.0
 40
1.0
 40
1.0
 40
1.0
 10
144.7398218874259
 20
95.51116843272354
 30
0.0
 10
144.7546630414782
 20
95.61948311028706
 30
0.0
 10
144.7695042265124
 20
95.72779780075561
 30
0.0
 10
144.8076557334795
 20
95.9472483967388
 30
0.0
 10
144.8311204277369
 20
96.05845419901854
 30
0.0
 10
144.9131207929516
 20
96.39428680815315
 30
0.0
 10
144.9829003358897
 20
96.62114877702207
 30
0.0
 10
145.152544277813
 20
97.07332300262104
 30
0.0
 10
145.2534950938617
 20
97.29807867231793
 30
0.0
 10
145.4226443158676
 20
97.62825983354675
 30
0.0
 10
145.4818299816338
 20
97.73725489010194
 30
0.0
 10
145.6068918148652
 20
97.95105075330984
 30
0.0
 10
145.6726822140402
 20
98.05592059124427
 30
0.0
 10
145.7384726346864
 20
98.1607904112112
 30
0.0
  0
SPLINE
  5
3CD
330
1F
100
AcDbEntity
  8
0
  6
Continuous
 62
     7
370
    25
100
AcDbSpline
210
0.0
220
0.0
230
1.0
 70
     8
 71
     3
 72
    13
 73
     9
 74
     0
 42
0.00000001
 43
0.00000001
 40
0.0
 40
0.0
 40
0.0
 40
0.0
 40
0.1304884877204728
 40
0.289604802540065
 40
0.4488487617023122
 40
0.6100816966241381
 40
0.7712295032025568
 40
1.0
 40
1.0
 40
1.0
 40
1.0
 10
145.6839411741452
 20
93.00876678888115
 30
0.0
 10
145.5896059510518
 20
93.05306566338062
 30
0.0
 10
145.3802393307942
 20
93.15138212812224
 30
0.0
 10
145.1271310293949
 20
93.42163110817688
 30
0.0
 10
144.9172405643796
 20
93.78390284382846
 30
0.0
 10
144.7754246228905
 20
94.22001573112357
 30
0.0
 10
144.688169275875
 20
94.78531303685966
 30
0.0
 10
144.7207224733087
 20
95.24277130080688
 30
0.0
 10
144.739821887429
 20
95.51116843272203
 30
0.0
  0
LINE
  5
3CE
330
1F
100
AcDbEntity
  8
0
  6
Continuous
 62
     7
370
    25
100
AcDbLine
 10
147.6864586753
 20
96.7293619395
 30
0.0
 11
150.4554165641
 21
97.8611619168
 31
0.0
  0
LINE
  5
3CF
330
1F
100
AcDbEntity
  8
0
  6
Continuous
 62
     7
370
    25
100
AcDbLine
 10
147.5434175178
 20
95.5100129242
 30
0.0
 11
147.6864586753
 21
96.7293619395
 31
0.0
  0
SPLINE
  5
3D0
330
1F
100
AcDbEntity
  8
0
  6
Continuous
 62
     7
370
    25
100
AcDbSpline
210
0.0
220
0.0
230
1.0
 70
     8
 71
     3
 72
    10
 73
     6
 74
     0
 42
0.00000001
 43
0.00000001
 40
0.0
 40
0.0
 40
0.0
 40
0.0
 40
0.3574396892319464
 40
0.7129137841830557
 40
1.0
 40
1.0
 40
1.0
 40
1.0
 10
147.4839046950031
 20
94.37278402122796
 30
0.0
 10
147.607972507721
 20
94.4319153669835
 30
0.0
 10
147.8554258726513
 20
94.54985288969392
 30
0.0
 10
148.2112791808891
 20
94.7893630128944
 30
0.0
 10
148.4119367419775
 20
95.025572113343
 30
0.0
 10
148.5015875014822
 20
95.13110676223572
 30
0.0
  0
LINE
  5
3D1
330
1F
100
AcDbEntity
  8
0
  6
Continuous
 62
     7
370
    25
100
AcDbLine
 10
147.0978355465
 20
94.2560105441
 30
0.0
 11
147.483904695
 21
94.3727840212
 31
0.0
  0
SPLINE
  5
3D2
330
1F
100
AcDbEntity
  8
0
  6
Continuous
 62
     7
370
    25
100
AcDbSpline
210
0.0
220
0.0
230
1.0
 70
     8
 71
     3
 72
    10
 73
     6
 74
     0
 42
0.00000001
 43
0.00000001
 40
0.0
 40
0.0
 40
0.0
 40
0.0
 40
0.4071964868434232
 40
0.8146310879771387
 40
1.0
 40
1.0
 40
1.0
 40
1.0
 10
149.4149349018729
 20
100.4850538162733
 30
0.0
 10
149.5057237589472
 20
100.46621574636
 30
0.0
 10
149.68735456325
 20
100.428528590688
 30
0.0
 10
149.8906516156028
 20
100.337503183274
 30
0.0
 10
149.9887410890168
 20
100.2481930447094
 30
0.0
 10
150.0194135438253
 20
100.2202658768521
 30
0.0
  0
SPLINE
  5
3D3
330
1F
100
AcDbEntity
  8
0
  6
Continuous
 62
     7
370
    25
100
AcDbSpline
210
0.0
220
0.0
230
1.0
 70
     8
 71
     3
 72
    18
 73
    14
 74
     0
 42
0.00000001
 43
0.00000001
 40
0.0
 40
0.0
 40
0.0
 40
0.0
 40
0.125
 40
0.125
 40
0.25
 40
0.25
 40
0.5
 40
0.5
 40
0.75
 40
0.75
 40
0.875
 40
0.875
 40
1.0
 40
1.0
 40
1.0
 40
1.0
 10
148.1095151144519
 20
100.2642137820647
 30
0.0
 10
148.1669155694125
 20
100.2869787238089
 30
0.0
 10
148.2243160206703
 20
100.309743631986
 30
0.0
 10
148.3385216261104
 20
100.3511353087329
 30
0.0
 10
148.3953178329042
 20
100.3696825235736
 30
0.0
 10
148.5647424260168
 20
100.4202158319487
 30
0.0
 10
148.6763702882218
 20
100.4469270252618
 30
0.0
 10
148.8956461475688
 20
100.4846375478648
 30
0.0
 10
149.0030263160207
 20
100.4950597317878
 30
0.0
 10
149.1608055650275
 20
100.5005651660202
 30
0.0
 10
149.2129768598332
 20
100.5010676081993
 30
0.0
 10
149.3150939513874
 20
100.4961080858055
 30
0.0
 10
149.3650146024761
 20
100.4905814145264
 30
0.0
 10
149.4149349018734
 20
100.4850538162729
 30
0.0
  0
LINE
  5
3D4
330
1F
100
AcDbEntity
  8
0
  6
Continuous
 62
     7
370
    25
100
AcDbLine
 10
154.8074434383
 20
97.4265252708
 30
0.0
 11
155.2797628081
 21
97.6039434674
 31
0.0
  0
LINE
  5
3D5
330
1F
100
AcDbEntity
  8
0
  6
Continuous
 62
     7
370
    25
100
AcDbLine
 10
153.0585662871
 20
102.0916875333
 30
0.0
 11
156.0605677275
 21
103.2185606482
 31
0.0
  0
LINE
  5
3D6
330
1F
100
AcDbEntity
  8
0
  6
Continuous
 62
     7
370
    25
100
AcDbLine
 10
152.098585396
 20
95.1861248183
 30
0.0
 11
153.0585662871
 21
102.0916875333
 31
0.0
  0
ARC
  5
3D7
330
1F
100
AcDbEntity
  8
0
  6
Continuous
 62
     7
370
    25
100
AcDbCircle
 10
175.1078329295
 20
98.1408671277
 30
0.0
 40
2.716354245727154
100
AcDbArc
 50
287.9613979255
 51
347.4170384048
  0
LWPOLYLINE
  5
3D8
330
1F
100
AcDbEntity
  8
0
  6
Continuous
 62
     7
370
    25
100
AcDbPolyline
 90
       31
 70
   128
 43
0.0
 10
79.6491893739
 20
39.4810215832
 10
82.7274627225
 20
42.5673932491
 10
85.8320997138
 20
45.5831662584
 10
88.961306466
 20
48.5265980756
 10
92.1132749008
 20
51.3959879644
 10
95.286183788
 20
54.1896779706
 10
98.4781997978
 20
56.9060538798
 10
101.6874785601
 20
59.5435461503
 10
104.9121657305
 20
62.10063082
 10
108.1503980614
 20
64.5758303867
 10
111.4003044785
 20
66.9677146623
 10
114.6600071625
 20
69.2749015986
 10
117.9276226334
 20
71.4960580863
 10
121.2012628394
 20
73.6299007252
 10
124.4790362473
 20
75.6751965653
 10
127.759048936
 20
77.63076382
 10
131.0394056904
 20
79.4954725483
 10
134.3182110964
 20
81.268245308
 10
137.5935706367
 20
82.9480577781
 10
140.8635917846
 20
84.5339393509
 10
144.1263850983
 20
86.0249736924
 10
147.380065312
 20
87.4202992722
 10
150.6227524259
 20
88.719109861
 10
153.8525727917
 20
89.9206549967
 10
157.0676601959
 20
91.0242404178
 10
160.2661569375
 20
92.0292284646
 10
163.4462149021
 20
92.9350384477
 10
166.605996629
 20
93.7411469836
 10
169.7436763735
 20
94.4470882969
 10
172.8574411614
 20
95.0524544895
 10
175.9454918369
 20
95.5568957766
  0
LWPOLYLINE
  5
3D9
330
1F
100
AcDbEntity
  8
0
  6
Continuous
 62
     7
370
    25
100
AcDbPolyline
 90
        9
 70
   128
 43
0.0
 10
77.828661812
 20
39.3570644353
 10
77.9540772535
 20
39.1463068987
 10
78.1246422439
 20
38.9950544007
 10
78.3338875517
 20
38.9090436836
 10
78.5738768688
 20
38.8915369834
 10
78.8355078205
 20
38.9431982985
 10
79.1088572029
 20
39.0620682058
 10
79.3835573526
 20
39.2436381777
 10
79.6491893739
 20
39.4810215832
  0
LINE
  5
3DA
330
1F
100
AcDbEntity
  8
0
  6
Continuous
 62
     7
370
    25
100
AcDbLine
 10
77.1165131522
 20
41.0336398317
 30
0.0
 11
77.828661812
 21
39.3570644353
 31
0.0
  0
ARC
  5
3DB
330
1F
100
AcDbEntity
  8
0
  6
Continuous
 62
     7
370
    25
100
AcDbCircle
 10
77.7655582768
 20
41.187699204
 30
0.0
 40
0.6670786040087113
100
AcDbArc
 50
106.177753706
 51
193.3527940318
  0
LWPOLYLINE
  5
3DC
330
1F
100
AcDbEntity
  8
0
  6
Continuous
 62
     7
370
    25
100
AcDbPolyline
 90
       12
 70
   128
 43
0.0
 10
77.5796980164
 20
41.8283627877
 10
78.1694029043
 20
41.9459586333
 10
78.7809470593
 20
42.1778683595
 10
79.4012506081
 20
42.519131818
 10
80.0170463292
 20
42.9624499727
 10
80.6151634157
 20
43.498341014
 10
81.1828091763
 20
44.1153431582
 10
81.7078426484
 20
44.800259795
 10
82.1790342731
 20
45.5384417406
 10
82.5863060753
 20
46.3141005582
 10
82.9209472146
 20
47.1106462454
 10
83.175800295
 20
47.9110420657
  0
LWPOLYLINE
  5
3DD
330
1F
100
AcDbEntity
  8
0
  6
Continuous
 62
     7
370
    25
100
AcDbPolyline
 90
        9
 70
   128
 43
0.0
 10
83.8431926169
 20
48.2858416487
 10
83.7932850141
 20
48.3684978554
 10
83.7164186312
 20
48.412823097
 10
83.6198548638
 20
48.4146300669
 10
83.5127158749
 20
48.3737480646
 10
83.4051228455
 20
48.2940391217
 10
83.3072398485
 20
48.1830331637
 10
83.2283136719
 20
48.0512166754
 10
83.175800295
 20
47.9110420657
  0
LINE
  5
3DE
330
1F
100
AcDbEntity
  8
0
  6
Continuous
 62
     7
370
    25
100
AcDbLine
 10
83.8431926169
 20
48.2858416487
 30
0.0
 11
84.0372491743
 21
47.7281356444
 31
0.0
  0
LWPOLYLINE
  5
3DF
330
1F
100
AcDbEntity
  8
0
  6
Continuous
 62
     7
370
    25
100
AcDbPolyline
 90
        9
 70
   128
 43
0.0
 10
84.0372491743
 20
47.7281356444
 10
84.1496754806
 20
47.5026557326
 10
84.3087153279
 20
47.3347599209
 10
84.5083352051
 20
47.2308176903
 10
84.7409621124
 20
47.1947723077
 10
84.9977708588
 20
47.2279912305
 10
85.2690188646
 20
47.3292142291
 10
85.5444157663
 20
47.4946011961
 10
85.8135138031
 20
47.7178778292
  0
LWPOLYLINE
  5
3E0
330
1F
100
AcDbEntity
  8
0
  6
Continuous
 62
     7
370
    25
100
AcDbPolyline
 90
       27
 70
   128
 43
0.0
 10
85.8135138031
 20
47.7178778292
 10
88.9455176969
 20
50.6482872705
 10
92.0996948905
 20
53.505390711
 10
95.2742703935
 20
56.2875803362
 10
98.4674577365
 20
58.9932904892
 10
101.6774599764
 20
61.6209985509
 10
104.9024707076
 20
64.1692257978
 10
108.1406750786
 20
66.6365382333
 10
111.3902508132
 20
69.0215473952
 10
114.6493692362
 20
71.3229111367
 10
117.9161963022
 20
73.5393343821
 10
121.188893628
 20
75.6695698551
 10
124.4656195266
 20
77.7124187812
 10
127.7445300442
 20
79.6667315619
 10
131.0237799977
 20
81.5314084217
 10
134.3015240128
 20
83.3054000272
 10
137.5759175627
 20
84.9877080775
 10
140.8451180062
 20
86.5773858658
 10
144.1072856242
 20
88.0735388125
 10
147.3605846555
 20
89.4753249682
 10
150.6031843295
 20
90.781955488
 10
153.8332598968
 20
91.992695075
 10
157.0489936555
 20
93.1068623941
 10
160.2485759748
 20
94.1238304558
 10
163.4302063128
 20
95.0430269687
 10
166.59209423
 20
95.8639346615
 10
169.7324603968
 20
96.5860915744
  0
ARC
  5
3E1
330
1F
100
AcDbEntity
  8
0
  6
Continuous
 62
     7
370
    25
100
AcDbCircle
 10
168.7480825872
 20
99.2161935699
 30
0.0
 40
2.808279932381546
100
AcDbArc
 50
290.5195493307
 51
348.5868322193
  0
LINE
  5
3E2
330
1F
100
AcDbEntity
  8
0
  6
Continuous
 62
     7
370
    25
100
AcDbLine
 10
171.500830814
 20
98.660483773
 30
0.0
 11
171.6961599947
 21
99.4674439089
 31
0.0
  0
LWPOLYLINE
  5
3E3
330
1F
100
AcDbEntity
  8
0
  6
Continuous
 62
     7
370
    25
100
AcDbPolyline
 90
        9
 70
   128
 43
0.0
 10
172.3640051793
 20
99.8684571879
 10
172.3109689161
 20
99.9476247388
 10
172.2315221172
 20
99.9877082567
 10
172.1331972176
 20
99.9849073811
 10
172.0253165045
 20
99.9394876659
 10
171.9181082622
 20
99.8557554021
 10
171.8217370171
 20
99.741649334
 10
171.7453398286
 20
99.6079879783
 10
171.6961599947
 20
99.4674439089
  0
LWPOLYLINE
  5
3E4
330
1F
100
AcDbEntity
  8
0
  6
Continuous
 62
     7
370
    25
100
AcDbPolyline
 90
       13
 70
   128
 43
0.0
 10
172.3640051793
 20
99.8684571879
 10
172.5974230213
 20
99.4021508329
 10
172.8985565248
 20
99.016528116
 10
173.2619617748
 20
98.718560355
 10
173.6810691026
 20
98.5136342346
 10
174.1483018527
 20
98.4054544253
 10
174.6552133549
 20
98.3959766103
 10
175.1926396229
 20
98.4853721302
 10
175.7508650225
 20
98.6720248857
 10
176.3197979109
 20
98.9525605538
 10
176.8891530744
 20
99.3219075884
 10
177.4486376658
 20
99.7733889047
 10
177.9881372783
 20
100.2988425881
  0
LWPOLYLINE
  5
3E5
330
1F
100
AcDbEntity
  8
0
  6
Continuous
 62
     7
370
    25
100
AcDbPolyline
 90
        9
 70
   128
 43
0.0
 10
178.4552895497
 20
100.0458794592
 10
178.4777894936
 20
100.1747570779
 10
178.470454091
 20
100.288985529
 10
178.4339040811
 20
100.3788985308
 10
178.371232412
 20
100.4368874327
 10
178.2877425086
 20
100.4580450767
 10
178.1904994838
 20
100.440581053
 10
178.0877322723
 20
100.3859732085
 10
177.9881372783
 20
100.2988425881
  0
LINE
  5
3E6
330
1F
100
AcDbEntity
  8
0
  6
Continuous
 62
     7
370
    25
100
AcDbLine
 10
177.7589446637
 20
97.5491011593
 30
0.0
 11
178.4552895497
 21
100.0458794592
 31
0.0
  0
ARC
  5
3E7
330
1F
100
AcDbEntity
  8
0
  6
Continuous
 62
     7
370
    25
100
AcDbCircle
 10
73.0294479354
 20
51.1522811659
 30
0.0
 40
2.692017441769791
100
AcDbArc
 50
132.3565696012
 51
192.9218832888
  0
LINE
  5
3E8
330
1F
100
AcDbEntity
  8
0
  6
Continuous
 62
     7
370
    25
100
AcDbLine
 10
70.405603531
 20
50.5502857767
 30
0.0
 11
74.293127906
 21
41.3980847149
 31
0.0
  0
ARC
  5
3E9
330
1F
100
AcDbEntity
  8
0
  6
Continuous
 62
     7
370
    25
100
AcDbCircle
 10
73.4230508359
 20
50.6201288121
 30
0.0
 40
4.025492332791123
100
AcDbArc
 50
310.8132101299
 51
349.1921664028
  0
ARC
  5
3EA
330
1F
100
AcDbEntity
  8
0
  6
Continuous
 62
     7
370
    25
100
AcDbCircle
 10
74.9886587347
 20
41.6651938782
 30
0.0
 40
0.7450573392211266
100
AcDbArc
 50
201.0086075295
 51
239.3664570934
  0
LINE
  5
3EB
330
1F
100
AcDbEntity
  8
0
  6
Continuous
 62
     7
370
    25
100
AcDbLine
 10
98.3463106176
 20
67.8000193451
 30
0.0
 11
99.1568029325
 21
68.4533760963
 31
0.0
  0
LINE
  5
3EC
330
1F
100
AcDbEntity
  8
0
  6
Continuous
 62
     7
370
    25
100
AcDbLine
 10
99.1568029325
 20
68.4533760963
 30
0.0
 11
99.5643403256
 21
66.3134784049
 31
0.0
  0
LINE
  5
3ED
330
1F
100
AcDbEntity
  8
0
  6
Continuous
 62
     7
370
    25
100
AcDbLine
 10
99.5643403256
 20
66.3134784049
 30
0.0
 11
101.6305240757
 21
67.9786956608
 31
0.0
  0
LINE
  5
3EE
330
1F
100
AcDbEntity
  8
0
  6
Continuous
 62
     7
370
    25
100
AcDbLine
 10
101.6305240757
 20
67.9786956608
 30
0.0
 11
101.2229895671
 21
70.118578206
 31
0.0
  0
LINE
  5
3EF
330
1F
100
AcDbEntity
  8
0
  6
Continuous
 62
     7
370
    25
100
AcDbLine
 10
101.2229895671
 20
70.118578206
 30
0.0
 11
102.028015754
 21
70.767115413
 31
0.0
  0
LINE
  5
3F0
330
1F
100
AcDbEntity
  8
0
  6
Continuous
 62
     7
370
    25
100
AcDbLine
 10
102.028015754
 20
70.767115413
 30
0.0
 11
103.0593138642
 21
65.3470119486
 31
0.0
  0
LINE
  5
3F1
330
1F
100
AcDbEntity
  8
0
  6
Continuous
 62
     7
370
    25
100
AcDbLine
 10
103.0593138642
 20
65.3470119486
 30
0.0
 11
102.2542616828
 21
64.6984538002
 31
0.0
  0
LINE
  5
3F2
330
1F
100
AcDbEntity
  8
0
  6
Continuous
 62
     7
370
    25
100
AcDbLine
 10
102.2542616828
 20
64.6984538002
 30
0.0
 11
101.7808684067
 21
67.1856018779
 31
0.0
  0
LINE
  5
3F3
330
1F
100
AcDbEntity
  8
0
  6
Continuous
 62
     7
370
    25
100
AcDbLine
 10
101.7808684067
 20
67.1856018779
 30
0.0
 11
99.7146846585
 21
65.5203846235
 31
0.0
  0
LINE
  5
3F4
330
1F
100
AcDbEntity
  8
0
  6
Continuous
 62
     7
370
    25
100
AcDbLine
 10
99.7146846585
 20
65.5203846235
 30
0.0
 11
100.1880750543
 21
63.0332516785
 31
0.0
  0
LINE
  5
3F5
330
1F
100
AcDbEntity
  8
0
  6
Continuous
 62
     7
370
    25
100
AcDbLine
 10
100.1880750543
 20
63.0332516785
 30
0.0
 11
99.3776087283
 21
62.3799158776
 31
0.0
  0
LINE
  5
3F6
330
1F
100
AcDbEntity
  8
0
  6
Continuous
 62
     7
370
    25
100
AcDbLine
 10
99.3776087283
 20
62.3799158776
 30
0.0
 11
98.3463106176
 21
67.8000193451
 31
0.0
  0
LINE
  5
3F7
330
1F
100
AcDbEntity
  8
0
  6
Continuous
 62
     7
370
    25
100
AcDbLine
 10
99.1568029325
 20
68.4533760963
 30
0.0
 11
97.8399093173
 21
69.4938905772
 31
0.0
  0
LINE
  5
3F8
330
1F
100
AcDbEntity
  8
0
  6
Continuous
 62
     7
370
    25
100
AcDbLine
 10
98.3463106176
 20
67.8000193451
 30
0.0
 11
96.7867009949
 21
68.6448747936
 31
0.0
  0
LINE
  5
3F9
330
1F
100
AcDbEntity
  8
0
  6
Continuous
 62
     7
370
    25
100
AcDbLine
 10
99.3776087283
 20
62.3799158776
 30
0.0
 11
97.8660561276
 21
62.9722022304
 31
0.0
  0
LINE
  5
3FA
330
1F
100
AcDbEntity
  8
0
  6
Continuous
 62
     7
370
    25
100
AcDbLine
 10
102.028015754
 20
70.767115413
 30
0.0
 11
100.7111515067
 21
71.8075912739
 31
0.0
  0
LINE
  5
3FB
330
1F
100
AcDbEntity
  8
0
  6
Continuous
 62
     7
370
    25
100
AcDbLine
 10
101.2229895671
 20
70.118578206
 30
0.0
 11
99.6633505703
 21
70.9634722828
 31
0.0
  0
LINE
  5
3FC
330
1F
100
AcDbEntity
  8
0
  6
Continuous
 62
     7
370
    25
100
AcDbLine
 10
101.6305240757
 20
67.9786956608
 30
0.0
 11
100.0708916644
 21
68.823555158
 31
0.0
  0
LINE
  5
3FD
330
1F
100
AcDbEntity
  8
0
  6
Continuous
 62
     7
370
    25
100
AcDbLine
 10
107.545105419
 20
75.0446014261
 30
0.0
 11
106.2342377155
 21
76.0837221286
 31
0.0
  0
LINE
  5
3FE
330
1F
100
AcDbEntity
  8
0
  6
Continuous
 62
     7
370
    25
100
AcDbLine
 10
104.7691755095
 20
72.9458597858
 30
0.0
 11
107.545105419
 21
75.0446014261
 31
0.0
  0
LINE
  5
3FF
330
1F
100
AcDbEntity
  8
0
  6
Continuous
 62
     7
370
    25
100
AcDbLine
 10
104.7691755095
 20
72.9458597858
 30
0.0
 11
103.2137548719
 21
73.8000862573
 31
0.0
  0
LINE
  5
400
330
1F
100
AcDbEntity
  8
0
  6
Continuous
 62
     7
370
    25
100
AcDbLine
 10
107.545105419
 20
75.0446014261
 30
0.0
 11
107.666789911
 21
74.2070089191
 31
0.0
  0
LINE
  5
401
330
1F
100
AcDbEntity
  8
0
  6
Continuous
 62
     7
370
    25
100
AcDbLine
 10
107.666789911
 20
74.2070089191
 30
0.0
 11
105.6923546555
 21
72.714355674
 31
0.0
  0
LINE
  5
402
330
1F
100
AcDbEntity
  8
0
  6
Continuous
 62
     7
370
    25
100
AcDbLine
 10
105.6923546555
 20
72.714355674
 30
0.0
 11
105.8859417472
 21
71.3886556629
 31
0.0
  0
LINE
  5
403
330
1F
100
AcDbEntity
  8
0
  6
Continuous
 62
     7
370
    25
100
AcDbLine
 10
105.8859417472
 20
71.3886556629
 30
0.0
 11
107.8601538264
 21
72.8811401889
 31
0.0
  0
LINE
  5
404
330
1F
100
AcDbEntity
  8
0
  6
Continuous
 62
     7
370
    25
100
AcDbLine
 10
107.8601538264
 20
72.8811401889
 30
0.0
 11
107.9785318399
 21
72.0640178635
 31
0.0
  0
LINE
  5
405
330
1F
100
AcDbEntity
  8
0
  6
Continuous
 62
     7
370
    25
100
AcDbLine
 10
107.9785318399
 20
72.0640178635
 30
0.0
 11
106.0041467874
 21
70.5714025714
 31
0.0
  0
LINE
  5
406
330
1F
100
AcDbEntity
  8
0
  6
Continuous
 62
     7
370
    25
100
AcDbLine
 10
106.0041467874
 20
70.5714025714
 30
0.0
 11
106.2671766037
 21
68.7597958027
 31
0.0
  0
LINE
  5
407
330
1F
100
AcDbEntity
  8
0
  6
Continuous
 62
     7
370
    25
100
AcDbLine
 10
106.2671766037
 20
68.7597958027
 30
0.0
 11
108.2415665215
 21
70.2524147729
 31
0.0
  0
LINE
  5
408
330
1F
100
AcDbEntity
  8
0
  6
Continuous
 62
     7
370
    25
100
AcDbLine
 10
108.2415665215
 20
70.2524147729
 30
0.0
 11
108.3640792111
 21
69.4107077
 31
0.0
  0
LINE
  5
409
330
1F
100
AcDbEntity
  8
0
  6
Continuous
 62
     7
370
    25
100
AcDbLine
 10
108.3640792111
 20
69.4107077
 30
0.0
 11
105.5881605762
 21
67.311974584
 31
0.0
  0
LINE
  5
40A
330
1F
100
AcDbEntity
  8
0
  6
Continuous
 62
     7
370
    25
100
AcDbLine
 10
105.5881605762
 20
67.311974584
 30
0.0
 11
104.7691755095
 21
72.9458597858
 31
0.0
  0
LINE
  5
40B
330
1F
100
AcDbEntity
  8
0
  6
Continuous
 62
     7
370
    25
100
AcDbLine
 10
105.5881605762
 20
67.311974584
 30
0.0
 11
104.0706115836
 21
67.9056779897
 31
0.0
  0
LINE
  5
40C
330
1F
100
AcDbEntity
  8
0
  6
Continuous
 62
     7
370
    25
100
AcDbLine
 10
102.2542616828
 20
64.6984538002
 30
0.0
 11
100.7427057029
 21
65.2907997196
 31
0.0
  0
LINE
  5
40D
330
1F
100
AcDbEntity
  8
0
  6
Continuous
 62
     7
370
    25
100
AcDbLine
 10
107.8601538264
 20
72.8811401889
 30
0.0
 11
106.9096708395
 21
73.6346344966
 31
0.0
  0
LINE
  5
40E
330
1F
100
AcDbEntity
  8
0
  6
Continuous
 62
     7
370
    25
100
AcDbLine
 10
111.3213210047
 20
72.4669974998
 30
0.0
 11
111.7077171973
 21
72.7472242897
 31
0.0
  0
SPLINE
  5
40F
330
1F
100
AcDbEntity
  8
0
  6
Continuous
 62
     7
370
    25
100
AcDbSpline
210
0.0
220
0.0
230
1.0
 70
     8
 71
     3
 72
    34
 73
    30
 74
     0
 42
0.00000001
 43
0.00000001
 40
-0.0001415146697861
 40
-0.0001415146697861
 40
-0.0001415146697861
 40
-0.0001415146697861
 40
0.0
 40
0.0
 40
0.0
 40
0.125
 40
0.125
 40
0.25
 40
0.25
 40
0.375
 40
0.375
 40
0.4375
 40
0.4375
 40
0.5
 40
0.5
 40
0.5625
 40
0.5625
 40
0.625
 40
0.625
 40
0.75
 40
0.75
 40
0.875
 40
0.875
 40
0.9375
 40
0.9375
 40
1.0
 40
1.0
 40
1.0
 40
1.002825890668747
 40
1.002825890668747
 40
1.002825890668747
 40
1.002825890668747
 10
111.7077172120189
 20
72.74722410890064
 30
0.0
 10
111.7077857269846
 20
72.74727393284402
 30
0.0
 10
111.7078542419503
 20
72.74732375678738
 30
0.0
 10
111.7079227569159
 20
72.74737358073077
 30
0.0
 10
111.7684420707191
 20
72.79138310237016
 30
0.0
 10
111.8316034683424
 20
72.83736526826668
 30
0.0
 10
111.9576127619674
 20
72.93454068358629
 30
0.0
 10
112.019160885036
 20
72.98397085993527
 30
0.0
 10
112.1446510186502
 20
73.08913077454827
 30
0.0
 10
112.2084062639568
 20
73.14586402576678
 30
0.0
 10
112.3013755305832
 20
73.23450522624964
 30
0.0
 10
112.3322846153466
 20
73.26489688766507
 30
0.0
 10
112.3938210897588
 20
73.32763771710214
 30
0.0
 10
112.4250786591536
 20
73.36040905151577
 30
0.0
 10
112.4894236836994
 20
73.43339989776246
 30
0.0
 10
112.5216904708917
 20
73.47305328280926
 30
0.0
 10
112.5829105865538
 20
73.55581544239368
 30
0.0
 10
112.6123368155141
 20
73.59942240831707
 30
0.0
 10
112.6950914411403
 20
73.73635395367964
 30
0.0
 10
112.7421023274734
 20
73.83498239356437
 30
0.0
 10
112.8106794328996
 20
74.03091882567739
 30
0.0
 10
112.8330446851102
 20
74.12775383371117
 30
0.0
 10
112.8476782016138
 20
74.26640450535052
 30
0.0
 10
112.8488667935139
 20
74.31131288160672
 30
0.0
 10
112.8469453498833
 20
74.39141185993786
 30
0.0
 10
112.8441804375997
 20
74.42781766083462
 30
0.0
 10
112.8416608583445
 20
74.46179399804222
 30
0.0
 10
112.8415469374563
 20
74.46333021267063
 30
0.0
 10
112.8414330165682
 20
74.46486642729899
 30
0.0
 10
112.8413190956801
 20
74.46640264192733
 30
0.0
  0
SPLINE
  5
410
330
1F
100
AcDbEntity
  8
0
  6
Continuous
 62
     7
370
    25
100
AcDbSpline
210
0.0
220
0.0
230
1.0
 70
     8
 71
     3
 72
    40
 73
    36
 74
     0
 42
0.00000001
 43
0.00000001
 40
-0.0026755454613207
 40
-0.0026755454613207
 40
-0.0026755454613207
 40
-0.0026755454613207
 40
0.0
 40
0.0
 40
0.0
 40
0.0625
 40
0.0625
 40
0.125
 40
0.125
 40
0.1875
 40
0.1875
 40
0.25
 40
0.25
 40
0.3124999999999999
 40
0.3124999999999999
 40
0.3749999999999999
 40
0.3749999999999999
 40
0.4374999999999999
 40
0.4374999999999999
 40
0.4999999999999999
 40
0.4999999999999999
 40
0.5624999999999999
 40
0.5624999999999999
 40
0.6249999999999999
 40
0.6249999999999999
 40
0.6874999999999999
 40
0.6874999999999999
 40
0.7499999999999999
 40
0.7499999999999999
 40
0.8749999999999999
 40
0.8749999999999999
 40
0.9999999999999999
 40
0.9999999999999999
 40
0.9999999999999999
 40
1.000466072511363
 40
1.000466072511363
 40
1.000466072511363
 40
1.000466072511363
 10
112.8413191038701
 20
74.46640263801999
 30
0.0
 10
112.8411119075864
 20
74.46787252799223
 30
0.0
 10
112.8409047113026
 20
74.46934241796447
 30
0.0
 10
112.8406975150188
 20
74.47081230793667
 30
0.0
 10
112.8358574672886
 20
74.50514853006155
 30
0.0
 10
112.8302438750149
 20
74.54524320059424
 30
0.0
 10
112.8121357042141
 20
74.6227016830342
 30
0.0
 10
112.8006497595504
 20
74.65810405691572
 30
0.0
 10
112.772791823682
 20
74.72534642293644
 30
0.0
 10
112.7557649539901
 20
74.75729689004343
 30
0.0
 10
112.7169887688488
 20
74.81343091592454
 30
0.0
 10
112.6954727254098
 20
74.83821088718334
 30
0.0
 10
112.6471051082325
 20
74.88182156208705
 30
0.0
 10
112.6200717097075
 20
74.90056160862143
 30
0.0
 10
112.5610252444648
 20
74.9292145586822
 30
0.0
 10
112.5309078640481
 20
74.93875655438342
 30
0.0
 10
112.4682099074526
 20
74.9527189346787
 30
0.0
 10
112.4350127500717
 20
74.95674197552546
 30
0.0
 10
112.3658247783389
 20
74.95760787148164
 30
0.0
 10
112.3296032530247
 20
74.95432698851818
 30
0.0
 10
112.2572249211994
 20
74.94148467166755
 30
0.0
 10
112.2208450878466
 20
74.93199756890209
 30
0.0
 10
112.1495698668526
 20
74.90970975141684
 30
0.0
 10
112.1148668087969
 20
74.89728959370393
 30
0.0
 10
112.0430551030463
 20
74.86856626773685
 30
0.0
 10
112.0058614615239
 20
74.85174724959931
 30
0.0
 10
111.9340656130704
 20
74.81585384607727
 30
0.0
 10
111.8996095071496
 20
74.79724658600229
 30
0.0
 10
111.7962024352462
 20
74.7399779800525
 30
0.0
 10
111.7253711988921
 20
74.69741890427167
 30
0.0
 10
111.5868364070225
 20
74.6065535718288
 30
0.0
 10
111.5187859733948
 20
74.5584217376132
 30
0.0
 10
111.4533099463071
 20
74.51206343795863
 30
0.0
 10
111.453065813696
 20
74.51189058732547
 30
0.0
 10
111.452821681085
 20
74.51171773669235
 30
0.0
 10
111.452577548474
 20
74.51154488605921
 30
0.0
  0
LINE
  5
411
330
1F
100
AcDbEntity
  8
0
  6
Continuous
 62
     7
370
    25
100
AcDbLine
 10
111.4525775485
 20
74.5115448861
 30
0.0
 11
111.1113440903
 21
74.2651836817
 31
0.0
  0
LINE
  5
412
330
1F
100
AcDbEntity
  8
0
  6
Continuous
 62
     7
370
    25
100
AcDbLine
 10
111.1113440903
 20
74.2651836817
 30
0.0
 11
111.3213210047
 21
72.4669974998
 31
0.0
  0
LINE
  5
413
330
1F
100
AcDbEntity
  8
0
  6
Continuous
 62
     7
370
    25
100
AcDbLine
 10
111.0235472869
 20
75.0154439139
 30
0.0
 11
111.3773581387
 21
75.2712172061
 31
0.0
  0
SPLINE
  5
414
330
1F
100
AcDbEntity
  8
0
  6
Continuous
 62
     7
370
    25
100
AcDbSpline
210
0.0
220
0.0
230
1.0
 70
     8
 71
     3
 72
    24
 73
    20
 74
     0
 42
0.00000001
 43
0.00000001
 40
-0.0018204591104808
 40
-0.0018204591104808
 40
-0.0018204591104808
 40
-0.0018204591104808
 40
0.0
 40
0.0
 40
0.0
 40
0.25
 40
0.25
 40
0.5
 40
0.5
 40
0.625
 40
0.625
 40
0.75
 40
0.75
 40
0.875
 40
0.875
 40
1.0
 40
1.0
 40
1.0
 40
1.005229725352763
 40
1.005229725352763
 40
1.005229725352763
 40
1.005229725352763
 10
111.3773581386865
 20
75.2712172060522
 30
0.0
 10
111.3780153082395
 20
75.27171726479331
 30
0.0
 10
111.3786724777925
 20
75.27221732353445
 30
0.0
 10
111.3793296473455
 20
75.27271738227556
 30
0.0
 10
111.4695774245668
 20
75.34138944667812
 30
0.0
 10
111.5702429266884
 20
75.41838042277776
 30
0.0
 10
111.7684059566601
 20
75.61070490546514
 30
0.0
 10
111.8663614826785
 20
75.72501611235727
 30
0.0
 10
111.9935502755432
 20
75.92769575261138
 30
0.0
 10
112.0322214083861
 20
76.00105304432562
 30
0.0
 10
112.0948933917489
 20
76.14868591245782
 30
0.0
 10
112.119208312805
 20
76.22334036497084
 30
0.0
 10
112.1536306207281
 20
76.36711645370592
 30
0.0
 10
112.1643548545499
 20
76.43744407115169
 30
0.0
 10
112.1713015183549
 20
76.57238787856174
 30
0.0
 10
112.1670586101479
 20
76.6305258173838
 30
0.0
 10
112.1636349230791
 20
76.68129725620565
 30
0.0
 10
112.1634916835346
 20
76.6834214216521
 30
0.0
 10
112.1633484439901
 20
76.68554558709853
 30
0.0
 10
112.1632052044456
 20
76.6876697525449
 30
0.0
  0
SPLINE
  5
415
330
1F
100
AcDbEntity
  8
0
  6
Continuous
 62
     7
370
    25
100
AcDbSpline
210
0.0
220
0.0
230
1.0
 70
     8
 71
     3
 72
    30
 73
    26
 74
     0
 42
0.00000001
 43
0.00000001
 40
-0.0055677983162526
 40
-0.0055677983162526
 40
-0.0055677983162526
 40
-0.0055677983162526
 40
0.0
 40
0.0
 40
0.0
 40
0.125
 40
0.125
 40
0.25
 40
0.25
 40
0.3125
 40
0.3125
 40
0.375
 40
0.375
 40
0.5
 40
0.5
 40
0.625
 40
0.625
 40
0.75
 40
0.75
 40
0.875
 40
0.875
 40
1.0
 40
1.0
 40
1.0
 40
1.001513542145848
 40
1.001513542145848
 40
1.001513542145848
 40
1.001513542145848
 10
112.1632052044454
 20
76.68766975254509
 30
0.0
 10
112.1628853615046
 20
76.68966714695178
 30
0.0
 10
112.1625655185637
 20
76.69166454135842
 30
0.0
 10
112.1622456756228
 20
76.6936619357651
 30
0.0
 10
112.1550650334121
 20
76.73850449051545
 30
0.0
 10
112.1469484756972
 20
76.79173876524109
 30
0.0
 10
112.1124463392529
 20
76.89275294600684
 30
0.0
 10
112.0887073078616
 20
76.93420851703145
 30
0.0
 10
112.045660668705
 20
76.98711480555082
 30
0.0
 10
112.0297427089412
 20
77.0033015462098
 30
0.0
 10
111.9942600803453
 20
77.03153567589968
 30
0.0
 10
111.9744880821659
 20
77.0434667410953
 30
0.0
 10
111.9129287095227
 20
77.07087432830134
 30
0.0
 10
111.8692723492051
 20
77.07955277415024
 30
0.0
 10
111.7747012233213
 20
77.08214376230244
 30
0.0
 10
111.72249608779
 20
77.07397028202112
 30
0.0
 10
111.6219860700644
 20
77.04413184061143
 30
0.0
 10
111.573931166104
 20
77.02437877927682
 30
0.0
 10
111.4763310029739
 20
76.97780944197208
 30
0.0
 10
111.4264229233275
 20
76.94980064259946
 30
0.0
 10
111.3310678371311
 20
76.88953025103193
 30
0.0
 10
111.2856925207999
 20
76.85795040954314
 30
0.0
 10
111.2425118389357
 20
76.82796406321616
 30
0.0
 10
111.2419889926806
 20
76.82760097842441
 30
0.0
 10
111.2414661464255
 20
76.82723789363271
 30
0.0
 10
111.2409433001704
 20
76.82687480884098
 30
0.0
  0
LINE
  5
416
330
1F
100
AcDbEntity
  8
0
  6
Continuous
 62
     7
370
    25
100
AcDbLine
 10
111.2409433002
 20
76.8268748088
 30
0.0
 11
110.8458238379
 21
76.5407094512
 31
0.0
  0
LINE
  5
417
330
1F
100
AcDbEntity
  8
0
  6
Continuous
 62
     7
370
    25
100
AcDbLine
 10
110.8458238379
 20
76.5407094512
 30
0.0
 11
111.0235472869
 21
75.0154439139
 31
0.0
  0
LINE
  5
418
330
1F
100
AcDbEntity
  8
0
  6
Continuous
 62
     7
370
    25
100
AcDbLine
 10
110.6108240894
 20
71.0646553975
 30
0.0
 11
109.9441521753
 21
76.7786969801
 31
0.0
  0
LINE
  5
419
330
1F
100
AcDbEntity
  8
0
  6
Continuous
 62
     7
370
    25
100
AcDbLine
 10
109.9441521753
 20
76.7786969801
 30
0.0
 11
110.6889728219
 21
77.3165061525
 31
0.0
  0
SPLINE
  5
41A
330
1F
100
AcDbEntity
  8
0
  6
Continuous
 62
     7
370
    25
100
AcDbSpline
210
0.0
220
0.0
230
1.0
 70
     8
 71
     3
 72
    16
 73
    12
 74
     0
 42
0.00000001
 43
0.00000001
 40
0.0002195401507391
 40
0.0002195401507391
 40
0.0002195401507391
 40
0.0002195401507391
 40
0.25
 40
0.25
 40
0.4999999999999999
 40
0.4999999999999999
 40
0.7499999999999999
 40
0.7499999999999999
 40
0.8749999999999999
 40
0.8749999999999999
 40
0.997805784309191
 40
0.997805784309191
 40
0.997805784309191
 40
0.997805784309191
 10
110.6889728219206
 20
77.3165061524915
 30
0.0
 10
110.7818052882065
 20
77.38310243470151
 30
0.0
 10
110.872131164161
 20
77.44749434685491
 30
0.0
 10
111.0554878415465
 20
77.57362266358531
 30
0.0
 10
111.1477040816149
 20
77.63623419559734
 30
0.0
 10
111.3293391535045
 20
77.75401144701848
 30
0.0
 10
111.4197338389432
 20
77.80955779392676
 30
0.0
 10
111.5541306288336
 20
77.8855070046221
 30
0.0
 10
111.5987718791256
 20
77.90964052079156
 30
0.0
 10
111.685075223393
 20
77.95285810402252
 30
0.0
 10
111.7264844341983
 20
77.97128377366228
 30
0.0
 10
111.7723777977472
 20
77.99137556450253
 30
0.0
  0
SPLINE
  5
41B
330
1F
100
AcDbEntity
  8
0
  6
Continuous
 62
     7
370
    25
100
AcDbSpline
210
0.0
220
0.0
230
1.0
 70
     8
 71
     3
 72
    32
 73
    28
 74
     0
 42
0.00000001
 43
0.00000001
 40
0.0013331222706969
 40
0.0013331222706969
 40
0.0013331222706969
 40
0.0013331222706969
 40
0.125
 40
0.125
 40
0.1875
 40
0.1875
 40
0.25
 40
0.25
 40
0.3125
 40
0.3125
 40
0.375
 40
0.375
 40
0.4375
 40
0.4375
 40
0.5
 40
0.5
 40
0.625
 40
0.625
 40
0.75
 40
0.75
 40
0.8125
 40
0.8125
 40
0.875
 40
0.875
 40
0.9375
 40
0.9375
 40
0.9981605191570379
 40
0.9981605191570379
 40
0.9981605191570379
 40
0.9981605191570379
 10
111.7723777977474
 20
77.99137556450242
 30
0.0
 10
111.8482608010332
 20
78.02098152310053
 30
0.0
 10
111.9200857794819
 20
78.04855807148087
 30
0.0
 10
112.0205384372065
 20
78.07550284674375
 30
0.0
 10
112.0538229105767
 20
78.08218714936191
 30
0.0
 10
112.1229430098766
 20
78.09349876005989
 30
0.0
 10
112.1575160732383
 20
78.09821406532747
 30
0.0
 10
112.221747468167
 20
78.10308556889878
 30
0.0
 10
112.2526874729154
 20
78.10306603352146
 30
0.0
 10
112.3166773497187
 20
78.09991725852933
 30
0.0
 10
112.348455598113
 20
78.0971851136855
 30
0.0
 10
112.4061732618134
 20
78.0874415255573
 30
0.0
 10
112.433634858156
 20
78.07985224433128
 30
0.0
 10
112.4905874693415
 20
78.0605669912382
 30
0.0
 10
112.5187818773844
 20
78.04962262049189
 30
0.0
 10
112.5969058472108
 20
78.0124552930432
 30
0.0
 10
112.6439477225933
 20
77.9796002853756
 30
0.0
 10
112.7296001793477
 20
77.89876511342536
 30
0.0
 10
112.7659376817924
 20
77.85222057814501
 30
0.0
 10
112.8138911411312
 20
77.76935083539504
 30
0.0
 10
112.828305751977
 20
77.74084055342279
 30
0.0
 10
112.8528649193206
 20
77.68133568317818
 30
0.0
 10
112.8637879148591
 20
77.64846446984753
 30
0.0
 10
112.8842665816635
 20
77.57906650193988
 30
0.0
 10
112.8931407064542
 20
77.54469468599382
 30
0.0
 10
112.9065785297776
 20
77.47556050569904
 30
0.0
 10
112.911842449224
 20
77.43795022841735
 30
0.0
 10
112.9173067354787
 20
77.39804305697265
 30
0.0
  0
SPLINE
  5
41C
330
1F
100
AcDbEntity
  8
0
  6
Continuous
 62
     7
370
    25
100
AcDbSpline
210
0.0
220
0.0
230
1.0
 70
     8
 71
     3
 72
    23
 73
    19
 74
     0
 42
0.00000001
 43
0.00000001
 40
0.0027311958398661
 40
0.0027311958398661
 40
0.0027311958398661
 40
0.0027311958398661
 40
0.125
 40
0.125
 40
0.25
 40
0.25
 40
0.5
 40
0.5
 40
0.625
 40
0.625
 40
0.75
 40
0.75
 40
0.875
 40
0.875
 40
1.0
 40
1.0
 40
1.0
 40
1.156490764415945
 40
1.156490764415945
 40
1.156490764415945
 40
1.156490764415945
 10
112.9173067354788
 20
77.39804305697257
 30
0.0
 10
112.921896633042
 20
77.34179947608988
 30
0.0
 10
112.9260810037266
 20
77.2886061999987
 30
0.0
 10
112.9281312110488
 20
77.18275654637519
 30
0.0
 10
112.9260380297385
 20
77.12726560233288
 30
0.0
 10
112.910386757907
 20
76.95676326059672
 30
0.0
 10
112.8876426835809
 20
76.8369764230244
 30
0.0
 10
112.8358148219585
 20
76.65709507567716
 30
0.0
 10
112.8156873716615
 20
76.59750841515361
 30
0.0
 10
112.7688462824716
 20
76.47645217864537
 30
0.0
 10
112.7418629091295
 20
76.41383691424639
 30
0.0
 10
112.6848746628739
 20
76.28997267612944
 30
0.0
 10
112.6552866357638
 20
76.23009934495714
 30
0.0
 10
112.5908783345649
 20
76.10997774392045
 30
0.0
 10
112.5554569716711
 20
76.04816810642953
 30
0.0
 10
112.518551228406
 20
75.98385616150804
 30
0.0
 10
112.4723479646068
 20
75.90334235813343
 30
0.0
 10
112.4261447008077
 20
75.82282855475877
 30
0.0
 10
112.3799414370085
 20
75.74231475138407
 30
0.0
  0
SPLINE
  5
41D
330
1F
100
AcDbEntity
  8
0
  6
Continuous
 62
     7
370
    25
100
AcDbSpline
210
0.0
220
0.0
230
1.0
 70
     8
 71
     3
 72
    33
 73
    29
 74
     0
 42
0.00000001
 43
0.00000001
 40
-0.1058105665936282
 40
-0.1058105665936282
 40
-0.1058105665936282
 40
-0.1058105665936282
 40
0.0
 40
0.0
 40
0.0
 40
0.125
 40
0.125
 40
0.1875
 40
0.1875
 40
0.25
 40
0.25
 40
0.3125
 40
0.3125
 40
0.375
 40
0.375
 40
0.5
 40
0.5
 40
0.625
 40
0.625
 40
0.6875
 40
0.6875
 40
0.75
 40
0.75
 40
0.875
 40
0.875
 40
0.9375
 40
0.9375
 40
0.9985463413406106
 40
0.9985463413406106
 40
0.9985463413406106
 40
0.9985463413406106
 10
112.3799414370088
 20
75.74231475138379
 30
0.0
 10
112.4419972404236
 20
75.75343274638982
 30
0.0
 10
112.5040530438385
 20
75.76455074139588
 30
0.0
 10
112.5661088472533
 20
75.7756687364019
 30
0.0
 10
112.63941887362
 20
75.78880305200475
 30
0.0
 10
112.7079595602483
 20
75.80043089636096
 30
0.0
 10
112.8079829637492
 20
75.8085664769162
 30
0.0
 10
112.8407399535078
 20
75.80987911259257
 30
0.0
 10
112.9058258663573
 20
75.80989109780953
 30
0.0
 10
112.938171524189
 20
75.80869125622617
 30
0.0
 10
113.0005899353963
 20
75.80346901728092
 30
0.0
 10
113.0306806658604
 20
75.79931738963458
 30
0.0
 10
113.0899555729872
 20
75.7875363746987
 30
0.0
 10
113.1191240479113
 20
75.78003080041063
 30
0.0
 10
113.2029368303817
 20
75.75282707374595
 30
0.0
 10
113.2544983975927
 20
75.72762144902941
 30
0.0
 10
113.3487085088436
 20
75.66231475786262
 30
0.0
 10
113.391754035651
 20
75.62187669678733
 30
0.0
 10
113.4473308083447
 20
75.55223704631625
 30
0.0
 10
113.4644554746092
 20
75.52697007338332
 30
0.0
 10
113.4978385289182
 20
75.47226619452036
 30
0.0
 10
113.5134403907423
 20
75.44416531650752
 30
0.0
 10
113.5537077234308
 20
75.35784649589921
 30
0.0
 10
113.5750811780632
 20
75.29067490447517
 30
0.0
 10
113.6030163189465
 20
75.18387865504575
 30
0.0
 10
113.61114555272
 20
75.14879917516767
 30
0.0
 10
113.6235613551808
 20
75.07812645815149
 30
0.0
 10
113.6284344364445
 20
75.03999970101822
 30
0.0
 10
113.6334811594945
 20
74.9997995285084
 30
0.0
  0
SPLINE
  5
41E
330
1F
100
AcDbEntity
  8
0
  6
Continuous
 62
     7
370
    25
100
AcDbSpline
210
0.0
220
0.0
230
1.0
 70
     8
 71
     3
 72
    32
 73
    28
 74
     0
 42
0.00000001
 43
0.00000001
 40
0.0009462360664815
 40
0.0009462360664815
 40
0.0009462360664815
 40
0.0009462360664815
 40
0.0625
 40
0.0625
 40
0.125
 40
0.125
 40
0.1875
 40
0.1875
 40
0.25
 40
0.25
 40
0.375
 40
0.375
 40
0.5
 40
0.5
 40
0.625
 40
0.625
 40
0.6875
 40
0.6875
 40
0.71875
 40
0.71875
 40
0.75
 40
0.75
 40
0.875
 40
0.875
 40
0.9375
 40
0.9375
 40
0.9997770735793237
 40
0.9997770735793237
 40
0.9997770735793237
 40
0.9997770735793237
 10
113.6334811594951
 20
74.99979952850816
 30
0.0
 10
113.638772595022
 20
74.93564955889836
 30
0.0
 10
113.6437647788813
 20
74.87382614066004
 30
0.0
 10
113.6476953986192
 20
74.75070701867129
 30
0.0
 10
113.6461344904308
 20
74.68884232329681
 30
0.0
 10
113.6360967986107
 20
74.55762115324221
 30
0.0
 10
113.6279047501294
 20
74.4892544902285
 30
0.0
 10
113.6062950765589
 20
74.35247695587951
 30
0.0
 10
113.5927195298278
 20
74.28402135554512
 30
0.0
 10
113.5420313126623
 20
74.07599441309651
 30
0.0
 10
113.4953582643849
 20
73.93167817569426
 30
0.0
 10
113.384318812047
 20
73.64854215988659
 30
0.0
 10
113.3186620541926
 20
73.50811800252333
 30
0.0
 10
113.1699228088735
 20
73.23796360482417
 30
0.0
 10
113.0870070421196
 20
73.10909747962535
 30
0.0
 10
112.9504248835106
 20
72.92959490450751
 30
0.0
 10
112.9014048926942
 20
72.86950819977785
 30
0.0
 10
112.828605179879
 20
72.78611111132624
 30
0.0
 10
112.8043083198516
 20
72.75946047391425
 30
0.0
 10
112.7536670144771
 20
72.70592302643855
 30
0.0
 10
112.7274591815988
 20
72.67913676386425
 30
0.0
 10
112.5952458392013
 20
72.54692301103918
 30
0.0
 10
112.4868124601913
 20
72.44881077429771
 30
0.0
 10
112.3198397959074
 20
72.31023167773034
 30
0.0
 10
112.2635859488512
 20
72.26538107273916
 30
0.0
 10
112.150921706409
 20
72.17895308304301
 30
0.0
 10
112.093767543535
 20
72.13693355583972
 30
0.0
 10
112.0351225696762
 20
72.09384885305134
 30
0.0
  0
LINE
  5
41F
330
1F
100
AcDbEntity
  8
0
  6
Continuous
 62
     7
370
    25
100
AcDbLine
 10
112.0351225697
 20
72.0938488531
 30
0.0
 11
110.6108240894
 21
71.0646553975
 31
0.0
  0
LINE
  5
420
330
1F
100
AcDbEntity
  8
0
  6
Continuous
 62
     7
370
    25
100
AcDbLine
 10
109.9441521753
 20
76.7786969801
 30
0.0
 11
108.3916771597
 21
77.639265954
 31
0.0
  0
LINE
  5
421
330
1F
100
AcDbEntity
  8
0
  6
Continuous
 62
     7
370
    25
100
AcDbLine
 10
110.6108240894
 20
71.0646553975
 30
0.0
 11
109.0893458088
 21
71.6595515131
 31
0.0
  0
LWPOLYLINE
  5
422
330
1F
100
AcDbEntity
  8
0
  6
Continuous
 62
     7
370
    25
100
AcDbPolyline
 90
        4
 70
   128
 43
0.0
 10
111.7723777977
 20
77.9913755645
 10
111.2340035673
 20
78.3644161198
 10
110.8047462331
 20
78.6618494984
 10
110.3754894117
 20
78.9592830553
  0
LINE
  5
423
330
1F
100
AcDbEntity
  8
0
  6
Continuous
 62
     7
370
    25
100
AcDbLine
 10
108.2415665215
 20
70.2524147729
 30
0.0
 11
106.9433636165
 21
71.2814410717
 31
0.0
  0
LINE
  5
424
330
1F
100
AcDbEntity
  8
0
  6
Continuous
 62
     7
370
    25
100
AcDbLine
 10
112.1632052044
 20
76.6876697525
 30
0.0
 11
111.5157378433
 21
76.9943645694
 31
0.0
  0
LINE
  5
425
330
1F
100
AcDbEntity
  8
0
  6
Continuous
 62
     7
370
    25
100
AcDbLine
 10
111.3773581387
 20
75.2712172061
 30
0.0
 11
110.9616800634
 21
75.5464033588
 31
0.0
  0
LINE
  5
426
330
1F
100
AcDbEntity
  8
0
  6
Continuous
 62
     7
370
    25
100
AcDbLine
 10
112.8413191039
 20
74.466402638
 30
0.0
 11
112.0335654279
 21
74.8494324491
 31
0.0
  0
LINE
  5
427
330
1F
100
AcDbEntity
  8
0
  6
Continuous
 62
     7
370
    25
100
AcDbLine
 10
118.6155878689
 20
82.7135217317
 30
0.0
 11
117.3165909196
 21
83.7484605139
 31
0.0
  0
LINE
  5
428
330
1F
100
AcDbEntity
  8
0
  6
Continuous
 62
     7
370
    25
100
AcDbLine
 10
115.8236275459
 20
80.8878520548
 30
0.0
 11
118.6155878689
 21
82.7135217317
 31
0.0
  0
LINE
  5
429
330
1F
100
AcDbEntity
  8
0
  6
Continuous
 62
     7
370
    25
100
AcDbLine
 10
115.8236275459
 20
80.8878520548
 30
0.0
 11
114.2777714373
 21
81.7613690297
 31
0.0
  0
LINE
  5
42A
330
1F
100
AcDbEntity
  8
0
  6
Continuous
 62
     7
370
    25
100
AcDbLine
 10
118.6155878689
 20
82.7135217317
 30
0.0
 11
118.6683213316
 21
81.8315895669
 31
0.0
  0
LINE
  5
42B
330
1F
100
AcDbEntity
  8
0
  6
Continuous
 62
     7
370
    25
100
AcDbLine
 10
118.6683213316
 20
81.8315895669
 30
0.0
 11
116.6812185399
 21
80.5320505565
 31
0.0
  0
LINE
  5
42C
330
1F
100
AcDbEntity
  8
0
  6
Continuous
 62
     7
370
    25
100
AcDbLine
 10
116.6812185399
 20
80.5320505565
 30
0.0
 11
116.7637592736
 21
79.1317568193
 31
0.0
  0
LINE
  5
42D
330
1F
100
AcDbEntity
  8
0
  6
Continuous
 62
     7
370
    25
100
AcDbLine
 10
116.7637592736
 20
79.1317568193
 30
0.0
 11
118.7510792564
 21
80.4314378698
 31
0.0
  0
LINE
  5
42E
330
1F
100
AcDbEntity
  8
0
  6
Continuous
 62
     7
370
    25
100
AcDbLine
 10
118.7510792564
 20
80.4314378698
 30
0.0
 11
118.8025240035
 21
79.5702117951
 31
0.0
  0
LINE
  5
42F
330
1F
100
AcDbEntity
  8
0
  6
Continuous
 62
     7
370
    25
100
AcDbLine
 10
118.8025240035
 20
79.5702117951
 30
0.0
 11
116.815387605
 21
78.2706508063
 31
0.0
  0
LINE
  5
430
330
1F
100
AcDbEntity
  8
0
  6
Continuous
 62
     7
370
    25
100
AcDbLine
 10
116.815387605
 20
78.2706508063
 30
0.0
 11
116.9283887587
 21
76.3599048843
 31
0.0
  0
LINE
  5
431
330
1F
100
AcDbEntity
  8
0
  6
Continuous
 62
     7
370
    25
100
AcDbLine
 10
116.9283887587
 20
76.3599048843
 30
0.0
 11
118.9156439123
 21
77.6595435374
 31
0.0
  0
LINE
  5
432
330
1F
100
AcDbEntity
  8
0
  6
Continuous
 62
     7
370
    25
100
AcDbLine
 10
118.9156439123
 20
77.6595435374
 30
0.0
 11
118.9683106565
 21
76.7734991856
 31
0.0
  0
LINE
  5
433
330
1F
100
AcDbEntity
  8
0
  6
Continuous
 62
     7
370
    25
100
AcDbLine
 10
118.9683106565
 20
76.7734991856
 30
0.0
 11
116.1764101577
 21
74.9478686279
 31
0.0
  0
LINE
  5
434
330
1F
100
AcDbEntity
  8
0
  6
Continuous
 62
     7
370
    25
100
AcDbLine
 10
116.1764101577
 20
74.9478686279
 30
0.0
 11
115.8236275459
 21
80.8878520548
 31
0.0
  0
LINE
  5
435
330
1F
100
AcDbEntity
  8
0
  6
Continuous
 62
     7
370
    25
100
AcDbLine
 10
116.1764101577
 20
74.9478686279
 30
0.0
 11
114.6469266759
 21
75.5457112121
 31
0.0
  0
LINE
  5
436
330
1F
100
AcDbEntity
  8
0
  6
Continuous
 62
     7
370
    25
100
AcDbLine
 10
118.7510792564
 20
80.4314378698
 30
0.0
 11
117.7486322433
 21
81.2301250363
 31
0.0
  0
LINE
  5
437
330
1F
100
AcDbEntity
  8
0
  6
Continuous
 62
     7
370
    25
100
AcDbLine
 10
118.9156439123
 20
77.6595435374
 30
0.0
 11
117.6166931556
 21
78.6945229405
 31
0.0
  0
LINE
  5
438
330
1F
100
AcDbEntity
  8
0
  6
Continuous
 62
     7
370
    25
100
AcDbLine
 10
123.65888406
 20
85.9503800759
 30
0.0
 11
122.3257363213
 21
86.9594486372
 31
0.0
  0
LINE
  5
439
330
1F
100
AcDbEntity
  8
0
  6
Continuous
 62
     7
370
    25
100
AcDbLine
 10
122.7463048977
 20
85.3907254694
 30
0.0
 11
123.65888406
 21
85.9503800759
 31
0.0
  0
LINE
  5
43A
330
1F
100
AcDbEntity
  8
0
  6
Continuous
 62
     7
370
    25
100
AcDbLine
 10
122.7463048977
 20
85.3907254694
 30
0.0
 11
121.2433534178
 21
86.2956590143
 31
0.0
  0
LINE
  5
43B
330
1F
100
AcDbEntity
  8
0
  6
Continuous
 62
     7
370
    25
100
AcDbLine
 10
120.84945262
 20
78.0353987613
 30
0.0
 11
122.7463048977
 21
85.3907254694
 31
0.0
  0
LINE
  5
43C
330
1F
100
AcDbEntity
  8
0
  6
Continuous
 62
     7
370
    25
100
AcDbLine
 10
120.84945262
 20
78.0353987613
 30
0.0
 11
119.2588770117
 21
78.6005567214
 31
0.0
  0
LINE
  5
43D
330
1F
100
AcDbEntity
  8
0
  6
Continuous
 62
     7
370
    25
100
AcDbLine
 10
123.2417243181
 20
84.5162539975
 30
0.0
 11
122.3909037086
 21
81.2315255382
 31
0.0
  0
LINE
  5
43E
330
1F
100
AcDbEntity
  8
0
  6
Continuous
 62
     7
370
    25
100
AcDbLine
 10
122.3909037086
 20
81.2315255382
 30
0.0
 11
124.2400990371
 21
82.3657618482
 31
0.0
  0
LINE
  5
43F
330
1F
100
AcDbEntity
  8
0
  6
Continuous
 62
     7
370
    25
100
AcDbLine
 10
124.2400990371
 20
82.3657618482
 30
0.0
 11
123.2417243181
 21
84.5162539975
 31
0.0
  0
LINE
  5
440
330
1F
100
AcDbEntity
  8
0
  6
Continuous
 62
     7
370
    25
100
AcDbLine
 10
123.65888406
 20
85.9503800759
 30
0.0
 11
125.8868595406
 21
81.1257373818
 31
0.0
  0
LINE
  5
441
330
1F
100
AcDbEntity
  8
0
  6
Continuous
 62
     7
370
    25
100
AcDbLine
 10
125.8868595406
 20
81.1257373818
 30
0.0
 11
125.0442360741
 21
80.6088212201
 31
0.0
  0
LINE
  5
442
330
1F
100
AcDbEntity
  8
0
  6
Continuous
 62
     7
370
    25
100
AcDbLine
 10
125.0442360741
 20
80.6088212201
 30
0.0
 11
124.5703753879
 21
81.6523201219
 31
0.0
  0
LINE
  5
443
330
1F
100
AcDbEntity
  8
0
  6
Continuous
 62
     7
370
    25
100
AcDbLine
 10
124.5703753879
 20
81.6523201219
 30
0.0
 11
122.1153639748
 21
80.1462083105
 31
0.0
  0
LINE
  5
444
330
1F
100
AcDbEntity
  8
0
  6
Continuous
 62
     7
370
    25
100
AcDbLine
 10
122.1153639748
 20
80.1462083105
 30
0.0
 11
121.6946617687
 21
78.5544300285
 31
0.0
  0
LINE
  5
445
330
1F
100
AcDbEntity
  8
0
  6
Continuous
 62
     7
370
    25
100
AcDbLine
 10
121.6946617687
 20
78.5544300285
 30
0.0
 11
120.84945262
 21
78.0353987613
 31
0.0
  0
LINE
  5
446
330
1F
100
AcDbEntity
  8
0
  6
Continuous
 62
     7
370
    25
100
AcDbLine
 10
124.2400990371
 20
82.3657618482
 30
0.0
 11
122.8722897867
 21
83.0899931554
 31
0.0
  0
LINE
  5
447
330
1F
100
AcDbEntity
  8
0
  6
Continuous
 62
     7
370
    25
100
AcDbLine
 10
128.1179317027
 20
88.599075084
 30
0.0
 11
128.941314206
 21
89.0628412281
 31
0.0
  0
LINE
  5
448
330
1F
100
AcDbEntity
  8
0
  6
Continuous
 62
     7
370
    25
100
AcDbLine
 10
128.941314206
 20
89.0628412281
 30
0.0
 11
131.4726668726
 21
85.920895872
 31
0.0
  0
LINE
  5
449
330
1F
100
AcDbEntity
  8
0
  6
Continuous
 62
     7
370
    25
100
AcDbLine
 10
131.4726668726
 20
85.920895872
 30
0.0
 11
131.5199392884
 21
90.5152393506
 31
0.0
  0
LINE
  5
44A
330
1F
100
AcDbEntity
  8
0
  6
Continuous
 62
     7
370
    25
100
AcDbLine
 10
131.5199392884
 20
90.5152393506
 30
0.0
 11
132.3321311823
 21
90.9726472747
 31
0.0
  0
LINE
  5
44B
330
1F
100
AcDbEntity
  8
0
  6
Continuous
 62
     7
370
    25
100
AcDbLine
 10
132.3321311823
 20
90.9726472747
 30
0.0
 11
132.2676584195
 21
84.7940278961
 31
0.0
  0
LINE
  5
44C
330
1F
100
AcDbEntity
  8
0
  6
Continuous
 62
     7
370
    25
100
AcDbLine
 10
132.2676584195
 20
84.7940278961
 30
0.0
 11
131.4406823071
 21
84.3283464518
 31
0.0
  0
LINE
  5
44D
330
1F
100
AcDbEntity
  8
0
  6
Continuous
 62
     7
370
    25
100
AcDbLine
 10
131.4406823071
 20
84.3283464518
 30
0.0
 11
128.9135688222
 21
87.4591399205
 31
0.0
  0
LINE
  5
44E
330
1F
100
AcDbEntity
  8
0
  6
Continuous
 62
     7
370
    25
100
AcDbLine
 10
128.9135688222
 20
87.4591399205
 30
0.0
 11
128.8656745333
 21
82.8778607008
 31
0.0
  0
LINE
  5
44F
330
1F
100
AcDbEntity
  8
0
  6
Continuous
 62
     7
370
    25
100
AcDbLine
 10
128.8656745333
 20
82.8778607008
 30
0.0
 11
128.053458769
 21
82.4204393334
 31
0.0
  0
LINE
  5
450
330
1F
100
AcDbEntity
  8
0
  6
Continuous
 62
     7
370
    25
100
AcDbLine
 10
128.053458769
 20
82.4204393334
 30
0.0
 11
128.1179317027
 21
88.599075084
 31
0.0
  0
LINE
  5
451
330
1F
100
AcDbEntity
  8
0
  6
Continuous
 62
     7
370
    25
100
AcDbLine
 10
128.941314206
 20
89.0628412281
 30
0.0
 11
127.5956214564
 21
90.0607300431
 31
0.0
  0
LINE
  5
452
330
1F
100
AcDbEntity
  8
0
  6
Continuous
 62
     7
370
    25
100
AcDbLine
 10
128.1179317027
 20
88.599075084
 30
0.0
 11
126.5814994446
 21
89.4895308094
 31
0.0
  0
LINE
  5
453
330
1F
100
AcDbEntity
  8
0
  6
Continuous
 62
     7
370
    25
100
AcDbLine
 10
128.053458769
 20
82.4204393334
 30
0.0
 11
126.5140269762
 21
83.0234406029
 31
0.0
  0
LINE
  5
454
330
1F
100
AcDbEntity
  8
0
  6
Continuous
 62
     7
370
    25
100
AcDbLine
 10
125.0442360741
 20
80.6088212201
 30
0.0
 11
123.7493006434
 21
81.1486033717
 31
0.0
  0
LINE
  5
455
330
1F
100
AcDbEntity
  8
0
  6
Continuous
 62
     7
370
    25
100
AcDbLine
 10
131.4406823071
 20
84.3283464518
 30
0.0
 11
129.9579894859
 21
84.9633060745
 31
0.0
  0
LINE
  5
456
330
1F
100
AcDbEntity
  8
0
  6
Continuous
 62
     7
370
    25
100
AcDbLine
 10
132.3321311823
 20
90.9726472747
 30
0.0
 11
131.0431358503
 21
92.002462229
 31
0.0
  0
LINE
  5
457
330
1F
100
AcDbEntity
  8
0
  6
Continuous
 62
     7
370
    25
100
AcDbLine
 10
131.5199392884
 20
90.5152393506
 30
0.0
 11
129.9834860723
 21
91.4056916765
 31
0.0
  0
LINE
  5
458
330
1F
100
AcDbEntity
  8
0
  6
Continuous
 62
     7
370
    25
100
AcDbLine
 10
135.969119931
 20
92.936875235
 30
0.0
 11
134.6851414268
 21
93.9634049225
 31
0.0
  0
LINE
  5
459
330
1F
100
AcDbEntity
  8
0
  6
Continuous
 62
     7
370
    25
100
AcDbLine
 10
135.1532132438
 20
92.5169032296
 30
0.0
 11
135.969119931
 21
92.936875235
 31
0.0
  0
LINE
  5
45A
330
1F
100
AcDbEntity
  8
0
  6
Continuous
 62
     7
370
    25
100
AcDbLine
 10
135.1532132438
 20
92.5169032296
 30
0.0
 11
133.6221528118
 21
93.4162523286
 31
0.0
  0
LINE
  5
45B
330
1F
100
AcDbEntity
  8
0
  6
Continuous
 62
     7
370
    25
100
AcDbLine
 10
134.8636863451
 20
86.1843779445
 30
0.0
 11
135.1532132438
 21
92.5169032296
 31
0.0
  0
LINE
  5
45C
330
1F
100
AcDbEntity
  8
0
  6
Continuous
 62
     7
370
    25
100
AcDbLine
 10
134.8636863451
 20
86.1843779445
 30
0.0
 11
133.3192268338
 21
86.7906627073
 31
0.0
  0
LINE
  5
45D
330
1F
100
AcDbEntity
  8
0
  6
Continuous
 62
     7
370
    25
100
AcDbLine
 10
135.969119931
 20
92.936875235
 30
0.0
 11
135.7215521401
 21
87.5133274878
 31
0.0
  0
LINE
  5
45E
330
1F
100
AcDbEntity
  8
0
  6
Continuous
 62
     7
370
    25
100
AcDbLine
 10
135.7215521401
 20
87.5133274878
 30
0.0
 11
137.2705258167
 21
88.3105503657
 31
0.0
  0
LINE
  5
45F
330
1F
100
AcDbEntity
  8
0
  6
Continuous
 62
     7
370
    25
100
AcDbLine
 10
137.2705258167
 20
88.3105503657
 30
0.0
 11
137.228666984
 21
87.4016321023
 31
0.0
  0
LINE
  5
460
330
1F
100
AcDbEntity
  8
0
  6
Continuous
 62
     7
370
    25
100
AcDbLine
 10
137.228666984
 20
87.4016321023
 30
0.0
 11
134.8636863451
 21
86.1843779445
 31
0.0
  0
LINE
  5
461
330
1F
100
AcDbEntity
  8
0
  6
Continuous
 62
     7
370
    25
100
AcDbLine
 10
137.2705258167
 20
88.3105503657
 30
0.0
 11
135.9866080495
 21
89.3371048515
 31
0.0
  0
LINE
  5
462
330
1F
100
AcDbEntity
  8
0
  6
Continuous
 62
     7
370
    25
100
AcDbLine
 10
141.4713029605
 20
95.6720771781
 30
0.0
 11
139.9828388168
 21
96.5962156287
 31
0.0
  0
LINE
  5
463
330
1F
100
AcDbEntity
  8
0
  6
Continuous
 62
     7
370
    25
100
AcDbLine
 10
138.9681920239
 20
88.2691385029
 30
0.0
 11
141.4713029605
 21
95.6720771781
 31
0.0
  0
LINE
  5
464
330
1F
100
AcDbEntity
  8
0
  6
Continuous
 62
     7
370
    25
100
AcDbLine
 10
138.9681920239
 20
88.2691385029
 30
0.0
 11
137.3639483503
 21
88.8508595454
 31
0.0
  0
LINE
  5
465
330
1F
100
AcDbEntity
  8
0
  6
Continuous
 62
     7
370
    25
100
AcDbLine
 10
140.7243393547
 20
91.3666593212
 30
0.0
 11
142.5670320271
 21
92.2513369339
 31
0.0
  0
LINE
  5
466
330
1F
100
AcDbEntity
  8
0
  6
Continuous
 62
     7
370
    25
100
AcDbLine
 10
142.5670320271
 20
92.2513369339
 30
0.0
 11
141.8473667441
 21
94.6729650669
 31
0.0
  0
LINE
  5
467
330
1F
100
AcDbEntity
  8
0
  6
Continuous
 62
     7
370
    25
100
AcDbLine
 10
141.8473667441
 20
94.6729650669
 30
0.0
 11
140.7243393547
 21
91.3666593212
 31
0.0
  0
LINE
  5
468
330
1F
100
AcDbEntity
  8
0
  6
Continuous
 62
     7
370
    25
100
AcDbLine
 10
141.4713029605
 20
95.6720771781
 30
0.0
 11
142.3788439437
 21
96.1078220462
 31
0.0
  0
LINE
  5
469
330
1F
100
AcDbEntity
  8
0
  6
Continuous
 62
     7
370
    25
100
AcDbLine
 10
142.3788439437
 20
96.1078220462
 30
0.0
 11
143.9827398331
 21
90.6776531315
 31
0.0
  0
LINE
  5
46A
330
1F
100
AcDbEntity
  8
0
  6
Continuous
 62
     7
370
    25
100
AcDbLine
 10
143.9827398331
 20
90.6776531315
 30
0.0
 11
143.1440405219
 21
90.2756068208
 31
0.0
  0
LINE
  5
46B
330
1F
100
AcDbEntity
  8
0
  6
Continuous
 62
     7
370
    25
100
AcDbLine
 10
143.1440405219
 20
90.2756068208
 30
0.0
 11
142.8042046933
 21
91.4484158022
 31
0.0
  0
LINE
  5
46C
330
1F
100
AcDbEntity
  8
0
  6
Continuous
 62
     7
370
    25
100
AcDbLine
 10
142.8042046933
 20
91.4484158022
 30
0.0
 11
140.3600837376
 21
90.2738215128
 31
0.0
  0
LINE
  5
46D
330
1F
100
AcDbEntity
  8
0
  6
Continuous
 62
     7
370
    25
100
AcDbLine
 10
140.3600837376
 20
90.2738215128
 30
0.0
 11
139.8085116969
 21
88.6729143901
 31
0.0
  0
LINE
  5
46E
330
1F
100
AcDbEntity
  8
0
  6
Continuous
 62
     7
370
    25
100
AcDbLine
 10
139.8085116969
 20
88.6729143901
 30
0.0
 11
138.9681920239
 21
88.2691385029
 31
0.0
  0
LINE
  5
46F
330
1F
100
AcDbEntity
  8
0
  6
Continuous
 62
     7
370
    25
100
AcDbLine
 10
142.3788439437
 20
96.1078220462
 30
0.0
 11
141.0596525496
 21
97.113234768
 31
0.0
  0
LINE
  5
470
330
1F
100
AcDbEntity
  8
0
  6
Continuous
 62
     7
370
    25
100
AcDbLine
 10
142.5670320271
 20
92.2513369339
 30
0.0
 11
141.2693203615
 21
92.9711382959
 31
0.0
  0
LINE
  5
471
330
1F
100
AcDbEntity
  8
0
  6
Continuous
 62
     7
370
    25
100
AcDbLine
 10
143.1440405219
 20
90.2756068208
 30
0.0
 11
141.6529713832
 21
90.8951567384
 31
0.0
  0
LINE
  5
472
330
1F
100
AcDbEntity
  8
0
  6
Continuous
 62
     7
370
    25
100
AcDbLine
 10
151.5769628486
 20
99.0679401633
 30
0.0
 11
150.9309954336
 21
98.1450475974
 31
0.0
  0
SPLINE
  5
473
330
1F
100
AcDbEntity
  8
0
  6
Continuous
 62
     7
370
    25
100
AcDbSpline
210
0.0
220
0.0
230
1.0
 70
     8
 71
     3
 72
    23
 73
    19
 74
     0
 42
0.00000001
 43
0.00000001
 40
0.0654371867466584
 40
0.0654371867466584
 40
0.0654371867466584
 40
0.0654371867466584
 40
0.125
 40
0.125
 40
0.25
 40
0.25
 40
0.375
 40
0.375
 40
0.5
 40
0.5
 40
0.75
 40
0.75
 40
0.875
 40
0.875
 40
1.0
 40
1.0
 40
1.0
 40
1.001826177842812
 40
1.001826177842812
 40
1.001826177842812
 40
1.001826177842812
 10
150.9309954336249
 20
98.14504759742401
 30
0.0
 10
150.9079865335351
 20
98.166805979191
 30
0.0
 10
150.8843020565976
 20
98.1882574169144
 30
0.0
 10
150.8076932797719
 20
98.252069915789
 30
0.0
 10
150.7521047105874
 20
98.28996460781674
 30
0.0
 10
150.6375176621512
 20
98.35656440735916
 30
0.0
 10
150.5778959498505
 20
98.38621491753538
 30
0.0
 10
150.4508502104116
 20
98.43434630935543
 30
0.0
 10
150.3839812976361
 20
98.45213309801775
 30
0.0
 10
150.1777223111388
 20
98.48837722148535
 30
0.0
 10
150.0310934980384
 20
98.4910211381837
 30
0.0
 10
149.7991520895436
 20
98.45779486180359
 30
0.0
 10
149.7199584915042
 20
98.44044585148056
 30
0.0
 10
149.5589401369203
 20
98.39262518102396
 30
0.0
 10
149.4797463877125
 20
98.36298531588503
 30
0.0
 10
149.4032277705491
 20
98.33443688296623
 30
0.0
 10
149.4021098777232
 20
98.33401980684108
 30
0.0
 10
149.4009919848974
 20
98.33360273071595
 30
0.0
 10
149.3998740920716
 20
98.33318565459082
 30
0.0
  0
SPLINE
  5
474
330
1F
100
AcDbEntity
  8
0
  6
Continuous
 62
     7
370
    25
100
AcDbSpline
210
0.0
220
0.0
230
1.0
 70
     8
 71
     3
 72
    32
 73
    28
 74
     0
 42
0.00000001
 43
0.00000001
 40
-0.0011369059206436
 40
-0.0011369059206436
 40
-0.0011369059206436
 40
-0.0011369059206436
 40
0.0
 40
0.0
 40
0.0
 40
0.0625
 40
0.0625
 40
0.125
 40
0.125
 40
0.25
 40
0.25
 40
0.3749999999999999
 40
0.3749999999999999
 40
0.4999999999999999
 40
0.4999999999999999
 40
0.6249999999999999
 40
0.6249999999999999
 40
0.7499999999999999
 40
0.7499999999999999
 40
0.8749999999999999
 40
0.8749999999999999
 40
0.9374999999999999
 40
0.9374999999999999
 40
0.9999999999999999
 40
0.9999999999999999
 40
0.9999999999999999
 40
1.001104737082967
 40
1.001104737082967
 40
1.001104737082967
 40
1.001104737082967
 10
149.3998740920713
 20
98.33318565459095
 30
0.0
 10
149.3987470148299
 20
98.3326919197155
 30
0.0
 10
149.3976199375884
 20
98.33219818484004
 30
0.0
 10
149.396492860347
 20
98.33170444996456
 30
0.0
 10
149.3345331798585
 20
98.3045619844739
 30
0.0
 10
149.2705895694599
 20
98.27660677426553
 30
0.0
 10
149.1382086289092
 20
98.211135035381
 30
0.0
 10
149.071339947549
 20
98.1740417269995
 30
0.0
 10
148.872672866351
 20
98.05310098352143
 30
0.0
 10
148.7413523079804
 20
97.95998193370359
 30
0.0
 10
148.480002525022
 20
97.74260036246807
 30
0.0
 10
148.3525290532454
 20
97.61854629379724
 30
0.0
 10
148.1108813558798
 20
97.35124117422728
 30
0.0
 10
147.9955070356874
 20
97.20686915770064
 30
0.0
 10
147.7803391260233
 20
96.90407113221514
 30
0.0
 10
147.6803682814237
 20
96.74691905334446
 30
0.0
 10
147.496014702963
 20
96.41842435510465
 30
0.0
 10
147.4132423541342
 20
96.24760063770813
 30
0.0
 10
147.2740229478549
 20
95.90238842523469
 30
0.0
 10
147.21804607326
 20
95.7290473136276
 30
0.0
 10
147.1524008585772
 20
95.47454942286227
 30
0.0
 10
147.1331612812117
 20
95.38918999806317
 30
0.0
 10
147.1026443458624
 20
95.22020120766639
 30
0.0
 10
147.0918117095696
 20
95.14005451266799
 30
0.0
 10
147.0813228702839
 20
95.06294366955628
 30
0.0
 10
147.0811374717285
 20
95.06158067423013
 30
0.0
 10
147.080952073173
 20
95.060217678904
 30
0.0
 10
147.0807666746176
 20
95.05885468357783
 30
0.0
  0
SPLINE
  5
475
330
1F
100
AcDbEntity
  8
0
  6
Continuous
 62
     7
370
    25
100
AcDbSpline
210
0.0
220
0.0
230
1.0
 70
     8
 71
     3
 72
    38
 73
    34
 74
     0
 42
0.00000001
 43
0.00000001
 40
-0.0010712211159412
 40
-0.0010712211159412
 40
-0.0010712211159412
 40
-0.0010712211159412
 40
0.0
 40
0.0
 40
0.0
 40
0.0625
 40
0.0625
 40
0.125
 40
0.125
 40
0.1875
 40
0.1875
 40
0.25
 40
0.25
 40
0.375
 40
0.375
 40
0.5
 40
0.5
 40
0.625
 40
0.625
 40
0.6875
 40
0.6875
 40
0.75
 40
0.75
 40
0.8125
 40
0.8125
 40
0.875
 40
0.875
 40
0.9375
 40
0.9375
 40
1.0
 40
1.0
 40
1.0
 40
1.00089660137124
 40
1.00089660137124
 40
1.00089660137124
 40
1.00089660137124
 10
147.0807666746172
 20
95.0588546835781
 30
0.0
 10
147.0806396923773
 20
95.05751576585602
 30
0.0
 10
147.0805127101374
 20
95.05617684813394
 30
0.0
 10
147.0803857278975
 20
95.05483793041186
 30
0.0
 10
147.0729769960533
 20
94.97671927088814
 30
0.0
 10
147.0652597612443
 20
94.89592315488918
 30
0.0
 10
147.0566693380343
 20
94.73262328171192
 30
0.0
 10
147.0560698550783
 20
94.6524681620908
 30
0.0
 10
147.0625124464077
 20
94.4971451302739
 30
0.0
 10
147.0695354043778
 20
94.42231814096627
 30
0.0
 10
147.0898672259467
 20
94.27808380507682
 30
0.0
 10
147.1033469462262
 20
94.20767311786705
 30
0.0
 10
147.1564276167433
 20
94.00610653137933
 30
0.0
 10
147.2069305935093
 20
93.88722455102244
 30
0.0
 10
147.3315705584492
 20
93.67722140385906
 30
0.0
 10
147.4070814887246
 20
93.5875919692239
 30
0.0
 10
147.5742202806593
 20
93.43738820720205
 30
0.0
 10
147.6684919014637
 20
93.37552092639208
 30
0.0
 10
147.823460206162
 20
93.30938435156769
 30
0.0
 10
147.8776736990102
 20
93.29145217197727
 30
0.0
 10
147.9906579192897
 20
93.26555435452529
 30
0.0
 10
148.0488301338889
 20
93.25753071468687
 30
0.0
 10
148.1678855950764
 20
93.24936383420093
 30
0.0
 10
148.2293390828441
 20
93.24936809994611
 30
0.0
 10
148.3552024207504
 20
93.25883304715668
 30
0.0
 10
148.4190762517388
 20
93.26807547855326
 30
0.0
 10
148.5485133291894
 20
93.29401480783724
 30
0.0
 10
148.6148473860014
 20
93.31106078761262
 30
0.0
 10
148.7485239385686
 20
93.35419730136196
 30
0.0
 10
148.8140544189343
 20
93.37932496076063
 30
0.0
 10
148.877541528384
 20
93.40361076841455
 30
0.0
 10
148.8784522904542
 20
93.40395916342963
 30
0.0
 10
148.8793630525245
 20
93.40430755844476
 30
0.0
 10
148.8802738145947
 20
93.40465595345987
 30
0.0
  0
SPLINE
  5
476
330
1F
100
AcDbEntity
  8
0
  6
Continuous
 62
     7
370
    25
100
AcDbSpline
210
0.0
220
0.0
230
1.0
 70
     8
 71
     3
 72
    32
 73
    28
 74
     0
 42
0.00000001
 43
0.00000001
 40
-0.0014441757451988
 40
-0.0014441757451988
 40
-0.0014441757451988
 40
-0.0014441757451988
 40
0.0
 40
0.0
 40
0.0
 40
0.125
 40
0.125
 40
0.25
 40
0.25
 40
0.3125
 40
0.3125
 40
0.375
 40
0.375
 40
0.5
 40
0.5
 40
0.5625
 40
0.5625
 40
0.625
 40
0.625
 40
0.75
 40
0.75
 40
0.875
 40
0.875
 40
1.0
 40
1.0
 40
1.0
 40
1.103775953014776
 40
1.103775953014776
 40
1.103775953014776
 40
1.103775953014776
 10
148.8802738145948
 20
93.40465595345975
 30
0.0
 10
148.8811905416802
 20
93.4050550511879
 30
0.0
 10
148.8821072687656
 20
93.4054541489161
 30
0.0
 10
148.8830239958511
 20
93.40585324664427
 30
0.0
 10
148.9623709077906
 20
93.44039697595663
 30
0.0
 10
149.0462772471785
 20
93.47737338098206
 30
0.0
 10
149.2167882214812
 20
93.56651875265865
 30
0.0
 10
149.3032203459807
 20
93.61850711187189
 30
0.0
 10
149.4303266906173
 20
93.70425604582539
 30
0.0
 10
149.4725908249465
 20
93.73405467945611
 30
0.0
 10
149.558581940165
 20
93.79880941021659
 30
0.0
 10
149.6016892564514
 20
93.83358744079501
 30
0.0
 10
149.7277101525779
 20
93.94117099411947
 30
0.0
 10
149.8099511922304
 20
94.01787758399239
 30
0.0
 10
149.9332887927081
 20
94.15024842441392
 30
0.0
 10
149.9724421978533
 20
94.19551388710119
 30
0.0
 10
150.0477780776808
 20
94.2859893834497
 30
0.0
 10
150.0853808414429
 20
94.33302424929435
 30
0.0
 10
150.1957317922949
 20
94.47940335877588
 30
0.0
 10
150.2647020580408
 20
94.5827513186108
 30
0.0
 10
150.3909188910706
 20
94.79028695835103
 30
0.0
 10
150.4496712085
 20
94.89535287065019
 30
0.0
 10
150.5594157183466
 20
95.11148610596953
 30
0.0
 10
150.6086194870885
 20
95.22108149759426
 30
0.0
 10
150.6538925548518
 20
95.32318647343843
 30
0.0
 10
150.691478600876
 20
95.40795480284473
 30
0.0
 10
150.7290646469003
 20
95.49272313225096
 30
0.0
 10
150.7666506929246
 20
95.5774914616572
 30
0.0
  0
LINE
  5
477
330
1F
100
AcDbEntity
  8
0
  6
Continuous
 62
     7
370
    25
100
AcDbLine
 10
150.7666506929
 20
95.5774914617
 30
0.0
 11
149.0978535576
 21
94.8953146933
 31
0.0
  0
LINE
  5
478
330
1F
100
AcDbEntity
  8
0
  6
Continuous
 62
     7
370
    25
100
AcDbLine
 10
149.0978535576
 20
94.8953146933
 30
0.0
 11
149.2053113589
 21
95.8113347153
 31
0.0
  0
LINE
  5
479
330
1F
100
AcDbEntity
  8
0
  6
Continuous
 62
     7
370
    25
100
AcDbLine
 10
149.2053113589
 20
95.8113347153
 30
0.0
 11
151.7335426883
 21
96.8447387164
 31
0.0
  0
LINE
  5
47A
330
1F
100
AcDbEntity
  8
0
  6
Continuous
 62
     7
370
    25
100
AcDbLine
 10
151.7335426883
 20
96.8447387164
 30
0.0
 11
151.7212712387
 21
96.709264412
 31
0.0
  0
SPLINE
  5
47B
330
1F
100
AcDbEntity
  8
0
  6
Continuous
 62
     7
370
    25
100
AcDbSpline
210
0.0
220
0.0
230
1.0
 70
     8
 71
     3
 72
    40
 73
    36
 74
     0
 42
0.00000001
 43
0.00000001
 40
0.0007934871314442
 40
0.0007934871314442
 40
0.0007934871314442
 40
0.0007934871314442
 40
0.0625
 40
0.0625
 40
0.125
 40
0.125
 40
0.1875
 40
0.1875
 40
0.25
 40
0.25
 40
0.3125
 40
0.3125
 40
0.375
 40
0.375
 40
0.4375
 40
0.4375
 40
0.5
 40
0.5
 40
0.5625
 40
0.5625
 40
0.625
 40
0.625
 40
0.6875
 40
0.6875
 40
0.75
 40
0.75
 40
0.8125
 40
0.8125
 40
0.84375
 40
0.84375
 40
0.875
 40
0.875
 40
0.9375
 40
0.9375
 40
0.9995800989615665
 40
0.9995800989615665
 40
0.9995800989615665
 40
0.9995800989615665
 10
151.7212712387377
 20
96.70926441200858
 30
0.0
 10
151.7064435752623
 20
96.59860103265989
 30
0.0
 10
151.6919082851932
 20
96.49500903942604
 30
0.0
 10
151.6510070333178
 20
96.27996704178821
 30
0.0
 10
151.6260662273092
 20
96.16982978916455
 30
0.0
 10
151.5678953998643
 20
95.94990216063212
 30
0.0
 10
151.5340974246836
 20
95.83768133198156
 30
0.0
 10
151.4602100362266
 20
95.61481995315138
 30
0.0
 10
151.4194965514092
 20
95.50403302977558
 30
0.0
 10
151.3301354112927
 20
95.2817855173786
 30
0.0
 10
151.2819878793433
 20
95.17157435700774
 30
0.0
 10
151.1783706622479
 20
94.9511338980303
 30
0.0
 10
151.1233522105308
 20
94.84063291761377
 30
0.0
 10
151.0089309564094
 20
94.62527353229572
 30
0.0
 10
150.9483204787868
 20
94.51854140528559
 30
0.0
 10
150.8221620823539
 20
94.30898080236739
 30
0.0
 10
150.7565795616314
 20
94.20631391981173
 30
0.0
 10
150.6204283174602
 20
94.00798634812993
 30
0.0
 10
150.548656240831
 20
93.91051233556774
 30
0.0
 10
150.4016373729917
 20
93.72228022818355
 30
0.0
 10
150.3260692833333
 20
93.63181780003174
 30
0.0
 10
150.1705245339029
 20
93.45778288192577
 30
0.0
 10
150.0913748162627
 20
93.37533965911065
 30
0.0
 10
149.9285861179689
 20
93.21801910881646
 30
0.0
 10
149.8455776344871
 20
93.14318134038663
 30
0.0
 10
149.6781240460635
 20
93.00373795012118
 30
0.0
 10
149.5933385015432
 20
92.93889392364862
 30
0.0
 10
149.4643873113573
 20
92.84755701748482
 30
0.0
 10
149.4211114849826
 20
92.81801041770906
 30
0.0
 10
149.3350825449468
 20
92.76169278470798
 30
0.0
 10
149.292406138418
 20
92.73502992915742
 30
0.0
 10
149.1633494590925
 20
92.65857722775131
 30
0.0
 10
149.0748840819176
 20
92.61070229262361
 30
0.0
 10
148.9023883472652
 20
92.52433484635087
 30
0.0
 10
148.8180620177197
 20
92.48770680641027
 30
0.0
 10
148.7284496458971
 20
92.44934471368585
 30
0.0
  0
SPLINE
  5
47C
330
1F
100
AcDbEntity
  8
0
  6
Continuous
 62
     7
370
    25
100
AcDbSpline
210
0.0
220
0.0
230
1.0
 70
     8
 71
     3
 72
    38
 73
    34
 74
     0
 42
0.00000001
 43
0.00000001
 40
0.0003863196206833
 40
0.0003863196206833
 40
0.0003863196206833
 40
0.0003863196206833
 40
0.0625
 40
0.0625
 40
0.125
 40
0.125
 40
0.15625
 40
0.15625
 40
0.1875
 40
0.1875
 40
0.25
 40
0.25
 40
0.3125
 40
0.3125
 40
0.375
 40
0.375
 40
0.5
 40
0.5
 40
0.5625
 40
0.5625
 40
0.625
 40
0.625
 40
0.6875
 40
0.6875
 40
0.75
 40
0.75
 40
0.8125
 40
0.8125
 40
0.875
 40
0.875
 40
0.9375
 40
0.9375
 40
0.9993662824181616
 40
0.9993662824181616
 40
0.9993662824181616
 40
0.9993662824181616
 10
148.7284496459023
 20
92.44934471368826
 30
0.0
 10
148.6314084284489
 20
92.4112091384123
 30
0.0
 10
148.5400181114281
 20
92.37591889199234
 30
0.0
 10
148.3565731375908
 20
92.31838779427228
 30
0.0
 10
148.2639894793935
 20
92.29385136620702
 30
0.0
 10
148.1296794072546
 20
92.26592115566984
 30
0.0
 10
148.0854670972715
 20
92.25828348035478
 30
0.0
 10
147.9968695400337
 20
92.24557874739473
 30
0.0
 10
147.952416386891
 20
92.24040085441096
 30
0.0
 10
147.8213421440874
 20
92.2284061061098
 30
0.0
 10
147.7377148051434
 20
92.2265357566357
 30
0.0
 10
147.5723112153682
 20
92.23595162695727
 30
0.0
 10
147.4919035621193
 20
92.24596438378893
 30
0.0
 10
147.3378681099196
 20
92.28009466364381
 30
0.0
 10
147.2632184149108
 20
92.30372796552078
 30
0.0
 10
147.0491181255477
 20
92.39204532637443
 30
0.0
 10
146.9192612704522
 20
92.47493602763728
 30
0.0
 10
146.7503054784025
 20
92.63638221064579
 30
0.0
 10
146.6984100243212
 20
92.69625556580358
 30
0.0
 10
146.6023670440317
 20
92.8277332869313
 30
0.0
 10
146.5575410995714
 20
92.89862270086427
 30
0.0
 10
146.4784594076068
 20
93.04858213750123
 30
0.0
 10
146.4426085898744
 20
93.13034832903824
 30
0.0
 10
146.3789611334041
 20
93.29845358197706
 30
0.0
 10
146.3527051340707
 20
93.38623664743837
 30
0.0
 10
146.3070244067832
 20
93.57295088577874
 30
0.0
 10
146.288062889611
 20
93.66844579480998
 30
0.0
 10
146.2607128565676
 20
93.866853926972
 30
0.0
 10
146.2525575692459
 20
93.96987192270853
 30
0.0
 10
146.2437738771068
 20
94.18405810068717
 30
0.0
 10
146.2434260353787
 20
94.29162174717429
 30
0.0
 10
146.2538242098899
 20
94.5129509276304
 30
0.0
 10
146.2646602988996
 20
94.62609412402259
 30
0.0
 10
146.2764846754592
 20
94.74467144507412
 30
0.0
  0
SPLINE
  5
47D
330
1F
100
AcDbEntity
  8
0
  6
Continuous
 62
     7
370
    25
100
AcDbSpline
210
0.0
220
0.0
230
1.0
 70
     8
 71
     3
 72
    18
 73
    14
 74
     0
 42
0.00000001
 43
0.00000001
 40
0.0014274720424363
 40
0.0014274720424363
 40
0.0014274720424363
 40
0.0014274720424363
 40
0.125
 40
0.125
 40
0.25
 40
0.25
 40
0.5
 40
0.5
 40
0.75
 40
0.75
 40
0.875
 40
0.875
 40
0.9988004465915233
 40
0.9988004465915233
 40
0.9988004465915233
 40
0.9988004465915233
 10
146.2764846754582
 20
94.74467144506282
 30
0.0
 10
146.2911505625117
 20
94.85169568667767
 30
0.0
 10
146.3055707246618
 20
94.9562847571149
 30
0.0
 10
146.3417391187433
 20
95.16432833541138
 30
0.0
 10
146.3640869762101
 20
95.27025070064852
 30
0.0
 10
146.4425002735336
 20
95.59139246737396
 30
0.0
 10
146.5093724922798
 20
95.8087226491435
 30
0.0
 10
146.6710477572704
 20
96.23965691683256
 30
0.0
 10
146.7668503421268
 20
96.45305969961382
 30
0.0
 10
146.9293955721109
 20
96.7703497962055
 30
0.0
 10
146.9858268008878
 20
96.87423717872976
 30
0.0
 10
147.1039975489271
 20
97.07625258158825
 30
0.0
 10
147.167425470922
 20
97.17751142199732
 30
0.0
 10
147.2325540353482
 20
97.28132859052036
 30
0.0
  0
SPLINE
  5
47E
330
1F
100
AcDbEntity
  8
0
  6
Continuous
 62
     7
370
    25
100
AcDbSpline
210
0.0
220
0.0
230
1.0
 70
     8
 71
     3
 72
    26
 73
    22
 74
     0
 42
0.00000001
 43
0.00000001
 40
0.0009915430930103
 40
0.0009915430930103
 40
0.0009915430930103
 40
0.0009915430930103
 40
0.125
 40
0.125
 40
0.25
 40
0.25
 40
0.3749999999999999
 40
0.3749999999999999
 40
0.4374999999999999
 40
0.4374999999999999
 40
0.4999999999999999
 40
0.4999999999999999
 40
0.6249999999999999
 40
0.6249999999999999
 40
0.7499999999999999
 40
0.7499999999999999
 40
0.8124999999999999
 40
0.8124999999999999
 40
0.8749999999999999
 40
0.8749999999999999
 40
0.9993651396584982
 40
0.9993651396584982
 40
0.9993651396584982
 40
0.9993651396584982
 10
147.2325540353451
 20
97.281328590514
 30
0.0
 10
147.3139411873564
 20
97.40447419126744
 30
0.0
 10
147.3920872157386
 20
97.52104903083814
 30
0.0
 10
147.5575209281078
 20
97.74661618118932
 30
0.0
 10
147.644526716235
 20
97.85643586913964
 30
0.0
 10
147.8240762467383
 20
98.0694815808597
 30
0.0
 10
147.9153069625698
 20
98.17084968387863
 30
0.0
 10
148.0560323554774
 20
98.31489687213357
 30
0.0
 10
148.103954840519
 20
98.362053747313
 30
0.0
 10
148.2004950822628
 20
98.45420026968272
 30
0.0
 10
148.2484851375345
 20
98.49847369058634
 30
0.0
 10
148.3935363831353
 20
98.62570607862342
 30
0.0
 10
148.493331318793
 20
98.70506182262825
 30
0.0
 10
148.6945546508601
 20
98.85431066460787
 30
0.0
 10
148.7947891385495
 20
98.92258162577514
 30
0.0
 10
148.9467564031808
 20
99.01617808895632
 30
0.0
 10
148.9980657237658
 20
99.04629311144325
 30
0.0
 10
149.1003696701866
 20
99.10424937555665
 30
0.0
 10
149.1508574999662
 20
99.13165179314909
 30
0.0
 10
149.301375962806
 20
99.20800547500744
 30
0.0
 10
149.4019691747706
 20
99.25169528571432
 30
0.0
 10
149.5061948802284
 20
99.29623716002928
 30
0.0
  0
SPLINE
  5
47F
330
1F
100
AcDbEntity
  8
0
  6
Continuous
 62
     7
370
    25
100
AcDbSpline
210
0.0
220
0.0
230
1.0
 70
     8
 71
     3
 72
    18
 73
    14
 74
     0
 42
0.00000001
 43
0.00000001
 40
0.0011569404584316
 40
0.0011569404584316
 40
0.0011569404584316
 40
0.0011569404584316
 40
0.125
 40
0.125
 40
0.25
 40
0.25
 40
0.5
 40
0.5
 40
0.75
 40
0.75
 40
0.875
 40
0.875
 40
0.9984186554040912
 40
0.9984186554040912
 40
0.9984186554040912
 40
0.9984186554040912
 10
149.506194880228
 20
99.296237160029
 30
0.0
 10
149.5630429329254
 20
99.3187824984768
 30
0.0
 10
149.6187352346296
 20
99.3408332466493
 30
0.0
 10
149.7277715495863
 20
99.38035141289551
 30
0.0
 10
149.7823350851895
 20
99.39817490218152
 30
0.0
 10
149.9461691501424
 20
99.44704075506795
 30
0.0
 10
150.0535311630915
 20
99.47272535810164
 30
0.0
 10
150.2649595542324
 20
99.50908629230648
 30
0.0
 10
150.3674487586332
 20
99.51906231539007
 30
0.0
 10
150.5210122887953
 20
99.52442064872011
 30
0.0
 10
150.5711242217813
 20
99.5248713848959
 30
0.0
 10
150.6668534175217
 20
99.52022210563291
 30
0.0
 10
150.714629533351
 20
99.51501129687324
 30
0.0
 10
150.7639236091612
 20
99.50955457438113
 30
0.0
  0
SPLINE
  5
480
330
1F
100
AcDbEntity
  8
0
  6
Continuous
 62
     7
370
    25
100
AcDbSpline
210
0.0
220
0.0
230
1.0
 70
     8
 71
     3
 72
    20
 73
    16
 74
     0
 42
0.00000001
 43
0.00000001
 40
0.001678118041208
 40
0.001678118041208
 40
0.001678118041208
 40
0.001678118041208
 40
0.125
 40
0.125
 40
0.25
 40
0.25
 40
0.375
 40
0.375
 40
0.5
 40
0.5
 40
0.625
 40
0.625
 40
0.75
 40
0.75
 40
0.9065188009963867
 40
0.9065188009963867
 40
0.9065188009963867
 40
0.9065188009963867
 10
150.7639236091498
 20
99.50955457438276
 30
0.0
 10
150.8093074708495
 20
99.50193905904715
 30
0.0
 10
150.8528382115219
 20
99.49454514660297
 30
0.0
 10
150.9368300842665
 20
99.4749153548638
 30
0.0
 10
150.9776177566466
 20
99.46273595361754
 30
0.0
 10
151.0572781056675
 20
99.43296786450817
 30
0.0
 10
151.0969135028381
 20
99.41539193728893
 30
0.0
 10
151.1743648517514
 20
99.37779952027218
 30
0.0
 10
151.2115034707547
 20
99.35767022603814
 30
0.0
 10
151.2839819808847
 20
99.3127551097755
 30
0.0
 10
151.3198137240843
 20
99.28806224454934
 30
0.0
 10
151.3899448391899
 20
99.23672634433098
 30
0.0
 10
151.4239129166921
 20
99.21001337482568
 30
0.0
 10
151.4981322842311
 20
99.14616284243668
 30
0.0
 10
151.5376667104178
 20
99.10792952061922
 30
0.0
 10
151.5769628486121
 20
99.06794016328185
 30
0.0
  0
LWPOLYLINE
  5
481
330
1F
100
AcDbEntity
  8
0
  6
Continuous
 62
     7
370
    25
100
AcDbPolyline
 90
        3
 70
   128
 43
0.0
 10
149.5061948802
 20
99.29623716
 10
148.8078546315
 20
99.7802253278
 10
148.1095151145
 20
100.2642137821
  0
LWPOLYLINE
  5
482
330
1F
100
AcDbEntity
  8
0
  6
Continuous
 62
     7
370
    25
100
AcDbPolyline
 90
        4
 70
   128
 43
0.0
 10
147.2325540353
 20
97.2813285905
 10
146.7843273793
 20
97.5451699396
 10
146.3361001667
 20
97.8090103941
 10
145.7384726347
 20
98.1607904112
  0
LWPOLYLINE
  5
483
330
1F
100
AcDbEntity
  8
0
  6
Continuous
 62
     7
370
    25
100
AcDbPolyline
 90
        4
 70
   128
 43
0.0
 10
146.2764846755
 20
94.7446714451
 10
145.8154790367
 20
94.9746233503
 10
145.3544734653
 20
95.2045756952
 10
144.7398218874
 20
95.5111684327
  0
LWPOLYLINE
  5
484
330
1F
100
AcDbEntity
  8
0
  6
Continuous
 62
     7
370
    25
100
AcDbPolyline
 90
        3
 70
   128
 43
0.0
 10
150.7639236092
 20
99.5095545744
 10
150.0894292915
 20
99.9973042008
 10
149.4149349019
 20
100.4850538163
  0
LINE
  5
485
330
1F
100
AcDbEntity
  8
0
  6
Continuous
 62
     7
370
    25
100
AcDbLine
 10
148.8802738146
 20
93.4046559535
 30
0.0
 11
147.483904695
 21
94.3727840212
 31
0.0
  0
SPLINE
  5
486
330
1F
100
AcDbEntity
  8
0
  6
Continuous
 62
     7
370
    25
100
AcDbSpline
210
0.0
220
0.0
230
1.0
 70
     8
 71
     3
 72
     9
 73
     5
 74
     0
 42
0.00000001
 43
0.00000001
 40
0.0
 40
0.0
 40
0.0
 40
0.0
 40
0.925799650027816
 40
1.0
 40
1.0
 40
1.0
 40
1.0
 10
150.9309954336249
 20
98.14504759742401
 30
0.0
 10
150.6910987163662
 20
98.24555987082812
 30
0.0
 10
150.43197492295
 20
98.35412793239642
 30
0.0
 10
150.1726834396792
 20
98.46241869233569
 30
0.0
 10
150.1534439208757
 20
98.47045390462195
 30
0.0
  0
LINE
  5
487
330
1F
100
AcDbEntity
  8
0
  6
Continuous
 62
     7
370
    25
100
AcDbLine
 10
151.7335426883
 20
96.8447387164
 30
0.0
 11
150.4554165641
 21
97.8611619168
 31
0.0
  0
LINE
  5
488
330
1F
100
AcDbEntity
  8
0
  6
Continuous
 62
     7
370
    25
100
AcDbLine
 10
149.2053113589
 20
95.8113347153
 30
0.0
 11
147.6864586753
 21
96.7293619395
 31
0.0
  0
LINE
  5
489
330
1F
100
AcDbEntity
  8
0
  6
Continuous
 62
     7
370
    25
100
AcDbLine
 10
149.0978535576
 20
94.8953146933
 30
0.0
 11
147.5434175178
 21
95.5100129242
 31
0.0
  0
LINE
  5
48A
330
1F
100
AcDbEntity
  8
0
  6
Continuous
 62
     7
370
    25
100
AcDbLine
 10
157.331611931
 20
102.2033666884
 30
0.0
 11
156.0605677275
 21
103.2185606482
 31
0.0
  0
LINE
  5
48B
330
1F
100
AcDbEntity
  8
0
  6
Continuous
 62
     7
370
    25
100
AcDbLine
 10
154.5733849465
 20
101.168000152
 30
0.0
 11
157.331611931
 21
102.2033666884
 31
0.0
  0
LINE
  5
48C
330
1F
100
AcDbEntity
  8
0
  6
Continuous
 62
     7
370
    25
100
AcDbLine
 10
154.5733849465
 20
101.168000152
 30
0.0
 11
153.0585662871
 21
102.0916875333
 31
0.0
  0
LINE
  5
48D
330
1F
100
AcDbEntity
  8
0
  6
Continuous
 62
     7
370
    25
100
AcDbLine
 10
157.331611931
 20
102.2033666884
 30
0.0
 11
157.1951720773
 21
101.2226530594
 31
0.0
  0
LINE
  5
48E
330
1F
100
AcDbEntity
  8
0
  6
Continuous
 62
     7
370
    25
100
AcDbLine
 10
157.1951720773
 20
101.2226530594
 30
0.0
 11
155.2323887049
 21
100.4853691186
 31
0.0
  0
LINE
  5
48F
330
1F
100
AcDbEntity
  8
0
  6
Continuous
 62
     7
370
    25
100
AcDbLine
 10
155.2323887049
 20
100.4853691186
 30
0.0
 11
155.0164989784
 21
98.9308783804
 31
0.0
  0
LINE
  5
490
330
1F
100
AcDbEntity
  8
0
  6
Continuous
 62
     7
370
    25
100
AcDbLine
 10
155.0164989784
 20
98.9308783804
 30
0.0
 11
156.9792481029
 21
99.6681494566
 31
0.0
  0
LINE
  5
491
330
1F
100
AcDbEntity
  8
0
  6
Continuous
 62
     7
370
    25
100
AcDbLine
 10
156.9792481029
 20
99.6681494566
 30
0.0
 11
156.8464259929
 21
98.7115740388
 31
0.0
  0
LINE
  5
492
330
1F
100
AcDbEntity
  8
0
  6
Continuous
 62
     7
370
    25
100
AcDbLine
 10
156.8464259929
 20
98.7115740388
 30
0.0
 11
154.8837545029
 21
97.9743321246
 31
0.0
  0
LINE
  5
493
330
1F
100
AcDbEntity
  8
0
  6
Continuous
 62
     7
370
    25
100
AcDbLine
 10
154.8837545029
 20
97.9743321246
 30
0.0
 11
154.5880290104
 21
95.8514361532
 31
0.0
  0
LINE
  5
494
330
1F
100
AcDbEntity
  8
0
  6
Continuous
 62
     7
370
    25
100
AcDbLine
 10
154.5880290104
 20
95.8514361532
 30
0.0
 11
156.5508554525
 21
96.5887362724
 31
0.0
  0
LINE
  5
495
330
1F
100
AcDbEntity
  8
0
  6
Continuous
 62
     7
370
    25
100
AcDbLine
 10
156.5508554525
 20
96.5887362724
 30
0.0
 11
156.4141595713
 21
95.6038556786
 31
0.0
  0
LINE
  5
496
330
1F
100
AcDbEntity
  8
0
  6
Continuous
 62
     7
370
    25
100
AcDbLine
 10
156.4141595713
 20
95.6038556786
 30
0.0
 11
153.655950974
 21
94.5684960443
 31
0.0
  0
LINE
  5
497
330
1F
100
AcDbEntity
  8
0
  6
Continuous
 62
     7
370
    25
100
AcDbLine
 10
153.655950974
 20
94.5684960443
 30
0.0
 11
154.5733849465
 21
101.168000152
 31
0.0
  0
LINE
  5
498
330
1F
100
AcDbEntity
  8
0
  6
Continuous
 62
     7
370
    25
100
AcDbLine
 10
153.655950974
 20
94.5684960443
 30
0.0
 11
152.098585396
 21
95.1861248183
 31
0.0
  0
LINE
  5
499
330
1F
100
AcDbEntity
  8
0
  6
Continuous
 62
     7
370
    25
100
AcDbLine
 10
156.9792481029
 20
99.6681494566
 30
0.0
 11
155.7245778171
 21
100.6702510232
 31
0.0
  0
LINE
  5
49A
330
1F
100
AcDbEntity
  8
0
  6
Continuous
 62
     7
370
    25
100
AcDbLine
 10
156.5508554525
 20
96.5887362724
 30
0.0
 11
155.2797628081
 21
97.6039434674
 31
0.0
  0
ARC
  5
49B
330
1F
100
AcDbEntity
  8
0
  6
Continuous
 62
     7
370
    25
100
AcDbCircle
 10
170.5757182031
 20
107.1946868533
 30
0.0
 40
4.02549233278972
100
AcDbArc
 50
310.8132101299
 51
349.1921664028
  0
ARC
  5
49C
330
1F
100
AcDbEntity
  8
0
  6
Continuous
 62
     7
370
    25
100
AcDbCircle
 10
177.3361965053
 20
114.1170514203
 30
0.0
 40
0.7537989019414596
100
AcDbArc
 50
60.7689536073
 51
100.5230808001
  0
LINE
  5
49D
330
1F
100
AcDbEntity
  8
0
  6
PHANTOM
 62
     8
370
    18
100
AcDbLine
 10
180.7340629108
 20
112.8171522132
 30
0.0
 11
177.1985290049
 21
114.8581724927
 31
0.0
  0
LINE
  5
49E
330
1F
100
AcDbEntity
  8
0
  6
PHANTOM
 62
     8
370
    18
100
AcDbLine
 10
74.7512554356
 20
51.1005709255
 30
0.0
 11
71.2157215296
 21
53.1415912051
 31
0.0
  0
LINE
  5
49F
330
1F
100
AcDbEntity
  8
0
  6
PHANTOM
 62
     8
370
    18
100
AcDbLine
 10
73.941137437
 20
48.5092654971
 30
0.0
 11
70.405603531
 21
50.5502857767
 31
0.0
  0
LINE
  5
4A0
330
1F
100
AcDbEntity
  8
0
  6
PHANTOM
 62
     8
370
    18
100
AcDbLine
 10
77.828661812
 20
39.3570644353
 30
0.0
 11
74.293127906
 21
41.3980847149
 31
0.0
  0
LINE
  5
4A1
330
1F
100
AcDbEntity
  8
0
  6
PHANTOM
 62
     8
370
    18
100
AcDbLine
 10
73.2712054814
 20
47.5734492485
 30
0.0
 11
74.6854190437
 21
46.7570411367
 31
0.0
  0
LINE
  5
4A2
330
1F
100
AcDbEntity
  8
0
  6
PHANTOM
 62
     8
370
    18
100
AcDbLine
 10
77.1165131522
 20
41.0336398317
 30
0.0
 11
75.7022995898
 21
41.8500479435
 31
0.0
  0
LINE
  5
4A3
330
1F
100
AcDbEntity
  8
0
  6
PHANTOM
 62
     8
370
    18
100
AcDbLine
 10
84.3993002407
 20
48.534285941
 30
0.0
 11
85.8135138031
 21
47.7178778292
 31
0.0
  0
LINE
  5
4A4
330
1F
100
AcDbEntity
  8
0
  6
PHANTOM
 62
     8
370
    18
100
AcDbLine
 10
168.3182468344
 20
97.4024996862
 30
0.0
 11
169.7324603968
 21
96.5860915744
 31
0.0
  0
LINE
  5
4A5
330
1F
100
AcDbEntity
  8
0
  6
PHANTOM
 62
     8
370
    18
100
AcDbLine
 10
83.175800295
 20
47.9110420657
 30
0.0
 11
81.7615867326
 21
48.7274501775
 31
0.0
  0
LINE
  5
4A6
330
1F
100
AcDbEntity
  8
0
  6
PHANTOM
 62
     8
370
    18
100
AcDbLine
 10
76.165484454
 20
42.6447708995
 30
0.0
 11
77.5796980164
 21
41.8283627877
 31
0.0
  0
LWPOLYLINE
  5
4A7
330
1F
100
AcDbEntity
  8
0
  6
PHANTOM
 62
     8
370
    18
100
AcDbPolyline
 90
        3
 70
   128
 43
0.0
 10
110.6889728219
 20
77.3165061525
 10
110.1170749639
 20
77.6963946863
 10
109.2596125389
 20
78.2659720074
  0
LINE
  5
4A8
330
1F
100
AcDbEntity
  8
0
  6
PHANTOM
 62
     8
370
    18
100
AcDbLine
 10
111.7077171973
 20
72.7472242897
 30
0.0
 11
111.2533873581
 21
73.0487630956
 31
0.0
  0
LINE
  5
4A9
330
1F
100
AcDbEntity
  8
0
  6
PHANTOM
 62
     8
370
    18
100
AcDbLine
 10
172.2718040198
 20
108.5045169732
 30
0.0
 11
173.6860175821
 21
107.6881088614
 31
0.0
  0
LINE
  5
4AA
330
1F
100
AcDbEntity
  8
0
  6
PHANTOM
 62
     8
370
    18
100
AcDbLine
 10
172.0424548728
 20
107.5570107265
 30
0.0
 11
173.4566684352
 21
106.7406026147
 31
0.0
  0
LINE
  5
4AB
330
1F
100
AcDbEntity
  8
0
  6
PHANTOM
 62
     8
370
    18
100
AcDbLine
 10
178.7682105323
 20
108.9829723081
 30
0.0
 11
180.1824240947
 21
108.1665641962
 31
0.0
  0
LINE
  5
4AC
330
1F
100
AcDbEntity
  8
0
  6
PHANTOM
 62
     8
370
    18
100
AcDbLine
 10
170.0866172517
 20
99.4768918849
 30
0.0
 11
171.500830814
 21
98.660483773
 31
0.0
  0
LINE
  5
4AD
330
1F
100
AcDbEntity
  8
0
  6
PHANTOM
 62
     8
370
    18
100
AcDbLine
 10
171.6961599947
 20
99.4674439089
 30
0.0
 11
170.2819464323
 21
100.2838520208
 31
0.0
  0
LINE
  5
4AE
330
1F
100
AcDbEntity
  8
0
  6
PHANTOM
 62
     8
370
    18
100
AcDbLine
 10
177.9881372783
 20
100.2988425881
 30
0.0
 11
176.573923716
 21
101.1152506999
 31
0.0
  0
ENDSEC
  0
SECTION
  2
OBJECTS
  0
DICTIONARY
  5
C
330
0
100
AcDbDictionary
281
     1
  3
ACAD_GROUP
350
D
  3
ACAD_LAYOUT
350
1A
  3
ACAD_MLINESTYLE
350
17
  3
ACAD_PLOTSETTINGS
350
19
  3
ACAD_PLOTSTYLENAME
350
E
  3
ACAD_SCALELIST
350
47
  3
DWGPROPS
350
4AF
  0
DICTIONARY
  5
D
102
{ACAD_REACTORS
330
C
102
}
330
C
100
AcDbDictionary
281
     1
  0
DICTIONARY
  5
1A
102
{ACAD_REACTORS
330
C
102
}
330
C
100
AcDbDictionary
281
     1
  3
Layout1
350
1E
  3
Layout2
350
26
  3
Model
350
22
  0
DICTIONARY
  5
17
102
{ACAD_REACTORS
330
C
102
}
330
C
100
AcDbDictionary
281
     1
  3
Standard
350
18
  0
DICTIONARY
  5
19
102
{ACAD_REACTORS
330
C
102
}
330
C
100
AcDbDictionary
281
     1
  0
ACDBDICTIONARYWDFLT
  5
E
102
{ACAD_REACTORS
330
C
102
}
330
C
100
AcDbDictionary
281
     1
  3
Normal
350
F
100
AcDbDictionaryWithDefault
340
F
  0
DICTIONARY
  5
47
102
{ACAD_REACTORS
330
C
102
}
330
C
100
AcDbDictionary
281
     1
  3
A0
350
48
  3
A1
350
49
  3
A2
350
4A
  3
A3
350
4B
  3
A4
350
4C
  3
A5
350
4D
  3
A6
350
4E
  3
A7
350
4F
  3
A8
350
50
  3
A9
350
51
  3
B0
350
52
  3
B1
350
53
  3
B2
350
54
  3
B3
350
55
  3
B4
350
56
  3
B5
350
57
  3
B6
350
58
  3
B7
350
59
  3
B8
350
5A
  3
B9
350
5B
  3
C0
350
5C
  3
C1
350
5D
  3
C2
350
5E
  3
C3
350
5F
  3
C4
350
60
  3
C5
350
61
  3
C6
350
62
  3
C7
350
63
  3
C8
350
64
  3
C9
350
65
  3
D0
350
66
  3
D1
350
67
  3
D2
350
68
  0
XRECORD
  5
4AF
102
{ACAD_REACTORS
330
C
102
}
330
C
100
AcDbXrecord
280
     1
  1
DWGPROPS COOKIE
  2

  3

  4

  6

  7

  8
CH-NTL-RS-WSCAD
  9

300
=
301
=
302
=
303
=
304
=
305
=
306
=
307
=
308
=
309
=
 40
0.0
 41
2460554.30895868
 42
2460554.308962975
  1

 90
        0
  0
LAYOUT
  5
1E
102
{ACAD_REACTORS
330
1A
102
}
330
1A
100
AcDbPlotSettings
  1

  2
none_device
  4

  6

 40
0.0
 41
0.0
 42
0.0
 43
0.0
 44
0.0
 45
0.0
 46
0.0
 47
0.0
 48
0.0
 49
0.0
140
0.0
141
0.0
142
1.0
143
1.0
 70
   688
 72
     1
 73
     0
 74
     5
  7

 75
    16
147
1.0
148
0.0
149
0.0
100
AcDbLayout
  1
Layout1
 70
     1
 71
     1
 10
0.0
 20
0.0
 11
420.0
 21
297.0
 12
0.0
 22
0.0
 32
0.0
 14
1.0000000000E+20
 24
1.0000000000E+20
 34
1.0000000000E+20
 15
-1.0000000000E+20
 25
-1.0000000000E+20
 35
-1.0000000000E+20
146
0.0
 13
0.0
 23
0.0
 33
0.0
 16
1.0
 26
0.0
 36
0.0
 17
0.0
 27
1.0
 37
0.0
 76
     0
330
1B
  0
LAYOUT
  5
26
102
{ACAD_REACTORS
330
1A
102
}
330
1A
100
AcDbPlotSettings
  1

  2
none_device
  4

  6

 40
0.0
 41
0.0
 42
0.0
 43
0.0
 44
0.0
 45
0.0
 46
0.0
 47
0.0
 48
0.0
 49
0.0
140
0.0
141
0.0
142
1.0
143
1.0
 70
   688
 72
     1
 73
     0
 74
     5
  7

 75
    16
147
1.0
148
0.0
149
0.0
100
AcDbLayout
  1
Layout2
 70
     1
 71
     2
 10
0.0
 20
0.0
 11
0.0
 21
0.0
 12
0.0
 22
0.0
 32
0.0
 14
0.0
 24
0.0
 34
0.0
 15
0.0
 25
0.0
 35
0.0
146
0.0
 13
0.0
 23
0.0
 33
0.0
 16
1.0
 26
0.0
 36
0.0
 17
0.0
 27
1.0
 37
0.0
 76
     0
330
23
  0
LAYOUT
  5
22
102
{ACAD_REACTORS
330
1A
102
}
330
1A
100
AcDbPlotSettings
  1

  2
none_device
  4
Letter_(8.50_x_11.00_Inches)
  6

 40
6.35
 41
6.35
 42
6.35000508
 43
6.35000508
 44
215.9
 45
279.4
 46
0.0
 47
0.0
 48
0.0
 49
0.0
140
0.0
141
0.0
142
1.0
143
1.0
 70
  1712
 72
     1
 73
     0
 74
     0
  7

 75
     0
147
1.0
148
0.0
149
0.0
100
AcDbLayout
  1
Model
 70
     1
 71
     0
 10
0.0
 20
0.0
 11
420.0
 21
297.0
 12
0.0
 22
0.0
 32
0.0
 14
0.0
 24
0.0
 34
0.0
 15
420.0
 25
297.0
 35
0.0
146
0.0
 13
0.0
 23
0.0
 33
0.0
 16
1.0
 26
0.0
 36
0.0
 17
0.0
 27
1.0
 37
0.0
 76
     0
330
1F
331
29
  0
MLINESTYLE
  5
18
102
{ACAD_REACTORS
330
17
102
}
330
17
100
AcDbMlineStyle
  2
Standard
 70
     0
  3

 62
   256
 51
90.0
 52
90.0
 71
     2
 49
0.5
 62
   256
  6
BYLAYER
 49
-0.5
 62
   256
  6
BYLAYER
  0
ACDBPLACEHOLDER
  5
F
102
{ACAD_REACTORS
330
E
102
}
330
E
  0
SCALE
  5
48
102
{ACAD_REACTORS
330
47
102
}
330
47
100
AcDbScale
 70
     0
300
1:1
140
1.0
141
1.0
290
     1
  0
SCALE
  5
49
102
{ACAD_REACTORS
330
47
102
}
330
47
100
AcDbScale
 70
     0
300
1:2
140
1.0
141
2.0
290
     0
  0
SCALE
  5
4A
102
{ACAD_REACTORS
330
47
102
}
330
47
100
AcDbScale
 70
     0
300
1:4
140
1.0
141
4.0
290
     0
  0
SCALE
  5
4B
102
{ACAD_REACTORS
330
47
102
}
330
47
100
AcDbScale
 70
     0
300
1:5
140
1.0
141
5.0
290
     0
  0
SCALE
  5
4C
102
{ACAD_REACTORS
330
47
102
}
330
47
100
AcDbScale
 70
     0
300
1:8
140
1.0
141
8.0
290
     0
  0
SCALE
  5
4D
102
{ACAD_REACTORS
330
47
102
}
330
47
100
AcDbScale
 70
     0
300
1:10
140
1.0
141
10.0
290
     0
  0
SCALE
  5
4E
102
{ACAD_REACTORS
330
47
102
}
330
47
100
AcDbScale
 70
     0
300
1:16
140
1.0
141
16.0
290
     0
  0
SCALE
  5
4F
102
{ACAD_REACTORS
330
47
102
}
330
47
100
AcDbScale
 70
     0
300
1:20
140
1.0
141
20.0
290
     0
  0
SCALE
  5
50
102
{ACAD_REACTORS
330
47
102
}
330
47
100
AcDbScale
 70
     0
300
1:30
140
1.0
141
30.0
290
     0
  0
SCALE
  5
51
102
{ACAD_REACTORS
330
47
102
}
330
47
100
AcDbScale
 70
     0
300
1:40
140
1.0
141
40.0
290
     0
  0
SCALE
  5
52
102
{ACAD_REACTORS
330
47
102
}
330
47
100
AcDbScale
 70
     0
300
1:50
140
1.0
141
50.0
290
     0
  0
SCALE
  5
53
102
{ACAD_REACTORS
330
47
102
}
330
47
100
AcDbScale
 70
     0
300
1:100
140
1.0
141
100.0
290
     0
  0
SCALE
  5
54
102
{ACAD_REACTORS
330
47
102
}
330
47
100
AcDbScale
 70
     0
300
2:1
140
2.0
141
1.0
290
     0
  0
SCALE
  5
55
102
{ACAD_REACTORS
330
47
102
}
330
47
100
AcDbScale
 70
     0
300
4:1
140
4.0
141
1.0
290
     0
  0
SCALE
  5
56
102
{ACAD_REACTORS
330
47
102
}
330
47
100
AcDbScale
 70
     0
300
8:1
140
8.0
141
1.0
290
     0
  0
SCALE
  5
57
102
{ACAD_REACTORS
330
47
102
}
330
47
100
AcDbScale
 70
     0
300
10:1
140
10.0
141
1.0
290
     0
  0
SCALE
  5
58
102
{ACAD_REACTORS
330
47
102
}
330
47
100
AcDbScale
 70
     0
300
100:1
140
100.0
141
1.0
290
     0
  0
SCALE
  5
59
102
{ACAD_REACTORS
330
47
102
}
330
47
100
AcDbScale
 70
     0
300
1/128" = 1'-0"
140
0.0078125
141
12.0
290
     0
  0
SCALE
  5
5A
102
{ACAD_REACTORS
330
47
102
}
330
47
100
AcDbScale
 70
     0
300
1/64" = 1'-0"
140
0.015625
141
12.0
290
     0
  0
SCALE
  5
5B
102
{ACAD_REACTORS
330
47
102
}
330
47
100
AcDbScale
 70
     0
300
1/32" = 1'-0"
140
0.03125
141
12.0
290
     0
  0
SCALE
  5
5C
102
{ACAD_REACTORS
330
47
102
}
330
47
100
AcDbScale
 70
     0
300
1/16" = 1'-0"
140
0.0625
141
12.0
290
     0
  0
SCALE
  5
5D
102
{ACAD_REACTORS
330
47
102
}
330
47
100
AcDbScale
 70
     0
300
3/32" = 1'-0"
140
0.09375
141
12.0
290
     0
  0
SCALE
  5
5E
102
{ACAD_REACTORS
330
47
102
}
330
47
100
AcDbScale
 70
     0
300
1/8" = 1'-0"
140
0.125
141
12.0
290
     0
  0
SCALE
  5
5F
102
{ACAD_REACTORS
330
47
102
}
330
47
100
AcDbScale
 70
     0
300
3/16" = 1'-0"
140
0.1875
141
12.0
290
     0
  0
SCALE
  5
60
102
{ACAD_REACTORS
330
47
102
}
330
47
100
AcDbScale
 70
     0
300
1/4" = 1'-0"
140
0.25
141
12.0
290
     0
  0
SCALE
  5
61
102
{ACAD_REACTORS
330
47
102
}
330
47
100
AcDbScale
 70
     0
300
3/8" = 1'-0"
140
0.375
141
12.0
290
     0
  0
SCALE
  5
62
102
{ACAD_REACTORS
330
47
102
}
330
47
100
AcDbScale
 70
     0
300
1/2" = 1'-0"
140
0.5
141
12.0
290
     0
  0
SCALE
  5
63
102
{ACAD_REACTORS
330
47
102
}
330
47
100
AcDbScale
 70
     0
300
3/4" = 1'-0"
140
0.75
141
12.0
290
     0
  0
SCALE
  5
64
102
{ACAD_REACTORS
330
47
102
}
330
47
100
AcDbScale
 70
     0
300
1" = 1'-0"
140
1.0
141
12.0
290
     0
  0
SCALE
  5
65
102
{ACAD_REACTORS
330
47
102
}
330
47
100
AcDbScale
 70
     0
300
1-1/2" = 1'-0"
140
1.5
141
12.0
290
     0
  0
SCALE
  5
66
102
{ACAD_REACTORS
330
47
102
}
330
47
100
AcDbScale
 70
     0
300
3" = 1'-0"
140
3.0
141
12.0
290
     0
  0
SCALE
  5
67
102
{ACAD_REACTORS
330
47
102
}
330
47
100
AcDbScale
 70
     0
300
6" = 1'-0"
140
6.0
141
12.0
290
     0
  0
SCALE
  5
68
102
{ACAD_REACTORS
330
47
102
}
330
47
100
AcDbScale
 70
     0
300
1'-0" = 1'-0"
140
12.0
141
12.0
290
     0
  0
ENDSEC
  0
EOF
