  0
SECTION
  2
HEADER
  9
$ACADVER
  1
AC1015
  9
$ACADMAINTVER
 70
     6
  9
$DWGCODEPAGE
  3
ANSI_1252
  9
$INSBASE
 10
0.0
 20
0.0
 30
0.0
  9
$EXTMIN
 10
0.0
 20
0.0
 30
0.0
  9
$EXTMAX
 10
420.0
 20
297.0
 30
0.0
  9
$LIMMIN
 10
0.0
 20
0.0
  9
$LIMMAX
 10
420.0
 20
297.0
  9
$ORTHOMODE
 70
     0
  9
$REGENMODE
 70
     1
  9
$FILLMODE
 70
     1
  9
$QTEXTMODE
 70
     0
  9
$MIRRTEXT
 70
     1
  9
$LTSCALE
 40
1.0
  9
$ATTMODE
 70
     1
  9
$TEXTSIZE
 40
3.5
  9
$TRACEWID
 40
1.0
  9
$TEXTSTYLE
  7
Standard
  9
$CLAYER
  8
0
  9
$CELTYPE
  6
ByLayer
  9
$CECOLOR
 62
   256
  9
$CELTSCALE
 40
1.0
  9
$DISPSILH
 70
     0
  9
$DIMSCALE
 40
1.0
  9
$DIMASZ
 40
3.5
  9
$DIMEXO
 40
0.1
  9
$DIMDLI
 40
3.75
  9
$DIMRND
 40
0.0
  9
$DIMDLE
 40
0.0
  9
$DIMEXE
 40
1.0
  9
$DIMTP
 40
0.0
  9
$DIMTM
 40
0.0
  9
$DIMTXT
 40
3.5
  9
$DIMCEN
 40
2.5
  9
$DIMTSZ
 40
0.0
  9
$DIMTOL
 70
     0
  9
$DIMLIM
 70
     0
  9
$DIMTIH
 70
     1
  9
$DIMTOH
 70
     1
  9
$DIMSE1
 70
     0
  9
$DIMSE2
 70
     0
  9
$DIMTAD
 70
     1
  9
$DIMZIN
 70
     0
  9
$DIMBLK
  1

  9
$DIMASO
 70
     1
  9
$DIMSHO
 70
     1
  9
$DIMPOST
  1

  9
$DIMAPOST
  1

  9
$DIMALT
 70
     0
  9
$DIMALTD
 70
     3
  9
$DIMALTF
 40
0.0393700787
  9
$DIMLFAC
 40
1.0
  9
$DIMTOFL
 70
     1
  9
$DIMTVP
 40
0.0
  9
$DIMTIX
 70
     0
  9
$DIMSOXD
 70
     0
  9
$DIMSAH
 70
     0
  9
$DIMBLK1
  1

  9
$DIMBLK2
  1

  9
$DIMSTYLE
  2
ISO-25
  9
$DIMCLRD
 70
     0
  9
$DIMCLRE
 70
     0
  9
$DIMCLRT
 70
     0
  9
$DIMTFAC
 40
1.0
  9
$DIMGAP
 40
2.0
  9
$DIMJUST
 70
     0
  9
$DIMSD1
 70
     0
  9
$DIMSD2
 70
     0
  9
$DIMTOLJ
 70
     0
  9
$DIMTZIN
 70
     0
  9
$DIMALTZ
 70
     0
  9
$DIMALTTZ
 70
     0
  9
$DIMUPT
 70
     0
  9
$DIMDEC
 70
     2
  9
$DIMTDEC
 70
     3
  9
$DIMALTU
 70
     2
  9
$DIMALTTD
 70
     3
  9
$DIMTXSTY
  7
Standard
  9
$DIMAUNIT
 70
     0
  9
$DIMADEC
 70
     2
  9
$DIMALTRND
 40
0.0
  9
$DIMAZIN
 70
     0
  9
$DIMDSEP
 70
    44
  9
$DIMATFIT
 70
     3
  9
$DIMFRAC
 70
     0
  9
$DIMLDRBLK
  1

  9
$DIMLUNIT
 70
     2
  9
$DIMLWD
 70
    -2
  9
$DIMLWE
 70
    -2
  9
$DIMTMOVE
 70
     0
  9
$LUNITS
 70
     2
  9
$LUPREC
 70
     2
  9
$SKETCHINC
 40
1.0
  9
$FILLETRAD
 40
10.0
  9
$AUNITS
 70
     0
  9
$AUPREC
 70
     2
  9
$MENU
  1
.
  9
$ELEVATION
 40
0.0
  9
$PELEVATION
 40
0.0
  9
$THICKNESS
 40
0.0
  9
$LIMCHECK
 70
     0
  9
$CHAMFERA
 40
0.0
  9
$CHAMFERB
 40
0.0
  9
$CHAMFERC
 40
0.0
  9
$CHAMFERD
 40
0.0
  9
$SKPOLY
 70
     0
  9
$TDCREATE
 40
2460569.729664329
  9
$TDUCREATE
 40
2460569.646330995
  9
$TDUPDATE
 40
2460569.729667951
  9
$TDUUPDATE
 40
2460569.646334618
  9
$TDINDWG
 40
0.0000000116
  9
$TDUSRTIMER
 40
0.0000000116
  9
$USRTIMER
 70
     1
  9
$ANGBASE
 50
0.0
  9
$ANGDIR
 70
     0
  9
$PDMODE
 70
     0
  9
$PDSIZE
 40
-1.0
  9
$PLINEWID
 40
0.0
  9
$SPLFRAME
 70
     0
  9
$SPLINETYPE
 70
     6
  9
$SPLINESEGS
 70
     8
  9
$HANDSEED
  5
361
  9
$SURFTAB1
 70
     6
  9
$SURFTAB2
 70
     6
  9
$SURFTYPE
 70
     6
  9
$SURFU
 70
     6
  9
$SURFV
 70
     6
  9
$UCSBASE
  2

  9
$UCSNAME
  2

  9
$UCSORG
 10
0.0
 20
0.0
 30
0.0
  9
$UCSXDIR
 10
1.0
 20
0.0
 30
0.0
  9
$UCSYDIR
 10
0.0
 20
1.0
 30
0.0
  9
$UCSORTHOREF
  2

  9
$UCSORTHOVIEW
 70
     0
  9
$UCSORGTOP
 10
0.0
 20
0.0
 30
0.0
  9
$UCSORGBOTTOM
 10
0.0
 20
0.0
 30
0.0
  9
$UCSORGLEFT
 10
0.0
 20
0.0
 30
0.0
  9
$UCSORGRIGHT
 10
0.0
 20
0.0
 30
0.0
  9
$UCSORGFRONT
 10
0.0
 20
0.0
 30
0.0
  9
$UCSORGBACK
 10
0.0
 20
0.0
 30
0.0
  9
$PUCSBASE
  2

  9
$PUCSNAME
  2

  9
$PUCSORG
 10
0.0
 20
0.0
 30
0.0
  9
$PUCSXDIR
 10
1.0
 20
0.0
 30
0.0
  9
$PUCSYDIR
 10
0.0
 20
1.0
 30
0.0
  9
$PUCSORTHOREF
  2

  9
$PUCSORTHOVIEW
 70
     0
  9
$PUCSORGTOP
 10
0.0
 20
0.0
 30
0.0
  9
$PUCSORGBOTTOM
 10
0.0
 20
0.0
 30
0.0
  9
$PUCSORGLEFT
 10
0.0
 20
0.0
 30
0.0
  9
$PUCSORGRIGHT
 10
0.0
 20
0.0
 30
0.0
  9
$PUCSORGFRONT
 10
0.0
 20
0.0
 30
0.0
  9
$PUCSORGBACK
 10
0.0
 20
0.0
 30
0.0
  9
$USERI1
 70
     0
  9
$USERI2
 70
     0
  9
$USERI3
 70
     0
  9
$USERI4
 70
     0
  9
$USERI5
 70
     0
  9
$USERR1
 40
0.0
  9
$USERR2
 40
0.0
  9
$USERR3
 40
0.0
  9
$USERR4
 40
0.0
  9
$USERR5
 40
0.0
  9
$WORLDVIEW
 70
     1
  9
$SHADEDGE
 70
     3
  9
$SHADEDIF
 70
    70
  9
$TILEMODE
 70
     1
  9
$MAXACTVP
 70
    64
  9
$PINSBASE
 10
0.0
 20
0.0
 30
0.0
  9
$PLIMCHECK
 70
     0
  9
$PEXTMIN
 10
1.0000000000E+20
 20
1.0000000000E+20
 30
1.0000000000E+20
  9
$PEXTMAX
 10
-1.0000000000E+20
 20
-1.0000000000E+20
 30
-1.0000000000E+20
  9
$PLIMMIN
 10
0.0
 20
0.0
  9
$PLIMMAX
 10
420.0
 20
297.0
  9
$UNITMODE
 70
     0
  9
$VISRETAIN
 70
     1
  9
$PLINEGEN
 70
     0
  9
$PSLTSCALE
 70
     1
  9
$TREEDEPTH
 70
  3020
  9
$CMLSTYLE
  2
Standard
  9
$CMLJUST
 70
     0
  9
$CMLSCALE
 40
20.0
  9
$PROXYGRAPHICS
 70
     1
  9
$MEASUREMENT
 70
     1
  9
$CELWEIGHT
370
    -1
  9
$ENDCAPS
280
     0
  9
$JOINSTYLE
280
     0
  9
$LWDISPLAY
290
     1
  9
$INSUNITS
 70
     4
  9
$HYPERLINKBASE
  1

  9
$STYLESHEET
  1

  9
$XEDIT
290
     1
  9
$CEPSNTYPE
380
     0
  9
$PSTYLEMODE
290
     1
  9
$FINGERPRINTGUID
  2
{73eabd50-f906-467e-bfde-4eee935fe0f4}
  9
$VERSIONGUID
  2
{FAEB1C32-E019-11D5-929B-00C0DF256EC4}
  9
$EXTNAMES
290
     1
  9
$PSVPSCALE
 40
0.0
  9
$OLESTARTUP
290
     0
  0
ENDSEC
  0
SECTION
  2
CLASSES
  0
CLASS
  1
ACDBDICTIONARYWDFLT
  2
AcDbDictionaryWithDefault
  3
ObjectDBX Classes
 90
        0
280
     0
281
     0
  0
CLASS
  1
VISUALSTYLE
  2
AcDbVisualStyle
  3
ObjectDBX Classes
 90
     4095
280
     0
281
     0
  0
CLASS
  1
MATERIAL
  2
AcDbMaterial
  3
ObjectDBX Classes
 90
     1153
280
     0
281
     0
  0
CLASS
  1
SCALE
  2
AcDbScale
  3
ObjectDBX Classes
 90
     1153
280
     0
281
     0
  0
CLASS
  1
TABLESTYLE
  2
AcDbTableStyle
  3
ObjectDBX Classes
 90
     4095
280
     0
281
     0
  0
CLASS
  1
MLEADERSTYLE
  2
AcDbMLeaderStyle
  3
ACDB_MLEADERSTYLE_CLASS
 90
     4095
280
     0
281
     0
  0
CLASS
  1
SUN
  2
AcDbSun
  3
SCENEOE
 90
     1153
280
     0
281
     0
  0
CLASS
  1
ACDBPLACEHOLDER
  2
AcDbPlaceHolder
  3
ObjectDBX Classes
 90
        0
280
     0
281
     0
  0
CLASS
  1
LAYOUT
  2
AcDbLayout
  3
ObjectDBX Classes
 90
        0
280
     0
281
     0
  0
ENDSEC
  0
SECTION
  2
TABLES
  0
TABLE
  2
VPORT
  5
8
330
0
100
AcDbSymbolTable
 70
     1
  0
VPORT
  5
29
330
8
100
AcDbSymbolTableRecord
100
AcDbViewportTableRecord
  2
*Active
 70
     0
 10
0.0
 20
0.0
 11
1.0
 21
1.0
 12
210.0
 22
148.5
 13
0.0
 23
0.0
 14
10.0
 24
10.0
 15
10.0
 25
10.0
 16
0.0
 26
0.0
 36
1.0
 17
0.0
 27
0.0
 37
0.0
 40
297.0
 41
1.4141414141
 42
50.0
 43
0.0
 44
0.0
 50
0.0
 51
0.0
 71
     0
 72
  2000
 73
     1
 74
     3
 75
     0
 76
     0
 77
     0
 78
     0
281
     0
 65
     1
110
0.0
120
0.0
130
0.0
111
1.0
121
0.0
131
0.0
112
0.0
122
1.0
132
0.0
 79
     0
146
0.0
  0
ENDTAB
  0
TABLE
  2
LTYPE
  5
5
330
0
100
AcDbSymbolTable
 70
     6
  0
LTYPE
  5
14
330
5
100
AcDbSymbolTableRecord
100
AcDbLinetypeTableRecord
  2
ByBlock
 70
     0
  3

 72
    65
 73
     0
 40
0.0
  0
LTYPE
  5
15
330
5
100
AcDbSymbolTableRecord
100
AcDbLinetypeTableRecord
  2
ByLayer
 70
     0
  3

 72
    65
 73
     0
 40
0.0
  0
LTYPE
  5
16
330
5
100
AcDbSymbolTableRecord
100
AcDbLinetypeTableRecord
  2
Continuous
 70
     0
  3
Solid line
 72
    65
 73
     0
 40
0.0
  0
LTYPE
  5
6E
330
5
100
AcDbSymbolTableRecord
100
AcDbLinetypeTableRecord
  2
HIDDEN
 70
     0
  3
Hidden __ __ __ __ __ __ __ __ __ __ __ __ __ __
 72
    65
 73
     2
 40
1.905
 49
1.27
 74
     0
 49
-0.635
 74
     0
  0
LTYPE
  5
6F
330
5
100
AcDbSymbolTableRecord
100
AcDbLinetypeTableRecord
  2
PHANTOM
 70
     0
  3
Phantom ______  __  __  ______  __  __  ______
 72
    65
 73
     6
 40
12.7
 49
6.35
 74
     0
 49
-1.27
 74
     0
 49
1.27
 74
     0
 49
-1.27
 74
     0
 49
1.27
 74
     0
 49
-1.27
 74
     0
  0
LTYPE
  5
70
330
5
100
AcDbSymbolTableRecord
100
AcDbLinetypeTableRecord
  2
CENTER
 70
     0
  3
Center ____ _ ____ _ ____ _ ____ _ ____ _ ____
 72
    65
 73
     4
 40
10.16
 49
6.35
 74
     0
 49
-1.27
 74
     0
 49
1.27
 74
     0
 49
-1.27
 74
     0
  0
LTYPE
  5
71
330
5
100
AcDbSymbolTableRecord
100
AcDbLinetypeTableRecord
  2
CENTERX2
 70
     0
  3
Center (2x) ________  __  ________  __  _____
 72
    65
 73
     4
 40
20.32
 49
12.7
 74
     0
 49
-2.54
 74
     0
 49
2.54
 74
     0
 49
-2.54
 74
     0
  0
LTYPE
  5
72
330
5
100
AcDbSymbolTableRecord
100
AcDbLinetypeTableRecord
  2
DOT2
 70
     0
  3
Dot (.5x) ........................................
 72
    65
 73
     2
 40
0.635
 49
0.0
 74
     0
 49
-0.635
 74
     0
  0
ENDTAB
  0
TABLE
  2
LAYER
  5
2
330
0
100
AcDbSymbolTable
 70
     1
  0
LAYER
  5
10
330
2
100
AcDbSymbolTableRecord
100
AcDbLayerTableRecord
  2
0
 70
     0
 62
     7
  6
Continuous
370
    -3
390
F
  0
ENDTAB
  0
TABLE
  2
STYLE
  5
3
330
0
100
AcDbSymbolTable
 70
     6
  0
STYLE
  5
11
330
3
100
AcDbSymbolTableRecord
100
AcDbTextStyleTableRecord
  2
Standard
 70
     0
 40
0.0
 41
1.0
 50
0.0
 71
     0
 42
3.5
  3
txt
  4

  0
STYLE
  5
87
330
3
100
AcDbSymbolTableRecord
100
AcDbTextStyleTableRecord
  2
SLDTEXTSTYLE0
 70
     0
 40
0.0
 41
0.605
 50
0.0
 71
     0
 42
3.5
  3
TXT
  4

  0
STYLE
  5
97
330
3
100
AcDbSymbolTableRecord
100
AcDbTextStyleTableRecord
  2
SLDTEXTSTYLE1
 70
     0
 40
0.0
 41
0.57
 50
0.0
 71
     0
 42
3.5
  3
TXT
  4

  0
STYLE
  5
C8
330
3
100
AcDbSymbolTableRecord
100
AcDbTextStyleTableRecord
  2
SLDTEXTSTYLE2
 70
     0
 40
0.0
 41
0.563
 50
0.0
 71
     0
 42
3.5
  3
TXT
  4

  0
STYLE
  5
CF
330
3
100
AcDbSymbolTableRecord
100
AcDbTextStyleTableRecord
  2
SLDTEXTSTYLE3
 70
     0
 40
0.0
 41
0.5525
 50
0.0
 71
     0
 42
3.5
  3
TXT
  4

  0
STYLE
  5
E2
330
3
100
AcDbSymbolTableRecord
100
AcDbTextStyleTableRecord
  2
SLDTEXTSTYLE4
 70
     0
 40
0.0
 41
0.575
 50
0.0
 71
     0
 42
3.5
  3
TXT
  4

  0
ENDTAB
  0
TABLE
  2
VIEW
  5
6
330
0
100
AcDbSymbolTable
 70
     0
  0
ENDTAB
  0
TABLE
  2
UCS
  5
7
330
0
100
AcDbSymbolTable
 70
     0
  0
ENDTAB
  0
TABLE
  2
APPID
  5
9
330
0
100
AcDbSymbolTable
 70
     1
  0
APPID
  5
12
330
9
100
AcDbSymbolTableRecord
100
AcDbRegAppTableRecord
  2
ACAD
 70
     0
  0
ENDTAB
  0
TABLE
  2
DIMSTYLE
  5
A
330
0
100
AcDbSymbolTable
 70
     3
100
AcDbDimStyleTable
  0
DIMSTYLE
105
27
330
A
100
AcDbSymbolTableRecord
100
AcDbDimStyleTableRecord
  2
ISO-25
 70
     0
 41
2.5
 42
0.625
 43
3.75
 44
1.25
 73
     0
 74
     0
 77
     1
 78
     8
140
2.5
141
2.5
143
0.0393700787
147
0.625
171
     3
172
     1
178
     0
271
     2
272
     2
274
     3
278
    44
283
     0
284
     8
340
11
  0
DIMSTYLE
105
33C
102
{ACAD_REACTORS
330
33B
102
}
330
A
100
AcDbSymbolTableRecord
100
AcDbDimStyleTableRecord
  2
SLDDIMSTYLE0
 70
     0
 41
3.5
 44
0.0
 45
0.000000001
 73
     0
 74
     0
 77
     1
 78
    12
 79
     3
140
3.5
147
0.875
172
     1
173
     1
178
     0
271
     2
272
     3
276
     2
284
    12
289
     0
340
87
  0
DIMSTYLE
105
349
102
{ACAD_REACTORS
330
348
330
354
102
}
330
A
100
AcDbSymbolTableRecord
100
AcDbDimStyleTableRecord
  2
SLDDIMSTYLE1
 70
     0
 41
3.5
 44
0.0
 45
0.000000001
 73
     0
 74
     0
 77
     1
 78
    12
 79
     3
140
3.5
147
0.875
173
     1
178
     0
271
     2
272
     3
276
     2
284
    12
340
87
  0
ENDTAB
  0
TABLE
  2
BLOCK_RECORD
  5
1
330
0
100
AcDbSymbolTable
 70
    28
  0
BLOCK_RECORD
  5
1F
330
1
100
AcDbSymbolTableRecord
100
AcDbBlockTableRecord
  2
*Model_Space
340
22
  0
BLOCK_RECORD
  5
1B
330
1
100
AcDbSymbolTableRecord
100
AcDbBlockTableRecord
  2
*Paper_Space
340
1E
  0
BLOCK_RECORD
  5
23
330
1
100
AcDbSymbolTableRecord
100
AcDbBlockTableRecord
  2
*Paper_Space0
340
26
  0
BLOCK_RECORD
  5
73
330
1
100
AcDbSymbolTableRecord
100
AcDbBlockTableRecord
  2
Allg-Toleranz-mittel
340
0
102
{BLKREFS
331
1C0
102
}
  0
BLOCK_RECORD
  5
84
330
1
100
AcDbSymbolTableRecord
100
AcDbBlockTableRecord
  2
SW_NOTE_0
340
0
102
{BLKREFS
331
89
102
}
  0
BLOCK_RECORD
  5
8A
330
1
100
AcDbSymbolTableRecord
100
AcDbBlockTableRecord
  2
SW_NOTE_0_1
340
0
102
{BLKREFS
331
8E
102
}
  0
BLOCK_RECORD
  5
8F
330
1
100
AcDbSymbolTableRecord
100
AcDbBlockTableRecord
  2
SW_NOTE_0_2
340
0
102
{BLKREFS
331
93
102
}
  0
BLOCK_RECORD
  5
94
330
1
100
AcDbSymbolTableRecord
100
AcDbBlockTableRecord
  2
SW_NOTE_0_3
340
0
102
{BLKREFS
331
9A
102
}
  0
BLOCK_RECORD
  5
9B
330
1
100
AcDbSymbolTableRecord
100
AcDbBlockTableRecord
  2
SW_NOTE_0_4
340
0
102
{BLKREFS
331
9F
102
}
  0
BLOCK_RECORD
  5
A0
330
1
100
AcDbSymbolTableRecord
100
AcDbBlockTableRecord
  2
SW_NOTE_0_5
340
0
102
{BLKREFS
331
A4
102
}
  0
BLOCK_RECORD
  5
A5
330
1
100
AcDbSymbolTableRecord
100
AcDbBlockTableRecord
  2
SW_NOTE_0_6
340
0
102
{BLKREFS
331
A9
102
}
  0
BLOCK_RECORD
  5
AA
330
1
100
AcDbSymbolTableRecord
100
AcDbBlockTableRecord
  2
SW_NOTE_0_7
340
0
102
{BLKREFS
331
AE
102
}
  0
BLOCK_RECORD
  5
AF
330
1
100
AcDbSymbolTableRecord
100
AcDbBlockTableRecord
  2
SW_NOTE_0_8
340
0
102
{BLKREFS
331
B3
102
}
  0
BLOCK_RECORD
  5
B4
330
1
100
AcDbSymbolTableRecord
100
AcDbBlockTableRecord
  2
SW_NOTE_0_9
340
0
102
{BLKREFS
331
B8
102
}
  0
BLOCK_RECORD
  5
B9
330
1
100
AcDbSymbolTableRecord
100
AcDbBlockTableRecord
  2
SW_NOTE_0_10
340
0
102
{BLKREFS
331
BE
102
}
  0
BLOCK_RECORD
  5
BF
330
1
100
AcDbSymbolTableRecord
100
AcDbBlockTableRecord
  2
SW_NOTE_0_11
340
0
102
{BLKREFS
331
C4
102
}
  0
BLOCK_RECORD
  5
C5
330
1
100
AcDbSymbolTableRecord
100
AcDbBlockTableRecord
  2
SW_NOTE_0_12
340
0
102
{BLKREFS
331
CB
102
}
  0
BLOCK_RECORD
  5
CC
330
1
100
AcDbSymbolTableRecord
100
AcDbBlockTableRecord
  2
SW_NOTE_0_13
340
0
102
{BLKREFS
331
D2
102
}
  0
BLOCK_RECORD
  5
D3
330
1
100
AcDbSymbolTableRecord
100
AcDbBlockTableRecord
  2
SW_NOTE_0_14
340
0
102
{BLKREFS
331
D8
102
}
  0
BLOCK_RECORD
  5
D9
330
1
100
AcDbSymbolTableRecord
100
AcDbBlockTableRecord
  2
SW_NOTE_0_15
340
0
102
{BLKREFS
331
DE
102
}
  0
BLOCK_RECORD
  5
DF
330
1
100
AcDbSymbolTableRecord
100
AcDbBlockTableRecord
  2
SW_NOTE_0_16
340
0
102
{BLKREFS
331
E5
102
}
  0
BLOCK_RECORD
  5
E6
330
1
100
AcDbSymbolTableRecord
100
AcDbBlockTableRecord
  2
SW_NOTE_0_17
340
0
102
{BLKREFS
331
EA
102
}
  0
BLOCK_RECORD
  5
EB
330
1
100
AcDbSymbolTableRecord
100
AcDbBlockTableRecord
  2
ACO-Logo
340
0
102
{BLKREFS
331
1C1
102
}
  0
BLOCK_RECORD
  5
15E
330
1
100
AcDbSymbolTableRecord
100
AcDbBlockTableRecord
  2
SW_NOTE_0_18
340
0
102
{BLKREFS
331
162
102
}
  0
BLOCK_RECORD
  5
163
330
1
100
AcDbSymbolTableRecord
100
AcDbBlockTableRecord
  2
SW_NOTE_0_19
340
0
102
{BLKREFS
331
167
102
}
  0
BLOCK_RECORD
  5
168
330
1
100
AcDbSymbolTableRecord
100
AcDbBlockTableRecord
  2
SW_NOTE_0_20
340
0
102
{BLKREFS
331
16F
102
}
  0
BLOCK_RECORD
  5
1E8
330
1
100
AcDbSymbolTableRecord
100
AcDbBlockTableRecord
  2
SW_NOTE_0_21
340
0
102
{BLKREFS
331
1F0
102
}
  0
BLOCK_RECORD
  5
33D
330
1
100
AcDbSymbolTableRecord
100
AcDbBlockTableRecord
  2
_D
340
0
  0
BLOCK_RECORD
  5
34A
330
1
100
AcDbSymbolTableRecord
100
AcDbBlockTableRecord
  2
_D_1
340
0
  0
BLOCK_RECORD
  5
355
330
1
100
AcDbSymbolTableRecord
100
AcDbBlockTableRecord
  2
_D_2
340
0
  0
ENDTAB
  0
ENDSEC
  0
SECTION
  2
BLOCKS
  0
BLOCK
  5
20
330
1F
100
AcDbEntity
  8
0
100
AcDbBlockBegin
  2
*Model_Space
 70
     0
 10
0.0
 20
0.0
 30
0.0
  3
*Model_Space
  1

  0
ENDBLK
  5
21
330
1F
100
AcDbEntity
  8
0
100
AcDbBlockEnd
  0
BLOCK
  5
1C
330
1B
100
AcDbEntity
 67
     1
  8
0
100
AcDbBlockBegin
  2
*Paper_Space
 70
     0
 10
0.0
 20
0.0
 30
0.0
  3
*Paper_Space
  1

  0
ENDBLK
  5
1D
330
1B
100
AcDbEntity
 67
     1
  8
0
100
AcDbBlockEnd
  0
BLOCK
  5
24
330
23
100
AcDbEntity
  8
0
100
AcDbBlockBegin
  2
*Paper_Space0
 70
     0
 10
0.0
 20
0.0
 30
0.0
  3
*Paper_Space0
  1

  0
ENDBLK
  5
25
330
23
100
AcDbEntity
  8
0
100
AcDbBlockEnd
  0
BLOCK
  5
74
330
73
100
AcDbEntity
  8
0
100
AcDbBlockBegin
  2
Allg-Toleranz-mittel
 70
     0
 10
0.0
 20
0.0
 30
0.0
  3
Allg-Toleranz-mittel
  1

  0
LINE
  5
76
330
73
100
AcDbEntity
  8
0
 62
     7
100
AcDbLine
 10
0.0
 20
18.0
 30
0.0
 11
0.0
 21
0.0
 31
0.0
  0
LINE
  5
77
330
73
100
AcDbEntity
  8
0
 62
     7
100
AcDbLine
 10
0.0
 20
18.0
 30
0.0
 11
70.0
 21
18.0
 31
0.0
  0
LINE
  5
78
330
73
100
AcDbEntity
  8
0
 62
     7
100
AcDbLine
 10
0.0
 20
14.0
 30
0.0
 11
70.0
 21
14.0
 31
0.0
  0
LINE
  5
79
330
73
100
AcDbEntity
  8
0
 62
     7
100
AcDbLine
 10
12.0
 20
14.0
 30
0.0
 11
12.0
 21
0.0
 31
0.0
  0
LINE
  5
7A
330
73
100
AcDbEntity
  8
0
 62
     7
100
AcDbLine
 10
20.0
 20
10.0
 30
0.0
 11
20.0
 21
0.0
 31
0.0
  0
LINE
  5
7B
330
73
100
AcDbEntity
  8
0
 62
     7
100
AcDbLine
 10
28.0
 20
10.0
 30
0.0
 11
28.0
 21
0.0
 31
0.0
  0
LINE
  5
7C
330
73
100
AcDbEntity
  8
0
 62
     7
100
AcDbLine
 10
36.0
 20
10.0
 30
0.0
 11
36.0
 21
0.0
 31
0.0
  0
LINE
  5
7D
330
73
100
AcDbEntity
  8
0
 62
     7
100
AcDbLine
 10
44.0
 20
10.0
 30
0.0
 11
44.0
 21
0.0
 31
0.0
  0
LINE
  5
7E
330
73
100
AcDbEntity
  8
0
 62
     7
100
AcDbLine
 10
52.0
 20
10.0
 30
0.0
 11
52.0
 21
0.0
 31
0.0
  0
LINE
  5
7F
330
73
100
AcDbEntity
  8
0
 62
     7
100
AcDbLine
 10
70.0
 20
10.0
 30
0.0
 11
12.0
 21
10.0
 31
0.0
  0
LINE
  5
80
330
73
100
AcDbEntity
  8
0
 62
     7
100
AcDbLine
 10
70.0
 20
4.0
 30
0.0
 11
0.0
 21
4.0
 31
0.0
  0
LINE
  5
81
330
73
100
AcDbEntity
  8
0
 62
     7
100
AcDbLine
 10
70.0
 20
18.0
 30
0.0
 11
70.0
 21
0.0
 31
0.0
  0
LINE
  5
82
330
73
100
AcDbEntity
  8
0
 62
     7
100
AcDbLine
 10
70.0
 20
0.0
 30
0.0
 11
0.0
 21
0.0
 31
0.0
  0
LINE
  5
83
330
73
100
AcDbEntity
  8
0
100
AcDbLine
 10
61.0
 20
10.0
 30
0.0
 11
61.0
 21
0.0
 31
0.0
  0
INSERT
  5
89
330
73
100
AcDbEntity
  8
0
  6
Continuous
 62
     7
370
    18
100
AcDbBlockReference
  2
SW_NOTE_0
 10
1.3715701559
 20
14.7823959776
 30
0.0
  0
INSERT
  5
8E
330
73
100
AcDbEntity
  8
0
  6
Continuous
 62
     7
370
    18
100
AcDbBlockReference
  2
SW_NOTE_0_1
 10
19.4858329865
 20
10.8011997857
 30
0.0
  0
INSERT
  5
93
330
73
100
AcDbEntity
  8
0
  6
Continuous
 62
     7
370
    18
100
AcDbBlockReference
  2
SW_NOTE_0_2
 10
0.7059049832
 20
0.7957779732
 30
0.0
  0
INSERT
  5
9A
330
73
100
AcDbEntity
  8
0
  6
Continuous
 62
     7
370
    18
100
AcDbBlockReference
  2
SW_NOTE_0_3
 10
44.6572377212
 20
6.9417037808
 30
0.0
  0
INSERT
  5
9F
330
73
100
AcDbEntity
  8
0
  6
Continuous
 62
     7
370
    18
100
AcDbBlockReference
  2
SW_NOTE_0_4
 10
21.3963023843
 20
0.8030156928
 30
0.0
  0
INSERT
  5
A4
330
73
100
AcDbEntity
  8
0
  6
Continuous
 62
     7
370
    18
100
AcDbBlockReference
  2
SW_NOTE_0_5
 10
29.3441244219
 20
0.8024484104
 30
0.0
  0
INSERT
  5
A9
330
73
100
AcDbEntity
  8
0
  6
Continuous
 62
     7
370
    18
100
AcDbBlockReference
  2
SW_NOTE_0_6
 10
37.3487166127
 20
0.7888202699
 30
0.0
  0
INSERT
  5
AE
330
73
100
AcDbEntity
  8
0
  6
Continuous
 62
     7
370
    18
100
AcDbBlockReference
  2
SW_NOTE_0_7
 10
45.3470367789
 20
0.8005698793
 30
0.0
  0
INSERT
  5
B3
330
73
100
AcDbEntity
  8
0
  6
Continuous
 62
     7
370
    18
100
AcDbBlockReference
  2
SW_NOTE_0_8
 10
53.8527888204
 20
0.8016543168
 30
0.0
  0
INSERT
  5
B8
330
73
100
AcDbEntity
  8
0
  6
Continuous
 62
     7
370
    18
100
AcDbBlockReference
  2
SW_NOTE_0_9
 10
13.3728379186
 20
0.8021647692
 30
0.0
  0
INSERT
  5
BE
330
73
100
AcDbEntity
  8
0
  6
Continuous
 62
     7
370
    18
100
AcDbBlockReference
  2
SW_NOTE_0_10
 10
0.7480385575
 20
8.9918758938
 30
0.0
  0
INSERT
  5
C4
330
73
100
AcDbEntity
  8
0
  6
Continuous
 62
     7
370
    18
100
AcDbBlockReference
  2
SW_NOTE_0_11
 10
53.6385910634
 20
6.9252111133
 30
0.0
  0
INSERT
  5
CB
330
73
100
AcDbEntity
  8
0
  6
Continuous
 62
     7
370
    18
100
AcDbBlockReference
  2
SW_NOTE_0_12
 10
37.834189587
 20
6.9615036443
 30
0.0
  0
INSERT
  5
D2
330
73
100
AcDbEntity
  8
0
  6
Continuous
 62
     7
370
    18
100
AcDbBlockReference
  2
SW_NOTE_0_13
 10
21.9401680118
 20
6.9455377904
 30
0.0
  0
INSERT
  5
D8
330
73
100
AcDbEntity
  8
0
  6
Continuous
 62
     7
370
    18
100
AcDbBlockReference
  2
SW_NOTE_0_14
 10
14.6500264887
 20
6.9584413
 30
0.0
  0
INSERT
  5
DE
330
73
100
AcDbEntity
  8
0
  6
Continuous
 62
     7
370
    18
100
AcDbBlockReference
  2
SW_NOTE_0_15
 10
30.5247714712
 20
6.9591233511
 30
0.0
  0
INSERT
  5
E5
330
73
100
AcDbEntity
  8
0
  6
Continuous
 62
     7
370
    18
100
AcDbBlockReference
  2
SW_NOTE_0_16
 10
61.480287246
 20
6.9546837425
 30
0.0
  0
INSERT
  5
EA
330
73
100
AcDbEntity
  8
0
  6
Continuous
 62
     7
370
    18
100
AcDbBlockReference
  2
SW_NOTE_0_17
 10
62.8737574935
 20
0.7955033114
 30
0.0
  0
ENDBLK
  5
75
330
73
100
AcDbEntity
  8
0
100
AcDbBlockEnd
  0
BLOCK
  5
85
330
84
100
AcDbEntity
  8
0
100
AcDbBlockBegin
  2
SW_NOTE_0
 70
     0
 10
0.0
 20
0.0
 30
0.0
  3
SW_NOTE_0
  1

  0
MTEXT
  5
88
330
84
100
AcDbEntity
  8
0
  6
Continuous
 62
     0
370
    18
100
AcDbMText
 10
0.0
 20
2.3203219316
 30
0.0
 40
1.8
 41
0.0
 71
     1
 72
     1
  1
Allgemeintoleranzen für Längenmasse            DIN  ISO 2768-1
  7
SLDTEXTSTYLE0
 73
     1
 44
1.0
  0
ENDBLK
  5
86
330
84
100
AcDbEntity
  8
0
100
AcDbBlockEnd
  0
BLOCK
  5
8B
330
8A
100
AcDbEntity
  8
0
100
AcDbBlockBegin
  2
SW_NOTE_0_1
 70
     0
 10
0.0
 20
0.0
 30
0.0
  3
SW_NOTE_0_1
  1

  0
MTEXT
  5
8D
330
8A
100
AcDbEntity
  8
0
  6
Continuous
 62
     0
370
    18
100
AcDbMText
 10
0.675
 20
2.3203219316
 30
0.0
 40
1.8
 41
0.0
 71
     1
 72
     1
  1
Abmasse in mm für Nennmassbereiche
  7
SLDTEXTSTYLE0
 73
     1
 44
1.0
  0
ENDBLK
  5
8C
330
8A
100
AcDbEntity
  8
0
100
AcDbBlockEnd
  0
BLOCK
  5
90
330
8F
100
AcDbEntity
  8
0
100
AcDbBlockBegin
  2
SW_NOTE_0_2
 70
     0
 10
0.0
 20
0.0
 30
0.0
  3
SW_NOTE_0_2
  1

  0
MTEXT
  5
92
330
8F
100
AcDbEntity
  8
0
  6
Continuous
 62
     0
370
    18
100
AcDbMText
 10
0.0
 20
2.3203219316
 30
0.0
 40
1.8
 41
0.0
 71
     1
 72
     1
  1
m  (mittel)
  7
SLDTEXTSTYLE0
 73
     1
 44
1.0
  0
ENDBLK
  5
91
330
8F
100
AcDbEntity
  8
0
100
AcDbBlockEnd
  0
BLOCK
  5
95
330
94
100
AcDbEntity
  8
0
100
AcDbBlockBegin
  2
SW_NOTE_0_3
 70
     0
 10
0.0
 20
0.0
 30
0.0
  3
SW_NOTE_0_3
  1

  0
MTEXT
  5
98
330
94
100
AcDbEntity
  8
0
  6
Continuous
 62
     0
370
    18
100
AcDbMText
 10
6.8625
 20
2.3203219316
 30
0.0
 40
1.8
 41
0.0
 71
     3
 72
     1
  1
>  120
  7
SLDTEXTSTYLE1
 73
     1
 44
1.0
  0
MTEXT
  5
99
330
94
100
AcDbEntity
  8
0
  6
Continuous
 62
     0
370
    18
100
AcDbMText
 10
6.8815628178
 20
0.0003219611
 30
0.0
 40
1.8
 41
0.0
 71
     3
 72
     1
  1
... 400
  7
SLDTEXTSTYLE0
 73
     1
 44
1.0
  0
ENDBLK
  5
96
330
94
100
AcDbEntity
  8
0
100
AcDbBlockEnd
  0
BLOCK
  5
9C
330
9B
100
AcDbEntity
  8
0
100
AcDbBlockBegin
  2
SW_NOTE_0_4
 70
     0
 10
0.0
 20
0.0
 30
0.0
  3
SW_NOTE_0_4
  1

  0
MTEXT
  5
9E
330
9B
100
AcDbEntity
  8
0
  6
Continuous
 62
     0
370
    18
100
AcDbMText
 10
0.0
 20
2.3203219316
 30
0.0
 40
1.8
 41
0.0
 71
     1
 72
     1
  1
± 0.1
  7
SLDTEXTSTYLE0
 73
     1
 44
1.0
  0
ENDBLK
  5
9D
330
9B
100
AcDbEntity
  8
0
100
AcDbBlockEnd
  0
BLOCK
  5
A1
330
A0
100
AcDbEntity
  8
0
100
AcDbBlockBegin
  2
SW_NOTE_0_5
 70
     0
 10
0.0
 20
0.0
 30
0.0
  3
SW_NOTE_0_5
  1

  0
MTEXT
  5
A3
330
A0
100
AcDbEntity
  8
0
  6
Continuous
 62
     0
370
    18
100
AcDbMText
 10
0.0
 20
2.3203219316
 30
0.0
 40
1.8
 41
0.0
 71
     1
 72
     1
  1
± 0.2
  7
SLDTEXTSTYLE0
 73
     1
 44
1.0
  0
ENDBLK
  5
A2
330
A0
100
AcDbEntity
  8
0
100
AcDbBlockEnd
  0
BLOCK
  5
A6
330
A5
100
AcDbEntity
  8
0
100
AcDbBlockBegin
  2
SW_NOTE_0_6
 70
     0
 10
0.0
 20
0.0
 30
0.0
  3
SW_NOTE_0_6
  1

  0
MTEXT
  5
A8
330
A5
100
AcDbEntity
  8
0
  6
Continuous
 62
     0
370
    18
100
AcDbMText
 10
0.0
 20
2.3203219316
 30
0.0
 40
1.8
 41
0.0
 71
     1
 72
     1
  1
± 0.3
  7
SLDTEXTSTYLE0
 73
     1
 44
1.0
  0
ENDBLK
  5
A7
330
A5
100
AcDbEntity
  8
0
100
AcDbBlockEnd
  0
BLOCK
  5
AB
330
AA
100
AcDbEntity
  8
0
100
AcDbBlockBegin
  2
SW_NOTE_0_7
 70
     0
 10
0.0
 20
0.0
 30
0.0
  3
SW_NOTE_0_7
  1

  0
MTEXT
  5
AD
330
AA
100
AcDbEntity
  8
0
  6
Continuous
 62
     0
370
    18
100
AcDbMText
 10
0.0
 20
2.3203219316
 30
0.0
 40
1.8
 41
0.0
 71
     1
 72
     1
  1
± 0.5
  7
SLDTEXTSTYLE0
 73
     1
 44
1.0
  0
ENDBLK
  5
AC
330
AA
100
AcDbEntity
  8
0
100
AcDbBlockEnd
  0
BLOCK
  5
B0
330
AF
100
AcDbEntity
  8
0
100
AcDbBlockBegin
  2
SW_NOTE_0_8
 70
     0
 10
0.0
 20
0.0
 30
0.0
  3
SW_NOTE_0_8
  1

  0
MTEXT
  5
B2
330
AF
100
AcDbEntity
  8
0
  6
Continuous
 62
     0
370
    18
100
AcDbMText
 10
0.0
 20
2.3203219316
 30
0.0
 40
1.8
 41
0.0
 71
     1
 72
     1
  1
± 0.8
  7
SLDTEXTSTYLE0
 73
     1
 44
1.0
  0
ENDBLK
  5
B1
330
AF
100
AcDbEntity
  8
0
100
AcDbBlockEnd
  0
BLOCK
  5
B5
330
B4
100
AcDbEntity
  8
0
100
AcDbBlockBegin
  2
SW_NOTE_0_9
 70
     0
 10
0.0
 20
0.0
 30
0.0
  3
SW_NOTE_0_9
  1

  0
MTEXT
  5
B7
330
B4
100
AcDbEntity
  8
0
  6
Continuous
 62
     0
370
    18
100
AcDbMText
 10
0.0
 20
2.3203219316
 30
0.0
 40
1.8
 41
0.0
 71
     1
 72
     1
  1
± 0.1
  7
SLDTEXTSTYLE0
 73
     1
 44
1.0
  0
ENDBLK
  5
B6
330
B4
100
AcDbEntity
  8
0
100
AcDbBlockEnd
  0
BLOCK
  5
BA
330
B9
100
AcDbEntity
  8
0
100
AcDbBlockBegin
  2
SW_NOTE_0_10
 70
     0
 10
0.0
 20
0.0
 30
0.0
  3
SW_NOTE_0_10
  1

  0
MTEXT
  5
BC
330
B9
100
AcDbEntity
  8
0
  6
Continuous
 62
     0
370
    18
100
AcDbMText
 10
0.0
 20
2.3203219316
 30
0.0
 40
1.8
 41
0.0
 71
     1
 72
     1
  1
Genauig -
  7
SLDTEXTSTYLE0
 73
     1
 44
1.0
  0
MTEXT
  5
BD
330
B9
100
AcDbEntity
  8
0
  6
Continuous
 62
     0
370
    18
100
AcDbMText
 10
0.0
 20
0.0003219611
 30
0.0
 40
1.8
 41
0.0
 71
     1
 72
     1
  1
keitsgrad
  7
SLDTEXTSTYLE0
 73
     1
 44
1.0
  0
ENDBLK
  5
BB
330
B9
100
AcDbEntity
  8
0
100
AcDbBlockEnd
  0
BLOCK
  5
C0
330
BF
100
AcDbEntity
  8
0
100
AcDbBlockBegin
  2
SW_NOTE_0_11
 70
     0
 10
0.0
 20
0.0
 30
0.0
  3
SW_NOTE_0_11
  1

  0
MTEXT
  5
C2
330
BF
100
AcDbEntity
  8
0
  6
Continuous
 62
     0
370
    18
100
AcDbMText
 10
6.8625
 20
2.3203219316
 30
0.0
 40
1.8
 41
0.0
 71
     3
 72
     1
  1
>  400
  7
SLDTEXTSTYLE1
 73
     1
 44
1.0
  0
MTEXT
  5
C3
330
BF
100
AcDbEntity
  8
0
  6
Continuous
 62
     0
370
    18
100
AcDbMText
 10
7.0246870391
 20
0.0003219611
 30
0.0
 40
1.8
 41
0.0
 71
     3
 72
     1
  1
... 1000
  7
SLDTEXTSTYLE0
 73
     1
 44
1.0
  0
ENDBLK
  5
C1
330
BF
100
AcDbEntity
  8
0
100
AcDbBlockEnd
  0
BLOCK
  5
C6
330
C5
100
AcDbEntity
  8
0
100
AcDbBlockBegin
  2
SW_NOTE_0_12
 70
     0
 10
0.0
 20
0.0
 30
0.0
  3
SW_NOTE_0_12
  1

  0
MTEXT
  5
C9
330
C5
100
AcDbEntity
  8
0
  6
Continuous
 62
     0
370
    18
100
AcDbMText
 10
5.5125
 20
2.3203219316
 30
0.0
 40
1.8
 41
0.0
 71
     3
 72
     1
  1
>  30
  7
SLDTEXTSTYLE2
 73
     1
 44
1.0
  0
MTEXT
  5
CA
330
C5
100
AcDbEntity
  8
0
  6
Continuous
 62
     0
370
    18
100
AcDbMText
 10
5.6637495868
 20
0.0003219611
 30
0.0
 40
1.8
 41
0.0
 71
     3
 72
     1
  1
... 120
  7
SLDTEXTSTYLE0
 73
     1
 44
1.0
  0
ENDBLK
  5
C7
330
C5
100
AcDbEntity
  8
0
100
AcDbBlockEnd
  0
BLOCK
  5
CD
330
CC
100
AcDbEntity
  8
0
100
AcDbBlockBegin
  2
SW_NOTE_0_13
 70
     0
 10
0.0
 20
0.0
 30
0.0
  3
SW_NOTE_0_13
  1

  0
MTEXT
  5
D0
330
CC
100
AcDbEntity
  8
0
  6
Continuous
 62
     0
370
    18
100
AcDbMText
 10
4.1625
 20
2.3203219316
 30
0.0
 40
1.8
 41
0.0
 71
     3
 72
     1
  1
>  3
  7
SLDTEXTSTYLE3
 73
     1
 44
1.0
  0
MTEXT
  5
D1
330
CC
100
AcDbEntity
  8
0
  6
Continuous
 62
     0
370
    18
100
AcDbMText
 10
4.2490622841
 20
0.0003219611
 30
0.0
 40
1.8
 41
0.0
 71
     3
 72
     1
  1
... 6
  7
SLDTEXTSTYLE0
 73
     1
 44
1.0
  0
ENDBLK
  5
CE
330
CC
100
AcDbEntity
  8
0
100
AcDbBlockEnd
  0
BLOCK
  5
D4
330
D3
100
AcDbEntity
  8
0
100
AcDbBlockBegin
  2
SW_NOTE_0_14
 70
     0
 10
0.0
 20
0.0
 30
0.0
  3
SW_NOTE_0_14
  1

  0
MTEXT
  5
D6
330
D3
100
AcDbEntity
  8
0
  6
Continuous
 62
     0
370
    18
100
AcDbMText
 10
3.375
 20
2.3203219316
 30
0.0
 40
1.8
 41
0.0
 71
     3
 72
     1
  1
0.5
  7
SLDTEXTSTYLE0
 73
     1
 44
1.0
  0
MTEXT
  5
D7
330
D3
100
AcDbEntity
  8
0
  6
Continuous
 62
     0
370
    18
100
AcDbMText
 10
3.446875035
 20
0.0003219611
 30
0.0
 40
1.8
 41
0.0
 71
     3
 72
     1
  1
... 3
  7
SLDTEXTSTYLE0
 73
     1
 44
1.0
  0
ENDBLK
  5
D5
330
D3
100
AcDbEntity
  8
0
100
AcDbBlockEnd
  0
BLOCK
  5
DA
330
D9
100
AcDbEntity
  8
0
100
AcDbBlockBegin
  2
SW_NOTE_0_15
 70
     0
 10
0.0
 20
0.0
 30
0.0
  3
SW_NOTE_0_15
  1

  0
MTEXT
  5
DC
330
D9
100
AcDbEntity
  8
0
  6
Continuous
 62
     0
370
    18
100
AcDbMText
 10
4.1625
 20
2.3203219316
 30
0.0
 40
1.8
 41
0.0
 71
     3
 72
     1
  1
>  6
  7
SLDTEXTSTYLE3
 73
     1
 44
1.0
  0
MTEXT
  5
DD
330
D9
100
AcDbEntity
  8
0
  6
Continuous
 62
     0
370
    18
100
AcDbMText
 10
4.2546879031
 20
0.0003219611
 30
0.0
 40
1.8
 41
0.0
 71
     3
 72
     1
  1
... 30
  7
SLDTEXTSTYLE0
 73
     1
 44
1.0
  0
ENDBLK
  5
DB
330
D9
100
AcDbEntity
  8
0
100
AcDbBlockEnd
  0
BLOCK
  5
E0
330
DF
100
AcDbEntity
  8
0
100
AcDbBlockBegin
  2
SW_NOTE_0_16
 70
     0
 10
0.0
 20
0.0
 30
0.0
  3
SW_NOTE_0_16
  1

  0
MTEXT
  5
E3
330
DF
100
AcDbEntity
  8
0
  6
Continuous
 62
     0
370
    18
100
AcDbMText
 10
8.2125
 20
2.3203219316
 30
0.0
 40
1.8
 41
0.0
 71
     3
 72
     1
  1
>  1000
  7
SLDTEXTSTYLE4
 73
     1
 44
1.0
  0
MTEXT
  5
E4
330
DF
100
AcDbEntity
  8
0
  6
Continuous
 62
     0
370
    18
100
AcDbMText
 10
8.2353127882
 20
0.0003219611
 30
0.0
 40
1.8
 41
0.0
 71
     3
 72
     1
  1
... 2000
  7
SLDTEXTSTYLE0
 73
     1
 44
1.0
  0
ENDBLK
  5
E1
330
DF
100
AcDbEntity
  8
0
100
AcDbBlockEnd
  0
BLOCK
  5
E7
330
E6
100
AcDbEntity
  8
0
100
AcDbBlockBegin
  2
SW_NOTE_0_17
 70
     0
 10
0.0
 20
0.0
 30
0.0
  3
SW_NOTE_0_17
  1

  0
MTEXT
  5
E9
330
E6
100
AcDbEntity
  8
0
  6
Continuous
 62
     0
370
    18
100
AcDbMText
 10
0.0
 20
2.3203219316
 30
0.0
 40
1.8
 41
0.0
 71
     1
 72
     1
  1
± 1.2
  7
SLDTEXTSTYLE0
 73
     1
 44
1.0
  0
ENDBLK
  5
E8
330
E6
100
AcDbEntity
  8
0
100
AcDbBlockEnd
  0
BLOCK
  5
EC
330
EB
100
AcDbEntity
  8
0
100
AcDbBlockBegin
  2
ACO-Logo
 70
     0
 10
0.0
 20
0.0
 30
0.0
  3
ACO-Logo
  1

  0
ARC
  5
EE
330
EB
100
AcDbEntity
  8
0
  6
Continuous
 62
   179
370
    18
100
AcDbCircle
 10
80.3853261169
 20
4.9940995715
 30
0.0
 40
0.3000000000000441
100
AcDbArc
 50
181.9349323096
 51
274.6062978506
  0
ARC
  5
EF
330
EB
100
AcDbEntity
  8
0
  6
Continuous
 62
   179
370
    18
100
AcDbCircle
 10
81.2359083165
 20
2.1946665956
 30
0.0
 40
1.000000000000021
100
AcDbArc
 50
221.4087409628
 51
276.0561297228
  0
ARC
  5
F0
330
EB
100
AcDbEntity
  8
0
  6
Continuous
 62
   179
370
    18
100
AcDbCircle
 10
79.1360017163
 20
3.654242048
 30
0.0
 40
0.300000000000004
100
AcDbArc
 50
181.2730300201
 51
274.4996077095
  0
ARC
  5
F1
330
EB
100
AcDbEntity
  8
0
  6
Continuous
 62
   179
370
    18
100
AcDbCircle
 10
78.7699033484
 20
3.2873137407
 30
0.0
 40
0.4000000000000358
100
AcDbArc
 50
221.0090869016
 51
274.5606296317
  0
ARC
  5
F2
330
EB
100
AcDbEntity
  8
0
  6
Continuous
 62
   179
370
    18
100
AcDbCircle
 10
91.2333953062
 20
4.6062442307
 30
0.0
 40
0.3000000000000493
100
AcDbArc
 50
274.4996077095
 51
3.7249371334
  0
ARC
  5
F3
330
EB
100
AcDbEntity
  8
0
  6
Continuous
 62
   179
370
    18
100
AcDbCircle
 10
81.5287571045
 20
9.7648973508
 30
0.0
 40
1.00000000000002
100
AcDbArc
 50
93.1134387481
 51
181.9414863909
  0
ARC
  5
F4
330
EB
100
AcDbEntity
  8
0
  6
Continuous
 62
   179
370
    18
100
AcDbCircle
 10
81.6051675115
 20
7.5107903456
 30
0.0
 40
1.0
100
AcDbArc
 50
181.9414863909
 51
274.398705355
  0
ARC
  5
F5
330
EB
100
AcDbEntity
  8
0
  6
Continuous
 62
   179
370
    18
100
AcDbCircle
 10
80.1506905656
 20
11.9393118923
 30
0.0
 40
0.300000000000045
100
AcDbArc
 50
93.0418421566
 51
181.9349323096
  0
ARC
  5
F6
330
EB
100
AcDbEntity
  8
0
  6
Continuous
 62
   179
370
    18
100
AcDbCircle
 10
78.1879722102
 20
12.3499352608
 30
0.0
 40
0.7999999999953393
100
AcDbArc
 50
92.6995697565
 51
148.2554209065
  0
ARC
  5
F7
330
EB
100
AcDbEntity
  8
0
  6
Continuous
 62
   179
370
    18
100
AcDbCircle
 10
78.930862229
 20
12.8855189761
 30
0.0
 40
0.3000000000000031
100
AcDbArc
 50
92.6995697565
 51
181.2730300201
  0
ARC
  5
F8
330
EB
100
AcDbEntity
  8
0
  6
Continuous
 62
   179
370
    18
100
AcDbCircle
 10
82.327743407
 20
9.8083568568
 30
0.0
 40
1.000000000000034
100
AcDbArc
 50
1.9414863909
 51
93.1134387481
  0
ARC
  5
F9
330
EB
100
AcDbEntity
  8
0
  6
Continuous
 62
   179
370
    18
100
AcDbCircle
 10
81.5287571045
 20
9.7648973508
 30
0.0
 40
0.3625000000000009
100
AcDbArc
 50
93.1134387481
 51
181.9414863909
  0
ARC
  5
FA
330
EB
100
AcDbEntity
  8
0
  6
Continuous
 62
   179
370
    18
100
AcDbCircle
 10
82.327743407
 20
9.8083568568
 30
0.0
 40
0.3625000000000146
100
AcDbArc
 50
1.9414863909
 51
93.1134387481
  0
ARC
  5
FB
330
EB
100
AcDbEntity
  8
0
  6
Continuous
 62
   179
370
    18
100
AcDbCircle
 10
82.4035451983
 20
7.5722040138
 30
0.0
 40
1.000000000000008
100
AcDbArc
 50
274.398705355
 51
1.9414863909
  0
ARC
  5
FC
330
EB
100
AcDbEntity
  8
0
  6
Continuous
 62
   179
370
    18
100
AcDbCircle
 10
82.4035451983
 20
7.5722040138
 30
0.0
 40
0.3625000000000068
100
AcDbArc
 50
274.398705355
 51
1.9414863909
  0
ARC
  5
FD
330
EB
100
AcDbEntity
  8
0
  6
Continuous
 62
   179
370
    18
100
AcDbCircle
 10
81.6051675115
 20
7.5107903456
 30
0.0
 40
0.3625000000000111
100
AcDbArc
 50
181.9414863909
 51
274.398705355
  0
ARC
  5
FE
330
EB
100
AcDbEntity
  8
0
  6
Continuous
 62
   179
370
    18
100
AcDbCircle
 10
88.825822761
 20
8.0662148274
 30
0.0
 40
0.9999999999999997
100
AcDbArc
 50
274.398705355
 51
2.6541955134
  0
ARC
  5
FF
330
EB
100
AcDbEntity
  8
0
  6
Continuous
 62
   179
370
    18
100
AcDbCircle
 10
90.1578295581
 20
5.7814576687
 30
0.0
 40
0.3000000000000043
100
AcDbArc
 50
274.6062978507
 51
2.5147526475
  0
ARC
  5
100
330
EB
100
AcDbEntity
  8
0
  6
Continuous
 62
   179
370
    18
100
AcDbCircle
 10
88.825822761
 20
8.0662148274
 30
0.0
 40
0.3625000000000083
100
AcDbArc
 50
274.398705355
 51
2.6541955134
  0
ARC
  5
101
330
EB
100
AcDbEntity
  8
0
  6
Continuous
 62
   179
370
    18
100
AcDbCircle
 10
88.728529747
 20
10.16496413
 30
0.0
 40
1.000000000000001
100
AcDbArc
 50
2.6541955134
 51
93.1134387481
  0
ARC
  5
102
330
EB
100
AcDbEntity
  8
0
  6
Continuous
 62
   179
370
    18
100
AcDbCircle
 10
88.728529747
 20
10.16496413
 30
0.0
 40
0.3625000000000085
100
AcDbArc
 50
2.6541955134
 51
93.1134387481
  0
ARC
  5
103
330
EB
100
AcDbEntity
  8
0
  6
Continuous
 62
   179
370
    18
100
AcDbCircle
 10
89.8647121341
 20
12.455515937
 30
0.0
 40
0.2999999999999984
100
AcDbArc
 50
2.5147526475
 51
93.0418421566
  0
ARC
  5
104
330
EB
100
AcDbEntity
  8
0
  6
Continuous
 62
   179
370
    18
100
AcDbCircle
 10
90.6583795404
 20
13.4384863935
 30
0.0
 40
0.2999999999999911
100
AcDbArc
 50
3.7249371334
 51
92.6995697565
  0
CIRCLE
  5
105
330
EB
100
AcDbEntity
  8
0
  6
Continuous
 62
   179
370
    18
100
AcDbCircle
 10
15.7233972286
 20
6.4054930194
 30
0.0
 40
1.579500000000014
  0
CIRCLE
  5
106
330
EB
100
AcDbEntity
  8
0
  6
Continuous
 62
   179
370
    18
100
AcDbCircle
 10
15.7233972286
 20
6.4054930194
 30
0.0
 40
2.281499999999994
  0
ARC
  5
107
330
EB
100
AcDbEntity
  8
0
  6
Continuous
 62
   179
370
    18
100
AcDbCircle
 10
89.7681336026
 20
2.3106616691
 30
0.0
 40
0.098384530246548
100
AcDbArc
 50
332.3802627259
 51
4.9765441602
  0
ARC
  5
108
330
EB
100
AcDbEntity
  8
0
  6
Continuous
 62
   179
370
    18
100
AcDbCircle
 10
89.6886560089
 20
2.3522464185
 30
0.0
 40
0.1880839130754018
100
AcDbArc
 50
303.690067526
 51
332.3802627258
  0
ARC
  5
109
330
EB
100
AcDbEntity
  8
0
  6
Continuous
 62
   179
370
    18
100
AcDbCircle
 10
89.4849700869
 20
2.6577753016
 30
0.0
 40
0.5552839311631531
100
AcDbArc
 50
287.108652213
 51
303.690067526
  0
ARC
  5
10A
330
EB
100
AcDbEntity
  8
0
  6
Continuous
 62
   179
370
    18
100
AcDbCircle
 10
88.0513010646
 20
7.3154864882
 30
0.0
 40
5.428648309393203
100
AcDbArc
 50
285.2551187031
 51
287.108652213
  0
ARC
  5
10B
330
EB
100
AcDbEntity
  8
0
  6
Continuous
 62
   179
370
    18
100
AcDbCircle
 10
89.1317168954
 20
3.3539617753
 30
0.0
 40
1.322436378825653
100
AcDbArc
 50
281.4991866428
 51
285.255118703
  0
ARC
  5
10C
330
EB
100
AcDbEntity
  8
0
  6
Continuous
 62
   179
370
    18
100
AcDbCircle
 10
89.3198255509
 20
2.4293110075
 30
0.0
 40
0.3788454141584939
100
AcDbArc
 50
279.1917900003
 51
281.499186643
  0
ARC
  5
10D
330
EB
100
AcDbEntity
  8
0
  6
Continuous
 62
   179
370
    18
100
AcDbCircle
 10
89.0487250788
 20
4.1046569124
 30
0.0
 40
2.07598399629105
100
AcDbArc
 50
277.7634675038
 51
279.1917900002
  0
ARC
  5
10E
330
EB
100
AcDbEntity
  8
0
  6
Continuous
 62
   179
370
    18
100
AcDbCircle
 10
9.2588909915
 20
6.4054930194
 30
0.0
 40
1.579500000000074
100
AcDbArc
 50
31.0558004991
 51
330.0
  0
ARC
  5
10F
330
EB
100
AcDbEntity
  8
0
  6
Continuous
 62
   179
370
    18
100
AcDbCircle
 10
9.2588909915
 20
6.4054930194
 30
0.0
 40
2.281500000000107
100
AcDbArc
 50
30.7309172659
 51
330.0
  0
ARC
  5
110
330
EB
100
AcDbEntity
  8
0
  6
Continuous
 62
   179
370
    18
100
AcDbCircle
 10
6.1288847544
 20
4.0685261312
 30
0.0
 40
4.914000000000307
100
AcDbArc
 50
172.3058370354
 51
179.7113029221
  0
ARC
  5
111
330
EB
100
AcDbEntity
  8
0
  6
Continuous
 62
   179
370
    18
100
AcDbCircle
 10
-0.5401152456
 20
4.0685261312
 30
0.0
 40
4.91400000000019
100
AcDbArc
 50
0.2886970779
 51
7.6941629646
  0
ARC
  5
112
330
EB
100
AcDbEntity
  8
0
  6
Continuous
 62
   179
370
    18
100
AcDbCircle
 10
-0.5401152456
 20
4.0685261312
 30
0.0
 40
5.616000000000127
100
AcDbArc
 50
0.2526096926
 51
53.5764263577
  0
ARC
  5
113
330
EB
100
AcDbEntity
  8
0
  6
Continuous
 62
   179
370
    18
100
AcDbCircle
 10
6.1288847544
 20
4.0685261312
 30
0.0
 40
5.61600000000074
100
AcDbArc
 50
126.4235736423
 51
179.7473903073
  0
ARC
  5
114
330
EB
100
AcDbEntity
  8
0
  6
Continuous
 62
   179
370
    18
100
AcDbCircle
 10
-0.5401152456
 20
4.0685261312
 30
0.0
 40
4.914000000000161
100
AcDbArc
 50
16.0658750272
 51
47.2678899574
  0
ARC
  5
115
330
EB
100
AcDbEntity
  8
0
  6
Continuous
 62
   179
370
    18
100
AcDbCircle
 10
6.1288847544
 20
4.0685261312
 30
0.0
 40
4.914000000000584
100
AcDbArc
 50
132.7321100426
 51
163.9341249728
  0
LINE
  5
116
330
EB
100
AcDbEntity
  8
0
  6
Continuous
 62
   179
370
    18
100
AcDbLine
 10
78.8017089389
 20
2.8885802402
 30
0.0
 11
90.7982178739
 21
3.8455002136
 31
0.0
  0
LINE
  5
117
330
EB
100
AcDbEntity
  8
0
  6
Continuous
 62
   179
370
    18
100
AcDbLine
 10
76.6545490427
 20
5.8693097374
 30
0.0
 11
78.0344191726
 21
3.5235305166
 31
0.0
  0
LINE
  5
118
330
EB
100
AcDbEntity
  8
0
  6
Continuous
 62
   179
370
    18
100
AcDbLine
 10
91.5327615373
 20
4.6257342197
 30
0.0
 11
90.9577457715
 21
13.4579763825
 31
0.0
  0
LINE
  5
119
330
EB
100
AcDbEntity
  8
0
  6
Continuous
 62
   179
370
    18
100
AcDbLine
 10
78.6309362756
 20
12.8788539549
 30
0.0
 11
78.8360757629
 21
3.6475770268
 31
0.0
  0
LINE
  5
11A
330
EB
100
AcDbEntity
  8
0
  6
Continuous
 62
   179
370
    18
100
AcDbLine
 10
80.4094186633
 20
4.6950685544
 30
0.0
 11
90.1819221045
 21
5.4824266516
 31
0.0
  0
LINE
  5
11B
330
EB
100
AcDbEntity
  8
0
  6
Continuous
 62
   179
370
    18
100
AcDbLine
 10
79.1595373973
 20
3.3551666867
 30
0.0
 11
91.2569309872
 21
4.3071688694
 31
0.0
  0
LINE
  5
11C
330
EB
100
AcDbEntity
  8
0
  6
Continuous
 62
   179
370
    18
100
AcDbLine
 10
79.2585043218
 20
2.925017226
 30
0.0
 11
80.4858981444
 21
1.533240302
 31
0.0
  0
LINE
  5
11D
330
EB
100
AcDbEntity
  8
0
  6
Continuous
 62
   179
370
    18
100
AcDbLine
 10
78.0344191726
 20
3.5235305166
 30
0.0
 11
78.3638740472
 21
3.1446574108
 31
0.0
  0
LINE
  5
11E
330
EB
100
AcDbEntity
  8
0
  6
Continuous
 62
   179
370
    18
100
AcDbLine
 10
78.3638740472
 20
3.1446574108
 30
0.0
 11
78.4680611395
 21
3.0248422547
 31
0.0
  0
LINE
  5
11F
330
EB
100
AcDbEntity
  8
0
  6
Continuous
 62
   179
370
    18
100
AcDbLine
 10
81.3414110113
 20
1.2002475785
 30
0.0
 11
89.3291569519
 21
2.0477010263
 31
0.0
  0
LINE
  5
120
330
EB
100
AcDbEntity
  8
0
  6
Continuous
 62
   179
370
    18
100
AcDbLine
 10
89.8661472522
 20
2.5197759309
 30
0.0
 11
89.8661472522
 21
2.3090867337
 31
0.0
  0
LINE
  5
121
330
EB
100
AcDbEntity
  8
0
  6
Continuous
 62
   179
370
    18
100
AcDbLine
 10
88.676842368
 20
3.6762854359
 30
0.0
 11
89.6713239345
 21
2.7875997807
 31
0.0
  0
LINE
  5
122
330
EB
100
AcDbEntity
  8
0
  6
Continuous
 62
   179
370
    18
100
AcDbLine
 10
89.6713239345
 20
2.7875997807
 30
0.0
 11
89.7459749087
 21
2.7242700694
 31
0.0
  0
LINE
  5
123
330
EB
100
AcDbEntity
  8
0
  6
Continuous
 62
   179
370
    18
100
AcDbLine
 10
90.7982178739
 20
3.8455002136
 30
0.0
 11
91.3961615969
 21
4.3514525945
 31
0.0
  0
LINE
  5
124
330
EB
100
AcDbEntity
  8
0
  6
Continuous
 62
   179
370
    18
100
AcDbLine
 10
90.6442498554
 20
13.7381534621
 30
0.0
 11
78.1502930503
 21
13.1490474438
 31
0.0
  0
LINE
  5
125
330
EB
100
AcDbEntity
  8
0
  6
Continuous
 62
   179
370
    18
100
AcDbLine
 10
80.1347709981
 20
12.2388892068
 30
0.0
 11
89.8487925667
 21
12.7550932515
 31
0.0
  0
LINE
  5
126
330
EB
100
AcDbEntity
  8
0
  6
Continuous
 62
   179
370
    18
100
AcDbLine
 10
76.4935641943
 20
11.7567556248
 30
0.0
 11
76.6545490427
 21
5.8693097374
 31
0.0
  0
LINE
  5
127
330
EB
100
AcDbEntity
  8
0
  6
Continuous
 62
   179
370
    18
100
AcDbLine
 10
79.8508616208
 20
11.929182536
 30
0.0
 11
80.0854971721
 21
4.9839702153
 31
0.0
  0
LINE
  5
128
330
EB
100
AcDbEntity
  8
0
  6
Continuous
 62
   179
370
    18
100
AcDbLine
 10
80.5293311574
 20
9.7310185051
 30
0.0
 11
80.6057415643
 21
7.4769115
 31
0.0
  0
LINE
  5
129
330
EB
100
AcDbEntity
  8
0
  6
Continuous
 62
   179
370
    18
100
AcDbLine
 10
77.507650604
 20
12.7708420346
 30
0.0
 11
76.4935641943
 21
11.7567556248
 31
0.0
  0
LINE
  5
12A
330
EB
100
AcDbEntity
  8
0
  6
Continuous
 62
   179
370
    18
100
AcDbLine
 10
86.8848195129
 20
11.0661568594
 30
0.0
 11
88.6742167283
 21
11.1634880887
 31
0.0
  0
LINE
  5
12B
330
EB
100
AcDbEntity
  8
0
  6
Continuous
 62
   179
370
    18
100
AcDbLine
 10
87.0766213517
 20
6.9287171941
 30
0.0
 11
88.90708891
 21
7.0695223909
 31
0.0
  0
LINE
  5
12C
330
EB
100
AcDbEntity
  8
0
  6
Continuous
 62
   179
370
    18
100
AcDbLine
 10
87.6830038473
 20
7.6147347768
 30
0.0
 11
88.8536252418
 21
7.7047825764
 31
0.0
  0
LINE
  5
12D
330
EB
100
AcDbEntity
  8
0
  6
Continuous
 62
   179
370
    18
100
AcDbLine
 10
87.5509212094
 20
10.4639459651
 30
0.0
 11
88.7088412777
 21
10.5269290651
 31
0.0
  0
LINE
  5
12E
330
EB
100
AcDbEntity
  8
0
  6
Continuous
 62
   179
370
    18
100
AcDbLine
 10
87.0766218384
 20
6.9287066941
 30
0.0
 11
86.8848195129
 21
11.0661568594
 31
0.0
  0
LINE
  5
12F
330
EB
100
AcDbEntity
  8
0
  6
Continuous
 62
   179
370
    18
100
AcDbLine
 10
83.7004598825
 20
6.6667911093
 30
0.0
 11
84.5054929504
 21
10.9267193262
 31
0.0
  0
LINE
  5
130
330
EB
100
AcDbEntity
  8
0
  6
Continuous
 62
   179
370
    18
100
AcDbLine
 10
85.3543248406
 20
10.9728900984
 30
0.0
 11
86.4940946704
 21
6.8816860929
 31
0.0
  0
LINE
  5
131
330
EB
100
AcDbEntity
  8
0
  6
Continuous
 62
   179
370
    18
100
AcDbLine
 10
84.9728575427
 20
9.9667192298
 30
0.0
 11
85.4540299774
 21
8.2395506903
 31
0.0
  0
LINE
  5
132
330
EB
100
AcDbEntity
  8
0
  6
Continuous
 62
   179
370
    18
100
AcDbLine
 10
84.6363094629
 20
8.1858350416
 30
0.0
 11
84.9728575427
 21
9.9667192298
 31
0.0
  0
LINE
  5
133
330
EB
100
AcDbEntity
  8
0
  6
Continuous
 62
   179
370
    18
100
AcDbLine
 10
87.6830038473
 20
7.6147347768
 30
0.0
 11
87.5509212094
 21
10.4639459651
 31
0.0
  0
LINE
  5
134
330
EB
100
AcDbEntity
  8
0
  6
Continuous
 62
   179
370
    18
100
AcDbLine
 10
84.6363094629
 20
8.1858350416
 30
0.0
 11
85.4540299774
 21
8.2395506903
 31
0.0
  0
LINE
  5
135
330
EB
100
AcDbEntity
  8
0
  6
Continuous
 62
   179
370
    18
100
AcDbLine
 10
84.5140586807
 20
7.5389304886
 30
0.0
 11
85.6288154243
 21
7.6121582976
 31
0.0
  0
LINE
  5
136
330
EB
100
AcDbEntity
  8
0
  6
Continuous
 62
   179
370
    18
100
AcDbLine
 10
84.3588137958
 20
6.717433718
 30
0.0
 11
84.5140586807
 21
7.5389304886
 31
0.0
  0
LINE
  5
137
330
EB
100
AcDbEntity
  8
0
  6
Continuous
 62
   179
370
    18
100
AcDbLine
 10
81.6818640104
 20
6.5137358601
 30
0.0
 11
82.4802416972
 21
6.5751495283
 31
0.0
  0
LINE
  5
138
330
EB
100
AcDbEntity
  8
0
  6
Continuous
 62
   179
370
    18
100
AcDbLine
 10
81.6329699923
 20
7.1493580946
 30
0.0
 11
82.4313476791
 21
7.2107717628
 31
0.0
  0
LINE
  5
139
330
EB
100
AcDbEntity
  8
0
  6
Continuous
 62
   179
370
    18
100
AcDbLine
 10
83.7004598825
 20
6.6667911093
 30
0.0
 11
84.3588137958
 21
6.717433718
 31
0.0
  0
LINE
  5
13A
330
EB
100
AcDbEntity
  8
0
  6
Continuous
 62
   179
370
    18
100
AcDbLine
 10
82.7059483815
 20
9.3512024135
 30
0.0
 11
83.3423973297
 21
9.3930104243
 31
0.0
  0
LINE
  5
13B
330
EB
100
AcDbEntity
  8
0
  6
Continuous
 62
   179
370
    18
100
AcDbLine
 10
82.7491656358
 20
8.0762934118
 30
0.0
 11
83.385614584
 21
8.1181014226
 31
0.0
  0
LINE
  5
13C
330
EB
100
AcDbEntity
  8
0
  6
Continuous
 62
   179
370
    18
100
AcDbLine
 10
81.1664651987
 20
9.7526162692
 30
0.0
 11
81.2428756056
 21
7.4985092641
 31
0.0
  0
LINE
  5
13D
330
EB
100
AcDbEntity
  8
0
  6
Continuous
 62
   179
370
    18
100
AcDbLine
 10
82.6900353128
 20
9.8206379383
 30
0.0
 11
82.7052632884
 21
9.3714126602
 31
0.0
  0
LINE
  5
13E
330
EB
100
AcDbEntity
  8
0
  6
Continuous
 62
   179
370
    18
100
AcDbLine
 10
82.7491656358
 20
8.0762934118
 30
0.0
 11
82.7658371041
 21
7.5844850954
 31
0.0
  0
LINE
  5
13F
330
EB
100
AcDbEntity
  8
0
  6
Continuous
 62
   179
370
    18
100
AcDbLine
 10
83.3271693541
 20
9.8422357024
 30
0.0
 11
83.3423973297
 21
9.3930104243
 31
0.0
  0
LINE
  5
140
330
EB
100
AcDbEntity
  8
0
  6
Continuous
 62
   179
370
    18
100
AcDbLine
 10
83.385614584
 20
8.1181014226
 30
0.0
 11
83.4029711454
 21
7.6060828595
 31
0.0
  0
LINE
  5
141
330
EB
100
AcDbEntity
  8
0
  6
Continuous
 62
   179
370
    18
100
AcDbLine
 10
85.6288154243
 20
7.6121582976
 30
0.0
 11
85.8462022593
 21
6.8318482152
 31
0.0
  0
LINE
  5
142
330
EB
100
AcDbEntity
  8
0
  6
Continuous
 62
   179
370
    18
100
AcDbLine
 10
85.8462022593
 20
6.8318482152
 30
0.0
 11
86.4940946704
 21
6.8816860929
 31
0.0
  0
LINE
  5
143
330
EB
100
AcDbEntity
  8
0
  6
Continuous
 62
   179
370
    18
100
AcDbLine
 10
84.5054929504
 20
10.9267193262
 30
0.0
 11
85.3543248406
 21
10.9728900984
 31
0.0
  0
LINE
  5
144
330
EB
100
AcDbEntity
  8
0
  6
Continuous
 62
   179
370
    18
100
AcDbLine
 10
81.4744440858
 20
10.7634213094
 30
0.0
 11
82.2734303883
 21
10.8068808154
 31
0.0
  0
LINE
  5
145
330
EB
100
AcDbEntity
  8
0
  6
Continuous
 62
   179
370
    18
100
AcDbLine
 10
81.5090686352
 20
10.1268622858
 30
0.0
 11
82.3080549377
 21
10.1703217918
 31
0.0
  0
LINE
  5
146
330
EB
100
AcDbEntity
  8
0
  6
Continuous
 62
   179
370
    18
100
AcDbLine
 10
90.4575406452
 20
5.7946206556
 30
0.0
 11
90.1644232213
 21
12.4686789239
 31
0.0
  0
LINE
  5
147
330
EB
100
AcDbEntity
  8
0
  6
Continuous
 62
   179
370
    18
100
AcDbLine
 10
89.8247499755
 20
8.1125227115
 30
0.0
 11
89.7274569615
 21
10.2112720142
 31
0.0
  0
LINE
  5
148
330
EB
100
AcDbEntity
  8
0
  6
Continuous
 62
   179
370
    18
100
AcDbLine
 10
89.1879338763
 20
8.0830014354
 30
0.0
 11
89.0906408622
 21
10.181750738
 31
0.0
  0
LINE
  5
149
330
EB
100
AcDbEntity
  8
0
  6
Continuous
 62
   179
370
    18
100
AcDbLine
 10
89.7459749087
 20
2.7242700694
 30
0.0
 11
89.7974962577
 21
2.6659765769
 31
0.0
  0
LINE
  5
14A
330
EB
100
AcDbEntity
  8
0
  6
Continuous
 62
   179
370
    18
100
AcDbLine
 10
89.7974962577
 20
2.6659765769
 30
0.0
 11
89.8351851379
 21
2.60192886
 31
0.0
  0
LINE
  5
14B
330
EB
100
AcDbEntity
  8
0
  6
Continuous
 62
   179
370
    18
100
AcDbLine
 10
89.8351851379
 20
2.60192886
 30
0.0
 11
89.8661472522
 21
2.5197759309
 31
0.0
  0
LINE
  5
14C
330
EB
100
AcDbEntity
  8
0
  6
Continuous
 62
   179
370
    18
100
AcDbLine
 10
10.6119938288
 20
7.2203138351
 30
0.0
 11
11.2200151261
 21
7.5713550947
 31
0.0
  0
LINE
  5
14D
330
EB
100
AcDbEntity
  8
0
  6
Continuous
 62
   179
370
    18
100
AcDbLine
 10
11.2347279503
 20
5.2647430194
 30
0.0
 11
10.6267781168
 21
5.6157430194
 31
0.0
  0
LINE
  5
14E
330
EB
100
AcDbEntity
  8
0
  6
Continuous
 62
   179
370
    18
100
AcDbLine
 10
6.4645062371
 20
16.1712617198
 30
0.0
 11
6.4645062371
 21
2.9364593988
 31
0.0
  0
LINE
  5
14F
330
EB
100
AcDbEntity
  8
0
  6
Continuous
 62
   179
370
    18
100
AcDbLine
 10
6.4645062371
 20
2.9364593988
 30
0.0
 11
12.0532757459
 21
2.9364593988
 31
0.0
  0
LINE
  5
150
330
EB
100
AcDbEntity
  8
0
  6
Continuous
 62
   179
370
    18
100
AcDbLine
 10
12.0532757459
 20
2.9364593988
 30
0.0
 11
12.0532757459
 21
16.1712617198
 31
0.0
  0
LINE
  5
151
330
EB
100
AcDbEntity
  8
0
  6
Continuous
 62
   179
370
    18
100
AcDbLine
 10
12.0532757459
 20
16.1712617198
 30
0.0
 11
6.4645062371
 21
16.1712617198
 31
0.0
  0
LINE
  5
152
330
EB
100
AcDbEntity
  8
0
  6
Continuous
 62
   179
370
    18
100
AcDbLine
 10
0.0
 20
16.1712617198
 30
0.0
 11
0.0
 21
2.9364593988
 31
0.0
  0
LINE
  5
153
330
EB
100
AcDbEntity
  8
0
  6
Continuous
 62
   179
370
    18
100
AcDbLine
 10
0.0
 20
2.9364593988
 30
0.0
 11
5.5887695089
 21
2.9364593988
 31
0.0
  0
LINE
  5
154
330
EB
100
AcDbEntity
  8
0
  6
Continuous
 62
   179
370
    18
100
AcDbLine
 10
5.5887695089
 20
2.9364593988
 30
0.0
 11
5.5887695089
 21
16.1712617198
 31
0.0
  0
LINE
  5
155
330
EB
100
AcDbEntity
  8
0
  6
Continuous
 62
   179
370
    18
100
AcDbLine
 10
5.5887695089
 20
16.1712617198
 30
0.0
 11
0.0
 21
16.1712617198
 31
0.0
  0
LINE
  5
156
330
EB
100
AcDbEntity
  8
0
  6
Continuous
 62
   179
370
    18
100
AcDbLine
 10
1.2591262606
 20
4.7264381407
 30
0.0
 11
4.3296432482
 21
4.7264381407
 31
0.0
  0
LINE
  5
157
330
EB
100
AcDbEntity
  8
0
  6
Continuous
 62
   179
370
    18
100
AcDbLine
 10
4.3738223747
 20
4.0932862697
 30
0.0
 11
5.0758301722
 21
4.0932862697
 31
0.0
  0
LINE
  5
158
330
EB
100
AcDbEntity
  8
0
  6
Continuous
 62
   179
370
    18
100
AcDbLine
 10
0.5129393366
 20
4.0932862697
 30
0.0
 11
1.2149471342
 21
4.0932862697
 31
0.0
  0
LINE
  5
159
330
EB
100
AcDbEntity
  8
0
  6
Continuous
 62
   179
370
    18
100
AcDbLine
 10
4.1819643097
 20
5.4284381407
 30
0.0
 11
1.4068051992
 21
5.4284381407
 31
0.0
  0
LINE
  5
15A
330
EB
100
AcDbEntity
  8
0
  6
Continuous
 62
   179
370
    18
100
AcDbLine
 10
18.517781983
 20
16.1712617198
 30
0.0
 11
18.517781983
 21
2.9364593988
 31
0.0
  0
LINE
  5
15B
330
EB
100
AcDbEntity
  8
0
  6
Continuous
 62
   179
370
    18
100
AcDbLine
 10
18.517781983
 20
2.9364593988
 30
0.0
 11
12.9290124742
 21
2.9364593988
 31
0.0
  0
LINE
  5
15C
330
EB
100
AcDbEntity
  8
0
  6
Continuous
 62
   179
370
    18
100
AcDbLine
 10
12.9290124742
 20
2.9364593988
 30
0.0
 11
12.9290124742
 21
16.1712617198
 31
0.0
  0
LINE
  5
15D
330
EB
100
AcDbEntity
  8
0
  6
Continuous
 62
   179
370
    18
100
AcDbLine
 10
12.9290124742
 20
16.1712617198
 30
0.0
 11
18.517781983
 21
16.1712617198
 31
0.0
  0
INSERT
  5
162
330
EB
100
AcDbEntity
  8
0
  6
Continuous
 62
     7
370
     0
100
AcDbBlockReference
  2
SW_NOTE_0_18
 10
1.8998941161
 20
-0.3226565443
 30
0.0
  0
INSERT
  5
167
330
EB
100
AcDbEntity
  8
0
  6
Continuous
 62
     7
370
     0
100
AcDbBlockReference
  2
SW_NOTE_0_19
 10
29.1164837035
 20
12.7459167441
 30
0.0
  0
INSERT
  5
16F
330
EB
100
AcDbEntity
  8
0
  6
Continuous
 62
     7
370
     0
100
AcDbBlockReference
  2
SW_NOTE_0_20
 10
28.8863479825
 20
8.6365742194
 30
0.0
  0
ENDBLK
  5
ED
330
EB
100
AcDbEntity
  8
0
100
AcDbBlockEnd
  0
BLOCK
  5
15F
330
15E
100
AcDbEntity
  8
0
100
AcDbBlockBegin
  2
SW_NOTE_0_18
 70
     0
 10
0.0
 20
0.0
 30
0.0
  3
SW_NOTE_0_18
  1

  0
MTEXT
  5
161
330
15E
100
AcDbEntity
  8
0
  6
Continuous
 62
     0
370
     0
100
AcDbMText
 10
7.46875
 20
2.5781354795
 30
0.0
 40
2.0
 41
0.0
 71
     2
 72
     1
  1
www.aco.ch
  7
SLDTEXTSTYLE0
 73
     1
 44
1.0
  0
ENDBLK
  5
160
330
15E
100
AcDbEntity
  8
0
100
AcDbBlockEnd
  0
BLOCK
  5
164
330
163
100
AcDbEntity
  8
0
100
AcDbBlockBegin
  2
SW_NOTE_0_19
 70
     0
 10
0.0
 20
0.0
 30
0.0
  3
SW_NOTE_0_19
  1

  0
MTEXT
  5
166
330
163
100
AcDbEntity
  8
0
  6
Continuous
 62
     0
370
     0
100
AcDbMText
 10
0.0
 20
3.8672032193
 30
0.0
 40
3.0
 41
0.0
 71
     1
 72
     1
  1
ACO AG
  7
SLDTEXTSTYLE0
 73
     1
 44
1.0
  0
ENDBLK
  5
165
330
163
100
AcDbEntity
  8
0
100
AcDbBlockEnd
  0
BLOCK
  5
169
330
168
100
AcDbEntity
  8
0
100
AcDbBlockBegin
  2
SW_NOTE_0_20
 70
     0
 10
0.0
 20
0.0
 30
0.0
  3
SW_NOTE_0_20
  1

  0
MTEXT
  5
16B
330
168
100
AcDbEntity
  8
0
  6
Continuous
 62
     0
370
     0
100
AcDbMText
 10
0.0
 20
2.5781354795
 30
0.0
 40
2.0
 41
0.0
 71
     1
 72
     1
  1
Industrie Kleinzaun
  7
SLDTEXTSTYLE0
 73
     1
 44
1.0
  0
MTEXT
  5
16C
330
168
100
AcDbEntity
  8
0
  6
Continuous
 62
     0
370
     0
100
AcDbMText
 10
0.0
 20
-0.4218645465
 30
0.0
 40
2.0
 41
0.0
 71
     1
 72
     1
  1
CH-8754 Netstal
  7
SLDTEXTSTYLE0
 73
     1
 44
1.0
  0
MTEXT
  5
16D
330
168
100
AcDbEntity
  8
0
  6
Continuous
 62
     0
370
     0
100
AcDbMText
 10
0.0
 20
-3.4218645726
 30
0.0
 40
2.0
 41
0.0
 71
     1
 72
     1
  1
Tel. 055 / 645 53 00
  7
SLDTEXTSTYLE0
 73
     1
 44
1.0
  0
MTEXT
  5
16E
330
168
100
AcDbEntity
  8
0
  6
Continuous
 62
     0
370
     0
100
AcDbMText
 10
0.0
 20
-6.4218645987
 30
0.0
 40
2.0
 41
0.0
 71
     1
 72
     1
  1
E-Mail: aco@aco.ch
  7
SLDTEXTSTYLE0
 73
     1
 44
1.0
  0
ENDBLK
  5
16A
330
168
100
AcDbEntity
  8
0
100
AcDbBlockEnd
  0
BLOCK
  5
1E9
330
1E8
100
AcDbEntity
  8
0
100
AcDbBlockBegin
  2
SW_NOTE_0_21
 70
     0
 10
0.0
 20
0.0
 30
0.0
  3
SW_NOTE_0_21
  1

  0
MTEXT
  5
1EB
330
1E8
100
AcDbEntity
  8
0
  6
Continuous
 62
     0
370
     0
100
AcDbMText
 10
0.0
 20
1.9336016097
 30
0.0
 40
1.5
 41
0.0
 71
     1
 72
     1
  1
Diese Zeichnung darf weder kopiert
  7
SLDTEXTSTYLE0
 73
     1
 44
1.0
  0
MTEXT
  5
1EC
330
1E8
100
AcDbEntity
  8
0
  6
Continuous
 62
     0
370
     0
100
AcDbMText
 10
0.0
 20
-0.5663983345
 30
0.0
 40
1.5
 41
0.0
 71
     1
 72
     1
  1
noch dritten Personen, insbesondere
  7
SLDTEXTSTYLE0
 73
     1
 44
1.0
  0
MTEXT
  5
1ED
330
1E8
100
AcDbEntity
  8
0
  6
Continuous
 62
     0
370
     0
100
AcDbMText
 10
0.0
 20
-3.0663982786
 30
0.0
 40
1.5
 41
0.0
 71
     1
 72
     1
  1
zum Zweck anderweitiger Benutzung
  7
SLDTEXTSTYLE0
 73
     1
 44
1.0
  0
MTEXT
  5
1EE
330
1E8
100
AcDbEntity
  8
0
  6
Continuous
 62
     0
370
     0
100
AcDbMText
 10
0.0
 20
-5.5663982227
 30
0.0
 40
1.5
 41
0.0
 71
     1
 72
     1
  1
mitgeteilt werden und bleibt unser
  7
SLDTEXTSTYLE0
 73
     1
 44
1.0
  0
MTEXT
  5
1EF
330
1E8
100
AcDbEntity
  8
0
  6
Continuous
 62
     0
370
     0
100
AcDbMText
 10
0.0
 20
-8.0663981668
 30
0.0
 40
1.5
 41
0.0
 71
     1
 72
     1
  1
Eigentum.
  7
SLDTEXTSTYLE0
 73
     1
 44
1.0
  0
ENDBLK
  5
1EA
330
1E8
100
AcDbEntity
  8
0
100
AcDbBlockEnd
  0
BLOCK
  5
33E
330
33D
100
AcDbEntity
  8
0
100
AcDbBlockBegin
  2
_D
 70
     0
 10
0.0
 20
0.0
 30
0.0
  3
_D
  1

  0
SOLID
  5
340
330
33D
100
AcDbEntity
  8
0
  6
Continuous
 62
     7
370
    18
100
AcDbTrace
 10
48.3993426724
 20
83.4262126246
 30
0.0
 11
47.860881134
 21
79.9262126246
 31
0.0
 12
48.9378042109
 22
79.9262126246
 32
0.0
 13
48.9378042109
 23
79.9262126246
 33
0.0
  0
SOLID
  5
341
330
33D
100
AcDbEntity
  8
0
  6
Continuous
 62
     7
370
    18
100
AcDbTrace
 10
48.3993426724
 20
86.4262126246
 30
0.0
 11
48.9378042109
 21
89.9262126246
 31
0.0
 12
47.860881134
 22
89.9262126246
 32
0.0
 13
47.860881134
 23
89.9262126246
 33
0.0
  0
LINE
  5
342
330
33D
100
AcDbEntity
  8
0
  6
Continuous
 62
     7
370
     0
100
AcDbLine
 10
58.2993426724
 20
83.4262126246
 30
0.0
 11
47.3993426724
 21
83.4262126246
 31
0.0
  0
LINE
  5
343
330
33D
100
AcDbEntity
  8
0
  6
Continuous
 62
     7
370
     0
100
AcDbLine
 10
58.2993426724
 20
86.4262126246
 30
0.0
 11
47.3993426724
 21
86.4262126246
 31
0.0
  0
LINE
  5
344
330
33D
100
AcDbEntity
  8
0
  6
Continuous
 62
     7
370
     0
100
AcDbLine
 10
48.3993426724
 20
83.4262126246
 30
0.0
 11
48.3993426724
 21
76.6954433938
 31
0.0
  0
LINE
  5
345
330
33D
100
AcDbEntity
  8
0
  6
Continuous
 62
     7
370
     0
100
AcDbLine
 10
48.3993426724
 20
83.4262126246
 30
0.0
 11
48.3993426724
 21
86.4262126246
 31
0.0
  0
LINE
  5
346
330
33D
100
AcDbEntity
  8
0
  6
Continuous
 62
     7
370
     0
100
AcDbLine
 10
48.3993426724
 20
86.4262126246
 30
0.0
 11
48.3993426724
 21
93.1569818554
 31
0.0
  0
MTEXT
  5
347
330
33D
100
AcDbEntity
  8
0
  6
Continuous
 62
     7
370
    18
100
AcDbMText
 10
43.8876053504
 20
83.5894071021
 30
0.0
 40
3.5
 41
0.0
 71
     1
 72
     1
  1
3
  7
SLDTEXTSTYLE0
 11
6.123233995736766E-17
 21
1.0
 31
0.0
 73
     1
 44
1.0
  0
ENDBLK
  5
33F
330
33D
100
AcDbEntity
  8
0
100
AcDbBlockEnd
  0
BLOCK
  5
34B
330
34A
100
AcDbEntity
  8
0
100
AcDbBlockBegin
  2
_D_1
 70
     0
 10
0.0
 20
0.0
 30
0.0
  3
_D_1
  1

  0
SOLID
  5
34D
330
34A
100
AcDbEntity
  8
0
  6
Continuous
 62
     7
370
    18
100
AcDbTrace
 10
58.3993426724
 20
63.4262126246
 30
0.0
 11
61.8993426724
 21
62.8877510861
 31
0.0
 12
61.8993426724
 22
63.964674163
 32
0.0
 13
61.8993426724
 23
63.964674163
 33
0.0
  0
SOLID
  5
34E
330
34A
100
AcDbEntity
  8
0
  6
Continuous
 62
     7
370
    18
100
AcDbTrace
 10
197.3993426724
 20
63.4262126246
 30
0.0
 11
193.8993426724
 21
63.964674163
 31
0.0
 12
193.8993426724
 22
62.8877510861
 32
0.0
 13
193.8993426724
 23
62.8877510861
 33
0.0
  0
LINE
  5
34F
330
34A
100
AcDbEntity
  8
0
  6
Continuous
 62
     7
370
     0
100
AcDbLine
 10
58.3993426724
 20
83.3262126246
 30
0.0
 11
58.3993426724
 21
62.4262126246
 31
0.0
  0
LINE
  5
350
330
34A
100
AcDbEntity
  8
0
  6
Continuous
 62
     7
370
     0
100
AcDbLine
 10
197.3993426724
 20
83.3262126246
 30
0.0
 11
197.3993426724
 21
62.4262126246
 31
0.0
  0
LINE
  5
351
330
34A
100
AcDbEntity
  8
0
  6
Continuous
 62
     7
370
     0
100
AcDbLine
 10
58.3993426724
 20
63.4262126246
 30
0.0
 11
197.3993426724
 21
63.4262126246
 31
0.0
  0
MTEXT
  5
352
330
34A
100
AcDbEntity
  8
0
  6
Continuous
 62
     7
370
    18
100
AcDbMText
 10
121.3374505653
 20
67.9379497138
 30
0.0
 40
3.5
 41
0.0
 71
     1
 72
     1
  1
%%c
  7
SLDTEXTSTYLE0
 73
     1
 44
1.0
  0
MTEXT
  5
353
330
34A
100
AcDbEntity
  8
0
  6
Continuous
 62
     7
370
    18
100
AcDbMText
 10
126.4404021106
 20
67.947672023
 30
0.0
 40
3.5
 41
0.0
 71
     1
 72
     1
  1
139
  7
SLDTEXTSTYLE0
 73
     1
 44
1.0
  0
ENDBLK
  5
34C
330
34A
100
AcDbEntity
  8
0
100
AcDbBlockEnd
  0
BLOCK
  5
356
330
355
100
AcDbEntity
  8
0
100
AcDbBlockBegin
  2
_D_2
 70
     0
 10
0.0
 20
0.0
 30
0.0
  3
_D_2
  1

  0
SOLID
  5
358
330
355
100
AcDbEntity
  8
0
  6
Continuous
 62
     7
370
    18
100
AcDbTrace
 10
72.3993426724
 20
73.4262126246
 30
0.0
 11
75.8993426724
 21
72.8877510861
 31
0.0
 12
75.8993426724
 22
73.964674163
 32
0.0
 13
75.8993426724
 23
73.964674163
 33
0.0
  0
SOLID
  5
359
330
355
100
AcDbEntity
  8
0
  6
Continuous
 62
     7
370
    18
100
AcDbTrace
 10
183.3993426724
 20
73.4262126246
 30
0.0
 11
179.8993426724
 21
73.964674163
 31
0.0
 12
179.8993426724
 22
72.8877510861
 32
0.0
 13
179.8993426724
 23
72.8877510861
 33
0.0
  0
LINE
  5
35A
330
355
100
AcDbEntity
  8
0
  6
Continuous
 62
     7
370
     0
100
AcDbLine
 10
72.3993426724
 20
83.3262126246
 30
0.0
 11
72.3993426724
 21
72.4262126246
 31
0.0
  0
LINE
  5
35B
330
355
100
AcDbEntity
  8
0
  6
Continuous
 62
     7
370
     0
100
AcDbLine
 10
183.3993426724
 20
83.3262126246
 30
0.0
 11
183.3993426724
 21
72.4262126246
 31
0.0
  0
LINE
  5
35C
330
355
100
AcDbEntity
  8
0
  6
Continuous
 62
     7
370
     0
100
AcDbLine
 10
72.3993426724
 20
73.4262126246
 30
0.0
 11
183.3993426724
 21
73.4262126246
 31
0.0
  0
MTEXT
  5
35D
330
355
100
AcDbEntity
  8
0
  6
Continuous
 62
     7
370
    18
100
AcDbMText
 10
121.3374505653
 20
77.9379497138
 30
0.0
 40
3.5
 41
0.0
 71
     1
 72
     1
  1
%%c
  7
SLDTEXTSTYLE0
 73
     1
 44
1.0
  0
MTEXT
  5
35E
330
355
100
AcDbEntity
  8
0
  6
Continuous
 62
     7
370
    18
100
AcDbMText
 10
126.4404021106
 20
77.947672023
 30
0.0
 40
3.5
 41
0.0
 71
     1
 72
     1
  1
111
  7
SLDTEXTSTYLE0
 73
     1
 44
1.0
  0
ENDBLK
  5
357
330
355
100
AcDbEntity
  8
0
100
AcDbBlockEnd
  0
ENDSEC
  0
SECTION
  2
ENTITIES
  0
LINE
  5
170
330
1F
100
AcDbEntity
  8
0
  6
CENTERX2
 62
     7
370
    18
100
AcDbLine
 10
352.6174545849
 20
46.9080238789
 30
0.0
 11
352.6174545849
 21
39.4621586124
 31
0.0
  0
LINE
  5
171
330
1F
100
AcDbEntity
  8
0
  6
Continuous
 62
     7
370
    18
100
AcDbLine
 10
357.7661698132
 20
46.3720107039
 30
0.0
 11
357.7661698132
 21
39.9353173413
 31
0.0
  0
LINE
  5
172
330
1F
100
AcDbEntity
  8
0
  6
Continuous
 62
     7
370
    18
100
AcDbLine
 10
364.6059427486
 20
44.7376225767
 30
0.0
 11
364.6059427486
 21
41.5697054685
 31
0.0
  0
LINE
  5
173
330
1F
100
AcDbEntity
  8
0
  6
Continuous
 62
     7
370
    18
100
AcDbLine
 10
364.6059427486
 20
44.7376225767
 30
0.0
 11
357.7661698132
 21
46.3720107039
 31
0.0
  0
LINE
  5
174
330
1F
100
AcDbEntity
  8
0
  6
Continuous
 62
     7
370
    18
100
AcDbLine
 10
15.0
 20
198.5
 30
0.0
 11
20.0
 21
198.5
 31
0.0
  0
LINE
  5
175
330
1F
100
AcDbEntity
  8
0
  6
Continuous
 62
     7
370
    18
100
AcDbLine
 10
12.0
 20
148.5
 30
0.0
 11
0.0
 21
148.5
 31
0.0
  0
LINE
  5
176
330
1F
100
AcDbEntity
  8
0
  6
Continuous
 62
     7
370
    18
100
AcDbLine
 10
357.7661698132
 20
39.9353173413
 30
0.0
 11
364.6059427486
 21
41.5697054685
 31
0.0
  0
LINE
  5
177
330
1F
100
AcDbEntity
  8
0
  6
CENTERX2
 62
     7
370
    18
100
AcDbLine
 10
348.6240467841
 20
43.1536640226
 30
0.0
 11
356.6108623857
 21
43.1536640226
 31
0.0
  0
LINE
  5
178
330
1F
100
AcDbEntity
  8
0
  6
CENTERX2
 62
     7
370
    18
100
AcDbLine
 10
357.1289238876
 20
43.1536640226
 30
0.0
 11
365.6255362296
 21
43.1536640226
 31
0.0
  0
LINE
  5
179
330
1F
100
AcDbEntity
  8
0
  6
Continuous
 62
     7
370
    18
100
AcDbLine
 10
0.0
 20
0.0
 30
0.0
 11
420.0
 21
0.0
 31
0.0
  0
LINE
  5
17A
330
1F
100
AcDbEntity
  8
0
  6
Continuous
 62
     7
370
    18
100
AcDbLine
 10
0.0
 20
0.0
 30
0.0
 11
0.0
 21
297.0
 31
0.0
  0
LINE
  5
17B
330
1F
100
AcDbEntity
  8
0
  6
Continuous
 62
     7
370
    18
100
AcDbLine
 10
0.0
 20
297.0
 30
0.0
 11
420.0
 21
297.0
 31
0.0
  0
LINE
  5
17C
330
1F
100
AcDbEntity
  8
0
  6
Continuous
 62
     7
370
    18
100
AcDbLine
 10
420.0
 20
0.0
 30
0.0
 11
420.0
 21
297.0
 31
0.0
  0
LINE
  5
17D
330
1F
100
AcDbEntity
  8
0
  6
Continuous
 62
     7
370
    25
100
AcDbLine
 10
228.0
 20
35.0
 30
0.0
 11
410.0
 21
35.0
 31
0.0
  0
LINE
  5
17E
330
1F
100
AcDbEntity
  8
0
  6
Continuous
 62
     7
370
    18
100
AcDbLine
 10
410.0
 20
198.5
 30
0.0
 11
415.0
 21
198.5
 31
0.0
  0
LINE
  5
17F
330
1F
100
AcDbEntity
  8
0
  6
Continuous
 62
     7
370
    18
100
AcDbLine
 10
15.0
 20
148.5
 30
0.0
 11
20.0
 21
148.5
 31
0.0
  0
LINE
  5
180
330
1F
100
AcDbEntity
  8
0
  6
Continuous
 62
     7
370
    18
100
AcDbLine
 10
228.0
 20
40.0
 30
0.0
 11
296.6
 21
40.0
 31
0.0
  0
LINE
  5
181
330
1F
100
AcDbEntity
  8
0
  6
Continuous
 62
     7
370
    18
100
AcDbLine
 10
15.0
 20
248.5
 30
0.0
 11
20.0
 21
248.5
 31
0.0
  0
LINE
  5
182
330
1F
100
AcDbEntity
  8
0
  6
Continuous
 62
     7
370
    35
100
AcDbLine
 10
20.0
 20
287.0
 30
0.0
 11
20.0
 21
10.0
 31
0.0
  0
LINE
  5
183
330
1F
100
AcDbEntity
  8
0
  6
Continuous
 62
     7
370
    35
100
AcDbLine
 10
410.0
 20
287.0
 30
0.0
 11
20.0
 21
287.0
 31
0.0
  0
LINE
  5
184
330
1F
100
AcDbEntity
  8
0
  6
Continuous
 62
     7
370
    35
100
AcDbLine
 10
410.0
 20
5.0
 30
0.0
 11
410.0
 21
287.0
 31
0.0
  0
LINE
  5
185
330
1F
100
AcDbEntity
  8
0
  6
Continuous
 62
     7
370
    35
100
AcDbLine
 10
20.0
 20
10.0
 30
0.0
 11
415.0
 21
10.0
 31
0.0
  0
LINE
  5
186
330
1F
100
AcDbEntity
  8
0
  6
Continuous
 62
     7
370
    18
100
AcDbLine
 10
410.0
 20
148.5
 30
0.0
 11
415.0
 21
148.5
 31
0.0
  0
LINE
  5
187
330
1F
100
AcDbEntity
  8
0
  6
Continuous
 62
     7
370
    18
100
AcDbLine
 10
228.0
 20
50.0
 30
0.0
 11
296.6
 21
50.0
 31
0.0
  0
LINE
  5
188
330
1F
100
AcDbEntity
  8
0
  6
Continuous
 62
     7
370
    18
100
AcDbLine
 10
15.0
 20
98.5
 30
0.0
 11
20.0
 21
98.5
 31
0.0
  0
LINE
  5
189
330
1F
100
AcDbEntity
  8
0
  6
Continuous
 62
     7
370
    18
100
AcDbLine
 10
296.6
 20
45.0
 30
0.0
 11
228.0
 21
45.0
 31
0.0
  0
LINE
  5
18A
330
1F
100
AcDbEntity
  8
0
  6
Continuous
 62
     7
370
    18
100
AcDbLine
 10
65.0
 20
292.0
 30
0.0
 11
65.0
 21
287.0
 31
0.0
  0
LINE
  5
18B
330
1F
100
AcDbEntity
  8
0
  6
Continuous
 62
     7
370
    18
100
AcDbLine
 10
230.0
 20
292.0
 30
0.0
 11
230.0
 21
297.0
 31
0.0
  0
LINE
  5
18C
330
1F
100
AcDbEntity
  8
0
  6
Continuous
 62
     7
370
    25
100
AcDbLine
 10
296.6
 20
55.0
 30
0.0
 11
296.6
 21
35.0
 31
0.0
  0
LINE
  5
18D
330
1F
100
AcDbEntity
  8
0
  6
Continuous
 62
     7
370
    18
100
AcDbLine
 10
410.0
 20
98.5
 30
0.0
 11
415.0
 21
98.5
 31
0.0
  0
LINE
  5
18E
330
1F
100
AcDbEntity
  8
0
100
AcDbLine
 10
230.0
 20
5.0
 30
0.0
 11
230.0
 21
0.0
 31
0.0
  0
LINE
  5
18F
330
1F
100
AcDbEntity
  8
0
  6
Continuous
 62
     7
370
    18
100
AcDbLine
 10
125.0
 20
292.0
 30
0.0
 11
125.0
 21
297.0
 31
0.0
  0
LINE
  5
190
330
1F
100
AcDbEntity
  8
0
  6
Continuous
 62
     7
370
    18
100
AcDbLine
 10
125.0
 20
5.0
 30
0.0
 11
125.0
 21
0.0
 31
0.0
  0
LINE
  5
191
330
1F
100
AcDbEntity
  8
0
  6
Continuous
 62
     7
370
    25
100
AcDbLine
 10
410.0
 20
55.0
 30
0.0
 11
228.0
 21
55.0
 31
0.0
  0
LINE
  5
192
330
1F
100
AcDbEntity
  8
0
  6
Continuous
 62
     7
370
    18
100
AcDbLine
 10
228.0
 20
55.0
 30
0.0
 11
410.0
 21
55.0
 31
0.0
  0
LINE
  5
193
330
1F
100
AcDbEntity
  8
0
  6
Continuous
 62
     7
370
    18
100
AcDbLine
 10
410.0
 20
55.0
 30
0.0
 11
228.0
 21
55.0
 31
0.0
  0
LINE
  5
194
330
1F
100
AcDbEntity
  8
0
  6
Continuous
 62
     7
370
    18
100
AcDbLine
 10
268.0
 20
76.5
 30
0.0
 11
268.0
 21
55.0
 31
0.0
  0
LINE
  5
195
330
1F
100
AcDbEntity
  8
0
  6
Continuous
 62
     7
370
    18
100
AcDbLine
 10
271.6
 20
55.0
 30
0.0
 11
271.6
 21
40.0
 31
0.0
  0
LINE
  5
196
330
1F
100
AcDbEntity
  8
0
  6
Continuous
 62
     7
370
    18
100
AcDbLine
 10
247.0
 20
55.0
 30
0.0
 11
247.0
 21
35.0
 31
0.0
  0
LINE
  5
197
330
1F
100
AcDbEntity
  8
0
  6
Continuous
 62
     7
370
    35
100
AcDbLine
 10
228.0
 20
76.5
 30
0.0
 11
228.0
 21
10.0
 31
0.0
  0
LINE
  5
198
330
1F
100
AcDbEntity
  8
0
  6
Continuous
 62
     7
370
    18
100
AcDbLine
 10
15.0
 20
292.0
 30
0.0
 11
415.0
 21
292.0
 31
0.0
  0
LINE
  5
199
330
1F
100
AcDbEntity
  8
0
  6
Continuous
 62
     7
370
    18
100
AcDbLine
 10
228.0
 20
65.75
 30
0.0
 11
310.0
 21
65.75
 31
0.0
  0
LINE
  5
19A
330
1F
100
AcDbEntity
  8
0
  6
Continuous
 62
     7
370
    35
100
AcDbLine
 10
228.0
 20
76.5
 30
0.0
 11
410.0
 21
76.5
 31
0.0
  0
LINE
  5
19B
330
1F
100
AcDbEntity
  8
0
  6
Continuous
 62
     7
370
    18
100
AcDbLine
 10
15.0
 20
48.5
 30
0.0
 11
20.0
 21
48.5
 31
0.0
  0
LINE
  5
19C
330
1F
100
AcDbEntity
  8
0
  6
Continuous
 62
     7
370
    18
100
AcDbLine
 10
410.0
 20
48.5
 30
0.0
 11
415.0
 21
48.5
 31
0.0
  0
LINE
  5
19D
330
1F
100
AcDbEntity
  8
0
  6
Continuous
 62
     7
370
    18
100
AcDbLine
 10
332.6610845472
 20
20.0
 30
0.0
 11
332.6610845472
 21
10.0
 31
0.0
  0
LINE
  5
19E
330
1F
100
AcDbEntity
  8
0
  6
Continuous
 62
     7
370
    18
100
AcDbLine
 10
410.0
 20
248.5
 30
0.0
 11
415.0
 21
248.5
 31
0.0
  0
LINE
  5
19F
330
1F
100
AcDbEntity
  8
0
  6
Continuous
 62
     7
370
    18
100
AcDbLine
 10
65.0
 20
10.0
 30
0.0
 11
65.0
 21
5.0
 31
0.0
  0
LINE
  5
1A0
330
1F
100
AcDbEntity
  8
0
  6
Continuous
 62
     7
370
    18
100
AcDbLine
 10
115.0
 20
10.0
 30
0.0
 11
115.0
 21
5.0
 31
0.0
  0
LINE
  5
1A1
330
1F
100
AcDbEntity
  8
0
  6
Continuous
 62
     7
370
    18
100
AcDbLine
 10
115.0
 20
292.0
 30
0.0
 11
115.0
 21
287.0
 31
0.0
  0
LINE
  5
1A2
330
1F
100
AcDbEntity
  8
0
  6
Continuous
 62
     7
370
    18
100
AcDbLine
 10
165.0
 20
10.0
 30
0.0
 11
165.0
 21
5.0
 31
0.0
  0
LINE
  5
1A3
330
1F
100
AcDbEntity
  8
0
  6
Continuous
 62
     7
370
    18
100
AcDbLine
 10
165.0
 20
292.0
 30
0.0
 11
165.0
 21
287.0
 31
0.0
  0
LINE
  5
1A4
330
1F
100
AcDbEntity
  8
0
  6
Continuous
 62
     7
370
    18
100
AcDbLine
 10
215.0
 20
10.0
 30
0.0
 11
215.0
 21
5.0
 31
0.0
  0
LINE
  5
1A5
330
1F
100
AcDbEntity
  8
0
  6
Continuous
 62
     7
370
    18
100
AcDbLine
 10
215.0
 20
292.0
 30
0.0
 11
215.0
 21
287.0
 31
0.0
  0
LINE
  5
1A6
330
1F
100
AcDbEntity
  8
0
  6
Continuous
 62
     7
370
    18
100
AcDbLine
 10
265.0
 20
10.0
 30
0.0
 11
265.0
 21
5.0
 31
0.0
  0
LINE
  5
1A7
330
1F
100
AcDbEntity
  8
0
  6
Continuous
 62
     7
370
    18
100
AcDbLine
 10
265.0
 20
292.0
 30
0.0
 11
265.0
 21
287.0
 31
0.0
  0
LINE
  5
1A8
330
1F
100
AcDbEntity
  8
0
  6
Continuous
 62
     7
370
    18
100
AcDbLine
 10
347.6610845472
 20
20.0
 30
0.0
 11
347.6610845472
 21
10.0
 31
0.0
  0
LINE
  5
1A9
330
1F
100
AcDbEntity
  8
0
  6
Continuous
 62
     7
370
    18
100
AcDbLine
 10
362.6610845472
 20
20.0
 30
0.0
 11
362.6610845472
 21
10.0
 31
0.0
  0
LINE
  5
1AA
330
1F
100
AcDbEntity
  8
0
  6
Continuous
 62
     7
370
    25
100
AcDbLine
 10
327.6610845472
 20
10.0
 30
0.0
 11
327.6610845472
 21
55.0
 31
0.0
  0
LINE
  5
1AB
330
1F
100
AcDbEntity
  8
0
  6
Continuous
 62
     7
370
    18
100
AcDbLine
 10
20.0
 20
292.0
 30
0.0
 11
20.0
 21
297.0
 31
0.0
  0
LINE
  5
1AC
330
1F
100
AcDbEntity
  8
0
  6
Continuous
 62
     7
370
    18
100
AcDbLine
 10
20.0
 20
5.0
 30
0.0
 11
20.0
 21
0.0
 31
0.0
  0
LINE
  5
1AD
330
1F
100
AcDbEntity
  8
0
  6
Continuous
 62
     7
370
    18
100
AcDbLine
 10
315.0
 20
10.0
 30
0.0
 11
315.0
 21
5.0
 31
0.0
  0
LINE
  5
1AE
330
1F
100
AcDbEntity
  8
0
  6
Continuous
 62
     7
370
    18
100
AcDbLine
 10
315.0
 20
292.0
 30
0.0
 11
315.0
 21
287.0
 31
0.0
  0
LINE
  5
1AF
330
1F
100
AcDbEntity
  8
0
  6
Continuous
 62
     7
370
    18
100
AcDbLine
 10
365.0
 20
10.0
 30
0.0
 11
365.0
 21
5.0
 31
0.0
  0
LINE
  5
1B0
330
1F
100
AcDbEntity
  8
0
  6
Continuous
 62
     7
370
    18
100
AcDbLine
 10
365.0
 20
292.0
 30
0.0
 11
365.0
 21
287.0
 31
0.0
  0
LINE
  5
1B1
330
1F
100
AcDbEntity
  8
0
  6
Continuous
 62
     7
370
    18
100
AcDbLine
 10
15.0
 20
292.0
 30
0.0
 11
15.0
 21
5.0
 31
0.0
  0
LINE
  5
1B2
330
1F
100
AcDbEntity
  8
0
  6
Continuous
 62
     7
370
    18
100
AcDbLine
 10
15.0
 20
5.0
 30
0.0
 11
415.0
 21
5.0
 31
0.0
  0
LINE
  5
1B3
330
1F
100
AcDbEntity
  8
0
  6
Continuous
 62
     7
370
    18
100
AcDbLine
 10
415.0
 20
292.0
 30
0.0
 11
415.0
 21
5.0
 31
0.0
  0
LINE
  5
1B4
330
1F
100
AcDbEntity
  8
0
  6
Continuous
 62
     7
370
    18
100
AcDbLine
 10
347.6610845472
 20
44.213444
 30
0.0
 11
327.6610845472
 21
44.213444
 31
0.0
  0
LINE
  5
1B5
330
1F
100
AcDbEntity
  8
0
  6
Continuous
 62
     7
370
    18
100
AcDbLine
 10
347.6610845472
 20
35.0
 30
0.0
 11
347.6610845472
 21
55.0
 31
0.0
  0
LINE
  5
1B6
330
1F
100
AcDbEntity
  8
0
  6
Continuous
 62
     7
370
    18
100
AcDbLine
 10
370.057188
 20
55.012032
 30
0.0
 11
370.057188
 21
35.0
 31
0.0
  0
LINE
  5
1B7
330
1F
100
AcDbEntity
  8
0
  6
Continuous
 62
     7
370
    18
100
AcDbLine
 10
398.0
 20
35.0
 30
0.0
 11
398.0
 21
20.0
 31
0.0
  0
LINE
  5
1B8
330
1F
100
AcDbEntity
  8
0
  6
Continuous
 62
     7
370
    18
100
AcDbLine
 10
410.0
 20
15.0
 30
0.0
 11
327.6610845472
 21
15.0
 31
0.0
  0
LINE
  5
1B9
330
1F
100
AcDbEntity
  8
0
  6
Continuous
 62
     7
370
    18
100
AcDbLine
 10
327.6610845472
 20
20.0
 30
0.0
 11
410.0
 21
20.0
 31
0.0
  0
LINE
  5
1BA
330
1F
100
AcDbEntity
  8
0
  6
Continuous
 62
     7
370
    18
100
AcDbLine
 10
341.485486
 20
20.0
 30
0.0
 11
341.485486
 21
27.564675
 31
0.0
  0
LINE
  5
1BB
330
1F
100
AcDbEntity
  8
0
  6
Continuous
 62
     7
370
    25
100
AcDbLine
 10
310.0
 20
76.5
 30
0.0
 11
310.0
 21
55.0
 31
0.0
  0
CIRCLE
  5
1BC
330
1F
100
AcDbEntity
  8
0
  6
Continuous
 62
     7
370
    18
100
AcDbCircle
 10
11.0
 20
108.5
 30
0.0
 40
2.750000000000001
  0
CIRCLE
  5
1BD
330
1F
100
AcDbEntity
  8
0
  6
Continuous
 62
     7
370
    18
100
AcDbCircle
 10
11.0
 20
188.5
 30
0.0
 40
2.750000000000001
  0
CIRCLE
  5
1BE
330
1F
100
AcDbEntity
  8
0
  6
Continuous
 62
     7
370
    18
100
AcDbCircle
 10
352.6174545849
 20
43.1536640226
 30
0.0
 40
3.218346681300138
  0
CIRCLE
  5
1BF
330
1F
100
AcDbEntity
  8
0
  6
Continuous
 62
     7
370
    18
100
AcDbCircle
 10
352.6174545849
 20
43.1536640226
 30
0.0
 40
1.583958554121555
  0
INSERT
  5
1C0
330
1F
100
AcDbEntity
  8
0
  6
Continuous
 62
     7
100
AcDbBlockReference
  2
Allg-Toleranz-mittel
 10
20.0
 20
10.0
 30
0.0
  0
INSERT
  5
1C1
330
1F
100
AcDbEntity
  8
0
  6
Continuous
 62
     7
100
AcDbBlockReference
  2
ACO-Logo
 10
314.3510726297
 20
57.6366106772
 30
0.0
  0
POINT
  5
1C2
330
1F
100
AcDbEntity
  8
0
100
AcDbPoint
 10
0.0
 20
0.0
 30
0.0
  0
POINT
  5
1C3
330
1F
100
AcDbEntity
  8
0
100
AcDbPoint
 10
410.0
 20
10.0
 30
0.0
  0
MTEXT
  5
1C4
330
1F
100
AcDbEntity
  8
0
  6
Continuous
 62
     7
370
    18
100
AcDbMText
 10
17.7359443114
 20
124.8017866468
 30
0.0
 40
2.0
 41
0.0
 71
     2
 72
     1
  1
D
  7
SLDTEXTSTYLE0
 73
     1
 44
1.0
  0
MTEXT
  5
1C5
330
1F
100
AcDbEntity
  8
0
  6
Continuous
 62
     7
370
    18
100
AcDbMText
 10
17.6274822413
 20
174.7261854936
 30
0.0
 40
2.0
 41
0.0
 71
     2
 72
     1
  1
C
  7
SLDTEXTSTYLE0
 73
     1
 44
1.0
  0
MTEXT
  5
1C6
330
1F
100
AcDbEntity
  8
0
  6
Continuous
 62
     7
370
    18
100
AcDbMText
 10
17.5516905072
 20
224.4926420442
 30
0.0
 40
2.0
 41
0.0
 71
     2
 72
     1
  1
B
  7
SLDTEXTSTYLE0
 73
     1
 44
1.0
  0
MTEXT
  5
1C7
330
1F
100
AcDbEntity
  8
0
  6
Continuous
 62
     7
370
    18
100
AcDbMText
 10
290.0344258799
 20
290.5428789914
 30
0.0
 40
2.0
 41
0.0
 71
     2
 72
     1
  1
6
  7
SLDTEXTSTYLE0
 73
     1
 44
1.0
  0
MTEXT
  5
1C8
330
1F
100
AcDbEntity
  8
0
  6
Continuous
 62
     7
370
    18
100
AcDbMText
 10
240.0417859812
 20
290.6369260235
 30
0.0
 40
2.0
 41
0.0
 71
     2
 72
     1
  1
5
  7
SLDTEXTSTYLE0
 73
     1
 44
1.0
  0
MTEXT
  5
1C9
330
1F
100
AcDbEntity
  8
0
  6
Continuous
 62
     7
370
    18
100
AcDbMText
 10
190.0300404524
 20
290.6343268032
 30
0.0
 40
2.0
 41
0.0
 71
     2
 72
     1
  1
4
  7
SLDTEXTSTYLE0
 73
     1
 44
1.0
  0
MTEXT
  5
1CA
330
1F
100
AcDbEntity
  8
0
  6
Continuous
 62
     7
370
    18
100
AcDbMText
 10
140.0165868337
 20
290.6378887952
 30
0.0
 40
2.0
 41
0.0
 71
     2
 72
     1
  1
3
  7
SLDTEXTSTYLE0
 73
     1
 44
1.0
  0
MTEXT
  5
1CB
330
1F
100
AcDbEntity
  8
0
  6
Continuous
 62
     7
370
    18
100
AcDbMText
 10
90.033223
 20
290.5566702875
 30
0.0
 40
2.0
 41
0.0
 71
     2
 72
     1
  1
2
  7
SLDTEXTSTYLE0
 73
     1
 44
1.0
  0
MTEXT
  5
1CC
330
1F
100
AcDbEntity
  8
0
  6
Continuous
 62
     7
370
    18
100
AcDbMText
 10
40.0509551097
 20
290.5530165805
 30
0.0
 40
2.0
 41
0.0
 71
     2
 72
     1
  1
1
  7
SLDTEXTSTYLE0
 73
     1
 44
1.0
  0
MTEXT
  5
1CD
330
1F
100
AcDbEntity
  8
0
  6
Continuous
 62
     7
370
    18
100
AcDbMText
 10
17.5609786315
 20
271.2966048816
 30
0.0
 40
2.0
 41
0.0
 71
     2
 72
     1
  1
A
  7
SLDTEXTSTYLE0
 73
     1
 44
1.0
  0
MTEXT
  5
1CE
330
1F
100
AcDbEntity
  8
0
  6
Continuous
 62
     7
370
    18
100
AcDbMText
 10
89.9333968896
 20
8.5904490253
 30
0.0
 40
2.0
 41
0.0
 71
     2
 72
     1
  1
2
  7
SLDTEXTSTYLE0
 73
     1
 44
1.0
  0
MTEXT
  5
1CF
330
1F
100
AcDbEntity
  8
0
  6
Continuous
 62
     7
370
    18
100
AcDbMText
 10
39.9009486579
 20
8.6623118453
 30
0.0
 40
2.0
 41
0.0
 71
     2
 72
     1
  1
1
  7
SLDTEXTSTYLE0
 73
     1
 44
1.0
  0
MTEXT
  5
1D0
330
1F
100
AcDbEntity
  8
0
  6
Continuous
 62
     7
370
    18
100
AcDbMText
 10
190.0227230239
 20
8.7073169286
 30
0.0
 40
2.0
 41
0.0
 71
     2
 72
     1
  1
4
  7
SLDTEXTSTYLE0
 73
     1
 44
1.0
  0
MTEXT
  5
1D1
330
1F
100
AcDbEntity
  8
0
  6
Continuous
 62
     7
370
    18
100
AcDbMText
 10
140.0453427777
 20
8.5647154541
 30
0.0
 40
2.0
 41
0.0
 71
     2
 72
     1
  1
3
  7
SLDTEXTSTYLE0
 73
     1
 44
1.0
  0
MTEXT
  5
1D2
330
1F
100
AcDbEntity
  8
0
  6
Continuous
 62
     7
370
    18
100
AcDbMText
 10
239.8749782531
 20
8.5637526825
 30
0.0
 40
2.0
 41
0.0
 71
     2
 72
     1
  1
5
  7
SLDTEXTSTYLE0
 73
     1
 44
1.0
  0
MTEXT
  5
1D3
330
1F
100
AcDbEntity
  8
0
  6
Continuous
 62
     7
370
    18
100
AcDbMText
 10
412.6717254925
 20
224.51208263
 30
0.0
 40
2.0
 41
0.0
 71
     2
 72
     1
  1
B
  7
SLDTEXTSTYLE0
 73
     1
 44
1.0
  0
MTEXT
  5
1D4
330
1F
100
AcDbEntity
  8
0
  6
Continuous
 62
     7
370
    18
100
AcDbMText
 10
412.5951211154
 20
271.2798202564
 30
0.0
 40
2.0
 41
0.0
 71
     2
 72
     1
  1
A
  7
SLDTEXTSTYLE0
 73
     1
 44
1.0
  0
MTEXT
  5
1D5
330
1F
100
AcDbEntity
  8
0
  6
Continuous
 62
     7
370
    18
100
AcDbMText
 10
412.6491448679
 20
174.7279841048
 30
0.0
 40
2.0
 41
0.0
 71
     2
 72
     1
  1
C
  7
SLDTEXTSTYLE0
 73
     1
 44
1.0
  0
MTEXT
  5
1D6
330
1F
100
AcDbEntity
  8
0
  6
Continuous
 62
     7
370
    18
100
AcDbMText
 10
340.0216466634
 20
290.5954278102
 30
0.0
 40
2.0
 41
0.0
 71
     2
 72
     1
  1
7
  7
SLDTEXTSTYLE0
 73
     1
 44
1.0
  0
MTEXT
  5
1D7
330
1F
100
AcDbEntity
  8
0
  6
Continuous
 62
     7
370
    18
100
AcDbMText
 10
390.037657264
 20
290.6215496941
 30
0.0
 40
2.0
 41
0.0
 71
     2
 72
     1
  1
8
  7
SLDTEXTSTYLE0
 73
     1
 44
1.0
  0
MTEXT
  5
1D8
330
1F
100
AcDbEntity
  8
0
  6
Continuous
 62
     7
370
    18
100
AcDbMText
 10
17.6897935208
 20
74.7267628143
 30
0.0
 40
2.0
 41
0.0
 71
     2
 72
     1
  1
E
  7
SLDTEXTSTYLE0
 73
     1
 44
1.0
  0
MTEXT
  5
1D9
330
1F
100
AcDbEntity
  8
0
  6
Continuous
 62
     7
370
    18
100
AcDbMText
 10
17.5936930126
 20
27.773321616
 30
0.0
 40
2.0
 41
0.0
 71
     2
 72
     1
  1
F
  7
SLDTEXTSTYLE0
 73
     1
 44
1.0
  0
MTEXT
  5
1DA
330
1F
100
AcDbEntity
  8
0
  6
Continuous
 62
     7
370
    18
100
AcDbMText
 10
339.8003474583
 20
8.7205095051
 30
0.0
 40
2.0
 41
0.0
 71
     2
 72
     1
  1
7
  7
SLDTEXTSTYLE0
 73
     1
 44
1.0
  0
MTEXT
  5
1DB
330
1F
100
AcDbEntity
  8
0
  6
Continuous
 62
     7
370
    18
100
AcDbMText
 10
289.7886477179
 20
8.6884673623
 30
0.0
 40
2.0
 41
0.0
 71
     2
 72
     1
  1
6
  7
SLDTEXTSTYLE0
 73
     1
 44
1.0
  0
MTEXT
  5
1DC
330
1F
100
AcDbEntity
  8
0
  6
Continuous
 62
     7
370
    18
100
AcDbMText
 10
412.5160699095
 20
74.5096307526
 30
0.0
 40
2.0
 41
0.0
 71
     2
 72
     1
  1
E
  7
SLDTEXTSTYLE0
 73
     1
 44
1.0
  0
MTEXT
  5
1DD
330
1F
100
AcDbEntity
  8
0
  6
Continuous
 62
     7
370
    18
100
AcDbMText
 10
412.6234021365
 20
124.4517683275
 30
0.0
 40
2.0
 41
0.0
 71
     2
 72
     1
  1
D
  7
SLDTEXTSTYLE0
 73
     1
 44
1.0
  0
MTEXT
  5
1DE
330
1F
100
AcDbEntity
  8
0
  6
Continuous
 62
     7
370
    18
100
AcDbMText
 10
411.7952690469
 20
41.8457885264
 30
0.0
 40
1.8
 41
0.0
 71
     3
 72
     1
  1
Plotdatum: 15.09.2024
  7
SLDTEXTSTYLE0
 11
-3.269436733918102E-15
 21
1.0
 31
0.0
 73
     1
 44
1.0
  0
MTEXT
  5
1DF
330
1F
100
AcDbEntity
  8
0
  6
Continuous
 62
     7
370
    18
100
AcDbMText
 10
412.557933251
 20
8.2549718046
 30
0.0
 40
1.8
 41
0.0
 71
     2
 72
     1
  1
A3
  7
SLDTEXTSTYLE0
 73
     1
 44
1.0
  0
MTEXT
  5
1E0
330
1F
100
AcDbEntity
  8
0
  6
Continuous
 62
     7
370
    18
100
AcDbMText
 10
390.594604279
 20
8.3847467643
 30
0.0
 40
1.8
 41
0.0
 71
     2
 72
     1
  1
CAD-System: SolidWorks
  7
SLDTEXTSTYLE0
 73
     1
 44
1.0
  0
MTEXT
  5
1E1
330
1F
100
AcDbEntity
  8
0
  6
Continuous
 62
     7
370
    18
100
AcDbMText
 10
403.9986368527
 20
28.4394692021
 30
0.0
 40
5.0
 41
0.0
 71
     2
 72
     1
  1
B
  7
SLDTEXTSTYLE0
 73
     1
 44
1.0
  0
MTEXT
  5
1E2
330
1F
100
AcDbEntity
  8
0
  6
Continuous
 62
     7
370
    18
100
AcDbMText
 10
249.556836311
 20
38.5581729516
 30
0.0
 40
2.0
 41
0.0
 71
     1
 72
     1
  1
Freigegeben
  7
SLDTEXTSTYLE0
 73
     1
 44
1.0
  0
MTEXT
  5
1E3
330
1F
100
AcDbEntity
  8
0
  6
Continuous
 62
     7
370
    18
100
AcDbMText
 10
284.1045975735
 20
43.5473338598
 30
0.0
 40
2.0
 41
0.0
 71
     2
 72
     1
  1
Hans
  7
SLDTEXTSTYLE0
 73
     1
 44
1.0
  0
MTEXT
  5
1E4
330
1F
100
AcDbEntity
  8
0
  6
Continuous
 62
     7
370
    18
100
AcDbMText
 10
249.5284668163
 20
43.5603133928
 30
0.0
 40
2.0
 41
0.0
 71
     1
 72
     1
  1
15.09.2024
  7
SLDTEXTSTYLE0
 73
     1
 44
1.0
  0
MTEXT
  5
1E5
330
1F
100
AcDbEntity
  8
0
  6
Continuous
 62
     7
370
    18
100
AcDbMText
 10
284.1309088133
 20
48.5138972561
 30
0.0
 40
2.0
 41
0.0
 71
     2
 72
     1
  1
AB
  7
SLDTEXTSTYLE0
 73
     1
 44
1.0
  0
MTEXT
  5
1E6
330
1F
100
AcDbEntity
  8
0
  6
Continuous
 62
     7
370
    18
100
AcDbMText
 10
249.5284668163
 20
48.4989062069
 30
0.0
 40
2.0
 41
0.0
 71
     1
 72
     1
  1
26.01.2021
  7
SLDTEXTSTYLE0
 73
     1
 44
1.0
  0
MTEXT
  5
1E7
330
1F
100
AcDbEntity
  8
0
  6
Continuous
 62
     7
370
     0
100
AcDbMText
 10
372.2007348103
 20
38.8723054925
 30
0.0
 40
1.5
 41
0.0
 71
     1
 72
     1
  1
Copyright reserved! © ACO AG
  7
SLDTEXTSTYLE0
 73
     1
 44
1.0
  0
INSERT
  5
1F0
330
1F
100
AcDbEntity
  8
0
  6
Continuous
 62
     7
370
     0
100
AcDbBlockReference
  2
SW_NOTE_0_21
 10
372.2203831445
 20
51.2202922854
 30
0.0
  0
MTEXT
  5
1F1
330
1F
100
AcDbEntity
  8
0
  6
Continuous
 62
     7
370
    18
100
AcDbMText
 10
340.2645517654
 20
13.606872109
 30
0.0
 40
2.0
 41
0.0
 71
     2
 72
     1
  1
23.01.2023
  7
SLDTEXTSTYLE0
 73
     1
 44
1.0
  0
MTEXT
  5
1F2
330
1F
100
AcDbEntity
  8
0
  6
Continuous
 62
     7
370
    18
100
AcDbMText
 10
364.9468572407
 20
13.5417229519
 30
0.0
 40
2.0
 41
0.0
 71
     1
 72
     1
  1
SAP-Nr.
  7
SLDTEXTSTYLE0
 73
     1
 44
1.0
  0
MTEXT
  5
1F3
330
1F
100
AcDbEntity
  8
0
  6
Continuous
 62
     7
370
    18
100
AcDbMText
 10
354.2334651348
 20
13.606872109
 30
0.0
 40
2.0
 41
0.0
 71
     2
 72
     1
  1
AB
  7
SLDTEXTSTYLE0
 73
     1
 44
1.0
  0
MTEXT
  5
1F4
330
1F
100
AcDbEntity
  8
0
  6
Continuous
 62
     7
370
    18
100
AcDbMText
 10
330.227417144
 20
13.524501801
 30
0.0
 40
2.0
 41
0.0
 71
     2
 72
     1
  1
A
  7
SLDTEXTSTYLE0
 73
     1
 44
1.0
  0
MTEXT
  5
1F5
330
1F
100
AcDbEntity
  8
0
  6
Continuous
 62
     7
370
    18
100
AcDbMText
 10
364.9468572407
 20
18.4594173137
 30
0.0
 40
2.0
 41
0.0
 71
     1
 72
     1
  1
SAP-Nr.
  7
SLDTEXTSTYLE0
 73
     1
 44
1.0
  0
MTEXT
  5
1F6
330
1F
100
AcDbEntity
  8
0
  6
Continuous
 62
     7
370
    18
100
AcDbMText
 10
354.2897149303
 20
18.5245664709
 30
0.0
 40
2.0
 41
0.0
 71
     2
 72
     1
  1
Hans
  7
SLDTEXTSTYLE0
 73
     1
 44
1.0
  0
MTEXT
  5
1F7
330
1F
100
AcDbEntity
  8
0
  6
Continuous
 62
     7
370
    18
100
AcDbMText
 10
340.3028682291
 20
18.5245664709
 30
0.0
 40
2.0
 41
0.0
 71
     2
 72
     1
  1
12.09.2024
  7
SLDTEXTSTYLE0
 73
     1
 44
1.0
  0
MTEXT
  5
1F8
330
1F
100
AcDbEntity
  8
0
  6
Continuous
 62
     7
370
    18
100
AcDbMText
 10
330.2494657985
 20
18.524501801
 30
0.0
 40
2.0
 41
0.0
 71
     2
 72
     1
  1
B
  7
SLDTEXTSTYLE0
 73
     1
 44
1.0
  0
MTEXT
  5
1F9
330
1F
100
AcDbEntity
  8
0
  6
Continuous
 62
     7
370
    18
100
AcDbMText
 10
311.764909851
 20
46.3490312465
 30
0.0
 40
5.0
 41
0.0
 71
     2
 72
     1
  1
1:1
  7
SLDTEXTSTYLE0
 73
     1
 44
1.0
  0
MTEXT
  5
1FA
330
1F
100
AcDbEntity
  8
0
  6
Continuous
 62
     7
370
    18
100
AcDbMText
 10
230.1851195342
 20
38.7793829468
 30
0.0
 40
2.0
 41
0.0
 71
     1
 72
     1
  1
Status:
  7
SLDTEXTSTYLE0
 73
     1
 44
1.0
  0
MTEXT
  5
1FB
330
1F
100
AcDbEntity
  8
0
  6
Continuous
 62
     7
370
    18
100
AcDbMText
 10
344.926838705
 20
28.2772828851
 30
0.0
 40
5.0
 41
0.0
 71
     1
 72
     1
  1
445382
  7
SLDTEXTSTYLE0
 73
     1
 44
1.0
  0
MTEXT
  5
1FC
330
1F
100
AcDbEntity
  8
0
  6
Continuous
 62
     7
370
    18
100
AcDbMText
 10
231.1132118803
 20
14.9211049657
 30
0.0
 40
2.5
 41
0.0
 71
     1
 72
     1
  1
Art. Nr.: 2091505
  7
SLDTEXTSTYLE0
 73
     1
 44
1.0
  0
MTEXT
  5
1FD
330
1F
100
AcDbEntity
  8
0
  6
Continuous
 62
     7
370
    18
100
AcDbMText
 10
231.1475981734
 20
21.4529560996
 30
0.0
 40
2.5
 41
0.0
 71
     1
 72
     1
  1
passend zu DN100
  7
SLDTEXTSTYLE0
 73
     1
 44
1.0
  0
MTEXT
  5
1FE
330
1F
100
AcDbEntity
  8
0
  6
Continuous
 62
     7
370
    18
100
AcDbMText
 10
231.1159560181
 20
33.0904969858
 30
0.0
 40
2.5
 41
0.0
 71
     1
 72
     1
  1
ACO-Standard
  7
SLDTEXTSTYLE0
 73
     1
 44
1.0
  0
MTEXT
  5
1FF
330
1F
100
AcDbEntity
  8
0
  6
Continuous
 62
     7
370
    18
100
AcDbMText
 10
231.1475981734
 20
28.0307932366
 30
0.0
 40
3.5
 41
0.0
 71
     1
 72
     1
  1
Ringrost DN100 zu Direktablauf
  7
SLDTEXTSTYLE0
 73
     1
 44
1.0
  0
MTEXT
  5
200
330
1F
100
AcDbEntity
  8
0
  6
Continuous
 62
     7
370
    18
100
AcDbMText
 10
348.2746465368
 20
53.819119072
 30
0.0
 40
2.0
 41
0.0
 71
     1
 72
     1
  1
Projektion: ISO-E
  7
SLDTEXTSTYLE0
 73
     1
 44
1.0
  0
MTEXT
  5
201
330
1F
100
AcDbEntity
  8
0
  6
Continuous
 62
     7
370
    18
100
AcDbMText
 10
337.7677091855
 20
49.3670227094
 30
0.0
 40
2.5
 41
0.0
 71
     2
 72
     1
  1
Millimeter
  7
SLDTEXTSTYLE0
 73
     1
 44
1.0
  0
MTEXT
  5
202
330
1F
100
AcDbEntity
  8
0
  6
Continuous
 62
     7
370
    18
100
AcDbMText
 10
337.6323777421
 20
53.855374072
 30
0.0
 40
2.0
 41
0.0
 71
     2
 72
     1
  1
Masseinheit:
  7
SLDTEXTSTYLE0
 73
     1
 44
1.0
  0
MTEXT
  5
203
330
1F
100
AcDbEntity
  8
0
  6
Continuous
 62
     7
370
    18
100
AcDbMText
 10
337.6114490186
 20
43.5452078816
 30
0.0
 40
2.0
 41
0.0
 71
     2
 72
     1
  1
Blatt / Anz.:
  7
SLDTEXTSTYLE0
 73
     1
 44
1.0
  0
MTEXT
  5
204
330
1F
100
AcDbEntity
  8
0
  6
Continuous
 62
     7
370
    18
100
AcDbMText
 10
329.2895578243
 20
28.4139191092
 30
0.0
 40
5.0
 41
0.0
 71
     1
 72
     1
  1
CH
  7
SLDTEXTSTYLE0
 73
     1
 44
1.0
  0
MTEXT
  5
205
330
1F
100
AcDbEntity
  8
0
  6
Continuous
 62
     7
370
    18
100
AcDbMText
 10
330.40704
 20
33.692638072
 30
0.0
 40
2.0
 41
0.0
 71
     1
 72
     1
  1
Zeichnung Nr.:
  7
SLDTEXTSTYLE0
 73
     1
 44
1.0
  0
MTEXT
  5
206
330
1F
100
AcDbEntity
  8
0
  6
Continuous
 62
     7
370
    18
100
AcDbMText
 10
269.897953
 20
75.161075072
 30
0.0
 40
2.0
 41
0.0
 71
     1
 72
     1
  1
Gewicht:
  7
SLDTEXTSTYLE0
 73
     1
 44
1.0
  0
MTEXT
  5
207
330
1F
100
AcDbEntity
  8
0
  6
Continuous
 62
     7
370
    18
100
AcDbMText
 10
230.0
 20
64.542328072
 30
0.0
 40
2.0
 41
0.0
 71
     1
 72
     1
  1
zul. Abweichung:
  7
SLDTEXTSTYLE0
 73
     1
 44
1.0
  0
MTEXT
  5
208
330
1F
100
AcDbEntity
  8
0
  6
Continuous
 62
     7
370
    18
100
AcDbMText
 10
269.612607
 20
64.542328072
 30
0.0
 40
2.0
 41
0.0
 71
     1
 72
     1
  1
Oberfläche:
  7
SLDTEXTSTYLE0
 73
     1
 44
1.0
  0
MTEXT
  5
209
330
1F
100
AcDbEntity
  8
0
  6
Continuous
 62
     7
370
    18
100
AcDbMText
 10
230.261411
 20
43.4433838912
 30
0.0
 40
2.0
 41
0.0
 71
     1
 72
     1
  1
Freigegeben:
  7
SLDTEXTSTYLE0
 73
     1
 44
1.0
  0
MTEXT
  5
20A
330
1F
100
AcDbEntity
  8
0
  6
Continuous
 62
     7
370
    18
100
AcDbMText
 10
230.0
 20
75.161075072
 30
0.0
 40
2.0
 41
0.0
 71
     1
 72
     1
  1
Werkstoff:
  7
SLDTEXTSTYLE0
 73
     1
 44
1.0
  0
MTEXT
  5
20B
330
1F
100
AcDbEntity
  8
0
  6
Continuous
 62
     7
370
    18
100
AcDbMText
 10
254.035545
 20
53.129475072
 30
0.0
 40
2.0
 41
0.0
 71
     1
 72
     1
  1
Datum:
  7
SLDTEXTSTYLE0
 73
     1
 44
1.0
  0
MTEXT
  5
20C
330
1F
100
AcDbEntity
  8
0
  6
Continuous
 62
     7
370
    18
100
AcDbMText
 10
279.934928
 20
53.136060072
 30
0.0
 40
2.0
 41
0.0
 71
     1
 72
     1
  1
Name:
  7
SLDTEXTSTYLE0
 73
     1
 44
1.0
  0
MTEXT
  5
20D
330
1F
100
AcDbEntity
  8
0
  6
Continuous
 62
     7
370
    18
100
AcDbMText
 10
312.162455406
 20
53.881591072
 30
0.0
 40
2.0
 41
0.0
 71
     2
 72
     1
  1
Massstab:
  7
SLDTEXTSTYLE0
 73
     1
 44
1.0
  0
MTEXT
  5
20E
330
1F
100
AcDbEntity
  8
0
  6
Continuous
 62
     7
370
    18
100
AcDbMText
 10
403.9552944035
 20
33.324874072
 30
0.0
 40
2.0
 41
0.0
 71
     2
 72
     1
  1
Index:
  7
SLDTEXTSTYLE0
 73
     1
 44
1.0
  0
MTEXT
  5
20F
330
1F
100
AcDbEntity
  8
0
  6
Continuous
 62
     7
370
    18
100
AcDbMText
 10
230.261411
 20
48.4499477886
 30
0.0
 40
2.0
 41
0.0
 71
     1
 72
     1
  1
Erstellt:
  7
SLDTEXTSTYLE0
 73
     1
 44
1.0
  0
MTEXT
  5
210
330
1F
100
AcDbEntity
  8
0
  6
Continuous
 62
     7
370
    18
100
AcDbMText
 10
337.6348165843
 20
39.869706576
 30
0.0
 40
2.5
 41
0.0
 71
     2
 72
     1
  1
1 / 1
  7
SLDTEXTSTYLE2
 73
     1
 44
1.0
  0
MTEXT
  5
211
330
1F
100
AcDbEntity
  8
0
  6
Continuous
 62
     7
370
    18
100
AcDbMText
 10
269.612607
 20
60.8119428599
 30
0.0
 40
3.0
 41
0.0
 71
     1
 72
     1
  1
DIN ISO 1302
  7
SLDTEXTSTYLE0
 73
     1
 44
1.0
  0
MTEXT
  5
212
330
1F
100
AcDbEntity
  8
0
  6
Continuous
 62
     7
370
    18
100
AcDbMText
 10
230.0
 20
60.8119428599
 30
0.0
 40
3.0
 41
0.0
 71
     1
 72
     1
  1
Norm
  7
SLDTEXTSTYLE0
 73
     1
 44
1.0
  0
MTEXT
  5
213
330
1F
100
AcDbEntity
  8
0
  6
Continuous
 62
     7
370
    18
100
AcDbMText
 10
269.612607
 20
71.2121947186
 30
0.0
 40
3.0
 41
0.0
 71
     1
 72
     1
  1
0.10
  7
SLDTEXTSTYLE0
 73
     1
 44
1.0
  0
MTEXT
  5
214
330
1F
100
AcDbEntity
  8
0
  6
Continuous
 62
     7
370
    18
100
AcDbMText
 10
230.0
 20
71.2121947186
 30
0.0
 40
3.0
 41
0.0
 71
     1
 72
     1
  1
1.4301 (X5CrNi18-10)
  7
SLDTEXTSTYLE0
 73
     1
 44
1.0
  0
ARC
  5
215
330
1F
100
AcDbEntity
  8
0
  6
Continuous
 62
     7
370
    25
100
AcDbCircle
 10
125.4393326195
 20
122.3476595804
 30
0.0
 40
11.44348587526471
100
AcDbArc
 50
134.7302181837
 51
180.602727773
  0
ARC
  5
216
330
1F
100
AcDbEntity
  8
0
  6
Continuous
 62
     7
370
    25
100
AcDbCircle
 10
125.4393326195
 20
122.3476595804
 30
0.0
 40
9.915726214743431
100
AcDbArc
 50
144.3116687825
 51
162.7807885454
  0
LINE
  5
217
330
1F
100
AcDbEntity
  8
0
  6
Continuous
 62
     7
370
    25
100
AcDbLine
 10
117.3857564534
 20
130.4774369398
 30
0.0
 11
117.3857564534
 21
128.1322544065
 31
0.0
  0
LINE
  5
218
330
1F
100
AcDbEntity
  8
0
  6
Continuous
 62
     7
370
    25
100
AcDbLine
 10
120.1475065632
 20
123.7551383416
 30
0.0
 11
118.3857564534
 21
123.7551383416
 31
0.0
  0
LINE
  5
219
330
1F
100
AcDbEntity
  8
0
  6
Continuous
 62
     7
370
    25
100
AcDbLine
 10
117.3857564534
 20
123.7551383416
 30
0.0
 11
115.6240063436
 21
123.7551383416
 31
0.0
  0
LINE
  5
21A
330
1F
100
AcDbEntity
  8
0
  6
Continuous
 62
     7
370
    25
100
AcDbLine
 10
118.3857564534
 20
128.1322544065
 30
0.0
 11
118.3857564535
 21
130.4774369398
 31
0.0
  0
ARC
  5
21B
330
1F
100
AcDbEntity
  8
0
  6
Continuous
 62
     7
370
    25
100
AcDbCircle
 10
110.3321802874
 20
122.3476595804
 30
0.0
 40
9.91572621474022
100
AcDbArc
 50
17.2192114546
 51
35.6883312175
  0
ARC
  5
21C
330
1F
100
AcDbEntity
  8
0
  6
Continuous
 62
     7
370
    25
100
AcDbCircle
 10
137.2413754499
 20
126.3523590295
 30
0.0
 40
4.125206250000014
100
AcDbArc
 50
276.9617128822
 51
83.0382871178
  0
ARC
  5
21D
330
1F
100
AcDbEntity
  8
0
  6
Continuous
 62
     7
370
    25
100
AcDbCircle
 10
137.2413754499
 20
126.3523590295
 30
0.0
 40
2.597353611187512
100
AcDbArc
 50
281.0989294004
 51
78.9010705996
  0
ARC
  5
21E
330
1F
100
AcDbEntity
  8
0
  6
Continuous
 62
     7
370
    25
100
AcDbCircle
 10
137.2413754499
 20
126.3523590295
 30
0.0
 40
4.12520625
100
AcDbArc
 50
96.9617128822
 51
263.0382871178
  0
ARC
  5
21F
330
1F
100
AcDbEntity
  8
0
  6
Continuous
 62
     7
370
    25
100
AcDbCircle
 10
137.2413754499
 20
126.3523590295
 30
0.0
 40
2.597353611187513
100
AcDbArc
 50
101.0989294004
 51
258.9010705996
  0
CIRCLE
  5
220
330
1F
100
AcDbEntity
  8
0
  6
Continuous
 62
     7
370
    25
100
AcDbCircle
 10
127.8993426724
 20
252.925691698
 30
0.0
 40
2.740440000000021
  0
CIRCLE
  5
221
330
1F
100
AcDbEntity
  8
0
  6
Continuous
 62
     7
370
    25
100
AcDbCircle
 10
183.5614661435
 20
156.5160657889
 30
0.0
 40
2.740440000000007
  0
CIRCLE
  5
222
330
1F
100
AcDbEntity
  8
0
  6
Continuous
 62
     7
370
    25
100
AcDbCircle
 10
111.2705622531
 20
250.7373319735
 30
0.0
 40
2.740439999999992
  0
CIRCLE
  5
223
330
1F
100
AcDbEntity
  8
0
  6
Continuous
 62
     7
370
    25
100
AcDbCircle
 10
95.768465169
 20
244.3180012265
 30
0.0
 40
2.740439999999992
  0
CIRCLE
  5
224
330
1F
100
AcDbEntity
  8
0
  6
Continuous
 62
     7
370
    25
100
AcDbCircle
 10
82.4560342879
 20
234.1051659061
 30
0.0
 40
2.740440000000007
  0
CIRCLE
  5
225
330
1F
100
AcDbEntity
  8
0
  6
Continuous
 62
     7
370
    25
100
AcDbCircle
 10
82.446784525
 20
143.2092993741
 30
0.0
 40
2.740439999999992
  0
CIRCLE
  5
226
330
1F
100
AcDbEntity
  8
0
  6
Continuous
 62
     7
370
    25
100
AcDbCircle
 10
72.2404897746
 20
220.7948138618
 30
0.0
 40
2.740440000000007
  0
CIRCLE
  5
227
330
1F
100
AcDbEntity
  8
0
  6
Continuous
 62
     7
370
    25
100
AcDbCircle
 10
65.8180041057
 20
205.294023589
 30
0.0
 40
2.740440000000014
  0
CIRCLE
  5
228
330
1F
100
AcDbEntity
  8
0
  6
Continuous
 62
     7
370
    25
100
AcDbCircle
 10
63.6262590659
 20
188.6591483287
 30
0.0
 40
2.740439999999992
  0
CIRCLE
  5
229
330
1F
100
AcDbEntity
  8
0
  6
Continuous
 62
     7
370
    25
100
AcDbCircle
 10
65.8146184575
 20
172.0238273393
 30
0.0
 40
2.740439999999992
  0
CIRCLE
  5
22A
330
1F
100
AcDbEntity
  8
0
  6
Continuous
 62
     7
370
    25
100
AcDbCircle
 10
72.2372192014
 20
156.5160657889
 30
0.0
 40
2.740439999999992
  0
ARC
  5
22B
330
1F
100
AcDbEntity
  8
0
  6
Continuous
 62
     7
370
    25
100
AcDbCircle
 10
110.3321802874
 20
122.3476595804
 30
0.0
 40
11.44348587526471
100
AcDbArc
 50
359.397272227
 51
45.2697818163
  0
CIRCLE
  5
22C
330
1F
100
AcDbEntity
  8
0
  6
Continuous
 62
     7
370
    25
100
AcDbCircle
 10
160.0302201758
 20
132.9872142907
 30
0.0
 40
2.740440000000007
  0
CIRCLE
  5
22D
330
1F
100
AcDbEntity
  8
0
  6
Continuous
 62
     7
370
    25
100
AcDbCircle
 10
173.3426510569
 20
143.2000496112
 30
0.0
 40
2.740440000000007
  0
CIRCLE
  5
22E
330
1F
100
AcDbEntity
  8
0
  6
Continuous
 62
     7
370
    25
100
AcDbCircle
 10
189.9806812391
 20
172.0111919282
 30
0.0
 40
2.740440000000007
  0
CIRCLE
  5
22F
330
1F
100
AcDbEntity
  8
0
  6
Continuous
 62
     7
370
    25
100
AcDbCircle
 10
192.172426279
 20
188.6460671885
 30
0.0
 40
2.740440000000007
  0
CIRCLE
  5
230
330
1F
100
AcDbEntity
  8
0
  6
Continuous
 62
     7
370
    25
100
AcDbCircle
 10
189.9840668873
 20
205.2813881779
 30
0.0
 40
2.740440000000007
  0
CIRCLE
  5
231
330
1F
100
AcDbEntity
  8
0
  6
Continuous
 62
     7
370
    25
100
AcDbCircle
 10
183.5647361403
 20
220.7834852621
 30
0.0
 40
2.740440000000007
  0
CIRCLE
  5
232
330
1F
100
AcDbEntity
  8
0
  6
Continuous
 62
     7
370
    25
100
AcDbCircle
 10
173.3519008198
 20
234.0959161431
 30
0.0
 40
2.740440000000007
  0
CIRCLE
  5
233
330
1F
100
AcDbEntity
  8
0
  6
Continuous
 62
     7
370
    25
100
AcDbCircle
 10
160.0415487755
 20
244.3114606564
 30
0.0
 40
2.740440000000007
  0
CIRCLE
  5
234
330
1F
100
AcDbEntity
  8
0
  6
Continuous
 62
     7
370
    25
100
AcDbCircle
 10
144.5407585028
 20
250.7339463253
 30
0.0
 40
2.740440000000007
  0
ARC
  5
235
330
1F
100
AcDbEntity
  8
0
  6
Continuous
 62
     7
370
    25
100
AcDbCircle
 10
127.8993426724
 20
126.3523527586
 30
0.0
 40
2.597353828265077
100
AcDbArc
 50
39.8869532474
 51
322.654866779
  0
ARC
  5
236
330
1F
100
AcDbEntity
  8
0
  6
Continuous
 62
     7
370
    25
100
AcDbCircle
 10
127.8993424129
 20
126.3523647965
 30
0.0
 40
4.12520749542389
100
AcDbArc
 50
38.7579550214
 51
323.633204394
  0
CIRCLE
  5
237
330
1F
100
AcDbEntity
  8
0
  6
Continuous
 62
     7
370
    25
100
AcDbCircle
 10
78.4734962417
 20
226.5783936286
 30
0.0
 40
3.425550000000001
  0
CIRCLE
  5
238
330
1F
100
AcDbEntity
  8
0
  6
Continuous
 62
     7
370
    25
100
AcDbCircle
 10
119.7675718659
 20
250.4195393062
 30
0.0
 40
3.425550000000001
  0
CIRCLE
  5
239
330
1F
100
AcDbEntity
  8
0
  6
Continuous
 62
     7
370
    25
100
AcDbCircle
 10
104.0581969949
 20
246.2102249959
 30
0.0
 40
3.425550000000001
  0
CIRCLE
  5
23A
330
1F
100
AcDbEntity
  8
0
  6
Continuous
 62
     7
370
    25
100
AcDbCircle
 10
89.9735568024
 20
238.0784541893
 30
0.0
 40
3.425550000000001
  0
CIRCLE
  5
23B
330
1F
100
AcDbEntity
  8
0
  6
Continuous
 62
     7
370
    25
100
AcDbCircle
 10
70.3417254351
 20
212.4937534362
 30
0.0
 40
3.425550000000001
  0
CIRCLE
  5
23C
330
1F
100
AcDbEntity
  8
0
  6
Continuous
 62
     7
370
    25
100
AcDbCircle
 10
66.1324111249
 20
196.7843785652
 30
0.0
 40
3.425550000000001
  0
CIRCLE
  5
23D
330
1F
100
AcDbEntity
  8
0
  6
Continuous
 62
     7
370
    25
100
AcDbCircle
 10
66.1324111249
 20
180.5208369521
 30
0.0
 40
3.425550000000001
  0
CIRCLE
  5
23E
330
1F
100
AcDbEntity
  8
0
  6
Continuous
 62
     7
370
    25
100
AcDbCircle
 10
70.3417254351
 20
164.8114620811
 30
0.0
 40
3.425550000000001
  0
CIRCLE
  5
23F
330
1F
100
AcDbEntity
  8
0
  6
Continuous
 62
     7
370
    25
100
AcDbCircle
 10
78.4734962417
 20
150.7268218886
 30
0.0
 40
3.425550000000001
  0
CIRCLE
  5
240
330
1F
100
AcDbEntity
  8
0
  6
Continuous
 62
     7
370
    25
100
AcDbCircle
 10
89.9735568024
 20
139.2267613279
 30
0.0
 40
3.425550000000001
  0
CIRCLE
  5
241
330
1F
100
AcDbEntity
  8
0
  6
Continuous
 62
     7
370
    25
100
AcDbCircle
 10
104.0581969949
 20
131.0949905213
 30
0.0
 40
3.425550000000001
  0
CIRCLE
  5
242
330
1F
100
AcDbEntity
  8
0
  6
Continuous
 62
     7
370
    25
100
AcDbCircle
 10
151.74048835
 20
131.0949905213
 30
0.0
 40
3.425550000000015
  0
CIRCLE
  5
243
330
1F
100
AcDbEntity
  8
0
  6
Continuous
 62
     7
370
    25
100
AcDbCircle
 10
165.8251285424
 20
139.2267613279
 30
0.0
 40
3.425549999999987
  0
CIRCLE
  5
244
330
1F
100
AcDbEntity
  8
0
  6
Continuous
 62
     7
370
    25
100
AcDbCircle
 10
177.3251891031
 20
150.7268218886
 30
0.0
 40
3.425550000000015
  0
CIRCLE
  5
245
330
1F
100
AcDbEntity
  8
0
  6
Continuous
 62
     7
370
    25
100
AcDbCircle
 10
185.4569599097
 20
164.8114620811
 30
0.0
 40
3.425549999999987
  0
CIRCLE
  5
246
330
1F
100
AcDbEntity
  8
0
  6
Continuous
 62
     7
370
    25
100
AcDbCircle
 10
189.66627422
 20
180.5208369521
 30
0.0
 40
3.425549999999987
  0
CIRCLE
  5
247
330
1F
100
AcDbEntity
  8
0
  6
Continuous
 62
     7
370
    25
100
AcDbCircle
 10
189.66627422
 20
196.7843785652
 30
0.0
 40
3.425549999999987
  0
CIRCLE
  5
248
330
1F
100
AcDbEntity
  8
0
  6
Continuous
 62
     7
370
    25
100
AcDbCircle
 10
185.4569599097
 20
212.4937534362
 30
0.0
 40
3.425549999999987
  0
CIRCLE
  5
249
330
1F
100
AcDbEntity
  8
0
  6
Continuous
 62
     7
370
    25
100
AcDbCircle
 10
177.3251891031
 20
226.5783936286
 30
0.0
 40
3.425550000000015
  0
CIRCLE
  5
24A
330
1F
100
AcDbEntity
  8
0
  6
Continuous
 62
     7
370
    25
100
AcDbCircle
 10
165.8251285424
 20
238.0784541893
 30
0.0
 40
3.425549999999987
  0
CIRCLE
  5
24B
330
1F
100
AcDbEntity
  8
0
  6
Continuous
 62
     7
370
    25
100
AcDbCircle
 10
151.74048835
 20
246.2102249959
 30
0.0
 40
3.425550000000015
  0
CIRCLE
  5
24C
330
1F
100
AcDbEntity
  8
0
  6
Continuous
 62
     7
370
    25
100
AcDbCircle
 10
136.031113479
 20
250.4195393062
 30
0.0
 40
3.425550000000015
  0
CIRCLE
  5
24D
330
1F
100
AcDbEntity
  8
0
  6
Continuous
 62
     7
370
    25
100
AcDbCircle
 10
127.8993426724
 20
188.6526077586
 30
0.0
 40
55.50000000000003
  0
CIRCLE
  5
24E
330
1F
100
AcDbEntity
  8
0
  6
Continuous
 62
     7
370
    25
100
AcDbCircle
 10
127.8993426724
 20
188.6526077586
 30
0.0
 40
69.50000000000003
  0
LINE
  5
24F
330
1F
100
AcDbEntity
  8
0
  6
Continuous
 62
     7
370
    25
100
AcDbLine
 10
115.5243371383
 20
122.2272811193
 30
0.0
 11
113.9964799159
 21
122.2272810882
 31
0.0
  0
CIRCLE
  5
250
330
1F
100
AcDbEntity
  8
0
  6
Continuous
 62
     7
370
    25
100
AcDbCircle
 10
95.7571365693
 20
132.9937548608
 30
0.0
 40
2.740440000000007
  0
LINE
  5
251
330
1F
100
AcDbEntity
  8
0
  6
Continuous
 62
     7
370
    25
100
AcDbLine
 10
117.3857564534
 20
125.282995564
 30
0.0
 11
117.3857564534
 21
123.7551383416
 31
0.0
  0
ARC
  5
252
330
1F
100
AcDbEntity
  8
0
  6
Continuous
 62
     7
370
    25
100
AcDbCircle
 10
125.4393326195
 20
122.3476595804
 30
0.0
 40
9.91572621471803
100
AcDbArc
 50
171.839641834
 51
180.6955967769
  0
LINE
  5
253
330
1F
100
AcDbEntity
  8
0
  6
Continuous
 62
     7
370
    25
100
AcDbLine
 10
115.9680376168
 20
125.282995564
 30
0.0
 11
117.3857564534
 21
125.282995564
 31
0.0
  0
ARC
  5
254
330
1F
100
AcDbEntity
  8
0
  6
Continuous
 62
     7
370
    25
100
AcDbCircle
 10
110.3321802874
 20
122.3476595804
 30
0.0
 40
9.915726214743962
100
AcDbArc
 50
359.3044032231
 51
8.160358166
  0
LINE
  5
255
330
1F
100
AcDbEntity
  8
0
  6
Continuous
 62
     7
370
    25
100
AcDbLine
 10
118.3857564534
 20
123.7551383416
 30
0.0
 11
118.3857564534
 21
125.282995564
 31
0.0
  0
LINE
  5
256
330
1F
100
AcDbEntity
  8
0
  6
Continuous
 62
     7
370
    25
100
AcDbLine
 10
121.775032991
 20
122.2272810882
 30
0.0
 11
120.2471757686
 21
122.2272811193
 31
0.0
  0
LINE
  5
257
330
1F
100
AcDbEntity
  8
0
  6
Continuous
 62
     7
370
    25
100
AcDbLine
 10
118.3857564534
 20
125.282995564
 30
0.0
 11
119.8034752901
 21
125.282995564
 31
0.0
  0
LINE
  5
258
330
1F
100
AcDbEntity
  8
0
  6
Continuous
 62
     7
370
    25
100
AcDbLine
 10
137.7413754499
 20
128.9011324171
 30
0.0
 11
137.7413754499
 21
130.44715165
 31
0.0
  0
LINE
  5
259
330
1F
100
AcDbEntity
  8
0
  6
Continuous
 62
     7
370
    25
100
AcDbLine
 10
137.7413754499
 20
122.257566409
 30
0.0
 11
137.7413754499
 21
123.8035856418
 31
0.0
  0
LINE
  5
25A
330
1F
100
AcDbEntity
  8
0
  6
Continuous
 62
     7
370
    25
100
AcDbLine
 10
136.7413754499
 20
123.8035856418
 30
0.0
 11
136.7413754499
 21
122.257566409
 31
0.0
  0
LINE
  5
25B
330
1F
100
AcDbEntity
  8
0
  6
Continuous
 62
     7
370
    25
100
AcDbLine
 10
136.7413754499
 20
130.44715165
 30
0.0
 11
136.7413754499
 21
128.9011324171
 31
0.0
  0
LINE
  5
25C
330
1F
100
AcDbEntity
  8
0
  6
Continuous
 62
     7
370
    25
100
AcDbLine
 10
129.9642282724
 20
124.7767594201
 30
0.0
 11
131.2211144469
 21
123.9063134
 31
0.0
  0
LINE
  5
25D
330
1F
100
AcDbEntity
  8
0
  6
Continuous
 62
     7
370
    25
100
AcDbLine
 10
131.1161691999
 20
128.9348756489
 30
0.0
 11
129.8923213439
 21
128.0179706392
 31
0.0
  0
LINE
  5
25E
330
1F
100
AcDbEntity
  8
0
  6
CENTER
 62
     7
370
    18
100
AcDbLine
 10
203.4581063123
 20
188.6526077586
 30
0.0
 11
52.4913289037
 21
188.6526077586
 31
0.0
  0
LINE
  5
25F
330
1F
100
AcDbEntity
  8
0
  6
Continuous
 62
     7
370
    18
100
AcDbLine
 10
201.4581063123
 20
181.0526077586
 30
0.0
 11
201.4581063123
 21
188.6526077586
 31
0.0
  0
SOLID
  5
260
330
1F
100
AcDbEntity
  8
0
  6
Continuous
 62
     7
370
    18
100
AcDbTrace
 10
201.4581063123
 20
188.6526077586
 30
0.0
 11
200.6581063123
 21
183.6526077586
 31
0.0
 12
202.2581063123
 22
183.6526077586
 32
0.0
 13
202.2581063123
 23
183.6526077586
 33
0.0
  0
LINE
  5
261
330
1F
100
AcDbEntity
  8
0
  6
Continuous
 62
     7
370
    18
100
AcDbLine
 10
54.4913289037
 20
181.0526077586
 30
0.0
 11
54.4913289037
 21
188.6526077586
 31
0.0
  0
SOLID
  5
262
330
1F
100
AcDbEntity
  8
0
  6
Continuous
 62
     7
370
    18
100
AcDbTrace
 10
54.4913289037
 20
188.6526077586
 30
0.0
 11
53.6913289037
 21
183.6526077586
 31
0.0
 12
55.2913289037
 22
183.6526077586
 32
0.0
 13
55.2913289037
 23
183.6526077586
 33
0.0
  0
MTEXT
  5
263
330
1F
100
AcDbEntity
  8
0
  6
Continuous
 62
     7
100
AcDbMText
 10
199.3536280967
 20
179.9815957431
 30
0.0
 40
5.0
 41
0.0
 71
     1
 72
     1
  1
A
  7
SLDTEXTSTYLE0
 73
     1
 44
1.0
  0
MTEXT
  5
264
330
1F
100
AcDbEntity
  8
0
  6
Continuous
 62
     7
100
AcDbMText
 10
52.2330747291
 20
179.9047825574
 30
0.0
 40
5.0
 41
0.0
 71
     1
 72
     1
  1
A
  7
SLDTEXTSTYLE0
 73
     1
 44
1.0
  0
LINE
  5
265
330
1F
100
AcDbEntity
  8
0
  6
Continuous
 62
     7
370
    25
100
AcDbLine
 10
387.6928571429
 20
183.8391072701
 30
0.0
 11
387.6928571429
 21
185.9604276136
 31
0.0
  0
LINE
  5
266
330
1F
100
AcDbEntity
  8
0
  6
Continuous
 62
     7
370
    25
100
AcDbLine
 10
248.6928571429
 20
185.9604276136
 30
0.0
 11
248.6928571429
 21
183.8391072701
 31
0.0
  0
LINE
  5
267
330
1F
100
AcDbEntity
  8
0
  6
Continuous
 62
     7
370
    25
100
AcDbLine
 10
283.3430971351
 20
148.0179665168
 30
0.0
 11
283.3430971351
 21
150.1392868603
 31
0.0
  0
LINE
  5
268
330
1F
100
AcDbEntity
  8
0
  6
Continuous
 62
     7
370
    25
100
AcDbLine
 10
278.1483899127
 20
150.1392868603
 30
0.0
 11
278.1483899127
 21
148.8026805087
 31
0.0
  0
LINE
  5
269
330
1F
100
AcDbEntity
  8
0
  6
Continuous
 62
     7
370
    25
100
AcDbLine
 10
276.737278191
 20
154.6455718585
 30
0.0
 11
276.737278191
 21
154.8103001136
 31
0.0
  0
LINE
  5
26A
330
1F
100
AcDbEntity
  8
0
  6
Continuous
 62
     7
370
    25
100
AcDbLine
 10
271.5425705344
 20
154.8103001136
 30
0.0
 11
271.5425705344
 21
152.6889797701
 31
0.0
  0
LWPOLYLINE
  5
26B
330
1F
100
AcDbEntity
  8
0
  6
Continuous
 62
     7
370
    25
100
AcDbPolyline
 90
      167
 70
   128
 43
0.0
 10
269.0489358504
 20
220.7104276136
 10
267.2244563939
 20
219.3705467776
 10
265.4729886806
 20
217.9828062676
 10
263.7970416709
 20
216.5491940087
 10
262.199016143
 20
215.0717636366
 10
260.6812012529
 20
213.5526315561
 10
259.2457712559
 20
211.9939739091
 10
257.8947823917
 20
210.3980234579
 10
256.6301699386
 20
208.7670663861
 10
255.453745442
 20
207.1034390239
 10
254.3671941185
 20
205.4095245015
 10
253.3720724425
 20
203.6877493352
 10
252.4698059162
 20
201.9405799512
 10
251.6616870277
 20
200.170519153
 10
250.9488733995
 20
198.3801025355
 10
250.3323861303
 20
196.5718948533
 10
249.8131083322
 20
194.7484863466
 10
249.3917838655
 20
192.9124890303
 10
249.0690162735
 20
191.066532953
 10
248.8452679178
 20
189.213262429
 10
248.7208593156
 20
187.3553322505
 10
248.6959686811
 20
185.4954038845
 10
248.7706316699
 20
183.6361416606
 10
248.944741328
 20
181.7802089538
 10
249.2180482449
 20
179.9302643701
 10
249.5901609111
 20
178.0889579371
 10
250.0605462789
 20
176.2589273086
 10
250.6285305257
 20
174.4427939858
 10
251.2933000196
 20
172.6431595622
 10
252.0539024846
 20
170.8626019969
 10
252.909248365
 20
169.1036719213
 10
253.8581123862
 20
167.3688889859
 10
254.8991353095
 20
165.6607382504
 10
256.0308258797
 20
163.9816666245
 10
257.2515629609
 20
162.3340793619
 10
258.5595978589
 20
160.7203366156
 10
259.9530568265
 20
159.1427500566
 10
261.429943747
 20
157.6035795623
 10
262.9881429941
 20
156.1050299797
 10
264.6254224626
 20
154.6492479667
 10
266.3394367652
 20
153.2383189168
 10
268.127730593
 20
151.8742639725
 10
269.9877422323
 20
150.5590371292
 10
271.9168072344
 20
149.2945224368
 10
273.9121622322
 20
148.0825313004
 10
275.9709488989
 20
146.9247998856
 10
278.0902180425
 20
145.8229866315
 10
280.2669338303
 20
144.778669875
 10
282.4979781379
 20
143.7933455897
 10
284.7801550159
 20
142.8684252433
 10
287.1101952678
 20
142.0052337751
 10
289.4847611334
 20
141.2050076988
 10
291.9004510701
 20
140.4688933303
 10
294.3538046251
 20
139.7979451465
 10
296.8413073933
 20
139.1931242742
 10
299.3593960508
 20
138.6552971134
 10
301.9044634599
 20
138.1852340964
 10
304.4728638361
 20
137.7836085838
 10
307.0609179705
 20
137.4509959005
 10
309.6649185005
 20
137.1878725108
 10
312.2811352205
 20
136.9946153365
 10
314.9058204252
 20
136.8715012167
 10
317.5352142783
 20
136.818706511
 10
320.1655501986
 20
136.8363068474
 10
322.793060255
 20
136.9242770137
 10
325.4139805647
 20
137.0824909933
 10
328.0245566847
 20
137.3107221463
 10
330.6210489899
 20
137.6086435338
 10
333.1997380299
 20
137.9758283862
 10
335.7569298576
 20
138.4117507147
 10
338.2889613204
 20
138.915786065
 10
340.7922053074
 20
139.487212411
 10
343.263075946
 20
140.1252111902
 10
345.6980337376
 20
140.8288684754
 10
348.0935906286
 20
141.5971762843
 10
350.446315007
 20
142.4290340235
 10
352.7528366177
 20
143.3232500646
 10
355.0098513906
 20
144.2785434518
 10
357.214126174
 20
145.2935457366
 10
359.3625033653
 20
146.366802938
 10
361.451905435
 20
147.4967776253
 10
363.4793393348
 20
148.6818511207
 10
365.441900785
 20
149.9203258178
 10
367.3367784353
 20
151.2104276136
 10
369.1612578918
 20
152.5503084497
 10
370.9127256052
 20
153.9380489597
 10
372.5886726148
 20
155.3716612186
 10
374.1866981427
 20
156.8490915907
 10
375.7045130328
 20
158.3682236712
 10
377.1399430298
 20
159.9268813181
 10
378.4909318941
 20
161.5228317693
 10
379.7555443471
 20
163.1537888412
 10
380.9319688437
 20
164.8174162034
 10
382.0185201672
 20
166.5113307258
 10
383.0136418432
 20
168.2331058921
 10
383.9159083695
 20
169.9802752761
 10
384.724027258
 20
171.7503360743
 10
385.4368408862
 20
173.5407526918
 10
386.0533281554
 20
175.348960374
 10
386.5726059536
 20
177.1723688807
 10
386.9939304202
 20
179.008366197
 10
387.3166980122
 20
180.8543222743
 10
387.5404463679
 20
182.7075927982
 10
387.6648549701
 20
184.5655229768
 10
387.6897456046
 20
186.4254513427
 10
387.6150826158
 20
188.2847135667
 10
387.4409729577
 20
190.1406462734
 10
387.1676660408
 20
191.9905908572
 10
386.7955533746
 20
193.8318972902
 10
386.3251680068
 20
195.6619279187
 10
385.75718376
 20
197.4780612415
 10
385.0924142662
 20
199.2776956651
 10
384.3318118012
 20
201.0582532304
 10
383.4764659207
 20
202.817183306
 10
382.5276018995
 20
204.5519662414
 10
381.4865789762
 20
206.2601169769
 10
380.354888406
 20
207.9391886028
 10
379.1341513248
 20
209.5867758654
 10
377.8261164268
 20
211.2005186116
 10
376.4326574592
 20
212.7781051707
 10
374.9557705387
 20
214.317275665
 10
373.3975712916
 20
215.8158252476
 10
371.7602918232
 20
217.2716072606
 10
370.0462775206
 20
218.6825363105
 10
368.2579836928
 20
220.0465912548
 10
366.3979720534
 20
221.361818098
 10
364.4689070513
 20
222.6263327904
 10
362.4735520535
 20
223.8383239268
 10
360.4147653868
 20
224.9960553417
 10
358.2954962432
 20
226.0978685958
 10
356.1187804554
 20
227.1421853523
 10
353.8877361478
 20
228.1275096376
 10
351.6055592698
 20
229.052429984
 10
349.2755190179
 20
229.9156214521
 10
346.9009531523
 20
230.7158475285
 10
344.4852632156
 20
231.451961897
 10
342.0319096606
 20
232.1229100808
 10
339.5444068924
 20
232.7277309531
 10
337.0263182349
 20
233.2655581139
 10
334.4812508258
 20
233.7356211309
 10
331.9128504497
 20
234.1372466434
 10
329.3247963153
 20
234.4698593268
 10
326.7207957852
 20
234.7329827164
 10
324.1045790652
 20
234.9262398907
 10
321.4798938605
 20
235.0493540106
 10
318.8505000074
 20
235.1021487163
 10
316.2201640872
 20
235.0845483799
 10
313.5926540308
 20
234.9965782136
 10
310.971733721
 20
234.838364234
 10
308.361157601
 20
234.610133081
 10
305.7646652958
 20
234.3122116935
 10
303.1859762558
 20
233.9450268411
 10
300.6287844281
 20
233.5091045125
 10
298.0967529654
 20
233.0050691623
 10
295.5935089783
 20
232.4336428162
 10
293.1226383397
 20
231.7956440371
 10
290.6876805482
 20
231.0919867519
 10
288.2921236571
 20
230.3236789429
 10
285.9393992787
 20
229.4918212038
 10
283.6328776681
 20
228.5976051627
 10
281.3758628951
 20
227.6423117755
 10
279.1715881117
 20
226.6273094907
 10
277.0232109204
 20
225.5540522893
 10
274.9338088507
 20
224.424077602
 10
272.9063749509
 20
223.2390041066
 10
270.9438135007
 20
222.0005294094
 10
269.0489358504
 20
220.7104276136
  0
LWPOLYLINE
  5
26C
330
1F
100
AcDbEntity
  8
0
  6
Continuous
 62
     7
370
    25
100
AcDbPolyline
 90
      149
 70
   128
 43
0.0
 10
278.948430787
 20
213.7104276136
 10
280.6493720147
 20
214.8631673145
 10
282.4179691402
 20
215.9638223249
 10
284.2510350319
 20
217.01040919
 10
286.1452663813
 20
218.0010418897
 10
288.0972496552
 20
218.9339352368
 10
290.1034672481
 20
219.8074080945
 10
292.1603038201
 20
220.6198864056
 10
294.2640528128
 20
221.3699060293
 10
296.4109231283
 20
222.0561153795
 10
298.5970459611
 20
222.6772778607
 10
300.8184817701
 20
223.232274096
 10
303.0712273779
 20
223.7201039447
 10
305.3512231846
 20
224.1398883045
 10
307.6543604837
 20
224.4908706955
 10
309.9764888661
 20
224.7724186238
 10
312.3134236994
 20
224.9840247209
 10
314.6609536692
 20
225.1253076585
 10
317.0148483678
 20
225.196012835
 10
319.3708659179
 20
225.196012835
 10
321.7247606165
 20
225.1253076585
 10
324.0722905863
 20
224.9840247209
 10
326.4092254196
 20
224.7724186238
 10
328.731353802
 20
224.4908706955
 10
331.0344911011
 20
224.1398883045
 10
333.3144869078
 20
223.7201039447
 10
335.5672325156
 20
223.232274096
 10
337.7886683247
 20
222.6772778607
 10
339.9747911574
 20
222.0561153795
 10
342.1216614729
 20
221.3699060293
 10
344.2254104656
 20
220.6198864056
 10
346.2822470376
 20
219.8074080945
 10
348.2884646305
 20
218.9339352368
 10
350.2404479045
 20
218.0010418897
 10
352.1346792538
 20
217.01040919
 10
353.9677451455
 20
215.9638223249
 10
355.736342271
 20
214.8631673145
 10
357.4372834987
 20
213.7104276136
 10
359.0675036176
 20
212.5076805371
 10
360.6240648607
 20
211.2570935165
 10
362.1041621997
 20
209.9609201941
 10
363.5051283989
 20
208.6214963619
 10
364.8244388226
 20
207.2412357521
 10
366.0597159842
 20
205.8226256876
 10
367.2087338309
 20
204.3682225997
 10
368.2694217548
 20
202.8806474211
 10
369.2398683246
 20
201.3625808627
 10
370.1183247298
 20
199.8167585831
 10
370.9032079329
 20
198.2459662586
 10
371.593103521
 20
196.653034563
 10
372.1867682559
 20
195.040834067
 10
372.6831323134
 20
193.4122700648
 10
373.0813012121
 20
191.7702773389
 10
373.3805574246
 20
190.117814871
 10
373.580361671
 20
188.4578605103
 10
373.6803538906
 20
186.7934056068
 10
373.6803538906
 20
185.1274496205
 10
373.580361671
 20
183.462994717
 10
373.3805574246
 20
181.8030403563
 10
373.0813012121
 20
180.1505778884
 10
372.6831323134
 20
178.5085851624
 10
372.1867682559
 20
176.8800211603
 10
371.593103521
 20
175.2678206642
 10
370.9032079329
 20
173.6748889687
 10
370.1183247298
 20
172.1040966441
 10
369.2398683246
 20
170.5582743646
 10
368.2694217548
 20
169.0402078062
 10
367.2087338309
 20
167.5526326276
 10
366.0597159842
 20
166.0982295397
 10
364.8244388226
 20
164.6796194752
 10
363.5051283989
 20
163.2993588654
 10
362.1041621996
 20
161.9599350332
 10
360.6240648607
 20
160.6637617108
 10
359.0675036176
 20
159.4131746902
 10
357.4372834987
 20
158.2104276136
 10
355.736342271
 20
157.0576879128
 10
353.9677451455
 20
155.9570329024
 10
352.1346792538
 20
154.9104460372
 10
350.2404479045
 20
153.9198133376
 10
348.2884646305
 20
152.9869199905
 10
346.2822470376
 20
152.1134471328
 10
344.2254104656
 20
151.3009688217
 10
342.1216614729
 20
150.550949198
 10
339.9747911574
 20
149.8647398478
 10
337.7886683247
 20
149.2435773666
 10
335.5672325156
 20
148.6885811313
 10
333.3144869078
 20
148.2007512826
 10
331.0344911011
 20
147.7809669228
 10
328.731353802
 20
147.4299845318
 10
326.4092254196
 20
147.1484366035
 10
324.0722905863
 20
146.9368305063
 10
321.7247606165
 20
146.7955475688
 10
319.3708659179
 20
146.7248423923
 10
317.0148483678
 20
146.7248423923
 10
314.6609536692
 20
146.7955475688
 10
312.3134236994
 20
146.9368305063
 10
309.9764888661
 20
147.1484366035
 10
307.6543604837
 20
147.4299845318
 10
305.3512231846
 20
147.7809669228
 10
303.0712273779
 20
148.2007512826
 10
300.8184817701
 20
148.6885811313
 10
298.5970459611
 20
149.2435773666
 10
296.4109231283
 20
149.8647398478
 10
294.2640528128
 20
150.550949198
 10
292.1603038201
 20
151.3009688217
 10
290.1034672481
 20
152.1134471328
 10
288.0972496552
 20
152.9869199905
 10
286.1452663813
 20
153.9198133376
 10
284.2510350319
 20
154.9104460372
 10
282.4179691402
 20
155.9570329024
 10
280.6493720147
 20
157.0576879128
 10
278.948430787
 20
158.2104276136
 10
277.3182106681
 20
159.4131746902
 10
275.761649425
 20
160.6637617108
 10
274.2815520861
 20
161.9599350332
 10
272.8805858869
 20
163.2993588654
 10
271.5612754631
 20
164.6796194752
 10
270.3259983015
 20
166.0982295397
 10
269.1769804548
 20
167.5526326276
 10
268.1162925309
 20
169.0402078062
 10
267.1458459612
 20
170.5582743646
 10
266.2673895559
 20
172.1040966441
 10
265.4825063528
 20
173.6748889687
 10
264.7926107647
 20
175.2678206642
 10
264.1989460298
 20
176.8800211603
 10
263.7025819723
 20
178.5085851624
 10
263.3044130736
 20
180.1505778884
 10
263.0051568611
 20
181.8030403563
 10
262.8053526147
 20
183.462994717
 10
262.7053603952
 20
185.1274496205
 10
262.7053603952
 20
186.7934056068
 10
262.8053526147
 20
188.4578605103
 10
263.0051568611
 20
190.117814871
 10
263.3044130736
 20
191.7702773389
 10
263.7025819723
 20
193.4122700648
 10
264.1989460298
 20
195.040834067
 10
264.7926107647
 20
196.653034563
 10
265.4825063528
 20
198.2459662586
 10
266.2673895559
 20
199.8167585831
 10
267.1458459612
 20
201.3625808627
 10
268.1162925309
 20
202.8806474211
 10
269.1769804548
 20
204.3682225997
 10
270.3259983015
 20
205.8226256876
 10
271.5612754631
 20
207.2412357521
 10
272.8805858869
 20
208.6214963619
 10
274.2815520861
 20
209.9609201941
 10
275.761649425
 20
211.2570935165
 10
277.3182106681
 20
212.5076805371
 10
278.948430787
 20
213.7104276136
  0
LWPOLYLINE
  5
26D
330
1F
100
AcDbEntity
  8
0
  6
Continuous
 62
     7
370
    25
100
AcDbPolyline
 90
       37
 70
   128
 43
0.0
 10
365.1964739393
 20
214.4907829841
 10
365.653888812
 20
214.7621823408
 10
366.1710035871
 20
214.9732935637
 10
366.7321059936
 20
215.1177021451
 10
367.320147219
 20
215.1910203034
 10
367.9172599282
 20
215.1910203034
 10
368.5053011535
 20
215.1177021451
 10
369.0664035601
 20
214.9732935637
 10
369.5835183351
 20
214.7621823408
 10
370.0409332079
 20
214.4907829841
 10
370.4247498589
 20
214.1673418258
 10
370.7233062135
 20
213.8016864617
 10
370.9275307878
 20
213.4049271451
 10
371.0312183216
 20
212.989119207
 10
371.0312183216
 20
212.5668967613
 10
370.9275307878
 20
212.1510888232
 10
370.7233062135
 20
211.7543295066
 10
370.4247498589
 20
211.3886741425
 10
370.0409332079
 20
211.0652329841
 10
369.5835183351
 20
210.7938336275
 10
369.0664035601
 20
210.5827224046
 10
368.5053011535
 20
210.4383138232
 10
367.9172599282
 20
210.3649956649
 10
367.320147219
 20
210.3649956649
 10
366.7321059936
 20
210.4383138232
 10
366.1710035871
 20
210.5827224046
 10
365.653888812
 20
210.7938336275
 10
365.1964739393
 20
211.0652329841
 10
364.8126572883
 20
211.3886741425
 10
364.5141009337
 20
211.7543295066
 10
364.3098763593
 20
212.1510888232
 10
364.2061888255
 20
212.5668967613
 10
364.2061888255
 20
212.989119207
 10
364.3098763593
 20
213.4049271451
 10
364.5141009337
 20
213.8016864617
 10
364.8126572883
 20
214.1673418258
 10
365.1964739393
 20
214.4907829841
  0
LWPOLYLINE
  5
26E
330
1F
100
AcDbEntity
  8
0
  6
Continuous
 62
     7
370
    25
100
AcDbPolyline
 90
       37
 70
   128
 43
0.0
 10
373.3282447458
 20
204.5314383935
 10
373.7856596186
 20
204.8028377502
 10
374.3027743936
 20
205.013948973
 10
374.8638768002
 20
205.1583575545
 10
375.4519180256
 20
205.2316757127
 10
376.0490307347
 20
205.2316757127
 10
376.6370719601
 20
205.1583575545
 10
377.1981743666
 20
205.013948973
 10
377.7152891417
 20
204.8028377502
 10
378.1727040144
 20
204.5314383935
 10
378.5565206654
 20
204.2079972352
 10
378.85507702
 20
203.8423418711
 10
379.0593015944
 20
203.4455825545
 10
379.1629891282
 20
203.0297746164
 10
379.1629891282
 20
202.6075521706
 10
379.0593015944
 20
202.1917442325
 10
378.85507702
 20
201.7949849159
 10
378.5565206654
 20
201.4293295518
 10
378.1727040144
 20
201.1058883935
 10
377.7152891417
 20
200.8344890368
 10
377.1981743666
 20
200.6233778139
 10
376.6370719601
 20
200.4789692325
 10
376.0490307347
 20
200.4056510743
 10
375.4519180256
 20
200.4056510743
 10
374.8638768002
 20
200.4789692325
 10
374.3027743936
 20
200.6233778139
 10
373.7856596186
 20
200.8344890368
 10
373.3282447458
 20
201.1058883935
 10
372.9444280948
 20
201.4293295518
 10
372.6458717402
 20
201.7949849159
 10
372.4416471659
 20
202.1917442325
 10
372.3379596321
 20
202.6075521706
 10
372.3379596321
 20
203.0297746164
 10
372.4416471659
 20
203.4455825545
 10
372.6458717402
 20
203.8423418711
 10
372.9444280948
 20
204.2079972352
 10
373.3282447458
 20
204.5314383935
  0
LWPOLYLINE
  5
26F
330
1F
100
AcDbEntity
  8
0
  6
Continuous
 62
     7
370
    25
100
AcDbPolyline
 90
       37
 70
   128
 43
0.0
 10
377.5375590561
 20
193.423232894
 10
377.9949739289
 20
193.6946322507
 10
378.5120887039
 20
193.9057434736
 10
379.0731911105
 20
194.050152055
 10
379.6612323358
 20
194.1234702132
 10
380.258345045
 20
194.1234702132
 10
380.8463862704
 20
194.050152055
 10
381.4074886769
 20
193.9057434736
 10
381.924603452
 20
193.6946322507
 10
382.3820183247
 20
193.423232894
 10
382.7658349757
 20
193.0997917357
 10
383.0643913303
 20
192.7341363716
 10
383.2686159047
 20
192.337377055
 10
383.3723034385
 20
191.9215691169
 10
383.3723034385
 20
191.4993466711
 10
383.2686159047
 20
191.083538733
 10
383.0643913303
 20
190.6867794164
 10
382.7658349757
 20
190.3211240523
 10
382.3820183247
 20
189.997682894
 10
381.924603452
 20
189.7262835373
 10
381.4074886769
 20
189.5151723145
 10
380.8463862704
 20
189.370763733
 10
380.258345045
 20
189.2974455748
 10
379.6612323358
 20
189.2974455748
 10
379.0731911105
 20
189.370763733
 10
378.5120887039
 20
189.5151723145
 10
377.9949739289
 20
189.7262835373
 10
377.5375590561
 20
189.997682894
 10
377.1537424051
 20
190.3211240523
 10
376.8551860505
 20
190.6867794164
 10
376.6509614762
 20
191.083538733
 10
376.5472739424
 20
191.4993466711
 10
376.5472739424
 20
191.9215691169
 10
376.6509614762
 20
192.337377055
 10
376.8551860505
 20
192.7341363716
 10
377.1537424051
 20
193.0997917357
 10
377.5375590561
 20
193.423232894
  0
LWPOLYLINE
  5
270
330
1F
100
AcDbEntity
  8
0
  6
Continuous
 62
     7
370
    25
100
AcDbPolyline
 90
       37
 70
   128
 43
0.0
 10
377.5375590561
 20
181.9231723333
 10
377.9949739289
 20
182.1945716899
 10
378.5120887039
 20
182.4056829128
 10
379.0731911105
 20
182.5500914942
 10
379.6612323358
 20
182.6234096525
 10
380.258345045
 20
182.6234096525
 10
380.8463862704
 20
182.5500914942
 10
381.4074886769
 20
182.4056829128
 10
381.924603452
 20
182.1945716899
 10
382.3820183247
 20
181.9231723333
 10
382.7658349757
 20
181.5997311749
 10
383.0643913303
 20
181.2340758109
 10
383.2686159047
 20
180.8373164942
 10
383.3723034385
 20
180.4215085562
 10
383.3723034385
 20
179.9992861104
 10
383.2686159047
 20
179.5834781723
 10
383.0643913303
 20
179.1867188557
 10
382.7658349757
 20
178.8210634916
 10
382.3820183247
 20
178.4976223333
 10
381.924603452
 20
178.2262229766
 10
381.4074886769
 20
178.0151117537
 10
380.8463862704
 20
177.8707031723
 10
380.258345045
 20
177.797385014
 10
379.6612323358
 20
177.797385014
 10
379.0731911105
 20
177.8707031723
 10
378.5120887039
 20
178.0151117537
 10
377.9949739289
 20
178.2262229766
 10
377.5375590561
 20
178.4976223333
 10
377.1537424051
 20
178.8210634916
 10
376.8551860505
 20
179.1867188557
 10
376.6509614762
 20
179.5834781723
 10
376.5472739424
 20
179.9992861104
 10
376.5472739424
 20
180.4215085562
 10
376.6509614762
 20
180.8373164942
 10
376.8551860505
 20
181.2340758109
 10
377.1537424051
 20
181.5997311749
 10
377.5375590561
 20
181.9231723333
  0
LWPOLYLINE
  5
271
330
1F
100
AcDbEntity
  8
0
  6
Continuous
 62
     7
370
    25
100
AcDbPolyline
 90
       37
 70
   128
 43
0.0
 10
373.3282447458
 20
170.8149668338
 10
373.7856596186
 20
171.0863661905
 10
374.3027743936
 20
171.2974774133
 10
374.8638768002
 20
171.4418859948
 10
375.4519180256
 20
171.515204153
 10
376.0490307347
 20
171.515204153
 10
376.6370719601
 20
171.4418859948
 10
377.1981743666
 20
171.2974774133
 10
377.7152891417
 20
171.0863661905
 10
378.1727040144
 20
170.8149668338
 10
378.5565206654
 20
170.4915256754
 10
378.85507702
 20
170.1258703114
 10
379.0593015944
 20
169.7291109948
 10
379.1629891282
 20
169.3133030567
 10
379.1629891282
 20
168.8910806109
 10
379.0593015944
 20
168.4752726728
 10
378.85507702
 20
168.0785133562
 10
378.5565206654
 20
167.7128579921
 10
378.1727040144
 20
167.3894168338
 10
377.7152891417
 20
167.1180174771
 10
377.1981743666
 20
166.9069062542
 10
376.6370719601
 20
166.7624976728
 10
376.0490307347
 20
166.6891795145
 10
375.4519180256
 20
166.6891795145
 10
374.8638768002
 20
166.7624976728
 10
374.3027743936
 20
166.9069062542
 10
373.7856596186
 20
167.1180174771
 10
373.3282447458
 20
167.3894168338
 10
372.9444280948
 20
167.7128579921
 10
372.6458717402
 20
168.0785133562
 10
372.4416471659
 20
168.4752726728
 10
372.3379596321
 20
168.8910806109
 10
372.3379596321
 20
169.3133030567
 10
372.4416471659
 20
169.7291109948
 10
372.6458717402
 20
170.1258703114
 10
372.9444280948
 20
170.4915256754
 10
373.3282447458
 20
170.8149668338
  0
LWPOLYLINE
  5
272
330
1F
100
AcDbEntity
  8
0
  6
Continuous
 62
     7
370
    25
100
AcDbPolyline
 90
       37
 70
   128
 43
0.0
 10
365.1964739393
 20
160.8556222431
 10
365.653888812
 20
161.1270215998
 10
366.1710035871
 20
161.3381328227
 10
366.7321059936
 20
161.4825414041
 10
367.320147219
 20
161.5558595624
 10
367.9172599282
 20
161.5558595624
 10
368.5053011535
 20
161.4825414041
 10
369.0664035601
 20
161.3381328227
 10
369.5835183351
 20
161.1270215998
 10
370.0409332079
 20
160.8556222431
 10
370.4247498589
 20
160.5321810848
 10
370.7233062135
 20
160.1665257207
 10
370.9275307878
 20
159.7697664041
 10
371.0312183216
 20
159.353958466
 10
371.0312183216
 20
158.9317360203
 10
370.9275307878
 20
158.5159280822
 10
370.7233062135
 20
158.1191687656
 10
370.4247498589
 20
157.7535134015
 10
370.0409332079
 20
157.4300722431
 10
369.5835183351
 20
157.1586728865
 10
369.0664035601
 20
156.9475616636
 10
368.5053011535
 20
156.8031530822
 10
367.9172599282
 20
156.7298349239
 10
367.320147219
 20
156.7298349239
 10
366.7321059936
 20
156.8031530822
 10
366.1710035871
 20
156.9475616636
 10
365.653888812
 20
157.1586728865
 10
365.1964739393
 20
157.4300722431
 10
364.8126572883
 20
157.7535134015
 10
364.5141009337
 20
158.1191687656
 10
364.3098763593
 20
158.5159280822
 10
364.2061888255
 20
158.9317360203
 10
364.2061888255
 20
159.353958466
 10
364.3098763593
 20
159.7697664041
 10
364.5141009337
 20
160.1665257207
 10
364.8126572883
 20
160.5321810848
 10
365.1964739393
 20
160.8556222431
  0
LWPOLYLINE
  5
273
330
1F
100
AcDbEntity
  8
0
  6
Continuous
 62
     7
370
    25
100
AcDbPolyline
 90
       37
 70
   128
 43
0.0
 10
353.6964133786
 20
152.7238514366
 10
354.1538282513
 20
152.9952507933
 10
354.6709430264
 20
153.2063620161
 10
355.2320454329
 20
153.3507705976
 10
355.8200866583
 20
153.4240887558
 10
356.4171993674
 20
153.4240887558
 10
357.0052405928
 20
153.3507705976
 10
357.5663429994
 20
153.2063620161
 10
358.0834577744
 20
152.9952507933
 10
358.5408726472
 20
152.7238514366
 10
358.9246892982
 20
152.4004102783
 10
359.2232456527
 20
152.0347549142
 10
359.4274702271
 20
151.6379955976
 10
359.5311577609
 20
151.2221876595
 10
359.5311577609
 20
150.7999652137
 10
359.4274702271
 20
150.3841572756
 10
359.2232456527
 20
149.987397959
 10
358.9246892982
 20
149.6217425949
 10
358.5408726472
 20
149.2983014366
 10
358.0834577744
 20
149.0269020799
 10
357.5663429994
 20
148.815790857
 10
357.0052405928
 20
148.6713822756
 10
356.4171993674
 20
148.5980641173
 10
355.8200866583
 20
148.5980641173
 10
355.2320454329
 20
148.6713822756
 10
354.6709430264
 20
148.815790857
 10
354.1538282513
 20
149.0269020799
 10
353.6964133786
 20
149.2983014366
 10
353.3125967275
 20
149.6217425949
 10
353.014040373
 20
149.987397959
 10
352.8098157986
 20
150.3841572756
 10
352.7061282648
 20
150.7999652137
 10
352.7061282648
 20
151.2221876595
 10
352.8098157986
 20
151.6379955976
 10
353.014040373
 20
152.0347549142
 10
353.3125967275
 20
152.4004102783
 10
353.6964133786
 20
152.7238514366
  0
LWPOLYLINE
  5
274
330
1F
100
AcDbEntity
  8
0
  6
Continuous
 62
     7
370
    25
100
AcDbPolyline
 90
       37
 70
   128
 43
0.0
 10
339.6117731861
 20
146.9738211562
 10
340.0691880589
 20
147.2452205129
 10
340.5863028339
 20
147.4563317358
 10
341.1474052405
 20
147.6007403172
 10
341.7354464658
 20
147.6740584755
 10
342.332559175
 20
147.6740584755
 10
342.9206004004
 20
147.6007403172
 10
343.4817028069
 20
147.4563317358
 10
343.998817582
 20
147.2452205129
 10
344.4562324547
 20
146.9738211562
 10
344.8400491057
 20
146.6503799979
 10
345.1386054603
 20
146.2847246338
 10
345.3428300347
 20
145.8879653172
 10
345.4465175685
 20
145.4721573791
 10
345.4465175685
 20
145.0499349333
 10
345.3428300347
 20
144.6341269953
 10
345.1386054603
 20
144.2373676786
 10
344.8400491057
 20
143.8717123146
 10
344.4562324547
 20
143.5482711562
 10
343.998817582
 20
143.2768717996
 10
343.4817028069
 20
143.0657605767
 10
342.9206004004
 20
142.9213519953
 10
342.332559175
 20
142.848033837
 10
341.7354464658
 20
142.848033837
 10
341.1474052405
 20
142.9213519953
 10
340.5863028339
 20
143.0657605767
 10
340.0691880589
 20
143.2768717996
 10
339.6117731861
 20
143.5482711562
 10
339.2279565351
 20
143.8717123146
 10
338.9294001805
 20
144.2373676786
 10
338.7251756062
 20
144.6341269953
 10
338.6214880724
 20
145.0499349333
 10
338.6214880724
 20
145.4721573791
 10
338.7251756062
 20
145.8879653172
 10
338.9294001805
 20
146.2847246338
 10
339.2279565351
 20
146.6503799979
 10
339.6117731861
 20
146.9738211562
  0
LWPOLYLINE
  5
275
330
1F
100
AcDbEntity
  8
0
  6
Continuous
 62
     7
370
    25
100
AcDbPolyline
 90
       37
 70
   128
 43
0.0
 10
323.9023983151
 20
143.9973864633
 10
324.3598131879
 20
144.2687858199
 10
324.8769279629
 20
144.4798970428
 10
325.4380303695
 20
144.6243056242
 10
326.0260715948
 20
144.6976237825
 10
326.623184304
 20
144.6976237825
 10
327.2112255294
 20
144.6243056242
 10
327.7723279359
 20
144.4798970428
 10
328.2894427109
 20
144.2687858199
 10
328.7468575837
 20
143.9973864633
 10
329.1306742347
 20
143.6739453049
 10
329.4292305893
 20
143.3082899409
 10
329.6334551636
 20
142.9115306242
 10
329.7371426975
 20
142.4957226862
 10
329.7371426975
 20
142.0735002404
 10
329.6334551636
 20
141.6576923023
 10
329.4292305893
 20
141.2609329857
 10
329.1306742347
 20
140.8952776216
 10
328.7468575837
 20
140.5718364633
 10
328.2894427109
 20
140.3004371066
 10
327.7723279359
 20
140.0893258837
 10
327.2112255294
 20
139.9449173023
 10
326.623184304
 20
139.871599144
 10
326.0260715948
 20
139.871599144
 10
325.4380303695
 20
139.9449173023
 10
324.8769279629
 20
140.0893258837
 10
324.3598131879
 20
140.3004371066
 10
323.9023983151
 20
140.5718364633
 10
323.5185816641
 20
140.8952776216
 10
323.2200253095
 20
141.2609329857
 10
323.0158007352
 20
141.6576923023
 10
322.9121132014
 20
142.0735002404
 10
322.9121132014
 20
142.4957226862
 10
323.0158007352
 20
142.9115306242
 10
323.2200253095
 20
143.3082899409
 10
323.5185816641
 20
143.6739453049
 10
323.9023983151
 20
143.9973864633
  0
LWPOLYLINE
  5
276
330
1F
100
AcDbEntity
  8
0
  6
Continuous
 62
     7
370
    25
100
AcDbPolyline
 90
       37
 70
   128
 43
0.0
 10
307.638856702
 20
143.9973864633
 10
308.0962715748
 20
144.2687858199
 10
308.6133863498
 20
144.4798970428
 10
309.1744887564
 20
144.6243056242
 10
309.7625299817
 20
144.6976237825
 10
310.3596426909
 20
144.6976237825
 10
310.9476839163
 20
144.6243056242
 10
311.5087863228
 20
144.4798970428
 10
312.0259010979
 20
144.2687858199
 10
312.4833159706
 20
143.9973864633
 10
312.8671326216
 20
143.6739453049
 10
313.1656889762
 20
143.3082899409
 10
313.3699135506
 20
142.9115306242
 10
313.4736010844
 20
142.4957226862
 10
313.4736010844
 20
142.0735002404
 10
313.3699135506
 20
141.6576923023
 10
313.1656889762
 20
141.2609329857
 10
312.8671326216
 20
140.8952776216
 10
312.4833159706
 20
140.5718364633
 10
312.0259010979
 20
140.3004371066
 10
311.5087863228
 20
140.0893258837
 10
310.9476839163
 20
139.9449173023
 10
310.3596426909
 20
139.871599144
 10
309.7625299817
 20
139.871599144
 10
309.1744887564
 20
139.9449173023
 10
308.6133863498
 20
140.0893258837
 10
308.0962715748
 20
140.3004371066
 10
307.638856702
 20
140.5718364633
 10
307.255040051
 20
140.8952776216
 10
306.9564836964
 20
141.2609329857
 10
306.7522591221
 20
141.6576923023
 10
306.6485715883
 20
142.0735002404
 10
306.6485715883
 20
142.4957226862
 10
306.7522591221
 20
142.9115306242
 10
306.9564836964
 20
143.3082899409
 10
307.255040051
 20
143.6739453049
 10
307.638856702
 20
143.9973864633
  0
LWPOLYLINE
  5
277
330
1F
100
AcDbEntity
  8
0
  6
Continuous
 62
     7
370
    25
100
AcDbPolyline
 90
       37
 70
   128
 43
0.0
 10
291.929481831
 20
146.9738211562
 10
292.3868967038
 20
147.2452205129
 10
292.9040114788
 20
147.4563317358
 10
293.4651138853
 20
147.6007403172
 10
294.0531551107
 20
147.6740584755
 10
294.6502678199
 20
147.6740584755
 10
295.2383090453
 20
147.6007403172
 10
295.7994114518
 20
147.4563317358
 10
296.3165262268
 20
147.2452205129
 10
296.7739410996
 20
146.9738211562
 10
297.1577577506
 20
146.6503799979
 10
297.4563141052
 20
146.2847246338
 10
297.6605386795
 20
145.8879653172
 10
297.7642262133
 20
145.4721573791
 10
297.7642262133
 20
145.0499349333
 10
297.6605386795
 20
144.6341269953
 10
297.4563141052
 20
144.2373676786
 10
297.1577577506
 20
143.8717123146
 10
296.7739410996
 20
143.5482711562
 10
296.3165262268
 20
143.2768717996
 10
295.7994114518
 20
143.0657605767
 10
295.2383090453
 20
142.9213519953
 10
294.6502678199
 20
142.848033837
 10
294.0531551107
 20
142.848033837
 10
293.4651138853
 20
142.9213519953
 10
292.9040114788
 20
143.0657605767
 10
292.3868967038
 20
143.2768717996
 10
291.929481831
 20
143.5482711562
 10
291.54566518
 20
143.8717123146
 10
291.2471088254
 20
144.2373676786
 10
291.0428842511
 20
144.6341269953
 10
290.9391967173
 20
145.0499349333
 10
290.9391967173
 20
145.4721573791
 10
291.0428842511
 20
145.8879653172
 10
291.2471088254
 20
146.2847246338
 10
291.54566518
 20
146.6503799979
 10
291.929481831
 20
146.9738211562
  0
LWPOLYLINE
  5
278
330
1F
100
AcDbEntity
  8
0
  6
Continuous
 62
     7
370
    25
100
AcDbPolyline
 90
       37
 70
   128
 43
0.0
 10
258.2130102713
 20
170.8149668338
 10
258.670425144
 20
171.0863661905
 10
259.1875399191
 20
171.2974774133
 10
259.7486423256
 20
171.4418859948
 10
260.336683551
 20
171.515204153
 10
260.9337962602
 20
171.515204153
 10
261.5218374855
 20
171.4418859948
 10
262.0829398921
 20
171.2974774133
 10
262.6000546671
 20
171.0863661905
 10
263.0574695399
 20
170.8149668338
 10
263.4412861909
 20
170.4915256754
 10
263.7398425455
 20
170.1258703114
 10
263.9440671198
 20
169.7291109948
 10
264.0477546536
 20
169.3133030567
 10
264.0477546536
 20
168.8910806109
 10
263.9440671198
 20
168.4752726728
 10
263.7398425455
 20
168.0785133562
 10
263.4412861909
 20
167.7128579921
 10
263.0574695399
 20
167.3894168338
 10
262.6000546671
 20
167.1180174771
 10
262.0829398921
 20
166.9069062542
 10
261.5218374855
 20
166.7624976728
 10
260.9337962602
 20
166.6891795145
 10
260.336683551
 20
166.6891795145
 10
259.7486423256
 20
166.7624976728
 10
259.1875399191
 20
166.9069062542
 10
258.670425144
 20
167.1180174771
 10
258.2130102713
 20
167.3894168338
 10
257.8291936203
 20
167.7128579921
 10
257.5306372657
 20
168.0785133562
 10
257.3264126913
 20
168.4752726728
 10
257.2227251575
 20
168.8910806109
 10
257.2227251575
 20
169.3133030567
 10
257.3264126913
 20
169.7291109948
 10
257.5306372657
 20
170.1258703114
 10
257.8291936203
 20
170.4915256754
 10
258.2130102713
 20
170.8149668338
  0
LWPOLYLINE
  5
279
330
1F
100
AcDbEntity
  8
0
  6
Continuous
 62
     7
370
    25
100
AcDbPolyline
 90
       37
 70
   128
 43
0.0
 10
254.003695961
 20
181.9231723333
 10
254.4611108338
 20
182.1945716899
 10
254.9782256088
 20
182.4056829128
 10
255.5393280154
 20
182.5500914942
 10
256.1273692407
 20
182.6234096525
 10
256.7244819499
 20
182.6234096525
 10
257.3125231753
 20
182.5500914942
 10
257.8736255818
 20
182.4056829128
 10
258.3907403568
 20
182.1945716899
 10
258.8481552296
 20
181.9231723333
 10
259.2319718806
 20
181.5997311749
 10
259.5305282352
 20
181.2340758109
 10
259.7347528095
 20
180.8373164942
 10
259.8384403433
 20
180.4215085562
 10
259.8384403433
 20
179.9992861104
 10
259.7347528095
 20
179.5834781723
 10
259.5305282352
 20
179.1867188557
 10
259.2319718806
 20
178.8210634916
 10
258.8481552296
 20
178.4976223333
 10
258.3907403568
 20
178.2262229766
 10
257.8736255818
 20
178.0151117537
 10
257.3125231753
 20
177.8707031723
 10
256.7244819499
 20
177.797385014
 10
256.1273692407
 20
177.797385014
 10
255.5393280154
 20
177.8707031723
 10
254.9782256088
 20
178.0151117537
 10
254.4611108338
 20
178.2262229766
 10
254.003695961
 20
178.4976223333
 10
253.61987931
 20
178.8210634916
 10
253.3213229554
 20
179.1867188557
 10
253.1170983811
 20
179.5834781723
 10
253.0134108473
 20
179.9992861104
 10
253.0134108473
 20
180.4215085562
 10
253.1170983811
 20
180.8373164942
 10
253.3213229554
 20
181.2340758109
 10
253.61987931
 20
181.5997311749
 10
254.003695961
 20
181.9231723333
  0
LWPOLYLINE
  5
27A
330
1F
100
AcDbEntity
  8
0
  6
Continuous
 62
     7
370
    25
100
AcDbPolyline
 90
       37
 70
   128
 43
0.0
 10
254.003695961
 20
193.423232894
 10
254.4611108338
 20
193.6946322507
 10
254.9782256088
 20
193.9057434736
 10
255.5393280153
 20
194.050152055
 10
256.1273692407
 20
194.1234702132
 10
256.7244819499
 20
194.1234702132
 10
257.3125231753
 20
194.050152055
 10
257.8736255818
 20
193.9057434736
 10
258.3907403568
 20
193.6946322507
 10
258.8481552296
 20
193.423232894
 10
259.2319718806
 20
193.0997917357
 10
259.5305282352
 20
192.7341363716
 10
259.7347528095
 20
192.337377055
 10
259.8384403433
 20
191.9215691169
 10
259.8384403433
 20
191.4993466711
 10
259.7347528095
 20
191.083538733
 10
259.5305282352
 20
190.6867794164
 10
259.2319718806
 20
190.3211240523
 10
258.8481552296
 20
189.997682894
 10
258.3907403568
 20
189.7262835373
 10
257.8736255818
 20
189.5151723145
 10
257.3125231753
 20
189.370763733
 10
256.7244819499
 20
189.2974455748
 10
256.1273692407
 20
189.2974455748
 10
255.5393280153
 20
189.370763733
 10
254.9782256088
 20
189.5151723145
 10
254.4611108338
 20
189.7262835373
 10
254.003695961
 20
189.997682894
 10
253.61987931
 20
190.3211240523
 10
253.3213229554
 20
190.6867794164
 10
253.1170983811
 20
191.083538733
 10
253.0134108473
 20
191.4993466711
 10
253.0134108473
 20
191.9215691169
 10
253.1170983811
 20
192.337377055
 10
253.3213229554
 20
192.7341363716
 10
253.61987931
 20
193.0997917357
 10
254.003695961
 20
193.423232894
  0
LWPOLYLINE
  5
27B
330
1F
100
AcDbEntity
  8
0
  6
Continuous
 62
     7
370
    25
100
AcDbPolyline
 90
       37
 70
   128
 43
0.0
 10
258.2130102713
 20
204.5314383935
 10
258.670425144
 20
204.8028377502
 10
259.1875399191
 20
205.013948973
 10
259.7486423256
 20
205.1583575545
 10
260.336683551
 20
205.2316757127
 10
260.9337962602
 20
205.2316757127
 10
261.5218374855
 20
205.1583575545
 10
262.0829398921
 20
205.013948973
 10
262.6000546671
 20
204.8028377502
 10
263.0574695399
 20
204.5314383935
 10
263.4412861909
 20
204.2079972352
 10
263.7398425455
 20
203.8423418711
 10
263.9440671198
 20
203.4455825545
 10
264.0477546536
 20
203.0297746164
 10
264.0477546536
 20
202.6075521706
 10
263.9440671198
 20
202.1917442325
 10
263.7398425455
 20
201.7949849159
 10
263.4412861909
 20
201.4293295518
 10
263.0574695399
 20
201.1058883935
 10
262.6000546671
 20
200.8344890368
 10
262.0829398921
 20
200.6233778139
 10
261.5218374855
 20
200.4789692325
 10
260.9337962602
 20
200.4056510743
 10
260.336683551
 20
200.4056510743
 10
259.7486423256
 20
200.4789692325
 10
259.1875399191
 20
200.6233778139
 10
258.670425144
 20
200.8344890368
 10
258.2130102713
 20
201.1058883935
 10
257.8291936203
 20
201.4293295518
 10
257.5306372657
 20
201.7949849159
 10
257.3264126913
 20
202.1917442325
 10
257.2227251575
 20
202.6075521706
 10
257.2227251575
 20
203.0297746164
 10
257.3264126913
 20
203.4455825545
 10
257.5306372657
 20
203.8423418711
 10
257.8291936203
 20
204.2079972352
 10
258.2130102713
 20
204.5314383935
  0
LWPOLYLINE
  5
27C
330
1F
100
AcDbEntity
  8
0
  6
Continuous
 62
     7
370
    25
100
AcDbPolyline
 90
       37
 70
   128
 43
0.0
 10
266.3447810778
 20
214.4907829841
 10
266.8021959506
 20
214.7621823408
 10
267.3193107256
 20
214.9732935637
 10
267.8804131322
 20
215.1177021451
 10
268.4684543576
 20
215.1910203034
 10
269.0655670667
 20
215.1910203034
 10
269.6536082921
 20
215.1177021451
 10
270.2147106986
 20
214.9732935637
 10
270.7318254737
 20
214.7621823408
 10
271.1892403464
 20
214.4907829841
 10
271.5730569974
 20
214.1673418258
 10
271.871613352
 20
213.8016864617
 10
272.0758379264
 20
213.4049271451
 10
272.1795254602
 20
212.989119207
 10
272.1795254602
 20
212.5668967613
 10
272.0758379264
 20
212.1510888232
 10
271.871613352
 20
211.7543295066
 10
271.5730569974
 20
211.3886741425
 10
271.1892403464
 20
211.0652329841
 10
270.7318254737
 20
210.7938336275
 10
270.2147106986
 20
210.5827224046
 10
269.6536082921
 20
210.4383138232
 10
269.0655670667
 20
210.3649956649
 10
268.4684543576
 20
210.3649956649
 10
267.8804131322
 20
210.4383138232
 10
267.3193107256
 20
210.5827224046
 10
266.8021959506
 20
210.7938336275
 10
266.3447810778
 20
211.0652329841
 10
265.9609644268
 20
211.3886741425
 10
265.6624080722
 20
211.7543295066
 10
265.4581834979
 20
212.1510888232
 10
265.3544959641
 20
212.5668967613
 10
265.3544959641
 20
212.989119207
 10
265.4581834979
 20
213.4049271451
 10
265.6624080722
 20
213.8016864617
 10
265.9609644268
 20
214.1673418258
 10
266.3447810778
 20
214.4907829841
  0
LWPOLYLINE
  5
27D
330
1F
100
AcDbEntity
  8
0
  6
Continuous
 62
     7
370
    25
100
AcDbPolyline
 90
       37
 70
   128
 43
0.0
 10
277.8448416386
 20
222.6225537907
 10
278.3022565113
 20
222.8939531474
 10
278.8193712864
 20
223.1050643702
 10
279.3804736929
 20
223.2494729517
 10
279.9685149183
 20
223.3227911099
 10
280.5656276274
 20
223.3227911099
 10
281.1536688528
 20
223.2494729517
 10
281.7147712594
 20
223.1050643702
 10
282.2318860344
 20
222.8939531474
 10
282.6893009072
 20
222.6225537907
 10
283.0731175582
 20
222.2991126324
 10
283.3716739127
 20
221.9334572683
 10
283.5758984871
 20
221.5366979517
 10
283.6795860209
 20
221.1208900136
 10
283.6795860209
 20
220.6986675678
 10
283.5758984871
 20
220.2828596297
 10
283.3716739127
 20
219.8861003131
 10
283.0731175582
 20
219.520444949
 10
282.6893009072
 20
219.1970037907
 10
282.2318860344
 20
218.925604434
 10
281.7147712594
 20
218.7144932111
 10
281.1536688528
 20
218.5700846297
 10
280.5656276274
 20
218.4967664714
 10
279.9685149183
 20
218.4967664714
 10
279.3804736929
 20
218.5700846297
 10
278.8193712864
 20
218.7144932111
 10
278.3022565113
 20
218.925604434
 10
277.8448416386
 20
219.1970037907
 10
277.4610249875
 20
219.520444949
 10
277.162468633
 20
219.8861003131
 10
276.9582440586
 20
220.2828596297
 10
276.8545565248
 20
220.6986675678
 10
276.8545565248
 20
221.1208900136
 10
276.9582440586
 20
221.5366979517
 10
277.162468633
 20
221.9334572683
 10
277.4610249875
 20
222.2991126324
 10
277.8448416386
 20
222.6225537907
  0
LWPOLYLINE
  5
27E
330
1F
100
AcDbEntity
  8
0
  6
Continuous
 62
     7
370
    25
100
AcDbPolyline
 90
       37
 70
   128
 43
0.0
 10
291.929481831
 20
228.3725840711
 10
292.3868967038
 20
228.6439834277
 10
292.9040114788
 20
228.8550946506
 10
293.4651138853
 20
228.999503232
 10
294.0531551107
 20
229.0728213903
 10
294.6502678199
 20
229.0728213903
 10
295.2383090453
 20
228.999503232
 10
295.7994114518
 20
228.8550946506
 10
296.3165262268
 20
228.6439834277
 10
296.7739410996
 20
228.3725840711
 10
297.1577577506
 20
228.0491429127
 10
297.4563141052
 20
227.6834875486
 10
297.6605386795
 20
227.286728232
 10
297.7642262133
 20
226.8709202939
 10
297.7642262133
 20
226.4486978482
 10
297.6605386795
 20
226.0328899101
 10
297.4563141052
 20
225.6361305935
 10
297.1577577506
 20
225.2704752294
 10
296.7739410996
 20
224.9470340711
 10
296.3165262268
 20
224.6756347144
 10
295.7994114518
 20
224.4645234915
 10
295.2383090453
 20
224.3201149101
 10
294.6502678199
 20
224.2467967518
 10
294.0531551107
 20
224.2467967518
 10
293.4651138853
 20
224.3201149101
 10
292.9040114788
 20
224.4645234915
 10
292.3868967038
 20
224.6756347144
 10
291.929481831
 20
224.9470340711
 10
291.54566518
 20
225.2704752294
 10
291.2471088254
 20
225.6361305935
 10
291.0428842511
 20
226.0328899101
 10
290.9391967173
 20
226.4486978482
 10
290.9391967173
 20
226.8709202939
 10
291.0428842511
 20
227.286728232
 10
291.2471088254
 20
227.6834875486
 10
291.54566518
 20
228.0491429127
 10
291.929481831
 20
228.3725840711
  0
LWPOLYLINE
  5
27F
330
1F
100
AcDbEntity
  8
0
  6
Continuous
 62
     7
370
    25
100
AcDbPolyline
 90
       37
 70
   128
 43
0.0
 10
323.9023983151
 20
231.349018764
 10
324.3598131879
 20
231.6204181207
 10
324.8769279629
 20
231.8315293436
 10
325.4380303695
 20
231.975937925
 10
326.0260715948
 20
232.0492560832
 10
326.623184304
 20
232.0492560832
 10
327.2112255294
 20
231.975937925
 10
327.7723279359
 20
231.8315293436
 10
328.2894427109
 20
231.6204181207
 10
328.7468575837
 20
231.349018764
 10
329.1306742347
 20
231.0255776057
 10
329.4292305893
 20
230.6599222416
 10
329.6334551636
 20
230.263162925
 10
329.7371426975
 20
229.8473549869
 10
329.7371426975
 20
229.4251325411
 10
329.6334551636
 20
229.009324603
 10
329.4292305893
 20
228.6125652864
 10
329.1306742347
 20
228.2469099223
 10
328.7468575837
 20
227.923468764
 10
328.2894427109
 20
227.6520694073
 10
327.7723279359
 20
227.4409581845
 10
327.2112255294
 20
227.296549603
 10
326.623184304
 20
227.2232314448
 10
326.0260715948
 20
227.2232314448
 10
325.4380303695
 20
227.296549603
 10
324.8769279629
 20
227.4409581845
 10
324.3598131879
 20
227.6520694073
 10
323.9023983151
 20
227.923468764
 10
323.5185816641
 20
228.2469099223
 10
323.2200253095
 20
228.6125652864
 10
323.0158007352
 20
229.009324603
 10
322.9121132014
 20
229.4251325411
 10
322.9121132014
 20
229.8473549869
 10
323.0158007352
 20
230.263162925
 10
323.2200253095
 20
230.6599222416
 10
323.5185816641
 20
231.0255776057
 10
323.9023983151
 20
231.349018764
  0
LWPOLYLINE
  5
280
330
1F
100
AcDbEntity
  8
0
  6
Continuous
 62
     7
370
    25
100
AcDbPolyline
 90
       37
 70
   128
 43
0.0
 10
339.6117731861
 20
228.3725840711
 10
340.0691880589
 20
228.6439834277
 10
340.5863028339
 20
228.8550946506
 10
341.1474052405
 20
228.999503232
 10
341.7354464658
 20
229.0728213903
 10
342.332559175
 20
229.0728213903
 10
342.9206004004
 20
228.999503232
 10
343.4817028069
 20
228.8550946506
 10
343.998817582
 20
228.6439834277
 10
344.4562324547
 20
228.3725840711
 10
344.8400491057
 20
228.0491429127
 10
345.1386054603
 20
227.6834875486
 10
345.3428300347
 20
227.286728232
 10
345.4465175685
 20
226.8709202939
 10
345.4465175685
 20
226.4486978482
 10
345.3428300347
 20
226.0328899101
 10
345.1386054603
 20
225.6361305935
 10
344.8400491057
 20
225.2704752294
 10
344.4562324547
 20
224.9470340711
 10
343.998817582
 20
224.6756347144
 10
343.4817028069
 20
224.4645234915
 10
342.9206004004
 20
224.3201149101
 10
342.332559175
 20
224.2467967518
 10
341.7354464658
 20
224.2467967518
 10
341.1474052405
 20
224.3201149101
 10
340.5863028339
 20
224.4645234915
 10
340.0691880589
 20
224.6756347144
 10
339.6117731861
 20
224.9470340711
 10
339.2279565351
 20
225.2704752294
 10
338.9294001805
 20
225.6361305935
 10
338.7251756062
 20
226.0328899101
 10
338.6214880724
 20
226.4486978482
 10
338.6214880724
 20
226.8709202939
 10
338.7251756062
 20
227.286728232
 10
338.9294001805
 20
227.6834875486
 10
339.2279565351
 20
228.0491429127
 10
339.6117731861
 20
228.3725840711
  0
LWPOLYLINE
  5
281
330
1F
100
AcDbEntity
  8
0
  6
Continuous
 62
     7
370
    25
100
AcDbPolyline
 90
       37
 70
   128
 43
0.0
 10
353.6964133786
 20
222.6225537907
 10
354.1538282513
 20
222.8939531474
 10
354.6709430264
 20
223.1050643702
 10
355.2320454329
 20
223.2494729517
 10
355.8200866583
 20
223.3227911099
 10
356.4171993674
 20
223.3227911099
 10
357.0052405928
 20
223.2494729517
 10
357.5663429994
 20
223.1050643702
 10
358.0834577744
 20
222.8939531474
 10
358.5408726472
 20
222.6225537907
 10
358.9246892982
 20
222.2991126324
 10
359.2232456527
 20
221.9334572683
 10
359.4274702271
 20
221.5366979517
 10
359.5311577609
 20
221.1208900136
 10
359.5311577609
 20
220.6986675678
 10
359.4274702271
 20
220.2828596297
 10
359.2232456527
 20
219.8861003131
 10
358.9246892982
 20
219.520444949
 10
358.5408726472
 20
219.1970037907
 10
358.0834577744
 20
218.925604434
 10
357.5663429994
 20
218.7144932111
 10
357.0052405928
 20
218.5700846297
 10
356.4171993674
 20
218.4967664714
 10
355.8200866583
 20
218.4967664714
 10
355.2320454329
 20
218.5700846297
 10
354.6709430264
 20
218.7144932111
 10
354.1538282513
 20
218.925604434
 10
353.6964133786
 20
219.1970037907
 10
353.3125967275
 20
219.520444949
 10
353.014040373
 20
219.8861003131
 10
352.8098157986
 20
220.2828596297
 10
352.7061282648
 20
220.6986675678
 10
352.7061282648
 20
221.1208900136
 10
352.8098157986
 20
221.5366979517
 10
353.014040373
 20
221.9334572683
 10
353.3125967275
 20
222.2991126324
 10
353.6964133786
 20
222.6225537907
  0
LWPOLYLINE
  5
282
330
1F
100
AcDbEntity
  8
0
  6
Continuous
 62
     7
370
    25
100
AcDbPolyline
 90
       37
 70
   128
 43
0.0
 10
307.638856702
 20
231.349018764
 10
308.0962715748
 20
231.6204181207
 10
308.6133863498
 20
231.8315293436
 10
309.1744887564
 20
231.975937925
 10
309.7625299817
 20
232.0492560832
 10
310.3596426909
 20
232.0492560832
 10
310.9476839163
 20
231.975937925
 10
311.5087863228
 20
231.8315293436
 10
312.0259010979
 20
231.6204181207
 10
312.4833159706
 20
231.349018764
 10
312.8671326216
 20
231.0255776057
 10
313.1656889762
 20
230.6599222416
 10
313.3699135506
 20
230.263162925
 10
313.4736010844
 20
229.8473549869
 10
313.4736010844
 20
229.4251325411
 10
313.3699135506
 20
229.009324603
 10
313.1656889762
 20
228.6125652864
 10
312.8671326216
 20
228.2469099223
 10
312.4833159706
 20
227.923468764
 10
312.0259010979
 20
227.6520694073
 10
311.5087863228
 20
227.4409581845
 10
310.9476839163
 20
227.296549603
 10
310.3596426909
 20
227.2232314448
 10
309.7625299817
 20
227.2232314448
 10
309.1744887564
 20
227.296549603
 10
308.6133863498
 20
227.4409581845
 10
308.0962715748
 20
227.6520694073
 10
307.638856702
 20
227.923468764
 10
307.255040051
 20
228.2469099223
 10
306.9564836964
 20
228.6125652864
 10
306.7522591221
 20
229.009324603
 10
306.6485715883
 20
229.4251325411
 10
306.6485715883
 20
229.8473549869
 10
306.7522591221
 20
230.263162925
 10
306.9564836964
 20
230.6599222416
 10
307.255040051
 20
231.0255776057
 10
307.638856702
 20
231.349018764
  0
LINE
  5
283
330
1F
100
AcDbEntity
  8
0
  6
Continuous
 62
     7
370
    25
100
AcDbLine
 10
278.2406836625
 20
154.493148295
 30
0.0
 11
276.7269427943
 21
154.6466197182
 31
0.0
  0
LWPOLYLINE
  5
284
330
1F
100
AcDbEntity
  8
0
  6
Continuous
 62
     7
370
    25
100
AcDbPolyline
 90
       33
 70
   128
 43
0.0
 10
274.7591606924
 20
151.9263945471
 10
274.1205545842
 20
151.8933762521
 10
273.482415352
 20
151.9306354627
 10
272.860117665
 20
152.0372744938
 10
272.2686545224
 20
152.2107240945
 10
271.7222760274
 20
152.4468053489
 10
271.2341460605
 20
152.7398303585
 10
270.816025122
 20
153.0827392808
 10
270.477986987
 20
153.4672704216
 10
270.2281759979
 20
153.8841592838
 10
270.0726108431
 20
154.3233617768
 10
270.0150395494
 20
154.7742962084
 10
270.0568491799
 20
155.2260982292
 10
270.1970324166
 20
155.6678825868
 10
270.4322118291
 20
156.0890053843
 10
270.756721247
 20
156.4793205229
 10
271.1627422748
 20
156.8294241519
 10
271.6404926602
 20
157.1308812354
 10
272.1784619779
 20
157.376428777
 10
272.7636889495
 20
157.5601508074
 10
273.3820737195
 20
157.6776209171
 10
274.0187175625
 20
157.7260089026
 10
274.6582818379
 20
157.7041489535
 10
275.2853575432
 20
157.612567741
 10
275.8848365625
 20
157.4534717283
 10
276.4422756662
 20
157.2306940108
 10
276.9442444911
 20
156.9496019654
 10
277.3786491174
 20
156.616967934
 10
277.735023448
 20
156.2408060581
 10
278.0047813669
 20
155.8301791944
 10
278.1814236048
 20
155.3949805634
 10
278.2606943256
 20
154.9456953923
 10
278.2406836625
 20
154.493148295
  0
LINE
  5
285
330
1F
100
AcDbEntity
  8
0
  6
Continuous
 62
     7
370
    25
100
AcDbLine
 10
274.4859062388
 20
152.9900606444
 30
0.0
 11
274.7591606924
 21
151.9263945471
 31
0.0
  0
LWPOLYLINE
  5
286
330
1F
100
AcDbEntity
  8
0
  6
Continuous
 62
     7
370
    25
100
AcDbPolyline
 90
       26
 70
   128
 43
0.0
 10
276.7269427943
 20
154.6466197182
 10
276.7220975811
 20
155.0085781751
 10
276.6169503893
 20
155.3628347157
 10
276.415585558
 20
155.6956285932
 10
276.1258249061
 20
155.9940327568
 10
275.7589239011
 20
156.2464559903
 10
275.3291344516
 20
156.4430931614
 10
274.853151306
 20
156.5763060928
 10
274.3494635613
 20
156.640920259
 10
273.8376364726
 20
156.6344257865
 10
273.3375514596
 20
156.5570749465
 10
272.8686338328
 20
156.4118723564
 10
272.4490982361
 20
156.204458268
 10
272.095241117
 20
155.9428894775
 10
271.8208077074
 20
155.6373263672
 10
271.6364581029
 20
155.2996382356
 10
271.5493531827
 20
154.942942246
 10
271.5628764517
 20
154.5810939033
 10
271.6765026119
 20
154.2281488503
 10
271.8858179667
 20
153.8978168906
 10
272.1826918672
 20
153.602929444
 10
272.5555925387
 20
153.3549411234
 10
272.9900350215
 20
153.1634847913
 10
273.4691438246
 20
153.0359973803
 10
273.9743084378
 20
152.9774310138
 10
274.4859062388
 20
152.9900606444
  0
LWPOLYLINE
  5
287
330
1F
100
AcDbEntity
  8
0
  6
Continuous
 62
     7
370
    25
100
AcDbPolyline
 90
       33
 70
   128
 43
0.0
 10
371.9204669033
 20
210.0506089818
 10
372.3357437214
 20
210.2915972497
 10
372.8095296254
 20
210.4706676875
 10
373.3236172887
 20
210.5809387186
 10
373.8582506107
 20
210.6181726892
 10
374.3928839328
 20
210.5809387186
 10
374.9069715961
 20
210.4706676875
 10
375.3807575001
 20
210.2915972497
 10
375.7960343182
 20
210.0506089818
 10
376.1368431951
 20
209.7569639277
 10
376.3900870368
 20
209.4219467021
 10
376.5460338246
 20
209.0584318293
 10
376.5986906107
 20
208.6803889818
 10
376.5460338246
 20
208.3023461343
 10
376.3900870368
 20
207.9388312614
 10
376.1368431951
 20
207.6038140359
 10
375.7960343182
 20
207.3101689818
 10
375.3807575001
 20
207.0691807138
 10
374.9069715961
 20
206.8901102761
 10
374.3928839328
 20
206.7798392449
 10
373.8582506107
 20
206.7426052744
 10
373.3236172887
 20
206.7798392449
 10
372.8095296254
 20
206.8901102761
 10
372.3357437214
 20
207.0691807138
 10
371.9204669033
 20
207.3101689818
 10
371.5796580264
 20
207.6038140359
 10
371.3264141847
 20
207.9388312614
 10
371.1704673969
 20
208.3023461343
 10
371.1178106107
 20
208.6803889818
 10
371.1704673969
 20
209.0584318293
 10
371.3264141847
 20
209.4219467021
 10
371.5796580264
 20
209.7569639277
 10
371.9204669033
 20
210.0506089818
  0
LWPOLYLINE
  5
288
330
1F
100
AcDbEntity
  8
0
  6
Continuous
 62
     7
370
    25
100
AcDbPolyline
 90
       33
 70
   128
 43
0.0
 10
378.3397976503
 20
199.088971011
 10
378.7550744684
 20
199.3299592789
 10
379.2288603724
 20
199.5090297167
 10
379.7429480357
 20
199.6193007478
 10
380.2775813578
 20
199.6565347184
 10
380.8122146798
 20
199.6193007478
 10
381.3263023432
 20
199.5090297167
 10
381.8000882472
 20
199.3299592789
 10
382.2153650652
 20
199.088971011
 10
382.5561739421
 20
198.7953259569
 10
382.8094177839
 20
198.4603087313
 10
382.9653645716
 20
198.0967938585
 10
383.0180213578
 20
197.718751011
 10
382.9653645716
 20
197.3407081635
 10
382.8094177839
 20
196.9771932906
 10
382.5561739421
 20
196.6421760651
 10
382.2153650652
 20
196.348531011
 10
381.8000882472
 20
196.107542743
 10
381.3263023432
 20
195.9284723052
 10
380.8122146798
 20
195.8182012741
 10
380.2775813578
 20
195.7809673035
 10
379.7429480357
 20
195.8182012741
 10
379.2288603724
 20
195.9284723052
 10
378.7550744684
 20
196.107542743
 10
378.3397976503
 20
196.348531011
 10
377.9989887734
 20
196.6421760651
 10
377.7457449317
 20
196.9771932906
 10
377.589798144
 20
197.3407081635
 10
377.5371413578
 20
197.718751011
 10
377.589798144
 20
198.0967938585
 10
377.7457449317
 20
198.4603087313
 10
377.9989887734
 20
198.7953259569
 10
378.3397976503
 20
199.088971011
  0
LWPOLYLINE
  5
289
330
1F
100
AcDbEntity
  8
0
  6
Continuous
 62
     7
370
    25
100
AcDbPolyline
 90
       33
 70
   128
 43
0.0
 10
380.528157042
 20
187.3260227322
 10
380.94343386
 20
187.5670110001
 10
381.417219764
 20
187.7460814379
 10
381.9313074274
 20
187.856352469
 10
382.4659407494
 20
187.8935864396
 10
383.0005740715
 20
187.856352469
 10
383.5146617348
 20
187.7460814379
 10
383.9884476388
 20
187.5670110001
 10
384.4037244569
 20
187.3260227322
 10
384.7445333338
 20
187.0323776781
 10
384.9977771755
 20
186.6973604525
 10
385.1537239632
 20
186.3338455797
 10
385.2063807494
 20
185.9558027322
 10
385.1537239632
 20
185.5777598847
 10
384.9977771755
 20
185.2142450118
 10
384.7445333338
 20
184.8792277863
 10
384.4037244569
 20
184.5855827322
 10
383.9884476388
 20
184.3445944642
 10
383.5146617348
 20
184.1655240264
 10
383.0005740715
 20
184.0552529953
 10
382.4659407494
 20
184.0180190247
 10
381.9313074274
 20
184.0552529953
 10
381.417219764
 20
184.1655240264
 10
380.94343386
 20
184.3445944642
 10
380.528157042
 20
184.5855827322
 10
380.1873481651
 20
184.8792277863
 10
379.9341043233
 20
185.2142450118
 10
379.7781575356
 20
185.5777598847
 10
379.7255007494
 20
185.9558027322
 10
379.7781575356
 20
186.3338455797
 10
379.9341043233
 20
186.6973604525
 10
380.1873481651
 20
187.0323776781
 10
380.528157042
 20
187.3260227322
  0
LWPOLYLINE
  5
28A
330
1F
100
AcDbEntity
  8
0
  6
Continuous
 62
     7
370
    25
100
AcDbPolyline
 90
       33
 70
   128
 43
0.0
 10
378.3364120021
 20
175.5633896314
 10
378.7516888202
 20
175.8043778994
 10
379.2254747242
 20
175.9834483371
 10
379.7395623875
 20
176.0937193683
 10
380.2741957096
 20
176.1309533388
 10
380.8088290316
 20
176.0937193683
 10
381.322916695
 20
175.9834483371
 10
381.7967025989
 20
175.8043778994
 10
382.211979417
 20
175.5633896314
 10
382.5527882939
 20
175.2697445773
 10
382.8060321356
 20
174.9347273518
 10
382.9619789234
 20
174.5712124789
 10
383.0146357096
 20
174.1931696314
 10
382.9619789234
 20
173.8151267839
 10
382.8060321356
 20
173.4516119111
 10
382.5527882939
 20
173.1165946855
 10
382.211979417
 20
172.8229496314
 10
381.7967025989
 20
172.5819613635
 10
381.322916695
 20
172.4028909257
 10
380.8088290316
 20
172.2926198946
 10
380.2741957096
 20
172.255385924
 10
379.7395623875
 20
172.2926198946
 10
379.2254747242
 20
172.4028909257
 10
378.7516888202
 20
172.5819613635
 10
378.3364120021
 20
172.8229496314
 10
377.9956031252
 20
173.1165946855
 10
377.7423592835
 20
173.4516119111
 10
377.5864124957
 20
173.8151267839
 10
377.5337557096
 20
174.1931696314
 10
377.5864124957
 20
174.5712124789
 10
377.7423592835
 20
174.9347273518
 10
377.9956031252
 20
175.2697445773
 10
378.3364120021
 20
175.5633896314
  0
LWPOLYLINE
  5
28B
330
1F
100
AcDbEntity
  8
0
  6
Continuous
 62
     7
370
    25
100
AcDbPolyline
 90
       33
 70
   128
 43
0.0
 10
371.9139263332
 20
164.6026757158
 10
372.3292031513
 20
164.8436639838
 10
372.8029890553
 20
165.0227344216
 10
373.3170767186
 20
165.1330054527
 10
373.8517100407
 20
165.1702394233
 10
374.3863433627
 20
165.1330054527
 10
374.900431026
 20
165.0227344216
 10
375.37421693
 20
164.8436639838
 10
375.7894937481
 20
164.6026757158
 10
376.130302625
 20
164.3090306617
 10
376.3835464667
 20
163.9740134362
 10
376.5394932545
 20
163.6104985633
 10
376.5921500407
 20
163.2324557158
 10
376.5394932545
 20
162.8544128683
 10
376.3835464667
 20
162.4908979955
 10
376.130302625
 20
162.1558807699
 10
375.7894937481
 20
161.8622357158
 10
375.37421693
 20
161.6212474479
 10
374.900431026
 20
161.4421770101
 10
374.3863433627
 20
161.331905979
 10
373.8517100407
 20
161.2946720084
 10
373.3170767186
 20
161.331905979
 10
372.8029890553
 20
161.4421770101
 10
372.3292031513
 20
161.6212474479
 10
371.9139263332
 20
161.8622357158
 10
371.5731174563
 20
162.1558807699
 10
371.3198736146
 20
162.4908979955
 10
371.1639268268
 20
162.8544128683
 10
371.1112700407
 20
163.2324557158
 10
371.1639268268
 20
163.6104985633
 10
371.3198736146
 20
163.9740134362
 10
371.5731174563
 20
164.3090306617
 10
371.9139263332
 20
164.6026757158
  0
LWPOLYLINE
  5
28C
330
1F
100
AcDbEntity
  8
0
  6
Continuous
 62
     7
370
    25
100
AcDbPolyline
 90
       33
 70
   128
 43
0.0
 10
361.6983818199
 20
155.1908355253
 10
362.113658638
 20
155.4318237933
 10
362.587444542
 20
155.610894231
 10
363.1015322053
 20
155.7211652622
 10
363.6361655274
 20
155.7583992327
 10
364.1707988494
 20
155.7211652622
 10
364.6848865128
 20
155.610894231
 10
365.1586724167
 20
155.4318237933
 10
365.5739492348
 20
155.1908355253
 10
365.9147581117
 20
154.8971904712
 10
366.1680019534
 20
154.5621732457
 10
366.3239487412
 20
154.1986583728
 10
366.3766055274
 20
153.8206155253
 10
366.3239487412
 20
153.4425726778
 10
366.1680019534
 20
153.079057805
 10
365.9147581117
 20
152.7440405794
 10
365.5739492348
 20
152.4503955253
 10
365.1586724167
 20
152.2094072574
 10
364.6848865128
 20
152.0303368196
 10
364.1707988494
 20
151.9200657885
 10
363.6361655274
 20
151.8828318179
 10
363.1015322053
 20
151.9200657885
 10
362.587444542
 20
152.0303368196
 10
362.113658638
 20
152.2094072574
 10
361.6983818199
 20
152.4503955253
 10
361.357572943
 20
152.7440405794
 10
361.1043291013
 20
153.079057805
 10
360.9483823135
 20
153.4425726778
 10
360.8957255274
 20
153.8206155253
 10
360.9483823135
 20
154.1986583728
 10
361.1043291013
 20
154.5621732457
 10
361.357572943
 20
154.8971904712
 10
361.6983818199
 20
155.1908355253
  0
LWPOLYLINE
  5
28D
330
1F
100
AcDbEntity
  8
0
  6
Continuous
 62
     7
370
    25
100
AcDbPolyline
 90
       33
 70
   128
 43
0.0
 10
348.3859509389
 20
147.9692704151
 10
348.8012277569
 20
148.210258683
 10
349.2750136609
 20
148.3893291208
 10
349.7891013242
 20
148.4996001519
 10
350.3237346463
 20
148.5368341225
 10
350.8583679684
 20
148.4996001519
 10
351.3724556317
 20
148.3893291208
 10
351.8462415357
 20
148.210258683
 10
352.2615183537
 20
147.9692704151
 10
352.6023272306
 20
147.675625361
 10
352.8555710724
 20
147.3406081354
 10
353.0115178601
 20
146.9770932626
 10
353.0641746463
 20
146.5990504151
 10
353.0115178601
 20
146.2210075676
 10
352.8555710724
 20
145.8574926947
 10
352.6023272306
 20
145.5224754692
 10
352.2615183537
 20
145.2288304151
 10
351.8462415357
 20
144.9878421471
 10
351.3724556317
 20
144.8087717093
 10
350.8583679684
 20
144.6985006782
 10
350.3237346463
 20
144.6612667076
 10
349.7891013242
 20
144.6985006782
 10
349.2750136609
 20
144.8087717093
 10
348.8012277569
 20
144.9878421471
 10
348.3859509389
 20
145.2288304151
 10
348.0451420619
 20
145.5224754692
 10
347.7918982202
 20
145.8574926947
 10
347.6359514325
 20
146.2210075676
 10
347.5832946463
 20
146.5990504151
 10
347.6359514325
 20
146.9770932626
 10
347.7918982202
 20
147.3406081354
 10
348.0451420619
 20
147.675625361
 10
348.3859509389
 20
147.9692704151
  0
LWPOLYLINE
  5
28E
330
1F
100
AcDbEntity
  8
0
  6
Continuous
 62
     7
370
    25
100
AcDbPolyline
 90
       33
 70
   128
 43
0.0
 10
316.2485328653
 20
141.8827143477
 10
316.6638096834
 20
142.1237026156
 10
317.1375955874
 20
142.3027730534
 10
317.6516832507
 20
142.4130440845
 10
318.1863165728
 20
142.4502780551
 10
318.7209498948
 20
142.4130440845
 10
319.2350375582
 20
142.3027730534
 10
319.7088234621
 20
142.1237026156
 10
320.1241002802
 20
141.8827143477
 10
320.4649091571
 20
141.5890692936
 10
320.7181529988
 20
141.254052068
 10
320.8740997866
 20
140.8905371952
 10
320.9267565728
 20
140.5124943477
 10
320.8740997866
 20
140.1344515002
 10
320.7181529988
 20
139.7709366273
 10
320.4649091571
 20
139.4359194018
 10
320.1241002802
 20
139.1422743477
 10
319.7088234621
 20
138.9012860797
 10
319.2350375582
 20
138.7222156419
 10
318.7209498948
 20
138.6119446108
 10
318.1863165728
 20
138.5747106402
 10
317.6516832507
 20
138.6119446108
 10
317.1375955874
 20
138.7222156419
 10
316.6638096834
 20
138.9012860797
 10
316.2485328653
 20
139.1422743477
 10
315.9077239884
 20
139.4359194018
 10
315.6544801467
 20
139.7709366273
 10
315.4985333589
 20
140.1344515002
 10
315.4458765728
 20
140.5124943477
 10
315.4985333589
 20
140.8905371952
 10
315.6544801467
 20
141.254052068
 10
315.9077239884
 20
141.5890692936
 10
316.2485328653
 20
141.8827143477
  0
LWPOLYLINE
  5
28F
330
1F
100
AcDbEntity
  8
0
  6
Continuous
 62
     7
370
    25
100
AcDbPolyline
 90
       33
 70
   128
 43
0.0
 10
299.613657605
 20
143.432512128
 10
300.0289344231
 20
143.6735003959
 10
300.5027203271
 20
143.8525708337
 10
301.0168079904
 20
143.9628418648
 10
301.5514413124
 20
144.0000758354
 10
302.0860746345
 20
143.9628418648
 10
302.6001622978
 20
143.8525708337
 10
303.0739482018
 20
143.6735003959
 10
303.4892250199
 20
143.432512128
 10
303.8300338968
 20
143.1388670739
 10
304.0832777385
 20
142.8038498483
 10
304.2392245263
 20
142.4403349755
 10
304.2918813124
 20
142.062292128
 10
304.2392245263
 20
141.6842492805
 10
304.0832777385
 20
141.3207344076
 10
303.8300338968
 20
140.9857171821
 10
303.4892250199
 20
140.692072128
 10
303.0739482018
 20
140.45108386
 10
302.6001622978
 20
140.2720134222
 10
302.0860746345
 20
140.1617423911
 10
301.5514413124
 20
140.1245084205
 10
301.0168079904
 20
140.1617423911
 10
300.5027203271
 20
140.2720134222
 10
300.0289344231
 20
140.45108386
 10
299.613657605
 20
140.692072128
 10
299.2728487281
 20
140.9857171821
 10
299.0196048864
 20
141.3207344076
 10
298.8636580986
 20
141.6842492805
 10
298.8110013124
 20
142.062292128
 10
298.8636580986
 20
142.4403349755
 10
299.0196048864
 20
142.8038498483
 10
299.2728487281
 20
143.1388670739
 10
299.613657605
 20
143.432512128
  0
LWPOLYLINE
  5
290
330
1F
100
AcDbEntity
  8
0
  6
Continuous
 62
     7
370
    25
100
AcDbPolyline
 90
       33
 70
   128
 43
0.0
 10
254.1703492205
 20
175.5723242163
 10
254.5856260386
 20
175.8133124843
 10
255.0594119425
 20
175.992382922
 10
255.5734996059
 20
176.1026539532
 10
256.1081329279
 20
176.1398879237
 10
256.64276625
 20
176.1026539532
 10
257.1568539133
 20
175.992382922
 10
257.6306398173
 20
175.8133124843
 10
258.0459166354
 20
175.5723242163
 10
258.3867255123
 20
175.2786791622
 10
258.639969354
 20
174.9436619366
 10
258.7959161418
 20
174.5801470638
 10
258.8485729279
 20
174.2021042163
 10
258.7959161418
 20
173.8240613688
 10
258.639969354
 20
173.460546496
 10
258.3867255123
 20
173.1255292704
 10
258.0459166354
 20
172.8318842163
 10
257.6306398173
 20
172.5908959484
 10
257.1568539133
 20
172.4118255106
 10
256.64276625
 20
172.3015544794
 10
256.1081329279
 20
172.2643205089
 10
255.5734996059
 20
172.3015544794
 10
255.0594119425
 20
172.4118255106
 10
254.5856260386
 20
172.5908959484
 10
254.1703492205
 20
172.8318842163
 10
253.8295403436
 20
173.1255292704
 10
253.5762965019
 20
173.460546496
 10
253.4203497141
 20
173.8240613688
 10
253.3676929279
 20
174.2021042163
 10
253.4203497141
 20
174.5801470638
 10
253.5762965019
 20
174.9436619366
 10
253.8295403436
 20
175.2786791622
 10
254.1703492205
 20
175.5723242163
  0
LWPOLYLINE
  5
291
330
1F
100
AcDbEntity
  8
0
  6
Continuous
 62
     7
370
    25
100
AcDbPolyline
 90
       33
 70
   128
 43
0.0
 10
254.1720417232
 20
199.0934383643
 10
254.5873185412
 20
199.3344266323
 10
255.0611044452
 20
199.5134970701
 10
255.5751921085
 20
199.6237681012
 10
256.1098254306
 20
199.6610020718
 10
256.6444587527
 20
199.6237681012
 10
257.158546416
 20
199.5134970701
 10
257.63233232
 20
199.3344266323
 10
258.047609138
 20
199.0934383643
 10
258.3884180149
 20
198.7997933102
 10
258.6416618567
 20
198.4647760847
 10
258.7976086444
 20
198.1012612118
 10
258.8502654306
 20
197.7232183643
 10
258.7976086444
 20
197.3451755168
 10
258.6416618567
 20
196.981660644
 10
258.3884180149
 20
196.6466434184
 10
258.047609138
 20
196.3529983643
 10
257.63233232
 20
196.1120100964
 10
257.158546416
 20
195.9329396586
 10
256.6444587527
 20
195.8226686275
 10
256.1098254306
 20
195.7854346569
 10
255.5751921085
 20
195.8226686275
 10
255.0611044452
 20
195.9329396586
 10
254.5873185412
 20
196.1120100964
 10
254.1720417232
 20
196.3529983643
 10
253.8312328463
 20
196.6466434184
 10
253.5779890045
 20
196.981660644
 10
253.4220422168
 20
197.3451755168
 10
253.3693854306
 20
197.7232183643
 10
253.4220422168
 20
198.1012612118
 10
253.5779890045
 20
198.4647760847
 10
253.8312328463
 20
198.7997933102
 10
254.1720417232
 20
199.0934383643
  0
LWPOLYLINE
  5
292
330
1F
100
AcDbEntity
  8
0
  6
Continuous
 62
     7
370
    25
100
AcDbPolyline
 90
       33
 70
   128
 43
0.0
 10
260.5962205376
 20
210.0586195115
 10
261.0114973557
 20
210.2996077794
 10
261.4852832597
 20
210.4786782172
 10
261.999370923
 20
210.5889492483
 10
262.5340042451
 20
210.6261832189
 10
263.0686375671
 20
210.5889492483
 10
263.5827252304
 20
210.4786782172
 10
264.0565111344
 20
210.2996077794
 10
264.4717879525
 20
210.0586195115
 10
264.8125968294
 20
209.7649744573
 10
265.0658406711
 20
209.4299572318
 10
265.2217874589
 20
209.0664423589
 10
265.2744442451
 20
208.6883995115
 10
265.2217874589
 20
208.310356664
 10
265.0658406711
 20
207.9468417911
 10
264.8125968294
 20
207.6118245656
 10
264.4717879525
 20
207.3181795115
 10
264.0565111344
 20
207.0771912435
 10
263.5827252304
 20
206.8981208057
 10
263.0686375671
 20
206.7878497746
 10
262.5340042451
 20
206.750615804
 10
261.999370923
 20
206.7878497746
 10
261.4852832597
 20
206.8981208057
 10
261.0114973557
 20
207.0771912435
 10
260.5962205376
 20
207.3181795115
 10
260.2554116607
 20
207.6118245656
 10
260.002167819
 20
207.9468417911
 10
259.8462210312
 20
208.310356664
 10
259.7935642451
 20
208.6883995115
 10
259.8462210312
 20
209.0664423589
 10
260.002167819
 20
209.4299572318
 10
260.2554116607
 20
209.7649744573
 10
260.5962205376
 20
210.0586195115
  0
LWPOLYLINE
  5
293
330
1F
100
AcDbEntity
  8
0
  6
Continuous
 62
     7
370
    25
100
AcDbPolyline
 90
       33
 70
   128
 43
0.0
 10
270.8117650509
 20
219.470459702
 10
271.227041869
 20
219.7114479699
 10
271.700827773
 20
219.8905184077
 10
272.2149154363
 20
220.0007894388
 10
272.7495487583
 20
220.0380234094
 10
273.2841820804
 20
220.0007894388
 10
273.7982697437
 20
219.8905184077
 10
274.2720556477
 20
219.7114479699
 10
274.6873324658
 20
219.470459702
 10
275.0281413427
 20
219.1768146478
 10
275.2813851844
 20
218.8417974223
 10
275.4373319722
 20
218.4782825494
 10
275.4899887583
 20
218.100239702
 10
275.4373319722
 20
217.7221968545
 10
275.2813851844
 20
217.3586819816
 10
275.0281413427
 20
217.0236647561
 10
274.6873324658
 20
216.730019702
 10
274.2720556477
 20
216.489031434
 10
273.7982697437
 20
216.3099609962
 10
273.2841820804
 20
216.1996899651
 10
272.7495487583
 20
216.1624559945
 10
272.2149154363
 20
216.1996899651
 10
271.700827773
 20
216.3099609962
 10
271.227041869
 20
216.489031434
 10
270.8117650509
 20
216.730019702
 10
270.470956174
 20
217.0236647561
 10
270.2177123323
 20
217.3586819816
 10
270.0617655445
 20
217.7221968545
 10
270.0091087583
 20
218.100239702
 10
270.0617655445
 20
218.4782825494
 10
270.2177123323
 20
218.8417974223
 10
270.470956174
 20
219.1768146478
 10
270.8117650509
 20
219.470459702
  0
LWPOLYLINE
  5
294
330
1F
100
AcDbEntity
  8
0
  6
Continuous
 62
     7
370
    25
100
AcDbPolyline
 90
       33
 70
   128
 43
0.0
 10
284.124195932
 20
226.6920248122
 10
284.5394727501
 20
226.9330130801
 10
285.013258654
 20
227.1120835179
 10
285.5273463174
 20
227.2223545491
 10
286.0619796394
 20
227.2595885196
 10
286.5966129615
 20
227.2223545491
 10
287.1107006248
 20
227.1120835179
 10
287.5844865288
 20
226.9330130801
 10
287.9997633469
 20
226.6920248122
 10
288.3405722238
 20
226.3983797581
 10
288.5938160655
 20
226.0633625325
 10
288.7497628533
 20
225.6998476597
 10
288.8024196394
 20
225.3218048122
 10
288.7497628533
 20
224.9437619647
 10
288.5938160655
 20
224.5802470919
 10
288.3405722238
 20
224.2452298663
 10
287.9997633469
 20
223.9515848122
 10
287.5844865288
 20
223.7105965443
 10
287.1107006248
 20
223.5315261065
 10
286.5966129615
 20
223.4212550753
 10
286.0619796394
 20
223.3840211048
 10
285.5273463174
 20
223.4212550753
 10
285.013258654
 20
223.5315261065
 10
284.5394727501
 20
223.7105965443
 10
284.124195932
 20
223.9515848122
 10
283.7833870551
 20
224.2452298663
 10
283.5301432134
 20
224.5802470919
 10
283.3741964256
 20
224.9437619647
 10
283.3215396394
 20
225.3218048122
 10
283.3741964256
 20
225.6998476597
 10
283.5301432134
 20
226.0633625325
 10
283.7833870551
 20
226.3983797581
 10
284.124195932
 20
226.6920248122
  0
LWPOLYLINE
  5
295
330
1F
100
AcDbEntity
  8
0
  6
Continuous
 62
     7
370
    25
100
AcDbPolyline
 90
       33
 70
   128
 43
0.0
 10
299.6262930161
 20
231.2311771141
 10
300.0415698342
 20
231.4721653821
 10
300.5153557382
 20
231.6512358198
 10
301.0294434015
 20
231.761506851
 10
301.5640767236
 20
231.7987408215
 10
302.0987100456
 20
231.761506851
 10
302.612797709
 20
231.6512358198
 10
303.086583613
 20
231.4721653821
 10
303.501860431
 20
231.2311771141
 10
303.8426693079
 20
230.93753206
 10
304.0959131497
 20
230.6025148345
 10
304.2518599374
 20
230.2389999616
 10
304.3045167236
 20
229.8609571141
 10
304.2518599374
 20
229.4829142666
 10
304.0959131497
 20
229.1193993938
 10
303.8426693079
 20
228.7843821682
 10
303.501860431
 20
228.4907371141
 10
303.086583613
 20
228.2497488462
 10
302.612797709
 20
228.0706784084
 10
302.0987100456
 20
227.9604073773
 10
301.5640767236
 20
227.9231734067
 10
301.0294434015
 20
227.9604073773
 10
300.5153557382
 20
228.0706784084
 10
300.0415698342
 20
228.2497488462
 10
299.6262930161
 20
228.4907371141
 10
299.2854841392
 20
228.7843821682
 10
299.0322402975
 20
229.1193993938
 10
298.8762935098
 20
229.4829142666
 10
298.8236367236
 20
229.8609571141
 10
298.8762935098
 20
230.2389999616
 10
299.0322402975
 20
230.6025148345
 10
299.2854841392
 20
230.93753206
 10
299.6262930161
 20
231.2311771141
  0
LWPOLYLINE
  5
296
330
1F
100
AcDbEntity
  8
0
  6
Continuous
 62
     7
370
    25
100
AcDbPolyline
 90
       33
 70
   128
 43
0.0
 10
251.9819898289
 20
187.3352724951
 10
252.3972666469
 20
187.5762607631
 10
252.8710525509
 20
187.7553312008
 10
253.3851402142
 20
187.865602232
 10
253.9197735363
 20
187.9028362025
 10
254.4544068584
 20
187.865602232
 10
254.9684945217
 20
187.7553312008
 10
255.4422804257
 20
187.5762607631
 10
255.8575572437
 20
187.3352724951
 10
256.1983661206
 20
187.041627441
 10
256.4516099624
 20
186.7066102154
 10
256.6075567501
 20
186.3430953426
 10
256.6602135363
 20
185.9650524951
 10
256.6075567501
 20
185.5870096476
 10
256.4516099624
 20
185.2234947748
 10
256.1983661206
 20
184.8884775492
 10
255.8575572437
 20
184.5948324951
 10
255.4422804257
 20
184.3538442272
 10
254.9684945217
 20
184.1747737894
 10
254.4544068584
 20
184.0645027582
 10
253.9197735363
 20
184.0272687877
 10
253.3851402142
 20
184.0645027582
 10
252.8710525509
 20
184.1747737894
 10
252.3972666469
 20
184.3538442272
 10
251.9819898289
 20
184.5948324951
 10
251.641180952
 20
184.8884775492
 10
251.3879371102
 20
185.2234947748
 10
251.2319903225
 20
185.5870096476
 10
251.1793335363
 20
185.9650524951
 10
251.2319903225
 20
186.3430953426
 10
251.3879371102
 20
186.7066102154
 10
251.641180952
 20
187.041627441
 10
251.9819898289
 20
187.3352724951
  0
LWPOLYLINE
  5
297
330
1F
100
AcDbEntity
  8
0
  6
Continuous
 62
     7
370
    25
100
AcDbPolyline
 90
       33
 70
   128
 43
0.0
 10
316.2616140055
 20
232.7785808796
 10
316.6768908236
 20
233.0195691476
 10
317.1506767276
 20
233.1986395853
 10
317.6647643909
 20
233.3089106165
 10
318.1993977129
 20
233.346144587
 10
318.734031035
 20
233.3089106165
 10
319.2481186983
 20
233.1986395853
 10
319.7219046023
 20
233.0195691476
 10
320.1371814204
 20
232.7785808796
 10
320.4779902973
 20
232.4849358255
 10
320.731234139
 20
232.1499186
 10
320.8871809268
 20
231.7864037271
 10
320.9398377129
 20
231.4083608796
 10
320.8871809268
 20
231.0303180321
 10
320.731234139
 20
230.6668031593
 10
320.4779902973
 20
230.3317859337
 10
320.1371814204
 20
230.0381408796
 10
319.7219046023
 20
229.7971526117
 10
319.2481186983
 20
229.6180821739
 10
318.734031035
 20
229.5078111428
 10
318.1993977129
 20
229.4705771722
 10
317.6647643909
 20
229.5078111428
 10
317.1506767276
 20
229.6180821739
 10
316.6768908236
 20
229.7971526117
 10
316.2616140055
 20
230.0381408796
 10
315.9208051286
 20
230.3317859337
 10
315.6675612869
 20
230.6668031593
 10
315.5116144991
 20
231.0303180321
 10
315.4589577129
 20
231.4083608796
 10
315.5116144991
 20
231.7864037271
 10
315.6675612869
 20
232.1499186
 10
315.9208051286
 20
232.4849358255
 10
316.2616140055
 20
232.7785808796
  0
LWPOLYLINE
  5
298
330
1F
100
AcDbEntity
  8
0
  6
Continuous
 62
     7
370
    25
100
AcDbPolyline
 90
       33
 70
   128
 43
0.0
 10
332.8964892658
 20
231.2287830993
 10
333.3117660839
 20
231.4697713672
 10
333.7855519879
 20
231.648841805
 10
334.2996396512
 20
231.7591128362
 10
334.8342729733
 20
231.7963468067
 10
335.3689062953
 20
231.7591128362
 10
335.8829939587
 20
231.648841805
 10
336.3567798626
 20
231.4697713672
 10
336.7720566807
 20
231.2287830993
 10
337.1128655576
 20
230.9351380452
 10
337.3661093993
 20
230.6001208196
 10
337.5220561871
 20
230.2366059468
 10
337.5747129733
 20
229.8585630993
 10
337.5220561871
 20
229.4805202518
 10
337.3661093993
 20
229.117005379
 10
337.1128655576
 20
228.7819881534
 10
336.7720566807
 20
228.4883430993
 10
336.3567798626
 20
228.2473548314
 10
335.8829939587
 20
228.0682843936
 10
335.3689062953
 20
227.9580133624
 10
334.8342729733
 20
227.9207793919
 10
334.2996396512
 20
227.9580133624
 10
333.7855519879
 20
228.0682843936
 10
333.3117660839
 20
228.2473548314
 10
332.8964892658
 20
228.4883430993
 10
332.5556803889
 20
228.7819881534
 10
332.3024365472
 20
229.117005379
 10
332.1464897594
 20
229.4805202518
 10
332.0938329733
 20
229.8585630993
 10
332.1464897594
 20
230.2366059468
 10
332.3024365472
 20
230.6001208196
 10
332.5556803889
 20
230.9351380452
 10
332.8964892658
 20
231.2287830993
  0
LWPOLYLINE
  5
299
330
1F
100
AcDbEntity
  8
0
  6
Continuous
 62
     7
370
    25
100
AcDbPolyline
 90
       33
 70
   128
 43
0.0
 10
348.3972795386
 20
226.6873999307
 10
348.8125563566
 20
226.9283881987
 10
349.2863422606
 20
227.1074586365
 10
349.8004299239
 20
227.2177296676
 10
350.335063246
 20
227.2549636382
 10
350.8696965681
 20
227.2177296676
 10
351.3837842314
 20
227.1074586365
 10
351.8575701354
 20
226.9283881987
 10
352.2728469534
 20
226.6873999307
 10
352.6136558303
 20
226.3937548766
 10
352.8668996721
 20
226.0587376511
 10
353.0228464598
 20
225.6952227782
 10
353.075503246
 20
225.3171799307
 10
353.0228464598
 20
224.9391370833
 10
352.8668996721
 20
224.5756222104
 10
352.6136558303
 20
224.2406049849
 10
352.2728469534
 20
223.9469599307
 10
351.8575701354
 20
223.7059716628
 10
351.3837842314
 20
223.526901225
 10
350.8696965681
 20
223.4166301939
 10
350.335063246
 20
223.3793962233
 10
349.8004299239
 20
223.4166301939
 10
349.2863422606
 20
223.526901225
 10
348.8125563566
 20
223.7059716628
 10
348.3972795386
 20
223.9469599307
 10
348.0564706617
 20
224.2406049849
 10
347.8032268199
 20
224.5756222104
 10
347.6472800322
 20
224.9391370833
 10
347.594623246
 20
225.3171799307
 10
347.6472800322
 20
225.6952227782
 10
347.8032268199
 20
226.0587376511
 10
348.0564706617
 20
226.3937548766
 10
348.3972795386
 20
226.6873999307
  0
LWPOLYLINE
  5
29A
330
1F
100
AcDbEntity
  8
0
  6
Continuous
 62
     7
370
    25
100
AcDbPolyline
 90
       33
 70
   128
 43
0.0
 10
332.8901716464
 20
143.4313148933
 10
333.3054484645
 20
143.6723031612
 10
333.7792343684
 20
143.851373599
 10
334.2933220318
 20
143.9616446301
 10
334.8279553538
 20
143.9988786007
 10
335.3625886759
 20
143.9616446301
 10
335.8766763392
 20
143.851373599
 10
336.3504622432
 20
143.6723031612
 10
336.7657390613
 20
143.4313148933
 10
337.1065479382
 20
143.1376698392
 10
337.3597917799
 20
142.8026526136
 10
337.5157385677
 20
142.4391377408
 10
337.5683953538
 20
142.0610948933
 10
337.5157385677
 20
141.6830520458
 10
337.3597917799
 20
141.3195371729
 10
337.1065479382
 20
140.9845199474
 10
336.7657390613
 20
140.6908748933
 10
336.3504622432
 20
140.4498866253
 10
335.8766763392
 20
140.2708161875
 10
335.3625886759
 20
140.1605451564
 10
334.8279553538
 20
140.1233111858
 10
334.2933220318
 20
140.1605451564
 10
333.7792343684
 20
140.2708161875
 10
333.3054484645
 20
140.4498866253
 10
332.8901716464
 20
140.6908748933
 10
332.5493627695
 20
140.9845199474
 10
332.2961189278
 20
141.3195371729
 10
332.14017214
 20
141.6830520458
 10
332.0875153538
 20
142.0610948933
 10
332.14017214
 20
142.4391377408
 10
332.2961189278
 20
142.8026526136
 10
332.5493627695
 20
143.1376698392
 10
332.8901716464
 20
143.4313148933
  0
LWPOLYLINE
  5
29B
330
1F
100
AcDbEntity
  8
0
  6
Continuous
 62
     7
370
    25
100
AcDbPolyline
 90
       33
 70
   128
 43
0.0
 10
361.7030069367
 20
219.4671895833
 10
362.1182837548
 20
219.7081778513
 10
362.5920696588
 20
219.8872482891
 10
363.1061573221
 20
219.9975193202
 10
363.6407906441
 20
220.0347532908
 10
364.1754239662
 20
219.9975193202
 10
364.6895116295
 20
219.8872482891
 10
365.1632975335
 20
219.7081778513
 10
365.5785743516
 20
219.4671895833
 10
365.9193832285
 20
219.1735445292
 10
366.1726270702
 20
218.8385273037
 10
366.328573858
 20
218.4750124308
 10
366.3812306441
 20
218.0969695833
 10
366.328573858
 20
217.7189267358
 10
366.1726270702
 20
217.355411863
 10
365.9193832285
 20
217.0203946374
 10
365.5785743516
 20
216.7267495833
 10
365.1632975335
 20
216.4857613154
 10
364.6895116295
 20
216.3066908776
 10
364.1754239662
 20
216.1964198465
 10
363.6407906441
 20
216.1591858759
 10
363.1061573221
 20
216.1964198465
 10
362.5920696588
 20
216.3066908776
 10
362.1182837548
 20
216.4857613154
 10
361.7030069367
 20
216.7267495833
 10
361.3621980598
 20
217.0203946374
 10
361.1089542181
 20
217.355411863
 10
360.9530074303
 20
217.7189267358
 10
360.9003506441
 20
218.0969695833
 10
360.9530074303
 20
218.4750124308
 10
361.1089542181
 20
218.8385273037
 10
361.3621980598
 20
219.1735445292
 10
361.7030069367
 20
219.4671895833
  0
LWPOLYLINE
  5
29C
330
1F
100
AcDbEntity
  8
0
  6
Continuous
 62
     7
370
    25
100
AcDbPolyline
 90
       15
 70
   128
 43
0.0
 10
282.1944450794
 20
151.6636735541
 10
281.7451283926
 20
151.8344971225
 10
281.2572588883
 20
151.9399253323
 10
280.7496568874
 20
151.9758911273
 10
280.2419039225
 20
151.9410070713
 10
279.7535873497
 20
151.8366188708
 10
279.3035447363
 20
151.666753462
 10
278.9091371723
 20
151.4379636659
 10
278.5855795398
 20
151.1590754029
 10
278.3453535749
 20
150.8408472191
 10
278.1977263659
 20
150.4955552591
 10
278.1483928608
 20
150.1365196945
 10
278.1992561759
 20
149.7775908775
 10
278.3483541801
 20
149.4326150427
 10
278.5899351872
 20
149.1149001665
  0
LINE
  5
29D
330
1F
100
AcDbEntity
  8
0
  6
Continuous
 62
     7
370
    25
100
AcDbLine
 10
283.2876457628
 20
152.4366831706
 30
0.0
 11
282.1944450794
 21
151.6636735541
 31
0.0
  0
LWPOLYLINE
  5
29E
330
1F
100
AcDbEntity
  8
0
  6
Continuous
 62
     7
370
    25
100
AcDbPolyline
 90
       19
 70
   128
 43
0.0
 10
277.4967345038
 20
148.3418905501
 10
277.1312074699
 20
148.7335031431
 10
276.8592081564
 20
149.1614910121
 10
276.6877746658
 20
149.6147797814
 10
276.6213429157
 20
150.0816404036
 10
276.661631857
 20
150.5499926534
 10
276.8075989954
 20
151.007717709
 10
277.0554673668
 20
151.442971732
 10
277.3988232672
 20
151.8444923318
 10
277.8287822107
 20
152.2018899853
 10
278.3342188195
 20
152.5059168699
 10
278.9020546973
 20
152.7487061555
 10
279.5175968397
 20
152.9239755617
 10
280.1649178212
 20
153.0271899151
 10
280.8272679248
 20
153.0556784987
 10
281.4875085484
 20
153.0087041577
 10
282.1285556737
 20
152.887482374
 10
282.7338219226
 20
152.695149815
 10
283.2876457628
 20
152.4366831706
  0
LINE
  5
29F
330
1F
100
AcDbEntity
  8
0
  6
Continuous
 62
     7
370
    25
100
AcDbLine
 10
278.5899351872
 20
149.1149001665
 30
0.0
 11
277.4967345038
 21
148.3418905501
 31
0.0
  0
LWPOLYLINE
  5
2A0
330
1F
100
AcDbEntity
  8
0
  6
Continuous
 62
     7
370
    25
100
AcDbPolyline
 90
       15
 70
   128
 43
0.0
 10
279.2970419684
 20
148.6149001665
 10
279.7463586553
 20
148.4440765982
 10
280.2342281596
 20
148.3386483883
 10
280.7418301604
 20
148.3026825933
 10
281.2495831253
 20
148.3375666493
 10
281.7378996981
 20
148.4419548499
 10
282.1879423116
 20
148.6118202586
 10
282.5823498755
 20
148.8406100547
 10
282.9059075081
 20
149.1194983178
 10
283.146133473
 20
149.4377265015
 10
283.2937606819
 20
149.7830184615
 10
283.343094187
 20
150.1420540262
 10
283.2922308719
 20
150.5009828431
 10
283.1431328677
 20
150.845958678
 10
282.9015518606
 20
151.1636735541
  0
LINE
  5
2A1
330
1F
100
AcDbEntity
  8
0
  6
Continuous
 62
     7
370
    25
100
AcDbLine
 10
278.203841285
 20
147.8418905501
 30
0.0
 11
279.2970419684
 21
148.6149001665
 31
0.0
  0
LWPOLYLINE
  5
2A2
330
1F
100
AcDbEntity
  8
0
  6
Continuous
 62
     7
370
    25
100
AcDbPolyline
 90
       19
 70
   128
 43
0.0
 10
283.994752544
 20
151.9366831706
 10
284.3602795779
 20
151.5450705776
 10
284.6322788915
 20
151.1170827086
 10
284.803712382
 20
150.6637939392
 10
284.8701441321
 20
150.196933317
 10
284.8298551909
 20
149.7285810672
 10
284.6838880524
 20
149.2708560116
 10
284.436019681
 20
148.8356019886
 10
284.0926637806
 20
148.4340813888
 10
283.6627048371
 20
148.0766837353
 10
283.1572682284
 20
147.7726568507
 10
282.5894323505
 20
147.5298675652
 10
281.9738902081
 20
147.3545981589
 10
281.3265692267
 20
147.2513838055
 10
280.6642191231
 20
147.2228952219
 10
280.0039784994
 20
147.2698695629
 10
279.3629313741
 20
147.3910913466
 10
278.7576651252
 20
147.5834239057
 10
278.203841285
 20
147.8418905501
  0
LINE
  5
2A3
330
1F
100
AcDbEntity
  8
0
  6
Continuous
 62
     7
370
    25
100
AcDbLine
 10
282.9015518606
 20
151.1636735541
 30
0.0
 11
283.994752544
 21
151.9366831706
 31
0.0
  0
ARC
  5
2A4
330
1F
100
AcDbEntity
  8
0
  6
Continuous
 62
     7
370
    25
100
AcDbCircle
 10
260.9859613519
 20
163.5966806249
 30
0.0
 40
8.52128902173045
100
AcDbArc
 50
304.4974424725
 51
313.2263438541
  0
LINE
  5
2A5
330
1F
100
AcDbEntity
  8
0
  6
Continuous
 62
     7
370
    25
100
AcDbLine
 10
266.8925173058
 20
155.8099191191
 30
0.0
 11
265.8121591252
 21
156.5738477459
 31
0.0
  0
ARC
  5
2A6
330
1F
100
AcDbEntity
  8
0
  6
Continuous
 62
     7
370
    25
100
AcDbCircle
 10
263.1486316459
 20
161.9459437597
 30
0.0
 40
7.188009336641567
100
AcDbArc
 50
301.3893877882
 51
357.4778840294
  0
LINE
  5
2A7
330
1F
100
AcDbEntity
  8
0
  6
Continuous
 62
     7
370
    25
100
AcDbLine
 10
268.6713835589
 20
160.4570440471
 30
0.0
 11
270.3296780314
 21
161.6296353137
 31
0.0
  0
ARC
  5
2A8
330
1F
100
AcDbEntity
  8
0
  6
Continuous
 62
     7
370
    25
100
AcDbCircle
 10
263.0766613211
 20
161.804626808
 30
0.0
 40
5.754728161727809
100
AcDbArc
 50
322.7778968946
 51
346.4573176172
  0
LINE
  5
2A9
330
1F
100
AcDbEntity
  8
0
  6
Continuous
 62
     7
370
    25
100
AcDbLine
 10
266.65665331
 20
159.0324146258
 30
0.0
 11
267.6591319132
 21
158.3235552075
 31
0.0
  0
LINE
  5
2AA
330
1F
100
AcDbEntity
  8
0
  6
Continuous
 62
     7
370
    25
100
AcDbLine
 10
265.5762951074
 20
158.2684860146
 30
0.0
 11
266.65665331
 21
159.0324146258
 31
0.0
  0
LINE
  5
2AB
330
1F
100
AcDbEntity
  8
0
  6
Continuous
 62
     7
370
    25
100
AcDbLine
 10
266.8220405568
 20
157.3876109597
 30
0.0
 11
265.5762951074
 21
158.2684860146
 31
0.0
  0
ARC
  5
2AC
330
1F
100
AcDbEntity
  8
0
  6
Continuous
 62
     7
370
    25
100
AcDbCircle
 10
268.1508366033
 20
151.0686158723
 30
0.0
 40
9.701880338087012
100
AcDbArc
 50
117.8171348128
 51
125.8221335306
  0
LINE
  5
2AD
330
1F
100
AcDbEntity
  8
0
  6
Continuous
 62
     7
370
    25
100
AcDbLine
 10
264.8691883262
 20
158.7684860146
 30
0.0
 11
263.6234428768
 21
159.6493610695
 31
0.0
  0
LINE
  5
2AE
330
1F
100
AcDbEntity
  8
0
  6
Continuous
 62
     7
370
    25
100
AcDbLine
 10
265.9495465288
 20
159.5324146258
 30
0.0
 11
264.8691883262
 21
158.7684860146
 31
0.0
  0
LINE
  5
2AF
330
1F
100
AcDbEntity
  8
0
  6
Continuous
 62
     7
370
    25
100
AcDbLine
 10
264.9470679256
 20
160.2412740441
 30
0.0
 11
265.9495465288
 21
159.5324146258
 31
0.0
  0
ARC
  5
2B0
330
1F
100
AcDbEntity
  8
0
  6
Continuous
 62
     7
370
    25
100
AcDbCircle
 10
269.4180100068
 20
148.111919626
 30
0.0
 40
12.92712503596551
100
AcDbArc
 50
96.4569146972
 51
110.2341445026
  0
LINE
  5
2B1
330
1F
100
AcDbEntity
  8
0
  6
Continuous
 62
     7
370
    25
100
AcDbLine
 10
269.6225712502
 20
162.1296353137
 30
0.0
 11
267.9642767777
 21
160.9570440471
 31
0.0
  0
ARC
  5
2B2
330
1F
100
AcDbEntity
  8
0
  6
Continuous
 62
     7
370
    25
100
AcDbCircle
 10
269.3180838322
 20
148.0101382158
 30
0.0
 40
14.12277985687861
100
AcDbArc
 50
88.7646061191
 51
124.1394641173
  0
LINE
  5
2B3
330
1F
100
AcDbEntity
  8
0
  6
Continuous
 62
     7
370
    25
100
AcDbLine
 10
262.4726079033
 20
158.935267061
 30
0.0
 11
261.3922496786
 21
159.6991956567
 31
0.0
  0
LWPOLYLINE
  5
2B4
330
1F
100
AcDbEntity
  8
0
  6
Continuous
 62
     7
370
    25
100
AcDbPolyline
 90
       85
 70
   128
 43
0.0
 10
248.6928571429
 20
183.8391072701
 10
248.6959686811
 20
183.374083541
 10
248.7706316699
 20
181.514821317
 10
248.944741328
 20
179.6588886103
 10
249.2180482449
 20
177.8089440265
 10
249.5901609111
 20
175.9676375935
 10
250.0605462789
 20
174.137606965
 10
250.6285305257
 20
172.3214736422
 10
251.2933000196
 20
170.5218392187
 10
252.0539024846
 20
168.7412816533
 10
252.909248365
 20
166.9823515777
 10
253.8581123862
 20
165.2475686423
 10
254.8991353095
 20
163.5394179069
 10
256.0308258797
 20
161.8603462809
 10
257.2515629609
 20
160.2127590183
 10
258.5595978589
 20
158.5990162721
 10
259.9530568265
 20
157.021429713
 10
261.429943747
 20
155.4822592188
 10
262.9881429941
 20
153.9837096362
 10
264.6254224626
 20
152.5279276231
 10
266.3394367652
 20
151.1169985733
 10
268.127730593
 20
149.7529436289
 10
269.9877422323
 20
148.4377167857
 10
271.9168072344
 20
147.1732020933
 10
273.9121622322
 20
145.9612109569
 10
275.9709488989
 20
144.8034795421
 10
278.0902180425
 20
143.701666288
 10
280.2669338303
 20
142.6573495314
 10
282.4979781379
 20
141.6720252462
 10
284.7801550159
 20
140.7471048997
 10
287.1101952678
 20
139.8839134316
 10
289.4847611334
 20
139.0836873552
 10
291.9004510701
 20
138.3475729867
 10
294.3538046251
 20
137.6766248029
 10
296.8413073933
 20
137.0718039306
 10
299.3593960508
 20
136.5339767698
 10
301.9044634599
 20
136.0639137528
 10
304.4728638361
 20
135.6622882403
 10
307.0609179705
 20
135.3296755569
 10
309.6649185005
 20
135.0665521673
 10
312.2811352205
 20
134.873294993
 10
314.9058204252
 20
134.7501808731
 10
317.5352142783
 20
134.6973861674
 10
320.1655501986
 20
134.7149865039
 10
322.793060255
 20
134.8029566701
 10
325.4139805647
 20
134.9611706497
 10
328.0245566847
 20
135.1894018027
 10
330.6210489899
 20
135.4873231902
 10
333.1997380299
 20
135.8545080426
 10
335.7569298576
 20
136.2904303712
 10
338.2889613204
 20
136.7944657214
 10
340.7922053074
 20
137.3658920675
 10
343.263075946
 20
138.0038908467
 10
345.6980337376
 20
138.7075481319
 10
348.0935906286
 20
139.4758559408
 10
350.446315007
 20
140.3077136799
 10
352.7528366177
 20
141.201929721
 10
355.0098513906
 20
142.1572231083
 10
357.214126174
 20
143.172225393
 10
359.3625033653
 20
144.2454825944
 10
361.451905435
 20
145.3754572817
 10
363.4793393348
 20
146.5605307771
 10
365.441900785
 20
147.7990054743
 10
367.3367784353
 20
149.0891072701
 10
369.1612578918
 20
150.4289881062
 10
370.9127256052
 20
151.8167286161
 10
372.5886726148
 20
153.250340875
 10
374.1866981427
 20
154.7277712471
 10
375.7045130328
 20
156.2469033277
 10
377.1399430298
 20
157.8055609746
 10
378.4909318941
 20
159.4015114258
 10
379.7555443471
 20
161.0324684976
 10
380.9319688437
 20
162.6960958598
 10
382.0185201672
 20
164.3900103822
 10
383.0136418432
 20
166.1117855486
 10
383.9159083695
 20
167.8589549325
 10
384.724027258
 20
169.6290157307
 10
385.4368408862
 20
171.4194323482
 10
386.0533281554
 20
173.2276400304
 10
386.5726059536
 20
175.0510485372
 10
386.9939304202
 20
176.8870458534
 10
387.3166980122
 20
178.7330019307
 10
387.5404463679
 20
180.5862724547
 10
387.6648549701
 20
182.4442026332
 10
387.6928571429
 20
183.8391072701
  0
LWPOLYLINE
  5
2B5
330
1F
100
AcDbEntity
  8
0
  6
Continuous
 62
     7
370
    25
100
AcDbPolyline
 90
       19
 70
   128
 43
0.0
 10
278.948430787
 20
211.5891072701
 10
277.3182106681
 20
210.3863601936
 10
275.761649425
 20
209.1357731729
 10
274.2815520861
 20
207.8395998505
 10
272.8805858869
 20
206.5001760183
 10
271.5612754631
 20
205.1199154085
 10
270.3259983015
 20
203.701305344
 10
269.1769804548
 20
202.2469022562
 10
268.1162925309
 20
200.7593270775
 10
267.1458459612
 20
199.2412605192
 10
266.2673895559
 20
197.6954382396
 10
265.4825063528
 20
196.124645915
 10
264.7926107647
 20
194.5317142195
 10
264.1989460298
 20
192.9195137235
 10
263.7025819723
 20
191.2909497213
 10
263.3044130736
 20
189.6489569953
 10
263.0051568611
 20
187.9964945275
 10
262.8053526147
 20
186.3365401668
 10
262.7131311161
 20
184.8997674418
  0
LWPOLYLINE
  5
2B6
330
1F
100
AcDbEntity
  8
0
  6
Continuous
 62
     7
370
    25
100
AcDbPolyline
 90
       56
 70
   128
 43
0.0
 10
373.6725831696
 20
184.8997674413
 10
373.580361671
 20
186.3365401668
 10
373.3805574246
 20
187.9964945275
 10
373.0813012121
 20
189.6489569953
 10
372.6831323134
 20
191.2909497213
 10
372.1867682559
 20
192.9195137235
 10
371.593103521
 20
194.5317142195
 10
370.9032079329
 20
196.124645915
 10
370.1183247298
 20
197.6954382396
 10
369.2398683246
 20
199.2412605192
 10
368.2694217548
 20
200.7593270775
 10
367.2087338309
 20
202.2469022562
 10
366.0597159842
 20
203.701305344
 10
364.8244388226
 20
205.1199154085
 10
363.5051283989
 20
206.5001760183
 10
362.1041621996
 20
207.8395998505
 10
360.6240648607
 20
209.1357731729
 10
359.0675036176
 20
210.3863601936
 10
357.4372834987
 20
211.5891072701
 10
355.736342271
 20
212.741846971
 10
353.9677451455
 20
213.8425019813
 10
352.1346792538
 20
214.8890888465
 10
350.2404479045
 20
215.8797215462
 10
348.2884646305
 20
216.8126148933
 10
346.2822470376
 20
217.6860877509
 10
344.2254104656
 20
218.498566062
 10
342.1216614729
 20
219.2485856857
 10
339.9747911574
 20
219.934795036
 10
337.7886683247
 20
220.5559575171
 10
335.5672325156
 20
221.1109537524
 10
333.3144869078
 20
221.5987836011
 10
331.0344911011
 20
222.0185679609
 10
328.731353802
 20
222.3695503519
 10
326.4092254196
 20
222.6510982802
 10
324.0722905863
 20
222.8627043774
 10
321.7247606165
 20
223.0039873149
 10
319.3708659179
 20
223.0746924914
 10
317.0148483678
 20
223.0746924914
 10
314.6609536692
 20
223.0039873149
 10
312.3134236994
 20
222.8627043774
 10
309.9764888661
 20
222.6510982802
 10
307.6543604837
 20
222.3695503519
 10
305.3512231846
 20
222.0185679609
 10
303.0712273779
 20
221.5987836011
 10
300.8184817701
 20
221.1109537524
 10
298.5970459611
 20
220.5559575171
 10
296.4109231283
 20
219.934795036
 10
294.2640528128
 20
219.2485856857
 10
292.1603038201
 20
218.498566062
 10
290.1034672481
 20
217.6860877509
 10
288.0972496552
 20
216.8126148933
 10
286.1452663813
 20
215.8797215462
 10
284.2510350319
 20
214.8890888465
 10
282.4179691402
 20
213.8425019813
 10
280.6493720147
 20
212.741846971
 10
278.948430787
 20
211.5891072701
  0
LWPOLYLINE
  5
2B7
330
1F
100
AcDbEntity
  8
0
  6
Continuous
 62
     7
370
    25
100
AcDbPolyline
 90
        3
 70
   128
 43
0.0
 10
316.2485328653
 20
139.7613940041
 10
315.9077239884
 20
139.46774895
 10
315.8928451006
 20
139.4518341759
  0
ARC
  5
2B8
330
1F
100
AcDbEntity
  8
0
  6
Continuous
 62
     7
370
    25
100
AcDbCircle
 10
318.1709764538
 20
136.9660556844
 30
0.0
 40
3.39259571305082
100
AcDbArc
 50
47.1138107055
 51
124.5175479531
  0
LWPOLYLINE
  5
2B9
330
1F
100
AcDbEntity
  8
0
  6
Continuous
 62
     7
370
    25
100
AcDbPolyline
 90
        3
 70
   128
 43
0.0
 10
307.638856702
 20
141.8760661197
 10
307.255040051
 20
141.5526249614
 10
306.9814121973
 20
141.2239512915
  0
ARC
  5
2BA
330
1F
100
AcDbEntity
  8
0
  6
Continuous
 62
     7
370
    25
100
AcDbCircle
 10
310.0184543545
 20
138.4168867861
 30
0.0
 40
4.198619612445819
100
AcDbArc
 50
41.9566711571
 51
124.5243995774
  0
LWPOLYLINE
  5
2BB
330
1F
100
AcDbEntity
  8
0
  6
Continuous
 62
     7
370
    25
100
AcDbPolyline
 90
        3
 70
   128
 43
0.0
 10
323.9023983151
 20
141.8760661197
 10
323.5185816641
 20
141.5526249614
 10
323.2449538104
 20
141.2239512915
  0
ARC
  5
2BC
330
1F
100
AcDbEntity
  8
0
  6
Continuous
 62
     7
370
    25
100
AcDbCircle
 10
326.2819959676
 20
138.4168867861
 30
0.0
 40
4.198619612446016
100
AcDbArc
 50
41.9566711571
 51
124.5243995774
  0
LWPOLYLINE
  5
2BD
330
1F
100
AcDbEntity
  8
0
  6
Continuous
 62
     7
370
    25
100
AcDbPolyline
 90
        3
 70
   128
 43
0.0
 10
332.8901716464
 20
141.3099945497
 10
332.5493627695
 20
141.0163494956
 10
332.5344838817
 20
141.0004347215
  0
ARC
  5
2BE
330
1F
100
AcDbEntity
  8
0
  6
Continuous
 62
     7
370
    25
100
AcDbCircle
 10
334.8126152348
 20
138.51465623
 30
0.0
 40
3.392595713050618
100
AcDbArc
 50
47.1138107055
 51
124.5175479531
  0
LWPOLYLINE
  5
2BF
330
1F
100
AcDbEntity
  8
0
  6
Continuous
 62
     7
370
    25
100
AcDbPolyline
 90
        3
 70
   128
 43
0.0
 10
299.613657605
 20
141.3111917844
 10
299.2728487281
 20
141.0175467303
 10
299.2579698403
 20
141.0016319562
  0
ARC
  5
2C0
330
1F
100
AcDbEntity
  8
0
  6
Continuous
 62
     7
370
    25
100
AcDbCircle
 10
301.5361011934
 20
138.5158534647
 30
0.0
 40
3.392595713050302
100
AcDbArc
 50
47.1138107054
 51
124.5175479531
  0
LWPOLYLINE
  5
2C1
330
1F
100
AcDbEntity
  8
0
  6
Continuous
 62
     7
370
    25
100
AcDbPolyline
 90
        3
 70
   128
 43
0.0
 10
339.6117731861
 20
144.8525008127
 10
339.2279565351
 20
144.5290596543
 10
338.9543286814
 20
144.2003859844
  0
ARC
  5
2C2
330
1F
100
AcDbEntity
  8
0
  6
Continuous
 62
     7
370
    25
100
AcDbCircle
 10
341.9913708386
 20
141.393321479
 30
0.0
 40
4.198619612446272
100
AcDbArc
 50
41.9566711571
 51
124.5243995774
  0
LWPOLYLINE
  5
2C3
330
1F
100
AcDbEntity
  8
0
  6
Continuous
 62
     7
370
    25
100
AcDbPolyline
 90
        3
 70
   128
 43
0.0
 10
291.929481831
 20
144.8525008127
 10
291.54566518
 20
144.5290596543
 10
291.2720373263
 20
144.2003859844
  0
ARC
  5
2C4
330
1F
100
AcDbEntity
  8
0
  6
Continuous
 62
     7
370
    25
100
AcDbCircle
 10
294.3090794835
 20
141.393321479
 30
0.0
 40
4.19861961244553
100
AcDbArc
 50
41.956671157
 51
124.5243995774
  0
LWPOLYLINE
  5
2C5
330
1F
100
AcDbEntity
  8
0
  6
Continuous
 62
     7
370
    25
100
AcDbPolyline
 90
        3
 70
   128
 43
0.0
 10
348.3859509389
 20
145.8479500715
 10
348.0451420619
 20
145.5543050174
 10
348.0302631741
 20
145.5383902433
  0
ARC
  5
2C6
330
1F
100
AcDbEntity
  8
0
  6
Continuous
 62
     7
370
    25
100
AcDbCircle
 10
350.3083945273
 20
143.0526117518
 30
0.0
 40
3.392595713050431
100
AcDbArc
 50
47.1138107054
 51
124.5175479531
  0
LINE
  5
2C7
330
1F
100
AcDbEntity
  8
0
  6
Continuous
 62
     7
370
    25
100
AcDbLine
 10
283.994752544
 20
149.815362827
 30
0.0
 11
283.994752544
 21
151.9366831706
 31
0.0
  0
LWPOLYLINE
  5
2C8
330
1F
100
AcDbEntity
  8
0
  6
Continuous
 62
     7
370
    25
100
AcDbPolyline
 90
        3
 70
   128
 43
0.0
 10
284.5885714676
 20
149.0786266885
 10
284.3602795779
 20
149.423750234
 10
283.994752544
 20
149.815362827
  0
LINE
  5
2C9
330
1F
100
AcDbEntity
  8
0
  6
Continuous
 62
     7
370
    25
100
AcDbLine
 10
279.2970419684
 20
148.6149001665
 30
0.0
 11
279.2970419684
 21
147.4081158287
 31
0.0
  0
LINE
  5
2CA
330
1F
100
AcDbEntity
  8
0
  6
Continuous
 62
     7
370
    25
100
AcDbLine
 10
283.3344433353
 20
147.8681682053
 30
0.0
 11
283.3430971351
 21
148.0179665168
 31
0.0
  0
LWPOLYLINE
  5
2CB
330
1F
100
AcDbEntity
  8
0
  6
Continuous
 62
     7
370
    25
100
AcDbPolyline
 90
        3
 70
   128
 43
0.0
 10
353.6964133786
 20
150.602531093
 10
353.3125967275
 20
150.2790899347
 10
353.0389688738
 20
149.9504162648
  0
ARC
  5
2CC
330
1F
100
AcDbEntity
  8
0
  6
Continuous
 62
     7
370
    25
100
AcDbCircle
 10
356.076011031
 20
147.1433517594
 30
0.0
 40
4.198619612446065
100
AcDbArc
 50
41.9566711571
 51
124.5243995774
  0
ARC
  5
2CD
330
1F
100
AcDbEntity
  8
0
  6
Continuous
 62
     7
370
    25
100
AcDbCircle
 10
279.6869482419
 20
147.4490704887
 30
0.0
 40
3.225878371817577
100
AcDbArc
 50
118.3111685943
 51
149.658612821
  0
LWPOLYLINE
  5
2CE
330
1F
100
AcDbEntity
  8
0
  6
Continuous
 62
     7
370
    25
100
AcDbPolyline
 90
        3
 70
   128
 43
0.0
 10
361.6983818199
 20
153.0695151818
 10
361.357572943
 20
152.7758701276
 10
361.3426940552
 20
152.7599553535
  0
ARC
  5
2CF
330
1F
100
AcDbEntity
  8
0
  6
Continuous
 62
     7
370
    25
100
AcDbCircle
 10
363.6208254084
 20
150.2741768621
 30
0.0
 40
3.392595713050689
100
AcDbArc
 50
47.1138107055
 51
124.5175479531
  0
LWPOLYLINE
  5
2D0
330
1F
100
AcDbEntity
  8
0
  6
Continuous
 62
     7
370
    25
100
AcDbPolyline
 90
        3
 70
   128
 43
0.0
 10
277.2664315369
 20
154.5919233651
 10
276.9442444911
 20
154.8282816218
 10
276.7286229169
 20
154.9601111681
  0
ARC
  5
2D1
330
1F
100
AcDbEntity
  8
0
  6
Continuous
 62
     7
370
    25
100
AcDbCircle
 10
273.0690745931
 20
152.1325868391
 30
0.0
 40
3.20915952536952
100
AcDbArc
 50
118.2275382585
 51
149.742389832
  0
LINE
  5
2D2
330
1F
100
AcDbEntity
  8
0
  6
Continuous
 62
     7
370
    25
100
AcDbLine
 10
283.3430971351
 20
149.3545728684
 30
0.0
 11
283.994752544
 21
149.815362827
 31
0.0
  0
LINE
  5
2D3
330
1F
100
AcDbEntity
  8
0
  6
Continuous
 62
     7
370
    25
100
AcDbLine
 10
274.4859062388
 20
151.903620935
 30
0.0
 11
274.4859062388
 21
152.9900606444
 31
0.0
  0
LINE
  5
2D4
330
1F
100
AcDbEntity
  8
0
  6
Continuous
 62
     7
370
    25
100
AcDbLine
 10
271.5425705344
 20
152.6889797701
 30
0.0
 11
271.5512231084
 21
152.5391920451
 31
0.0
  0
LWPOLYLINE
  5
2D5
330
1F
100
AcDbEntity
  8
0
  6
Continuous
 62
     7
370
    25
100
AcDbPolyline
 90
        3
 70
   128
 43
0.0
 10
365.1964739393
 20
158.7343018996
 10
364.8126572883
 20
158.4108607412
 10
364.5390294346
 20
158.0821870714
  0
ARC
  5
2D6
330
1F
100
AcDbEntity
  8
0
  6
Continuous
 62
     7
370
    25
100
AcDbCircle
 10
367.5760715917
 20
155.2751225659
 30
0.0
 40
4.198619612445876
100
AcDbArc
 50
41.9566711571
 51
124.5243995774
  0
LINE
  5
2D7
330
1F
100
AcDbEntity
  8
0
  6
Continuous
 62
     7
370
    25
100
AcDbLine
 10
270.3296780314
 20
161.5534341204
 30
0.0
 11
270.3296780314
 21
161.6296353137
 31
0.0
  0
LINE
  5
2D8
330
1F
100
AcDbEntity
  8
0
  6
Continuous
 62
     7
370
    25
100
AcDbLine
 10
266.8220405568
 20
155.8597537083
 30
0.0
 11
266.8220405568
 21
157.3876109597
 31
0.0
  0
LINE
  5
2D9
330
1F
100
AcDbEntity
  8
0
  6
Continuous
 62
     7
370
    25
100
AcDbLine
 10
264.9470679256
 20
159.3191374079
 30
0.0
 11
264.366493767
 21
159.1239447463
 31
0.0
  0
LINE
  5
2DA
330
1F
100
AcDbEntity
  8
0
  6
Continuous
 62
     7
370
    25
100
AcDbLine
 10
266.65665331
 20
159.0324146258
 30
0.0
 11
266.65665331
 21
157.5045574034
 31
0.0
  0
LINE
  5
2DB
330
1F
100
AcDbEntity
  8
0
  6
Continuous
 62
     7
370
    25
100
AcDbLine
 10
267.6591319132
 20
158.3235552075
 30
0.0
 11
267.6591319132
 21
156.3958094182
 31
0.0
  0
LINE
  5
2DC
330
1F
100
AcDbEntity
  8
0
  6
Continuous
 62
     7
370
    25
100
AcDbLine
 10
266.8220405568
 20
156.7941478385
 30
0.0
 11
267.5331834009
 21
156.2912939111
 31
0.0
  0
LINE
  5
2DD
330
1F
100
AcDbEntity
  8
0
  6
Continuous
 62
     7
370
    25
100
AcDbLine
 10
268.6713835589
 20
158.3357237035
 30
0.0
 11
268.6713835589
 21
160.4570440471
 31
0.0
  0
ARC
  5
2DE
330
1F
100
AcDbEntity
  8
0
  6
Continuous
 62
     7
370
    25
100
AcDbCircle
 10
263.2465604368
 20
159.6200668361
 30
0.0
 40
5.574786380523403
100
AcDbArc
 50
328.2336841136
 51
346.6803031814
  0
LINE
  5
2DF
330
1F
100
AcDbEntity
  8
0
  6
Continuous
 62
     7
370
    25
100
AcDbLine
 10
264.9470679256
 20
158.8235552075
 30
0.0
 11
264.9470679256
 21
160.2412740441
 31
0.0
  0
LINE
  5
2E0
330
1F
100
AcDbEntity
  8
0
  6
Continuous
 62
     7
370
    25
100
AcDbLine
 10
269.7840864961
 20
159.1225234958
 30
0.0
 11
268.6713835589
 21
158.3357237035
 31
0.0
  0
LWPOLYLINE
  5
2E1
330
1F
100
AcDbEntity
  8
0
  6
Continuous
 62
     7
370
    25
100
AcDbPolyline
 90
        3
 70
   128
 43
0.0
 10
371.9139263332
 20
162.4813553723
 10
371.5731174563
 20
162.1877103181
 10
371.5582385685
 20
162.171795544
  0
ARC
  5
2E2
330
1F
100
AcDbEntity
  8
0
  6
Continuous
 62
     7
370
    25
100
AcDbCircle
 10
373.8363699216
 20
159.6860170526
 30
0.0
 40
3.39259571305057
100
AcDbArc
 50
47.1138107055
 51
124.5175479531
  0
LWPOLYLINE
  5
2E3
330
1F
100
AcDbEntity
  8
0
  6
Continuous
 62
     7
370
    25
100
AcDbPolyline
 90
        3
 70
   128
 43
0.0
 10
373.3282447458
 20
168.6936464902
 10
372.9444280948
 20
168.3702053319
 10
372.6708002411
 20
168.041531662
  0
ARC
  5
2E4
330
1F
100
AcDbEntity
  8
0
  6
Continuous
 62
     7
370
    25
100
AcDbCircle
 10
375.7078423983
 20
165.2344671566
 30
0.0
 40
4.198619612446063
100
AcDbArc
 50
41.9566711571
 51
124.5243995774
  0
LWPOLYLINE
  5
2E5
330
1F
100
AcDbEntity
  8
0
  6
Continuous
 62
     7
370
    25
100
AcDbPolyline
 90
        3
 70
   128
 43
0.0
 10
258.2130102713
 20
168.6936464902
 10
257.8291936203
 20
168.3702053319
 10
257.5555657666
 20
168.041531662
  0
ARC
  5
2E6
330
1F
100
AcDbEntity
  8
0
  6
Continuous
 62
     7
370
    25
100
AcDbCircle
 10
260.5926079237
 20
165.2344671566
 30
0.0
 40
4.198619612445844
100
AcDbArc
 50
41.9566711571
 51
124.5243995774
  0
LWPOLYLINE
  5
2E7
330
1F
100
AcDbEntity
  8
0
  6
Continuous
 62
     7
370
    25
100
AcDbPolyline
 90
        3
 70
   128
 43
0.0
 10
378.3364120021
 20
173.4420692879
 10
377.9956031252
 20
173.1484242337
 10
377.9807242374
 20
173.1325094596
  0
ARC
  5
2E8
330
1F
100
AcDbEntity
  8
0
  6
Continuous
 62
     7
370
    25
100
AcDbCircle
 10
380.2588555906
 20
170.6467309682
 30
0.0
 40
3.392595713050384
100
AcDbArc
 50
47.1138107054
 51
124.5175479531
  0
LWPOLYLINE
  5
2E9
330
1F
100
AcDbEntity
  8
0
  6
Continuous
 62
     7
370
    25
100
AcDbPolyline
 90
        3
 70
   128
 43
0.0
 10
254.1703492205
 20
173.4510038727
 10
253.8295403436
 20
173.1573588186
 10
253.8146614558
 20
173.1414440445
  0
ARC
  5
2EA
330
1F
100
AcDbEntity
  8
0
  6
Continuous
 62
     7
370
    25
100
AcDbCircle
 10
256.0927928089
 20
170.6556655531
 30
0.0
 40
3.392595713050595
100
AcDbArc
 50
47.1138107054
 51
124.5175479531
  0
LWPOLYLINE
  5
2EB
330
1F
100
AcDbEntity
  8
0
  6
Continuous
 62
     7
370
    25
100
AcDbPolyline
 90
        3
 70
   128
 43
0.0
 10
254.003695961
 20
179.8018519897
 10
253.61987931
 20
179.4784108314
 10
253.3462514563
 20
179.1497371615
  0
ARC
  5
2EC
330
1F
100
AcDbEntity
  8
0
  6
Continuous
 62
     7
370
    25
100
AcDbCircle
 10
256.3832936135
 20
176.3426726561
 30
0.0
 40
4.198619612445835
100
AcDbArc
 50
41.9566711571
 51
124.5243995774
  0
LWPOLYLINE
  5
2ED
330
1F
100
AcDbEntity
  8
0
  6
Continuous
 62
     7
370
    25
100
AcDbPolyline
 90
        3
 70
   128
 43
0.0
 10
377.5375590561
 20
179.8018519897
 10
377.1537424051
 20
179.4784108314
 10
376.8801145514
 20
179.1497371615
  0
ARC
  5
2EE
330
1F
100
AcDbEntity
  8
0
  6
Continuous
 62
     7
370
    25
100
AcDbCircle
 10
379.9171567086
 20
176.3426726561
 30
0.0
 40
4.198619612446088
100
AcDbArc
 50
41.9566711571
 51
124.5243995774
  0
LWPOLYLINE
  5
2EF
330
1F
100
AcDbEntity
  8
0
  6
Continuous
 62
     7
370
    25
100
AcDbPolyline
 90
        3
 70
   128
 43
0.0
 10
380.528157042
 20
185.2047023886
 10
380.1873481651
 20
184.9110573345
 10
380.1724692773
 20
184.8951425604
  0
ARC
  5
2F0
330
1F
100
AcDbEntity
  8
0
  6
Continuous
 62
     7
370
    25
100
AcDbCircle
 10
382.4506006304
 20
182.4093640689
 30
0.0
 40
3.39259571305072
100
AcDbArc
 50
47.1138107055
 51
124.5175479531
  0
LWPOLYLINE
  5
2F1
330
1F
100
AcDbEntity
  8
0
  6
Continuous
 62
     7
370
    25
100
AcDbPolyline
 90
        3
 70
   128
 43
0.0
 10
251.9819898289
 20
185.2139521515
 10
251.641180952
 20
184.9203070974
 10
251.6263020641
 20
184.9043923233
  0
ARC
  5
2F2
330
1F
100
AcDbEntity
  8
0
  6
Continuous
 62
     7
370
    25
100
AcDbCircle
 10
253.9044334173
 20
182.4186138318
 30
0.0
 40
3.39259571305056
100
AcDbArc
 50
47.1138107054
 51
124.5175479531
  0
LWPOLYLINE
  5
2F3
330
1F
100
AcDbEntity
  8
0
  6
Continuous
 62
     7
370
    25
100
AcDbPolyline
 90
        3
 70
   128
 43
0.0
 10
377.5375590561
 20
191.3019125504
 10
377.1537424051
 20
190.9784713921
 10
376.8801145514
 20
190.6497977222
  0
ARC
  5
2F4
330
1F
100
AcDbEntity
  8
0
  6
Continuous
 62
     7
370
    25
100
AcDbCircle
 10
379.9171567086
 20
187.8427332168
 30
0.0
 40
4.198619612445872
100
AcDbArc
 50
41.9566711571
 51
124.5243995774
  0
LWPOLYLINE
  5
2F5
330
1F
100
AcDbEntity
  8
0
  6
Continuous
 62
     7
370
    25
100
AcDbPolyline
 90
        3
 70
   128
 43
0.0
 10
254.003695961
 20
191.3019125504
 10
253.61987931
 20
190.9784713921
 10
253.3462514563
 20
190.6497977222
  0
ARC
  5
2F6
330
1F
100
AcDbEntity
  8
0
  6
Continuous
 62
     7
370
    25
100
AcDbCircle
 10
256.3832936135
 20
187.8427332168
 30
0.0
 40
4.198619612445858
100
AcDbArc
 50
41.9566711571
 51
124.5243995774
  0
LWPOLYLINE
  5
2F7
330
1F
100
AcDbEntity
  8
0
  6
Continuous
 62
     7
370
    25
100
AcDbPolyline
 90
        3
 70
   128
 43
0.0
 10
378.3397976503
 20
196.9676506674
 10
377.9989887734
 20
196.6740056133
 10
377.9841098856
 20
196.6580908392
  0
ARC
  5
2F8
330
1F
100
AcDbEntity
  8
0
  6
Continuous
 62
     7
370
    25
100
AcDbCircle
 10
380.2622412388
 20
194.1723123477
 30
0.0
 40
3.392595713050829
100
AcDbArc
 50
47.1138107055
 51
124.5175479531
  0
LWPOLYLINE
  5
2F9
330
1F
100
AcDbEntity
  8
0
  6
Continuous
 62
     7
370
    25
100
AcDbPolyline
 90
        3
 70
   128
 43
0.0
 10
254.1720417232
 20
196.9721180208
 10
253.8312328463
 20
196.6784729666
 10
253.8163539584
 20
196.6625581925
  0
ARC
  5
2FA
330
1F
100
AcDbEntity
  8
0
  6
Continuous
 62
     7
370
    25
100
AcDbCircle
 10
256.0944853116
 20
194.1767797011
 30
0.0
 40
3.392595713050634
100
AcDbArc
 50
47.1138107054
 51
124.5175479531
  0
LWPOLYLINE
  5
2FB
330
1F
100
AcDbEntity
  8
0
  6
Continuous
 62
     7
370
    25
100
AcDbPolyline
 90
        3
 70
   128
 43
0.0
 10
373.3282447458
 20
202.4101180499
 10
372.9444280948
 20
202.0866768916
 10
372.6708002411
 20
201.7580032217
  0
ARC
  5
2FC
330
1F
100
AcDbEntity
  8
0
  6
Continuous
 62
     7
370
    25
100
AcDbCircle
 10
375.7078423983
 20
198.9509387163
 30
0.0
 40
4.198619612445451
100
AcDbArc
 50
41.956671157
 51
124.5243995774
  0
LWPOLYLINE
  5
2FD
330
1F
100
AcDbEntity
  8
0
  6
Continuous
 62
     7
370
    25
100
AcDbPolyline
 90
        3
 70
   128
 43
0.0
 10
258.2130102713
 20
202.4101180499
 10
257.8291936203
 20
202.0866768916
 10
257.5555657666
 20
201.7580032217
  0
ARC
  5
2FE
330
1F
100
AcDbEntity
  8
0
  6
Continuous
 62
     7
370
    25
100
AcDbCircle
 10
260.5926079237
 20
198.9509387163
 30
0.0
 40
4.198619612445889
100
AcDbArc
 50
41.9566711571
 51
124.5243995774
  0
LWPOLYLINE
  5
2FF
330
1F
100
AcDbEntity
  8
0
  6
Continuous
 62
     7
370
    25
100
AcDbPolyline
 90
        3
 70
   128
 43
0.0
 10
371.9204669033
 20
207.9292886382
 10
371.5796580264
 20
207.6356435841
 10
371.5647791386
 20
207.61972881
  0
ARC
  5
300
330
1F
100
AcDbEntity
  8
0
  6
Continuous
 62
     7
370
    25
100
AcDbCircle
 10
373.8429104917
 20
205.1339503185
 30
0.0
 40
3.392595713050817
100
AcDbArc
 50
47.1138107055
 51
124.5175479531
  0
LWPOLYLINE
  5
301
330
1F
100
AcDbEntity
  8
0
  6
Continuous
 62
     7
370
    25
100
AcDbPolyline
 90
        3
 70
   128
 43
0.0
 10
260.5962205376
 20
207.9372991679
 10
260.2554116607
 20
207.6436541138
 10
260.2405327729
 20
207.6277393397
  0
ARC
  5
302
330
1F
100
AcDbEntity
  8
0
  6
Continuous
 62
     7
370
    25
100
AcDbCircle
 10
262.518664126
 20
205.1419608482
 30
0.0
 40
3.392595713050395
100
AcDbArc
 50
47.1138107054
 51
124.5175479531
  0
LWPOLYLINE
  5
303
330
1F
100
AcDbEntity
  8
0
  6
Continuous
 62
     7
370
    25
100
AcDbPolyline
 90
        3
 70
   128
 43
0.0
 10
266.3447810778
 20
212.3694626406
 10
265.9609644268
 20
212.0460214822
 10
265.6873365731
 20
211.7173478124
  0
ARC
  5
304
330
1F
100
AcDbEntity
  8
0
  6
Continuous
 62
     7
370
    25
100
AcDbCircle
 10
268.7243787303
 20
208.9102833069
 30
0.0
 40
4.198619612446572
100
AcDbArc
 50
41.9566711571
 51
124.5243995774
  0
LWPOLYLINE
  5
305
330
1F
100
AcDbEntity
  8
0
  6
Continuous
 62
     7
370
    25
100
AcDbPolyline
 90
        3
 70
   128
 43
0.0
 10
365.1964739393
 20
212.3694626406
 10
364.8126572883
 20
212.0460214822
 10
364.5390294346
 20
211.7173478124
  0
ARC
  5
306
330
1F
100
AcDbEntity
  8
0
  6
Continuous
 62
     7
370
    25
100
AcDbCircle
 10
367.5760715917
 20
208.9102833069
 30
0.0
 40
4.198619612445585
100
AcDbArc
 50
41.956671157
 51
124.5243995774
  0
LWPOLYLINE
  5
307
330
1F
100
AcDbEntity
  8
0
  6
Continuous
 62
     7
370
    25
100
AcDbPolyline
 90
        3
 70
   128
 43
0.0
 10
361.7030069367
 20
217.3458692398
 10
361.3621980598
 20
217.0522241856
 10
361.347319172
 20
217.0363094115
  0
ARC
  5
308
330
1F
100
AcDbEntity
  8
0
  6
Continuous
 62
     7
370
    25
100
AcDbCircle
 10
363.6254505251
 20
214.5505309201
 30
0.0
 40
3.392595713050761
100
AcDbArc
 50
47.1138107055
 51
124.5175479531
  0
LWPOLYLINE
  5
309
330
1F
100
AcDbEntity
  8
0
  6
Continuous
 62
     7
370
    25
100
AcDbPolyline
 90
        3
 70
   128
 43
0.0
 10
270.8117650509
 20
217.3491393584
 10
270.470956174
 20
217.0554943043
 10
270.4560772862
 20
217.0395795302
  0
ARC
  5
30A
330
1F
100
AcDbEntity
  8
0
  6
Continuous
 62
     7
370
    25
100
AcDbCircle
 10
272.7342086393
 20
214.5538010387
 30
0.0
 40
3.392595713050164
100
AcDbArc
 50
47.1138107054
 51
124.5175479531
  0
LWPOLYLINE
  5
30B
330
1F
100
AcDbEntity
  8
0
  6
Continuous
 62
     7
370
    25
100
AcDbPolyline
 90
        3
 70
   128
 43
0.0
 10
353.6964133786
 20
220.5012334471
 10
353.3125967275
 20
220.1777922888
 10
353.0389688738
 20
219.8491186189
  0
ARC
  5
30C
330
1F
100
AcDbEntity
  8
0
  6
Continuous
 62
     7
370
    25
100
AcDbCircle
 10
356.076011031
 20
217.0420541135
 30
0.0
 40
4.198619612445451
100
AcDbArc
 50
41.956671157
 51
124.5243995774
  0
LWPOLYLINE
  5
30D
330
1F
100
AcDbEntity
  8
0
  6
Continuous
 62
     7
370
    25
100
AcDbPolyline
 90
        3
 70
   128
 43
0.0
 10
277.8448416386
 20
220.5012334471
 10
277.4610249875
 20
220.1777922888
 10
277.1873971338
 20
219.8491186189
  0
ARC
  5
30E
330
1F
100
AcDbEntity
  8
0
  6
Continuous
 62
     7
370
    25
100
AcDbCircle
 10
280.224439291
 20
217.0420541135
 30
0.0
 40
4.198619612445083
100
AcDbArc
 50
41.956671157
 51
124.5243995774
  0
LWPOLYLINE
  5
30F
330
1F
100
AcDbEntity
  8
0
  6
Continuous
 62
     7
370
    25
100
AcDbPolyline
 90
        3
 70
   128
 43
0.0
 10
348.3972795386
 20
224.5660795872
 10
348.0564706617
 20
224.2724345331
 10
348.0415917738
 20
224.256519759
  0
ARC
  5
310
330
1F
100
AcDbEntity
  8
0
  6
Continuous
 62
     7
370
    25
100
AcDbCircle
 10
350.319723127
 20
221.7707412675
 30
0.0
 40
3.392595713050641
100
AcDbArc
 50
47.1138107054
 51
124.5175479531
  0
LWPOLYLINE
  5
311
330
1F
100
AcDbEntity
  8
0
  6
Continuous
 62
     7
370
    25
100
AcDbPolyline
 90
        3
 70
   128
 43
0.0
 10
284.124195932
 20
224.5707044686
 10
283.7833870551
 20
224.2770594145
 10
283.7685081673
 20
224.2611446404
  0
ARC
  5
312
330
1F
100
AcDbEntity
  8
0
  6
Continuous
 62
     7
370
    25
100
AcDbCircle
 10
286.0466395204
 20
221.7753661489
 30
0.0
 40
3.392595713050993
100
AcDbArc
 50
47.1138107054
 51
124.5175479531
  0
LWPOLYLINE
  5
313
330
1F
100
AcDbEntity
  8
0
  6
Continuous
 62
     7
370
    25
100
AcDbPolyline
 90
        3
 70
   128
 43
0.0
 10
339.6117731861
 20
226.2512637275
 10
339.2279565351
 20
225.9278225692
 10
338.9543286814
 20
225.5991488993
  0
ARC
  5
314
330
1F
100
AcDbEntity
  8
0
  6
Continuous
 62
     7
370
    25
100
AcDbCircle
 10
341.9913708386
 20
222.7920843938
 30
0.0
 40
4.198619612445982
100
AcDbArc
 50
41.9566711571
 51
124.5243995774
  0
LWPOLYLINE
  5
315
330
1F
100
AcDbEntity
  8
0
  6
Continuous
 62
     7
370
    25
100
AcDbPolyline
 90
        3
 70
   128
 43
0.0
 10
291.929481831
 20
226.2512637275
 10
291.54566518
 20
225.9278225692
 10
291.2720373263
 20
225.5991488993
  0
ARC
  5
316
330
1F
100
AcDbEntity
  8
0
  6
Continuous
 62
     7
370
    25
100
AcDbCircle
 10
294.3090794835
 20
222.7920843938
 30
0.0
 40
4.198619612447924
100
AcDbArc
 50
41.9566711572
 51
124.5243995774
  0
LWPOLYLINE
  5
317
330
1F
100
AcDbEntity
  8
0
  6
Continuous
 62
     7
370
    25
100
AcDbPolyline
 90
        3
 70
   128
 43
0.0
 10
307.638856702
 20
229.2276984204
 10
307.255040051
 20
228.9042572621
 10
306.9814121973
 20
228.5755835922
  0
ARC
  5
318
330
1F
100
AcDbEntity
  8
0
  6
Continuous
 62
     7
370
    25
100
AcDbCircle
 10
310.0184543545
 20
225.7685190868
 30
0.0
 40
4.198619612451823
100
AcDbArc
 50
41.9566711574
 51
124.5243995774
  0
LWPOLYLINE
  5
319
330
1F
100
AcDbEntity
  8
0
  6
Continuous
 62
     7
370
    25
100
AcDbPolyline
 90
        3
 70
   128
 43
0.0
 10
323.9023983151
 20
229.2276984204
 10
323.5185816641
 20
228.9042572621
 10
323.2449538104
 20
228.5755835922
  0
ARC
  5
31A
330
1F
100
AcDbEntity
  8
0
  6
Continuous
 62
     7
370
    25
100
AcDbCircle
 10
326.2819959676
 20
225.7685190868
 30
0.0
 40
4.198619612442754
100
AcDbArc
 50
41.9566711569
 51
124.5243995774
  0
LWPOLYLINE
  5
31B
330
1F
100
AcDbEntity
  8
0
  6
Continuous
 62
     7
370
    25
100
AcDbPolyline
 90
        3
 70
   128
 43
0.0
 10
332.8964892658
 20
229.1074627557
 10
332.5556803889
 20
228.8138177016
 10
332.5408015011
 20
228.7979029275
  0
ARC
  5
31C
330
1F
100
AcDbEntity
  8
0
  6
Continuous
 62
     7
370
    25
100
AcDbCircle
 10
334.8189328543
 20
226.312124436
 30
0.0
 40
3.392595713050516
100
AcDbArc
 50
47.1138107054
 51
124.5175479531
  0
LWPOLYLINE
  5
31D
330
1F
100
AcDbEntity
  8
0
  6
Continuous
 62
     7
370
    25
100
AcDbPolyline
 90
        3
 70
   128
 43
0.0
 10
299.6262930161
 20
229.1098567705
 10
299.2854841392
 20
228.8162117164
 10
299.2706052514
 20
228.8002969423
  0
ARC
  5
31E
330
1F
100
AcDbEntity
  8
0
  6
Continuous
 62
     7
370
    25
100
AcDbCircle
 10
301.5487366046
 20
226.3145184509
 30
0.0
 40
3.392595713052553
100
AcDbArc
 50
47.1138107056
 51
124.5175479531
  0
LWPOLYLINE
  5
31F
330
1F
100
AcDbEntity
  8
0
  6
Continuous
 62
     7
370
    25
100
AcDbPolyline
 90
        3
 70
   128
 43
0.0
 10
316.2616140055
 20
230.6572605361
 10
315.9208051286
 20
230.3636154819
 10
315.9059262408
 20
230.3477007078
  0
ARC
  5
320
330
1F
100
AcDbEntity
  8
0
  6
Continuous
 62
     7
370
    25
100
AcDbCircle
 10
318.1840575939
 20
227.8619222164
 30
0.0
 40
3.392595713050532
100
AcDbArc
 50
47.1138107054
 51
124.5175479531
  0
LINE
  5
321
330
1F
100
AcDbEntity
  8
0
  6
Continuous
 62
     7
370
    25
100
AcDbLine
 10
58.3993426724
 20
86.4262126246
 30
0.0
 11
60.885826871
 21
86.4262126246
 31
0.0
  0
LINE
  5
322
330
1F
100
AcDbEntity
  8
0
  6
Continuous
 62
     7
370
    25
100
AcDbLine
 10
60.885826871
 20
83.4262126246
 30
0.0
 11
60.885826871
 21
86.4262126246
 31
0.0
  0
LINE
  5
323
330
1F
100
AcDbEntity
  8
0
  6
Continuous
 62
     7
370
    25
100
AcDbLine
 10
58.3993426724
 20
83.4262126246
 30
0.0
 11
60.885826871
 21
83.4262126246
 31
0.0
  0
LINE
  5
324
330
1F
100
AcDbEntity
  8
0
  6
Continuous
 62
     7
370
    25
100
AcDbLine
 10
58.3993426724
 20
83.4262126246
 30
0.0
 11
58.3993426724
 21
86.4262126246
 31
0.0
  0
LINE
  5
325
330
1F
100
AcDbEntity
  8
0
  6
Continuous
 62
     7
370
    25
100
AcDbLine
 10
60.885826871
 20
86.4262126246
 30
0.0
 11
66.3666912607
 21
86.4262126246
 31
0.0
  0
LINE
  5
326
330
1F
100
AcDbEntity
  8
0
  6
Continuous
 62
     7
370
    25
100
AcDbLine
 10
66.3666912607
 20
86.4262126246
 30
0.0
 11
66.3666912607
 21
83.4262126246
 31
0.0
  0
LINE
  5
327
330
1F
100
AcDbEntity
  8
0
  6
Continuous
 62
     7
370
    25
100
AcDbLine
 10
66.3666912607
 20
83.4262126246
 30
0.0
 11
60.885826871
 21
83.4262126246
 31
0.0
  0
LINE
  5
328
330
1F
100
AcDbEntity
  8
0
  6
Continuous
 62
     7
370
    25
100
AcDbLine
 10
189.4319940841
 20
86.4262126246
 30
0.0
 11
194.9128584738
 21
86.4262126246
 31
0.0
  0
LINE
  5
329
330
1F
100
AcDbEntity
  8
0
  6
Continuous
 62
     7
370
    25
100
AcDbLine
 10
194.9128584738
 20
86.4262126246
 30
0.0
 11
194.9128584738
 21
83.4262126246
 31
0.0
  0
LINE
  5
32A
330
1F
100
AcDbEntity
  8
0
  6
Continuous
 62
     7
370
    25
100
AcDbLine
 10
194.9128584738
 20
83.4262126246
 30
0.0
 11
189.4319940841
 21
83.4262126246
 31
0.0
  0
LINE
  5
32B
330
1F
100
AcDbEntity
  8
0
  6
Continuous
 62
     7
370
    25
100
AcDbLine
 10
189.4319940841
 20
83.4262126246
 30
0.0
 11
189.4319940841
 21
86.4262126246
 31
0.0
  0
LINE
  5
32C
330
1F
100
AcDbEntity
  8
0
  6
Continuous
 62
     7
370
    25
100
AcDbLine
 10
72.3993426724
 20
86.4262126246
 30
0.0
 11
183.3993426724
 21
86.4262126246
 31
0.0
  0
LINE
  5
32D
330
1F
100
AcDbEntity
  8
0
  6
Continuous
 62
     7
370
    25
100
AcDbLine
 10
183.3993426724
 20
86.4262126246
 30
0.0
 11
183.3993426724
 21
83.4262126246
 31
0.0
  0
LINE
  5
32E
330
1F
100
AcDbEntity
  8
0
  6
Continuous
 62
     7
370
    25
100
AcDbLine
 10
183.3993426724
 20
83.4262126246
 30
0.0
 11
72.3993426724
 21
83.4262126246
 31
0.0
  0
LINE
  5
32F
330
1F
100
AcDbEntity
  8
0
  6
Continuous
 62
     7
370
    25
100
AcDbLine
 10
72.3993426724
 20
83.4262126246
 30
0.0
 11
72.3993426724
 21
86.4262126246
 31
0.0
  0
LINE
  5
330
330
1F
100
AcDbEntity
  8
0
  6
Continuous
 62
     7
370
    25
100
AcDbLine
 10
197.3993426724
 20
86.4262126246
 30
0.0
 11
197.3993426724
 21
83.4262126246
 31
0.0
  0
LINE
  5
331
330
1F
100
AcDbEntity
  8
0
  6
Continuous
 62
     7
370
    25
100
AcDbLine
 10
194.9128584738
 20
86.4262126246
 30
0.0
 11
197.3993426724
 21
86.4262126246
 31
0.0
  0
LINE
  5
332
330
1F
100
AcDbEntity
  8
0
  6
Continuous
 62
     7
370
    25
100
AcDbLine
 10
194.9128584738
 20
83.4262126246
 30
0.0
 11
197.3993426724
 21
83.4262126246
 31
0.0
  0
LINE
  5
333
330
1F
100
AcDbEntity
  8
0
  6
Continuous
 62
     7
370
    25
100
AcDbLine
 10
183.3993426724
 20
86.4262126246
 30
0.0
 11
189.4319940841
 21
86.4262126246
 31
0.0
  0
LINE
  5
334
330
1F
100
AcDbEntity
  8
0
  6
Continuous
 62
     7
370
    25
100
AcDbLine
 10
183.3993426724
 20
83.4262126246
 30
0.0
 11
189.4319940841
 21
83.4262126246
 31
0.0
  0
LINE
  5
335
330
1F
100
AcDbEntity
  8
0
  6
Continuous
 62
     7
370
    25
100
AcDbLine
 10
66.3666912607
 20
86.4262126246
 30
0.0
 11
72.3993426724
 21
86.4262126246
 31
0.0
  0
LINE
  5
336
330
1F
100
AcDbEntity
  8
0
  6
Continuous
 62
     7
370
    25
100
AcDbLine
 10
66.3666912607
 20
83.4262126246
 30
0.0
 11
72.3993426724
 21
83.4262126246
 31
0.0
  0
HATCH
  5
337
330
1F
100
AcDbEntity
  8
0
  6
Continuous
 62
     7
370
    18
100
AcDbHatch
 10
0.0
 20
0.0
 30
0.0
210
0.0
220
0.0
230
1.0
  2
ANSI31
 70
     0
 71
     0
 91
        1
 92
        0
 93
        4
 72
     1
 10
58.39934267241379
 20
86.42621262458486
 11
58.39934267241379
 21
83.42621262458485
 72
     1
 10
58.39934267241379
 20
83.42621262458485
 11
60.88582687100543
 21
83.42621262458485
 72
     1
 10
60.88582687100543
 20
83.42621262458485
 11
60.88582687100543
 21
86.42621262458486
 72
     1
 10
60.88582687100543
 20
86.42621262458486
 11
58.39934267241379
 21
86.42621262458486
 97
        0
 75
     0
 76
     1
 52
0.0
 41
0.5
 77
     0
 78
     1
 53
45.0
 43
0.0
 44
0.0
 45
-1.122532015133644
 46
1.122532015133644
 79
     0
 98
        1
 10
0.0
 20
0.0
  0
HATCH
  5
338
330
1F
100
AcDbEntity
  8
0
  6
Continuous
 62
     7
370
    18
100
AcDbHatch
 10
0.0
 20
0.0
 30
0.0
210
0.0
220
0.0
230
1.0
  2
ANSI31
 70
     0
 71
     0
 91
        1
 92
        0
 93
        4
 72
     1
 10
194.9128584738221
 20
86.42621262458486
 11
194.9128584738221
 21
83.42621262458485
 72
     1
 10
194.9128584738221
 20
83.42621262458485
 11
197.3993426724138
 21
83.42621262458485
 72
     1
 10
197.3993426724138
 20
83.42621262458485
 11
197.3993426724138
 21
86.42621262458486
 72
     1
 10
197.3993426724138
 20
86.42621262458486
 11
194.9128584738221
 21
86.42621262458486
 97
        0
 75
     0
 76
     1
 52
0.0
 41
0.5
 77
     0
 78
     1
 53
45.0
 43
0.0
 44
0.0
 45
-1.122532015133644
 46
1.122532015133644
 79
     0
 98
        1
 10
0.0
 20
0.0
  0
HATCH
  5
339
330
1F
100
AcDbEntity
  8
0
  6
Continuous
 62
     7
370
    18
100
AcDbHatch
 10
0.0
 20
0.0
 30
0.0
210
0.0
220
0.0
230
1.0
  2
ANSI31
 70
     0
 71
     0
 91
        1
 92
        0
 93
        4
 72
     1
 10
183.3993426724138
 20
86.42621262458486
 11
183.3993426724138
 21
83.42621262458485
 72
     1
 10
183.3993426724138
 20
83.42621262458485
 11
189.4319940841321
 21
83.42621262458485
 72
     1
 10
189.4319940841321
 20
83.42621262458485
 11
189.4319940841321
 21
86.42621262458486
 72
     1
 10
189.4319940841321
 20
86.42621262458486
 11
183.3993426724138
 21
86.42621262458486
 97
        0
 75
     0
 76
     1
 52
0.0
 41
0.5
 77
     0
 78
     1
 53
45.0
 43
0.0
 44
0.0
 45
-1.122532015133644
 46
1.122532015133644
 79
     0
 98
        1
 10
0.0
 20
0.0
  0
HATCH
  5
33A
330
1F
100
AcDbEntity
  8
0
  6
Continuous
 62
     7
370
    18
100
AcDbHatch
 10
0.0
 20
0.0
 30
0.0
210
0.0
220
0.0
230
1.0
  2
ANSI31
 70
     0
 71
     0
 91
        1
 92
        0
 93
        4
 72
     1
 10
66.36669126069539
 20
86.42621262458486
 11
66.36669126069539
 21
83.42621262458485
 72
     1
 10
66.36669126069539
 20
83.42621262458485
 11
72.3993426724138
 21
83.42621262458485
 72
     1
 10
72.3993426724138
 20
83.42621262458485
 11
72.3993426724138
 21
86.42621262458486
 72
     1
 10
72.3993426724138
 20
86.42621262458486
 11
66.36669126069539
 21
86.42621262458486
 97
        0
 75
     0
 76
     1
 52
0.0
 41
0.5
 77
     0
 78
     1
 53
45.0
 43
0.0
 44
0.0
 45
-1.122532015133644
 46
1.122532015133644
 79
     0
 98
        1
 10
0.0
 20
0.0
  0
DIMENSION
  5
33B
330
1F
100
AcDbEntity
  8
0
  6
Continuous
 62
     7
370
    18
100
AcDbDimension
  2
_D
 10
48.3993426724
 20
86.4262126246
 30
0.0
 11
48.3993426724
 21
84.9262126246
 31
0.0
 70
   160
  1
<>
 71
     2
 42
-1.0
  3
SLDDIMSTYLE0
100
AcDbAlignedDimension
 13
58.3993426724
 23
83.4262126246
 33
0.0
 14
58.3993426724
 24
86.4262126246
 34
0.0
 50
90.0
100
AcDbRotatedDimension
  0
DIMENSION
  5
348
330
1F
100
AcDbEntity
  8
0
  6
Continuous
 62
     7
370
    18
100
AcDbDimension
  2
_D_1
 10
197.3993426724
 20
63.4262126246
 30
0.0
 11
127.8993426724
 21
63.4262126246
 31
0.0
 70
   160
  1
%%c<>
 71
     2
 42
-1.0
  3
SLDDIMSTYLE1
100
AcDbAlignedDimension
 13
58.3993426724
 23
83.4262126246
 33
0.0
 14
197.3993426724
 24
83.4262126246
 34
0.0
 50
0.0
100
AcDbRotatedDimension
  0
DIMENSION
  5
354
330
1F
100
AcDbEntity
  8
0
  6
Continuous
 62
     7
370
    18
100
AcDbDimension
  2
_D_2
 10
183.3993426724
 20
73.4262126246
 30
0.0
 11
127.8993426724
 21
73.4262126246
 31
0.0
 70
   160
  1
%%c<>
 71
     2
 42
-1.0
  3
SLDDIMSTYLE1
100
AcDbAlignedDimension
 13
72.3993426724
 23
83.4262126246
 33
0.0
 14
183.3993426724
 24
83.4262126246
 34
0.0
100
AcDbRotatedDimension
  0
MTEXT
  5
35F
330
1F
100
AcDbEntity
  8
0
  6
Continuous
 62
     7
370
     0
100
AcDbMText
 10
127.8767737835
 20
97.930992182
 30
0.0
 40
5.0
 41
0.0
 71
     2
 72
     1
  1
A-A
  7
SLDTEXTSTYLE0
 73
     1
 44
1.0
  0
ENDSEC
  0
SECTION
  2
OBJECTS
  0
DICTIONARY
  5
C
330
0
100
AcDbDictionary
281
     1
  3
ACAD_GROUP
350
D
  3
ACAD_LAYOUT
350
1A
  3
ACAD_MLINESTYLE
350
17
  3
ACAD_PLOTSETTINGS
350
19
  3
ACAD_PLOTSTYLENAME
350
E
  3
ACAD_SCALELIST
350
47
  3
DWGPROPS
350
360
  0
DICTIONARY
  5
D
102
{ACAD_REACTORS
330
C
102
}
330
C
100
AcDbDictionary
281
     1
  0
DICTIONARY
  5
1A
102
{ACAD_REACTORS
330
C
102
}
330
C
100
AcDbDictionary
281
     1
  3
Layout1
350
1E
  3
Layout2
350
26
  3
Model
350
22
  0
DICTIONARY
  5
17
102
{ACAD_REACTORS
330
C
102
}
330
C
100
AcDbDictionary
281
     1
  3
Standard
350
18
  0
DICTIONARY
  5
19
102
{ACAD_REACTORS
330
C
102
}
330
C
100
AcDbDictionary
281
     1
  0
ACDBDICTIONARYWDFLT
  5
E
102
{ACAD_REACTORS
330
C
102
}
330
C
100
AcDbDictionary
281
     1
  3
Normal
350
F
100
AcDbDictionaryWithDefault
340
F
  0
DICTIONARY
  5
47
102
{ACAD_REACTORS
330
C
102
}
330
C
100
AcDbDictionary
281
     1
  3
A0
350
48
  3
A1
350
49
  3
A2
350
4A
  3
A3
350
4B
  3
A4
350
4C
  3
A5
350
4D
  3
A6
350
4E
  3
A7
350
4F
  3
A8
350
50
  3
A9
350
51
  3
B0
350
52
  3
B1
350
53
  3
B2
350
54
  3
B3
350
55
  3
B4
350
56
  3
B5
350
57
  3
B6
350
58
  3
B7
350
59
  3
B8
350
5A
  3
B9
350
5B
  3
C0
350
5C
  3
C1
350
5D
  3
C2
350
5E
  3
C3
350
5F
  3
C4
350
60
  3
C5
350
61
  3
C6
350
62
  3
C7
350
63
  3
C8
350
64
  3
C9
350
65
  3
D0
350
66
  3
D1
350
67
  3
D2
350
68
  0
XRECORD
  5
360
102
{ACAD_REACTORS
330
C
102
}
330
C
100
AcDbXrecord
280
     1
  1
DWGPROPS COOKIE
  2

  3

  4

  6

  7

  8
ch-ntl-rs-wscad
  9

300
=
301
=
302
=
303
=
304
=
305
=
306
=
307
=
308
=
309
=
 40
0.0
 41
2460569.646330995
 42
2460569.646334618
  1

 90
        0
  0
LAYOUT
  5
1E
102
{ACAD_REACTORS
330
1A
102
}
330
1A
100
AcDbPlotSettings
  1

  2
none_device
  4

  6

 40
0.0
 41
0.0
 42
0.0
 43
0.0
 44
0.0
 45
0.0
 46
0.0
 47
0.0
 48
0.0
 49
0.0
140
0.0
141
0.0
142
1.0
143
1.0
 70
   688
 72
     1
 73
     0
 74
     5
  7

 75
    16
147
1.0
148
0.0
149
0.0
100
AcDbLayout
  1
Layout1
 70
     1
 71
     1
 10
0.0
 20
0.0
 11
420.0
 21
297.0
 12
0.0
 22
0.0
 32
0.0
 14
1.0000000000E+20
 24
1.0000000000E+20
 34
1.0000000000E+20
 15
-1.0000000000E+20
 25
-1.0000000000E+20
 35
-1.0000000000E+20
146
0.0
 13
0.0
 23
0.0
 33
0.0
 16
1.0
 26
0.0
 36
0.0
 17
0.0
 27
1.0
 37
0.0
 76
     0
330
1B
  0
LAYOUT
  5
26
102
{ACAD_REACTORS
330
1A
102
}
330
1A
100
AcDbPlotSettings
  1

  2
none_device
  4

  6

 40
0.0
 41
0.0
 42
0.0
 43
0.0
 44
0.0
 45
0.0
 46
0.0
 47
0.0
 48
0.0
 49
0.0
140
0.0
141
0.0
142
1.0
143
1.0
 70
   688
 72
     1
 73
     0
 74
     5
  7

 75
    16
147
1.0
148
0.0
149
0.0
100
AcDbLayout
  1
Layout2
 70
     1
 71
     2
 10
0.0
 20
0.0
 11
0.0
 21
0.0
 12
0.0
 22
0.0
 32
0.0
 14
0.0
 24
0.0
 34
0.0
 15
0.0
 25
0.0
 35
0.0
146
0.0
 13
0.0
 23
0.0
 33
0.0
 16
1.0
 26
0.0
 36
0.0
 17
0.0
 27
1.0
 37
0.0
 76
     0
330
23
  0
LAYOUT
  5
22
102
{ACAD_REACTORS
330
1A
102
}
330
1A
100
AcDbPlotSettings
  1

  2
none_device
  4
Letter_(8.50_x_11.00_Inches)
  6

 40
6.35
 41
6.35
 42
6.35000508
 43
6.35000508
 44
215.9
 45
279.4
 46
0.0
 47
0.0
 48
0.0
 49
0.0
140
0.0
141
0.0
142
1.0
143
1.0
 70
  1712
 72
     1
 73
     0
 74
     0
  7

 75
     0
147
1.0
148
0.0
149
0.0
100
AcDbLayout
  1
Model
 70
     1
 71
     0
 10
0.0
 20
0.0
 11
420.0
 21
297.0
 12
0.0
 22
0.0
 32
0.0
 14
0.0
 24
0.0
 34
0.0
 15
420.0
 25
297.0
 35
0.0
146
0.0
 13
0.0
 23
0.0
 33
0.0
 16
1.0
 26
0.0
 36
0.0
 17
0.0
 27
1.0
 37
0.0
 76
     0
330
1F
331
29
  0
MLINESTYLE
  5
18
102
{ACAD_REACTORS
330
17
102
}
330
17
100
AcDbMlineStyle
  2
Standard
 70
     0
  3

 62
   256
 51
90.0
 52
90.0
 71
     2
 49
0.5
 62
   256
  6
BYLAYER
 49
-0.5
 62
   256
  6
BYLAYER
  0
ACDBPLACEHOLDER
  5
F
102
{ACAD_REACTORS
330
E
102
}
330
E
  0
SCALE
  5
48
102
{ACAD_REACTORS
330
47
102
}
330
47
100
AcDbScale
 70
     0
300
1:1
140
1.0
141
1.0
290
     1
  0
SCALE
  5
49
102
{ACAD_REACTORS
330
47
102
}
330
47
100
AcDbScale
 70
     0
300
1:2
140
1.0
141
2.0
290
     0
  0
SCALE
  5
4A
102
{ACAD_REACTORS
330
47
102
}
330
47
100
AcDbScale
 70
     0
300
1:4
140
1.0
141
4.0
290
     0
  0
SCALE
  5
4B
102
{ACAD_REACTORS
330
47
102
}
330
47
100
AcDbScale
 70
     0
300
1:5
140
1.0
141
5.0
290
     0
  0
SCALE
  5
4C
102
{ACAD_REACTORS
330
47
102
}
330
47
100
AcDbScale
 70
     0
300
1:8
140
1.0
141
8.0
290
     0
  0
SCALE
  5
4D
102
{ACAD_REACTORS
330
47
102
}
330
47
100
AcDbScale
 70
     0
300
1:10
140
1.0
141
10.0
290
     0
  0
SCALE
  5
4E
102
{ACAD_REACTORS
330
47
102
}
330
47
100
AcDbScale
 70
     0
300
1:16
140
1.0
141
16.0
290
     0
  0
SCALE
  5
4F
102
{ACAD_REACTORS
330
47
102
}
330
47
100
AcDbScale
 70
     0
300
1:20
140
1.0
141
20.0
290
     0
  0
SCALE
  5
50
102
{ACAD_REACTORS
330
47
102
}
330
47
100
AcDbScale
 70
     0
300
1:30
140
1.0
141
30.0
290
     0
  0
SCALE
  5
51
102
{ACAD_REACTORS
330
47
102
}
330
47
100
AcDbScale
 70
     0
300
1:40
140
1.0
141
40.0
290
     0
  0
SCALE
  5
52
102
{ACAD_REACTORS
330
47
102
}
330
47
100
AcDbScale
 70
     0
300
1:50
140
1.0
141
50.0
290
     0
  0
SCALE
  5
53
102
{ACAD_REACTORS
330
47
102
}
330
47
100
AcDbScale
 70
     0
300
1:100
140
1.0
141
100.0
290
     0
  0
SCALE
  5
54
102
{ACAD_REACTORS
330
47
102
}
330
47
100
AcDbScale
 70
     0
300
2:1
140
2.0
141
1.0
290
     0
  0
SCALE
  5
55
102
{ACAD_REACTORS
330
47
102
}
330
47
100
AcDbScale
 70
     0
300
4:1
140
4.0
141
1.0
290
     0
  0
SCALE
  5
56
102
{ACAD_REACTORS
330
47
102
}
330
47
100
AcDbScale
 70
     0
300
8:1
140
8.0
141
1.0
290
     0
  0
SCALE
  5
57
102
{ACAD_REACTORS
330
47
102
}
330
47
100
AcDbScale
 70
     0
300
10:1
140
10.0
141
1.0
290
     0
  0
SCALE
  5
58
102
{ACAD_REACTORS
330
47
102
}
330
47
100
AcDbScale
 70
     0
300
100:1
140
100.0
141
1.0
290
     0
  0
SCALE
  5
59
102
{ACAD_REACTORS
330
47
102
}
330
47
100
AcDbScale
 70
     0
300
1/128" = 1'-0"
140
0.0078125
141
12.0
290
     0
  0
SCALE
  5
5A
102
{ACAD_REACTORS
330
47
102
}
330
47
100
AcDbScale
 70
     0
300
1/64" = 1'-0"
140
0.015625
141
12.0
290
     0
  0
SCALE
  5
5B
102
{ACAD_REACTORS
330
47
102
}
330
47
100
AcDbScale
 70
     0
300
1/32" = 1'-0"
140
0.03125
141
12.0
290
     0
  0
SCALE
  5
5C
102
{ACAD_REACTORS
330
47
102
}
330
47
100
AcDbScale
 70
     0
300
1/16" = 1'-0"
140
0.0625
141
12.0
290
     0
  0
SCALE
  5
5D
102
{ACAD_REACTORS
330
47
102
}
330
47
100
AcDbScale
 70
     0
300
3/32" = 1'-0"
140
0.09375
141
12.0
290
     0
  0
SCALE
  5
5E
102
{ACAD_REACTORS
330
47
102
}
330
47
100
AcDbScale
 70
     0
300
1/8" = 1'-0"
140
0.125
141
12.0
290
     0
  0
SCALE
  5
5F
102
{ACAD_REACTORS
330
47
102
}
330
47
100
AcDbScale
 70
     0
300
3/16" = 1'-0"
140
0.1875
141
12.0
290
     0
  0
SCALE
  5
60
102
{ACAD_REACTORS
330
47
102
}
330
47
100
AcDbScale
 70
     0
300
1/4" = 1'-0"
140
0.25
141
12.0
290
     0
  0
SCALE
  5
61
102
{ACAD_REACTORS
330
47
102
}
330
47
100
AcDbScale
 70
     0
300
3/8" = 1'-0"
140
0.375
141
12.0
290
     0
  0
SCALE
  5
62
102
{ACAD_REACTORS
330
47
102
}
330
47
100
AcDbScale
 70
     0
300
1/2" = 1'-0"
140
0.5
141
12.0
290
     0
  0
SCALE
  5
63
102
{ACAD_REACTORS
330
47
102
}
330
47
100
AcDbScale
 70
     0
300
3/4" = 1'-0"
140
0.75
141
12.0
290
     0
  0
SCALE
  5
64
102
{ACAD_REACTORS
330
47
102
}
330
47
100
AcDbScale
 70
     0
300
1" = 1'-0"
140
1.0
141
12.0
290
     0
  0
SCALE
  5
65
102
{ACAD_REACTORS
330
47
102
}
330
47
100
AcDbScale
 70
     0
300
1-1/2" = 1'-0"
140
1.5
141
12.0
290
     0
  0
SCALE
  5
66
102
{ACAD_REACTORS
330
47
102
}
330
47
100
AcDbScale
 70
     0
300
3" = 1'-0"
140
3.0
141
12.0
290
     0
  0
SCALE
  5
67
102
{ACAD_REACTORS
330
47
102
}
330
47
100
AcDbScale
 70
     0
300
6" = 1'-0"
140
6.0
141
12.0
290
     0
  0
SCALE
  5
68
102
{ACAD_REACTORS
330
47
102
}
330
47
100
AcDbScale
 70
     0
300
1'-0" = 1'-0"
140
12.0
141
12.0
290
     0
  0
ENDSEC
  0
EOF
