  0
SECTION
  2
HEADER
  9
$ACADVER
  1
AC1018
  9
$ACADMAINTVER
 70
   104
  9
$DWGCODEPAGE
  3
ANSI_1252
  9
$LASTSAVEDBY
  1
aleser
  9
$CUSTOMPROPERTYTAG
  1
AmdtFileType
  9
$CUSTOMPROPERTY
  1
84
  9
$INSBASE
 10
0.0
 20
0.0
 30
0.0
  9
$EXTMIN
 10
57.50037731167871
 20
45.02765732653482
 30
0.0
  9
$EXTMAX
 10
410.3277782123995
 20
420.0187251026902
 30
0.0
  9
$LIMMIN
 10
-0.0000000000001137
 20
0.0
  9
$LIMMAX
 10
594.0
 20
420.0
  9
$ORTHOMODE
 70
     0
  9
$REGENMODE
 70
     1
  9
$FILLMODE
 70
     1
  9
$QTEXTMODE
 70
     0
  9
$MIRRTEXT
 70
     1
  9
$LTSCALE
 40
1.0
  9
$ATTMODE
 70
     1
  9
$TEXTSIZE
 40
2.5
  9
$TRACEWID
 40
1.0
  9
$TEXTSTYLE
  7
STANDARD
  9
$CLAYER
  8
0
  9
$CELTYPE
  6
ByLayer
  9
$CECOLOR
 62
   256
  9
$CELTSCALE
 40
1.0
  9
$DISPSILH
 70
     0
  9
$DIMSCALE
 40
1.0
  9
$DIMASZ
 40
3.5
  9
$DIMEXO
 40
1.0
  9
$DIMDLI
 40
10.0
  9
$DIMRND
 40
0.0
  9
$DIMDLE
 40
0.0
  9
$DIMEXE
 40
1.0
  9
$DIMTP
 40
0.1
  9
$DIMTM
 40
0.1
  9
$DIMTXT
 40
3.5
  9
$DIMCEN
 40
0.0
  9
$DIMTSZ
 40
0.0
  9
$DIMTOL
 70
     0
  9
$DIMLIM
 70
     0
  9
$DIMTIH
 70
     0
  9
$DIMTOH
 70
     0
  9
$DIMSE1
 70
     0
  9
$DIMSE2
 70
     0
  9
$DIMTAD
 70
     1
  9
$DIMZIN
 70
     8
  9
$DIMBLK
  1

  9
$DIMASO
 70
     1
  9
$DIMSHO
 70
     1
  9
$DIMPOST
  1

  9
$DIMAPOST
  1
"
  9
$DIMALT
 70
     0
  9
$DIMALTD
 70
     2
  9
$DIMALTF
 40
0.0393701
  9
$DIMLFAC
 40
1.0
  9
$DIMTOFL
 70
     1
  9
$DIMTVP
 40
0.0
  9
$DIMTIX
 70
     0
  9
$DIMSOXD
 70
     0
  9
$DIMSAH
 70
     0
  9
$DIMBLK1
  1

  9
$DIMBLK2
  1

  9
$DIMSTYLE
  2
AM_DIN
  9
$DIMCLRD
 70
   256
  9
$DIMCLRE
 70
   256
  9
$DIMCLRT
 70
     2
  9
$DIMTFAC
 40
0.71
  9
$DIMGAP
 40
1.5
  9
$DIMJUST
 70
     0
  9
$DIMSD1
 70
     0
  9
$DIMSD2
 70
     0
  9
$DIMTOLJ
 70
     0
  9
$DIMTZIN
 70
     8
  9
$DIMALTZ
 70
     0
  9
$DIMALTTZ
 70
     0
  9
$DIMUPT
 70
     0
  9
$DIMDEC
 70
     2
  9
$DIMTDEC
 70
     3
  9
$DIMALTU
 70
     2
  9
$DIMALTTD
 70
     4
  9
$DIMTXSTY
  7
STANDARD
  9
$DIMAUNIT
 70
     0
  9
$DIMADEC
 70
     0
  9
$DIMALTRND
 40
0.0
  9
$DIMAZIN
 70
     2
  9
$DIMDSEP
 70
    46
  9
$DIMATFIT
 70
     3
  9
$DIMFRAC
 70
     0
  9
$DIMLDRBLK
  1

  9
$DIMLUNIT
 70
     2
  9
$DIMLWD
 70
    -1
  9
$DIMLWE
 70
    -1
  9
$DIMTMOVE
 70
     0
  9
$LUNITS
 70
     2
  9
$LUPREC
 70
     2
  9
$SKETCHINC
 40
1.0
  9
$FILLETRAD
 40
0.0
  9
$AUNITS
 70
     0
  9
$AUPREC
 70
     0
  9
$MENU
  1
.
  9
$ELEVATION
 40
0.0
  9
$PELEVATION
 40
0.0
  9
$THICKNESS
 40
0.0
  9
$LIMCHECK
 70
     0
  9
$CHAMFERA
 40
2.5
  9
$CHAMFERB
 40
2.5
  9
$CHAMFERC
 40
20.0
  9
$CHAMFERD
 40
0.0
  9
$SKPOLY
 70
     0
  9
$TDCREATE
 40
2455642.361511806
  9
$TDUCREATE
 40
2455642.319845139
  9
$TDUPDATE
 40
2455642.481282905
  9
$TDUUPDATE
 40
2455642.439616239
  9
$TDINDWG
 40
0.1158911806
  9
$TDUSRTIMER
 40
0.1158685880
  9
$USRTIMER
 70
     1
  9
$ANGBASE
 50
0.0
  9
$ANGDIR
 70
     0
  9
$PDMODE
 70
     0
  9
$PDSIZE
 40
0.0
  9
$PLINEWID
 40
0.0
  9
$SPLFRAME
 70
     0
  9
$SPLINETYPE
 70
     6
  9
$SPLINESEGS
 70
     8
  9
$HANDSEED
  5
F39
  9
$SURFTAB1
 70
     6
  9
$SURFTAB2
 70
     6
  9
$SURFTYPE
 70
     6
  9
$SURFU
 70
     6
  9
$SURFV
 70
     6
  9
$UCSBASE
  2

  9
$UCSNAME
  2

  9
$UCSORG
 10
0.0
 20
0.0
 30
0.0
  9
$UCSXDIR
 10
1.0
 20
0.0
 30
0.0
  9
$UCSYDIR
 10
0.0
 20
1.0
 30
0.0
  9
$UCSORTHOREF
  2

  9
$UCSORTHOVIEW
 70
     0
  9
$UCSORGTOP
 10
0.0
 20
0.0
 30
0.0
  9
$UCSORGBOTTOM
 10
0.0
 20
0.0
 30
0.0
  9
$UCSORGLEFT
 10
0.0
 20
0.0
 30
0.0
  9
$UCSORGRIGHT
 10
0.0
 20
0.0
 30
0.0
  9
$UCSORGFRONT
 10
0.0
 20
0.0
 30
0.0
  9
$UCSORGBACK
 10
0.0
 20
0.0
 30
0.0
  9
$PUCSBASE
  2

  9
$PUCSNAME
  2

  9
$PUCSORG
 10
0.0
 20
0.0
 30
0.0
  9
$PUCSXDIR
 10
1.0
 20
0.0
 30
0.0
  9
$PUCSYDIR
 10
0.0
 20
1.0
 30
0.0
  9
$PUCSORTHOREF
  2

  9
$PUCSORTHOVIEW
 70
     0
  9
$PUCSORGTOP
 10
0.0
 20
0.0
 30
0.0
  9
$PUCSORGBOTTOM
 10
0.0
 20
0.0
 30
0.0
  9
$PUCSORGLEFT
 10
0.0
 20
0.0
 30
0.0
  9
$PUCSORGRIGHT
 10
0.0
 20
0.0
 30
0.0
  9
$PUCSORGFRONT
 10
0.0
 20
0.0
 30
0.0
  9
$PUCSORGBACK
 10
0.0
 20
0.0
 30
0.0
  9
$USERI1
 70
     0
  9
$USERI2
 70
     0
  9
$USERI3
 70
     0
  9
$USERI4
 70
     0
  9
$USERI5
 70
     0
  9
$USERR1
 40
0.0
  9
$USERR2
 40
0.0
  9
$USERR3
 40
0.0
  9
$USERR4
 40
0.0
  9
$USERR5
 40
0.0
  9
$WORLDVIEW
 70
     1
  9
$SHADEDGE
 70
     3
  9
$SHADEDIF
 70
    70
  9
$TILEMODE
 70
     1
  9
$MAXACTVP
 70
    64
  9
$PINSBASE
 10
0.0
 20
0.0
 30
0.0
  9
$PLIMCHECK
 70
     0
  9
$PEXTMIN
 10
1.000000000000000E+20
 20
1.000000000000000E+20
 30
1.000000000000000E+20
  9
$PEXTMAX
 10
-1.000000000000000E+20
 20
-1.000000000000000E+20
 30
-1.000000000000000E+20
  9
$PLIMMIN
 10
0.0
 20
0.0
  9
$PLIMMAX
 10
420.0
 20
297.0
  9
$UNITMODE
 70
     0
  9
$VISRETAIN
 70
     1
  9
$PLINEGEN
 70
     0
  9
$PSLTSCALE
 70
     1
  9
$TREEDEPTH
 70
  3020
  9
$CMLSTYLE
  2
Standard
  9
$CMLJUST
 70
     0
  9
$CMLSCALE
 40
20.0
  9
$PROXYGRAPHICS
 70
     1
  9
$MEASUREMENT
 70
     1
  9
$CELWEIGHT
370
    -1
  9
$ENDCAPS
280
     0
  9
$JOINSTYLE
280
     0
  9
$LWDISPLAY
290
     0
  9
$INSUNITS
 70
     4
  9
$HYPERLINKBASE
  1

  9
$STYLESHEET
  1

  9
$XEDIT
290
     1
  9
$CEPSNTYPE
380
     0
  9
$PSTYLEMODE
290
     1
  9
$FINGERPRINTGUID
  2
{19282229-9660-4414-8D8B-7739609DDB97}
  9
$VERSIONGUID
  2
{70EA7799-D8A8-4FE1-9419-BFE4AD458FE9}
  9
$EXTNAMES
290
     1
  9
$PSVPSCALE
 40
0.0
  9
$OLESTARTUP
290
     0
  9
$SORTENTS
280
   127
  9
$INDEXCTL
280
     0
  9
$HIDETEXT
280
     0
  9
$XCLIPFRAME
290
     0
  9
$HALOGAP
280
     0
  9
$OBSCOLOR
 70
   257
  9
$OBSLTYPE
280
     0
  9
$INTERSECTIONDISPLAY
280
     0
  9
$INTERSECTIONCOLOR
 70
   257
  9
$DIMASSOC
280
     2
  9
$PROJECTNAME
  1

  0
ENDSEC
  0
SECTION
  2
CLASSES
  0
CLASS
  1
ACDBDICTIONARYWDFLT
  2
AcDbDictionaryWithDefault
  3
ObjectDBX Classes
 90
        0
 91
        1
280
     0
281
     0
  0
CLASS
  1
ACME_DOCUMENT
  2
AcMeDbDoc
  3
AcMeServices
 90
     1024
 91
        1
280
     0
281
     0
  0
CLASS
  1
AMGSETTINGSOBJ
  2
AmgSettingsObj
  3
"AcadM|Product Description: AutoCAD Mechanical|Company: Autodesk, Inc."
 90
     1024
 91
        2
280
     0
281
     0
  0
CLASS
  1
ACMESCOPE
  2
AcMeScope
  3
AcMeServices
 90
     1024
 91
        1
280
     0
281
     0
  0
CLASS
  1
ACMECOMMANDHISTORY
  2
AcMeCommandHistory
  3
AcMeServices
 90
     1024
 91
        1
280
     0
281
     0
  0
CLASS
  1
ACIMSYSVARMAN
  2
AcImSysVarManager
  3
AcMeServices
 90
     1024
 91
        4
280
     0
281
     0
  0
CLASS
  1
ACIMREALSYSVAR
  2
AcImRealSysVar
  3
AcMeServices
 90
     1024
 91
        1
280
     0
281
     0
  0
CLASS
  1
ACIMINTSYSVAR
  2
AcImIntSysVar
  3
AcMeServices
 90
     1024
 91
       27
280
     0
281
     0
  0
CLASS
  1
ACMEDRAWINGMAN
  2
AcMeDrawingMan
  3
AcMeServices
 90
     1024
 91
        1
280
     0
281
     0
  0
CLASS
  1
ACMEVIEW
  2
AcMeView
  3
AcMeServices
 90
     1024
 91
        1
280
     0
281
     0
  0
CLASS
  1
ACDBENTITYCACHE
  2
AcMeEntityCache
  3
AcMeServices
 90
     1024
 91
        1
280
     0
281
     0
  0
CLASS
  1
GSMANAGER
  2
AcMeGSManager
  3
AcMeServices
 90
     1024
 91
        1
280
     0
281
     0
  0
CLASS
  1
AMDTINTERNALREACTOR
  2
AmdtInternalReactor
  3
AcMeServices
 90
     1024
 91
        2
280
     0
281
     0
  0
CLASS
  1
ACMESTATEMGR
  2
AcMeStateMgr
  3
AcMeServices
 90
     1024
 91
        1
280
     0
281
     0
  0
CLASS
  1
ACGREFMASTER
  2
AcGrefMaster
  3
AcAttribServices
 90
     1024
 91
        1
280
     0
281
     0
  0
CLASS
  1
ACME_DATABASE
  2
AcMeDbDatabase
  3
AcMeServices
 90
     1024
 91
        1
280
     0
281
     0
  0
CLASS
  1
ACRFINSADJUSTERMGR
  2
AcRfInsAdjusterMgr
  3
AcMeServices
 90
     1024
 91
        1
280
     0
281
     0
  0
CLASS
  1
ACGREFACADMASTER
  2
AcGrefacadMaster
  3
AcGrefServices
 90
     1024
 91
        1
280
     0
281
     0
  0
CLASS
  1
AMIMASTER
  2
AmiMaster
  3
AmiServices
 90
     1024
 91
        1
280
     0
281
     0
  0
CLASS
  1
ACMDATADICTIONARY
  2
AcmDataDictionary
  3
"AcmSymBB|Product Description: AutoCAD Mechanical|Company: Autodesk, Inc."
 90
     1024
 91
        1
280
     0
281
     0
  0
CLASS
  1
ACMDATAENTRYBLOCK
  2
AcmDataEntryBlock
  3
AcmSymBB|Product Description: AutoCAD Mechanical|Company: Autodesk, Inc.
 90
     1024
 91
        0
280
     0
281
     0
  0
CLASS
  1
ACIMSTRSYSVAR
  2
AcImStrSysVar
  3
AcMeServices
 90
     1024
 91
        4
280
     0
281
     0
  0
CLASS
  1
ACMSTANDARDISO
  2
AcmStandardISO
  3
"Amdt_StdImp|Product Description: AutoCAD Mechanical|Company: Autodesk, Inc."
 90
     1024
 91
        0
280
     0
281
     0
  0
CLASS
  1
AMGOBJPROPCFG
  2
AmgObjPropCfg
  3
"AmgLay|Product Description: AutoCAD Mechanical|Company: Autodesk, Inc."
 90
     1025
 91
        1
280
     0
281
     0
  0
CLASS
  1
AMDTEDGESTANDARDISO
  2
AmdtEdgeStdISO
  3
"Amdt_StdImp|Product Description: AutoCAD Mechanical|Company: Autodesk, Inc."
 90
     1024
 91
        0
280
     0
281
     0
  0
CLASS
  1
ACMSURFSTANDARDISO
  2
AcmSurfTextStdISO
  3
"Amdt_StdImp|Product Description: AutoCAD Mechanical|Company: Autodesk, Inc."
 90
     1024
 91
        0
280
     0
281
     0
  0
CLASS
  1
ACMFCFSTANDARDISO
  2
AcmFCFStdISO
  3
"Amdt_StdImp|Product Description: AutoCAD Mechanical|Company: Autodesk, Inc."
 90
     1024
 91
        0
280
     0
281
     0
  0
CLASS
  1
ACMWELDSTANDARDISO
  2
AcmWeldingStdISO
  3
"Amdt_StdImp|Product Description: AutoCAD Mechanical|Company: Autodesk, Inc."
 90
     1024
 91
        0
280
     0
281
     0
  0
CLASS
  1
ACMIDSTANDARDISO
  2
AcmIdStdISO
  3
"Amdt_StdImp|Product Description: AutoCAD Mechanical|Company: Autodesk, Inc."
 90
     1024
 91
        0
280
     0
281
     0
  0
CLASS
  1
ACMDATUMSTANDARDISO
  2
AcmDatumStdISO
  3
"Amdt_StdImp|Product Description: AutoCAD Mechanical|Company: Autodesk, Inc."
 90
     1024
 91
        0
280
     0
281
     0
  0
CLASS
  1
ACMBOMSTANDARDISO
  2
AcmBOMStdISO
  3
"Amdt_StdImp|Product Description: AutoCAD Mechanical|Company: Autodesk, Inc."
 90
     1024
 91
        0
280
     0
281
     0
  0
CLASS
  1
ACMDETAILSTANDARDISO
  2
AmdtDetailSymStdISO
  3
"Amdt_StdImp|Product Description: AutoCAD Mechanical|Company: Autodesk, Inc."
 90
     1024
 91
        0
280
     0
281
     0
  0
CLASS
  1
ACMSECTIONSTANDARDISO
  2
AmdtSectionSymStdISO
  3
"Amdt_StdImp|Product Description: AutoCAD Mechanical|Company: Autodesk, Inc."
 90
     1024
 91
        0
280
     0
281
     0
  0
CLASS
  1
ACMCENTERLINESTANDARDISO
  2
AmdtCenterLineStdISO
  3
"Amdt_StdImp|Product Description: AutoCAD Mechanical|Company: Autodesk, Inc."
 90
     1024
 91
        0
280
     0
281
     0
  0
CLASS
  1
ACMNOTESTANDARDISO
  2
AmdtNoteStdISO
  3
"Amdt_StdImp|Product Description: AutoCAD Mechanical|Company: Autodesk, Inc."
 90
     1024
 91
        0
280
     0
281
     0
  0
CLASS
  1
ACAMGLAYSTD
  2
AcAmgLayStd
  3
"AmgLay|Product Description: AutoCAD Mechanical|Company: Autodesk, Inc."
 90
     1024
 91
        0
280
     0
281
     0
  0
CLASS
  1
ACAMGDIMSTD
  2
AcAmgDimStd
  3
"AmgDim|Product Description: AutoCAD Mechanical|Company: Autodesk, Inc."
 90
     1024
 91
        0
280
     0
281
     0
  0
CLASS
  1
ACAMGHOLECHARTSTDISO
  2
AcAmgHoleChartStdISO
  3
AmgDim|Product Description: AutoCAD Mechanical|Company: Autodesk, Inc.
 90
     1024
 91
        0
280
     0
281
     0
  0
CLASS
  1
ACAMGTITLESTD
  2
AcAmgTitleStd
  3
"AmgTitle|Product Description: AutoCAD Mechanical|Company: Autodesk, Inc."
 90
     4095
 91
        0
280
     0
281
     0
  0
CLASS
  1
LAYER_INDEX
  2
AcDbLayerIndex
  3
ObjectDBX Classes
 90
        0
 91
        0
280
     0
281
     0
  0
CLASS
  1
IDBUFFER
  2
AcDbIdBuffer
  3
ObjectDBX Classes
 90
        0
 91
        0
280
     0
281
     0
  0
CLASS
  1
DICTIONARYVAR
  2
AcDbDictionaryVar
  3
ObjectDBX Classes
 90
        0
 91
        6
280
     0
281
     0
  0
CLASS
  1
AM_DRAWING_MGR
  2
AcDmDwgMgr
  3
AcMechDwgViewMgmt
 90
     1024
 91
        1
280
     0
281
     0
  0
CLASS
  1
AM_DWG_DOCUMENT
  2
AcDmDwgDocument
  3
AcMechDwgViewMgmt
 90
     1024
 91
        1
280
     0
281
     0
  0
CLASS
  1
AM_DWG_SHEET
  2
AcDmSheet
  3
AcMechDwgViewMgmt
 90
     1024
 91
        2
280
     0
281
     0
  0
CLASS
  1
AM_VIEWDIMPARMAP
  2
AcDmViewDimParMap
  3
AcMechDwgViewMgmt
 90
     1024
 91
        2
280
     0
281
     0
  0
CLASS
  1
AM_DWGMGR_NAME
  2
AcDmDwgMgrName
  3
AcMechDwgViewMgmt
 90
     1024
 91
        1
280
     0
281
     0
  0
CLASS
  1
AMDTMENUSTATEMGR
  2
AmdtMenuStateMgr
  3
McadcomServices
 90
     1024
 91
        1
280
     0
281
     0
  0
CLASS
  1
AMDTMCOMMENUSTATE
  2
AmdtMcomMenuState
  3
McadcomServices
 90
     1024
 91
        1
280
     0
281
     0
  0
CLASS
  1
MAPIAMMOUDLE
  2
MApiAmModule
  3
MApiAmServices
 90
     1024
 91
        1
280
     0
281
     0
  0
CLASS
  1
AMDTADMENUSTATE
  2
AmdtAdMenuState
  3
DesignerServices
 90
     1024
 91
        1
280
     0
281
     0
  0
CLASS
  1
ADAPPL
  2
AcAdAppl
  3
DesignerServices
 90
     1024
 91
        1
280
     0
281
     0
  0
CLASS
  1
DEPMGR
  2
AcAdDepMgr
  3
DesignerServices
 90
     1024
 91
        1
280
     0
281
     0
  0
CLASS
  1
PARAMMGR
  2
AcAdParamMgr
  3
DesignerServices
 90
     1024
 91
        1
280
     0
281
     0
  0
CLASS
  1
PARAMSCOPE
  2
AcAdParamScope
  3
DesignerServices
 90
     1024
 91
        1
280
     0
281
     0
  0
CLASS
  1
NAMEDAPPL
  2
AcAdNamedAppl
  3
DesignerServices
 90
     1024
 91
        1
280
     0
281
     0
  0
CLASS
  1
AMDTDMMENUSTATE
  2
AmdtDmMenuState
  3
AcMechDwgViewMgmt
 90
     1024
 91
        1
280
     0
281
     0
  0
CLASS
  1
AMDTAMMENUSTATE
  2
AmdtAmMenuState
  3
DesignerAssemblies
 90
     1024
 91
        1
280
     0
281
     0
  0
CLASS
  1
ACAMPROJECT
  2
AcAmProject
  3
DesignerAssemblies
 90
     1024
 91
        1
280
     0
281
     0
  0
CLASS
  1
ACAMGRCOMPDEF
  2
AcAmGrCompDef
  3
DesignerAssemblies
 90
     1024
 91
        1
280
     0
281
     0
  0
CLASS
  1
ACCMCONTEXT
  2
AcCmContext
  3
DesignerAssemblies
 90
     1024
 91
        1
280
     0
281
     0
  0
CLASS
  1
ACAMCOMPDEF
  2
AcAmCompDef
  3
DesignerAssemblies
 90
     1024
 91
        1
280
     0
281
     0
  0
CLASS
  1
ACAMCOMPDEFMGR
  2
AcAmCompDefMgr
  3
DesignerAssemblies
 90
     1024
 91
        1
280
     0
281
     0
  0
CLASS
  1
AMCONTEXTMGR
  2
AcAmContextMgr
  3
DesignerAssemblies
 90
     1024
 91
        1
280
     0
281
     0
  0
CLASS
  1
ACAMCONTEXTMODELER
  2
AcAmContextModeler
  3
DesignerAssemblies
 90
     1024
 91
        1
280
     0
281
     0
  0
CLASS
  1
ACMTHREADLINESTANDARDISO
  2
AmdtThreadLineStdISO
  3
"Amdt_StdImp|Product Description: AutoCAD Mechanical|Company: Autodesk, Inc."
 90
     1024
 91
        0
280
     0
281
     0
  0
CLASS
  1
CATALOGSTATE
  2
AcAmCatalogState
  3
DesignerAssemblies
 90
     1024
 91
        1
280
     0
281
     0
  0
CLASS
  1
ACAMGRCOMPDEFSET
  2
AcAmGrCompDefSet
  3
DesignerAssemblies
 90
     1024
 91
        1
280
     0
281
     0
  0
CLASS
  1
AMDTBROWSERDBTAB
  2
AmdtBrowserDbTab
  3
McadcomServices
 90
     1024
 91
        1
280
     0
281
     0
  0
CLASS
  1
CBROWSERAPPOBJECT
  2
CBrowserAppObject
  3
McadcomServices
 90
     1024
 91
        3
280
     0
281
     0
  0
CLASS
  1
DM_PLACEHOLDER
  2
AcDmSelsetPlaceholder
  3
AcMechDwgViewMgmt
 90
     1024
 91
        1
280
     0
281
     0
  0
CLASS
  1
TABLESTYLE
  2
AcDbTableStyle
  3
ObjectDBX Classes
 90
     4095
 91
        1
280
     0
281
     0
  0
CLASS
  1
VAACXREFPANELOBJECT
  2
VaAcXREFPanelObject
  3
VAAC_ADDIN
 90
        0
 91
        0
280
     0
281
     0
  0
CLASS
  1
VAACIMAGEINVENTORY
  2
VaAcImageInventory
  3
VAAC_ADDIN
 90
        0
 91
        0
280
     0
281
     0
  0
CLASS
  1
AMDTNOTETEMPLATEDB
  2
AmdtNoteTemplateDB
  3
AcmSymBB|Product Description: AutoCAD Mechanical|Company: Autodesk, Inc.
 90
     1024
 91
        0
280
     0
281
     0
  0
CLASS
  1
ACAMGFILTERDAT
  2
AcAmgFilterDat
  3
"AcadM|Product Description: AutoCAD Mechanical|Company: Autodesk, Inc."
 90
     1024
 91
        0
280
     0
281
     0
  0
CLASS
  1
ACMBOM
  2
AcmBom
  3
"AcmSymBB|Product Description: AutoCAD Mechanical|Company: Autodesk, Inc."
 90
     1024
 91
        0
280
     0
281
     0
  0
CLASS
  1
AMDTFORMULAUPDATEDISPATCHER
  2
AmdtFormulaUpdateDispatcher
  3
AcMeServices
 90
     1024
 91
        0
280
     0
281
     0
  0
CLASS
  1
ACMSTANDARDDIN
  2
AcmStandardDIN
  3
"Amdt_StdImp|Product Description: AutoCAD Mechanical|Company: Autodesk, Inc."
 90
     1024
 91
        0
280
     0
281
     0
  0
CLASS
  1
AMDTEDGESTANDARDDIN13715
  2
AmdtEdgeStdDIN13715
  3
"Amdt_StdImp|Product Description: AutoCAD Mechanical|Company: Autodesk, Inc."
 90
     1024
 91
        0
280
     0
281
     0
  0
CLASS
  1
ACMSURFSTANDARDDIN
  2
AcmSurfTextStdDIN
  3
"Amdt_StdImp|Product Description: AutoCAD Mechanical|Company: Autodesk, Inc."
 90
     1024
 91
        0
280
     0
281
     0
  0
CLASS
  1
ACMFCFSTANDARDDIN
  2
AcmFCFStdDIN
  3
"Amdt_StdImp|Product Description: AutoCAD Mechanical|Company: Autodesk, Inc."
 90
     1024
 91
        0
280
     0
281
     0
  0
CLASS
  1
ACMWELDSTANDARDDIN
  2
AcmWeldingStdDIN
  3
"Amdt_StdImp|Product Description: AutoCAD Mechanical|Company: Autodesk, Inc."
 90
     1024
 91
        0
280
     0
281
     0
  0
CLASS
  1
ACMIDSTANDARDDIN
  2
AcmIdStdDIN
  3
"Amdt_StdImp|Product Description: AutoCAD Mechanical|Company: Autodesk, Inc."
 90
     1024
 91
        0
280
     0
281
     0
  0
CLASS
  1
ACMDATUMSTANDARDDIN
  2
AcmDatumStdDIN
  3
"Amdt_StdImp|Product Description: AutoCAD Mechanical|Company: Autodesk, Inc."
 90
     1024
 91
        0
280
     0
281
     0
  0
CLASS
  1
ACMBOMSTANDARDDIN
  2
AcmBOMStdDIN
  3
"Amdt_StdImp|Product Description: AutoCAD Mechanical|Company: Autodesk, Inc."
 90
     1024
 91
        0
280
     0
281
     0
  0
CLASS
  1
ACMDETAILSTANDARDDIN
  2
AmdtDetailSymStdDIN
  3
"Amdt_StdImp|Product Description: AutoCAD Mechanical|Company: Autodesk, Inc."
 90
     1024
 91
        0
280
     0
281
     0
  0
CLASS
  1
ACMSECTIONSTANDARDDIN
  2
AmdtSectionSymStdDIN
  3
"Amdt_StdImp|Product Description: AutoCAD Mechanical|Company: Autodesk, Inc."
 90
     1024
 91
        0
280
     0
281
     0
  0
CLASS
  1
ACMCENTERLINESTANDARDDIN
  2
AmdtCenterLineStdDIN
  3
"Amdt_StdImp|Product Description: AutoCAD Mechanical|Company: Autodesk, Inc."
 90
     1024
 91
        0
280
     0
281
     0
  0
CLASS
  1
ACMTHREADLINESTANDARDDIN
  2
AmdtThreadLineStdDIN
  3
"Amdt_StdImp|Product Description: AutoCAD Mechanical|Company: Autodesk, Inc."
 90
     1024
 91
        0
280
     0
281
     0
  0
CLASS
  1
ACMNOTESTANDARDDIN
  2
AmdtNoteStdDIN
  3
"Amdt_StdImp|Product Description: AutoCAD Mechanical|Company: Autodesk, Inc."
 90
     1024
 91
        0
280
     0
281
     0
  0
CLASS
  1
ACAMGHOLECHARTSTDDIN
  2
AcAmgHoleChartStdDIN
  3
AmgDim|Product Description: AutoCAD Mechanical|Company: Autodesk, Inc.
 90
     1024
 91
        0
280
     0
281
     0
  0
CLASS
  1
MATERIAL
  2
AcDbMaterial
  3
ObjectDBX Classes
 90
     1153
 91
        3
280
     0
281
     0
  0
CLASS
  1
VISUALSTYLE
  2
AcDbVisualStyle
  3
ObjectDBX Classes
 90
     4095
 91
       16
280
     0
281
     0
  0
CLASS
  1
SCALE
  2
AcDbScale
  3
ObjectDBX Classes
 90
     1153
 91
       17
280
     0
281
     0
  0
CLASS
  1
MLEADERSTYLE
  2
AcDbMLeaderStyle
  3
ACDB_MLEADERSTYLE_CLASS
 90
     4095
 91
        1
280
     0
281
     0
  0
CLASS
  1
ACRFATTGENMGR
  2
AcRfAttGeneralMgr
  3
AcAttribServices
 90
     1024
 91
        0
280
     0
281
     0
  0
CLASS
  1
ACRFOBJATTMGR
  2
AcRfObjAttGroupMgr
  3
AcAttribServices
 90
     1024
 91
        0
280
     0
281
     0
  0
CLASS
  1
ACRFMCADAPIATTHOLDER
  2
AcRfMCADAPIAttHolder
  3
AcAttribServices
 90
     1024
 91
        0
280
     0
281
     0
  0
CLASS
  1
AMDTSYSATTR
  2
AmdtSystemAttribute
  3
AcAttribServices
 90
     1024
 91
        0
280
     0
281
     0
  0
CLASS
  1
ACMTAPERSTANDARDISO
  2
AcmTaperStdISO
  3
"Amdt_StdImp|Product Description: AutoCAD Mechanical|Company: Autodesk, Inc."
 90
     1024
 91
        0
280
     0
281
     0
  0
CLASS
  1
ACMANOOTATIONVIEWSTANDARDISO
  2
AmdtAnViewStdISO
  3
"Amdt_StdImp|Product Description: AutoCAD Mechanical|Company: Autodesk, Inc."
 90
     1024
 91
        0
280
     0
281
     0
  0
CLASS
  1
ACMTAPERSTANDARDDIN
  2
AcmTaperStdDIN
  3
"Amdt_StdImp|Product Description: AutoCAD Mechanical|Company: Autodesk, Inc."
 90
     1024
 91
        0
280
     0
281
     0
  0
CLASS
  1
ACMANOOTATIONVIEWSTANDARDDIN
  2
AmdtAnViewStdDIN
  3
"Amdt_StdImp|Product Description: AutoCAD Mechanical|Company: Autodesk, Inc."
 90
     1024
 91
        0
280
     0
281
     0
  0
CLASS
  1
EXACXREFPANELOBJECT
  2
ExAcXREFPanelObject
  3
EXAC_ESW
 90
     1025
 91
        0
280
     0
281
     0
  0
CLASS
  1
NPOCOLLECTION
  2
AcDbImpNonPersistentObjectsCollection
  3
ObjectDBX Classes
 90
     1153
 91
        0
280
     0
281
     0
  0
CLASS
  1
SORTENTSTABLE
  2
AcDbSortentsTable
  3
ObjectDBX Classes
 90
        0
 91
        2
280
     0
281
     0
  0
CLASS
  1
IMAGEDEF
  2
AcDbRasterImageDef
  3
ISM
 90
        0
 91
        2
280
     0
281
     0
  0
CLASS
  1
ACMSTANDARDANSI
  2
AcmStandardANSI
  3
"Amdt_StdImp|Product Description: AutoCAD Mechanical|Company: Autodesk, Inc."
 90
     1024
 91
        0
280
     0
281
     0
  0
CLASS
  1
ACMSURFSTANDARDANSI
  2
AcmSurfTextStdANSI
  3
"Amdt_StdImp|Product Description: AutoCAD Mechanical|Company: Autodesk, Inc."
 90
     1024
 91
        0
280
     0
281
     0
  0
CLASS
  1
ACMFCFSTANDARDANSI
  2
AcmFCFStdANSI
  3
"Amdt_StdImp|Product Description: AutoCAD Mechanical|Company: Autodesk, Inc."
 90
     1024
 91
        0
280
     0
281
     0
  0
CLASS
  1
ACMWELDSTANDARDANSI
  2
AcmWeldingStdANSI
  3
"Amdt_StdImp|Product Description: AutoCAD Mechanical|Company: Autodesk, Inc."
 90
     1024
 91
        0
280
     0
281
     0
  0
CLASS
  1
ACMIDSTANDARDANSI
  2
AcmIdStdANSI
  3
"Amdt_StdImp|Product Description: AutoCAD Mechanical|Company: Autodesk, Inc."
 90
     1024
 91
        0
280
     0
281
     0
  0
CLASS
  1
ACMDATUMSTANDARDANSI
  2
AcmDatumStdANSI
  3
"Amdt_StdImp|Product Description: AutoCAD Mechanical|Company: Autodesk, Inc."
 90
     1024
 91
        0
280
     0
281
     0
  0
CLASS
  1
ACMBOMSTANDARDANSI
  2
AcmBOMStdANSI
  3
"Amdt_StdImp|Product Description: AutoCAD Mechanical|Company: Autodesk, Inc."
 90
     1024
 91
        0
280
     0
281
     0
  0
CLASS
  1
ACMDETAILSTANDARDANSI
  2
AmdtDetailSymStdANSI
  3
"Amdt_StdImp|Product Description: AutoCAD Mechanical|Company: Autodesk, Inc."
 90
     1024
 91
        0
280
     0
281
     0
  0
CLASS
  1
ACMSECTIONSTANDARDANSI
  2
AmdtSectionSymStdANSI
  3
"Amdt_StdImp|Product Description: AutoCAD Mechanical|Company: Autodesk, Inc."
 90
     1024
 91
        0
280
     0
281
     0
  0
CLASS
  1
ACMCENTERLINESTANDARDANSI
  2
AmdtCenterLineStdANSI
  3
"Amdt_StdImp|Product Description: AutoCAD Mechanical|Company: Autodesk, Inc."
 90
     1024
 91
        0
280
     0
281
     0
  0
CLASS
  1
ACMTHREADLINESTANDARDANSI
  2
AmdtThreadLineStdANSI
  3
"Amdt_StdImp|Product Description: AutoCAD Mechanical|Company: Autodesk, Inc."
 90
     1024
 91
        0
280
     0
281
     0
  0
CLASS
  1
ACMNOTESTANDARDANSI
  2
AmdtNoteStdANSI
  3
"Amdt_StdImp|Product Description: AutoCAD Mechanical|Company: Autodesk, Inc."
 90
     1024
 91
        0
280
     0
281
     0
  0
CLASS
  1
ACMTAPERSTANDARDANSI
  2
AcmTaperStdANSI
  3
"Amdt_StdImp|Product Description: AutoCAD Mechanical|Company: Autodesk, Inc."
 90
     1024
 91
        0
280
     0
281
     0
  0
CLASS
  1
ACMANOOTATIONVIEWSTANDARDANSI
  2
AmdtAnViewStdANSI
  3
"Amdt_StdImp|Product Description: AutoCAD Mechanical|Company: Autodesk, Inc."
 90
     1024
 91
        0
280
     0
281
     0
  0
CLASS
  1
ACAMGHOLECHARTSTDANSI
  2
AcAmgHoleChartStdANSI
  3
AmgDim|Product Description: AutoCAD Mechanical|Company: Autodesk, Inc.
 90
     1024
 91
        0
280
     0
281
     0
  0
CLASS
  1
DIMASSOC
  2
AcDbDimAssoc
  3
"AcDbDimAssoc|Product Desc:     AcDim ARX App For Dimension|Company:          Autodesk, Inc.|WEB Address:      www.autodesk.com"
 90
        0
 91
        7
280
     0
281
     0
  0
CLASS
  1
CAMSSTRUCTBTNSTATE
  2
StructBtnState
  3
DesignerAssemblies
 90
     1024
 91
        0
280
     0
281
     0
  0
CLASS
  1
CELLSTYLEMAP
  2
AcDbCellStyleMap
  3
ObjectDBX Classes
 90
     1152
 91
        2
280
     0
281
     0
  0
CLASS
  1
ACMSURFSTANDARDDIN2002
  2
AcmSurfTextStdDIN2002
  3
"Amdt_StdImp|Product Description: AutoCAD Mechanical|Company: Autodesk, Inc."
 90
     1024
 91
        0
280
     0
281
     0
  0
CLASS
  1
AEC_REFEDIT_STATUS_TRACKER
  2
AecDbRefEditStatusTracker
  3
AecArchBase50|Product Desc: Autodesk Architectural Desktop 2007 |Company: Autodesk,Inc. |WEB Address: www.autodesk.com
 90
      129
 91
        0
280
     0
281
     0
  0
ENDSEC
  0
SECTION
  2
TABLES
  0
TABLE
  2
VPORT
  5
8
330
0
100
AcDbSymbolTable
 70
     1
  0
VPORT
  5
3B2
330
8
100
AcDbSymbolTableRecord
100
AcDbViewportTableRecord
  2
*Active
 70
     0
 10
0.0
 20
0.0
 11
1.0
 21
1.0
 12
241.4125077298597
 22
230.7888592371901
 13
0.0
 23
0.0
 14
2.5
 24
2.5
 15
10.0
 25
10.0
 16
0.0
 26
0.0
 36
1.0
 17
0.0
 27
0.0
 37
0.0
 40
435.1490151003035
 41
1.920440636474908
 42
50.0
 43
0.0
 44
0.0
 50
0.0
 51
0.0
 71
    16
 72
   100
 73
     1
 74
     3
 75
     0
 76
     0
 77
     0
 78
     0
281
     0
 65
     0
110
0.0
120
0.0
130
0.0
111
1.0
121
0.0
131
0.0
112
0.0
122
1.0
132
0.0
 79
     0
146
0.0
  0
ENDTAB
  0
TABLE
  2
LTYPE
  5
5
330
0
100
AcDbSymbolTable
 70
    36
  0
LTYPE
  5
14
330
5
100
AcDbSymbolTableRecord
100
AcDbLinetypeTableRecord
  2
ByBlock
 70
     0
  3

 72
    65
 73
     0
 40
0.0
  0
LTYPE
  5
15
330
5
100
AcDbSymbolTableRecord
100
AcDbLinetypeTableRecord
  2
ByLayer
 70
     0
  3

 72
    65
 73
     0
 40
0.0
  0
LTYPE
  5
16
330
5
100
AcDbSymbolTableRecord
100
AcDbLinetypeTableRecord
  2
Continuous
 70
     0
  3
Solid line
 72
    65
 73
     0
 40
0.0
  0
LTYPE
  5
64
330
5
100
AcDbSymbolTableRecord
100
AcDbLinetypeTableRecord
  2
AM_ISO02W050
 70
     0
  3
__ __ __ __ __ __ __ __ __ __ __ __ __ __ __
 72
    65
 73
     2
 40
7.5
 49
6.0
 74
     0
 49
-1.5
 74
     0
  0
LTYPE
  5
65
330
5
100
AcDbSymbolTableRecord
100
AcDbLinetypeTableRecord
  2
AM_ISO08W050
 70
     0
  3
____ . ____ . ____ . ____ . ____ . ____ . ____
 72
    65
 73
     4
 40
18.0
 49
12.0
 74
     0
 49
-1.5
 74
     0
 49
3.0
 74
     0
 49
-1.5
 74
     0
  0
LTYPE
  5
66
330
5
100
AcDbSymbolTableRecord
100
AcDbLinetypeTableRecord
  2
AM_ISO09W050
 70
     0
  3
_____ . . _____ . . _____ . . ____ .. ____
 72
    65
 73
     6
 40
22.5
 49
12.0
 74
     0
 49
-1.5
 74
     0
 49
3.0
 74
     0
 49
-1.5
 74
     0
 49
3.0
 74
     0
 49
-1.5
 74
     0
  0
LTYPE
  5
67
330
5
100
AcDbSymbolTableRecord
100
AcDbLinetypeTableRecord
  2
Amconstr
 70
     0
  3
_______________________
 72
    65
 73
     2
 40
9999.0
 49
9999.0
 74
     0
 49
0.0
 74
     0
  0
LTYPE
  5
68
330
5
100
AcDbSymbolTableRecord
100
AcDbLinetypeTableRecord
  2
AM_ISO08W050x2
 70
     0
  3
__ . __ . __ . __ . __ . __
 72
    65
 73
     4
 40
9.0
 49
6.0
 74
     0
 49
-0.75
 74
     0
 49
1.5
 74
     0
 49
-0.75
 74
     0
  0
LTYPE
  5
69
330
5
100
AcDbSymbolTableRecord
100
AcDbLinetypeTableRecord
  2
AM_ISO02W050x2
 70
     0
  3
 _ _ _ _ _ _ _ _ _ _ _ _
 72
    65
 73
     2
 40
3.75
 49
3.0
 74
     0
 49
-0.75
 74
     0
  0
LTYPE
  5
6C
330
5
100
AcDbSymbolTableRecord
100
AcDbLinetypeTableRecord
  2
Amzigzag
 70
     0
  3
/\/-/\/-/\/-/\/-/\/-/\/
 72
    65
 73
     2
 40
11.0001
 49
0.0001
 74
     4
 75
   136
340
22C
 46
0.04
 50
0.0
 44
0.0
 45
0.0
 49
-11.0
 74
     0
  0
LTYPE
  5
7A
330
5
100
AcDbSymbolTableRecord
100
AcDbLinetypeTableRecord
  2
ACISOWELD
 70
     0
  3
_ _ _ _ _
 72
    65
 73
     2
 40
2.0
 49
2.0
 74
     0
 49
-1.0
 74
     0
  0
LTYPE
  5
7B
330
5
100
AcDbSymbolTableRecord
100
AcDbLinetypeTableRecord
  2
ACISOTGB
 70
     0
  3
__ . . __ . .
 72
    65
 73
     6
 40
9.0
 49
4.0
 74
     0
 49
-1.0
 74
     0
 49
1.0
 74
     0
 49
-1.0
 74
     0
 49
1.0
 74
     0
 49
-1.0
 74
     0
  0
LTYPE
  5
7C
330
5
100
AcDbSymbolTableRecord
100
AcDbLinetypeTableRecord
  2
ACISOTGL
 70
     0
  3
_ _ _ _ _
 72
    65
 73
     2
 40
3.0
 49
2.0
 74
     0
 49
-1.0
 74
     0
  0
LTYPE
  5
7E
330
5
100
AcDbSymbolTableRecord
100
AcDbLinetypeTableRecord
  2
CENTER
 70
     0
  3
__ . __
 72
    65
 73
     4
 40
7.0
 49
4.0
 74
     0
 49
-1.0
 74
     0
 49
1.0
 74
     0
 49
-1.0
 74
     0
  0
LTYPE
  5
D8
330
5
100
AcDbSymbolTableRecord
100
AcDbLinetypeTableRecord
  2
HIDDEN
 70
     0
  3
Hidden __ __ __ __ __ __ __ __ __ __ __ __ __ _
 72
    65
 73
     2
 40
9.524999999999996
 49
6.349999999999997
 74
     0
 49
-3.174999999999998
 74
     0
  0
LTYPE
  5
D9
330
5
100
AcDbSymbolTableRecord
100
AcDbLinetypeTableRecord
  2
PHANTOM2
 70
     0
  3
Phantom (.5x) ___ _ _ ___ _ _ ___ _ _ ___ _ _
 72
    65
 73
     6
 40
31.75
 49
15.875
 74
     0
 49
-3.174999999999998
 74
     0
 49
3.174999999999998
 74
     0
 49
-3.174999999999998
 74
     0
 49
3.174999999999998
 74
     0
 49
-3.174999999999998
 74
     0
  0
LTYPE
  5
2E5
330
5
100
AcDbSymbolTableRecord
100
AcDbLinetypeTableRecord
  2
ACDINWELD
 70
     0
  3
_ _ _ _ _
 72
    65
 73
     2
 40
2.0
 49
2.0
 74
     0
 49
-1.0
 74
     0
  0
LTYPE
  5
2E6
330
5
100
AcDbSymbolTableRecord
100
AcDbLinetypeTableRecord
  2
ACDINTGB
 70
     0
  3
__ . . __ . .
 72
    65
 73
     6
 40
9.0
 49
4.0
 74
     0
 49
-1.0
 74
     0
 49
1.0
 74
     0
 49
-1.0
 74
     0
 49
1.0
 74
     0
 49
-1.0
 74
     0
  0
LTYPE
  5
2E7
330
5
100
AcDbSymbolTableRecord
100
AcDbLinetypeTableRecord
  2
ACDINTGL
 70
     0
  3
_ _ _ _ _
 72
    65
 73
     2
 40
3.0
 49
2.0
 74
     0
 49
-1.0
 74
     0
  0
LTYPE
  5
321
330
5
100
AcDbSymbolTableRecord
100
AcDbLinetypeTableRecord
  2
AM_DIN_F_W050
 70
     0
  3
__ __ __ __ __ __ __ __ __ __ __ __ __ __ __
 72
    65
 73
     2
 40
6.25
 49
4.75
 74
     0
 49
-1.5
 74
     0
  0
LTYPE
  5
322
330
5
100
AcDbSymbolTableRecord
100
AcDbLinetypeTableRecord
  2
AM_DIN_G_W050
 70
     0
  3
____ . ____ . ____ . ____ . ____ . ____ . ____
 72
    65
 73
     4
 40
13.75
 49
9.75
 74
     0
 49
-1.5
 74
     0
 49
1.0
 74
     0
 49
-1.5
 74
     0
  0
LTYPE
  5
323
330
5
100
AcDbSymbolTableRecord
100
AcDbLinetypeTableRecord
  2
AM_DIN_K_W050
 70
     0
  3
_____ . . _____ . . _____ . . ____ .. ____
 72
    65
 73
     6
 40
16.25
 49
9.75
 74
     0
 49
-1.5
 74
     0
 49
1.0
 74
     0
 49
-1.5
 74
     0
 49
1.0
 74
     0
 49
-1.5
 74
     0
  0
LTYPE
  5
324
330
5
100
AcDbSymbolTableRecord
100
AcDbLinetypeTableRecord
  2
AM_DIN_G_W050x2
 70
     0
  3
__ . __ . __ . __ . __ . __
 72
    65
 73
     4
 40
6.875
 49
4.75
 74
     0
 49
-0.875
 74
     0
 49
0.375
 74
     0
 49
-0.875
 74
     0
  0
LTYPE
  5
325
330
5
100
AcDbSymbolTableRecord
100
AcDbLinetypeTableRecord
  2
AM_DIN_F_W050x2
 70
     0
  3
 _ _ _ _ _ _ _ _ _ _ _ _
 72
    65
 73
     2
 40
3.125
 49
2.25
 74
     0
 49
-0.875
 74
     0
  0
LTYPE
  5
817
330
5
100
AcDbSymbolTableRecord
100
AcDbLinetypeTableRecord
  2
gen3
 70
     0
  3
-- -- -- -- -- -- -- -- -- -- -- -- -- -- --
 72
    65
 73
     2
 40
6.25
 49
4.75
 74
     0
 49
-1.5
 74
     0
  0
LTYPE
  5
818
330
5
100
AcDbSymbolTableRecord
100
AcDbLinetypeTableRecord
  2
gen7
 70
     0
  3
____ . ____ . ____ . ____ . ____ . ____ . ____
 72
    65
 73
     4
 40
13.75
 49
9.75
 74
     0
 49
-1.5
 74
     0
 49
1.0
 74
     0
 49
-1.5
 74
     0
  0
LTYPE
  5
819
330
5
100
AcDbSymbolTableRecord
100
AcDbLinetypeTableRecord
  2
gen3a
 70
     0
  3
 - - - - -
 72
    65
 73
     2
 40
3.125
 49
2.25
 74
     0
 49
-0.875
 74
     0
  0
LTYPE
  5
81A
330
5
100
AcDbSymbolTableRecord
100
AcDbLinetypeTableRecord
  2
gen7a
 70
     0
  3
__ . __ . __
 72
    65
 73
     4
 40
6.875
 49
4.75
 74
     0
 49
-0.875
 74
     0
 49
0.375
 74
     0
 49
-0.875
 74
     0
  0
LTYPE
  5
81B
330
5
100
AcDbSymbolTableRecord
100
AcDbLinetypeTableRecord
  2
gen4a
 70
     0
  3
_____ . . _____ . . _____ . . ____ .. ____
 72
    65
 73
     6
 40
16.25
 49
9.75
 74
     0
 49
-1.5
 74
     0
 49
1.0
 74
     0
 49
-1.5
 74
     0
 49
1.0
 74
     0
 49
-1.5
 74
     0
  0
LTYPE
  5
81C
330
5
100
AcDbSymbolTableRecord
100
AcDbLinetypeTableRecord
  2
genzigzag
 70
     0
  3
/\/-/\/-/\/-/\/-/\/-/\/
 72
    65
 73
     2
 40
12.0001
 49
0.0001
 74
     4
 75
   135
340
22C
 46
2.0
 50
0.0
 44
0.0
 45
0.0
 49
-12.0
 74
     0
  0
LTYPE
  5
88D
330
5
100
AcDbSymbolTableRecord
100
AcDbLinetypeTableRecord
  2
AUSGEZOGEN
 70
     0
  3
Ausgezogene Linie
 72
    65
 73
     0
 40
0.0
  0
LTYPE
  5
88E
330
5
100
AcDbSymbolTableRecord
100
AcDbLinetypeTableRecord
  2
STRICHPUNKT
 70
     0
  3
__ . __ . __ . __ . __ . __ . __ . __ . __ . __
 72
    65
 73
     4
 40
1.0
 49
0.5
 74
     0
 49
-0.25
 74
     0
 49
0.0
 74
     0
 49
-0.25
 74
     0
  0
LTYPE
  5
88F
330
5
100
AcDbSymbolTableRecord
100
AcDbLinetypeTableRecord
  2
CENTER2
 70
     0
  3
Center (.5x) ___ _ ___ _ ___ _ ___ _ ___ _ ___
 72
    65
 73
     4
 40
1.125
 49
0.75
 74
     0
 49
-0.125
 74
     0
 49
0.125
 74
     0
 49
-0.125
 74
     0
  0
LTYPE
  5
890
330
5
100
AcDbSymbolTableRecord
100
AcDbLinetypeTableRecord
  2
HIDDEN2
 70
     0
  3
Hidden (.5x) _ _ _ _ _ _ _ _ _ _ _ _ _ _ _ _ _
 72
    65
 73
     2
 40
0.1875
 49
0.125
 74
     0
 49
-0.0625
 74
     0
  0
LTYPE
  5
891
330
5
100
AcDbSymbolTableRecord
100
AcDbLinetypeTableRecord
  2
Amzigzag2
 70
     0
  3
/\/-/\/-/\/-/\/-/\/-/\/
 72
    65
 73
     2
 40
0.4401
 49
0.0001
 74
     4
 75
   135
340
8A9
 46
0.0016
 50
0.0
 44
0.0
 45
0.0
 49
-0.4400000000000003
 74
     0
  0
LTYPE
  5
892
330
5
100
AcDbSymbolTableRecord
100
AcDbLinetypeTableRecord
  2
ACANSTGB
 70
     0
  3
__ . . __ . .
 72
    65
 73
     6
 40
0.35433070866
 49
0.15748031496
 74
     0
 49
-0.03937007874
 74
     0
 49
0.03937007874
 74
     0
 49
-0.03937007874
 74
     0
 49
0.03937007874
 74
     0
 49
-0.03937007874
 74
     0
  0
LTYPE
  5
893
330
5
100
AcDbSymbolTableRecord
100
AcDbLinetypeTableRecord
  2
ACANSTGL
 70
     0
  3
_ _ _ _ _
 72
    65
 73
     2
 40
0.11811023622
 49
0.07874015748
 74
     0
 49
-0.03937007874
 74
     0
  0
ENDTAB
  0
TABLE
  2
LAYER
  5
2
102
{ACAD_XDICTIONARY
360
8B5
102
}
330
0
100
AcDbSymbolTable
 70
    20
  0
LAYER
  5
10
102
{ACAD_XDICTIONARY
360
AA0
102
}
330
2
100
AcDbSymbolTableRecord
100
AcDbLayerTableRecord
  2
0
 70
     0
 62
     7
  6
Continuous
370
    -3
390
F
  0
LAYER
  5
41B
102
{ACAD_XDICTIONARY
360
AA2
102
}
330
2
100
AcDbSymbolTableRecord
100
AcDbLayerTableRecord
  2
BEZUGSACHSEN
 70
     0
 62
     7
  6
Continuous
370
    -3
390
F
  0
LAYER
  5
41C
102
{ACAD_XDICTIONARY
360
AA4
102
}
330
2
100
AcDbSymbolTableRecord
100
AcDbLayerTableRecord
  2
RUNDUNGEN
 70
     0
 62
     7
  6
Continuous
370
    -3
390
F
  0
LAYER
  5
81D
102
{ACAD_XDICTIONARY
360
81E
102
}
330
2
100
AcDbSymbolTableRecord
100
AcDbLayerTableRecord
  2
RAHM2
 70
     0
 62
     1
  6
Continuous
370
    -3
390
F
  0
LAYER
  5
87A
102
{ACAD_XDICTIONARY
360
AA7
102
}
330
2
100
AcDbSymbolTableRecord
100
AcDbLayerTableRecord
  2
AM_BOR
 70
     0
 62
     7
  6
Continuous
370
    50
390
F
1001
AcAecLayerStandard
1000

1000

  0
LAYER
  5
894
102
{ACAD_XDICTIONARY
360
895
102
}
330
2
100
AcDbSymbolTableRecord
100
AcDbLayerTableRecord
  2
MITTE
 70
     0
 62
     1
  6
STRICHPUNKT
370
    -3
390
F
  0
LAYER
  5
896
102
{ACAD_XDICTIONARY
360
897
102
}
330
2
100
AcDbSymbolTableRecord
100
AcDbLayerTableRecord
  2
TEXT50
 70
     0
 62
     7
  6
Continuous
370
    -3
390
F
  0
LAYER
  5
898
102
{ACAD_XDICTIONARY
360
899
102
}
330
2
100
AcDbSymbolTableRecord
100
AcDbLayerTableRecord
  2
TEXT35
 70
     0
 62
   132
  6
Continuous
370
    -3
390
F
  0
LAYER
  5
89A
102
{ACAD_XDICTIONARY
360
89B
102
}
330
2
100
AcDbSymbolTableRecord
100
AcDbLayerTableRecord
  2
TEXT25
 70
     0
 62
     3
  6
Continuous
370
    -3
390
F
  0
LAYER
  5
89C
102
{ACAD_XDICTIONARY
360
89D
102
}
330
2
100
AcDbSymbolTableRecord
100
AcDbLayerTableRecord
  2
KOPF
 70
     0
 62
     1
  6
AUSGEZOGEN
370
    -3
390
F
  0
LAYER
  5
89E
102
{ACAD_XDICTIONARY
360
89F
102
}
330
2
100
AcDbSymbolTableRecord
100
AcDbLayerTableRecord
  2
Sperrlayer
 70
     1
 62
     7
  6
Continuous
370
    50
390
F
  0
LAYER
  5
8A2
102
{ACAD_XDICTIONARY
360
8A3
102
}
330
2
100
AcDbSymbolTableRecord
100
AcDbLayerTableRecord
  2
0N
 70
     0
 62
     7
  6
Continuous
370
    -3
390
F
  0
LAYER
  5
8A4
102
{ACAD_XDICTIONARY
360
AB0
102
}
330
2
100
AcDbSymbolTableRecord
100
AcDbLayerTableRecord
  2
TEXT100
 70
     0
 62
   255
  6
Continuous
370
    70
390
F
  0
LAYER
  5
8A5
102
{ACAD_XDICTIONARY
360
AB2
102
}
330
2
100
AcDbSymbolTableRecord
100
AcDbLayerTableRecord
  2
AM_8
 70
     0
 62
     1
  6
Continuous
370
    15
390
F
1001
AcAecLayerStandard
1000

1000

  0
LAYER
  5
98F
102
{ACAD_XDICTIONARY
360
AB4
102
}
330
2
100
AcDbSymbolTableRecord
100
AcDbLayerTableRecord
  2
AM_5
 70
     0
 62
     3
  6
Continuous
370
    25
390
F
1001
AcAecLayerStandard
1000

1000

  0
LAYER
  5
993
330
2
100
AcDbSymbolTableRecord
100
AcDbLayerTableRecord
  2
Defpoints
 70
     0
 62
     7
  6
Continuous
290
     0
370
    -3
390
F
  0
LAYER
  5
AC3
330
2
100
AcDbSymbolTableRecord
100
AcDbLayerTableRecord
  2
AM_CL
 70
     0
 62
     1
  6
Amconstr
370
    25
390
F
1001
AcAecLayerStandard
1000

1000

  0
LAYER
  5
AC5
330
2
100
AcDbSymbolTableRecord
100
AcDbLayerTableRecord
  2
AM_7
 70
     0
 62
     4
  6
AM_DIN_G_W050
370
    25
390
F
1001
AcAecLayerStandard
1000

1000

  0
LAYER
  5
BD1
102
{ACAD_XDICTIONARY
360
BD2
102
}
330
2
100
AcDbSymbolTableRecord
100
AcDbLayerTableRecord
  2
5
 70
     0
 62
     3
  6
Continuous
370
    -3
390
F
  0
LAYER
  5
E3E
330
2
100
AcDbSymbolTableRecord
100
AcDbLayerTableRecord
  2
AM_0
 70
     0
 62
     7
  6
Continuous
370
    50
390
F
1001
AcAecLayerStandard
1000

1000

  0
ENDTAB
  0
TABLE
  2
STYLE
  5
3
330
0
100
AcDbSymbolTable
 70
    13
  0
STYLE
  5
11
330
3
100
AcDbSymbolTableRecord
100
AcDbTextStyleTableRecord
  2
STANDARD
 70
     0
 40
0.0
 41
1.0
 50
0.0
 71
     0
 42
2.5
  3
ISOCP.SHX
  4

  0
STYLE
  5
6D
330
3
100
AcDbSymbolTableRecord
100
AcDbTextStyleTableRecord
  2
ACISOTS
 70
     0
 40
1.0
 41
1.0
 50
0.0
 71
     0
 42
2.5
  3
isocp.shx
  4
bigfont.shx
  0
STYLE
  5
79
330
3
100
AcDbSymbolTableRecord
100
AcDbTextStyleTableRecord
  2
ACISOGDT
 70
     0
 40
0.0
 41
1.0
 50
0.0
 71
     0
 42
2.5
  3
AMGDT
  4
bigfont.shx
  0
STYLE
  5
22C
330
3
100
AcDbSymbolTableRecord
100
AcDbTextStyleTableRecord
  2

 70
     1
 40
0.0
 41
1.0
 50
0.0
 71
     0
 42
2.5
  3
genltshp.shx
  4

  0
STYLE
  5
2D7
330
3
100
AcDbSymbolTableRecord
100
AcDbTextStyleTableRecord
  2
ACDINTS
 70
     0
 40
1.0
 41
1.0
 50
0.0
 71
     0
 42
2.5
  3
isocp.shx
  4

  0
STYLE
  5
2E4
330
3
100
AcDbSymbolTableRecord
100
AcDbTextStyleTableRecord
  2
ACDINGDT
 70
     0
 40
0.0
 41
1.0
 50
0.0
 71
     0
 42
2.5
  3
amgdt.shx
  4

  0
STYLE
  5
8A6
330
3
100
AcDbSymbolTableRecord
100
AcDbTextStyleTableRecord
  2
TEXT20
 70
     0
 40
2.0
 41
0.8
 50
0.0
 71
     0
 42
2.0
  3
isocp3.shx
  4

  0
STYLE
  5
8A7
330
3
100
AcDbSymbolTableRecord
100
AcDbTextStyleTableRecord
  2
TEXT35
 70
     0
 40
3.5
 41
0.8
 50
0.0
 71
     0
 42
3.5
  3
isocp3.shx
  4

  0
STYLE
  5
8A8
330
3
100
AcDbSymbolTableRecord
100
AcDbTextStyleTableRecord
  2
TEXT50
 70
     0
 40
5.0
 41
0.8
 50
0.0
 71
     0
 42
5.0
  3
isocp3.shx
  4

  0
STYLE
  5
8A9
330
3
100
AcDbSymbolTableRecord
100
AcDbTextStyleTableRecord
  2

 70
     1
 40
0.0
 41
1.0
 50
0.0
 71
     0
 42
2.0
  3
ltypeshp.shx
  4

  0
STYLE
  5
8AA
330
3
100
AcDbSymbolTableRecord
100
AcDbTextStyleTableRecord
  2
ACANSGDT
 70
     0
 40
0.0
 41
1.0
 50
0.0
 71
     0
 42
2.0
  3
amgdt.shx
  4

  0
STYLE
  5
8AB
330
3
100
AcDbSymbolTableRecord
100
AcDbTextStyleTableRecord
  2
Anschrift
 70
     0
 40
0.0
 41
1.0
 50
0.0
 71
     0
 42
2.0
  3
LT_50114.ttf
  4

1001
ACAD
1000
News Gothic
1071
 33554434
  0
STYLE
  5
8AC
330
3
100
AcDbSymbolTableRecord
100
AcDbTextStyleTableRecord
  2
Logo
 70
     0
 40
5.0
 41
1.0
 50
0.0
 71
     0
 42
5.0
  3
sanssb__.ttf
  4

1001
ACAD
1000
SansSerif
1071
 33554946
  0
ENDTAB
  0
TABLE
  2
VIEW
  5
6
330
0
100
AcDbSymbolTable
 70
     6
  0
VIEW
  5
987
330
6
100
AcDbSymbolTableRecord
100
AcDbViewTableRecord
  2
AM_VIEW1
 70
     0
 40
210.0
 10
183.898978433598
 20
315.0
 41
367.7979568671964
 11
0.0
 21
0.0
 31
1.0
 12
0.0
 22
0.0
 32
0.0
 42
50.0
 43
0.0
 44
0.0
 50
0.0
 71
    16
281
     0
 72
     0
  0
VIEW
  5
988
330
6
100
AcDbSymbolTableRecord
100
AcDbViewTableRecord
  2
AM_VIEW2
 70
     0
 40
210.0
 10
410.1010215664016
 20
315.0
 41
367.7979568671964
 11
0.0
 21
0.0
 31
1.0
 12
0.0
 22
0.0
 32
0.0
 42
50.0
 43
0.0
 44
0.0
 50
0.0
 71
    16
281
     0
 72
     0
  0
VIEW
  5
989
330
6
100
AcDbSymbolTableRecord
100
AcDbViewTableRecord
  2
AM_VIEW3
 70
     0
 40
210.0
 10
183.898978433598
 20
105.0
 41
367.7979568671964
 11
0.0
 21
0.0
 31
1.0
 12
0.0
 22
0.0
 32
0.0
 42
50.0
 43
0.0
 44
0.0
 50
0.0
 71
    16
281
     0
 72
     0
  0
VIEW
  5
98A
330
6
100
AcDbSymbolTableRecord
100
AcDbViewTableRecord
  2
AM_VIEW4
 70
     0
 40
210.0
 10
410.1010215664016
 20
105.0
 41
367.7979568671964
 11
0.0
 21
0.0
 31
1.0
 12
0.0
 22
0.0
 32
0.0
 42
50.0
 43
0.0
 44
0.0
 50
0.0
 71
    16
281
     0
 72
     0
  0
VIEW
  5
98B
330
6
100
AcDbSymbolTableRecord
100
AcDbViewTableRecord
  2
AM_VIEW5
 70
     0
 40
210.0
 10
296.9999999999999
 20
210.0
 41
367.7979568671964
 11
0.0
 21
0.0
 31
1.0
 12
0.0
 22
0.0
 32
0.0
 42
50.0
 43
0.0
 44
0.0
 50
0.0
 71
    16
281
     0
 72
     0
  0
VIEW
  5
98C
330
6
100
AcDbSymbolTableRecord
100
AcDbViewTableRecord
  2
AM_VIEW6
 70
     0
 40
419.9957999999998
 10
296.9999999999999
 20
210.0
 41
735.5885577752554
 11
0.0
 21
0.0
 31
1.0
 12
0.0
 22
0.0
 32
0.0
 42
50.0
 43
0.0
 44
0.0
 50
0.0
 71
    16
281
     0
 72
     0
  0
ENDTAB
  0
TABLE
  2
UCS
  5
7
330
0
100
AcDbSymbolTable
 70
     0
  0
ENDTAB
  0
TABLE
  2
APPID
  5
9
330
0
100
AcDbSymbolTable
 70
    85
  0
APPID
  5
12
330
9
100
AcDbSymbolTableRecord
100
AcDbRegAppTableRecord
  2
ACAD
 70
     0
  0
APPID
  5
46
330
9
100
AcDbSymbolTableRecord
100
AcDbRegAppTableRecord
  2
MCAD_NO_VIS
 70
     0
  0
APPID
  5
47
330
9
100
AcDbSymbolTableRecord
100
AcDbRegAppTableRecord
  2
ACAD_TEMP_GRAPHIC
 70
     0
  0
APPID
  5
58
330
9
100
AcDbSymbolTableRecord
100
AcDbRegAppTableRecord
  2
ACATTRIBSERVICES
 70
     0
  0
APPID
  5
EE
330
9
100
AcDbSymbolTableRecord
100
AcDbRegAppTableRecord
  2
AD_DRAW
 70
     0
  0
APPID
  5
10C
330
9
100
AcDbSymbolTableRecord
100
AcDbRegAppTableRecord
  2
DESIGNERASSEMBLIES
 70
     0
  0
APPID
  5
111
330
9
100
AcDbSymbolTableRecord
100
AcDbRegAppTableRecord
  2
ACADM_DIM_EDIT
 70
     0
  0
APPID
  5
112
330
9
100
AcDbSymbolTableRecord
100
AcDbRegAppTableRecord
  2
AMDT_DM_ADJ
 70
     0
  0
APPID
  5
1A3
330
9
100
AcDbSymbolTableRecord
100
AcDbRegAppTableRecord
  2
ACAD_DSTYLE_DIMARC_LENGTH_SYMBOL
 70
     0
  0
APPID
  5
1A4
330
9
100
AcDbSymbolTableRecord
100
AcDbRegAppTableRecord
  2
ACAD_DSTYLE_DIMJOGGED_JOGANGLE_SYMBOL
 70
     0
  0
APPID
  5
3F1
330
9
100
AcDbSymbolTableRecord
100
AcDbRegAppTableRecord
  2
ACAD_MLEADERVER
 70
     0
  0
APPID
  5
7F2
330
9
100
AcDbSymbolTableRecord
100
AcDbRegAppTableRecord
  2
AcAecLayerStandard
 70
     0
  0
APPID
  5
7F4
330
9
100
AcDbSymbolTableRecord
100
AcDbRegAppTableRecord
  2
GENIUS_GENOBJ-N-CEN_13
 70
     0
  0
APPID
  5
7F5
330
9
100
AcDbSymbolTableRecord
100
AcDbRegAppTableRecord
  2
GENIUS_GENODEF_13
 70
     0
  0
APPID
  5
7F6
330
9
100
AcDbSymbolTableRecord
100
AcDbRegAppTableRecord
  2
GENIUS_GENCEN_19
 70
     0
  0
APPID
  5
821
330
9
100
AcDbSymbolTableRecord
100
AcDbRegAppTableRecord
  2
GENIUS_GENBLLY_14
 70
     0
  0
APPID
  5
822
330
9
100
AcDbSymbolTableRecord
100
AcDbRegAppTableRecord
  2
GENIUS_GENCFG_13
 70
     0
  0
APPID
  5
823
330
9
100
AcDbSymbolTableRecord
100
AcDbRegAppTableRecord
  2
GENIUS_GENCFG0_13
 70
     0
  0
APPID
  5
824
330
9
100
AcDbSymbolTableRecord
100
AcDbRegAppTableRecord
  2
GENIUS_GENCFG1_13
 70
     0
  0
APPID
  5
825
330
9
100
AcDbSymbolTableRecord
100
AcDbRegAppTableRecord
  2
GENIUS_GENCFG2_13
 70
     0
  0
APPID
  5
826
330
9
100
AcDbSymbolTableRecord
100
AcDbRegAppTableRecord
  2
GENIUS_GENCFG3_13
 70
     0
  0
APPID
  5
827
330
9
100
AcDbSymbolTableRecord
100
AcDbRegAppTableRecord
  2
GENIUS_GENCFG4_13
 70
     0
  0
APPID
  5
828
330
9
100
AcDbSymbolTableRecord
100
AcDbRegAppTableRecord
  2
GENIUS_VERSION2
 70
     0
  0
APPID
  5
829
330
9
100
AcDbSymbolTableRecord
100
AcDbRegAppTableRecord
  2
GENIUS_GENOENT_13
 70
     0
  0
APPID
  5
82A
330
9
100
AcDbSymbolTableRecord
100
AcDbRegAppTableRecord
  2
GENIUS_GENCFG5_13
 70
     0
  0
APPID
  5
82B
330
9
100
AcDbSymbolTableRecord
100
AcDbRegAppTableRecord
  2
GENIUS_GEVCFG0_13
 70
     0
  0
APPID
  5
82C
330
9
100
AcDbSymbolTableRecord
100
AcDbRegAppTableRecord
  2
GENIUS_GENREC_14
 70
     0
  0
APPID
  5
82D
330
9
100
AcDbSymbolTableRecord
100
AcDbRegAppTableRecord
  2
GENIUS_GENOBJ-N-REC_13
 70
     0
  0
APPID
  5
8B3
330
9
100
AcDbSymbolTableRecord
100
AcDbRegAppTableRecord
  2
ACAD_EXEMPT_FROM_CAD_STANDARDS
 70
     0
  0
APPID
  5
8B4
330
9
100
AcDbSymbolTableRecord
100
AcDbRegAppTableRecord
  2
ACAD_PSEXT
 70
     0
  0
APPID
  5
95F
330
9
100
AcDbSymbolTableRecord
100
AcDbRegAppTableRecord
  2
GENIUS_GENTRA_14
 70
     0
  0
APPID
  5
983
330
9
100
AcDbSymbolTableRecord
100
AcDbRegAppTableRecord
  2
GENIUS_GENOLIS_13
 70
     0
  0
APPID
  5
984
330
9
100
AcDbSymbolTableRecord
100
AcDbRegAppTableRecord
  2
GENIUS_GENOBJ-N-TIT_13
 70
     0
  0
APPID
  5
985
330
9
100
AcDbSymbolTableRecord
100
AcDbRegAppTableRecord
  2
GENIUS_GENTITLE_13
 70
     0
  0
APPID
  5
986
330
9
100
AcDbSymbolTableRecord
100
AcDbRegAppTableRecord
  2
GENIUS_GENOREF_13
 70
     0
  0
APPID
  5
98D
330
9
100
AcDbSymbolTableRecord
100
AcDbRegAppTableRecord
  2
GENIUS_GENSCREG_15
 70
     0
  0
APPID
  5
98E
330
9
100
AcDbSymbolTableRecord
100
AcDbRegAppTableRecord
  2
GENIUS_GENOBJ-N-SDF_13
 70
     0
  0
APPID
  5
9AB
330
9
100
AcDbSymbolTableRecord
100
AcDbRegAppTableRecord
  2
ACAD_DSTYLE_DIMINSPECT
 70
     0
  0
APPID
  5
B4D
330
9
100
AcDbSymbolTableRecord
100
AcDbRegAppTableRecord
  2
GENIUS_GENDTOL_13
 70
     0
  0
APPID
  5
BA2
330
9
100
AcDbSymbolTableRecord
100
AcDbRegAppTableRecord
  2
GENIUS_GENOBJ-N-CRS_13
 70
     0
  0
APPID
  5
BA3
330
9
100
AcDbSymbolTableRecord
100
AcDbRegAppTableRecord
  2
GENIUS_GENOBJ-N-HTC_13
 70
     0
  0
APPID
  5
BA4
330
9
100
AcDbSymbolTableRecord
100
AcDbRegAppTableRecord
  2
GENIUS_GENHATCH_13
 70
     0
  0
APPID
  5
BA5
330
9
100
AcDbSymbolTableRecord
100
AcDbRegAppTableRecord
  2
GENIUS_GENBH_13
 70
     0
  0
APPID
  5
BA6
330
9
100
AcDbSymbolTableRecord
100
AcDbRegAppTableRecord
  2
GENIUS_GENOBJ-NBEHI-BHF_13
 70
     0
  0
APPID
  5
BA7
330
9
100
AcDbSymbolTableRecord
100
AcDbRegAppTableRecord
  2
GENIUS_GENOBJ-F-PART_13
 70
     0
  0
APPID
  5
BA8
330
9
100
AcDbSymbolTableRecord
100
AcDbRegAppTableRecord
  2
GENIUS_GEFSTDP_13
 70
     0
  0
APPID
  5
BA9
330
9
100
AcDbSymbolTableRecord
100
AcDbRegAppTableRecord
  2
GEVPT
 70
     0
  0
APPID
  5
BAA
330
9
100
AcDbSymbolTableRecord
100
AcDbRegAppTableRecord
  2
GEVIT
 70
     0
  0
APPID
  5
BAB
330
9
100
AcDbSymbolTableRecord
100
AcDbRegAppTableRecord
  2
VCC
 70
     0
  0
APPID
  5
BAC
330
9
100
AcDbSymbolTableRecord
100
AcDbRegAppTableRecord
  2
GENBH
 70
     0
  0
APPID
  5
BAD
330
9
100
AcDbSymbolTableRecord
100
AcDbRegAppTableRecord
  2
GEVMK
 70
     0
  0
APPID
  5
BAE
330
9
100
AcDbSymbolTableRecord
100
AcDbRegAppTableRecord
  2
GENIUS_GEFPARTINS_13
 70
     0
  0
APPID
  5
BAF
330
9
100
AcDbSymbolTableRecord
100
AcDbRegAppTableRecord
  2
GENIUS_GENOBJ-N-CRC_13
 70
     0
  0
APPID
  5
BB0
330
9
100
AcDbSymbolTableRecord
100
AcDbRegAppTableRecord
  2
GENIUS_GENCRC_14
 70
     0
  0
APPID
  5
BB1
330
9
100
AcDbSymbolTableRecord
100
AcDbRegAppTableRecord
  2
GEVID978597865
 70
     0
  0
APPID
  5
BB2
330
9
100
AcDbSymbolTableRecord
100
AcDbRegAppTableRecord
  2
GEVID978597866
 70
     0
  0
APPID
  5
BB3
330
9
100
AcDbSymbolTableRecord
100
AcDbRegAppTableRecord
  2
GEVID978597868
 70
     0
  0
APPID
  5
BB4
330
9
100
AcDbSymbolTableRecord
100
AcDbRegAppTableRecord
  2
GENIUS_FIRSTVISTXT_14
 70
     0
  0
APPID
  5
BB5
330
9
100
AcDbSymbolTableRecord
100
AcDbRegAppTableRecord
  2
GENIUS_SECONDVISTXT_14
 70
     0
  0
APPID
  5
BB6
330
9
100
AcDbSymbolTableRecord
100
AcDbRegAppTableRecord
  2
GENIUS_GENOBJ-N-FIL_13
 70
     0
  0
APPID
  5
BB7
330
9
100
AcDbSymbolTableRecord
100
AcDbRegAppTableRecord
  2
GENIUS_GEFWELD_13
 70
     0
  0
APPID
  5
BB8
330
9
100
AcDbSymbolTableRecord
100
AcDbRegAppTableRecord
  2
GENIUS_GENOBJ-NBEHI-BHB_13
 70
     0
  0
APPID
  5
BB9
330
9
100
AcDbSymbolTableRecord
100
AcDbRegAppTableRecord
  2
GENIUS_GENOBJ-F-WELS_13
 70
     0
  0
APPID
  5
BBA
330
9
100
AcDbSymbolTableRecord
100
AcDbRegAppTableRecord
  2
AMG_2DHIDE
 70
     0
  0
APPID
  5
BBB
330
9
100
AcDbSymbolTableRecord
100
AcDbRegAppTableRecord
  2
GEVID992928022
 70
     0
  0
APPID
  5
BBC
330
9
100
AcDbSymbolTableRecord
100
AcDbRegAppTableRecord
  2
GENIUS_GENOBJ-F-DESC_13
 70
     0
  0
APPID
  5
BBD
330
9
100
AcDbSymbolTableRecord
100
AcDbRegAppTableRecord
  2
GENIUS_GEFDESC_14
 70
     0
  0
APPID
  5
BBE
330
9
100
AcDbSymbolTableRecord
100
AcDbRegAppTableRecord
  2
GEVID992928023
 70
     0
  0
APPID
  5
BBF
330
9
100
AcDbSymbolTableRecord
100
AcDbRegAppTableRecord
  2
GENIUS_GENOBJ-F-FEAT_13
 70
     0
  0
APPID
  5
BC0
330
9
100
AcDbSymbolTableRecord
100
AcDbRegAppTableRecord
  2
GENIUS_GEFFEAT_14
 70
     0
  0
APPID
  5
BC1
330
9
100
AcDbSymbolTableRecord
100
AcDbRegAppTableRecord
  2
AMG_2DSTRUCT_BTR
 70
     0
  0
APPID
  5
BC2
330
9
100
AcDbSymbolTableRecord
100
AcDbRegAppTableRecord
  2
ACAD_DSTYLE_DIMEXT_LENGTH
 70
     0
  0
APPID
  5
BC3
330
9
100
AcDbSymbolTableRecord
100
AcDbRegAppTableRecord
  2
ACAD_DSTYLE_DIMEXT_ENABLED
 70
     0
  0
APPID
  5
BC4
330
9
100
AcDbSymbolTableRecord
100
AcDbRegAppTableRecord
  2
GENIUS_GENDIMSH_14
 70
     0
  0
APPID
  5
BC5
330
9
100
AcDbSymbolTableRecord
100
AcDbRegAppTableRecord
  2
GEVID1210230727
 70
     0
  0
APPID
  5
BC6
330
9
100
AcDbSymbolTableRecord
100
AcDbRegAppTableRecord
  2
GEVDC
 70
     0
  0
APPID
  5
BC7
330
9
100
AcDbSymbolTableRecord
100
AcDbRegAppTableRecord
  2
ACAUTHENVIRON
 70
     0
  0
APPID
  5
BC8
330
9
100
AcDbSymbolTableRecord
100
AcDbRegAppTableRecord
  2
AcDbDynamicBlockTrueName
 70
     0
  0
APPID
  5
BC9
330
9
100
AcDbSymbolTableRecord
100
AcDbRegAppTableRecord
  2
AcDbDynamicBlockGUID
 70
     0
  0
APPID
  5
BCA
330
9
100
AcDbSymbolTableRecord
100
AcDbRegAppTableRecord
  2
ACDBBLOCKREPETAG
 70
     0
  0
APPID
  5
BCB
330
9
100
AcDbSymbolTableRecord
100
AcDbRegAppTableRecord
  2
ACAD_DSTYLE_DIMTEXT_FILL
 70
     0
  0
APPID
  5
BCC
330
9
100
AcDbSymbolTableRecord
100
AcDbRegAppTableRecord
  2
ACAD_DSTYLE_DIM_LINETYPE
 70
     0
  0
APPID
  5
BCD
330
9
100
AcDbSymbolTableRecord
100
AcDbRegAppTableRecord
  2
ACAD_DSTYLE_DIM_EXT1_LINETYPE
 70
     0
  0
APPID
  5
BCE
330
9
100
AcDbSymbolTableRecord
100
AcDbRegAppTableRecord
  2
ACAD_DSTYLE_DIM_EXT2_LINETYPE
 70
     0
  0
APPID
  5
BCF
330
9
100
AcDbSymbolTableRecord
100
AcDbRegAppTableRecord
  2
GEVID1210230728
 70
     0
  0
ENDTAB
  0
TABLE
  2
DIMSTYLE
  5
A
330
0
100
AcDbSymbolTable
 70
    25
100
AcDbDimStyleTable
 71
     3
340
2F0
340
BE0
340
81
  0
DIMSTYLE
105
81
330
A
100
AcDbSymbolTableRecord
100
AcDbDimStyleTableRecord
  2
AM_ISO
 70
     0
  4
"
 41
2.5
 42
1.0
 43
10.0
 44
1.0
 47
0.1
 48
0.1
 73
     0
 74
     0
 77
     1
 78
     8
 79
     2
140
3.5
141
0.0
143
0.0393701
146
0.71
147
1.5
172
     1
176
   256
177
   256
178
     2
271
     2
272
     3
274
     4
283
     0
284
     8
340
11
371
    -1
372
    -1
1001
ACAD_DSTYLE_DIMJOGGED_JOGANGLE_SYMBOL
1070
   384
1040
0.7853981633974483
1001
ACAD_DSTYLE_DIMARC_LENGTH_SYMBOL
1070
   379
1070
     1
  0
DIMSTYLE
105
82
330
A
100
AcDbSymbolTableRecord
100
AcDbDimStyleTableRecord
  2
AM_ISO$3
 70
     0
  4
"
 41
2.5
 42
1.0
 43
10.0
 44
1.0
 47
0.1
 48
0.1
 73
     0
 77
     1
 78
     8
 79
     2
140
3.5
141
0.0
143
0.0393701
146
0.71
147
1.5
176
   256
177
   256
178
     2
271
     2
272
     3
274
     4
283
     0
284
     8
288
     1
289
     0
340
11
371
    -1
372
    -1
1001
ACAD_DSTYLE_DIMJOGGED_JOGANGLE_SYMBOL
1070
   384
1040
0.7853981633974483
1001
ACAD_DSTYLE_DIMARC_LENGTH_SYMBOL
1070
   379
1070
     1
  0
DIMSTYLE
105
83
330
A
100
AcDbSymbolTableRecord
100
AcDbDimStyleTableRecord
  2
AM_ISO$4
 70
     0
  4
"
 41
2.5
 42
1.0
 43
10.0
 44
1.0
 47
0.1
 48
0.1
 73
     0
 77
     1
 78
     8
 79
     2
140
3.5
141
0.0
143
0.0393701
146
0.71
147
1.5
176
   256
177
   256
178
     2
271
     2
272
     3
274
     4
283
     0
284
     8
288
     1
289
     0
340
11
371
    -1
372
    -1
1001
ACAD_DSTYLE_DIMJOGGED_JOGANGLE_SYMBOL
1070
   384
1040
0.7853981633974483
1001
ACAD_DSTYLE_DIMARC_LENGTH_SYMBOL
1070
   379
1070
     1
  0
DIMSTYLE
105
84
330
A
100
AcDbSymbolTableRecord
100
AcDbDimStyleTableRecord
  2
AM_ISO$6
 70
     0
  4
"
 41
2.5
 42
1.0
 43
10.0
 44
1.0
 47
0.1
 48
0.1
 73
     0
 74
     0
 78
     8
 79
     2
140
3.5
141
0.0
143
0.0393701
146
0.71
147
1.5
172
     1
176
   256
177
   256
178
     2
271
     2
272
     3
274
     4
283
     0
284
     8
340
11
371
    -1
372
    -1
1001
ACAD_DSTYLE_DIMJOGGED_JOGANGLE_SYMBOL
1070
   384
1040
0.7853981633974483
1001
ACAD_DSTYLE_DIMARC_LENGTH_SYMBOL
1070
   379
1070
     1
  0
DIMSTYLE
105
85
330
A
100
AcDbSymbolTableRecord
100
AcDbDimStyleTableRecord
  2
AM_ISO$7
 70
     0
  4
"
 41
2.5
 42
1.0
 43
10.0
 44
1.0
 47
0.1
 48
0.1
 73
     0
 74
     0
 77
     1
 78
     8
 79
     2
140
5.0
141
0.0
143
0.0393701
146
0.71
147
1.5
172
     1
176
   256
177
   256
178
     2
271
     2
272
     3
274
     4
283
     0
284
     8
340
11
371
    -1
372
    -1
1001
ACAD_DSTYLE_DIMJOGGED_JOGANGLE_SYMBOL
1070
   384
1040
0.7853981633974483
1001
ACAD_DSTYLE_DIMARC_LENGTH_SYMBOL
1070
   379
1070
     1
  0
DIMSTYLE
105
86
330
A
100
AcDbSymbolTableRecord
100
AcDbDimStyleTableRecord
  2
AM_ISO$SF
 70
     0
  4
"
 41
2.5
 42
1.0
 43
10.0
 44
1.0
 47
0.1
 48
0.1
 73
     0
 74
     0
 75
     1
 76
     1
 77
     1
 78
     8
 79
     2
140
3.5
141
0.0
143
0.0393701
146
0.71
147
1.5
172
     1
176
   256
177
   256
178
     2
271
     2
272
     3
274
     4
283
     0
284
     8
340
11
371
    -1
372
    -1
1001
ACAD_DSTYLE_DIMJOGGED_JOGANGLE_SYMBOL
1070
   384
1040
0.7853981633974483
1001
ACAD_DSTYLE_DIMARC_LENGTH_SYMBOL
1070
   379
1070
     1
  0
DIMSTYLE
105
8B
330
A
100
AcDbSymbolTableRecord
100
AcDbDimStyleTableRecord
  2
AM_ISO$SH
 70
     0
  4
"
 41
2.5
 42
1.0
 43
10.0
 44
1.0
 47
0.1
 48
0.1
 73
     0
 74
     0
 75
     1
 76
     1
 77
     1
 78
     8
 79
     2
140
3.5
141
0.0
143
0.0393701
144
2.0
146
0.71
147
1.5
172
     1
173
     1
176
   256
177
   256
178
     2
271
     2
272
     3
274
     4
283
     0
284
     8
340
11
343
87
371
    -1
372
    -1
1001
ACAD_DSTYLE_DIMJOGGED_JOGANGLE_SYMBOL
1070
   384
1040
0.7853981633974483
1001
ACAD_DSTYLE_DIMARC_LENGTH_SYMBOL
1070
   379
1070
     1
  0
DIMSTYLE
105
2F0
330
A
100
AcDbSymbolTableRecord
100
AcDbDimStyleTableRecord
  2
AM_DIN
 70
     0
  4
"
 41
3.5
 42
1.0
 43
10.0
 44
1.0
 47
0.1
 48
0.1
 73
     0
 74
     0
 77
     1
 78
     8
 79
     2
140
3.5
141
0.0
143
0.0393701
146
0.71
147
1.5
172
     1
176
   256
177
   256
178
     2
271
     2
272
     3
274
     4
283
     0
284
     8
340
11
371
    -1
372
    -1
1001
ACAD_DSTYLE_DIMJOGGED_JOGANGLE_SYMBOL
1070
   384
1040
1.570796326794896
1001
ACAD_DSTYLE_DIM_LINETYPE
1070
   380
1005
14
1001
ACAD_DSTYLE_DIM_EXT1_LINETYPE
1070
   381
1005
14
1001
ACAD_DSTYLE_DIM_EXT2_LINETYPE
1070
   382
1005
14
  0
DIMSTYLE
105
301
330
A
100
AcDbSymbolTableRecord
100
AcDbDimStyleTableRecord
  2
AM_DIN$3
 70
     0
  4
"
 41
3.5
 42
1.0
 43
10.0
 44
1.0
 47
0.1
 48
0.1
 73
     0
 77
     1
 78
     8
 79
     2
140
3.5
141
0.0
143
0.0393701
146
0.71
147
1.5
176
   256
177
   256
178
     2
271
     2
272
     3
274
     4
283
     0
284
     8
288
     1
289
     0
340
11
371
    -1
372
    -1
1001
ACAD_DSTYLE_DIMJOGGED_JOGANGLE_SYMBOL
1070
   384
1040
1.570796326794896
1001
ACAD_DSTYLE_DIM_LINETYPE
1070
   380
1005
14
1001
ACAD_DSTYLE_DIM_EXT1_LINETYPE
1070
   381
1005
14
1001
ACAD_DSTYLE_DIM_EXT2_LINETYPE
1070
   382
1005
14
  0
DIMSTYLE
105
306
330
A
100
AcDbSymbolTableRecord
100
AcDbDimStyleTableRecord
  2
AM_DIN$4
 70
     0
  4
"
 41
3.5
 42
1.0
 43
10.0
 44
1.0
 47
0.1
 48
0.1
 73
     0
 74
     0
 77
     1
 78
     8
 79
     2
140
3.5
141
0.0
143
0.0393701
146
0.71
147
1.5
172
     1
176
   256
177
   256
178
     2
271
     2
272
     3
274
     4
283
     0
284
     8
340
11
371
    -1
372
    -1
1001
ACAD_DSTYLE_DIMJOGGED_JOGANGLE_SYMBOL
1070
   384
1040
1.570796326794896
1001
ACAD_DSTYLE_DIM_LINETYPE
1070
   380
1005
14
1001
ACAD_DSTYLE_DIM_EXT1_LINETYPE
1070
   381
1005
14
1001
ACAD_DSTYLE_DIM_EXT2_LINETYPE
1070
   382
1005
14
  0
DIMSTYLE
105
30B
330
A
100
AcDbSymbolTableRecord
100
AcDbDimStyleTableRecord
  2
AM_DIN$6
 70
     0
  4
"
 41
3.5
 42
1.0
 43
10.0
 44
1.0
 47
0.1
 48
0.1
 73
     0
 74
     0
 78
     8
 79
     2
140
3.5
141
0.0
143
0.0393701
146
0.71
147
1.5
172
     1
176
   256
177
   256
178
     2
271
     2
272
     3
274
     4
283
     0
284
     8
340
11
371
    -1
372
    -1
1001
ACAD_DSTYLE_DIMJOGGED_JOGANGLE_SYMBOL
1070
   384
1040
1.570796326794896
1001
ACAD_DSTYLE_DIM_LINETYPE
1070
   380
1005
14
1001
ACAD_DSTYLE_DIM_EXT1_LINETYPE
1070
   381
1005
14
1001
ACAD_DSTYLE_DIM_EXT2_LINETYPE
1070
   382
1005
14
  0
DIMSTYLE
105
310
330
A
100
AcDbSymbolTableRecord
100
AcDbDimStyleTableRecord
  2
AM_DIN$7
 70
     0
  4
"
 41
3.5
 42
1.0
 43
10.0
 44
1.0
 47
0.1
 48
0.1
 73
     0
 74
     0
 77
     1
 78
     8
 79
     2
140
3.5
141
0.0
143
0.0393701
146
0.71
147
1.5
172
     1
176
   256
177
   256
178
     2
271
     2
272
     3
274
     4
283
     0
284
     8
340
11
371
    -1
372
    -1
1001
ACAD_DSTYLE_DIMJOGGED_JOGANGLE_SYMBOL
1070
   384
1040
1.570796326794896
1001
ACAD_DSTYLE_DIM_LINETYPE
1070
   380
1005
14
1001
ACAD_DSTYLE_DIM_EXT1_LINETYPE
1070
   381
1005
14
1001
ACAD_DSTYLE_DIM_EXT2_LINETYPE
1070
   382
1005
14
  0
DIMSTYLE
105
315
330
A
100
AcDbSymbolTableRecord
100
AcDbDimStyleTableRecord
  2
AM_DIN$SF
 70
     0
  4
"
 41
3.5
 42
1.0
 43
10.0
 44
1.0
 47
0.1
 48
0.1
 73
     0
 74
     0
 75
     1
 76
     1
 77
     1
 78
     8
 79
     2
140
3.5
141
0.0
143
0.0393701
146
0.71
147
1.5
172
     1
176
   256
177
   256
178
     2
271
     2
272
     3
274
     4
283
     0
284
     8
340
11
371
    -1
372
    -1
1001
ACAD_DSTYLE_DIMJOGGED_JOGANGLE_SYMBOL
1070
   384
1040
1.570796326794896
1001
ACAD_DSTYLE_DIM_LINETYPE
1070
   380
1005
14
1001
ACAD_DSTYLE_DIM_EXT1_LINETYPE
1070
   381
1005
14
1001
ACAD_DSTYLE_DIM_EXT2_LINETYPE
1070
   382
1005
14
  0
DIMSTYLE
105
31A
330
A
100
AcDbSymbolTableRecord
100
AcDbDimStyleTableRecord
  2
AM_DIN$SH
 70
     0
  4
"
 41
3.5
 42
1.0
 43
10.0
 44
1.0
 47
0.1
 48
0.1
 73
     0
 74
     0
 75
     1
 76
     1
 77
     1
 78
     8
 79
     2
140
3.5
141
0.0
143
0.0393701
144
2.0
146
0.71
147
1.5
172
     1
173
     1
176
   256
177
   256
178
     2
271
     2
272
     3
274
     4
283
     0
284
     8
340
11
343
87
371
    -1
372
    -1
1001
ACAD_DSTYLE_DIMJOGGED_JOGANGLE_SYMBOL
1070
   384
1040
1.570796326794896
1001
ACAD_DSTYLE_DIM_LINETYPE
1070
   380
1005
14
1001
ACAD_DSTYLE_DIM_EXT1_LINETYPE
1070
   381
1005
14
1001
ACAD_DSTYLE_DIM_EXT2_LINETYPE
1070
   382
1005
14
  0
DIMSTYLE
105
81F
330
A
100
AcDbSymbolTableRecord
100
AcDbDimStyleTableRecord
  2
STANDARD
 70
     0
340
11
  0
DIMSTYLE
105
820
330
A
100
AcDbSymbolTableRecord
100
AcDbDimStyleTableRecord
  2
ISO-25
 70
     0
 41
2.5
 42
0.625
 43
3.75
 44
1.25
 74
     0
 77
     1
 78
     8
140
2.5
141
2.5
143
0.0394
145
1.0
147
0.625
172
     1
340
11
  0
DIMSTYLE
105
8AD
330
A
100
AcDbSymbolTableRecord
100
AcDbDimStyleTableRecord
  2
AM_ANSI
 70
     0
  4
mm
 41
0.1
 42
0.05
 43
0.5
 44
0.1
 47
0.1
 48
0.1
 78
     7
 79
     2
140
0.12
141
0.0
146
0.71
147
0.06
176
   256
177
   256
178
     2
274
     4
284
     7
340
11
371
    -1
372
    -1
1001
ACAD_DSTYLE_DIMJOGGED_JOGANGLE_SYMBOL
1070
   384
1040
0.7853981633974483
1001
ACAD_DSTYLE_DIMARC_LENGTH_SYMBOL
1070
   379
1070
     1
  0
DIMSTYLE
105
8AE
330
A
100
AcDbSymbolTableRecord
100
AcDbDimStyleTableRecord
  2
AM_ANSI$3
 70
     0
  4
mm
 41
0.1
 42
0.05
 43
0.5
 44
0.1
 47
0.1
 48
0.1
 78
     7
 79
     2
140
0.12
141
0.0
146
0.71
147
0.06
176
   256
177
   256
178
     2
274
     4
284
     7
288
     1
289
     0
340
11
371
    -1
372
    -1
1001
ACAD_DSTYLE_DIMJOGGED_JOGANGLE_SYMBOL
1070
   384
1040
0.7853981633974483
1001
ACAD_DSTYLE_DIMARC_LENGTH_SYMBOL
1070
   379
1070
     1
  0
DIMSTYLE
105
8AF
330
A
100
AcDbSymbolTableRecord
100
AcDbDimStyleTableRecord
  2
AM_ANSI$4
 70
     0
  4
mm
 41
0.1
 42
0.05
 43
0.5
 44
0.1
 47
0.1
 48
0.1
 78
     7
 79
     2
140
0.12
141
0.0
146
0.71
147
0.06
176
   256
177
   256
178
     2
274
     4
284
     7
288
     1
289
     0
340
11
371
    -1
372
    -1
1001
ACAD_DSTYLE_DIMJOGGED_JOGANGLE_SYMBOL
1070
   384
1040
0.7853981633974483
1001
ACAD_DSTYLE_DIMARC_LENGTH_SYMBOL
1070
   379
1070
     1
  0
DIMSTYLE
105
8B0
330
A
100
AcDbSymbolTableRecord
100
AcDbDimStyleTableRecord
  2
AM_ANSI$7
 70
     0
  4
mm
 41
0.1
 42
0.05
 43
0.5
 44
0.1
 47
0.1
 48
0.1
 78
     7
 79
     2
140
0.24
141
0.0
146
0.71
147
0.06
176
   256
177
   256
178
     2
274
     4
284
     7
340
11
371
    -1
372
    -1
1001
ACAD_DSTYLE_DIMJOGGED_JOGANGLE_SYMBOL
1070
   384
1040
0.7853981633974483
1001
ACAD_DSTYLE_DIMARC_LENGTH_SYMBOL
1070
   379
1070
     1
  0
DIMSTYLE
105
8B1
330
A
100
AcDbSymbolTableRecord
100
AcDbDimStyleTableRecord
  2
AM_ANSI$SF
 70
     0
  4
mm
 41
0.1
 42
0.05
 43
0.5
 44
0.1
 47
0.1
 48
0.1
 75
     1
 76
     1
 78
     7
 79
     2
140
0.12
141
0.0
146
0.71
147
0.06
176
   256
177
   256
178
     2
274
     4
284
     7
340
11
371
    -1
372
    -1
1001
ACAD_DSTYLE_DIMJOGGED_JOGANGLE_SYMBOL
1070
   384
1040
0.7853981633974483
1001
ACAD_DSTYLE_DIMARC_LENGTH_SYMBOL
1070
   379
1070
     1
  0
DIMSTYLE
105
8B2
330
A
100
AcDbSymbolTableRecord
100
AcDbDimStyleTableRecord
  2
AM_ANSI$SH
 70
     0
  4
mm
 41
0.1
 42
0.05
 43
0.5
 44
0.1
 47
0.1
 48
0.1
 75
     1
 76
     1
 78
     7
 79
     2
140
0.12
141
0.0
146
0.71
147
0.06
173
     1
176
   256
177
   256
178
     2
274
     4
284
     7
340
11
343
87
371
    -1
372
    -1
1001
ACAD_DSTYLE_DIMJOGGED_JOGANGLE_SYMBOL
1070
   384
1040
0.7853981633974483
1001
ACAD_DSTYLE_DIMARC_LENGTH_SYMBOL
1070
   379
1070
     1
  0
DIMSTYLE
105
990
330
A
100
AcDbSymbolTableRecord
100
AcDbDimStyleTableRecord
  2
AM_DIN$0
 70
     0
  4
"
 41
3.5
 42
1.0
 43
10.0
 44
1.0
 47
0.1
 48
0.1
 73
     0
 74
     0
 77
     1
 78
     8
 79
     2
140
3.5
141
0.0
143
0.0393701
146
0.71
147
1.5
172
     1
176
   256
177
   256
178
     2
271
     2
272
     3
274
     4
283
     0
284
     8
340
11
371
    -1
372
    -1
1001
ACAD_DSTYLE_DIMJOGGED_JOGANGLE_SYMBOL
1070
   384
1040
1.570796326794896
1001
ACAD_DSTYLE_DIM_LINETYPE
1070
   380
1005
14
1001
ACAD_DSTYLE_DIM_EXT1_LINETYPE
1070
   381
1005
14
1001
ACAD_DSTYLE_DIM_EXT2_LINETYPE
1070
   382
1005
14
  0
DIMSTYLE
105
BE0
102
{ACAD_REACTORS
330
A75
330
992
330
9BE
330
9E8
330
A09
330
A54
330
A33
102
}
330
A
100
AcDbSymbolTableRecord
100
AcDbDimStyleTableRecord
  2
GEN-ISO
 70
     0
  4
"
 40
10.0
 41
2.5
 42
1.0
 43
7.0
 44
1.0
 47
0.1
 48
0.1
 73
     0
 74
     0
 77
     1
 78
     8
140
3.5
141
0.0
143
0.0393701
146
0.71
147
0.6
172
     1
176
     3
177
     3
178
     2
271
     2
272
     2
283
     0
340
11
  0
ENDTAB
  0
TABLE
  2
BLOCK_RECORD
  5
1
330
0
100
AcDbSymbolTable
 70
    16
  0
BLOCK_RECORD
  5
1F
102
{ACAD_XDICTIONARY
360
8F
102
}
330
1
100
AcDbSymbolTableRecord
100
AcDbBlockTableRecord
  2
*Model_Space
340
22
  0
BLOCK_RECORD
  5
1B
330
1
100
AcDbSymbolTableRecord
100
AcDbBlockTableRecord
  2
*Paper_Space
340
1E
  0
BLOCK_RECORD
  5
23
330
1
100
AcDbSymbolTableRecord
100
AcDbBlockTableRecord
  2
*Paper_Space0
340
26
  0
BLOCK_RECORD
  5
87
330
1
100
AcDbSymbolTableRecord
100
AcDbBlockTableRecord
  2
GENAXEH
340
0
  0
BLOCK_RECORD
  5
814
330
1
100
AcDbSymbolTableRecord
100
AcDbBlockTableRecord
  2
*U2
340
0
  0
BLOCK_RECORD
  5
82E
330
1
100
AcDbSymbolTableRecord
100
AcDbBlockTableRecord
  2
ACO_A2
340
0
  0
BLOCK_RECORD
  5
87E
330
1
100
AcDbSymbolTableRecord
100
AcDbBlockTableRecord
  2
*U4
340
0
  0
BLOCK_RECORD
  5
881
330
1
100
AcDbSymbolTableRecord
100
AcDbBlockTableRecord
  2
ACO-logo
340
0
310
2800000020000000200000000100080000000000000400000000000000000000000000000000000000000000000080000080000000808000800000008000800080800000C0C0C000C0DCC000F0CAA6000020400000206000002080000020A0000020C0000020E00000400000004020000040400000406000004080000040A0
310
000040C0000040E00000600000006020000060400000606000006080000060A0000060C0000060E00000800000008020000080400000806000008080000080A0000080C0000080E00000A0000000A0200000A0400000A0600000A0800000A0A00000A0C00000A0E00000C0000000C0200000C0400000C0600000C0800000C0
310
A00000C0C00000C0E00000E0000000E0200000E0400000E0600000E0800000E0A00000E0C00000E0E00040000000400020004000400040006000400080004000A0004000C0004000E00040200000402020004020400040206000402080004020A0004020C0004020E000404000004040200040404000404060004040800040
310
40A0004040C0004040E00040600000406020004060400040606000406080004060A0004060C0004060E00040800000408020004080400040806000408080004080A0004080C0004080E00040A0000040A0200040A0400040A0600040A0800040A0A00040A0C00040A0E00040C0000040C0200040C0400040C0600040C08000
310
40C0A00040C0C00040C0E00040E0000040E0200040E0400040E0600040E0800040E0A00040E0C00040E0E00080000000800020008000400080006000800080008000A0008000C0008000E00080200000802020008020400080206000802080008020A0008020C0008020E00080400000804020008040400080406000804080
310
008040A0008040C0008040E00080600000806020008060400080606000806080008060A0008060C0008060E00080800000808020008080400080806000808080008080A0008080C0008080E00080A0000080A0200080A0400080A0600080A0800080A0A00080A0C00080A0E00080C0000080C0200080C0400080C0600080C0
310
800080C0A00080C0C00080C0E00080E0000080E0200080E0400080E0600080E0800080E0A00080E0C00080E0E000C0000000C0002000C0004000C0006000C0008000C000A000C000C000C000E000C0200000C0202000C0204000C0206000C0208000C020A000C020C000C020E000C0400000C0402000C0404000C0406000C0
310
408000C040A000C040C000C040E000C0600000C0602000C0604000C0606000C0608000C060A000C060C000C060E000C0800000C0802000C0804000C0806000C0808000C080A000C080C000C080E000C0A00000C0A02000C0A04000C0A06000C0A08000C0A0A000C0A0C000C0A0E000C0C00000C0C02000C0C04000C0C06000
310
C0C08000C0C0A000F0FBFF00A4A0A000808080000000FF0000FF000000FFFF00FF000000FF00FF00FFFF0000FFFFFF0000000000000000000000000000000000000000000000000000000000000000000000000000000000000000000000000000000000000000000000000000000000000000000000000000000000000000
310
00000000000000000000000000000000000000000000000000000000000000000000000000000000000000000000000000000000000000000000000000000000000000000000000000000000000000000000F9F9F9F9F9F9F9F9F9F9F9F9F9F9F9F9F9F9F9F9F9F9F9F9F9F9F9F9F9F90000F9F9F9F9F9F9F9F9F9F9F9F9F9
310
F9F9F9F9F9F9F9F9F9F9F9F9F9F9F9F9F90000F9F9F9F9F9F9F9F9F9F9F9F9F9F9F9F9F9F9F9F9F9F9F9F9F9F9F9F9F9F90000F9F9F9F9F9F9F9F9F9F9F9F9F9F9F9F9F9F9F9F9F9F9F9F9F9F9F9F9F9F90000F9F9F9F9F9F9F9F9F9F9F9F9F9F9F9F9F9F9F9F9F9F9F9F9F9F9F9F9F9F90000F9F9F9F9F9F9F9F9F9F9F9F9
310
F9F9F9F9F9F9F9F9F9F9F9F9F9F9F9F9F9F90000F9F9F9F9F9F9F9F9F9F9F9F9F9F9F9F9F9F9F9F9F9F9F9F9F9F9F9F9F9F90000F9F9F9F9F9F9F9F9F9F9F9F9F9F9F9F9F9F9F9F9F9F9F9F9F9F9F9F9F9F90000F9F9F9F9F9F9F9F9F9F9F9F9F9F9F9F9F9F9F9F9F9F9F9F9F9F9F9F9F9F90000F9F9F9F9F9F9F9F9F9F9F9
310
F9F9F9F9F9F9F9F9F9F9F9F9F9F9F9F9F9F9F90000F9F9F9F9F9F9F9F9F9F9F9F9F9F9F9F9F9F9F9F9F9F9F9F9F9F9F9F9F9F90000F9F9F9F9F9F9F9F9F9F9F9F9F9F9F9F9F9F9F9F9F9F9F9F9F9F9F9F9F9F90000F9F9F9F9F9F9F9F9F9F9F9F9F9F9F9F9F9F9F9F9F9F9F9F9F9F9F9F9F9F90000F9F9F9F9F9F9F9F9F9F9
310
F9F9F9F9F9F9F9F9F9F9F9F9F9F9F9F9F9F9F9F90000F9F9F9F9F9F9F9F9F9F9F9F9F9F9F9F9F9F9F9F9F9F9F9F9F9F9F9F9F9F90000F9F9F9F9F9F9F9F9F9F9F9F9F9F9F9F9F9F9F9F9F9F9F9F9F9F9F9F9F9F90000F9F9F9F9F9F9F9F9F9F9F9F9F9F9F9F9F9F9F9F9F9F9F9F9F9F9F9F9F9F90000F9F9F9F9F9F9F9F9F9
310
F9F9F9F9F9F9F9F9F9F9F9F9F9F9F9F9F9F9F9F9F90000F9F9F9F9F9F9F9F9F9F9F9F9F9F9F9F9F9F9F9F9F9F9F9F9F9F9F9F9F9F90000F9F9F9F9F9F9F9F9F9F9F9F9F9F9F9F9F9F9F9F9F9F9F9F9F9F9F9F9F9F90000F9F9F9F9F9F9F9F9F9F9F9F9F9F9F9F9F9F9F9F9F9F9F9F9F9F9F9F9F9F90000F9F9F9F9F9F9F9F9
310
F9F9F9F9F9F9F9F9F9F9F9F9F9F9F9F9F9F9F9F9F9F9000000000000000000000000000000000000000000000000000000000000000000000000000000000000000000000000000000000000000000000000000000000000000000000000000000000000000000000000000000000000000000000000000000000000000000
310
0000000000000000000000000000000000000000000000000000000000000000000000000000000000000000000000000000000000000000
102
{BLKREFS
331
93D
102
}
  0
BLOCK_RECORD
  5
8B7
102
{ACAD_XDICTIONARY
360
93E
102
}
330
1
100
AcDbSymbolTableRecord
100
AcDbBlockTableRecord
  2
ACO-SF02-GR
340
0
  0
BLOCK_RECORD
  5
994
330
1
100
AcDbSymbolTableRecord
100
AcDbBlockTableRecord
  2
*D7
340
0
  0
BLOCK_RECORD
  5
9BF
330
1
100
AcDbSymbolTableRecord
100
AcDbBlockTableRecord
  2
*D8
340
0
  0
BLOCK_RECORD
  5
9E9
330
1
100
AcDbSymbolTableRecord
100
AcDbBlockTableRecord
  2
*D9
340
0
  0
BLOCK_RECORD
  5
A0A
330
1
100
AcDbSymbolTableRecord
100
AcDbBlockTableRecord
  2
*D10
340
0
  0
BLOCK_RECORD
  5
A34
330
1
100
AcDbSymbolTableRecord
100
AcDbBlockTableRecord
  2
*D11
340
0
  0
BLOCK_RECORD
  5
A55
330
1
100
AcDbSymbolTableRecord
100
AcDbBlockTableRecord
  2
*D12
340
0
  0
BLOCK_RECORD
  5
A76
330
1
100
AcDbSymbolTableRecord
100
AcDbBlockTableRecord
  2
*D13
340
0
  0
ENDTAB
  0
ENDSEC
  0
SECTION
  2
BLOCKS
  0
BLOCK
  5
20
330
1F
100
AcDbEntity
  8
0
100
AcDbBlockBegin
  2
*Model_Space
 70
     0
 10
0.0
 20
0.0
 30
0.0
  3
*Model_Space
  1

  0
ENDBLK
  5
21
330
1F
100
AcDbEntity
  8
0
100
AcDbBlockEnd
  0
BLOCK
  5
1C
330
1B
100
AcDbEntity
 67
     1
  8
0
100
AcDbBlockBegin
  2
*Paper_Space
 70
     0
 10
0.0
 20
0.0
 30
0.0
  3
*Paper_Space
  1

  0
ENDBLK
  5
1D
330
1B
100
AcDbEntity
 67
     1
  8
0
100
AcDbBlockEnd
  0
BLOCK
  5
24
330
23
100
AcDbEntity
 67
     1
  8
0
100
AcDbBlockBegin
  2
*Paper_Space0
 70
     0
 10
0.0
 20
0.0
 30
0.0
  3
*Paper_Space0
  1

  0
ENDBLK
  5
25
330
23
100
AcDbEntity
 67
     1
  8
0
100
AcDbBlockEnd
  0
BLOCK
  5
89
330
87
100
AcDbEntity
  8
0
100
AcDbBlockBegin
  2
GENAXEH
 70
     0
 10
0.0
 20
0.0
 30
0.0
  3
GENAXEH
  1

  0
LINE
  5
88
330
87
100
AcDbEntity
  8
0
100
AcDbLine
 10
-1.0
 20
0.0
 30
0.0
 11
1.0
 21
0.0
 31
0.0
  0
ENDBLK
  5
8A
330
87
100
AcDbEntity
  8
0
100
AcDbBlockEnd
  0
BLOCK
  5
815
330
814
100
AcDbEntity
  8
0
100
AcDbBlockBegin
  2
*U2
 70
     1
 10
0.0
 20
0.0
 30
0.0
  3
*U2
  1

  0
ENDBLK
  5
816
330
814
100
AcDbEntity
  8
0
100
AcDbBlockEnd
  0
BLOCK
  5
874
330
82E
100
AcDbEntity
  8
0
100
AcDbBlockBegin
  2
ACO_A2
 70
     0
 10
0.0
 20
0.0
 30
0.0
  3
ACO_A2
  1

  0
LINE
  5
82F
330
82E
100
AcDbEntity
  8
AM_BOR
 62
     1
370
    25
100
AcDbLine
 10
10.00000000000002
 20
410.0
 30
0.0
 11
584.0
 21
410.0
 31
0.0
  0
LINE
  5
830
330
82E
100
AcDbEntity
  8
0
100
AcDbLine
 10
5.0
 20
5.0
 30
0.0
 11
5.000000000000023
 21
415.0
 31
0.0
  0
TEXT
  5
831
330
82E
100
AcDbEntity
  8
0
 60
     1
100
AcDbText
 10
583.9999999999998
 20
5.0
 30
0.0
 40
3.5
  1
!GENTITLE-INSERT
100
AcDbText
  0
TEXT
  5
832
330
82E
100
AcDbEntity
  8
0
 60
     1
100
AcDbText
 10
10.0
 20
10.00000000000005
 30
0.0
 40
3.5
  1
!GENTITLE-LL
100
AcDbText
  0
TEXT
  5
833
330
82E
100
AcDbEntity
  8
0
 60
     1
100
AcDbText
 10
584.0
 20
410.0
 30
0.0
 40
3.5
  1
!GENTITLE-RU
100
AcDbText
  0
TEXT
  5
834
330
82E
100
AcDbEntity
  8
0
 60
     1
100
AcDbText
 10
594.0
 20
420.0
 30
0.0
 40
3.5
  1
!GENTITLE-MAX
100
AcDbText
  0
LINE
  5
835
330
82E
100
AcDbEntity
  8
AM_BOR
 62
     1
370
    25
100
AcDbLine
 10
593.9999999999997
 20
0.0
 30
0.0
 11
401.9999999999998
 21
0.0
 31
0.0
  0
LINE
  5
836
330
82E
100
AcDbEntity
  8
AM_BOR
 62
     1
370
    25
100
AcDbLine
 10
331.1199999999999
 20
10.00000000000003
 30
0.0
 11
9.999999999999886
 21
10.00000000000007
 31
0.0
  0
LINE
  5
837
330
82E
100
AcDbEntity
  8
AM_BOR
 62
     1
370
    25
100
AcDbLine
 10
444.2499999999998
 20
415.0
 30
0.0
 11
444.2499999999998
 21
410.0
 31
0.0
  0
LINE
  5
838
330
82E
100
AcDbEntity
  8
AM_BOR
 62
     1
370
    25
100
AcDbLine
 10
516.6249999999998
 20
415.0
 30
0.0
 11
516.6249999999998
 21
410.0
 31
0.0
  0
TEXT
  5
839
330
82E
100
AcDbEntity
  8
AM_BOR
 62
     1
370
    25
100
AcDbText
 10
480.0
 20
410.5
 30
0.0
 40
4.0
  1
7
100
AcDbText
  0
TEXT
  5
83A
330
82E
100
AcDbEntity
  8
AM_BOR
 62
     1
370
    25
100
AcDbText
 10
552.5
 20
410.5
 30
0.0
 40
4.0
  1
8
100
AcDbText
  0
TEXT
  5
83B
330
82E
100
AcDbEntity
  8
AM_BOR
 62
     1
370
    25
100
AcDbText
 10
407.5
 20
410.5
 30
0.0
 40
4.0
  1
6
100
AcDbText
  0
LINE
  5
83C
330
82E
100
AcDbEntity
  8
AM_BOR
 62
     1
370
    25
100
AcDbLine
 10
371.8749999999998
 20
415.0
 30
0.0
 11
371.8749999999998
 21
410.0
 31
0.0
  0
TEXT
  5
83D
330
82E
100
AcDbEntity
  8
AM_BOR
 62
     1
370
    25
100
AcDbText
 10
335.0
 20
410.5
 30
0.0
 40
4.0
  1
5
100
AcDbText
  0
LINE
  5
83E
330
82E
100
AcDbEntity
  8
AM_BOR
 62
     1
370
    25
100
AcDbLine
 10
82.3749999999999
 20
415.0
 30
0.0
 11
82.3749999999999
 21
410.0
 31
0.0
  0
LINE
  5
83F
330
82E
100
AcDbEntity
  8
AM_BOR
 62
     1
370
    25
100
AcDbLine
 10
154.7499999999999
 20
415.0
 30
0.0
 11
154.7499999999999
 21
410.0
 31
0.0
  0
LINE
  5
840
330
82E
100
AcDbEntity
  8
AM_BOR
 62
     1
370
    25
100
AcDbLine
 10
227.1249999999999
 20
415.0
 30
0.0
 11
227.1249999999999
 21
410.0
 31
0.0
  0
LINE
  5
841
330
82E
100
AcDbEntity
  8
AM_BOR
 62
     1
370
    25
100
AcDbLine
 10
299.4999999999999
 20
415.0
 30
0.0
 11
299.4999999999999
 21
410.0
 31
0.0
  0
TEXT
  5
842
330
82E
100
AcDbEntity
  8
AM_BOR
 62
     1
370
    25
100
AcDbText
 10
45.50000000000002
 20
410.5
 30
0.0
 40
4.0
  1
1
100
AcDbText
  0
TEXT
  5
843
330
82E
100
AcDbEntity
  8
AM_BOR
 62
     1
370
    25
100
AcDbText
 10
117.5
 20
410.5
 30
0.0
 40
4.0
  1
2
100
AcDbText
  0
TEXT
  5
844
330
82E
100
AcDbEntity
  8
AM_BOR
 62
     1
370
    25
100
AcDbText
 10
190.5
 20
410.5
 30
0.0
 40
4.0
  1
3
100
AcDbText
  0
TEXT
  5
845
330
82E
100
AcDbEntity
  8
AM_BOR
 62
     1
370
    25
100
AcDbText
 10
263.0
 20
410.5
 30
0.0
 40
4.0
  1
4
100
AcDbText
  0
LINE
  5
846
330
82E
100
AcDbEntity
  8
AM_BOR
 62
     1
370
    25
100
AcDbLine
 10
588.9831138758758
 20
76.71791910685186
 30
0.0
 11
584.0
 21
76.71791910685186
 31
0.0
  0
LINE
  5
847
330
82E
100
AcDbEntity
  8
AM_BOR
 62
     1
370
    25
100
AcDbLine
 10
588.9831138758758
 20
143.3779191068518
 30
0.0
 11
584.0
 21
143.3779191068518
 31
0.0
  0
LINE
  5
848
330
82E
100
AcDbEntity
  8
AM_BOR
 62
     1
370
    25
100
AcDbLine
 10
588.9831138758758
 20
210.0379191068519
 30
0.0
 11
584.0
 21
210.0379191068519
 31
0.0
  0
LINE
  5
849
330
82E
100
AcDbEntity
  8
AM_BOR
 62
     1
370
    25
100
AcDbLine
 10
588.9831138758758
 20
276.6979191068519
 30
0.0
 11
584.0
 21
276.6979191068519
 31
0.0
  0
LINE
  5
84A
330
82E
100
AcDbEntity
  8
AM_BOR
 62
     1
370
    25
100
AcDbLine
 10
588.9831138758758
 20
343.3579191068519
 30
0.0
 11
584.0
 21
343.3579191068519
 31
0.0
  0
TEXT
  5
84B
330
82E
100
AcDbEntity
  8
AM_BOR
 62
     1
370
    25
100
AcDbText
 10
585.0
 20
43.0
 30
0.0
 40
4.0
  1
F
100
AcDbText
  0
TEXT
  5
84C
330
82E
100
AcDbEntity
  8
AM_BOR
 62
     1
370
    25
100
AcDbText
 10
585.0
 20
109.0
 30
0.0
 40
4.0
  1
E
100
AcDbText
  0
TEXT
  5
84D
330
82E
100
AcDbEntity
  8
AM_BOR
 62
     1
370
    25
100
AcDbText
 10
585.0
 20
176.0
 30
0.0
 40
4.0
  1
D
100
AcDbText
  0
TEXT
  5
84E
330
82E
100
AcDbEntity
  8
AM_BOR
 62
     1
370
    25
100
AcDbText
 10
585.0
 20
243.0
 30
0.0
 40
4.0
  1
C
100
AcDbText
  0
TEXT
  5
84F
330
82E
100
AcDbEntity
  8
AM_BOR
 62
     1
370
    25
100
AcDbText
 10
585.0
 20
310.0
 30
0.0
 40
4.0
  1
B
100
AcDbText
  0
TEXT
  5
850
330
82E
100
AcDbEntity
  8
AM_BOR
 62
     1
370
    25
100
AcDbText
 10
585.0
 20
376.0
 30
0.0
 40
4.0
  1
A
100
AcDbText
  0
TEXT
  5
851
330
82E
100
AcDbEntity
  8
AM_BOR
 62
     1
370
    25
100
AcDbText
 10
263.0
 20
5.5
 30
0.0
 40
4.0
  1
4
100
AcDbText
  0
TEXT
  5
852
330
82E
100
AcDbEntity
  8
AM_BOR
 62
     1
370
    25
100
AcDbText
 10
190.5
 20
5.5
 30
0.0
 40
4.0
  1
3
100
AcDbText
  0
TEXT
  5
853
330
82E
100
AcDbEntity
  8
AM_BOR
 62
     1
370
    25
100
AcDbText
 10
117.5
 20
5.5
 30
0.0
 40
4.0
  1
2
100
AcDbText
  0
TEXT
  5
854
330
82E
100
AcDbEntity
  8
AM_BOR
 62
     1
370
    25
100
AcDbText
 10
45.49999999999999
 20
5.5
 30
0.0
 40
4.0
  1
1
100
AcDbText
  0
TEXT
  5
855
330
82E
100
AcDbEntity
  8
AM_BOR
 62
     1
370
    25
100
AcDbText
 10
6.0
 20
376.0
 30
0.0
 40
4.0
  1
A
100
AcDbText
  0
TEXT
  5
856
330
82E
100
AcDbEntity
  8
AM_BOR
 62
     1
370
    25
100
AcDbText
 10
6.0
 20
310.0
 30
0.0
 40
4.0
  1
B
100
AcDbText
  0
TEXT
  5
857
330
82E
100
AcDbEntity
  8
AM_BOR
 62
     1
370
    25
100
AcDbText
 10
6.0
 20
243.0
 30
0.0
 40
4.0
  1
C
100
AcDbText
  0
TEXT
  5
858
330
82E
100
AcDbEntity
  8
AM_BOR
 62
     1
370
    25
100
AcDbText
 10
6.0
 20
176.0
 30
0.0
 40
4.0
  1
D
100
AcDbText
  0
TEXT
  5
859
330
82E
100
AcDbEntity
  8
AM_BOR
 62
     1
370
    25
100
AcDbText
 10
6.0
 20
109.0
 30
0.0
 40
4.0
  1
E
100
AcDbText
  0
TEXT
  5
85A
330
82E
100
AcDbEntity
  8
AM_BOR
 62
     1
370
    25
100
AcDbText
 10
6.0
 20
43.0
 30
0.0
 40
4.0
  1
F
100
AcDbText
  0
LINE
  5
85B
330
82E
100
AcDbEntity
  8
AM_BOR
 62
     1
370
    25
100
AcDbLine
 10
9.983113875875867
 20
343.3579191068519
 30
0.0
 11
5.0
 21
343.3579191068519
 31
0.0
  0
LINE
  5
85C
330
82E
100
AcDbEntity
  8
AM_BOR
 62
     1
370
    25
100
AcDbLine
 10
9.983113875875867
 20
276.6979191068519
 30
0.0
 11
5.0
 21
276.6979191068519
 31
0.0
  0
LINE
  5
85D
330
82E
100
AcDbEntity
  8
AM_BOR
 62
     1
370
    25
100
AcDbLine
 10
9.983113875875867
 20
210.0379191068519
 30
0.0
 11
5.0
 21
210.0379191068519
 31
0.0
  0
LINE
  5
85E
330
82E
100
AcDbEntity
  8
AM_BOR
 62
     1
370
    25
100
AcDbLine
 10
9.983113875875867
 20
143.3779191068518
 30
0.0
 11
5.0
 21
143.3779191068518
 31
0.0
  0
LINE
  5
85F
330
82E
100
AcDbEntity
  8
AM_BOR
 62
     1
370
    25
100
AcDbLine
 10
9.983113875875867
 20
76.71791910685186
 30
0.0
 11
5.0
 21
76.71791910685186
 31
0.0
  0
LINE
  5
860
330
82E
100
AcDbEntity
  8
AM_BOR
 62
     1
370
    25
100
AcDbLine
 10
299.4999999999999
 20
10.00000000000007
 30
0.0
 11
299.4999999999999
 21
5.00000000000007
 31
0.0
  0
LINE
  5
861
330
82E
100
AcDbEntity
  8
AM_BOR
 62
     1
370
    25
100
AcDbLine
 10
227.1249999999999
 20
10.00000000000007
 30
0.0
 11
227.1249999999999
 21
5.00000000000007
 31
0.0
  0
LINE
  5
862
330
82E
100
AcDbEntity
  8
AM_BOR
 62
     1
370
    25
100
AcDbLine
 10
154.7499999999999
 20
10.00000000000007
 30
0.0
 11
154.7499999999999
 21
5.00000000000007
 31
0.0
  0
LINE
  5
863
330
82E
100
AcDbEntity
  8
AM_BOR
 62
     1
370
    25
100
AcDbLine
 10
82.37499999999988
 20
10.00000000000007
 30
0.0
 11
82.37499999999988
 21
5.00000000000007
 31
0.0
  0
LINE
  5
864
330
82E
100
AcDbEntity
  8
AM_BOR
 62
     1
370
    25
100
AcDbLine
 10
584.0
 20
410.0
 30
0.0
 11
583.9999999999998
 21
5.0
 31
0.0
  0
LINE
  5
865
330
82E
100
AcDbEntity
  8
AM_BOR
 62
     1
370
    25
100
AcDbLine
 10
10.0
 20
10.0
 30
0.0
 11
10.00000000000002
 21
410.0
 31
0.0
  0
LINE
  5
866
330
82E
100
AcDbEntity
  8
0
100
AcDbLine
 10
588.9999999999997
 20
5.0
 30
0.0
 11
4.999999999999886
 21
5.000000000000071
 31
0.0
  0
LINE
  5
867
330
82E
100
AcDbEntity
  8
0
100
AcDbLine
 10
589.0
 20
415.0
 30
0.0
 11
588.9999999999997
 21
5.0
 31
0.0
  0
LINE
  5
868
330
82E
100
AcDbEntity
  8
0
100
AcDbLine
 10
5.000000000000023
 20
415.0
 30
0.0
 11
589.0
 21
415.0
 31
0.0
  0
LINE
  5
869
330
82E
100
AcDbEntity
  8
AM_BOR
 62
     1
370
    25
100
AcDbLine
 10
593.9999999999997
 20
0.0
 30
0.0
 11
-0.0000000000001137
 21
0.0000000000000727
 31
0.0
  0
LINE
  5
86A
330
82E
100
AcDbEntity
  8
AM_BOR
 62
     1
370
    25
100
AcDbLine
 10
0.0000000000000257
 20
420.0
 30
0.0
 11
594.0
 21
420.0
 31
0.0
  0
LINE
  5
86B
330
82E
100
AcDbEntity
  8
AM_BOR
 62
     1
370
    25
100
AcDbLine
 10
0.0
 20
0.0
 30
0.0
 11
0.0000000000000257
 21
420.0
 31
0.0
  0
LINE
  5
86C
330
82E
100
AcDbEntity
  8
AM_BOR
 62
     1
370
    25
100
AcDbLine
 10
210.0
 20
5.0
 30
0.0
 11
210.0
 21
0.0
 31
0.0
  0
LINE
  5
86D
330
82E
100
AcDbEntity
  8
AM_BOR
 62
     1
370
    25
100
AcDbLine
 10
0.0
 20
297.0
 30
0.0
 11
5.0
 21
297.0
 31
0.0
  0
LINE
  5
86E
330
82E
100
AcDbEntity
  8
AM_BOR
 62
     1
370
    25
100
AcDbLine
 10
105.0
 20
420.0
 30
0.0
 11
105.0
 21
415.0
 31
0.0
  0
LINE
  5
86F
330
82E
100
AcDbEntity
  8
AM_BOR
 62
     1
370
    25
100
AcDbLine
 10
594.0
 20
420.0
 30
0.0
 11
593.9999999999997
 21
0.0
 31
0.0
1001
GENIUS_VERSION2
1070
     2
  0
MTEXT
  5
870
330
82E
100
AcDbEntity
  8
RAHM2
100
AcDbMText
 10
374.9022607207864
 20
9.282856166729633
 30
0.0
 40
2.5
 41
51.25
 71
     5
 72
     5
  1
{\f@Arial Unicode MS|b0|i0|c0|p34;\W0.9;ACO Passavant GmbH\f@Arial Unicode MS|b0|i1|c0|p34;\P\Fgeniso|c0;\H0.72x;\W1;Schutzvermerk nach DIN 34}
 73
     1
 44
1.0
  0
LWPOLYLINE
  5
871
330
82E
100
AcDbEntity
  8
RAHM2
100
AcDbPolyline
 90
        4
 70
     1
 43
0.0
 10
401.1200012618344
 20
5.000000000000031
 10
331.1200012618344
 20
5.000000000000031
 10
331.1200012618344
 20
13.50000000000003
 10
401.1200012618344
 20
13.50000000000002
1001
GENIUS_GENREC_14
1002
{
1000
PXDIR
1011
331.1200012618344
1021
5.000000000000031
1031
0.0
1002
}
1002
{
1000
PORI
1011
401.1200012618344
1021
5.000000000000031
1031
0.0
1002
}
1002
{
1000
PINS
1011
401.1200012618344
1021
5.000000000000031
1031
0.0
1002
}
1002
{
1000
HVAL
1000
8.5
1002
}
1002
{
1000
H
1070
     2
1002
}
1002
{
1000
WVAL
1000
-70
1002
}
1002
{
1000
W
1070
     2
1002
}
1002
{
1000
C
1070
     1
1002
}
1001
GENIUS_GENODEF_13
1002
{
1000
HIER
1070
     0
1002
}
1002
{
1000
MANEDIT
1070
     0
1002
}
1002
{
1000
NOSEL
1070
     0
1002
}
1002
{
1000
BEHIND
1070
     0
1002
}
1002
{
1000
REACTOR
1002
}
1001
GENIUS_GENOBJ-N-REC_13
1002
{
1000
OWNER
1000
GEN
1002
}
  0
MTEXT
  5
872
102
{ACAD_XDICTIONARY
360
F37
102
}
330
82E
100
AcDbEntity
  8
RAHM2
100
AcDbMText
 10
332.8183538069351
 20
12.32474728438519
 30
0.0
 40
3.5
 41
4.30175959119215
 71
     1
 72
     5
  1
\fArial|b0|i0|c0|p32;\U+00A9
 73
     1
 44
1.0
  0
MTEXT
  5
873
330
82E
100
AcDbEntity
  8
RAHM2
100
AcDbMText
 10
339.5515431528592
 20
11.24554815700972
 30
0.0
 40
2.0
 41
5.5175
 71
     1
 72
     5
  1
2004
 73
     1
 44
1.0
  0
ENDBLK
  5
875
330
82E
100
AcDbEntity
  8
0
100
AcDbBlockEnd
  0
BLOCK
  5
87F
330
87E
100
AcDbEntity
  8
0
100
AcDbBlockBegin
  2
*U4
 70
     1
 10
0.0
 20
0.0
 30
0.0
  3
*U4
  1

  0
ENDBLK
  5
880
330
87E
100
AcDbEntity
  8
0
100
AcDbBlockEnd
  0
BLOCK
  5
882
330
881
100
AcDbEntity
  8
0
100
AcDbBlockBegin
  2
ACO-logo
 70
     0
 10
0.0
 20
0.0
 30
0.0
  3
ACO-logo
  1

  0
HATCH
  5
883
330
881
100
AcDbEntity
  8
AM_8
100
AcDbHatch
 10
0.0
 20
0.0
 30
0.0
210
0.0
220
0.0
230
1.0
  2
SOLID
 70
     1
 71
     1
 91
        8
 92
        7
 72
     0
 73
     1
 93
        4
 10
0.0
 20
0.0
 10
5.834846668005337
 20
0.0
 10
5.834846668005337
 20
13.81753928161228
 10
0.0
 20
13.81753928161228
 97
        1
330
88A
 92
       22
 72
     1
 73
     1
 93
        7
 10
2.917423334002662
 20
5.899795014131326
 42
-0.2369604974400691
 10
5.299322278505158
 20
1.207762711033139
 42
0.0
 10
4.566404620696332
 20
1.207762711033139
 42
0.0323236910300515
 10
4.52028025854512
 20
1.868792671041203
 42
0.0
 10
1.31456640946034
 20
1.868792671041203
 42
0.0323236910300514
 10
1.268442047309008
 20
1.207762711033139
 42
0.0
 10
0.5355243895001536
 20
1.207762711033139
 42
-0.236960497440069
 97
        1
330
889
 92
        6
 72
     1
 73
     1
 93
        3
 10
2.917423334002754
 20
4.950343243528891
 42
-0.1369919174131033
 10
4.366098920254252
 20
2.601702187966733
 42
0.0
 10
1.468747747751101
 20
2.601702187966733
 42
-0.136991917413112
 97
        1
330
88B
 92
        7
 72
     0
 73
     1
 93
        4
 10
6.749142654406119
 20
0.0
 10
12.58398932241152
 20
0.0
 10
12.58398932241152
 20
13.81753928161228
 10
6.749142654406122
 20
13.81753928161228
 97
        1
330
887
 92
       22
 72
     1
 73
     1
 93
        4
 10
11.71403969512569
 20
4.838973170255556
 42
0.0
 10
11.07924682436687
 20
4.472475335443292
 42
3.664441495333134
 10
11.09468207415784
 20
2.797254222346978
 42
0.0
 10
11.72940033449071
 20
2.430799463884226
 42
-3.685001202565794
 97
        1
330
886
 92
        7
 72
     0
 73
     1
 93
        4
 10
19.3331319768176
 20
13.81753928161228
 10
13.49828530881222
 20
13.81753928161228
 10
13.49828530881222
 20
0.0
 10
19.33313197681759
 20
0.0
 97
        1
330
888
 92
       22
 72
     1
 73
     1
 93
        2
 10
18.79766457282285
 20
3.621777428888221
 42
-1.0
 10
14.03375271280697
 20
3.621777428888221
 42
-1.0
 97
        1
330
884
 92
        6
 72
     1
 73
     1
 93
        2
 10
18.06475505589733
 20
3.621777428888221
 42
-1.0
 10
14.76666222973249
 20
3.621777428888221
 42
-1.0
 97
        1
330
885
 75
     0
 76
     1
 47
0.0392597581883742
 98
        8
 10
2.217340335895904
 20
8.885487312966287
 10
2.217340335895904
 20
8.885487312966287
 10
2.217340335895904
 20
8.885487312966287
 10
8.654998273965695
 20
10.48403451227921
 10
8.654998273965695
 20
10.48403451227921
 10
16.65081549283477
 20
10.52502310076878
 10
16.65081549283477
 20
10.52502310076878
 10
16.65081549283477
 20
10.52502310076878
450
        0
451
        0
460
0.0
461
0.0
452
        0
462
0.0
453
        0
470

1001
ACAD
1010
0.0
1020
0.0
1030
0.0
  0
CIRCLE
  5
884
102
{ACAD_REACTORS
330
883
102
}
330
881
100
AcDbEntity
  8
AM_8
100
AcDbCircle
 10
16.41570864281491
 20
3.621777428888221
 30
0.0
 40
2.381955930007939
  0
CIRCLE
  5
885
102
{ACAD_REACTORS
330
883
102
}
330
881
100
AcDbEntity
  8
AM_8
100
AcDbCircle
 10
16.41570864281491
 20
3.621777428888221
 30
0.0
 40
1.649046413082418
  0
LWPOLYLINE
  5
886
102
{ACAD_REACTORS
330
883
102
}
330
881
100
AcDbEntity
  8
AM_8
100
AcDbPolyline
 90
        4
 70
     1
 43
0.0
 10
11.09468207415784
 20
2.797254222346978
 42
-3.664441495333134
 10
11.07924682436687
 20
4.472475335443292
 10
11.71403969512569
 20
4.838973170255556
 42
3.685001202565794
 10
11.72940033449071
 20
2.430799463884226
  0
LWPOLYLINE
  5
887
102
{ACAD_REACTORS
330
883
102
}
330
881
100
AcDbEntity
  8
AM_8
100
AcDbPolyline
 90
        4
 70
     1
 43
0.0
 10
6.749142654406119
 20
13.81753928161228
 10
6.749142654406119
 20
0.0
 10
12.58398932241152
 20
0.0
 10
12.58398932241152
 20
13.81753928161228
  0
LWPOLYLINE
  5
888
102
{ACAD_REACTORS
330
883
102
}
330
881
100
AcDbEntity
  8
AM_8
100
AcDbPolyline
 90
        4
 70
     1
 43
0.0
 10
19.33313197681759
 20
13.81753928161228
 10
19.33313197681759
 20
0.0
 10
13.49828530881222
 20
0.0
 10
13.49828530881222
 20
13.81753928161228
  0
LWPOLYLINE
  5
889
102
{ACAD_REACTORS
330
883
102
}
330
881
100
AcDbEntity
  8
AM_8
100
AcDbPolyline
 90
        7
 70
     1
 43
0.0
 10
1.268442047309008
 20
1.207762711033139
 42
-0.0323236910300514
 10
1.31456640946034
 20
1.868792671041203
 10
4.52028025854512
 20
1.868792671041203
 42
-0.0323236910300515
 10
4.566404620696332
 20
1.207762711033139
 10
5.299322278505158
 20
1.207762711033139
 42
0.2369604974400691
 10
2.917423334002662
 20
5.899795014131326
 42
0.2369604974400691
 10
0.5355243895001536
 20
1.207762711033139
  0
LWPOLYLINE
  5
88A
102
{ACAD_REACTORS
330
883
102
}
330
881
100
AcDbEntity
  8
AM_8
100
AcDbPolyline
 90
        4
 70
     1
 43
0.0
 10
0.0
 20
13.81753928161228
 10
0.0
 20
0.0
 10
5.834846668005337
 20
0.0
 10
5.834846668005337
 20
13.81753928161228
  0
LWPOLYLINE
  5
88B
102
{ACAD_REACTORS
330
883
102
}
330
881
100
AcDbEntity
  8
AM_8
100
AcDbPolyline
 90
        3
 70
     1
 43
0.0
 10
2.917423334002754
 20
4.950343243528891
 42
-0.1369919174131033
 10
4.366098920254252
 20
2.601702187966733
 10
1.468747747751101
 20
2.601702187966733
 42
-0.136991917413112
  0
ENDBLK
  5
88C
330
881
100
AcDbEntity
  8
0
100
AcDbBlockEnd
  0
BLOCK
  5
940
330
8B7
100
AcDbEntity
  8
0
100
AcDbBlockBegin
  2
ACO-SF02-GR
 70
     2
 10
0.0
 20
0.0
 30
0.0
  3
ACO-SF02-GR
  1

  0
LINE
  5
8B8
330
8B7
100
AcDbEntity
  8
KOPF
 62
    12
100
AcDbLine
 10
0.0
 20
5.0
 30
0.0
 11
-83.0
 21
5.0
 31
0.0
  0
LWPOLYLINE
  5
8B9
330
8B7
100
AcDbEntity
  8
KOPF
 62
    12
100
AcDbPolyline
 90
        2
 70
     0
 43
0.5
 10
-83.0
 20
10.0
 10
0.0
 20
10.0
  0
LINE
  5
8BA
330
8B7
100
AcDbEntity
  8
KOPF
100
AcDbLine
 10
-83.0
 20
10.0
 30
0.0
 11
0.0
 21
10.0
 31
0.0
  0
LINE
  5
8BB
330
8B7
100
AcDbEntity
  8
KOPF
100
AcDbLine
 10
0.0
 20
5.0
 30
0.0
 11
-83.0
 21
5.0
 31
0.0
  0
LWPOLYLINE
  5
8BC
330
8B7
100
AcDbEntity
  8
KOPF
 62
    12
100
AcDbPolyline
 90
        2
 70
     0
 43
0.5
 10
0.0
 20
68.49999999999997
 10
-182.0
 20
68.49999999999997
  0
LWPOLYLINE
  5
8BD
330
8B7
100
AcDbEntity
  8
KOPF
 62
    12
100
AcDbPolyline
 90
        2
 70
     0
 43
0.5
 10
0.0
 20
46.99999999999997
 10
-182.0
 20
46.99999999999997
  0
LWPOLYLINE
  5
8BE
330
8B7
100
AcDbEntity
  8
KOPF
 62
    12
100
AcDbPolyline
 90
        2
 70
     0
 43
0.5
 10
-0.2154115848244373
 20
27.23910754630094
 10
-182.1882840408789
 20
27.23910754630094
  0
LINE
  5
8BF
330
8B7
100
AcDbEntity
  8
KOPF
 62
    12
100
AcDbLine
 10
0.0
 20
88.49999999999996
 30
0.0
 11
-182.0
 21
88.49999999999996
 31
0.0
  0
LINE
  5
8C0
330
8B7
100
AcDbEntity
  8
KOPF
 62
    12
100
AcDbLine
 10
-182.0
 20
83.49999999999997
 30
0.0
 11
0.0
 21
83.49999999999997
 31
0.0
  0
LINE
  5
8C1
330
8B7
100
AcDbEntity
  8
KOPF
 62
    12
100
AcDbLine
 10
0.0
 20
73.49999999999997
 30
0.0
 11
-182.0
 21
73.49999999999997
 31
0.0
  0
LINE
  5
8C2
330
8B7
100
AcDbEntity
  8
KOPF
 62
    12
100
AcDbLine
 10
-162.682677
 20
78.49999999999997
 30
0.0
 11
0.0
 21
78.49999999999997
 31
0.0
  0
LINE
  5
8C3
330
8B7
100
AcDbEntity
  8
KOPF
100
AcDbLine
 10
0.0
 20
68.49999999999997
 30
0.0
 11
-182.0
 21
68.49999999999997
 31
0.0
  0
LINE
  5
8C4
330
8B7
100
AcDbEntity
  8
KOPF
100
AcDbLine
 10
0.0
 20
88.49999999999996
 30
0.0
 11
-182.0
 21
88.49999999999996
 31
0.0
  0
LINE
  5
8C5
330
8B7
100
AcDbEntity
  8
KOPF
100
AcDbLine
 10
-182.0
 20
83.49999999999997
 30
0.0
 11
0.0
 21
83.49999999999997
 31
0.0
  0
LINE
  5
8C6
330
8B7
100
AcDbEntity
  8
KOPF
100
AcDbLine
 10
0.0
 20
73.49999999999997
 30
0.0
 11
-182.0
 21
73.49999999999997
 31
0.0
  0
LINE
  5
8C7
330
8B7
100
AcDbEntity
  8
KOPF
100
AcDbLine
 10
-162.682677
 20
78.49999999999997
 30
0.0
 11
0.0
 21
78.49999999999997
 31
0.0
  0
LINE
  5
8C8
330
8B7
100
AcDbEntity
  8
KOPF
 62
    12
100
AcDbLine
 10
-182.0
 20
57.74999999999997
 30
0.0
 11
-100.0
 21
57.74999999999997
 31
0.0
  0
LINE
  5
8C9
330
8B7
100
AcDbEntity
  8
KOPF
 62
    12
100
AcDbLine
 10
-182.0
 20
41.99999999999996
 30
0.0
 11
-113.4
 21
41.99999999999996
 31
0.0
  0
LINE
  5
8CA
330
8B7
100
AcDbEntity
  8
KOPF
100
AcDbLine
 10
-182.0
 20
57.74999999999997
 30
0.0
 11
-100.0
 21
57.74999999999997
 31
0.0
  0
LINE
  5
8CB
330
8B7
100
AcDbEntity
  8
KOPF
100
AcDbLine
 10
-182.0
 20
41.99999999999996
 30
0.0
 11
-113.4
 21
41.99999999999996
 31
0.0
  0
LINE
  5
8CC
330
8B7
100
AcDbEntity
  8
KOPF
 62
    12
100
AcDbLine
 10
-142.0
 20
68.49999999999997
 30
0.0
 11
-142.0
 21
46.99999999999997
 31
0.0
  0
LINE
  5
8CD
330
8B7
100
AcDbEntity
  8
KOPF
 62
    12
100
AcDbLine
 10
-142.0
 20
68.49999999999997
 30
0.0
 11
-142.0
 21
46.99999999999997
 31
0.0
  0
ATTDEF
  5
8CE
330
8B7
100
AcDbEntity
  8
TEXT35
100
AcDbText
 10
-140.2
 20
49.4
 30
0.0
 40
3.5
  1

 41
0.8
  7
TEXT35
100
AcDbAttributeDefinition
  3
Oberfläche:
  2
F63
 70
     0
  0
LWPOLYLINE
  5
8CF
330
8B7
100
AcDbEntity
  8
KOPF
 62
    12
100
AcDbPolyline
 90
        2
 70
     0
 43
0.7
 10
-182.0
 20
103.4999999999999
 10
-182.0
 20
0.0
  0
LINE
  5
8D0
330
8B7
100
AcDbEntity
  8
KOPF
100
AcDbLine
 10
-182.0
 20
103.4999999999999
 30
0.0
 11
-182.0
 21
0.0
 31
0.0
  0
TEXT
  5
8D1
330
8B7
100
AcDbEntity
  8
KOPF
100
AcDbText
 10
-179.738589
 20
38.32439403633659
 30
0.0
 40
2.0
  1
Gezeichnet:
 41
0.8
  7
TEXT20
100
AcDbText
  0
ATTDEF
  5
8D2
330
8B7
100
AcDbEntity
  8
TEXT35
100
AcDbText
 10
-176.6
 20
3.399999999999999
 30
0.0
 40
3.5
  1

 41
0.8
  7
TEXT35
100
AcDbAttributeDefinition
  3
Z-Titel 3
  2
F13
 70
     0
  0
ATTDEF
  5
8D3
330
8B7
100
AcDbEntity
  8
TEXT50
100
AcDbText
 10
-176.6
 20
10.63250279796295
 30
0.0
 40
5.0
  1

 41
0.8
  7
TEXT50
100
AcDbAttributeDefinition
  3
Z-Titel 2
  2
F3
 70
     0
  0
ATTDEF
  5
8D4
330
8B7
100
AcDbEntity
  8
TEXT50
100
AcDbText
 10
-176.6
 20
18.56318324460701
 30
0.0
 40
5.0
  1

 41
0.8
  7
TEXT50
100
AcDbAttributeDefinition
  3
Z-Titel 1
  2
F2
 70
     0
  0
TEXT
  5
8D5
330
8B7
100
AcDbEntity
  8
KOPF
100
AcDbText
 10
-179.738589
 20
28.52395361420514
 30
0.0
 40
2.0
  1
Freigabe:
 41
0.8
  7
TEXT20
100
AcDbText
  0
TEXT
  5
8D6
330
8B7
100
AcDbEntity
  8
KOPF
100
AcDbText
 10
-179.738589
 20
33.43577642824449
 30
0.0
 40
2.0
  1
Geprüft:
 41
0.8
  7
TEXT20
100
AcDbText
  0
LINE
  5
8D7
330
8B7
100
AcDbEntity
  8
KOPF
 62
    12
100
AcDbLine
 10
-163.0
 20
46.99999999999997
 30
0.0
 11
-163.0
 21
27.0
 31
0.0
  0
LINE
  5
8D8
330
8B7
100
AcDbEntity
  8
KOPF
100
AcDbLine
 10
-163.0
 20
46.99999999999997
 30
0.0
 11
-163.0
 21
27.0
 31
0.0
  0
ATTDEF
  5
8D9
330
8B7
100
AcDbEntity
  8
TEXT25
100
AcDbText
 10
-161.5009557098303
 20
28.32091209119023
 30
0.0
 40
2.0
  1

 41
0.8
  7
TEXT20
100
AcDbAttributeDefinition
  3
Update am:
  2
F53
 70
     0
  0
ATTDEF
  5
8DA
330
8B7
100
AcDbEntity
  8
TEXT25
100
AcDbText
 10
-161.5539333606331
 20
33.12227989587696
 30
0.0
 40
2.0
  1

 41
0.8
  7
TEXT20
100
AcDbAttributeDefinition
  3
Geprüft am:
  2
F22
 70
     0
  0
ATTDEF
  5
8DB
330
8B7
100
AcDbEntity
  8
TEXT25
100
AcDbText
 10
-161.5207141482394
 20
38.33983936444393
 30
0.0
 40
2.0
  1

 41
0.8
  7
TEXT20
100
AcDbAttributeDefinition
  3
Gezeichnet am:
  2
F9
 70
     0
  0
TEXT
  5
8DC
330
8B7
100
AcDbEntity
  8
KOPF
100
AcDbText
 10
-155.964455
 20
43.13467299999999
 30
0.0
 40
2.0
  1
Datum
 41
0.8
  7
TEXT20
100
AcDbText
  0
LINE
  5
8DD
330
8B7
100
AcDbEntity
  8
KOPF
 62
    12
100
AcDbLine
 10
-138.4
 20
46.99999999999997
 30
0.0
 11
-138.4
 21
27.0
 31
0.0
  0
LINE
  5
8DE
330
8B7
100
AcDbEntity
  8
KOPF
100
AcDbLine
 10
-138.4
 20
46.99999999999997
 30
0.0
 11
-138.4
 21
27.0
 31
0.0
  0
TEXT
  5
8DF
330
8B7
100
AcDbEntity
  8
KOPF
100
AcDbText
 10
-130.065072
 20
43.14125800000002
 30
0.0
 40
2.0
  1
Name
 41
0.8
  7
TEXT20
100
AcDbText
  0
ATTDEF
  5
8E0
330
8B7
100
AcDbEntity
  8
TEXT25
100
AcDbText
 10
-136.2746977811447
 20
33.28471223400234
 30
0.0
 40
2.0
  1

 41
0.8
  7
TEXT20
100
AcDbAttributeDefinition
  3
Geprüft von:
  2
F21
 70
     0
  0
ATTDEF
  5
8E1
330
8B7
100
AcDbEntity
  8
TEXT25
100
AcDbText
 10
-136.3996291720711
 20
28.23101841142455
 30
0.0
 40
2.0
  1

 41
0.8
  7
TEXT20
100
AcDbAttributeDefinition
  3
Update von:
  2
F52
 70
     0
  0
ATTDEF
  5
8E2
330
8B7
100
AcDbEntity
  8
TEXT25
100
AcDbText
 10
-136.1922113552417
 20
38.48172579575253
 30
0.0
 40
2.0
  1

 41
0.8
  7
TEXT20
100
AcDbAttributeDefinition
  3
Gezeichnet von
  2
F8
 70
     0
  0
TEXT
  5
8E3
330
8B7
100
AcDbEntity
  8
KOPF
100
AcDbText
 10
-174.6925639999999
 20
69.53813999999997
 30
0.0
 40
2.0
  1
Index
 41
0.8
  7
TEXT20
100
AcDbText
  0
LINE
  5
8E4
330
8B7
100
AcDbEntity
  8
KOPF
100
AcDbLine
 10
-182.0
 20
78.49999999999997
 30
0.0
 11
-162.682677
 21
78.49999999999997
 31
0.0
  0
LINE
  5
8E5
330
8B7
100
AcDbEntity
  8
KOPF
100
AcDbLine
 10
-182.0
 20
78.49999999999997
 30
0.0
 11
-162.682677
 21
78.49999999999997
 31
0.0
  0
TEXT
  5
8E6
330
8B7
100
AcDbEntity
  8
KOPF
100
AcDbText
 10
-180.0
 20
65.166273
 30
0.0
 40
2.0
  1
Werkstoff:
 41
0.8
  7
TEXT20
100
AcDbText
  0
TEXT
  5
8E7
330
8B7
100
AcDbEntity
  8
KOPF
100
AcDbText
 10
-181.0
 20
54.49999999999997
 30
0.0
 40
2.0
  1
zul. Abweich.:
 41
0.8
  7
TEXT20
100
AcDbText
  0
ATTDEF
  5
8E8
330
8B7
100
AcDbEntity
  8
TEXT35
100
AcDbText
 10
-179.7
 20
59.6
 30
0.0
 40
3.5
  1

 41
0.8
  7
TEXT35
100
AcDbAttributeDefinition
  3
Werkstoff:
  2
F61
 70
     0
  0
ATTDEF
  5
8E9
330
8B7
100
AcDbEntity
  8
TEXT35
100
AcDbText
 10
-179.7
 20
49.7
 30
0.0
 40
3.5
  1

 41
0.8
  7
TEXT35
100
AcDbAttributeDefinition
  3
zul. Abweichung
  2
F62
 70
     0
  0
ATTDEF
  5
8EA
330
8B7
100
AcDbEntity
  8
TEXT25
100
AcDbText
 10
-174.360415155955
 20
74.59999999999998
 30
0.0
 40
2.0
  1

 41
0.8
  7
TEXT20
100
AcDbAttributeDefinition
  3
Index vv.:
  2
F72
 70
     0
  0
ATTDEF
  5
8EB
330
8B7
100
AcDbEntity
  8
TEXT25
100
AcDbText
 10
-174.4435409453564
 20
79.47378932523601
 30
0.0
 40
2.0
  1

 41
0.8
  7
TEXT20
100
AcDbAttributeDefinition
  3
Index v.:
  2
F68
 70
     0
  0
ATTDEF
  5
8EC
330
8B7
100
AcDbEntity
  8
TEXT25
100
AcDbText
 10
-174.3700408782365
 20
84.63034186138365
 30
0.0
 40
2.0
  1

 41
0.8
  7
TEXT20
100
AcDbAttributeDefinition
  3
Index l.:
  2
F64
 70
     0
  0
LINE
  5
8ED
330
8B7
100
AcDbEntity
  8
KOPF
100
AcDbLine
 10
-162.682677
 20
88.49999999999996
 30
0.0
 11
-162.682677
 21
68.49999999999997
 31
0.0
  0
LINE
  5
8EE
330
8B7
100
AcDbEntity
  8
KOPF
100
AcDbLine
 10
-162.682677
 20
88.49999999999996
 30
0.0
 11
-162.682677
 21
68.49999999999997
 31
0.0
  0
TEXT
  5
8EF
330
8B7
100
AcDbEntity
  8
KOPF
100
AcDbText
 10
-156.706568
 20
69.53813999999997
 30
0.0
 40
2.0
  1
Datum
 41
0.8
  7
TEXT20
100
AcDbText
  0
ATTDEF
  5
8F0
330
8B7
100
AcDbEntity
  8
TEXT25
100
AcDbText
 10
-160.9
 20
75.09999999999998
 30
0.0
 40
2.0
  1

 41
0.8
  7
TEXT20
100
AcDbAttributeDefinition
  3
Datum vv.:
  2
F73
 70
     0
  0
ATTDEF
  5
8F1
330
8B7
100
AcDbEntity
  8
TEXT25
100
AcDbText
 10
-160.9
 20
79.40000000000002
 30
0.0
 40
2.0
  1

 41
0.8
  7
TEXT20
100
AcDbAttributeDefinition
  3
Datum v.:
  2
F69
 70
     0
  0
ATTDEF
  5
8F2
330
8B7
100
AcDbEntity
  8
TEXT25
100
AcDbText
 10
-160.6
 20
84.50000000000001
 30
0.0
 40
2.0
  1

 41
0.8
  7
TEXT20
100
AcDbAttributeDefinition
  3
Datum l.:
  2
F65
 70
     0
  0
LINE
  5
8F3
330
8B7
100
AcDbEntity
  8
KOPF
 62
    12
100
AcDbLine
 10
-142.0
 20
68.49999999999997
 30
0.0
 11
-142.0
 21
88.49999999999996
 31
0.0
  0
LINE
  5
8F4
330
8B7
100
AcDbEntity
  8
KOPF
100
AcDbLine
 10
-142.0
 20
68.49999999999997
 30
0.0
 11
-142.0
 21
88.49999999999996
 31
0.0
  0
ATTDEF
  5
8F5
330
8B7
100
AcDbEntity
  8
TEXT35
100
AcDbText
 10
-139.9
 20
59.29999999999999
 30
0.0
 40
3.5
  1

 41
0.8
  7
TEXT35
100
AcDbAttributeDefinition
  3
Gewicht:
  2
F60
 70
     0
  0
TEXT
  5
8F6
330
8B7
100
AcDbEntity
  8
KOPF
100
AcDbText
 10
-140.387393
 20
54.54752599999996
 30
0.0
 40
2.0
  1
Oberfläche
 41
0.8
  7
TEXT20
100
AcDbText
  0
TEXT
  5
8F7
330
8B7
100
AcDbEntity
  8
KOPF
100
AcDbText
 10
-140.1020469999999
 20
65.166273
 30
0.0
 40
2.0
  1
Gewicht:
 41
0.8
  7
TEXT20
100
AcDbText
  0
TEXT
  5
8F8
330
8B7
100
AcDbEntity
  8
KOPF
100
AcDbText
 10
-140.1020469999999
 20
65.166273
 30
0.0
 40
2.0
  1
Gewicht:
 41
0.8
  7
TEXT20
100
AcDbText
  0
ATTDEF
  5
8F9
330
8B7
100
AcDbEntity
  8
TEXT25
100
AcDbText
 10
-140.4
 20
74.59999999999998
 30
0.0
 40
2.0
  1

 41
0.8
  7
TEXT20
100
AcDbAttributeDefinition
  3
Bennenung vv.:
  2
F74
 70
     0
  0
ATTDEF
  5
8FA
330
8B7
100
AcDbEntity
  8
TEXT25
100
AcDbText
 10
-140.5063960262479
 20
79.64480359078786
 30
0.0
 40
2.0
  1

 41
0.8
  7
TEXT20
100
AcDbAttributeDefinition
  3
Benennung v.:
  2
F70
 70
     0
  0
ATTDEF
  5
8FB
330
8B7
100
AcDbEntity
  8
TEXT25
100
AcDbText
 10
-140.390233442385
 20
84.56120109651198
 30
0.0
 40
2.0
  1

 41
0.8
  7
TEXT20
100
AcDbAttributeDefinition
  3
Bennenung l.:
  2
F66
 70
     0
  0
LINE
  5
8FC
330
8B7
100
AcDbEntity
  8
KOPF
 62
    12
100
AcDbLine
 10
-100.0
 20
68.49999999999997
 30
0.0
 11
-100.0
 21
46.99999999999997
 31
0.0
  0
LWPOLYLINE
  5
8FD
330
8B7
100
AcDbEntity
  8
KOPF
 62
    12
100
AcDbPolyline
 90
        2
 70
     0
 43
0.5
 10
-83.0
 20
46.99999999999997
 10
-83.0
 20
0.0
  0
LINE
  5
8FE
330
8B7
100
AcDbEntity
  8
KOPF
100
AcDbLine
 10
-83.0
 20
46.99999999999997
 30
0.0
 11
-83.0
 21
0.0
 31
0.0
  0
TEXT
  5
8FF
330
8B7
100
AcDbEntity
  8
KOPF
100
AcDbText
 10
-81.0
 20
1.714285999999985
 30
0.0
 40
2.0
  1
Ersetzt durch:
 41
0.8
  7
TEXT20
100
AcDbText
  0
LINE
  5
900
330
8B7
100
AcDbEntity
  8
KOPF
 62
    12
100
AcDbLine
 10
-113.4
 20
27.0
 30
0.0
 11
-113.4
 21
46.99999999999997
 31
0.0
  0
LWPOLYLINE
  5
901
330
8B7
100
AcDbEntity
  8
KOPF
100
AcDbPolyline
 90
        2
 70
     0
 43
0.5
 10
-113.4
 20
27.0
 10
-113.4
 20
46.99999999999997
  0
LINE
  5
902
330
8B7
100
AcDbEntity
  8
KOPF
100
AcDbLine
 10
-113.4
 20
27.0
 30
0.0
 11
-113.4
 21
46.99999999999997
 31
0.0
  0
LINE
  5
903
330
8B7
100
AcDbEntity
  8
KOPF
100
AcDbLine
 10
-113.4
 20
27.0
 30
0.0
 11
-113.4
 21
46.99999999999997
 31
0.0
  0
ATTDEF
  5
904
330
8B7
100
AcDbEntity
  8
TEXT35
100
AcDbText
 10
-104.4935632823758
 20
33.13408015176805
 30
0.0
 40
3.5
  1

 41
0.8
  7
TEXT35
100
AcDbAttributeDefinition
  3
Maßstab 2:
  2
F54
 70
     0
  0
ATTDEF
  5
905
330
8B7
100
AcDbEntity
  8
TEXT35
100
AcDbText
 10
-104.487948258847
 20
28.6
 30
0.0
 40
3.5
  1

 41
0.8
  7
TEXT35
100
AcDbAttributeDefinition
  3
Maßstab 3:
  2
F55
 70
     0
  0
ATTDEF
  5
906
330
8B7
100
AcDbEntity
  8
TEXT50
100
AcDbText
 10
-106.6
 20
37.8
 30
0.0
 40
5.0
  1

 41
0.8
  7
TEXT50
100
AcDbAttributeDefinition
  3
Maßstab 1:
  2
F25
 70
     0
  0
TEXT
  5
907
330
8B7
100
AcDbEntity
  8
KOPF
100
AcDbText
 10
-112.263457
 20
43.88678899999999
 30
0.0
 40
2.0
  1
Massstab:
 41
0.8
  7
TEXT20
100
AcDbText
  0
LINE
  5
908
330
8B7
100
AcDbEntity
  8
KOPF
 62
    12
100
AcDbLine
 10
-57.8081340000001
 20
27.0
 30
0.0
 11
-57.8081340000001
 21
46.99999999999997
 31
0.0
  0
LINE
  5
909
330
8B7
100
AcDbEntity
  8
KOPF
100
AcDbLine
 10
-57.8081340000001
 20
27.0
 30
0.0
 11
-57.8081340000001
 21
46.99999999999997
 31
0.0
  0
TEXT
  5
90A
330
8B7
100
AcDbEntity
  8
KOPF
100
AcDbText
 10
-81.59296000000006
 20
23.69783599999999
 30
0.0
 40
2.0
  1
Zeichnung Nr.:
 41
0.8
  7
TEXT20
100
AcDbText
  0
TEXT
  5
90B
330
8B7
100
AcDbEntity
  8
KOPF
100
AcDbText
 10
-81.00375700000006
 20
5.924711999999997
 30
0.0
 40
2.0
  1
Ersatz für:
 41
0.8
  7
TEXT20
100
AcDbText
  0
TEXT
  5
90C
330
8B7
100
AcDbEntity
  8
KOPF
100
AcDbText
 10
-81.59296000000006
 20
23.69783599999999
 30
0.0
 40
2.0
  1
Zeichnung Nr.:
 41
0.8
  7
TEXT20
100
AcDbText
  0
ATTDEF
  5
90D
330
8B7
100
AcDbEntity
  8
TEXT50
100
AcDbText
 10
-78.29193986361122
 20
14.50587824180555
 30
0.0
 40
5.0
  1

 41
0.8
  7
TEXT50
100
AcDbAttributeDefinition
  3
Standart:
  2
F1
 70
     0
  0
TEXT
  5
90E
330
8B7
100
AcDbEntity
  8
KOPF
100
AcDbText
 10
-81.48889200000008
 20
43.86057200000001
 30
0.0
 40
2.0
  1
Masseinheit:
 41
0.8
  7
TEXT20
100
AcDbText
  0
LINE
  5
90F
330
8B7
100
AcDbEntity
  8
KOPF
 62
    12
100
AcDbLine
 10
-57.8081340000001
 20
36.213444
 30
0.0
 11
-83.0
 21
36.213444
 31
0.0
  0
LINE
  5
910
330
8B7
100
AcDbEntity
  8
KOPF
100
AcDbLine
 10
-57.8081340000001
 20
36.213444
 30
0.0
 11
-83.0
 21
36.213444
 31
0.0
  0
ATTDEF
  5
911
330
8B7
100
AcDbEntity
  8
TEXT35
100
AcDbText
 10
-79.40896486611496
 20
38.08722024605356
 30
0.0
 40
3.5
  1

 41
0.8
  7
TEXT35
100
AcDbAttributeDefinition
  3
Maßeinheit:
  2
F56
 70
     0
  0
TEXT
  5
912
330
8B7
100
AcDbEntity
  8
KOPF
100
AcDbText
 10
-33.57569784693112
 20
42.62823225872138
 30
0.0
 40
1.54
  1
Diese Zeichnung darf weder kopiert
 41
0.8
  7
TEXT20
100
AcDbText
  0
TEXT
  5
913
330
8B7
100
AcDbEntity
  8
KOPF
100
AcDbText
 10
-33.57569784693112
 20
40.26106040199917
 30
0.0
 40
1.54
  1
noch dritten Personen, insbesondere
 41
0.8
  7
TEXT20
100
AcDbText
1001
GENIUS_GENTRA_14
1002
{
1070
     1
1000
/
1000
noch dritten Personen, insbesondere
1000
DEU
1070
     0
1040
0.8
1070
     0
1002
}
  0
TEXT
  5
914
330
8B7
100
AcDbEntity
  8
KOPF
100
AcDbText
 10
-33.57569784693112
 20
35.63814072439632
 30
0.0
 40
1.54
  1
mitgeteilt werden und bleibt unser
 41
0.8
  7
TEXT20
100
AcDbText
  0
TEXT
  5
915
330
8B7
100
AcDbEntity
  8
KOPF
100
AcDbText
 10
-33.57569784693112
 20
33.37532604459598
 30
0.0
 40
1.54
  1
Eigentum.
 41
0.8
  7
TEXT20
100
AcDbText
  0
TEXT
  5
916
330
8B7
100
AcDbEntity
  8
KOPF
100
AcDbText
 10
-33.57569784693112
 20
37.97994933403727
 30
0.0
 40
1.54
  1
zum Zweck anderweitiger Benutzung
 41
0.8
  7
TEXT20
100
AcDbText
  0
TEXT
  5
917
330
8B7
100
AcDbEntity
  8
KOPF
100
AcDbText
 10
-33.7904806989385
 20
30.30982488917614
 30
0.0
 40
1.54
  1
Schutzvermerk nach DIN 34 beachten
 41
0.75
  7
TEXT20
100
AcDbText
  0
LINE
  5
918
330
8B7
100
AcDbEntity
  8
KOPF
100
AcDbLine
 10
-34.94281200000012
 20
47.01203199999999
 30
0.0
 11
-34.94281200000012
 21
27.0
 31
0.0
  0
LINE
  5
919
330
8B7
100
AcDbEntity
  8
KOPF
100
AcDbLine
 10
-34.94281200000012
 20
47.01203199999999
 30
0.0
 11
-34.94281200000012
 21
27.0
 31
0.0
  0
LINE
  5
91A
330
8B7
100
AcDbEntity
  8
MITTE
100
AcDbLine
 10
-45.85521401410288
 20
36.04852954632858
 30
0.0
 11
-35.23444858652557
 21
36.04852954632858
 31
0.0
  0
LINE
  5
91B
330
8B7
100
AcDbEntity
  8
TEXT50
100
AcDbLine
 10
-45.05865660703466
 20
32.02559619470341
 30
0.0
 11
-36.50894043783512
 21
34.06858135367652
 31
0.0
  0
LINE
  5
91C
330
8B7
100
AcDbEntity
  8
TEXT50
100
AcDbLine
 10
-36.50894043783512
 20
38.02847773898061
 30
0.0
 11
-45.05865660703466
 21
40.07146289795374
 31
0.0
  0
TEXT
  5
91D
330
8B7
100
AcDbEntity
  8
KOPF
100
AcDbText
 10
-57.12244047883302
 20
43.82431699999997
 30
0.0
 40
2.0
  1
Projektion: ISO-E
 41
0.8
  7
TEXT20
100
AcDbText
  0
LINE
  5
91E
330
8B7
100
AcDbEntity
  8
TEXT50
100
AcDbLine
 10
-45.05865660703466
 20
40.07146289795374
 30
0.0
 11
-45.05865660703466
 21
32.02559619470346
 31
0.0
  0
LINE
  5
91F
330
8B7
100
AcDbEntity
  8
MITTE
100
AcDbLine
 10
-51.4945506424383
 20
40.07146289795374
 30
0.0
 11
-51.4945506424383
 21
30.76413131482123
 31
0.0
  0
CIRCLE
  5
920
330
8B7
100
AcDbEntity
  8
TEXT50
100
AcDbCircle
 10
-51.4945506424383
 20
36.04852954632858
 30
0.0
 40
4.022933351625178
  0
CIRCLE
  5
921
330
8B7
100
AcDbEntity
  8
TEXT50
100
AcDbCircle
 10
-51.4945506424383
 20
36.04852954632858
 30
0.0
 40
1.979948192651899
  0
LINE
  5
922
330
8B7
100
AcDbEntity
  8
MITTE
100
AcDbLine
 10
-56.48631039339965
 20
36.04852954632858
 30
0.0
 11
-46.50279089147699
 21
36.04852954632858
 31
0.0
  0
LINE
  5
923
330
8B7
100
AcDbEntity
  8
TEXT50
100
AcDbLine
 10
-36.50894043783512
 20
38.02847773898061
 30
0.0
 11
-36.50894043783512
 21
34.06858135367652
 31
0.0
  0
LWPOLYLINE
  5
924
330
8B7
100
AcDbEntity
  8
KOPF
 62
    12
100
AcDbPolyline
 90
        2
 70
     0
 43
0.5
 10
-12.0
 20
27.0
 10
-12.0
 20
10.0
  0
LINE
  5
925
330
8B7
100
AcDbEntity
  8
KOPF
100
AcDbLine
 10
-12.0
 20
27.0
 30
0.0
 11
-12.0
 21
10.0
 31
0.0
  0
ATTDEF
  5
926
330
8B7
100
AcDbEntity
  8
TEXT50
100
AcDbText
 10
-5.58570360403041
 20
17.00587824180555
 30
0.0
 40
5.0
  1

 41
0.8
  7
TEXT50
 72
     4
 11
-5.58570360403041
 21
17.00587824180555
 31
0.0
100
AcDbAttributeDefinition
  3
Index:
  2
F1B
 70
     0
  0
TEXT
  5
927
330
8B7
100
AcDbEntity
  8
KOPF
100
AcDbText
 10
-8.353129999999964
 20
23.330072
 30
0.0
 40
2.0
  1
Index
 41
0.8
  7
TEXT20
100
AcDbText
  0
TEXT
  5
928
330
8B7
100
AcDbEntity
  8
KOPF
100
AcDbText
 10
-94.40535829344495
 20
70.39773773357916
 30
0.0
 40
2.0
  1
Benennung
 41
0.8
  7
TEXT20
100
AcDbText
  0
LINE
  5
929
330
8B7
100
AcDbEntity
  8
KOPF
100
AcDbLine
 10
-15.0
 20
88.49999999999996
 30
0.0
 11
-15.0
 21
68.49999999999997
 31
0.0
  0
LINE
  5
92A
330
8B7
100
AcDbEntity
  8
KOPF
100
AcDbLine
 10
-15.0
 20
88.49999999999996
 30
0.0
 11
-15.0
 21
68.49999999999997
 31
0.0
  0
TEXT
  5
92B
330
8B7
100
AcDbEntity
  8
KOPF
100
AcDbText
 10
-11.65833600000008
 20
69.53813999999997
 30
0.0
 40
2.0
  1
Name
 41
0.8
  7
TEXT20
100
AcDbText
  0
TEXT
  5
92C
330
8B7
100
AcDbEntity
  8
KOPF
100
AcDbText
 10
-11.65833600000008
 20
69.53813999999997
 30
0.0
 40
2.0
  1
Name
 41
0.8
  7
TEXT20
100
AcDbText
  0
ATTDEF
  5
92D
330
8B7
100
AcDbEntity
  8
TEXT25
100
AcDbText
 10
-13.39999999999998
 20
74.90000000000001
 30
0.0
 40
2.0
  1

 41
0.8
  7
TEXT20
100
AcDbAttributeDefinition
  3
Name vv.:
  2
F75
 70
     0
  0
ATTDEF
  5
92E
330
8B7
100
AcDbEntity
  8
TEXT25
100
AcDbText
 10
-13.39999999999998
 20
79.7
 30
0.0
 40
2.0
  1

 41
0.8
  7
TEXT20
100
AcDbAttributeDefinition
  3
Name v.:
  2
F71
 70
     0
  0
ATTDEF
  5
92F
330
8B7
100
AcDbEntity
  8
TEXT25
100
AcDbText
 10
-13.31006638105163
 20
84.29999999999997
 30
0.0
 40
2.0
  1

 41
0.8
  7
TEXT20
100
AcDbAttributeDefinition
  3
Name l.:
  2
F67
 70
     0
  0
LINE
  5
930
330
8B7
100
AcDbEntity
  8
KOPF
100
AcDbLine
 10
-182.0
 20
36.99999999999997
 30
0.0
 11
-113.4
 21
36.99999999999997
 31
0.0
  0
LINE
  5
931
330
8B7
100
AcDbEntity
  8
KOPF
100
AcDbLine
 10
-182.0
 20
31.99999999999997
 30
0.0
 11
-113.4
 21
31.99999999999997
 31
0.0
  0
MTEXT
  5
932
330
8B7
100
AcDbEntity
  8
Sperrlayer
 62
     1
100
AcDbMText
 10
-166.0749851709908
 20
9.027899370527848
 30
0.0
 40
10.0
 41
771.0
 71
     1
 72
     5
  1
VORABZUG - nicht FREIGEGEBEN !
  7
TEXT20
 11
0.8660254037844387
 21
0.5
 31
0.0
 73
     1
 44
1.0
  0
ATTDEF
  5
933
330
8B7
100
AcDbEntity
  8
AM_BOR
 62
     2
370
    35
100
AcDbText
 10
-100.7395275842899
 20
38.58583043117892
 30
0.0
 40
3.0
  1
-
 72
     1
 11
-99.68952758428995
 21
38.58583043117892
 31
0.0
100
AcDbAttributeDefinition
  3
Maßstab
  2
GEN-TITLE-SCA{5.42}
 70
     0
1001
GENIUS_GENTRA_14
1002
{
1070
     3
1000
GENTRAPR,%s,(GENMSG gendwg 83)
1000
Maßstab
1000
DEU
1070
     0
1070
     0
1002
}
  0
TEXT
  5
934
330
8B7
100
AcDbEntity
  8
0N
100
AcDbText
 10
-180.0433753026868
 20
97.1601209888692
 30
0.0
 40
3.5
  1
Zeichnungen größer darstellenden Maßstabes bzw. Einzelteilzeichnungen
 41
0.9
100
AcDbText
  0
TEXT
  5
935
330
8B7
100
AcDbEntity
  8
0N
100
AcDbText
 10
-180.0433753026868
 20
91.14471067045299
 30
0.0
 40
3.5
  1
haben vorrangige Gültigkeit
 41
0.9
100
AcDbText
  0
LINE
  5
936
330
8B7
100
AcDbEntity
  8
KOPF
 62
    12
100
AcDbLine
 10
0.0
 20
103.4999999999999
 30
0.0
 11
-182.0
 21
103.4999999999999
 31
0.0
  0
LINE
  5
937
330
8B7
100
AcDbEntity
  8
KOPF
100
AcDbLine
 10
0.0
 20
103.4999999999999
 30
0.0
 11
-182.0
 21
103.4999999999999
 31
0.0
  0
TEXT
  5
938
330
8B7
100
AcDbEntity
  8
0N
100
AcDbText
 10
-50.10402338551751
 20
63.31558948216224
 30
0.0
 40
3.5
  1
ACO Haustechnik
  7
Anschrift
100
AcDbText
  0
TEXT
  5
939
330
8B7
100
AcDbEntity
  8
KOPF
100
AcDbText
 10
-49.87580542490343
 20
59.20935299973598
 30
0.0
 40
2.0
  1
ACO Passavant GmbH
  7
Anschrift
100
AcDbText
  0
TEXT
  5
93A
330
8B7
100
AcDbEntity
  8
KOPF
100
AcDbText
 10
-49.87580542490343
 20
55.94457150873338
 30
0.0
 40
2.0
  1
Ulsterstrasse 3
  7
Anschrift
100
AcDbText
  0
TEXT
  5
93B
330
8B7
100
AcDbEntity
  8
KOPF
100
AcDbText
 10
-49.87580542490343
 20
52.67979001773086
 30
0.0
 40
2.0
  1
36269 Philippsthal
  7
Anschrift
100
AcDbText
  0
TEXT
  5
93C
330
8B7
100
AcDbEntity
  8
KOPF
100
AcDbText
 10
-49.87580542490343
 20
49.41500852672827
 30
0.0
 40
2.0
  1
www.aco-haustechnik.de
  7
Anschrift
100
AcDbText
  0
INSERT
  5
93D
330
8B7
100
AcDbEntity
  8
AM_8
100
AcDbBlockReference
  2
ACO-logo
 10
-83.08258794978348
 20
48.74510936116704
 30
0.0
 41
1.32
 42
1.31999999999999
 43
1.32
  0
ENDBLK
  5
941
330
8B7
100
AcDbEntity
  8
0
100
AcDbBlockEnd
  0
BLOCK
  5
995
330
994
100
AcDbEntity
  8
0
100
AcDbBlockBegin
  2
*D7
 70
     1
 10
0.0
 20
0.0
 30
0.0
  3
*D7
  1

  0
LINE
  5
C96
330
994
100
AcDbEntity
  8
5
 62
     3
370
    -2
100
AcDbLine
 10
57.50037731167871
 20
383.2687251026905
 30
0.0
 11
57.50037731167871
 21
410.1855873072582
 31
0.0
  0
LINE
  5
C97
330
994
100
AcDbEntity
  8
5
 62
     3
370
    -2
100
AcDbLine
 10
216.5003773116787
 20
383.2687251026905
 30
0.0
 11
216.5003773116787
 21
410.1855873072582
 31
0.0
  0
LINE
  5
C98
330
994
100
AcDbEntity
  8
5
 62
     3
370
    -2
100
AcDbLine
 10
67.5003773116787
 20
400.1855873072583
 30
0.0
 11
206.5003773116787
 21
400.1855873072583
 31
0.0
  0
SOLID
  5
C99
330
994
100
AcDbEntity
  8
5
 62
     3
100
AcDbTrace
 10
67.5003773116787
 20
401.8522539739247
 30
0.0
 11
67.5003773116787
 21
398.5189206405917
 31
0.0
 12
57.50037731167871
 22
400.1855873072583
 32
0.0
 13
57.50037731167871
 23
400.1855873072583
 33
0.0
  0
SOLID
  5
C9A
330
994
100
AcDbEntity
  8
5
 62
     3
100
AcDbTrace
 10
206.5003773116787
 20
401.8522539739247
 30
0.0
 11
206.5003773116787
 21
398.5189206405917
 31
0.0
 12
216.5003773116787
 22
400.1855873072583
 32
0.0
 13
216.5003773116787
 23
400.1855873072583
 33
0.0
  0
MTEXT
  5
C9B
330
994
100
AcDbEntity
  8
5
 62
     2
100
AcDbMText
 10
137.0003773116787
 20
411.6855873072583
 30
0.0
 40
15.0
 41
0.0
 71
     5
 72
     1
  1
158
 73
     1
 44
1.0
  0
POINT
  5
C9C
330
994
100
AcDbEntity
  8
Defpoints
 62
     0
100
AcDbPoint
 10
57.50037731167871
 20
373.2687251026905
 30
0.0
  0
POINT
  5
C9D
330
994
100
AcDbEntity
  8
Defpoints
 62
     0
100
AcDbPoint
 10
216.5003773116787
 20
373.2687251026905
 30
0.0
  0
POINT
  5
C9E
330
994
100
AcDbEntity
  8
Defpoints
 62
     0
100
AcDbPoint
 10
216.5003773116787
 20
400.1855873072583
 30
0.0
  0
ENDBLK
  5
996
330
994
100
AcDbEntity
  8
0
100
AcDbBlockEnd
  0
BLOCK
  5
9C0
330
9BF
100
AcDbEntity
  8
0
100
AcDbBlockBegin
  2
*D8
 70
     1
 10
0.0
 20
0.0
 30
0.0
  3
*D8
  1

  0
LINE
  5
D82
330
9BF
100
AcDbEntity
  8
5
 62
     3
370
    -2
100
AcDbLine
 10
218.5003773116787
 20
263.2687251026905
 30
0.0
 11
258.0894410417398
 21
263.2687251026905
 31
0.0
  0
LINE
  5
D83
330
9BF
100
AcDbEntity
  8
5
 62
     3
370
    -2
100
AcDbLine
 10
218.5003773116787
 20
381.2687251026905
 30
0.0
 11
258.0894410417398
 21
381.2687251026905
 31
0.0
  0
LINE
  5
D84
330
9BF
100
AcDbEntity
  8
5
 62
     3
370
    -2
100
AcDbLine
 10
248.0894410417398
 20
273.2687251026905
 30
0.0
 11
248.0894410417398
 21
371.2687251026905
 31
0.0
  0
SOLID
  5
D85
330
9BF
100
AcDbEntity
  8
5
 62
     3
100
AcDbTrace
 10
246.4227743750731
 20
273.2687251026905
 30
0.0
 11
249.7561077084064
 21
273.2687251026905
 31
0.0
 12
248.0894410417398
 22
263.2687251026905
 32
0.0
 13
248.0894410417398
 23
263.2687251026905
 33
0.0
  0
SOLID
  5
D86
330
9BF
100
AcDbEntity
  8
5
 62
     3
100
AcDbTrace
 10
246.4227743750731
 20
371.2687251026905
 30
0.0
 11
249.7561077084065
 21
371.2687251026905
 31
0.0
 12
248.0894410417398
 22
381.2687251026905
 32
0.0
 13
248.0894410417398
 23
381.2687251026905
 33
0.0
  0
MTEXT
  5
D87
330
9BF
100
AcDbEntity
  8
5
 62
     2
100
AcDbMText
 10
236.5894410417397
 20
322.2687251026906
 30
0.0
 40
15.0
 41
0.0
 71
     5
 72
     1
  1
118
 11
0.0000000000000001
 21
1.0
 31
0.0
 73
     1
 44
1.0
  0
POINT
  5
D88
330
9BF
100
AcDbEntity
  8
Defpoints
 62
     0
100
AcDbPoint
 10
208.5003773116787
 20
263.2687251026905
 30
0.0
  0
POINT
  5
D89
330
9BF
100
AcDbEntity
  8
Defpoints
 62
     0
100
AcDbPoint
 10
208.5003773116787
 20
381.2687251026905
 30
0.0
  0
POINT
  5
D8A
330
9BF
100
AcDbEntity
  8
Defpoints
 62
     0
100
AcDbPoint
 10
248.0894410417398
 20
381.2687251026905
 30
0.0
  0
ENDBLK
  5
9C1
330
9BF
100
AcDbEntity
  8
0
100
AcDbBlockEnd
  0
BLOCK
  5
9EA
330
9E9
100
AcDbEntity
  8
0
100
AcDbBlockBegin
  2
*D9
 70
     1
 10
0.0
 20
0.0
 30
0.0
  3
*D9
  1

  0
LINE
  5
D94
330
9E9
100
AcDbEntity
  8
5
 62
     3
370
    -2
100
AcDbLine
 10
133.0146815589787
 20
179.9646568770456
 30
0.0
 11
168.5494747366736
 21
179.9646568770456
 31
0.0
  0
LINE
  5
D95
330
9E9
100
AcDbEntity
  8
5
 62
     3
370
    -2
100
AcDbLine
 10
133.0146815589787
 20
105.9646568770457
 30
0.0
 11
168.5494747366736
 21
105.9646568770457
 31
0.0
  0
LINE
  5
D96
330
9E9
100
AcDbEntity
  8
5
 62
     3
370
    -2
100
AcDbLine
 10
158.5494747366736
 20
169.9646568770456
 30
0.0
 11
158.5494747366736
 21
115.9646568770457
 31
0.0
  0
SOLID
  5
D97
330
9E9
100
AcDbEntity
  8
5
 62
     3
100
AcDbTrace
 10
156.8828080700069
 20
169.9646568770456
 30
0.0
 11
160.2161414033401
 21
169.9646568770456
 31
0.0
 12
158.5494747366736
 22
179.9646568770456
 32
0.0
 13
158.5494747366736
 23
179.9646568770456
 33
0.0
  0
SOLID
  5
D98
330
9E9
100
AcDbEntity
  8
5
 62
     3
100
AcDbTrace
 10
156.8828080700069
 20
115.9646568770457
 30
0.0
 11
160.2161414033401
 21
115.9646568770457
 31
0.0
 12
158.5494747366736
 22
105.9646568770457
 32
0.0
 13
158.5494747366736
 23
105.9646568770457
 33
0.0
  0
MTEXT
  5
D99
330
9E9
100
AcDbEntity
  8
5
 62
     2
100
AcDbMText
 10
147.0494747366736
 20
142.9646568770457
 30
0.0
 40
15.0
 41
0.0
 71
     5
 72
     1
  1
74
 11
0.0000000000000001
 21
1.0
 31
0.0
 73
     1
 44
1.0
  0
POINT
  5
D9A
330
9E9
100
AcDbEntity
  8
Defpoints
 62
     0
100
AcDbPoint
 10
123.0146815589787
 20
179.9646568770456
 30
0.0
  0
POINT
  5
D9B
330
9E9
100
AcDbEntity
  8
Defpoints
 62
     0
100
AcDbPoint
 10
123.0146815589787
 20
105.9646568770457
 30
0.0
  0
POINT
  5
D9C
330
9E9
100
AcDbEntity
  8
Defpoints
 62
     0
100
AcDbPoint
 10
158.5494747366736
 20
105.9646568770457
 30
0.0
  0
ENDBLK
  5
9EB
330
9E9
100
AcDbEntity
  8
0
100
AcDbBlockEnd
  0
BLOCK
  5
A0B
330
A0A
100
AcDbEntity
  8
0
100
AcDbBlockBegin
  2
*D10
 70
     1
 10
0.0
 20
0.0
 30
0.0
  3
*D10
  1

  0
LINE
  5
D9D
330
A0A
100
AcDbEntity
  8
5
 62
     3
370
    -2
100
AcDbLine
 10
70.51468155897869
 20
96.46465687704573
 30
0.0
 11
70.51468155897869
 21
61.13575908091343
 31
0.0
  0
LINE
  5
D9E
330
A0A
100
AcDbEntity
  8
5
 62
     3
370
    -2
100
AcDbLine
 10
123.5146815589787
 20
96.46465687704573
 30
0.0
 11
123.5146815589787
 21
61.13575908091343
 31
0.0
  0
LINE
  5
D9F
330
A0A
100
AcDbEntity
  8
5
 62
     3
370
    -2
100
AcDbLine
 10
80.5146815589787
 20
71.13575908091346
 30
0.0
 11
113.5146815589787
 21
71.13575908091346
 31
0.0
  0
SOLID
  5
DA0
330
A0A
100
AcDbEntity
  8
5
 62
     3
100
AcDbTrace
 10
80.5146815589787
 20
72.80242574758009
 30
0.0
 11
80.5146815589787
 21
69.46909241424676
 31
0.0
 12
70.51468155897869
 22
71.13575908091346
 32
0.0
 13
70.51468155897869
 23
71.13575908091346
 33
0.0
  0
SOLID
  5
DA1
330
A0A
100
AcDbEntity
  8
5
 62
     3
100
AcDbTrace
 10
113.5146815589787
 20
72.80242574758009
 30
0.0
 11
113.5146815589787
 21
69.46909241424676
 31
0.0
 12
123.5146815589787
 22
71.13575908091346
 32
0.0
 13
123.5146815589787
 23
71.13575908091346
 33
0.0
  0
MTEXT
  5
DA2
330
A0A
100
AcDbEntity
  8
5
 62
     2
100
AcDbMText
 10
97.0146815589787
 20
82.63575908091345
 30
0.0
 40
15.0
 41
0.0
 71
     5
 72
     1
  1
53
 73
     1
 44
1.0
  0
POINT
  5
DA3
330
A0A
100
AcDbEntity
  8
Defpoints
 62
     0
100
AcDbPoint
 10
70.51468155897869
 20
106.4646568770457
 30
0.0
  0
POINT
  5
DA4
330
A0A
100
AcDbEntity
  8
Defpoints
 62
     0
100
AcDbPoint
 10
123.5146815589787
 20
106.4646568770457
 30
0.0
  0
POINT
  5
DA5
330
A0A
100
AcDbEntity
  8
Defpoints
 62
     0
100
AcDbPoint
 10
123.5146815589787
 20
71.13575908091346
 30
0.0
  0
ENDBLK
  5
A0C
330
A0A
100
AcDbEntity
  8
0
100
AcDbBlockEnd
  0
BLOCK
  5
A35
330
A34
100
AcDbEntity
  8
0
100
AcDbBlockBegin
  2
*D11
 70
     1
 10
0.0
 20
0.0
 30
0.0
  3
*D11
  1

  0
LINE
  5
CD0
330
A34
100
AcDbEntity
  8
5
 62
     3
370
    -2
100
AcDbLine
 10
342.8255523570288
 20
96.46465687704573
 30
0.0
 11
342.8255523570288
 21
69.42426960098678
 31
0.0
  0
LINE
  5
CD1
330
A34
100
AcDbEntity
  8
5
 62
     3
370
    -2
100
AcDbLine
 10
359.8255523570287
 20
95.9646568770457
 30
0.0
 11
359.8255523570287
 21
69.42426960098678
 31
0.0
  0
LINE
  5
CD2
330
A34
100
AcDbEntity
  8
5
 62
     3
370
    -2
100
AcDbLine
 10
332.8255523570288
 20
79.42426960098678
 30
0.0
 11
322.8255523570288
 21
79.42426960098678
 31
0.0
  0
LINE
  5
CD3
330
A34
100
AcDbEntity
  8
5
 62
     3
370
    -2
100
AcDbLine
 10
369.8255523570286
 20
79.42426960098678
 30
0.0
 11
402.0696468452174
 21
79.42426960098678
 31
0.0
  0
LINE
  5
CD4
330
A34
100
AcDbEntity
  8
5
 62
     3
370
    -2
100
AcDbLine
 10
342.8255523570288
 20
79.42426960098678
 30
0.0
 11
359.8255523570287
 21
79.42426960098678
 31
0.0
  0
SOLID
  5
CD5
330
A34
100
AcDbEntity
  8
5
 62
     3
100
AcDbTrace
 10
332.8255523570288
 20
81.09093626765348
 30
0.0
 11
332.8255523570288
 21
77.75760293432012
 31
0.0
 12
342.8255523570288
 22
79.42426960098678
 32
0.0
 13
342.8255523570288
 23
79.42426960098678
 33
0.0
  0
SOLID
  5
CD6
330
A34
100
AcDbEntity
  8
5
 62
     3
100
AcDbTrace
 10
369.8255523570286
 20
81.09093626765348
 30
0.0
 11
369.8255523570286
 21
77.75760293432012
 31
0.0
 12
359.8255523570287
 22
79.42426960098678
 32
0.0
 13
359.8255523570287
 23
79.42426960098678
 33
0.0
  0
MTEXT
  5
CD7
330
A34
100
AcDbEntity
  8
5
 62
     2
100
AcDbMText
 10
390.9475996011231
 20
90.92426960098681
 30
0.0
 40
15.0
 41
0.0
 71
     5
 72
     1
  1
16
 73
     1
 44
1.0
  0
POINT
  5
CD8
330
A34
100
AcDbEntity
  8
Defpoints
 62
     0
100
AcDbPoint
 10
342.8255523570288
 20
106.4646568770457
 30
0.0
  0
POINT
  5
CD9
330
A34
100
AcDbEntity
  8
Defpoints
 62
     0
100
AcDbPoint
 10
359.8255523570287
 20
105.9646568770457
 30
0.0
  0
POINT
  5
CDA
330
A34
100
AcDbEntity
  8
Defpoints
 62
     0
100
AcDbPoint
 10
359.8255523570287
 20
79.42426960098678
 30
0.0
  0
ENDBLK
  5
A36
330
A34
100
AcDbEntity
  8
0
100
AcDbBlockEnd
  0
BLOCK
  5
A56
330
A55
100
AcDbEntity
  8
0
100
AcDbBlockBegin
  2
*D12
 70
     1
 10
0.0
 20
0.0
 30
0.0
  3
*D12
  1

  0
LINE
  5
D61
330
A55
100
AcDbEntity
  8
5
 62
     3
370
    -2
100
AcDbLine
 10
342.8255523570288
 20
96.46465687704573
 30
0.0
 11
342.8255523570288
 21
45.02765732653482
 31
0.0
  0
LINE
  5
D62
330
A55
100
AcDbEntity
  8
5
 62
     3
370
    -2
100
AcDbLine
 10
364.8255523570288
 20
62.26410629424027
 30
0.0
 11
364.8255523570288
 21
45.02765732653482
 31
0.0
  0
LINE
  5
D63
330
A55
100
AcDbEntity
  8
5
 62
     3
370
    -2
100
AcDbLine
 10
332.8255523570288
 20
55.02765732653482
 30
0.0
 11
322.8255523570288
 21
55.02765732653482
 31
0.0
  0
LINE
  5
D64
330
A55
100
AcDbEntity
  8
5
 62
     3
370
    -2
100
AcDbLine
 10
374.8255523570288
 20
55.02765732653482
 30
0.0
 11
410.3277782123995
 21
55.02765732653482
 31
0.0
  0
LINE
  5
D65
330
A55
100
AcDbEntity
  8
5
 62
     3
370
    -2
100
AcDbLine
 10
342.8255523570288
 20
55.02765732653482
 30
0.0
 11
364.8255523570288
 21
55.02765732653482
 31
0.0
  0
SOLID
  5
D66
330
A55
100
AcDbEntity
  8
5
 62
     3
100
AcDbTrace
 10
332.8255523570288
 20
56.6943239932015
 30
0.0
 11
332.8255523570288
 21
53.36099065986817
 31
0.0
 12
342.8255523570288
 22
55.02765732653482
 32
0.0
 13
342.8255523570288
 23
55.02765732653482
 33
0.0
  0
SOLID
  5
D67
330
A55
100
AcDbEntity
  8
5
 62
     3
100
AcDbTrace
 10
374.8255523570288
 20
56.6943239932015
 30
0.0
 11
374.8255523570288
 21
53.36099065986817
 31
0.0
 12
364.8255523570288
 22
55.02765732653482
 32
0.0
 13
364.8255523570288
 23
55.02765732653482
 33
0.0
  0
MTEXT
  5
D68
330
A55
100
AcDbEntity
  8
5
 62
     2
100
AcDbMText
 10
397.5766652847141
 20
66.52913370448759
 30
0.0
 40
15.0
 41
0.0
 71
     5
 72
     1
  1
23
 73
     1
 44
1.0
  0
POINT
  5
D69
330
A55
100
AcDbEntity
  8
Defpoints
 62
     0
100
AcDbPoint
 10
342.8255523570288
 20
106.4646568770457
 30
0.0
  0
POINT
  5
D6A
330
A55
100
AcDbEntity
  8
Defpoints
 62
     0
100
AcDbPoint
 10
364.8255523570288
 20
72.26410629424027
 30
0.0
  0
POINT
  5
D6B
330
A55
100
AcDbEntity
  8
Defpoints
 62
     0
100
AcDbPoint
 10
364.8255523570288
 20
55.02765732653482
 30
0.0
  0
ENDBLK
  5
A57
330
A55
100
AcDbEntity
  8
0
100
AcDbBlockEnd
  0
BLOCK
  5
A77
330
A76
100
AcDbEntity
  8
0
100
AcDbBlockBegin
  2
*D13
 70
     1
 10
0.0
 20
0.0
 30
0.0
  3
*D13
  1

  0
LINE
  5
C9F
330
A76
100
AcDbEntity
  8
5
 62
     3
370
    -2
100
AcDbLine
 10
326.3286066363489
 20
388.2687251026905
 30
0.0
 11
326.3286066363489
 21
411.7687251026905
 31
0.0
  0
LINE
  5
CA0
330
A76
100
AcDbEntity
  8
5
 62
     3
370
    -2
100
AcDbLine
 10
403.3286066363488
 20
385.7687251026905
 30
0.0
 11
403.3286066363488
 21
411.7687251026905
 31
0.0
  0
LINE
  5
CA1
330
A76
100
AcDbEntity
  8
5
 62
     3
370
    -2
100
AcDbLine
 10
336.3286066363489
 20
401.7687251026902
 30
0.0
 11
393.3286066363489
 21
401.7687251026902
 31
0.0
  0
SOLID
  5
CA2
330
A76
100
AcDbEntity
  8
5
 62
     3
100
AcDbTrace
 10
336.3286066363489
 20
403.4353917693572
 30
0.0
 11
336.3286066363489
 21
400.1020584360237
 31
0.0
 12
326.3286066363489
 22
401.7687251026902
 32
0.0
 13
326.3286066363489
 23
401.7687251026902
 33
0.0
  0
SOLID
  5
CA3
330
A76
100
AcDbEntity
  8
5
 62
     3
100
AcDbTrace
 10
393.3286066363489
 20
403.4353917693572
 30
0.0
 11
393.3286066363489
 21
400.1020584360237
 31
0.0
 12
403.3286066363488
 22
401.7687251026902
 32
0.0
 13
403.3286066363488
 23
401.7687251026902
 33
0.0
  0
MTEXT
  5
CA4
330
A76
100
AcDbEntity
  8
5
 62
     2
100
AcDbMText
 10
364.8286066363489
 20
413.2687251026903
 30
0.0
 40
15.0
 41
0.0
 71
     5
 72
     1
  1
76
 73
     1
 44
1.0
  0
POINT
  5
CA5
330
A76
100
AcDbEntity
  8
Defpoints
 62
     0
100
AcDbPoint
 10
326.3286066363489
 20
378.2687251026905
 30
0.0
  0
POINT
  5
CA6
330
A76
100
AcDbEntity
  8
Defpoints
 62
     0
100
AcDbPoint
 10
403.3286066363488
 20
375.7687251026905
 30
0.0
  0
POINT
  5
CA7
330
A76
100
AcDbEntity
  8
Defpoints
 62
     0
100
AcDbPoint
 10
403.3286066363488
 20
401.7687251026902
 30
0.0
  0
ENDBLK
  5
A78
330
A76
100
AcDbEntity
  8
0
100
AcDbBlockEnd
  0
ENDSEC
  0
SECTION
  2
ENTITIES
  0
LINE
  5
609
330
1F
100
AcDbEntity
  8
0
  6
Continuous
 62
     7
100
AcDbLine
 10
68.00037731167872
 20
372.0007759102906
 30
0.0
 11
66.50037731167872
 21
371.1347505064905
 31
0.0
  0
LINE
  5
60A
330
1F
100
AcDbEntity
  8
0
  6
Continuous
 62
     7
100
AcDbLine
 10
67.13435190787871
 20
369.7687251026905
 30
0.0
 11
66.50037731167872
 21
369.4026996988906
 31
0.0
  0
LINE
  5
60B
330
1F
100
AcDbEntity
  8
0
  6
Continuous
 62
     7
100
AcDbLine
 10
68.86640271547872
 20
370.7687251026905
 30
0.0
 11
69.50037731167872
 21
371.1347505064905
 31
0.0
  0
LINE
  5
60C
330
1F
100
AcDbEntity
  8
0
  6
Continuous
 62
     7
100
AcDbLine
 10
68.00037731167872
 20
368.5366742951905
 30
0.0
 11
69.50037731167872
 21
369.4026996988906
 31
0.0
  0
LINE
  5
60D
330
1F
100
AcDbEntity
  8
RUNDUNGEN
  6
Continuous
 62
     7
100
AcDbLine
 10
57.50037731167871
 20
373.2687251026905
 30
0.0
 11
57.50037731167871
 21
271.2687251026905
 31
0.0
  0
LINE
  5
60E
330
1F
100
AcDbEntity
  8
RUNDUNGEN
  6
Continuous
 62
     9
100
AcDbLine
 10
58.00037731167871
 20
373.2687251026905
 30
0.0
 11
58.00037731167871
 21
271.2687251026905
 31
0.0
  0
LINE
  5
60F
330
1F
100
AcDbEntity
  8
RUNDUNGEN
  6
Continuous
 62
     9
100
AcDbLine
 10
62.00037731167871
 20
370.2687251026905
 30
0.0
 11
62.00037731167871
 21
274.2687251026905
 31
0.0
  0
LINE
  5
610
330
1F
100
AcDbEntity
  8
RUNDUNGEN
  6
Continuous
 62
     7
100
AcDbLine
 10
62.50037731167871
 20
274.2687251026905
 30
0.0
 11
62.50037731167871
 21
370.2687251026905
 31
0.0
  0
LINE
  5
611
330
1F
100
AcDbEntity
  8
RUNDUNGEN
  6
Continuous
 62
     9
100
AcDbLine
 10
63.00037731167871
 20
370.2687251026905
 30
0.0
 11
63.00037731167871
 21
274.2687251026905
 31
0.0
  0
LINE
  5
612
330
1F
100
AcDbEntity
  8
0
  6
Continuous
 62
     7
100
AcDbLine
 10
206.0003773116787
 20
372.0007759102906
 30
0.0
 11
204.5003773116787
 21
371.1347505064905
 31
0.0
  0
LINE
  5
613
330
1F
100
AcDbEntity
  8
0
  6
Continuous
 62
     7
100
AcDbLine
 10
205.1343519078787
 20
369.7687251026905
 30
0.0
 11
204.5003773116787
 21
369.4026996988906
 31
0.0
  0
LINE
  5
614
330
1F
100
AcDbEntity
  8
0
  6
Continuous
 62
     7
100
AcDbLine
 10
206.8664027154787
 20
370.7687251026905
 30
0.0
 11
207.5003773116787
 21
371.1347505064905
 31
0.0
  0
LINE
  5
615
330
1F
100
AcDbEntity
  8
0
  6
Continuous
 62
     7
100
AcDbLine
 10
206.0003773116787
 20
368.5366742951905
 30
0.0
 11
207.5003773116787
 21
369.4026996988906
 31
0.0
  0
LINE
  5
616
330
1F
100
AcDbEntity
  8
RUNDUNGEN
  6
Continuous
 62
     9
100
AcDbLine
 10
65.50037731167872
 20
263.7687251026905
 30
0.0
 11
65.50037731167872
 21
263.2687251026905
 31
0.0
  0
LINE
  5
617
330
1F
100
AcDbEntity
  8
RUNDUNGEN
  6
Continuous
 62
     9
100
AcDbLine
 10
65.50037731167872
 20
380.7687251026905
 30
0.0
 11
65.50037731167872
 21
381.2687251026905
 31
0.0
  0
LINE
  5
618
330
1F
100
AcDbEntity
  8
0
  6
Continuous
 62
     7
100
AcDbLine
 10
66.50037731167872
 20
371.1347505064905
 30
0.0
 11
66.50037731167872
 21
369.4026996988906
 31
0.0
  0
LINE
  5
619
330
1F
100
AcDbEntity
  8
0
  6
Continuous
 62
     7
100
AcDbLine
 10
66.50037731167872
 20
275.1347505064905
 30
0.0
 11
66.50037731167872
 21
273.4026996988906
 31
0.0
  0
LINE
  5
61A
330
1F
100
AcDbEntity
  8
0
  6
Continuous
 62
     7
100
AcDbLine
 10
68.00037731167872
 20
369.2687251026905
 30
0.0
 11
68.00037731167872
 21
368.5366742951905
 31
0.0
  0
LINE
  5
61B
330
1F
100
AcDbEntity
  8
0
  6
Continuous
 62
     7
100
AcDbLine
 10
68.00037731167872
 20
273.2687251026905
 30
0.0
 11
68.00037731167872
 21
272.5366742951905
 31
0.0
  0
LINE
  5
61C
330
1F
100
AcDbEntity
  8
0
  6
Continuous
 62
     7
100
AcDbLine
 10
68.00037731167872
 20
275.2687251026905
 30
0.0
 11
68.00037731167872
 21
276.0007759102905
 31
0.0
  0
LINE
  5
61D
330
1F
100
AcDbEntity
  8
0
  6
Continuous
 62
     7
100
AcDbLine
 10
68.00037731167872
 20
371.2687251026905
 30
0.0
 11
68.00037731167872
 21
372.0007759102906
 31
0.0
  0
LINE
  5
61E
330
1F
100
AcDbEntity
  8
RUNDUNGEN
  6
Continuous
 62
     9
100
AcDbLine
 10
68.50037731167872
 20
267.7687251026905
 30
0.0
 11
68.50037731167872
 21
268.7687251026905
 31
0.0
  0
LINE
  5
61F
330
1F
100
AcDbEntity
  8
RUNDUNGEN
  6
Continuous
 62
     9
100
AcDbLine
 10
68.50037731167872
 20
375.7687251026905
 30
0.0
 11
68.50037731167872
 21
376.7687251026905
 31
0.0
  0
LINE
  5
620
330
1F
100
AcDbEntity
  8
0
  6
Continuous
 62
     7
100
AcDbLine
 10
69.50037731167872
 20
273.4026996988906
 30
0.0
 11
69.50037731167872
 21
275.1347505064905
 31
0.0
  0
LINE
  5
621
330
1F
100
AcDbEntity
  8
0
  6
Continuous
 62
     7
100
AcDbLine
 10
69.50037731167872
 20
369.4026996988906
 30
0.0
 11
69.50037731167872
 21
371.1347505064905
 31
0.0
  0
LINE
  5
622
330
1F
100
AcDbEntity
  8
0
  6
Continuous
 62
     7
100
AcDbLine
 10
68.00037731167872
 20
276.0007759102905
 30
0.0
 11
66.50037731167872
 21
275.1347505064905
 31
0.0
  0
LINE
  5
623
330
1F
100
AcDbEntity
  8
0
  6
Continuous
 62
     7
100
AcDbLine
 10
67.13435190787871
 20
273.7687251026905
 30
0.0
 11
66.50037731167872
 21
273.4026996988906
 31
0.0
  0
LINE
  5
624
330
1F
100
AcDbEntity
  8
0
  6
Continuous
 62
     7
100
AcDbLine
 10
68.86640271547872
 20
274.7687251026905
 30
0.0
 11
69.50037731167872
 21
275.1347505064905
 31
0.0
  0
LINE
  5
625
330
1F
100
AcDbEntity
  8
0
  6
Continuous
 62
     7
100
AcDbLine
 10
68.00037731167872
 20
272.5366742951905
 30
0.0
 11
69.50037731167872
 21
273.4026996988906
 31
0.0
  0
LINE
  5
626
330
1F
100
AcDbEntity
  8
0
  6
Continuous
 62
     7
100
AcDbLine
 10
86.45037731167873
 20
263.2687251026905
 30
0.0
 11
86.45037731167873
 21
260.1500717547905
 31
0.0
  0
LINE
  5
627
330
1F
100
AcDbEntity
  8
0
  6
Continuous
 62
     7
100
AcDbLine
 10
86.45037731167873
 20
244.6078600263906
 30
0.0
 11
86.45037731167873
 21
254.5687251026905
 31
0.0
  0
LINE
  5
628
330
1F
100
AcDbEntity
  8
0
  6
Continuous
 62
     7
100
AcDbLine
 10
86.47898580627872
 20
244.6078600263906
 30
0.0
 11
86.47898580627872
 21
254.5687251026905
 31
0.0
  0
LINE
  5
629
330
1F
100
AcDbEntity
  8
0
  6
Continuous
 62
     7
100
AcDbLine
 10
86.47898580627872
 20
260.1500717547905
 30
0.0
 11
86.47898580627872
 21
263.2687251026905
 31
0.0
  0
LINE
  5
62A
330
1F
100
AcDbEntity
  8
0
  6
Continuous
 62
     7
100
AcDbLine
 10
87.5003773116787
 20
243.5578600263905
 30
0.0
 11
87.5003773116787
 21
242.4687251026905
 31
0.0
  0
LINE
  5
62B
330
1F
100
AcDbEntity
  8
0
  6
Continuous
 62
     7
100
AcDbLine
 10
88.40037731167873
 20
259.8687251026905
 30
0.0
 11
88.40037731167873
 21
254.5687251026905
 31
0.0
  0
LINE
  5
62C
330
1F
100
AcDbEntity
  8
0
  6
Continuous
 62
     7
100
AcDbLine
 10
95.4456448237787
 20
261.6616380665905
 30
0.0
 11
95.55778579697872
 21
261.7431132526905
 31
0.0
  0
LINE
  5
62D
330
1F
100
AcDbEntity
  8
0
  6
Continuous
 62
     7
100
AcDbLine
 10
95.76938848777873
 20
261.4518671347905
 30
0.0
 11
95.65724751457869
 21
261.3703919485906
 31
0.0
  0
LINE
  5
62E
330
1F
100
AcDbEntity
  8
0
  6
Continuous
 62
     7
100
AcDbLine
 10
91.06728614517871
 20
263.2687251026905
 30
0.0
 11
91.06728614517871
 21
260.1500717547905
 31
0.0
  0
LINE
  5
62F
330
1F
100
AcDbEntity
  8
0
  6
Continuous
 62
     7
100
AcDbLine
 10
91.06728614517871
 20
254.5687251026905
 30
0.0
 11
91.06728614517871
 21
244.6078600263906
 31
0.0
  0
LINE
  5
630
330
1F
100
AcDbEntity
  8
0
  6
Continuous
 62
     7
100
AcDbLine
 10
92.4120769727787
 20
244.6078600263906
 30
0.0
 11
92.4120769727787
 21
254.5687251026905
 31
0.0
  0
LINE
  5
631
330
1F
100
AcDbEntity
  8
0
  6
Continuous
 62
     7
100
AcDbLine
 10
92.4120769727787
 20
260.1500717547905
 30
0.0
 11
92.4120769727787
 21
263.2687251026905
 31
0.0
  0
LINE
  5
632
330
1F
100
AcDbEntity
  8
0
  6
Continuous
 62
     7
100
AcDbLine
 10
95.02037731167872
 20
263.2687251026905
 30
0.0
 11
95.02037731167872
 21
260.5887251026905
 31
0.0
  0
LINE
  5
633
330
1F
100
AcDbEntity
  8
0
  6
Continuous
 62
     7
100
AcDbLine
 10
98.98037731167871
 20
260.5887251026905
 30
0.0
 11
98.98037731167871
 21
263.2687251026905
 31
0.0
  0
LINE
  5
634
330
1F
100
AcDbEntity
  8
0
  6
Continuous
 62
     7
100
AcDbLine
 10
101.5886776505787
 20
263.2687251026905
 30
0.0
 11
101.5886776505787
 21
260.1500717547905
 31
0.0
  0
LINE
  5
635
330
1F
100
AcDbEntity
  8
0
  6
Continuous
 62
     7
100
AcDbLine
 10
101.5886776505787
 20
254.5687251026905
 30
0.0
 11
101.5886776505787
 21
244.6078600263906
 31
0.0
  0
LINE
  5
636
330
1F
100
AcDbEntity
  8
0
  6
Continuous
 62
     7
100
AcDbLine
 10
102.9334684781787
 20
244.6078600263906
 30
0.0
 11
102.9334684781787
 21
254.5687251026905
 31
0.0
  0
LINE
  5
637
330
1F
100
AcDbEntity
  8
0
  6
Continuous
 62
     7
100
AcDbLine
 10
102.9334684781787
 20
260.1500717547905
 30
0.0
 11
102.9334684781787
 21
263.2687251026905
 31
0.0
  0
LINE
  5
638
330
1F
100
AcDbEntity
  8
0
  6
Continuous
 62
     7
100
AcDbLine
 10
105.6003773116787
 20
259.8687251026905
 30
0.0
 11
105.6003773116787
 21
254.5687251026905
 31
0.0
  0
LINE
  5
639
330
1F
100
AcDbEntity
  8
0
  6
Continuous
 62
     7
100
AcDbLine
 10
106.5003773116787
 20
243.5578600263905
 30
0.0
 11
106.5003773116787
 21
242.4687251026905
 31
0.0
  0
LINE
  5
63A
330
1F
100
AcDbEntity
  8
0
  6
Continuous
 62
     7
100
AcDbLine
 10
107.5217688170787
 20
263.2687251026905
 30
0.0
 11
107.5217688170787
 21
260.1500717547905
 31
0.0
  0
LINE
  5
63B
330
1F
100
AcDbEntity
  8
0
  6
Continuous
 62
     7
100
AcDbLine
 10
107.5217688170787
 20
254.5687251026905
 30
0.0
 11
107.5217688170787
 21
244.6078600263906
 31
0.0
  0
LINE
  5
63C
330
1F
100
AcDbEntity
  8
0
  6
Continuous
 62
     7
100
AcDbLine
 10
107.5503773116787
 20
263.2687251026905
 30
0.0
 11
107.5503773116787
 21
260.1500717547905
 31
0.0
  0
LINE
  5
63D
330
1F
100
AcDbEntity
  8
0
  6
Continuous
 62
     7
100
AcDbLine
 10
107.5503773116787
 20
244.6078600263906
 30
0.0
 11
107.5503773116787
 21
254.5687251026905
 31
0.0
  0
LINE
  5
63E
330
1F
100
AcDbEntity
  8
0
  6
Continuous
 62
     7
100
AcDbLine
 10
106.5003773116787
 20
243.5578600263905
 30
0.0
 11
107.5503773116787
 21
244.6078600263906
 31
0.0
  0
LINE
  5
63F
330
1F
100
AcDbEntity
  8
0
  6
Continuous
 62
     7
100
AcDbLine
 10
135.4456448237787
 20
261.6616380665905
 30
0.0
 11
135.5577857969787
 21
261.7431132526905
 31
0.0
  0
LINE
  5
640
330
1F
100
AcDbEntity
  8
0
  6
Continuous
 62
     7
100
AcDbLine
 10
135.7693884877787
 20
261.4518671347905
 30
0.0
 11
135.6572475145787
 21
261.3703919485906
 31
0.0
  0
LINE
  5
641
330
1F
100
AcDbEntity
  8
0
  6
Continuous
 62
     7
100
AcDbLine
 10
97.38262958777873
 20
260.8097813294905
 30
0.0
 11
97.33979554757873
 21
260.9416109498905
 31
0.0
  0
LINE
  5
642
330
1F
100
AcDbEntity
  8
0
  6
Continuous
 62
     7
100
AcDbLine
 10
97.68217589337872
 20
261.0528570678905
 30
0.0
 11
97.7250099336787
 21
260.9210274474905
 31
0.0
  0
LINE
  5
643
330
1F
100
AcDbEntity
  8
0
  6
Continuous
 62
     7
100
AcDbLine
 10
126.4503773116787
 20
263.2687251026905
 30
0.0
 11
126.4503773116787
 21
260.1500717547905
 31
0.0
  0
LINE
  5
644
330
1F
100
AcDbEntity
  8
0
  6
Continuous
 62
     7
100
AcDbLine
 10
126.4503773116787
 20
244.6078600263906
 30
0.0
 11
126.4503773116787
 21
254.5687251026905
 31
0.0
  0
LINE
  5
645
330
1F
100
AcDbEntity
  8
0
  6
Continuous
 62
     7
100
AcDbLine
 10
126.4789858062787
 20
244.6078600263906
 30
0.0
 11
126.4789858062787
 21
254.5687251026905
 31
0.0
  0
LINE
  5
646
330
1F
100
AcDbEntity
  8
0
  6
Continuous
 62
     7
100
AcDbLine
 10
126.4789858062787
 20
260.1500717547905
 30
0.0
 11
126.4789858062787
 21
263.2687251026905
 31
0.0
  0
LINE
  5
647
330
1F
100
AcDbEntity
  8
0
  6
Continuous
 62
     7
100
AcDbLine
 10
127.5003773116787
 20
243.5578600263905
 30
0.0
 11
127.5003773116787
 21
242.4687251026905
 31
0.0
  0
LINE
  5
648
330
1F
100
AcDbEntity
  8
0
  6
Continuous
 62
     7
100
AcDbLine
 10
128.4003773116787
 20
259.8687251026905
 30
0.0
 11
128.4003773116787
 21
254.5687251026905
 31
0.0
  0
LINE
  5
649
330
1F
100
AcDbEntity
  8
0
  6
Continuous
 62
     7
100
AcDbLine
 10
131.0672861451787
 20
263.2687251026905
 30
0.0
 11
131.0672861451787
 21
260.1500717547905
 31
0.0
  0
LINE
  5
64A
330
1F
100
AcDbEntity
  8
0
  6
Continuous
 62
     7
100
AcDbLine
 10
131.0672861451787
 20
254.5687251026905
 30
0.0
 11
131.0672861451787
 21
244.6078600263906
 31
0.0
  0
LINE
  5
64B
330
1F
100
AcDbEntity
  8
0
  6
Continuous
 62
     7
100
AcDbLine
 10
132.4120769727787
 20
244.6078600263906
 30
0.0
 11
132.4120769727787
 21
254.5687251026905
 31
0.0
  0
LINE
  5
64C
330
1F
100
AcDbEntity
  8
0
  6
Continuous
 62
     7
100
AcDbLine
 10
132.4120769727787
 20
260.1500717547905
 30
0.0
 11
132.4120769727787
 21
263.2687251026905
 31
0.0
  0
LINE
  5
64D
330
1F
100
AcDbEntity
  8
0
  6
Continuous
 62
     7
100
AcDbLine
 10
135.0203773116787
 20
263.2687251026905
 30
0.0
 11
135.0203773116787
 21
260.5887251026905
 31
0.0
  0
LINE
  5
64E
330
1F
100
AcDbEntity
  8
0
  6
Continuous
 62
     7
100
AcDbLine
 10
138.9803773116787
 20
260.5887251026905
 30
0.0
 11
138.9803773116787
 21
263.2687251026905
 31
0.0
  0
LINE
  5
64F
330
1F
100
AcDbEntity
  8
0
  6
Continuous
 62
     7
100
AcDbLine
 10
141.5886776505787
 20
263.2687251026905
 30
0.0
 11
141.5886776505787
 21
260.1500717547905
 31
0.0
  0
LINE
  5
650
330
1F
100
AcDbEntity
  8
0
  6
Continuous
 62
     7
100
AcDbLine
 10
141.5886776505787
 20
254.5687251026905
 30
0.0
 11
141.5886776505787
 21
244.6078600263906
 31
0.0
  0
LINE
  5
651
330
1F
100
AcDbEntity
  8
0
  6
Continuous
 62
     7
100
AcDbLine
 10
146.5003773116787
 20
243.5578600263905
 30
0.0
 11
147.5503773116787
 21
244.6078600263906
 31
0.0
  0
LINE
  5
652
330
1F
100
AcDbEntity
  8
0
  6
Continuous
 62
     7
100
AcDbLine
 10
175.4456448237787
 20
261.6616380665905
 30
0.0
 11
175.5577857969787
 21
261.7431132526905
 31
0.0
  0
LINE
  5
653
330
1F
100
AcDbEntity
  8
0
  6
Continuous
 62
     7
100
AcDbLine
 10
175.7693884877787
 20
261.4518671347905
 30
0.0
 11
175.6572475145787
 21
261.3703919485906
 31
0.0
  0
LINE
  5
654
330
1F
100
AcDbEntity
  8
0
  6
Continuous
 62
     7
100
AcDbLine
 10
206.0003773116787
 20
276.0007759102905
 30
0.0
 11
204.5003773116787
 21
275.1347505064905
 31
0.0
  0
LINE
  5
655
330
1F
100
AcDbEntity
  8
0
  6
Continuous
 62
     7
100
AcDbLine
 10
205.1343519078787
 20
273.7687251026905
 30
0.0
 11
204.5003773116787
 21
273.4026996988906
 31
0.0
  0
LINE
  5
656
330
1F
100
AcDbEntity
  8
0
  6
Continuous
 62
     7
100
AcDbLine
 10
206.8664027154787
 20
274.7687251026905
 30
0.0
 11
207.5003773116787
 21
275.1347505064905
 31
0.0
  0
LINE
  5
657
330
1F
100
AcDbEntity
  8
0
  6
Continuous
 62
     7
100
AcDbLine
 10
206.0003773116787
 20
272.5366742951905
 30
0.0
 11
207.5003773116787
 21
273.4026996988906
 31
0.0
  0
LINE
  5
658
330
1F
100
AcDbEntity
  8
0
  6
Continuous
 62
     7
100
AcDbLine
 10
87.5003773116787
 20
243.5578600263905
 30
0.0
 11
86.45037731167873
 21
244.6078600263906
 31
0.0
  0
LINE
  5
659
330
1F
100
AcDbEntity
  8
0
  6
Continuous
 62
     7
100
AcDbLine
 10
142.9334684781787
 20
244.6078600263906
 30
0.0
 11
142.9334684781787
 21
254.5687251026905
 31
0.0
  0
LINE
  5
65A
330
1F
100
AcDbEntity
  8
0
  6
Continuous
 62
     7
100
AcDbLine
 10
142.9334684781787
 20
260.1500717547905
 30
0.0
 11
142.9334684781787
 21
263.2687251026905
 31
0.0
  0
LINE
  5
65B
330
1F
100
AcDbEntity
  8
0
  6
Continuous
 62
     7
100
AcDbLine
 10
145.6003773116787
 20
259.8687251026905
 30
0.0
 11
145.6003773116787
 21
254.5687251026905
 31
0.0
  0
LINE
  5
65C
330
1F
100
AcDbEntity
  8
0
  6
Continuous
 62
     7
100
AcDbLine
 10
146.5003773116787
 20
243.5578600263905
 30
0.0
 11
146.5003773116787
 21
242.4687251026905
 31
0.0
  0
LINE
  5
65D
330
1F
100
AcDbEntity
  8
0
  6
Continuous
 62
     7
100
AcDbLine
 10
147.5217688170786
 20
263.2687251026905
 30
0.0
 11
147.5217688170786
 21
260.1500717547905
 31
0.0
  0
LINE
  5
65E
330
1F
100
AcDbEntity
  8
0
  6
Continuous
 62
     7
100
AcDbLine
 10
147.5217688170786
 20
254.5687251026905
 30
0.0
 11
147.5217688170786
 21
244.6078600263906
 31
0.0
  0
LINE
  5
65F
330
1F
100
AcDbEntity
  8
0
  6
Continuous
 62
     7
100
AcDbLine
 10
147.5503773116787
 20
263.2687251026905
 30
0.0
 11
147.5503773116787
 21
260.1500717547905
 31
0.0
  0
LINE
  5
660
330
1F
100
AcDbEntity
  8
0
  6
Continuous
 62
     7
100
AcDbLine
 10
147.5503773116787
 20
244.6078600263906
 30
0.0
 11
147.5503773116787
 21
254.5687251026905
 31
0.0
  0
LINE
  5
661
330
1F
100
AcDbEntity
  8
0
  6
Continuous
 62
     7
100
AcDbLine
 10
137.3826295877787
 20
260.8097813294905
 30
0.0
 11
137.3397955475787
 21
260.9416109498905
 31
0.0
  0
LINE
  5
662
330
1F
100
AcDbEntity
  8
0
  6
Continuous
 62
     7
100
AcDbLine
 10
137.6821758933786
 20
261.0528570678905
 30
0.0
 11
137.7250099336787
 21
260.9210274474905
 31
0.0
  0
LINE
  5
663
330
1F
100
AcDbEntity
  8
0
  6
Continuous
 62
     7
100
AcDbLine
 10
166.4503773116787
 20
263.2687251026905
 30
0.0
 11
166.4503773116787
 21
260.1500717547905
 31
0.0
  0
LINE
  5
664
330
1F
100
AcDbEntity
  8
0
  6
Continuous
 62
     7
100
AcDbLine
 10
166.4503773116787
 20
244.6078600263906
 30
0.0
 11
166.4503773116787
 21
254.5687251026905
 31
0.0
  0
LINE
  5
665
330
1F
100
AcDbEntity
  8
0
  6
Continuous
 62
     7
100
AcDbLine
 10
166.4789858062787
 20
244.6078600263906
 30
0.0
 11
166.4789858062787
 21
254.5687251026905
 31
0.0
  0
LINE
  5
666
330
1F
100
AcDbEntity
  8
0
  6
Continuous
 62
     7
100
AcDbLine
 10
166.4789858062787
 20
260.1500717547905
 30
0.0
 11
166.4789858062787
 21
263.2687251026905
 31
0.0
  0
LINE
  5
667
330
1F
100
AcDbEntity
  8
0
  6
Continuous
 62
     7
100
AcDbLine
 10
167.5003773116787
 20
243.5578600263905
 30
0.0
 11
167.5003773116787
 21
242.4687251026905
 31
0.0
  0
LINE
  5
668
330
1F
100
AcDbEntity
  8
0
  6
Continuous
 62
     7
100
AcDbLine
 10
168.4003773116787
 20
259.8687251026905
 30
0.0
 11
168.4003773116787
 21
254.5687251026905
 31
0.0
  0
LINE
  5
669
330
1F
100
AcDbEntity
  8
0
  6
Continuous
 62
     7
100
AcDbLine
 10
186.5003773116787
 20
243.5578600263905
 30
0.0
 11
187.5503773116787
 21
244.6078600263906
 31
0.0
  0
LINE
  5
66A
330
1F
100
AcDbEntity
  8
0
  6
Continuous
 62
     7
100
AcDbLine
 10
66.50037731167872
 20
273.4026996988906
 30
0.0
 11
68.00037731167872
 21
272.5366742951905
 31
0.0
  0
LINE
  5
66B
330
1F
100
AcDbEntity
  8
0
  6
Continuous
 62
     7
100
AcDbLine
 10
68.86640271547872
 20
273.7687251026905
 30
0.0
 11
69.50037731167872
 21
273.4026996988906
 31
0.0
  0
LINE
  5
66C
330
1F
100
AcDbEntity
  8
0
  6
Continuous
 62
     7
100
AcDbLine
 10
67.13435190787871
 20
274.7687251026905
 30
0.0
 11
66.50037731167872
 21
275.1347505064905
 31
0.0
  0
LINE
  5
66D
330
1F
100
AcDbEntity
  8
0
  6
Continuous
 62
     7
100
AcDbLine
 10
69.50037731167872
 20
275.1347505064905
 30
0.0
 11
68.00037731167872
 21
276.0007759102905
 31
0.0
  0
LINE
  5
66E
330
1F
100
AcDbEntity
  8
0
  6
Continuous
 62
     7
100
AcDbLine
 10
127.5003773116787
 20
243.5578600263905
 30
0.0
 11
126.4503773116787
 21
244.6078600263906
 31
0.0
  0
LINE
  5
66F
330
1F
100
AcDbEntity
  8
0
  6
Continuous
 62
     7
100
AcDbLine
 10
171.0672861451787
 20
263.2687251026905
 30
0.0
 11
171.0672861451787
 21
260.1500717547905
 31
0.0
  0
LINE
  5
670
330
1F
100
AcDbEntity
  8
0
  6
Continuous
 62
     7
100
AcDbLine
 10
171.0672861451787
 20
254.5687251026905
 30
0.0
 11
171.0672861451787
 21
244.6078600263906
 31
0.0
  0
LINE
  5
671
330
1F
100
AcDbEntity
  8
0
  6
Continuous
 62
     7
100
AcDbLine
 10
172.4120769727787
 20
244.6078600263906
 30
0.0
 11
172.4120769727787
 21
254.5687251026905
 31
0.0
  0
LINE
  5
672
330
1F
100
AcDbEntity
  8
0
  6
Continuous
 62
     7
100
AcDbLine
 10
172.4120769727787
 20
260.1500717547905
 30
0.0
 11
172.4120769727787
 21
263.2687251026905
 31
0.0
  0
LINE
  5
673
330
1F
100
AcDbEntity
  8
0
  6
Continuous
 62
     7
100
AcDbLine
 10
175.0203773116787
 20
263.2687251026905
 30
0.0
 11
175.0203773116787
 21
260.5887251026905
 31
0.0
  0
LINE
  5
674
330
1F
100
AcDbEntity
  8
0
  6
Continuous
 62
     7
100
AcDbLine
 10
178.9803773116787
 20
260.5887251026905
 30
0.0
 11
178.9803773116787
 21
263.2687251026905
 31
0.0
  0
LINE
  5
675
330
1F
100
AcDbEntity
  8
0
  6
Continuous
 62
     7
100
AcDbLine
 10
181.5886776505787
 20
263.2687251026905
 30
0.0
 11
181.5886776505787
 21
260.1500717547905
 31
0.0
  0
LINE
  5
676
330
1F
100
AcDbEntity
  8
0
  6
Continuous
 62
     7
100
AcDbLine
 10
181.5886776505787
 20
254.5687251026905
 30
0.0
 11
181.5886776505787
 21
244.6078600263906
 31
0.0
  0
LINE
  5
677
330
1F
100
AcDbEntity
  8
0
  6
Continuous
 62
     7
100
AcDbLine
 10
182.9334684781786
 20
244.6078600263906
 30
0.0
 11
182.9334684781786
 21
254.5687251026905
 31
0.0
  0
LINE
  5
678
330
1F
100
AcDbEntity
  8
0
  6
Continuous
 62
     7
100
AcDbLine
 10
182.9334684781786
 20
260.1500717547905
 30
0.0
 11
182.9334684781786
 21
263.2687251026905
 31
0.0
  0
LINE
  5
679
330
1F
100
AcDbEntity
  8
0
  6
Continuous
 62
     7
100
AcDbLine
 10
185.6003773116787
 20
259.8687251026905
 30
0.0
 11
185.6003773116787
 21
254.5687251026905
 31
0.0
  0
LINE
  5
67A
330
1F
100
AcDbEntity
  8
0
  6
Continuous
 62
     7
100
AcDbLine
 10
186.5003773116787
 20
243.5578600263905
 30
0.0
 11
186.5003773116787
 21
242.4687251026905
 31
0.0
  0
LINE
  5
67B
330
1F
100
AcDbEntity
  8
0
  6
Continuous
 62
     7
100
AcDbLine
 10
187.5217688170787
 20
263.2687251026905
 30
0.0
 11
187.5217688170787
 21
260.1500717547905
 31
0.0
  0
LINE
  5
67C
330
1F
100
AcDbEntity
  8
0
  6
Continuous
 62
     7
100
AcDbLine
 10
187.5217688170787
 20
254.5687251026905
 30
0.0
 11
187.5217688170787
 21
244.6078600263906
 31
0.0
  0
LINE
  5
67D
330
1F
100
AcDbEntity
  8
0
  6
Continuous
 62
     7
100
AcDbLine
 10
187.5503773116787
 20
263.2687251026905
 30
0.0
 11
187.5503773116787
 21
260.1500717547905
 31
0.0
  0
LINE
  5
67E
330
1F
100
AcDbEntity
  8
0
  6
Continuous
 62
     7
100
AcDbLine
 10
187.5503773116787
 20
244.6078600263906
 30
0.0
 11
187.5503773116787
 21
254.5687251026905
 31
0.0
  0
LINE
  5
67F
330
1F
100
AcDbEntity
  8
0
  6
Continuous
 62
     7
100
AcDbLine
 10
183.3003773116787
 20
239.2687251026905
 30
0.0
 11
170.7003773116787
 21
239.2687251026905
 31
0.0
  0
LINE
  5
680
330
1F
100
AcDbEntity
  8
0
  6
Continuous
 62
     7
100
AcDbLine
 10
143.3003773116787
 20
239.2687251026905
 30
0.0
 11
130.7003773116787
 21
239.2687251026905
 31
0.0
  0
LINE
  5
681
330
1F
100
AcDbEntity
  8
0
  6
Continuous
 62
     7
100
AcDbLine
 10
103.3003773116787
 20
239.2687251026905
 30
0.0
 11
90.70037731167872
 21
239.2687251026905
 31
0.0
  0
LINE
  5
682
330
1F
100
AcDbEntity
  8
0
  6
Continuous
 62
     9
100
AcDbLine
 10
186.5003773116787
 20
242.4687251026905
 30
0.0
 11
167.5003773116787
 21
242.4687251026905
 31
0.0
  0
LINE
  5
683
330
1F
100
AcDbEntity
  8
0
  6
Continuous
 62
     9
100
AcDbLine
 10
146.5003773116787
 20
242.4687251026905
 30
0.0
 11
127.5003773116787
 21
242.4687251026905
 31
0.0
  0
LINE
  5
684
330
1F
100
AcDbEntity
  8
0
  6
Continuous
 62
     9
100
AcDbLine
 10
106.5003773116787
 20
242.4687251026905
 30
0.0
 11
87.5003773116787
 21
242.4687251026905
 31
0.0
  0
LINE
  5
685
330
1F
100
AcDbEntity
  8
0
  6
Continuous
 62
     7
100
AcDbLine
 10
87.5003773116787
 20
243.5578600263905
 30
0.0
 11
106.5003773116787
 21
243.5578600263905
 31
0.0
  0
LINE
  5
686
330
1F
100
AcDbEntity
  8
0
  6
Continuous
 62
     7
100
AcDbLine
 10
127.5003773116787
 20
243.5578600263905
 30
0.0
 11
146.5003773116787
 21
243.5578600263905
 31
0.0
  0
LINE
  5
687
330
1F
100
AcDbEntity
  8
0
  6
Continuous
 62
     7
100
AcDbLine
 10
167.5003773116787
 20
243.5578600263905
 30
0.0
 11
186.5003773116787
 21
243.5578600263905
 31
0.0
  0
LINE
  5
688
330
1F
100
AcDbEntity
  8
0
  6
Continuous
 62
     7
100
AcDbLine
 10
187.5503773116787
 20
244.6078600263906
 30
0.0
 11
187.5217688170787
 21
244.6078600263906
 31
0.0
  0
LINE
  5
689
330
1F
100
AcDbEntity
  8
0
  6
Continuous
 62
     7
100
AcDbLine
 10
182.9334684781786
 20
244.6078600263906
 30
0.0
 11
181.5886776505787
 21
244.6078600263906
 31
0.0
  0
LINE
  5
68A
330
1F
100
AcDbEntity
  8
0
  6
Continuous
 62
     7
100
AcDbLine
 10
172.4120769727787
 20
244.6078600263906
 30
0.0
 11
171.0672861451787
 21
244.6078600263906
 31
0.0
  0
LINE
  5
68B
330
1F
100
AcDbEntity
  8
0
  6
Continuous
 62
     7
100
AcDbLine
 10
166.4789858062787
 20
244.6078600263906
 30
0.0
 11
166.4503773116787
 21
244.6078600263906
 31
0.0
  0
LINE
  5
68C
330
1F
100
AcDbEntity
  8
0
  6
Continuous
 62
     7
100
AcDbLine
 10
147.5503773116787
 20
244.6078600263906
 30
0.0
 11
147.5217688170786
 21
244.6078600263906
 31
0.0
  0
LINE
  5
68D
330
1F
100
AcDbEntity
  8
0
  6
Continuous
 62
     7
100
AcDbLine
 10
142.9334684781787
 20
244.6078600263906
 30
0.0
 11
141.5886776505787
 21
244.6078600263906
 31
0.0
  0
LINE
  5
68E
330
1F
100
AcDbEntity
  8
0
  6
Continuous
 62
     7
100
AcDbLine
 10
132.4120769727787
 20
244.6078600263906
 30
0.0
 11
131.0672861451787
 21
244.6078600263906
 31
0.0
  0
LINE
  5
68F
330
1F
100
AcDbEntity
  8
0
  6
Continuous
 62
     7
100
AcDbLine
 10
126.4789858062787
 20
244.6078600263906
 30
0.0
 11
126.4503773116787
 21
244.6078600263906
 31
0.0
  0
LINE
  5
690
330
1F
100
AcDbEntity
  8
0
  6
Continuous
 62
     7
100
AcDbLine
 10
107.5503773116787
 20
244.6078600263906
 30
0.0
 11
107.5217688170787
 21
244.6078600263906
 31
0.0
  0
LINE
  5
691
330
1F
100
AcDbEntity
  8
0
  6
Continuous
 62
     7
100
AcDbLine
 10
102.9334684781787
 20
244.6078600263906
 30
0.0
 11
101.5886776505787
 21
244.6078600263906
 31
0.0
  0
LINE
  5
692
330
1F
100
AcDbEntity
  8
0
  6
Continuous
 62
     7
100
AcDbLine
 10
92.4120769727787
 20
244.6078600263906
 30
0.0
 11
91.06728614517871
 21
244.6078600263906
 31
0.0
  0
LINE
  5
693
330
1F
100
AcDbEntity
  8
0
  6
Continuous
 62
     7
100
AcDbLine
 10
86.47898580627872
 20
244.6078600263906
 30
0.0
 11
86.45037731167873
 21
244.6078600263906
 31
0.0
  0
LINE
  5
694
330
1F
100
AcDbEntity
  8
0
  6
Continuous
 62
     7
100
AcDbLine
 10
87.5003773116787
 20
259.8687251026905
 30
0.0
 11
86.45037731167873
 21
260.1500717547905
 31
0.0
  0
LINE
  5
695
330
1F
100
AcDbEntity
  8
0
  6
Continuous
 62
     7
100
AcDbLine
 10
167.5003773116787
 20
243.5578600263905
 30
0.0
 11
166.4503773116787
 21
244.6078600263906
 31
0.0
  0
LINE
  5
696
330
1F
100
AcDbEntity
  8
0
  6
Continuous
 62
     7
100
AcDbLine
 10
177.3826295877787
 20
260.8097813294905
 30
0.0
 11
177.3397955475787
 21
260.9416109498905
 31
0.0
  0
LINE
  5
697
330
1F
100
AcDbEntity
  8
0
  6
Continuous
 62
     7
100
AcDbLine
 10
177.6821758933787
 20
261.0528570678905
 30
0.0
 11
177.7250099336787
 21
260.9210274474905
 31
0.0
  0
LINE
  5
698
330
1F
100
AcDbEntity
  8
0
  6
Continuous
 62
     7
100
AcDbLine
 10
204.5003773116787
 20
371.1347505064905
 30
0.0
 11
204.5003773116787
 21
369.4026996988906
 31
0.0
  0
LINE
  5
699
330
1F
100
AcDbEntity
  8
0
  6
Continuous
 62
     7
100
AcDbLine
 10
204.5003773116787
 20
275.1347505064905
 30
0.0
 11
204.5003773116787
 21
273.4026996988906
 31
0.0
  0
LINE
  5
69A
330
1F
100
AcDbEntity
  8
RUNDUNGEN
  6
Continuous
 62
     9
100
AcDbLine
 10
205.5003773116787
 20
267.7687251026905
 30
0.0
 11
205.5003773116787
 21
268.7687251026905
 31
0.0
  0
LINE
  5
69B
330
1F
100
AcDbEntity
  8
RUNDUNGEN
  6
Continuous
 62
     9
100
AcDbLine
 10
205.5003773116787
 20
375.7687251026905
 30
0.0
 11
205.5003773116787
 21
376.7687251026905
 31
0.0
  0
LINE
  5
69C
330
1F
100
AcDbEntity
  8
0
  6
Continuous
 62
     7
100
AcDbLine
 10
206.0003773116787
 20
369.2687251026905
 30
0.0
 11
206.0003773116787
 21
368.5366742951905
 31
0.0
  0
LINE
  5
69D
330
1F
100
AcDbEntity
  8
0
  6
Continuous
 62
     7
100
AcDbLine
 10
206.0003773116787
 20
273.2687251026905
 30
0.0
 11
206.0003773116787
 21
272.5366742951905
 31
0.0
  0
LINE
  5
69E
330
1F
100
AcDbEntity
  8
0
  6
Continuous
 62
     7
100
AcDbLine
 10
206.0003773116787
 20
275.2687251026905
 30
0.0
 11
206.0003773116787
 21
276.0007759102905
 31
0.0
  0
LINE
  5
69F
330
1F
100
AcDbEntity
  8
0
  6
Continuous
 62
     7
100
AcDbLine
 10
206.0003773116787
 20
371.2687251026905
 30
0.0
 11
206.0003773116787
 21
372.0007759102906
 31
0.0
  0
LINE
  5
6A0
330
1F
100
AcDbEntity
  8
0
  6
Continuous
 62
     7
100
AcDbLine
 10
207.5003773116787
 20
273.4026996988906
 30
0.0
 11
207.5003773116787
 21
275.1347505064905
 31
0.0
  0
LINE
  5
6A1
330
1F
100
AcDbEntity
  8
0
  6
Continuous
 62
     7
100
AcDbLine
 10
207.5003773116787
 20
369.4026996988906
 30
0.0
 11
207.5003773116787
 21
371.1347505064905
 31
0.0
  0
LINE
  5
6A2
330
1F
100
AcDbEntity
  8
0
  6
Continuous
 62
     7
100
AcDbLine
 10
186.5003773116787
 20
259.8687251026905
 30
0.0
 11
187.5236852227787
 21
260.1429196310905
 31
0.0
  0
LINE
  5
6A3
330
1F
100
AcDbEntity
  8
0
  6
Continuous
 62
     7
100
AcDbLine
 10
86.45037882587873
 20
254.5687251026905
 30
0.0
 11
107.5503757973787
 21
254.5687251026905
 31
0.0
  0
LINE
  5
6A4
330
1F
100
AcDbEntity
  8
0
  6
Continuous
 62
     7
100
AcDbLine
 10
126.4503788258787
 20
254.5687251026905
 30
0.0
 11
147.5503757973787
 21
254.5687251026905
 31
0.0
  0
LINE
  5
6A5
330
1F
100
AcDbEntity
  8
0
  6
Continuous
 62
     7
100
AcDbLine
 10
166.4503788258787
 20
254.5687251026905
 30
0.0
 11
187.5503757973787
 21
254.5687251026905
 31
0.0
  0
LINE
  5
6A6
330
1F
100
AcDbEntity
  8
0
  6
Continuous
 62
     7
100
AcDbLine
 10
127.5003773116787
 20
259.8687251026905
 30
0.0
 11
126.4503773116787
 21
260.1500717547905
 31
0.0
  0
LINE
  5
6A7
330
1F
100
AcDbEntity
  8
RUNDUNGEN
  6
Continuous
 62
     9
100
AcDbLine
 10
208.5003773116787
 20
263.7687251026905
 30
0.0
 11
208.5003773116787
 21
263.2687251026905
 31
0.0
  0
LINE
  5
6A8
330
1F
100
AcDbEntity
  8
RUNDUNGEN
  6
Continuous
 62
     9
100
AcDbLine
 10
208.5003773116787
 20
380.7687251026905
 30
0.0
 11
208.5003773116787
 21
381.2687251026905
 31
0.0
  0
LINE
  5
6A9
330
1F
100
AcDbEntity
  8
RUNDUNGEN
  6
Continuous
 62
     9
100
AcDbLine
 10
211.0003773116787
 20
274.2687251026905
 30
0.0
 11
211.0003773116787
 21
370.2687251026905
 31
0.0
  0
LINE
  5
6AA
330
1F
100
AcDbEntity
  8
RUNDUNGEN
  6
Continuous
 62
     7
100
AcDbLine
 10
211.5003773116787
 20
370.2687251026905
 30
0.0
 11
211.5003773116787
 21
274.2687251026905
 31
0.0
  0
LINE
  5
6AB
330
1F
100
AcDbEntity
  8
RUNDUNGEN
  6
Continuous
 62
     9
100
AcDbLine
 10
212.0003773116788
 20
274.2687251026905
 30
0.0
 11
212.0003773116788
 21
370.2687251026905
 31
0.0
  0
LINE
  5
6AC
330
1F
100
AcDbEntity
  8
RUNDUNGEN
  6
Continuous
 62
     9
100
AcDbLine
 10
216.0003773116788
 20
271.2687251026905
 30
0.0
 11
216.0003773116788
 21
373.2687251026905
 31
0.0
  0
LINE
  5
6AD
330
1F
100
AcDbEntity
  8
RUNDUNGEN
  6
Continuous
 62
     7
100
AcDbLine
 10
216.5003773116787
 20
271.2687251026905
 30
0.0
 11
216.5003773116787
 21
373.2687251026905
 31
0.0
  0
LINE
  5
6AE
330
1F
100
AcDbEntity
  8
0
  6
Continuous
 62
     7
100
AcDbLine
 10
146.5003773116787
 20
259.8687251026905
 30
0.0
 11
147.5236852227786
 21
260.1429196310905
 31
0.0
  0
LINE
  5
6AF
330
1F
100
AcDbEntity
  8
0
  6
Continuous
 62
     7
100
AcDbLine
 10
186.5002604618787
 20
259.8687251026905
 30
0.0
 11
168.7731359756787
 21
259.8687251026905
 31
0.0
  0
LINE
  5
6B0
330
1F
100
AcDbEntity
  8
0
  6
Continuous
 62
     7
100
AcDbLine
 10
168.4404253050787
 20
259.8687251026905
 30
0.0
 11
167.5004941614787
 21
259.8687251026905
 31
0.0
  0
LINE
  5
6B1
330
1F
100
AcDbEntity
  8
0
  6
Continuous
 62
     7
100
AcDbLine
 10
146.5002604618786
 20
259.8687251026905
 30
0.0
 11
128.7731359756787
 21
259.8687251026905
 31
0.0
  0
LINE
  5
6B2
330
1F
100
AcDbEntity
  8
0
  6
Continuous
 62
     7
100
AcDbLine
 10
128.4404253050787
 20
259.8687251026905
 30
0.0
 11
127.5004941614787
 21
259.8687251026905
 31
0.0
  0
LINE
  5
6B3
330
1F
100
AcDbEntity
  8
0
  6
Continuous
 62
     7
100
AcDbLine
 10
106.5002604618787
 20
259.8687251026905
 30
0.0
 11
88.77313597567871
 21
259.8687251026905
 31
0.0
  0
LINE
  5
6B4
330
1F
100
AcDbEntity
  8
0
  6
Continuous
 62
     7
100
AcDbLine
 10
88.44042530507872
 20
259.8687251026905
 30
0.0
 11
87.50049416147872
 21
259.8687251026905
 31
0.0
  0
LINE
  5
6B5
330
1F
100
AcDbEntity
  8
0
  6
Continuous
 62
     7
100
AcDbLine
 10
187.5503773116787
 20
260.1500717547905
 30
0.0
 11
187.5217688170787
 21
260.1500717547905
 31
0.0
  0
LINE
  5
6B6
330
1F
100
AcDbEntity
  8
0
  6
Continuous
 62
     7
100
AcDbLine
 10
182.9334684781786
 20
260.1500717547905
 30
0.0
 11
181.5886776505787
 21
260.1500717547905
 31
0.0
  0
LINE
  5
6B7
330
1F
100
AcDbEntity
  8
0
  6
Continuous
 62
     7
100
AcDbLine
 10
172.4120769727787
 20
260.1500717547905
 30
0.0
 11
171.0672861451787
 21
260.1500717547905
 31
0.0
  0
LINE
  5
6B8
330
1F
100
AcDbEntity
  8
0
  6
Continuous
 62
     7
100
AcDbLine
 10
166.4789858062787
 20
260.1500717547905
 30
0.0
 11
166.4503773116787
 21
260.1500717547905
 31
0.0
  0
LINE
  5
6B9
330
1F
100
AcDbEntity
  8
0
  6
Continuous
 62
     7
100
AcDbLine
 10
147.5503773116787
 20
260.1500717547905
 30
0.0
 11
147.5217688170786
 21
260.1500717547905
 31
0.0
  0
LINE
  5
6BA
330
1F
100
AcDbEntity
  8
0
  6
Continuous
 62
     7
100
AcDbLine
 10
142.9334684781787
 20
260.1500717547905
 30
0.0
 11
141.5886776505787
 21
260.1500717547905
 31
0.0
  0
LINE
  5
6BB
330
1F
100
AcDbEntity
  8
0
  6
Continuous
 62
     7
100
AcDbLine
 10
132.4120769727787
 20
260.1500717547905
 30
0.0
 11
131.0672861451787
 21
260.1500717547905
 31
0.0
  0
LINE
  5
6BC
330
1F
100
AcDbEntity
  8
0
  6
Continuous
 62
     7
100
AcDbLine
 10
126.4789858062787
 20
260.1500717547905
 30
0.0
 11
126.4503773116787
 21
260.1500717547905
 31
0.0
  0
LINE
  5
6BD
330
1F
100
AcDbEntity
  8
0
  6
Continuous
 62
     7
100
AcDbLine
 10
107.5503773116787
 20
260.1500717547905
 30
0.0
 11
107.5217688170787
 21
260.1500717547905
 31
0.0
  0
LINE
  5
6BE
330
1F
100
AcDbEntity
  8
0
  6
Continuous
 62
     7
100
AcDbLine
 10
102.9334684781787
 20
260.1500717547905
 30
0.0
 11
101.5886776505787
 21
260.1500717547905
 31
0.0
  0
LINE
  5
6BF
330
1F
100
AcDbEntity
  8
0
  6
Continuous
 62
     7
100
AcDbLine
 10
92.4120769727787
 20
260.1500717547905
 30
0.0
 11
91.06728614517871
 21
260.1500717547905
 31
0.0
  0
LINE
  5
6C0
330
1F
100
AcDbEntity
  8
0
  6
Continuous
 62
     7
100
AcDbLine
 10
86.47898580627872
 20
260.1500717547905
 30
0.0
 11
86.45037731167873
 21
260.1500717547905
 31
0.0
  0
LINE
  5
6C1
330
1F
100
AcDbEntity
  8
0
  6
Continuous
 62
     7
100
AcDbLine
 10
95.02037731167872
 20
260.5887251026905
 30
0.0
 11
98.98037731167871
 21
260.5887251026905
 31
0.0
  0
LINE
  5
6C2
330
1F
100
AcDbEntity
  8
0
  6
Continuous
 62
     7
100
AcDbLine
 10
135.0203773116787
 20
260.5887251026905
 30
0.0
 11
138.9803773116787
 21
260.5887251026905
 31
0.0
  0
LINE
  5
6C3
330
1F
100
AcDbEntity
  8
0
  6
Continuous
 62
     7
100
AcDbLine
 10
175.0203773116787
 20
260.5887251026905
 30
0.0
 11
178.9803773116787
 21
260.5887251026905
 31
0.0
  0
LINE
  5
6C4
330
1F
100
AcDbEntity
  8
0
  6
Continuous
 62
     7
100
AcDbLine
 10
98.65274083247872
 20
262.3887251026905
 30
0.0
 11
98.79135469847874
 21
262.3887251026905
 31
0.0
  0
LINE
  5
6C5
330
1F
100
AcDbEntity
  8
0
  6
Continuous
 62
     7
100
AcDbLine
 10
138.6527408324787
 20
262.3887251026905
 30
0.0
 11
138.7913546984787
 21
262.3887251026905
 31
0.0
  0
LINE
  5
6C6
330
1F
100
AcDbEntity
  8
0
  6
Continuous
 62
     7
100
AcDbLine
 10
178.6527408324787
 20
262.3887251026905
 30
0.0
 11
178.7913546984787
 21
262.3887251026905
 31
0.0
  0
LINE
  5
6C7
330
1F
100
AcDbEntity
  8
0
  6
Continuous
 62
     7
100
AcDbLine
 10
178.7913546984787
 20
262.7487251026905
 30
0.0
 11
178.6527408324787
 21
262.7487251026905
 31
0.0
  0
LINE
  5
6C8
330
1F
100
AcDbEntity
  8
0
  6
Continuous
 62
     7
100
AcDbLine
 10
138.7913546984787
 20
262.7487251026905
 30
0.0
 11
138.6527408324787
 21
262.7487251026905
 31
0.0
  0
LINE
  5
6C9
330
1F
100
AcDbEntity
  8
0
  6
Continuous
 62
     7
100
AcDbLine
 10
98.79135469847874
 20
262.7487251026905
 30
0.0
 11
98.65274083247872
 21
262.7487251026905
 31
0.0
  0
LINE
  5
6CA
330
1F
100
AcDbEntity
  8
RUNDUNGEN
  6
Continuous
 62
     7
100
AcDbLine
 10
65.50037731167872
 20
263.2687251026905
 30
0.0
 11
208.5003773116787
 21
263.2687251026905
 31
0.0
  0
LINE
  5
6CB
330
1F
100
AcDbEntity
  8
RUNDUNGEN
  6
Continuous
 62
     9
100
AcDbLine
 10
65.50037731167872
 20
263.7687251026905
 30
0.0
 11
208.5003773116787
 21
263.7687251026905
 31
0.0
  0
LINE
  5
6CC
330
1F
100
AcDbEntity
  8
RUNDUNGEN
  6
Continuous
 62
     9
100
AcDbLine
 10
68.50037731167872
 20
267.7687251026905
 30
0.0
 11
205.5003773116787
 21
267.7687251026905
 31
0.0
  0
LINE
  5
6CD
330
1F
100
AcDbEntity
  8
RUNDUNGEN
  6
Continuous
 62
     7
100
AcDbLine
 10
205.5003773116787
 20
268.2687251026905
 30
0.0
 11
68.50037731167872
 21
268.2687251026905
 31
0.0
  0
LINE
  5
6CE
330
1F
100
AcDbEntity
  8
RUNDUNGEN
  6
Continuous
 62
     9
100
AcDbLine
 10
68.50037731167872
 20
268.7687251026905
 30
0.0
 11
205.5003773116787
 21
268.7687251026905
 31
0.0
  0
LINE
  5
6CF
330
1F
100
AcDbEntity
  8
0
  6
Continuous
 62
     7
100
AcDbLine
 10
167.5003773116787
 20
259.8687251026905
 30
0.0
 11
166.4503773116787
 21
260.1500717547905
 31
0.0
  0
LINE
  5
6D0
330
1F
100
AcDbEntity
  8
0
  6
Continuous
 62
     7
100
AcDbLine
 10
106.5003773116787
 20
259.8687251026905
 30
0.0
 11
107.5236852227787
 21
260.1429196310905
 31
0.0
  0
LINE
  5
6D1
330
1F
100
AcDbEntity
  8
RUNDUNGEN
  6
Continuous
 62
     9
100
AcDbLine
 10
58.00037731167871
 20
271.2687251026905
 30
0.0
 11
57.50037731167871
 21
271.2687251026905
 31
0.0
  0
LINE
  5
6D2
330
1F
100
AcDbEntity
  8
RUNDUNGEN
  6
Continuous
 62
     9
100
AcDbLine
 10
216.0003773116788
 20
271.2687251026905
 30
0.0
 11
216.5003773116787
 21
271.2687251026905
 31
0.0
  0
LINE
  5
6D3
330
1F
100
AcDbEntity
  8
RUNDUNGEN
  6
Continuous
 62
     9
100
AcDbLine
 10
62.00037731167871
 20
274.2687251026905
 30
0.0
 11
63.00037731167871
 21
274.2687251026905
 31
0.0
  0
LINE
  5
6D4
330
1F
100
AcDbEntity
  8
RUNDUNGEN
  6
Continuous
 62
     9
100
AcDbLine
 10
211.0003773116787
 20
274.2687251026905
 30
0.0
 11
212.0003773116788
 21
274.2687251026905
 31
0.0
  0
LINE
  5
6D5
330
1F
100
AcDbEntity
  8
0
  6
Continuous
 62
     7
100
AcDbLine
 10
204.5003773116787
 20
273.4026996988906
 30
0.0
 11
206.0003773116787
 21
272.5366742951905
 31
0.0
  0
LINE
  5
6D6
330
1F
100
AcDbEntity
  8
0
  6
Continuous
 62
     7
100
AcDbLine
 10
206.8664027154787
 20
273.7687251026905
 30
0.0
 11
207.5003773116787
 21
273.4026996988906
 31
0.0
  0
LINE
  5
6D7
330
1F
100
AcDbEntity
  8
0
  6
Continuous
 62
     7
100
AcDbLine
 10
205.1343519078787
 20
274.7687251026905
 30
0.0
 11
204.5003773116787
 21
275.1347505064905
 31
0.0
  0
LINE
  5
6D8
330
1F
100
AcDbEntity
  8
0
  6
Continuous
 62
     7
100
AcDbLine
 10
207.5003773116787
 20
275.1347505064905
 30
0.0
 11
206.0003773116787
 21
276.0007759102905
 31
0.0
  0
LINE
  5
6D9
330
1F
100
AcDbEntity
  8
0
  6
Continuous
 62
     7
100
AcDbLine
 10
66.50037731167872
 20
369.4026996988906
 30
0.0
 11
68.00037731167872
 21
368.5366742951905
 31
0.0
  0
LINE
  5
6DA
330
1F
100
AcDbEntity
  8
0
  6
Continuous
 62
     7
100
AcDbLine
 10
68.86640271547872
 20
369.7687251026905
 30
0.0
 11
69.50037731167872
 21
369.4026996988906
 31
0.0
  0
LINE
  5
6DB
330
1F
100
AcDbEntity
  8
0
  6
Continuous
 62
     7
100
AcDbLine
 10
67.13435190787871
 20
370.7687251026905
 30
0.0
 11
66.50037731167872
 21
371.1347505064905
 31
0.0
  0
LINE
  5
6DC
330
1F
100
AcDbEntity
  8
0
  6
Continuous
 62
     7
100
AcDbLine
 10
69.50037731167872
 20
371.1347505064905
 30
0.0
 11
68.00037731167872
 21
372.0007759102906
 31
0.0
  0
LINE
  5
6DD
330
1F
100
AcDbEntity
  8
RUNDUNGEN
  6
Continuous
 62
     9
100
AcDbLine
 10
62.00037731167871
 20
370.2687251026905
 30
0.0
 11
63.00037731167871
 21
370.2687251026905
 31
0.0
  0
LINE
  5
6DE
330
1F
100
AcDbEntity
  8
RUNDUNGEN
  6
Continuous
 62
     9
100
AcDbLine
 10
211.0003773116787
 20
370.2687251026905
 30
0.0
 11
212.0003773116788
 21
370.2687251026905
 31
0.0
  0
LINE
  5
6DF
330
1F
100
AcDbEntity
  8
RUNDUNGEN
  6
Continuous
 62
     9
100
AcDbLine
 10
58.00037731167871
 20
373.2687251026905
 30
0.0
 11
57.50037731167871
 21
373.2687251026905
 31
0.0
  0
LINE
  5
6E0
330
1F
100
AcDbEntity
  8
RUNDUNGEN
  6
Continuous
 62
     9
100
AcDbLine
 10
216.0003773116788
 20
373.2687251026905
 30
0.0
 11
216.5003773116787
 21
373.2687251026905
 31
0.0
  0
LINE
  5
6E1
330
1F
100
AcDbEntity
  8
RUNDUNGEN
  6
Continuous
 62
     9
100
AcDbLine
 10
205.5003773116787
 20
375.7687251026905
 30
0.0
 11
68.50037731167872
 21
375.7687251026905
 31
0.0
  0
LINE
  5
6E2
330
1F
100
AcDbEntity
  8
RUNDUNGEN
  6
Continuous
 62
     7
100
AcDbLine
 10
68.50037731167872
 20
376.2687251026905
 30
0.0
 11
205.5003773116787
 21
376.2687251026905
 31
0.0
  0
LINE
  5
6E3
330
1F
100
AcDbEntity
  8
0
  6
Continuous
 62
     7
100
AcDbLine
 10
204.5003773116787
 20
369.4026996988906
 30
0.0
 11
206.0003773116787
 21
368.5366742951905
 31
0.0
  0
LINE
  5
6E4
330
1F
100
AcDbEntity
  8
0
  6
Continuous
 62
     7
100
AcDbLine
 10
206.8664027154787
 20
369.7687251026905
 30
0.0
 11
207.5003773116787
 21
369.4026996988906
 31
0.0
  0
LINE
  5
6E5
330
1F
100
AcDbEntity
  8
0
  6
Continuous
 62
     7
100
AcDbLine
 10
205.1343519078787
 20
370.7687251026905
 30
0.0
 11
204.5003773116787
 21
371.1347505064905
 31
0.0
  0
LINE
  5
6E6
330
1F
100
AcDbEntity
  8
0
  6
Continuous
 62
     7
100
AcDbLine
 10
207.5003773116787
 20
371.1347505064905
 30
0.0
 11
206.0003773116787
 21
372.0007759102906
 31
0.0
  0
LINE
  5
6E7
330
1F
100
AcDbEntity
  8
RUNDUNGEN
  6
Continuous
 62
     9
100
AcDbLine
 10
205.5003773116787
 20
376.7687251026905
 30
0.0
 11
68.50037731167872
 21
376.7687251026905
 31
0.0
  0
LINE
  5
6E8
330
1F
100
AcDbEntity
  8
RUNDUNGEN
  6
Continuous
 62
     9
100
AcDbLine
 10
208.5003773116787
 20
380.7687251026905
 30
0.0
 11
65.50037731167872
 21
380.7687251026905
 31
0.0
  0
LINE
  5
6E9
330
1F
100
AcDbEntity
  8
RUNDUNGEN
  6
Continuous
 62
     7
100
AcDbLine
 10
208.5003773116787
 20
381.2687251026905
 30
0.0
 11
65.50037731167872
 21
381.2687251026905
 31
0.0
  0
LINE
  5
6EA
330
1F
100
AcDbEntity
  8
RUNDUNGEN
  6
Continuous
 62
     7
100
AcDbLine
 10
326.3286066363489
 20
266.2687251026905
 30
0.0
 11
326.3286066363489
 21
378.2687251026905
 31
0.0
  0
LINE
  5
6EB
330
1F
100
AcDbEntity
  8
RUNDUNGEN
  6
Continuous
 62
     9
100
AcDbLine
 10
327.3286066363489
 20
265.2687251026905
 30
0.0
 11
327.3286066363489
 21
379.2687251026905
 31
0.0
  0
LINE
  5
6EC
330
1F
100
AcDbEntity
  8
0
  6
Continuous
 62
     7
100
AcDbLine
 10
344.3286066363488
 20
265.2687251026905
 30
0.0
 11
344.3286066363488
 21
259.8687251026905
 31
0.0
  0
LINE
  5
6ED
330
1F
100
AcDbEntity
  8
0
  6
Continuous
 62
     7
100
AcDbLine
 10
344.3286066363488
 20
254.5687251026905
 30
0.0
 11
344.3286066363488
 21
242.4687251026905
 31
0.0
  0
LINE
  5
6EE
330
1F
100
AcDbEntity
  8
0
  6
Continuous
 62
     7
100
AcDbLine
 10
345.1050219826488
 20
244.6078600263906
 30
0.0
 11
345.1050219826488
 21
254.5687251026905
 31
0.0
  0
LINE
  5
6EF
330
1F
100
AcDbEntity
  8
0
  6
Continuous
 62
     7
100
AcDbLine
 10
345.1050219826488
 20
260.1500717547905
 30
0.0
 11
345.1050219826488
 21
265.2687251026905
 31
0.0
  0
LINE
  5
6F0
330
1F
100
AcDbEntity
  8
0
  6
Continuous
 62
     7
100
AcDbLine
 10
345.2286066363489
 20
259.8687251026905
 30
0.0
 11
345.2286066363489
 21
254.5687251026905
 31
0.0
  0
LINE
  5
6F1
330
1F
100
AcDbEntity
  8
0
  6
Continuous
 62
     7
100
AcDbLine
 10
353.0521912900488
 20
265.2687251026905
 30
0.0
 11
353.0521912900488
 21
260.1500717547905
 31
0.0
  0
LINE
  5
6F2
330
1F
100
AcDbEntity
  8
0
  6
Continuous
 62
     7
100
AcDbLine
 10
353.0521912900488
 20
254.5687251026905
 30
0.0
 11
353.0521912900488
 21
244.6078600263906
 31
0.0
  0
LINE
  5
6F3
330
1F
100
AcDbEntity
  8
0
  6
Continuous
 62
     7
100
AcDbLine
 10
354.6050219826489
 20
244.6078600263906
 30
0.0
 11
354.6050219826489
 21
254.5687251026905
 31
0.0
  0
LINE
  5
6F4
330
1F
100
AcDbEntity
  8
0
  6
Continuous
 62
     7
100
AcDbLine
 10
354.6050219826489
 20
260.1500717547905
 30
0.0
 11
354.6050219826489
 21
265.2687251026905
 31
0.0
  0
LINE
  5
6F5
330
1F
100
AcDbEntity
  8
0
  6
Continuous
 62
     7
100
AcDbLine
 10
362.4286066363489
 20
259.8687251026905
 30
0.0
 11
362.4286066363489
 21
254.5687251026905
 31
0.0
  0
LINE
  5
6F6
330
1F
100
AcDbEntity
  8
0
  6
Continuous
 62
     7
100
AcDbLine
 10
362.5521912900488
 20
265.2687251026905
 30
0.0
 11
362.5521912900488
 21
260.1500717547905
 31
0.0
  0
LINE
  5
6F7
330
1F
100
AcDbEntity
  8
0
  6
Continuous
 62
     7
100
AcDbLine
 10
362.5521912900488
 20
254.5687251026905
 30
0.0
 11
362.5521912900488
 21
244.6078600263906
 31
0.0
  0
LINE
  5
6F8
330
1F
100
AcDbEntity
  8
0
  6
Continuous
 62
     7
100
AcDbLine
 10
363.3286066363489
 20
242.4687251026905
 30
0.0
 11
363.3286066363489
 21
254.5687251026905
 31
0.0
  0
LINE
  5
6F9
330
1F
100
AcDbEntity
  8
0
  6
Continuous
 62
     7
100
AcDbLine
 10
363.3286066363489
 20
259.8687251026905
 30
0.0
 11
363.3286066363489
 21
265.2687251026905
 31
0.0
  0
LINE
  5
6FA
330
1F
100
AcDbEntity
  8
RUNDUNGEN
  6
Continuous
 62
     7
100
AcDbLine
 10
378.3286066363489
 20
263.2687251026905
 30
0.0
 11
378.3286066363489
 21
381.2687251026905
 31
0.0
  0
LINE
  5
6FB
330
1F
100
AcDbEntity
  8
RUNDUNGEN
  6
Continuous
 62
     9
100
AcDbLine
 10
382.8286066363489
 20
381.2687251026905
 30
0.0
 11
382.8286066363489
 21
263.2687251026905
 31
0.0
  0
LINE
  5
6FC
330
1F
100
AcDbEntity
  8
RUNDUNGEN
  6
Continuous
 62
     7
100
AcDbLine
 10
383.3286066363489
 20
380.7687251026905
 30
0.0
 11
383.3286066363489
 21
263.7687251026905
 31
0.0
  0
LINE
  5
6FD
330
1F
100
AcDbEntity
  8
RUNDUNGEN
  6
Continuous
 62
     9
100
AcDbLine
 10
383.8286066363489
 20
376.2687251026905
 30
0.0
 11
383.8286066363489
 21
268.2687251026905
 31
0.0
  0
LINE
  5
6FE
330
1F
100
AcDbEntity
  8
0
  6
Continuous
 62
     7
100
AcDbLine
 10
360.1286066363489
 20
239.2687251026905
 30
0.0
 11
347.5287079307488
 21
239.2687251026905
 31
0.0
  0
LINE
  5
6FF
330
1F
100
AcDbEntity
  8
0
  6
Continuous
 62
     9
100
AcDbLine
 10
363.3286066363489
 20
242.4687251026905
 30
0.0
 11
344.3286066363488
 21
242.4687251026905
 31
0.0
  0
LINE
  5
700
330
1F
100
AcDbEntity
  8
0
  6
Continuous
 62
     7
100
AcDbLine
 10
344.3286066363488
 20
243.5578600263905
 30
0.0
 11
363.3286066363489
 21
243.5578600263905
 31
0.0
  0
LINE
  5
701
330
1F
100
AcDbEntity
  8
0
  6
Continuous
 62
     7
100
AcDbLine
 10
363.3286066363489
 20
244.6078600263906
 30
0.0
 11
362.5521912900488
 21
244.6078600263906
 31
0.0
  0
LINE
  5
702
330
1F
100
AcDbEntity
  8
0
  6
Continuous
 62
     7
100
AcDbLine
 10
354.6050219826489
 20
244.6078600263906
 30
0.0
 11
353.0521912900488
 21
244.6078600263906
 31
0.0
  0
LINE
  5
703
330
1F
100
AcDbEntity
  8
0
  6
Continuous
 62
     7
100
AcDbLine
 10
345.1050219826488
 20
244.6078600263906
 30
0.0
 11
344.3286066363488
 21
244.6078600263906
 31
0.0
  0
LINE
  5
704
330
1F
100
AcDbEntity
  8
RUNDUNGEN
  6
Continuous
 62
     9
100
AcDbLine
 10
402.8286066363488
 20
268.2687251026905
 30
0.0
 11
402.8286066363488
 21
376.2687251026905
 31
0.0
  0
LINE
  5
705
330
1F
100
AcDbEntity
  8
RUNDUNGEN
  6
Continuous
 62
     7
100
AcDbLine
 10
403.3286066363488
 20
375.7687251026905
 30
0.0
 11
403.3286066363488
 21
268.7687251026905
 31
0.0
  0
LINE
  5
706
330
1F
100
AcDbEntity
  8
0
  6
Continuous
 62
     7
100
AcDbLine
 10
344.3286066363488
 20
254.5687251026905
 30
0.0
 11
363.3286066363489
 21
254.5687251026905
 31
0.0
  0
LINE
  5
707
330
1F
100
AcDbEntity
  8
0
  6
Continuous
 62
     7
100
AcDbLine
 10
363.3286066363489
 20
259.8687251026905
 30
0.0
 11
344.3286066363488
 21
259.8687251026905
 31
0.0
  0
LINE
  5
708
330
1F
100
AcDbEntity
  8
0
  6
Continuous
 62
     7
100
AcDbLine
 10
363.3286066363489
 20
260.1500717547905
 30
0.0
 11
362.5521912900488
 21
260.1500717547905
 31
0.0
  0
LINE
  5
709
330
1F
100
AcDbEntity
  8
0
  6
Continuous
 62
     7
100
AcDbLine
 10
354.6050219826489
 20
260.1500717547905
 30
0.0
 11
353.0521912900488
 21
260.1500717547905
 31
0.0
  0
LINE
  5
70A
330
1F
100
AcDbEntity
  8
0
  6
Continuous
 62
     7
100
AcDbLine
 10
345.1050219826488
 20
260.1500717547905
 30
0.0
 11
344.3286066363488
 21
260.1500717547905
 31
0.0
  0
LINE
  5
70B
330
1F
100
AcDbEntity
  8
RUNDUNGEN
  6
Continuous
 62
     7
100
AcDbLine
 10
382.8286066363489
 20
263.2687251026905
 30
0.0
 11
378.3286066363489
 21
263.2687251026905
 31
0.0
  0
LINE
  5
70C
330
1F
100
AcDbEntity
  8
RUNDUNGEN
  6
Continuous
 62
     7
100
AcDbLine
 10
378.3286066363489
 20
265.2687251026905
 30
0.0
 11
327.3286066363489
 21
265.2687251026905
 31
0.0
  0
LINE
  5
70D
330
1F
100
AcDbEntity
  8
RUNDUNGEN
  6
Continuous
 62
     7
100
AcDbLine
 10
383.8286066363489
 20
268.2687251026905
 30
0.0
 11
402.8286066363488
 21
268.2687251026905
 31
0.0
  0
LINE
  5
70E
330
1F
100
AcDbEntity
  8
RUNDUNGEN
  6
Continuous
 62
     9
100
AcDbLine
 10
383.3286066363489
 20
271.2687251026905
 30
0.0
 11
378.3286066363489
 21
271.2687251026905
 31
0.0
  0
LINE
  5
70F
330
1F
100
AcDbEntity
  8
RUNDUNGEN
  6
Continuous
 62
     9
100
AcDbLine
 10
326.3286066363489
 20
273.2687251026905
 30
0.0
 11
378.3286066363489
 21
273.2687251026905
 31
0.0
  0
LINE
  5
710
330
1F
100
AcDbEntity
  8
RUNDUNGEN
  6
Continuous
 62
     9
100
AcDbLine
 10
383.3286066363489
 20
274.2687251026905
 30
0.0
 11
403.3286066363488
 21
274.2687251026905
 31
0.0
  0
LINE
  5
711
330
1F
100
AcDbEntity
  8
RUNDUNGEN
  6
Continuous
 62
     9
100
AcDbLine
 10
383.3286066363489
 20
370.2687251026905
 30
0.0
 11
403.3286066363488
 21
370.2687251026905
 31
0.0
  0
LINE
  5
712
330
1F
100
AcDbEntity
  8
RUNDUNGEN
  6
Continuous
 62
     9
100
AcDbLine
 10
326.3286066363489
 20
371.2687251026905
 30
0.0
 11
378.3286066363489
 21
371.2687251026905
 31
0.0
  0
LINE
  5
713
330
1F
100
AcDbEntity
  8
RUNDUNGEN
  6
Continuous
 62
     9
100
AcDbLine
 10
383.3286066363489
 20
373.2687251026905
 30
0.0
 11
378.3286066363489
 21
373.2687251026905
 31
0.0
  0
LINE
  5
714
330
1F
100
AcDbEntity
  8
RUNDUNGEN
  6
Continuous
 62
     7
100
AcDbLine
 10
383.8286066363489
 20
376.2687251026905
 30
0.0
 11
402.8286066363488
 21
376.2687251026905
 31
0.0
  0
LINE
  5
715
330
1F
100
AcDbEntity
  8
RUNDUNGEN
  6
Continuous
 62
     7
100
AcDbLine
 10
378.3286066363489
 20
379.2687251026905
 30
0.0
 11
327.3286066363489
 21
379.2687251026905
 31
0.0
  0
LINE
  5
716
330
1F
100
AcDbEntity
  8
RUNDUNGEN
  6
Continuous
 62
     7
100
AcDbLine
 10
382.8286066363489
 20
381.2687251026905
 30
0.0
 11
378.3286066363489
 21
381.2687251026905
 31
0.0
  0
ARC
  5
717
330
1F
100
AcDbEntity
  8
RUNDUNGEN
  6
Continuous
 62
     7
100
AcDbCircle
 10
65.50037731167872
 20
271.2687251026905
 30
0.0
 40
8.0
100
AcDbArc
 50
180.0
 51
270.0
  0
ARC
  5
718
330
1F
100
AcDbEntity
  8
RUNDUNGEN
  6
Continuous
 62
     9
100
AcDbCircle
 10
65.50037731167872
 20
271.2687251026905
 30
0.0
 40
7.4999989072
100
AcDbArc
 50
180.0
 51
270.0
  0
ARC
  5
719
330
1F
100
AcDbEntity
  8
RUNDUNGEN
  6
Continuous
 62
     9
100
AcDbCircle
 10
68.50037731167872
 20
274.2687251026905
 30
0.0
 40
6.499998276
100
AcDbArc
 50
180.0
 51
270.0
  0
ARC
  5
71A
330
1F
100
AcDbEntity
  8
RUNDUNGEN
  6
Continuous
 62
     7
100
AcDbCircle
 10
68.50037731167872
 20
274.2687251026905
 30
0.0
 40
6.0
100
AcDbArc
 50
180.0
 51
270.0
  0
ARC
  5
71B
330
1F
100
AcDbEntity
  8
RUNDUNGEN
  6
Continuous
 62
     9
100
AcDbCircle
 10
68.50037731167872
 20
274.2687251026905
 30
0.0
 40
5.4999983684
100
AcDbArc
 50
180.0
 51
270.0
  0
CIRCLE
  5
71C
330
1F
100
AcDbEntity
  8
BEZUGSACHSEN
  6
Continuous
 62
     7
100
AcDbCircle
 10
68.00037731167872
 20
274.2687251026905
 30
0.0
 40
4.0
  0
CIRCLE
  5
71D
330
1F
100
AcDbEntity
  8
0
  6
Continuous
 62
     7
100
AcDbCircle
 10
68.00037731167872
 20
274.2687251026905
 30
0.0
 40
3.5
  0
ARC
  5
71E
330
1F
100
AcDbEntity
  8
0
  6
Continuous
 62
    40
100
AcDbCircle
 10
68.00037731167872
 20
274.2687251026905
 30
0.0
 40
1.732050807599998
100
AcDbArc
 50
180.0
 51
210.0000000000001
  0
CIRCLE
  5
71F
330
1F
100
AcDbEntity
  8
0
  6
Continuous
 62
     7
100
AcDbCircle
 10
68.00037731167872
 20
274.2687251026905
 30
0.0
 40
1.0
  0
ARC
  5
720
330
1F
100
AcDbEntity
  8
0
  6
Continuous
 62
     7
100
AcDbCircle
 10
90.70037731167872
 20
242.4687251026905
 30
0.0
 40
3.2
100
AcDbArc
 50
180.0
 51
270.0
  0
ARC
  5
721
330
1F
100
AcDbEntity
  8
0
  6
Continuous
 62
     7
100
AcDbCircle
 10
97.00037731167874
 20
262.5687251026905
 30
0.0
 40
1.8
100
AcDbArc
 50
157.0962178326001
 51
210.2608295226992
  0
ARC
  5
722
330
1F
100
AcDbEntity
  8
0
  6
Continuous
 62
     7
100
AcDbCircle
 10
97.00037731167874
 20
262.5687251026905
 30
0.0
 40
1.8
100
AcDbArc
 50
221.7391704773007
 51
282.2608295226997
  0
ARC
  5
723
330
1F
100
AcDbEntity
  8
0
  6
Continuous
 62
     7
100
AcDbCircle
 10
97.00037731167874
 20
262.5687251026905
 30
0.0
 40
1.8
100
AcDbArc
 50
293.7391704773
 51
354.2608295226992
  0
ARC
  5
724
330
1F
100
AcDbEntity
  8
0
  6
Continuous
 62
     7
100
AcDbCircle
 10
97.00037731167874
 20
262.5687251026905
 30
0.0
 40
1.8
100
AcDbArc
 50
5.739170477299174
 51
22.90076261870011
  0
ARC
  5
725
330
1F
100
AcDbEntity
  8
0
  6
Continuous
 62
     7
100
AcDbCircle
 10
96.1266389576787
 20
263.2035331751905
 30
0.0
 40
0.6
100
AcDbArc
 50
173.7575359180993
 51
6.265917661600134
  0
ARC
  5
726
330
1F
100
AcDbEntity
  8
0
  6
Continuous
 62
     7
100
AcDbCircle
 10
96.1266389576787
 20
261.9339170301905
 30
0.0
 40
0.6
100
AcDbArc
 50
233.4576031237001
 51
198.5423968763
  0
ARC
  5
727
330
1F
100
AcDbEntity
  8
0
  6
Continuous
 62
     7
100
AcDbCircle
 10
98.08037731167871
 20
262.5687251026905
 30
0.0
 40
0.6
100
AcDbArc
 50
17.4576031237006
 51
342.5423968762993
  0
ARC
  5
728
330
1F
100
AcDbEntity
  8
0
  6
Continuous
 62
     7
100
AcDbCircle
 10
97.33411566557872
 20
263.5958661402905
 30
0.0
 40
0.6
100
AcDbArc
 50
213.1455925341995
 51
326.8976147829004
  0
ARC
  5
729
330
1F
100
AcDbEntity
  8
0
  6
Continuous
 62
     7
100
AcDbCircle
 10
97.33411566557872
 20
261.5415840650905
 30
0.0
 40
0.6
100
AcDbArc
 50
305.4576031236991
 51
270.5423968763
  0
ARC
  5
72A
102
{ACAD_REACTORS
330
9A1
102
}
330
1F
100
AcDbEntity
  8
RUNDUNGEN
  6
Continuous
 62
     7
100
AcDbCircle
 10
65.50037731167872
 20
373.2687251026905
 30
0.0
 40
8.0
100
AcDbArc
 50
90.0
 51
180.0
  0
ARC
  5
72B
330
1F
100
AcDbEntity
  8
RUNDUNGEN
  6
Continuous
 62
     9
100
AcDbCircle
 10
65.50037731167872
 20
373.2687251026905
 30
0.0
 40
7.4999989072
100
AcDbArc
 50
90.0
 51
180.0
  0
ARC
  5
72C
330
1F
100
AcDbEntity
  8
RUNDUNGEN
  6
Continuous
 62
     9
100
AcDbCircle
 10
68.50037731167872
 20
370.2687251026905
 30
0.0
 40
6.499998276
100
AcDbArc
 50
90.0
 51
180.0
  0
ARC
  5
72D
330
1F
100
AcDbEntity
  8
RUNDUNGEN
  6
Continuous
 62
     7
100
AcDbCircle
 10
68.50037731167872
 20
370.2687251026905
 30
0.0
 40
6.0
100
AcDbArc
 50
90.0
 51
180.0
  0
ARC
  5
72E
330
1F
100
AcDbEntity
  8
RUNDUNGEN
  6
Continuous
 62
     9
100
AcDbCircle
 10
68.50037731167872
 20
370.2687251026905
 30
0.0
 40
5.4999983684
100
AcDbArc
 50
90.0
 51
180.0
  0
CIRCLE
  5
72F
330
1F
100
AcDbEntity
  8
BEZUGSACHSEN
  6
Continuous
 62
     7
100
AcDbCircle
 10
68.00037731167872
 20
370.2687251026905
 30
0.0
 40
4.0
  0
CIRCLE
  5
730
330
1F
100
AcDbEntity
  8
0
  6
Continuous
 62
     7
100
AcDbCircle
 10
68.00037731167872
 20
370.2687251026905
 30
0.0
 40
3.5
  0
ARC
  5
731
330
1F
100
AcDbEntity
  8
0
  6
Continuous
 62
    40
100
AcDbCircle
 10
68.00037731167872
 20
370.2687251026905
 30
0.0
 40
1.732050807599998
100
AcDbArc
 50
180.0
 51
210.0000000000001
  0
CIRCLE
  5
732
330
1F
100
AcDbEntity
  8
0
  6
Continuous
 62
     7
100
AcDbCircle
 10
68.00037731167872
 20
370.2687251026905
 30
0.0
 40
1.0
  0
ARC
  5
733
330
1F
100
AcDbEntity
  8
0
  6
Continuous
 62
     7
100
AcDbCircle
 10
103.3003773116787
 20
242.4687251026905
 30
0.0
 40
3.2
100
AcDbArc
 50
270.0
 51
0.0
  0
ARC
  5
734
330
1F
100
AcDbEntity
  8
0
  6
Continuous
 62
     7
100
AcDbCircle
 10
130.7003773116787
 20
242.4687251026905
 30
0.0
 40
3.2
100
AcDbArc
 50
180.0
 51
270.0
  0
ARC
  5
735
330
1F
100
AcDbEntity
  8
0
  6
Continuous
 62
     7
100
AcDbCircle
 10
136.1266389576787
 20
263.2035331751905
 30
0.0
 40
0.6
100
AcDbArc
 50
173.7575359180993
 51
6.265917661600134
  0
ARC
  5
736
330
1F
100
AcDbEntity
  8
0
  6
Continuous
 62
     7
100
AcDbCircle
 10
136.1266389576787
 20
261.9339170301905
 30
0.0
 40
0.6
100
AcDbArc
 50
233.4576031237001
 51
198.5423968763
  0
ARC
  5
737
330
1F
100
AcDbEntity
  8
0
  6
Continuous
 62
     7
100
AcDbCircle
 10
170.7003773116787
 20
242.4687251026905
 30
0.0
 40
3.2
100
AcDbArc
 50
180.0
 51
270.0
  0
ARC
  5
738
330
1F
100
AcDbEntity
  8
0
  6
Continuous
 62
     7
100
AcDbCircle
 10
143.3003773116787
 20
242.4687251026905
 30
0.0
 40
3.2
100
AcDbArc
 50
270.0
 51
0.0
  0
ARC
  5
739
330
1F
100
AcDbEntity
  8
0
  6
Continuous
 62
     7
100
AcDbCircle
 10
137.0003773116787
 20
262.5687251026905
 30
0.0
 40
1.8
100
AcDbArc
 50
157.0962178326001
 51
210.2608295226992
  0
ARC
  5
73A
330
1F
100
AcDbEntity
  8
0
  6
Continuous
 62
     7
100
AcDbCircle
 10
137.0003773116787
 20
262.5687251026905
 30
0.0
 40
1.8
100
AcDbArc
 50
221.7391704773007
 51
282.2608295226997
  0
ARC
  5
73B
330
1F
100
AcDbEntity
  8
0
  6
Continuous
 62
     7
100
AcDbCircle
 10
137.0003773116787
 20
262.5687251026905
 30
0.0
 40
1.8
100
AcDbArc
 50
293.7391704773
 51
354.2608295226992
  0
ARC
  5
73C
330
1F
100
AcDbEntity
  8
0
  6
Continuous
 62
     7
100
AcDbCircle
 10
137.0003773116787
 20
262.5687251026905
 30
0.0
 40
1.8
100
AcDbArc
 50
5.739170477299174
 51
22.90076261870011
  0
ARC
  5
73D
330
1F
100
AcDbEntity
  8
0
  6
Continuous
 62
     7
100
AcDbCircle
 10
138.0803773116787
 20
262.5687251026905
 30
0.0
 40
0.6
100
AcDbArc
 50
17.4576031237006
 51
342.5423968762993
  0
ARC
  5
73E
330
1F
100
AcDbEntity
  8
0
  6
Continuous
 62
     7
100
AcDbCircle
 10
137.3341156655787
 20
263.5958661402905
 30
0.0
 40
0.6
100
AcDbArc
 50
213.1455925341995
 51
326.8976147829004
  0
ARC
  5
73F
330
1F
100
AcDbEntity
  8
0
  6
Continuous
 62
     7
100
AcDbCircle
 10
137.3341156655787
 20
261.5415840650905
 30
0.0
 40
0.6
100
AcDbArc
 50
305.4576031236991
 51
270.5423968763
  0
ARC
  5
740
102
{ACAD_REACTORS
330
9CC
102
}
330
1F
100
AcDbEntity
  8
RUNDUNGEN
  6
Continuous
 62
     7
100
AcDbCircle
 10
208.5003773116787
 20
271.2687251026905
 30
0.0
 40
8.0
100
AcDbArc
 50
270.0
 51
0.0
  0
ARC
  5
741
330
1F
100
AcDbEntity
  8
RUNDUNGEN
  6
Continuous
 62
     9
100
AcDbCircle
 10
208.5003773116787
 20
271.2687251026905
 30
0.0
 40
7.4999989072
100
AcDbArc
 50
270.0
 51
0.0
  0
ARC
  5
742
330
1F
100
AcDbEntity
  8
RUNDUNGEN
  6
Continuous
 62
     9
100
AcDbCircle
 10
205.5003773116787
 20
274.2687251026905
 30
0.0
 40
6.499998276
100
AcDbArc
 50
270.0
 51
0.0
  0
ARC
  5
743
330
1F
100
AcDbEntity
  8
RUNDUNGEN
  6
Continuous
 62
     7
100
AcDbCircle
 10
205.5003773116787
 20
274.2687251026905
 30
0.0
 40
6.0
100
AcDbArc
 50
270.0
 51
0.0
  0
ARC
  5
744
330
1F
100
AcDbEntity
  8
RUNDUNGEN
  6
Continuous
 62
     9
100
AcDbCircle
 10
205.5003773116787
 20
274.2687251026905
 30
0.0
 40
5.4999983684
100
AcDbArc
 50
270.0
 51
0.0
  0
CIRCLE
  5
745
330
1F
100
AcDbEntity
  8
BEZUGSACHSEN
  6
Continuous
 62
     7
100
AcDbCircle
 10
206.0003773116787
 20
274.2687251026905
 30
0.0
 40
4.0
  0
CIRCLE
  5
746
330
1F
100
AcDbEntity
  8
0
  6
Continuous
 62
     7
100
AcDbCircle
 10
206.0003773116787
 20
274.2687251026905
 30
0.0
 40
3.5
  0
ARC
  5
747
330
1F
100
AcDbEntity
  8
0
  6
Continuous
 62
     7
100
AcDbCircle
 10
183.3003773116787
 20
242.4687251026905
 30
0.0
 40
3.2
100
AcDbArc
 50
270.0
 51
0.0
  0
ARC
  5
748
330
1F
100
AcDbEntity
  8
0
  6
Continuous
 62
     7
100
AcDbCircle
 10
177.0003773116787
 20
262.5687251026905
 30
0.0
 40
1.8
100
AcDbArc
 50
157.0962178326001
 51
210.2608295226992
  0
ARC
  5
749
330
1F
100
AcDbEntity
  8
0
  6
Continuous
 62
     7
100
AcDbCircle
 10
177.0003773116787
 20
262.5687251026905
 30
0.0
 40
1.8
100
AcDbArc
 50
221.7391704773007
 51
282.2608295226997
  0
ARC
  5
74A
330
1F
100
AcDbEntity
  8
0
  6
Continuous
 62
     7
100
AcDbCircle
 10
177.0003773116787
 20
262.5687251026905
 30
0.0
 40
1.8
100
AcDbArc
 50
293.7391704773
 51
354.2608295226992
  0
ARC
  5
74B
330
1F
100
AcDbEntity
  8
0
  6
Continuous
 62
     7
100
AcDbCircle
 10
177.0003773116787
 20
262.5687251026905
 30
0.0
 40
1.8
100
AcDbArc
 50
5.739170477299174
 51
22.90076261870011
  0
ARC
  5
74C
330
1F
100
AcDbEntity
  8
0
  6
Continuous
 62
    40
100
AcDbCircle
 10
206.0003773116787
 20
274.2687251026905
 30
0.0
 40
1.732050807599998
100
AcDbArc
 50
180.0
 51
210.0000000000001
  0
CIRCLE
  5
74D
330
1F
100
AcDbEntity
  8
0
  6
Continuous
 62
     7
100
AcDbCircle
 10
206.0003773116787
 20
274.2687251026905
 30
0.0
 40
1.0
  0
ARC
  5
74E
330
1F
100
AcDbEntity
  8
0
  6
Continuous
 62
     7
100
AcDbCircle
 10
176.1266389576787
 20
263.2035331751905
 30
0.0
 40
0.6
100
AcDbArc
 50
173.7575359180993
 51
6.265917661600134
  0
ARC
  5
74F
330
1F
100
AcDbEntity
  8
0
  6
Continuous
 62
     7
100
AcDbCircle
 10
176.1266389576787
 20
261.9339170301905
 30
0.0
 40
0.6
100
AcDbArc
 50
233.4576031237001
 51
198.5423968763
  0
ARC
  5
750
330
1F
100
AcDbEntity
  8
0
  6
Continuous
 62
     7
100
AcDbCircle
 10
178.0803773116787
 20
262.5687251026905
 30
0.0
 40
0.6
100
AcDbArc
 50
17.4576031237006
 51
342.5423968762993
  0
ARC
  5
751
330
1F
100
AcDbEntity
  8
0
  6
Continuous
 62
     7
100
AcDbCircle
 10
177.3341156655787
 20
263.5958661402905
 30
0.0
 40
0.6
100
AcDbArc
 50
213.1455925341995
 51
326.8976147829004
  0
ARC
  5
752
330
1F
100
AcDbEntity
  8
0
  6
Continuous
 62
     7
100
AcDbCircle
 10
177.3341156655787
 20
261.5415840650905
 30
0.0
 40
0.6
100
AcDbArc
 50
305.4576031236991
 51
270.5423968763
  0
ARC
  5
753
102
{ACAD_REACTORS
330
9CC
330
9A1
102
}
330
1F
100
AcDbEntity
  8
RUNDUNGEN
  6
Continuous
 62
     7
100
AcDbCircle
 10
208.5003773116787
 20
373.2687251026905
 30
0.0
 40
8.0
100
AcDbArc
 50
0.0
 51
90.0
  0
ARC
  5
754
330
1F
100
AcDbEntity
  8
RUNDUNGEN
  6
Continuous
 62
     9
100
AcDbCircle
 10
208.5003773116787
 20
373.2687251026905
 30
0.0
 40
7.4999989072
100
AcDbArc
 50
0.0
 51
90.0
  0
ARC
  5
755
330
1F
100
AcDbEntity
  8
RUNDUNGEN
  6
Continuous
 62
     9
100
AcDbCircle
 10
205.5003773116787
 20
370.2687251026905
 30
0.0
 40
6.499998276
100
AcDbArc
 50
0.0
 51
90.0
  0
ARC
  5
756
330
1F
100
AcDbEntity
  8
RUNDUNGEN
  6
Continuous
 62
     7
100
AcDbCircle
 10
205.5003773116787
 20
370.2687251026905
 30
0.0
 40
6.0
100
AcDbArc
 50
0.0
 51
90.0
  0
ARC
  5
757
330
1F
100
AcDbEntity
  8
RUNDUNGEN
  6
Continuous
 62
     9
100
AcDbCircle
 10
205.5003773116787
 20
370.2687251026905
 30
0.0
 40
5.4999983684
100
AcDbArc
 50
0.0
 51
90.0
  0
CIRCLE
  5
758
330
1F
100
AcDbEntity
  8
BEZUGSACHSEN
  6
Continuous
 62
     7
100
AcDbCircle
 10
206.0003773116787
 20
370.2687251026905
 30
0.0
 40
4.5
  0
CIRCLE
  5
759
330
1F
100
AcDbEntity
  8
0
  6
Continuous
 62
     7
100
AcDbCircle
 10
206.0003773116787
 20
370.2687251026905
 30
0.0
 40
3.5
  0
ARC
  5
75A
330
1F
100
AcDbEntity
  8
0
  6
Continuous
 62
    40
100
AcDbCircle
 10
206.0003773116787
 20
370.2687251026905
 30
0.0
 40
1.732050807599998
100
AcDbArc
 50
180.0
 51
210.0000000000001
  0
CIRCLE
  5
75B
330
1F
100
AcDbEntity
  8
0
  6
Continuous
 62
     7
100
AcDbCircle
 10
206.0003773116787
 20
370.2687251026905
 30
0.0
 40
1.0
  0
ARC
  5
75C
330
1F
100
AcDbEntity
  8
0
  6
Continuous
 62
     7
100
AcDbCircle
 10
347.5286066363489
 20
242.4687251026905
 30
0.0
 40
3.2
100
AcDbArc
 50
180.0
 51
270.0
  0
ARC
  5
75D
330
1F
100
AcDbEntity
  8
0
  6
Continuous
 62
     7
100
AcDbCircle
 10
360.1286066363489
 20
242.4687251026905
 30
0.0
 40
3.2
100
AcDbArc
 50
270.0
 51
0.0
  0
ARC
  5
75E
330
1F
100
AcDbEntity
  8
RUNDUNGEN
  6
Continuous
 62
     7
100
AcDbCircle
 10
327.3286066363489
 20
266.2687251026905
 30
0.0
 40
1.0
100
AcDbArc
 50
180.0
 51
270.0
  0
ARC
  5
75F
102
{ACAD_REACTORS
330
A83
102
}
330
1F
100
AcDbEntity
  8
RUNDUNGEN
  6
Continuous
 62
     7
100
AcDbCircle
 10
327.3286066363489
 20
378.2687251026905
 30
0.0
 40
1.0
100
AcDbArc
 50
90.0
 51
180.0
  0
ARC
  5
760
330
1F
100
AcDbEntity
  8
RUNDUNGEN
  6
Continuous
 62
     7
100
AcDbCircle
 10
383.8286066363489
 20
267.7687251026905
 30
0.0
 40
0.5
100
AcDbArc
 50
90.0
 51
180.0
  0
ARC
  5
761
330
1F
100
AcDbEntity
  8
RUNDUNGEN
  6
Continuous
 62
     7
100
AcDbCircle
 10
382.8286066363489
 20
263.7687251026905
 30
0.0
 40
0.5
100
AcDbArc
 50
270.0
 51
0.0
  0
ARC
  5
762
330
1F
100
AcDbEntity
  8
RUNDUNGEN
  6
Continuous
 62
     7
100
AcDbCircle
 10
382.8286066363489
 20
380.7687251026905
 30
0.0
 40
0.5
100
AcDbArc
 50
0.0
 51
90.0
  0
ARC
  5
763
330
1F
100
AcDbEntity
  8
RUNDUNGEN
  6
Continuous
 62
     7
100
AcDbCircle
 10
383.8286066363489
 20
376.7687251026905
 30
0.0
 40
0.5
100
AcDbArc
 50
180.0000000000993
 51
270.0
  0
ARC
  5
764
330
1F
100
AcDbEntity
  8
RUNDUNGEN
  6
Continuous
 62
     7
100
AcDbCircle
 10
402.8286066363488
 20
268.7687251026905
 30
0.0
 40
0.5
100
AcDbArc
 50
270.0
 51
0.0
  0
ARC
  5
765
102
{ACAD_REACTORS
330
A83
102
}
330
1F
100
AcDbEntity
  8
RUNDUNGEN
  6
Continuous
 62
     7
100
AcDbCircle
 10
402.8286066363488
 20
375.7687251026905
 30
0.0
 40
0.5
100
AcDbArc
 50
0.0
 51
90.0
  0
SPLINE
  5
766
330
1F
100
AcDbEntity
  8
0
  6
Continuous
 62
     7
100
AcDbSpline
210
0.0
220
0.0
230
1.0
 70
     8
 71
     3
 72
    11
 73
     7
 74
     5
 42
0.0000000001
 43
0.0000000001
 44
0.0000000001
 12
-0.9932783230931029
 22
-0.1157504767737631
 32
0.0
 13
-1.0
 23
0.0
 33
0.0
 40
0.0
 40
0.0
 40
0.0
 40
0.0
 40
1.178298589884581
 40
2.308413193246894
 40
3.454271423713791
 40
4.599382518643501
 40
4.599382518643501
 40
4.599382518643501
 40
4.599382518643501
 10
101.5886776505787
 20
260.1500717547905
 30
0.0
 10
101.1985515014242
 20
260.1046088802701
 30
0.0
 10
100.4331494490695
 20
260.0246320103987
 30
0.0
 10
99.28501978662239
 20
259.9357077769546
 30
0.0
 10
98.14579307516584
 20
259.8811033819815
 30
0.0
 10
97.38208100998864
 20
259.8687251026905
 30
0.0
 10
97.00037731167874
 20
259.8687251026905
 30
0.0
 11
101.5886776505787
 21
260.1500717547905
 31
0.0
 11
100.4166864567787
 21
260.0283170481906
 31
0.0
 11
99.28990361667871
 21
259.9416022974905
 31
0.0
 11
98.14534028967873
 21
259.8871424515905
 31
0.0
 11
97.00037731167874
 21
259.8687251026905
 31
0.0
  0
SPLINE
  5
767
330
1F
100
AcDbEntity
  8
0
  6
Continuous
 62
     7
100
AcDbSpline
210
0.0
220
0.0
230
1.0
 70
     8
 71
     3
 72
    11
 73
     7
 74
     5
 42
0.0000000001
 43
0.0000000001
 44
0.0000000001
 12
-0.9738984558718215
 22
-0.2269841352396277
 32
0.0
 13
-1.0
 23
0.0
 33
0.0
 40
0.0
 40
0.0
 40
0.0
 40
0.0
 40
0.5985106917720113
 40
1.168536428235976
 40
1.743403523479539
 40
2.316181188885736
 40
2.316181188885736
 40
2.316181188885736
 40
2.316181188885736
 10
107.5217688170787
 20
260.1500717547905
 30
0.0
 10
107.3274726042322
 20
260.104787610856
 30
0.0
 10
106.9460305289962
 20
260.0249970727712
 30
0.0
 10
106.3714819456798
 20
259.935896146216
 30
0.0
 10
105.8012036332272
 20
259.8811478345037
 30
0.0
 10
105.4185445360474
 20
259.8687251026905
 30
0.0
 10
105.2276186475787
 20
259.8687251026905
 30
0.0
 11
107.5217688170787
 21
260.1500717547905
 31
0.0
 11
106.9357732201787
 21
260.0283170481906
 31
0.0
 11
106.3723818000787
 21
259.9416022974905
 31
0.0
 11
105.8001001365787
 21
259.8871424515905
 31
0.0
 11
105.2276186475787
 21
259.8687251026905
 31
0.0
  0
SPLINE
  5
768
330
1F
100
AcDbEntity
  8
0
  6
Continuous
 62
     7
100
AcDbSpline
210
0.0
220
0.0
230
1.0
 70
     8
 71
     3
 72
    11
 73
     7
 74
     5
 42
0.0000000001
 43
0.0000000001
 44
0.0000000001
 12
-1.0
 22
0.0
 32
0.0
 13
-0.7545103387477568
 23
0.6562881598221513
 33
0.0
 40
0.0
 40
0.0
 40
0.0
 40
0.0
 40
0.5603356636881364
 40
1.168706813351093
 40
1.81535343694847
 40
2.575228220973362
 40
2.575228220973362
 40
2.575228220973362
 40
2.575228220973362
 10
88.77313597567871
 20
243.5578600263905
 30
0.0
 10
88.586357421116
 20
243.5578600263905
 30
0.0
 10
88.19544917821994
 20
243.6048049282792
 30
0.0
 10
87.62237303365768
 20
243.8117574716829
 30
0.0
 10
87.03951039718424
 20
244.1506947735827
 30
0.0
 10
86.6700969331789
 20
244.441627751823
 30
0.0
 10
86.47898580627872
 20
244.6078600263906
 30
0.0
 11
88.77313597567871
 21
243.5578600263905
 31
0.0
 11
88.21656574037872
 21
243.6227108488906
 31
0.0
 11
87.64224320897872
 21
243.8233824354905
 31
0.0
 11
87.0801828730787
 21
244.1431323918906
 31
0.0
 11
86.47898580627872
 21
244.6078600263906
 31
0.0
  0
SPLINE
  5
769
330
1F
100
AcDbEntity
  8
0
  6
Continuous
 62
     7
100
AcDbSpline
210
0.0
220
0.0
230
1.0
 70
     8
 71
     3
 72
    11
 73
     7
 74
     5
 42
0.0000000001
 43
0.0000000001
 44
0.0000000001
 12
-1.0
 22
0.0
 32
0.0
 13
-0.9932783230926149
 23
0.1157504767779506
 33
0.0
 40
0.0
 40
0.0
 40
0.0
 40
0.0
 40
1.145217933114254
 40
2.291107787573373
 40
3.42119083528112
 40
4.599382515063226
 40
4.599382515063226
 40
4.599382515063226
 40
4.599382515063226
 10
97.00037731167874
 20
259.8687251026905
 30
0.0
 10
96.61863800064065
 20
259.8687251026905
 30
0.0
 10
95.85487976626739
 20
259.881105299965
 30
0.0
 10
94.7156176316648
 20
259.9357151757873
 30
0.0
 10
93.56752375856725
 20
260.0246401037421
 30
0.0
 10
92.80216772477059
 20
260.1046130052336
 30
0.0
 10
92.4120769727787
 20
260.1500717547905
 30
0.0
 11
97.00037731167874
 21
259.8687251026905
 31
0.0
 11
95.8553075367787
 21
259.8871458772905
 31
0.0
 11
94.7107127997787
 21
259.9416109723906
 31
0.0
 11
93.58396168387873
 21
260.0283267006905
 31
0.0
 11
92.4120769727787
 21
260.1500717547905
 31
0.0
  0
SPLINE
  5
76A
330
1F
100
AcDbEntity
  8
0
  6
Continuous
 62
     7
100
AcDbSpline
210
0.0
220
0.0
230
1.0
 70
     8
 71
     3
 72
    11
 73
     7
 74
     5
 42
0.0000000001
 43
0.0000000001
 44
0.0000000001
 12
-0.9738984558718215
 22
-0.2269841352396277
 32
0.0
 13
-1.0
 23
0.0
 33
0.0
 40
0.0
 40
0.0
 40
0.0
 40
0.0
 40
0.5985106917720113
 40
1.168536428235962
 40
1.743403523479539
 40
2.316181188885721
 40
2.316181188885721
 40
2.316181188885721
 40
2.316181188885721
 10
91.06728614517871
 20
260.1500717547905
 30
0.0
 10
90.8729899323322
 20
260.104787610856
 30
0.0
 10
90.49154785709621
 20
260.0249970727713
 30
0.0
 10
89.91699927377986
 20
259.935896146216
 30
0.0
 10
89.34672096132727
 20
259.8811478345037
 30
0.0
 10
88.96406186414743
 20
259.8687251026905
 30
0.0
 10
88.77313597567871
 20
259.8687251026905
 30
0.0
 11
91.06728614517871
 21
260.1500717547905
 31
0.0
 11
90.48129054827871
 21
260.0283170481906
 31
0.0
 11
89.91789912817871
 21
259.9416022974905
 31
0.0
 11
89.34561746467871
 21
259.8871424515905
 31
0.0
 11
88.77313597567871
 21
259.8687251026905
 31
0.0
  0
SPLINE
  5
76B
330
1F
100
AcDbEntity
  8
0
  6
Continuous
 62
     7
100
AcDbSpline
210
0.0
220
0.0
230
1.0
 70
     8
 71
     3
 72
    11
 73
     7
 74
     5
 42
0.0000000001
 43
0.0000000001
 44
0.0000000001
 12
-1.0
 22
0.0
 32
0.0
 13
-0.9738984558767839
 23
0.2269841352183364
 33
0.0
 40
0.0
 40
0.0
 40
0.0
 40
0.0
 40
0.5728311463485462
 40
1.147714373253186
 40
1.717724580956858
 40
2.316181181026307
 40
2.316181181026307
 40
2.316181181026307
 40
2.316181181026307
 10
88.77313597567871
 20
259.8687251026905
 30
0.0
 10
88.58219226022919
 20
259.8687251026905
 30
0.0
 10
88.19950992895
 20
259.8811497665462
 30
0.0
 10
87.62921401440278
 20
259.935903565312
 30
0.0
 10
87.05468360469714
 20
260.0250051386597
 30
0.0
 10
86.67326445918437
 20
260.104791703513
 30
0.0
 10
86.47898580627872
 20
260.1500717547905
 30
0.0
 11
88.77313597567871
 21
259.8687251026905
 31
0.0
 11
88.20060108827872
 21
259.8871458772905
 31
0.0
 11
87.62830371977871
 21
259.9416109723906
 31
0.0
 11
87.06492816177872
 21
260.0283267006905
 31
0.0
 11
86.47898580627872
 21
260.1500717547905
 31
0.0
  0
SPLINE
  5
76C
330
1F
100
AcDbEntity
  8
0
  6
Continuous
 62
     7
100
AcDbSpline
210
0.0
220
0.0
230
1.0
 70
     8
 71
     3
 72
    11
 73
     7
 74
     5
 42
0.0000000001
 43
0.0000000001
 44
0.0000000001
 12
-0.7545103387440176
 22
-0.6562881598264502
 32
0.0
 13
-1.0
 23
0.0
 33
0.0
 40
0.0
 40
0.0
 40
0.0
 40
0.0
 40
0.761267554159438
 40
1.408306351810071
 40
2.016136212153809
 40
2.575231920018951
 40
2.575231920018951
 40
2.575231920018951
 40
2.575231920018951
 10
107.5217688170787
 20
244.6078600263906
 30
0.0
 10
107.3303074036908
 20
244.441323065639
 30
0.0
 10
106.9603950430333
 20
244.1500486110769
 30
0.0
 10
106.3770393912365
 20
243.8111130831296
 30
0.0
 10
105.8042914077382
 20
243.604622979273
 30
0.0
 10
105.4139838835337
 20
243.5578600263905
 30
0.0
 10
105.2276186475787
 20
243.5578600263905
 30
0.0
 11
107.5217688170787
 21
244.6078600263906
 31
0.0
 11
106.9194127123787
 21
244.1423544816905
 31
0.0
 11
106.3568866291787
 21
243.8226302076905
 31
0.0
 11
105.7829734383787
 21
243.6224283381906
 31
0.0
 11
105.2276186475787
 21
243.5578600263905
 31
0.0
  0
SPLINE
  5
76D
330
1F
100
AcDbEntity
  8
0
  6
Continuous
 62
     7
100
AcDbSpline
210
0.0
220
0.0
230
1.0
 70
     8
 71
     3
 72
    11
 73
     7
 74
     5
 42
0.0000000001
 43
0.0000000001
 44
0.0000000001
 12
-1.0
 22
0.0
 32
0.0
 13
-0.7545103387477568
 23
0.6562881598221513
 33
0.0
 40
0.0
 40
0.0
 40
0.0
 40
0.0
 40
0.5603356636881364
 40
1.168706813351093
 40
1.81535343694847
 40
2.575228220973362
 40
2.575228220973362
 40
2.575228220973362
 40
2.575228220973362
 10
105.2276186475787
 20
243.5578600263905
 30
0.0
 10
105.040840093016
 20
243.5578600263905
 30
0.0
 10
104.6499318501199
 20
243.6048049282792
 30
0.0
 10
104.0768557055576
 20
243.8117574716829
 30
0.0
 10
103.4939930690842
 20
244.1506947735827
 30
0.0
 10
103.1245796050789
 20
244.441627751823
 30
0.0
 10
102.9334684781787
 20
244.6078600263906
 30
0.0
 11
105.2276186475787
 21
243.5578600263905
 31
0.0
 11
104.6710484122787
 21
243.6227108488906
 31
0.0
 11
104.0967258808787
 21
243.8233824354905
 31
0.0
 11
103.5346655449787
 21
244.1431323918906
 31
0.0
 11
102.9334684781787
 21
244.6078600263906
 31
0.0
  0
SPLINE
  5
76E
330
1F
100
AcDbEntity
  8
0
  6
Continuous
 62
     7
100
AcDbSpline
210
0.0
220
0.0
230
1.0
 70
     8
 71
     3
 72
    11
 73
     7
 74
     5
 42
0.0000000001
 43
0.0000000001
 44
0.0000000001
 12
-0.9170273392618454
 22
-0.3988243461053252
 32
0.0
 13
-1.0
 23
0.0
 33
0.0
 40
0.0
 40
0.0
 40
0.0
 40
0.0
 40
1.29152116499265
 40
2.46112194667251
 40
3.626276953891805
 40
4.738861710809033
 40
4.738861710809033
 40
4.738861710809033
 40
4.738861710809033
 10
101.5886776505787
 20
244.6078600263906
 30
0.0
 10
101.1938909114008
 20
244.4361633316875
 30
0.0
 10
100.4285934348058
 20
244.1373145550441
 30
0.0
 10
99.26505035662525
 20
243.8031604582488
 30
0.0
 10
98.13120590213689
 20
243.602459478754
 30
0.0
 10
97.37123889731782
 20
243.5578600263905
 30
0.0
 10
97.00037731167874
 20
243.5578600263905
 30
0.0
 11
101.5886776505787
 21
244.6078600263906
 31
0.0
 11
100.3839654411787
 21
244.1423544816905
 31
0.0
 11
99.2589132747787
 21
243.8226302076905
 31
0.0
 11
98.11108689317871
 21
243.6224283381906
 31
0.0
 11
97.00037731167874
 21
243.5578600263905
 31
0.0
  0
SPLINE
  5
76F
330
1F
100
AcDbEntity
  8
0
  6
Continuous
 62
     7
100
AcDbSpline
210
0.0
220
0.0
230
1.0
 70
     8
 71
     3
 72
    11
 73
     7
 74
     5
 42
0.0000000001
 43
0.0000000001
 44
0.0000000001
 12
-1.0
 22
0.0
 32
0.0
 13
-0.9170273392541389
 23
0.3988243461230451
 33
0.0
 40
0.0
 40
0.0
 40
0.0
 40
0.0
 40
1.115027953321887
 40
2.28107021926396
 40
3.449782039671863
 40
4.738860558236244
 40
4.738860558236244
 40
4.738860558236244
 40
4.738860558236244
 10
97.00037731167874
 20
243.5578600263905
 30
0.0
 10
96.6287013272381
 20
243.5578600263905
 30
0.0
 10
95.86761974610391
 20
243.6026256005392
 30
0.0
 10
94.73302788318425
 20
243.8037900008565
 30
0.0
 10
93.57035201894042
 20
244.1379907052183
 30
0.0
 10
92.80611705410164
 20
244.4364880606347
 30
0.0
 10
92.4120769727787
 20
244.6078600263906
 30
0.0
 11
97.00037731167874
 21
243.5578600263905
 31
0.0
 11
95.88723684097871
 21
243.6227108488906
 31
0.0
 11
94.73859177817871
 21
243.8233824354905
 31
0.0
 11
93.61447110647871
 21
244.1431323918906
 31
0.0
 11
92.4120769727787
 21
244.6078600263906
 31
0.0
  0
SPLINE
  5
770
330
1F
100
AcDbEntity
  8
0
  6
Continuous
 62
     7
100
AcDbSpline
210
0.0
220
0.0
230
1.0
 70
     8
 71
     3
 72
    11
 73
     7
 74
     5
 42
0.0000000001
 43
0.0000000001
 44
0.0000000001
 12
-0.7545103387440176
 22
-0.6562881598264502
 32
0.0
 13
-1.0
 23
0.0
 33
0.0
 40
0.0
 40
0.0
 40
0.0
 40
0.0
 40
0.761267554159438
 40
1.408306351810059
 40
2.016136212153797
 40
2.575231920018938
 40
2.575231920018938
 40
2.575231920018938
 40
2.575231920018938
 10
91.06728614517871
 20
244.6078600263906
 30
0.0
 10
90.87582473179082
 20
244.441323065639
 30
0.0
 10
90.50591237113328
 20
244.1500486110768
 30
0.0
 10
89.92255671933659
 20
243.8111130831297
 30
0.0
 10
89.34980873583823
 20
243.6046229792729
 30
0.0
 10
88.95950121163377
 20
243.5578600263905
 30
0.0
 10
88.77313597567871
 20
243.5578600263905
 30
0.0
 11
91.06728614517871
 21
244.6078600263906
 31
0.0
 11
90.46493004047873
 21
244.1423544816905
 31
0.0
 11
89.90240395727871
 21
243.8226302076905
 31
0.0
 11
89.32849076647871
 21
243.6224283381906
 31
0.0
 11
88.77313597567871
 21
243.5578600263905
 31
0.0
  0
SPLINE
  5
771
330
1F
100
AcDbEntity
  8
0
  6
Continuous
 62
     7
100
AcDbSpline
210
0.0
220
0.0
230
1.0
 70
     8
 71
     3
 72
    11
 73
     7
 74
     5
 42
0.0000000001
 43
0.0000000001
 44
0.0000000001
 12
-1.0
 22
0.0
 32
0.0
 13
-0.9738984558767839
 23
0.2269841352183364
 33
0.0
 40
0.0
 40
0.0
 40
0.0
 40
0.0
 40
0.5728311463485462
 40
1.147714373253186
 40
1.717724580956858
 40
2.316181181026307
 40
2.316181181026307
 40
2.316181181026307
 40
2.316181181026307
 10
105.2276186475787
 20
259.8687251026905
 30
0.0
 10
105.0366749321292
 20
259.8687251026905
 30
0.0
 10
104.6539926008499
 20
259.8811497665462
 30
0.0
 10
104.0836966863027
 20
259.935903565312
 30
0.0
 10
103.5091662765971
 20
260.0250051386597
 30
0.0
 10
103.1277471310843
 20
260.104791703513
 30
0.0
 10
102.9334684781787
 20
260.1500717547905
 30
0.0
 11
105.2276186475787
 21
259.8687251026905
 31
0.0
 11
104.6550837601787
 21
259.8871458772905
 31
0.0
 11
104.0827863916787
 21
259.9416109723906
 31
0.0
 11
103.5194108336787
 21
260.0283267006905
 31
0.0
 11
102.9334684781787
 21
260.1500717547905
 31
0.0
  0
SPLINE
  5
772
330
1F
100
AcDbEntity
  8
0
  6
Continuous
 62
     7
100
AcDbSpline
210
0.0
220
0.0
230
1.0
 70
     8
 71
     3
 72
    11
 73
     7
 74
     5
 42
0.0000000001
 43
0.0000000001
 44
0.0000000001
 12
-0.9932783230931029
 22
-0.1157504767737631
 32
0.0
 13
-1.0
 23
0.0
 33
0.0
 40
0.0
 40
0.0
 40
0.0
 40
0.0
 40
1.178298589884666
 40
2.308413193246908
 40
3.454271423713805
 40
4.599382518643515
 40
4.599382518643515
 40
4.599382518643515
 40
4.599382518643515
 10
181.5886776505787
 20
260.1500717547905
 30
0.0
 10
181.1985515014241
 20
260.1046088802701
 30
0.0
 10
180.4331494490694
 20
260.0246320103986
 30
0.0
 10
179.2850197866224
 20
259.9357077769547
 30
0.0
 10
178.1457930751658
 20
259.8811033819815
 30
0.0
 10
177.3820810099886
 20
259.8687251026905
 30
0.0
 10
177.0003773116787
 20
259.8687251026905
 30
0.0
 11
181.5886776505787
 21
260.1500717547905
 31
0.0
 11
180.4166864567786
 21
260.0283170481906
 31
0.0
 11
179.2899036166787
 21
259.9416022974905
 31
0.0
 11
178.1453402896787
 21
259.8871424515905
 31
0.0
 11
177.0003773116787
 21
259.8687251026905
 31
0.0
  0
SPLINE
  5
773
330
1F
100
AcDbEntity
  8
0
  6
Continuous
 62
     7
100
AcDbSpline
210
0.0
220
0.0
230
1.0
 70
     8
 71
     3
 72
    11
 73
     7
 74
     5
 42
0.0000000001
 43
0.0000000001
 44
0.0000000001
 12
-0.9738984558718215
 22
-0.2269841352396277
 32
0.0
 13
-1.0
 23
0.0
 33
0.0
 40
0.0
 40
0.0
 40
0.0
 40
0.0
 40
0.5985106917720948
 40
1.168536428235976
 40
1.743403523479637
 40
2.31618118888572
 40
2.31618118888572
 40
2.31618118888572
 40
2.31618118888572
 10
187.5217688170787
 20
260.1500717547905
 30
0.0
 10
187.3274726042321
 20
260.104787610856
 30
0.0
 10
186.9460305289962
 20
260.0249970727713
 30
0.0
 10
186.3714819456797
 20
259.935896146216
 30
0.0
 10
185.8012036332272
 20
259.8811478345036
 30
0.0
 10
185.4185445360474
 20
259.8687251026905
 30
0.0
 10
185.2276186475787
 20
259.8687251026905
 30
0.0
 11
187.5217688170787
 21
260.1500717547905
 31
0.0
 11
186.9357732201786
 21
260.0283170481906
 31
0.0
 11
186.3723818000787
 21
259.9416022974905
 31
0.0
 11
185.8001001365786
 21
259.8871424515905
 31
0.0
 11
185.2276186475787
 21
259.8687251026905
 31
0.0
  0
SPLINE
  5
774
330
1F
100
AcDbEntity
  8
0
  6
Continuous
 62
     7
100
AcDbSpline
210
0.0
220
0.0
230
1.0
 70
     8
 71
     3
 72
    11
 73
     7
 74
     5
 42
0.0000000001
 43
0.0000000001
 44
0.0000000001
 12
-1.0
 22
0.0
 32
0.0
 13
-0.7545103387477568
 23
0.6562881598221513
 33
0.0
 40
0.0
 40
0.0
 40
0.0
 40
0.0
 40
0.5603356636881505
 40
1.16870681335108
 40
1.81535343694847
 40
2.575228220973362
 40
2.575228220973362
 40
2.575228220973362
 40
2.575228220973362
 10
168.7731359756787
 20
243.5578600263905
 30
0.0
 10
168.5863574211159
 20
243.5578600263905
 30
0.0
 10
168.1954491782199
 20
243.6048049282792
 30
0.0
 10
167.6223730336577
 20
243.8117574716829
 30
0.0
 10
167.0395103971842
 20
244.1506947735827
 30
0.0
 10
166.6700969331788
 20
244.441627751823
 30
0.0
 10
166.4789858062787
 20
244.6078600263906
 30
0.0
 11
168.7731359756787
 21
243.5578600263905
 31
0.0
 11
168.2165657403787
 21
243.6227108488906
 31
0.0
 11
167.6422432089787
 21
243.8233824354905
 31
0.0
 11
167.0801828730787
 21
244.1431323918906
 31
0.0
 11
166.4789858062787
 21
244.6078600263906
 31
0.0
  0
SPLINE
  5
775
330
1F
100
AcDbEntity
  8
0
  6
Continuous
 62
     7
100
AcDbSpline
210
0.0
220
0.0
230
1.0
 70
     8
 71
     3
 72
    11
 73
     7
 74
     5
 42
0.0000000001
 43
0.0000000001
 44
0.0000000001
 12
-1.0
 22
0.0
 32
0.0
 13
-0.9932783230926149
 23
0.1157504767779506
 33
0.0
 40
0.0
 40
0.0
 40
0.0
 40
0.0
 40
1.145217933114311
 40
2.291107787573445
 40
3.421190835281235
 40
4.599382515063213
 40
4.599382515063213
 40
4.599382515063213
 40
4.599382515063213
 10
177.0003773116787
 20
259.8687251026905
 30
0.0
 10
176.6186380006406
 20
259.8687251026905
 30
0.0
 10
175.8548797662673
 20
259.8811052999651
 30
0.0
 10
174.7156176316647
 20
259.9357151757873
 30
0.0
 10
173.5675237585672
 20
260.0246401037422
 30
0.0
 10
172.8021677247705
 20
260.1046130052336
 30
0.0
 10
172.4120769727787
 20
260.1500717547905
 30
0.0
 11
177.0003773116787
 21
259.8687251026905
 31
0.0
 11
175.8553075367786
 21
259.8871458772905
 31
0.0
 11
174.7107127997786
 21
259.9416109723906
 31
0.0
 11
173.5839616838786
 21
260.0283267006905
 31
0.0
 11
172.4120769727787
 21
260.1500717547905
 31
0.0
  0
SPLINE
  5
776
330
1F
100
AcDbEntity
  8
0
  6
Continuous
 62
     7
100
AcDbSpline
210
0.0
220
0.0
230
1.0
 70
     8
 71
     3
 72
    11
 73
     7
 74
     5
 42
0.0000000001
 43
0.0000000001
 44
0.0000000001
 12
-0.9738984558718215
 22
-0.2269841352396277
 32
0.0
 13
-1.0
 23
0.0
 33
0.0
 40
0.0
 40
0.0
 40
0.0
 40
0.0
 40
0.5985106917719834
 40
1.168536428235948
 40
1.743403523479525
 40
2.316181188885722
 40
2.316181188885722
 40
2.316181188885722
 40
2.316181188885722
 10
171.0672861451787
 20
260.1500717547905
 30
0.0
 10
170.8729899323322
 20
260.104787610856
 30
0.0
 10
170.4915478570962
 20
260.0249970727713
 30
0.0
 10
169.9169992737798
 20
259.935896146216
 30
0.0
 10
169.3467209613272
 20
259.8811478345037
 30
0.0
 10
168.9640618641474
 20
259.8687251026905
 30
0.0
 10
168.7731359756787
 20
259.8687251026905
 30
0.0
 11
171.0672861451787
 21
260.1500717547905
 31
0.0
 11
170.4812905482787
 21
260.0283170481906
 31
0.0
 11
169.9178991281787
 21
259.9416022974905
 31
0.0
 11
169.3456174646787
 21
259.8871424515905
 31
0.0
 11
168.7731359756787
 21
259.8687251026905
 31
0.0
  0
SPLINE
  5
777
330
1F
100
AcDbEntity
  8
0
  6
Continuous
 62
     7
100
AcDbSpline
210
0.0
220
0.0
230
1.0
 70
     8
 71
     3
 72
    11
 73
     7
 74
     5
 42
0.0000000001
 43
0.0000000001
 44
0.0000000001
 12
-1.0
 22
0.0
 32
0.0
 13
-0.9738984558767839
 23
0.2269841352183364
 33
0.0
 40
0.0
 40
0.0
 40
0.0
 40
0.0
 40
0.5728311463485462
 40
1.147714373253172
 40
1.717724580956872
 40
2.316181181026307
 40
2.316181181026307
 40
2.316181181026307
 40
2.316181181026307
 10
168.7731359756787
 20
259.8687251026905
 30
0.0
 10
168.5821922602291
 20
259.8687251026905
 30
0.0
 10
168.1995099289499
 20
259.8811497665462
 30
0.0
 10
167.6292140144028
 20
259.9359035653121
 30
0.0
 10
167.0546836046971
 20
260.0250051386596
 30
0.0
 10
166.6732644591843
 20
260.104791703513
 30
0.0
 10
166.4789858062787
 20
260.1500717547905
 30
0.0
 11
168.7731359756787
 21
259.8687251026905
 31
0.0
 11
168.2006010882787
 21
259.8871458772905
 31
0.0
 11
167.6283037197787
 21
259.9416109723906
 31
0.0
 11
167.0649281617787
 21
260.0283267006905
 31
0.0
 11
166.4789858062787
 21
260.1500717547905
 31
0.0
  0
SPLINE
  5
778
330
1F
100
AcDbEntity
  8
0
  6
Continuous
 62
     7
100
AcDbSpline
210
0.0
220
0.0
230
1.0
 70
     8
 71
     3
 72
    11
 73
     7
 74
     5
 42
0.0000000001
 43
0.0000000001
 44
0.0000000001
 12
-0.7545103387440176
 22
-0.6562881598264502
 32
0.0
 13
-1.0
 23
0.0
 33
0.0
 40
0.0
 40
0.0
 40
0.0
 40
0.0
 40
0.7612675541594605
 40
1.408306351810069
 40
2.016136212153807
 40
2.575231920018935
 40
2.575231920018935
 40
2.575231920018935
 40
2.575231920018935
 10
187.5217688170787
 20
244.6078600263906
 30
0.0
 10
187.3303074036908
 20
244.4413230656389
 30
0.0
 10
186.9603950430333
 20
244.1500486110769
 30
0.0
 10
186.3770393912365
 20
243.8111130831296
 30
0.0
 10
185.8042914077382
 20
243.604622979273
 30
0.0
 10
185.4139838835337
 20
243.5578600263905
 30
0.0
 10
185.2276186475787
 20
243.5578600263905
 30
0.0
 11
187.5217688170787
 21
244.6078600263906
 31
0.0
 11
186.9194127123787
 21
244.1423544816905
 31
0.0
 11
186.3568866291787
 21
243.8226302076905
 31
0.0
 11
185.7829734383787
 21
243.6224283381906
 31
0.0
 11
185.2276186475787
 21
243.5578600263905
 31
0.0
  0
SPLINE
  5
779
330
1F
100
AcDbEntity
  8
0
  6
Continuous
 62
     7
100
AcDbSpline
210
0.0
220
0.0
230
1.0
 70
     8
 71
     3
 72
    11
 73
     7
 74
     5
 42
0.0000000001
 43
0.0000000001
 44
0.0000000001
 12
-1.0
 22
0.0
 32
0.0
 13
-0.7545103387477568
 23
0.6562881598221513
 33
0.0
 40
0.0
 40
0.0
 40
0.0
 40
0.0
 40
0.5603356636881787
 40
1.168706813351189
 40
1.815353436948504
 40
2.575228220973487
 40
2.575228220973487
 40
2.575228220973487
 40
2.575228220973487
 10
185.2276186475787
 20
243.5578600263905
 30
0.0
 10
185.040840093016
 20
243.5578600263905
 30
0.0
 10
184.6499318501198
 20
243.6048049282792
 30
0.0
 10
184.0768557055576
 20
243.8117574716829
 30
0.0
 10
183.4939930690842
 20
244.1506947735828
 30
0.0
 10
183.1245796050787
 20
244.4416277518229
 30
0.0
 10
182.9334684781786
 20
244.6078600263906
 30
0.0
 11
185.2276186475787
 21
243.5578600263905
 31
0.0
 11
184.6710484122787
 21
243.6227108488906
 31
0.0
 11
184.0967258808786
 21
243.8233824354905
 31
0.0
 11
183.5346655449787
 21
244.1431323918906
 31
0.0
 11
182.9334684781786
 21
244.6078600263906
 31
0.0
  0
SPLINE
  5
77A
330
1F
100
AcDbEntity
  8
0
  6
Continuous
 62
     7
100
AcDbSpline
210
0.0
220
0.0
230
1.0
 70
     8
 71
     3
 72
    11
 73
     7
 74
     5
 42
0.0000000001
 43
0.0000000001
 44
0.0000000001
 12
-0.9170273392618454
 22
-0.3988243461053252
 32
0.0
 13
-1.0
 23
0.0
 33
0.0
 40
0.0
 40
0.0
 40
0.0
 40
0.0
 40
1.291521164992637
 40
2.461121946672606
 40
3.626276953891818
 40
4.738861710809046
 40
4.738861710809046
 40
4.738861710809046
 40
4.738861710809046
 10
181.5886776505787
 20
244.6078600263906
 30
0.0
 10
181.1938909114008
 20
244.4361633316875
 30
0.0
 10
180.4285934348058
 20
244.1373145550441
 30
0.0
 10
179.2650503566252
 20
243.8031604582487
 30
0.0
 10
178.1312059021369
 20
243.6024594787541
 30
0.0
 10
177.3712388973177
 20
243.5578600263905
 30
0.0
 10
177.0003773116787
 20
243.5578600263905
 30
0.0
 11
181.5886776505787
 21
244.6078600263906
 31
0.0
 11
180.3839654411787
 21
244.1423544816905
 31
0.0
 11
179.2589132747786
 21
243.8226302076905
 31
0.0
 11
178.1110868931787
 21
243.6224283381906
 31
0.0
 11
177.0003773116787
 21
243.5578600263905
 31
0.0
  0
SPLINE
  5
77B
330
1F
100
AcDbEntity
  8
0
  6
Continuous
 62
     7
100
AcDbSpline
210
0.0
220
0.0
230
1.0
 70
     8
 71
     3
 72
    11
 73
     7
 74
     5
 42
0.0000000001
 43
0.0000000001
 44
0.0000000001
 12
-1.0
 22
0.0
 32
0.0
 13
-0.9170273392541389
 23
0.3988243461230451
 33
0.0
 40
0.0
 40
0.0
 40
0.0
 40
0.0
 40
1.115027953321887
 40
2.281070219264044
 40
3.449782039671838
 40
4.738860558236232
 40
4.738860558236232
 40
4.738860558236232
 40
4.738860558236232
 10
177.0003773116787
 20
243.5578600263905
 30
0.0
 10
176.628701327238
 20
243.5578600263905
 30
0.0
 10
175.8676197461038
 20
243.6026256005392
 30
0.0
 10
174.7330278831842
 20
243.8037900008566
 30
0.0
 10
173.5703520189403
 20
244.1379907052183
 30
0.0
 10
172.8061170541016
 20
244.4364880606347
 30
0.0
 10
172.4120769727787
 20
244.6078600263906
 30
0.0
 11
177.0003773116787
 21
243.5578600263905
 31
0.0
 11
175.8872368409787
 21
243.6227108488906
 31
0.0
 11
174.7385917781786
 21
243.8233824354905
 31
0.0
 11
173.6144711064787
 21
244.1431323918906
 31
0.0
 11
172.4120769727787
 21
244.6078600263906
 31
0.0
  0
SPLINE
  5
77C
330
1F
100
AcDbEntity
  8
0
  6
Continuous
 62
     7
100
AcDbSpline
210
0.0
220
0.0
230
1.0
 70
     8
 71
     3
 72
    11
 73
     7
 74
     5
 42
0.0000000001
 43
0.0000000001
 44
0.0000000001
 12
-0.7545103387440176
 22
-0.6562881598264502
 32
0.0
 13
-1.0
 23
0.0
 33
0.0
 40
0.0
 40
0.0
 40
0.0
 40
0.0
 40
0.761267554159438
 40
1.408306351810047
 40
2.016136212153785
 40
2.575231920018941
 40
2.575231920018941
 40
2.575231920018941
 40
2.575231920018941
 10
171.0672861451787
 20
244.6078600263906
 30
0.0
 10
170.8758247317908
 20
244.441323065639
 30
0.0
 10
170.5059123711332
 20
244.1500486110768
 30
0.0
 10
169.9225567193366
 20
243.8111130831297
 30
0.0
 10
169.3498087358382
 20
243.6046229792729
 30
0.0
 10
168.9595012116337
 20
243.5578600263905
 30
0.0
 10
168.7731359756787
 20
243.5578600263905
 30
0.0
 11
171.0672861451787
 21
244.6078600263906
 31
0.0
 11
170.4649300404787
 21
244.1423544816905
 31
0.0
 11
169.9024039572787
 21
243.8226302076905
 31
0.0
 11
169.3284907664787
 21
243.6224283381906
 31
0.0
 11
168.7731359756787
 21
243.5578600263905
 31
0.0
  0
SPLINE
  5
77D
330
1F
100
AcDbEntity
  8
0
  6
Continuous
 62
     7
100
AcDbSpline
210
0.0
220
0.0
230
1.0
 70
     8
 71
     3
 72
    11
 73
     7
 74
     5
 42
0.0000000001
 43
0.0000000001
 44
0.0000000001
 12
-1.0
 22
0.0
 32
0.0
 13
-0.9738984558767839
 23
0.2269841352183364
 33
0.0
 40
0.0
 40
0.0
 40
0.0
 40
0.0
 40
0.5728311463485745
 40
1.1477143732532
 40
1.717724580956872
 40
2.316181181026447
 40
2.316181181026447
 40
2.316181181026447
 40
2.316181181026447
 10
185.2276186475787
 20
259.8687251026905
 30
0.0
 10
185.0366749321292
 20
259.8687251026905
 30
0.0
 10
184.65399260085
 20
259.8811497665463
 30
0.0
 10
184.0836966863028
 20
259.9359035653121
 30
0.0
 10
183.509166276597
 20
260.0250051386596
 30
0.0
 10
183.1277471310842
 20
260.104791703513
 30
0.0
 10
182.9334684781786
 20
260.1500717547905
 30
0.0
 11
185.2276186475787
 21
259.8687251026905
 31
0.0
 11
184.6550837601787
 21
259.8871458772905
 31
0.0
 11
184.0827863916787
 21
259.9416109723906
 31
0.0
 11
183.5194108336787
 21
260.0283267006905
 31
0.0
 11
182.9334684781786
 21
260.1500717547905
 31
0.0
  0
SPLINE
  5
77E
330
1F
100
AcDbEntity
  8
0
  6
Continuous
 62
     7
100
AcDbSpline
210
0.0
220
0.0
230
1.0
 70
     8
 71
     3
 72
    11
 73
     7
 74
     5
 42
0.0000000001
 43
0.0000000001
 44
0.0000000001
 12
-0.9932783230931029
 22
-0.1157504767737631
 32
0.0
 13
-1.0
 23
0.0
 33
0.0
 40
0.0
 40
0.0
 40
0.0
 40
0.0
 40
1.178298589884552
 40
2.308413193246993
 40
3.454271423713805
 40
4.599382518643515
 40
4.599382518643515
 40
4.599382518643515
 40
4.599382518643515
 10
141.5886776505787
 20
260.1500717547905
 30
0.0
 10
141.1985515014242
 20
260.1046088802701
 30
0.0
 10
140.4331494490695
 20
260.0246320103987
 30
0.0
 10
139.2850197866223
 20
259.9357077769546
 30
0.0
 10
138.1457930751658
 20
259.8811033819815
 30
0.0
 10
137.3820810099886
 20
259.8687251026905
 30
0.0
 10
137.0003773116787
 20
259.8687251026905
 30
0.0
 11
141.5886776505787
 21
260.1500717547905
 31
0.0
 11
140.4166864567787
 21
260.0283170481906
 31
0.0
 11
139.2899036166786
 21
259.9416022974905
 31
0.0
 11
138.1453402896787
 21
259.8871424515905
 31
0.0
 11
137.0003773116787
 21
259.8687251026905
 31
0.0
  0
SPLINE
  5
77F
330
1F
100
AcDbEntity
  8
0
  6
Continuous
 62
     7
100
AcDbSpline
210
0.0
220
0.0
230
1.0
 70
     8
 71
     3
 72
    11
 73
     7
 74
     5
 42
0.0000000001
 43
0.0000000001
 44
0.0000000001
 12
-0.9738984558718215
 22
-0.2269841352396277
 32
0.0
 13
-1.0
 23
0.0
 33
0.0
 40
0.0
 40
0.0
 40
0.0
 40
0.0
 40
0.5985106917720113
 40
1.168536428235948
 40
1.74340352347944
 40
2.316181188885637
 40
2.316181188885637
 40
2.316181188885637
 40
2.316181188885637
 10
147.5217688170786
 20
260.1500717547905
 30
0.0
 10
147.327472604232
 20
260.104787610856
 30
0.0
 10
146.9460305289961
 20
260.0249970727713
 30
0.0
 10
146.3714819456797
 20
259.935896146216
 30
0.0
 10
145.8012036332272
 20
259.8811478345037
 30
0.0
 10
145.4185445360474
 20
259.8687251026905
 30
0.0
 10
145.2276186475787
 20
259.8687251026905
 30
0.0
 11
147.5217688170786
 21
260.1500717547905
 31
0.0
 11
146.9357732201786
 21
260.0283170481906
 31
0.0
 11
146.3723818000786
 21
259.9416022974905
 31
0.0
 11
145.8001001365787
 21
259.8871424515905
 31
0.0
 11
145.2276186475787
 21
259.8687251026905
 31
0.0
  0
SPLINE
  5
780
330
1F
100
AcDbEntity
  8
0
  6
Continuous
 62
     7
100
AcDbSpline
210
0.0
220
0.0
230
1.0
 70
     8
 71
     3
 72
    11
 73
     7
 74
     5
 42
0.0000000001
 43
0.0000000001
 44
0.0000000001
 12
-1.0
 22
0.0
 32
0.0
 13
-0.7545103387477568
 23
0.6562881598221513
 33
0.0
 40
0.0
 40
0.0
 40
0.0
 40
0.0
 40
0.5603356636881505
 40
1.168706813351094
 40
1.815353436948471
 40
2.575228220973386
 40
2.575228220973386
 40
2.575228220973386
 40
2.575228220973386
 10
128.7731359756787
 20
243.5578600263905
 30
0.0
 10
128.586357421116
 20
243.5578600263905
 30
0.0
 10
128.1954491782199
 20
243.6048049282792
 30
0.0
 10
127.6223730336577
 20
243.811757471683
 30
0.0
 10
127.0395103971842
 20
244.1506947735827
 30
0.0
 10
126.6700969331788
 20
244.441627751823
 30
0.0
 10
126.4789858062787
 20
244.6078600263906
 30
0.0
 11
128.7731359756787
 21
243.5578600263905
 31
0.0
 11
128.2165657403787
 21
243.6227108488906
 31
0.0
 11
127.6422432089787
 21
243.8233824354905
 31
0.0
 11
127.0801828730787
 21
244.1431323918906
 31
0.0
 11
126.4789858062787
 21
244.6078600263906
 31
0.0
  0
SPLINE
  5
781
330
1F
100
AcDbEntity
  8
0
  6
Continuous
 62
     7
100
AcDbSpline
210
0.0
220
0.0
230
1.0
 70
     8
 71
     3
 72
    11
 73
     7
 74
     5
 42
0.0000000001
 43
0.0000000001
 44
0.0000000001
 12
-1.0
 22
0.0
 32
0.0
 13
-0.9932783230926149
 23
0.1157504767779506
 33
0.0
 40
0.0
 40
0.0
 40
0.0
 40
0.0
 40
1.145217933114225
 40
2.291107787573331
 40
3.42119083528112
 40
4.599382515063211
 40
4.599382515063211
 40
4.599382515063211
 40
4.599382515063211
 10
137.0003773116787
 20
259.8687251026905
 30
0.0
 10
136.6186380006406
 20
259.8687251026905
 30
0.0
 10
135.8548797662674
 20
259.8811052999652
 30
0.0
 10
134.7156176316647
 20
259.9357151757872
 30
0.0
 10
133.5675237585673
 20
260.0246401037422
 30
0.0
 10
132.8021677247705
 20
260.1046130052336
 30
0.0
 10
132.4120769727787
 20
260.1500717547905
 30
0.0
 11
137.0003773116787
 21
259.8687251026905
 31
0.0
 11
135.8553075367787
 21
259.8871458772905
 31
0.0
 11
134.7107127997787
 21
259.9416109723906
 31
0.0
 11
133.5839616838787
 21
260.0283267006905
 31
0.0
 11
132.4120769727787
 21
260.1500717547905
 31
0.0
  0
SPLINE
  5
782
330
1F
100
AcDbEntity
  8
0
  6
Continuous
 62
     7
100
AcDbSpline
210
0.0
220
0.0
230
1.0
 70
     8
 71
     3
 72
    11
 73
     7
 74
     5
 42
0.0000000001
 43
0.0000000001
 44
0.0000000001
 12
-0.9738984558718215
 22
-0.2269841352396277
 32
0.0
 13
-1.0
 23
0.0
 33
0.0
 40
0.0
 40
0.0
 40
0.0
 40
0.0
 40
0.5985106917720113
 40
1.168536428235976
 40
1.743403523479553
 40
2.316181188885721
 40
2.316181188885721
 40
2.316181188885721
 40
2.316181188885721
 10
131.0672861451787
 20
260.1500717547905
 30
0.0
 10
130.8729899323322
 20
260.104787610856
 30
0.0
 10
130.4915478570962
 20
260.0249970727713
 30
0.0
 10
129.9169992737798
 20
259.935896146216
 30
0.0
 10
129.3467209613272
 20
259.8811478345036
 30
0.0
 10
128.9640618641474
 20
259.8687251026905
 30
0.0
 10
128.7731359756787
 20
259.8687251026905
 30
0.0
 11
131.0672861451787
 21
260.1500717547905
 31
0.0
 11
130.4812905482787
 21
260.0283170481906
 31
0.0
 11
129.9178991281787
 21
259.9416022974905
 31
0.0
 11
129.3456174646787
 21
259.8871424515905
 31
0.0
 11
128.7731359756787
 21
259.8687251026905
 31
0.0
  0
SPLINE
  5
783
330
1F
100
AcDbEntity
  8
0
  6
Continuous
 62
     7
100
AcDbSpline
210
0.0
220
0.0
230
1.0
 70
     8
 71
     3
 72
    11
 73
     7
 74
     5
 42
0.0000000001
 43
0.0000000001
 44
0.0000000001
 12
-1.0
 22
0.0
 32
0.0
 13
-0.9738984558767839
 23
0.2269841352183364
 33
0.0
 40
0.0
 40
0.0
 40
0.0
 40
0.0
 40
0.5728311463485745
 40
1.147714373253186
 40
1.717724580956887
 40
2.316181181026336
 40
2.316181181026336
 40
2.316181181026336
 40
2.316181181026336
 10
128.7731359756787
 20
259.8687251026905
 30
0.0
 10
128.5821922602292
 20
259.8687251026905
 30
0.0
 10
128.19950992895
 20
259.8811497665462
 30
0.0
 10
127.6292140144027
 20
259.9359035653121
 30
0.0
 10
127.0546836046971
 20
260.0250051386595
 30
0.0
 10
126.6732644591843
 20
260.104791703513
 30
0.0
 10
126.4789858062787
 20
260.1500717547905
 30
0.0
 11
128.7731359756787
 21
259.8687251026905
 31
0.0
 11
128.2006010882787
 21
259.8871458772905
 31
0.0
 11
127.6283037197787
 21
259.9416109723906
 31
0.0
 11
127.0649281617787
 21
260.0283267006905
 31
0.0
 11
126.4789858062787
 21
260.1500717547905
 31
0.0
  0
SPLINE
  5
784
330
1F
100
AcDbEntity
  8
0
  6
Continuous
 62
     7
100
AcDbSpline
210
0.0
220
0.0
230
1.0
 70
     8
 71
     3
 72
    11
 73
     7
 74
     5
 42
0.0000000001
 43
0.0000000001
 44
0.0000000001
 12
-0.7545103387440176
 22
-0.6562881598264502
 32
0.0
 13
-1.0
 23
0.0
 33
0.0
 40
0.0
 40
0.0
 40
0.0
 40
0.0
 40
0.7612675541593705
 40
1.408306351809979
 40
2.016136212153717
 40
2.575231920018873
 40
2.575231920018873
 40
2.575231920018873
 40
2.575231920018873
 10
147.5217688170786
 20
244.6078600263906
 30
0.0
 10
147.3303074036907
 20
244.441323065639
 30
0.0
 10
146.9603950430332
 20
244.1500486110768
 30
0.0
 10
146.3770393912365
 20
243.8111130831297
 30
0.0
 10
145.8042914077382
 20
243.6046229792729
 30
0.0
 10
145.4139838835337
 20
243.5578600263905
 30
0.0
 10
145.2276186475787
 20
243.5578600263905
 30
0.0
 11
147.5217688170786
 21
244.6078600263906
 31
0.0
 11
146.9194127123787
 21
244.1423544816905
 31
0.0
 11
146.3568866291787
 21
243.8226302076905
 31
0.0
 11
145.7829734383787
 21
243.6224283381906
 31
0.0
 11
145.2276186475787
 21
243.5578600263905
 31
0.0
  0
SPLINE
  5
785
330
1F
100
AcDbEntity
  8
0
  6
Continuous
 62
     7
100
AcDbSpline
210
0.0
220
0.0
230
1.0
 70
     8
 71
     3
 72
    11
 73
     7
 74
     5
 42
0.0000000001
 43
0.0000000001
 44
0.0000000001
 12
-1.0
 22
0.0
 32
0.0
 13
-0.7545103387477568
 23
0.6562881598221513
 33
0.0
 40
0.0
 40
0.0
 40
0.0
 40
0.0
 40
0.5603356636881505
 40
1.16870681335108
 40
1.815353436948445
 40
2.57522822097336
 40
2.57522822097336
 40
2.57522822097336
 40
2.57522822097336
 10
145.2276186475787
 20
243.5578600263905
 30
0.0
 10
145.0408400930159
 20
243.5578600263905
 30
0.0
 10
144.6499318501199
 20
243.6048049282792
 30
0.0
 10
144.0768557055577
 20
243.811757471683
 30
0.0
 10
143.4939930690842
 20
244.1506947735827
 30
0.0
 10
143.1245796050788
 20
244.441627751823
 30
0.0
 10
142.9334684781787
 20
244.6078600263906
 30
0.0
 11
145.2276186475787
 21
243.5578600263905
 31
0.0
 11
144.6710484122787
 21
243.6227108488906
 31
0.0
 11
144.0967258808787
 21
243.8233824354905
 31
0.0
 11
143.5346655449787
 21
244.1431323918906
 31
0.0
 11
142.9334684781787
 21
244.6078600263906
 31
0.0
  0
SPLINE
  5
786
330
1F
100
AcDbEntity
  8
0
  6
Continuous
 62
     7
100
AcDbSpline
210
0.0
220
0.0
230
1.0
 70
     8
 71
     3
 72
    11
 73
     7
 74
     5
 42
0.0000000001
 43
0.0000000001
 44
0.0000000001
 12
-0.9170273392618454
 22
-0.3988243461053252
 32
0.0
 13
-1.0
 23
0.0
 33
0.0
 40
0.0
 40
0.0
 40
0.0
 40
0.0
 40
1.291521164992637
 40
2.461121946672497
 40
3.626276953891792
 40
4.738861710809048
 40
4.738861710809048
 40
4.738861710809048
 40
4.738861710809048
 10
141.5886776505787
 20
244.6078600263906
 30
0.0
 10
141.1938909114008
 20
244.4361633316875
 30
0.0
 10
140.4285934348058
 20
244.1373145550441
 30
0.0
 10
139.2650503566252
 20
243.8031604582488
 30
0.0
 10
138.1312059021368
 20
243.6024594787539
 30
0.0
 10
137.3712388973178
 20
243.5578600263905
 30
0.0
 10
137.0003773116787
 20
243.5578600263905
 30
0.0
 11
141.5886776505787
 21
244.6078600263906
 31
0.0
 11
140.3839654411787
 21
244.1423544816905
 31
0.0
 11
139.2589132747787
 21
243.8226302076905
 31
0.0
 11
138.1110868931787
 21
243.6224283381906
 31
0.0
 11
137.0003773116787
 21
243.5578600263905
 31
0.0
  0
SPLINE
  5
787
330
1F
100
AcDbEntity
  8
0
  6
Continuous
 62
     7
100
AcDbSpline
210
0.0
220
0.0
230
1.0
 70
     8
 71
     3
 72
    11
 73
     7
 74
     5
 42
0.0000000001
 43
0.0000000001
 44
0.0000000001
 12
-1.0
 22
0.0
 32
0.0
 13
-0.9170273392541389
 23
0.3988243461230451
 33
0.0
 40
0.0
 40
0.0
 40
0.0
 40
0.0
 40
1.115027953321887
 40
2.281070219263932
 40
3.449782039671835
 40
4.738860558236229
 40
4.738860558236229
 40
4.738860558236229
 40
4.738860558236229
 10
137.0003773116787
 20
243.5578600263905
 30
0.0
 10
136.6287013272381
 20
243.5578600263905
 30
0.0
 10
135.8676197461039
 20
243.6026256005392
 30
0.0
 10
134.7330278831842
 20
243.8037900008565
 30
0.0
 10
133.5703520189404
 20
244.1379907052183
 30
0.0
 10
132.8061170541016
 20
244.4364880606347
 30
0.0
 10
132.4120769727787
 20
244.6078600263906
 30
0.0
 11
137.0003773116787
 21
243.5578600263905
 31
0.0
 11
135.8872368409787
 21
243.6227108488906
 31
0.0
 11
134.7385917781787
 21
243.8233824354905
 31
0.0
 11
133.6144711064787
 21
244.1431323918906
 31
0.0
 11
132.4120769727787
 21
244.6078600263906
 31
0.0
  0
SPLINE
  5
788
330
1F
100
AcDbEntity
  8
0
  6
Continuous
 62
     7
100
AcDbSpline
210
0.0
220
0.0
230
1.0
 70
     8
 71
     3
 72
    11
 73
     7
 74
     5
 42
0.0000000001
 43
0.0000000001
 44
0.0000000001
 12
-0.7545103387440176
 22
-0.6562881598264502
 32
0.0
 13
-1.0
 23
0.0
 33
0.0
 40
0.0
 40
0.0
 40
0.0
 40
0.0
 40
0.761267554159438
 40
1.408306351810047
 40
2.016136212153785
 40
2.575231920018941
 40
2.575231920018941
 40
2.575231920018941
 40
2.575231920018941
 10
131.0672861451787
 20
244.6078600263906
 30
0.0
 10
130.8758247317908
 20
244.441323065639
 30
0.0
 10
130.5059123711333
 20
244.1500486110768
 30
0.0
 10
129.9225567193366
 20
243.8111130831297
 30
0.0
 10
129.3498087358382
 20
243.6046229792729
 30
0.0
 10
128.9595012116337
 20
243.5578600263905
 30
0.0
 10
128.7731359756787
 20
243.5578600263905
 30
0.0
 11
131.0672861451787
 21
244.6078600263906
 31
0.0
 11
130.4649300404787
 21
244.1423544816905
 31
0.0
 11
129.9024039572787
 21
243.8226302076905
 31
0.0
 11
129.3284907664787
 21
243.6224283381906
 31
0.0
 11
128.7731359756787
 21
243.5578600263905
 31
0.0
  0
SPLINE
  5
789
330
1F
100
AcDbEntity
  8
0
  6
Continuous
 62
     7
100
AcDbSpline
210
0.0
220
0.0
230
1.0
 70
     8
 71
     3
 72
    11
 73
     7
 74
     5
 42
0.0000000001
 43
0.0000000001
 44
0.0000000001
 12
-1.0
 22
0.0
 32
0.0
 13
-0.9738984558767839
 23
0.2269841352183364
 33
0.0
 40
0.0
 40
0.0
 40
0.0
 40
0.0
 40
0.5728311463485462
 40
1.147714373253172
 40
1.717724580956956
 40
2.316181181026308
 40
2.316181181026308
 40
2.316181181026308
 40
2.316181181026308
 10
145.2276186475787
 20
259.8687251026905
 30
0.0
 10
145.0366749321291
 20
259.8687251026905
 30
0.0
 10
144.65399260085
 20
259.8811497665462
 30
0.0
 10
144.0836966863027
 20
259.9359035653121
 30
0.0
 10
143.5091662765971
 20
260.0250051386596
 30
0.0
 10
143.1277471310843
 20
260.104791703513
 30
0.0
 10
142.9334684781787
 20
260.1500717547905
 30
0.0
 11
145.2276186475787
 21
259.8687251026905
 31
0.0
 11
144.6550837601787
 21
259.8871458772905
 31
0.0
 11
144.0827863916787
 21
259.9416109723906
 31
0.0
 11
143.5194108336786
 21
260.0283267006905
 31
0.0
 11
142.9334684781787
 21
260.1500717547905
 31
0.0
  0
SPLINE
  5
78A
330
1F
100
AcDbEntity
  8
0
  6
Continuous
 62
     7
100
AcDbSpline
210
0.0
220
0.0
230
1.0
 70
     8
 71
     3
 72
    11
 73
     7
 74
     5
 42
0.0000000001
 43
0.0000000001
 44
0.0000000001
 12
-0.9910677057858944
 22
-0.1333596736209416
 32
0.0
 13
-1.0
 23
0.0
 33
0.0
 40
0.0
 40
0.0
 40
0.0
 40
0.0
 40
1.022250814258226
 40
2.001918678687624
 40
2.994634540304981
 40
3.986372592716559
 40
3.986372592716559
 40
3.986372592716559
 40
3.986372592716559
 10
362.5521912900488
 20
260.1500717547905
 30
0.0
 10
362.2144847003073
 20
260.1046294098077
 30
0.0
 10
361.5518725779712
 20
260.0246733679905
 30
0.0
 10
360.5574646955181
 20
259.9357288740113
 30
0.0
 10
359.5707348286148
 20
259.8811083152124
 30
0.0
 10
358.9091859871528
 20
259.8687251026905
 30
0.0
 10
358.5786066363489
 20
259.8687251026905
 30
0.0
 11
362.5521912900488
 21
260.1500717547905
 31
0.0
 11
361.5372171432488
 21
260.0283170481906
 31
0.0
 11
360.5613945791489
 21
259.9416022974905
 31
0.0
 11
359.5701736617489
 21
259.8871424515905
 31
0.0
 11
358.5786066363489
 21
259.8687251026905
 31
0.0
  0
SPLINE
  5
78B
330
1F
100
AcDbEntity
  8
0
  6
Continuous
 62
     7
100
AcDbSpline
210
0.0
220
0.0
230
1.0
 70
     8
 71
     3
 72
    11
 73
     7
 74
     5
 42
0.0000000001
 43
0.0000000001
 44
0.0000000001
 12
-1.0
 22
0.0
 32
0.0
 13
-0.8936427050335973
 23
0.4487791391544791
 33
0.0
 40
0.0
 40
0.0
 40
0.0
 40
0.0
 40
0.966186788155276
 40
1.980981445244004
 40
3.005664566019926
 40
4.14596519039429
 40
4.14596519039429
 40
4.14596519039429
 40
4.14596519039429
 10
349.0786066363489
 20
243.5578600263905
 30
0.0
 10
348.7565443736305
 20
243.5578600263905
 30
0.0
 10
348.0953854363452
 20
243.6028655328813
 30
0.0
 10
347.1113075932426
 20
243.8047717042047
 30
0.0
 10
346.1035854688003
 20
244.1397558380341
 30
0.0
 10
345.4446957608213
 20
244.4372789821959
 30
0.0
 10
345.1050219826488
 20
244.6078600263906
 30
0.0
 11
349.0786066363489
 21
243.5578600263905
 31
0.0
 11
348.1145987108488
 21
243.6227108488906
 31
0.0
 11
347.1198429064489
 21
243.8233824354905
 31
0.0
 11
346.1463258478489
 21
244.1431323918906
 31
0.0
 11
345.1050219826488
 21
244.6078600263906
 31
0.0
  0
SPLINE
  5
78C
330
1F
100
AcDbEntity
  8
0
  6
Continuous
 62
     7
100
AcDbSpline
210
0.0
220
0.0
230
1.0
 70
     8
 71
     3
 72
    11
 73
     7
 74
     5
 42
0.0000000001
 43
0.0000000001
 44
0.0000000001
 12
-1.0
 22
0.0
 32
0.0
 13
-0.9910677057870493
 23
0.133359673612357
 33
0.0
 40
0.0
 40
0.0
 40
0.0
 40
0.0
 40
0.9918305887811596
 40
1.984573899310142
 40
2.964214484115484
 40
3.986372588541775
 40
3.986372588541775
 40
3.986372588541775
 40
3.986372588541775
 10
349.0786066363489
 20
259.8687251026905
 30
0.0
 10
348.7479964400884
 20
259.8687251026905
 30
0.0
 10
348.0864075860779
 20
259.8811102347625
 30
0.0
 10
347.0996470625767
 20
259.9357362751324
 30
0.0
 10
346.1052702291004
 20
260.0246814582968
 30
0.0
 10
345.4426979451507
 20
260.1046335310616
 30
0.0
 10
345.1050219826488
 20
260.1500717547905
 30
0.0
 11
349.0786066363489
 21
259.8687251026905
 31
0.0
 11
348.0869471222488
 21
259.8871458772905
 31
0.0
 11
347.0956990029488
 21
259.9416109723906
 31
0.0
 11
346.1199039128489
 21
260.0283267006905
 31
0.0
 11
345.1050219826488
 21
260.1500717547905
 31
0.0
  0
SPLINE
  5
78D
330
1F
100
AcDbEntity
  8
0
  6
Continuous
 62
     7
100
AcDbSpline
210
0.0
220
0.0
230
1.0
 70
     8
 71
     3
 72
    11
 73
     7
 74
     5
 42
0.0000000001
 43
0.0000000001
 44
0.0000000001
 12
-0.9910677057858944
 22
-0.1333596736209416
 32
0.0
 13
-1.0
 23
0.0
 33
0.0
 40
0.0
 40
0.0
 40
0.0
 40
0.0
 40
1.022250814258226
 40
2.00191867868768
 40
2.994634540304981
 40
3.986372592716559
 40
3.986372592716559
 40
3.986372592716559
 40
3.986372592716559
 10
353.0521912900488
 20
260.1500717547905
 30
0.0
 10
352.7144847003072
 20
260.1046294098077
 30
0.0
 10
352.0518725779711
 20
260.0246733679905
 30
0.0
 10
351.0574646955181
 20
259.9357288740114
 30
0.0
 10
350.0707348286149
 20
259.8811083152123
 30
0.0
 10
349.4091859871527
 20
259.8687251026905
 30
0.0
 10
349.0786066363489
 20
259.8687251026905
 30
0.0
 11
353.0521912900488
 21
260.1500717547905
 31
0.0
 11
352.0372171432488
 21
260.0283170481906
 31
0.0
 11
351.0613945791488
 21
259.9416022974905
 31
0.0
 11
350.0701736617489
 21
259.8871424515905
 31
0.0
 11
349.0786066363489
 21
259.8687251026905
 31
0.0
  0
SPLINE
  5
78E
330
1F
100
AcDbEntity
  8
0
  6
Continuous
 62
     7
100
AcDbSpline
210
0.0
220
0.0
230
1.0
 70
     8
 71
     3
 72
    11
 73
     7
 74
     5
 42
0.0000000001
 43
0.0000000001
 44
0.0000000001
 12
-1.0
 22
0.0
 32
0.0
 13
-0.9910677057870493
 23
0.133359673612357
 33
0.0
 40
0.0
 40
0.0
 40
0.0
 40
0.0
 40
0.9918305887811596
 40
1.984573899310142
 40
2.964214484115428
 40
3.986372588541775
 40
3.986372588541775
 40
3.986372588541775
 40
3.986372588541775
 10
358.5786066363489
 20
259.8687251026905
 30
0.0
 10
358.2479964400885
 20
259.8687251026905
 30
0.0
 10
357.5864075860778
 20
259.8811102347625
 30
0.0
 10
356.5996470625768
 20
259.9357362751324
 30
0.0
 10
355.6052702291004
 20
260.0246814582967
 30
0.0
 10
354.9426979451506
 20
260.1046335310616
 30
0.0
 10
354.6050219826489
 20
260.1500717547905
 30
0.0
 11
358.5786066363489
 21
259.8687251026905
 31
0.0
 11
357.5869471222488
 21
259.8871458772905
 31
0.0
 11
356.5956990029488
 21
259.9416109723906
 31
0.0
 11
355.619903912849
 21
260.0283267006905
 31
0.0
 11
354.6050219826489
 21
260.1500717547905
 31
0.0
  0
SPLINE
  5
78F
330
1F
100
AcDbEntity
  8
0
  6
Continuous
 62
     7
100
AcDbSpline
210
0.0
220
0.0
230
1.0
 70
     8
 71
     3
 72
    11
 73
     7
 74
     5
 42
0.0000000001
 43
0.0000000001
 44
0.0000000001
 12
-0.8936427050343603
 22
-0.4487791391529595
 32
0.0
 13
-1.0
 23
0.0
 33
0.0
 40
0.0
 40
0.0
 40
0.0
 40
0.0
 40
1.142450892938517
 40
2.167892453467447
 40
3.181899278037551
 40
4.145966650111184
 40
4.145966650111184
 40
4.145966650111184
 40
4.145966650111184
 10
362.5521912900488
 20
244.6078600263906
 30
0.0
 10
362.2118769879373
 20
244.4369573169714
 30
0.0
 10
361.5520735228113
 20
244.139083382045
 30
0.0
 10
360.5435857997473
 20
243.804140007362
 30
0.0
 10
359.560147275559
 20
243.6026976401111
 30
0.0
 10
358.89996242704
 20
243.5578600263905
 30
0.0
 10
358.5786066363489
 20
243.5578600263905
 30
0.0
 11
362.5521912900488
 21
244.6078600263906
 31
0.0
 11
361.5088799124489
 21
244.1423544816905
 31
0.0
 11
360.5345561558489
 21
243.8226302076905
 31
0.0
 11
359.5405093502489
 21
243.6224283381906
 31
0.0
 11
358.5786066363489
 21
243.5578600263905
 31
0.0
  0
SPLINE
  5
790
330
1F
100
AcDbEntity
  8
0
  6
Continuous
 62
     7
100
AcDbSpline
210
0.0
220
0.0
230
1.0
 70
     8
 71
     3
 72
    11
 73
     7
 74
     5
 42
0.0000000001
 43
0.0000000001
 44
0.0000000001
 12
-0.8936427050343603
 22
-0.4487791391529595
 32
0.0
 13
-1.0
 23
0.0
 33
0.0
 40
0.0
 40
0.0
 40
0.0
 40
0.0
 40
1.142450892938517
 40
2.167892453467447
 40
3.181899278037551
 40
4.145966650111184
 40
4.145966650111184
 40
4.145966650111184
 40
4.145966650111184
 10
353.0521912900488
 20
244.6078600263906
 30
0.0
 10
352.7118769879373
 20
244.4369573169714
 30
0.0
 10
352.0520735228113
 20
244.139083382045
 30
0.0
 10
351.0435857997473
 20
243.804140007362
 30
0.0
 10
350.060147275559
 20
243.6026976401111
 30
0.0
 10
349.3999624270401
 20
243.5578600263905
 30
0.0
 10
349.0786066363489
 20
243.5578600263905
 30
0.0
 11
353.0521912900488
 21
244.6078600263906
 31
0.0
 11
352.0088799124489
 21
244.1423544816905
 31
0.0
 11
351.0345561558489
 21
243.8226302076905
 31
0.0
 11
350.0405093502489
 21
243.6224283381906
 31
0.0
 11
349.0786066363489
 21
243.5578600263905
 31
0.0
  0
SPLINE
  5
791
330
1F
100
AcDbEntity
  8
0
  6
Continuous
 62
     7
100
AcDbSpline
210
0.0
220
0.0
230
1.0
 70
     8
 71
     3
 72
    11
 73
     7
 74
     5
 42
0.0000000001
 43
0.0000000001
 44
0.0000000001
 12
-1.0
 22
0.0
 32
0.0
 13
-0.8936427050335973
 23
0.4487791391544791
 33
0.0
 40
0.0
 40
0.0
 40
0.0
 40
0.0
 40
0.966186788155276
 40
1.980981445244004
 40
3.005664566019926
 40
4.14596519039429
 40
4.14596519039429
 40
4.14596519039429
 40
4.14596519039429
 10
358.5786066363489
 20
243.5578600263905
 30
0.0
 10
358.2565443736304
 20
243.5578600263905
 30
0.0
 10
357.5953854363453
 20
243.6028655328813
 30
0.0
 10
356.6113075932427
 20
243.8047717042047
 30
0.0
 10
355.6035854688003
 20
244.1397558380341
 30
0.0
 10
354.9446957608213
 20
244.4372789821959
 30
0.0
 10
354.6050219826489
 20
244.6078600263906
 30
0.0
 11
358.5786066363489
 21
243.5578600263905
 31
0.0
 11
357.6145987108489
 21
243.6227108488906
 31
0.0
 11
356.6198429064489
 21
243.8233824354905
 31
0.0
 11
355.6463258478489
 21
244.1431323918906
 31
0.0
 11
354.6050219826489
 21
244.6078600263906
 31
0.0
  0
LINE
  5
792
330
1F
100
AcDbEntity
  8
0
  6
Continuous
 62
     7
100
AcDbLine
 10
78.01468155897869
 20
174.6967076846456
 30
0.0
 11
81.01468155897869
 21
176.4287584922456
 31
0.0
  0
LINE
  5
793
330
1F
100
AcDbEntity
  8
0
  6
Continuous
 62
     7
100
AcDbLine
 10
84.0146815589787
 20
171.2326060695457
 30
0.0
 11
81.01468155897869
 21
169.5005552619457
 31
0.0
  0
LINE
  5
794
330
1F
100
AcDbEntity
  8
0
  6
Continuous
 62
     7
100
AcDbLine
 10
82.92696831867869
 20
124.4451304441632
 30
0.0
 11
81.3392550783787
 21
121.6951304441633
 31
0.0
  0
LINE
  5
795
330
1F
100
AcDbEntity
  8
0
  6
Continuous
 62
     7
100
AcDbLine
 10
110.0146815589787
 20
174.6967076846456
 30
0.0
 11
113.0146815589787
 21
176.4287584922456
 31
0.0
  0
LINE
  5
796
330
1F
100
AcDbEntity
  8
0
  6
Continuous
 62
     7
100
AcDbLine
 10
116.0146815589787
 20
171.2326060695457
 30
0.0
 11
113.0146815589787
 21
169.5005552619457
 31
0.0
  0
LINE
  5
797
330
1F
100
AcDbEntity
  8
0
  6
Continuous
 62
     7
100
AcDbLine
 10
86.1023947991787
 20
118.9451304441633
 30
0.0
 11
87.69010803947869
 21
121.6951304441633
 31
0.0
  0
LINE
  5
798
330
1F
100
AcDbEntity
  8
RUNDUNGEN
  6
Continuous
 62
     7
100
AcDbLine
 10
70.51468155897869
 20
106.4646568770457
 30
0.0
 11
70.51468155897869
 21
179.4646568770456
 31
0.0
  0
LINE
  5
799
330
1F
100
AcDbEntity
  8
0
  6
Continuous
 62
     7
100
AcDbLine
 10
106.9272683186787
 20
124.4451304441632
 30
0.0
 11
105.3395550783787
 21
121.6951304441633
 31
0.0
  0
LINE
  5
79A
330
1F
100
AcDbEntity
  8
0
  6
Continuous
 62
     7
100
AcDbLine
 10
72.51468155897869
 20
177.9646568770456
 30
0.0
 11
72.51468155897869
 21
107.9646568770457
 31
0.0
  0
LINE
  5
79B
330
1F
100
AcDbEntity
  8
0
  6
Continuous
 62
     7
100
AcDbLine
 10
78.01468155897869
 20
111.2326060695457
 30
0.0
 11
78.01468155897869
 21
114.6967076846457
 31
0.0
  0
LINE
  5
79C
330
1F
100
AcDbEntity
  8
0
  6
Continuous
 62
     7
100
AcDbLine
 10
78.01468155897869
 20
171.2326060695457
 30
0.0
 11
78.01468155897869
 21
174.6967076846456
 31
0.0
  0
LINE
  5
79D
330
1F
100
AcDbEntity
  8
0
  6
Continuous
 62
     7
100
AcDbLine
 10
110.1026947991787
 20
118.9451304441633
 30
0.0
 11
111.6904080394787
 21
121.6951304441633
 31
0.0
  0
LINE
  5
79E
330
1F
100
AcDbEntity
  8
0
  6
Continuous
 62
     7
100
AcDbLine
 10
78.01468155897869
 20
114.6967076846457
 30
0.0
 11
81.01468155897869
 21
116.4287584922456
 31
0.0
  0
LINE
  5
79F
330
1F
100
AcDbEntity
  8
0
  6
Continuous
 62
     7
100
AcDbLine
 10
84.0146815589787
 20
174.6967076846456
 30
0.0
 11
84.0146815589787
 21
171.2326060695457
 31
0.0
  0
LINE
  5
7A0
330
1F
100
AcDbEntity
  8
0
  6
Continuous
 62
     7
100
AcDbLine
 10
84.0146815589787
 20
114.6967076846457
 30
0.0
 11
84.0146815589787
 21
111.2326060695457
 31
0.0
  0
LINE
  5
7A1
330
1F
100
AcDbEntity
  8
0
  6
Continuous
 62
     7
100
AcDbLine
 10
84.0146815589787
 20
111.2326060695457
 30
0.0
 11
81.01468155897869
 21
109.5005552619457
 31
0.0
  0
LINE
  5
7A2
330
1F
100
AcDbEntity
  8
0
  6
Continuous
 62
     7
100
AcDbLine
 10
110.0146815589787
 20
114.6967076846457
 30
0.0
 11
113.0146815589787
 21
116.4287584922456
 31
0.0
  0
LINE
  5
7A3
330
1F
100
AcDbEntity
  8
0
  6
Continuous
 62
     7
100
AcDbLine
 10
116.0146815589787
 20
111.2326060695457
 30
0.0
 11
113.0146815589787
 21
109.5005552619457
 31
0.0
  0
LINE
  5
7A4
330
1F
100
AcDbEntity
  8
0
  6
Continuous
 62
     7
100
AcDbLine
 10
110.0146815589787
 20
111.2326060695457
 30
0.0
 11
110.0146815589787
 21
114.6967076846457
 31
0.0
  0
LINE
  5
7A5
330
1F
100
AcDbEntity
  8
0
  6
Continuous
 62
     7
100
AcDbLine
 10
110.0146815589787
 20
171.2326060695457
 30
0.0
 11
110.0146815589787
 21
174.6967076846456
 31
0.0
  0
LINE
  5
7A6
330
1F
100
AcDbEntity
  8
0
  6
Continuous
 62
     7
100
AcDbLine
 10
116.0146815589787
 20
174.6967076846456
 30
0.0
 11
116.0146815589787
 21
171.2326060695457
 31
0.0
  0
LINE
  5
7A7
330
1F
100
AcDbEntity
  8
0
  6
Continuous
 62
     7
100
AcDbLine
 10
116.0146815589787
 20
114.6967076846457
 30
0.0
 11
116.0146815589787
 21
111.2326060695457
 31
0.0
  0
LINE
  5
7A8
330
1F
100
AcDbEntity
  8
0
  6
Continuous
 62
     7
100
AcDbLine
 10
121.5146815589787
 20
107.9646568770457
 30
0.0
 11
121.5146815589787
 21
177.9646568770456
 31
0.0
  0
LINE
  5
7A9
330
1F
100
AcDbEntity
  8
RUNDUNGEN
  6
Continuous
 62
     7
100
AcDbLine
 10
123.5146815589787
 20
179.4646568770456
 30
0.0
 11
123.5146815589787
 21
106.4646568770457
 31
0.0
  0
LINE
  5
7AA
330
1F
100
AcDbEntity
  8
0
  6
Continuous
 62
     7
100
AcDbLine
 10
81.01468155897869
 20
109.5005552619457
 30
0.0
 11
78.01468155897869
 21
111.2326060695457
 31
0.0
  0
LINE
  5
7AB
330
1F
100
AcDbEntity
  8
0
  6
Continuous
 62
     7
100
AcDbLine
 10
81.3392550783787
 20
121.6951304441633
 30
0.0
 11
82.92696831867869
 21
118.9451304441633
 31
0.0
  0
LINE
  5
7AC
330
1F
100
AcDbEntity
  8
0
  6
Continuous
 62
     7
100
AcDbLine
 10
81.01468155897869
 20
116.4287584922456
 30
0.0
 11
84.0146815589787
 21
114.6967076846457
 31
0.0
  0
LINE
  5
7AD
330
1F
100
AcDbEntity
  8
0
  6
Continuous
 62
     7
100
AcDbLine
 10
87.69010803947869
 20
121.6951304441633
 30
0.0
 11
86.1023947991787
 21
124.4451304441632
 31
0.0
  0
LINE
  5
7AE
330
1F
100
AcDbEntity
  8
0
  6
Continuous
 62
     7
100
AcDbLine
 10
113.0146815589787
 20
109.5005552619457
 30
0.0
 11
110.0146815589787
 21
111.2326060695457
 31
0.0
  0
LINE
  5
7AF
330
1F
100
AcDbEntity
  8
RUNDUNGEN
  6
Continuous
 62
     7
100
AcDbLine
 10
123.0146815589787
 20
105.9646568770457
 30
0.0
 11
71.01468155897869
 21
105.9646568770457
 31
0.0
  0
LINE
  5
7B0
330
1F
100
AcDbEntity
  8
0
  6
Continuous
 62
     7
100
AcDbLine
 10
72.51468155897869
 20
107.9646568770457
 30
0.0
 11
121.5146815589787
 21
107.9646568770457
 31
0.0
  0
LINE
  5
7B1
330
1F
100
AcDbEntity
  8
0
  6
Continuous
 62
     7
100
AcDbLine
 10
113.0146815589787
 20
116.4287584922456
 30
0.0
 11
116.0146815589787
 21
114.6967076846457
 31
0.0
  0
LINE
  5
7B2
330
1F
100
AcDbEntity
  8
0
  6
Continuous
 62
     7
100
AcDbLine
 10
105.3395550783787
 20
121.6951304441633
 30
0.0
 11
106.9272683186787
 21
118.9451304441633
 31
0.0
  0
LINE
  5
7B3
330
1F
100
AcDbEntity
  8
0
  6
Continuous
 62
     7
100
AcDbLine
 10
111.6904080394787
 20
121.6951304441633
 30
0.0
 11
110.1026947991787
 21
124.4451304441632
 31
0.0
  0
LINE
  5
7B4
330
1F
100
AcDbEntity
  8
0
  6
Continuous
 62
     7
100
AcDbLine
 10
81.01468155897869
 20
169.5005552619457
 30
0.0
 11
78.01468155897869
 21
171.2326060695457
 31
0.0
  0
LINE
  5
7B5
330
1F
100
AcDbEntity
  8
0
  6
Continuous
 62
     7
100
AcDbLine
 10
81.01468155897869
 20
176.4287584922456
 30
0.0
 11
84.0146815589787
 21
174.6967076846456
 31
0.0
  0
LINE
  5
7B6
330
1F
100
AcDbEntity
  8
0
  6
Continuous
 62
     7
100
AcDbLine
 10
113.0146815589787
 20
169.5005552619457
 30
0.0
 11
110.0146815589787
 21
171.2326060695457
 31
0.0
  0
LINE
  5
7B7
330
1F
100
AcDbEntity
  8
0
  6
Continuous
 62
     7
100
AcDbLine
 10
82.92696831867869
 20
118.9451304441633
 30
0.0
 11
86.1023947991787
 21
118.9451304441633
 31
0.0
  0
LINE
  5
7B8
330
1F
100
AcDbEntity
  8
0
  6
Continuous
 62
     7
100
AcDbLine
 10
106.9272683186787
 20
118.9451304441633
 30
0.0
 11
110.1026947991787
 21
118.9451304441633
 31
0.0
  0
LINE
  5
7B9
330
1F
100
AcDbEntity
  8
0
  6
Continuous
 62
     7
100
AcDbLine
 10
113.0146815589787
 20
176.4287584922456
 30
0.0
 11
116.0146815589787
 21
174.6967076846456
 31
0.0
  0
LINE
  5
7BA
330
1F
100
AcDbEntity
  8
0
  6
Continuous
 62
     7
100
AcDbLine
 10
110.1026947991787
 20
124.4451304441632
 30
0.0
 11
106.9272683186787
 21
124.4451304441632
 31
0.0
  0
LINE
  5
7BB
330
1F
100
AcDbEntity
  8
0
  6
Continuous
 62
     7
100
AcDbLine
 10
86.1023947991787
 20
124.4451304441632
 30
0.0
 11
82.92696831867869
 21
124.4451304441632
 31
0.0
  0
LINE
  5
7BC
330
1F
100
AcDbEntity
  8
0
  6
Continuous
 62
     7
100
AcDbLine
 10
121.5146815589787
 20
177.9646568770456
 30
0.0
 11
95.00037731167871
 21
177.9646568770456
 31
0.0
  0
LINE
  5
7BD
330
1F
100
AcDbEntity
  8
RUNDUNGEN
  6
Continuous
 62
     7
100
AcDbLine
 10
71.01468155897869
 20
179.9646568770456
 30
0.0
 11
95.0003773116787
 21
179.9646568770456
 31
0.0
  0
LINE
  5
7BE
330
1F
100
AcDbEntity
  8
RUNDUNGEN
  6
Continuous
 62
     7
100
AcDbLine
 10
342.8255523570288
 20
106.4646568770457
 30
0.0
 11
342.8255523570288
 21
179.4646568770456
 31
0.0
  0
LINE
  5
7BF
330
1F
100
AcDbEntity
  8
RUNDUNGEN
  6
Continuous
 62
     9
100
AcDbLine
 10
343.3255523570287
 20
105.9646568770457
 30
0.0
 11
343.3255523570287
 21
179.9646568770456
 31
0.0
  0
LINE
  5
7C0
330
1F
100
AcDbEntity
  8
0
  6
Continuous
 62
     7
100
AcDbLine
 10
364.0206881099288
 20
121.5440977714084
 30
0.0
 11
363.7255523570288
 21
119.4440977714084
 31
0.0
  0
LINE
  5
7C1
330
1F
100
AcDbEntity
  8
RUNDUNGEN
  6
Continuous
 62
     7
100
AcDbLine
 10
359.8255523570287
 20
105.9646568770457
 30
0.0
 11
359.8255523570287
 21
179.9646568770456
 31
0.0
  0
LINE
  5
7C2
102
{ACAD_REACTORS
330
A41
102
}
330
1F
100
AcDbEntity
  8
RUNDUNGEN
  6
Continuous
 62
     7
100
AcDbLine
 10
343.3255523570287
 20
105.9646568770457
 30
0.0
 11
359.8255523570287
 21
105.9646568770457
 31
0.0
  0
LINE
  5
7C3
330
1F
100
AcDbEntity
  8
RUNDUNGEN
  6
Continuous
 62
     9
100
AcDbLine
 10
342.8255523570288
 20
106.4646568770457
 30
0.0
 11
359.8255523570287
 21
106.4646568770457
 31
0.0
  0
LINE
  5
7C4
330
1F
100
AcDbEntity
  8
0
  6
Continuous
 62
     7
100
AcDbLine
 10
362.8255523570288
 20
119.4441590998084
 30
0.0
 11
362.8255523570288
 21
123.9440364430084
 31
0.0
  0
LINE
  5
7C5
330
1F
100
AcDbEntity
  8
0
  6
Continuous
 62
     7
100
AcDbLine
 10
363.7255523570288
 20
119.4440977714084
 30
0.0
 11
363.7255523570288
 21
123.9440977714085
 31
0.0
  0
LINE
  5
7C6
330
1F
100
AcDbEntity
  8
0
  6
Continuous
 62
     7
100
AcDbLine
 10
364.0206881099288
 20
121.5440977714084
 30
0.0
 11
364.0206881099288
 21
121.8440977714084
 31
0.0
  0
LINE
  5
7C7
330
1F
100
AcDbEntity
  8
0
  6
Continuous
 62
     7
100
AcDbLine
 10
364.3206881099288
 20
121.5441494394084
 30
0.0
 11
364.3206881099288
 21
121.8440461034083
 31
0.0
  0
LINE
  5
7C8
330
1F
100
AcDbEntity
  8
0
  6
Continuous
 62
     7
100
AcDbLine
 10
364.8255523570288
 20
109.5005552619457
 30
0.0
 11
364.8255523570288
 21
116.4287584922456
 31
0.0
  0
LINE
  5
7C9
330
1F
100
AcDbEntity
  8
0
  6
Continuous
 62
     7
100
AcDbLine
 10
364.8255523570288
 20
169.5005552619457
 30
0.0
 11
364.8255523570288
 21
176.4287584922456
 31
0.0
  0
LINE
  5
7CA
330
1F
100
AcDbEntity
  8
0
  6
Continuous
 62
     7
100
AcDbLine
 10
364.8255523570288
 20
109.5005552619457
 30
0.0
 11
359.8255523570287
 21
109.5005552619457
 31
0.0
  0
LINE
  5
7CB
330
1F
100
AcDbEntity
  8
0
  6
Continuous
 62
     7
100
AcDbLine
 10
364.8255523570288
 20
111.2326060695457
 30
0.0
 11
359.8255523570287
 21
111.2326060695457
 31
0.0
  0
LINE
  5
7CC
330
1F
100
AcDbEntity
  8
0
  6
Continuous
 62
     7
100
AcDbLine
 10
364.8255523570288
 20
114.6967076846457
 30
0.0
 11
359.8255523570287
 21
114.6967076846457
 31
0.0
  0
LINE
  5
7CD
330
1F
100
AcDbEntity
  8
0
  6
Continuous
 62
     7
100
AcDbLine
 10
364.8255523570288
 20
116.4287584922456
 30
0.0
 11
359.8255523570287
 21
116.4287584922456
 31
0.0
  0
LINE
  5
7CE
330
1F
100
AcDbEntity
  8
0
  6
Continuous
 62
     7
100
AcDbLine
 10
364.0206881099288
 20
121.8440977714084
 30
0.0
 11
363.7255523570288
 21
123.9440977714085
 31
0.0
  0
LINE
  5
7CF
330
1F
100
AcDbEntity
  8
0
  6
Continuous
 62
     7
100
AcDbLine
 10
363.7255523570288
 20
119.4440977714084
 30
0.0
 11
362.8255523570288
 21
119.4440977714084
 31
0.0
  0
LINE
  5
7D0
330
1F
100
AcDbEntity
  8
0
  6
Continuous
 62
     7
100
AcDbLine
 10
362.8255523570288
 20
120.1940977714085
 30
0.0
 11
359.8255523570287
 21
120.1940977714085
 31
0.0
  0
LINE
  5
7D1
330
1F
100
AcDbEntity
  8
0
  6
Continuous
 62
     2
100
AcDbLine
 10
359.8255523570287
 20
120.4940977714084
 30
0.0
 11
362.8255523570288
 21
120.4940977714084
 31
0.0
  0
LINE
  5
7D2
330
1F
100
AcDbEntity
  8
0
  6
Continuous
 62
     7
100
AcDbLine
 10
364.3206881099288
 20
121.5440977714084
 30
0.0
 11
364.0206881099288
 21
121.5440977714084
 31
0.0
  0
LINE
  5
7D3
330
1F
100
AcDbEntity
  8
0
  6
Continuous
 62
     7
100
AcDbLine
 10
364.3206881099288
 20
121.8440977714084
 30
0.0
 11
364.0206881099288
 21
121.8440977714084
 31
0.0
  0
LINE
  5
7D4
330
1F
100
AcDbEntity
  8
0
  6
Continuous
 62
     2
100
AcDbLine
 10
359.8255523570287
 20
122.8940977714084
 30
0.0
 11
362.8255523570288
 21
122.8940977714084
 31
0.0
  0
LINE
  5
7D5
330
1F
100
AcDbEntity
  8
0
  6
Continuous
 62
     7
100
AcDbLine
 10
362.8255523570288
 20
123.1940977714085
 30
0.0
 11
359.8255523570287
 21
123.1940977714085
 31
0.0
  0
LINE
  5
7D6
330
1F
100
AcDbEntity
  8
0
  6
Continuous
 62
     7
100
AcDbLine
 10
363.7255523570288
 20
123.9440977714085
 30
0.0
 11
362.8255523570288
 21
123.9440977714085
 31
0.0
  0
LINE
  5
7D7
330
1F
100
AcDbEntity
  8
0
  6
Continuous
 62
     7
100
AcDbLine
 10
364.8255523570288
 20
169.5005552619457
 30
0.0
 11
359.8255523570287
 21
169.5005552619457
 31
0.0
  0
LINE
  5
7D8
330
1F
100
AcDbEntity
  8
0
  6
Continuous
 62
     7
100
AcDbLine
 10
364.8255523570288
 20
171.2326060695457
 30
0.0
 11
359.8255523570287
 21
171.2326060695457
 31
0.0
  0
LINE
  5
7D9
330
1F
100
AcDbEntity
  8
0
  6
Continuous
 62
     7
100
AcDbLine
 10
364.8255523570288
 20
174.6967076846456
 30
0.0
 11
359.8255523570287
 21
174.6967076846456
 31
0.0
  0
LINE
  5
7DA
330
1F
100
AcDbEntity
  8
0
  6
Continuous
 62
     7
100
AcDbLine
 10
364.8255523570288
 20
176.4287584922456
 30
0.0
 11
359.8255523570287
 21
176.4287584922456
 31
0.0
  0
LINE
  5
7DB
330
1F
100
AcDbEntity
  8
RUNDUNGEN
  6
Continuous
 62
     9
100
AcDbLine
 10
342.8255523570288
 20
179.4646568770456
 30
0.0
 11
359.8255523570287
 21
179.4646568770456
 31
0.0
  0
LINE
  5
7DC
330
1F
100
AcDbEntity
  8
RUNDUNGEN
  6
Continuous
 62
     7
100
AcDbLine
 10
343.3255523570287
 20
179.9646568770456
 30
0.0
 11
359.8255523570287
 21
179.9646568770456
 31
0.0
  0
CIRCLE
  5
7DD
330
1F
100
AcDbEntity
  8
0
  6
Continuous
 62
     7
100
AcDbCircle
 10
81.01468155897869
 20
112.9646568770457
 30
0.0
 40
1.5
  0
ARC
  5
7DE
102
{ACAD_REACTORS
330
A17
102
}
330
1F
100
AcDbEntity
  8
RUNDUNGEN
  6
Continuous
 62
     7
100
AcDbCircle
 10
71.01468155897869
 20
106.4646568770457
 30
0.0
 40
0.5
100
AcDbArc
 50
180.0
 51
270.0
  0
CIRCLE
  5
7DF
330
1F
100
AcDbEntity
  8
0
  6
Continuous
 62
     7
100
AcDbCircle
 10
84.51468155897869
 20
121.6951304441633
 30
0.0
 40
2.75
  0
CIRCLE
  5
7E0
330
1F
100
AcDbEntity
  8
0
  6
Continuous
 62
     7
100
AcDbCircle
 10
84.51468155897869
 20
121.6951304441633
 30
0.0
 40
2.25
  0
CIRCLE
  5
7E1
330
1F
100
AcDbEntity
  8
0
  6
Continuous
 62
     7
100
AcDbCircle
 10
81.01468155897869
 20
172.9646568770456
 30
0.0
 40
1.5
  0
ARC
  5
7E2
330
1F
100
AcDbEntity
  8
RUNDUNGEN
  6
Continuous
 62
     7
100
AcDbCircle
 10
71.01468155897869
 20
179.4646568770456
 30
0.0
 40
0.5
100
AcDbArc
 50
90.0
 51
180.0
  0
CIRCLE
  5
7E3
330
1F
100
AcDbEntity
  8
0
  6
Continuous
 62
     7
100
AcDbCircle
 10
84.51468155897869
 20
121.6951304441633
 30
0.0
 40
0.15
  0
CIRCLE
  5
7E4
330
1F
100
AcDbEntity
  8
0
  6
Continuous
 62
     7
100
AcDbCircle
 10
97.0146815589787
 20
130.9646568770457
 30
0.0
 40
4.0
  0
CIRCLE
  5
7E5
330
1F
100
AcDbEntity
  8
0
  6
Continuous
 62
     7
100
AcDbCircle
 10
97.0146815589787
 20
130.9646568770457
 30
0.0
 40
2.0
  0
CIRCLE
  5
7E6
330
1F
100
AcDbEntity
  8
0
  6
Continuous
 62
     7
100
AcDbCircle
 10
113.0146815589787
 20
112.9646568770457
 30
0.0
 40
1.5
  0
ARC
  5
7E7
102
{ACAD_REACTORS
330
A17
330
9F6
102
}
330
1F
100
AcDbEntity
  8
RUNDUNGEN
  6
Continuous
 62
     7
100
AcDbCircle
 10
123.0146815589787
 20
106.4646568770457
 30
0.0
 40
0.5
100
AcDbArc
 50
270.0
 51
0.0
  0
CIRCLE
  5
7E8
330
1F
100
AcDbEntity
  8
0
  6
Continuous
 62
     7
100
AcDbCircle
 10
97.0146815589787
 20
154.9646568770457
 30
0.0
 40
4.0
  0
CIRCLE
  5
7E9
330
1F
100
AcDbEntity
  8
0
  6
Continuous
 62
     7
100
AcDbCircle
 10
108.5149815589787
 20
121.6951304441633
 30
0.0
 40
2.75
  0
CIRCLE
  5
7EA
330
1F
100
AcDbEntity
  8
0
  6
Continuous
 62
     7
100
AcDbCircle
 10
108.5149815589787
 20
121.6951304441633
 30
0.0
 40
2.25
  0
CIRCLE
  5
7EB
330
1F
100
AcDbEntity
  8
0
  6
Continuous
 62
     7
100
AcDbCircle
 10
97.0146815589787
 20
154.9646568770457
 30
0.0
 40
2.0
  0
CIRCLE
  5
7EC
330
1F
100
AcDbEntity
  8
0
  6
Continuous
 62
     7
100
AcDbCircle
 10
113.0146815589787
 20
172.9646568770456
 30
0.0
 40
1.5
  0
ARC
  5
7ED
102
{ACAD_REACTORS
330
9F6
102
}
330
1F
100
AcDbEntity
  8
RUNDUNGEN
  6
Continuous
 62
     7
100
AcDbCircle
 10
123.0146815589787
 20
179.4646568770456
 30
0.0
 40
0.5
100
AcDbArc
 50
0.0
 51
90.0
  0
CIRCLE
  5
7EE
330
1F
100
AcDbEntity
  8
0
  6
Continuous
 62
     7
100
AcDbCircle
 10
108.5149815589787
 20
121.6951304441633
 30
0.0
 40
0.15
  0
ARC
  5
7EF
330
1F
100
AcDbEntity
  8
RUNDUNGEN
  6
Continuous
 62
     7
100
AcDbCircle
 10
343.3255523570287
 20
179.4646568770456
 30
0.0
 40
0.5
100
AcDbArc
 50
90.0
 51
180.0
  0
ARC
  5
7F0
102
{ACAD_REACTORS
330
A62
330
A41
102
}
330
1F
100
AcDbEntity
  8
RUNDUNGEN
  6
Continuous
 62
     7
100
AcDbCircle
 10
343.3255523570287
 20
106.4646568770457
 30
0.0
 40
0.5
100
AcDbArc
 50
180.0
 51
270.0
  0
LINE
  5
7FF
330
1F
100
AcDbEntity
  8
0
100
AcDbLine
 10
95.00037731167871
 20
239.2687251026905
 30
0.0
 11
95.00037731167871
 21
209.4433112678997
 31
0.0
  0
LINE
  5
801
330
1F
100
AcDbEntity
  8
0
100
AcDbLine
 10
99.00037731167872
 20
239.2687251026905
 30
0.0
 11
99.00037731167872
 21
210.230840345701
 31
0.0
  0
SPLINE
  5
804
330
1F
100
AcDbEntity
  8
0
100
AcDbSpline
210
0.0
220
0.0
230
1.0
 70
     8
 71
     3
 72
     8
 73
     4
 74
     0
 42
0.0000000001
 43
0.0000000001
 40
12.33304245272051
 40
12.33304245272085
 40
12.33304245272085
 40
12.33304245272085
 40
16.54835894267377
 40
16.54835894267377
 40
16.54835894267377
 40
16.54835894267377
 10
95.00037731167905
 20
209.4433112679009
 30
0.0
 10
96.34686476868152
 20
209.0758342407397
 30
0.0
 10
97.68241938661713
 20
209.4717705462201
 30
0.0
 10
99.0003773116787
 20
210.230840345701
 30
0.0
  0
SPLINE
  5
805
330
1F
100
AcDbEntity
  8
0
100
AcDbSpline
210
0.0
220
0.0
230
1.0
 70
     8
 71
     3
 72
     9
 73
     5
 74
     0
 42
0.0000000001
 43
0.0000000001
 40
12.07183247709228
 40
12.07183247709228
 40
12.07183247709228
 40
12.07183247709228
 40
14.1600211105273
 40
16.71818099225092
 40
16.71818099225092
 40
16.71818099225092
 40
16.71818099225092
 10
95.00037731167871
 20
200.4036317633083
 30
0.0
 10
95.56544680429622
 20
199.930043417888
 30
0.0
 10
96.84482030628212
 20
199.0768597524919
 30
0.0
 10
98.21631791329151
 20
199.3141779773688
 30
0.0
 10
99.00037731167872
 20
199.62449205047
 30
0.0
  0
LINE
  5
806
330
1F
100
AcDbEntity
  8
0
100
AcDbLine
 10
99.00037731167872
 20
199.62449205047
 30
0.0
 11
99.00037731167872
 21
179.9646568770456
 31
0.0
  0
LINE
  5
808
330
1F
100
AcDbEntity
  8
0
100
AcDbLine
 10
95.00037731167871
 20
200.4036317633083
 30
0.0
 11
95.0003773116787
 21
179.9646568770456
 31
0.0
  0
LINE
  5
80B
330
1F
100
AcDbEntity
  8
0
100
AcDbLine
 10
351.8286572835489
 20
239.2687251026905
 30
0.0
 11
351.8286572835489
 21
218.440162969569
 31
0.0
  0
LINE
  5
80D
330
1F
100
AcDbEntity
  8
0
100
AcDbLine
 10
355.8286572835489
 20
239.2687251026905
 30
0.0
 11
355.8286572835489
 21
215.4170232832912
 31
0.0
  0
SPLINE
  5
80E
330
1F
100
AcDbEntity
  8
0
100
AcDbSpline
210
0.0
220
0.0
230
1.0
 70
     8
 71
     3
 72
     9
 73
     5
 74
     0
 42
0.0000000001
 43
0.0000000001
 40
13.74479833981198
 40
13.74479833981198
 40
13.74479833981198
 40
13.74479833981198
 40
16.45009205106736
 40
18.66042055097835
 40
18.66042055097835
 40
18.66042055097835
 40
18.66042055097835
 10
351.8286572835489
 20
218.440162969569
 30
0.0
 10
352.6294853512084
 20
218.1432275494315
 30
0.0
 10
354.0191556054474
 20
217.3337276564034
 30
0.0
 10
355.2664608804739
 20
215.9371597483117
 30
0.0
 10
355.8286572835489
 20
215.4170232832912
 30
0.0
  0
SPLINE
  5
80F
330
1F
100
AcDbEntity
  8
0
100
AcDbSpline
210
0.0
220
0.0
230
1.0
 70
     8
 71
     3
 72
     8
 73
     4
 74
     0
 42
0.0000000001
 43
0.0000000001
 40
8.402260183113778
 40
8.402260183113778
 40
8.402260183113778
 40
8.40226018311684
 40
12.88908351972613
 40
12.88908351972618
 40
12.88908351972618
 40
12.88908351972618
 10
351.8286572835472
 20
212.8397728656735
 30
0.0
 10
353.1392857149923
 20
212.5565916548953
 30
0.0
 10
354.3881787975734
 20
211.5997908369661
 30
0.0
 10
355.8286572835489
 20
210.8071431271466
 30
0.0
  0
LINE
  5
810
330
1F
100
AcDbEntity
  8
0
100
AcDbLine
 10
355.8286572835489
 20
210.8071431271466
 30
0.0
 11
355.8286572835489
 21
179.9646568770456
 31
0.0
  0
LINE
  5
811
330
1F
100
AcDbEntity
  8
0
100
AcDbLine
 10
351.8286572835489
 20
212.8397728656731
 30
0.0
 11
351.8286572835489
 21
179.9646568770456
 31
0.0
  0
DIMENSION
  5
992
102
{ACAD_XDICTIONARY
360
9A0
102
}
102
{ACAD_REACTORS
330
9A1
102
}
330
1F
100
AcDbEntity
  8
5
100
AcDbDimension
  2
*D7
 10
216.5003773116787
 20
400.1855873072583
 30
0.0
 11
137.0003773116787
 21
400.1855873072583
 31
0.0
 70
   160
  1
158
 71
     5
 42
159.0
  3
GEN-ISO
100
AcDbAlignedDimension
 13
57.50037731167871
 23
373.2687251026905
 33
0.0
 14
216.5003773116787
 24
373.2687251026905
 34
0.0
 50
0.0000000000000114
100
AcDbRotatedDimension
1001
ACAD_DSTYLE_DIMINSPECT
1070
   396
1000
100%
1070
   395
1000

1070
   394
1070
    33
1070
   393
1070
     0
1001
ACAD
1000
DSTYLE
1002
{
1070
    41
1040
1.0
1070
   140
1040
1.5
1070
   147
1040
0.4
1002
}
  0
DIMENSION
  5
9BE
102
{ACAD_XDICTIONARY
360
9CB
102
}
102
{ACAD_REACTORS
330
9CC
102
}
330
1F
100
AcDbEntity
  8
5
100
AcDbDimension
  2
*D8
 10
248.0894410417398
 20
381.2687251026905
 30
0.0
 11
248.0894410417397
 21
322.2687251026906
 31
0.0
 70
   160
 71
     5
 42
118.0
  3
GEN-ISO
100
AcDbAlignedDimension
 13
208.5003773116787
 23
263.2687251026905
 33
0.0
 14
208.5003773116787
 24
381.2687251026905
 34
0.0
 50
90.00000000000005
100
AcDbRotatedDimension
1001
ACAD_DSTYLE_DIMINSPECT
1070
   396
1000
100%
1070
   395
1000

1070
   394
1070
    33
1070
   393
1070
     0
1001
ACAD
1000
DSTYLE
1002
{
1070
    41
1040
1.0
1070
   140
1040
1.5
1070
   147
1040
0.4
1002
}
  0
DIMENSION
  5
9E8
102
{ACAD_XDICTIONARY
360
9F5
102
}
102
{ACAD_REACTORS
330
9F6
102
}
330
1F
100
AcDbEntity
  8
5
100
AcDbDimension
  2
*D9
 10
158.5494747366736
 20
105.9646568770457
 30
0.0
 11
158.5494747366736
 21
142.9646568770457
 31
0.0
 70
   160
 71
     5
 42
73.99999999999995
  3
GEN-ISO
100
AcDbAlignedDimension
 13
123.0146815589787
 23
179.9646568770456
 33
0.0
 14
123.0146815589787
 24
105.9646568770457
 34
0.0
 50
90.00000000000005
100
AcDbRotatedDimension
1001
ACAD_DSTYLE_DIMINSPECT
1070
   396
1000
100%
1070
   395
1000

1070
   394
1070
    33
1070
   393
1070
     0
1001
ACAD
1000
DSTYLE
1002
{
1070
    41
1040
1.0
1070
   140
1040
1.5
1070
   147
1040
0.4
1002
}
  0
DIMENSION
  5
A09
102
{ACAD_XDICTIONARY
360
A16
102
}
102
{ACAD_REACTORS
330
A17
102
}
330
1F
100
AcDbEntity
  8
5
100
AcDbDimension
  2
*D10
 10
123.5146815589787
 20
71.13575908091346
 30
0.0
 11
97.0146815589787
 21
71.13575908091346
 31
0.0
 70
   160
 71
     5
 42
53.0
  3
GEN-ISO
100
AcDbAlignedDimension
 13
70.51468155897869
 23
106.4646568770457
 33
0.0
 14
123.5146815589787
 24
106.4646568770457
 34
0.0
 50
0.0000000000001132
100
AcDbRotatedDimension
1001
ACAD_DSTYLE_DIMINSPECT
1070
   396
1000
100%
1070
   395
1000

1070
   394
1070
    33
1070
   393
1070
     0
1001
ACAD
1000
DSTYLE
1002
{
1070
    41
1040
1.0
1070
   140
1040
1.5
1070
   147
1040
0.4
1002
}
  0
DIMENSION
  5
A33
102
{ACAD_XDICTIONARY
360
A40
102
}
102
{ACAD_REACTORS
330
A41
102
}
330
1F
100
AcDbEntity
  8
5
100
AcDbDimension
  2
*D11
 10
359.8255523570287
 20
79.42426960098678
 30
0.0
 11
390.9475996011231
 21
79.42426960098678
 31
0.0
 70
   160
  1
16
 71
     5
 42
16.99999999999983
  3
GEN-ISO
100
AcDbAlignedDimension
 13
342.8255523570288
 23
106.4646568770457
 33
0.0
 14
359.8255523570287
 24
105.9646568770457
 34
0.0
 50
0.0000000000001132
100
AcDbRotatedDimension
1001
ACAD_DSTYLE_DIMINSPECT
1070
   396
1000
100%
1070
   395
1000

1070
   394
1070
    33
1070
   393
1070
     0
1001
ACAD
1000
DSTYLE
1002
{
1070
    41
1040
1.0
1070
   140
1040
1.5
1070
   147
1040
0.4
1002
}
  0
DIMENSION
  5
A54
102
{ACAD_XDICTIONARY
360
A61
102
}
102
{ACAD_REACTORS
330
A62
102
}
330
1F
100
AcDbEntity
  8
5
100
AcDbDimension
  2
*D12
 10
364.8255523570288
 20
55.02765732653482
 30
0.0
 11
397.5766652847141
 21
55.02765732653482
 31
0.0
 70
   160
  1
23
 71
     5
 42
22.0
  3
GEN-ISO
100
AcDbAlignedDimension
 13
342.8255523570288
 23
106.4646568770457
 33
0.0
 14
364.8255523570288
 24
72.26410629424027
 34
0.0
 50
0.0000000000001132
100
AcDbRotatedDimension
1001
ACAD_DSTYLE_DIMINSPECT
1070
   396
1000
100%
1070
   395
1000

1070
   394
1070
    33
1070
   393
1070
     0
1001
ACAD
1000
DSTYLE
1002
{
1070
    41
1040
1.0
1070
   140
1040
1.5
1070
   147
1040
0.4
1002
}
  0
DIMENSION
  5
A75
102
{ACAD_XDICTIONARY
360
A82
102
}
102
{ACAD_REACTORS
330
A83
102
}
330
1F
100
AcDbEntity
  8
5
100
AcDbDimension
  2
*D13
 10
403.3286066363488
 20
401.7687251026902
 30
0.0
 11
364.8286066363489
 21
401.7687251026902
 31
0.0
 70
   160
  1
76
 71
     5
 42
77.0
  3
GEN-ISO
100
AcDbAlignedDimension
 13
326.3286066363489
 23
378.2687251026905
 33
0.0
 14
403.3286066363488
 24
375.7687251026905
 34
0.0
100
AcDbRotatedDimension
1001
ACAD_DSTYLE_DIMINSPECT
1070
   396
1000
100%
1070
   395
1000

1070
   394
1070
    33
1070
   393
1070
     0
1001
ACAD
1000
DSTYLE
1002
{
1070
    41
1040
1.0
1070
   140
1040
1.5
1070
   147
1040
0.4
1002
}
  0
LINE
  5
AC1
330
1F
100
AcDbEntity
  8
0
  6
Continuous
 62
     7
100
AcDbLine
 10
95.00037731167871
 20
177.9646568770456
 30
0.0
 11
72.51468155897869
 21
177.9646568770456
 31
0.0
  0
LINE
  5
AC2
330
1F
100
AcDbEntity
  8
RUNDUNGEN
  6
Continuous
 62
     7
100
AcDbLine
 10
95.0003773116787
 20
179.9646568770456
 30
0.0
 11
123.0146815589787
 21
179.9646568770456
 31
0.0
  0
LINE
  5
E77
330
1F
100
AcDbEntity
  8
AM_0
100
AcDbLine
 10
284.9540360503208
 20
104.1656308052402
 30
0.0
 11
254.5313548010829
 21
92.73276302821932
 31
0.0
  0
LINE
  5
E78
330
1F
100
AcDbEntity
  8
AM_0
100
AcDbLine
 10
254.5313548010829
 20
92.73276302821932
 30
0.0
 11
252.7357619947554
 21
97.51080723075894
 31
0.0
  0
ARC
  5
E79
330
1F
100
AcDbEntity
  8
AM_0
100
AcDbCircle
 10
266.3005761273719
 20
103.4533431482482
 30
0.0
 40
14.80938606368072
100
AcDbArc
 50
150.744836577965
 51
203.6574847184426
1001
GENIUS_GENODEF_13
1002
{
1000
HIER
1070
     0
1002
}
1002
{
1000
MANEDIT
1070
     0
1002
}
1002
{
1000
NOSEL
1070
     0
1002
}
1002
{
1000
BEHIND
1070
     0
1002
}
1002
{
1000
OTHER
1070
     0
1002
}
1002
{
1000
REACTOR
1002
}
1001
GENIUS_GENOBJ-N-FIL_13
1002
{
1000
OWNER
1000
GEN
1002
}
  0
ARC
  5
E7A
330
1F
100
AcDbEntity
  8
AM_0
100
AcDbCircle
 10
240.2933185439845
 20
118.0211861742132
 30
0.0
 40
15.0
100
AcDbArc
 50
330.7448365779651
 51
9.904768309000376
1001
GENIUS_GENODEF_13
1002
{
1000
HIER
1070
     0
1002
}
1002
{
1000
MANEDIT
1070
     0
1002
}
1002
{
1000
NOSEL
1070
     0
1002
}
1002
{
1000
BEHIND
1070
     0
1002
}
1002
{
1000
OTHER
1070
     0
1002
}
1002
{
1000
REACTOR
1002
}
1001
GENIUS_GENOBJ-N-FIL_13
1002
{
1000
OWNER
1000
GEN
1002
}
  0
LINE
  5
E7B
330
1F
100
AcDbEntity
  8
AM_0
100
AcDbLine
 10
283.1584432439933
 20
108.9436750078052
 30
0.0
 11
284.9540360503208
 21
104.1656308052402
 31
0.0
  0
ARC
  5
E7C
330
1F
100
AcDbEntity
  8
AM_0
100
AcDbCircle
 10
267.9848574333239
 20
103.9904981649447
 30
0.0
 40
15.96156844393252
100
AcDbArc
 50
18.07845174658472
 51
70.8422032768637
1001
GENIUS_GENODEF_13
1002
{
1000
HIER
1070
     0
1002
}
1002
{
1000
MANEDIT
1070
     0
1002
}
1002
{
1000
NOSEL
1070
     0
1002
}
1002
{
1000
BEHIND
1070
     0
1002
}
1002
{
1000
OTHER
1070
     0
1002
}
1002
{
1000
REACTOR
1002
}
1001
GENIUS_GENOBJ-N-FIL_13
1002
{
1000
OWNER
1000
GEN
1002
}
  0
ARC
  5
E7D
330
1F
100
AcDbEntity
  8
AM_0
100
AcDbCircle
 10
278.1455445477889
 20
133.2373639439206
 30
0.0
 40
15.0
100
AcDbArc
 50
208.3488949951665
 51
250.8422032768637
1001
GENIUS_GENOBJ-N-FIL_13
1002
{
1000
OWNER
1000
GEN
1002
}
1001
GENIUS_GENODEF_13
1002
{
1000
HIER
1070
     0
1002
}
1002
{
1000
MANEDIT
1070
     0
1002
}
1002
{
1000
NOSEL
1070
     0
1002
}
1002
{
1000
BEHIND
1070
     0
1002
}
1002
{
1000
OTHER
1070
     0
1002
}
1002
{
1000
REACTOR
1002
}
  0
LINE
  5
E7E
330
1F
100
AcDbEntity
  8
AM_0
100
AcDbLine
 10
284.9540360503208
 20
104.1656308052402
 30
0.0
 11
286.8262010502888
 21
104.8691918992076
 31
0.0
  0
LINE
  5
E7F
330
1F
100
AcDbEntity
  8
AM_0
100
AcDbLine
 10
286.8262010502888
 20
104.8691918992076
 30
0.0
 11
284.3637372213864
 21
111.4217693990463
 31
0.0
  0
LINE
  5
E80
330
1F
100
AcDbEntity
  8
AM_0
100
AcDbLine
 10
284.3637372213864
 20
111.4217693990463
 30
0.0
 11
282.4915722214257
 21
110.7182083050825
 31
0.0
  0
LINE
  5
E81
330
1F
100
AcDbEntity
  8
AM_0
100
AcDbLine
 10
254.5313548010829
 20
92.73276302821932
 30
0.0
 11
252.6591898011222
 21
92.02920193424823
 31
0.0
  0
LINE
  5
E82
330
1F
100
AcDbEntity
  8
AM_0
100
AcDbLine
 10
252.6591898011222
 20
92.02920193424823
 30
0.0
 11
250.1967259722453
 21
98.58177943408691
 31
0.0
  0
LINE
  5
E83
330
1F
100
AcDbEntity
  8
AM_0
100
AcDbLine
 10
250.1967259722453
 20
98.58177943408691
 30
0.0
 11
252.0688909721878
 21
99.28534052805435
 31
0.0
  0
LINE
  5
E84
330
1F
100
AcDbEntity
  8
AM_0
100
AcDbLine
 10
280.7416648004448
 20
102.5826183438071
 30
0.0
 11
286.6339889624444
 21
86.90323646919887
 31
0.0
  0
LINE
  5
E85
330
1F
100
AcDbEntity
  8
AM_0
100
AcDbLine
 10
282.4216177125428
 20
85.32022400776577
 30
0.0
 11
276.529293550547
 21
100.999605882374
 31
0.0
  0
LINE
  5
E86
330
1F
100
AcDbEntity
  8
AM_0
100
AcDbLine
 10
276.529293550547
 20
100.999605882374
 30
0.0
 11
280.7416648004448
 21
102.5826183438071
 31
0.0
  0
ARC
  5
E87
330
1F
100
AcDbEntity
  8
AM_0
100
AcDbCircle
 10
284.5278033374937
 20
86.11173023848051
 30
0.0
 40
2.249999999999999
100
AcDbArc
 50
200.5962600555934
 51
20.59626005559337
  0
LINE
  5
E88
330
1F
100
AcDbEntity
  8
AM_0
100
AcDbLine
 10
258.7437260509844
 20
94.31577548965242
 30
0.0
 11
264.6360502129876
 21
78.6363936150442
 31
0.0
  0
LINE
  5
E89
330
1F
100
AcDbEntity
  8
AM_0
100
AcDbLine
 10
268.8484214628709
 20
80.2194060764773
 30
0.0
 11
262.956097300875
 21
95.89878795108552
 31
0.0
  0
LINE
  5
E8A
330
1F
100
AcDbEntity
  8
AM_0
100
AcDbLine
 10
262.956097300875
 20
95.89878795108552
 30
0.0
 11
258.7437260509844
 21
94.31577548965242
 31
0.0
  0
ARC
  5
E8B
330
1F
100
AcDbEntity
  8
AM_0
100
AcDbCircle
 10
266.7422358379347
 20
79.42789984576255
 30
0.0
 40
2.249999999999999
100
AcDbArc
 50
200.5962600555934
 51
20.59626005559337
  0
LINE
  5
E8C
330
1F
100
AcDbEntity
  8
AM_0
100
AcDbLine
 10
261.4572893609486
 20
132.5779278124896
 30
0.0
 11
253.5005881111477
 21
129.5877931631144
 31
0.0
  0
LINE
  5
E8D
330
1F
100
AcDbEntity
  8
AM_0
100
AcDbLine
 10
261.4572893609486
 20
132.5779278124896
 30
0.0
 11
264.9444577048973
 21
126.1147726902886
 31
0.0
  0
LINE
  5
E8E
330
1F
100
AcDbEntity
  8
AM_0
100
AcDbLine
 10
253.5005881111477
 20
129.5877931631144
 30
0.0
 11
255.0697437590982
 21
120.6013524212171
 31
0.0
  0
LINE
  5
E8F
330
1F
100
AcDbEntity
  8
AM_0
100
AcDbLine
 10
254.2851659351229
 20
125.0945727921676
 30
0.0
 11
263.6051633299114
 21
128.5970352156396
 31
0.0
  0
LINE
  5
E90
330
1F
100
AcDbEntity
  8
AM_0
100
AcDbLine
 10
254.5477407652227
 20
123.5908257584592
 30
0.0
 11
264.3239927758234
 21
127.2647490289414
 31
0.0
  0
LINE
  5
E91
330
1F
100
AcDbEntity
  8
AM_0
100
AcDbLine
 10
255.1515303188728
 20
120.0787436710047
 30
0.0
 11
266.1614003543048
 21
124.2162615750308
 31
0.0
  0
LINE
  5
E92
330
1F
100
AcDbEntity
  8
AM_0
100
AcDbLine
 10
255.284807873036
 20
118.5264066183076
 30
0.0
 11
267.1839095187836
 21
122.9980984677745
 31
0.0
  0
LINE
  5
E93
330
1F
100
AcDbEntity
  8
AM_0
100
AcDbLine
 10
259.8191440499006
 20
131.9623115034842
 30
0.0
 11
256.0302533933657
 21
142.0444899192766
 31
0.0
  0
LINE
  5
E94
330
1F
100
AcDbEntity
  8
AM_0
100
AcDbLine
 10
255.1387334221884
 20
130.2034094721234
 30
0.0
 11
251.3498427656425
 21
140.2855878879122
 31
0.0
  0
ARC
  5
E95
330
1F
100
AcDbEntity
  8
AM_0
100
AcDbCircle
 10
212.3464208679918
 20
125.6280709598791
 30
0.0
 40
41.66665
100
AcDbArc
 50
20.59626005559337
 51
110.5962600557304
  0
ARC
  5
E96
330
1F
100
AcDbEntity
  8
AM_0
100
AcDbCircle
 10
212.3464208679918
 20
125.6280709598791
 30
0.0
 40
46.66664799999998
100
AcDbArc
 50
20.59626005559337
 51
110.5962600557304
  0
ARC
  5
E97
330
1F
100
AcDbEntity
  8
AM_0
100
AcDbCircle
 10
204.7245120654163
 20
145.9098503466662
 30
0.0
 40
24.99999
100
AcDbArc
 50
110.5962600557304
 51
23.29525842730935
  0
ARC
  5
E98
330
1F
100
AcDbEntity
  8
AM_0
100
AcDbCircle
 10
204.7245120654163
 20
145.9098503466662
 30
0.0
 40
19.99999199999999
100
AcDbArc
 50
110.5962600557304
 51
23.29525842730935
  0
ARC
  5
E99
330
1F
100
AcDbEntity
  8
AM_0
100
AcDbCircle
 10
213.3486781525874
 20
141.5794511989111
 30
0.0
 40
24.99999
100
AcDbArc
 50
103.3801079564496
 51
202.0902458846902
  0
ARC
  5
E9A
330
1F
100
AcDbEntity
  8
AM_0
100
AcDbCircle
 10
211.6131026498345
 20
148.8758703668495
 30
0.0
 40
17.49999299999999
100
AcDbArc
 50
23.29525842730935
 51
103.3801079564496
1001
GENIUS_GENOBJ-N-FIL_13
1002
{
1000
OWNER
1000
GEN
1002
}
1001
GENIUS_GENODEF_13
1002
{
1000
HIER
1070
     0
1002
}
1002
{
1000
MANEDIT
1070
     0
1002
}
1002
{
1000
NOSEL
1070
     0
1002
}
1002
{
1000
BEHIND
1070
     0
1002
}
1002
{
1000
OTHER
1070
     0
1002
}
1002
{
1000
REACTOR
1002
}
  0
ARC
  5
E9B
330
1F
100
AcDbEntity
  8
AM_0
100
AcDbCircle
 10
213.3486781525874
 20
141.5794511989111
 30
0.0
 40
24.99999
100
AcDbArc
 50
232.209396937321
 51
58.58858600634171
  0
ARC
  5
E9C
330
1F
100
AcDbEntity
  8
AM_0
100
AcDbCircle
 10
213.3486781525874
 20
141.5794511989111
 30
0.0
 40
19.99999199999999
100
AcDbArc
 50
103.3801079564496
 51
229.3768830769597
  0
ARC
  5
E9D
330
1F
100
AcDbEntity
  8
AM_0
100
AcDbCircle
 10
211.6131026498345
 20
148.8758703668495
 30
0.0
 40
12.499995
100
AcDbArc
 50
23.29525842730935
 51
103.3801079564496
1001
GENIUS_GENOBJ-N-FIL_13
1002
{
1000
OWNER
1000
GEN
1002
}
1001
GENIUS_GENODEF_13
1002
{
1000
HIER
1070
     0
1002
}
1002
{
1000
MANEDIT
1070
     0
1002
}
1002
{
1000
NOSEL
1070
     0
1002
}
1002
{
1000
BEHIND
1070
     0
1002
}
1002
{
1000
OTHER
1070
     0
1002
}
1002
{
1000
REACTOR
1002
}
  0
ARC
  5
E9E
330
1F
100
AcDbEntity
  8
AM_0
100
AcDbCircle
 10
213.3486781525874
 20
141.5794511989111
 30
0.0
 40
19.99999199999999
100
AcDbArc
 50
263.3135459079733
 51
43.36182047625785
  0
LINE
  5
E9F
330
1F
100
AcDbEntity
  8
AM_0
100
AcDbLine
 10
174.1699718248721
 20
239.2687251026905
 30
0.0
 11
174.1699718248721
 21
202.9313277464193
 31
0.0
  0
LINE
  5
EA0
330
1F
100
AcDbEntity
  8
AM_0
100
AcDbLine
 10
179.1699698248715
 20
239.2687251026867
 30
0.0
 11
179.1699698248715
 21
202.9313291210333
 31
0.0
  0
ARC
  5
EA1
330
1F
100
AcDbEntity
  8
AM_0
100
AcDbCircle
 10
199.1699698248715
 20
202.9313291210333
 30
0.0
 40
20.0
100
AcDbArc
 50
180.0
 51
235.499077378977
1001
GENIUS_GENODEF_13
1002
{
1000
HIER
1070
     0
1002
}
1002
{
1000
MANEDIT
1070
     0
1002
}
1002
{
1000
NOSEL
1070
     0
1002
}
1002
{
1000
BEHIND
1070
     0
1002
}
1002
{
1000
OTHER
1070
     0
1002
}
1002
{
1000
REACTOR
1002
}
1001
GENIUS_GENOBJ-N-FIL_13
1002
{
1000
OWNER
1000
GEN
1002
}
  0
ARC
  5
EA2
330
1F
100
AcDbEntity
  8
AM_0
100
AcDbCircle
 10
199.1699718248721
 20
202.9313277464212
 30
0.0
 40
25.0
100
AcDbArc
 50
180.0
 51
235.499077378977
1001
GENIUS_GENODEF_13
1002
{
1000
HIER
1070
     0
1002
}
1002
{
1000
MANEDIT
1070
     0
1002
}
1002
{
1000
NOSEL
1070
     0
1002
}
1002
{
1000
BEHIND
1070
     0
1002
}
1002
{
1000
OTHER
1070
     0
1002
}
1002
{
1000
REACTOR
1002
}
1001
GENIUS_GENOBJ-N-FIL_13
1002
{
1000
OWNER
1000
GEN
1002
}
  0
LINE
  5
EA3
330
1F
100
AcDbEntity
  8
AM_0
100
AcDbLine
 10
187.8415796735145
 20
186.4489877649453
 30
0.0
 11
211.0491429519618
 21
172.2766840750032
 31
0.0
  0
LINE
  5
EA4
330
1F
100
AcDbEntity
  8
AM_0
100
AcDbLine
 10
220.5392283221347
 20
166.4813159747114
 30
0.0
 11
226.378164412484
 21
162.9156173916276
 31
0.0
  0
LINE
  5
EA5
330
1F
100
AcDbEntity
  8
AM_0
100
AcDbLine
 10
185.235681379175
 20
182.1817528195083
 30
0.0
 11
202.9807699658534
 21
171.3452517427672
 31
0.0
  0
ENDSEC
  0
SECTION
  2
OBJECTS
  0
DICTIONARY
  5
C
330
0
100
AcDbDictionary
281
     1
  3
ACAD_2007HEADERVARS_RT
350
F30
  3
ACAD_COLOR
350
BE
  3
ACAD_GROUP
350
D
  3
ACAD_IMAGE_DICT
350
942
  3
ACAD_LAYOUT
350
1A
  3
ACAD_MATERIAL
350
BD
  3
ACAD_MLEADERSTYLE
350
3EF
  3
ACAD_MLINESTYLE
350
17
  3
ACAD_PLOTSETTINGS
350
19
  3
ACAD_PLOTSTYLENAME
350
E
  3
ACAD_SCALELIST
350
3DD
  3
ACAD_TABLESTYLE
350
11A
  3
ACAD_VISUALSTYLE
350
3CC
  3
ACDB_RECOMPOSE_DATA
350
ACC
  3
AcDbVariableDictionary
350
94
  3
AcmDictionary
350
5B
  3
AEC_PROPERTY_SET_DEFS
350
E73
  3
AMG
350
41
  3
AMGSNAPSETTINGS
350
26B
  0
DICTIONARY
  5
8B5
330
2
100
AcDbDictionary
280
     1
281
     1
  3
ACAD_LAYERSTATES
360
8B6
  0
DICTIONARY
  5
AA0
330
10
100
AcDbDictionary
280
     1
281
     1
  3
ADSK_XREC_LAYER_RECONCILED
360
AA1
  0
DICTIONARY
  5
AA2
330
41B
100
AcDbDictionary
280
     1
281
     1
  3
ADSK_XREC_LAYER_RECONCILED
360
AA3
  0
DICTIONARY
  5
AA4
330
41C
100
AcDbDictionary
280
     1
281
     1
  3
ADSK_XREC_LAYER_RECONCILED
360
AA5
  0
DICTIONARY
  5
81E
330
81D
100
AcDbDictionary
280
     1
281
     1
  3
ADSK_XREC_LAYER_RECONCILED
360
AA6
  0
DICTIONARY
  5
AA7
330
87A
100
AcDbDictionary
280
     1
281
     1
  3
ADSK_XREC_LAYER_RECONCILED
360
AA8
  0
DICTIONARY
  5
895
330
894
100
AcDbDictionary
280
     1
281
     1
  3
ADSK_XREC_LAYER_RECONCILED
360
AA9
  0
DICTIONARY
  5
897
330
896
100
AcDbDictionary
280
     1
281
     1
  3
ADSK_XREC_LAYER_RECONCILED
360
AAA
  0
DICTIONARY
  5
899
330
898
100
AcDbDictionary
280
     1
281
     1
  3
ADSK_XREC_LAYER_RECONCILED
360
AAB
  0
DICTIONARY
  5
89B
330
89A
100
AcDbDictionary
280
     1
281
     1
  3
ADSK_XREC_LAYER_RECONCILED
360
AAC
  0
DICTIONARY
  5
89D
330
89C
100
AcDbDictionary
280
     1
281
     1
  3
ADSK_XREC_LAYER_RECONCILED
360
AAD
  0
DICTIONARY
  5
89F
330
89E
100
AcDbDictionary
280
     1
281
     1
  3
ADSK_XREC_LAYER_RECONCILED
360
AAE
  0
DICTIONARY
  5
8A3
330
8A2
100
AcDbDictionary
280
     1
281
     1
  3
ADSK_XREC_LAYER_RECONCILED
360
AAF
  0
DICTIONARY
  5
AB0
330
8A4
100
AcDbDictionary
280
     1
281
     1
  3
ADSK_XREC_LAYER_RECONCILED
360
AB1
  0
DICTIONARY
  5
AB2
330
8A5
100
AcDbDictionary
280
     1
281
     1
  3
ADSK_XREC_LAYER_RECONCILED
360
AB3
  0
DICTIONARY
  5
AB4
330
98F
100
AcDbDictionary
280
     1
281
     1
  3
ADSK_XREC_LAYER_RECONCILED
360
AB5
  0
DICTIONARY
  5
BD2
330
BD1
100
AcDbDictionary
280
     1
281
     1
  3
ADSK_XREC_LAYER_RECONCILED
360
BD3
  0
DICTIONARY
  5
8F
330
1F
100
AcDbDictionary
280
     1
281
     1
  3
ACAD_SORTENTS
360
807
  0
DICTIONARY
  5
93E
330
8B7
100
AcDbDictionary
280
     1
281
     1
  3
ACAD_SORTENTS
360
93F
  0
DICTIONARY
  5
F37
330
872
100
AcDbDictionary
280
     1
281
     1
  3
ACAD_MTEXT_2008_RT
360
F38
  0
DICTIONARY
  5
9A0
330
992
100
AcDbDictionary
280
     1
281
     1
  3
ACAD_DIMASSOC
360
9A1
  0
DICTIONARY
  5
9CB
330
9BE
100
AcDbDictionary
280
     1
281
     1
  3
ACAD_DIMASSOC
360
9CC
  0
DICTIONARY
  5
9F5
330
9E8
100
AcDbDictionary
280
     1
281
     1
  3
ACAD_DIMASSOC
360
9F6
  0
DICTIONARY
  5
A16
330
A09
100
AcDbDictionary
280
     1
281
     1
  3
ACAD_DIMASSOC
360
A17
  0
DICTIONARY
  5
A40
330
A33
100
AcDbDictionary
280
     1
281
     1
  3
ACAD_DIMASSOC
360
A41
  0
DICTIONARY
  5
A61
330
A54
100
AcDbDictionary
280
     1
281
     1
  3
ACAD_DIMASSOC
360
A62
  0
DICTIONARY
  5
A82
330
A75
100
AcDbDictionary
280
     1
281
     1
  3
ACAD_DIMASSOC
360
A83
  0
DICTIONARY
  5
F30
102
{ACAD_REACTORS
330
C
102
}
330
C
100
AcDbDictionary
281
     1
  3
DIMARCSYM
350
F31
  3
DIMJOGANG
350
F32
  3
DIMLTEX1
350
F34
  3
DIMLTEX2
350
F35
  3
DIMLTYPE
350
F33
  0
DICTIONARY
  5
BE
102
{ACAD_REACTORS
330
C
102
}
330
C
100
AcDbDictionary
281
     1
  0
DICTIONARY
  5
D
102
{ACAD_REACTORS
330
C
102
}
330
C
100
AcDbDictionary
281
     1
  0
DICTIONARY
  5
942
102
{ACAD_REACTORS
330
C
102
}
330
C
100
AcDbDictionary
281
     1
  3
ACO-Logo
350
943
  3
ACO-Logo_1
350
944
  0
DICTIONARY
  5
1A
102
{ACAD_REACTORS
330
C
102
}
330
C
100
AcDbDictionary
281
     1
  3
Layout1
350
1E
  3
Layout2
350
26
  3
Model
350
22
  0
DICTIONARY
  5
BD
102
{ACAD_REACTORS
330
C
102
}
330
C
100
AcDbDictionary
281
     1
  3
ByBlock
350
3BC
  3
ByLayer
350
3B4
  3
Global
350
3C4
  0
DICTIONARY
  5
3EF
102
{ACAD_REACTORS
330
C
102
}
330
C
100
AcDbDictionary
281
     1
  3
Standard
350
3F0
  0
DICTIONARY
  5
17
102
{ACAD_REACTORS
330
C
102
}
330
C
100
AcDbDictionary
281
     1
  3
Standard
350
18
  0
DICTIONARY
  5
19
102
{ACAD_REACTORS
330
C
102
}
330
C
100
AcDbDictionary
281
     1
  0
ACDBDICTIONARYWDFLT
  5
E
102
{ACAD_REACTORS
330
C
102
}
330
C
100
AcDbDictionary
281
     1
  3
Normal
350
F
100
AcDbDictionaryWithDefault
340
F
  0
DICTIONARY
  5
3DD
102
{ACAD_REACTORS
330
C
102
}
330
C
100
AcDbDictionary
281
     1
  3
A0
350
3DE
  3
A1
350
3DF
  3
A2
350
3E0
  3
A3
350
3E1
  3
A4
350
3E2
  3
A5
350
3E3
  3
A6
350
3E4
  3
A7
350
3E5
  3
A8
350
3E6
  3
A9
350
3E7
  3
B0
350
3E8
  3
B1
350
3E9
  3
B2
350
3EA
  3
B3
350
3EB
  3
B4
350
3EC
  3
B5
350
3ED
  3
B6
350
3EE
  0
DICTIONARY
  5
11A
102
{ACAD_REACTORS
330
C
102
}
330
C
100
AcDbDictionary
281
     1
  3
Standard
350
11B
  0
DICTIONARY
  5
3CC
102
{ACAD_REACTORS
330
C
102
}
330
C
100
AcDbDictionary
281
     1
  3
2dWireframe
350
3D2
  3
3D Hidden
350
3D4
  3
3dWireframe
350
3D3
  3
Basic
350
3D1
  3
Brighten
350
3D8
  3
ColorChange
350
3DC
  3
Conceptual
350
3D5
  3
Dim
350
3D7
  3
Facepattern
350
3DB
  3
Flat
350
3CD
  3
FlatWithEdges
350
3CE
  3
Gouraud
350
3CF
  3
GouraudWithEdges
350
3D0
  3
Linepattern
350
3DA
  3
Realistic
350
3D6
  3
Thicken
350
3D9
  0
XRECORD
  5
ACC
102
{ACAD_REACTORS
330
C
102
}
330
C
100
AcDbXrecord
280
     1
 90
        1
330
11B
  0
DICTIONARY
  5
94
102
{ACAD_REACTORS
330
C
102
}
330
C
100
AcDbDictionary
281
     1
  3
CANNOSCALE
350
AC8
  3
CMLEADERSTYLE
350
AC7
  3
CTABLESTYLE
350
138
  3
DIMASSOC
350
96
  3
INDEXCTL
350
95
  3
SORTENTS
350
AC9
  0
DICTIONARY
  5
5B
102
{ACAD_REACTORS
330
C
102
}
330
C
100
AcDbDictionary
281
     1
  3
AcmBOM
350
272
  3
AcmStdDictionary
350
61
  3
AMDTSECTSYM_ARROWCOLOR
350
123
  0
DICTIONARY
  5
E73
102
{ACAD_REACTORS
330
C
102
}
330
C
100
AcDbDictionary
281
     1
  0
DICTIONARY
  5
41
102
{ACAD_REACTORS
330
C
102
}
330
C
100
AcDbDictionary
281
     1
  0
DICTIONARY
  5
26B
102
{ACAD_REACTORS
330
C
102
}
330
C
100
AcDbDictionary
281
     1
  0
DICTIONARY
  5
8B6
102
{ACAD_REACTORS
330
8B5
102
}
330
8B5
100
AcDbDictionary
281
     1
  0
XRECORD
  5
AA1
102
{ACAD_REACTORS
330
AA0
102
}
330
AA0
100
AcDbXrecord
280
     1
290
     1
  0
XRECORD
  5
AA3
102
{ACAD_REACTORS
330
AA2
102
}
330
AA2
100
AcDbXrecord
280
     1
290
     1
  0
XRECORD
  5
AA5
102
{ACAD_REACTORS
330
AA4
102
}
330
AA4
100
AcDbXrecord
280
     1
290
     1
  0
XRECORD
  5
AA6
102
{ACAD_REACTORS
330
81E
102
}
330
81E
100
AcDbXrecord
280
     1
290
     1
  0
XRECORD
  5
AA8
102
{ACAD_REACTORS
330
AA7
102
}
330
AA7
100
AcDbXrecord
280
     1
290
     1
  0
XRECORD
  5
AA9
102
{ACAD_REACTORS
330
895
102
}
330
895
100
AcDbXrecord
280
     1
290
     1
  0
XRECORD
  5
AAA
102
{ACAD_REACTORS
330
897
102
}
330
897
100
AcDbXrecord
280
     1
290
     1
  0
XRECORD
  5
AAB
102
{ACAD_REACTORS
330
899
102
}
330
899
100
AcDbXrecord
280
     1
290
     1
  0
XRECORD
  5
AAC
102
{ACAD_REACTORS
330
89B
102
}
330
89B
100
AcDbXrecord
280
     1
290
     1
  0
XRECORD
  5
AAD
102
{ACAD_REACTORS
330
89D
102
}
330
89D
100
AcDbXrecord
280
     1
290
     1
  0
XRECORD
  5
AAE
102
{ACAD_REACTORS
330
89F
102
}
330
89F
100
AcDbXrecord
280
     1
290
     1
  0
XRECORD
  5
AAF
102
{ACAD_REACTORS
330
8A3
102
}
330
8A3
100
AcDbXrecord
280
     1
290
     1
  0
XRECORD
  5
AB1
102
{ACAD_REACTORS
330
AB0
102
}
330
AB0
100
AcDbXrecord
280
     1
290
     1
  0
XRECORD
  5
AB3
102
{ACAD_REACTORS
330
AB2
102
}
330
AB2
100
AcDbXrecord
280
     1
290
     1
  0
XRECORD
  5
AB5
102
{ACAD_REACTORS
330
AB4
102
}
330
AB4
100
AcDbXrecord
280
     1
290
     1
  0
XRECORD
  5
BD3
102
{ACAD_REACTORS
330
BD2
102
}
330
BD2
100
AcDbXrecord
280
     1
290
     1
  0
SORTENTSTABLE
  5
807
102
{ACAD_REACTORS
330
8F
102
}
330
8F
100
AcDbSortentsTable
330
1F
331
7D7
  5
7D9
331
7DF
  5
7E1
331
80E
  5
992
331
A54
  5
AC1
331
7E7
  5
7E9
331
6C8
  5
6C8
331
613
  5
613
331
652
  5
652
331
689
  5
689
331
73E
  5
73E
331
765
  5
765
331
6D0
  5
6D0
331
707
  5
707
331
7A4
  5
7A4
331
61B
  5
61B
331
65A
  5
65A
331
691
  5
691
331
76D
  5
76D
331
699
  5
699
331
6D8
  5
6D8
331
623
  5
623
331
662
  5
662
331
70F
  5
70F
331
7AC
  5
7AC
331
7B4
  5
7B4
331
717
  5
717
331
746
  5
746
331
66A
  5
66A
331
6A1
  5
6A1
331
62B
  5
62B
331
6E0
  5
6E0
331
775
  5
775
331
77D
  5
77D
331
7BC
  5
7BC
331
71F
  5
71F
331
74E
  5
74E
331
7EF
  5
7FF
331
A75
  5
AC2
331
7FF
  5
802
331
6E8
  5
6E8
331
672
  5
672
331
6A9
  5
6A9
331
633
  5
633
331
785
  5
785
331
7C4
  5
7C6
331
6F0
  5
6F0
331
727
  5
727
331
63B
  5
63B
331
67A
  5
67A
331
6B1
  5
6B1
331
756
  5
756
331
75E
  5
75E
331
78D
  5
78D
331
6B9
  5
6B9
331
6F8
  5
6F8
331
643
  5
643
331
682
  5
682
331
72F
  5
72F
331
7CC
  5
7CE
331
6C1
  5
6C1
331
64B
  5
64B
331
795
  5
795
331
79D
  5
79D
331
737
  5
737
331
60C
  5
60C
331
7D0
  5
7D2
331
7D8
  5
7DA
331
80F
  5
9BE
331
7E0
  5
7E2
331
68A
  5
68A
331
6C9
  5
6C9
331
614
  5
614
331
653
  5
653
331
700
  5
700
331
7A5
  5
7A5
331
708
  5
708
331
73F
  5
73F
331
65B
  5
65B
331
692
  5
692
331
61C
  5
61C
331
6D1
  5
6D1
331
766
  5
766
331
76E
  5
76E
331
6D9
  5
6D9
331
710
  5
710
331
7AD
  5
7AD
331
624
  5
624
331
663
  5
663
331
69A
  5
69A
331
747
  5
747
331
776
  5
776
331
6E1
  5
6E1
331
718
  5
718
331
7B5
  5
7B5
331
62C
  5
62C
331
66B
  5
66B
331
6A2
  5
6A2
331
74F
  5
74F
331
77E
  5
77E
331
7BD
  5
7BE
331
810
  5
811
331
7E8
  5
7EA
331
6AA
  5
6AA
331
6E9
  5
6E9
331
634
  5
634
331
673
  5
673
331
720
  5
720
331
7C5
  5
7C7
331
728
  5
728
331
757
  5
757
331
67B
  5
67B
331
6B2
  5
6B2
331
63C
  5
63C
331
6F1
  5
6F1
331
786
  5
786
331
78E
  5
78E
331
6F9
  5
6F9
331
683
  5
683
331
6BA
  5
6BA
331
75F
  5
75F
331
644
  5
644
331
796
  5
796
331
730
  5
730
331
7CD
  5
7CF
331
64C
  5
64C
331
6C2
  5
6C2
331
79E
  5
79E
331
60D
  5
60D
331
9BE
  5
A09
331
7D1
  5
7D3
331
7D9
  5
7DB
331
808
  5
804
331
7E1
  5
7E3
331
6CA
  5
6CA
331
701
  5
701
331
615
  5
615
331
654
  5
654
331
68B
  5
68B
331
738
  5
738
331
767
  5
767
331
693
  5
693
331
6D2
  5
6D2
331
61D
  5
61D
331
65C
  5
65C
331
709
  5
709
331
7A6
  5
7A6
331
7AE
  5
7AE
331
740
  5
740
331
76F
  5
76F
331
69B
  5
69B
331
6DA
  5
6DA
331
625
  5
625
331
664
  5
664
331
711
  5
711
331
7B6
  5
7B6
331
719
  5
719
331
748
  5
748
331
66C
  5
66C
331
6A3
  5
6A3
331
62D
  5
62D
331
6E2
  5
6E2
331
777
  5
777
331
77F
  5
77F
331
7BE
  5
7C0
331
811
  5
80F
331
7E9
  5
7EB
331
6EA
  5
6EA
331
721
  5
721
331
635
  5
635
331
674
  5
674
331
6AB
  5
6AB
331
750
  5
750
331
758
  5
758
331
787
  5
787
331
6F2
  5
6F2
331
729
  5
729
331
7C6
  5
7C8
331
63D
  5
63D
331
67C
  5
67C
331
6B3
  5
6B3
331
6BB
  5
6BB
331
6FA
  5
6FA
331
78F
  5
78F
331
645
  5
645
331
684
  5
684
331
7CE
  5
7D0
331
731
  5
731
331
6C3
  5
6C3
331
64D
  5
64D
331
797
  5
797
331
79F
  5
79F
331
60E
  5
60E
331
7D2
  5
7D4
331
801
  5
805
331
AC1
  5
7BD
331
7DA
  5
7DC
331
7E2
  5
7E4
331
702
  5
702
331
739
  5
739
331
68C
  5
68C
331
6CB
  5
6CB
331
760
  5
760
331
616
  5
616
331
655
  5
655
331
7A7
  5
7A7
331
70A
  5
70A
331
65D
  5
65D
331
694
  5
694
331
61E
  5
61E
331
6D3
  5
6D3
331
768
  5
768
331
770
  5
770
331
7AF
  5
7AF
331
6DB
  5
6DB
331
712
  5
712
331
626
  5
626
331
665
  5
665
331
69C
  5
69C
331
741
  5
741
331
749
  5
749
331
778
  5
778
331
6A4
  5
6A4
331
6E3
  5
6E3
331
62E
  5
62E
331
66D
  5
66D
331
71A
  5
71A
331
7B7
  5
7B7
331
7BF
  5
7C1
331
7EA
  5
7EC
331
751
  5
751
331
780
  5
780
331
6AC
  5
6AC
331
6EB
  5
6EB
331
636
  5
636
331
675
  5
675
331
722
  5
722
331
7C7
  5
7C9
331
72A
  5
72A
331
759
  5
759
331
67D
  5
67D
331
6B4
  5
6B4
331
63E
  5
63E
331
6F3
  5
6F3
331
788
  5
788
331
6FB
  5
6FB
331
790
  5
790
331
646
  5
646
331
685
  5
685
331
6BC
  5
6BC
331
798
  5
798
331
732
  5
732
331
7CF
  5
7D1
331
64E
  5
64E
331
6C4
  5
6C4
331
60F
  5
60F
331
9E8
  5
A33
331
992
  5
9E8
331
7D3
  5
7D5
331
7DB
  5
7DD
331
AC2
  5
7BF
331
7E3
  5
7E5
331
761
  5
761
331
7A0
  5
7A0
331
6CC
  5
6CC
331
703
  5
703
331
617
  5
617
331
656
  5
656
331
68D
  5
68D
331
73A
  5
73A
331
769
  5
769
331
695
  5
695
331
6D4
  5
6D4
331
61F
  5
61F
331
65E
  5
65E
331
70B
  5
70B
331
7A8
  5
7A8
331
7B0
  5
7B0
331
713
  5
713
331
742
  5
742
331
69D
  5
69D
331
6DC
  5
6DC
331
771
  5
771
331
627
  5
627
331
666
  5
666
331
7B8
  5
7B8
331
71B
  5
71B
331
74A
  5
74A
331
66E
  5
66E
331
6A5
  5
6A5
331
62F
  5
62F
331
6E4
  5
6E4
331
779
  5
779
331
7EB
  5
7ED
331
781
  5
781
331
7C0
  5
7C2
331
6EC
  5
6EC
331
723
  5
723
331
637
  5
637
331
676
  5
676
331
6AD
  5
6AD
331
752
  5
752
331
75A
  5
75A
331
789
  5
789
331
6B5
  5
6B5
331
6F4
  5
6F4
331
63F
  5
63F
331
67E
  5
67E
331
72B
  5
72B
331
7C8
  5
7CA
331
6BD
  5
6BD
331
6FC
  5
6FC
331
791
  5
791
331
647
  5
647
331
686
  5
686
331
733
  5
733
331
6C5
  5
6C5
331
64F
  5
64F
331
799
  5
799
331
7D4
  5
7D6
331
A09
  5
A54
331
80B
  5
80E
331
7DC
  5
7DE
331
7E4
  5
7E6
331
610
  5
610
331
7A1
  5
7A1
331
704
  5
704
331
73B
  5
73B
331
657
  5
657
331
68E
  5
68E
331
618
  5
618
331
6CD
  5
6CD
331
762
  5
762
331
76A
  5
76A
331
70C
  5
70C
331
7A9
  5
7A9
331
65F
  5
65F
331
696
  5
696
331
620
  5
620
331
6D5
  5
6D5
331
772
  5
772
331
7B1
  5
7B1
331
6DD
  5
6DD
331
714
  5
714
331
628
  5
628
331
667
  5
667
331
69E
  5
69E
331
743
  5
743
331
74B
  5
74B
331
77A
  5
77A
331
6A6
  5
6A6
331
6E5
  5
6E5
331
66F
  5
66F
331
71C
  5
71C
331
7B9
  5
7B9
331
7EC
  5
7EE
331
630
  5
630
331
7C1
  5
7C3
331
724
  5
724
331
753
  5
753
331
6AE
  5
6AE
331
6ED
  5
6ED
331
782
  5
782
331
638
  5
638
331
677
  5
677
331
72C
  5
72C
331
75B
  5
75B
331
67F
  5
67F
331
6B6
  5
6B6
331
640
  5
640
331
6F5
  5
6F5
331
78A
  5
78A
331
6FD
  5
6FD
331
792
  5
792
331
7C9
  5
7CB
331
648
  5
648
331
687
  5
687
331
6BE
  5
6BE
331
79A
  5
79A
331
6C6
  5
6C6
331
734
  5
734
331
7F0
  5
801
331
609
  5
609
331
804
  5
80B
331
7D5
  5
7D7
331
7DD
  5
7DF
331
7E5
  5
7E7
331
650
  5
650
331
611
  5
611
331
763
  5
763
331
7A2
  5
7A2
331
6CE
  5
6CE
331
705
  5
705
331
619
  5
619
331
658
  5
658
331
68F
  5
68F
331
73C
  5
73C
331
76B
  5
76B
331
697
  5
697
331
6D6
  5
6D6
331
621
  5
621
331
660
  5
660
331
70D
  5
70D
331
7AA
  5
7AA
331
7B2
  5
7B2
331
715
  5
715
331
744
  5
744
331
668
  5
668
331
69F
  5
69F
331
629
  5
629
331
6DE
  5
6DE
331
773
  5
773
331
77B
  5
77B
331
7BA
  5
7BA
331
71D
  5
71D
331
74C
  5
74C
331
6A7
  5
6A7
331
6E6
  5
6E6
331
7ED
  5
7EF
331
670
  5
670
331
631
  5
631
331
783
  5
783
331
7C2
  5
7C4
331
6EE
  5
6EE
331
725
  5
725
331
639
  5
639
331
678
  5
678
331
6AF
  5
6AF
331
754
  5
754
331
75C
  5
75C
331
78B
  5
78B
331
6B7
  5
6B7
331
6F6
  5
6F6
331
641
  5
641
331
680
  5
680
331
72D
  5
72D
331
7CA
  5
7CC
331
6BF
  5
6BF
331
649
  5
649
331
6FE
  5
6FE
331
793
  5
793
331
735
  5
735
331
6C7
  5
6C7
331
79B
  5
79B
331
60A
  5
60A
331
7D6
  5
7D8
331
805
  5
80D
331
80D
  5
810
331
7DE
  5
7E0
331
7E6
  5
7E8
331
688
  5
688
331
612
  5
612
331
651
  5
651
331
7A3
  5
7A3
331
706
  5
706
331
73D
  5
73D
331
659
  5
659
331
690
  5
690
331
61A
  5
61A
331
6CF
  5
6CF
331
764
  5
764
331
76C
  5
76C
331
6D7
  5
6D7
331
70E
  5
70E
331
7AB
  5
7AB
331
661
  5
661
331
698
  5
698
331
622
  5
622
331
774
  5
774
331
7B3
  5
7B3
331
6DF
  5
6DF
331
716
  5
716
331
62A
  5
62A
331
669
  5
669
331
6A0
  5
6A0
331
745
  5
745
331
74D
  5
74D
331
77C
  5
77C
331
6E7
  5
6E7
331
71E
  5
71E
331
7BB
  5
7BB
331
A33
  5
A75
331
7EE
  5
7F0
331
6A8
  5
6A8
331
632
  5
632
331
671
  5
671
331
7C3
  5
7C5
331
726
  5
726
331
755
  5
755
331
679
  5
679
331
6B0
  5
6B0
331
63A
  5
63A
331
6EF
  5
6EF
331
784
  5
784
331
78C
  5
78C
331
72E
  5
72E
331
75D
  5
75D
331
681
  5
681
331
6B8
  5
6B8
331
642
  5
642
331
6F7
  5
6F7
331
6FF
  5
6FF
331
794
  5
794
331
7CB
  5
7CD
331
64A
  5
64A
331
6C0
  5
6C0
331
79C
  5
79C
331
736
  5
736
331
60B
  5
60B
  0
SORTENTSTABLE
  5
93F
102
{ACAD_REACTORS
330
93E
102
}
330
93E
100
AcDbSortentsTable
330
8B7
  0
XRECORD
  5
F38
102
{ACAD_REACTORS
330
F37
102
}
330
F37
100
AcDbXrecord
280
     1
 40
30543.0
  1
\fArial|b0|i0|c0|p32;©
  0
DIMASSOC
  5
9A1
102
{ACAD_REACTORS
330
9A0
102
}
330
9A0
100
AcDbDimAssoc
330
992
 90
        3
 70
     0
 71
     0
  1
AcDbOsnapPointRef
 72
     1
331
72A
 73
     0
 91
        0
 40
0.0
 10
0.0
 20
0.0
 30
2.000000000000000E+50
 75
     0
  1
AcDbOsnapPointRef
 72
    13
331
753
 73
     0
 91
        0
 40
0.0
 10
0.0
 20
0.0
 30
2.000000000000000E+50
 75
     0
  0
DIMASSOC
  5
9CC
102
{ACAD_REACTORS
330
9CB
102
}
330
9CB
100
AcDbDimAssoc
330
9BE
 90
        3
 70
     0
 71
     0
  1
AcDbOsnapPointRef
 72
    13
331
740
 73
     0
 91
        0
 40
0.0
 10
0.0
 20
0.0
 30
2.000000000000000E+50
 75
     0
  1
AcDbOsnapPointRef
 72
     1
331
753
 73
     0
 91
        0
 40
0.0
 10
0.0
 20
0.0
 30
2.000000000000000E+50
 75
     0
  0
DIMASSOC
  5
9F6
102
{ACAD_REACTORS
330
9F5
102
}
330
9F5
100
AcDbDimAssoc
330
9E8
 90
        3
 70
     0
 71
     0
  1
AcDbOsnapPointRef
 72
     1
331
7ED
 73
     0
 91
        0
 40
0.0
 10
0.0
 20
0.0
 30
2.000000000000000E+50
 75
     0
  1
AcDbOsnapPointRef
 72
    13
331
7E7
 73
     0
 91
        0
 40
0.0
 10
0.0
 20
0.0
 30
2.000000000000000E+50
 75
     0
  0
DIMASSOC
  5
A17
102
{ACAD_REACTORS
330
A16
102
}
330
A16
100
AcDbDimAssoc
330
A09
 90
        3
 70
     0
 71
     0
  1
AcDbOsnapPointRef
 72
    13
331
7DE
 73
     0
 91
        0
 40
0.0
 10
0.0
 20
0.0
 30
2.000000000000000E+50
 75
     0
  1
AcDbOsnapPointRef
 72
     1
331
7E7
 73
     0
 91
        0
 40
0.0
 10
0.0
 20
0.0
 30
2.000000000000000E+50
 75
     0
  0
DIMASSOC
  5
A41
102
{ACAD_REACTORS
330
A40
102
}
330
A40
100
AcDbDimAssoc
330
A33
 90
        3
 70
     0
 71
     0
  1
AcDbOsnapPointRef
 72
    13
331
7F0
 73
     0
 91
        0
 40
0.0
 10
0.0
 20
0.0
 30
2.000000000000000E+50
 75
     0
  1
AcDbOsnapPointRef
 72
     1
331
7C2
 73
     0
 91
        0
 40
0.0
 10
0.0
 20
0.0
 30
2.000000000000000E+50
 75
     0
  0
DIMASSOC
  5
A62
102
{ACAD_REACTORS
330
A61
102
}
330
A61
100
AcDbDimAssoc
330
A54
 90
        1
 70
     0
 71
     0
  1
AcDbOsnapPointRef
 72
    13
331
7F0
 73
     0
 91
        0
 40
0.0
 10
0.0
 20
0.0
 30
2.000000000000000E+50
 75
     0
  0
DIMASSOC
  5
A83
102
{ACAD_REACTORS
330
A82
102
}
330
A82
100
AcDbDimAssoc
330
A75
 90
        3
 70
     0
 71
     0
  1
AcDbOsnapPointRef
 72
     1
331
75F
 73
     0
 91
        0
 40
0.0
 10
0.0
 20
0.0
 30
2.000000000000000E+50
 75
     0
  1
AcDbOsnapPointRef
 72
    13
331
765
 73
     0
 91
        0
 40
0.0
 10
0.0
 20
0.0
 30
2.000000000000000E+50
 75
     0
  0
XRECORD
  5
F31
102
{ACAD_REACTORS
330
F30
102
}
330
F30
100
AcDbXrecord
280
     1
 70
     1
  0
XRECORD
  5
F32
102
{ACAD_REACTORS
330
F30
102
}
330
F30
100
AcDbXrecord
280
     1
 40
1.570796326794896
  0
XRECORD
  5
F34
102
{ACAD_REACTORS
330
F30
102
}
330
F30
100
AcDbXrecord
280
     1
340
14
  0
XRECORD
  5
F35
102
{ACAD_REACTORS
330
F30
102
}
330
F30
100
AcDbXrecord
280
     1
340
14
  0
XRECORD
  5
F33
102
{ACAD_REACTORS
330
F30
102
}
330
F30
100
AcDbXrecord
280
     1
340
14
  0
IMAGEDEF
  5
943
102
{ACAD_REACTORS
330
942
102
}
330
942
100
AcDbRasterImageDef
 90
        0
  1
L:\calink52\templates\ACO-Logo.jpg
 10
75.0
 20
57.0
 11
0.3527777777777778
 21
0.3527777777777778
280
     1
281
     5
  0
IMAGEDEF
  5
944
102
{ACAD_REACTORS
330
942
102
}
330
942
100
AcDbRasterImageDef
 90
        0
  1
L:\bin\calink70\templates\ACO-Logo.jpg
 10
75.0
 20
57.0
 11
0.3527777777777778
 21
0.3527777777777778
280
     1
281
     5
  0
LAYOUT
  5
1E
102
{ACAD_REACTORS
330
1A
102
}
330
1A
100
AcDbPlotSettings
  1

  2

  4

  6

 40
0.0
 41
0.0
 42
0.0
 43
0.0
 44
0.0
 45
0.0
 46
0.0
 47
0.0
 48
0.0
 49
0.0
140
0.0
141
0.0
142
1.0
143
1.0
 70
   688
 72
     0
 73
     0
 74
     5
  7

 75
    16
147
1.0
 76
     0
 77
     2
 78
   300
148
0.0
149
0.0
100
AcDbLayout
  1
Layout1
 70
     1
 71
     1
 10
0.0
 20
0.0
 11
420.0
 21
297.0
 12
0.0
 22
0.0
 32
0.0
 14
1.000000000000000E+20
 24
1.000000000000000E+20
 34
1.000000000000000E+20
 15
-1.000000000000000E+20
 25
-1.000000000000000E+20
 35
-1.000000000000000E+20
146
0.0
 13
0.0
 23
0.0
 33
0.0
 16
1.0
 26
0.0
 36
0.0
 17
0.0
 27
1.0
 37
0.0
 76
     0
330
1B
  0
LAYOUT
  5
26
102
{ACAD_REACTORS
330
1A
102
}
330
1A
100
AcDbPlotSettings
  1

  2

  4

  6

 40
0.0
 41
0.0
 42
0.0
 43
0.0
 44
0.0
 45
0.0
 46
0.0
 47
0.0
 48
0.0
 49
0.0
140
0.0
141
0.0
142
1.0
143
1.0
 70
   688
 72
     0
 73
     0
 74
     5
  7

 75
    16
147
1.0
 76
     0
 77
     2
 78
   300
148
0.0
149
0.0
100
AcDbLayout
  1
Layout2
 70
     1
 71
     2
 10
0.0
 20
0.0
 11
12.0
 21
9.0
 12
0.0
 22
0.0
 32
0.0
 14
0.0
 24
0.0
 34
0.0
 15
0.0
 25
0.0
 35
0.0
146
0.0
 13
0.0
 23
0.0
 33
0.0
 16
1.0
 26
0.0
 36
0.0
 17
0.0
 27
1.0
 37
0.0
 76
     0
330
23
  0
LAYOUT
  5
22
102
{ACAD_REACTORS
330
1A
102
}
330
1A
100
AcDbPlotSettings
  1

  2

  4

  6

 40
0.0
 41
0.0
 42
0.0
 43
0.0
 44
0.0
 45
0.0
 46
0.0
 47
0.0
 48
0.0
 49
0.0
140
0.0
141
0.0
142
1.0
143
1.0
 70
  1712
 72
     0
 73
     0
 74
     0
  7

 75
     0
147
1.0
 76
     0
 77
     2
 78
   300
148
0.0
149
0.0
100
AcDbLayout
  1
Model
 70
     1
 71
     0
 10
0.0
 20
0.0
 11
12.0
 21
9.0
 12
0.0
 22
0.0
 32
0.0
 14
0.0
 24
0.0
 34
0.0
 15
0.0
 25
0.0
 35
0.0
146
0.0
 13
0.0
 23
0.0
 33
0.0
 16
1.0
 26
0.0
 36
0.0
 17
0.0
 27
1.0
 37
0.0
 76
     0
330
1F
331
3B2
  0
MATERIAL
  5
3BC
102
{ACAD_XDICTIONARY
360
3BD
102
}
102
{ACAD_REACTORS
330
BD
102
}
330
BD
100
AcDbMaterial
  1
ByBlock
 72
     0
 43
0.0008202099737533
 43
0.0
 43
0.0
 43
0.0
 43
0.0
 43
0.0008202099737533
 43
0.0
 43
0.0
 43
0.0
 43
0.0
 43
1.0
 43
0.0
 43
0.0
 43
0.0
 43
0.0
 43
1.0
 77
     0
 47
0.0008202099737533
 47
0.0
 47
0.0
 47
0.0
 47
0.0
 47
0.0008202099737533
 47
0.0
 47
0.0
 47
0.0
 47
0.0
 47
1.0
 47
0.0
 47
0.0
 47
0.0
 47
0.0
 47
1.0
171
     0
 49
0.0008202099737533
 49
0.0
 49
0.0
 49
0.0
 49
0.0
 49
0.0008202099737533
 49
0.0
 49
0.0
 49
0.0
 49
0.0
 49
1.0
 49
0.0
 49
0.0
 49
0.0
 49
0.0
 49
1.0
175
     0
142
0.0008202099737533
142
0.0
142
0.0
142
0.0
142
0.0
142
0.0008202099737533
142
0.0
142
0.0
142
0.0
142
0.0
142
1.0
142
0.0
142
0.0
142
0.0
142
0.0
142
1.0
179
     0
144
0.0008202099737533
144
0.0
144
0.0
144
0.0
144
0.0
144
0.0008202099737533
144
0.0
144
0.0
144
0.0
144
0.0
144
1.0
144
0.0
144
0.0
144
0.0
144
0.0
144
1.0
147
0.0008202099737533
147
0.0
147
0.0
147
0.0
147
0.0
147
0.0008202099737533
147
0.0
147
0.0
147
0.0
147
0.0
147
1.0
147
0.0
147
0.0
147
0.0
147
0.0
147
1.0
  0
MATERIAL
  5
3B4
102
{ACAD_XDICTIONARY
360
3B5
102
}
102
{ACAD_REACTORS
330
BD
102
}
330
BD
100
AcDbMaterial
  1
ByLayer
 72
     0
 43
0.0008202099737533
 43
0.0
 43
0.0
 43
0.0
 43
0.0
 43
0.0008202099737533
 43
0.0
 43
0.0
 43
0.0
 43
0.0
 43
1.0
 43
0.0
 43
0.0
 43
0.0
 43
0.0
 43
1.0
 77
     0
 47
0.0008202099737533
 47
0.0
 47
0.0
 47
0.0
 47
0.0
 47
0.0008202099737533
 47
0.0
 47
0.0
 47
0.0
 47
0.0
 47
1.0
 47
0.0
 47
0.0
 47
0.0
 47
0.0
 47
1.0
171
     0
 49
0.0008202099737533
 49
0.0
 49
0.0
 49
0.0
 49
0.0
 49
0.0008202099737533
 49
0.0
 49
0.0
 49
0.0
 49
0.0
 49
1.0
 49
0.0
 49
0.0
 49
0.0
 49
0.0
 49
1.0
175
     0
142
0.0008202099737533
142
0.0
142
0.0
142
0.0
142
0.0
142
0.0008202099737533
142
0.0
142
0.0
142
0.0
142
0.0
142
1.0
142
0.0
142
0.0
142
0.0
142
0.0
142
1.0
179
     0
144
0.0008202099737533
144
0.0
144
0.0
144
0.0
144
0.0
144
0.0008202099737533
144
0.0
144
0.0
144
0.0
144
0.0
144
1.0
144
0.0
144
0.0
144
0.0
144
0.0
144
1.0
147
0.0008202099737533
147
0.0
147
0.0
147
0.0
147
0.0
147
0.0008202099737533
147
0.0
147
0.0
147
0.0
147
0.0
147
1.0
147
0.0
147
0.0
147
0.0
147
0.0
147
1.0
  0
MATERIAL
  5
3C4
102
{ACAD_XDICTIONARY
360
3C5
102
}
102
{ACAD_REACTORS
330
BD
102
}
330
BD
100
AcDbMaterial
  1
Global
 72
     0
 43
0.0008202099737533
 43
0.0
 43
0.0
 43
0.0
 43
0.0
 43
0.0008202099737533
 43
0.0
 43
0.0
 43
0.0
 43
0.0
 43
1.0
 43
0.0
 43
0.0
 43
0.0
 43
0.0
 43
1.0
 77
     0
 47
0.0008202099737533
 47
0.0
 47
0.0
 47
0.0
 47
0.0
 47
0.0008202099737533
 47
0.0
 47
0.0
 47
0.0
 47
0.0
 47
1.0
 47
0.0
 47
0.0
 47
0.0
 47
0.0
 47
1.0
171
     0
 49
0.0008202099737533
 49
0.0
 49
0.0
 49
0.0
 49
0.0
 49
0.0008202099737533
 49
0.0
 49
0.0
 49
0.0
 49
0.0
 49
1.0
 49
0.0
 49
0.0
 49
0.0
 49
0.0
 49
1.0
175
     0
142
0.0008202099737533
142
0.0
142
0.0
142
0.0
142
0.0
142
0.0008202099737533
142
0.0
142
0.0
142
0.0
142
0.0
142
1.0
142
0.0
142
0.0
142
0.0
142
0.0
142
1.0
179
     0
144
0.0008202099737533
144
0.0
144
0.0
144
0.0
144
0.0
144
0.0008202099737533
144
0.0
144
0.0
144
0.0
144
0.0
144
1.0
144
0.0
144
0.0
144
0.0
144
0.0
144
1.0
147
0.0008202099737533
147
0.0
147
0.0
147
0.0
147
0.0
147
0.0008202099737533
147
0.0
147
0.0
147
0.0
147
0.0
147
1.0
147
0.0
147
0.0
147
0.0
147
0.0
147
1.0
  0
MLEADERSTYLE
  5
3F0
102
{ACAD_REACTORS
330
3EF
102
}
330
3EF
100
AcDbMLeaderStyle
170
     2
171
     1
172
     0
 90
        2
 40
0.0
 41
0.0
173
     1
 91
-1056964608
340
14
 92
       -2
290
     1
 42
2.0
291
     1
 43
0.36
  3
Standard
 44
4.0
300

342
11
174
     1
178
     6
175
     1
176
     0
 93
-1056964608
 45
4.0
292
     0
297
     0
 46
4.0
 94
-1056964608
 47
1.0
 49
1.0
140
1.0
293
     1
141
0.0
294
     1
177
     0
142
1.0
295
     0
296
     0
143
0.125
1001
ACAD_MLEADERVER
1070
     2
  0
MLINESTYLE
  5
18
102
{ACAD_REACTORS
330
17
102
}
330
17
100
AcDbMlineStyle
  2
STANDARD
 70
     0
  3

 62
   256
 51
90.0
 52
90.0
 71
     2
 49
0.5
 62
   256
  6
BYLAYER
 49
-0.5
 62
   256
  6
BYLAYER
  0
ACDBPLACEHOLDER
  5
F
102
{ACAD_REACTORS
330
E
102
}
330
E
  0
SCALE
  5
3DE
102
{ACAD_REACTORS
330
3DD
102
}
330
3DD
100
AcDbScale
 70
     0
300
1:1
140
1.0
141
1.0
290
     1
  0
SCALE
  5
3DF
102
{ACAD_REACTORS
330
3DD
102
}
330
3DD
100
AcDbScale
 70
     0
300
1:2
140
1.0
141
2.0
290
     0
  0
SCALE
  5
3E0
102
{ACAD_REACTORS
330
3DD
102
}
330
3DD
100
AcDbScale
 70
     0
300
1:4
140
1.0
141
4.0
290
     0
  0
SCALE
  5
3E1
102
{ACAD_REACTORS
330
3DD
102
}
330
3DD
100
AcDbScale
 70
     0
300
1:5
140
1.0
141
5.0
290
     0
  0
SCALE
  5
3E2
102
{ACAD_REACTORS
330
3DD
102
}
330
3DD
100
AcDbScale
 70
     0
300
1:8
140
1.0
141
8.0
290
     0
  0
SCALE
  5
3E3
102
{ACAD_REACTORS
330
3DD
102
}
330
3DD
100
AcDbScale
 70
     0
300
1:10
140
1.0
141
10.0
290
     0
  0
SCALE
  5
3E4
102
{ACAD_REACTORS
330
3DD
102
}
330
3DD
100
AcDbScale
 70
     0
300
1:16
140
1.0
141
16.0
290
     0
  0
SCALE
  5
3E5
102
{ACAD_REACTORS
330
3DD
102
}
330
3DD
100
AcDbScale
 70
     0
300
1:20
140
1.0
141
20.0
290
     0
  0
SCALE
  5
3E6
102
{ACAD_REACTORS
330
3DD
102
}
330
3DD
100
AcDbScale
 70
     0
300
1:30
140
1.0
141
30.0
290
     0
  0
SCALE
  5
3E7
102
{ACAD_REACTORS
330
3DD
102
}
330
3DD
100
AcDbScale
 70
     0
300
1:40
140
1.0
141
40.0
290
     0
  0
SCALE
  5
3E8
102
{ACAD_REACTORS
330
3DD
102
}
330
3DD
100
AcDbScale
 70
     0
300
1:50
140
1.0
141
50.0
290
     0
  0
SCALE
  5
3E9
102
{ACAD_REACTORS
330
3DD
102
}
330
3DD
100
AcDbScale
 70
     0
300
1:100
140
1.0
141
100.0
290
     0
  0
SCALE
  5
3EA
102
{ACAD_REACTORS
330
3DD
102
}
330
3DD
100
AcDbScale
 70
     0
300
2:1
140
2.0
141
1.0
290
     0
  0
SCALE
  5
3EB
102
{ACAD_REACTORS
330
3DD
102
}
330
3DD
100
AcDbScale
 70
     0
300
4:1
140
4.0
141
1.0
290
     0
  0
SCALE
  5
3EC
102
{ACAD_REACTORS
330
3DD
102
}
330
3DD
100
AcDbScale
 70
     0
300
8:1
140
8.0
141
1.0
290
     0
  0
SCALE
  5
3ED
102
{ACAD_REACTORS
330
3DD
102
}
330
3DD
100
AcDbScale
 70
     0
300
10:1
140
10.0
141
1.0
290
     0
  0
SCALE
  5
3EE
102
{ACAD_REACTORS
330
3DD
102
}
330
3DD
100
AcDbScale
 70
     0
300
100:1
140
100.0
141
1.0
290
     0
  0
TABLESTYLE
  5
11B
102
{ACAD_XDICTIONARY
360
ACA
102
}
102
{ACAD_REACTORS
330
11A
102
}
330
11A
100
AcDbTableStyle
  3
Standard
 70
     0
 71
     0
 40
1.5
 41
1.5
280
     0
281
     0
  7
STANDARD
140
4.5
170
     2
 62
     0
 63
     7
283
     0
274
    -2
284
     1
 64
     0
275
    -2
285
     1
 65
     0
276
    -2
286
     1
 66
     0
277
    -2
287
     1
 67
     0
278
    -2
288
     1
 68
     0
279
    -2
289
     1
 69
     0
  7
STANDARD
140
6.0
170
     5
 62
     0
 63
     7
283
     0
274
    -2
284
     1
 64
     0
275
    -2
285
     1
 65
     0
276
    -2
286
     1
 66
     0
277
    -2
287
     1
 67
     0
278
    -2
288
     1
 68
     0
279
    -2
289
     1
 69
     0
  7
STANDARD
140
4.5
170
     5
 62
     0
 63
     7
283
     0
274
    -2
284
     1
 64
     0
275
    -2
285
     1
 65
     0
276
    -2
286
     1
 66
     0
277
    -2
287
     1
 67
     0
278
    -2
288
     1
 68
     0
279
    -2
289
     1
 69
     0
  0
VISUALSTYLE
  5
3D2
102
{ACAD_REACTORS
330
3CC
102
}
330
3CC
100
AcDbVisualStyle
  2
2dWireframe
 70
     4
 71
     0
 72
     2
 73
     0
 90
        0
 40
-0.6
 41
-30.0
 62
     5
 63
     7
 74
     1
 91
        4
 64
     7
 65
   257
 75
     1
175
     1
 42
1.0
 92
        0
 66
   257
 43
1.0
 76
     1
 77
     6
 78
     2
 67
     7
 79
     5
170
     0
171
     0
290
     0
174
     0
 93
        1
 44
0.0
173
     0
291
     0
 45
0.0
1001
ACAD
1000
AcDbSavedByObjectVersion
1070
     0
1000
AcDbSavedByObjectVersion
1070
     0
1000
AcDbSavedByObjectVersion
1070
     0
1000
AcDbSavedByObjectVersion
1070
     0
  0
VISUALSTYLE
  5
3D4
102
{ACAD_REACTORS
330
3CC
102
}
330
3CC
100
AcDbVisualStyle
  2
3D Hidden
 70
     6
 71
     1
 72
     2
 73
     2
 90
        0
 40
-0.6
 41
-30.0
 62
     5
 63
     7
 74
     2
 91
        2
 64
     7
 65
   257
 75
     2
175
     1
 42
40.0
 92
        0
 66
   257
 43
1.0
 76
     1
 77
     6
 78
     2
 67
     7
 79
     3
170
     0
171
     0
290
     0
174
     0
 93
        1
 44
0.0
173
     0
291
     0
 45
0.0
1001
ACAD
1000
AcDbSavedByObjectVersion
1070
     0
1000
AcDbSavedByObjectVersion
1070
     0
1000
AcDbSavedByObjectVersion
1070
     0
1000
AcDbSavedByObjectVersion
1070
     0
  0
VISUALSTYLE
  5
3D3
102
{ACAD_REACTORS
330
3CC
102
}
330
3CC
100
AcDbVisualStyle
  2
3dWireframe
 70
     5
 71
     0
 72
     2
 73
     0
 90
        0
 40
-0.6
 41
-30.0
 62
     5
 63
     7
 74
     1
 91
        4
 64
     7
 65
   257
 75
     1
175
     1
 42
1.0
 92
        0
 66
   257
 43
1.0
 76
     1
 77
     6
 78
     2
 67
     7
 79
     5
170
     0
171
     0
290
     0
174
     0
 93
        1
 44
0.0
173
     0
291
     0
 45
0.0
1001
ACAD
1000
AcDbSavedByObjectVersion
1070
     0
1000
AcDbSavedByObjectVersion
1070
     0
1000
AcDbSavedByObjectVersion
1070
     0
1000
AcDbSavedByObjectVersion
1070
     0
  0
VISUALSTYLE
  5
3D1
102
{ACAD_REACTORS
330
3CC
102
}
330
3CC
100
AcDbVisualStyle
  2
Basic
 70
     7
 71
     1
 72
     0
 73
     1
 90
        0
 40
-0.6
 41
-30.0
 62
     5
 63
     7
 74
     0
 91
        4
 64
     7
 65
   257
 75
     1
175
     1
 42
1.0
 92
        8
 66
     7
 43
1.0
 76
     1
 77
     6
 78
     2
 67
     7
 79
     5
170
     0
171
     0
290
     0
174
     0
 93
        1
 44
0.0
173
     0
291
     1
 45
0.0
1001
ACAD
1000
AcDbSavedByObjectVersion
1070
     0
1000
AcDbSavedByObjectVersion
1070
     0
1000
AcDbSavedByObjectVersion
1070
     0
1000
AcDbSavedByObjectVersion
1070
     0
  0
VISUALSTYLE
  5
3D8
102
{ACAD_REACTORS
330
3CC
102
}
330
3CC
100
AcDbVisualStyle
  2
Brighten
 70
    12
 71
     2
 72
     2
 73
     0
 90
        0
 40
-0.6
 41
-30.0
 62
     5
 63
     7
 74
     1
 91
        4
 64
     7
 65
   257
 75
     1
175
     1
 42
1.0
 92
        8
 66
     7
 43
1.0
 76
     1
 77
     6
 78
     2
 67
     7
 79
     5
170
     0
171
     0
290
     0
174
     0
 93
        1
 44
50.0
173
     0
291
     1
 45
0.0
1001
ACAD
1000
AcDbSavedByObjectVersion
1070
     0
1000
AcDbSavedByObjectVersion
1070
     0
1000
AcDbSavedByObjectVersion
1070
     0
1000
AcDbSavedByObjectVersion
1070
     0
  0
VISUALSTYLE
  5
3DC
102
{ACAD_REACTORS
330
3CC
102
}
330
3CC
100
AcDbVisualStyle
  2
ColorChange
 70
    16
 71
     2
 72
     2
 73
     3
 90
        0
 40
-0.6
 41
-30.0
 62
     5
 63
     8
 74
     1
 91
        4
 64
     7
 65
   257
 75
     1
175
     1
 42
1.0
 92
        8
 66
     8
 43
1.0
 76
     1
 77
     6
 78
     2
 67
     7
 79
     5
170
     0
171
     0
290
     0
174
     0
 93
        1
 44
0.0
173
     0
291
     1
 45
0.0
1001
ACAD
1000
AcDbSavedByObjectVersion
1070
     0
1000
AcDbSavedByObjectVersion
1070
     0
1000
AcDbSavedByObjectVersion
1070
     0
1000
AcDbSavedByObjectVersion
1070
     0
  0
VISUALSTYLE
  5
3D5
102
{ACAD_REACTORS
330
3CC
102
}
330
3CC
100
AcDbVisualStyle
  2
Conceptual
 70
     9
 71
     3
 72
     2
 73
     0
 90
        0
 40
-0.6
 41
-30.0
 62
     5
 63
     7
 74
     2
 91
        2
 64
     7
 65
   257
 75
     1
175
     1
 42
40.0
 92
        8
 66
     7
 43
1.0
 76
     1
 77
     6
 78
     2
 67
     7
 79
     3
170
     0
171
     0
290
     0
174
     0
 93
        1
 44
0.0
173
     0
291
     0
 45
0.0
1001
ACAD
1000
AcDbSavedByObjectVersion
1070
     0
1000
AcDbSavedByObjectVersion
1070
     0
1000
AcDbSavedByObjectVersion
1070
     0
1000
AcDbSavedByObjectVersion
1070
     0
  0
VISUALSTYLE
  5
3D7
102
{ACAD_REACTORS
330
3CC
102
}
330
3CC
100
AcDbVisualStyle
  2
Dim
 70
    11
 71
     2
 72
     2
 73
     0
 90
        0
 40
-0.6
 41
-30.0
 62
     5
 63
     7
 74
     1
 91
        4
 64
     7
 65
   257
 75
     1
175
     1
 42
1.0
 92
        8
 66
     7
 43
1.0
 76
     1
 77
     6
 78
     2
 67
     7
 79
     5
170
     0
171
     0
290
     0
174
     0
 93
        1
 44
-50.0
173
     0
291
     1
 45
0.0
1001
ACAD
1000
AcDbSavedByObjectVersion
1070
     0
1000
AcDbSavedByObjectVersion
1070
     0
1000
AcDbSavedByObjectVersion
1070
     0
1000
AcDbSavedByObjectVersion
1070
     0
  0
VISUALSTYLE
  5
3DB
102
{ACAD_REACTORS
330
3CC
102
}
330
3CC
100
AcDbVisualStyle
  2
Facepattern
 70
    15
 71
     2
 72
     2
 73
     0
 90
        0
 40
-0.6
 41
-30.0
 62
     5
 63
     7
 74
     1
 91
        4
 64
     7
 65
   257
 75
     1
175
     1
 42
1.0
 92
        8
 66
     7
 43
1.0
 76
     1
 77
     6
 78
     2
 67
     7
 79
     5
170
     0
171
     0
290
     0
174
     0
 93
        1
 44
0.0
173
     0
291
     1
 45
0.0
1001
ACAD
1000
AcDbSavedByObjectVersion
1070
     0
1000
AcDbSavedByObjectVersion
1070
     0
1000
AcDbSavedByObjectVersion
1070
     0
1000
AcDbSavedByObjectVersion
1070
     0
  0
VISUALSTYLE
  5
3CD
102
{ACAD_REACTORS
330
3CC
102
}
330
3CC
100
AcDbVisualStyle
  2
Flat
 70
     0
 71
     2
 72
     1
 73
     1
 90
        2
 40
-0.6
 41
30.0
 62
     5
 63
     7
 74
     0
 91
        4
 64
     7
 65
   257
 75
     1
175
     1
 42
1.0
 92
        8
 66
     7
 43
1.0
 76
     1
 77
     6
 78
     2
 67
     7
 79
     5
170
     0
171
     0
290
     0
174
     0
 93
       13
 44
0.0
173
     0
291
     1
 45
0.0
1001
ACAD
1000
AcDbSavedByObjectVersion
1070
     0
1000
AcDbSavedByObjectVersion
1070
     0
1000
AcDbSavedByObjectVersion
1070
     0
1000
AcDbSavedByObjectVersion
1070
     0
  0
VISUALSTYLE
  5
3CE
102
{ACAD_REACTORS
330
3CC
102
}
330
3CC
100
AcDbVisualStyle
  2
FlatWithEdges
 70
     1
 71
     2
 72
     1
 73
     1
 90
        2
 40
-0.6
 41
30.0
 62
     5
 63
     7
 74
     1
 91
        4
 64
     7
 65
   257
 75
     1
175
     1
 42
1.0
 92
        0
 66
   257
 43
1.0
 76
     1
 77
     6
 78
     2
 67
     7
 79
     5
170
     0
171
     0
290
     0
174
     0
 93
       13
 44
0.0
173
     0
291
     1
 45
0.0
1001
ACAD
1000
AcDbSavedByObjectVersion
1070
     0
1000
AcDbSavedByObjectVersion
1070
     0
1000
AcDbSavedByObjectVersion
1070
     0
1000
AcDbSavedByObjectVersion
1070
     0
  0
VISUALSTYLE
  5
3CF
102
{ACAD_REACTORS
330
3CC
102
}
330
3CC
100
AcDbVisualStyle
  2
Gouraud
 70
     2
 71
     2
 72
     2
 73
     1
 90
        2
 40
-0.6
 41
30.0
 62
     5
 63
     7
 74
     0
 91
        4
 64
     7
 65
   257
 75
     1
175
     1
 42
1.0
 92
        0
 66
     7
 43
1.0
 76
     1
 77
     6
 78
     2
 67
     7
 79
     5
170
     0
171
     0
290
     0
174
     0
 93
       13
 44
0.0
173
     0
291
     1
 45
0.0
1001
ACAD
1000
AcDbSavedByObjectVersion
1070
     0
1000
AcDbSavedByObjectVersion
1070
     0
1000
AcDbSavedByObjectVersion
1070
     0
1000
AcDbSavedByObjectVersion
1070
     0
  0
VISUALSTYLE
  5
3D0
102
{ACAD_REACTORS
330
3CC
102
}
330
3CC
100
AcDbVisualStyle
  2
GouraudWithEdges
 70
     3
 71
     2
 72
     2
 73
     1
 90
        2
 40
-0.6
 41
30.0
 62
     5
 63
     7
 74
     1
 91
        4
 64
     7
 65
   257
 75
     1
175
     1
 42
1.0
 92
        0
 66
   257
 43
1.0
 76
     1
 77
     6
 78
     2
 67
     7
 79
     5
170
     0
171
     0
290
     0
174
     0
 93
       13
 44
0.0
173
     0
291
     1
 45
0.0
1001
ACAD
1000
AcDbSavedByObjectVersion
1070
     0
1000
AcDbSavedByObjectVersion
1070
     0
1000
AcDbSavedByObjectVersion
1070
     0
1000
AcDbSavedByObjectVersion
1070
     0
  0
VISUALSTYLE
  5
3DA
102
{ACAD_REACTORS
330
3CC
102
}
330
3CC
100
AcDbVisualStyle
  2
Linepattern
 70
    14
 71
     2
 72
     2
 73
     0
 90
        0
 40
-0.6
 41
-30.0
 62
     5
 63
     7
 74
     1
 91
        4
 64
     7
 65
   257
 75
     7
175
     7
 42
1.0
 92
        8
 66
     7
 43
1.0
 76
     1
 77
     6
 78
     2
 67
     7
 79
     5
170
     0
171
     0
290
     0
174
     0
 93
        1
 44
0.0
173
     0
291
     1
 45
0.0
1001
ACAD
1000
AcDbSavedByObjectVersion
1070
     0
1000
AcDbSavedByObjectVersion
1070
     0
1000
AcDbSavedByObjectVersion
1070
     0
1000
AcDbSavedByObjectVersion
1070
     0
  0
VISUALSTYLE
  5
3D6
102
{ACAD_REACTORS
330
3CC
102
}
330
3CC
100
AcDbVisualStyle
  2
Realistic
 70
     8
 71
     2
 72
     2
 73
     0
 90
        0
 40
-0.6
 41
-30.0
 62
     5
 63
     7
 74
     1
 91
        0
 64
     7
 65
   257
 75
     1
175
     1
 42
1.0
 92
        8
 66
     8
 43
1.0
 76
     1
 77
     6
 78
     2
 67
     7
 79
     5
170
     0
171
     0
290
     0
174
     0
 93
       13
 44
0.0
173
     0
291
     0
 45
0.0
1001
ACAD
1000
AcDbSavedByObjectVersion
1070
     0
1000
AcDbSavedByObjectVersion
1070
     0
1000
AcDbSavedByObjectVersion
1070
     0
1000
AcDbSavedByObjectVersion
1070
     0
  0
VISUALSTYLE
  5
3D9
102
{ACAD_REACTORS
330
3CC
102
}
330
3CC
100
AcDbVisualStyle
  2
Thicken
 70
    13
 71
     2
 72
     2
 73
     0
 90
        0
 40
-0.6
 41
-30.0
 62
     5
 63
     7
 74
     1
 91
        4
 64
     7
 65
   257
 75
     1
175
     1
 42
1.0
 92
       12
 66
     7
 43
1.0
 76
     1
 77
     6
 78
     2
 67
     7
 79
     5
170
     0
171
     0
290
     0
174
     0
 93
        1
 44
0.0
173
     0
291
     1
 45
0.0
1001
ACAD
1000
AcDbSavedByObjectVersion
1070
     0
1000
AcDbSavedByObjectVersion
1070
     0
1000
AcDbSavedByObjectVersion
1070
     0
1000
AcDbSavedByObjectVersion
1070
     0
  0
DICTIONARYVAR
  5
AC8
102
{ACAD_REACTORS
330
94
102
}
330
94
100
DictionaryVariables
280
     0
  1
1:1
  0
DICTIONARYVAR
  5
AC7
102
{ACAD_REACTORS
330
94
102
}
330
94
100
DictionaryVariables
280
     0
  1
STANDARD
  0
DICTIONARYVAR
  5
138
102
{ACAD_REACTORS
330
94
102
}
330
94
100
DictionaryVariables
280
     0
  1
STANDARD
  0
DICTIONARYVAR
  5
96
102
{ACAD_REACTORS
330
94
102
}
330
94
100
DictionaryVariables
280
     0
  1
2
  0
DICTIONARYVAR
  5
95
102
{ACAD_REACTORS
330
94
102
}
330
94
100
DictionaryVariables
280
     0
  1
0
  0
DICTIONARYVAR
  5
AC9
102
{ACAD_REACTORS
330
94
102
}
330
94
100
DictionaryVariables
280
     0
  1
127
  0
DICTIONARY
  5
272
102
{ACAD_REACTORS
330
5B
102
}
330
5B
100
AcDbDictionary
281
     1
  0
DICTIONARY
  5
61
102
{ACAD_REACTORS
330
5B
102
}
330
5B
100
AcDbDictionary
281
     1
  0
XRECORD
  5
123
102
{ACAD_REACTORS
330
5B
102
}
330
5B
100
AcDbXrecord
280
     1
 90
-1023410169
  0
DICTIONARY
  5
3BD
330
3BC
100
AcDbDictionary
280
     1
281
     1
  3
ACAD_XREC_ROUNDTRIP
360
AD8
  3
BUMPTILE
360
3BF
  3
DIFFUSETILE
360
3BE
  3
OPACITYTILE
360
3C2
  3
REFLECTIONTILE
360
3C1
  3
REFRACTIONTILE
360
3C3
  3
SPECULARTILE
360
3C0
  0
DICTIONARY
  5
3B5
330
3B4
100
AcDbDictionary
280
     1
281
     1
  3
ACAD_XREC_ROUNDTRIP
360
AD7
  3
BUMPTILE
360
3B7
  3
DIFFUSETILE
360
3B6
  3
OPACITYTILE
360
3BA
  3
REFLECTIONTILE
360
3B9
  3
REFRACTIONTILE
360
3BB
  3
SPECULARTILE
360
3B8
  0
DICTIONARY
  5
3C5
330
3C4
100
AcDbDictionary
280
     1
281
     1
  3
ACAD_XREC_ROUNDTRIP
360
AD9
  3
BUMPTILE
360
3C7
  3
DIFFUSETILE
360
3C6
  3
OPACITYTILE
360
3CA
  3
REFLECTIONTILE
360
3C9
  3
REFRACTIONTILE
360
3CB
  3
SPECULARTILE
360
3C8
  0
DICTIONARY
  5
ACA
330
11B
100
AcDbDictionary
280
     1
281
     1
  3
ACAD_ROUNDTRIP_2008_TABLESTYLE_CELLSTYLEMAP
360
F2B
  3
ACAD_XREC_ROUNDTRIP
360
F36
  0
XRECORD
  5
AD8
102
{ACAD_REACTORS
330
3BD
102
}
330
3BD
100
AcDbXrecord
280
     1
102
MATERIAL
148
0.0
149
0.0
149
0.0
 93
        0
 94
      127
282
     0
 72
     0
 77
     0
171
     0
175
     0
179
     0
273
     0
  0
XRECORD
  5
3BF
102
{ACAD_REACTORS
330
3BD
102
}
330
3BD
100
AcDbXrecord
280
     1
270
     1
271
     1
  0
XRECORD
  5
3BE
102
{ACAD_REACTORS
330
3BD
102
}
330
3BD
100
AcDbXrecord
280
     1
270
     1
271
     1
  0
XRECORD
  5
3C2
102
{ACAD_REACTORS
330
3BD
102
}
330
3BD
100
AcDbXrecord
280
     1
270
     1
271
     1
  0
XRECORD
  5
3C1
102
{ACAD_REACTORS
330
3BD
102
}
330
3BD
100
AcDbXrecord
280
     1
270
     1
271
     1
  0
XRECORD
  5
3C3
102
{ACAD_REACTORS
330
3BD
102
}
330
3BD
100
AcDbXrecord
280
     1
270
     1
271
     1
  0
XRECORD
  5
3C0
102
{ACAD_REACTORS
330
3BD
102
}
330
3BD
100
AcDbXrecord
280
     1
270
     1
271
     1
  0
XRECORD
  5
AD7
102
{ACAD_REACTORS
330
3B5
102
}
330
3B5
100
AcDbXrecord
280
     1
102
MATERIAL
148
0.0
149
0.0
149
0.0
 93
        0
 94
      127
282
     0
 72
     0
 77
     0
171
     0
175
     0
179
     0
273
     0
  0
XRECORD
  5
3B7
102
{ACAD_REACTORS
330
3B5
102
}
330
3B5
100
AcDbXrecord
280
     1
270
     1
271
     1
  0
XRECORD
  5
3B6
102
{ACAD_REACTORS
330
3B5
102
}
330
3B5
100
AcDbXrecord
280
     1
270
     1
271
     1
  0
XRECORD
  5
3BA
102
{ACAD_REACTORS
330
3B5
102
}
330
3B5
100
AcDbXrecord
280
     1
270
     1
271
     1
  0
XRECORD
  5
3B9
102
{ACAD_REACTORS
330
3B5
102
}
330
3B5
100
AcDbXrecord
280
     1
270
     1
271
     1
  0
XRECORD
  5
3BB
102
{ACAD_REACTORS
330
3B5
102
}
330
3B5
100
AcDbXrecord
280
     1
270
     1
271
     1
  0
XRECORD
  5
3B8
102
{ACAD_REACTORS
330
3B5
102
}
330
3B5
100
AcDbXrecord
280
     1
270
     1
271
     1
  0
XRECORD
  5
AD9
102
{ACAD_REACTORS
330
3C5
102
}
330
3C5
100
AcDbXrecord
280
     1
102
MATERIAL
148
0.0
149
0.0
149
0.0
 93
        0
 94
      127
282
     0
 72
     0
 77
     0
171
     0
175
     0
179
     0
273
     0
  0
XRECORD
  5
3C7
102
{ACAD_REACTORS
330
3C5
102
}
330
3C5
100
AcDbXrecord
280
     1
270
     1
271
     1
  0
XRECORD
  5
3C6
102
{ACAD_REACTORS
330
3C5
102
}
330
3C5
100
AcDbXrecord
280
     1
270
     1
271
     1
  0
XRECORD
  5
3CA
102
{ACAD_REACTORS
330
3C5
102
}
330
3C5
100
AcDbXrecord
280
     1
270
     1
271
     1
  0
XRECORD
  5
3C9
102
{ACAD_REACTORS
330
3C5
102
}
330
3C5
100
AcDbXrecord
280
     1
270
     1
271
     1
  0
XRECORD
  5
3CB
102
{ACAD_REACTORS
330
3C5
102
}
330
3C5
100
AcDbXrecord
280
     1
270
     1
271
     1
  0
XRECORD
  5
3C8
102
{ACAD_REACTORS
330
3C5
102
}
330
3C5
100
AcDbXrecord
280
     1
270
     1
271
     1
  0
CELLSTYLEMAP
  5
F2B
102
{ACAD_REACTORS
330
ACA
102
}
330
ACA
100
AcDbCellStyleMap
 90
        3
300
CELLSTYLE
  1
TABLEFORMAT_BEGIN
 90
        5
170
     1
 91
        0
 92
    32768
 62
   257
 93
        1
300
CONTENTFORMAT
  1
CONTENTFORMAT_BEGIN
 90
        0
 91
        0
 92
        4
 93
        0
300

 40
0.0
140
1.0
 94
        5
 62
     0
340
11
144
6.0
309
CONTENTFORMAT_END
171
     1
301
MARGIN
  1
CELLMARGIN_BEGIN
 40
1.5
 40
1.5
 40
1.5
 40
1.5
 40
0.18
 40
0.18
309
CELLMARGIN_END
 94
        6
 95
        1
302
GRIDFORMAT
  1
GRIDFORMAT_BEGIN
 90
        0
 91
        1
 62
     0
 92
       -2
340
0
 93
        0
 40
0.045
309
GRIDFORMAT_END
 95
        2
302
GRIDFORMAT
  1
GRIDFORMAT_BEGIN
 90
        0
 91
        1
 62
     0
 92
       -2
340
0
 93
        0
 40
0.045
309
GRIDFORMAT_END
 95
        4
302
GRIDFORMAT
  1
GRIDFORMAT_BEGIN
 90
        0
 91
        1
 62
     0
 92
       -2
340
0
 93
        0
 40
0.045
309
GRIDFORMAT_END
 95
        8
302
GRIDFORMAT
  1
GRIDFORMAT_BEGIN
 90
        0
 91
        1
 62
     0
 92
       -2
340
0
 93
        0
 40
0.045
309
GRIDFORMAT_END
 95
       16
302
GRIDFORMAT
  1
GRIDFORMAT_BEGIN
 90
        0
 91
        1
 62
     0
 92
       -2
340
0
 93
        0
 40
0.045
309
GRIDFORMAT_END
 95
       32
302
GRIDFORMAT
  1
GRIDFORMAT_BEGIN
 90
        0
 91
        1
 62
     0
 92
       -2
340
0
 93
        0
 40
0.045
309
GRIDFORMAT_END
309
TABLEFORMAT_END
  1
CELLSTYLE_BEGIN
 90
        1
 91
        1
300
_TITLE
309
CELLSTYLE_END
300
CELLSTYLE
  1
TABLEFORMAT_BEGIN
 90
        5
170
     1
 91
        0
 92
        0
 62
   257
 93
        1
300
CONTENTFORMAT
  1
CONTENTFORMAT_BEGIN
 90
        0
 91
        0
 92
        4
 93
        0
300

 40
0.0
140
1.0
 94
        5
 62
     0
340
11
144
4.5
309
CONTENTFORMAT_END
171
     1
301
MARGIN
  1
CELLMARGIN_BEGIN
 40
1.5
 40
1.5
 40
1.5
 40
1.5
 40
0.18
 40
0.18
309
CELLMARGIN_END
 94
        6
 95
        1
302
GRIDFORMAT
  1
GRIDFORMAT_BEGIN
 90
        0
 91
        1
 62
     0
 92
       -2
340
0
 93
        0
 40
0.045
309
GRIDFORMAT_END
 95
        2
302
GRIDFORMAT
  1
GRIDFORMAT_BEGIN
 90
        0
 91
        1
 62
     0
 92
       -2
340
0
 93
        0
 40
0.045
309
GRIDFORMAT_END
 95
        4
302
GRIDFORMAT
  1
GRIDFORMAT_BEGIN
 90
        0
 91
        1
 62
     0
 92
       -2
340
0
 93
        0
 40
0.045
309
GRIDFORMAT_END
 95
        8
302
GRIDFORMAT
  1
GRIDFORMAT_BEGIN
 90
        0
 91
        1
 62
     0
 92
       -2
340
0
 93
        0
 40
0.045
309
GRIDFORMAT_END
 95
       16
302
GRIDFORMAT
  1
GRIDFORMAT_BEGIN
 90
        0
 91
        1
 62
     0
 92
       -2
340
0
 93
        0
 40
0.045
309
GRIDFORMAT_END
 95
       32
302
GRIDFORMAT
  1
GRIDFORMAT_BEGIN
 90
        0
 91
        1
 62
     0
 92
       -2
340
0
 93
        0
 40
0.045
309
GRIDFORMAT_END
309
TABLEFORMAT_END
  1
CELLSTYLE_BEGIN
 90
        2
 91
        1
300
_HEADER
309
CELLSTYLE_END
300
CELLSTYLE
  1
TABLEFORMAT_BEGIN
 90
        5
170
     1
 91
        0
 92
        0
 62
   257
 93
        1
300
CONTENTFORMAT
  1
CONTENTFORMAT_BEGIN
 90
        0
 91
        0
 92
        4
 93
        0
300

 40
0.0
140
1.0
 94
        2
 62
     0
340
11
144
4.5
309
CONTENTFORMAT_END
171
     1
301
MARGIN
  1
CELLMARGIN_BEGIN
 40
1.5
 40
1.5
 40
1.5
 40
1.5
 40
0.18
 40
0.18
309
CELLMARGIN_END
 94
        6
 95
        1
302
GRIDFORMAT
  1
GRIDFORMAT_BEGIN
 90
        0
 91
        1
 62
     0
 92
       -2
340
0
 93
        0
 40
0.045
309
GRIDFORMAT_END
 95
        2
302
GRIDFORMAT
  1
GRIDFORMAT_BEGIN
 90
        0
 91
        1
 62
     0
 92
       -2
340
0
 93
        0
 40
0.045
309
GRIDFORMAT_END
 95
        4
302
GRIDFORMAT
  1
GRIDFORMAT_BEGIN
 90
        0
 91
        1
 62
     0
 92
       -2
340
0
 93
        0
 40
0.045
309
GRIDFORMAT_END
 95
        8
302
GRIDFORMAT
  1
GRIDFORMAT_BEGIN
 90
        0
 91
        1
 62
     0
 92
       -2
340
0
 93
        0
 40
0.045
309
GRIDFORMAT_END
 95
       16
302
GRIDFORMAT
  1
GRIDFORMAT_BEGIN
 90
        0
 91
        1
 62
     0
 92
       -2
340
0
 93
        0
 40
0.045
309
GRIDFORMAT_END
 95
       32
302
GRIDFORMAT
  1
GRIDFORMAT_BEGIN
 90
        0
 91
        1
 62
     0
 92
       -2
340
0
 93
        0
 40
0.045
309
GRIDFORMAT_END
309
TABLEFORMAT_END
  1
CELLSTYLE_BEGIN
 90
        3
 91
        2
300
_DATA
309
CELLSTYLE_END
  0
XRECORD
  5
F36
102
{ACAD_REACTORS
330
ACA
102
}
330
ACA
100
AcDbXrecord
280
     1
102
ACAD_ROUNDTRIP_PRE2007_TABLESTYLE
 90
        4
 91
        0
  1

 92
        4
 93
        0
  2

 94
        4
 95
        0
  3

  0
ENDSEC
  0
EOF
