  0
SECTION
  2
HEADER
  9
$ACADVER
  1
AC1015
  9
$ACADMAINTVER
 70
     6
  9
$DWGCODEPAGE
  3
ANSI_1252
  9
$INSBASE
 10
0.0
 20
0.0
 30
0.0
  9
$EXTMIN
 10
0.0
 20
0.0
 30
0.0
  9
$EXTMAX
 10
420.0
 20
297.0
 30
0.0
  9
$LIMMIN
 10
0.0
 20
0.0
  9
$LIMMAX
 10
420.0
 20
297.0
  9
$ORTHOMODE
 70
     0
  9
$REGENMODE
 70
     1
  9
$FILLMODE
 70
     1
  9
$QTEXTMODE
 70
     0
  9
$MIRRTEXT
 70
     1
  9
$LTSCALE
 40
1.0
  9
$ATTMODE
 70
     1
  9
$TEXTSIZE
 40
3.5
  9
$TRACEWID
 40
1.0
  9
$TEXTSTYLE
  7
Standard
  9
$CLAYER
  8
0
  9
$CELTYPE
  6
ByLayer
  9
$CECOLOR
 62
   256
  9
$CELTSCALE
 40
1.0
  9
$DISPSILH
 70
     0
  9
$DIMSCALE
 40
1.0
  9
$DIMASZ
 40
3.5
  9
$DIMEXO
 40
0.1
  9
$DIMDLI
 40
3.75
  9
$DIMRND
 40
0.0
  9
$DIMDLE
 40
0.0
  9
$DIMEXE
 40
1.0
  9
$DIMTP
 40
0.0
  9
$DIMTM
 40
0.0
  9
$DIMTXT
 40
3.5
  9
$DIMCEN
 40
2.5
  9
$DIMTSZ
 40
0.0
  9
$DIMTOL
 70
     0
  9
$DIMLIM
 70
     0
  9
$DIMTIH
 70
     1
  9
$DIMTOH
 70
     1
  9
$DIMSE1
 70
     0
  9
$DIMSE2
 70
     0
  9
$DIMTAD
 70
     1
  9
$DIMZIN
 70
     0
  9
$DIMBLK
  1

  9
$DIMASO
 70
     1
  9
$DIMSHO
 70
     1
  9
$DIMPOST
  1

  9
$DIMAPOST
  1

  9
$DIMALT
 70
     0
  9
$DIMALTD
 70
     3
  9
$DIMALTF
 40
0.0393700787
  9
$DIMLFAC
 40
1.0
  9
$DIMTOFL
 70
     1
  9
$DIMTVP
 40
0.0
  9
$DIMTIX
 70
     0
  9
$DIMSOXD
 70
     0
  9
$DIMSAH
 70
     0
  9
$DIMBLK1
  1

  9
$DIMBLK2
  1

  9
$DIMSTYLE
  2
ISO-25
  9
$DIMCLRD
 70
     0
  9
$DIMCLRE
 70
     0
  9
$DIMCLRT
 70
     0
  9
$DIMTFAC
 40
1.0
  9
$DIMGAP
 40
2.0
  9
$DIMJUST
 70
     0
  9
$DIMSD1
 70
     0
  9
$DIMSD2
 70
     0
  9
$DIMTOLJ
 70
     0
  9
$DIMTZIN
 70
     0
  9
$DIMALTZ
 70
     0
  9
$DIMALTTZ
 70
     0
  9
$DIMUPT
 70
     0
  9
$DIMDEC
 70
     2
  9
$DIMTDEC
 70
     3
  9
$DIMALTU
 70
     2
  9
$DIMALTTD
 70
     3
  9
$DIMTXSTY
  7
Standard
  9
$DIMAUNIT
 70
     0
  9
$DIMADEC
 70
     2
  9
$DIMALTRND
 40
0.0
  9
$DIMAZIN
 70
     0
  9
$DIMDSEP
 70
    44
  9
$DIMATFIT
 70
     3
  9
$DIMFRAC
 70
     0
  9
$DIMLDRBLK
  1

  9
$DIMLUNIT
 70
     2
  9
$DIMLWD
 70
    -2
  9
$DIMLWE
 70
    -2
  9
$DIMTMOVE
 70
     0
  9
$LUNITS
 70
     2
  9
$LUPREC
 70
     2
  9
$SKETCHINC
 40
1.0
  9
$FILLETRAD
 40
0.0
  9
$AUNITS
 70
     0
  9
$AUPREC
 70
     2
  9
$MENU
  1
.
  9
$ELEVATION
 40
0.0
  9
$PELEVATION
 40
0.0
  9
$THICKNESS
 40
0.0
  9
$LIMCHECK
 70
     0
  9
$CHAMFERA
 40
0.0
  9
$CHAMFERB
 40
0.0
  9
$CHAMFERC
 40
0.0
  9
$CHAMFERD
 40
0.0
  9
$SKPOLY
 70
     0
  9
$TDCREATE
 40
2460619.582198542
  9
$TDUCREATE
 40
2460619.540531875
  9
$TDUPDATE
 40
2460619.582203067
  9
$TDUUPDATE
 40
2460619.540536401
  9
$TDINDWG
 40
0.0000000116
  9
$TDUSRTIMER
 40
0.0000000116
  9
$USRTIMER
 70
     1
  9
$ANGBASE
 50
0.0
  9
$ANGDIR
 70
     0
  9
$PDMODE
 70
     0
  9
$PDSIZE
 40
-1.0
  9
$PLINEWID
 40
0.0
  9
$SPLFRAME
 70
     0
  9
$SPLINETYPE
 70
     6
  9
$SPLINESEGS
 70
     8
  9
$HANDSEED
  5
393
  9
$SURFTAB1
 70
     6
  9
$SURFTAB2
 70
     6
  9
$SURFTYPE
 70
     6
  9
$SURFU
 70
     6
  9
$SURFV
 70
     6
  9
$UCSBASE
  2

  9
$UCSNAME
  2

  9
$UCSORG
 10
0.0
 20
0.0
 30
0.0
  9
$UCSXDIR
 10
1.0
 20
0.0
 30
0.0
  9
$UCSYDIR
 10
0.0
 20
1.0
 30
0.0
  9
$UCSORTHOREF
  2

  9
$UCSORTHOVIEW
 70
     0
  9
$UCSORGTOP
 10
0.0
 20
0.0
 30
0.0
  9
$UCSORGBOTTOM
 10
0.0
 20
0.0
 30
0.0
  9
$UCSORGLEFT
 10
0.0
 20
0.0
 30
0.0
  9
$UCSORGRIGHT
 10
0.0
 20
0.0
 30
0.0
  9
$UCSORGFRONT
 10
0.0
 20
0.0
 30
0.0
  9
$UCSORGBACK
 10
0.0
 20
0.0
 30
0.0
  9
$PUCSBASE
  2

  9
$PUCSNAME
  2

  9
$PUCSORG
 10
0.0
 20
0.0
 30
0.0
  9
$PUCSXDIR
 10
1.0
 20
0.0
 30
0.0
  9
$PUCSYDIR
 10
0.0
 20
1.0
 30
0.0
  9
$PUCSORTHOREF
  2

  9
$PUCSORTHOVIEW
 70
     0
  9
$PUCSORGTOP
 10
0.0
 20
0.0
 30
0.0
  9
$PUCSORGBOTTOM
 10
0.0
 20
0.0
 30
0.0
  9
$PUCSORGLEFT
 10
0.0
 20
0.0
 30
0.0
  9
$PUCSORGRIGHT
 10
0.0
 20
0.0
 30
0.0
  9
$PUCSORGFRONT
 10
0.0
 20
0.0
 30
0.0
  9
$PUCSORGBACK
 10
0.0
 20
0.0
 30
0.0
  9
$USERI1
 70
     0
  9
$USERI2
 70
     0
  9
$USERI3
 70
     0
  9
$USERI4
 70
     0
  9
$USERI5
 70
     0
  9
$USERR1
 40
0.0
  9
$USERR2
 40
0.0
  9
$USERR3
 40
0.0
  9
$USERR4
 40
0.0
  9
$USERR5
 40
0.0
  9
$WORLDVIEW
 70
     1
  9
$SHADEDGE
 70
     3
  9
$SHADEDIF
 70
    70
  9
$TILEMODE
 70
     1
  9
$MAXACTVP
 70
    64
  9
$PINSBASE
 10
0.0
 20
0.0
 30
0.0
  9
$PLIMCHECK
 70
     0
  9
$PEXTMIN
 10
1.0000000000E+20
 20
1.0000000000E+20
 30
1.0000000000E+20
  9
$PEXTMAX
 10
-1.0000000000E+20
 20
-1.0000000000E+20
 30
-1.0000000000E+20
  9
$PLIMMIN
 10
0.0
 20
0.0
  9
$PLIMMAX
 10
420.0
 20
297.0
  9
$UNITMODE
 70
     0
  9
$VISRETAIN
 70
     1
  9
$PLINEGEN
 70
     0
  9
$PSLTSCALE
 70
     1
  9
$TREEDEPTH
 70
  3020
  9
$CMLSTYLE
  2
Standard
  9
$CMLJUST
 70
     0
  9
$CMLSCALE
 40
20.0
  9
$PROXYGRAPHICS
 70
     1
  9
$MEASUREMENT
 70
     1
  9
$CELWEIGHT
370
    -1
  9
$ENDCAPS
280
     0
  9
$JOINSTYLE
280
     0
  9
$LWDISPLAY
290
     1
  9
$INSUNITS
 70
     4
  9
$HYPERLINKBASE
  1

  9
$STYLESHEET
  1

  9
$XEDIT
290
     1
  9
$CEPSNTYPE
380
     0
  9
$PSTYLEMODE
290
     1
  9
$FINGERPRINTGUID
  2
{49143a99-492f-4892-899c-5b74d1f71798}
  9
$VERSIONGUID
  2
{FAEB1C32-E019-11D5-929B-00C0DF256EC4}
  9
$EXTNAMES
290
     1
  9
$PSVPSCALE
 40
0.0
  9
$OLESTARTUP
290
     0
  0
ENDSEC
  0
SECTION
  2
CLASSES
  0
CLASS
  1
ACDBDICTIONARYWDFLT
  2
AcDbDictionaryWithDefault
  3
ObjectDBX Classes
 90
        0
280
     0
281
     0
  0
CLASS
  1
VISUALSTYLE
  2
AcDbVisualStyle
  3
ObjectDBX Classes
 90
     4095
280
     0
281
     0
  0
CLASS
  1
MATERIAL
  2
AcDbMaterial
  3
ObjectDBX Classes
 90
     1153
280
     0
281
     0
  0
CLASS
  1
SCALE
  2
AcDbScale
  3
ObjectDBX Classes
 90
     1153
280
     0
281
     0
  0
CLASS
  1
TABLESTYLE
  2
AcDbTableStyle
  3
ObjectDBX Classes
 90
     4095
280
     0
281
     0
  0
CLASS
  1
MLEADERSTYLE
  2
AcDbMLeaderStyle
  3
ACDB_MLEADERSTYLE_CLASS
 90
     4095
280
     0
281
     0
  0
CLASS
  1
SUN
  2
AcDbSun
  3
SCENEOE
 90
     1153
280
     0
281
     0
  0
CLASS
  1
ACDBPLACEHOLDER
  2
AcDbPlaceHolder
  3
ObjectDBX Classes
 90
        0
280
     0
281
     0
  0
CLASS
  1
LAYOUT
  2
AcDbLayout
  3
ObjectDBX Classes
 90
        0
280
     0
281
     0
  0
ENDSEC
  0
SECTION
  2
TABLES
  0
TABLE
  2
VPORT
  5
8
330
0
100
AcDbSymbolTable
 70
     1
  0
VPORT
  5
29
330
8
100
AcDbSymbolTableRecord
100
AcDbViewportTableRecord
  2
*Active
 70
     0
 10
0.0
 20
0.0
 11
1.0
 21
1.0
 12
210.0
 22
148.5
 13
0.0
 23
0.0
 14
10.0
 24
10.0
 15
10.0
 25
10.0
 16
0.0
 26
0.0
 36
1.0
 17
0.0
 27
0.0
 37
0.0
 40
297.0
 41
1.4141414141
 42
50.0
 43
0.0
 44
0.0
 50
0.0
 51
0.0
 71
     0
 72
  2000
 73
     1
 74
     3
 75
     0
 76
     0
 77
     0
 78
     0
281
     0
 65
     1
110
0.0
120
0.0
130
0.0
111
1.0
121
0.0
131
0.0
112
0.0
122
1.0
132
0.0
 79
     0
146
0.0
  0
ENDTAB
  0
TABLE
  2
LTYPE
  5
5
330
0
100
AcDbSymbolTable
 70
     6
  0
LTYPE
  5
14
330
5
100
AcDbSymbolTableRecord
100
AcDbLinetypeTableRecord
  2
ByBlock
 70
     0
  3

 72
    65
 73
     0
 40
0.0
  0
LTYPE
  5
15
330
5
100
AcDbSymbolTableRecord
100
AcDbLinetypeTableRecord
  2
ByLayer
 70
     0
  3

 72
    65
 73
     0
 40
0.0
  0
LTYPE
  5
16
330
5
100
AcDbSymbolTableRecord
100
AcDbLinetypeTableRecord
  2
Continuous
 70
     0
  3
Solid line
 72
    65
 73
     0
 40
0.0
  0
LTYPE
  5
5E
330
5
100
AcDbSymbolTableRecord
100
AcDbLinetypeTableRecord
  2
HIDDEN
 70
     0
  3
Hidden __ __ __ __ __ __ __ __ __ __ __ __ __ __
 72
    65
 73
     2
 40
1.905
 49
1.27
 74
     0
 49
-0.635
 74
     0
  0
LTYPE
  5
5F
330
5
100
AcDbSymbolTableRecord
100
AcDbLinetypeTableRecord
  2
PHANTOM
 70
     0
  3
Phantom ______  __  __  ______  __  __  ______
 72
    65
 73
     6
 40
12.7
 49
6.35
 74
     0
 49
-1.27
 74
     0
 49
1.27
 74
     0
 49
-1.27
 74
     0
 49
1.27
 74
     0
 49
-1.27
 74
     0
  0
LTYPE
  5
60
330
5
100
AcDbSymbolTableRecord
100
AcDbLinetypeTableRecord
  2
CENTER
 70
     0
  3
Center ____ _ ____ _ ____ _ ____ _ ____ _ ____
 72
    65
 73
     4
 40
10.16
 49
6.35
 74
     0
 49
-1.27
 74
     0
 49
1.27
 74
     0
 49
-1.27
 74
     0
  0
LTYPE
  5
61
330
5
100
AcDbSymbolTableRecord
100
AcDbLinetypeTableRecord
  2
CENTERX2
 70
     0
  3
Center (2x) ________  __  ________  __  _____
 72
    65
 73
     4
 40
20.32
 49
12.7
 74
     0
 49
-2.54
 74
     0
 49
2.54
 74
     0
 49
-2.54
 74
     0
  0
LTYPE
  5
62
330
5
100
AcDbSymbolTableRecord
100
AcDbLinetypeTableRecord
  2
DOT2
 70
     0
  3
Dot (.5x) ........................................
 72
    65
 73
     2
 40
0.635
 49
0.0
 74
     0
 49
-0.635
 74
     0
  0
ENDTAB
  0
TABLE
  2
LAYER
  5
2
330
0
100
AcDbSymbolTable
 70
     1
  0
LAYER
  5
10
330
2
100
AcDbSymbolTableRecord
100
AcDbLayerTableRecord
  2
0
 70
     0
 62
     7
  6
Continuous
370
    -3
390
F
  0
ENDTAB
  0
TABLE
  2
STYLE
  5
3
330
0
100
AcDbSymbolTable
 70
     3
  0
STYLE
  5
11
330
3
100
AcDbSymbolTableRecord
100
AcDbTextStyleTableRecord
  2
Standard
 70
     0
 40
0.0
 41
1.0
 50
0.0
 71
     0
 42
3.5
  3
txt
  4

  0
STYLE
  5
D9
330
3
100
AcDbSymbolTableRecord
100
AcDbTextStyleTableRecord
  2
SLDTEXTSTYLE0
 70
     0
 40
0.0
 41
0.605
 50
0.0
 71
     0
 42
3.5
  3
TXT
  4

  0
STYLE
  5
203
330
3
100
AcDbSymbolTableRecord
100
AcDbTextStyleTableRecord
  2
SLDTEXTSTYLE1
 70
     0
 40
0.0
 41
0.563
 50
0.0
 71
     0
 42
3.5
  3
TXT
  4

  0
ENDTAB
  0
TABLE
  2
VIEW
  5
6
330
0
100
AcDbSymbolTable
 70
     0
  0
ENDTAB
  0
TABLE
  2
UCS
  5
7
330
0
100
AcDbSymbolTable
 70
     0
  0
ENDTAB
  0
TABLE
  2
APPID
  5
9
330
0
100
AcDbSymbolTable
 70
     1
  0
APPID
  5
12
330
9
100
AcDbSymbolTableRecord
100
AcDbRegAppTableRecord
  2
ACAD
 70
     0
  0
ENDTAB
  0
TABLE
  2
DIMSTYLE
  5
A
330
0
100
AcDbSymbolTable
 70
     2
100
AcDbDimStyleTable
  0
DIMSTYLE
105
27
330
A
100
AcDbSymbolTableRecord
100
AcDbDimStyleTableRecord
  2
ISO-25
 70
     0
 41
2.5
 42
0.625
 43
3.75
 44
1.25
 73
     0
 74
     0
 77
     1
 78
     8
140
2.5
141
2.5
143
0.0393700787
147
0.625
171
     3
172
     1
178
     0
271
     2
272
     2
274
     3
278
    44
283
     0
284
     8
340
11
  0
DIMSTYLE
105
371
102
{ACAD_REACTORS
330
370
330
37C
330
387
102
}
330
A
100
AcDbSymbolTableRecord
100
AcDbDimStyleTableRecord
  2
SLDDIMSTYLE0
 70
     0
 41
3.5
 44
0.0
 45
0.000000001
 73
     0
 74
     0
 77
     1
 78
    12
 79
     3
140
3.5
147
0.875
173
     1
178
     0
271
     2
272
     3
276
     2
284
    12
340
D9
  0
ENDTAB
  0
TABLE
  2
BLOCK_RECORD
  5
1
330
0
100
AcDbSymbolTable
 70
    12
  0
BLOCK_RECORD
  5
1F
330
1
100
AcDbSymbolTableRecord
100
AcDbBlockTableRecord
  2
*Model_Space
340
22
  0
BLOCK_RECORD
  5
1B
330
1
100
AcDbSymbolTableRecord
100
AcDbBlockTableRecord
  2
*Paper_Space
340
1E
  0
BLOCK_RECORD
  5
23
330
1
100
AcDbSymbolTableRecord
100
AcDbBlockTableRecord
  2
*Paper_Space0
340
26
  0
BLOCK_RECORD
  5
63
330
1
100
AcDbSymbolTableRecord
100
AcDbBlockTableRecord
  2
ACO-Logo
340
0
102
{BLKREFS
331
1BE
102
}
  0
BLOCK_RECORD
  5
D6
330
1
100
AcDbSymbolTableRecord
100
AcDbBlockTableRecord
  2
SW_NOTE_0
340
0
102
{BLKREFS
331
DB
102
}
  0
BLOCK_RECORD
  5
DC
330
1
100
AcDbSymbolTableRecord
100
AcDbBlockTableRecord
  2
SW_NOTE_0_1
340
0
102
{BLKREFS
331
E0
102
}
  0
BLOCK_RECORD
  5
E1
330
1
100
AcDbSymbolTableRecord
100
AcDbBlockTableRecord
  2
SW_NOTE_0_2
340
0
102
{BLKREFS
331
E8
102
}
  0
BLOCK_RECORD
  5
E9
330
1
100
AcDbSymbolTableRecord
100
AcDbBlockTableRecord
  2
ACO-Logo_1
340
0
  0
BLOCK_RECORD
  5
15C
330
1
100
AcDbSymbolTableRecord
100
AcDbBlockTableRecord
  2
SW_NOTE_0_3
340
0
102
{BLKREFS
331
160
102
}
  0
BLOCK_RECORD
  5
161
330
1
100
AcDbSymbolTableRecord
100
AcDbBlockTableRecord
  2
SW_NOTE_0_4
340
0
102
{BLKREFS
331
165
102
}
  0
BLOCK_RECORD
  5
166
330
1
100
AcDbSymbolTableRecord
100
AcDbBlockTableRecord
  2
SW_NOTE_0_5
340
0
102
{BLKREFS
331
16D
102
}
  0
BLOCK_RECORD
  5
372
330
1
100
AcDbSymbolTableRecord
100
AcDbBlockTableRecord
  2
_D
340
0
  0
BLOCK_RECORD
  5
37D
330
1
100
AcDbSymbolTableRecord
100
AcDbBlockTableRecord
  2
_D_1
340
0
  0
BLOCK_RECORD
  5
388
330
1
100
AcDbSymbolTableRecord
100
AcDbBlockTableRecord
  2
_D_2
340
0
  0
ENDTAB
  0
ENDSEC
  0
SECTION
  2
BLOCKS
  0
BLOCK
  5
20
330
1F
100
AcDbEntity
  8
0
100
AcDbBlockBegin
  2
*Model_Space
 70
     0
 10
0.0
 20
0.0
 30
0.0
  3
*Model_Space
  1

  0
ENDBLK
  5
21
330
1F
100
AcDbEntity
  8
0
100
AcDbBlockEnd
  0
BLOCK
  5
1C
330
1B
100
AcDbEntity
 67
     1
  8
0
100
AcDbBlockBegin
  2
*Paper_Space
 70
     0
 10
0.0
 20
0.0
 30
0.0
  3
*Paper_Space
  1

  0
ENDBLK
  5
1D
330
1B
100
AcDbEntity
 67
     1
  8
0
100
AcDbBlockEnd
  0
BLOCK
  5
24
330
23
100
AcDbEntity
  8
0
100
AcDbBlockBegin
  2
*Paper_Space0
 70
     0
 10
0.0
 20
0.0
 30
0.0
  3
*Paper_Space0
  1

  0
ENDBLK
  5
25
330
23
100
AcDbEntity
  8
0
100
AcDbBlockEnd
  0
BLOCK
  5
64
330
63
100
AcDbEntity
  8
0
100
AcDbBlockBegin
  2
ACO-Logo
 70
     0
 10
0.0
 20
0.0
 30
0.0
  3
ACO-Logo
  1

  0
ARC
  5
66
330
63
100
AcDbEntity
  8
0
  6
Continuous
 62
     7
370
    18
100
AcDbCircle
 10
80.3853261169
 20
4.9940995715
 30
0.0
 40
0.3000000000000441
100
AcDbArc
 50
181.9349323096
 51
274.6062978506
  0
ARC
  5
67
330
63
100
AcDbEntity
  8
0
  6
Continuous
 62
     7
370
    18
100
AcDbCircle
 10
81.2359083165
 20
2.1946665956
 30
0.0
 40
1.000000000000021
100
AcDbArc
 50
221.4087409628
 51
276.0561297228
  0
ARC
  5
68
330
63
100
AcDbEntity
  8
0
  6
Continuous
 62
     7
370
    18
100
AcDbCircle
 10
79.1360017163
 20
3.654242048
 30
0.0
 40
0.300000000000004
100
AcDbArc
 50
181.2730300201
 51
274.4996077095
  0
ARC
  5
69
330
63
100
AcDbEntity
  8
0
  6
Continuous
 62
     7
370
    18
100
AcDbCircle
 10
78.7699033484
 20
3.2873137407
 30
0.0
 40
0.4000000000000358
100
AcDbArc
 50
221.0090869016
 51
274.5606296317
  0
ARC
  5
6A
330
63
100
AcDbEntity
  8
0
  6
Continuous
 62
     7
370
    18
100
AcDbCircle
 10
91.2333953062
 20
4.6062442307
 30
0.0
 40
0.3000000000000493
100
AcDbArc
 50
274.4996077095
 51
3.7249371334
  0
ARC
  5
6B
330
63
100
AcDbEntity
  8
0
  6
Continuous
 62
     7
370
    18
100
AcDbCircle
 10
81.5287571045
 20
9.7648973508
 30
0.0
 40
1.00000000000002
100
AcDbArc
 50
93.1134387481
 51
181.9414863909
  0
ARC
  5
6C
330
63
100
AcDbEntity
  8
0
  6
Continuous
 62
     7
370
    18
100
AcDbCircle
 10
81.6051675115
 20
7.5107903456
 30
0.0
 40
1.0
100
AcDbArc
 50
181.9414863909
 51
274.398705355
  0
ARC
  5
6D
330
63
100
AcDbEntity
  8
0
  6
Continuous
 62
     7
370
    18
100
AcDbCircle
 10
80.1506905656
 20
11.9393118923
 30
0.0
 40
0.300000000000045
100
AcDbArc
 50
93.0418421566
 51
181.9349323096
  0
ARC
  5
6E
330
63
100
AcDbEntity
  8
0
  6
Continuous
 62
     7
370
    18
100
AcDbCircle
 10
78.1879722102
 20
12.3499352608
 30
0.0
 40
0.7999999999953393
100
AcDbArc
 50
92.6995697565
 51
148.2554209065
  0
ARC
  5
6F
330
63
100
AcDbEntity
  8
0
  6
Continuous
 62
     7
370
    18
100
AcDbCircle
 10
78.930862229
 20
12.8855189761
 30
0.0
 40
0.3000000000000031
100
AcDbArc
 50
92.6995697565
 51
181.2730300201
  0
ARC
  5
70
330
63
100
AcDbEntity
  8
0
  6
Continuous
 62
     7
370
    18
100
AcDbCircle
 10
82.327743407
 20
9.8083568568
 30
0.0
 40
1.000000000000034
100
AcDbArc
 50
1.9414863909
 51
93.1134387481
  0
ARC
  5
71
330
63
100
AcDbEntity
  8
0
  6
Continuous
 62
     7
370
    18
100
AcDbCircle
 10
81.5287571045
 20
9.7648973508
 30
0.0
 40
0.3625000000000009
100
AcDbArc
 50
93.1134387481
 51
181.9414863909
  0
ARC
  5
72
330
63
100
AcDbEntity
  8
0
  6
Continuous
 62
     7
370
    18
100
AcDbCircle
 10
82.327743407
 20
9.8083568568
 30
0.0
 40
0.3625000000000146
100
AcDbArc
 50
1.9414863909
 51
93.1134387481
  0
ARC
  5
73
330
63
100
AcDbEntity
  8
0
  6
Continuous
 62
     7
370
    18
100
AcDbCircle
 10
82.4035451983
 20
7.5722040138
 30
0.0
 40
1.000000000000008
100
AcDbArc
 50
274.398705355
 51
1.9414863909
  0
ARC
  5
74
330
63
100
AcDbEntity
  8
0
  6
Continuous
 62
     7
370
    18
100
AcDbCircle
 10
82.4035451983
 20
7.5722040138
 30
0.0
 40
0.3625000000000068
100
AcDbArc
 50
274.398705355
 51
1.9414863909
  0
ARC
  5
75
330
63
100
AcDbEntity
  8
0
  6
Continuous
 62
     7
370
    18
100
AcDbCircle
 10
81.6051675115
 20
7.5107903456
 30
0.0
 40
0.3625000000000111
100
AcDbArc
 50
181.9414863909
 51
274.398705355
  0
ARC
  5
76
330
63
100
AcDbEntity
  8
0
  6
Continuous
 62
     7
370
    18
100
AcDbCircle
 10
88.825822761
 20
8.0662148274
 30
0.0
 40
0.9999999999999997
100
AcDbArc
 50
274.398705355
 51
2.6541955134
  0
ARC
  5
77
330
63
100
AcDbEntity
  8
0
  6
Continuous
 62
     7
370
    18
100
AcDbCircle
 10
90.1578295581
 20
5.7814576687
 30
0.0
 40
0.3000000000000043
100
AcDbArc
 50
274.6062978507
 51
2.5147526475
  0
ARC
  5
78
330
63
100
AcDbEntity
  8
0
  6
Continuous
 62
     7
370
    18
100
AcDbCircle
 10
88.825822761
 20
8.0662148274
 30
0.0
 40
0.3625000000000083
100
AcDbArc
 50
274.398705355
 51
2.6541955134
  0
ARC
  5
79
330
63
100
AcDbEntity
  8
0
  6
Continuous
 62
     7
370
    18
100
AcDbCircle
 10
88.728529747
 20
10.16496413
 30
0.0
 40
1.000000000000001
100
AcDbArc
 50
2.6541955134
 51
93.1134387481
  0
ARC
  5
7A
330
63
100
AcDbEntity
  8
0
  6
Continuous
 62
     7
370
    18
100
AcDbCircle
 10
88.728529747
 20
10.16496413
 30
0.0
 40
0.3625000000000085
100
AcDbArc
 50
2.6541955134
 51
93.1134387481
  0
ARC
  5
7B
330
63
100
AcDbEntity
  8
0
  6
Continuous
 62
     7
370
    18
100
AcDbCircle
 10
89.8647121341
 20
12.455515937
 30
0.0
 40
0.2999999999999984
100
AcDbArc
 50
2.5147526475
 51
93.0418421566
  0
ARC
  5
7C
330
63
100
AcDbEntity
  8
0
  6
Continuous
 62
     7
370
    18
100
AcDbCircle
 10
90.6583795404
 20
13.4384863935
 30
0.0
 40
0.2999999999999911
100
AcDbArc
 50
3.7249371334
 51
92.6995697565
  0
CIRCLE
  5
7D
330
63
100
AcDbEntity
  8
0
  6
Continuous
 62
     7
370
    18
100
AcDbCircle
 10
15.7233972286
 20
6.4054930194
 30
0.0
 40
1.579500000000014
  0
CIRCLE
  5
7E
330
63
100
AcDbEntity
  8
0
  6
Continuous
 62
     7
370
    18
100
AcDbCircle
 10
15.7233972286
 20
6.4054930194
 30
0.0
 40
2.281499999999994
  0
ARC
  5
7F
330
63
100
AcDbEntity
  8
0
  6
Continuous
 62
     7
370
    18
100
AcDbCircle
 10
89.7681336026
 20
2.3106616691
 30
0.0
 40
0.098384530246548
100
AcDbArc
 50
332.3802627259
 51
4.9765441602
  0
ARC
  5
80
330
63
100
AcDbEntity
  8
0
  6
Continuous
 62
     7
370
    18
100
AcDbCircle
 10
89.6886560089
 20
2.3522464185
 30
0.0
 40
0.1880839130754018
100
AcDbArc
 50
303.690067526
 51
332.3802627258
  0
ARC
  5
81
330
63
100
AcDbEntity
  8
0
  6
Continuous
 62
     7
370
    18
100
AcDbCircle
 10
89.4849700869
 20
2.6577753016
 30
0.0
 40
0.5552839311631531
100
AcDbArc
 50
287.108652213
 51
303.690067526
  0
ARC
  5
82
330
63
100
AcDbEntity
  8
0
  6
Continuous
 62
     7
370
    18
100
AcDbCircle
 10
88.0513010646
 20
7.3154864882
 30
0.0
 40
5.428648309393203
100
AcDbArc
 50
285.2551187031
 51
287.108652213
  0
ARC
  5
83
330
63
100
AcDbEntity
  8
0
  6
Continuous
 62
     7
370
    18
100
AcDbCircle
 10
89.1317168954
 20
3.3539617753
 30
0.0
 40
1.322436378825653
100
AcDbArc
 50
281.4991866428
 51
285.255118703
  0
ARC
  5
84
330
63
100
AcDbEntity
  8
0
  6
Continuous
 62
     7
370
    18
100
AcDbCircle
 10
89.3198255509
 20
2.4293110075
 30
0.0
 40
0.3788454141584939
100
AcDbArc
 50
279.1917900003
 51
281.499186643
  0
ARC
  5
85
330
63
100
AcDbEntity
  8
0
  6
Continuous
 62
     7
370
    18
100
AcDbCircle
 10
89.0487250788
 20
4.1046569124
 30
0.0
 40
2.07598399629105
100
AcDbArc
 50
277.7634675038
 51
279.1917900002
  0
ARC
  5
86
330
63
100
AcDbEntity
  8
0
  6
Continuous
 62
     7
370
    18
100
AcDbCircle
 10
9.2588909915
 20
6.4054930194
 30
0.0
 40
1.579500000000074
100
AcDbArc
 50
31.0558004991
 51
330.0
  0
ARC
  5
87
330
63
100
AcDbEntity
  8
0
  6
Continuous
 62
     7
370
    18
100
AcDbCircle
 10
9.2588909915
 20
6.4054930194
 30
0.0
 40
2.281500000000107
100
AcDbArc
 50
30.7309172659
 51
330.0
  0
ARC
  5
88
330
63
100
AcDbEntity
  8
0
  6
Continuous
 62
     7
370
    18
100
AcDbCircle
 10
6.1288847544
 20
4.0685261312
 30
0.0
 40
4.914000000000307
100
AcDbArc
 50
172.3058370354
 51
179.7113029221
  0
ARC
  5
89
330
63
100
AcDbEntity
  8
0
  6
Continuous
 62
     7
370
    18
100
AcDbCircle
 10
-0.5401152456
 20
4.0685261312
 30
0.0
 40
4.91400000000019
100
AcDbArc
 50
0.2886970779
 51
7.6941629646
  0
ARC
  5
8A
330
63
100
AcDbEntity
  8
0
  6
Continuous
 62
     7
370
    18
100
AcDbCircle
 10
-0.5401152456
 20
4.0685261312
 30
0.0
 40
5.616000000000127
100
AcDbArc
 50
0.2526096926
 51
53.5764263577
  0
ARC
  5
8B
330
63
100
AcDbEntity
  8
0
  6
Continuous
 62
     7
370
    18
100
AcDbCircle
 10
6.1288847544
 20
4.0685261312
 30
0.0
 40
5.61600000000074
100
AcDbArc
 50
126.4235736423
 51
179.7473903073
  0
ARC
  5
8C
330
63
100
AcDbEntity
  8
0
  6
Continuous
 62
     7
370
    18
100
AcDbCircle
 10
-0.5401152456
 20
4.0685261312
 30
0.0
 40
4.914000000000161
100
AcDbArc
 50
16.0658750272
 51
47.2678899574
  0
ARC
  5
8D
330
63
100
AcDbEntity
  8
0
  6
Continuous
 62
     7
370
    18
100
AcDbCircle
 10
6.1288847544
 20
4.0685261312
 30
0.0
 40
4.914000000000584
100
AcDbArc
 50
132.7321100426
 51
163.9341249728
  0
LINE
  5
8E
330
63
100
AcDbEntity
  8
0
  6
Continuous
 62
     7
370
    18
100
AcDbLine
 10
78.8017089389
 20
2.8885802402
 30
0.0
 11
90.7982178739
 21
3.8455002136
 31
0.0
  0
LINE
  5
8F
330
63
100
AcDbEntity
  8
0
  6
Continuous
 62
     7
370
    18
100
AcDbLine
 10
76.6545490427
 20
5.8693097374
 30
0.0
 11
78.0344191726
 21
3.5235305166
 31
0.0
  0
LINE
  5
90
330
63
100
AcDbEntity
  8
0
  6
Continuous
 62
     7
370
    18
100
AcDbLine
 10
91.5327615373
 20
4.6257342197
 30
0.0
 11
90.9577457715
 21
13.4579763825
 31
0.0
  0
LINE
  5
91
330
63
100
AcDbEntity
  8
0
  6
Continuous
 62
     7
370
    18
100
AcDbLine
 10
78.6309362756
 20
12.8788539549
 30
0.0
 11
78.8360757629
 21
3.6475770268
 31
0.0
  0
LINE
  5
92
330
63
100
AcDbEntity
  8
0
  6
Continuous
 62
     7
370
    18
100
AcDbLine
 10
80.4094186633
 20
4.6950685544
 30
0.0
 11
90.1819221045
 21
5.4824266516
 31
0.0
  0
LINE
  5
93
330
63
100
AcDbEntity
  8
0
  6
Continuous
 62
     7
370
    18
100
AcDbLine
 10
79.1595373973
 20
3.3551666867
 30
0.0
 11
91.2569309872
 21
4.3071688694
 31
0.0
  0
LINE
  5
94
330
63
100
AcDbEntity
  8
0
  6
Continuous
 62
     7
370
    18
100
AcDbLine
 10
79.2585043218
 20
2.925017226
 30
0.0
 11
80.4858981444
 21
1.533240302
 31
0.0
  0
LINE
  5
95
330
63
100
AcDbEntity
  8
0
  6
Continuous
 62
     7
370
    18
100
AcDbLine
 10
78.0344191726
 20
3.5235305166
 30
0.0
 11
78.3638740472
 21
3.1446574108
 31
0.0
  0
LINE
  5
96
330
63
100
AcDbEntity
  8
0
  6
Continuous
 62
     7
370
    18
100
AcDbLine
 10
78.3638740472
 20
3.1446574108
 30
0.0
 11
78.4680611395
 21
3.0248422547
 31
0.0
  0
LINE
  5
97
330
63
100
AcDbEntity
  8
0
  6
Continuous
 62
     7
370
    18
100
AcDbLine
 10
81.3414110113
 20
1.2002475785
 30
0.0
 11
89.3291569519
 21
2.0477010263
 31
0.0
  0
LINE
  5
98
330
63
100
AcDbEntity
  8
0
  6
Continuous
 62
     7
370
    18
100
AcDbLine
 10
89.8661472522
 20
2.5197759309
 30
0.0
 11
89.8661472522
 21
2.3090867337
 31
0.0
  0
LINE
  5
99
330
63
100
AcDbEntity
  8
0
  6
Continuous
 62
     7
370
    18
100
AcDbLine
 10
88.676842368
 20
3.6762854359
 30
0.0
 11
89.6713239345
 21
2.7875997807
 31
0.0
  0
LINE
  5
9A
330
63
100
AcDbEntity
  8
0
  6
Continuous
 62
     7
370
    18
100
AcDbLine
 10
89.6713239345
 20
2.7875997807
 30
0.0
 11
89.7459749087
 21
2.7242700694
 31
0.0
  0
LINE
  5
9B
330
63
100
AcDbEntity
  8
0
  6
Continuous
 62
     7
370
    18
100
AcDbLine
 10
90.7982178739
 20
3.8455002136
 30
0.0
 11
91.3961615969
 21
4.3514525945
 31
0.0
  0
LINE
  5
9C
330
63
100
AcDbEntity
  8
0
  6
Continuous
 62
     7
370
    18
100
AcDbLine
 10
90.6442498554
 20
13.7381534621
 30
0.0
 11
78.1502930503
 21
13.1490474438
 31
0.0
  0
LINE
  5
9D
330
63
100
AcDbEntity
  8
0
  6
Continuous
 62
     7
370
    18
100
AcDbLine
 10
80.1347709981
 20
12.2388892068
 30
0.0
 11
89.8487925667
 21
12.7550932515
 31
0.0
  0
LINE
  5
9E
330
63
100
AcDbEntity
  8
0
  6
Continuous
 62
     7
370
    18
100
AcDbLine
 10
76.4935641943
 20
11.7567556248
 30
0.0
 11
76.6545490427
 21
5.8693097374
 31
0.0
  0
LINE
  5
9F
330
63
100
AcDbEntity
  8
0
  6
Continuous
 62
     7
370
    18
100
AcDbLine
 10
79.8508616208
 20
11.929182536
 30
0.0
 11
80.0854971721
 21
4.9839702153
 31
0.0
  0
LINE
  5
A0
330
63
100
AcDbEntity
  8
0
  6
Continuous
 62
     7
370
    18
100
AcDbLine
 10
80.5293311574
 20
9.7310185051
 30
0.0
 11
80.6057415643
 21
7.4769115
 31
0.0
  0
LINE
  5
A1
330
63
100
AcDbEntity
  8
0
  6
Continuous
 62
     7
370
    18
100
AcDbLine
 10
77.507650604
 20
12.7708420346
 30
0.0
 11
76.4935641943
 21
11.7567556248
 31
0.0
  0
LINE
  5
A2
330
63
100
AcDbEntity
  8
0
  6
Continuous
 62
     7
370
    18
100
AcDbLine
 10
86.8848195129
 20
11.0661568594
 30
0.0
 11
88.6742167283
 21
11.1634880887
 31
0.0
  0
LINE
  5
A3
330
63
100
AcDbEntity
  8
0
  6
Continuous
 62
     7
370
    18
100
AcDbLine
 10
87.0766213517
 20
6.9287171941
 30
0.0
 11
88.90708891
 21
7.0695223909
 31
0.0
  0
LINE
  5
A4
330
63
100
AcDbEntity
  8
0
  6
Continuous
 62
     7
370
    18
100
AcDbLine
 10
87.6830038473
 20
7.6147347768
 30
0.0
 11
88.8536252418
 21
7.7047825764
 31
0.0
  0
LINE
  5
A5
330
63
100
AcDbEntity
  8
0
  6
Continuous
 62
     7
370
    18
100
AcDbLine
 10
87.5509212094
 20
10.4639459651
 30
0.0
 11
88.7088412777
 21
10.5269290651
 31
0.0
  0
LINE
  5
A6
330
63
100
AcDbEntity
  8
0
  6
Continuous
 62
     7
370
    18
100
AcDbLine
 10
87.0766218384
 20
6.9287066941
 30
0.0
 11
86.8848195129
 21
11.0661568594
 31
0.0
  0
LINE
  5
A7
330
63
100
AcDbEntity
  8
0
  6
Continuous
 62
     7
370
    18
100
AcDbLine
 10
83.7004598825
 20
6.6667911093
 30
0.0
 11
84.5054929504
 21
10.9267193262
 31
0.0
  0
LINE
  5
A8
330
63
100
AcDbEntity
  8
0
  6
Continuous
 62
     7
370
    18
100
AcDbLine
 10
85.3543248406
 20
10.9728900984
 30
0.0
 11
86.4940946704
 21
6.8816860929
 31
0.0
  0
LINE
  5
A9
330
63
100
AcDbEntity
  8
0
  6
Continuous
 62
     7
370
    18
100
AcDbLine
 10
84.9728575427
 20
9.9667192298
 30
0.0
 11
85.4540299774
 21
8.2395506903
 31
0.0
  0
LINE
  5
AA
330
63
100
AcDbEntity
  8
0
  6
Continuous
 62
     7
370
    18
100
AcDbLine
 10
84.6363094629
 20
8.1858350416
 30
0.0
 11
84.9728575427
 21
9.9667192298
 31
0.0
  0
LINE
  5
AB
330
63
100
AcDbEntity
  8
0
  6
Continuous
 62
     7
370
    18
100
AcDbLine
 10
87.6830038473
 20
7.6147347768
 30
0.0
 11
87.5509212094
 21
10.4639459651
 31
0.0
  0
LINE
  5
AC
330
63
100
AcDbEntity
  8
0
  6
Continuous
 62
     7
370
    18
100
AcDbLine
 10
84.6363094629
 20
8.1858350416
 30
0.0
 11
85.4540299774
 21
8.2395506903
 31
0.0
  0
LINE
  5
AD
330
63
100
AcDbEntity
  8
0
  6
Continuous
 62
     7
370
    18
100
AcDbLine
 10
84.5140586807
 20
7.5389304886
 30
0.0
 11
85.6288154243
 21
7.6121582976
 31
0.0
  0
LINE
  5
AE
330
63
100
AcDbEntity
  8
0
  6
Continuous
 62
     7
370
    18
100
AcDbLine
 10
84.3588137958
 20
6.717433718
 30
0.0
 11
84.5140586807
 21
7.5389304886
 31
0.0
  0
LINE
  5
AF
330
63
100
AcDbEntity
  8
0
  6
Continuous
 62
     7
370
    18
100
AcDbLine
 10
81.6818640104
 20
6.5137358601
 30
0.0
 11
82.4802416972
 21
6.5751495283
 31
0.0
  0
LINE
  5
B0
330
63
100
AcDbEntity
  8
0
  6
Continuous
 62
     7
370
    18
100
AcDbLine
 10
81.6329699923
 20
7.1493580946
 30
0.0
 11
82.4313476791
 21
7.2107717628
 31
0.0
  0
LINE
  5
B1
330
63
100
AcDbEntity
  8
0
  6
Continuous
 62
     7
370
    18
100
AcDbLine
 10
83.7004598825
 20
6.6667911093
 30
0.0
 11
84.3588137958
 21
6.717433718
 31
0.0
  0
LINE
  5
B2
330
63
100
AcDbEntity
  8
0
  6
Continuous
 62
     7
370
    18
100
AcDbLine
 10
82.7059483815
 20
9.3512024135
 30
0.0
 11
83.3423973297
 21
9.3930104243
 31
0.0
  0
LINE
  5
B3
330
63
100
AcDbEntity
  8
0
  6
Continuous
 62
     7
370
    18
100
AcDbLine
 10
82.7491656358
 20
8.0762934118
 30
0.0
 11
83.385614584
 21
8.1181014226
 31
0.0
  0
LINE
  5
B4
330
63
100
AcDbEntity
  8
0
  6
Continuous
 62
     7
370
    18
100
AcDbLine
 10
81.1664651987
 20
9.7526162692
 30
0.0
 11
81.2428756056
 21
7.4985092641
 31
0.0
  0
LINE
  5
B5
330
63
100
AcDbEntity
  8
0
  6
Continuous
 62
     7
370
    18
100
AcDbLine
 10
82.6900353128
 20
9.8206379383
 30
0.0
 11
82.7052632884
 21
9.3714126602
 31
0.0
  0
LINE
  5
B6
330
63
100
AcDbEntity
  8
0
  6
Continuous
 62
     7
370
    18
100
AcDbLine
 10
82.7491656358
 20
8.0762934118
 30
0.0
 11
82.7658371041
 21
7.5844850954
 31
0.0
  0
LINE
  5
B7
330
63
100
AcDbEntity
  8
0
  6
Continuous
 62
     7
370
    18
100
AcDbLine
 10
83.3271693541
 20
9.8422357024
 30
0.0
 11
83.3423973297
 21
9.3930104243
 31
0.0
  0
LINE
  5
B8
330
63
100
AcDbEntity
  8
0
  6
Continuous
 62
     7
370
    18
100
AcDbLine
 10
83.385614584
 20
8.1181014226
 30
0.0
 11
83.4029711454
 21
7.6060828595
 31
0.0
  0
LINE
  5
B9
330
63
100
AcDbEntity
  8
0
  6
Continuous
 62
     7
370
    18
100
AcDbLine
 10
85.6288154243
 20
7.6121582976
 30
0.0
 11
85.8462022593
 21
6.8318482152
 31
0.0
  0
LINE
  5
BA
330
63
100
AcDbEntity
  8
0
  6
Continuous
 62
     7
370
    18
100
AcDbLine
 10
85.8462022593
 20
6.8318482152
 30
0.0
 11
86.4940946704
 21
6.8816860929
 31
0.0
  0
LINE
  5
BB
330
63
100
AcDbEntity
  8
0
  6
Continuous
 62
     7
370
    18
100
AcDbLine
 10
84.5054929504
 20
10.9267193262
 30
0.0
 11
85.3543248406
 21
10.9728900984
 31
0.0
  0
LINE
  5
BC
330
63
100
AcDbEntity
  8
0
  6
Continuous
 62
     7
370
    18
100
AcDbLine
 10
81.4744440858
 20
10.7634213094
 30
0.0
 11
82.2734303883
 21
10.8068808154
 31
0.0
  0
LINE
  5
BD
330
63
100
AcDbEntity
  8
0
  6
Continuous
 62
     7
370
    18
100
AcDbLine
 10
81.5090686352
 20
10.1268622858
 30
0.0
 11
82.3080549377
 21
10.1703217918
 31
0.0
  0
LINE
  5
BE
330
63
100
AcDbEntity
  8
0
  6
Continuous
 62
     7
370
    18
100
AcDbLine
 10
90.4575406452
 20
5.7946206556
 30
0.0
 11
90.1644232213
 21
12.4686789239
 31
0.0
  0
LINE
  5
BF
330
63
100
AcDbEntity
  8
0
  6
Continuous
 62
     7
370
    18
100
AcDbLine
 10
89.8247499755
 20
8.1125227115
 30
0.0
 11
89.7274569615
 21
10.2112720142
 31
0.0
  0
LINE
  5
C0
330
63
100
AcDbEntity
  8
0
  6
Continuous
 62
     7
370
    18
100
AcDbLine
 10
89.1879338763
 20
8.0830014354
 30
0.0
 11
89.0906408622
 21
10.181750738
 31
0.0
  0
LINE
  5
C1
330
63
100
AcDbEntity
  8
0
  6
Continuous
 62
     7
370
    18
100
AcDbLine
 10
89.7459749087
 20
2.7242700694
 30
0.0
 11
89.7974962577
 21
2.6659765769
 31
0.0
  0
LINE
  5
C2
330
63
100
AcDbEntity
  8
0
  6
Continuous
 62
     7
370
    18
100
AcDbLine
 10
89.7974962577
 20
2.6659765769
 30
0.0
 11
89.8351851379
 21
2.60192886
 31
0.0
  0
LINE
  5
C3
330
63
100
AcDbEntity
  8
0
  6
Continuous
 62
     7
370
    18
100
AcDbLine
 10
89.8351851379
 20
2.60192886
 30
0.0
 11
89.8661472522
 21
2.5197759309
 31
0.0
  0
LINE
  5
C4
330
63
100
AcDbEntity
  8
0
  6
Continuous
 62
     7
370
    18
100
AcDbLine
 10
10.6119938288
 20
7.2203138351
 30
0.0
 11
11.2200151261
 21
7.5713550947
 31
0.0
  0
LINE
  5
C5
330
63
100
AcDbEntity
  8
0
  6
Continuous
 62
     7
370
    18
100
AcDbLine
 10
11.2347279503
 20
5.2647430194
 30
0.0
 11
10.6267781168
 21
5.6157430194
 31
0.0
  0
LINE
  5
C6
330
63
100
AcDbEntity
  8
0
  6
Continuous
 62
     7
370
    18
100
AcDbLine
 10
6.4645062371
 20
16.1712617198
 30
0.0
 11
6.4645062371
 21
2.9364593988
 31
0.0
  0
LINE
  5
C7
330
63
100
AcDbEntity
  8
0
  6
Continuous
 62
     7
370
    18
100
AcDbLine
 10
6.4645062371
 20
2.9364593988
 30
0.0
 11
12.0532757459
 21
2.9364593988
 31
0.0
  0
LINE
  5
C8
330
63
100
AcDbEntity
  8
0
  6
Continuous
 62
     7
370
    18
100
AcDbLine
 10
12.0532757459
 20
2.9364593988
 30
0.0
 11
12.0532757459
 21
16.1712617198
 31
0.0
  0
LINE
  5
C9
330
63
100
AcDbEntity
  8
0
  6
Continuous
 62
     7
370
    18
100
AcDbLine
 10
12.0532757459
 20
16.1712617198
 30
0.0
 11
6.4645062371
 21
16.1712617198
 31
0.0
  0
LINE
  5
CA
330
63
100
AcDbEntity
  8
0
  6
Continuous
 62
     7
370
    18
100
AcDbLine
 10
0.0
 20
16.1712617198
 30
0.0
 11
0.0
 21
2.9364593988
 31
0.0
  0
LINE
  5
CB
330
63
100
AcDbEntity
  8
0
  6
Continuous
 62
     7
370
    18
100
AcDbLine
 10
0.0
 20
2.9364593988
 30
0.0
 11
5.5887695089
 21
2.9364593988
 31
0.0
  0
LINE
  5
CC
330
63
100
AcDbEntity
  8
0
  6
Continuous
 62
     7
370
    18
100
AcDbLine
 10
5.5887695089
 20
2.9364593988
 30
0.0
 11
5.5887695089
 21
16.1712617198
 31
0.0
  0
LINE
  5
CD
330
63
100
AcDbEntity
  8
0
  6
Continuous
 62
     7
370
    18
100
AcDbLine
 10
5.5887695089
 20
16.1712617198
 30
0.0
 11
0.0
 21
16.1712617198
 31
0.0
  0
LINE
  5
CE
330
63
100
AcDbEntity
  8
0
  6
Continuous
 62
     7
370
    18
100
AcDbLine
 10
1.2591262606
 20
4.7264381407
 30
0.0
 11
4.3296432482
 21
4.7264381407
 31
0.0
  0
LINE
  5
CF
330
63
100
AcDbEntity
  8
0
  6
Continuous
 62
     7
370
    18
100
AcDbLine
 10
4.3738223747
 20
4.0932862697
 30
0.0
 11
5.0758301722
 21
4.0932862697
 31
0.0
  0
LINE
  5
D0
330
63
100
AcDbEntity
  8
0
  6
Continuous
 62
     7
370
    18
100
AcDbLine
 10
0.5129393366
 20
4.0932862697
 30
0.0
 11
1.2149471342
 21
4.0932862697
 31
0.0
  0
LINE
  5
D1
330
63
100
AcDbEntity
  8
0
  6
Continuous
 62
     7
370
    18
100
AcDbLine
 10
4.1819643097
 20
5.4284381407
 30
0.0
 11
1.4068051992
 21
5.4284381407
 31
0.0
  0
LINE
  5
D2
330
63
100
AcDbEntity
  8
0
  6
Continuous
 62
     7
370
    18
100
AcDbLine
 10
18.517781983
 20
16.1712617198
 30
0.0
 11
18.517781983
 21
2.9364593988
 31
0.0
  0
LINE
  5
D3
330
63
100
AcDbEntity
  8
0
  6
Continuous
 62
     7
370
    18
100
AcDbLine
 10
18.517781983
 20
2.9364593988
 30
0.0
 11
12.9290124742
 21
2.9364593988
 31
0.0
  0
LINE
  5
D4
330
63
100
AcDbEntity
  8
0
  6
Continuous
 62
     7
370
    18
100
AcDbLine
 10
12.9290124742
 20
2.9364593988
 30
0.0
 11
12.9290124742
 21
16.1712617198
 31
0.0
  0
LINE
  5
D5
330
63
100
AcDbEntity
  8
0
  6
Continuous
 62
     7
370
    18
100
AcDbLine
 10
12.9290124742
 20
16.1712617198
 30
0.0
 11
18.517781983
 21
16.1712617198
 31
0.0
  0
INSERT
  5
DB
330
63
100
AcDbEntity
  8
0
  6
Continuous
 62
     7
370
     0
100
AcDbBlockReference
  2
SW_NOTE_0
 10
1.8998941161
 20
-0.3226565443
 30
0.0
  0
INSERT
  5
E0
330
63
100
AcDbEntity
  8
0
  6
Continuous
 62
     7
370
     0
100
AcDbBlockReference
  2
SW_NOTE_0_1
 10
29.1164837035
 20
12.7459167441
 30
0.0
  0
INSERT
  5
E8
330
63
100
AcDbEntity
  8
0
  6
Continuous
 62
     7
370
     0
100
AcDbBlockReference
  2
SW_NOTE_0_2
 10
28.8863479825
 20
8.6365742194
 30
0.0
  0
ENDBLK
  5
65
330
63
100
AcDbEntity
  8
0
100
AcDbBlockEnd
  0
BLOCK
  5
D7
330
D6
100
AcDbEntity
  8
0
100
AcDbBlockBegin
  2
SW_NOTE_0
 70
     0
 10
0.0
 20
0.0
 30
0.0
  3
SW_NOTE_0
  1

  0
MTEXT
  5
DA
330
D6
100
AcDbEntity
  8
0
  6
Continuous
 62
     0
370
     0
100
AcDbMText
 10
7.46875
 20
2.5781354795
 30
0.0
 40
2.0
 41
0.0
 71
     2
 72
     1
  1
www.aco.ch
  7
SLDTEXTSTYLE0
 73
     1
 44
1.0
  0
ENDBLK
  5
D8
330
D6
100
AcDbEntity
  8
0
100
AcDbBlockEnd
  0
BLOCK
  5
DD
330
DC
100
AcDbEntity
  8
0
100
AcDbBlockBegin
  2
SW_NOTE_0_1
 70
     0
 10
0.0
 20
0.0
 30
0.0
  3
SW_NOTE_0_1
  1

  0
MTEXT
  5
DF
330
DC
100
AcDbEntity
  8
0
  6
Continuous
 62
     0
370
     0
100
AcDbMText
 10
0.0
 20
3.8672032193
 30
0.0
 40
3.0
 41
0.0
 71
     1
 72
     1
  1
ACO AG
  7
SLDTEXTSTYLE0
 73
     1
 44
1.0
  0
ENDBLK
  5
DE
330
DC
100
AcDbEntity
  8
0
100
AcDbBlockEnd
  0
BLOCK
  5
E2
330
E1
100
AcDbEntity
  8
0
100
AcDbBlockBegin
  2
SW_NOTE_0_2
 70
     0
 10
0.0
 20
0.0
 30
0.0
  3
SW_NOTE_0_2
  1

  0
MTEXT
  5
E4
330
E1
100
AcDbEntity
  8
0
  6
Continuous
 62
     0
370
     0
100
AcDbMText
 10
0.0
 20
2.5781354795
 30
0.0
 40
2.0
 41
0.0
 71
     1
 72
     1
  1
Industrie Kleinzaun
  7
SLDTEXTSTYLE0
 73
     1
 44
1.0
  0
MTEXT
  5
E5
330
E1
100
AcDbEntity
  8
0
  6
Continuous
 62
     0
370
     0
100
AcDbMText
 10
0.0
 20
-0.4218645465
 30
0.0
 40
2.0
 41
0.0
 71
     1
 72
     1
  1
CH-8754 Netstal
  7
SLDTEXTSTYLE0
 73
     1
 44
1.0
  0
MTEXT
  5
E6
330
E1
100
AcDbEntity
  8
0
  6
Continuous
 62
     0
370
     0
100
AcDbMText
 10
0.0
 20
-3.4218645726
 30
0.0
 40
2.0
 41
0.0
 71
     1
 72
     1
  1
Tel. 055 / 645 53 00
  7
SLDTEXTSTYLE0
 73
     1
 44
1.0
  0
MTEXT
  5
E7
330
E1
100
AcDbEntity
  8
0
  6
Continuous
 62
     0
370
     0
100
AcDbMText
 10
0.0
 20
-6.4218645987
 30
0.0
 40
2.0
 41
0.0
 71
     1
 72
     1
  1
E-Mail: aco@aco.ch
  7
SLDTEXTSTYLE0
 73
     1
 44
1.0
  0
ENDBLK
  5
E3
330
E1
100
AcDbEntity
  8
0
100
AcDbBlockEnd
  0
BLOCK
  5
EA
330
E9
100
AcDbEntity
  8
0
100
AcDbBlockBegin
  2
ACO-Logo_1
 70
     0
 10
0.0
 20
0.0
 30
0.0
  3
ACO-Logo_1
  1

  0
ARC
  5
EC
330
E9
100
AcDbEntity
  8
0
  6
Continuous
 62
     7
370
    18
100
AcDbCircle
 10
80.3853261169
 20
4.9940995715
 30
0.0
 40
0.3000000000000441
100
AcDbArc
 50
181.9349323096
 51
274.6062978506
  0
ARC
  5
ED
330
E9
100
AcDbEntity
  8
0
  6
Continuous
 62
     7
370
    18
100
AcDbCircle
 10
81.2359083165
 20
2.1946665956
 30
0.0
 40
1.000000000000021
100
AcDbArc
 50
221.4087409628
 51
276.0561297228
  0
ARC
  5
EE
330
E9
100
AcDbEntity
  8
0
  6
Continuous
 62
     7
370
    18
100
AcDbCircle
 10
79.1360017163
 20
3.654242048
 30
0.0
 40
0.300000000000004
100
AcDbArc
 50
181.2730300201
 51
274.4996077095
  0
ARC
  5
EF
330
E9
100
AcDbEntity
  8
0
  6
Continuous
 62
     7
370
    18
100
AcDbCircle
 10
78.7699033484
 20
3.2873137407
 30
0.0
 40
0.4000000000000358
100
AcDbArc
 50
221.0090869016
 51
274.5606296317
  0
ARC
  5
F0
330
E9
100
AcDbEntity
  8
0
  6
Continuous
 62
     7
370
    18
100
AcDbCircle
 10
91.2333953062
 20
4.6062442307
 30
0.0
 40
0.3000000000000493
100
AcDbArc
 50
274.4996077095
 51
3.7249371334
  0
ARC
  5
F1
330
E9
100
AcDbEntity
  8
0
  6
Continuous
 62
     7
370
    18
100
AcDbCircle
 10
81.5287571045
 20
9.7648973508
 30
0.0
 40
1.00000000000002
100
AcDbArc
 50
93.1134387481
 51
181.9414863909
  0
ARC
  5
F2
330
E9
100
AcDbEntity
  8
0
  6
Continuous
 62
     7
370
    18
100
AcDbCircle
 10
81.6051675115
 20
7.5107903456
 30
0.0
 40
1.0
100
AcDbArc
 50
181.9414863909
 51
274.398705355
  0
ARC
  5
F3
330
E9
100
AcDbEntity
  8
0
  6
Continuous
 62
     7
370
    18
100
AcDbCircle
 10
80.1506905656
 20
11.9393118923
 30
0.0
 40
0.300000000000045
100
AcDbArc
 50
93.0418421566
 51
181.9349323096
  0
ARC
  5
F4
330
E9
100
AcDbEntity
  8
0
  6
Continuous
 62
     7
370
    18
100
AcDbCircle
 10
78.1879722102
 20
12.3499352608
 30
0.0
 40
0.7999999999953393
100
AcDbArc
 50
92.6995697565
 51
148.2554209065
  0
ARC
  5
F5
330
E9
100
AcDbEntity
  8
0
  6
Continuous
 62
     7
370
    18
100
AcDbCircle
 10
78.930862229
 20
12.8855189761
 30
0.0
 40
0.3000000000000031
100
AcDbArc
 50
92.6995697565
 51
181.2730300201
  0
ARC
  5
F6
330
E9
100
AcDbEntity
  8
0
  6
Continuous
 62
     7
370
    18
100
AcDbCircle
 10
82.327743407
 20
9.8083568568
 30
0.0
 40
1.000000000000034
100
AcDbArc
 50
1.9414863909
 51
93.1134387481
  0
ARC
  5
F7
330
E9
100
AcDbEntity
  8
0
  6
Continuous
 62
     7
370
    18
100
AcDbCircle
 10
81.5287571045
 20
9.7648973508
 30
0.0
 40
0.3625000000000009
100
AcDbArc
 50
93.1134387481
 51
181.9414863909
  0
ARC
  5
F8
330
E9
100
AcDbEntity
  8
0
  6
Continuous
 62
     7
370
    18
100
AcDbCircle
 10
82.327743407
 20
9.8083568568
 30
0.0
 40
0.3625000000000146
100
AcDbArc
 50
1.9414863909
 51
93.1134387481
  0
ARC
  5
F9
330
E9
100
AcDbEntity
  8
0
  6
Continuous
 62
     7
370
    18
100
AcDbCircle
 10
82.4035451983
 20
7.5722040138
 30
0.0
 40
1.000000000000008
100
AcDbArc
 50
274.398705355
 51
1.9414863909
  0
ARC
  5
FA
330
E9
100
AcDbEntity
  8
0
  6
Continuous
 62
     7
370
    18
100
AcDbCircle
 10
82.4035451983
 20
7.5722040138
 30
0.0
 40
0.3625000000000068
100
AcDbArc
 50
274.398705355
 51
1.9414863909
  0
ARC
  5
FB
330
E9
100
AcDbEntity
  8
0
  6
Continuous
 62
     7
370
    18
100
AcDbCircle
 10
81.6051675115
 20
7.5107903456
 30
0.0
 40
0.3625000000000111
100
AcDbArc
 50
181.9414863909
 51
274.398705355
  0
ARC
  5
FC
330
E9
100
AcDbEntity
  8
0
  6
Continuous
 62
     7
370
    18
100
AcDbCircle
 10
88.825822761
 20
8.0662148274
 30
0.0
 40
0.9999999999999997
100
AcDbArc
 50
274.398705355
 51
2.6541955134
  0
ARC
  5
FD
330
E9
100
AcDbEntity
  8
0
  6
Continuous
 62
     7
370
    18
100
AcDbCircle
 10
90.1578295581
 20
5.7814576687
 30
0.0
 40
0.3000000000000043
100
AcDbArc
 50
274.6062978507
 51
2.5147526475
  0
ARC
  5
FE
330
E9
100
AcDbEntity
  8
0
  6
Continuous
 62
     7
370
    18
100
AcDbCircle
 10
88.825822761
 20
8.0662148274
 30
0.0
 40
0.3625000000000083
100
AcDbArc
 50
274.398705355
 51
2.6541955134
  0
ARC
  5
FF
330
E9
100
AcDbEntity
  8
0
  6
Continuous
 62
     7
370
    18
100
AcDbCircle
 10
88.728529747
 20
10.16496413
 30
0.0
 40
1.000000000000001
100
AcDbArc
 50
2.6541955134
 51
93.1134387481
  0
ARC
  5
100
330
E9
100
AcDbEntity
  8
0
  6
Continuous
 62
     7
370
    18
100
AcDbCircle
 10
88.728529747
 20
10.16496413
 30
0.0
 40
0.3625000000000085
100
AcDbArc
 50
2.6541955134
 51
93.1134387481
  0
ARC
  5
101
330
E9
100
AcDbEntity
  8
0
  6
Continuous
 62
     7
370
    18
100
AcDbCircle
 10
89.8647121341
 20
12.455515937
 30
0.0
 40
0.2999999999999984
100
AcDbArc
 50
2.5147526475
 51
93.0418421566
  0
ARC
  5
102
330
E9
100
AcDbEntity
  8
0
  6
Continuous
 62
     7
370
    18
100
AcDbCircle
 10
90.6583795404
 20
13.4384863935
 30
0.0
 40
0.2999999999999911
100
AcDbArc
 50
3.7249371334
 51
92.6995697565
  0
CIRCLE
  5
103
330
E9
100
AcDbEntity
  8
0
  6
Continuous
 62
     7
370
    18
100
AcDbCircle
 10
15.7233972286
 20
6.4054930194
 30
0.0
 40
1.579500000000014
  0
CIRCLE
  5
104
330
E9
100
AcDbEntity
  8
0
  6
Continuous
 62
     7
370
    18
100
AcDbCircle
 10
15.7233972286
 20
6.4054930194
 30
0.0
 40
2.281499999999994
  0
ARC
  5
105
330
E9
100
AcDbEntity
  8
0
  6
Continuous
 62
     7
370
    18
100
AcDbCircle
 10
89.7681336026
 20
2.3106616691
 30
0.0
 40
0.098384530246548
100
AcDbArc
 50
332.3802627259
 51
4.9765441602
  0
ARC
  5
106
330
E9
100
AcDbEntity
  8
0
  6
Continuous
 62
     7
370
    18
100
AcDbCircle
 10
89.6886560089
 20
2.3522464185
 30
0.0
 40
0.1880839130754018
100
AcDbArc
 50
303.690067526
 51
332.3802627258
  0
ARC
  5
107
330
E9
100
AcDbEntity
  8
0
  6
Continuous
 62
     7
370
    18
100
AcDbCircle
 10
89.4849700869
 20
2.6577753016
 30
0.0
 40
0.5552839311631531
100
AcDbArc
 50
287.108652213
 51
303.690067526
  0
ARC
  5
108
330
E9
100
AcDbEntity
  8
0
  6
Continuous
 62
     7
370
    18
100
AcDbCircle
 10
88.0513010646
 20
7.3154864882
 30
0.0
 40
5.428648309393203
100
AcDbArc
 50
285.2551187031
 51
287.108652213
  0
ARC
  5
109
330
E9
100
AcDbEntity
  8
0
  6
Continuous
 62
     7
370
    18
100
AcDbCircle
 10
89.1317168954
 20
3.3539617753
 30
0.0
 40
1.322436378825653
100
AcDbArc
 50
281.4991866428
 51
285.255118703
  0
ARC
  5
10A
330
E9
100
AcDbEntity
  8
0
  6
Continuous
 62
     7
370
    18
100
AcDbCircle
 10
89.3198255509
 20
2.4293110075
 30
0.0
 40
0.3788454141584939
100
AcDbArc
 50
279.1917900003
 51
281.499186643
  0
ARC
  5
10B
330
E9
100
AcDbEntity
  8
0
  6
Continuous
 62
     7
370
    18
100
AcDbCircle
 10
89.0487250788
 20
4.1046569124
 30
0.0
 40
2.07598399629105
100
AcDbArc
 50
277.7634675038
 51
279.1917900002
  0
ARC
  5
10C
330
E9
100
AcDbEntity
  8
0
  6
Continuous
 62
     7
370
    18
100
AcDbCircle
 10
9.2588909915
 20
6.4054930194
 30
0.0
 40
1.579500000000074
100
AcDbArc
 50
31.0558004991
 51
330.0
  0
ARC
  5
10D
330
E9
100
AcDbEntity
  8
0
  6
Continuous
 62
     7
370
    18
100
AcDbCircle
 10
9.2588909915
 20
6.4054930194
 30
0.0
 40
2.281500000000107
100
AcDbArc
 50
30.7309172659
 51
330.0
  0
ARC
  5
10E
330
E9
100
AcDbEntity
  8
0
  6
Continuous
 62
     7
370
    18
100
AcDbCircle
 10
6.1288847544
 20
4.0685261312
 30
0.0
 40
4.914000000000307
100
AcDbArc
 50
172.3058370354
 51
179.7113029221
  0
ARC
  5
10F
330
E9
100
AcDbEntity
  8
0
  6
Continuous
 62
     7
370
    18
100
AcDbCircle
 10
-0.5401152456
 20
4.0685261312
 30
0.0
 40
4.91400000000019
100
AcDbArc
 50
0.2886970779
 51
7.6941629646
  0
ARC
  5
110
330
E9
100
AcDbEntity
  8
0
  6
Continuous
 62
     7
370
    18
100
AcDbCircle
 10
-0.5401152456
 20
4.0685261312
 30
0.0
 40
5.616000000000127
100
AcDbArc
 50
0.2526096926
 51
53.5764263577
  0
ARC
  5
111
330
E9
100
AcDbEntity
  8
0
  6
Continuous
 62
     7
370
    18
100
AcDbCircle
 10
6.1288847544
 20
4.0685261312
 30
0.0
 40
5.61600000000074
100
AcDbArc
 50
126.4235736423
 51
179.7473903073
  0
ARC
  5
112
330
E9
100
AcDbEntity
  8
0
  6
Continuous
 62
     7
370
    18
100
AcDbCircle
 10
-0.5401152456
 20
4.0685261312
 30
0.0
 40
4.914000000000161
100
AcDbArc
 50
16.0658750272
 51
47.2678899574
  0
ARC
  5
113
330
E9
100
AcDbEntity
  8
0
  6
Continuous
 62
     7
370
    18
100
AcDbCircle
 10
6.1288847544
 20
4.0685261312
 30
0.0
 40
4.914000000000584
100
AcDbArc
 50
132.7321100426
 51
163.9341249728
  0
LINE
  5
114
330
E9
100
AcDbEntity
  8
0
  6
Continuous
 62
     7
370
    18
100
AcDbLine
 10
78.8017089389
 20
2.8885802402
 30
0.0
 11
90.7982178739
 21
3.8455002136
 31
0.0
  0
LINE
  5
115
330
E9
100
AcDbEntity
  8
0
  6
Continuous
 62
     7
370
    18
100
AcDbLine
 10
76.6545490427
 20
5.8693097374
 30
0.0
 11
78.0344191726
 21
3.5235305166
 31
0.0
  0
LINE
  5
116
330
E9
100
AcDbEntity
  8
0
  6
Continuous
 62
     7
370
    18
100
AcDbLine
 10
91.5327615373
 20
4.6257342197
 30
0.0
 11
90.9577457715
 21
13.4579763825
 31
0.0
  0
LINE
  5
117
330
E9
100
AcDbEntity
  8
0
  6
Continuous
 62
     7
370
    18
100
AcDbLine
 10
78.6309362756
 20
12.8788539549
 30
0.0
 11
78.8360757629
 21
3.6475770268
 31
0.0
  0
LINE
  5
118
330
E9
100
AcDbEntity
  8
0
  6
Continuous
 62
     7
370
    18
100
AcDbLine
 10
80.4094186633
 20
4.6950685544
 30
0.0
 11
90.1819221045
 21
5.4824266516
 31
0.0
  0
LINE
  5
119
330
E9
100
AcDbEntity
  8
0
  6
Continuous
 62
     7
370
    18
100
AcDbLine
 10
79.1595373973
 20
3.3551666867
 30
0.0
 11
91.2569309872
 21
4.3071688694
 31
0.0
  0
LINE
  5
11A
330
E9
100
AcDbEntity
  8
0
  6
Continuous
 62
     7
370
    18
100
AcDbLine
 10
79.2585043218
 20
2.925017226
 30
0.0
 11
80.4858981444
 21
1.533240302
 31
0.0
  0
LINE
  5
11B
330
E9
100
AcDbEntity
  8
0
  6
Continuous
 62
     7
370
    18
100
AcDbLine
 10
78.0344191726
 20
3.5235305166
 30
0.0
 11
78.3638740472
 21
3.1446574108
 31
0.0
  0
LINE
  5
11C
330
E9
100
AcDbEntity
  8
0
  6
Continuous
 62
     7
370
    18
100
AcDbLine
 10
78.3638740472
 20
3.1446574108
 30
0.0
 11
78.4680611395
 21
3.0248422547
 31
0.0
  0
LINE
  5
11D
330
E9
100
AcDbEntity
  8
0
  6
Continuous
 62
     7
370
    18
100
AcDbLine
 10
81.3414110113
 20
1.2002475785
 30
0.0
 11
89.3291569519
 21
2.0477010263
 31
0.0
  0
LINE
  5
11E
330
E9
100
AcDbEntity
  8
0
  6
Continuous
 62
     7
370
    18
100
AcDbLine
 10
89.8661472522
 20
2.5197759309
 30
0.0
 11
89.8661472522
 21
2.3090867337
 31
0.0
  0
LINE
  5
11F
330
E9
100
AcDbEntity
  8
0
  6
Continuous
 62
     7
370
    18
100
AcDbLine
 10
88.676842368
 20
3.6762854359
 30
0.0
 11
89.6713239345
 21
2.7875997807
 31
0.0
  0
LINE
  5
120
330
E9
100
AcDbEntity
  8
0
  6
Continuous
 62
     7
370
    18
100
AcDbLine
 10
89.6713239345
 20
2.7875997807
 30
0.0
 11
89.7459749087
 21
2.7242700694
 31
0.0
  0
LINE
  5
121
330
E9
100
AcDbEntity
  8
0
  6
Continuous
 62
     7
370
    18
100
AcDbLine
 10
90.7982178739
 20
3.8455002136
 30
0.0
 11
91.3961615969
 21
4.3514525945
 31
0.0
  0
LINE
  5
122
330
E9
100
AcDbEntity
  8
0
  6
Continuous
 62
     7
370
    18
100
AcDbLine
 10
90.6442498554
 20
13.7381534621
 30
0.0
 11
78.1502930503
 21
13.1490474438
 31
0.0
  0
LINE
  5
123
330
E9
100
AcDbEntity
  8
0
  6
Continuous
 62
     7
370
    18
100
AcDbLine
 10
80.1347709981
 20
12.2388892068
 30
0.0
 11
89.8487925667
 21
12.7550932515
 31
0.0
  0
LINE
  5
124
330
E9
100
AcDbEntity
  8
0
  6
Continuous
 62
     7
370
    18
100
AcDbLine
 10
76.4935641943
 20
11.7567556248
 30
0.0
 11
76.6545490427
 21
5.8693097374
 31
0.0
  0
LINE
  5
125
330
E9
100
AcDbEntity
  8
0
  6
Continuous
 62
     7
370
    18
100
AcDbLine
 10
79.8508616208
 20
11.929182536
 30
0.0
 11
80.0854971721
 21
4.9839702153
 31
0.0
  0
LINE
  5
126
330
E9
100
AcDbEntity
  8
0
  6
Continuous
 62
     7
370
    18
100
AcDbLine
 10
80.5293311574
 20
9.7310185051
 30
0.0
 11
80.6057415643
 21
7.4769115
 31
0.0
  0
LINE
  5
127
330
E9
100
AcDbEntity
  8
0
  6
Continuous
 62
     7
370
    18
100
AcDbLine
 10
77.507650604
 20
12.7708420346
 30
0.0
 11
76.4935641943
 21
11.7567556248
 31
0.0
  0
LINE
  5
128
330
E9
100
AcDbEntity
  8
0
  6
Continuous
 62
     7
370
    18
100
AcDbLine
 10
86.8848195129
 20
11.0661568594
 30
0.0
 11
88.6742167283
 21
11.1634880887
 31
0.0
  0
LINE
  5
129
330
E9
100
AcDbEntity
  8
0
  6
Continuous
 62
     7
370
    18
100
AcDbLine
 10
87.0766213517
 20
6.9287171941
 30
0.0
 11
88.90708891
 21
7.0695223909
 31
0.0
  0
LINE
  5
12A
330
E9
100
AcDbEntity
  8
0
  6
Continuous
 62
     7
370
    18
100
AcDbLine
 10
87.6830038473
 20
7.6147347768
 30
0.0
 11
88.8536252418
 21
7.7047825764
 31
0.0
  0
LINE
  5
12B
330
E9
100
AcDbEntity
  8
0
  6
Continuous
 62
     7
370
    18
100
AcDbLine
 10
87.5509212094
 20
10.4639459651
 30
0.0
 11
88.7088412777
 21
10.5269290651
 31
0.0
  0
LINE
  5
12C
330
E9
100
AcDbEntity
  8
0
  6
Continuous
 62
     7
370
    18
100
AcDbLine
 10
87.0766218384
 20
6.9287066941
 30
0.0
 11
86.8848195129
 21
11.0661568594
 31
0.0
  0
LINE
  5
12D
330
E9
100
AcDbEntity
  8
0
  6
Continuous
 62
     7
370
    18
100
AcDbLine
 10
83.7004598825
 20
6.6667911093
 30
0.0
 11
84.5054929504
 21
10.9267193262
 31
0.0
  0
LINE
  5
12E
330
E9
100
AcDbEntity
  8
0
  6
Continuous
 62
     7
370
    18
100
AcDbLine
 10
85.3543248406
 20
10.9728900984
 30
0.0
 11
86.4940946704
 21
6.8816860929
 31
0.0
  0
LINE
  5
12F
330
E9
100
AcDbEntity
  8
0
  6
Continuous
 62
     7
370
    18
100
AcDbLine
 10
84.9728575427
 20
9.9667192298
 30
0.0
 11
85.4540299774
 21
8.2395506903
 31
0.0
  0
LINE
  5
130
330
E9
100
AcDbEntity
  8
0
  6
Continuous
 62
     7
370
    18
100
AcDbLine
 10
84.6363094629
 20
8.1858350416
 30
0.0
 11
84.9728575427
 21
9.9667192298
 31
0.0
  0
LINE
  5
131
330
E9
100
AcDbEntity
  8
0
  6
Continuous
 62
     7
370
    18
100
AcDbLine
 10
87.6830038473
 20
7.6147347768
 30
0.0
 11
87.5509212094
 21
10.4639459651
 31
0.0
  0
LINE
  5
132
330
E9
100
AcDbEntity
  8
0
  6
Continuous
 62
     7
370
    18
100
AcDbLine
 10
84.6363094629
 20
8.1858350416
 30
0.0
 11
85.4540299774
 21
8.2395506903
 31
0.0
  0
LINE
  5
133
330
E9
100
AcDbEntity
  8
0
  6
Continuous
 62
     7
370
    18
100
AcDbLine
 10
84.5140586807
 20
7.5389304886
 30
0.0
 11
85.6288154243
 21
7.6121582976
 31
0.0
  0
LINE
  5
134
330
E9
100
AcDbEntity
  8
0
  6
Continuous
 62
     7
370
    18
100
AcDbLine
 10
84.3588137958
 20
6.717433718
 30
0.0
 11
84.5140586807
 21
7.5389304886
 31
0.0
  0
LINE
  5
135
330
E9
100
AcDbEntity
  8
0
  6
Continuous
 62
     7
370
    18
100
AcDbLine
 10
81.6818640104
 20
6.5137358601
 30
0.0
 11
82.4802416972
 21
6.5751495283
 31
0.0
  0
LINE
  5
136
330
E9
100
AcDbEntity
  8
0
  6
Continuous
 62
     7
370
    18
100
AcDbLine
 10
81.6329699923
 20
7.1493580946
 30
0.0
 11
82.4313476791
 21
7.2107717628
 31
0.0
  0
LINE
  5
137
330
E9
100
AcDbEntity
  8
0
  6
Continuous
 62
     7
370
    18
100
AcDbLine
 10
83.7004598825
 20
6.6667911093
 30
0.0
 11
84.3588137958
 21
6.717433718
 31
0.0
  0
LINE
  5
138
330
E9
100
AcDbEntity
  8
0
  6
Continuous
 62
     7
370
    18
100
AcDbLine
 10
82.7059483815
 20
9.3512024135
 30
0.0
 11
83.3423973297
 21
9.3930104243
 31
0.0
  0
LINE
  5
139
330
E9
100
AcDbEntity
  8
0
  6
Continuous
 62
     7
370
    18
100
AcDbLine
 10
82.7491656358
 20
8.0762934118
 30
0.0
 11
83.385614584
 21
8.1181014226
 31
0.0
  0
LINE
  5
13A
330
E9
100
AcDbEntity
  8
0
  6
Continuous
 62
     7
370
    18
100
AcDbLine
 10
81.1664651987
 20
9.7526162692
 30
0.0
 11
81.2428756056
 21
7.4985092641
 31
0.0
  0
LINE
  5
13B
330
E9
100
AcDbEntity
  8
0
  6
Continuous
 62
     7
370
    18
100
AcDbLine
 10
82.6900353128
 20
9.8206379383
 30
0.0
 11
82.7052632884
 21
9.3714126602
 31
0.0
  0
LINE
  5
13C
330
E9
100
AcDbEntity
  8
0
  6
Continuous
 62
     7
370
    18
100
AcDbLine
 10
82.7491656358
 20
8.0762934118
 30
0.0
 11
82.7658371041
 21
7.5844850954
 31
0.0
  0
LINE
  5
13D
330
E9
100
AcDbEntity
  8
0
  6
Continuous
 62
     7
370
    18
100
AcDbLine
 10
83.3271693541
 20
9.8422357024
 30
0.0
 11
83.3423973297
 21
9.3930104243
 31
0.0
  0
LINE
  5
13E
330
E9
100
AcDbEntity
  8
0
  6
Continuous
 62
     7
370
    18
100
AcDbLine
 10
83.385614584
 20
8.1181014226
 30
0.0
 11
83.4029711454
 21
7.6060828595
 31
0.0
  0
LINE
  5
13F
330
E9
100
AcDbEntity
  8
0
  6
Continuous
 62
     7
370
    18
100
AcDbLine
 10
85.6288154243
 20
7.6121582976
 30
0.0
 11
85.8462022593
 21
6.8318482152
 31
0.0
  0
LINE
  5
140
330
E9
100
AcDbEntity
  8
0
  6
Continuous
 62
     7
370
    18
100
AcDbLine
 10
85.8462022593
 20
6.8318482152
 30
0.0
 11
86.4940946704
 21
6.8816860929
 31
0.0
  0
LINE
  5
141
330
E9
100
AcDbEntity
  8
0
  6
Continuous
 62
     7
370
    18
100
AcDbLine
 10
84.5054929504
 20
10.9267193262
 30
0.0
 11
85.3543248406
 21
10.9728900984
 31
0.0
  0
LINE
  5
142
330
E9
100
AcDbEntity
  8
0
  6
Continuous
 62
     7
370
    18
100
AcDbLine
 10
81.4744440858
 20
10.7634213094
 30
0.0
 11
82.2734303883
 21
10.8068808154
 31
0.0
  0
LINE
  5
143
330
E9
100
AcDbEntity
  8
0
  6
Continuous
 62
     7
370
    18
100
AcDbLine
 10
81.5090686352
 20
10.1268622858
 30
0.0
 11
82.3080549377
 21
10.1703217918
 31
0.0
  0
LINE
  5
144
330
E9
100
AcDbEntity
  8
0
  6
Continuous
 62
     7
370
    18
100
AcDbLine
 10
90.4575406452
 20
5.7946206556
 30
0.0
 11
90.1644232213
 21
12.4686789239
 31
0.0
  0
LINE
  5
145
330
E9
100
AcDbEntity
  8
0
  6
Continuous
 62
     7
370
    18
100
AcDbLine
 10
89.8247499755
 20
8.1125227115
 30
0.0
 11
89.7274569615
 21
10.2112720142
 31
0.0
  0
LINE
  5
146
330
E9
100
AcDbEntity
  8
0
  6
Continuous
 62
     7
370
    18
100
AcDbLine
 10
89.1879338763
 20
8.0830014354
 30
0.0
 11
89.0906408622
 21
10.181750738
 31
0.0
  0
LINE
  5
147
330
E9
100
AcDbEntity
  8
0
  6
Continuous
 62
     7
370
    18
100
AcDbLine
 10
89.7459749087
 20
2.7242700694
 30
0.0
 11
89.7974962577
 21
2.6659765769
 31
0.0
  0
LINE
  5
148
330
E9
100
AcDbEntity
  8
0
  6
Continuous
 62
     7
370
    18
100
AcDbLine
 10
89.7974962577
 20
2.6659765769
 30
0.0
 11
89.8351851379
 21
2.60192886
 31
0.0
  0
LINE
  5
149
330
E9
100
AcDbEntity
  8
0
  6
Continuous
 62
     7
370
    18
100
AcDbLine
 10
89.8351851379
 20
2.60192886
 30
0.0
 11
89.8661472522
 21
2.5197759309
 31
0.0
  0
LINE
  5
14A
330
E9
100
AcDbEntity
  8
0
  6
Continuous
 62
     7
370
    18
100
AcDbLine
 10
10.6119938288
 20
7.2203138351
 30
0.0
 11
11.2200151261
 21
7.5713550947
 31
0.0
  0
LINE
  5
14B
330
E9
100
AcDbEntity
  8
0
  6
Continuous
 62
     7
370
    18
100
AcDbLine
 10
11.2347279503
 20
5.2647430194
 30
0.0
 11
10.6267781168
 21
5.6157430194
 31
0.0
  0
LINE
  5
14C
330
E9
100
AcDbEntity
  8
0
  6
Continuous
 62
     7
370
    18
100
AcDbLine
 10
6.4645062371
 20
16.1712617198
 30
0.0
 11
6.4645062371
 21
2.9364593988
 31
0.0
  0
LINE
  5
14D
330
E9
100
AcDbEntity
  8
0
  6
Continuous
 62
     7
370
    18
100
AcDbLine
 10
6.4645062371
 20
2.9364593988
 30
0.0
 11
12.0532757459
 21
2.9364593988
 31
0.0
  0
LINE
  5
14E
330
E9
100
AcDbEntity
  8
0
  6
Continuous
 62
     7
370
    18
100
AcDbLine
 10
12.0532757459
 20
2.9364593988
 30
0.0
 11
12.0532757459
 21
16.1712617198
 31
0.0
  0
LINE
  5
14F
330
E9
100
AcDbEntity
  8
0
  6
Continuous
 62
     7
370
    18
100
AcDbLine
 10
12.0532757459
 20
16.1712617198
 30
0.0
 11
6.4645062371
 21
16.1712617198
 31
0.0
  0
LINE
  5
150
330
E9
100
AcDbEntity
  8
0
  6
Continuous
 62
     7
370
    18
100
AcDbLine
 10
0.0
 20
16.1712617198
 30
0.0
 11
0.0
 21
2.9364593988
 31
0.0
  0
LINE
  5
151
330
E9
100
AcDbEntity
  8
0
  6
Continuous
 62
     7
370
    18
100
AcDbLine
 10
0.0
 20
2.9364593988
 30
0.0
 11
5.5887695089
 21
2.9364593988
 31
0.0
  0
LINE
  5
152
330
E9
100
AcDbEntity
  8
0
  6
Continuous
 62
     7
370
    18
100
AcDbLine
 10
5.5887695089
 20
2.9364593988
 30
0.0
 11
5.5887695089
 21
16.1712617198
 31
0.0
  0
LINE
  5
153
330
E9
100
AcDbEntity
  8
0
  6
Continuous
 62
     7
370
    18
100
AcDbLine
 10
5.5887695089
 20
16.1712617198
 30
0.0
 11
0.0
 21
16.1712617198
 31
0.0
  0
LINE
  5
154
330
E9
100
AcDbEntity
  8
0
  6
Continuous
 62
     7
370
    18
100
AcDbLine
 10
1.2591262606
 20
4.7264381407
 30
0.0
 11
4.3296432482
 21
4.7264381407
 31
0.0
  0
LINE
  5
155
330
E9
100
AcDbEntity
  8
0
  6
Continuous
 62
     7
370
    18
100
AcDbLine
 10
4.3738223747
 20
4.0932862697
 30
0.0
 11
5.0758301722
 21
4.0932862697
 31
0.0
  0
LINE
  5
156
330
E9
100
AcDbEntity
  8
0
  6
Continuous
 62
     7
370
    18
100
AcDbLine
 10
0.5129393366
 20
4.0932862697
 30
0.0
 11
1.2149471342
 21
4.0932862697
 31
0.0
  0
LINE
  5
157
330
E9
100
AcDbEntity
  8
0
  6
Continuous
 62
     7
370
    18
100
AcDbLine
 10
4.1819643097
 20
5.4284381407
 30
0.0
 11
1.4068051992
 21
5.4284381407
 31
0.0
  0
LINE
  5
158
330
E9
100
AcDbEntity
  8
0
  6
Continuous
 62
     7
370
    18
100
AcDbLine
 10
18.517781983
 20
16.1712617198
 30
0.0
 11
18.517781983
 21
2.9364593988
 31
0.0
  0
LINE
  5
159
330
E9
100
AcDbEntity
  8
0
  6
Continuous
 62
     7
370
    18
100
AcDbLine
 10
18.517781983
 20
2.9364593988
 30
0.0
 11
12.9290124742
 21
2.9364593988
 31
0.0
  0
LINE
  5
15A
330
E9
100
AcDbEntity
  8
0
  6
Continuous
 62
     7
370
    18
100
AcDbLine
 10
12.9290124742
 20
2.9364593988
 30
0.0
 11
12.9290124742
 21
16.1712617198
 31
0.0
  0
LINE
  5
15B
330
E9
100
AcDbEntity
  8
0
  6
Continuous
 62
     7
370
    18
100
AcDbLine
 10
12.9290124742
 20
16.1712617198
 30
0.0
 11
18.517781983
 21
16.1712617198
 31
0.0
  0
INSERT
  5
160
330
E9
100
AcDbEntity
  8
0
  6
Continuous
 62
     7
370
     0
100
AcDbBlockReference
  2
SW_NOTE_0_3
 10
1.8998941161
 20
-0.3226565443
 30
0.0
  0
INSERT
  5
165
330
E9
100
AcDbEntity
  8
0
  6
Continuous
 62
     7
370
     0
100
AcDbBlockReference
  2
SW_NOTE_0_4
 10
28.886834205
 20
12.7459167441
 30
0.0
  0
INSERT
  5
16D
330
E9
100
AcDbEntity
  8
0
  6
Continuous
 62
     7
370
     0
100
AcDbBlockReference
  2
SW_NOTE_0_5
 10
28.8863479825
 20
8.6365742194
 30
0.0
  0
ENDBLK
  5
EB
330
E9
100
AcDbEntity
  8
0
100
AcDbBlockEnd
  0
BLOCK
  5
15D
330
15C
100
AcDbEntity
  8
0
100
AcDbBlockBegin
  2
SW_NOTE_0_3
 70
     0
 10
0.0
 20
0.0
 30
0.0
  3
SW_NOTE_0_3
  1

  0
MTEXT
  5
15F
330
15C
100
AcDbEntity
  8
0
  6
Continuous
 62
     0
370
     0
100
AcDbMText
 10
7.46875
 20
2.5781354795
 30
0.0
 40
2.0
 41
0.0
 71
     2
 72
     1
  1
www.aco.ch
  7
SLDTEXTSTYLE0
 73
     1
 44
1.0
  0
ENDBLK
  5
15E
330
15C
100
AcDbEntity
  8
0
100
AcDbBlockEnd
  0
BLOCK
  5
162
330
161
100
AcDbEntity
  8
0
100
AcDbBlockBegin
  2
SW_NOTE_0_4
 70
     0
 10
0.0
 20
0.0
 30
0.0
  3
SW_NOTE_0_4
  1

  0
MTEXT
  5
164
330
161
100
AcDbEntity
  8
0
  6
Continuous
 62
     0
370
     0
100
AcDbMText
 10
18.09375
 20
3.8672032193
 30
0.0
 40
3.0
 41
0.0
 71
     2
 72
     1
  1
ACO Passavant AG
  7
SLDTEXTSTYLE0
 73
     1
 44
1.0
  0
ENDBLK
  5
163
330
161
100
AcDbEntity
  8
0
100
AcDbBlockEnd
  0
BLOCK
  5
167
330
166
100
AcDbEntity
  8
0
100
AcDbBlockBegin
  2
SW_NOTE_0_5
 70
     0
 10
0.0
 20
0.0
 30
0.0
  3
SW_NOTE_0_5
  1

  0
MTEXT
  5
169
330
166
100
AcDbEntity
  8
0
  6
Continuous
 62
     0
370
     0
100
AcDbMText
 10
0.0
 20
2.5781354795
 30
0.0
 40
2.0
 41
0.0
 71
     1
 72
     1
  1
Industrie Kleinzaun
  7
SLDTEXTSTYLE0
 73
     1
 44
1.0
  0
MTEXT
  5
16A
330
166
100
AcDbEntity
  8
0
  6
Continuous
 62
     0
370
     0
100
AcDbMText
 10
0.0
 20
-0.4218645465
 30
0.0
 40
2.0
 41
0.0
 71
     1
 72
     1
  1
CH-8754 Netstal
  7
SLDTEXTSTYLE0
 73
     1
 44
1.0
  0
MTEXT
  5
16B
330
166
100
AcDbEntity
  8
0
  6
Continuous
 62
     0
370
     0
100
AcDbMText
 10
0.0
 20
-3.4218645726
 30
0.0
 40
2.0
 41
0.0
 71
     1
 72
     1
  1
Tel. 055 / 645 53 00
  7
SLDTEXTSTYLE0
 73
     1
 44
1.0
  0
MTEXT
  5
16C
330
166
100
AcDbEntity
  8
0
  6
Continuous
 62
     0
370
     0
100
AcDbMText
 10
0.0
 20
-6.4218645987
 30
0.0
 40
2.0
 41
0.0
 71
     1
 72
     1
  1
E-Mail: aco@aco.ch
  7
SLDTEXTSTYLE0
 73
     1
 44
1.0
  0
ENDBLK
  5
168
330
166
100
AcDbEntity
  8
0
100
AcDbBlockEnd
  0
BLOCK
  5
373
330
372
100
AcDbEntity
  8
0
100
AcDbBlockBegin
  2
_D
 70
     0
 10
0.0
 20
0.0
 30
0.0
  3
_D
  1

  0
SOLID
  5
375
330
372
100
AcDbEntity
  8
0
  6
Continuous
 62
     7
370
    18
100
AcDbTrace
 10
49.9840119503
 20
212.3161126891
 30
0.0
 11
53.4840119503
 21
211.7776511506
 31
0.0
 12
53.4840119503
 22
212.8545742275
 32
0.0
 13
53.4840119503
 23
212.8545742275
 33
0.0
  0
SOLID
  5
376
330
372
100
AcDbEntity
  8
0
  6
Continuous
 62
     7
370
    18
100
AcDbTrace
 10
205.9840119503
 20
212.3161126891
 30
0.0
 11
202.4840119503
 21
212.8545742275
 31
0.0
 12
202.4840119503
 22
211.7776511506
 32
0.0
 13
202.4840119503
 23
211.7776511506
 33
0.0
  0
LINE
  5
377
330
372
100
AcDbEntity
  8
0
  6
Continuous
 62
     7
370
     0
100
AcDbLine
 10
49.9840119503
 20
222.2161126891
 30
0.0
 11
49.9840119503
 21
211.3161126891
 31
0.0
  0
LINE
  5
378
330
372
100
AcDbEntity
  8
0
  6
Continuous
 62
     7
370
     0
100
AcDbLine
 10
205.9840119503
 20
222.2161126891
 30
0.0
 11
205.9840119503
 21
211.3161126891
 31
0.0
  0
LINE
  5
379
330
372
100
AcDbEntity
  8
0
  6
Continuous
 62
     7
370
     0
100
AcDbLine
 10
49.9840119503
 20
212.3161126891
 30
0.0
 11
205.9840119503
 21
212.3161126891
 31
0.0
  0
MTEXT
  5
37A
330
372
100
AcDbEntity
  8
0
  6
Continuous
 62
     7
370
    18
100
AcDbMText
 10
121.4221198432
 20
216.8278497783
 30
0.0
 40
3.5
 41
0.0
 71
     1
 72
     1
  1
%%c
  7
SLDTEXTSTYLE0
 73
     1
 44
1.0
  0
MTEXT
  5
37B
330
372
100
AcDbEntity
  8
0
  6
Continuous
 62
     7
370
    18
100
AcDbMText
 10
126.5250713885
 20
216.8375720875
 30
0.0
 40
3.5
 41
0.0
 71
     1
 72
     1
  1
156
  7
SLDTEXTSTYLE0
 73
     1
 44
1.0
  0
ENDBLK
  5
374
330
372
100
AcDbEntity
  8
0
100
AcDbBlockEnd
  0
BLOCK
  5
37E
330
37D
100
AcDbEntity
  8
0
100
AcDbBlockBegin
  2
_D_1
 70
     0
 10
0.0
 20
0.0
 30
0.0
  3
_D_1
  1

  0
SOLID
  5
380
330
37D
100
AcDbEntity
  8
0
  6
Continuous
 62
     7
370
    18
100
AcDbTrace
 10
59.5356788815
 20
263.3161126891
 30
0.0
 11
63.0356788815
 21
262.7776511506
 31
0.0
 12
63.0356788815
 22
263.8545742275
 32
0.0
 13
63.0356788815
 23
263.8545742275
 33
0.0
  0
SOLID
  5
381
330
37D
100
AcDbEntity
  8
0
  6
Continuous
 62
     7
370
    18
100
AcDbTrace
 10
196.4323450192
 20
263.3161126891
 30
0.0
 11
192.9323450192
 21
263.8545742275
 31
0.0
 12
192.9323450192
 22
262.7776511506
 32
0.0
 13
192.9323450192
 23
262.7776511506
 33
0.0
  0
LINE
  5
382
330
37D
100
AcDbEntity
  8
0
  6
Continuous
 62
     7
370
     0
100
AcDbLine
 10
59.5356788815
 20
245.4357212947
 30
0.0
 11
59.5356788815
 21
264.3161126891
 31
0.0
  0
LINE
  5
383
330
37D
100
AcDbEntity
  8
0
  6
Continuous
 62
     7
370
     0
100
AcDbLine
 10
196.4323450192
 20
245.4357212947
 30
0.0
 11
196.4323450192
 21
264.3161126891
 31
0.0
  0
LINE
  5
384
330
37D
100
AcDbEntity
  8
0
  6
Continuous
 62
     7
370
     0
100
AcDbLine
 10
59.5356788815
 20
263.3161126891
 30
0.0
 11
196.4323450192
 21
263.3161126891
 31
0.0
  0
MTEXT
  5
385
330
37D
100
AcDbEntity
  8
0
  6
Continuous
 62
     7
370
    18
100
AcDbMText
 10
119.4169115595
 20
267.8278497783
 30
0.0
 40
3.5
 41
0.0
 71
     1
 72
     1
  1
%%c
  7
SLDTEXTSTYLE0
 73
     1
 44
1.0
  0
MTEXT
  5
386
330
37D
100
AcDbEntity
  8
0
  6
Continuous
 62
     7
370
    18
100
AcDbMText
 10
124.5198631048
 20
267.8375720875
 30
0.0
 40
3.5
 41
0.0
 71
     1
 72
     1
  1
136.9
  7
SLDTEXTSTYLE0
 73
     1
 44
1.0
  0
ENDBLK
  5
37F
330
37D
100
AcDbEntity
  8
0
100
AcDbBlockEnd
  0
BLOCK
  5
389
330
388
100
AcDbEntity
  8
0
100
AcDbBlockBegin
  2
_D_2
 70
     0
 10
0.0
 20
0.0
 30
0.0
  3
_D_2
  1

  0
SOLID
  5
38B
330
388
100
AcDbEntity
  8
0
  6
Continuous
 62
     7
370
    18
100
AcDbTrace
 10
226.6189047927
 20
222.3161126891
 30
0.0
 11
227.1573663312
 21
225.8161126891
 31
0.0
 12
226.0804432543
 22
225.8161126891
 32
0.0
 13
226.0804432543
 23
225.8161126891
 33
0.0
  0
SOLID
  5
38C
330
388
100
AcDbEntity
  8
0
  6
Continuous
 62
     7
370
    18
100
AcDbTrace
 10
226.6189047927
 20
253.3161126891
 30
0.0
 11
226.0804432543
 21
249.8161126891
 31
0.0
 12
227.1573663312
 22
249.8161126891
 32
0.0
 13
227.1573663312
 23
249.8161126891
 33
0.0
  0
LINE
  5
38D
330
388
100
AcDbEntity
  8
0
  6
Continuous
 62
     7
370
     0
100
AcDbLine
 10
206.0840119503
 20
222.3161126891
 30
0.0
 11
227.6189047927
 21
222.3161126891
 31
0.0
  0
LINE
  5
38E
330
388
100
AcDbEntity
  8
0
  6
Continuous
 62
     7
370
     0
100
AcDbLine
 10
201.714548077
 20
253.3161126891
 30
0.0
 11
227.6189047927
 21
253.3161126891
 31
0.0
  0
LINE
  5
38F
330
388
100
AcDbEntity
  8
0
  6
Continuous
 62
     7
370
     0
100
AcDbLine
 10
226.6189047927
 20
222.3161126891
 30
0.0
 11
226.6189047927
 21
253.3161126891
 31
0.0
  0
MTEXT
  5
390
330
388
100
AcDbEntity
  8
0
  6
Continuous
 62
     7
370
    18
100
AcDbMText
 10
222.1071674707
 20
235.1425016442
 30
0.0
 40
3.5
 41
0.0
 71
     1
 72
     1
  1
31
  7
SLDTEXTSTYLE0
 11
6.123233995736766E-17
 21
1.0
 31
0.0
 73
     1
 44
1.0
  0
ENDBLK
  5
38A
330
388
100
AcDbEntity
  8
0
100
AcDbBlockEnd
  0
ENDSEC
  0
SECTION
  2
ENTITIES
  0
LINE
  5
16E
330
1F
100
AcDbEntity
  8
0
  6
CENTERX2
 62
     7
370
    18
100
AcDbLine
 10
352.6174545849
 20
46.9080238789
 30
0.0
 11
352.6174545849
 21
39.4621586124
 31
0.0
  0
LINE
  5
16F
330
1F
100
AcDbEntity
  8
0
  6
Continuous
 62
     7
370
    18
100
AcDbLine
 10
357.7661698132
 20
46.3720107039
 30
0.0
 11
357.7661698132
 21
39.9353173413
 31
0.0
  0
LINE
  5
170
330
1F
100
AcDbEntity
  8
0
  6
Continuous
 62
     7
370
    18
100
AcDbLine
 10
364.6059427486
 20
44.7376225767
 30
0.0
 11
364.6059427486
 21
41.5697054685
 31
0.0
  0
LINE
  5
171
330
1F
100
AcDbEntity
  8
0
  6
Continuous
 62
     7
370
    18
100
AcDbLine
 10
364.6059427486
 20
44.7376225767
 30
0.0
 11
357.7661698132
 21
46.3720107039
 31
0.0
  0
LINE
  5
172
330
1F
100
AcDbEntity
  8
0
  6
Continuous
 62
     7
370
    18
100
AcDbLine
 10
15.0
 20
198.5
 30
0.0
 11
20.0
 21
198.5
 31
0.0
  0
LINE
  5
173
330
1F
100
AcDbEntity
  8
0
  6
Continuous
 62
     7
370
    18
100
AcDbLine
 10
12.0
 20
148.5
 30
0.0
 11
0.0
 21
148.5
 31
0.0
  0
LINE
  5
174
330
1F
100
AcDbEntity
  8
0
  6
Continuous
 62
     7
370
    18
100
AcDbLine
 10
357.7661698132
 20
39.9353173413
 30
0.0
 11
364.6059427486
 21
41.5697054685
 31
0.0
  0
LINE
  5
175
330
1F
100
AcDbEntity
  8
0
  6
CENTERX2
 62
     7
370
    18
100
AcDbLine
 10
348.6240467841
 20
43.1536640226
 30
0.0
 11
356.6108623857
 21
43.1536640226
 31
0.0
  0
LINE
  5
176
330
1F
100
AcDbEntity
  8
0
  6
CENTERX2
 62
     7
370
    18
100
AcDbLine
 10
357.1289238876
 20
43.1536640226
 30
0.0
 11
365.6255362296
 21
43.1536640226
 31
0.0
  0
LINE
  5
177
330
1F
100
AcDbEntity
  8
0
  6
Continuous
 62
     7
370
    18
100
AcDbLine
 10
0.0
 20
0.0
 30
0.0
 11
420.0
 21
0.0
 31
0.0
  0
LINE
  5
178
330
1F
100
AcDbEntity
  8
0
  6
Continuous
 62
     7
370
    18
100
AcDbLine
 10
0.0
 20
0.0
 30
0.0
 11
0.0
 21
297.0
 31
0.0
  0
LINE
  5
179
330
1F
100
AcDbEntity
  8
0
  6
Continuous
 62
     7
370
    18
100
AcDbLine
 10
0.0
 20
297.0
 30
0.0
 11
420.0
 21
297.0
 31
0.0
  0
LINE
  5
17A
330
1F
100
AcDbEntity
  8
0
  6
Continuous
 62
     7
370
    18
100
AcDbLine
 10
420.0
 20
0.0
 30
0.0
 11
420.0
 21
297.0
 31
0.0
  0
LINE
  5
17B
330
1F
100
AcDbEntity
  8
0
  6
Continuous
 62
     7
370
    25
100
AcDbLine
 10
228.0
 20
35.0
 30
0.0
 11
410.0
 21
35.0
 31
0.0
  0
LINE
  5
17C
330
1F
100
AcDbEntity
  8
0
  6
Continuous
 62
     7
370
    18
100
AcDbLine
 10
410.0
 20
198.5
 30
0.0
 11
415.0
 21
198.5
 31
0.0
  0
LINE
  5
17D
330
1F
100
AcDbEntity
  8
0
  6
Continuous
 62
     7
370
    18
100
AcDbLine
 10
15.0
 20
148.5
 30
0.0
 11
20.0
 21
148.5
 31
0.0
  0
LINE
  5
17E
330
1F
100
AcDbEntity
  8
0
  6
Continuous
 62
     7
370
    18
100
AcDbLine
 10
228.0
 20
40.0
 30
0.0
 11
296.6
 21
40.0
 31
0.0
  0
LINE
  5
17F
330
1F
100
AcDbEntity
  8
0
  6
Continuous
 62
     7
370
    18
100
AcDbLine
 10
15.0
 20
248.5
 30
0.0
 11
20.0
 21
248.5
 31
0.0
  0
LINE
  5
180
330
1F
100
AcDbEntity
  8
0
  6
Continuous
 62
     7
370
    35
100
AcDbLine
 10
20.0
 20
287.0
 30
0.0
 11
20.0
 21
10.0
 31
0.0
  0
LINE
  5
181
330
1F
100
AcDbEntity
  8
0
  6
Continuous
 62
     7
370
    35
100
AcDbLine
 10
410.0
 20
287.0
 30
0.0
 11
20.0
 21
287.0
 31
0.0
  0
LINE
  5
182
330
1F
100
AcDbEntity
  8
0
  6
Continuous
 62
     7
370
    35
100
AcDbLine
 10
410.0
 20
5.0
 30
0.0
 11
410.0
 21
287.0
 31
0.0
  0
LINE
  5
183
330
1F
100
AcDbEntity
  8
0
  6
Continuous
 62
     7
370
    35
100
AcDbLine
 10
20.0
 20
10.0
 30
0.0
 11
415.0
 21
10.0
 31
0.0
  0
LINE
  5
184
330
1F
100
AcDbEntity
  8
0
  6
Continuous
 62
     7
370
    18
100
AcDbLine
 10
410.0
 20
148.5
 30
0.0
 11
415.0
 21
148.5
 31
0.0
  0
LINE
  5
185
330
1F
100
AcDbEntity
  8
0
  6
Continuous
 62
     7
370
    18
100
AcDbLine
 10
228.0
 20
50.0
 30
0.0
 11
296.6
 21
50.0
 31
0.0
  0
LINE
  5
186
330
1F
100
AcDbEntity
  8
0
  6
Continuous
 62
     7
370
    18
100
AcDbLine
 10
15.0
 20
98.5
 30
0.0
 11
20.0
 21
98.5
 31
0.0
  0
LINE
  5
187
330
1F
100
AcDbEntity
  8
0
  6
Continuous
 62
     7
370
    18
100
AcDbLine
 10
296.6
 20
45.0
 30
0.0
 11
228.0
 21
45.0
 31
0.0
  0
LINE
  5
188
330
1F
100
AcDbEntity
  8
0
  6
Continuous
 62
     7
370
    18
100
AcDbLine
 10
65.0
 20
292.0
 30
0.0
 11
65.0
 21
287.0
 31
0.0
  0
LINE
  5
189
330
1F
100
AcDbEntity
  8
0
  6
Continuous
 62
     7
370
    18
100
AcDbLine
 10
230.0
 20
292.0
 30
0.0
 11
230.0
 21
297.0
 31
0.0
  0
LINE
  5
18A
330
1F
100
AcDbEntity
  8
0
  6
Continuous
 62
     7
370
    25
100
AcDbLine
 10
296.6
 20
55.0
 30
0.0
 11
296.6
 21
35.0
 31
0.0
  0
LINE
  5
18B
330
1F
100
AcDbEntity
  8
0
  6
Continuous
 62
     7
370
    18
100
AcDbLine
 10
410.0
 20
98.5
 30
0.0
 11
415.0
 21
98.5
 31
0.0
  0
LINE
  5
18C
330
1F
100
AcDbEntity
  8
0
100
AcDbLine
 10
230.0
 20
5.0
 30
0.0
 11
230.0
 21
0.0
 31
0.0
  0
LINE
  5
18D
330
1F
100
AcDbEntity
  8
0
  6
Continuous
 62
     7
370
    18
100
AcDbLine
 10
125.0
 20
292.0
 30
0.0
 11
125.0
 21
297.0
 31
0.0
  0
LINE
  5
18E
330
1F
100
AcDbEntity
  8
0
  6
Continuous
 62
     7
370
    18
100
AcDbLine
 10
125.0
 20
5.0
 30
0.0
 11
125.0
 21
0.0
 31
0.0
  0
LINE
  5
18F
330
1F
100
AcDbEntity
  8
0
  6
Continuous
 62
     7
370
    25
100
AcDbLine
 10
410.0
 20
55.0
 30
0.0
 11
228.0
 21
55.0
 31
0.0
  0
LINE
  5
190
330
1F
100
AcDbEntity
  8
0
  6
Continuous
 62
     7
370
    18
100
AcDbLine
 10
228.0
 20
55.0
 30
0.0
 11
410.0
 21
55.0
 31
0.0
  0
LINE
  5
191
330
1F
100
AcDbEntity
  8
0
  6
Continuous
 62
     7
370
    18
100
AcDbLine
 10
410.0
 20
55.0
 30
0.0
 11
228.0
 21
55.0
 31
0.0
  0
LINE
  5
192
330
1F
100
AcDbEntity
  8
0
  6
Continuous
 62
     7
370
    18
100
AcDbLine
 10
268.0
 20
76.5
 30
0.0
 11
268.0
 21
55.0
 31
0.0
  0
LINE
  5
193
330
1F
100
AcDbEntity
  8
0
  6
Continuous
 62
     7
370
    18
100
AcDbLine
 10
271.6
 20
55.0
 30
0.0
 11
271.6
 21
40.0
 31
0.0
  0
LINE
  5
194
330
1F
100
AcDbEntity
  8
0
  6
Continuous
 62
     7
370
    18
100
AcDbLine
 10
247.0
 20
55.0
 30
0.0
 11
247.0
 21
35.0
 31
0.0
  0
LINE
  5
195
330
1F
100
AcDbEntity
  8
0
  6
Continuous
 62
     7
370
    35
100
AcDbLine
 10
228.0
 20
76.5
 30
0.0
 11
228.0
 21
10.0
 31
0.0
  0
LINE
  5
196
330
1F
100
AcDbEntity
  8
0
  6
Continuous
 62
     7
370
    18
100
AcDbLine
 10
15.0
 20
292.0
 30
0.0
 11
415.0
 21
292.0
 31
0.0
  0
LINE
  5
197
330
1F
100
AcDbEntity
  8
0
  6
Continuous
 62
     7
370
    18
100
AcDbLine
 10
228.0
 20
65.75
 30
0.0
 11
310.0
 21
65.75
 31
0.0
  0
LINE
  5
198
330
1F
100
AcDbEntity
  8
0
  6
Continuous
 62
     7
370
    35
100
AcDbLine
 10
228.0
 20
76.5
 30
0.0
 11
410.0
 21
76.5
 31
0.0
  0
LINE
  5
199
330
1F
100
AcDbEntity
  8
0
  6
Continuous
 62
     7
370
    18
100
AcDbLine
 10
15.0
 20
48.5
 30
0.0
 11
20.0
 21
48.5
 31
0.0
  0
LINE
  5
19A
330
1F
100
AcDbEntity
  8
0
  6
Continuous
 62
     7
370
    18
100
AcDbLine
 10
410.0
 20
48.5
 30
0.0
 11
415.0
 21
48.5
 31
0.0
  0
LINE
  5
19B
330
1F
100
AcDbEntity
  8
0
  6
Continuous
 62
     7
370
    18
100
AcDbLine
 10
332.6610845472
 20
20.0
 30
0.0
 11
332.6610845472
 21
10.0
 31
0.0
  0
LINE
  5
19C
330
1F
100
AcDbEntity
  8
0
  6
Continuous
 62
     7
370
    18
100
AcDbLine
 10
410.0
 20
248.5
 30
0.0
 11
415.0
 21
248.5
 31
0.0
  0
LINE
  5
19D
330
1F
100
AcDbEntity
  8
0
  6
Continuous
 62
     7
370
    18
100
AcDbLine
 10
65.0
 20
10.0
 30
0.0
 11
65.0
 21
5.0
 31
0.0
  0
LINE
  5
19E
330
1F
100
AcDbEntity
  8
0
  6
Continuous
 62
     7
370
    18
100
AcDbLine
 10
115.0
 20
10.0
 30
0.0
 11
115.0
 21
5.0
 31
0.0
  0
LINE
  5
19F
330
1F
100
AcDbEntity
  8
0
  6
Continuous
 62
     7
370
    18
100
AcDbLine
 10
115.0
 20
292.0
 30
0.0
 11
115.0
 21
287.0
 31
0.0
  0
LINE
  5
1A0
330
1F
100
AcDbEntity
  8
0
  6
Continuous
 62
     7
370
    18
100
AcDbLine
 10
165.0
 20
10.0
 30
0.0
 11
165.0
 21
5.0
 31
0.0
  0
LINE
  5
1A1
330
1F
100
AcDbEntity
  8
0
  6
Continuous
 62
     7
370
    18
100
AcDbLine
 10
165.0
 20
292.0
 30
0.0
 11
165.0
 21
287.0
 31
0.0
  0
LINE
  5
1A2
330
1F
100
AcDbEntity
  8
0
  6
Continuous
 62
     7
370
    18
100
AcDbLine
 10
215.0
 20
10.0
 30
0.0
 11
215.0
 21
5.0
 31
0.0
  0
LINE
  5
1A3
330
1F
100
AcDbEntity
  8
0
  6
Continuous
 62
     7
370
    18
100
AcDbLine
 10
215.0
 20
292.0
 30
0.0
 11
215.0
 21
287.0
 31
0.0
  0
LINE
  5
1A4
330
1F
100
AcDbEntity
  8
0
  6
Continuous
 62
     7
370
    18
100
AcDbLine
 10
265.0
 20
10.0
 30
0.0
 11
265.0
 21
5.0
 31
0.0
  0
LINE
  5
1A5
330
1F
100
AcDbEntity
  8
0
  6
Continuous
 62
     7
370
    18
100
AcDbLine
 10
265.0
 20
292.0
 30
0.0
 11
265.0
 21
287.0
 31
0.0
  0
LINE
  5
1A6
330
1F
100
AcDbEntity
  8
0
  6
Continuous
 62
     7
370
    18
100
AcDbLine
 10
347.6610845472
 20
20.0
 30
0.0
 11
347.6610845472
 21
10.0
 31
0.0
  0
LINE
  5
1A7
330
1F
100
AcDbEntity
  8
0
  6
Continuous
 62
     7
370
    18
100
AcDbLine
 10
362.6610845472
 20
20.0
 30
0.0
 11
362.6610845472
 21
10.0
 31
0.0
  0
LINE
  5
1A8
330
1F
100
AcDbEntity
  8
0
  6
Continuous
 62
     7
370
    25
100
AcDbLine
 10
327.6610845472
 20
10.0
 30
0.0
 11
327.6610845472
 21
55.0
 31
0.0
  0
LINE
  5
1A9
330
1F
100
AcDbEntity
  8
0
  6
Continuous
 62
     7
370
    18
100
AcDbLine
 10
20.0
 20
292.0
 30
0.0
 11
20.0
 21
297.0
 31
0.0
  0
LINE
  5
1AA
330
1F
100
AcDbEntity
  8
0
  6
Continuous
 62
     7
370
    18
100
AcDbLine
 10
20.0
 20
5.0
 30
0.0
 11
20.0
 21
0.0
 31
0.0
  0
LINE
  5
1AB
330
1F
100
AcDbEntity
  8
0
  6
Continuous
 62
     7
370
    18
100
AcDbLine
 10
315.0
 20
10.0
 30
0.0
 11
315.0
 21
5.0
 31
0.0
  0
LINE
  5
1AC
330
1F
100
AcDbEntity
  8
0
  6
Continuous
 62
     7
370
    18
100
AcDbLine
 10
315.0
 20
292.0
 30
0.0
 11
315.0
 21
287.0
 31
0.0
  0
LINE
  5
1AD
330
1F
100
AcDbEntity
  8
0
  6
Continuous
 62
     7
370
    18
100
AcDbLine
 10
365.0
 20
10.0
 30
0.0
 11
365.0
 21
5.0
 31
0.0
  0
LINE
  5
1AE
330
1F
100
AcDbEntity
  8
0
  6
Continuous
 62
     7
370
    18
100
AcDbLine
 10
365.0
 20
292.0
 30
0.0
 11
365.0
 21
287.0
 31
0.0
  0
LINE
  5
1AF
330
1F
100
AcDbEntity
  8
0
  6
Continuous
 62
     7
370
    18
100
AcDbLine
 10
15.0
 20
292.0
 30
0.0
 11
15.0
 21
5.0
 31
0.0
  0
LINE
  5
1B0
330
1F
100
AcDbEntity
  8
0
  6
Continuous
 62
     7
370
    18
100
AcDbLine
 10
15.0
 20
5.0
 30
0.0
 11
415.0
 21
5.0
 31
0.0
  0
LINE
  5
1B1
330
1F
100
AcDbEntity
  8
0
  6
Continuous
 62
     7
370
    18
100
AcDbLine
 10
415.0
 20
292.0
 30
0.0
 11
415.0
 21
5.0
 31
0.0
  0
LINE
  5
1B2
330
1F
100
AcDbEntity
  8
0
  6
Continuous
 62
     7
370
    18
100
AcDbLine
 10
347.6610845472
 20
44.213444
 30
0.0
 11
327.6610845472
 21
44.213444
 31
0.0
  0
LINE
  5
1B3
330
1F
100
AcDbEntity
  8
0
  6
Continuous
 62
     7
370
    18
100
AcDbLine
 10
347.6610845472
 20
35.0
 30
0.0
 11
347.6610845472
 21
55.0
 31
0.0
  0
LINE
  5
1B4
330
1F
100
AcDbEntity
  8
0
  6
Continuous
 62
     7
370
    18
100
AcDbLine
 10
370.057188
 20
55.012032
 30
0.0
 11
370.057188
 21
35.0
 31
0.0
  0
LINE
  5
1B5
330
1F
100
AcDbEntity
  8
0
  6
Continuous
 62
     7
370
    18
100
AcDbLine
 10
398.0
 20
35.0
 30
0.0
 11
398.0
 21
20.0
 31
0.0
  0
LINE
  5
1B6
330
1F
100
AcDbEntity
  8
0
  6
Continuous
 62
     7
370
    18
100
AcDbLine
 10
410.0
 20
15.0
 30
0.0
 11
327.6610845472
 21
15.0
 31
0.0
  0
LINE
  5
1B7
330
1F
100
AcDbEntity
  8
0
  6
Continuous
 62
     7
370
    18
100
AcDbLine
 10
327.6610845472
 20
20.0
 30
0.0
 11
410.0
 21
20.0
 31
0.0
  0
LINE
  5
1B8
330
1F
100
AcDbEntity
  8
0
  6
Continuous
 62
     7
370
    18
100
AcDbLine
 10
341.485486
 20
20.0
 30
0.0
 11
341.485486
 21
27.564675
 31
0.0
  0
LINE
  5
1B9
330
1F
100
AcDbEntity
  8
0
  6
Continuous
 62
     7
370
    25
100
AcDbLine
 10
310.0
 20
76.5
 30
0.0
 11
310.0
 21
55.0
 31
0.0
  0
CIRCLE
  5
1BA
330
1F
100
AcDbEntity
  8
0
  6
Continuous
 62
     7
370
    18
100
AcDbCircle
 10
11.0
 20
108.5
 30
0.0
 40
2.750000000000001
  0
CIRCLE
  5
1BB
330
1F
100
AcDbEntity
  8
0
  6
Continuous
 62
     7
370
    18
100
AcDbCircle
 10
11.0
 20
188.5
 30
0.0
 40
2.750000000000001
  0
CIRCLE
  5
1BC
330
1F
100
AcDbEntity
  8
0
  6
Continuous
 62
     7
370
    18
100
AcDbCircle
 10
352.6174545849
 20
43.1536640226
 30
0.0
 40
3.218346681300138
  0
CIRCLE
  5
1BD
330
1F
100
AcDbEntity
  8
0
  6
Continuous
 62
     7
370
    18
100
AcDbCircle
 10
352.6174545849
 20
43.1536640226
 30
0.0
 40
1.583958554121555
  0
INSERT
  5
1BE
330
1F
100
AcDbEntity
  8
0
  6
Continuous
 62
     7
100
AcDbBlockReference
  2
ACO-Logo
 10
314.3510726297
 20
57.6366106772
 30
0.0
  0
POINT
  5
1BF
330
1F
100
AcDbEntity
  8
0
100
AcDbPoint
 10
0.0
 20
0.0
 30
0.0
  0
POINT
  5
1C0
330
1F
100
AcDbEntity
  8
0
100
AcDbPoint
 10
410.0
 20
10.0
 30
0.0
  0
MTEXT
  5
1C1
330
1F
100
AcDbEntity
  8
0
  6
Continuous
 62
     7
370
    18
100
AcDbMText
 10
17.7359443114
 20
124.8017866468
 30
0.0
 40
2.0
 41
0.0
 71
     2
 72
     1
  1
D
  7
SLDTEXTSTYLE0
 73
     1
 44
1.0
  0
MTEXT
  5
1C2
330
1F
100
AcDbEntity
  8
0
  6
Continuous
 62
     7
370
    18
100
AcDbMText
 10
17.6274822413
 20
174.7261854936
 30
0.0
 40
2.0
 41
0.0
 71
     2
 72
     1
  1
C
  7
SLDTEXTSTYLE0
 73
     1
 44
1.0
  0
MTEXT
  5
1C3
330
1F
100
AcDbEntity
  8
0
  6
Continuous
 62
     7
370
    18
100
AcDbMText
 10
17.5516905072
 20
224.4926420442
 30
0.0
 40
2.0
 41
0.0
 71
     2
 72
     1
  1
B
  7
SLDTEXTSTYLE0
 73
     1
 44
1.0
  0
MTEXT
  5
1C4
330
1F
100
AcDbEntity
  8
0
  6
Continuous
 62
     7
370
    18
100
AcDbMText
 10
290.0344258799
 20
290.5428789914
 30
0.0
 40
2.0
 41
0.0
 71
     2
 72
     1
  1
6
  7
SLDTEXTSTYLE0
 73
     1
 44
1.0
  0
MTEXT
  5
1C5
330
1F
100
AcDbEntity
  8
0
  6
Continuous
 62
     7
370
    18
100
AcDbMText
 10
240.0417859812
 20
290.6369260235
 30
0.0
 40
2.0
 41
0.0
 71
     2
 72
     1
  1
5
  7
SLDTEXTSTYLE0
 73
     1
 44
1.0
  0
MTEXT
  5
1C6
330
1F
100
AcDbEntity
  8
0
  6
Continuous
 62
     7
370
    18
100
AcDbMText
 10
190.0300404524
 20
290.6343268032
 30
0.0
 40
2.0
 41
0.0
 71
     2
 72
     1
  1
4
  7
SLDTEXTSTYLE0
 73
     1
 44
1.0
  0
MTEXT
  5
1C7
330
1F
100
AcDbEntity
  8
0
  6
Continuous
 62
     7
370
    18
100
AcDbMText
 10
140.0165868337
 20
290.6378887952
 30
0.0
 40
2.0
 41
0.0
 71
     2
 72
     1
  1
3
  7
SLDTEXTSTYLE0
 73
     1
 44
1.0
  0
MTEXT
  5
1C8
330
1F
100
AcDbEntity
  8
0
  6
Continuous
 62
     7
370
    18
100
AcDbMText
 10
90.033223
 20
290.5566702875
 30
0.0
 40
2.0
 41
0.0
 71
     2
 72
     1
  1
2
  7
SLDTEXTSTYLE0
 73
     1
 44
1.0
  0
MTEXT
  5
1C9
330
1F
100
AcDbEntity
  8
0
  6
Continuous
 62
     7
370
    18
100
AcDbMText
 10
40.0509551097
 20
290.5530165805
 30
0.0
 40
2.0
 41
0.0
 71
     2
 72
     1
  1
1
  7
SLDTEXTSTYLE0
 73
     1
 44
1.0
  0
MTEXT
  5
1CA
330
1F
100
AcDbEntity
  8
0
  6
Continuous
 62
     7
370
    18
100
AcDbMText
 10
17.5609786315
 20
271.2966048816
 30
0.0
 40
2.0
 41
0.0
 71
     2
 72
     1
  1
A
  7
SLDTEXTSTYLE0
 73
     1
 44
1.0
  0
MTEXT
  5
1CB
330
1F
100
AcDbEntity
  8
0
  6
Continuous
 62
     7
370
    18
100
AcDbMText
 10
89.9333968896
 20
8.5904490253
 30
0.0
 40
2.0
 41
0.0
 71
     2
 72
     1
  1
2
  7
SLDTEXTSTYLE0
 73
     1
 44
1.0
  0
MTEXT
  5
1CC
330
1F
100
AcDbEntity
  8
0
  6
Continuous
 62
     7
370
    18
100
AcDbMText
 10
39.9009486579
 20
8.6623118453
 30
0.0
 40
2.0
 41
0.0
 71
     2
 72
     1
  1
1
  7
SLDTEXTSTYLE0
 73
     1
 44
1.0
  0
MTEXT
  5
1CD
330
1F
100
AcDbEntity
  8
0
  6
Continuous
 62
     7
370
    18
100
AcDbMText
 10
190.0227230239
 20
8.7073169286
 30
0.0
 40
2.0
 41
0.0
 71
     2
 72
     1
  1
4
  7
SLDTEXTSTYLE0
 73
     1
 44
1.0
  0
MTEXT
  5
1CE
330
1F
100
AcDbEntity
  8
0
  6
Continuous
 62
     7
370
    18
100
AcDbMText
 10
140.0453427777
 20
8.5647154541
 30
0.0
 40
2.0
 41
0.0
 71
     2
 72
     1
  1
3
  7
SLDTEXTSTYLE0
 73
     1
 44
1.0
  0
MTEXT
  5
1CF
330
1F
100
AcDbEntity
  8
0
  6
Continuous
 62
     7
370
    18
100
AcDbMText
 10
239.8749782531
 20
8.5637526825
 30
0.0
 40
2.0
 41
0.0
 71
     2
 72
     1
  1
5
  7
SLDTEXTSTYLE0
 73
     1
 44
1.0
  0
MTEXT
  5
1D0
330
1F
100
AcDbEntity
  8
0
  6
Continuous
 62
     7
370
    18
100
AcDbMText
 10
412.6717254925
 20
224.51208263
 30
0.0
 40
2.0
 41
0.0
 71
     2
 72
     1
  1
B
  7
SLDTEXTSTYLE0
 73
     1
 44
1.0
  0
MTEXT
  5
1D1
330
1F
100
AcDbEntity
  8
0
  6
Continuous
 62
     7
370
    18
100
AcDbMText
 10
412.5951211154
 20
271.2798202564
 30
0.0
 40
2.0
 41
0.0
 71
     2
 72
     1
  1
A
  7
SLDTEXTSTYLE0
 73
     1
 44
1.0
  0
MTEXT
  5
1D2
330
1F
100
AcDbEntity
  8
0
  6
Continuous
 62
     7
370
    18
100
AcDbMText
 10
412.6491448679
 20
174.7279841048
 30
0.0
 40
2.0
 41
0.0
 71
     2
 72
     1
  1
C
  7
SLDTEXTSTYLE0
 73
     1
 44
1.0
  0
MTEXT
  5
1D3
330
1F
100
AcDbEntity
  8
0
  6
Continuous
 62
     7
370
    18
100
AcDbMText
 10
340.0216466634
 20
290.5954278102
 30
0.0
 40
2.0
 41
0.0
 71
     2
 72
     1
  1
7
  7
SLDTEXTSTYLE0
 73
     1
 44
1.0
  0
MTEXT
  5
1D4
330
1F
100
AcDbEntity
  8
0
  6
Continuous
 62
     7
370
    18
100
AcDbMText
 10
390.037657264
 20
290.6215496941
 30
0.0
 40
2.0
 41
0.0
 71
     2
 72
     1
  1
8
  7
SLDTEXTSTYLE0
 73
     1
 44
1.0
  0
MTEXT
  5
1D5
330
1F
100
AcDbEntity
  8
0
  6
Continuous
 62
     7
370
    18
100
AcDbMText
 10
17.6897935208
 20
74.7267628143
 30
0.0
 40
2.0
 41
0.0
 71
     2
 72
     1
  1
E
  7
SLDTEXTSTYLE0
 73
     1
 44
1.0
  0
MTEXT
  5
1D6
330
1F
100
AcDbEntity
  8
0
  6
Continuous
 62
     7
370
    18
100
AcDbMText
 10
17.5936930126
 20
27.773321616
 30
0.0
 40
2.0
 41
0.0
 71
     2
 72
     1
  1
F
  7
SLDTEXTSTYLE0
 73
     1
 44
1.0
  0
MTEXT
  5
1D7
330
1F
100
AcDbEntity
  8
0
  6
Continuous
 62
     7
370
    18
100
AcDbMText
 10
339.8003474583
 20
8.7205095051
 30
0.0
 40
2.0
 41
0.0
 71
     2
 72
     1
  1
7
  7
SLDTEXTSTYLE0
 73
     1
 44
1.0
  0
MTEXT
  5
1D8
330
1F
100
AcDbEntity
  8
0
  6
Continuous
 62
     7
370
    18
100
AcDbMText
 10
289.7886477179
 20
8.6884673623
 30
0.0
 40
2.0
 41
0.0
 71
     2
 72
     1
  1
6
  7
SLDTEXTSTYLE0
 73
     1
 44
1.0
  0
MTEXT
  5
1D9
330
1F
100
AcDbEntity
  8
0
  6
Continuous
 62
     7
370
    18
100
AcDbMText
 10
412.5160699095
 20
74.5096307526
 30
0.0
 40
2.0
 41
0.0
 71
     2
 72
     1
  1
E
  7
SLDTEXTSTYLE0
 73
     1
 44
1.0
  0
MTEXT
  5
1DA
330
1F
100
AcDbEntity
  8
0
  6
Continuous
 62
     7
370
    18
100
AcDbMText
 10
412.6234021365
 20
124.4517683275
 30
0.0
 40
2.0
 41
0.0
 71
     2
 72
     1
  1
D
  7
SLDTEXTSTYLE0
 73
     1
 44
1.0
  0
MTEXT
  5
1DB
330
1F
100
AcDbEntity
  8
0
  6
Continuous
 62
     7
370
    18
100
AcDbMText
 10
411.7952690469
 20
41.9032883822
 30
0.0
 40
1.8
 41
0.0
 71
     3
 72
     1
  1
Plotdatum: 04.11.2024
  7
SLDTEXTSTYLE0
 11
-3.269436733918102E-15
 21
1.0
 31
0.0
 73
     1
 44
1.0
  0
MTEXT
  5
1DC
330
1F
100
AcDbEntity
  8
0
  6
Continuous
 62
     7
370
    18
100
AcDbMText
 10
412.557933251
 20
8.2549718046
 30
0.0
 40
1.8
 41
0.0
 71
     2
 72
     1
  1
A3
  7
SLDTEXTSTYLE0
 73
     1
 44
1.0
  0
MTEXT
  5
1DD
330
1F
100
AcDbEntity
  8
0
  6
Continuous
 62
     7
370
    18
100
AcDbMText
 10
390.594604279
 20
8.3847467643
 30
0.0
 40
1.8
 41
0.0
 71
     2
 72
     1
  1
CAD-System: SolidWorks
  7
SLDTEXTSTYLE0
 73
     1
 44
1.0
  0
MTEXT
  5
1DE
330
1F
100
AcDbEntity
  8
0
  6
Continuous
 62
     7
370
    18
100
AcDbMText
 10
404.0455117056
 20
28.4394692021
 30
0.0
 40
5.0
 41
0.0
 71
     2
 72
     1
  1
D
  7
SLDTEXTSTYLE0
 73
     1
 44
1.0
  0
MTEXT
  5
1DF
330
1F
100
AcDbEntity
  8
0
  6
Continuous
 62
     7
370
    18
100
AcDbMText
 10
249.556836311
 20
38.5581729516
 30
0.0
 40
2.0
 41
0.0
 71
     1
 72
     1
  1
Freigegeben
  7
SLDTEXTSTYLE0
 73
     1
 44
1.0
  0
MTEXT
  5
1E0
330
1F
100
AcDbEntity
  8
0
  6
Continuous
 62
     7
370
    18
100
AcDbMText
 10
284.1136255556
 20
43.5473338598
 30
0.0
 40
2.0
 41
0.0
 71
     2
 72
     1
  1
bae
  7
SLDTEXTSTYLE0
 73
     1
 44
1.0
  0
MTEXT
  5
1E1
330
1F
100
AcDbEntity
  8
0
  6
Continuous
 62
     7
370
    18
100
AcDbMText
 10
249.5284668163
 20
43.5603133928
 30
0.0
 40
2.0
 41
0.0
 71
     1
 72
     1
  1
04.11.2024
  7
SLDTEXTSTYLE0
 73
     1
 44
1.0
  0
MTEXT
  5
1E2
330
1F
100
AcDbEntity
  8
0
  6
Continuous
 62
     7
370
     0
100
AcDbMText
 10
372.2007348103
 20
38.8723054925
 30
0.0
 40
1.5
 41
0.0
 71
     1
 72
     1
  1
Copyright reserved! © ACO AG
  7
SLDTEXTSTYLE0
 73
     1
 44
1.0
  0
MTEXT
  5
1E3
330
1F
100
AcDbEntity
  8
0
  6
Continuous
 62
     7
370
     0
100
AcDbMText
 10
372.2203831445
 20
53.1538938951
 30
0.0
 40
1.5
 41
0.0
 71
     1
 72
     1
  1
Diese Zeichnung darf weder kopiert^Jnoch dritten Personen, insbesondere^Jzum Zweck anderweitiger Benutzung^Jmitgeteilt werden und bleibt unser^JEigentum.
  7
SLDTEXTSTYLE0
 73
     1
 44
1.0
  0
MTEXT
  5
1E4
330
1F
100
AcDbEntity
  8
0
  6
Continuous
 62
     7
370
    18
100
AcDbMText
 10
340.2621210135
 20
13.606872109
 30
0.0
 40
2.0
 41
0.0
 71
     2
 72
     1
  1
07.10.2024
  7
SLDTEXTSTYLE0
 73
     1
 44
1.0
  0
MTEXT
  5
1E5
330
1F
100
AcDbEntity
  8
0
  6
Continuous
 62
     7
370
    18
100
AcDbMText
 10
364.9468572407
 20
13.5417229519
 30
0.0
 40
2.0
 41
0.0
 71
     1
 72
     1
  1
fix
  7
SLDTEXTSTYLE0
 73
     1
 44
1.0
  0
MTEXT
  5
1E6
330
1F
100
AcDbEntity
  8
0
  6
Continuous
 62
     7
370
    18
100
AcDbMText
 10
354.2676663079
 20
13.606872109
 30
0.0
 40
2.0
 41
0.0
 71
     2
 72
     1
  1
bae
  7
SLDTEXTSTYLE0
 73
     1
 44
1.0
  0
MTEXT
  5
1E7
330
1F
100
AcDbEntity
  8
0
  6
Continuous
 62
     7
370
    18
100
AcDbMText
 10
330.2617921867
 20
13.524501801
 30
0.0
 40
2.0
 41
0.0
 71
     2
 72
     1
  1
C
  7
SLDTEXTSTYLE0
 73
     1
 44
1.0
  0
MTEXT
  5
1E8
330
1F
100
AcDbEntity
  8
0
  6
Continuous
 62
     7
370
    18
100
AcDbMText
 10
364.9468572407
 20
18.4594173137
 30
0.0
 40
2.0
 41
0.0
 71
     1
 72
     1
  1
SAP-Nr. NEU
  7
SLDTEXTSTYLE0
 73
     1
 44
1.0
  0
MTEXT
  5
1E9
330
1F
100
AcDbEntity
  8
0
  6
Continuous
 62
     7
370
    18
100
AcDbMText
 10
354.2676663079
 20
18.5245664709
 30
0.0
 40
2.0
 41
0.0
 71
     2
 72
     1
  1
bae
  7
SLDTEXTSTYLE0
 73
     1
 44
1.0
  0
MTEXT
  5
1EA
330
1F
100
AcDbEntity
  8
0
  6
Continuous
 62
     7
370
    18
100
AcDbMText
 10
340.3349862851
 20
18.5245664709
 30
0.0
 40
2.0
 41
0.0
 71
     2
 72
     1
  1
04.11.2024
  7
SLDTEXTSTYLE0
 73
     1
 44
1.0
  0
MTEXT
  5
1EB
330
1F
100
AcDbEntity
  8
0
  6
Continuous
 62
     7
370
    18
100
AcDbMText
 10
330.2689102269
 20
18.524501801
 30
0.0
 40
2.0
 41
0.0
 71
     2
 72
     1
  1
D
  7
SLDTEXTSTYLE0
 73
     1
 44
1.0
  0
MTEXT
  5
1EC
330
1F
100
AcDbEntity
  8
0
  6
Continuous
 62
     7
370
    18
100
AcDbMText
 10
311.764909851
 20
46.3490312465
 30
0.0
 40
5.0
 41
0.0
 71
     2
 72
     1
  1
1:1
  7
SLDTEXTSTYLE0
 73
     1
 44
1.0
  0
MTEXT
  5
1ED
330
1F
100
AcDbEntity
  8
0
  6
Continuous
 62
     7
370
    18
100
AcDbMText
 10
230.1851195342
 20
38.7793829468
 30
0.0
 40
2.0
 41
0.0
 71
     1
 72
     1
  1
Status:
  7
SLDTEXTSTYLE0
 73
     1
 44
1.0
  0
MTEXT
  5
1EE
330
1F
100
AcDbEntity
  8
0
  6
Continuous
 62
     7
370
    18
100
AcDbMText
 10
344.926838705
 20
28.2772828851
 30
0.0
 40
5.0
 41
0.0
 71
     1
 72
     1
  1
3008704
  7
SLDTEXTSTYLE0
 73
     1
 44
1.0
  0
MTEXT
  5
1EF
330
1F
100
AcDbEntity
  8
0
  6
Continuous
 62
     7
370
    18
100
AcDbMText
 10
231.1132118803
 20
14.9211049657
 30
0.0
 40
2.5
 41
0.0
 71
     1
 72
     1
  1
Art. Nr.: 3008704
  7
SLDTEXTSTYLE0
 73
     1
 44
1.0
  0
MTEXT
  5
1F0
330
1F
100
AcDbEntity
  8
0
  6
Continuous
 62
     7
370
    18
100
AcDbMText
 10
231.1475981734
 20
21.4529560996
 30
0.0
 40
2.5
 41
0.0
 71
     1
 72
     1
  1
Passend zu Aufsatzstücken/Verlängerungen
  7
SLDTEXTSTYLE0
 73
     1
 44
1.0
  0
MTEXT
  5
1F1
330
1F
100
AcDbEntity
  8
0
  6
Continuous
 62
     7
370
    18
100
AcDbMText
 10
231.1159560181
 20
33.0904969858
 30
0.0
 40
2.5
 41
0.0
 71
     1
 72
     1
  1
ACO-Standard
  7
SLDTEXTSTYLE0
 73
     1
 44
1.0
  0
MTEXT
  5
1F2
330
1F
100
AcDbEntity
  8
0
  6
Continuous
 62
     7
370
    18
100
AcDbMText
 10
231.1475981734
 20
28.0307932366
 30
0.0
 40
3.5
 41
0.0
 71
     1
 72
     1
  1
Haltering mit Dicht-/Sickerfunktion
  7
SLDTEXTSTYLE0
 73
     1
 44
1.0
  0
MTEXT
  5
1F3
330
1F
100
AcDbEntity
  8
0
  6
Continuous
 62
     7
370
    18
100
AcDbMText
 10
348.2746465368
 20
53.819119072
 30
0.0
 40
2.0
 41
0.0
 71
     1
 72
     1
  1
Projektion: ISO-E
  7
SLDTEXTSTYLE0
 73
     1
 44
1.0
  0
MTEXT
  5
1F4
330
1F
100
AcDbEntity
  8
0
  6
Continuous
 62
     7
370
    18
100
AcDbMText
 10
337.7677091855
 20
49.3670227094
 30
0.0
 40
2.5
 41
0.0
 71
     2
 72
     1
  1
Millimeter
  7
SLDTEXTSTYLE0
 73
     1
 44
1.0
  0
MTEXT
  5
1F5
330
1F
100
AcDbEntity
  8
0
  6
Continuous
 62
     7
370
    18
100
AcDbMText
 10
337.6323777421
 20
53.855374072
 30
0.0
 40
2.0
 41
0.0
 71
     2
 72
     1
  1
Masseinheit:
  7
SLDTEXTSTYLE0
 73
     1
 44
1.0
  0
MTEXT
  5
1F6
330
1F
100
AcDbEntity
  8
0
  6
Continuous
 62
     7
370
    18
100
AcDbMText
 10
337.6114490186
 20
43.5452078816
 30
0.0
 40
2.0
 41
0.0
 71
     2
 72
     1
  1
Blatt / Anz.:
  7
SLDTEXTSTYLE0
 73
     1
 44
1.0
  0
MTEXT
  5
1F7
330
1F
100
AcDbEntity
  8
0
  6
Continuous
 62
     7
370
    18
100
AcDbMText
 10
329.2895578243
 20
28.4139191092
 30
0.0
 40
5.0
 41
0.0
 71
     1
 72
     1
  1
CH
  7
SLDTEXTSTYLE0
 73
     1
 44
1.0
  0
MTEXT
  5
1F8
330
1F
100
AcDbEntity
  8
0
  6
Continuous
 62
     7
370
    18
100
AcDbMText
 10
330.40704
 20
33.692638072
 30
0.0
 40
2.0
 41
0.0
 71
     1
 72
     1
  1
Zeichnung Nr.:
  7
SLDTEXTSTYLE0
 73
     1
 44
1.0
  0
MTEXT
  5
1F9
330
1F
100
AcDbEntity
  8
0
  6
Continuous
 62
     7
370
    18
100
AcDbMText
 10
269.897953
 20
75.161075072
 30
0.0
 40
2.0
 41
0.0
 71
     1
 72
     1
  1
Gewicht:
  7
SLDTEXTSTYLE0
 73
     1
 44
1.0
  0
MTEXT
  5
1FA
330
1F
100
AcDbEntity
  8
0
  6
Continuous
 62
     7
370
    18
100
AcDbMText
 10
230.0
 20
64.542328072
 30
0.0
 40
2.0
 41
0.0
 71
     1
 72
     1
  1
zul. Abweichung:
  7
SLDTEXTSTYLE0
 73
     1
 44
1.0
  0
MTEXT
  5
1FB
330
1F
100
AcDbEntity
  8
0
  6
Continuous
 62
     7
370
    18
100
AcDbMText
 10
269.612607
 20
64.542328072
 30
0.0
 40
2.0
 41
0.0
 71
     1
 72
     1
  1
Oberfläche:
  7
SLDTEXTSTYLE0
 73
     1
 44
1.0
  0
MTEXT
  5
1FC
330
1F
100
AcDbEntity
  8
0
  6
Continuous
 62
     7
370
    18
100
AcDbMText
 10
230.261411
 20
43.4433838912
 30
0.0
 40
2.0
 41
0.0
 71
     1
 72
     1
  1
Freigegeben:
  7
SLDTEXTSTYLE0
 73
     1
 44
1.0
  0
MTEXT
  5
1FD
330
1F
100
AcDbEntity
  8
0
  6
Continuous
 62
     7
370
    18
100
AcDbMText
 10
230.0
 20
75.161075072
 30
0.0
 40
2.0
 41
0.0
 71
     1
 72
     1
  1
Werkstoff:
  7
SLDTEXTSTYLE0
 73
     1
 44
1.0
  0
MTEXT
  5
1FE
330
1F
100
AcDbEntity
  8
0
  6
Continuous
 62
     7
370
    18
100
AcDbMText
 10
254.035545
 20
53.129475072
 30
0.0
 40
2.0
 41
0.0
 71
     1
 72
     1
  1
Datum:
  7
SLDTEXTSTYLE0
 73
     1
 44
1.0
  0
MTEXT
  5
1FF
330
1F
100
AcDbEntity
  8
0
  6
Continuous
 62
     7
370
    18
100
AcDbMText
 10
279.934928
 20
53.136060072
 30
0.0
 40
2.0
 41
0.0
 71
     1
 72
     1
  1
Name:
  7
SLDTEXTSTYLE0
 73
     1
 44
1.0
  0
MTEXT
  5
200
330
1F
100
AcDbEntity
  8
0
  6
Continuous
 62
     7
370
    18
100
AcDbMText
 10
312.162455406
 20
53.881591072
 30
0.0
 40
2.0
 41
0.0
 71
     2
 72
     1
  1
Massstab:
  7
SLDTEXTSTYLE0
 73
     1
 44
1.0
  0
MTEXT
  5
201
330
1F
100
AcDbEntity
  8
0
  6
Continuous
 62
     7
370
    18
100
AcDbMText
 10
403.9552944035
 20
33.324874072
 30
0.0
 40
2.0
 41
0.0
 71
     2
 72
     1
  1
Index:
  7
SLDTEXTSTYLE0
 73
     1
 44
1.0
  0
MTEXT
  5
202
330
1F
100
AcDbEntity
  8
0
  6
Continuous
 62
     7
370
    18
100
AcDbMText
 10
230.261411
 20
48.4499477886
 30
0.0
 40
2.0
 41
0.0
 71
     1
 72
     1
  1
Erstellt:
  7
SLDTEXTSTYLE0
 73
     1
 44
1.0
  0
MTEXT
  5
204
330
1F
100
AcDbEntity
  8
0
  6
Continuous
 62
     7
370
    18
100
AcDbMText
 10
337.6348165843
 20
39.869706576
 30
0.0
 40
2.5
 41
0.0
 71
     2
 72
     1
  1
1 / 2
  7
SLDTEXTSTYLE1
 73
     1
 44
1.0
  0
MTEXT
  5
205
330
1F
100
AcDbEntity
  8
0
  6
Continuous
 62
     7
370
    18
100
AcDbMText
 10
269.612607
 20
60.8119428599
 30
0.0
 40
3.0
 41
0.0
 71
     1
 72
     1
  1
DIN ISO 1302
  7
SLDTEXTSTYLE0
 73
     1
 44
1.0
  0
MTEXT
  5
206
330
1F
100
AcDbEntity
  8
0
  6
Continuous
 62
     7
370
    18
100
AcDbMText
 10
230.0
 20
60.8119428599
 30
0.0
 40
3.0
 41
0.0
 71
     1
 72
     1
  1
Norm
  7
SLDTEXTSTYLE0
 73
     1
 44
1.0
  0
MTEXT
  5
207
330
1F
100
AcDbEntity
  8
0
  6
Continuous
 62
     7
370
    18
100
AcDbMText
 10
269.612607
 20
71.2121947186
 30
0.0
 40
3.0
 41
0.0
 71
     1
 72
     1
  1
0.11 kg
  7
SLDTEXTSTYLE0
 73
     1
 44
1.0
  0
MTEXT
  5
208
330
1F
100
AcDbEntity
  8
0
  6
Continuous
 62
     7
370
    18
100
AcDbMText
 10
230.0
 20
71.2121947186
 30
0.0
 40
3.0
 41
0.0
 71
     1
 72
     1
  1
EPDM / NBR
  7
SLDTEXTSTYLE0
 73
     1
 44
1.0
  0
SPLINE
  5
209
330
1F
100
AcDbEntity
  8
0
  6
Continuous
 62
     7
370
    25
100
AcDbSpline
210
0.0
220
0.0
230
1.0
 70
     8
 71
     3
 72
    11
 73
     7
 74
     0
 42
0.00000001
 43
0.00000001
 40
0.0
 40
0.0
 40
0.0
 40
0.0
 40
0.2067095075274363
 40
0.5917205390760074
 40
0.981646991536208
 40
0.9999999999999999
 40
0.9999999999999999
 40
0.9999999999999999
 40
0.9999999999999999
 10
235.2445041823887
 20
170.1796738210863
 30
0.0
 10
235.3087821422797
 20
169.7742688281567
 30
0.0
 10
235.4927823342998
 20
168.6137684533562
 30
0.0
 10
236.0151033693992
 20
166.7104186261477
 30
0.0
 10
236.4836620112525
 20
165.1775371272107
 30
0.0
 10
236.8143290660925
 20
164.4046809579774
 30
0.0
 10
236.8291932359492
 20
164.3699394704112
 30
0.0
  0
SPLINE
  5
20A
330
1F
100
AcDbEntity
  8
0
  6
Continuous
 62
     7
370
    25
100
AcDbSpline
210
0.0
220
0.0
230
1.0
 70
     8
 71
     3
 72
    57
 73
    53
 74
     0
 42
0.00000001
 43
0.00000001
 40
0.0
 40
0.0
 40
0.0
 40
0.0
 40
0.0070049334988765
 40
0.0292978899766273
 40
0.0515980077197426
 40
0.0738993409893528
 40
0.0961969560866976
 40
0.1184855348214901
 40
0.1407620870073236
 40
0.1630239147835505
 40
0.1852684416866398
 40
0.2074929528024479
 40
0.2296942775215577
 40
0.2518683716517255
 40
0.2740097128466099
 40
0.2961103486889648
 40
0.3181582785174329
 40
0.3401344878163671
 40
0.3620070468947718
 40
0.3837181452414644
 40
0.4051516978256869
 40
0.4260364270950386
 40
0.4455583401210911
 40
0.4615495814759258
 40
0.4750952059565668
 40
0.4918615420406712
 40
0.5002553572681697
 40
0.5247614341729154
 40
0.5345819872587767
 40
0.5508931050920642
 40
0.5678041773761837
 40
0.5859249330595361
 40
0.6048174469203866
 40
0.6243053684513554
 40
0.6442479522572039
 40
0.6645453195084043
 40
0.6851237297500719
 40
0.7059278287105444
 40
0.7269153423829002
 40
0.7480535099108528
 40
0.769316628742185
 40
0.7906843337981172
 40
0.8121403690187061
 40
0.8336716949525729
 40
0.8552678292966944
 40
0.8769203511620374
 40
0.8986225218973454
 40
0.9203689901782266
 40
0.9421555597023323
 40
0.9639780380655341
 40
0.9858334973133189
 40
1.0
 40
1.0
 40
1.0
 40
1.0
 10
247.400432870228
 20
149.5248757218367
 30
0.0
 10
247.5967181812598
 20
149.3396032368282
 30
0.0
 10
248.4176746468077
 20
148.5647075319158
 30
0.0
 10
249.9953163596181
 20
147.255748317134
 30
0.0
 10
252.1303651907052
 20
145.6023135185957
 30
0.0
 10
254.395580131205
 20
144.0134981232401
 30
0.0
 10
256.7740097651458
 20
142.487277392975
 30
0.0
 10
259.2636625890202
 20
141.0277292074635
 30
0.0
 10
261.8583127261674
 20
139.6370734903613
 30
0.0
 10
264.5526880170517
 20
138.3178024386384
 30
0.0
 10
267.3410145166127
 20
137.0721549482003
 30
0.0
 10
270.217364412283
 20
135.9022728478927
 30
0.0
 10
273.1755223881337
 20
134.8101617685042
 30
0.0
 10
276.2089574740473
 20
133.7977024439245
 30
0.0
 10
279.3107270418049
 20
132.8666473272083
 30
0.0
 10
282.4733262199132
 20
132.0186213918517
 30
0.0
 10
285.6884109539763
 20
131.2551244137993
 30
0.0
 10
288.9462625337333
 20
130.577540229465
 30
0.0
 10
292.2346582037293
 20
129.9871633820278
 30
0.0
 10
295.5362020604675
 20
129.485275803095
 30
0.0
 10
298.8208951541287
 20
129.0733947121122
 30
0.0
 10
302.0191176493934
 20
128.7543232350585
 30
0.0
 10
304.9534685761168
 20
128.5323554976522
 30
0.0
 10
307.5158539900207
 20
128.3922986533894
 30
0.0
 10
309.9397749669358
 20
128.3018479095657
 30
0.0
 10
311.9691929855887
 20
128.2621027713166
 30
0.0
 10
314.5741264462329
 20
128.249343382064
 30
0.0
 10
316.8152754369996
 20
128.2813968869676
 30
0.0
 10
319.4667202617616
 20
128.3725273318768
 30
0.0
 10
321.7166312912135
 20
128.4843403956736
 30
0.0
 10
324.3913287670694
 20
128.6696658650743
 30
0.0
 10
327.1872536149026
 20
128.9216273874167
 30
0.0
 10
330.0981625573947
 20
129.24874536616
 30
0.0
 10
333.0786749702012
 20
129.6535031631873
 30
0.0
 10
336.1007978324339
 20
130.1379937128706
 30
0.0
 10
339.1418364391735
 20
130.7033042206969
 30
0.0
 10
342.1835313634023
 20
131.349872914642
 30
0.0
 10
345.2106587907838
 20
132.0776197739367
 30
0.0
 10
348.2101978951058
 20
132.8860520910488
 30
0.0
 10
351.1707681383251
 20
133.7743397885654
 30
0.0
 10
354.0822477790953
 20
134.7413724229378
 30
0.0
 10
356.9355093947852
 20
135.7858040485501
 30
0.0
 10
359.7222340860394
 20
136.906089208845
 30
0.0
 10
362.4347726649635
 20
138.1005150563778
 30
0.0
 10
365.0660592172611
 20
139.3672217226347
 30
0.0
 10
367.6094819369131
 20
140.7042472022196
 30
0.0
 10
370.0590172822956
 20
142.1094646895062
 30
0.0
 10
372.4084467706668
 20
143.5809087374334
 30
0.0
 10
374.6540198223478
 20
145.1156093170418
 30
0.0
 10
376.784181203566
 20
146.7139385591849
 30
0.0
 10
378.5784500155132
 20
148.1691998483364
 30
0.0
 10
379.6084616374642
 20
149.1134425205478
 30
0.0
 10
380.0135384746512
 20
149.4847886559166
 30
0.0
  0
SPLINE
  5
20B
330
1F
100
AcDbEntity
  8
0
  6
Continuous
 62
     7
370
    25
100
AcDbSpline
210
0.0
220
0.0
230
1.0
 70
     8
 71
     3
 72
    11
 73
     7
 74
     0
 42
0.00000001
 43
0.00000001
 40
0.0
 40
0.0
 40
0.0
 40
0.0
 40
0.1988740520732747
 40
0.5622440598214921
 40
0.927261844341033
 40
1.0
 40
1.0
 40
1.0
 40
1.0
 10
390.6151410981648
 20
164.3761751982622
 30
0.0
 10
390.7645895570741
 20
164.754550433969
 30
0.0
 10
391.1871007263053
 20
165.8242688132242
 30
0.0
 10
391.6982630793457
 20
167.618176867797
 30
0.0
 10
392.0833663498766
 20
169.1759988997229
 30
0.0
 10
392.2026143835377
 20
170.034866983492
 30
0.0
 10
392.2224288080567
 20
170.1775777376676
 30
0.0
  0
LINE
  5
20C
330
1F
100
AcDbEntity
  8
0
  6
Continuous
 62
     7
370
    25
100
AcDbLine
 10
356.3302694591
 20
225.4832879671
 30
0.0
 11
354.536619708
 21
226.1659437202
 31
0.0
  0
LINE
  5
20D
330
1F
100
AcDbEntity
  8
0
  6
Continuous
 62
     7
370
    25
100
AcDbLine
 10
272.9215474748
 20
226.1659437202
 30
0.0
 11
271.1278977237
 21
225.4832879671
 31
0.0
  0
SPLINE
  5
20E
330
1F
100
AcDbEntity
  8
0
  6
Continuous
 62
     7
370
    25
100
AcDbSpline
210
0.0
220
0.0
230
1.0
 70
     8
 71
     3
 72
    25
 73
    21
 74
     0
 42
0.00000001
 43
0.00000001
 40
0.0
 40
0.0
 40
0.0
 40
0.0
 40
0.0722264380981874
 40
0.100923681980893
 40
0.1486140391491046
 40
0.1980164682320037
 40
0.2509214039532617
 40
0.3060539398346619
 40
0.3628996891895878
 40
0.4210472804722853
 40
0.480203807860422
 40
0.5401522163971872
 40
0.6007288928575973
 40
0.6618083520858997
 40
0.7232929760498793
 40
0.7851059984558342
 40
0.8471866469125603
 40
0.9094867510871607
 40
0.971968373466986
 40
1.0
 40
1.0
 40
1.0
 40
1.0
 10
313.7290835914205
 20
148.2237134690093
 30
0.0
 10
312.4806584264824
 20
148.2337466861761
 30
0.0
 10
310.736204904465
 20
148.2477663339015
 30
0.0
 10
308.1725590872986
 20
148.3409028440933
 30
0.0
 10
306.0067164261956
 20
148.4510546574468
 30
0.0
 10
303.4335753524729
 20
148.6346178800077
 30
0.0
 10
300.7466334805765
 20
148.8833690484898
 30
0.0
 10
297.9521115647006
 20
149.2059283099316
 30
0.0
 10
295.0940387234076
 20
149.6044587732126
 30
0.0
 10
292.1998174152951
 20
150.080843720165
 30
0.0
 10
289.2917858090136
 20
150.6359031831636
 30
0.0
 10
286.3880348993304
 20
151.2697935161749
 30
0.0
 10
283.5037215234593
 20
151.9821114355539
 30
0.0
 10
280.6519104439647
 20
152.7720366744105
 30
0.0
 10
277.8438975828498
 20
153.6382689338101
 30
0.0
 10
275.0903458301234
 20
154.5795963920011
 30
0.0
 10
272.3986000870443
 20
155.5930159978147
 30
0.0
 10
269.7838594163552
 20
156.6810005393103
 30
0.0
 10
267.6999031692952
 20
157.6133076101002
 30
0.0
 10
266.5243157562606
 20
158.205090825711
 30
0.0
 10
266.1602405770476
 20
158.388363951886
 30
0.0
  0
SPLINE
  5
20F
330
1F
100
AcDbEntity
  8
0
  6
Continuous
 62
     7
370
    25
100
AcDbSpline
210
0.0
220
0.0
230
1.0
 70
     8
 71
     3
 72
    24
 73
    20
 74
     0
 42
0.00000001
 43
0.00000001
 40
0.0
 40
0.0
 40
0.0
 40
0.0
 40
0.0598518421745225
 40
0.1227638635804517
 40
0.1856491891492363
 40
0.2484988023501414
 40
0.3112997435432008
 40
0.3740334594777369
 40
0.4366729245245777
 40
0.4991774454828688
 40
0.5614827612347549
 40
0.6234807051309248
 40
0.6849730091834711
 40
0.7455509274169686
 40
0.8042122201602376
 40
0.8576368561762492
 40
0.8992669786122818
 40
0.9387860488847397
 40
0.9999999999999999
 40
0.9999999999999999
 40
0.9999999999999999
 40
0.9999999999999999
 10
362.3474700390348
 20
158.9070464179075
 30
0.0
 10
361.5488875783599
 20
158.5054997484324
 30
0.0
 10
359.9108917423392
 20
157.6818756332569
 30
0.0
 10
357.3100134069421
 20
156.5205013405803
 30
0.0
 10
354.5832084317596
 20
155.4055577610547
 30
0.0
 10
351.7694272059839
 20
154.3655224143023
 30
0.0
 10
348.87824675437
 20
153.4009336500989
 30
0.0
 10
345.9161511689145
 20
152.51444501094
 30
0.0
 10
342.8912353558645
 20
151.7079343329808
 30
0.0
 10
339.8122948447593
 20
150.9832780402389
 30
0.0
 10
336.6897648011875
 20
150.3421566615205
 30
0.0
 10
333.5369716440643
 20
149.7861398397827
 30
0.0
 10
330.3734493792472
 20
149.3167890990129
 30
0.0
 10
327.2346424966696
 20
148.9359463676598
 30
0.0
 10
324.2112900573297
 20
148.6475997831699
 30
0.0
 10
321.5038180557194
 20
148.4541238976376
 30
0.0
 10
319.1249737714703
 20
148.3330885578085
 30
0.0
 10
316.6029684294536
 20
148.2444045917236
 30
0.0
 10
314.8153764888256
 20
148.2315344572919
 30
0.0
 10
313.7290835914205
 20
148.2237134690093
 30
0.0
  0
SPLINE
  5
210
330
1F
100
AcDbEntity
  8
0
  6
Continuous
 62
     7
370
    25
100
AcDbSpline
210
0.0
220
0.0
230
1.0
 70
     8
 71
     3
 72
    22
 73
    18
 74
     0
 42
0.00000001
 43
0.00000001
 40
0.0
 40
0.0
 40
0.0
 40
0.0
 40
0.0720138541050007
 40
0.1477959363796138
 40
0.223521782410583
 40
0.2991610596016949
 40
0.3746686642930833
 40
0.4499748137211448
 40
0.5249650258110233
 40
0.5994358903701729
 40
0.6729844353189774
 40
0.744677393109699
 40
0.8117319135972129
 40
0.8667602691315817
 40
0.91325981803513
 40
0.970648519933036
 40
1.0
 40
1.0
 40
1.0
 40
1.0
 10
273.7360706791446
 20
215.4035961419164
 30
0.0
 10
274.5747968319387
 20
215.738820900378
 30
0.0
 10
276.2961366860387
 20
216.4268115334336
 30
0.0
 10
279.0062005772802
 20
217.3776551307395
 30
0.0
 10
281.830766555417
 20
218.2750415861906
 30
0.0
 10
284.725135427935
 20
219.0932859994089
 30
0.0
 10
287.6781612260286
 20
219.8322010656251
 30
0.0
 10
290.6804805577485
 20
220.4893382432425
 30
0.0
 10
293.7195069409314
 20
221.0630575253083
 30
0.0
 10
296.7780239731268
 20
221.5516287240481
 30
0.0
 10
299.8270261600804
 20
221.9532014677539
 30
0.0
 10
302.8008259341758
 20
222.2647662983269
 30
0.0
 10
305.5340990413877
 20
222.4818464467779
 30
0.0
 10
307.9226453789583
 20
222.6190850718708
 30
0.0
 10
310.1801186082929
 20
222.707168685283
 30
0.0
 10
312.0762729170931
 20
222.7479205968926
 30
0.0
 10
313.3112031104889
 20
222.7518177425297
 30
0.0
 10
313.7290835914202
 20
222.7531364738246
 30
0.0
  0
SPLINE
  5
211
330
1F
100
AcDbEntity
  8
0
  6
Continuous
 62
     7
370
    25
100
AcDbSpline
210
0.0
220
0.0
230
1.0
 70
     8
 71
     3
 72
    23
 73
    19
 74
     0
 42
0.00000001
 43
0.00000001
 40
0.0
 40
0.0
 40
0.0
 40
0.0
 40
0.0810133647255026
 40
0.1134552744629664
 40
0.1673337364787875
 40
0.2231782029669073
 40
0.2829984425851438
 40
0.3453427433733961
 40
0.4096233990346583
 40
0.4753703049204449
 40
0.5422484454272835
 40
0.6100093043565896
 40
0.6784653444248979
 40
0.7474725888208936
 40
0.8169189809408328
 40
0.8867164632876592
 40
0.9567955388473125
 40
1.0
 40
1.0
 40
1.0
 40
1.0
 10
313.7290835914202
 20
222.7531364738246
 30
0.0
 10
314.9285868239833
 20
222.7433485710828
 30
0.0
 10
316.6084327226293
 20
222.7296410896598
 30
0.0
 10
319.0808402057882
 20
222.6383526617961
 30
0.0
 10
321.1772045134401
 20
222.5297966661973
 30
0.0
 10
323.6675689523046
 20
222.3486682368578
 30
0.0
 10
326.2680826483285
 20
222.1029792867536
 30
0.0
 10
328.9718961183568
 20
221.7842370707128
 30
0.0
 10
331.7356981840847
 20
221.3903663541925
 30
0.0
 10
334.5323589176898
 20
220.9196004928745
 30
0.0
 10
337.3397076514919
 20
220.371261383026
 30
0.0
 10
340.1397047292504
 20
219.7453368390713
 30
0.0
 10
342.9172883892655
 20
219.0424686803629
 30
0.0
 10
345.6590883885872
 20
218.2634596385895
 30
0.0
 10
348.3548857014168
 20
217.4106581164975
 30
0.0
 10
350.989839241407
 20
216.4824086217657
 30
0.0
 10
353.2392087000388
 20
215.6211458029263
 30
0.0
 10
354.5725837410725
 20
215.0434671637634
 30
0.0
 10
355.0811108566107
 20
214.8231501163903
 30
0.0
  0
SPLINE
  5
212
330
1F
100
AcDbEntity
  8
0
  6
Continuous
 62
     7
370
    25
100
AcDbSpline
210
0.0
220
0.0
230
1.0
 70
     8
 71
     3
 72
    26
 73
    22
 74
     0
 42
0.00000001
 43
0.00000001
 40
0.0
 40
0.0
 40
0.0
 40
0.0
 40
0.0490622152496393
 40
0.1012444138715125
 40
0.1539582145771771
 40
0.2072997049609162
 40
0.2613612795193673
 40
0.3162206325016209
 40
0.3719276815463027
 40
0.4284924104427897
 40
0.4858722497964355
 40
0.5439568330054378
 40
0.6026404115255865
 40
0.6556130314094861
 40
0.7083223039475384
 40
0.7607897654854563
 40
0.8130500013160767
 40
0.8651406095572349
 40
0.9170978985363022
 40
0.9689543992632298
 40
1.0
 40
1.0
 40
1.0
 40
1.0
 10
249.4246498553767
 20
170.9070180458712
 30
0.0
 10
249.0895472339424
 20
171.4433188951087
 30
0.0
 10
248.3980320155347
 20
172.5500252446603
 30
0.0
 10
247.5285552879593
 20
174.2578590624136
 30
0.0
 10
246.7728600894675
 20
176.0267251858304
 30
0.0
 10
246.1651526114509
 20
177.8291310447838
 30
0.0
 10
245.7061807152548
 20
179.6644115635162
 30
0.0
 10
245.4028931560779
 20
181.5324821868979
 30
0.0
 10
245.2617552585133
 20
183.4323187566945
 30
0.0
 10
245.2903016818736
 20
185.3616708544236
 30
0.0
 10
245.4960788082169
 20
187.3163098168704
 30
0.0
 10
245.8860239562881
 20
189.2902813210359
 30
0.0
 10
246.4454454028686
 20
191.2062692324182
 30
0.0
 10
247.1532952584382
 20
193.0503258174355
 30
0.0
 10
247.9855585510635
 20
194.8109071407361
 30
0.0
 10
248.9631285241686
 20
196.5460848857146
 30
0.0
 10
250.0841818690093
 20
198.252797958569
 30
0.0
 10
251.3443326877007
 20
199.9287524774221
 30
0.0
 10
252.7485584360523
 20
201.5686196961314
 30
0.0
 10
254.0640902666086
 20
202.9632940241825
 30
0.0
 10
254.9650923046362
 20
203.7935398942346
 30
0.0
 10
255.3025041318607
 20
204.1044545916898
 30
0.0
  0
SPLINE
  5
213
330
1F
100
AcDbEntity
  8
0
  6
Continuous
 62
     7
370
    25
100
AcDbSpline
210
0.0
220
0.0
230
1.0
 70
     8
 71
     3
 72
    27
 73
    23
 74
     0
 42
0.00000001
 43
0.00000001
 40
0.0
 40
0.0
 40
0.0
 40
0.0
 40
0.0342461037719322
 40
0.0837953013993762
 40
0.1335171734716863
 40
0.1834588024213906
 40
0.2336786967210458
 40
0.2842470608570695
 40
0.3352450886350913
 40
0.3867626548486785
 40
0.4388936665759278
 40
0.4917284216048254
 40
0.5453428510685289
 40
0.5997857398244908
 40
0.655066845099928
 40
0.7111445635276332
 40
0.7679110330555247
 40
0.8252629048915713
 40
0.8770334168987338
 40
0.92854655770243
 40
0.979823374923996
 40
1.0
 40
1.0
 40
1.0
 40
1.0
 10
371.3806619074636
 20
204.8092945018132
 30
0.0
 10
371.7726540637541
 20
204.461918980812
 30
0.0
 10
372.7318026168654
 20
203.6119409314867
 30
0.0
 10
374.1136625451715
 20
202.2124527504847
 30
0.0
 10
375.5438274708393
 20
200.619586031503
 30
0.0
 10
376.8403337619334
 20
198.9873668266832
 30
0.0
 10
378.0063983802816
 20
197.3195774152221
 30
0.0
 10
379.0376599804739
 20
195.6171008873159
 30
0.0
 10
379.9316066653473
 20
193.8810088849675
 30
0.0
 10
380.684763442211
 20
192.1117417346016
 30
0.0
 10
381.2931631323213
 20
190.3094452176131
 30
0.0
 10
381.7519456515083
 20
188.4741348444012
 30
0.0
 10
382.055285780194
 20
186.6060722814088
 30
0.0
 10
382.1964065407889
 20
184.7062339389263
 30
0.0
 10
382.1678752249893
 20
182.7768806597638
 30
0.0
 10
381.9620542895153
 20
180.8222483750415
 30
0.0
 10
381.5722718640387
 20
178.8482509009955
 30
0.0
 10
381.0122565978581
 20
176.9323580742258
 30
0.0
 10
380.3064172385659
 20
175.0879794835366
 30
0.0
 10
379.4668651096439
 20
173.3285655770758
 30
0.0
 10
378.7072140569907
 20
171.9383695266395
 30
0.0
 10
378.1764173882995
 20
171.1442347555209
 30
0.0
 10
378.0265339812668
 20
170.9199914017865
 30
0.0
  0
SPLINE
  5
214
330
1F
100
AcDbEntity
  8
0
  6
Continuous
 62
     7
370
    25
100
AcDbSpline
210
0.0
220
0.0
230
1.0
 70
     8
 71
     3
 72
    14
 73
    10
 74
     0
 42
0.00000001
 43
0.00000001
 40
0.0
 40
0.0
 40
0.0
 40
0.0
 40
0.0665374784587185
 40
0.2330956619968385
 40
0.3985515744212842
 40
0.5631381381814412
 40
0.7270649952225458
 40
0.8905113019412949
 40
1.0
 40
1.0
 40
1.0
 40
1.0
 10
245.3181513436183
 20
185.2928619982553
 30
0.0
 10
245.4287706522283
 20
185.5208671609313
 30
0.0
 10
245.8162948200714
 20
186.3196202180619
 30
0.0
 10
246.6334104541429
 20
187.675530410925
 30
0.0
 10
247.7636110077759
 20
189.3525445620149
 30
0.0
 10
249.0394184229368
 20
191.0017047042851
 30
0.0
 10
250.4539856117882
 20
192.6194417018042
 30
0.0
 10
251.8167001084493
 20
194.0354706619036
 30
0.0
 10
252.7642631987904
 20
194.8958877467159
 30
0.0
 10
253.1443809824163
 20
195.2410466481194
 30
0.0
  0
SPLINE
  5
215
330
1F
100
AcDbEntity
  8
0
  6
Continuous
 62
     7
370
    25
100
AcDbSpline
210
0.0
220
0.0
230
1.0
 70
     8
 71
     3
 72
    14
 73
    10
 74
     0
 42
0.00000001
 43
0.00000001
 40
0.0
 40
0.0
 40
0.0
 40
0.0
 40
0.0785930740140194
 40
0.2483484086362188
 40
0.4188482781406165
 40
0.5903262466975743
 40
0.763070864448093
 40
0.9374281060316219
 40
1.0
 40
1.0
 40
1.0
 40
1.0
 10
374.8569642316931
 20
194.738242184624
 30
0.0
 10
375.1112188667835
 20
194.5036773485895
 30
0.0
 10
375.9146450567532
 20
193.7624694943096
 30
0.0
 10
377.1312842324512
 20
192.4781267123344
 30
0.0
 10
378.5103449283932
 20
190.8891021112506
 30
0.0
 10
379.7557587695829
 20
189.2666407019401
 30
0.0
 10
380.8626444031481
 20
187.6138760905966
 30
0.0
 10
381.6529658362139
 20
186.2988418641261
 30
0.0
 10
382.024016717814
 20
185.5328975413602
 30
0.0
 10
382.1220095474687
 20
185.3306151718317
 30
0.0
  0
SPLINE
  5
216
330
1F
100
AcDbEntity
  8
0
  6
Continuous
 62
     7
370
    25
100
AcDbSpline
210
0.0
220
0.0
230
1.0
 70
     8
 71
     3
 72
    12
 73
     8
 74
     0
 42
0.00000001
 43
0.00000001
 40
0.0
 40
0.0
 40
0.0
 40
0.0
 40
0.0520705615098531
 40
0.3374791635887942
 40
0.6255079344267707
 40
0.8857789340201146
 40
0.9999999999999999
 40
0.9999999999999999
 40
0.9999999999999999
 40
0.9999999999999999
 10
403.142108867943
 20
194.0675662182587
 30
0.0
 10
403.1042935669369
 20
194.2119097066212
 30
0.0
 10
402.8592054445053
 20
195.1474271719521
 30
0.0
 10
402.2268339901001
 20
196.8630456422135
 30
0.0
 10
401.2550339402122
 20
199.1288016368375
 30
0.0
 10
400.3623457609463
 20
200.91106630075
 30
0.0
 10
399.76703718533
 20
201.9002195894741
 30
0.0
 10
399.585466502411
 20
202.2019139468236
 30
0.0
  0
SPLINE
  5
217
330
1F
100
AcDbEntity
  8
0
  6
Continuous
 62
     7
370
    25
100
AcDbSpline
210
0.0
220
0.0
230
1.0
 70
     8
 71
     3
 72
    12
 73
     8
 74
     0
 42
0.00000001
 43
0.00000001
 40
0.0
 40
0.0
 40
0.0
 40
0.0
 40
0.1786148262881667
 40
0.4415532264799624
 40
0.7057345992400842
 40
0.9713534779594039
 40
0.9999999999999999
 40
0.9999999999999999
 40
0.9999999999999999
 40
0.9999999999999999
 10
227.8705667692457
 20
202.2023664446867
 30
0.0
 10
227.594889235838
 20
201.7315611141864
 30
0.0
 10
226.9133875549651
 20
200.5676845366004
 30
0.0
 10
225.9927353480884
 20
198.6745580015521
 30
0.0
 10
225.1075660237823
 20
196.5260051463322
 30
0.0
 10
224.5552069528639
 20
195.0010273490004
 30
0.0
 10
224.3431146499121
 20
194.1894229640991
 30
0.0
 10
224.322467618982
 20
194.110413869451
 30
0.0
  0
LINE
  5
218
330
1F
100
AcDbEntity
  8
0
  6
Continuous
 62
     7
370
    25
100
AcDbLine
 10
391.7290835914
 20
165.2728265026
 30
0.0
 11
391.7290835914
 21
167.8163082107
 31
0.0
  0
LINE
  5
219
330
1F
100
AcDbEntity
  8
0
  6
Continuous
 62
     7
370
    25
100
AcDbLine
 10
235.7290835914
 20
167.8801797577
 30
0.0
 11
235.7290835914
 21
165.2728265026
 31
0.0
  0
SPLINE
  5
21A
330
1F
100
AcDbEntity
  8
0
  6
Continuous
 62
     7
370
    25
100
AcDbSpline
210
0.0
220
0.0
230
1.0
 70
     8
 71
     3
 72
    24
 73
    20
 74
     0
 42
0.00000001
 43
0.00000001
 40
0.0
 40
0.0
 40
0.0
 40
0.0
 40
0.0231161287711274
 40
0.0866511899940071
 40
0.1501828087673197
 40
0.2137088251669566
 40
0.2772272292739373
 40
0.3407361066181999
 40
0.4042335594289477
 40
0.4677173109204205
 40
0.5311850375801557
 40
0.5946343788536419
 40
0.6580624436917695
 40
0.721465620576506
 40
0.784839301094522
 40
0.8481774928154835
 40
0.9114722551108861
 40
0.9747128454098398
 40
0.9999999999999999
 40
0.9999999999999999
 40
0.9999999999999999
 40
0.9999999999999999
 10
394.9660659606009
 20
208.6420390489427
 30
0.0
 10
394.7674625177875
 20
208.8803108667973
 30
0.0
 10
394.0229942364817
 20
209.7734767062661
 30
0.0
 10
392.5891381020572
 20
211.2784287125844
 30
0.0
 10
390.6689143755924
 20
213.1529247809629
 30
0.0
 10
388.6078776430194
 20
214.9759315280513
 30
0.0
 10
386.4214262383657
 20
216.7478348473118
 30
0.0
 10
384.1102950308953
 20
218.4647505363415
 30
0.0
 10
381.6794209174728
 20
220.124055383814
 30
0.0
 10
379.1328875071237
 20
221.72290998006
 30
0.0
 10
376.4752716357686
 20
223.2586574026386
 30
0.0
 10
373.7112887332799
 20
224.7287358704187
 30
0.0
 10
370.8458491450497
 20
226.1306561825837
 30
0.0
 10
367.8842078811297
 20
227.4621920736972
 30
0.0
 10
364.8313601112745
 20
228.7206529665528
 30
0.0
 10
361.6943693020824
 20
229.9056227215511
 30
0.0
 10
358.4737663894634
 20
231.0087645260876
 30
0.0
 10
355.8503764848647
 20
231.8435422006711
 30
0.0
 10
354.2784715949305
 20
232.2816477329779
 30
0.0
 10
353.8294710922905
 20
232.4067886403411
 30
0.0
  0
SPLINE
  5
21B
330
1F
100
AcDbEntity
  8
0
  6
Continuous
 62
     7
370
    25
100
AcDbSpline
210
0.0
220
0.0
230
1.0
 70
     8
 71
     3
 72
    25
 73
    21
 74
     0
 42
0.00000001
 43
0.00000001
 40
0.0
 40
0.0
 40
0.0
 40
0.0
 40
0.0012755079292922
 40
0.0620194390244503
 40
0.1230605312860432
 40
0.1843497481287932
 40
0.2458474905537181
 40
0.307521758622454
 40
0.3693468124723459
 40
0.4313021990423849
 40
0.4933720528253288
 40
0.5555446070564376
 40
0.6178118707057276
 40
0.6801694395006785
 40
0.7426159356828789
 40
0.8051538148056164
 40
0.8677891587601435
 40
0.9305318112074445
 40
0.9933955993355288
 40
1.0
 40
1.0
 40
1.0
 40
1.0
 10
273.6218496656277
 20
232.4158137676191
 30
0.0
 10
273.5990950023597
 20
232.4096331713683
 30
0.0
 10
272.4926875715146
 20
232.1091120193556
 30
0.0
 10
270.354013018988
 20
231.4449075575779
 30
0.0
 10
267.2134658696149
 20
230.4170476983791
 30
0.0
 10
264.1413488533326
 20
229.304131578779
 30
0.0
 10
261.1361050836882
 20
228.1191427432104
 30
0.0
 10
258.2074174214182
 20
226.8608676153057
 30
0.0
 10
255.3612591448565
 20
225.5321041256254
 30
0.0
 10
252.6040005305343
 20
224.1347295990738
 30
0.0
 10
249.9413609850896
 20
222.6710039917852
 30
0.0
 10
247.3787482873323
 20
221.143192111131
 30
0.0
 10
244.9211703885837
 20
219.5536515422087
 30
0.0
 10
242.5734361009532
 20
217.9047498609072
 30
0.0
 10
240.33961967938
 20
216.1990087630561
 30
0.0
 10
238.2251422343075
 20
214.4384910507425
 30
0.0
 10
236.2291049611722
 20
212.6269930198459
 30
0.0
 10
234.373085147129
 20
210.7617417060975
 30
0.0
 10
233.1256639470388
 20
209.4317422645617
 30
0.0
 10
232.5381189727462
 20
208.7130613934285
 30
0.0
 10
232.4822605649473
 20
208.6447357827374
 30
0.0
  0
SPLINE
  5
21C
330
1F
100
AcDbEntity
  8
0
  6
Continuous
 62
     7
370
    25
100
AcDbSpline
210
0.0
220
0.0
230
1.0
 70
     8
 71
     3
 72
     9
 73
     5
 74
     0
 42
0.00000001
 43
0.00000001
 40
0.0
 40
0.0
 40
0.0
 40
0.0
 40
0.3843399616443916
 40
1.0
 40
1.0
 40
1.0
 40
1.0
 10
317.6884118207511
 20
237.7718229385707
 30
0.0
 10
317.1814740226823
 20
237.7853556611678
 30
0.0
 10
315.8624912244849
 20
237.8205659540016
 30
0.0
 10
314.5420354464018
 20
237.8243941970374
 30
0.0
 10
313.7290835914202
 20
237.8267510932916
 30
0.0
  0
LINE
  5
21D
330
1F
100
AcDbEntity
  8
0
  6
Continuous
 62
     7
370
    25
100
AcDbLine
 10
313.7290835914
 20
237.8267510933
 30
0.0
 11
310.0618205799
 21
237.7801234267
 31
0.0
  0
LINE
  5
21E
330
1F
100
AcDbEntity
  8
0
  6
Continuous
 62
     7
370
    25
100
AcDbLine
 10
342.6775373905
 20
136.2484553549
 30
0.0
 11
339.5658479497
 21
142.1753355991
 31
0.0
  0
LINE
  5
21F
330
1F
100
AcDbEntity
  8
0
  6
Continuous
 62
     7
370
    25
100
AcDbLine
 10
287.8923193326
 20
142.1753357885
 30
0.0
 11
284.7806297924
 21
136.2484553549
 31
0.0
  0
SPLINE
  5
220
330
1F
100
AcDbEntity
  8
0
  6
Continuous
 62
     7
370
    25
100
AcDbSpline
210
0.0
220
0.0
230
1.0
 70
     8
 71
     3
 72
    14
 73
    10
 74
     0
 42
0.00000001
 43
0.00000001
 40
0.0
 40
0.0
 40
0.0
 40
0.0
 40
0.25
 40
0.25
 40
0.5
 40
0.5
 40
0.75
 40
0.75
 40
1.0
 40
1.0
 40
1.0
 40
1.0
 10
287.5984860231279
 20
146.1236384406032
 30
0.0
 10
287.820120269078
 20
145.8332786986193
 30
0.0
 10
287.9914781030035
 20
145.5270697834647
 30
0.0
 10
288.2394505611089
 20
144.8852187678308
 30
0.0
 10
288.3154431866354
 20
144.5459618244704
 30
0.0
 10
288.3645198766155
 20
143.8683641022456
 30
0.0
 10
288.339669696551
 20
143.527214402946
 30
0.0
 10
288.1888352351567
 20
142.8403053193811
 30
0.0
 10
288.0646855029344
 20
142.5036229823522
 30
0.0
 10
287.8923193325504
 20
142.1753357885267
 30
0.0
  0
ARC
  5
221
330
1F
100
AcDbEntity
  8
0
  6
Continuous
 62
     7
370
    25
100
AcDbCircle
 10
313.7290835914
 20
274.4295999438
 30
0.0
 40
130.939787255561
100
AcDbArc
 50
258.4886565262
 51
281.5113434738
  0
SPLINE
  5
222
330
1F
100
AcDbEntity
  8
0
  6
Continuous
 62
     7
370
    25
100
AcDbSpline
210
0.0
220
0.0
230
1.0
 70
     8
 71
     3
 72
    14
 73
    10
 74
     0
 42
0.00000001
 43
0.00000001
 40
0.0
 40
0.0
 40
0.0
 40
0.0
 40
0.25
 40
0.25
 40
0.5
 40
0.5
 40
0.75
 40
0.75
 40
1.0
 40
1.0
 40
1.0
 40
1.0
 10
339.5658479497307
 20
142.1753355991321
 30
0.0
 10
339.3934465050198
 20
142.5036899372316
 30
0.0
 10
339.2705730974242
 20
142.8376624787505
 30
0.0
 10
339.1202242179399
 20
143.5164004119124
 30
0.0
 10
339.0937288066523
 20
143.8649847990833
 30
0.0
 10
339.1421694719266
 20
144.5427666415325
 30
0.0
 10
339.2154397405162
 20
144.8745686719009
 30
0.0
 10
339.4643078704706
 20
145.5230259007296
 30
0.0
 10
339.6380238465877
 20
145.8332484786557
 30
0.0
 10
339.8596811597121
 20
146.1236384406031
 30
0.0
  0
ARC
  5
223
330
1F
100
AcDbEntity
  8
0
  6
Continuous
 62
     7
370
    25
100
AcDbCircle
 10
313.7290835914
 20
286.5811626717
 30
0.0
 40
153.7554262978942
100
AcDbArc
 50
259.0937675771
 51
280.9062324229
  0
SPLINE
  5
224
330
1F
100
AcDbEntity
  8
0
  6
Continuous
 62
     7
370
    25
100
AcDbSpline
210
0.0
220
0.0
230
1.0
 70
     8
 71
     3
 72
    10
 73
     6
 74
     0
 42
0.00000001
 43
0.00000001
 40
0.0
 40
0.0
 40
0.0
 40
0.0
 40
0.5
 40
0.5
 40
1.0
 40
1.0
 40
1.0
 40
1.0
 10
284.780629792383
 20
136.2484553548923
 30
0.0
 10
284.7351648904492
 20
136.16185261223
 30
0.0
 10
284.6948875411553
 20
136.0461152395824
 30
0.0
 10
284.6427306075443
 20
135.8099211837197
 30
0.0
 10
284.6315164427078
 20
135.6922492001467
 30
0.0
 10
284.6382101088112
 20
135.6028456984356
 30
0.0
  0
SPLINE
  5
225
330
1F
100
AcDbEntity
  8
0
  6
Continuous
 62
     7
370
    25
100
AcDbSpline
210
0.0
220
0.0
230
1.0
 70
     8
 71
     3
 72
    10
 73
     6
 74
     0
 42
0.00000001
 43
0.00000001
 40
0.0
 40
0.0
 40
0.0
 40
0.0
 40
0.5
 40
0.5
 40
1.0
 40
1.0
 40
1.0
 40
1.0
 10
342.8199570740288
 20
135.6028456984355
 30
0.0
 10
342.8266503604917
 20
135.6922441295023
 30
0.0
 10
342.8154573511014
 20
135.8097488082889
 30
0.0
 10
342.7633529664862
 20
136.0458613367
 30
0.0
 10
342.7229999654584
 20
136.1618570446322
 30
0.0
 10
342.677537390457
 20
136.2484553548923
 30
0.0
  0
ARC
  5
226
330
1F
100
AcDbEntity
  8
0
  6
Continuous
 62
     7
370
    25
100
AcDbCircle
 10
363.5196743186
 20
188.1804217874
 30
0.0
 40
27.55720378796398
100
AcDbArc
 50
326.8110277881
 51
33.1889722119
  0
SPLINE
  5
227
330
1F
100
AcDbEntity
  8
0
  6
Continuous
 62
     7
370
    25
100
AcDbSpline
210
0.0
220
0.0
230
1.0
 70
     8
 71
     3
 72
    24
 73
    20
 74
     0
 42
0.00000001
 43
0.00000001
 40
0.0
 40
0.0
 40
0.0
 40
0.0
 40
0.125000000000003
 40
0.125000000000003
 40
0.1875000000000045
 40
0.1875000000000045
 40
0.250000000000006
 40
0.250000000000006
 40
0.375000000000005
 40
0.375000000000005
 40
0.500000000000004
 40
0.500000000000004
 40
0.625000000000003
 40
0.625000000000003
 40
0.750000000000002
 40
0.750000000000002
 40
0.875000000000001
 40
0.875000000000001
 40
1.0
 40
1.0
 40
1.0
 40
1.0
 10
383.7206177333761
 20
169.1084009987462
 30
0.0
 10
383.6346124288044
 20
169.4232714890364
 30
0.0
 10
383.5708179331311
 20
169.7320466926528
 30
0.0
 10
383.5120647080696
 20
170.1847758211017
 30
0.0
 10
383.4986688474456
 20
170.3339373374882
 30
0.0
 10
383.4853742106604
 20
170.6283987945824
 30
0.0
 10
383.4855724054834
 20
170.7742998165027
 30
0.0
 10
383.5079163930106
 20
171.1957923303917
 30
0.0
 10
383.5512652739122
 20
171.4581082661817
 30
0.0
 10
383.699696169936
 20
171.941826341707
 30
0.0
 10
383.8070951910091
 20
172.1650950158974
 30
0.0
 10
384.076717095637
 20
172.5422692054466
 30
0.0
 10
384.2390694762107
 20
172.6995171320468
 30
0.0
 10
384.6188884788797
 20
172.951488186611
 30
0.0
 10
384.8301083506736
 20
173.0418988303259
 30
0.0
 10
385.2867863625627
 20
173.1590814976894
 30
0.0
 10
385.5343913310825
 20
173.1856241852412
 30
0.0
 10
386.044386520806
 20
173.1810356806066
 30
0.0
 10
386.3087055420045
 20
173.1506699151735
 30
0.0
 10
386.5814628579815
 20
173.0955489017573
 30
0.0
  0
LWPOLYLINE
  5
228
330
1F
100
AcDbEntity
  8
0
  6
Continuous
 62
     7
370
    25
100
AcDbPolyline
 90
       14
 70
   128
 43
0.0
 10
346.7663722594
 20
147.7751691772
 10
350.4265956187
 20
148.8418754718
 10
353.9838283378
 20
150.0189844027
 10
357.428087133
 20
151.3031924432
 10
360.749705779
 20
152.690895496
 10
363.9393622371
 20
154.1781990075
 10
366.9881048168
 20
155.7609288981
 10
369.8873772994
 20
157.4346432763
 10
372.6290429497
 20
159.1946449049
 10
375.2054073524
 20
161.0359943839
 10
377.609240006
 20
162.9535240124
 10
379.8337946147
 20
164.9418522921
 10
381.8728280225
 20
166.9953990299
 10
383.7206177334
 20
169.1084009987
  0
SPLINE
  5
229
330
1F
100
AcDbEntity
  8
0
  6
Continuous
 62
     7
370
    25
100
AcDbSpline
210
0.0
220
0.0
230
1.0
 70
     8
 71
     3
 72
    24
 73
    20
 74
     0
 42
0.00000001
 43
0.00000001
 40
0.0
 40
0.0
 40
0.0
 40
0.0
 40
0.1250000000000006
 40
0.1250000000000006
 40
0.1875000000000001
 40
0.1875000000000001
 40
0.2499999999999996
 40
0.2499999999999996
 40
0.3749999999999997
 40
0.3749999999999997
 40
0.4999999999999998
 40
0.4999999999999998
 40
0.6249999999999999
 40
0.6249999999999999
 40
0.7499999999999999
 40
0.7499999999999999
 40
0.875
 40
0.875
 40
1.0
 40
1.0
 40
1.0
 40
1.0
 10
339.8596811597121
 20
146.1236384406031
 30
0.0
 10
340.0104789754809
 20
146.4230157197159
 30
0.0
 10
340.1838845848222
 20
146.7055806700164
 30
0.0
 10
340.4817682484776
 20
147.1011288323994
 30
0.0
 10
340.5873916360779
 20
147.2282368656685
 30
0.0
 10
340.8124704917601
 20
147.4720563956822
 30
0.0
 10
340.9325421436796
 20
147.5891984437731
 30
0.0
 10
341.3069416662641
 20
147.915821490931
 30
0.0
 10
341.577179511858
 20
148.1031524433292
 30
0.0
 10
342.1625196758389
 20
148.4114108896705
 30
0.0
 10
342.4821013386554
 20
148.5325797720492
 30
0.0
 10
343.1341762601182
 20
148.6893574481071
 30
0.0
 10
343.4695743376973
 20
148.7275830861844
 30
0.0
 10
344.1591099292487
 20
148.7238496427179
 30
0.0
 10
344.501762782544
 20
148.6818180190059
 30
0.0
 10
345.1779792898722
 20
148.5281024960741
 30
0.0
 10
345.5140721233171
 20
148.4150711318945
 30
0.0
 10
346.1569142648889
 20
148.1348157037686
 30
0.0
 10
346.4667445331621
 20
147.9671591307281
 30
0.0
 10
346.7663722593838
 20
147.7751691772177
 30
0.0
  0
SPLINE
  5
22A
330
1F
100
AcDbEntity
  8
0
  6
Continuous
 62
     7
370
    25
100
AcDbSpline
210
0.0
220
0.0
230
1.0
 70
     8
 71
     3
 72
    24
 73
    20
 74
     0
 42
0.00000001
 43
0.00000001
 40
0.0
 40
0.0
 40
0.0
 40
0.0
 40
0.1250000000000036
 40
0.1250000000000036
 40
0.1875000000000051
 40
0.1875000000000051
 40
0.2500000000000066
 40
0.2500000000000066
 40
0.3750000000000054
 40
0.3750000000000054
 40
0.5000000000000043
 40
0.5000000000000043
 40
0.6250000000000031
 40
0.6250000000000031
 40
0.7500000000000021
 40
0.7500000000000021
 40
0.875000000000001
 40
0.875000000000001
 40
1.0
 40
1.0
 40
1.0
 40
1.0
 10
280.6917949234563
 20
147.7751691772178
 30
0.0
 10
280.9910605442644
 20
147.9669271074692
 30
0.0
 10
281.3000876044597
 20
148.1341325649839
 30
0.0
 10
281.780111946672
 20
148.3436670540451
 30
0.0
 10
281.9428818345443
 20
148.4065967799964
 30
0.0
 10
282.2744860416385
 20
148.517302033512
 30
0.0
 10
282.4440948054167
 20
148.5651755848052
 30
0.0
 10
282.9512317004744
 20
148.6810052913937
 30
0.0
 10
283.2900568458782
 20
148.7226968579194
 30
0.0
 10
283.9694219483578
 20
148.7285384753951
 30
0.0
 10
284.3139796491256
 20
148.6908980876723
 30
0.0
 10
284.9665309421138
 20
148.5357130218231
 30
0.0
 10
285.2785030716464
 20
148.4191392371979
 30
0.0
 10
285.8738346542881
 20
148.108167841429
 30
0.0
 10
286.1471990948103
 20
147.9188339161745
 30
0.0
 10
286.6468356386854
 20
147.4839479416068
 30
0.0
 10
286.8745377134397
 20
147.2361017136088
 30
0.0
 10
287.273658598792
 20
146.7066916699735
 30
0.0
 10
287.4475057450192
 20
146.4233779602339
 30
0.0
 10
287.5984860231279
 20
146.1236384406032
 30
0.0
  0
LWPOLYLINE
  5
22B
330
1F
100
AcDbEntity
  8
0
  6
Continuous
 62
     7
370
    25
100
AcDbPolyline
 90
       14
 70
   128
 43
0.0
 10
243.7375494495
 20
169.1084009987
 10
245.5853391604
 20
166.9953990299
 10
247.6243725681
 20
164.9418522921
 10
249.8489271769
 20
162.9535240124
 10
252.2527598304
 20
161.0359943839
 10
254.8291242332
 20
159.1946449049
 10
257.5707898835
 20
157.4346432763
 10
260.470062366
 20
155.7609288981
 10
263.5188049458
 20
154.1781990075
 10
266.7084614038
 20
152.690895496
 10
270.0300800498
 20
151.3031924432
 10
273.474338845
 20
150.0189844027
 10
277.0315715641
 20
148.8418754718
 10
280.6917949235
 20
147.7751691772
  0
SPLINE
  5
22C
330
1F
100
AcDbEntity
  8
0
  6
Continuous
 62
     7
370
    25
100
AcDbSpline
210
0.0
220
0.0
230
1.0
 70
     8
 71
     3
 72
    24
 73
    20
 74
     0
 42
0.00000001
 43
0.00000001
 40
0.0
 40
0.0
 40
0.0
 40
0.0
 40
0.1249999999999966
 40
0.1249999999999966
 40
0.1874999999999958
 40
0.1874999999999958
 40
0.2499999999999949
 40
0.2499999999999949
 40
0.3749999999999957
 40
0.3749999999999957
 40
0.4999999999999966
 40
0.4999999999999966
 40
0.6249999999999973
 40
0.6249999999999973
 40
0.7499999999999982
 40
0.7499999999999982
 40
0.874999999999999
 40
0.874999999999999
 40
1.0
 40
1.0
 40
1.0
 40
1.0
 10
240.8767043248587
 20
173.0955489017574
 30
0.0
 10
241.1491320087887
 20
173.1506033004527
 30
0.0
 10
241.412756659116
 20
173.180876052037
 30
0.0
 10
241.7937299304865
 20
173.1845284475656
 30
0.0
 10
241.918297925861
 20
173.1787498240153
 30
0.0
 10
242.1621782371915
 20
173.1518449894427
 30
0.0
 10
242.2819695993044
 20
173.1305170669488
 30
0.0
 10
242.6247699516903
 20
173.043109439177
 30
0.0
 10
242.8337032219995
 20
172.953820794378
 30
0.0
 10
243.2091303997483
 20
172.7074400601657
 30
0.0
 10
243.3768269103776
 20
172.5473092406467
 30
0.0
 10
243.6475988776028
 20
172.1713387477286
 30
0.0
 10
243.7533960166911
 20
171.954867808593
 30
0.0
 10
243.9057864234207
 20
171.4651008318333
 30
0.0
 10
243.9497292693824
 20
171.1998922613952
 30
0.0
 10
243.9801055386596
 20
170.6382694110807
 30
0.0
 10
243.9660320675128
 20
170.3393402259928
 30
0.0
 10
243.8876320950325
 20
169.7332392694675
 30
0.0
 10
243.8236588187335
 20
169.42365247603
 30
0.0
 10
243.7375494494641
 20
169.1084009987463
 30
0.0
  0
ARC
  5
22D
330
1F
100
AcDbEntity
  8
0
  6
Continuous
 62
     7
370
    25
100
AcDbCircle
 10
263.9384928643
 20
188.1804217874
 30
0.0
 40
27.55720378796396
100
AcDbArc
 50
146.8110277881
 51
213.1889722119
  0
SPLINE
  5
22E
330
1F
100
AcDbEntity
  8
0
  6
Continuous
 62
     7
370
    25
100
AcDbSpline
210
0.0
220
0.0
230
1.0
 70
     8
 71
     3
 72
    24
 73
    20
 74
     0
 42
0.00000001
 43
0.00000001
 40
0.0
 40
0.0
 40
0.0
 40
0.0
 40
0.1250000000000036
 40
0.1250000000000036
 40
0.1875000000000051
 40
0.1875000000000051
 40
0.2500000000000066
 40
0.2500000000000066
 40
0.3750000000000054
 40
0.3750000000000054
 40
0.5000000000000043
 40
0.5000000000000043
 40
0.6250000000000031
 40
0.6250000000000031
 40
0.7500000000000021
 40
0.7500000000000021
 40
0.875000000000001
 40
0.875000000000001
 40
1.0
 40
1.0
 40
1.0
 40
1.0
 10
243.7375494494642
 20
207.2524425760232
 30
0.0
 10
243.8235547540359
 20
207.221788335229
 30
0.0
 10
243.8873492497092
 20
207.1737684897401
 30
0.0
 10
243.9461024747708
 20
207.0722733096667
 30
0.0
 10
243.9594983353948
 20
207.0335047137208
 30
0.0
 10
243.9727929721799
 20
206.9451041027524
 30
0.0
 10
243.972594777357
 20
206.8951790142903
 30
0.0
 10
243.9502507898297
 20
206.7311437324553
 30
0.0
 10
243.9069019089281
 20
206.6022604822709
 30
0.0
 10
243.7584710129043
 20
206.3016003064337
 30
0.0
 10
243.6510719918312
 20
206.1270511271088
 30
0.0
 10
243.3814500872033
 20
205.7508056307627
 30
0.0
 10
243.2190977066296
 20
205.5478582035782
 30
0.0
 10
242.8392787039605
 20
205.1124740435913
 30
0.0
 10
242.6280588321666
 20
204.8872648224371
 30
0.0
 10
242.1713808202776
 20
204.4275794152246
 30
0.0
 10
241.9237758517578
 20
204.1912228832323
 30
0.0
 10
241.4137806620342
 20
203.7258192130966
 30
0.0
 10
241.1494616408357
 20
203.4947338050673
 30
0.0
 10
240.8767043248587
 20
203.2652946730121
 30
0.0
  0
LWPOLYLINE
  5
22F
330
1F
100
AcDbEntity
  8
0
  6
Continuous
 62
     7
370
    25
100
AcDbPolyline
 90
       12
 70
   128
 43
0.0
 10
271.1278977237
 20
225.4832879671
 10
270.0300800498
 20
225.0576511316
 10
266.7084614038
 20
223.6699480788
 10
263.5188049458
 20
222.1826445672
 10
260.470062366
 20
220.5999146767
 10
257.5707898835
 20
218.9262002985
 10
254.8291242332
 20
217.1661986699
 10
252.2527598304
 20
215.3248491909
 10
249.8489271769
 20
213.4073195623
 10
247.6243725681
 20
211.4189912826
 10
245.5853391604
 20
209.3654445448
 10
243.7375494495
 20
207.252442576
  0
LWPOLYLINE
  5
230
330
1F
100
AcDbEntity
  8
0
  6
Continuous
 62
     7
370
    25
100
AcDbPolyline
 90
       12
 70
   128
 43
0.0
 10
383.7206177334
 20
207.252442576
 10
381.8728280225
 20
209.3654445448
 10
379.8337946147
 20
211.4189912826
 10
377.609240006
 20
213.4073195623
 10
375.2054073524
 20
215.3248491909
 10
372.6290429497
 20
217.1661986699
 10
369.8873772994
 20
218.9262002985
 10
366.9881048168
 20
220.5999146767
 10
363.9393622371
 20
222.1826445672
 10
360.749705779
 20
223.6699480788
 10
357.428087133
 20
225.0576511316
 10
356.3302694591
 20
225.4832879671
  0
SPLINE
  5
231
330
1F
100
AcDbEntity
  8
0
  6
Continuous
 62
     7
370
    25
100
AcDbSpline
210
0.0
220
0.0
230
1.0
 70
     8
 71
     3
 72
    24
 73
    20
 74
     0
 42
0.00000001
 43
0.00000001
 40
0.0
 40
0.0
 40
0.0
 40
0.0
 40
0.1249999999999986
 40
0.1249999999999986
 40
0.1874999999999989
 40
0.1874999999999989
 40
0.2499999999999993
 40
0.2499999999999993
 40
0.3749999999999994
 40
0.3749999999999994
 40
0.4999999999999996
 40
0.4999999999999996
 40
0.6249999999999997
 40
0.6249999999999997
 40
0.7499999999999998
 40
0.7499999999999998
 40
0.8749999999999999
 40
0.8749999999999999
 40
1.0
 40
1.0
 40
1.0
 40
1.0
 10
386.5814628579816
 20
203.2652946730121
 30
0.0
 10
386.3090351740516
 20
203.4944565238127
 30
0.0
 10
386.0454105237243
 20
203.7249391303559
 30
0.0
 10
385.6644372523539
 20
204.0725206832029
 30
0.0
 10
385.5398692569794
 20
204.1886922271937
 30
0.0
 10
385.2959889456488
 20
204.4216579078923
 30
0.0
 10
385.176197583536
 20
204.5389617638443
 30
0.0
 10
384.83339723115
 20
204.88382662367
 30
0.0
 10
384.6244639608408
 20
205.1065479540746
 30
0.0
 10
384.249036783092
 20
205.535986587975
 30
0.0
 10
384.0813402724627
 20
205.7448369023596
 30
0.0
 10
383.8105683052374
 20
206.1217360884807
 30
0.0
 10
383.7047711661493
 20
206.2925075270322
 30
0.0
 10
383.5523807594196
 20
206.598861398369
 30
0.0
 10
383.5084379134579
 20
206.7292713913678
 30
0.0
 10
383.4780616441807
 20
206.9483915018332
 30
0.0
 10
383.4921351153275
 20
207.0375068424808
 30
0.0
 10
383.5705350878078
 20
207.1736156242358
 30
0.0
 10
383.6345083641068
 20
207.2217512442108
 30
0.0
 10
383.7206177333762
 20
207.2524425760231
 30
0.0
  0
LWPOLYLINE
  5
232
330
1F
100
AcDbEntity
  8
0
  6
Continuous
 62
     7
370
    25
100
AcDbPolyline
 90
       40
 70
   128
 43
0.0
 10
375.1571402638
 20
214.3967888866
 10
373.5957489115
 20
215.6793992909
 10
371.2651198093
 20
217.4250464041
 10
368.7819154824
 20
219.099117188
 10
366.1527209421
 20
220.6971723078
 10
363.3845083397
 20
222.2149740086
 10
360.4846184774
 20
223.6484973532
 10
357.4607413419
 20
224.9939408953
 10
354.3208957116
 20
226.2477367605
 10
351.0734078927
 20
227.4065601077
 10
347.7268896392
 20
228.4673379455
 10
344.2902153158
 20
229.4272572819
 10
340.772498365
 20
230.2837725834
 10
337.1830671398
 20
231.0346125253
 10
333.5314401666
 20
231.6777860152
 10
329.8273009036
 20
232.2115874725
 10
326.0804720623
 20
232.6346013517
 10
322.3008895592
 20
232.945705896
 10
318.4985761675
 20
233.1440761123
 10
314.683614939
 20
233.2291859582
 10
310.8661224649
 20
233.2008097378
 10
307.0562220491
 20
233.0590226997
 10
303.2640168625
 20
232.8042008377
 10
299.4995631516
 20
232.4370198935
 10
295.7728435708
 20
231.9584535649
 10
292.0937407106
 20
231.369770924
 10
288.4720108903
 20
230.6725330511
 10
284.9172582864
 20
229.8685888958
 10
281.4389094637
 20
228.9600703734
 10
278.046188378
 20
227.9493867118
 10
274.7480919156
 20
226.8392180623
 10
271.5533660357
 20
225.6325083927
 10
268.4704825767
 20
224.33245768
 10
265.5076167915
 20
222.942513425
 10
262.6726256675
 20
221.46636151
 10
259.9730270916
 20
219.9079164245
 10
257.4159799137
 20
218.2713108848
 10
255.0082649635
 20
216.5608848744
 10
252.756267068
 20
214.7811741358
 10
251.5079326276
 20
213.7048900655
  0
LWPOLYLINE
  5
233
330
1F
100
AcDbEntity
  8
0
  6
Continuous
 62
     7
370
    25
100
AcDbPolyline
 90
       14
 70
   128
 43
0.0
 10
384.7483730464
 20
180.6170231284
 10
384.6042280489
 20
180.2709007165
 10
383.6078217307
 20
178.1607435579
 10
382.4230346889
 20
176.0832864621
 10
381.0530608999
 20
174.0441298859
 10
379.5015935708
 20
172.0487710351
 10
377.7728151832
 20
170.1025890443
 10
375.871386218
 20
168.2108304761
 10
373.8024325915
 20
166.3785951771
 10
371.571531837
 20
164.6108225298
 10
369.1846980684
 20
162.9122781366
 10
366.6483657675
 20
161.287540973
 10
363.969372438
 20
159.7409910431
 10
362.2737895004
 20
158.8406532626
  0
LWPOLYLINE
  5
234
330
1F
100
AcDbEntity
  8
0
  6
Continuous
 62
     7
370
    25
100
AcDbPolyline
 90
       14
 70
   128
 43
0.0
 10
266.2263268079
 20
158.3148164569
 10
264.1799957006
 20
159.3670636913
 10
261.4664509628
 20
160.8934068863
 10
258.8937970427
 20
162.4989998309
 10
256.4689693604
 20
164.1795141302
 10
254.1985048225
 20
165.9304194149
 10
252.0885242002
 20
167.7469955539
 10
250.1447156281
 20
169.6243453791
 10
248.3723192705
 20
171.5574078872
 10
246.7761131945
 20
173.5409718835
 10
245.3604004896
 20
175.5696900302
 10
244.1289976669
 20
177.6380932617
 10
243.0852243708
 20
179.7406055287
 10
242.873263483
 20
180.2254559411
  0
LWPOLYLINE
  5
235
330
1F
100
AcDbEntity
  8
0
  6
Continuous
 62
     7
370
    25
100
AcDbPolyline
 90
        3
 70
   128
 43
0.0
 10
249.3198347345
 20
171.0407495462
 10
250.0298071383
 20
169.9897590682
 10
250.7181112217
 20
169.0471259103
  0
LWPOLYLINE
  5
236
330
1F
100
AcDbEntity
  8
0
  6
Continuous
 62
     7
370
    25
100
AcDbPolyline
 90
        3
 70
   128
 43
0.0
 10
376.7400559611
 20
169.0471259103
 10
378.0949841764
 20
170.9739670695
 10
378.1442602507
 20
171.0499104054
  0
LWPOLYLINE
  5
237
330
1F
100
AcDbEntity
  8
0
  6
Continuous
 62
     7
370
    25
100
AcDbPolyline
 90
       29
 70
   128
 43
0.0
 10
360.6661368226
 20
212.1526882902
 10
359.0950317908
 20
212.910070975
 10
356.1312522719
 20
214.2258749636
 10
353.0531640028
 20
215.4511003455
 10
349.8690649653
 20
216.5824441297
 10
346.5875389275
 20
217.6168564136
 10
343.2174323034
 20
218.5515486043
 10
339.7678303047
 20
219.384000937
 10
336.2480324484
 20
220.1119692673
 10
332.6675274873
 20
220.7334911215
 10
329.0359678297
 20
221.2468909864
 10
325.3631435185
 20
221.6507848268
 10
321.6589558385
 20
221.9440838162
 10
317.933390625
 20
222.1259972725
 10
314.196491343
 20
222.1960347892
 10
310.4583320123
 20
222.1540075574
 10
306.7289900497
 20
222.0000288752
 10
303.0185191016
 20
221.7345138419
 10
299.3369219418
 20
221.358178239
 10
295.6941235053
 20
220.8720366009
 10
292.0999441326
 20
220.2773994794
 10
288.564073096
 20
219.575869911
 10
285.0960424785
 20
218.7693390955
 10
281.7052014776
 20
217.8599812973
 10
278.4006912012
 20
216.8502479843
 10
275.1914200246
 20
215.7428612191
 10
272.0860395757
 20
214.5408063204
 10
269.092921411
 20
213.2473238158
 10
266.7920303603
 20
212.1526882902
  0
ARC
  5
238
330
1F
100
AcDbEntity
  8
0
  6
Continuous
 62
     7
370
    25
100
AcDbCircle
 10
335.2013685186
 20
163.2148874234
 30
0.0
 40
55.14827395422709
100
AcDbArc
 50
48.8636554608
 51
60.3194926424
  0
ARC
  5
239
330
1F
100
AcDbEntity
  8
0
  6
Continuous
 62
     7
370
    25
100
AcDbCircle
 10
296.3313643465
 20
157.7799952842
 30
0.0
 40
61.90622403301906
100
AcDbArc
 50
111.4784908857
 51
131.6464832672
  0
ARC
  5
23A
330
1F
100
AcDbEntity
  8
0
  6
Continuous
 62
     7
370
    25
100
AcDbCircle
 10
326.4677423166
 20
148.3752691054
 30
0.0
 40
72.36590145584401
100
AcDbArc
 50
60.1296755801
 51
66.763363769
  0
LWPOLYLINE
  5
23B
330
1F
100
AcDbEntity
  8
0
  6
Continuous
 62
     7
370
    25
100
AcDbPolyline
 90
       13
 70
   128
 43
0.0
 10
347.5598286938
 20
132.0423224142
 10
351.1541660555
 20
133.1081900793
 10
354.6480620904
 20
134.2800858272
 10
358.0321398905
 20
135.5548645274
 10
361.2973172777
 20
136.9291049327
 10
364.4348311785
 20
138.3991188605
 10
367.4362611421
 20
139.9609610919
 10
370.2935519398
 20
141.6104399593
 10
372.9990351828
 20
143.343128596
 10
375.545449903
 20
145.1543768174
 10
377.9259620401
 20
147.0393236008
 10
380.1341827827
 20
148.9929101315
 10
381.7022182135
 20
150.5292232439
  0
LWPOLYLINE
  5
23C
330
1F
100
AcDbEntity
  8
0
  6
Continuous
 62
     7
370
    25
100
AcDbPolyline
 90
        3
 70
   128
 43
0.0
 10
339.5036165155
 20
130.1159177377
 10
339.9796369765
 20
130.6775734202
 10
340.3722957044
 20
131.0066915461
  0
LWPOLYLINE
  5
23D
330
1F
100
AcDbEntity
  8
0
  6
Continuous
 62
     7
370
    25
100
AcDbPolyline
 90
        3
 70
   128
 43
0.0
 10
345.8746337256
 20
132.3161204347
 10
346.5352719394
 20
132.245159473
 10
347.5598286938
 20
132.0423224142
  0
ARC
  5
23E
330
1F
100
AcDbEntity
  8
0
  6
Continuous
 62
     7
370
    25
100
AcDbCircle
 10
313.7290835914
 20
259.6734304482
 30
0.0
 40
132.09646341666
100
AcDbArc
 50
258.7483233154
 51
281.2516766846
  0
LWPOLYLINE
  5
23F
330
1F
100
AcDbEntity
  8
0
  6
Continuous
 62
     7
370
    25
100
AcDbPolyline
 90
        3
 70
   128
 43
0.0
 10
279.8983384891
 20
132.0423224142
 10
280.9228952434
 20
132.245159473
 10
281.5526986678
 20
132.3137837319
  0
LWPOLYLINE
  5
240
330
1F
100
AcDbEntity
  8
0
  6
Continuous
 62
     7
370
    25
100
AcDbPolyline
 90
        3
 70
   128
 43
0.0
 10
287.0490097373
 20
131.0337831918
 10
287.4785302063
 20
130.6775734202
 10
287.9545506673
 20
130.1159177377
  0
LWPOLYLINE
  5
241
330
1F
100
AcDbEntity
  8
0
  6
Continuous
 62
     7
370
    25
100
AcDbPolyline
 90
       13
 70
   128
 43
0.0
 10
245.7559489694
 20
150.5292232439
 10
247.3239844002
 20
148.9929101315
 10
249.5322051427
 20
147.0393236008
 10
251.9127172798
 20
145.1543768174
 10
254.4591320001
 20
143.343128596
 10
257.164615243
 20
141.6104399593
 10
260.0219060407
 20
139.9609610919
 10
263.0233360044
 20
138.3991188605
 10
266.1608499051
 20
136.9291049327
 10
269.4260272923
 20
135.5548645274
 10
272.8101050924
 20
134.2800858272
 10
276.3040011273
 20
133.1081900793
 10
279.8983384891
 20
132.0423224142
  0
LWPOLYLINE
  5
242
330
1F
100
AcDbEntity
  8
0
  6
Continuous
 62
     7
370
    25
100
AcDbPolyline
 90
       39
 70
   128
 43
0.0
 10
364.6480349711
 20
206.5007930192
 10
361.9365127339
 20
207.9868780749
 10
359.0950317908
 20
209.3897134952
 10
356.1312522719
 20
210.7055174838
 10
353.0531640028
 20
211.9307428657
 10
349.8690649653
 20
213.06208665
 10
346.5875389275
 20
214.0964989338
 10
343.2174323034
 20
215.0311911245
 10
339.7678303047
 20
215.8636434572
 10
336.2480324484
 20
216.5916117876
 10
332.6675274873
 20
217.2131336417
 10
329.0359678297
 20
217.7265335066
 10
325.3631435185
 20
218.130427347
 10
321.6589558385
 20
218.4237263364
 10
317.933390625
 20
218.6056397927
 10
314.196491343
 20
218.6756773094
 10
310.4583320123
 20
218.6336500776
 10
306.7289900497
 20
218.4796713954
 10
303.0185191016
 20
218.2141563621
 10
299.3369219418
 20
217.8378207592
 10
295.6941235053
 20
217.3516791211
 10
292.0999441326
 20
216.7570419996
 10
288.564073096
 20
216.0555124312
 10
285.0960424785
 20
215.2489816157
 10
281.7052014776
 20
214.3396238175
 10
278.4006912012
 20
213.3298905046
 10
275.1914200246
 20
212.2225037393
 10
272.0860395757
 20
211.0204488406
 10
269.092921411
 20
209.726966336
 10
266.2201344481
 20
208.3455432257
 10
263.4754232125
 20
206.8799035822
 10
260.8661869606
 20
205.3339985107
 10
258.3994597319
 20
203.711995498
 10
256.0818913871
 20
202.0182671776
 10
253.9197296805
 20
200.2573795415
 10
251.9188034179
 20
198.4340796314
 10
250.0845067428
 20
196.5532827416
 10
248.4217845946
 20
194.6200591679
 10
247.0900538766
 20
192.8598235986
  0
ARC
  5
243
330
1F
100
AcDbEntity
  8
0
  6
Continuous
 62
     7
370
    25
100
AcDbCircle
 10
341.2839148173
 20
163.7208970029
 30
0.0
 40
48.74424698084545
100
AcDbArc
 50
36.3894849451
 51
61.358963355
  0
LINE
  5
244
330
1F
100
AcDbEntity
  8
0
  6
Continuous
 62
     7
370
    25
100
AcDbLine
 10
287.6914307124
 20
135.0405091952
 30
0.0
 11
287.6914307124
 21
134.9483033978
 31
0.0
  0
LINE
  5
245
330
1F
100
AcDbEntity
  8
0
  6
Continuous
 62
     7
370
    25
100
AcDbLine
 10
339.7667364705
 20
134.9483033978
 30
0.0
 11
339.7667364705
 21
135.0405091952
 31
0.0
  0
ARC
  5
246
330
1F
100
AcDbEntity
  8
0
  6
Continuous
 62
     7
370
    25
100
AcDbCircle
 10
313.7290835914
 20
263.5375832333
 30
0.0
 40
131.1989415203546
100
AcDbArc
 50
258.5531212235
 51
281.4468787765
  0
LWPOLYLINE
  5
247
330
1F
100
AcDbEntity
  8
0
  6
Continuous
 62
     7
370
    25
100
AcDbPolyline
 90
       41
 70
   128
 43
0.0
 10
253.0358686414
 20
195.1656447875
 10
253.4084442905
 20
195.5003438042
 10
255.5412513589
 20
197.2918139409
 10
257.8335472308
 20
199.0163906338
 10
260.2790488826
 20
200.6693469382
 10
262.8710533643
 20
202.2461522157
 10
265.6024561717
 20
203.7424845526
 10
268.4657707197
 20
205.1542426061
 10
271.453148862
 20
206.4775568454
 10
274.5564024029
 20
207.7088001582
 10
277.76702554
 20
208.8445977922
 10
281.0762181786
 20
209.8818366049
 10
284.4749100516
 20
210.8176735969
 10
287.9537855808
 20
211.6495437041
 10
291.5033094103
 20
212.3751668283
 10
295.1137525419
 20
212.992554087
 10
298.7752190019
 20
213.5000132645
 10
302.4776729654
 20
213.8961534507
 10
306.2109662633
 20
214.1798888526
 10
309.9648661983
 20
214.3504417714
 10
313.7290835914
 20
214.4073447334
 10
317.4933009846
 20
214.3504417714
 10
321.2472009195
 20
214.1798888526
 10
324.9804942175
 20
213.8961534507
 10
328.6829481809
 20
213.5000132645
 10
332.344414641
 20
212.992554087
 10
335.9548577726
 20
212.3751668283
 10
339.504381602
 20
211.6495437041
 10
342.9832571313
 20
210.8176735969
 10
346.3819490043
 20
209.8818366049
 10
349.6911416428
 20
208.8445977922
 10
352.90176478
 20
207.7088001582
 10
356.0050183208
 20
206.4775568454
 10
358.9923964631
 20
205.1542426061
 10
361.8557110111
 20
203.7424845526
 10
364.5871138186
 20
202.2461522157
 10
367.1791183002
 20
200.6693469382
 10
369.6246199521
 20
199.0163906338
 10
371.916915824
 20
197.2918139409
 10
374.0497228923
 20
195.5003438042
 10
374.9942907448
 20
194.637645019
  0
LWPOLYLINE
  5
248
330
1F
100
AcDbEntity
  8
0
  6
Continuous
 62
     7
370
    25
100
AcDbPolyline
 90
       11
 70
   128
 43
0.0
 10
263.8847455497
 20
198.9032598902
 10
261.3236558621
 20
197.3445745251
 10
258.9086295008
 20
195.7100337367
 10
256.6463975776
 20
194.0041932834
 10
254.5432653384
 20
192.2318076485
 10
252.6050945901
 20
190.3978167886
 10
250.8372873621
 20
188.5073323652
 10
249.2447708503
 20
186.5656234974
 10
247.8319836838
 20
184.5781020763
 10
246.6028635539
 20
182.5503076803
 10
245.5840697352
 20
180.5387103029
  0
LWPOLYLINE
  5
249
330
1F
100
AcDbEntity
  8
0
  6
Continuous
 62
     7
370
    25
100
AcDbPolyline
 90
       41
 70
   128
 43
0.0
 10
381.9011922355
 20
180.4794205472
 10
381.1334728381
 20
182.0377265098
 10
379.9508249627
 20
184.0747100924
 10
378.5836052167
 20
186.0728237439
 10
377.0356242868
 20
188.0264983632
 10
375.3111966736
 20
189.9302887088
 10
373.415128666
 20
191.7788885755
 10
371.3527049457
 20
193.567145584
 10
369.1296738574
 20
195.2900755411
 10
366.7522313877
 20
196.9428763322
 10
364.2270038949
 20
198.5209413049
 10
361.5610296411
 20
200.0198721091
 10
358.7617391747
 20
201.4354909559
 10
355.8369346203
 20
202.7638522616
 10
352.7947679327
 20
204.001253645
 10
349.6437181761
 20
205.1442462465
 10
346.3925678914
 20
206.1896443408
 10
343.0503786175
 20
207.1345342158
 10
339.6264656355
 20
207.976282294
 10
336.1303720048
 20
208.7125424724
 10
332.5718419654
 20
209.3412626621
 10
328.9607937789
 20
209.860690507
 10
325.3072920842
 20
210.2693782685
 10
321.6215198458
 20
210.5661868605
 10
317.913749972
 20
210.7502890244
 10
314.1943166824
 20
210.8211716342
 10
310.4735867048
 20
210.7786371276
 10
306.7619303809
 20
210.6228040557
 10
303.0696927626
 20
210.3541067533
 10
299.4071647783
 20
209.973294128
 10
295.7845545505
 20
209.4814275728
 10
292.2119589437
 20
208.8798780081
 10
288.6993354225
 20
208.1703220605
 10
285.2564742987
 20
207.3547373895
 10
281.8929714437
 20
206.4353971759
 10
278.6182015433
 20
205.4148637859
 10
275.4412919686
 20
204.2959816289
 10
272.3710973363
 20
203.0818692304
 10
269.4161748296
 20
201.7759105392
 10
266.5847603474
 20
200.3817454965
 10
263.8847455497
 20
198.9032598902
  0
ARC
  5
24A
330
1F
100
AcDbEntity
  8
0
  6
Continuous
 62
     7
370
    25
100
AcDbCircle
 10
313.7290835914
 20
93.6506271795
 30
0.0
 40
117.080452790852
100
AcDbArc
 50
70.868022309
 51
109.131977691
  0
LINE
  5
24B
330
1F
100
AcDbEntity
  8
0
  6
Continuous
 62
     7
370
    25
100
AcDbLine
 10
287.9545506673
 20
130.1159177377
 30
0.0
 11
287.9545506673
 21
122.7738106302
 31
0.0
  0
LINE
  5
24C
330
1F
100
AcDbEntity
  8
0
  6
Continuous
 62
     7
370
    25
100
AcDbLine
 10
339.5036165155
 20
122.7738106302
 30
0.0
 11
339.5036165155
 21
130.1159177377
 31
0.0
  0
ARC
  5
24D
330
1F
100
AcDbEntity
  8
0
  6
Continuous
 62
     7
370
    25
100
AcDbCircle
 10
313.7290835914
 20
252.3313233407
 30
0.0
 40
132.0964634166609
100
AcDbArc
 50
258.7483233154
 51
281.2516766846
  0
LWPOLYLINE
  5
24E
330
1F
100
AcDbEntity
  8
0
  6
Continuous
 62
     7
370
    25
100
AcDbPolyline
 90
       40
 70
   128
 43
0.0
 10
364.6480349711
 20
194.6677114464
 10
361.9365127339
 20
196.1537965021
 10
359.0950317908
 20
197.5566319223
 10
356.1312522719
 20
198.8724359109
 10
353.0531640028
 20
200.0976612928
 10
349.8690649653
 20
201.2290050771
 10
346.5875389275
 20
202.2634173609
 10
343.2174323034
 20
203.1981095516
 10
339.7678303047
 20
204.0305618843
 10
336.2480324484
 20
204.7585302147
 10
332.6675274873
 20
205.3800520688
 10
329.0359678297
 20
205.8934519337
 10
325.3631435185
 20
206.2973457741
 10
321.6589558385
 20
206.5906447635
 10
317.933390625
 20
206.7725582198
 10
314.196491343
 20
206.8425957365
 10
310.4583320123
 20
206.8005685047
 10
306.7289900497
 20
206.6465898225
 10
303.0185191016
 20
206.3810747892
 10
299.3369219418
 20
206.0047391864
 10
295.6941235053
 20
205.5185975482
 10
292.0999441326
 20
204.9239604267
 10
288.564073096
 20
204.2224308583
 10
285.0960424785
 20
203.4159000428
 10
281.7052014776
 20
202.5065422446
 10
278.4006912012
 20
201.4968089317
 10
275.1914200246
 20
200.3894221664
 10
272.0860395757
 20
199.1873672677
 10
269.092921411
 20
197.8938847632
 10
266.2201344481
 20
196.5124616529
 10
263.4754232125
 20
195.0468220093
 10
260.8661869606
 20
193.5009169378
 10
258.3994597319
 20
191.8789139252
 10
256.0818913871
 20
190.1851856047
 10
253.9197296805
 20
188.4242979686
 10
251.9188034179
 20
186.6009980585
 10
250.0845067428
 20
184.7202011687
 10
248.4217845946
 20
182.786977595
 10
246.9351193784
 20
180.8065389665
 10
245.7971318352
 20
179.0641942994
  0
ARC
  5
24F
330
1F
100
AcDbEntity
  8
0
  6
Continuous
 62
     7
370
    25
100
AcDbCircle
 10
342.2930904101
 20
153.2145111159
 30
0.0
 40
47.09682965936895
100
AcDbArc
 50
33.316433071
 51
61.6628356224
  0
SPLINE
  5
250
330
1F
100
AcDbEntity
  8
0
  6
Continuous
 62
     7
370
    25
100
AcDbSpline
210
0.0
220
0.0
230
1.0
 70
     8
 71
     3
 72
    14
 73
    10
 74
     0
 42
0.00000001
 43
0.00000001
 40
0.0
 40
0.0
 40
0.0
 40
0.0
 40
0.25
 40
0.25
 40
0.5
 40
0.5
 40
0.75
 40
0.75
 40
1.0
 40
1.0
 40
1.0
 40
1.0
 10
387.191104903227
 20
165.9197009219858
 30
0.0
 10
386.7748910332846
 20
166.107305330754
 30
0.0
 10
386.3856734236535
 20
166.3188264635318
 30
0.0
 10
385.6592294533884
 20
166.787905339975
 30
0.0
 10
385.3191015231246
 20
167.0488226071612
 30
0.0
 10
384.7224822874855
 20
167.5955237707373
 30
0.0
 10
384.4624982896667
 20
167.882678739536
 30
0.0
 10
384.0224052382145
 20
168.4854101886965
 30
0.0
 10
383.8470367045569
 20
168.7952376064029
 30
0.0
 10
383.7206177333761
 20
169.1084009987462
 30
0.0
  0
LINE
  5
251
330
1F
100
AcDbEntity
  8
0
  6
Continuous
 62
     7
370
    25
100
AcDbLine
 10
394.7033877529
 20
162.5332291786
 30
0.0
 11
387.1911049032
 21
165.919700922
 31
0.0
  0
LINE
  5
252
330
1F
100
AcDbEntity
  8
0
  6
Continuous
 62
     7
370
    25
100
AcDbLine
 10
350.6524022404
 20
144.826357106
 30
0.0
 11
353.7640917806
 21
138.8994766724
 31
0.0
  0
SPLINE
  5
253
330
1F
100
AcDbEntity
  8
0
  6
Continuous
 62
     7
370
    25
100
AcDbSpline
210
0.0
220
0.0
230
1.0
 70
     8
 71
     3
 72
    14
 73
    10
 74
     0
 42
0.00000001
 43
0.00000001
 40
0.0
 40
0.0
 40
0.0
 40
0.0
 40
0.25
 40
0.25
 40
0.5
 40
0.5
 40
0.75
 40
0.75
 40
1.0
 40
1.0
 40
1.0
 40
1.0
 10
346.7663722593838
 20
147.7751691772177
 30
0.0
 10
347.2062162310517
 20
147.642982371048
 30
0.0
 10
347.6217235530751
 20
147.4771048865758
 30
0.0
 10
348.406964104849
 20
147.0823161788779
 30
0.0
 10
348.7795659148368
 20
146.8503273162576
 30
0.0
 10
349.4450077868378
 20
146.3435855581932
 30
0.0
 10
349.7420363219397
 20
146.06751925595
 30
0.0
 10
350.2630532369458
 20
145.4691283486685
 30
0.0
 10
350.4800360700411
 20
145.1546442998291
 30
0.0
 10
350.6524022404251
 20
144.8263571060036
 30
0.0
  0
LINE
  5
254
330
1F
100
AcDbEntity
  8
0
  6
Continuous
 62
     7
370
    25
100
AcDbLine
 10
273.6940754022
 20
138.8994766724
 30
0.0
 11
276.805764843
 21
144.8263569166
 31
0.0
  0
LINE
  5
255
330
1F
100
AcDbEntity
  8
0
  6
Continuous
 62
     7
370
    25
100
AcDbLine
 10
240.2670625197
 20
165.9197010302
 30
0.0
 11
232.7547794299
 21
162.5332291786
 31
0.0
  0
SPLINE
  5
256
330
1F
100
AcDbEntity
  8
0
  6
Continuous
 62
     7
370
    25
100
AcDbSpline
210
0.0
220
0.0
230
1.0
 70
     8
 71
     3
 72
    14
 73
    10
 74
     0
 42
0.00000001
 43
0.00000001
 40
0.0
 40
0.0
 40
0.0
 40
0.0
 40
0.25
 40
0.25
 40
0.5
 40
0.5
 40
0.75
 40
0.75
 40
1.0
 40
1.0
 40
1.0
 40
1.0
 10
243.7375494494641
 20
169.1084009987463
 30
0.0
 10
243.6111436343052
 20
168.7952701963253
 30
0.0
 10
243.4379728850381
 20
168.4894947862119
 30
0.0
 10
243.003418346612
 20
167.8922593522081
 30
0.0
 10
242.7382863382838
 20
167.5982294936693
 30
0.0
 10
242.1422493868491
 20
167.0514211278037
 30
0.0
 10
241.8100773900726
 20
166.7956427141455
 30
0.0
 10
241.0757483340896
 20
166.3203942846886
 30
0.0
 10
240.6831912659205
 20
166.1072670843162
 30
0.0
 10
240.2670625196851
 20
165.919701030196
 30
0.0
  0
SPLINE
  5
257
330
1F
100
AcDbEntity
  8
0
  6
Continuous
 62
     7
370
    25
100
AcDbSpline
210
0.0
220
0.0
230
1.0
 70
     8
 71
     3
 72
    14
 73
    10
 74
     0
 42
0.00000001
 43
0.00000001
 40
0.0
 40
0.0
 40
0.0
 40
0.0
 40
0.25
 40
0.25
 40
0.5
 40
0.5
 40
0.75
 40
0.75
 40
1.0
 40
1.0
 40
1.0
 40
1.0
 10
276.8057648429739
 20
144.8263569166091
 30
0.0
 10
276.9781662516335
 20
145.1547112633293
 30
0.0
 10
277.1936146217879
 20
145.4665472427955
 30
0.0
 10
277.7074331675988
 20
146.058372164053
 30
0.0
 10
278.0100909278789
 20
146.3409204999405
 30
0.0
 10
278.6752156093193
 20
146.8480743114446
 30
0.0
 10
279.0388194146961
 20
147.0754108386114
 30
0.0
 10
279.8308651507723
 20
147.474964327703
 30
0.0
 10
280.2519051738556
 20
147.6429686133542
 30
0.0
 10
280.6917949234563
 20
147.7751691772178
 30
0.0
  0
LWPOLYLINE
  5
258
330
1F
100
AcDbEntity
  8
0
  6
Continuous
 62
     7
370
    25
100
AcDbPolyline
 90
       15
 70
   128
 43
0.0
 10
353.9065114642
 20
138.2538670159
 10
357.6543514387
 20
139.3863619222
 10
361.3066467937
 20
140.6185042357
 10
364.8554531913
 20
141.947613846
 10
368.2930513988
 20
143.3707997229
 10
371.6119640798
 20
144.8849662052
 10
374.804972058
 20
146.4868197338
 10
377.8651300204
 20
148.1728760161
 10
380.7857816245
 20
149.9394676048
 10
383.5605739768
 20
151.7827518752
 10
386.1834714516
 20
153.6987193834
 10
388.6487688191
 20
155.6832025877
 10
390.9511036557
 20
157.7318849136
 10
393.0854680077
 20
159.840310143
 10
395.0472192845
 20
162.0038921071
  0
SPLINE
  5
259
330
1F
100
AcDbEntity
  8
0
  6
Continuous
 62
     7
370
    25
100
AcDbSpline
210
0.0
220
0.0
230
1.0
 70
     8
 71
     3
 72
    10
 73
     6
 74
     0
 42
0.00000001
 43
0.00000001
 40
0.0
 40
0.0
 40
0.0
 40
0.0
 40
0.5
 40
0.5
 40
1.0
 40
1.0
 40
1.0
 40
1.0
 10
353.7640917805924
 20
138.8994766723692
 30
0.0
 10
353.8095566825262
 20
138.8128739297069
 30
0.0
 10
353.8498340318201
 20
138.6971365570593
 30
0.0
 10
353.9019909654311
 20
138.4609425011966
 30
0.0
 10
353.9132051302676
 20
138.3432705176237
 30
0.0
 10
353.9065114641642
 20
138.2538670159125
 30
0.0
  0
SPLINE
  5
25A
330
1F
100
AcDbEntity
  8
0
  6
Continuous
 62
     7
370
    25
100
AcDbSpline
210
0.0
220
0.0
230
1.0
 70
     8
 71
     3
 72
    10
 73
     6
 74
     0
 42
0.00000001
 43
0.00000001
 40
0.0
 40
0.0
 40
0.0
 40
0.0
 40
0.5
 40
0.5
 40
1.0
 40
1.0
 40
1.0
 40
1.0
 10
395.0472192845496
 20
162.0038921071225
 30
0.0
 10
395.0633783075049
 20
162.0987549915522
 30
0.0
 10
395.0363559924311
 20
162.2071216066769
 30
0.0
 10
394.9105648804341
 20
162.4006956928266
 30
0.0
 10
394.8131441180702
 20
162.4837468833833
 30
0.0
 10
394.7033877529216
 20
162.533229178628
 30
0.0
  0
LWPOLYLINE
  5
25B
330
1F
100
AcDbEntity
  8
0
  6
Continuous
 62
     7
370
    25
100
AcDbPolyline
 90
       15
 70
   128
 43
0.0
 10
232.4109478983
 20
162.0038921071
 10
234.3726991752
 20
159.840310143
 10
236.5070635271
 20
157.7318849136
 10
238.8093983637
 20
155.6832025877
 10
241.2746957313
 20
153.6987193834
 10
243.8975932061
 20
151.7827518752
 10
246.6723855584
 20
149.9394676048
 10
249.5930371625
 20
148.1728760161
 10
252.6531951248
 20
146.4868197338
 10
255.846203103
 20
144.8849662052
 10
259.165115784
 20
143.3707997229
 10
262.6027139916
 20
141.947613846
 10
266.1515203891
 20
140.6185042357
 10
269.8038157441
 20
139.3863619222
 10
273.5516557187
 20
138.2538670159
  0
SPLINE
  5
25C
330
1F
100
AcDbEntity
  8
0
  6
Continuous
 62
     7
370
    25
100
AcDbSpline
210
0.0
220
0.0
230
1.0
 70
     8
 71
     3
 72
    10
 73
     6
 74
     0
 42
0.00000001
 43
0.00000001
 40
0.0
 40
0.0
 40
0.0
 40
0.0
 40
0.5
 40
0.5
 40
1.0
 40
1.0
 40
1.0
 40
1.0
 10
232.7547794299186
 20
162.5332291786281
 30
0.0
 10
232.6450174470581
 20
162.4837443507077
 30
0.0
 10
232.5477793241361
 20
162.4008897327464
 30
0.0
 10
232.4218613476407
 20
162.2072770205716
 30
0.0
 10
232.3947879588017
 20
162.0987603721384
 30
0.0
 10
232.4109478982906
 20
162.0038921071226
 30
0.0
  0
SPLINE
  5
25D
330
1F
100
AcDbEntity
  8
0
  6
Continuous
 62
     7
370
    25
100
AcDbSpline
210
0.0
220
0.0
230
1.0
 70
     8
 71
     3
 72
    10
 73
     6
 74
     0
 42
0.00000001
 43
0.00000001
 40
0.0
 40
0.0
 40
0.0
 40
0.0
 40
0.5
 40
0.5
 40
1.0
 40
1.0
 40
1.0
 40
1.0
 10
273.5516557186758
 20
138.2538670159126
 30
0.0
 10
273.544962432213
 20
138.3432654469793
 30
0.0
 10
273.5561554416033
 20
138.460770125766
 30
0.0
 10
273.6082598262184
 20
138.696882654177
 30
0.0
 10
273.6486128272463
 20
138.8128783621093
 30
0.0
 10
273.6940754022476
 20
138.8994766723694
 30
0.0
  0
SPLINE
  5
25E
330
1F
100
AcDbEntity
  8
0
  6
Continuous
 62
     7
370
    25
100
AcDbSpline
210
0.0
220
0.0
230
1.0
 70
     8
 71
     3
 72
    22
 73
    18
 74
     0
 42
0.00000001
 43
0.00000001
 40
0.0
 40
0.0
 40
0.0
 40
0.0
 40
0.125
 40
0.125
 40
0.25
 40
0.25
 40
0.375
 40
0.375
 40
0.5
 40
0.5
 40
0.625
 40
0.625
 40
0.75
 40
0.75
 40
0.875
 40
0.875
 40
1.0
 40
1.0
 40
1.0
 40
1.0
 10
350.6524022404251
 20
142.7850491048006
 30
0.0
 10
350.5274081717614
 20
142.9472784998606
 30
0.0
 10
350.3814324695739
 20
143.0727975605939
 30
0.0
 10
350.0529495793722
 20
143.2547516285611
 30
0.0
 10
349.8687574550047
 20
143.3104246603135
 30
0.0
 10
349.4879408453869
 20
143.3507252921474
 30
0.0
 10
349.2880742704415
 20
143.3366523554579
 30
0.0
 10
348.8842133808512
 20
143.2466175034527
 30
0.0
 10
348.6831533380193
 20
143.1717746984054
 30
0.0
 10
348.2896551906303
 20
142.9685937853539
 30
0.0
 10
348.0966085358632
 20
142.8392566553487
 30
0.0
 10
347.7410853411513
 20
142.5369773035915
 30
0.0
 10
347.5767827632869
 20
142.3634459853305
 30
0.0
 10
347.2903106381482
 20
141.9691422778656
 30
0.0
 10
347.1692137906298
 20
141.7479943711322
 30
0.0
 10
347.0024433215729
 20
141.2747144016459
 30
0.0
 10
346.9555878681846
 20
141.0174005031753
 30
0.0
 10
346.9555878681846
 20
140.7500084770927
 30
0.0
  0
LINE
  5
25F
330
1F
100
AcDbEntity
  8
0
  6
Continuous
 62
     7
370
    25
100
AcDbLine
 10
346.9555878682
 20
140.7500084771
 30
0.0
 11
346.9555878682
 21
136.6673044177
 31
0.0
  0
ARC
  5
260
330
1F
100
AcDbEntity
  8
0
  6
Continuous
 62
     7
370
    25
100
AcDbCircle
 10
345.1120294955
 20
126.8677728503
 30
0.0
 40
9.971435524217512
100
AcDbArc
 50
79.345633576
 51
104.9702278102
  0
LINE
  5
261
330
1F
100
AcDbEntity
  8
0
  6
Continuous
 62
     7
370
    25
100
AcDbLine
 10
339.8683407775
 20
135.0581243744
 30
0.0
 11
339.7667364705
 21
134.9483033978
 31
0.0
  0
SPLINE
  5
262
330
1F
100
AcDbEntity
  8
0
  6
Continuous
 62
     7
370
    25
100
AcDbSpline
210
0.0
220
0.0
230
1.0
 70
     8
 71
     3
 72
    24
 73
    20
 74
     0
 42
0.00000001
 43
0.00000001
 40
0.0
 40
0.0
 40
0.0
 40
0.0
 40
0.1249999999999998
 40
0.1249999999999998
 40
0.2499999999999989
 40
0.2499999999999989
 40
0.374999999999998
 40
0.374999999999998
 40
0.4999999999999971
 40
0.4999999999999971
 40
0.6249999999999962
 40
0.6249999999999962
 40
0.7499999999999953
 40
0.7499999999999953
 40
0.8124999999999952
 40
0.8124999999999952
 40
0.8749999999999951
 40
0.8749999999999951
 40
1.0
 40
1.0
 40
1.0
 40
1.0
 10
280.5025793146555
 20
140.7500084770928
 30
0.0
 10
280.5025793146555
 20
141.0174868160475
 30
0.0
 10
280.4570523281774
 20
141.268833513706
 30
0.0
 10
280.2919344667341
 20
141.7415909988937
 30
0.0
 10
280.1709999040257
 20
141.9638652616977
 30
0.0
 10
279.8857517586763
 20
142.3583605284708
 30
0.0
 10
279.7199502990076
 20
142.534361051579
 30
0.0
 10
279.3613955812577
 20
142.8395713474254
 30
0.0
 10
279.171220667675
 20
142.9668652772392
 30
0.0
 10
278.7788947986456
 20
143.1700951884914
 30
0.0
 10
278.5746466000288
 20
143.2462820346108
 30
0.0
 10
278.1730106130796
 20
143.3361812965605
 30
0.0
 10
277.9751760255057
 20
143.35076451825
 30
0.0
 10
277.6879647877126
 20
143.3210894251618
 30
0.0
 10
277.5934561227317
 20
143.3023191227715
 30
0.0
 10
277.4130934985316
 20
143.2472326814334
 30
0.0
 10
277.326705655707
 20
143.2109377694736
 30
0.0
 10
277.0799433087084
 20
143.0752033754131
 30
0.0
 10
276.9308259805029
 20
142.9473654192587
 30
0.0
 10
276.8057649424149
 20
142.7850491048007
 30
0.0
  0
LINE
  5
263
330
1F
100
AcDbEntity
  8
0
  6
Continuous
 62
     7
370
    25
100
AcDbLine
 10
280.5025793147
 20
136.6673044177
 30
0.0
 11
280.5025793147
 21
140.7500084771
 31
0.0
  0
LINE
  5
264
330
1F
100
AcDbEntity
  8
0
  6
Continuous
 62
     7
370
    25
100
AcDbLine
 10
287.6914307124
 20
134.9483033978
 30
0.0
 11
287.5898264053
 21
135.0581243744
 31
0.0
  0
ARC
  5
265
330
1F
100
AcDbEntity
  8
0
  6
Continuous
 62
     7
370
    25
100
AcDbCircle
 10
282.3446321654
 20
126.8296290226
 30
0.0
 40
10.0086470555617
100
AcDbArc
 50
75.0533983372
 51
100.605525332
  0
SPLINE
  5
266
330
1F
100
AcDbEntity
  8
0
  6
Continuous
 62
     7
370
    25
100
AcDbSpline
210
0.0
220
0.0
230
1.0
 70
     8
 71
     3
 72
     9
 73
     5
 74
     0
 42
0.00000001
 43
0.00000001
 40
0.0
 40
0.0
 40
0.0
 40
0.0
 40
0.4999988811191678
 40
0.9999999999999999
 40
0.9999999999999999
 40
0.9999999999999999
 40
0.9999999999999999
 10
350.7371289807389
 20
142.6710221474303
 30
0.0
 10
350.7230025570761
 20
142.6905410691341
 30
0.0
 10
350.694749646527
 20
142.7295789998992
 30
0.0
 10
350.6665180635176
 20
142.7665590422493
 30
0.0
 10
350.6524022404251
 20
142.7850491048006
 30
0.0
  0
LINE
  5
267
330
1F
100
AcDbEntity
  8
0
  6
Continuous
 62
     7
370
    25
100
AcDbLine
 10
353.9065114642
 20
138.2538670159
 30
0.0
 11
350.7371289807
 21
142.6710221474
 31
0.0
  0
SPLINE
  5
268
330
1F
100
AcDbEntity
  8
0
  6
Continuous
 62
     7
370
    25
100
AcDbSpline
210
0.0
220
0.0
230
1.0
 70
     8
 71
     3
 72
     9
 73
     5
 74
     0
 42
0.00000001
 43
0.00000001
 40
0.0
 40
0.0
 40
0.0
 40
0.0
 40
0.5000011188808352
 40
1.0
 40
1.0
 40
1.0
 40
1.0
 10
276.805764942415
 20
142.7850491048007
 30
0.0
 10
276.7916491193224
 20
142.7665590422494
 30
0.0
 10
276.7634175363129
 20
142.7295789998992
 30
0.0
 10
276.735164625764
 20
142.6905410691342
 30
0.0
 10
276.7210382021011
 20
142.6710221474304
 30
0.0
  0
LINE
  5
269
330
1F
100
AcDbEntity
  8
0
  6
Continuous
 62
     7
370
    25
100
AcDbLine
 10
276.7210382021
 20
142.6710221474
 30
0.0
 11
273.5516557187
 21
138.2538670159
 31
0.0
  0
LWPOLYLINE
  5
26A
330
1F
100
AcDbEntity
  8
0
  6
Continuous
 62
     7
370
    25
100
AcDbPolyline
 90
        3
 70
   128
 43
0.0
 10
353.5771726423
 20
138.7128651566
 10
350.5987865517
 20
137.7336550489
 10
346.9555878682
 20
136.6673044177
  0
LWPOLYLINE
  5
26B
330
1F
100
AcDbEntity
  8
0
  6
Continuous
 62
     7
370
    25
100
AcDbPolyline
 90
        3
 70
   128
 43
0.0
 10
280.5025793147
 20
136.6673044177
 10
276.8593806312
 20
137.7336550489
 10
273.8809945406
 20
138.7128651566
  0
LINE
  5
26C
330
1F
100
AcDbEntity
  8
0
  6
Continuous
 62
     7
370
    25
100
AcDbLine
 10
347.5598286938
 20
132.0423224142
 30
0.0
 11
347.5598286938
 21
124.7002153066
 31
0.0
  0
LWPOLYLINE
  5
26D
330
1F
100
AcDbEntity
  8
0
  6
Continuous
 62
     7
370
    25
100
AcDbPolyline
 90
       10
 70
   128
 43
0.0
 10
347.5598286938
 20
124.7002153066
 10
346.5352719394
 20
124.9030523655
 10
345.4642397551
 20
124.9962480822
 10
344.381635054
 20
124.9767653846
 10
343.3227378758
 20
124.8452391769
 10
342.3220556768
 20
124.6059556494
 10
341.4121987973
 20
124.2667125999
 10
340.6228177521
 20
123.8385653176
 10
339.9796369765
 20
123.3354663127
 10
339.5036165155
 20
122.7738106302
  0
LINE
  5
26E
330
1F
100
AcDbEntity
  8
0
  6
Continuous
 62
     7
370
    25
100
AcDbLine
 10
279.8983384891
 20
124.7002153066
 30
0.0
 11
279.8983384891
 21
132.0423224142
 31
0.0
  0
LWPOLYLINE
  5
26F
330
1F
100
AcDbEntity
  8
0
  6
Continuous
 62
     7
370
    25
100
AcDbPolyline
 90
       10
 70
   128
 43
0.0
 10
287.9545506673
 20
122.7738106302
 10
287.4785302063
 20
123.3354663127
 10
286.8353494307
 20
123.8385653176
 10
286.0459683855
 20
124.2667125999
 10
285.136111506
 20
124.6059556494
 10
284.135429307
 20
124.8452391769
 10
283.0765321289
 20
124.9767653846
 10
281.9939274278
 20
124.9962480822
 10
280.9228952434
 20
124.9030523655
 10
279.8983384891
 20
124.7002153066
  0
LINE
  5
270
330
1F
100
AcDbEntity
  8
0
  6
Continuous
 62
     7
370
    25
100
AcDbLine
 10
384.0105227188
 20
145.7427530643
 30
0.0
 11
384.0105227188
 21
152.0986237746
 31
0.0
  0
LWPOLYLINE
  5
271
330
1F
100
AcDbEntity
  8
0
  6
Continuous
 62
     7
370
    25
100
AcDbPolyline
 90
       14
 70
   128
 43
0.0
 10
347.5598286938
 20
124.7002153066
 10
351.1541660555
 20
125.7660829718
 10
354.6480620904
 20
126.9379787197
 10
358.0321398905
 20
128.2127574199
 10
361.2973172777
 20
129.5869978251
 10
364.4348311785
 20
131.057011753
 10
367.4362611421
 20
132.6188539844
 10
370.2935519398
 20
134.2683328518
 10
372.9990351828
 20
136.0010214885
 10
375.545449903
 20
137.8122697099
 10
377.9259620401
 20
139.6972164933
 10
380.1341827827
 20
141.650803024
 10
382.1641857142
 20
143.6677862723
 10
384.0105227188
 20
145.7427530643
  0
LINE
  5
272
330
1F
100
AcDbEntity
  8
0
  6
Continuous
 62
     7
370
    25
100
AcDbLine
 10
243.447644464
 20
152.0986237746
 30
0.0
 11
243.447644464
 21
145.7427530643
 31
0.0
  0
LWPOLYLINE
  5
273
330
1F
100
AcDbEntity
  8
0
  6
Continuous
 62
     7
370
    25
100
AcDbPolyline
 90
       14
 70
   128
 43
0.0
 10
243.447644464
 20
145.7427530643
 10
245.2939814686
 20
143.6677862723
 10
247.3239844002
 20
141.650803024
 10
249.5322051427
 20
139.6972164933
 10
251.9127172798
 20
137.8122697099
 10
254.4591320001
 20
136.0010214885
 10
257.164615243
 20
134.2683328518
 10
260.0219060407
 20
132.6188539844
 10
263.0233360044
 20
131.057011753
 10
266.1608499051
 20
129.5869978251
 10
269.4260272923
 20
128.2127574199
 10
272.8101050924
 20
126.9379787197
 10
276.3040011273
 20
125.7660829718
 10
279.8983384891
 20
124.7002153066
  0
SPLINE
  5
274
330
1F
100
AcDbEntity
  8
0
  6
Continuous
 62
     7
370
    25
100
AcDbSpline
210
0.0
220
0.0
230
1.0
 70
     8
 71
     3
 72
    24
 73
    20
 74
     0
 42
0.00000001
 43
0.00000001
 40
0.0
 40
0.0
 40
0.0
 40
0.0
 40
0.125000000000001
 40
0.125000000000001
 40
0.2500000000000013
 40
0.2500000000000013
 40
0.3750000000000016
 40
0.3750000000000016
 40
0.5000000000000019
 40
0.5000000000000019
 40
0.6250000000000022
 40
0.6250000000000022
 40
0.7500000000000024
 40
0.7500000000000024
 40
0.8125000000000006
 40
0.8125000000000006
 40
0.8749999999999986
 40
0.8749999999999986
 40
1.0
 40
1.0
 40
1.0
 40
1.0
 10
240.7020577339284
 20
166.1573950762812
 30
0.0
 10
240.7020577339284
 20
166.424873415236
 30
0.0
 10
240.6597853899645
 20
166.6972147238864
 30
0.0
 10
240.5023395352698
 20
167.2471037738177
 30
0.0
 10
240.3856007671944
 20
167.5262105784856
 30
0.0
 10
240.0993024944
 20
168.0573742532336
 30
0.0
 10
239.928261856562
 20
168.313920593346
 30
0.0
 10
239.5404363453031
 20
168.7976056279089
 30
0.0
 10
239.3265216972356
 20
169.021525615234
 30
0.0
 10
238.8604521807907
 20
169.4300153741934
 30
0.0
 10
238.605530485903
 20
169.6159991087948
 30
0.0
 10
238.0703264832638
 20
169.9299159235447
 30
0.0
 10
237.7899038077757
 20
170.0588602131548
 30
0.0
 10
237.3486687424857
 20
170.2033714912468
 30
0.0
 10
237.197442811562
 20
170.2433613436584
 30
0.0
 10
236.895237594733
 20
170.3036667173676
 30
0.0
 10
236.7434917596097
 20
170.3243144256696
 30
0.0
 10
236.2865406878864
 20
170.3568522655943
 30
0.0
 10
235.9767853855806
 20
170.3387401162762
 30
0.0
 10
235.674861331304
 20
170.2785246477863
 30
0.0
  0
SPLINE
  5
275
330
1F
100
AcDbEntity
  8
0
  6
Continuous
 62
     7
370
    25
100
AcDbSpline
210
0.0
220
0.0
230
1.0
 70
     8
 71
     3
 72
    14
 73
    10
 74
     0
 42
0.00000001
 43
0.00000001
 40
0.0
 40
0.0
 40
0.0
 40
0.0
 40
0.25
 40
0.25
 40
0.5
 40
0.5
 40
0.75
 40
0.75
 40
1.0
 40
1.0
 40
1.0
 40
1.0
 10
235.6748610912321
 20
172.3198325407791
 30
0.0
 10
236.0910749462416
 20
172.5074369703593
 30
0.0
 10
236.5186383609007
 20
172.6655157148052
 30
0.0
 10
237.3956363964695
 20
172.9247680191621
 30
0.0
 10
237.8501545171028
 20
173.0262601557342
 30
0.0
 10
238.7423421969906
 20
173.161028812882
 30
0.0
 10
239.1832853612955
 20
173.1959817470511
 30
0.0
 10
240.0545390533198
 20
173.1978064120127
 30
0.0
 10
240.476263588149
 20
173.1642884996916
 30
0.0
 10
240.8767043248587
 20
173.0955489017573
 30
0.0
  0
SPLINE
  5
276
330
1F
100
AcDbEntity
  8
0
  6
Continuous
 62
     7
370
    25
100
AcDbSpline
210
0.0
220
0.0
230
1.0
 70
     8
 71
     3
 72
    14
 73
    10
 74
     0
 42
0.00000001
 43
0.00000001
 40
0.0
 40
0.0
 40
0.0
 40
0.0
 40
0.25
 40
0.25
 40
0.5
 40
0.5
 40
0.75
 40
0.75
 40
1.0
 40
1.0
 40
1.0
 40
1.0
 10
386.5814628579815
 20
173.0955489017572
 30
0.0
 10
386.9818619220922
 20
173.1642813461792
 30
0.0
 10
387.3981201782375
 20
173.1972959792463
 30
0.0
 10
388.260645558176
 20
173.1965217198128
 30
0.0
 10
388.7115914656993
 20
173.1614599166064
 30
0.0
 10
389.6035916960739
 20
173.0271343366295
 30
0.0
 10
390.0485036588913
 20
172.92848114283
 30
0.0
 10
390.936167307713
 20
172.6669344950729
 30
0.0
 10
391.3671771053008
 20
172.5073987031092
 30
0.0
 10
391.7833058515362
 20
172.3198326489891
 30
0.0
  0
SPLINE
  5
277
330
1F
100
AcDbEntity
  8
0
  6
Continuous
 62
     7
370
    25
100
AcDbSpline
210
0.0
220
0.0
230
1.0
 70
     8
 71
     3
 72
    22
 73
    18
 74
     0
 42
0.00000001
 43
0.00000001
 40
0.0
 40
0.0
 40
0.0
 40
0.0
 40
0.125
 40
0.125
 40
0.25
 40
0.25
 40
0.375
 40
0.375
 40
0.5
 40
0.5
 40
0.625
 40
0.625
 40
0.75
 40
0.75
 40
0.875
 40
0.875
 40
1.0
 40
1.0
 40
1.0
 40
1.0
 10
391.7833058515362
 20
170.2785246477861
 30
0.0
 10
391.4815434757522
 20
170.3387078712593
 30
0.0
 10
391.1780377158935
 20
170.3567467451137
 30
0.0
 10
390.5688283288457
 20
170.3144794609145
 30
0.0
 10
390.2612287992254
 20
170.252555075778
 30
0.0
 10
389.6755511505345
 20
170.0617472142214
 30
0.0
 10
389.3918314511519
 20
169.9320389343072
 30
0.0
 10
388.853458065353
 20
169.6166966457249
 30
0.0
 10
388.6024617775093
 20
169.4337579501827
 30
0.0
 10
388.134729224715
 20
169.0246392078375
 30
0.0
 10
387.9175956886541
 20
168.7972196266371
 30
0.0
 10
387.5329670352802
 20
168.3179548690995
 30
0.0
 10
387.3633300351993
 20
168.0645717854721
 30
0.0
 10
387.075641537549
 20
167.5329745603726
 30
0.0
 10
386.958695687557
 20
167.254905788656
 30
0.0
 10
386.7996237064912
 20
166.7037102422451
 30
0.0
 10
386.7561094489118
 20
166.4247871023637
 30
0.0
 10
386.7561094489118
 20
166.1573950762811
 30
0.0
  0
LINE
  5
278
330
1F
100
AcDbEntity
  8
0
  6
Continuous
 62
     7
370
    25
100
AcDbLine
 10
399.2955889413
 20
202.3565341215
 30
0.0
 11
391.7833060916
 21
202.150325709
 31
0.0
  0
LINE
  5
279
330
1F
100
AcDbEntity
  8
0
  6
Continuous
 62
     7
370
    25
100
AcDbLine
 10
391.7833058515
 20
172.319832649
 30
0.0
 11
399.2955889413
 21
168.9333607974
 31
0.0
  0
SPLINE
  5
27A
330
1F
100
AcDbEntity
  8
0
  6
Continuous
 62
     7
370
    25
100
AcDbSpline
210
0.0
220
0.0
230
1.0
 70
     8
 71
     3
 72
    14
 73
    10
 74
     0
 42
0.00000001
 43
0.00000001
 40
0.0
 40
0.0
 40
0.0
 40
0.0
 40
0.25
 40
0.25
 40
0.5
 40
0.5
 40
0.75
 40
0.75
 40
1.0
 40
1.0
 40
1.0
 40
1.0
 10
391.7833060916082
 20
202.1503257089839
 30
0.0
 10
391.3670922365987
 20
202.1388796674093
 30
0.0
 10
390.9395288219396
 20
202.1550917951612
 30
0.0
 10
390.0625307863708
 20
202.2407549782139
 30
0.0
 10
389.6080126657375
 20
202.3116561640601
 30
0.0
 10
388.7158249858497
 20
202.502353222864
 30
0.0
 10
388.2748818215448
 20
202.621902208469
 30
0.0
 10
387.4036281295205
 20
202.9110639001354
 30
0.0
 10
386.9819035946913
 20
203.078114184625
 30
0.0
 10
386.5814628579816
 20
203.265294673012
 30
0.0
  0
LINE
  5
27B
330
1F
100
AcDbEntity
  8
0
  6
Continuous
 62
     7
370
    25
100
AcDbLine
 10
228.1625782415
 20
168.9333607974
 30
0.0
 11
235.6748610912
 21
172.3198325408
 31
0.0
  0
LINE
  5
27C
330
1F
100
AcDbEntity
  8
0
  6
Continuous
 62
     7
370
    25
100
AcDbLine
 10
235.6748613313
 20
202.1503257024
 30
0.0
 11
228.1625782415
 21
202.3565341215
 31
0.0
  0
SPLINE
  5
27D
330
1F
100
AcDbEntity
  8
0
  6
Continuous
 62
     7
370
    25
100
AcDbSpline
210
0.0
220
0.0
230
1.0
 70
     8
 71
     3
 72
    14
 73
    10
 74
     0
 42
0.00000001
 43
0.00000001
 40
0.0
 40
0.0
 40
0.0
 40
0.0
 40
0.25
 40
0.25
 40
0.5
 40
0.5
 40
0.75
 40
0.75
 40
1.0
 40
1.0
 40
1.0
 40
1.0
 10
240.8767043248587
 20
203.2652946730121
 30
0.0
 10
240.4763052607481
 20
203.0781336639056
 30
0.0
 10
240.0600470046027
 20
202.913302753183
 30
0.0
 10
239.1975216246643
 20
202.6262255877496
 30
0.0
 10
238.746575717141
 20
202.5034245666922
 30
0.0
 10
237.8545754867664
 20
202.3124362465646
 30
0.0
 10
237.4096635239489
 20
202.2424744599539
 30
0.0
 10
236.5219998751273
 20
202.1550775744406
 30
0.0
 10
236.0909900775395
 20
202.1388820122183
 30
0.0
 10
235.6748613313041
 20
202.150325702382
 30
0.0
  0
SPLINE
  5
27E
330
1F
100
AcDbEntity
  8
0
  6
Continuous
 62
     7
370
    25
100
AcDbSpline
210
0.0
220
0.0
230
1.0
 70
     8
 71
     3
 72
    10
 73
     6
 74
     0
 42
0.00000001
 43
0.00000001
 40
0.0
 40
0.0
 40
0.0
 40
0.0
 40
0.5
 40
0.5
 40
1.0
 40
1.0
 40
1.0
 40
1.0
 10
399.2955889413027
 20
168.9333607974212
 30
0.0
 10
399.4053509241632
 20
168.8838759695008
 30
0.0
 10
399.5025890470852
 20
168.8010213515395
 30
0.0
 10
399.6285070235806
 20
168.6074086393646
 30
0.0
 10
399.6555804124196
 20
168.4988919909315
 30
0.0
 10
399.6394204729307
 20
168.4040237259157
 30
0.0
  0
LINE
  5
27F
330
1F
100
AcDbEntity
  8
0
  6
Continuous
 62
     7
370
    25
100
AcDbLine
 10
399.6394204729
 20
168.4040237259
 30
0.0
 11
391.9878542971
 21
170.2336692885
 31
0.0
  0
SPLINE
  5
280
330
1F
100
AcDbEntity
  8
0
  6
Continuous
 62
     7
370
    25
100
AcDbSpline
210
0.0
220
0.0
230
1.0
 70
     8
 71
     3
 72
     9
 73
     5
 74
     0
 42
0.00000001
 43
0.00000001
 40
0.0
 40
0.0
 40
0.0
 40
0.0
 40
0.4999988811193186
 40
1.0
 40
1.0
 40
1.0
 40
1.0
 10
391.9878542970977
 20
170.2336692884962
 30
0.0
 10
391.9537500935029
 20
170.2416552833306
 30
0.0
 10
391.8855415336789
 20
170.2576273087409
 30
0.0
 10
391.8173844630901
 20
170.2715588577125
 30
0.0
 10
391.7833058515362
 20
170.2785246477861
 30
0.0
  0
SPLINE
  5
281
330
1F
100
AcDbEntity
  8
0
  6
Continuous
 62
     7
370
    25
100
AcDbSpline
210
0.0
220
0.0
230
1.0
 70
     8
 71
     3
 72
     9
 73
     5
 74
     0
 42
0.00000001
 43
0.00000001
 40
0.0
 40
0.0
 40
0.0
 40
0.0
 40
0.5000011188807273
 40
1.0
 40
1.0
 40
1.0
 40
1.0
 10
235.674861331304
 20
170.2785246477862
 30
0.0
 10
235.6407827197501
 20
170.2715588577127
 30
0.0
 10
235.5726256491614
 20
170.257627308741
 30
0.0
 10
235.5044170893373
 20
170.2416552833307
 30
0.0
 10
235.4703128857425
 20
170.2336692884964
 30
0.0
  0
LINE
  5
282
330
1F
100
AcDbEntity
  8
0
  6
Continuous
 62
     7
370
    25
100
AcDbLine
 10
235.4703128857
 20
170.2336692885
 30
0.0
 11
227.8187467099
 21
168.4040237259
 31
0.0
  0
SPLINE
  5
283
330
1F
100
AcDbEntity
  8
0
  6
Continuous
 62
     7
370
    25
100
AcDbSpline
210
0.0
220
0.0
230
1.0
 70
     8
 71
     3
 72
    10
 73
     6
 74
     0
 42
0.00000001
 43
0.00000001
 40
0.0
 40
0.0
 40
0.0
 40
0.0
 40
0.5
 40
0.5
 40
1.0
 40
1.0
 40
1.0
 40
1.0
 10
227.8187467099095
 20
168.4040237259158
 30
0.0
 10
227.8025876869542
 20
168.4988866103456
 30
0.0
 10
227.829610002028
 20
168.6072532254703
 30
0.0
 10
227.9554011140251
 20
168.80082731162
 30
0.0
 10
228.0528218763889
 20
168.8838785021767
 30
0.0
 10
228.1625782415375
 20
168.9333607974213
 30
0.0
  0
SPLINE
  5
284
330
1F
100
AcDbEntity
  8
0
  6
Continuous
 62
     7
370
    25
100
AcDbSpline
210
0.0
220
0.0
230
1.0
 70
     8
 71
     3
 72
    11
 73
     7
 74
     0
 42
0.00000001
 43
0.00000001
 40
0.0
 40
0.0
 40
0.0
 40
0.0
 40
0.1006783948670962
 40
0.476176469073921
 40
0.8523688144026617
 40
1.0
 40
1.0
 40
1.0
 40
1.0
 10
399.5961811283586
 20
202.2075270405502
 30
0.0
 10
399.5917473233782
 20
202.2178730904192
 30
0.0
 10
399.5707768499916
 20
202.2668065830716
 30
0.0
 10
399.4869570911509
 20
202.32268746287
 30
0.0
 10
399.3831204149438
 20
202.3557408694985
 30
0.0
 10
399.3148342826679
 20
202.3563597110611
 30
0.0
 10
399.2955889413028
 20
202.3565341215414
 30
0.0
  0
ARC
  5
285
330
1F
100
AcDbEntity
  8
0
  6
Continuous
 62
     7
370
    25
100
AcDbCircle
 10
372.6634685871
 20
185.1315692663
 30
0.0
 40
31.74134149582634
100
AcDbArc
 50
328.1973202789
 51
16.074761321
  0
SPLINE
  5
286
330
1F
100
AcDbEntity
  8
0
  6
Continuous
 62
     7
370
    25
100
AcDbSpline
210
0.0
220
0.0
230
1.0
 70
     8
 71
     3
 72
    10
 73
     6
 74
     0
 42
0.00000001
 43
0.00000001
 40
0.0
 40
0.0
 40
0.0
 40
0.0
 40
0.3781471809610553
 40
0.7563154808165513
 40
1.0
 40
1.0
 40
1.0
 40
1.0
 10
228.1625782415376
 20
202.3565341215415
 30
0.0
 10
228.114361086168
 20
202.3530618074761
 30
0.0
 10
228.0179240825804
 20
202.3461169854223
 30
0.0
 10
227.912534669708
 20
202.2892191928924
 30
0.0
 10
227.876920016072
 20
202.230366248324
 30
0.0
 10
227.8629637558743
 20
202.2073036343732
 30
0.0
  0
ARC
  5
287
330
1F
100
AcDbEntity
  8
0
  6
Continuous
 62
     7
370
    25
100
AcDbCircle
 10
255.0017694353
 20
185.1598008505
 30
0.0
 40
31.93231578728628
100
AcDbArc
 50
163.9986829305
 51
211.6499276737
  0
LINE
  5
288
330
1F
100
AcDbEntity
  8
0
  6
Continuous
 62
     7
370
    25
100
AcDbLine
 10
387.3475150644
 20
154.6114299269
 30
0.0
 11
387.3475150644
 21
150.3935053608
 31
0.0
  0
ARC
  5
289
330
1F
100
AcDbEntity
  8
0
  6
Continuous
 62
     7
370
    25
100
AcDbCircle
 10
388.1721698967
 20
144.914754824
 30
0.0
 40
5.540465958458386
100
AcDbArc
 50
98.5598330812
 51
138.6889363421
  0
LINE
  5
28A
330
1F
100
AcDbEntity
  8
0
  6
Continuous
 62
     7
370
    25
100
AcDbLine
 10
240.1106521184
 20
150.3935053608
 30
0.0
 11
240.1106521184
 21
154.6114299269
 31
0.0
  0
ARC
  5
28B
330
1F
100
AcDbEntity
  8
0
  6
Continuous
 62
     7
370
    25
100
AcDbCircle
 10
239.203310736
 20
144.7632504172
 30
0.0
 40
5.702897431460667
100
AcDbArc
 50
41.9059972972
 51
80.8452332795
  0
ARC
  5
28C
330
1F
100
AcDbEntity
  8
0
  6
Continuous
 62
     7
370
    25
100
AcDbCircle
 10
362.0266494056
 20
177.9109436607
 30
0.0
 40
29.33553096388031
100
AcDbArc
 50
334.6156976105
 51
344.7937734037
  0
ARC
  5
28D
330
1F
100
AcDbEntity
  8
0
  6
Continuous
 62
     7
370
    25
100
AcDbCircle
 10
265.429766865
 20
177.9102050896
 30
0.0
 40
29.33363248111637
100
AcDbArc
 50
195.189436001
 51
205.384465154
  0
ARC
  5
28E
330
1F
100
AcDbEntity
  8
0
  6
Continuous
 62
     7
370
    25
100
AcDbCircle
 10
360.9610086694
 20
166.5959300252
 30
0.0
 40
30.96395137483375
100
AcDbArc
 50
328.4483250741
 51
342.5579981657
  0
LWPOLYLINE
  5
28F
330
1F
100
AcDbEntity
  8
0
  6
Continuous
 62
     7
370
    25
100
AcDbPolyline
 90
        3
 70
   128
 43
0.0
 10
391.6929268467
 20
163.9019480845
 10
391.7029121793
 20
164.1064688101
 10
391.7290835914
 20
165.2728265026
  0
LWPOLYLINE
  5
290
330
1F
100
AcDbEntity
  8
0
  6
Continuous
 62
     7
370
    25
100
AcDbPolyline
 90
        3
 70
   128
 43
0.0
 10
235.7290835914
 20
165.2728265026
 10
235.7552550036
 20
164.1064688101
 10
235.7639322303
 20
163.9269692197
  0
ARC
  5
291
330
1F
100
AcDbEntity
  8
0
  6
Continuous
 62
     7
370
    25
100
AcDbCircle
 10
266.4971585135
 20
166.5959300252
 30
0.0
 40
30.96395137485574
100
AcDbArc
 50
197.4420018343
 51
211.5516749258
  0
SPLINE
  5
292
330
1F
100
AcDbEntity
  8
0
  6
Continuous
 62
     7
370
    25
100
AcDbSpline
210
0.0
220
0.0
230
1.0
 70
     8
 71
     3
 72
    10
 73
     6
 74
     0
 42
0.00000001
 43
0.00000001
 40
0.0
 40
0.0
 40
0.0
 40
0.0
 40
0.4246591795295322
 40
0.8700536233125472
 40
1.0
 40
1.0
 40
1.0
 40
1.0
 10
242.4782941095337
 20
204.7564217387881
 30
0.0
 10
242.2389629206768
 20
205.0975413365029
 30
0.0
 10
241.7486144763847
 20
205.7964367243371
 30
0.0
 10
240.9061129228832
 20
206.3068678604111
 30
0.0
 10
240.38480502905
 20
206.4718797610649
 30
0.0
 10
240.2670625196852
 20
206.5091493199722
 30
0.0
  0
SPLINE
  5
293
330
1F
100
AcDbEntity
  8
0
  6
Continuous
 62
     7
370
    25
100
AcDbSpline
210
0.0
220
0.0
230
1.0
 70
     8
 71
     3
 72
    14
 73
    10
 74
     0
 42
0.00000001
 43
0.00000001
 40
0.0
 40
0.0
 40
0.0
 40
0.0
 40
0.25
 40
0.25
 40
0.5
 40
0.5
 40
0.75
 40
0.75
 40
1.0
 40
1.0
 40
1.0
 40
1.0
 10
240.2670622796133
 20
208.5504573277772
 30
0.0
 10
240.6832761495557
 20
208.5390113070147
 30
0.0
 10
241.0724937591867
 20
208.5017810464345
 30
0.0
 10
241.7989377294518
 20
208.3776176574011
 30
0.0
 10
242.1390656597156
 20
208.2890937126332
 30
0.0
 10
242.7356848953547
 20
208.0678582650086
 30
0.0
 10
242.9956688931736
 20
207.9352052159841
 30
0.0
 10
243.4357619446258
 20
207.6234601234516
 30
0.0
 10
243.6111304782834
 20
207.4471650779136
 30
0.0
 10
243.7375494494642
 20
207.2524425760232
 30
0.0
  0
SPLINE
  5
294
330
1F
100
AcDbEntity
  8
0
  6
Continuous
 62
     7
370
    25
100
AcDbSpline
210
0.0
220
0.0
230
1.0
 70
     8
 71
     3
 72
    14
 73
    10
 74
     0
 42
0.00000001
 43
0.00000001
 40
0.0
 40
0.0
 40
0.0
 40
0.0
 40
0.25
 40
0.25
 40
0.5
 40
0.5
 40
0.75
 40
0.75
 40
1.0
 40
1.0
 40
1.0
 40
1.0
 10
383.7206177333762
 20
207.252442576023
 30
0.0
 10
383.8470235485351
 20
207.4471448137595
 30
0.0
 10
384.0201942978022
 20
207.6211039462175
 30
0.0
 10
384.4547488362283
 20
207.9304879553543
 30
0.0
 10
384.7198808445565
 20
208.0666549896293
 30
0.0
 10
385.3159177959912
 20
208.2881494553904
 30
0.0
 10
385.6480897927678
 20
208.3753128886384
 30
0.0
 10
386.3824188487508
 20
208.5016177848249
 30
0.0
 10
386.7749759169199
 20
208.5390136310113
 30
0.0
 10
387.1911046631552
 20
208.550457321175
 30
0.0
  0
SPLINE
  5
295
330
1F
100
AcDbEntity
  8
0
  6
Continuous
 62
     7
370
    25
100
AcDbSpline
210
0.0
220
0.0
230
1.0
 70
     8
 71
     3
 72
    10
 73
     6
 74
     0
 42
0.00000001
 43
0.00000001
 40
0.0
 40
0.0
 40
0.0
 40
0.0
 40
0.4643832655085758
 40
0.9270360128943929
 40
1.0
 40
1.0
 40
1.0
 40
1.0
 10
387.1911046631552
 20
206.509149319972
 30
0.0
 10
386.7814626182026
 20
206.3376668875897
 30
0.0
 10
385.9637050539826
 20
205.9953410498507
 30
0.0
 10
385.2403958557783
 20
205.2937202898649
 30
0.0
 10
384.9994539852008
 20
204.8225116376672
 30
0.0
 10
384.9666318599648
 20
204.7583215931652
 30
0.0
  0
LINE
  5
296
330
1F
100
AcDbEntity
  8
0
  6
Continuous
 62
     7
370
    25
100
AcDbLine
 10
387.1911046632
 20
208.5504573212
 30
0.0
 11
394.7033877529
 21
208.7566657403
 31
0.0
  0
SPLINE
  5
297
330
1F
100
AcDbEntity
  8
0
  6
Continuous
 62
     7
370
    25
100
AcDbSpline
210
0.0
220
0.0
230
1.0
 70
     8
 71
     3
 72
    10
 73
     6
 74
     0
 42
0.00000001
 43
0.00000001
 40
0.0
 40
0.0
 40
0.0
 40
0.0
 40
0.4147397850468204
 40
0.8296303277882171
 40
1.0
 40
1.0
 40
1.0
 40
1.0
 10
350.6524022404254
 20
229.6438012453673
 30
0.0
 10
350.3230189983254
 20
229.4282594836472
 30
0.0
 10
349.6641327834895
 20
228.9970976108895
 30
0.0
 10
348.3031212204633
 20
228.6863683080386
 30
0.0
 10
347.3791001539852
 20
228.6287304365138
 30
0.0
 10
347.1101169526835
 20
228.611952010392
 30
0.0
  0
LINE
  5
298
330
1F
100
AcDbEntity
  8
0
  6
Continuous
 62
     7
370
    25
100
AcDbLine
 10
353.7640917806
 20
232.3904182466
 30
0.0
 11
350.6524022404
 21
229.6438012454
 31
0.0
  0
LINE
  5
299
330
1F
100
AcDbEntity
  8
0
  6
Continuous
 62
     7
370
    25
100
AcDbLine
 10
232.7547794299
 20
208.7566657403
 30
0.0
 11
240.2670622796
 21
208.5504573278
 31
0.0
  0
LINE
  5
29A
330
1F
100
AcDbEntity
  8
0
  6
Continuous
 62
     7
370
    25
100
AcDbLine
 10
276.8057649424
 20
229.6438012454
 30
0.0
 11
273.6940754022
 21
232.3904182466
 31
0.0
  0
SPLINE
  5
29B
330
1F
100
AcDbEntity
  8
0
  6
Continuous
 62
     7
370
    25
100
AcDbSpline
210
0.0
220
0.0
230
1.0
 70
     8
 71
     3
 72
    10
 73
     6
 74
     0
 42
0.00000001
 43
0.00000001
 40
0.0
 40
0.0
 40
0.0
 40
0.0
 40
0.3240899558285766
 40
0.7341506997750951
 40
1.0
 40
1.0
 40
1.0
 40
1.0
 10
280.3058292011644
 20
228.6276416628702
 30
0.0
 10
279.8051655866032
 20
228.6673816745269
 30
0.0
 10
278.6710281769992
 20
228.7574034627436
 30
0.0
 10
277.4927042942316
 20
229.1483881788963
 30
0.0
 10
276.9996810920812
 20
229.5039510619556
 30
0.0
 10
276.8057649424152
 20
229.6438012453674
 30
0.0
  0
SPLINE
  5
29C
330
1F
100
AcDbEntity
  8
0
  6
Continuous
 62
     7
370
    25
100
AcDbSpline
210
0.0
220
0.0
230
1.0
 70
     8
 71
     3
 72
    10
 73
     6
 74
     0
 42
0.00000001
 43
0.00000001
 40
0.0
 40
0.0
 40
0.0
 40
0.0
 40
0.5
 40
0.5
 40
1.0
 40
1.0
 40
1.0
 40
1.0
 10
394.7033877529217
 20
208.7566657403346
 30
0.0
 10
394.8131497357823
 20
208.7596735708494
 30
0.0
 10
394.9103878587043
 20
208.7233221905336
 30
0.0
 10
395.0363058351996
 20
208.5899285921062
 30
0.0
 10
395.0633792240386
 20
208.4943595427958
 30
0.0
 10
395.0472192845497
 20
208.3917629353994
 30
0.0
  0
LINE
  5
29D
330
1F
100
AcDbEntity
  8
0
  6
Continuous
 62
     7
370
    25
100
AcDbLine
 10
395.0472192845
 20
208.3917629354
 30
0.0
 11
387.3956531087
 21
206.5621173728
 31
0.0
  0
SPLINE
  5
29E
330
1F
100
AcDbEntity
  8
0
  6
Continuous
 62
     7
370
    25
100
AcDbSpline
210
0.0
220
0.0
230
1.0
 70
     8
 71
     3
 72
     9
 73
     5
 74
     0
 42
0.00000001
 43
0.00000001
 40
0.0
 40
0.0
 40
0.0
 40
0.0
 40
0.499998881119121
 40
1.0
 40
1.0
 40
1.0
 40
1.0
 10
387.3956531087166
 20
206.5621173728188
 30
0.0
 10
387.3615489051219
 20
206.5537933460605
 30
0.0
 10
387.2933403452978
 20
206.5371452552896
 30
0.0
 10
387.2251832747092
 20
206.5184813123331
 30
0.0
 10
387.1911046631552
 20
206.5091493199721
 30
0.0
  0
LINE
  5
29F
330
1F
100
AcDbEntity
  8
0
  6
Continuous
 62
     7
370
    25
100
AcDbLine
 10
240.0625140741
 20
206.5621173728
 30
0.0
 11
232.4109478983
 21
208.3917629354
 31
0.0
  0
SPLINE
  5
2A0
330
1F
100
AcDbEntity
  8
0
  6
Continuous
 62
     7
370
    25
100
AcDbSpline
210
0.0
220
0.0
230
1.0
 70
     8
 71
     3
 72
    10
 73
     6
 74
     0
 42
0.00000001
 43
0.00000001
 40
0.0
 40
0.0
 40
0.0
 40
0.0
 40
0.5
 40
0.5
 40
1.0
 40
1.0
 40
1.0
 40
1.0
 10
232.4109478982907
 20
208.3917629353995
 30
0.0
 10
232.3947888753354
 20
208.4943537238861
 30
0.0
 10
232.4218111904092
 20
208.5897971654462
 30
0.0
 10
232.5476023024062
 20
208.7232128096277
 30
0.0
 10
232.64502306477
 20
208.7596734169062
 30
0.0
 10
232.7547794299187
 20
208.7566657403347
 30
0.0
  0
SPLINE
  5
2A1
330
1F
100
AcDbEntity
  8
0
  6
Continuous
 62
     7
370
    25
100
AcDbSpline
210
0.0
220
0.0
230
1.0
 70
     8
 71
     3
 72
     9
 73
     5
 74
     0
 42
0.00000001
 43
0.00000001
 40
0.0
 40
0.0
 40
0.0
 40
0.0
 40
0.5000011188808352
 40
1.0
 40
1.0
 40
1.0
 40
1.0
 10
240.2670625196852
 20
206.5091493199722
 30
0.0
 10
240.2329839081312
 20
206.5184813123332
 30
0.0
 10
240.1648268375425
 20
206.5371452552897
 30
0.0
 10
240.0966182777185
 20
206.5537933460607
 30
0.0
 10
240.0625140741238
 20
206.5621173728189
 30
0.0
  0
SPLINE
  5
2A2
330
1F
100
AcDbEntity
  8
0
  6
Continuous
 62
     7
370
    25
100
AcDbSpline
210
0.0
220
0.0
230
1.0
 70
     8
 71
     3
 72
     9
 73
     5
 74
     0
 42
0.00000001
 43
0.00000001
 40
0.0
 40
0.0
 40
0.0
 40
0.0
 40
0.6698560986679798
 40
1.0
 40
1.0
 40
1.0
 40
1.0
 10
353.8309915681291
 20
232.4133388170804
 30
0.0
 10
353.8171092151604
 20
232.4147643243955
 30
0.0
 10
353.796384834213
 20
232.4168924043189
 30
0.0
 10
353.772106969549
 20
232.3969891760298
 30
0.0
 10
353.7640917805927
 20
232.3904182465934
 30
0.0
  0
SPLINE
  5
2A3
330
1F
100
AcDbEntity
  8
0
  6
Continuous
 62
     7
370
    25
100
AcDbSpline
210
0.0
220
0.0
230
1.0
 70
     8
 71
     3
 72
     9
 73
     5
 74
     0
 42
0.00000001
 43
0.00000001
 40
0.0
 40
0.0
 40
0.0
 40
0.0
 40
0.7860354399362982
 40
1.0
 40
1.0
 40
1.0
 40
1.0
 10
273.6940754022478
 20
232.3904182465935
 30
0.0
 10
273.6731723966169
 20
232.4068688335189
 30
0.0
 10
273.6465794409194
 20
232.4277973897769
 30
0.0
 10
273.6273097681915
 20
232.4142710475509
 30
0.0
 10
273.6231867411438
 20
232.4113768896872
 30
0.0
  0
LINE
  5
2A4
330
1F
100
AcDbEntity
  8
0
  6
Continuous
 62
     7
370
    25
100
AcDbLine
 10
284.7806297924
 20
235.0414395641
 30
0.0
 11
287.8923192331
 21
232.2948226506
 31
0.0
  0
ARC
  5
2A5
330
1F
100
AcDbEntity
  8
0
  6
Continuous
 62
     7
370
    25
100
AcDbCircle
 10
313.9789103658
 20
86.430786254
 30
0.0
 40
151.3563261655394
100
AcDbArc
 50
79.0699926012
 51
88.5956536326
  0
ARC
  5
2A6
330
1F
100
AcDbEntity
  8
0
  6
Continuous
 62
     7
370
    25
100
AcDbCircle
 10
313.3988038586
 20
87.1957600782
 30
0.0
 40
150.5899891410999
100
AcDbArc
 50
91.2699433504
 51
100.955138919
  0
LINE
  5
2A7
330
1F
100
AcDbEntity
  8
0
  6
Continuous
 62
     7
370
    25
100
AcDbLine
 10
339.5658478503
 20
232.2948225628
 30
0.0
 11
342.6775373905
 21
235.0414395641
 31
0.0
  0
SPLINE
  5
2A8
330
1F
100
AcDbEntity
  8
0
  6
Continuous
 62
     7
370
    25
100
AcDbSpline
210
0.0
220
0.0
230
1.0
 70
     8
 71
     3
 72
    10
 73
     6
 74
     0
 42
0.00000001
 43
0.00000001
 40
0.0
 40
0.0
 40
0.0
 40
0.0
 40
0.2836513482276486
 40
0.7182453649964775
 40
1.0
 40
1.0
 40
1.0
 40
1.0
 10
339.6266350627096
 20
230.5150196396108
 30
0.0
 10
339.4567648339082
 20
230.6880235894309
 30
0.0
 10
339.0266293691912
 20
231.12609407935
 30
0.0
 10
339.0764060623568
 20
231.7527553540372
 30
0.0
 10
339.4276832994446
 20
232.141802378873
 30
0.0
 10
339.5658478502899
 20
232.2948225628443
 30
0.0
  0
SPLINE
  5
2A9
330
1F
100
AcDbEntity
  8
0
  6
Continuous
 62
     7
370
    25
100
AcDbSpline
210
0.0
220
0.0
230
1.0
 70
     8
 71
     3
 72
    10
 73
     6
 74
     0
 42
0.00000001
 43
0.00000001
 40
0.0
 40
0.0
 40
0.0
 40
0.0
 40
0.4484618859139228
 40
0.8970867874570396
 40
1.0
 40
1.0
 40
1.0
 40
1.0
 10
287.8923192331096
 20
232.2948226506309
 30
0.0
 10
288.0873668890415
 20
232.0478023878569
 30
0.0
 10
288.4775331006124
 20
231.5536720705901
 30
0.0
 10
288.3099869656343
 20
230.9180902855833
 30
0.0
 10
287.9579980298098
 20
230.588354043788
 30
0.0
 10
287.8923193192364
 20
230.5268275326216
 30
0.0
  0
SPLINE
  5
2AA
330
1F
100
AcDbEntity
  8
0
  6
Continuous
 62
     7
370
    25
100
AcDbSpline
210
0.0
220
0.0
230
1.0
 70
     8
 71
     3
 72
    10
 73
     6
 74
     0
 42
0.00000001
 43
0.00000001
 40
0.0
 40
0.0
 40
0.0
 40
0.0
 40
0.5
 40
0.5
 40
1.0
 40
1.0
 40
1.0
 40
1.0
 10
342.6775373904573
 20
235.0414395640704
 30
0.0
 10
342.7230022923911
 20
235.0815653093271
 30
0.0
 10
342.7632796416851
 20
235.0780966836977
 30
0.0
 10
342.815436575296
 20
234.987284428958
 30
0.0
 10
342.8266507401325
 20
234.9008707147875
 30
0.0
 10
342.8199570740292
 20
234.7928093440864
 30
0.0
  0
SPLINE
  5
2AB
330
1F
100
AcDbEntity
  8
0
  6
Continuous
 62
     7
370
    25
100
AcDbSpline
210
0.0
220
0.0
230
1.0
 70
     8
 71
     3
 72
    10
 73
     6
 74
     0
 42
0.00000001
 43
0.00000001
 40
0.0
 40
0.0
 40
0.0
 40
0.0
 40
0.5
 40
0.5
 40
1.0
 40
1.0
 40
1.0
 40
1.0
 10
284.6382101088115
 20
234.7928093440865
 30
0.0
 10
284.6315168223487
 20
234.9008645859361
 30
0.0
 10
284.642709831739
 20
234.9871699638343
 30
0.0
 10
284.6948142163542
 20
235.0780471657544
 30
0.0
 10
284.735167217382
 20
235.0815632556573
 30
0.0
 10
284.7806297923833
 20
235.0414395640704
 30
0.0
  0
LINE
  5
2AC
330
1F
100
AcDbEntity
  8
0
  6
Continuous
 62
     7
370
    25
100
AcDbLine
 10
342.819957074
 20
234.7928093441
 30
0.0
 11
339.7473816681
 21
230.5105738322
 31
0.0
  0
LINE
  5
2AD
330
1F
100
AcDbEntity
  8
0
  6
Continuous
 62
     7
370
    25
100
AcDbLine
 10
287.7107855147
 20
230.5105738322
 30
0.0
 11
284.6382101088
 21
234.7928093441
 31
0.0
  0
ARC
  5
2AE
330
1F
100
AcDbEntity
  8
0
  6
Continuous
 62
     8
370
    18
100
AcDbCircle
 10
313.7290835914
 20
286.6187725884
 30
0.0
 40
153.1314640505375
100
AcDbArc
 50
259.1030514015
 51
280.8969485985
  0
LWPOLYLINE
  5
2AF
330
1F
100
AcDbEntity
  8
0
  6
Continuous
 62
     8
370
    18
100
AcDbPolyline
 90
       59
 70
   128
 43
0.0
 10
261.3054462408
 20
160.1701289771
 10
264.0736588431
 20
158.6523272763
 10
266.9735487054
 20
157.2188039317
 10
269.997425841
 20
155.8733603896
 10
273.1372714713
 20
154.6195645244
 10
276.3847592901
 20
153.4607411773
 10
279.7312775437
 20
152.3999633394
 10
283.1679518671
 20
151.440044003
 10
286.6856688178
 20
150.5835287015
 10
290.275100043
 20
149.8326887596
 10
293.9267270162
 20
149.1895152697
 10
297.6308662792
 20
148.6557138125
 10
301.3776951205
 20
148.2326999332
 10
305.1572776237
 20
147.9215953889
 10
308.9595910153
 20
147.7232251726
 10
312.7745522438
 20
147.6381153267
 10
316.5920447179
 20
147.6664915471
 10
320.4019451337
 20
147.8082785852
 10
324.1941503203
 20
148.0631004472
 10
327.9586040313
 20
148.4302813914
 10
331.685323612
 20
148.90884772
 10
335.3644264722
 20
149.4975303609
 10
338.9861562925
 20
150.1947682338
 10
342.5409088965
 20
150.9987123892
 10
346.0192577192
 20
151.9072309115
 10
349.4119788049
 20
152.9179145731
 10
352.7100752672
 20
154.0280832226
 10
355.9048011472
 20
155.2347928922
 10
358.9876846061
 20
156.5348436049
 10
361.9505503913
 20
157.9247878599
 10
364.7855415153
 20
159.4009397749
 10
367.4851400913
 20
160.9593848604
 10
370.0421872691
 20
162.5959904001
 10
372.4499022194
 20
164.3064164105
 10
374.7019001149
 20
166.0861271491
 10
376.792209062
 20
167.9304031431
 10
378.7152859372
 20
169.8343537041
 10
380.4660310864
 20
171.7929298974
 10
382.0398018481
 20
173.8009379311
 10
383.4324248651
 20
175.8530529289
 10
384.6402071517
 20
177.9438330506
 10
385.6599458862
 20
180.0677339233
 10
386.4889369049
 20
182.2191233437
 10
387.1249818726
 20
184.3922962137
 10
387.5663941125
 20
186.5814896696
 10
387.8120030785
 20
188.780898364
 10
387.86115746
 20
190.9846898602
 10
387.7137269082
 20
193.1870200995
 10
387.3701023826
 20
195.382048898
 10
386.8311951135
 20
197.5639554339
 10
386.0984341862
 20
199.7269536833
 10
385.173762751
 20
201.8653077637
 10
384.0596328702
 20
203.9733471444
 10
382.758999016
 20
206.0454816841
 10
381.2753102357
 20
208.0762164544
 10
379.612501005
 20
210.0601663117
 10
377.7749807951
 20
211.9920701777
 10
375.7676223794
 20
213.8668049907
 10
375.1571402638
 20
214.3967888866
  0
LWPOLYLINE
  5
2B0
330
1F
100
AcDbEntity
  8
0
  6
Continuous
 62
     8
370
    18
100
AcDbPolyline
 90
       28
 70
   128
 43
0.0
 10
251.5079326276
 20
213.7048900655
 10
250.6659581208
 20
212.9368981418
 10
248.7428812456
 20
211.0329475808
 10
246.9921360964
 20
209.0743713875
 10
245.4183653348
 20
207.0663633538
 10
244.0257423177
 20
205.0142483561
 10
242.8179600312
 20
202.9234682343
 10
241.7982212966
 20
200.7995673616
 10
240.9692302779
 20
198.6481779412
 10
240.3331853102
 20
196.4750050712
 10
239.8917730704
 20
194.2858116153
 10
239.6461641043
 20
192.0864029209
 10
239.5970097229
 20
189.8826114247
 10
239.7444402746
 20
187.6802811854
 10
240.0880648003
 20
185.4852523869
 10
240.6269720693
 20
183.303345851
 10
241.3597329966
 20
181.1403476016
 10
242.2844044318
 20
179.0019935212
 10
243.3985343126
 20
176.8939541405
 10
244.6991681668
 20
174.8218196008
 10
246.1828569472
 20
172.7910848306
 10
247.8456661779
 20
170.8071349732
 10
249.6831863877
 20
168.8752311072
 10
251.6905448034
 20
167.0004962942
 10
253.8624182713
 20
165.187901994
 10
256.1930473735
 20
163.4422548808
 10
258.6762517005
 20
161.7681840969
 10
261.3054462408
 20
160.1701289771
  0
LWPOLYLINE
  5
2B1
330
1F
100
AcDbEntity
  8
0
  6
Continuous
 62
     8
370
    18
100
AcDbPolyline
 90
       51
 70
   128
 43
0.0
 10
262.1319080417
 20
220.0770577989
 10
264.879546889
 20
221.5829370329
 10
267.7588754509
 20
223.0044577729
 10
270.7621315664
 20
224.3377878504
 10
273.8812189882
 20
225.5793328431
 10
277.1077292079
 20
226.7257457652
 10
280.4329641245
 20
227.7739360903
 10
283.8479594924
 20
228.7210780825
 10
287.3435090881
 20
229.5646184144
 10
290.9101895277
 20
230.3022830504
 10
294.5383856713
 20
230.9320833772
 10
298.2183165437
 20
231.4523215643
 10
301.9400617018
 20
231.8615951416
 10
305.6935879786
 20
232.1588007799
 10
309.4687765309
 20
232.3431372654
 10
313.2554501179
 20
232.4141076594
 10
317.0434005369
 20
232.3715206383
 10
320.8224161435
 20
232.2154910093
 10
324.5823093795
 20
231.9464394005
 10
328.3129442377
 20
231.5650911276
 10
332.004263586
 20
231.0724742381
 10
335.6463162799
 20
230.46991674
 10
339.2292839895
 20
229.7590430219
 10
342.7435076672
 20
228.9417694735
 10
346.1795135873
 20
228.0202993199
 10
349.5280388852
 20
226.9971166817
 10
352.7800565289
 20
225.8749798783
 10
355.9267996536
 20
224.6569139923
 10
358.9597851963
 20
223.3462027139
 10
361.8708367641
 20
221.946379489
 10
364.6521066768
 20
220.4612179934
 10
367.2960971222
 20
218.8947219601
 10
369.7956803697
 20
217.2511143854
 10
372.1441179848
 20
215.5348261447
 10
374.3350789947
 20
213.7504840476
 10
376.3626569561
 20
211.902898365
 10
378.2213858771
 20
209.9970498613
 10
379.9062549532
 20
208.0380763671
 10
381.4127220753
 20
206.0312589285
 10
382.7367260744
 20
203.9820075706
 10
383.8746976698
 20
201.8958467127
 10
384.8235690911
 20
199.7784002757
 10
385.5807823489
 20
197.6353765209
 10
386.14429613
 20
195.4725526613
 10
386.512591301
 20
193.2957592877
 10
386.6846750032
 20
191.1108646502
 10
386.6600833293
 20
188.9237588385
 10
386.4388825741
 20
186.7403379032
 10
386.0216690558
 20
184.566487961
 10
385.4095675082
 20
182.4080693271
 10
384.7483730464
 20
180.6170231284
  0
LWPOLYLINE
  5
2B2
330
1F
100
AcDbEntity
  8
0
  6
Continuous
 62
     8
370
    18
100
AcDbPolyline
 90
       21
 70
   128
 43
0.0
 10
242.873263483
 20
180.2254559411
 10
242.2318944294
 20
181.8715588298
 10
241.5713082695
 20
184.0252084917
 10
241.1052467145
 20
186.1957486557
 10
240.834966184
 20
188.3773279291
 10
240.7611953065
 20
190.56406516
 10
240.8841329553
 20
192.7500652915
 10
241.2034477123
 20
194.9294352535
 10
241.7182787611
 20
197.0962998501
 10
242.4272382085
 20
199.2448175974
 10
243.328414825
 20
201.3691964713
 10
244.4193791978
 20
203.4637095221
 10
245.6971902799
 20
205.5227103128
 10
247.1584033185
 20
207.5406481414
 10
248.7990791415
 20
209.5120830041
 10
250.6147947771
 20
211.4317002612
 10
252.6006553769
 20
213.294324964
 10
254.7513074117
 20
215.0949358055
 10
257.060953104
 20
216.8286786573
 10
259.5233660573
 20
218.4908796551
 10
262.1319080417
 20
220.0770577989
  0
LWPOLYLINE
  5
2B3
330
1F
100
AcDbEntity
  8
0
  6
Continuous
 62
     8
370
    18
100
AcDbPolyline
 90
       23
 70
   128
 43
0.0
 10
265.1087350189
 20
213.0035191072
 10
262.5899641565
 20
211.4699020423
 10
260.2161526842
 20
209.8610705852
 10
257.9940294286
 20
208.1815851433
 10
255.9298932394
 20
206.4362064007
 10
254.029595135
 20
204.6298818229
 10
252.2985217167
 20
202.7677316334
 10
250.7415799003
 20
200.8550342991
 10
249.3631830064
 20
198.8972115684
 10
248.1672382509
 20
196.8998131025
 10
247.1571356691
 20
194.8685007445
 10
246.3357385065
 20
192.8090324698
 10
245.7053751025
 20
190.7272460651
 10
245.2678322908
 20
188.6290425802
 10
245.024350334
 20
186.5203696006
 10
244.9756194082
 20
184.4072043892
 10
245.1217776464
 20
182.2955369423
 10
245.4624107472
 20
180.1913530107
 10
245.9965531491
 20
178.1006171323
 10
246.7226907675
 20
176.0292557252
 10
247.6387652864
 20
173.9831402883
 10
248.7421799929
 20
171.9680707581
 10
249.3198347345
 20
171.0407495462
  0
LWPOLYLINE
  5
2B4
330
1F
100
AcDbEntity
  8
0
  6
Continuous
 62
     8
370
    18
100
AcDbPolyline
 90
       52
 70
   128
 43
0.0
 10
378.1442602507
 20
171.0499104054
 10
379.2909289319
 20
172.9713655354
 10
380.3010315137
 20
175.0026778934
 10
381.1224286764
 20
177.0621461681
 10
381.7527920803
 20
179.1439325727
 10
382.190334892
 20
181.2421360577
 10
382.4338168488
 20
183.3508090372
 10
382.4825477747
 20
185.4639742487
 10
382.3363895365
 20
187.5756416956
 10
381.9957564357
 20
189.6798256272
 10
381.4616140337
 20
191.7705615056
 10
380.7354764153
 20
193.8419229127
 10
379.8194018965
 20
195.8880383496
 10
378.7159871899
 20
197.9031078798
 10
377.4283600445
 20
199.8814195697
 10
375.9601703793
 20
201.81736568
 10
374.3155799374
 20
203.705458561
 10
372.4992504891
 20
205.5403462084
 10
370.5163306175
 20
207.3168274338
 10
368.3724411245
 20
209.0298666081
 10
366.0736590978
 20
210.6746079356
 10
363.6265006848
 20
212.2463892184
 10
361.0379026218
 20
213.7407550717
 10
358.3152025713
 20
215.1534695531
 10
355.4661183225
 20
216.4805281699
 10
352.4987259141
 20
217.7181692303
 10
349.4214367424
 20
218.8628845062
 10
346.2429737179
 20
219.9114291778
 10
342.9723465392
 20
220.8608310313
 10
339.6188261546
 20
221.708398884
 10
336.1919184818
 20
222.4517302128
 10
332.7013374631
 20
223.0887179643
 10
329.1569775294
 20
223.6175565274
 10
325.5688855542
 20
224.0367468517
 10
321.947232374
 20
224.3451006969
 10
318.3022839582
 20
224.5417440003
 10
314.6443723091
 20
224.6261193552
 10
310.9838661747
 20
224.5979875905
 10
307.3311416573
 20
224.4574284488
 10
303.6965528014
 20
224.2048403601
 10
300.0904022441
 20
223.8409393128
 10
296.5229120108
 20
223.3667568241
 10
293.0041945402
 20
222.7836370157
 10
289.5442240194
 20
222.093232804
 10
286.1528081106
 20
221.2975012148
 10
282.8395601508
 20
220.3986978357
 10
279.6138719011
 20
219.3993704226
 10
276.4848869255
 20
218.3023516776
 10
273.4614746718
 20
217.1107512196
 10
270.5522053305
 20
215.8279467694
 10
267.7653255417
 20
214.4575745756
 10
265.1087350189
 20
213.0035191072
  0
LWPOLYLINE
  5
2B5
330
1F
100
AcDbEntity
  8
0
  6
Continuous
 62
     8
370
    18
100
AcDbPolyline
 90
       26
 70
   128
 43
0.0
 10
273.6642817037
 20
215.3871470841
 10
274.8323939691
 20
215.8578091208
 10
277.9197673525
 20
217.0062756045
 10
281.1086461333
 20
218.0582563348
 10
284.3899910882
 20
219.0107693582
 10
287.7545008883
 20
219.8611146729
 10
291.1926384652
 20
220.6068818828
 10
294.6946580443
 20
221.2459570296
 10
298.2506327706
 20
221.7765285855
 10
301.8504828475
 20
222.1970925877
 10
305.4840041087
 20
222.5064569019
 10
309.1408969436
 20
222.7037446013
 10
312.8107954919
 20
222.7883964525
 10
316.4832970277
 20
222.7601725006
 10
320.1479914462
 20
222.6191527495
 10
323.7944907731
 20
222.365736935
 10
327.4124586097
 20
222.0006433917
 10
330.9916394332
 20
221.5249070169
 10
334.5218876666
 20
220.9398763372
 10
337.9931964378
 20
220.2472096855
 10
341.3957259449
 20
219.4488705007
 10
344.7198313484
 20
218.5471217619
 10
347.9560901103
 20
217.544519574
 10
351.0953287037
 20
216.4439059217
 10
354.1286486155
 20
215.2484006141
 10
355.0182285032
 20
214.8710842521
  0
LWPOLYLINE
  5
2B6
330
1F
100
AcDbEntity
  8
0
  6
Continuous
 62
     8
370
    18
100
AcDbPolyline
 90
       15
 70
   128
 43
0.0
 10
353.7640917806
 20
138.8994766724
 10
357.4929785784
 20
140.0269385707
 10
361.1268305956
 20
141.2534615208
 10
364.6577567996
 20
142.5763820865
 10
368.0780896643
 20
143.992827501
 10
371.3804018211
 20
145.4997219049
 10
374.5575221873
 20
147.0937930262
 10
377.6025515384
 20
148.7715792854
 10
380.50887749
 20
150.5294373127
 10
383.2701888568
 20
152.36354986
 10
385.8804893576
 20
154.2699340896
 10
388.3341106366
 20
156.2444502236
 10
390.6257245718
 20
158.2828105334
 10
392.7503548462
 20
160.3805886505
 10
394.7033877529
 20
162.5332291786
  0
LWPOLYLINE
  5
2B7
330
1F
100
AcDbEntity
  8
0
  6
Continuous
 62
     8
370
    18
100
AcDbPolyline
 90
       15
 70
   128
 43
0.0
 10
232.7547794299
 20
162.5332291786
 10
234.7078123367
 20
160.3805886505
 10
236.832442611
 20
158.2828105334
 10
239.1240565463
 20
156.2444502236
 10
241.5776778252
 20
154.2699340896
 10
244.1879783261
 20
152.36354986
 10
246.9492896929
 20
150.5294373127
 10
249.8556156444
 20
148.7715792854
 10
252.9006449955
 20
147.0937930262
 10
256.0777653617
 20
145.4997219049
 10
259.3800775186
 20
143.992827501
 10
262.8004103833
 20
142.5763820865
 10
266.3313365872
 20
141.2534615208
 10
269.9651886044
 20
140.0269385707
 10
273.6940754022
 20
138.8994766724
  0
LINE
  5
2B8
330
1F
100
AcDbEntity
  8
0
  6
Continuous
 62
     8
370
    18
100
AcDbLine
 10
350.6524022404
 20
144.826357106
 30
0.0
 11
350.6524022404
 21
142.7850491048
 31
0.0
  0
LINE
  5
2B9
330
1F
100
AcDbEntity
  8
0
  6
Continuous
 62
     8
370
    18
100
AcDbLine
 10
276.8057649424
 20
142.7850491048
 30
0.0
 11
276.805764843
 21
144.8263569166
 31
0.0
  0
LWPOLYLINE
  5
2BA
330
1F
100
AcDbEntity
  8
0
  6
Continuous
 62
     8
370
    18
100
AcDbPolyline
 90
        3
 70
   128
 43
0.0
 10
351.2116495656
 20
142.0096847899
 10
350.5987865517
 20
141.8163591084
 10
346.9555878682
 20
140.7500084771
  0
LWPOLYLINE
  5
2BB
330
1F
100
AcDbEntity
  8
0
  6
Continuous
 62
     8
370
    18
100
AcDbPolyline
 90
        3
 70
   128
 43
0.0
 10
280.5025793147
 20
140.7500084771
 10
276.8593806312
 20
141.8163591084
 10
276.2465176172
 20
142.0096847899
  0
LINE
  5
2BC
330
1F
100
AcDbEntity
  8
0
  6
Continuous
 62
     8
370
    18
100
AcDbLine
 10
235.6748613313
 20
170.2785246478
 30
0.0
 11
235.6748610912
 21
172.3198325408
 31
0.0
  0
LINE
  5
2BD
330
1F
100
AcDbEntity
  8
0
  6
Continuous
 62
     8
370
    18
100
AcDbLine
 10
391.7833058515
 20
172.319832649
 30
0.0
 11
391.7833058515
 21
170.2785246478
 31
0.0
  0
ARC
  5
2BE
330
1F
100
AcDbEntity
  8
0
  6
Continuous
 62
     8
370
    18
100
AcDbCircle
 10
372.0200320806
 20
185.6449474595
 30
0.0
 40
31.98801542490414
100
AcDbArc
 50
328.5044229451
 51
31.4955770549
  0
ARC
  5
2BF
330
1F
100
AcDbEntity
  8
0
  6
Continuous
 62
     8
370
    18
100
AcDbCircle
 10
255.4381351022
 20
185.6449474595
 30
0.0
 40
31.98801542490395
100
AcDbArc
 50
148.5044229451
 51
211.4955770549
  0
LWPOLYLINE
  5
2C0
330
1F
100
AcDbEntity
  8
0
  6
Continuous
 62
     8
370
    18
100
AcDbPolyline
 90
        3
 70
   128
 43
0.0
 10
388.4168075678
 20
169.18089228
 10
388.0260909525
 20
168.3985873179
 10
386.7561094489
 20
166.1573950763
  0
LWPOLYLINE
  5
2C1
330
1F
100
AcDbEntity
  8
0
  6
Continuous
 62
     8
370
    18
100
AcDbPolyline
 90
        3
 70
   128
 43
0.0
 10
240.7020577339
 20
166.1573950763
 10
239.4320762303
 20
168.3985873179
 10
239.1103503192
 20
169.0387899981
  0
LINE
  5
2C2
330
1F
100
AcDbEntity
  8
0
  6
Continuous
 62
     8
370
    18
100
AcDbLine
 10
240.2670625197
 20
206.50914932
 30
0.0
 11
240.2670622796
 21
208.5504573278
 31
0.0
  0
LINE
  5
2C3
330
1F
100
AcDbEntity
  8
0
  6
Continuous
 62
     8
370
    18
100
AcDbLine
 10
387.1911046632
 20
208.5504573212
 30
0.0
 11
387.1911046632
 21
206.50914932
 31
0.0
  0
LWPOLYLINE
  5
2C4
330
1F
100
AcDbEntity
  8
0
  6
Continuous
 62
     8
370
    18
100
AcDbPolyline
 90
       15
 70
   128
 43
0.0
 10
394.7033877529
 20
208.7566657403
 10
392.7503548462
 20
210.9093062685
 10
390.6257245718
 20
213.0070843856
 10
388.3341106366
 20
215.0454446954
 10
385.8804893576
 20
217.0199608294
 10
383.2701888568
 20
218.926345059
 10
380.50887749
 20
220.7604576062
 10
377.6025515384
 20
222.5183156336
 10
374.5575221873
 20
224.1961018927
 10
371.3804018211
 20
225.790173014
 10
368.0780896643
 20
227.297067418
 10
364.6577567996
 20
228.7135128324
 10
361.1268305957
 20
230.0364333981
 10
357.4929785784
 20
231.2629563482
 10
353.7640917806
 20
232.3904182466
  0
LWPOLYLINE
  5
2C5
330
1F
100
AcDbEntity
  8
0
  6
Continuous
 62
     8
370
    18
100
AcDbPolyline
 90
       15
 70
   128
 43
0.0
 10
273.6940754022
 20
232.3904182466
 10
269.9651886044
 20
231.2629563482
 10
266.3313365872
 20
230.0364333981
 10
262.8004103833
 20
228.7135128324
 10
259.3800775186
 20
227.297067418
 10
256.0777653617
 20
225.790173014
 10
252.9006449955
 20
224.1961018927
 10
249.8556156444
 20
222.5183156336
 10
246.9492896929
 20
220.7604576062
 10
244.1879783261
 20
218.926345059
 10
241.5776778252
 20
217.0199608294
 10
239.1240565463
 20
215.0454446954
 10
236.832442611
 20
213.0070843856
 10
234.7078123367
 20
210.9093062685
 10
232.7547794299
 20
208.7566657403
  0
LWPOLYLINE
  5
2C6
330
1F
100
AcDbEntity
  8
0
  6
Continuous
 62
     8
370
    18
100
AcDbPolyline
 90
        3
 70
   128
 43
0.0
 10
317.6883533051
 20
237.7416500524
 10
313.7290835914
 20
237.7917648216
 10
310.0612963011
 20
237.7487602902
  0
LINE
  5
2C7
330
1F
100
AcDbEntity
  8
0
  6
Continuous
 62
     8
370
    18
100
AcDbLine
 10
339.5658478503
 20
232.2948225628
 30
0.0
 11
339.5658478503
 21
230.5874841416
 31
0.0
  0
LINE
  5
2C8
330
1F
100
AcDbEntity
  8
0
  6
Continuous
 62
     8
370
    18
100
AcDbLine
 10
287.8923193326
 20
230.5496936705
 30
0.0
 11
287.8923192331
 21
232.2948226506
 31
0.0
  0
ARC
  5
2C9
330
1F
100
AcDbEntity
  8
0
  6
Continuous
 62
     7
370
    25
100
AcDbCircle
 10
127.9840119503
 20
110.5640225215
 30
0.0
 40
78.90000000000019
100
AcDbArc
 50
198.8630344907
 51
206.1228553486
  0
ARC
  5
2CA
330
1F
100
AcDbEntity
  8
0
  6
Continuous
 62
     7
370
    25
100
AcDbCircle
 10
127.9840119503
 20
110.5640225215
 30
0.0
 40
78.90000000000019
100
AcDbArc
 50
243.8805884497
 51
251.1289905178
  0
ARC
  5
2CB
330
1F
100
AcDbEntity
  8
0
  6
Continuous
 62
     7
370
    25
100
AcDbCircle
 10
127.9840119503
 20
110.5640225215
 30
0.0
 40
78.9000000000002
100
AcDbArc
 50
288.884423067
 51
296.1440370016
  0
ARC
  5
2CC
330
1F
100
AcDbEntity
  8
0
  6
Continuous
 62
     7
370
    25
100
AcDbCircle
 10
127.9840119503
 20
110.5640225215
 30
0.0
 40
78.90000000000022
100
AcDbArc
 50
333.8600889882
 51
341.1223062474
  0
ARC
  5
2CD
330
1F
100
AcDbEntity
  8
0
  6
Continuous
 62
     7
370
    25
100
AcDbCircle
 10
127.9840119503
 20
110.5640225215
 30
0.0
 40
78.9000000000002
100
AcDbArc
 50
18.8817887405
 51
26.1305917446
  0
ARC
  5
2CE
330
1F
100
AcDbEntity
  8
0
  6
Continuous
 62
     7
370
    25
100
AcDbCircle
 10
127.9840119503
 20
110.5640225215
 30
0.0
 40
78.90000000000019
100
AcDbArc
 50
63.8836070527
 51
71.1412203236
  0
ARC
  5
2CF
330
1F
100
AcDbEntity
  8
0
  6
Continuous
 62
     7
370
    25
100
AcDbCircle
 10
127.9840119503
 20
110.5640225215
 30
0.0
 40
78.9000000000002
100
AcDbArc
 50
108.8581122702
 51
116.12193239
  0
ARC
  5
2D0
330
1F
100
AcDbEntity
  8
0
  6
Continuous
 62
     7
370
    25
100
AcDbCircle
 10
127.9840119503
 20
110.5640225215
 30
0.0
 40
78.90000000000019
100
AcDbArc
 50
153.8828449716
 51
161.1323450743
  0
ARC
  5
2D1
330
1F
100
AcDbEntity
  8
0
  6
Continuous
 62
     7
370
    25
100
AcDbCircle
 10
127.9840119503
 20
110.5640225215
 30
0.0
 40
90.70710297276186
100
AcDbArc
 50
116.2927997018
 51
153.7070083633
  0
ARC
  5
2D2
330
1F
100
AcDbEntity
  8
0
  6
Continuous
 62
     7
370
    25
100
AcDbCircle
 10
127.9840119503
 20
110.5640225215
 30
0.0
 40
90.70710297276186
100
AcDbArc
 50
296.2927153664
 51
333.7071003278
  0
ARC
  5
2D3
330
1F
100
AcDbEntity
  8
0
  6
Continuous
 62
     7
370
    25
100
AcDbCircle
 10
127.9840119503
 20
110.5640225215
 30
0.0
 40
90.70710297276186
100
AcDbArc
 50
26.2929766277
 51
63.7069197585
  0
ARC
  5
2D4
330
1F
100
AcDbEntity
  8
0
  6
Continuous
 62
     7
370
    25
100
AcDbCircle
 10
127.9840119503
 20
110.5640225215
 30
0.0
 40
90.70710297276186
100
AcDbArc
 50
206.2926334992
 51
243.7071079086
  0
ARC
  5
2D5
330
1F
100
AcDbEntity
  8
0
  6
Continuous
 62
     7
370
    25
100
AcDbCircle
 10
127.9840119503
 20
110.5640225215
 30
0.0
 40
90.70710297276187
100
AcDbArc
 50
341.2927401183
 51
18.7071301931
  0
ARC
  5
2D6
330
1F
100
AcDbEntity
  8
0
  6
Continuous
 62
     7
370
    25
100
AcDbCircle
 10
127.9840119503
 20
110.5640225215
 30
0.0
 40
90.70710297276183
100
AcDbArc
 50
161.2929598031
 51
198.7069593374
  0
ARC
  5
2D7
330
1F
100
AcDbEntity
  8
0
  6
Continuous
 62
     7
370
    25
100
AcDbCircle
 10
127.9840119503
 20
110.5640225215
 30
0.0
 40
90.70710297276186
100
AcDbArc
 50
71.292655858
 51
108.7071166046
  0
ARC
  5
2D8
330
1F
100
AcDbEntity
  8
0
  6
Continuous
 62
     7
370
    25
100
AcDbCircle
 10
127.9840119503
 20
110.5640225215
 30
0.0
 40
90.70710297276185
100
AcDbArc
 50
251.2928598509
 51
270.0
  0
ARC
  5
2D9
330
1F
100
AcDbEntity
  8
0
  6
Continuous
 62
     7
370
    25
100
AcDbCircle
 10
127.9840119503
 20
110.5640225215
 30
0.0
 40
90.70710297276186
100
AcDbArc
 50
270.0
 51
288.70689443
  0
CIRCLE
  5
2DA
330
1F
100
AcDbEntity
  8
0
  6
Continuous
 62
     7
370
    25
100
AcDbCircle
 10
127.9840119503
 20
110.5640225215
 30
0.0
 40
68.44833306887838
  0
ARC
  5
2DB
330
1F
100
AcDbEntity
  8
0
  6
Continuous
 62
     7
370
    25
100
AcDbCircle
 10
127.9840119503
 20
110.5640225215
 30
0.0
 40
77.3968816818543
100
AcDbArc
 50
25.2681704565
 51
64.7318295435
  0
SPLINE
  5
2DC
330
1F
100
AcDbEntity
  8
0
  6
Continuous
 62
     7
370
    25
100
AcDbSpline
210
0.0
220
0.0
230
1.0
 70
     8
 71
     3
 72
    24
 73
    20
 74
     0
 42
0.00000001
 43
0.00000001
 40
0.0
 40
0.0
 40
0.0
 40
0.0
 40
0.125000000000003
 40
0.125000000000003
 40
0.1875000000000045
 40
0.1875000000000045
 40
0.250000000000006
 40
0.250000000000006
 40
0.375000000000005
 40
0.375000000000005
 40
0.500000000000004
 40
0.500000000000004
 40
0.625000000000003
 40
0.625000000000003
 40
0.750000000000002
 40
0.750000000000002
 40
0.875000000000001
 40
0.875000000000001
 40
1.0
 40
1.0
 40
1.0
 40
1.0
 10
200.8363912168927
 20
136.6946200897594
 30
0.0
 10
200.5639635329626
 20
136.8454179055282
 30
0.0
 10
200.3003388826354
 20
137.0188235148695
 30
0.0
 10
199.9193656112649
 20
137.3167071785248
 30
0.0
 10
199.7947976158904
 20
137.4223305661252
 30
0.0
 10
199.5509173045599
 20
137.6474094218073
 30
0.0
 10
199.431125942447
 20
137.7674810737269
 30
0.0
 10
199.0883255900611
 20
138.1418805963114
 30
0.0
 10
198.8793923197518
 20
138.4121184419052
 30
0.0
 10
198.503965142003
 20
138.9974586058861
 30
0.0
 10
198.3362686313737
 20
139.3170402687026
 30
0.0
 10
198.0654966641485
 20
139.9691151901654
 30
0.0
 10
197.9596995250603
 20
140.3045132677446
 30
0.0
 10
197.8073091183306
 20
140.9940488592959
 30
0.0
 10
197.7633662723689
 20
141.3367017125912
 30
0.0
 10
197.7329900030917
 20
142.0129182199194
 30
0.0
 10
197.7470634742385
 20
142.3490110533643
 30
0.0
 10
197.8254634467188
 20
142.9918531949361
 30
0.0
 10
197.8894367230177
 20
143.3016834632093
 30
0.0
 10
197.9755460922871
 20
143.6013111894311
 30
0.0
  0
ARC
  5
2DD
330
1F
100
AcDbEntity
  8
0
  6
Continuous
 62
     7
370
    25
100
AcDbCircle
 10
127.9840119503
 20
110.5640225215
 30
0.0
 40
77.39688168185434
100
AcDbArc
 50
340.2681704565
 51
19.7318295435
  0
SPLINE
  5
2DE
330
1F
100
AcDbEntity
  8
0
  6
Continuous
 62
     7
370
    25
100
AcDbSpline
210
0.0
220
0.0
230
1.0
 70
     8
 71
     3
 72
    24
 73
    20
 74
     0
 42
0.00000001
 43
0.00000001
 40
0.0
 40
0.0
 40
0.0
 40
0.0
 40
0.1250000000000006
 40
0.1250000000000006
 40
0.1875000000000001
 40
0.1875000000000001
 40
0.2499999999999996
 40
0.2499999999999996
 40
0.3749999999999997
 40
0.3749999999999997
 40
0.4999999999999998
 40
0.4999999999999998
 40
0.6249999999999999
 40
0.6249999999999999
 40
0.7499999999999999
 40
0.7499999999999999
 40
0.875
 40
0.875
 40
1.0
 40
1.0
 40
1.0
 40
1.0
 10
197.9755460922871
 20
77.52673385350342
 30
0.0
 10
197.8895407877155
 20
77.82599947431159
 30
0.0
 10
197.8257462920421
 20
78.13502653450693
 30
0.0
 10
197.7669930669806
 20
78.61505087671922
 30
0.0
 10
197.7535972063566
 20
78.77782076459144
 30
0.0
 10
197.7403025695715
 20
79.10942497168566
 30
0.0
 10
197.7405007643944
 20
79.27903373546387
 30
0.0
 10
197.7628447519217
 20
79.78617063052158
 30
0.0
 10
197.8061936328233
 20
80.12499577592541
 30
0.0
 10
197.9546245288471
 20
80.80436087840506
 30
0.0
 10
198.0620235499202
 20
81.1489185791728
 30
0.0
 10
198.3316454545481
 20
81.801469872161
 30
0.0
 10
198.4939978351218
 20
82.11344200169357
 30
0.0
 10
198.8738168377909
 20
82.70877358433536
 30
0.0
 10
199.0850367095848
 20
82.98213802485755
 30
0.0
 10
199.5417147214738
 20
83.4817745687326
 30
0.0
 10
199.7893196899936
 20
83.70947664348694
 30
0.0
 10
200.2993148797172
 20
84.10859752883918
 30
0.0
 10
200.5636339009157
 20
84.28244467506634
 30
0.0
 10
200.8363912168927
 20
84.43342495317515
 30
0.0
  0
ARC
  5
2DF
330
1F
100
AcDbEntity
  8
0
  6
Continuous
 62
     7
370
    25
100
AcDbCircle
 10
127.9840119503
 20
110.5640225215
 30
0.0
 40
77.39688168185434
100
AcDbArc
 50
295.2681704565
 51
334.7318295435
  0
SPLINE
  5
2E0
330
1F
100
AcDbEntity
  8
0
  6
Continuous
 62
     7
370
    25
100
AcDbSpline
210
0.0
220
0.0
230
1.0
 70
     8
 71
     3
 72
    24
 73
    20
 74
     0
 42
0.00000001
 43
0.00000001
 40
0.0
 40
0.0
 40
0.0
 40
0.0
 40
0.1250000000000036
 40
0.1250000000000036
 40
0.1875000000000051
 40
0.1875000000000051
 40
0.2500000000000066
 40
0.2500000000000066
 40
0.3750000000000054
 40
0.3750000000000054
 40
0.5000000000000043
 40
0.5000000000000043
 40
0.6250000000000031
 40
0.6250000000000031
 40
0.7500000000000021
 40
0.7500000000000021
 40
0.875000000000001
 40
0.875000000000001
 40
1.0
 40
1.0
 40
1.0
 40
1.0
 10
154.1146095186234
 20
37.71164325490578
 30
0.0
 10
154.2654073343922
 20
37.98407093883586
 30
0.0
 10
154.4388129437335
 20
38.24769558916312
 30
0.0
 10
154.7366966073888
 20
38.62866886053364
 30
0.0
 10
154.8423199949891
 20
38.75323685590813
 30
0.0
 10
155.0673988506713
 20
38.99711716723863
 30
0.0
 10
155.1874705025908
 20
39.11690852935157
 30
0.0
 10
155.5618700251753
 20
39.45970888173746
 30
0.0
 10
155.8321078707692
 20
39.66864215204666
 30
0.0
 10
156.4174480347501
 20
40.04406932979546
 30
0.0
 10
156.7370296975666
 20
40.21176584042481
 30
0.0
 10
157.3891046190294
 20
40.48253780765004
 30
0.0
 10
157.7245026966085
 20
40.58833494673827
 30
0.0
 10
158.4140382881599
 20
40.74072535346794
 30
0.0
 10
158.7566911414552
 20
40.78466819942964
 30
0.0
 10
159.4329076487834
 20
40.81504446870677
 30
0.0
 10
159.7690004822283
 20
40.80097099755999
 30
0.0
 10
160.4118426238001
 20
40.72257102507969
 30
0.0
 10
160.7216728920733
 20
40.65859774878079
 30
0.0
 10
161.0213006182951
 20
40.57248837951134
 30
0.0
  0
ARC
  5
2E1
330
1F
100
AcDbEntity
  8
0
  6
Continuous
 62
     7
370
    25
100
AcDbCircle
 10
127.9840119503
 20
110.5640225215
 30
0.0
 40
77.39688168185432
100
AcDbArc
 50
250.2681704565
 51
289.7318295435
  0
SPLINE
  5
2E2
330
1F
100
AcDbEntity
  8
0
  6
Continuous
 62
     7
370
    25
100
AcDbSpline
210
0.0
220
0.0
230
1.0
 70
     8
 71
     3
 72
    24
 73
    20
 74
     0
 42
0.00000001
 43
0.00000001
 40
0.0
 40
0.0
 40
0.0
 40
0.0
 40
0.1249999999999966
 40
0.1249999999999966
 40
0.1874999999999958
 40
0.1874999999999958
 40
0.2499999999999949
 40
0.2499999999999949
 40
0.3749999999999957
 40
0.3749999999999957
 40
0.4999999999999966
 40
0.4999999999999966
 40
0.6249999999999973
 40
0.6249999999999973
 40
0.7499999999999982
 40
0.7499999999999982
 40
0.874999999999999
 40
0.874999999999999
 40
1.0
 40
1.0
 40
1.0
 40
1.0
 10
94.94672328236742
 20
40.57248837951137
 30
0.0
 10
95.24598890317557
 20
40.65849368408304
 30
0.0
 10
95.55501596337096
 20
40.72228817975635
 30
0.0
 10
96.03504030558324
 20
40.78104140481785
 30
0.0
 10
96.19781019345547
 20
40.79443726544189
 30
0.0
 10
96.52941440054971
 20
40.80773190222703
 30
0.0
 10
96.69902316432791
 20
40.80753370740408
 30
0.0
 10
97.20616005938561
 20
40.78518971987677
 30
0.0
 10
97.54498520478941
 20
40.74184083897518
 30
0.0
 10
98.22435030726906
 20
40.59340994295134
 30
0.0
 10
98.56890800803677
 20
40.48601092187827
 30
0.0
 10
99.22145930102498
 20
40.21638901725043
 30
0.0
 10
99.53343143055753
 20
40.0540366366767
 30
0.0
 10
100.1287630131993
 20
39.6742176340076
 30
0.0
 10
100.4021274537215
 20
39.46299776221367
 30
0.0
 10
100.9017639975965
 20
39.0063197503247
 30
0.0
 10
101.1294660723509
 20
38.7587147818049
 30
0.0
 10
101.5285869577031
 20
38.24871959208131
 30
0.0
 10
101.7024341039303
 20
37.98440057088278
 30
0.0
 10
101.8534143820391
 20
37.71164325490577
 30
0.0
  0
ARC
  5
2E3
330
1F
100
AcDbEntity
  8
0
  6
Continuous
 62
     7
370
    25
100
AcDbCircle
 10
127.9840119503
 20
110.5640225215
 30
0.0
 40
77.39688168185432
100
AcDbArc
 50
205.2681704565
 51
244.7318295435
  0
SPLINE
  5
2E4
330
1F
100
AcDbEntity
  8
0
  6
Continuous
 62
     7
370
    25
100
AcDbSpline
210
0.0
220
0.0
230
1.0
 70
     8
 71
     3
 72
    24
 73
    20
 74
     0
 42
0.00000001
 43
0.00000001
 40
0.0
 40
0.0
 40
0.0
 40
0.0
 40
0.1250000000000036
 40
0.1250000000000036
 40
0.1875000000000051
 40
0.1875000000000051
 40
0.2500000000000066
 40
0.2500000000000066
 40
0.3750000000000054
 40
0.3750000000000054
 40
0.5000000000000043
 40
0.5000000000000043
 40
0.6250000000000031
 40
0.6250000000000031
 40
0.7500000000000021
 40
0.7500000000000021
 40
0.875000000000001
 40
0.875000000000001
 40
1.0
 40
1.0
 40
1.0
 40
1.0
 10
55.13163268376971
 20
84.43342495317513
 30
0.0
 10
55.40406036769979
 20
84.28262713740634
 30
0.0
 10
55.66768501802704
 20
84.10922152806504
 30
0.0
 10
56.04865828939757
 20
83.8113378644097
 30
0.0
 10
56.17322628477206
 20
83.70571447680935
 30
0.0
 10
56.41710659610256
 20
83.4806356211272
 30
0.0
 10
56.5368979582155
 20
83.36056396920769
 30
0.0
 10
56.87969831060138
 20
82.98616444662316
 30
0.0
 10
57.08863158091059
 20
82.71592660102928
 30
0.0
 10
57.46405875865938
 20
82.13058643704838
 30
0.0
 10
57.63175526928874
 20
81.81100477423189
 30
0.0
 10
57.90252723651397
 20
81.1589298527691
 30
0.0
 10
58.0083243756022
 20
80.82353177518995
 30
0.0
 10
58.16071478233187
 20
80.13399618363857
 30
0.0
 10
58.20465762829356
 20
79.79134333034325
 30
0.0
 10
58.2350338975707
 20
79.11512682301507
 30
0.0
 10
58.22096042642391
 20
78.7790339895702
 30
0.0
 10
58.14256045394362
 20
78.13619184799839
 30
0.0
 10
58.07858717764472
 20
77.82636157972517
 30
0.0
 10
57.99247780837527
 20
77.52673385350342
 30
0.0
  0
ARC
  5
2E5
330
1F
100
AcDbEntity
  8
0
  6
Continuous
 62
     7
370
    25
100
AcDbCircle
 10
127.9840119503
 20
110.5640225215
 30
0.0
 40
77.39688168185432
100
AcDbArc
 50
160.2681704565
 51
199.7318295435
  0
SPLINE
  5
2E6
330
1F
100
AcDbEntity
  8
0
  6
Continuous
 62
     7
370
    25
100
AcDbSpline
210
0.0
220
0.0
230
1.0
 70
     8
 71
     3
 72
    24
 73
    20
 74
     0
 42
0.00000001
 43
0.00000001
 40
0.0
 40
0.0
 40
0.0
 40
0.0
 40
0.1250000000000004
 40
0.1250000000000004
 40
0.1875000000000014
 40
0.1875000000000014
 40
0.2500000000000024
 40
0.2500000000000024
 40
0.3750000000000021
 40
0.3750000000000021
 40
0.5000000000000017
 40
0.5000000000000017
 40
0.6250000000000012
 40
0.6250000000000012
 40
0.7500000000000009
 40
0.7500000000000009
 40
0.8750000000000004
 40
0.8750000000000004
 40
1.0
 40
1.0
 40
1.0
 40
1.0
 10
57.9924778083753
 20
143.6013111894311
 30
0.0
 10
58.07848311294697
 20
143.3020455686229
 30
0.0
 10
58.14227760862028
 20
142.9930185084276
 30
0.0
 10
58.20103083368178
 20
142.5129941662153
 30
0.0
 10
58.21442669430581
 20
142.350224278343
 30
0.0
 10
58.22772133109093
 20
142.0186200712488
 30
0.0
 10
58.22752313626797
 20
141.8490113074706
 30
0.0
 10
58.20517914874067
 20
141.3418744124129
 30
0.0
 10
58.16183026783911
 20
141.0030492670091
 30
0.0
 10
58.01339937181531
 20
140.3236841645295
 30
0.0
 10
57.9060003507422
 20
139.9791264637617
 30
0.0
 10
57.63637844611436
 20
139.3265751707735
 30
0.0
 10
57.4740260655406
 20
139.014603041241
 30
0.0
 10
57.0942070628715
 20
138.4192714585992
 30
0.0
 10
56.88298719107761
 20
138.145907018077
 30
0.0
 10
56.42630917918861
 20
137.646270474202
 30
0.0
 10
56.1787042106688
 20
137.4185683994476
 30
0.0
 10
55.66870902094524
 20
137.0194475140954
 30
0.0
 10
55.40438999974671
 20
136.8456003678682
 30
0.0
 10
55.13163268376969
 20
136.6946200897594
 30
0.0
  0
ARC
  5
2E7
330
1F
100
AcDbEntity
  8
0
  6
Continuous
 62
     7
370
    25
100
AcDbCircle
 10
127.9840119503
 20
110.5640225215
 30
0.0
 40
77.39688168185431
100
AcDbArc
 50
115.2681704565
 51
154.7318295435
  0
SPLINE
  5
2E8
330
1F
100
AcDbEntity
  8
0
  6
Continuous
 62
     7
370
    25
100
AcDbSpline
210
0.0
220
0.0
230
1.0
 70
     8
 71
     3
 72
    24
 73
    20
 74
     0
 42
0.00000001
 43
0.00000001
 40
0.0
 40
0.0
 40
0.0
 40
0.0
 40
0.1249999999999989
 40
0.1249999999999989
 40
0.187499999999998
 40
0.187499999999998
 40
0.2499999999999971
 40
0.2499999999999971
 40
0.3749999999999976
 40
0.3749999999999976
 40
0.4999999999999981
 40
0.4999999999999981
 40
0.6249999999999987
 40
0.6249999999999987
 40
0.7499999999999991
 40
0.7499999999999991
 40
0.8749999999999996
 40
0.8749999999999996
 40
1.0
 40
1.0
 40
1.0
 40
1.0
 10
101.8534143820391
 20
183.4164017880288
 30
0.0
 10
101.7026165662703
 20
183.1439741040987
 30
0.0
 10
101.529210956929
 20
182.8803494537714
 30
0.0
 10
101.2313272932736
 20
182.4993761824009
 30
0.0
 10
101.1257039056733
 20
182.3748081870264
 30
0.0
 10
100.9006250499911
 20
182.1309278756959
 30
0.0
 10
100.7805533980716
 20
182.011136513583
 30
0.0
 10
100.4061538754871
 20
181.6683361611971
 30
0.0
 10
100.1359160298932
 20
181.4594028908879
 30
0.0
 10
99.55057586591231
 20
181.0839757131391
 30
0.0
 10
99.2309942030958
 20
180.9162792025097
 30
0.0
 10
98.57891928163302
 20
180.6455072352845
 30
0.0
 10
98.24352120405388
 20
180.5397100961963
 30
0.0
 10
97.5539856125025
 20
180.3873196894666
 30
0.0
 10
97.21133275920718
 20
180.3433768435049
 30
0.0
 10
96.535116251879
 20
180.3130005742278
 30
0.0
 10
96.19902341843414
 20
180.3270740453746
 30
0.0
 10
95.55618127686232
 20
180.4054740178548
 30
0.0
 10
95.24635100858913
 20
180.4694472941537
 30
0.0
 10
94.94672328236734
 20
180.5555566634232
 30
0.0
  0
ARC
  5
2E9
330
1F
100
AcDbEntity
  8
0
  6
Continuous
 62
     7
370
    25
100
AcDbCircle
 10
127.9840119503
 20
110.5640225215
 30
0.0
 40
77.39688168185434
100
AcDbArc
 50
70.2681704565
 51
109.7318295435
  0
SPLINE
  5
2EA
330
1F
100
AcDbEntity
  8
0
  6
Continuous
 62
     7
370
    25
100
AcDbSpline
210
0.0
220
0.0
230
1.0
 70
     8
 71
     3
 72
    24
 73
    20
 74
     0
 42
0.00000001
 43
0.00000001
 40
0.0
 40
0.0
 40
0.0
 40
0.0
 40
0.1249999999999986
 40
0.1249999999999986
 40
0.1874999999999989
 40
0.1874999999999989
 40
0.2499999999999993
 40
0.2499999999999993
 40
0.3749999999999994
 40
0.3749999999999994
 40
0.4999999999999996
 40
0.4999999999999996
 40
0.6249999999999997
 40
0.6249999999999997
 40
0.7499999999999998
 40
0.7499999999999998
 40
0.8749999999999999
 40
0.8749999999999999
 40
1.0
 40
1.0
 40
1.0
 40
1.0
 10
161.021300618295
 20
180.5555566634232
 30
0.0
 10
160.7220349974868
 20
180.4695513588515
 30
0.0
 10
160.4130079372915
 20
180.4057568631782
 30
0.0
 10
159.9329835950792
 20
180.3470036381167
 30
0.0
 10
159.770213707207
 20
180.3336077774927
 30
0.0
 10
159.4386095001127
 20
180.3203131407076
 30
0.0
 10
159.2690007363345
 20
180.3205113355305
 30
0.0
 10
158.7618638412768
 20
180.3428553230578
 30
0.0
 10
158.423038695873
 20
180.3862042039594
 30
0.0
 10
157.7436735933934
 20
180.5346350999832
 30
0.0
 10
157.3991158926257
 20
180.6420341210563
 30
0.0
 10
156.7465645996375
 20
180.9116560256841
 30
0.0
 10
156.4345924701049
 20
181.0740084062579
 30
0.0
 10
155.8392608874631
 20
181.453827408927
 30
0.0
 10
155.5658964469409
 20
181.6650472807209
 30
0.0
 10
155.0662599030659
 20
182.1217252926099
 30
0.0
 10
154.8385578283115
 20
182.3693302611297
 30
0.0
 10
154.4394369429593
 20
182.8793254508532
 30
0.0
 10
154.2655897967321
 20
183.1436444720518
 30
0.0
 10
154.1146095186234
 20
183.4164017880288
 30
0.0
  0
LINE
  5
2EB
330
1F
100
AcDbEntity
  8
0
  6
Continuous
 62
     7
370
    25
100
AcDbLine
 10
168.0190201395
 20
191.538326683
 30
0.0
 11
164.9073306988
 21
184.0260438333
 31
0.0
  0
LINE
  5
2EC
330
1F
100
AcDbEntity
  8
0
  6
Continuous
 62
     7
370
    25
100
AcDbLine
 10
201.4460330221
 20
147.4873411705
 30
0.0
 11
208.9583161118
 21
150.5990307106
 31
0.0
  0
SPLINE
  5
2ED
330
1F
100
AcDbEntity
  8
0
  6
Continuous
 62
     7
370
    25
100
AcDbSpline
210
0.0
220
0.0
230
1.0
 70
     8
 71
     3
 72
    14
 73
    10
 74
     0
 42
0.00000001
 43
0.00000001
 40
0.0
 40
0.0
 40
0.0
 40
0.0
 40
0.25
 40
0.25
 40
0.5
 40
0.5
 40
0.75
 40
0.75
 40
1.0
 40
1.0
 40
1.0
 40
1.0
 10
164.9073306987773
 20
184.0260438332741
 30
0.0
 10
164.7349292901178
 20
183.6098299633317
 30
0.0
 10
164.5194809199634
 20
183.2206123537007
 30
0.0
 10
164.0056623741525
 20
182.4941683834356
 30
0.0
 10
163.7030046138724
 20
182.1540404531718
 30
0.0
 10
163.037879932432
 20
181.5574212175327
 30
0.0
 10
162.6742761270551
 20
181.2974372197138
 30
0.0
 10
161.8822303909789
 20
180.8573441682616
 30
0.0
 10
161.4611903678956
 20
180.681975634604
 30
0.0
 10
161.021300618295
 20
180.5555566634232
 30
0.0
  0
SPLINE
  5
2EE
330
1F
100
AcDbEntity
  8
0
  6
Continuous
 62
     7
370
    25
100
AcDbSpline
210
0.0
220
0.0
230
1.0
 70
     8
 71
     3
 72
    14
 73
    10
 74
     0
 42
0.00000001
 43
0.00000001
 40
0.0
 40
0.0
 40
0.0
 40
0.0
 40
0.25
 40
0.25
 40
0.5
 40
0.5
 40
0.75
 40
0.75
 40
1.0
 40
1.0
 40
1.0
 40
1.0
 10
197.9755460922871
 20
143.601311189431
 30
0.0
 10
198.101951907446
 20
144.0411551610988
 30
0.0
 10
198.2751226567132
 20
144.4566624831223
 30
0.0
 10
198.7096771951393
 20
145.2419030348962
 30
0.0
 10
198.9748092034674
 20
145.6145048448841
 30
0.0
 10
199.5708461549021
 20
146.2799467168851
 30
0.0
 10
199.9030181516787
 20
146.576975251987
 30
0.0
 10
200.6373472076617
 20
147.0979921669931
 30
0.0
 10
201.0299042758308
 20
147.3149750000884
 30
0.0
 10
201.4460330220662
 20
147.4873411704724
 30
0.0
  0
LINE
  5
2EF
330
1F
100
AcDbEntity
  8
0
  6
Continuous
 62
     7
370
    25
100
AcDbLine
 10
208.9583161118
 20
70.5290143323
 30
0.0
 11
201.4460332621
 21
73.640703773
 31
0.0
  0
LINE
  5
2F0
330
1F
100
AcDbEntity
  8
0
  6
Continuous
 62
     7
370
    25
100
AcDbLine
 10
164.9073305993
 20
37.1020014497
 30
0.0
 11
168.0190201395
 21
29.58971836
 31
0.0
  0
SPLINE
  5
2F1
330
1F
100
AcDbEntity
  8
0
  6
Continuous
 62
     7
370
    25
100
AcDbSpline
210
0.0
220
0.0
230
1.0
 70
     8
 71
     3
 72
    14
 73
    10
 74
     0
 42
0.00000001
 43
0.00000001
 40
0.0
 40
0.0
 40
0.0
 40
0.0
 40
0.25
 40
0.25
 40
0.5
 40
0.5
 40
0.75
 40
0.75
 40
1.0
 40
1.0
 40
1.0
 40
1.0
 10
161.021300618295
 20
40.57248837951136
 30
0.0
 10
161.4611445899628
 20
40.44608256435241
 30
0.0
 10
161.8766519119863
 20
40.27291181508533
 30
0.0
 10
162.6618924637602
 20
39.83835727665923
 30
0.0
 10
163.0344942737481
 20
39.57322526833106
 30
0.0
 10
163.699936145749
 20
38.9771883168964
 30
0.0
 10
163.996964680851
 20
38.64501632011979
 30
0.0
 10
164.517981595857
 20
37.91068726413677
 30
0.0
 10
164.7349644289523
 20
37.51813019596767
 30
0.0
 10
164.9073305993363
 20
37.10200144973231
 30
0.0
  0
SPLINE
  5
2F2
330
1F
100
AcDbEntity
  8
0
  6
Continuous
 62
     7
370
    25
100
AcDbSpline
210
0.0
220
0.0
230
1.0
 70
     8
 71
     3
 72
    14
 73
    10
 74
     0
 42
0.00000001
 43
0.00000001
 40
0.0
 40
0.0
 40
0.0
 40
0.0
 40
0.25
 40
0.25
 40
0.5
 40
0.5
 40
0.75
 40
0.75
 40
1.0
 40
1.0
 40
1.0
 40
1.0
 10
201.4460332621381
 20
73.64070377302114
 30
0.0
 10
201.0298193921957
 20
73.81310518168068
 30
0.0
 10
200.6406017825646
 20
74.0285535518351
 30
0.0
 10
199.9141578122995
 20
74.54237209764597
 30
0.0
 10
199.5740298820358
 20
74.8450298579261
 30
0.0
 10
198.9774106463967
 20
75.51015453936652
 30
0.0
 10
198.7174266485778
 20
75.87375834474338
 30
0.0
 10
198.2773335971256
 20
76.66580408081953
 30
0.0
 10
198.101965063468
 20
77.08684410390282
 30
0.0
 10
197.9755460922871
 20
77.52673385350344
 30
0.0
  0
LINE
  5
2F3
330
1F
100
AcDbEntity
  8
0
  6
Continuous
 62
     7
370
    25
100
AcDbLine
 10
153.8207762092
 20
188.6182447816
 30
0.0
 11
156.9324657494
 21
196.1305278713
 31
0.0
  0
LINE
  5
2F4
330
1F
100
AcDbEntity
  8
0
  6
Continuous
 62
     7
370
    25
100
AcDbLine
 10
99.0355581513
 20
196.1305278713
 30
0.0
 11
102.1472476915
 21
188.6182447816
 31
0.0
  0
SPLINE
  5
2F5
330
1F
100
AcDbEntity
  8
0
  6
Continuous
 62
     7
370
    25
100
AcDbSpline
210
0.0
220
0.0
230
1.0
 70
     8
 71
     3
 72
    14
 73
    10
 74
     0
 42
0.00000001
 43
0.00000001
 40
0.0
 40
0.0
 40
0.0
 40
0.0
 40
0.25
 40
0.25
 40
0.5
 40
0.5
 40
0.75
 40
0.75
 40
1.0
 40
1.0
 40
1.0
 40
1.0
 10
154.1146095186234
 20
183.4164017880288
 30
0.0
 10
153.8929752726734
 20
183.8168008521394
 30
0.0
 10
153.7216174387478
 20
184.2330591082847
 30
0.0
 10
153.4736449806423
 20
185.0955844882232
 30
0.0
 10
153.397652355116
 20
185.5465303957465
 30
0.0
 10
153.3485756651358
 20
186.4385306261211
 30
0.0
 10
153.3734258452004
 20
186.8834425889385
 30
0.0
 10
153.5242603065946
 20
187.7711062377601
 30
0.0
 10
153.6484100388169
 20
188.202116035348
 30
0.0
 10
153.8207762092009
 20
188.6182447815833
 30
0.0
  0
SPLINE
  5
2F6
330
1F
100
AcDbEntity
  8
0
  6
Continuous
 62
     7
370
    25
100
AcDbSpline
210
0.0
220
0.0
230
1.0
 70
     8
 71
     3
 72
    14
 73
    10
 74
     0
 42
0.00000001
 43
0.00000001
 40
0.0
 40
0.0
 40
0.0
 40
0.0
 40
0.25
 40
0.25
 40
0.5
 40
0.5
 40
0.75
 40
0.75
 40
1.0
 40
1.0
 40
1.0
 40
1.0
 10
102.1472476914615
 20
188.6182447815833
 30
0.0
 10
102.3196491097441
 20
188.2020309393932
 30
0.0
 10
102.4425224952367
 20
187.7744675406743
 30
0.0
 10
102.5928713388594
 20
186.8974695429916
 30
0.0
 10
102.6193667365986
 20
186.4429514439841
 30
0.0
 10
102.5709260541594
 20
185.5507638067984
 30
0.0
 10
102.4976557816587
 20
185.1098206654042
 30
0.0
 10
102.2487876555832
 20
184.2385670222665
 30
0.0
 10
102.0750716843984
 20
183.8168425052903
 30
0.0
 10
101.853414382039
 20
183.4164017880287
 30
0.0
  0
LINE
  5
2F7
330
1F
100
AcDbEntity
  8
0
  6
Continuous
 62
     7
370
    25
100
AcDbLine
 10
47.0097077888
 20
150.5990307106
 30
0.0
 11
54.5219906385
 21
147.4873412699
 31
0.0
  0
LINE
  5
2F8
330
1F
100
AcDbEntity
  8
0
  6
Continuous
 62
     7
370
    25
100
AcDbLine
 10
91.0606933013
 20
184.0260435932
 30
0.0
 11
87.9490037612
 21
191.538326683
 31
0.0
  0
SPLINE
  5
2F9
330
1F
100
AcDbEntity
  8
0
  6
Continuous
 62
     7
370
    25
100
AcDbSpline
210
0.0
220
0.0
230
1.0
 70
     8
 71
     3
 72
    14
 73
    10
 74
     0
 42
0.00000001
 43
0.00000001
 40
0.0
 40
0.0
 40
0.0
 40
0.0
 40
0.25
 40
0.25
 40
0.5
 40
0.5
 40
0.75
 40
0.75
 40
1.0
 40
1.0
 40
1.0
 40
1.0
 10
54.52199063852436
 20
147.4873412699134
 30
0.0
 10
54.93820450846673
 20
147.3149398612539
 30
0.0
 10
55.32742211809779
 20
147.0994914910995
 30
0.0
 10
56.05386608836289
 20
146.5856729452886
 30
0.0
 10
56.39399401862667
 20
146.2830151850085
 30
0.0
 10
56.99061325426577
 20
145.617890503568
 30
0.0
 10
57.25059725208463
 20
145.2542866981912
 30
0.0
 10
57.69069030353685
 20
144.462240962115
 30
0.0
 10
57.86605883719448
 20
144.0412009390317
 30
0.0
 10
57.99247780837531
 20
143.601311189431
 30
0.0
  0
SPLINE
  5
2FA
330
1F
100
AcDbEntity
  8
0
  6
Continuous
 62
     7
370
    25
100
AcDbSpline
210
0.0
220
0.0
230
1.0
 70
     8
 71
     3
 72
    14
 73
    10
 74
     0
 42
0.00000001
 43
0.00000001
 40
0.0
 40
0.0
 40
0.0
 40
0.0
 40
0.25
 40
0.25
 40
0.5
 40
0.5
 40
0.75
 40
0.75
 40
1.0
 40
1.0
 40
1.0
 40
1.0
 10
94.94672328236739
 20
180.5555566634232
 30
0.0
 10
94.50687931069962
 20
180.6819624785821
 30
0.0
 10
94.09137198867614
 20
180.8551332278493
 30
0.0
 10
93.30613143690228
 20
181.2896877662754
 30
0.0
 10
92.93352962691434
 20
181.5548197746035
 30
0.0
 10
92.26808775491341
 20
182.1508567260382
 30
0.0
 10
91.97105921981148
 20
182.4830287228148
 30
0.0
 10
91.45004230480541
 20
183.2173577787978
 30
0.0
 10
91.23305947171009
 20
183.6099148469669
 30
0.0
 10
91.0606933013261
 20
184.0260435932022
 30
0.0
  0
LINE
  5
2FB
330
1F
100
AcDbEntity
  8
0
  6
Continuous
 62
     7
370
    25
100
AcDbLine
 10
87.9490037612
 20
29.58971836
 30
0.0
 11
91.0606932019
 21
37.1020012097
 31
0.0
  0
LINE
  5
2FC
330
1F
100
AcDbEntity
  8
0
  6
Continuous
 62
     7
370
    25
100
AcDbLine
 10
54.5219908786
 20
73.6407038725
 30
0.0
 11
47.0097077888
 21
70.5290143323
 31
0.0
  0
SPLINE
  5
2FD
330
1F
100
AcDbEntity
  8
0
  6
Continuous
 62
     7
370
    25
100
AcDbSpline
210
0.0
220
0.0
230
1.0
 70
     8
 71
     3
 72
    14
 73
    10
 74
     0
 42
0.00000001
 43
0.00000001
 40
0.0
 40
0.0
 40
0.0
 40
0.0
 40
0.25
 40
0.25
 40
0.5
 40
0.5
 40
0.75
 40
0.75
 40
1.0
 40
1.0
 40
1.0
 40
1.0
 10
57.99247780837528
 20
77.52673385350344
 30
0.0
 10
57.86607199321633
 20
77.08688988183567
 30
0.0
 10
57.69290124394925
 20
76.67138255981222
 30
0.0
 10
57.25834670552315
 20
75.88614200803835
 30
0.0
 10
56.99321469719499
 20
75.51354019805039
 30
0.0
 10
56.39717774576032
 20
74.84809832604947
 30
0.0
 10
56.06500574898372
 20
74.55106979094755
 30
0.0
 10
55.3306766930007
 20
74.03005287594146
 30
0.0
 10
54.9381196248316
 20
73.81307004284616
 30
0.0
 10
54.52199087859624
 20
73.64070387246215
 30
0.0
  0
SPLINE
  5
2FE
330
1F
100
AcDbEntity
  8
0
  6
Continuous
 62
     7
370
    25
100
AcDbSpline
210
0.0
220
0.0
230
1.0
 70
     8
 71
     3
 72
    14
 73
    10
 74
     0
 42
0.00000001
 43
0.00000001
 40
0.0
 40
0.0
 40
0.0
 40
0.0
 40
0.25
 40
0.25
 40
0.5
 40
0.5
 40
0.75
 40
0.75
 40
1.0
 40
1.0
 40
1.0
 40
1.0
 10
91.06069320188506
 20
37.10200120966044
 30
0.0
 10
91.23309461054461
 20
37.5182150796028
 30
0.0
 10
91.44854298069905
 20
37.90743268923387
 30
0.0
 10
91.96236152650988
 20
38.63387665949895
 30
0.0
 10
92.26501928679005
 20
38.97400458976276
 30
0.0
 10
92.93014396823047
 20
39.57062382540186
 30
0.0
 10
93.29374777360732
 20
39.83060782322072
 30
0.0
 10
94.08579350968347
 20
40.27070087467293
 30
0.0
 10
94.50683353276683
 20
40.44606940833055
 30
0.0
 10
94.94672328236747
 20
40.57248837951138
 30
0.0
  0
LINE
  5
2FF
330
1F
100
AcDbEntity
  8
0
  6
Continuous
 62
     7
370
    25
100
AcDbLine
 10
42.4175066004
 20
81.6155687224
 30
0.0
 11
49.9297894501
 21
84.7272581632
 31
0.0
  0
LINE
  5
300
330
1F
100
AcDbEntity
  8
0
  6
Continuous
 62
     7
370
    25
100
AcDbLine
 10
49.9297896902
 20
136.4007867803
 30
0.0
 11
42.4175066004
 21
139.5124763205
 31
0.0
  0
SPLINE
  5
301
330
1F
100
AcDbEntity
  8
0
  6
Continuous
 62
     7
370
    25
100
AcDbSpline
210
0.0
220
0.0
230
1.0
 70
     8
 71
     3
 72
    14
 73
    10
 74
     0
 42
0.00000001
 43
0.00000001
 40
0.0
 40
0.0
 40
0.0
 40
0.0
 40
0.25
 40
0.25
 40
0.5
 40
0.5
 40
0.75
 40
0.75
 40
1.0
 40
1.0
 40
1.0
 40
1.0
 10
49.92978945014326
 20
84.72725816315656
 30
0.0
 10
50.34600330515268
 20
84.89965960786743
 30
0.0
 10
50.77356671981178
 20
85.022533015463
 30
0.0
 10
51.6505647553806
 20
85.17288189494725
 30
0.0
 10
52.10508287601388
 20
85.19937730623491
 30
0.0
 10
52.99727055590169
 20
85.15093664096058
 30
0.0
 10
53.43821372020661
 20
85.07766637237108
 30
0.0
 10
54.30946741223087
 20
84.8287982424167
 30
0.0
 10
54.73119194706008
 20
84.65508226629959
 30
0.0
 10
55.13163268376974
 20
84.43342495317513
 30
0.0
  0
SPLINE
  5
302
330
1F
100
AcDbEntity
  8
0
  6
Continuous
 62
     7
370
    25
100
AcDbSpline
210
0.0
220
0.0
230
1.0
 70
     8
 71
     3
 72
    14
 73
    10
 74
     0
 42
0.00000001
 43
0.00000001
 40
0.0
 40
0.0
 40
0.0
 40
0.0
 40
0.25
 40
0.25
 40
0.5
 40
0.5
 40
0.75
 40
0.75
 40
1.0
 40
1.0
 40
1.0
 40
1.0
 10
55.13163268376974
 20
136.6946200897594
 30
0.0
 10
54.73123361965914
 20
136.4729858438094
 30
0.0
 10
54.31497536351375
 20
136.3016280098839
 30
0.0
 10
53.45244998357531
 20
136.0536555517784
 30
0.0
 10
53.00150407605197
 20
135.977662926252
 30
0.0
 10
52.10950384567742
 20
135.9285862362719
 30
0.0
 10
51.66459188285996
 20
135.9534364163364
 30
0.0
 10
50.77692823403839
 20
136.1042708777307
 30
0.0
 10
50.34591843645053
 20
136.228420609953
 30
0.0
 10
49.92978969021517
 20
136.4007867803369
 30
0.0
  0
LINE
  5
303
330
1F
100
AcDbEntity
  8
0
  6
Continuous
 62
     7
370
    25
100
AcDbLine
 10
156.9324657494
 20
24.9975171716
 30
0.0
 11
153.8207763086
 21
32.5098000213
 31
0.0
  0
LINE
  5
304
330
1F
100
AcDbEntity
  8
0
  6
Continuous
 62
     7
370
    25
100
AcDbLine
 10
102.1472476915
 20
32.5098002614
 30
0.0
 11
99.0355581513
 21
24.9975171716
 31
0.0
  0
SPLINE
  5
305
330
1F
100
AcDbEntity
  8
0
  6
Continuous
 62
     7
370
    25
100
AcDbSpline
210
0.0
220
0.0
230
1.0
 70
     8
 71
     3
 72
    14
 73
    10
 74
     0
 42
0.00000001
 43
0.00000001
 40
0.0
 40
0.0
 40
0.0
 40
0.0
 40
0.25
 40
0.25
 40
0.5
 40
0.5
 40
0.75
 40
0.75
 40
1.0
 40
1.0
 40
1.0
 40
1.0
 10
153.8207763086419
 20
32.50980002127932
 30
0.0
 10
153.6483748639311
 20
32.92601387628874
 30
0.0
 10
153.5255014563355
 20
33.35357729094789
 30
0.0
 10
153.3751525768512
 20
34.23057532651667
 30
0.0
 10
153.3486571655636
 20
34.68509344714995
 30
0.0
 10
153.3970978308379
 20
35.57728112703776
 30
0.0
 10
153.4703680994274
 20
36.01822429134269
 30
0.0
 10
153.7192362293818
 20
36.88947798336694
 30
0.0
 10
153.8929522054989
 20
37.31120251819615
 30
0.0
 10
154.1146095186234
 20
37.71164325490581
 30
0.0
  0
SPLINE
  5
306
330
1F
100
AcDbEntity
  8
0
  6
Continuous
 62
     7
370
    25
100
AcDbSpline
210
0.0
220
0.0
230
1.0
 70
     8
 71
     3
 72
    14
 73
    10
 74
     0
 42
0.00000001
 43
0.00000001
 40
0.0
 40
0.0
 40
0.0
 40
0.0
 40
0.25
 40
0.25
 40
0.5
 40
0.5
 40
0.75
 40
0.75
 40
1.0
 40
1.0
 40
1.0
 40
1.0
 10
101.8534143820391
 20
37.71164325490579
 30
0.0
 10
102.0750486279891
 20
37.31124419079518
 30
0.0
 10
102.2464064619146
 20
36.89498593464981
 30
0.0
 10
102.4943789200201
 20
36.03246055471136
 30
0.0
 10
102.5703715455465
 20
35.58151464718806
 30
0.0
 10
102.6194482355266
 20
34.68951441681349
 30
0.0
 10
102.5945980554621
 20
34.24460245399604
 30
0.0
 10
102.4437635940678
 20
33.35693880517446
 30
0.0
 10
102.3196138618455
 20
32.9259290075866
 30
0.0
 10
102.1472476914615
 20
32.50980026135124
 30
0.0
  0
LINE
  5
307
330
1F
100
AcDbEntity
  8
0
  6
Continuous
 62
     7
370
    25
100
AcDbLine
 10
213.5505173002
 20
139.5124763205
 30
0.0
 11
206.0382344505
 21
136.4007868798
 31
0.0
  0
LINE
  5
308
330
1F
100
AcDbEntity
  8
0
  6
Continuous
 62
     7
370
    25
100
AcDbLine
 10
206.0382342104
 20
84.7272582626
 30
0.0
 11
213.5505173002
 21
81.6155687224
 31
0.0
  0
SPLINE
  5
309
330
1F
100
AcDbEntity
  8
0
  6
Continuous
 62
     7
370
    25
100
AcDbSpline
210
0.0
220
0.0
230
1.0
 70
     8
 71
     3
 72
    14
 73
    10
 74
     0
 42
0.00000001
 43
0.00000001
 40
0.0
 40
0.0
 40
0.0
 40
0.0
 40
0.25
 40
0.25
 40
0.5
 40
0.5
 40
0.75
 40
0.75
 40
1.0
 40
1.0
 40
1.0
 40
1.0
 10
206.0382344505191
 20
136.400786879778
 30
0.0
 10
205.6220205955097
 20
136.2283854350671
 30
0.0
 10
205.1944571808505
 20
136.1055120274715
 30
0.0
 10
204.3174591452818
 20
135.9551631479873
 30
0.0
 10
203.8629410246485
 20
135.9286677366997
 30
0.0
 10
202.9707533447607
 20
135.977108401974
 30
0.0
 10
202.5298101804557
 20
136.0503786705635
 30
0.0
 10
201.6585564884315
 20
136.2992468005179
 30
0.0
 10
201.2368319536024
 20
136.472962776635
 30
0.0
 10
200.8363912168927
 20
136.6946200897594
 30
0.0
  0
SPLINE
  5
30A
330
1F
100
AcDbEntity
  8
0
  6
Continuous
 62
     7
370
    25
100
AcDbSpline
210
0.0
220
0.0
230
1.0
 70
     8
 71
     3
 72
    14
 73
    10
 74
     0
 42
0.00000001
 43
0.00000001
 40
0.0
 40
0.0
 40
0.0
 40
0.0
 40
0.25
 40
0.25
 40
0.5
 40
0.5
 40
0.75
 40
0.75
 40
1.0
 40
1.0
 40
1.0
 40
1.0
 10
200.8363912168927
 20
84.43342495317513
 30
0.0
 10
201.2367902810033
 20
84.65505919912513
 30
0.0
 10
201.6530485371487
 20
84.82641703305066
 30
0.0
 10
202.5155739170872
 20
85.07438949115615
 30
0.0
 10
202.9665198246105
 20
85.15038211668255
 30
0.0
 10
203.858520054985
 20
85.19945880666266
 30
0.0
 10
204.3034320178025
 20
85.17460862659813
 30
0.0
 10
205.1910956666241
 20
85.02377416520389
 30
0.0
 10
205.622105464212
 20
84.89962443298158
 30
0.0
 10
206.0382342104473
 20
84.72725826259759
 30
0.0
  0
SPLINE
  5
30B
330
1F
100
AcDbEntity
  8
0
  6
Continuous
 62
     7
370
    25
100
AcDbSpline
210
0.0
220
0.0
230
1.0
 70
    24
 71
     3
 72
    10
 73
     6
 74
     0
 42
0.00000001
 43
0.00000001
 40
0.0
 40
0.0
 40
0.0
 40
0.0
 40
0.5
 40
0.5
 40
1.0
 40
1.0
 40
1.0
 40
1.0
 10
46.66587625720175
 20
150.7414503942116
 30
0.0
 10
46.64971723424641
 20
150.7481436806744
 30
0.0
 10
46.67673954932025
 20
150.7369506712841
 30
0.0
 10
46.80253066131725
 20
150.6848462866689
 30
0.0
 10
46.89995142368112
 20
150.644493285641
 30
0.0
 10
47.00970778882972
 20
150.5990307106397
 30
0.0
  0
SPLINE
  5
30C
330
1F
100
AcDbEntity
  8
0
  6
Continuous
 62
     7
370
    25
100
AcDbSpline
210
0.0
220
0.0
230
1.0
 70
    24
 71
     3
 72
    10
 73
     6
 74
     0
 42
0.00000001
 43
0.00000001
 40
0.0
 40
0.0
 40
0.0
 40
0.0
 40
0.5
 40
0.5
 40
1.0
 40
1.0
 40
1.0
 40
1.0
 10
87.94900376115876
 20
191.5383266829688
 30
0.0
 10
87.90353885922495
 20
191.6480886658293
 30
0.0
 10
87.86326150993095
 20
191.7453267887513
 30
0.0
 10
87.81110457631998
 20
191.8712447652467
 30
0.0
 10
87.79989041148356
 20
191.8983181540856
 30
0.0
 10
87.80658407758699
 20
191.8821582145968
 30
0.0
  0
SPLINE
  5
30D
330
1F
100
AcDbEntity
  8
0
  6
Continuous
 62
     7
370
    25
100
AcDbSpline
210
0.0
220
0.0
230
1.0
 70
    24
 71
     3
 72
    10
 73
     6
 74
     0
 42
0.00000001
 43
0.00000001
 40
0.0
 40
0.0
 40
0.0
 40
0.0
 40
0.5
 40
0.5
 40
1.0
 40
1.0
 40
1.0
 40
1.0
 10
209.3021476434607
 20
70.38659464872303
 30
0.0
 10
209.318306666416
 20
70.37990136226023
 30
0.0
 10
209.2912843513422
 20
70.39109437165055
 30
0.0
 10
209.1654932393452
 20
70.4431987562657
 30
0.0
 10
209.0680724769813
 20
70.48355175729355
 30
0.0
 10
208.9583161118327
 20
70.52901433229489
 30
0.0
  0
SPLINE
  5
30E
330
1F
100
AcDbEntity
  8
0
  6
Continuous
 62
     7
370
    25
100
AcDbSpline
210
0.0
220
0.0
230
1.0
 70
    24
 71
     3
 72
    10
 73
     6
 74
     0
 42
0.00000001
 43
0.00000001
 40
0.0
 40
0.0
 40
0.0
 40
0.0
 40
0.5
 40
0.5
 40
1.0
 40
1.0
 40
1.0
 40
1.0
 10
168.0190201395036
 20
29.58971835996579
 30
0.0
 10
168.0644850414375
 20
29.47995637710525
 30
0.0
 10
168.1047623907315
 20
29.38271825418329
 30
0.0
 10
168.1569193243424
 20
29.25680027768787
 30
0.0
 10
168.1681334891789
 20
29.22972688884895
 30
0.0
 10
168.1614398230755
 20
29.24588682833783
 30
0.0
  0
SPLINE
  5
30F
330
1F
100
AcDbEntity
  8
0
  6
Continuous
 62
     7
370
    25
100
AcDbSpline
210
0.0
220
0.0
230
1.0
 70
    24
 71
     3
 72
    10
 73
     6
 74
     0
 42
0.00000001
 43
0.00000001
 40
0.0
 40
0.0
 40
0.0
 40
0.0
 40
0.5
 40
0.5
 40
1.0
 40
1.0
 40
1.0
 40
1.0
 10
168.1614398230755
 20
191.8821582145968
 30
0.0
 10
168.1681331095383
 20
191.8983172375521
 30
0.0
 10
168.1569401001479
 20
191.8712949224783
 30
0.0
 10
168.1048357155328
 20
191.7455038104813
 30
0.0
 10
168.064482714505
 20
191.6480830481174
 30
0.0
 10
168.0190201395037
 20
191.5383266829688
 30
0.0
  0
SPLINE
  5
310
330
1F
100
AcDbEntity
  8
0
  6
Continuous
 62
     7
370
    25
100
AcDbSpline
210
0.0
220
0.0
230
1.0
 70
    24
 71
     3
 72
    10
 73
     6
 74
     0
 42
0.00000001
 43
0.00000001
 40
0.0
 40
0.0
 40
0.0
 40
0.0
 40
0.5
 40
0.5
 40
1.0
 40
1.0
 40
1.0
 40
1.0
 10
208.9583161118327
 20
150.5990307106397
 30
0.0
 10
209.0680780946932
 20
150.6444956125735
 30
0.0
 10
209.1653162176152
 20
150.6847729618675
 30
0.0
 10
209.2912341941107
 20
150.7369298954785
 30
0.0
 10
209.3183075829496
 20
150.748144060315
 30
0.0
 10
209.3021476434607
 20
150.7414503942115
 30
0.0
  0
SPLINE
  5
311
330
1F
100
AcDbEntity
  8
0
  6
Continuous
 62
     7
370
    25
100
AcDbSpline
210
0.0
220
0.0
230
1.0
 70
    24
 71
     3
 72
    10
 73
     6
 74
     0
 42
0.00000001
 43
0.00000001
 40
0.0
 40
0.0
 40
0.0
 40
0.0
 40
0.5
 40
0.5
 40
1.0
 40
1.0
 40
1.0
 40
1.0
 10
87.80658407758696
 20
29.2458868283378
 30
0.0
 10
87.79989079112416
 20
29.22972780538247
 30
0.0
 10
87.81108380051447
 20
29.25675012045628
 30
0.0
 10
87.86318818512962
 20
29.38254123245331
 30
0.0
 10
87.90354118615748
 20
29.47996199481713
 30
0.0
 10
87.9490037611588
 20
29.58971835996574
 30
0.0
  0
SPLINE
  5
312
330
1F
100
AcDbEntity
  8
0
  6
Continuous
 62
     7
370
    25
100
AcDbSpline
210
0.0
220
0.0
230
1.0
 70
    24
 71
     3
 72
    10
 73
     6
 74
     0
 42
0.00000001
 43
0.00000001
 40
0.0
 40
0.0
 40
0.0
 40
0.0
 40
0.5
 40
0.5
 40
1.0
 40
1.0
 40
1.0
 40
1.0
 10
47.00970778882971
 20
70.52901433229485
 30
0.0
 10
46.89994580596915
 20
70.48354943036105
 30
0.0
 10
46.80270768304722
 20
70.44327208106705
 30
0.0
 10
46.67678970655182
 20
70.39111514745605
 30
0.0
 10
46.64971631771282
 20
70.37990098261962
 30
0.0
 10
46.6658762572017
 20
70.38659464872305
 30
0.0
  0
SPLINE
  5
313
330
1F
100
AcDbEntity
  8
0
  6
Continuous
 62
     7
370
    25
100
AcDbSpline
210
0.0
220
0.0
230
1.0
 70
    24
 71
     3
 72
    10
 73
     6
 74
     0
 42
0.00000001
 43
0.00000001
 40
0.0
 40
0.0
 40
0.0
 40
0.0
 40
0.5
 40
0.5
 40
1.0
 40
1.0
 40
1.0
 40
1.0
 10
213.8943488318418
 20
139.6548960040762
 30
0.0
 10
213.9105078547971
 20
139.661589290539
 30
0.0
 10
213.8834855397232
 20
139.6503962811486
 30
0.0
 10
213.7576944277262
 20
139.5982918965335
 30
0.0
 10
213.6602736653624
 20
139.5579388955056
 30
0.0
 10
213.5505173002138
 20
139.5124763205043
 30
0.0
  0
SPLINE
  5
314
330
1F
100
AcDbEntity
  8
0
  6
Continuous
 62
     7
370
    25
100
AcDbSpline
210
0.0
220
0.0
230
1.0
 70
    24
 71
     3
 72
    10
 73
     6
 74
     0
 42
0.00000001
 43
0.00000001
 40
0.0
 40
0.0
 40
0.0
 40
0.0
 40
0.5
 40
0.5
 40
1.0
 40
1.0
 40
1.0
 40
1.0
 10
213.5505173002138
 20
81.61556872243024
 30
0.0
 10
213.6602792830743
 20
81.57010382049646
 30
0.0
 10
213.7575174059963
 20
81.52982647120243
 30
0.0
 10
213.8834353824917
 20
81.47766953759145
 30
0.0
 10
213.9105087713306
 20
81.46645537275501
 30
0.0
 10
213.8943488318418
 20
81.47314903885842
 30
0.0
  0
SPLINE
  5
315
330
1F
100
AcDbEntity
  8
0
  6
Continuous
 62
     7
370
    25
100
AcDbSpline
210
0.0
220
0.0
230
1.0
 70
    24
 71
     3
 72
    10
 73
     6
 74
     0
 42
0.00000001
 43
0.00000001
 40
0.0
 40
0.0
 40
0.0
 40
0.0
 40
0.5
 40
0.5
 40
1.0
 40
1.0
 40
1.0
 40
1.0
 10
42.07367506882068
 20
81.47314903885841
 30
0.0
 10
42.05751604586533
 20
81.46645575239562
 30
0.0
 10
42.08453836093916
 20
81.4776487617859
 30
0.0
 10
42.21032947293618
 20
81.52975314640103
 30
0.0
 10
42.30775023530001
 20
81.5701061474289
 30
0.0
 10
42.41750660044862
 20
81.61556872243023
 30
0.0
  0
SPLINE
  5
316
330
1F
100
AcDbEntity
  8
0
  6
Continuous
 62
     7
370
    25
100
AcDbSpline
210
0.0
220
0.0
230
1.0
 70
    24
 71
     3
 72
    10
 73
     6
 74
     0
 42
0.00000001
 43
0.00000001
 40
0.0
 40
0.0
 40
0.0
 40
0.0
 40
0.5
 40
0.5
 40
1.0
 40
1.0
 40
1.0
 40
1.0
 10
42.4175066004486
 20
139.5124763205043
 30
0.0
 10
42.3077446175881
 20
139.5579412224381
 30
0.0
 10
42.21050649466609
 20
139.598218571732
 30
0.0
 10
42.0845885181707
 20
139.650375505343
 30
0.0
 10
42.05751512933174
 20
139.6615896701794
 30
0.0
 10
42.07367506882063
 20
139.654896004076
 30
0.0
  0
SPLINE
  5
317
330
1F
100
AcDbEntity
  8
0
  6
Continuous
 62
     7
370
    25
100
AcDbSpline
210
0.0
220
0.0
230
1.0
 70
    24
 71
     3
 72
    10
 73
     6
 74
     0
 42
0.00000001
 43
0.00000001
 40
0.0
 40
0.0
 40
0.0
 40
0.0
 40
0.5
 40
0.5
 40
1.0
 40
1.0
 40
1.0
 40
1.0
 10
98.89313846772232
 20
196.4743594029778
 30
0.0
 10
98.88644518125952
 20
196.4905184259332
 30
0.0
 10
98.89763819064984
 20
196.4634961108593
 30
0.0
 10
98.94974257526498
 20
196.3377049988623
 30
0.0
 10
98.99009557629284
 20
196.2402842364985
 30
0.0
 10
99.03555815129418
 20
196.1305278713499
 30
0.0
  0
SPLINE
  5
318
330
1F
100
AcDbEntity
  8
0
  6
Continuous
 62
     7
370
    25
100
AcDbSpline
210
0.0
220
0.0
230
1.0
 70
    24
 71
     3
 72
    10
 73
     6
 74
     0
 42
0.00000001
 43
0.00000001
 40
0.0
 40
0.0
 40
0.0
 40
0.0
 40
0.5
 40
0.5
 40
1.0
 40
1.0
 40
1.0
 40
1.0
 10
156.9324657493682
 20
196.1305278713499
 30
0.0
 10
156.977930651302
 20
196.2402898542104
 30
0.0
 10
157.0182080005959
 20
196.3375279771324
 30
0.0
 10
157.0703649342069
 20
196.4634459536278
 30
0.0
 10
157.0815790990434
 20
196.4905193424667
 30
0.0
 10
157.07488543294
 20
196.4743594029779
 30
0.0
  0
SPLINE
  5
319
330
1F
100
AcDbEntity
  8
0
  6
Continuous
 62
     7
370
    25
100
AcDbSpline
210
0.0
220
0.0
230
1.0
 70
    24
 71
     3
 72
    10
 73
     6
 74
     0
 42
0.00000001
 43
0.00000001
 40
0.0
 40
0.0
 40
0.0
 40
0.0
 40
0.5
 40
0.5
 40
1.0
 40
1.0
 40
1.0
 40
1.0
 10
157.0748854329401
 20
24.65368563995675
 30
0.0
 10
157.0815787194029
 20
24.6375266170014
 30
0.0
 10
157.0703857100126
 20
24.66454893207523
 30
0.0
 10
157.0182813253975
 20
24.79034004407218
 30
0.0
 10
156.9779283243695
 20
24.88776080643611
 30
0.0
 10
156.9324657493682
 20
24.9975171715847
 30
0.0
  0
SPLINE
  5
31A
330
1F
100
AcDbEntity
  8
0
  6
Continuous
 62
     7
370
    25
100
AcDbSpline
210
0.0
220
0.0
230
1.0
 70
    24
 71
     3
 72
    10
 73
     6
 74
     0
 42
0.00000001
 43
0.00000001
 40
0.0
 40
0.0
 40
0.0
 40
0.0
 40
0.5
 40
0.5
 40
1.0
 40
1.0
 40
1.0
 40
1.0
 10
99.03555815129425
 20
24.99751717158465
 30
0.0
 10
98.99009324936047
 20
24.88775518872412
 30
0.0
 10
98.94981590006648
 20
24.79051706580215
 30
0.0
 10
98.8976589664555
 20
24.66459908930677
 30
0.0
 10
98.88644480161902
 20
24.63752570046783
 30
0.0
 10
98.89313846772245
 20
24.65368563995671
 30
0.0
  0
CIRCLE
  5
31B
330
1F
100
AcDbEntity
  8
0
  6
Continuous
 62
     8
370
    18
100
AcDbCircle
 10
127.9840119503
 20
110.5640225215
 30
0.0
 40
74.13821893023237
  0
CIRCLE
  5
31C
330
1F
100
AcDbEntity
  8
0
  6
Continuous
 62
     8
370
    18
100
AcDbCircle
 10
127.9840119503
 20
110.5640225215
 30
0.0
 40
72.96942544258938
  0
CIRCLE
  5
31D
330
1F
100
AcDbEntity
  8
0
  6
Continuous
 62
     8
370
    18
100
AcDbCircle
 10
127.9840119503
 20
110.5640225215
 30
0.0
 40
68.75955635862022
  0
ARC
  5
31E
330
1F
100
AcDbEntity
  8
0
  6
Continuous
 62
     8
370
    18
100
AcDbCircle
 10
127.9840119503
 20
110.5640225215
 30
0.0
 40
90.33072464641509
100
AcDbArc
 50
26.3085376629
 51
63.6914623371
  0
ARC
  5
31F
330
1F
100
AcDbEntity
  8
0
  6
Continuous
 62
     8
370
    18
100
AcDbCircle
 10
127.9840119503
 20
110.5640225215
 30
0.0
 40
90.33072464641509
100
AcDbArc
 50
296.3085376629
 51
333.6914623371
  0
ARC
  5
320
330
1F
100
AcDbEntity
  8
0
  6
Continuous
 62
     8
370
    18
100
AcDbCircle
 10
127.9840119503
 20
110.5640225215
 30
0.0
 40
90.33072464641512
100
AcDbArc
 50
71.3085376629
 51
108.6914623371
  0
ARC
  5
321
330
1F
100
AcDbEntity
  8
0
  6
Continuous
 62
     8
370
    18
100
AcDbCircle
 10
127.9840119503
 20
110.5640225215
 30
0.0
 40
90.33072464641512
100
AcDbArc
 50
116.3085376629
 51
153.6914623371
  0
ARC
  5
322
330
1F
100
AcDbEntity
  8
0
  6
Continuous
 62
     8
370
    18
100
AcDbCircle
 10
127.9840119503
 20
110.5640225215
 30
0.0
 40
90.33072464641509
100
AcDbArc
 50
206.3085376629
 51
243.6914623371
  0
ARC
  5
323
330
1F
100
AcDbEntity
  8
0
  6
Continuous
 62
     8
370
    18
100
AcDbCircle
 10
127.9840119503
 20
110.5640225215
 30
0.0
 40
90.33072464641512
100
AcDbArc
 50
161.3085376629
 51
198.6914623371
  0
ARC
  5
324
330
1F
100
AcDbEntity
  8
0
  6
Continuous
 62
     8
370
    18
100
AcDbCircle
 10
127.9840119503
 20
110.5640225215
 30
0.0
 40
90.33072464641513
100
AcDbArc
 50
251.3085376629
 51
288.6914623371
  0
ARC
  5
325
330
1F
100
AcDbEntity
  8
0
  6
Continuous
 62
     8
370
    18
100
AcDbCircle
 10
127.9840119503
 20
110.5640225215
 30
0.0
 40
90.33072464641513
100
AcDbArc
 50
341.3085376629
 51
18.6914623371
  0
LINE
  5
326
330
1F
100
AcDbEntity
  8
0
  6
CENTER
 62
     7
370
    18
100
AcDbLine
 10
229.631937571
 20
110.5640225215
 30
0.0
 11
26.6577164439
 21
110.5640225215
 31
0.0
  0
LINE
  5
327
330
1F
100
AcDbEntity
  8
0
  6
Continuous
 62
     7
370
    18
100
AcDbLine
 10
227.631937571
 20
102.9640225215
 30
0.0
 11
227.631937571
 21
110.5640225215
 31
0.0
  0
SOLID
  5
328
330
1F
100
AcDbEntity
  8
0
  6
Continuous
 62
     7
370
    18
100
AcDbTrace
 10
227.631937571
 20
110.5640225215
 30
0.0
 11
226.831937571
 21
105.5640225215
 31
0.0
 12
228.431937571
 22
105.5640225215
 32
0.0
 13
228.431937571
 23
105.5640225215
 33
0.0
  0
LINE
  5
329
330
1F
100
AcDbEntity
  8
0
  6
Continuous
 62
     7
370
    18
100
AcDbLine
 10
28.6577164439
 20
102.9640225215
 30
0.0
 11
28.6577164439
 21
110.5640225215
 31
0.0
  0
SOLID
  5
32A
330
1F
100
AcDbEntity
  8
0
  6
Continuous
 62
     7
370
    18
100
AcDbTrace
 10
28.6577164439
 20
110.5640225215
 30
0.0
 11
27.8577164439
 21
105.5640225215
 31
0.0
 12
29.4577164439
 22
105.5640225215
 32
0.0
 13
29.4577164439
 23
105.5640225215
 33
0.0
  0
MTEXT
  5
32B
330
1F
100
AcDbEntity
  8
0
  6
Continuous
 62
     7
100
AcDbMText
 10
225.5686113394
 20
102.5799634993
 30
0.0
 40
5.0
 41
0.0
 71
     1
 72
     1
  1
A
  7
SLDTEXTSTYLE0
 73
     1
 44
1.0
  0
MTEXT
  5
32C
330
1F
100
AcDbEntity
  8
0
  6
Continuous
 62
     7
100
AcDbMText
 10
26.463512194
 20
102.3386963576
 30
0.0
 40
5.0
 41
0.0
 71
     1
 72
     1
  1
A
  7
SLDTEXTSTYLE0
 73
     1
 44
1.0
  0
LINE
  5
32D
330
1F
100
AcDbEntity
  8
0
  6
Continuous
 62
     7
370
    25
100
AcDbLine
 10
204.3840119503
 20
236.557833618
 30
0.0
 11
202.3781079503
 21
236.557833618
 31
0.0
  0
LINE
  5
32E
330
1F
100
AcDbEntity
  8
0
  6
Continuous
 62
     7
370
    25
100
AcDbLine
 10
53.5899159503
 20
236.557833618
 30
0.0
 11
51.5840119503
 21
236.557833618
 31
0.0
  0
LINE
  5
32F
330
1F
100
AcDbEntity
  8
0
  6
Continuous
 62
     7
370
    25
100
AcDbLine
 10
51.5840119503
 20
231.557833618
 30
0.0
 11
53.5899159503
 21
231.557833618
 31
0.0
  0
LINE
  5
330
330
1F
100
AcDbEntity
  8
0
  6
Continuous
 62
     7
370
    25
100
AcDbLine
 10
202.3781079503
 20
231.557833618
 30
0.0
 11
204.3840119503
 21
231.557833618
 31
0.0
  0
LINE
  5
331
330
1F
100
AcDbEntity
  8
0
  6
Continuous
 62
     7
370
    25
100
AcDbLine
 10
201.614548077
 20
253.3161126891
 30
0.0
 11
54.3534758236
 21
253.3161126891
 31
0.0
  0
LINE
  5
332
330
1F
100
AcDbEntity
  8
0
  6
Continuous
 62
     7
370
    25
100
AcDbLine
 10
57.5600070382
 20
243.3666922436
 30
0.0
 11
198.4080168624
 21
243.3666922436
 31
0.0
  0
CIRCLE
  5
333
330
1F
100
AcDbEntity
  8
0
  6
Continuous
 62
     7
370
    25
100
AcDbCircle
 10
204.3840119503
 20
234.057833618
 30
0.0
 40
2.5
  0
CIRCLE
  5
334
330
1F
100
AcDbEntity
  8
0
  6
Continuous
 62
     7
370
    25
100
AcDbCircle
 10
51.5840119503
 20
234.057833618
 30
0.0
 40
2.5
  0
ARC
  5
335
330
1F
100
AcDbEntity
  8
0
  6
Continuous
 62
     7
370
    25
100
AcDbCircle
 10
210.424044022
 20
241.807833618
 30
0.0
 40
4.910000000000224
100
AcDbArc
 50
90.0
 51
180.0
  0
SPLINE
  5
336
330
1F
100
AcDbEntity
  8
0
  6
Continuous
 62
     7
370
    25
100
AcDbSpline
210
0.0
220
0.0
230
1.0
 70
     8
 71
     3
 72
    10
 73
     6
 74
     0
 42
0.00000001
 43
0.00000001
 40
0.0
 40
0.0
 40
0.0
 40
0.0
 40
0.5
 40
0.5
 40
1.0
 40
1.0
 40
1.0
 40
1.0
 10
218.3147365967463
 20
247.2654118059774
 30
0.0
 10
218.4334309158359
 20
247.2369158211405
 30
0.0
 10
218.5384934518776
 20
247.1637710266225
 30
0.0
 10
218.6743552249148
 20
246.9635242720117
 30
0.0
 10
218.7035172185222
 20
246.8386485953556
 30
0.0
 10
218.686078647159
 20
246.717833617953
 30
0.0
  0
LINE
  5
337
330
1F
100
AcDbEntity
  8
0
  6
Continuous
 62
     7
370
    25
100
AcDbLine
 10
205.9840119503
 20
222.3161126891
 30
0.0
 11
199.9942835733
 21
222.3161126891
 31
0.0
  0
LINE
  5
338
330
1F
100
AcDbEntity
  8
0
  6
Continuous
 62
     7
370
    25
100
AcDbLine
 10
199.9942835733
 20
226.987833618
 30
0.0
 11
199.9942835733
 21
222.3161126891
 31
0.0
  0
LINE
  5
339
330
1F
100
AcDbEntity
  8
0
  6
Continuous
 62
     7
370
    25
100
AcDbLine
 10
198.4745508164
 20
228.2630408137
 30
0.0
 11
199.9942835733
 21
226.987833618
 31
0.0
  0
LINE
  5
33A
330
1F
100
AcDbEntity
  8
0
  6
Continuous
 62
     7
370
    25
100
AcDbLine
 10
199.9081280531
 20
231.6403371384
 30
0.0
 11
198.4745508164
 21
228.2630408137
 31
0.0
  0
ARC
  5
33B
330
1F
100
AcDbEntity
  8
0
  6
Continuous
 62
     7
370
    25
100
AcDbCircle
 10
202.9400981484
 20
234.174252819
 30
0.0
 40
3.951401186307204
100
AcDbArc
 50
138.2030419334
 51
219.8865976473
  0
LINE
  5
33C
330
1F
100
AcDbEntity
  8
0
  6
Continuous
 62
     7
370
    25
100
AcDbLine
 10
199.9942835733
 20
241.1191398363
 30
0.0
 11
199.9942835733
 21
236.807833618
 31
0.0
  0
ARC
  5
33D
330
1F
100
AcDbEntity
  8
0
  6
Continuous
 62
     7
370
    25
100
AcDbCircle
 10
191.7329270906
 20
248.533500267
 30
0.0
 40
11.10057437844621
100
AcDbArc
 50
318.0928189648
 51
355.4396572261
  0
SPLINE
  5
33E
330
1F
100
AcDbEntity
  8
0
  6
Continuous
 62
     7
370
    25
100
AcDbSpline
210
0.0
220
0.0
230
1.0
 70
     8
 71
     3
 72
    38
 73
    34
 74
     0
 42
0.00000001
 43
0.00000001
 40
0.0
 40
0.0
 40
0.0
 40
0.0
 40
0.0625
 40
0.0625
 40
0.125
 40
0.125
 40
0.1875
 40
0.1875
 40
0.25
 40
0.25
 40
0.3125
 40
0.3125
 40
0.375
 40
0.375
 40
0.4375
 40
0.4375
 40
0.5
 40
0.5
 40
0.5625
 40
0.5625
 40
0.625
 40
0.625
 40
0.6875
 40
0.6875
 40
0.75
 40
0.75
 40
0.8125
 40
0.8125
 40
0.875
 40
0.875
 40
0.9375
 40
0.9375
 40
1.0
 40
1.0
 40
1.0
 40
1.0
 10
199.8471418010568
 20
246.7067340372252
 30
0.0
 10
199.7469340819295
 20
246.8127731949334
 30
0.0
 10
199.6621535918763
 20
246.9291070801176
 30
0.0
 10
199.5224612987851
 20
247.181706491574
 30
0.0
 10
199.4681314066264
 20
247.3183494278799
 30
0.0
 10
199.3962466676523
 20
247.5968750240077
 30
0.0
 10
199.3776646237548
 20
247.7426881856212
 30
0.0
 10
199.3776618954487
 20
248.0314148135714
 30
0.0
 10
199.3955620744107
 20
248.174229540356
 30
0.0
 10
199.4682618513144
 20
248.4566669804099
 30
0.0
 10
199.5216191707135
 20
248.5905398302577
 30
0.0
 10
199.6609688120056
 20
248.843247098916
 30
0.0
 10
199.7477062981596
 20
248.9620525879942
 30
0.0
 10
199.9451529086968
 20
249.1712420940955
 30
0.0
 10
200.0586164134777
 20
249.2645983605158
 30
0.0
 10
200.3030435745698
 20
249.4184250572405
 30
0.0
 10
200.4334398841479
 20
249.4793248182034
 30
0.0
 10
200.7110602229749
 20
249.5681925201182
 30
0.0
 10
200.8529403079348
 20
249.5943740308957
 30
0.0
 10
201.1409721028489
 20
249.6110295558826
 30
0.0
 10
201.2877694289926
 20
249.6008986590275
 30
0.0
 10
201.5699868225281
 20
249.5452054226146
 30
0.0
 10
201.7093739008858
 20
249.4989232618947
 30
0.0
 10
201.9698252071281
 20
249.3739504912062
 30
0.0
 10
202.09080178777
 20
249.296024126175
 30
0.0
 10
202.3137781031849
 20
249.1084923152755
 30
0.0
 10
202.4116174143275
 20
249.0022462182639
 30
0.0
 10
202.5790883755216
 20
248.7673948228714
 30
0.0
 10
202.6487260515367
 20
248.6377202832773
 30
0.0
 10
202.7519063873578
 20
248.3691934075657
 30
0.0
 10
202.7869628810635
 20
248.2266739711566
 30
0.0
 10
202.8199352534419
 20
247.9394687543407
 30
0.0
 10
202.818408413739
 20
247.7954174862761
 30
0.0
 10
202.7983587079665
 20
247.6509048597045
 30
0.0
  0
SPLINE
  5
33F
330
1F
100
AcDbEntity
  8
0
  6
Continuous
 62
     7
370
    25
100
AcDbSpline
210
0.0
220
0.0
230
1.0
 70
     8
 71
     3
 72
    34
 73
    30
 74
     0
 42
0.00000001
 43
0.00000001
 40
0.0
 40
0.0
 40
0.0
 40
0.0
 40
0.0624999999999985
 40
0.0624999999999985
 40
0.124999999999997
 40
0.124999999999997
 40
0.1874999999999955
 40
0.1874999999999955
 40
0.249999999999994
 40
0.249999999999994
 40
0.374999999999991
 40
0.374999999999991
 40
0.499999999999988
 40
0.499999999999988
 40
0.5624999999999895
 40
0.5624999999999895
 40
0.624999999999991
 40
0.624999999999991
 40
0.6874999999999925
 40
0.6874999999999925
 40
0.749999999999994
 40
0.749999999999994
 40
0.8124999999999954
 40
0.8124999999999954
 40
0.874999999999997
 40
0.874999999999997
 40
0.9374999999999984
 40
0.9374999999999984
 40
1.0
 40
1.0
 40
1.0
 40
1.0
 10
199.8471418010568
 20
246.7067340372252
 30
0.0
 10
199.9369805786282
 20
246.6116672261435
 30
0.0
 10
200.0159907971799
 20
246.5093744211046
 30
0.0
 10
200.1532398540051
 20
246.2909278838156
 30
0.0
 10
200.2119351508416
 20
246.1734034311735
 30
0.0
 10
200.3043986009664
 20
245.9308842093997
 30
0.0
 10
200.3383114809901
 20
245.8064649306619
 30
0.0
 10
200.3817209115086
 20
245.5513638143823
 30
0.0
 10
200.3909366210586
 20
245.419864302384
 30
0.0
 10
200.3799785642652
 20
245.0325363694645
 30
0.0
 10
200.3207766581858
 20
244.7736105840631
 30
0.0
 10
200.1101612543547
 20
244.3027949703163
 30
0.0
 10
199.956540157606
 20
244.0860391040556
 30
0.0
 10
199.6751876093972
 20
243.8197989142892
 30
0.0
 10
199.5710600431836
 20
243.7390442212425
 30
0.0
 10
199.351839044781
 20
243.601302592917
 30
0.0
 10
199.236484734657
 20
243.5436724073828
 30
0.0
 10
198.9942257072948
 20
243.4510161642404
 30
0.0
 10
198.867368267608
 20
243.4163950290363
 30
0.0
 10
198.6129924644316
 20
243.3731089687056
 30
0.0
 10
198.4841227293224
 20
243.3638454803266
 30
0.0
 10
198.2228888449683
 20
243.3710399826976
 30
0.0
 10
198.0943633026404
 20
243.3874428911222
 30
0.0
 10
197.8428483778073
 20
243.4446859549934
 30
0.0
 10
197.7183535852798
 20
243.4861429027196
 30
0.0
 10
197.4812436758656
 20
243.5921600378615
 30
0.0
 10
197.3692379675412
 20
243.6561016185903
 30
0.0
 10
197.158161012787
 20
243.8055769807105
 30
0.0
 10
197.0587307013893
 20
243.8917016821835
 30
0.0
 10
196.9688919238179
 20
243.9867684932652
 30
0.0
  0
ARC
  5
340
330
1F
100
AcDbEntity
  8
0
  6
Continuous
 62
     7
370
    25
100
AcDbCircle
 10
198.3963450192
 20
245.3357212947
 30
0.0
 40
1.964000000000041
100
AcDbArc
 50
147.3026749636
 51
223.3804466113
  0
LINE
  5
341
330
1F
100
AcDbEntity
  8
0
  6
Continuous
 62
     7
370
    25
100
AcDbLine
 10
200.9534373929
 20
252.9548946201
 30
0.0
 11
196.743568309
 21
246.3966761222
 31
0.0
  0
ARC
  5
342
330
1F
100
AcDbEntity
  8
0
  6
Continuous
 62
     7
370
    25
100
AcDbCircle
 10
201.614548077
 20
252.5305126891
 30
0.0
 40
0.7856000000000393
100
AcDbArc
 50
49.7416090498
 51
147.3026749636
  0
LINE
  5
343
330
1F
100
AcDbEntity
  8
0
  6
Continuous
 62
     7
370
    25
100
AcDbLine
 10
202.1222308806
 20
253.1300337738
 30
0.0
 11
205.3808936322
 21
250.370552775
 31
0.0
  0
LINE
  5
344
330
1F
100
AcDbEntity
  8
0
  6
Continuous
 62
     7
370
    25
100
AcDbLine
 10
205.3808936322
 20
250.370552775
 30
0.0
 11
218.3147365967
 21
247.265411806
 31
0.0
  0
LINE
  5
345
330
1F
100
AcDbEntity
  8
0
  6
Continuous
 62
     7
370
    25
100
AcDbLine
 10
205.514044022
 20
241.807833618
 30
0.0
 11
205.514044022
 21
236.807833618
 31
0.0
  0
LINE
  5
346
330
1F
100
AcDbEntity
  8
0
  6
Continuous
 62
     7
370
    25
100
AcDbLine
 10
205.514044022
 20
236.807833618
 30
0.0
 11
202.3781079503
 21
236.807833618
 31
0.0
  0
LINE
  5
347
330
1F
100
AcDbEntity
  8
0
  6
Continuous
 62
     7
370
    25
100
AcDbLine
 10
202.3781079503
 20
236.807833618
 30
0.0
 11
202.3781079503
 21
231.307833618
 31
0.0
  0
LINE
  5
348
330
1F
100
AcDbEntity
  8
0
  6
Continuous
 62
     7
370
    25
100
AcDbLine
 10
202.3781079503
 20
231.307833618
 30
0.0
 11
205.9840119503
 21
231.307833618
 31
0.0
  0
LINE
  5
349
330
1F
100
AcDbEntity
  8
0
  6
Continuous
 62
     7
370
    25
100
AcDbLine
 10
205.9840119503
 20
231.307833618
 30
0.0
 11
205.9840119503
 21
222.3161126891
 31
0.0
  0
LINE
  5
34A
330
1F
100
AcDbEntity
  8
0
  6
Continuous
 62
     7
370
    25
100
AcDbLine
 10
218.6860786472
 20
246.717833618
 30
0.0
 11
210.424044022
 21
246.717833618
 31
0.0
  0
LINE
  5
34B
330
1F
100
AcDbEntity
  8
0
  6
Continuous
 62
     7
370
    25
100
AcDbLine
 10
49.9840119503
 20
231.307833618
 30
0.0
 11
53.5899159503
 21
231.307833618
 31
0.0
  0
LINE
  5
34C
330
1F
100
AcDbEntity
  8
0
  6
Continuous
 62
     7
370
    25
100
AcDbLine
 10
53.5899159503
 20
231.307833618
 30
0.0
 11
53.5899159503
 21
236.807833618
 31
0.0
  0
LINE
  5
34D
330
1F
100
AcDbEntity
  8
0
  6
Continuous
 62
     7
370
    25
100
AcDbLine
 10
53.5899159503
 20
236.807833618
 30
0.0
 11
50.4539798786
 21
236.807833618
 31
0.0
  0
LINE
  5
34E
330
1F
100
AcDbEntity
  8
0
  6
Continuous
 62
     7
370
    25
100
AcDbLine
 10
50.4539798786
 20
236.807833618
 30
0.0
 11
50.4539798786
 21
241.807833618
 31
0.0
  0
ARC
  5
34F
330
1F
100
AcDbEntity
  8
0
  6
Continuous
 62
     7
370
    25
100
AcDbCircle
 10
45.5439798786
 20
241.807833618
 30
0.0
 40
4.910000000000203
100
AcDbArc
 50
0.0
 51
90.0
  0
LINE
  5
350
330
1F
100
AcDbEntity
  8
0
  6
Continuous
 62
     7
370
    25
100
AcDbLine
 10
45.5439798786
 20
246.717833618
 30
0.0
 11
37.2819452535
 21
246.717833618
 31
0.0
  0
SPLINE
  5
351
330
1F
100
AcDbEntity
  8
0
  6
Continuous
 62
     7
370
    25
100
AcDbSpline
210
0.0
220
0.0
230
1.0
 70
     8
 71
     3
 72
    10
 73
     6
 74
     0
 42
0.00000001
 43
0.00000001
 40
0.0
 40
0.0
 40
0.0
 40
0.0
 40
0.5
 40
0.5
 40
1.0
 40
1.0
 40
1.0
 40
1.0
 10
37.28194525350348
 20
246.717833617953
 30
0.0
 10
37.26450668214032
 20
246.8386485953556
 30
0.0
 10
37.2935921809062
 20
246.9633174816349
 30
0.0
 10
37.42936663136737
 20
247.163623454354
 30
0.0
 10
37.53459298482652
 20
247.2369158211405
 30
0.0
 10
37.65328730391609
 20
247.2654118059774
 30
0.0
  0
LINE
  5
352
330
1F
100
AcDbEntity
  8
0
  6
Continuous
 62
     7
370
    25
100
AcDbLine
 10
37.6532873039
 20
247.265411806
 30
0.0
 11
50.5871302685
 21
250.370552775
 31
0.0
  0
LINE
  5
353
330
1F
100
AcDbEntity
  8
0
  6
Continuous
 62
     7
370
    25
100
AcDbLine
 10
50.5871302685
 20
250.370552775
 30
0.0
 11
53.8457930201
 21
253.1300337738
 31
0.0
  0
ARC
  5
354
330
1F
100
AcDbEntity
  8
0
  6
Continuous
 62
     7
370
    25
100
AcDbCircle
 10
54.3534758236
 20
252.5305126891
 30
0.0
 40
0.7856000000000214
100
AcDbArc
 50
32.6973250364
 51
130.2583909502
  0
LINE
  5
355
330
1F
100
AcDbEntity
  8
0
  6
Continuous
 62
     7
370
    25
100
AcDbLine
 10
59.2244555917
 20
246.3966761222
 30
0.0
 11
55.0145865077
 21
252.9548946201
 31
0.0
  0
ARC
  5
356
330
1F
100
AcDbEntity
  8
0
  6
Continuous
 62
     7
370
    25
100
AcDbCircle
 10
57.5716788815
 20
245.3357212947
 30
0.0
 40
1.964000000000077
100
AcDbArc
 50
316.6195533887
 51
32.6973250364
  0
SPLINE
  5
357
330
1F
100
AcDbEntity
  8
0
  6
Continuous
 62
     7
370
    25
100
AcDbSpline
210
0.0
220
0.0
230
1.0
 70
     8
 71
     3
 72
    34
 73
    30
 74
     0
 42
0.00000001
 43
0.00000001
 40
0.0
 40
0.0
 40
0.0
 40
0.0
 40
0.0624999999999963
 40
0.0624999999999963
 40
0.1249999999999925
 40
0.1249999999999925
 40
0.1874999999999888
 40
0.1874999999999888
 40
0.2499999999999851
 40
0.2499999999999851
 40
0.3749999999999843
 40
0.3749999999999843
 40
0.4999999999999837
 40
0.4999999999999837
 40
0.5624999999999857
 40
0.5624999999999857
 40
0.6249999999999878
 40
0.6249999999999878
 40
0.6874999999999898
 40
0.6874999999999898
 40
0.7499999999999918
 40
0.7499999999999918
 40
0.8124999999999939
 40
0.8124999999999939
 40
0.8749999999999959
 40
0.8749999999999959
 40
0.937499999999998
 40
0.937499999999998
 40
1.0
 40
1.0
 40
1.0
 40
1.0
 10
58.99913197684456
 20
243.9867684932652
 30
0.0
 10
58.90929319927309
 20
243.8917016821835
 30
0.0
 10
58.8116281260252
 20
243.8070378406346
 30
0.0
 10
58.60128555143392
 20
243.6576651705533
 30
0.0
 10
58.48726531078288
 20
243.592423162909
 30
0.0
 10
58.25035798969972
 20
243.4864043732728
 30
0.0
 10
58.12805365776607
 20
243.4455156126727
 30
0.0
 10
57.87581284483609
 20
243.3877615610621
 30
0.0
 10
57.74504412732711
 20
243.3711304612985
 30
0.0
 10
57.35771581471878
 20
243.3601858333758
 30
0.0
 10
57.09585859759468
 20
243.4046630845186
 30
0.0
 10
56.61389474844812
 20
243.5883395353621
 30
0.0
 10
56.38880511644179
 20
243.7294678616754
 30
0.0
 10
56.10709300921228
 20
243.9953275684207
 30
0.0
 10
56.02058381063148
 20
244.0947259036963
 30
0.0
 10
55.87067559661395
 20
244.3058138703936
 30
0.0
 10
55.80661961818024
 20
244.4177276174304
 30
0.0
 10
55.70042304528358
 20
244.6543642664025
 30
0.0
 10
55.65868939765519
 20
244.7790628456339
 30
0.0
 10
55.6010995014843
 20
245.0305864749804
 30
0.0
 10
55.58456928942569
 20
245.1587269172044
 30
0.0
 10
55.57699180782593
 20
245.419949973177
 30
0.0
 10
55.58610643664766
 20
245.5491970001329
 30
0.0
 10
55.62904671059805
 20
245.803544515647
 30
0.0
 10
55.66340310250112
 20
245.9301828598269
 30
0.0
 10
55.75585345393248
 20
246.1729042527991
 30
0.0
 10
55.81336422843415
 20
246.2883439134862
 30
0.0
 10
55.9506743185805
 20
246.5075294601203
 30
0.0
 10
56.03104332203415
 20
246.6116672261435
 30
0.0
 10
56.12088209960562
 20
246.7067340372252
 30
0.0
  0
SPLINE
  5
358
330
1F
100
AcDbEntity
  8
0
  6
Continuous
 62
     7
370
    25
100
AcDbSpline
210
0.0
220
0.0
230
1.0
 70
     8
 71
     3
 72
    38
 73
    34
 74
     0
 42
0.00000001
 43
0.00000001
 40
0.0
 40
0.0
 40
0.0
 40
0.0
 40
0.0625
 40
0.0625
 40
0.125
 40
0.125
 40
0.1875
 40
0.1875
 40
0.25
 40
0.25
 40
0.3125
 40
0.3125
 40
0.375
 40
0.375
 40
0.4375
 40
0.4375
 40
0.5
 40
0.5
 40
0.5625
 40
0.5625
 40
0.625
 40
0.625
 40
0.6875
 40
0.6875
 40
0.75
 40
0.75
 40
0.8125
 40
0.8125
 40
0.875
 40
0.875
 40
0.9375
 40
0.9375
 40
1.0
 40
1.0
 40
1.0
 40
1.0
 10
53.16966519269592
 20
247.6509048597045
 30
0.0
 10
53.1496154869234
 20
247.7954174862761
 30
0.0
 10
53.14810369049548
 20
247.9393585117249
 30
0.0
 10
53.1809713785345
 20
248.2261338846218
 30
0.0
 10
53.21604377858834
 20
248.3689377920569
 30
0.0
 10
53.31917591008532
 20
248.6374665369775
 30
0.0
 10
53.38868062212231
 20
248.7669882164747
 30
0.0
 10
53.55626749239616
 20
249.0021003314471
 30
0.0
 10
53.65373931605154
 20
249.1080045626501
 30
0.0
 10
53.87687743719395
 20
249.2957957871498
 30
0.0
 10
53.99803182224225
 20
249.3738378171298
 30
0.0
 10
54.25818638582082
 20
249.4987333303006
 30
0.0
 10
54.39777656070522
 20
249.5451307312535
 30
0.0
 10
54.67998003277584
 20
249.6008677371547
 30
0.0
 10
54.82656144479951
 20
249.6110288909399
 30
0.0
 10
55.11488634483129
 20
249.5944143874427
 30
0.0
 10
55.25641704312503
 20
249.5683176466996
 30
0.0
 10
55.53406626242418
 20
249.4795402171549
 30
0.0
 10
55.66479628219209
 20
249.4185066858273
 30
0.0
 10
55.90900857794188
 20
249.2648835235157
 30
0.0
 10
56.0226654643147
 20
249.171426569713
 30
0.0
 10
56.22014881677587
 20
248.9622646245681
 30
0.0
 10
56.30678781140354
 20
248.8436708615621
 30
0.0
 10
56.44633424718061
 20
248.5907284400533
 30
0.0
 10
56.49961391698824
 20
248.4570529815129
 30
0.0
 10
56.57233250981879
 20
248.1749207012046
 30
0.0
 10
56.59033350108969
 20
248.0316142873623
 30
0.0
 10
56.59038772046588
 20
247.743167242272
 30
0.0
 10
56.571825222901
 20
247.5971524285582
 30
0.0
 10
56.49998082174888
 20
247.3186003747107
 30
0.0
 10
56.4458030959881
 20
247.1821983163072
 30
0.0
 10
56.30594654800375
 20
246.9291881190968
 30
0.0
 10
56.22108981873293
 20
246.8127731949334
 30
0.0
 10
56.12088209960561
 20
246.7067340372252
 30
0.0
  0
ARC
  5
359
330
1F
100
AcDbEntity
  8
0
  6
Continuous
 62
     7
370
    25
100
AcDbCircle
 10
64.2350968101
 20
248.533500267
 30
0.0
 40
11.10057437844619
100
AcDbArc
 50
184.5603427739
 51
221.9071810352
  0
LINE
  5
35A
330
1F
100
AcDbEntity
  8
0
  6
Continuous
 62
     7
370
    25
100
AcDbLine
 10
55.9737403274
 20
236.807833618
 30
0.0
 11
55.9737403274
 21
241.1191398363
 31
0.0
  0
ARC
  5
35B
330
1F
100
AcDbEntity
  8
0
  6
Continuous
 62
     7
370
    25
100
AcDbCircle
 10
53.0279257523
 20
234.174252819
 30
0.0
 40
3.951401186307213
100
AcDbArc
 50
320.1134023527
 51
41.7969580666
  0
LINE
  5
35C
330
1F
100
AcDbEntity
  8
0
  6
Continuous
 62
     7
370
    25
100
AcDbLine
 10
57.4934730842
 20
228.2630408137
 30
0.0
 11
56.0598958475
 21
231.6403371384
 31
0.0
  0
LINE
  5
35D
330
1F
100
AcDbEntity
  8
0
  6
Continuous
 62
     7
370
    25
100
AcDbLine
 10
55.9737403274
 20
226.987833618
 30
0.0
 11
57.4934730842
 21
228.2630408137
 31
0.0
  0
LINE
  5
35E
330
1F
100
AcDbEntity
  8
0
  6
Continuous
 62
     7
370
    25
100
AcDbLine
 10
55.9737403274
 20
222.3161126891
 30
0.0
 11
55.9737403274
 21
226.987833618
 31
0.0
  0
LINE
  5
35F
330
1F
100
AcDbEntity
  8
0
  6
Continuous
 62
     7
370
    25
100
AcDbLine
 10
55.9737403274
 20
222.3161126891
 30
0.0
 11
49.9840119503
 21
222.3161126891
 31
0.0
  0
LINE
  5
360
330
1F
100
AcDbEntity
  8
0
  6
Continuous
 62
     7
370
    25
100
AcDbLine
 10
49.9840119503
 20
222.3161126891
 30
0.0
 11
49.9840119503
 21
231.307833618
 31
0.0
  0
LINE
  5
361
330
1F
100
AcDbEntity
  8
0
  6
Continuous
 62
     7
370
    25
100
AcDbLine
 10
202.798358708
 20
247.6509048597
 30
0.0
 11
199.4168831656
 21
247.6509048597
 31
0.0
  0
LINE
  5
362
330
1F
100
AcDbEntity
  8
0
  6
Continuous
 62
     7
370
    25
100
AcDbLine
 10
56.5451217587
 20
247.6509048597
 30
0.0
 11
53.1696651927
 21
247.6509048597
 31
0.0
  0
LINE
  5
363
330
1F
100
AcDbEntity
  8
0
  6
Continuous
 62
     7
370
    25
100
AcDbLine
 10
56.0598958475
 20
231.6403371384
 30
0.0
 11
199.9081280531
 21
231.6403371384
 31
0.0
  0
LINE
  5
364
330
1F
100
AcDbEntity
  8
0
  6
Continuous
 62
     7
370
    25
100
AcDbLine
 10
199.9942835733
 20
236.807833618
 30
0.0
 11
55.9737403274
 21
236.807833618
 31
0.0
  0
LINE
  5
365
330
1F
100
AcDbEntity
  8
0
  6
Continuous
 62
     7
370
    25
100
AcDbLine
 10
199.9942835733
 20
241.1191398363
 30
0.0
 11
55.9737403274
 21
241.1191398363
 31
0.0
  0
LINE
  5
366
330
1F
100
AcDbEntity
  8
0
  6
Continuous
 62
     7
370
    25
100
AcDbLine
 10
198.4745508164
 20
228.2630408137
 30
0.0
 11
57.4934730842
 21
228.2630408137
 31
0.0
  0
LINE
  5
367
330
1F
100
AcDbEntity
  8
0
  6
Continuous
 62
     7
370
    25
100
AcDbLine
 10
199.9942835733
 20
226.987833618
 30
0.0
 11
55.9737403274
 21
226.987833618
 31
0.0
  0
LINE
  5
368
330
1F
100
AcDbEntity
  8
0
  6
Continuous
 62
     7
370
    25
100
AcDbLine
 10
199.9942835733
 20
222.3161126891
 30
0.0
 11
55.9737403274
 21
222.3161126891
 31
0.0
  0
LINE
  5
369
330
1F
100
AcDbEntity
  8
0
  6
Continuous
 62
     8
370
    18
100
AcDbLine
 10
55.0145865077
 20
252.9548946201
 30
0.0
 11
200.9534373929
 21
252.9548946201
 31
0.0
  0
LINE
  5
36A
330
1F
100
AcDbEntity
  8
0
  6
Continuous
 62
     8
370
    18
100
AcDbLine
 10
58.9991319768
 20
243.9867684933
 30
0.0
 11
196.9688919238
 21
243.9867684933
 31
0.0
  0
LINE
  5
36B
330
1F
100
AcDbEntity
  8
0
  6
Continuous
 62
     8
370
    18
100
AcDbLine
 10
196.743568309
 20
246.3966761222
 30
0.0
 11
59.2244555917
 21
246.3966761222
 31
0.0
  0
HATCH
  5
36C
330
1F
100
AcDbEntity
  8
0
  6
Continuous
 62
     7
370
    18
100
AcDbHatch
 10
0.0
 20
0.0
 30
0.0
210
0.0
220
0.0
230
1.0
  2
DIN 128 Elastomer-Rubber
 70
     0
 71
     0
 91
        1
 92
        0
 93
       22
 72
     1
 10
205.9840119503312
 20
222.3161126890668
 11
205.9840119503312
 21
231.3078336179528
 72
     1
 10
205.9840119503312
 20
231.3078336179528
 11
202.3781079503309
 21
231.3078336179528
 72
     1
 10
202.3781079503309
 20
231.3078336179528
 11
202.3781079503309
 21
236.8078336179528
 72
     1
 10
202.3781079503309
 20
236.8078336179528
 11
205.514044022041
 21
236.8078336179527
 72
     1
 10
205.514044022041
 20
236.8078336179527
 11
205.5140440220409
 21
241.8078336179528
 72
     2
 10
210.4240440220411
 20
241.8078336179528
 40
4.9100000000002
 50
180.0
 51
270.0000000000008
 73
     0
 72
     1
 10
210.4240440220411
 20
246.717833617953
 11
218.686078647159
 21
246.717833617953
 72
     4
 94
        3
 73
     1
 74
     0
 95
       20
 96
       16
 40
0.0
 40
0.0
 40
0.0
 40
0.0
 40
0.0000633204649878
 40
0.0000633204649878
 40
0.0000633204649878
 40
0.0002302098648033
 40
0.0002302098648033
 40
0.0002302098648033
 40
0.0003970992646188
 40
0.0003970992646188
 40
0.0003970992646188
 40
0.0005639886644299
 40
0.0005639886644299
 40
0.0005639886644299
 40
0.0007308780642411
 40
0.0007308780642411
 40
0.0007308780642411
 40
0.0007308780642411
 10
218.686078647159
 20
246.717833617953
 42
1.0
 10
218.6890939804736
 20
246.7387239431228
 42
1.0
 10
218.690762924583
 20
246.7598528029817
 42
1.0
 10
218.6910647266942
 20
246.7809574668308
 42
1.0
 10
218.6918505109725
 20
246.8359064298734
 42
1.0
 10
218.6831601126214
 20
246.8917488398471
 42
1.0
 10
218.6657131873068
 20
246.9438603625024
 42
1.0
 10
218.6482662619921
 20
246.9959718851578
 42
1.0
 10
218.6215816019723
 20
247.0457898206309
 42
1.0
 10
218.5878689755458
 20
247.089188724025
 42
1.0
 10
218.55415634912
 20
247.132587627418
 42
1.0
 10
218.5124859204266
 20
247.170764494072
 42
1.0
 10
218.4663084357832
 20
247.2005578810605
 42
1.0
 10
218.4201309511398
 20
247.230351268049
 42
1.0
 10
218.3681727785054
 20
247.2525829137707
 42
1.0
 10
218.3147365967463
 20
247.2654118059774
 42
1.0
 72
     1
 10
218.3147365967463
 20
247.2654118059774
 11
205.3808936321855
 21
250.3705527750465
 72
     1
 10
205.3808936321855
 20
250.3705527750465
 11
202.1222308805636
 21
253.1300337737586
 72
     2
 10
201.6145480770238
 20
252.5305126890669
 40
0.785600000000001
 50
49.74160904977094
 51
147.3026749636437
 73
     1
 72
     1
 10
200.9534373929206
 20
252.954894620073
 11
196.7435683089515
 21
246.3966761221998
 72
     2
 10
198.3963450192096
 20
245.3357212946843
 40
1.964
 50
147.3026749636443
 51
223.3804466112935
 73
     1
 72
     4
 94
        3
 73
     1
 74
     0
 95
       35
 96
       31
 40
0.0
 40
0.0
 40
0.0
 40
0.0
 40
0.0002083471394627
 40
0.0002083471394627
 40
0.0002083471394627
 40
0.000881832639702
 40
0.000881832639702
 40
0.000881832639702
 40
0.0015553181399414
 40
0.0015553181399414
 40
0.0015553181399414
 40
0.0022288036401808
 40
0.0022288036401808
 40
0.0022288036401808
 40
0.0029022891404201
 40
0.0029022891404201
 40
0.0029022891404201
 40
0.0035757746406595
 40
0.0035757746406595
 40
0.0035757746406595
 40
0.0042492601408989
 40
0.0042492601408989
 40
0.0042492601408989
 40
0.0049227456411382
 40
0.0049227456411382
 40
0.0049227456411382
 40
0.0055962311413776
 40
0.0055962311413776
 40
0.0055962311413776
 40
0.006269716641617
 40
0.006269716641617
 40
0.006269716641617
 40
0.006269716641617
 10
196.9688919238179
 20
243.9867684932652
 42
1.0
 10
197.016592273011
 20
243.9362922934787
 42
1.0
 10
197.0670214776724
 20
243.8882629117997
 42
1.0
 10
197.1197616480158
 20
243.8430783514922
 42
1.0
 10
197.2880584204352
 20
243.6988919445571
 42
1.0
 10
197.4835701039227
 20
243.5817738027087
 42
1.0
 10
197.6901062909626
 20
243.5014225301946
 42
1.0
 10
197.8966424780026
 20
243.4210712576806
 42
1.0
 10
198.1198996916407
 20
243.3752706671966
 42
1.0
 10
198.3413899049463
 20
243.3678135255541
 42
1.0
 10
198.562880118252
 20
243.3603563839117
 42
1.0
 10
198.7887123047786
 20
243.391037013937
 42
1.0
 10
199.0001852029711
 20
243.4573147393181
 42
1.0
 10
199.2116581011636
 20
243.5235924646993
 42
1.0
 10
199.4146043946565
 20
243.6272953069345
 42
1.0
 10
199.5922180126472
 20
243.7598355885694
 42
1.0
 10
199.7698316306379
 20
243.8923758702044
 42
1.0
 10
199.9270113760075
 20
244.0574092158521
 42
1.0
 10
200.0507411257022
 20
244.2412691424053
 42
1.0
 10
200.1744708753969
 20
244.4251290689584
 42
1.0
 10
200.2681632486805
 20
244.6328866602003
 42
1.0
 10
200.3240595393852
 20
244.8473374196699
 42
1.0
 10
200.3799558300899
 20
245.0617881791395
 42
1.0
 10
200.3995977269277
 20
245.2888469235621
 42
1.0
 10
200.3813586758812
 20
245.5097108195899
 42
1.0
 10
200.3631196248348
 20
245.7305747156176
 42
1.0
 10
200.3064965703568
 20
245.9513354622003
 42
1.0
 10
200.2161784922077
 20
246.1537117659295
 42
1.0
 10
200.1258604140586
 20
246.3560880696587
 42
1.0
 10
199.9993562281285
 20
246.5456617188621
 42
1.0
 10
199.8471418010568
 20
246.7067340372252
 42
1.0
 72
     4
 94
        3
 73
     1
 74
     0
 95
       41
 96
       37
 40
0.0
 40
0.0
 40
0.0
 40
0.0
 40
0.0005770231027456
 40
0.0005770231027456
 40
0.0005770231027456
 40
0.0011540462054912
 40
0.0011540462054912
 40
0.0011540462054912
 40
0.0017310693082368
 40
0.0017310693082368
 40
0.0017310693082368
 40
0.0023080924109823
 40
0.0023080924109823
 40
0.0023080924109823
 40
0.0028851155137279
 40
0.0028851155137279
 40
0.0028851155137279
 40
0.0034621386164735
 40
0.0034621386164735
 40
0.0034621386164735
 40
0.0040391617192191
 40
0.0040391617192191
 40
0.0040391617192191
 40
0.0046161848219647
 40
0.0046161848219647
 40
0.0046161848219647
 40
0.0051932079247103
 40
0.0051932079247103
 40
0.0051932079247103
 40
0.0057702310274559
 40
0.0057702310274559
 40
0.0057702310274559
 40
0.0063472541302015
 40
0.0063472541302015
 40
0.0063472541302015
 40
0.0069036506713755
 40
0.0069036506713755
 40
0.0069036506713755
 40
0.0069036506713755
 10
199.8471418010568
 20
246.7067340372252
 42
1.0
 10
199.7150343789706
 20
246.8465292534722
 42
1.0
 10
199.6052409631438
 20
247.0110608722782
 42
1.0
 10
199.5268535940776
 20
247.1867039587539
 42
1.0
 10
199.4484662250115
 20
247.3623470452295
 42
1.0
 10
199.3993228822835
 20
247.5539460525635
 42
1.0
 10
199.383493147472
 20
247.7456345836539
 42
1.0
 10
199.3676634126604
 20
247.9373231147443
 42
1.0
 10
199.3847106821344
 20
248.1343881759534
 42
1.0
 10
199.4332232640968
 20
248.3205107238812
 42
1.0
 10
199.4817358460592
 20
248.506633271809
 42
1.0
 10
199.5630517774184
 20
248.68694679613
 42
1.0
 10
199.6704372505433
 20
248.8465194554972
 42
1.0
 10
199.7778227236683
 20
249.0060921148644
 42
1.0
 10
199.914239562495
 20
249.1493251202452
 42
1.0
 10
200.068391029288
 20
249.264357284188
 42
1.0
 10
200.222542496081
 20
249.3793894481308
 42
1.0
 10
200.3986802786228
 20
249.4693934997457
 42
1.0
 10
200.5822183305589
 20
249.5269161643859
 42
1.0
 10
200.765756382495
 20
249.584438829026
 42
1.0
 10
200.9617569099093
 20
249.6110666528046
 42
1.0
 10
201.1539890239082
 20
249.604594574057
 42
1.0
 10
201.3462211379071
 20
249.5981224953095
 42
1.0
 10
201.5399868375407
 20
249.558372006113
 42
1.0
 10
201.7192403009756
 20
249.4886348617609
 42
1.0
 10
201.8984937644105
 20
249.4188977174087
 42
1.0
 10
202.0681790234897
 20
249.3172504813564
 42
1.0
 10
202.214244368132
 20
249.1921106054162
 42
1.0
 10
202.3603097127743
 20
249.066970729476
 42
1.0
 10
202.4867838055295
 20
248.9148867013612
 42
1.0
 10
202.5831932717874
 20
248.7484526655643
 42
1.0
 10
202.6796027380452
 20
248.5820186297672
 42
1.0
 10
202.7486066699203
 20
248.3966441300872
 42
1.0
 10
202.7844908218121
 20
248.2076801094409
 42
1.0
 10
202.8191265305542
 20
248.0252903235107
 42
1.0
 10
202.8238713501008
 20
247.8347927913995
 42
1.0
 10
202.7983587079665
 20
247.6509048597045
 42
1.0
 72
     2
 10
191.7329270906103
 20
248.5335002670288
 40
11.1005743784461
 50
4.560342773899435
 51
41.90718103517826
 73
     0
 72
     1
 10
199.9942835733061
 20
241.1191398362679
 11
199.9942835733062
 21
236.8078336179528
 72
     2
 10
202.94009814839
 20
234.1742528190454
 40
3.9514011863072
 50
138.2030419333829
 51
219.8865976473181
 73
     1
 72
     1
 10
199.9081280531226
 20
231.6403371384131
 11
198.4745508164224
 21
228.2630408137421
 72
     1
 10
198.4745508164224
 20
228.2630408137421
 11
199.9942835733059
 21
226.9878336179528
 72
     1
 10
199.9942835733059
 20
226.9878336179528
 11
199.9942835733059
 21
222.3161126890668
 72
     1
 10
199.9942835733059
 20
222.3161126890668
 11
205.9840119503312
 21
222.3161126890668
 97
        0
 75
     0
 76
     2
 52
0.0
 41
0.125
 77
     0
 78
     3
 53
45.00000209717174
 43
0.8418990000000001
 44
0.8418990000000001
 45
0.5612659459355175
 46
1.683798043244233
 79
     2
 49
0.79375
 49
-1.5875
 53
45.00000209717174
 43
1.96443125
 44
0.8418990000000001
 45
0.5612659459355175
 46
1.683798043244233
 79
     2
 49
0.79375
 49
-1.5875
 53
134.9999719140475
 43
0.0
 44
0.0
 45
-0.5612662826950551
 46
-0.5612657324384541
 79
     0
 98
        1
 10
0.0
 20
0.0
  0
HATCH
  5
36D
330
1F
100
AcDbEntity
  8
0
  6
Continuous
 62
     7
370
    18
100
AcDbHatch
 10
0.0
 20
0.0
 30
0.0
210
0.0
220
0.0
230
1.0
  2
DIN 128 Elastomer-Rubber
 70
     0
 71
     0
 91
        1
 92
        0
 93
       22
 72
     1
 10
49.98401195033121
 20
231.3078336179528
 11
49.98401195033121
 21
222.3161126890668
 72
     1
 10
49.98401195033121
 20
222.3161126890668
 11
55.97374032735651
 21
222.3161126890668
 72
     1
 10
55.97374032735651
 20
222.3161126890668
 11
55.97374032735651
 21
226.9878336179528
 72
     1
 10
55.97374032735651
 20
226.9878336179528
 11
57.49347308424008
 21
228.2630408137421
 72
     1
 10
57.49347308424008
 20
228.2630408137421
 11
56.0598958475398
 21
231.6403371384131
 72
     2
 10
53.02792575227242
 20
234.1742528190454
 40
3.9514011863072
 50
320.1134023526836
 51
401.7969580666178
 73
     1
 72
     1
 10
55.9737403273562
 20
236.8078336179528
 11
55.97374032735627
 21
241.1191398362679
 72
     2
 10
64.23509681005211
 20
248.5335002670288
 40
11.1005743784461
 50
138.0928189648217
 51
175.4396572261006
 73
     0
 72
     4
 94
        3
 73
     1
 74
     0
 95
       41
 96
       37
 40
0.0
 40
0.0
 40
0.0
 40
0.0
 40
0.0005770231027456
 40
0.0005770231027456
 40
0.0005770231027456
 40
0.0011540462054912
 40
0.0011540462054912
 40
0.0011540462054912
 40
0.0017310693082368
 40
0.0017310693082368
 40
0.0017310693082368
 40
0.0023080924109824
 40
0.0023080924109824
 40
0.0023080924109824
 40
0.0028851155137279
 40
0.0028851155137279
 40
0.0028851155137279
 40
0.0034621386164735
 40
0.0034621386164735
 40
0.0034621386164735
 40
0.0040391617192191
 40
0.0040391617192191
 40
0.0040391617192191
 40
0.0046161848219647
 40
0.0046161848219647
 40
0.0046161848219647
 40
0.0051932079247103
 40
0.0051932079247103
 40
0.0051932079247103
 40
0.0057702310274559
 40
0.0057702310274559
 40
0.0057702310274559
 40
0.0063472541302015
 40
0.0063472541302015
 40
0.0063472541302015
 40
0.0069036506713756
 40
0.0069036506713756
 40
0.0069036506713756
 40
0.0069036506713756
 10
53.16966519269592
 20
247.6509048597045
 42
1.0
 10
53.1432329480918
 20
247.8414210267376
 42
1.0
 10
53.14932908224343
 20
248.039128095135
 42
1.0
 10
53.1874487716312
 20
248.2276538566021
 42
1.0
 10
53.22556846101897
 20
248.4161796180693
 42
1.0
 10
53.29676309374202
 20
248.6007238458774
 42
1.0
 10
53.39513701131003
 20
248.7660043522843
 42
1.0
 10
53.49351092887804
 20
248.9312848586912
 42
1.0
 10
53.62177740539832
 20
249.0818602841329
 42
1.0
 10
53.76931463818163
 20
249.2052614121603
 42
1.0
 10
53.91685187096494
 20
249.3286625401877
 42
1.0
 10
54.08772911905344
 20
249.4282929262733
 42
1.0
 10
54.2677959632377
 20
249.4959021348274
 42
1.0
 10
54.44786280742198
 20
249.5635113433815
 42
1.0
 10
54.64208571359042
 20
249.6009641198521
 42
1.0
 10
54.83438099843762
 20
249.6051589835356
 42
1.0
 10
55.02667628328484
 20
249.6093538472192
 42
1.0
 10
55.22234768819098
 20
249.5804064976354
 42
1.0
 10
55.40519157904039
 20
249.5207140773892
 42
1.0
 10
55.5880354698898
 20
249.4610216571431
 42
1.0
 10
55.7630949069467
 20
249.3689377755829
 42
1.0
 10
55.91587314211481
 20
249.2520879389775
 42
1.0
 10
56.06865137728293
 20
249.1352381023721
 42
1.0
 10
56.20336222292119
 20
248.9903994479552
 42
1.0
 10
56.30885021533174
 20
248.829566127673
 42
1.0
 10
56.4143382077423
 20
248.6687328073908
 42
1.0
 10
56.49351283600029
 20
248.4874688396916
 42
1.0
 10
56.53981761471553
 20
248.3007847725516
 42
1.0
 10
56.58612239343078
 20
248.1141007054116
 42
1.0
 10
56.60083446557207
 20
247.9168475617632
 42
1.0
 10
56.58273551804878
 20
247.725359960195
 42
1.0
 10
56.56463657052549
 20
247.5338723586268
 42
1.0
 10
56.51322741201842
 20
247.3428688346607
 42
1.0
 10
56.43276525729557
 20
247.1681664731622
 42
1.0
 10
56.35510245606395
 20
246.9995421699418
 42
1.0
 10
56.24839338112725
 20
246.8416656473706
 42
1.0
 10
56.12088209960561
 20
246.7067340372252
 42
1.0
 72
     4
 94
        3
 73
     1
 74
     0
 95
       35
 96
       31
 40
0.0
 40
0.0
 40
0.0
 40
0.0
 40
0.0002083471394627
 40
0.0002083471394627
 40
0.0002083471394627
 40
0.000881832639702
 40
0.000881832639702
 40
0.000881832639702
 40
0.0015553181399414
 40
0.0015553181399414
 40
0.0015553181399414
 40
0.0022288036401808
 40
0.0022288036401808
 40
0.0022288036401808
 40
0.0029022891404201
 40
0.0029022891404201
 40
0.0029022891404201
 40
0.0035757746406595
 40
0.0035757746406595
 40
0.0035757746406595
 40
0.0042492601408989
 40
0.0042492601408989
 40
0.0042492601408989
 40
0.0049227456411382
 40
0.0049227456411382
 40
0.0049227456411382
 40
0.0055962311413776
 40
0.0055962311413776
 40
0.0055962311413776
 40
0.006269716641617
 40
0.006269716641617
 40
0.006269716641617
 40
0.006269716641617
 10
56.12088209960562
 20
246.7067340372252
 42
1.0
 10
56.07318175041252
 20
246.6562578374387
 42
1.0
 10
56.02807849880435
 20
246.603195394208
 42
1.0
 10
55.98594610019335
 20
246.5479864180781
 42
1.0
 10
55.85149930841475
 20
246.3718115511643
 42
1.0
 10
55.74561526160003
 20
246.1699946882408
 42
1.0
 10
55.67706226370294
 20
245.9592483714736
 42
1.0
 10
55.60850926580584
 20
245.7485020547063
 42
1.0
 10
55.57539654050301
 20
245.5230136404737
 42
1.0
 10
55.58046616697378
 20
245.3014559223976
 42
1.0
 10
55.58553579344454
 20
245.0798982043215
 42
1.0
 10
55.62892759824634
 20
244.8561603469835
 42
1.0
 10
55.70704828715733
 20
244.6487701796281
 42
1.0
 10
55.78516897606833
 20
244.4413800122727
 42
1.0
 10
55.90017321414312
 20
244.2446174580227
 42
1.0
 10
56.0425374504244
 20
244.0747765095453
 42
1.0
 10
56.18490168670567
 20
243.904935561068
 42
1.0
 10
56.35855250260504
 20
243.7573317953043
 42
1.0
 10
56.54910979855674
 20
243.6441883442732
 42
1.0
 10
56.73966709450843
 20
243.5310448932422
 42
1.0
 10
56.95238667601303
 20
243.4492411208679
 42
1.0
 10
57.16965314203841
 20
243.4055512331079
 42
1.0
 10
57.38691960806378
 20
243.3618613453479
 42
1.0
 10
57.61472543599854
 20
243.3550803211546
 42
1.0
 10
57.83420592618438
 20
243.3857697000896
 42
1.0
 10
58.05368641637023
 20
243.4164590790246
 42
1.0
 10
58.27089511171571
 20
243.4854653120508
 42
1.0
 10
58.46784486571976
 20
243.5870739630081
 42
1.0
 10
58.66479461972384
 20
243.6886826139655
 42
1.0
 10
58.84691754977277
 20
243.8256961749021
 42
1.0
 10
58.99913197684456
 20
243.9867684932652
 42
1.0
 72
     2
 10
57.57167888145281
 20
245.3357212946843
 40
1.964
 50
316.6195533887086
 51
392.6973250363559
 73
     1
 72
     1
 10
59.22445559171099
 20
246.3966761221998
 11
55.01458650774183
 21
252.954894620073
 72
     2
 10
54.3534758236386
 20
252.5305126890669
 40
0.785600000000001
 50
32.69732503635714
 51
130.2583909502299
 73
     1
 72
     1
 10
53.84579302009883
 20
253.1300337737586
 11
50.58713026847685
 21
250.3705527750464
 72
     1
 10
50.58713026847685
 20
250.3705527750464
 11
37.65328730391611
 21
247.2654118059774
 72
     4
 94
        3
 73
     1
 74
     0
 95
       20
 96
       16
 40
0.0
 40
0.0
 40
0.0
 40
0.0
 40
0.0000633204649878
 40
0.0000633204649878
 40
0.0000633204649878
 40
0.0002302098648033
 40
0.0002302098648033
 40
0.0002302098648033
 40
0.0003970992646187
 40
0.0003970992646187
 40
0.0003970992646187
 40
0.0005639886644299
 40
0.0005639886644299
 40
0.0005639886644299
 40
0.000730878064241
 40
0.000730878064241
 40
0.000730878064241
 40
0.000730878064241
 10
37.65328730391609
 20
247.2654118059774
 42
1.0
 10
37.63276366541618
 20
247.2604845163146
 42
1.0
 10
37.61251653305995
 20
247.2542181198439
 42
1.0
 10
37.5927976735434
 20
247.2466905372264
 42
1.0
 10
37.54145684714755
 20
247.2270914162925
 42
1.0
 10
37.49279181604211
 20
247.198357942387
 42
1.0
 10
37.45083255261182
 20
247.1628695469769
 42
1.0
 10
37.40887328918154
 20
247.1273811515669
 42
1.0
 10
37.37246250513456
 20
247.0841590208899
 42
1.0
 10
37.34461539332872
 20
247.0367823983798
 42
1.0
 10
37.31676828152358
 20
246.9894057758709
 42
1.0
 10
37.2967167842332
 20
246.9365679557851
 42
1.0
 10
37.28612137466624
 20
246.8826444609767
 42
1.0
 10
37.27552596509927
 20
246.8287209661684
 42
1.0
 10
37.27409440877789
 20
246.7722245200722
 42
1.0
 10
37.28194525350348
 20
246.717833617953
 42
1.0
 72
     1
 10
37.28194525350349
 20
246.717833617953
 11
45.54397987862131
 21
246.717833617953
 72
     2
 10
45.54397987862131
 20
241.8078336179528
 40
4.9100000000002
 50
270.0000000000008
 51
360.0000000000008
 73
     0
 72
     1
 10
50.45397987862152
 20
241.8078336179528
 11
50.45397987862141
 21
236.8078336179527
 72
     1
 10
50.45397987862141
 20
236.8078336179527
 11
53.58991595033151
 21
236.8078336179528
 72
     1
 10
53.58991595033151
 20
236.8078336179528
 11
53.58991595033151
 21
231.3078336179528
 72
     1
 10
53.58991595033151
 20
231.3078336179528
 11
49.98401195033121
 21
231.3078336179528
 97
        0
 75
     0
 76
     2
 52
0.0
 41
0.125
 77
     0
 78
     3
 53
45.00000209717174
 43
0.8418990000000001
 44
0.8418990000000001
 45
0.5612659459355175
 46
1.683798043244233
 79
     2
 49
0.79375
 49
-1.5875
 53
45.00000209717174
 43
1.96443125
 44
0.8418990000000001
 45
0.5612659459355175
 46
1.683798043244233
 79
     2
 49
0.79375
 49
-1.5875
 53
134.9999719140475
 43
0.0
 44
0.0
 45
-0.5612662826950551
 46
-0.5612657324384541
 79
     0
 98
        1
 10
0.0
 20
0.0
  0
HATCH
  5
36E
330
1F
100
AcDbEntity
  8
0
  6
Continuous
 62
     7
370
    18
100
AcDbHatch
 10
0.0
 20
0.0
 30
0.0
210
0.0
220
0.0
230
1.0
  2
DIN 128 Elastomer-Rubber
 70
     0
 71
     0
 91
        1
 92
        0
 93
        1
 72
     2
 10
204.3840119503314
 20
234.0578336179528
 40
2.5
 50
0.0
 51
360.0
 73
     1
 97
        0
 75
     0
 76
     2
 52
90.0
 41
0.0625
 77
     0
 78
     3
 53
135.0000020971719
 43
-0.4209495000000015
 44
0.4209494999999986
 45
-0.8418990216221175
 46
0.2806329729677558
 79
     2
 49
0.396875
 49
-0.79375
 53
135.0000020971719
 43
-0.4209495000000035
 44
0.9822156249999985
 45
-0.8418990216221175
 46
0.2806329729677558
 79
     2
 49
0.396875
 49
-0.79375
 53
224.9999719140477
 43
0.0
 44
0.0
 45
0.2806328662192281
 46
-0.2806331413475265
 79
     0
 98
        1
 10
0.0
 20
0.0
  0
HATCH
  5
36F
330
1F
100
AcDbEntity
  8
0
  6
Continuous
 62
     7
370
    18
100
AcDbHatch
 10
0.0
 20
0.0
 30
0.0
210
0.0
220
0.0
230
1.0
  2
DIN 128 Elastomer-Rubber
 70
     0
 71
     0
 91
        1
 92
        0
 93
        1
 72
     2
 10
51.58401195033105
 20
234.0578336179528
 40
2.5
 50
0.0
 51
360.0
 73
     1
 97
        0
 75
     0
 76
     2
 52
90.0
 41
0.0625
 77
     0
 78
     3
 53
135.0000020971719
 43
-0.4209495000000015
 44
0.4209494999999986
 45
-0.8418990216221175
 46
0.2806329729677558
 79
     2
 49
0.396875
 49
-0.79375
 53
135.0000020971719
 43
-0.4209495000000035
 44
0.9822156249999985
 45
-0.8418990216221175
 46
0.2806329729677558
 79
     2
 49
0.396875
 49
-0.79375
 53
224.9999719140477
 43
0.0
 44
0.0
 45
0.2806328662192281
 46
-0.2806331413475265
 79
     0
 98
        1
 10
0.0
 20
0.0
  0
DIMENSION
  5
370
330
1F
100
AcDbEntity
  8
0
  6
Continuous
 62
     7
370
    18
100
AcDbDimension
  2
_D
 10
205.9840119503
 20
212.3161126891
 30
0.0
 11
127.9840119503
 21
212.3161126891
 31
0.0
 70
   160
  1
%%c<>
 71
     2
 42
-1.0
  3
SLDDIMSTYLE0
100
AcDbAlignedDimension
 13
49.9840119503
 23
222.3161126891
 33
0.0
 14
205.9840119503
 24
222.3161126891
 34
0.0
100
AcDbRotatedDimension
  0
DIMENSION
  5
37C
330
1F
100
AcDbEntity
  8
0
  6
Continuous
 62
     7
370
    18
100
AcDbDimension
  2
_D_1
 10
196.4323450192
 20
263.3161126891
 30
0.0
 11
127.9840119503
 21
263.3161126891
 31
0.0
 70
   160
  1
%%c<>
 71
     2
 42
-1.0
  3
SLDDIMSTYLE0
100
AcDbAlignedDimension
 13
59.5356788815
 23
245.3357212947
 33
0.0
 14
196.4323450192
 24
245.3357212947
 34
0.0
100
AcDbRotatedDimension
  0
DIMENSION
  5
387
330
1F
100
AcDbEntity
  8
0
  6
Continuous
 62
     7
370
    18
100
AcDbDimension
  2
_D_2
 10
226.6189047927
 20
253.3161126891
 30
0.0
 11
226.6189047927
 21
237.8161126891
 31
0.0
 70
   160
  1
<>
 71
     2
 42
-1.0
  3
SLDDIMSTYLE0
100
AcDbAlignedDimension
 13
205.9840119503
 23
222.3161126891
 33
0.0
 14
201.614548077
 24
253.3161126891
 34
0.0
 50
90.0
100
AcDbRotatedDimension
  0
MTEXT
  5
391
330
1F
100
AcDbEntity
  8
0
  6
Continuous
 62
     7
370
     0
100
AcDbMText
 10
127.9614430614
 20
278.5569372955
 30
0.0
 40
5.0
 41
0.0
 71
     2
 72
     1
  1
A-A
  7
SLDTEXTSTYLE0
 73
     1
 44
1.0
  0
ENDSEC
  0
SECTION
  2
OBJECTS
  0
DICTIONARY
  5
C
330
0
100
AcDbDictionary
281
     1
  3
ACAD_GROUP
350
D
  3
ACAD_LAYOUT
350
1A
  3
ACAD_MLINESTYLE
350
17
  3
ACAD_PLOTSETTINGS
350
19
  3
ACAD_PLOTSTYLENAME
350
E
  3
ACAD_SCALELIST
350
47
  3
DWGPROPS
350
392
  0
DICTIONARY
  5
D
102
{ACAD_REACTORS
330
C
102
}
330
C
100
AcDbDictionary
281
     1
  0
DICTIONARY
  5
1A
102
{ACAD_REACTORS
330
C
102
}
330
C
100
AcDbDictionary
281
     1
  3
Layout1
350
1E
  3
Layout2
350
26
  3
Model
350
22
  0
DICTIONARY
  5
17
102
{ACAD_REACTORS
330
C
102
}
330
C
100
AcDbDictionary
281
     1
  3
Standard
350
18
  0
DICTIONARY
  5
19
102
{ACAD_REACTORS
330
C
102
}
330
C
100
AcDbDictionary
281
     1
  0
ACDBDICTIONARYWDFLT
  5
E
102
{ACAD_REACTORS
330
C
102
}
330
C
100
AcDbDictionary
281
     1
  3
Normal
350
F
100
AcDbDictionaryWithDefault
340
F
  0
DICTIONARY
  5
47
102
{ACAD_REACTORS
330
C
102
}
330
C
100
AcDbDictionary
281
     1
  3
A0
350
48
  3
A1
350
49
  3
A2
350
4A
  3
A3
350
4B
  3
A4
350
4C
  3
A5
350
4D
  3
A6
350
4E
  3
A7
350
4F
  3
A8
350
50
  3
A9
350
51
  3
B0
350
52
  3
B1
350
53
  3
B2
350
54
  3
B3
350
55
  3
B4
350
56
  3
B5
350
57
  3
B6
350
58
  0
XRECORD
  5
392
102
{ACAD_REACTORS
330
C
102
}
330
C
100
AcDbXrecord
280
     1
  1
DWGPROPS COOKIE
  2

  3

  4

  6

  7

  8
CH-NTL-RS-WSCAD
  9

300
=
301
=
302
=
303
=
304
=
305
=
306
=
307
=
308
=
309
=
 40
0.0
 41
2460619.540531875
 42
2460619.540536401
  1

 90
        0
  0
LAYOUT
  5
1E
102
{ACAD_REACTORS
330
1A
102
}
330
1A
100
AcDbPlotSettings
  1

  2
none_device
  4

  6

 40
0.0
 41
0.0
 42
0.0
 43
0.0
 44
0.0
 45
0.0
 46
0.0
 47
0.0
 48
0.0
 49
0.0
140
0.0
141
0.0
142
1.0
143
1.0
 70
   688
 72
     1
 73
     0
 74
     5
  7

 75
    16
147
1.0
148
0.0
149
0.0
100
AcDbLayout
  1
Layout1
 70
     1
 71
     1
 10
0.0
 20
0.0
 11
420.0
 21
297.0
 12
0.0
 22
0.0
 32
0.0
 14
1.0000000000E+20
 24
1.0000000000E+20
 34
1.0000000000E+20
 15
-1.0000000000E+20
 25
-1.0000000000E+20
 35
-1.0000000000E+20
146
0.0
 13
0.0
 23
0.0
 33
0.0
 16
1.0
 26
0.0
 36
0.0
 17
0.0
 27
1.0
 37
0.0
 76
     0
330
1B
  0
LAYOUT
  5
26
102
{ACAD_REACTORS
330
1A
102
}
330
1A
100
AcDbPlotSettings
  1

  2
none_device
  4

  6

 40
0.0
 41
0.0
 42
0.0
 43
0.0
 44
0.0
 45
0.0
 46
0.0
 47
0.0
 48
0.0
 49
0.0
140
0.0
141
0.0
142
1.0
143
1.0
 70
   688
 72
     1
 73
     0
 74
     5
  7

 75
    16
147
1.0
148
0.0
149
0.0
100
AcDbLayout
  1
Layout2
 70
     1
 71
     2
 10
0.0
 20
0.0
 11
0.0
 21
0.0
 12
0.0
 22
0.0
 32
0.0
 14
0.0
 24
0.0
 34
0.0
 15
0.0
 25
0.0
 35
0.0
146
0.0
 13
0.0
 23
0.0
 33
0.0
 16
1.0
 26
0.0
 36
0.0
 17
0.0
 27
1.0
 37
0.0
 76
     0
330
23
  0
LAYOUT
  5
22
102
{ACAD_REACTORS
330
1A
102
}
330
1A
100
AcDbPlotSettings
  1

  2
none_device
  4
Letter_(8.50_x_11.00_Inches)
  6

 40
6.35
 41
6.35
 42
6.35000508
 43
6.35000508
 44
215.9
 45
279.4
 46
0.0
 47
0.0
 48
0.0
 49
0.0
140
0.0
141
0.0
142
1.0
143
1.0
 70
  1712
 72
     1
 73
     0
 74
     0
  7

 75
     0
147
1.0
148
0.0
149
0.0
100
AcDbLayout
  1
Model
 70
     1
 71
     0
 10
0.0
 20
0.0
 11
420.0
 21
297.0
 12
0.0
 22
0.0
 32
0.0
 14
0.0
 24
0.0
 34
0.0
 15
420.0
 25
297.0
 35
0.0
146
0.0
 13
0.0
 23
0.0
 33
0.0
 16
1.0
 26
0.0
 36
0.0
 17
0.0
 27
1.0
 37
0.0
 76
     0
330
1F
331
29
  0
MLINESTYLE
  5
18
102
{ACAD_REACTORS
330
17
102
}
330
17
100
AcDbMlineStyle
  2
Standard
 70
     0
  3

 62
   256
 51
90.0
 52
90.0
 71
     2
 49
0.5
 62
   256
  6
BYLAYER
 49
-0.5
 62
   256
  6
BYLAYER
  0
ACDBPLACEHOLDER
  5
F
102
{ACAD_REACTORS
330
E
102
}
330
E
  0
SCALE
  5
48
102
{ACAD_REACTORS
330
47
102
}
330
47
100
AcDbScale
 70
     0
300
1:1
140
1.0
141
1.0
290
     1
  0
SCALE
  5
49
102
{ACAD_REACTORS
330
47
102
}
330
47
100
AcDbScale
 70
     0
300
1:2
140
1.0
141
2.0
290
     0
  0
SCALE
  5
4A
102
{ACAD_REACTORS
330
47
102
}
330
47
100
AcDbScale
 70
     0
300
1:4
140
1.0
141
4.0
290
     0
  0
SCALE
  5
4B
102
{ACAD_REACTORS
330
47
102
}
330
47
100
AcDbScale
 70
     0
300
1:5
140
1.0
141
5.0
290
     0
  0
SCALE
  5
4C
102
{ACAD_REACTORS
330
47
102
}
330
47
100
AcDbScale
 70
     0
300
1:8
140
1.0
141
8.0
290
     0
  0
SCALE
  5
4D
102
{ACAD_REACTORS
330
47
102
}
330
47
100
AcDbScale
 70
     0
300
1:10
140
1.0
141
10.0
290
     0
  0
SCALE
  5
4E
102
{ACAD_REACTORS
330
47
102
}
330
47
100
AcDbScale
 70
     0
300
1:16
140
1.0
141
16.0
290
     0
  0
SCALE
  5
4F
102
{ACAD_REACTORS
330
47
102
}
330
47
100
AcDbScale
 70
     0
300
1:20
140
1.0
141
20.0
290
     0
  0
SCALE
  5
50
102
{ACAD_REACTORS
330
47
102
}
330
47
100
AcDbScale
 70
     0
300
1:30
140
1.0
141
30.0
290
     0
  0
SCALE
  5
51
102
{ACAD_REACTORS
330
47
102
}
330
47
100
AcDbScale
 70
     0
300
1:40
140
1.0
141
40.0
290
     0
  0
SCALE
  5
52
102
{ACAD_REACTORS
330
47
102
}
330
47
100
AcDbScale
 70
     0
300
1:50
140
1.0
141
50.0
290
     0
  0
SCALE
  5
53
102
{ACAD_REACTORS
330
47
102
}
330
47
100
AcDbScale
 70
     0
300
1:100
140
1.0
141
100.0
290
     0
  0
SCALE
  5
54
102
{ACAD_REACTORS
330
47
102
}
330
47
100
AcDbScale
 70
     0
300
2:1
140
2.0
141
1.0
290
     0
  0
SCALE
  5
55
102
{ACAD_REACTORS
330
47
102
}
330
47
100
AcDbScale
 70
     0
300
4:1
140
4.0
141
1.0
290
     0
  0
SCALE
  5
56
102
{ACAD_REACTORS
330
47
102
}
330
47
100
AcDbScale
 70
     0
300
8:1
140
8.0
141
1.0
290
     0
  0
SCALE
  5
57
102
{ACAD_REACTORS
330
47
102
}
330
47
100
AcDbScale
 70
     0
300
10:1
140
10.0
141
1.0
290
     0
  0
SCALE
  5
58
102
{ACAD_REACTORS
330
47
102
}
330
47
100
AcDbScale
 70
     0
300
100:1
140
100.0
141
1.0
290
     0
  0
ENDSEC
  0
EOF
