  0
SECTION
  2
HEADER
  9
$ACADVER
  1
AC1015
  9
$ACADMAINTVER
 70
     6
  9
$DWGCODEPAGE
  3
ANSI_1252
  9
$INSBASE
 10
0.0
 20
0.0
 30
0.0
  9
$EXTMIN
 10
0.0
 20
0.0
 30
0.0
  9
$EXTMAX
 10
420.0
 20
297.0
 30
0.0
  9
$LIMMIN
 10
0.0
 20
0.0
  9
$LIMMAX
 10
420.0
 20
297.0
  9
$ORTHOMODE
 70
     0
  9
$REGENMODE
 70
     1
  9
$FILLMODE
 70
     1
  9
$QTEXTMODE
 70
     0
  9
$MIRRTEXT
 70
     1
  9
$LTSCALE
 40
1.0
  9
$ATTMODE
 70
     1
  9
$TEXTSIZE
 40
3.5
  9
$TRACEWID
 40
1.0
  9
$TEXTSTYLE
  7
Standard
  9
$CLAYER
  8
0
  9
$CELTYPE
  6
ByLayer
  9
$CECOLOR
 62
   256
  9
$CELTSCALE
 40
1.0
  9
$DISPSILH
 70
     0
  9
$DIMSCALE
 40
1.0
  9
$DIMASZ
 40
3.5
  9
$DIMEXO
 40
0.1
  9
$DIMDLI
 40
3.75
  9
$DIMRND
 40
0.0
  9
$DIMDLE
 40
0.0
  9
$DIMEXE
 40
1.0
  9
$DIMTP
 40
0.0
  9
$DIMTM
 40
0.0
  9
$DIMTXT
 40
3.5
  9
$DIMCEN
 40
2.5
  9
$DIMTSZ
 40
0.0
  9
$DIMTOL
 70
     0
  9
$DIMLIM
 70
     0
  9
$DIMTIH
 70
     1
  9
$DIMTOH
 70
     1
  9
$DIMSE1
 70
     0
  9
$DIMSE2
 70
     0
  9
$DIMTAD
 70
     1
  9
$DIMZIN
 70
     0
  9
$DIMBLK
  1

  9
$DIMASO
 70
     1
  9
$DIMSHO
 70
     1
  9
$DIMPOST
  1

  9
$DIMAPOST
  1

  9
$DIMALT
 70
     0
  9
$DIMALTD
 70
     3
  9
$DIMALTF
 40
0.0393700787
  9
$DIMLFAC
 40
1.0
  9
$DIMTOFL
 70
     1
  9
$DIMTVP
 40
0.0
  9
$DIMTIX
 70
     0
  9
$DIMSOXD
 70
     0
  9
$DIMSAH
 70
     0
  9
$DIMBLK1
  1

  9
$DIMBLK2
  1

  9
$DIMSTYLE
  2
ISO-25
  9
$DIMCLRD
 70
     0
  9
$DIMCLRE
 70
     0
  9
$DIMCLRT
 70
     0
  9
$DIMTFAC
 40
1.0
  9
$DIMGAP
 40
2.0
  9
$DIMJUST
 70
     0
  9
$DIMSD1
 70
     0
  9
$DIMSD2
 70
     0
  9
$DIMTOLJ
 70
     0
  9
$DIMTZIN
 70
     0
  9
$DIMALTZ
 70
     0
  9
$DIMALTTZ
 70
     0
  9
$DIMUPT
 70
     0
  9
$DIMDEC
 70
     2
  9
$DIMTDEC
 70
     3
  9
$DIMALTU
 70
     2
  9
$DIMALTTD
 70
     3
  9
$DIMTXSTY
  7
Standard
  9
$DIMAUNIT
 70
     0
  9
$DIMADEC
 70
     2
  9
$DIMALTRND
 40
0.0
  9
$DIMAZIN
 70
     0
  9
$DIMDSEP
 70
    44
  9
$DIMATFIT
 70
     3
  9
$DIMFRAC
 70
     0
  9
$DIMLDRBLK
  1

  9
$DIMLUNIT
 70
     2
  9
$DIMLWD
 70
    -2
  9
$DIMLWE
 70
    -2
  9
$DIMTMOVE
 70
     0
  9
$LUNITS
 70
     2
  9
$LUPREC
 70
     2
  9
$SKETCHINC
 40
1.0
  9
$FILLETRAD
 40
10.0
  9
$AUNITS
 70
     0
  9
$AUPREC
 70
     2
  9
$MENU
  1
.
  9
$ELEVATION
 40
0.0
  9
$PELEVATION
 40
0.0
  9
$THICKNESS
 40
0.0
  9
$LIMCHECK
 70
     0
  9
$CHAMFERA
 40
0.0
  9
$CHAMFERB
 40
0.0
  9
$CHAMFERC
 40
0.0
  9
$CHAMFERD
 40
0.0
  9
$SKPOLY
 70
     0
  9
$TDCREATE
 40
2460054.452568137
  9
$TDUCREATE
 40
2460054.369234803
  9
$TDUPDATE
 40
2460054.45257934
  9
$TDUUPDATE
 40
2460054.369246007
  9
$TDINDWG
 40
0.0000000116
  9
$TDUSRTIMER
 40
0.0000000116
  9
$USRTIMER
 70
     1
  9
$ANGBASE
 50
0.0
  9
$ANGDIR
 70
     0
  9
$PDMODE
 70
     0
  9
$PDSIZE
 40
-1.0
  9
$PLINEWID
 40
0.0
  9
$SPLFRAME
 70
     0
  9
$SPLINETYPE
 70
     6
  9
$SPLINESEGS
 70
     8
  9
$HANDSEED
  5
357
  9
$SURFTAB1
 70
     6
  9
$SURFTAB2
 70
     6
  9
$SURFTYPE
 70
     6
  9
$SURFU
 70
     6
  9
$SURFV
 70
     6
  9
$UCSBASE
  2

  9
$UCSNAME
  2

  9
$UCSORG
 10
0.0
 20
0.0
 30
0.0
  9
$UCSXDIR
 10
1.0
 20
0.0
 30
0.0
  9
$UCSYDIR
 10
0.0
 20
1.0
 30
0.0
  9
$UCSORTHOREF
  2

  9
$UCSORTHOVIEW
 70
     0
  9
$UCSORGTOP
 10
0.0
 20
0.0
 30
0.0
  9
$UCSORGBOTTOM
 10
0.0
 20
0.0
 30
0.0
  9
$UCSORGLEFT
 10
0.0
 20
0.0
 30
0.0
  9
$UCSORGRIGHT
 10
0.0
 20
0.0
 30
0.0
  9
$UCSORGFRONT
 10
0.0
 20
0.0
 30
0.0
  9
$UCSORGBACK
 10
0.0
 20
0.0
 30
0.0
  9
$PUCSBASE
  2

  9
$PUCSNAME
  2

  9
$PUCSORG
 10
0.0
 20
0.0
 30
0.0
  9
$PUCSXDIR
 10
1.0
 20
0.0
 30
0.0
  9
$PUCSYDIR
 10
0.0
 20
1.0
 30
0.0
  9
$PUCSORTHOREF
  2

  9
$PUCSORTHOVIEW
 70
     0
  9
$PUCSORGTOP
 10
0.0
 20
0.0
 30
0.0
  9
$PUCSORGBOTTOM
 10
0.0
 20
0.0
 30
0.0
  9
$PUCSORGLEFT
 10
0.0
 20
0.0
 30
0.0
  9
$PUCSORGRIGHT
 10
0.0
 20
0.0
 30
0.0
  9
$PUCSORGFRONT
 10
0.0
 20
0.0
 30
0.0
  9
$PUCSORGBACK
 10
0.0
 20
0.0
 30
0.0
  9
$USERI1
 70
     0
  9
$USERI2
 70
     0
  9
$USERI3
 70
     0
  9
$USERI4
 70
     0
  9
$USERI5
 70
     0
  9
$USERR1
 40
0.0
  9
$USERR2
 40
0.0
  9
$USERR3
 40
0.0
  9
$USERR4
 40
0.0
  9
$USERR5
 40
0.0
  9
$WORLDVIEW
 70
     1
  9
$SHADEDGE
 70
     3
  9
$SHADEDIF
 70
    70
  9
$TILEMODE
 70
     1
  9
$MAXACTVP
 70
    64
  9
$PINSBASE
 10
0.0
 20
0.0
 30
0.0
  9
$PLIMCHECK
 70
     0
  9
$PEXTMIN
 10
1.0000000000E+20
 20
1.0000000000E+20
 30
1.0000000000E+20
  9
$PEXTMAX
 10
-1.0000000000E+20
 20
-1.0000000000E+20
 30
-1.0000000000E+20
  9
$PLIMMIN
 10
0.0
 20
0.0
  9
$PLIMMAX
 10
420.0
 20
297.0
  9
$UNITMODE
 70
     0
  9
$VISRETAIN
 70
     1
  9
$PLINEGEN
 70
     0
  9
$PSLTSCALE
 70
     1
  9
$TREEDEPTH
 70
  3020
  9
$CMLSTYLE
  2
Standard
  9
$CMLJUST
 70
     0
  9
$CMLSCALE
 40
20.0
  9
$PROXYGRAPHICS
 70
     1
  9
$MEASUREMENT
 70
     1
  9
$CELWEIGHT
370
    -1
  9
$ENDCAPS
280
     0
  9
$JOINSTYLE
280
     0
  9
$LWDISPLAY
290
     1
  9
$INSUNITS
 70
     4
  9
$HYPERLINKBASE
  1

  9
$STYLESHEET
  1

  9
$XEDIT
290
     1
  9
$CEPSNTYPE
380
     0
  9
$PSTYLEMODE
290
     1
  9
$FINGERPRINTGUID
  2
{ef4ee364-820b-41ea-ade3-1b1353c465da}
  9
$VERSIONGUID
  2
{FAEB1C32-E019-11D5-929B-00C0DF256EC4}
  9
$EXTNAMES
290
     1
  9
$PSVPSCALE
 40
0.0
  9
$OLESTARTUP
290
     0
  0
ENDSEC
  0
SECTION
  2
CLASSES
  0
CLASS
  1
ACDBDICTIONARYWDFLT
  2
AcDbDictionaryWithDefault
  3
ObjectDBX Classes
 90
        0
280
     0
281
     0
  0
CLASS
  1
VISUALSTYLE
  2
AcDbVisualStyle
  3
ObjectDBX Classes
 90
     4095
280
     0
281
     0
  0
CLASS
  1
MATERIAL
  2
AcDbMaterial
  3
ObjectDBX Classes
 90
     1153
280
     0
281
     0
  0
CLASS
  1
SCALE
  2
AcDbScale
  3
ObjectDBX Classes
 90
     1153
280
     0
281
     0
  0
CLASS
  1
TABLESTYLE
  2
AcDbTableStyle
  3
ObjectDBX Classes
 90
     4095
280
     0
281
     0
  0
CLASS
  1
MLEADERSTYLE
  2
AcDbMLeaderStyle
  3
ACDB_MLEADERSTYLE_CLASS
 90
     4095
280
     0
281
     0
  0
CLASS
  1
SUN
  2
AcDbSun
  3
SCENEOE
 90
     1153
280
     0
281
     0
  0
CLASS
  1
ACDBPLACEHOLDER
  2
AcDbPlaceHolder
  3
ObjectDBX Classes
 90
        0
280
     0
281
     0
  0
CLASS
  1
LAYOUT
  2
AcDbLayout
  3
ObjectDBX Classes
 90
        0
280
     0
281
     0
  0
ENDSEC
  0
SECTION
  2
TABLES
  0
TABLE
  2
VPORT
  5
8
330
0
100
AcDbSymbolTable
 70
     1
  0
VPORT
  5
29
330
8
100
AcDbSymbolTableRecord
100
AcDbViewportTableRecord
  2
*Active
 70
     0
 10
0.0
 20
0.0
 11
1.0
 21
1.0
 12
210.0
 22
148.5
 13
0.0
 23
0.0
 14
10.0
 24
10.0
 15
10.0
 25
10.0
 16
0.0
 26
0.0
 36
1.0
 17
0.0
 27
0.0
 37
0.0
 40
297.0
 41
1.4141414141
 42
50.0
 43
0.0
 44
0.0
 50
0.0
 51
0.0
 71
     0
 72
  2000
 73
     1
 74
     3
 75
     0
 76
     0
 77
     0
 78
     0
281
     0
 65
     1
110
0.0
120
0.0
130
0.0
111
1.0
121
0.0
131
0.0
112
0.0
122
1.0
132
0.0
 79
     0
146
0.0
  0
ENDTAB
  0
TABLE
  2
LTYPE
  5
5
330
0
100
AcDbSymbolTable
 70
     6
  0
LTYPE
  5
14
330
5
100
AcDbSymbolTableRecord
100
AcDbLinetypeTableRecord
  2
ByBlock
 70
     0
  3

 72
    65
 73
     0
 40
0.0
  0
LTYPE
  5
15
330
5
100
AcDbSymbolTableRecord
100
AcDbLinetypeTableRecord
  2
ByLayer
 70
     0
  3

 72
    65
 73
     0
 40
0.0
  0
LTYPE
  5
16
330
5
100
AcDbSymbolTableRecord
100
AcDbLinetypeTableRecord
  2
Continuous
 70
     0
  3
Solid line
 72
    65
 73
     0
 40
0.0
  0
LTYPE
  5
6E
330
5
100
AcDbSymbolTableRecord
100
AcDbLinetypeTableRecord
  2
HIDDEN
 70
     0
  3
Hidden __ __ __ __ __ __ __ __ __ __ __ __ __ __
 72
    65
 73
     2
 40
1.905
 49
1.27
 74
     0
 49
-0.635
 74
     0
  0
LTYPE
  5
6F
330
5
100
AcDbSymbolTableRecord
100
AcDbLinetypeTableRecord
  2
PHANTOM
 70
     0
  3
Phantom ______  __  __  ______  __  __  ______
 72
    65
 73
     6
 40
12.7
 49
6.35
 74
     0
 49
-1.27
 74
     0
 49
1.27
 74
     0
 49
-1.27
 74
     0
 49
1.27
 74
     0
 49
-1.27
 74
     0
  0
LTYPE
  5
70
330
5
100
AcDbSymbolTableRecord
100
AcDbLinetypeTableRecord
  2
CENTER
 70
     0
  3
Center ____ _ ____ _ ____ _ ____ _ ____ _ ____
 72
    65
 73
     4
 40
10.16
 49
6.35
 74
     0
 49
-1.27
 74
     0
 49
1.27
 74
     0
 49
-1.27
 74
     0
  0
LTYPE
  5
71
330
5
100
AcDbSymbolTableRecord
100
AcDbLinetypeTableRecord
  2
CENTERX2
 70
     0
  3
Center (2x) ________  __  ________  __  _____
 72
    65
 73
     4
 40
20.32
 49
12.7
 74
     0
 49
-2.54
 74
     0
 49
2.54
 74
     0
 49
-2.54
 74
     0
  0
LTYPE
  5
72
330
5
100
AcDbSymbolTableRecord
100
AcDbLinetypeTableRecord
  2
DOT2
 70
     0
  3
Dot (.5x) ........................................
 72
    65
 73
     2
 40
0.635
 49
0.0
 74
     0
 49
-0.635
 74
     0
  0
ENDTAB
  0
TABLE
  2
LAYER
  5
2
330
0
100
AcDbSymbolTable
 70
     9
  0
LAYER
  5
10
330
2
100
AcDbSymbolTableRecord
100
AcDbLayerTableRecord
  2
0
 70
     0
 62
     7
  6
Continuous
370
    -3
390
F
  0
LAYER
  5
73
330
2
100
AcDbSymbolTableRecord
100
AcDbLayerTableRecord
  2
VORLAGE_TEXT
 70
     0
 62
     7
  6
Continuous
370
    -3
390
F
  0
LAYER
  5
74
330
2
100
AcDbSymbolTableRecord
100
AcDbLayerTableRecord
  2
VORLAGE_BEMASSUNG
 70
     0
 62
    -5
  6
Continuous
290
     0
370
    -3
390
F
  0
LAYER
  5
75
330
2
100
AcDbSymbolTableRecord
100
AcDbLayerTableRecord
  2
TEXT
 70
     0
 62
     7
  6
Continuous
370
    -3
390
F
  0
LAYER
  5
76
330
2
100
AcDbSymbolTableRecord
100
AcDbLayerTableRecord
  2
LINIEN-DICK
 70
     0
 62
     7
  6
Continuous
370
    35
390
F
  0
LAYER
  5
77
330
2
100
AcDbSymbolTableRecord
100
AcDbLayerTableRecord
  2
LINIEN-NORMAL
 70
     0
 62
     7
  6
Continuous
370
    25
390
F
  0
LAYER
  5
78
330
2
100
AcDbSymbolTableRecord
100
AcDbLayerTableRecord
  2
LINIEN-DÜNN
 70
     0
 62
     7
  6
Continuous
370
    -3
390
F
  0
LAYER
  5
79
330
2
100
AcDbSymbolTableRecord
100
AcDbLayerTableRecord
  2
TEXT-DEUTSCH
 70
     0
 62
     7
  6
Continuous
370
    -3
390
F
  0
LAYER
  5
7A
330
2
100
AcDbSymbolTableRecord
100
AcDbLayerTableRecord
  2
TEXT-ENGLISCH
 70
     0
 62
    -7
  6
Continuous
290
     0
370
    -3
390
F
  0
ENDTAB
  0
TABLE
  2
STYLE
  5
3
330
0
100
AcDbSymbolTable
 70
     6
  0
STYLE
  5
11
330
3
100
AcDbSymbolTableRecord
100
AcDbTextStyleTableRecord
  2
Standard
 70
     0
 40
0.0
 41
1.0
 50
0.0
 71
     0
 42
3.5
  3
txt
  4

  0
STYLE
  5
8F
330
3
100
AcDbSymbolTableRecord
100
AcDbTextStyleTableRecord
  2
SLDTEXTSTYLE0
 70
     0
 40
0.0
 41
0.605
 50
0.0
 71
     0
 42
3.5
  3
TXT
  4

  0
STYLE
  5
9F
330
3
100
AcDbSymbolTableRecord
100
AcDbTextStyleTableRecord
  2
SLDTEXTSTYLE1
 70
     0
 40
0.0
 41
0.57
 50
0.0
 71
     0
 42
3.5
  3
TXT
  4

  0
STYLE
  5
D0
330
3
100
AcDbSymbolTableRecord
100
AcDbTextStyleTableRecord
  2
SLDTEXTSTYLE2
 70
     0
 40
0.0
 41
0.563
 50
0.0
 71
     0
 42
3.5
  3
TXT
  4

  0
STYLE
  5
D7
330
3
100
AcDbSymbolTableRecord
100
AcDbTextStyleTableRecord
  2
SLDTEXTSTYLE3
 70
     0
 40
0.0
 41
0.5525
 50
0.0
 71
     0
 42
3.5
  3
TXT
  4

  0
STYLE
  5
EA
330
3
100
AcDbSymbolTableRecord
100
AcDbTextStyleTableRecord
  2
SLDTEXTSTYLE4
 70
     0
 40
0.0
 41
0.575
 50
0.0
 71
     0
 42
3.5
  3
TXT
  4

  0
ENDTAB
  0
TABLE
  2
VIEW
  5
6
330
0
100
AcDbSymbolTable
 70
     0
  0
ENDTAB
  0
TABLE
  2
UCS
  5
7
330
0
100
AcDbSymbolTable
 70
     0
  0
ENDTAB
  0
TABLE
  2
APPID
  5
9
330
0
100
AcDbSymbolTable
 70
     1
  0
APPID
  5
12
330
9
100
AcDbSymbolTableRecord
100
AcDbRegAppTableRecord
  2
ACAD
 70
     0
  0
ENDTAB
  0
TABLE
  2
DIMSTYLE
  5
A
330
0
100
AcDbSymbolTable
 70
     3
100
AcDbDimStyleTable
  0
DIMSTYLE
105
27
330
A
100
AcDbSymbolTableRecord
100
AcDbDimStyleTableRecord
  2
ISO-25
 70
     0
 41
2.5
 42
0.625
 43
3.75
 44
1.25
 73
     0
 74
     0
 77
     1
 78
     8
140
2.5
141
2.5
143
0.0393700787
147
0.625
171
     3
172
     1
178
     0
271
     2
272
     2
274
     3
278
    44
283
     0
284
     8
340
11
  0
DIMSTYLE
105
334
102
{ACAD_REACTORS
330
333
102
}
330
A
100
AcDbSymbolTableRecord
100
AcDbDimStyleTableRecord
  2
SLDDIMSTYLE0
 70
     0
 41
3.5
 44
0.0
 45
0.000000001
 73
     0
 74
     0
 77
     1
 78
    12
 79
     3
140
3.5
147
0.875
173
     1
178
     0
271
     1
272
     3
276
     2
284
    12
340
8F
  0
DIMSTYLE
105
33F
102
{ACAD_REACTORS
330
33E
330
34A
102
}
330
A
100
AcDbSymbolTableRecord
100
AcDbDimStyleTableRecord
  2
SLDDIMSTYLE1
 70
     0
 41
3.5
 44
0.0
 45
0.000000001
 73
     0
 74
     0
 77
     1
 78
    12
 79
     3
140
3.5
147
0.875
173
     1
178
     0
271
     2
272
     3
276
     2
284
    12
340
8F
  0
ENDTAB
  0
TABLE
  2
BLOCK_RECORD
  5
1
330
0
100
AcDbSymbolTable
 70
    29
  0
BLOCK_RECORD
  5
1F
330
1
100
AcDbSymbolTableRecord
100
AcDbBlockTableRecord
  2
*Model_Space
340
22
  0
BLOCK_RECORD
  5
1B
330
1
100
AcDbSymbolTableRecord
100
AcDbBlockTableRecord
  2
*Paper_Space
340
1E
  0
BLOCK_RECORD
  5
23
330
1
100
AcDbSymbolTableRecord
100
AcDbBlockTableRecord
  2
*Paper_Space0
340
26
  0
BLOCK_RECORD
  5
7B
330
1
100
AcDbSymbolTableRecord
100
AcDbBlockTableRecord
  2
Allg-Toleranz-mittel
340
0
102
{BLKREFS
331
1C8
102
}
  0
BLOCK_RECORD
  5
8C
330
1
100
AcDbSymbolTableRecord
100
AcDbBlockTableRecord
  2
SW_NOTE_0
340
0
102
{BLKREFS
331
91
102
}
  0
BLOCK_RECORD
  5
92
330
1
100
AcDbSymbolTableRecord
100
AcDbBlockTableRecord
  2
SW_NOTE_0_1
340
0
102
{BLKREFS
331
96
102
}
  0
BLOCK_RECORD
  5
97
330
1
100
AcDbSymbolTableRecord
100
AcDbBlockTableRecord
  2
SW_NOTE_0_2
340
0
102
{BLKREFS
331
9B
102
}
  0
BLOCK_RECORD
  5
9C
330
1
100
AcDbSymbolTableRecord
100
AcDbBlockTableRecord
  2
SW_NOTE_0_3
340
0
102
{BLKREFS
331
A2
102
}
  0
BLOCK_RECORD
  5
A3
330
1
100
AcDbSymbolTableRecord
100
AcDbBlockTableRecord
  2
SW_NOTE_0_4
340
0
102
{BLKREFS
331
A7
102
}
  0
BLOCK_RECORD
  5
A8
330
1
100
AcDbSymbolTableRecord
100
AcDbBlockTableRecord
  2
SW_NOTE_0_5
340
0
102
{BLKREFS
331
AC
102
}
  0
BLOCK_RECORD
  5
AD
330
1
100
AcDbSymbolTableRecord
100
AcDbBlockTableRecord
  2
SW_NOTE_0_6
340
0
102
{BLKREFS
331
B1
102
}
  0
BLOCK_RECORD
  5
B2
330
1
100
AcDbSymbolTableRecord
100
AcDbBlockTableRecord
  2
SW_NOTE_0_7
340
0
102
{BLKREFS
331
B6
102
}
  0
BLOCK_RECORD
  5
B7
330
1
100
AcDbSymbolTableRecord
100
AcDbBlockTableRecord
  2
SW_NOTE_0_8
340
0
102
{BLKREFS
331
BB
102
}
  0
BLOCK_RECORD
  5
BC
330
1
100
AcDbSymbolTableRecord
100
AcDbBlockTableRecord
  2
SW_NOTE_0_9
340
0
102
{BLKREFS
331
C0
102
}
  0
BLOCK_RECORD
  5
C1
330
1
100
AcDbSymbolTableRecord
100
AcDbBlockTableRecord
  2
SW_NOTE_0_10
340
0
102
{BLKREFS
331
C6
102
}
  0
BLOCK_RECORD
  5
C7
330
1
100
AcDbSymbolTableRecord
100
AcDbBlockTableRecord
  2
SW_NOTE_0_11
340
0
102
{BLKREFS
331
CC
102
}
  0
BLOCK_RECORD
  5
CD
330
1
100
AcDbSymbolTableRecord
100
AcDbBlockTableRecord
  2
SW_NOTE_0_12
340
0
102
{BLKREFS
331
D3
102
}
  0
BLOCK_RECORD
  5
D4
330
1
100
AcDbSymbolTableRecord
100
AcDbBlockTableRecord
  2
SW_NOTE_0_13
340
0
102
{BLKREFS
331
DA
102
}
  0
BLOCK_RECORD
  5
DB
330
1
100
AcDbSymbolTableRecord
100
AcDbBlockTableRecord
  2
SW_NOTE_0_14
340
0
102
{BLKREFS
331
E0
102
}
  0
BLOCK_RECORD
  5
E1
330
1
100
AcDbSymbolTableRecord
100
AcDbBlockTableRecord
  2
SW_NOTE_0_15
340
0
102
{BLKREFS
331
E6
102
}
  0
BLOCK_RECORD
  5
E7
330
1
100
AcDbSymbolTableRecord
100
AcDbBlockTableRecord
  2
SW_NOTE_0_16
340
0
102
{BLKREFS
331
ED
102
}
  0
BLOCK_RECORD
  5
EE
330
1
100
AcDbSymbolTableRecord
100
AcDbBlockTableRecord
  2
SW_NOTE_0_17
340
0
102
{BLKREFS
331
F2
102
}
  0
BLOCK_RECORD
  5
F3
330
1
100
AcDbSymbolTableRecord
100
AcDbBlockTableRecord
  2
ACO-Logo
340
0
102
{BLKREFS
331
1C9
102
}
  0
BLOCK_RECORD
  5
166
330
1
100
AcDbSymbolTableRecord
100
AcDbBlockTableRecord
  2
SW_NOTE_0_18
340
0
102
{BLKREFS
331
16A
102
}
  0
BLOCK_RECORD
  5
16B
330
1
100
AcDbSymbolTableRecord
100
AcDbBlockTableRecord
  2
SW_NOTE_0_19
340
0
102
{BLKREFS
331
16F
102
}
  0
BLOCK_RECORD
  5
170
330
1
100
AcDbSymbolTableRecord
100
AcDbBlockTableRecord
  2
SW_NOTE_0_20
340
0
102
{BLKREFS
331
177
102
}
  0
BLOCK_RECORD
  5
1F0
330
1
100
AcDbSymbolTableRecord
100
AcDbBlockTableRecord
  2
SW_NOTE_0_21
340
0
102
{BLKREFS
331
1F8
102
}
  0
BLOCK_RECORD
  5
240
330
1
100
AcDbSymbolTableRecord
100
AcDbBlockTableRecord
  2
SW_CENTERMARKSYMBOL_0
340
0
102
{BLKREFS
331
24B
102
}
  0
BLOCK_RECORD
  5
335
330
1
100
AcDbSymbolTableRecord
100
AcDbBlockTableRecord
  2
_D
340
0
  0
BLOCK_RECORD
  5
340
330
1
100
AcDbSymbolTableRecord
100
AcDbBlockTableRecord
  2
_D_1
340
0
  0
BLOCK_RECORD
  5
34B
330
1
100
AcDbSymbolTableRecord
100
AcDbBlockTableRecord
  2
_D_2
340
0
  0
ENDTAB
  0
ENDSEC
  0
SECTION
  2
BLOCKS
  0
BLOCK
  5
20
330
1F
100
AcDbEntity
  8
0
100
AcDbBlockBegin
  2
*Model_Space
 70
     0
 10
0.0
 20
0.0
 30
0.0
  3
*Model_Space
  1

  0
ENDBLK
  5
21
330
1F
100
AcDbEntity
  8
0
100
AcDbBlockEnd
  0
BLOCK
  5
1C
330
1B
100
AcDbEntity
 67
     1
  8
0
100
AcDbBlockBegin
  2
*Paper_Space
 70
     0
 10
0.0
 20
0.0
 30
0.0
  3
*Paper_Space
  1

  0
ENDBLK
  5
1D
330
1B
100
AcDbEntity
 67
     1
  8
0
100
AcDbBlockEnd
  0
BLOCK
  5
24
330
23
100
AcDbEntity
  8
0
100
AcDbBlockBegin
  2
*Paper_Space0
 70
     0
 10
0.0
 20
0.0
 30
0.0
  3
*Paper_Space0
  1

  0
ENDBLK
  5
25
330
23
100
AcDbEntity
  8
0
100
AcDbBlockEnd
  0
BLOCK
  5
7C
330
7B
100
AcDbEntity
  8
0
100
AcDbBlockBegin
  2
Allg-Toleranz-mittel
 70
     0
 10
0.0
 20
0.0
 30
0.0
  3
Allg-Toleranz-mittel
  1

  0
LINE
  5
7E
330
7B
100
AcDbEntity
  8
LINIEN-NORMAL
 62
     7
100
AcDbLine
 10
0.0
 20
18.0
 30
0.0
 11
0.0
 21
0.0
 31
0.0
  0
LINE
  5
7F
330
7B
100
AcDbEntity
  8
LINIEN-NORMAL
 62
     7
100
AcDbLine
 10
0.0
 20
18.0
 30
0.0
 11
70.0
 21
18.0
 31
0.0
  0
LINE
  5
80
330
7B
100
AcDbEntity
  8
LINIEN-DÜNN
 62
     7
100
AcDbLine
 10
0.0
 20
14.0
 30
0.0
 11
70.0
 21
14.0
 31
0.0
  0
LINE
  5
81
330
7B
100
AcDbEntity
  8
LINIEN-DÜNN
 62
     7
100
AcDbLine
 10
12.0
 20
14.0
 30
0.0
 11
12.0
 21
0.0
 31
0.0
  0
LINE
  5
82
330
7B
100
AcDbEntity
  8
LINIEN-DÜNN
 62
     7
100
AcDbLine
 10
20.0
 20
10.0
 30
0.0
 11
20.0
 21
0.0
 31
0.0
  0
LINE
  5
83
330
7B
100
AcDbEntity
  8
LINIEN-DÜNN
 62
     7
100
AcDbLine
 10
28.0
 20
10.0
 30
0.0
 11
28.0
 21
0.0
 31
0.0
  0
LINE
  5
84
330
7B
100
AcDbEntity
  8
LINIEN-DÜNN
 62
     7
100
AcDbLine
 10
36.0
 20
10.0
 30
0.0
 11
36.0
 21
0.0
 31
0.0
  0
LINE
  5
85
330
7B
100
AcDbEntity
  8
LINIEN-DÜNN
 62
     7
100
AcDbLine
 10
44.0
 20
10.0
 30
0.0
 11
44.0
 21
0.0
 31
0.0
  0
LINE
  5
86
330
7B
100
AcDbEntity
  8
LINIEN-DÜNN
 62
     7
100
AcDbLine
 10
52.0
 20
10.0
 30
0.0
 11
52.0
 21
0.0
 31
0.0
  0
LINE
  5
87
330
7B
100
AcDbEntity
  8
LINIEN-DÜNN
 62
     7
100
AcDbLine
 10
70.0
 20
10.0
 30
0.0
 11
12.0
 21
10.0
 31
0.0
  0
LINE
  5
88
330
7B
100
AcDbEntity
  8
LINIEN-DÜNN
 62
     7
100
AcDbLine
 10
70.0
 20
4.0
 30
0.0
 11
0.0
 21
4.0
 31
0.0
  0
LINE
  5
89
330
7B
100
AcDbEntity
  8
LINIEN-NORMAL
 62
     7
100
AcDbLine
 10
70.0
 20
18.0
 30
0.0
 11
70.0
 21
0.0
 31
0.0
  0
LINE
  5
8A
330
7B
100
AcDbEntity
  8
LINIEN-NORMAL
 62
     7
100
AcDbLine
 10
70.0
 20
0.0
 30
0.0
 11
0.0
 21
0.0
 31
0.0
  0
LINE
  5
8B
330
7B
100
AcDbEntity
  8
LINIEN-DÜNN
100
AcDbLine
 10
61.0
 20
10.0
 30
0.0
 11
61.0
 21
0.0
 31
0.0
  0
INSERT
  5
91
330
7B
100
AcDbEntity
  8
VORLAGE_TEXT
 62
     7
100
AcDbBlockReference
  2
SW_NOTE_0
 10
1.3715701559
 20
14.7823959776
 30
0.0
  0
INSERT
  5
96
330
7B
100
AcDbEntity
  8
VORLAGE_TEXT
 62
     7
100
AcDbBlockReference
  2
SW_NOTE_0_1
 10
19.4858329865
 20
10.8011997857
 30
0.0
  0
INSERT
  5
9B
330
7B
100
AcDbEntity
  8
VORLAGE_TEXT
 62
     7
100
AcDbBlockReference
  2
SW_NOTE_0_2
 10
0.7059049832
 20
0.7957779732
 30
0.0
  0
INSERT
  5
A2
330
7B
100
AcDbEntity
  8
VORLAGE_TEXT
 62
     7
100
AcDbBlockReference
  2
SW_NOTE_0_3
 10
44.6572377212
 20
6.9417037808
 30
0.0
  0
INSERT
  5
A7
330
7B
100
AcDbEntity
  8
VORLAGE_TEXT
 62
     7
100
AcDbBlockReference
  2
SW_NOTE_0_4
 10
21.3963023843
 20
0.8030156928
 30
0.0
  0
INSERT
  5
AC
330
7B
100
AcDbEntity
  8
VORLAGE_TEXT
 62
     7
100
AcDbBlockReference
  2
SW_NOTE_0_5
 10
29.3441244219
 20
0.8024484104
 30
0.0
  0
INSERT
  5
B1
330
7B
100
AcDbEntity
  8
VORLAGE_TEXT
 62
     7
100
AcDbBlockReference
  2
SW_NOTE_0_6
 10
37.3487166127
 20
0.7888202699
 30
0.0
  0
INSERT
  5
B6
330
7B
100
AcDbEntity
  8
VORLAGE_TEXT
 62
     7
100
AcDbBlockReference
  2
SW_NOTE_0_7
 10
45.3470367789
 20
0.8005698793
 30
0.0
  0
INSERT
  5
BB
330
7B
100
AcDbEntity
  8
VORLAGE_TEXT
 62
     7
100
AcDbBlockReference
  2
SW_NOTE_0_8
 10
53.8527888204
 20
0.8016543168
 30
0.0
  0
INSERT
  5
C0
330
7B
100
AcDbEntity
  8
VORLAGE_TEXT
 62
     7
100
AcDbBlockReference
  2
SW_NOTE_0_9
 10
13.3728379186
 20
0.8021647692
 30
0.0
  0
INSERT
  5
C6
330
7B
100
AcDbEntity
  8
VORLAGE_TEXT
 62
     7
100
AcDbBlockReference
  2
SW_NOTE_0_10
 10
0.7480385575
 20
8.9918758938
 30
0.0
  0
INSERT
  5
CC
330
7B
100
AcDbEntity
  8
VORLAGE_TEXT
 62
     7
100
AcDbBlockReference
  2
SW_NOTE_0_11
 10
53.6385910634
 20
6.9252111133
 30
0.0
  0
INSERT
  5
D3
330
7B
100
AcDbEntity
  8
VORLAGE_TEXT
 62
     7
100
AcDbBlockReference
  2
SW_NOTE_0_12
 10
37.834189587
 20
6.9615036443
 30
0.0
  0
INSERT
  5
DA
330
7B
100
AcDbEntity
  8
VORLAGE_TEXT
 62
     7
100
AcDbBlockReference
  2
SW_NOTE_0_13
 10
21.9401680118
 20
6.9455377904
 30
0.0
  0
INSERT
  5
E0
330
7B
100
AcDbEntity
  8
VORLAGE_TEXT
 62
     7
100
AcDbBlockReference
  2
SW_NOTE_0_14
 10
14.6500264887
 20
6.9584413
 30
0.0
  0
INSERT
  5
E6
330
7B
100
AcDbEntity
  8
VORLAGE_TEXT
 62
     7
100
AcDbBlockReference
  2
SW_NOTE_0_15
 10
30.5247714712
 20
6.9591233511
 30
0.0
  0
INSERT
  5
ED
330
7B
100
AcDbEntity
  8
VORLAGE_TEXT
 62
     7
100
AcDbBlockReference
  2
SW_NOTE_0_16
 10
61.480287246
 20
6.9546837425
 30
0.0
  0
INSERT
  5
F2
330
7B
100
AcDbEntity
  8
VORLAGE_TEXT
 62
     7
100
AcDbBlockReference
  2
SW_NOTE_0_17
 10
62.8737574935
 20
0.7955033114
 30
0.0
  0
ENDBLK
  5
7D
330
7B
100
AcDbEntity
  8
0
100
AcDbBlockEnd
  0
BLOCK
  5
8D
330
8C
100
AcDbEntity
  8
0
100
AcDbBlockBegin
  2
SW_NOTE_0
 70
     0
 10
0.0
 20
0.0
 30
0.0
  3
SW_NOTE_0
  1

  0
MTEXT
  5
90
330
8C
100
AcDbEntity
  8
VORLAGE_TEXT
 62
     0
100
AcDbMText
 10
0.0
 20
2.3203219316
 30
0.0
 40
1.8
 41
0.0
 71
     1
 72
     1
  1
Allgemeintoleranzen für Längenmasse            DIN  ISO 2768-1
  7
SLDTEXTSTYLE0
 73
     1
 44
1.0
  0
ENDBLK
  5
8E
330
8C
100
AcDbEntity
  8
0
100
AcDbBlockEnd
  0
BLOCK
  5
93
330
92
100
AcDbEntity
  8
0
100
AcDbBlockBegin
  2
SW_NOTE_0_1
 70
     0
 10
0.0
 20
0.0
 30
0.0
  3
SW_NOTE_0_1
  1

  0
MTEXT
  5
95
330
92
100
AcDbEntity
  8
VORLAGE_TEXT
 62
     0
100
AcDbMText
 10
0.675
 20
2.3203219316
 30
0.0
 40
1.8
 41
0.0
 71
     1
 72
     1
  1
Abmasse in mm für Nennmassbereiche
  7
SLDTEXTSTYLE0
 73
     1
 44
1.0
  0
ENDBLK
  5
94
330
92
100
AcDbEntity
  8
0
100
AcDbBlockEnd
  0
BLOCK
  5
98
330
97
100
AcDbEntity
  8
0
100
AcDbBlockBegin
  2
SW_NOTE_0_2
 70
     0
 10
0.0
 20
0.0
 30
0.0
  3
SW_NOTE_0_2
  1

  0
MTEXT
  5
9A
330
97
100
AcDbEntity
  8
VORLAGE_TEXT
 62
     0
100
AcDbMText
 10
0.0
 20
2.3203219316
 30
0.0
 40
1.8
 41
0.0
 71
     1
 72
     1
  1
m  (mittel)
  7
SLDTEXTSTYLE0
 73
     1
 44
1.0
  0
ENDBLK
  5
99
330
97
100
AcDbEntity
  8
0
100
AcDbBlockEnd
  0
BLOCK
  5
9D
330
9C
100
AcDbEntity
  8
0
100
AcDbBlockBegin
  2
SW_NOTE_0_3
 70
     0
 10
0.0
 20
0.0
 30
0.0
  3
SW_NOTE_0_3
  1

  0
MTEXT
  5
A0
330
9C
100
AcDbEntity
  8
VORLAGE_TEXT
 62
     0
100
AcDbMText
 10
6.80625
 20
2.3203219316
 30
0.0
 40
1.8
 41
0.0
 71
     3
 72
     1
  1
>  120
  7
SLDTEXTSTYLE1
 73
     1
 44
1.0
  0
MTEXT
  5
A1
330
9C
100
AcDbEntity
  8
VORLAGE_TEXT
 62
     0
100
AcDbMText
 10
6.8815628178
 20
0.0003219611
 30
0.0
 40
1.8
 41
0.0
 71
     3
 72
     1
  1
... 400
  7
SLDTEXTSTYLE0
 73
     1
 44
1.0
  0
ENDBLK
  5
9E
330
9C
100
AcDbEntity
  8
0
100
AcDbBlockEnd
  0
BLOCK
  5
A4
330
A3
100
AcDbEntity
  8
0
100
AcDbBlockBegin
  2
SW_NOTE_0_4
 70
     0
 10
0.0
 20
0.0
 30
0.0
  3
SW_NOTE_0_4
  1

  0
MTEXT
  5
A6
330
A3
100
AcDbEntity
  8
VORLAGE_TEXT
 62
     0
100
AcDbMText
 10
0.0
 20
2.3203219316
 30
0.0
 40
1.8
 41
0.0
 71
     1
 72
     1
  1
± 0.1
  7
SLDTEXTSTYLE0
 73
     1
 44
1.0
  0
ENDBLK
  5
A5
330
A3
100
AcDbEntity
  8
0
100
AcDbBlockEnd
  0
BLOCK
  5
A9
330
A8
100
AcDbEntity
  8
0
100
AcDbBlockBegin
  2
SW_NOTE_0_5
 70
     0
 10
0.0
 20
0.0
 30
0.0
  3
SW_NOTE_0_5
  1

  0
MTEXT
  5
AB
330
A8
100
AcDbEntity
  8
VORLAGE_TEXT
 62
     0
100
AcDbMText
 10
0.0
 20
2.3203219316
 30
0.0
 40
1.8
 41
0.0
 71
     1
 72
     1
  1
± 0.2
  7
SLDTEXTSTYLE0
 73
     1
 44
1.0
  0
ENDBLK
  5
AA
330
A8
100
AcDbEntity
  8
0
100
AcDbBlockEnd
  0
BLOCK
  5
AE
330
AD
100
AcDbEntity
  8
0
100
AcDbBlockBegin
  2
SW_NOTE_0_6
 70
     0
 10
0.0
 20
0.0
 30
0.0
  3
SW_NOTE_0_6
  1

  0
MTEXT
  5
B0
330
AD
100
AcDbEntity
  8
VORLAGE_TEXT
 62
     0
100
AcDbMText
 10
0.0
 20
2.3203219316
 30
0.0
 40
1.8
 41
0.0
 71
     1
 72
     1
  1
± 0.3
  7
SLDTEXTSTYLE0
 73
     1
 44
1.0
  0
ENDBLK
  5
AF
330
AD
100
AcDbEntity
  8
0
100
AcDbBlockEnd
  0
BLOCK
  5
B3
330
B2
100
AcDbEntity
  8
0
100
AcDbBlockBegin
  2
SW_NOTE_0_7
 70
     0
 10
0.0
 20
0.0
 30
0.0
  3
SW_NOTE_0_7
  1

  0
MTEXT
  5
B5
330
B2
100
AcDbEntity
  8
VORLAGE_TEXT
 62
     0
100
AcDbMText
 10
0.0
 20
2.3203219316
 30
0.0
 40
1.8
 41
0.0
 71
     1
 72
     1
  1
± 0.5
  7
SLDTEXTSTYLE0
 73
     1
 44
1.0
  0
ENDBLK
  5
B4
330
B2
100
AcDbEntity
  8
0
100
AcDbBlockEnd
  0
BLOCK
  5
B8
330
B7
100
AcDbEntity
  8
0
100
AcDbBlockBegin
  2
SW_NOTE_0_8
 70
     0
 10
0.0
 20
0.0
 30
0.0
  3
SW_NOTE_0_8
  1

  0
MTEXT
  5
BA
330
B7
100
AcDbEntity
  8
VORLAGE_TEXT
 62
     0
100
AcDbMText
 10
0.0
 20
2.3203219316
 30
0.0
 40
1.8
 41
0.0
 71
     1
 72
     1
  1
± 0.8
  7
SLDTEXTSTYLE0
 73
     1
 44
1.0
  0
ENDBLK
  5
B9
330
B7
100
AcDbEntity
  8
0
100
AcDbBlockEnd
  0
BLOCK
  5
BD
330
BC
100
AcDbEntity
  8
0
100
AcDbBlockBegin
  2
SW_NOTE_0_9
 70
     0
 10
0.0
 20
0.0
 30
0.0
  3
SW_NOTE_0_9
  1

  0
MTEXT
  5
BF
330
BC
100
AcDbEntity
  8
VORLAGE_TEXT
 62
     0
100
AcDbMText
 10
0.0
 20
2.3203219316
 30
0.0
 40
1.8
 41
0.0
 71
     1
 72
     1
  1
± 0.1
  7
SLDTEXTSTYLE0
 73
     1
 44
1.0
  0
ENDBLK
  5
BE
330
BC
100
AcDbEntity
  8
0
100
AcDbBlockEnd
  0
BLOCK
  5
C2
330
C1
100
AcDbEntity
  8
0
100
AcDbBlockBegin
  2
SW_NOTE_0_10
 70
     0
 10
0.0
 20
0.0
 30
0.0
  3
SW_NOTE_0_10
  1

  0
MTEXT
  5
C4
330
C1
100
AcDbEntity
  8
VORLAGE_TEXT
 62
     0
100
AcDbMText
 10
0.0
 20
2.3203219316
 30
0.0
 40
1.8
 41
0.0
 71
     1
 72
     1
  1
Genauig -
  7
SLDTEXTSTYLE0
 73
     1
 44
1.0
  0
MTEXT
  5
C5
330
C1
100
AcDbEntity
  8
VORLAGE_TEXT
 62
     0
100
AcDbMText
 10
0.0
 20
0.0003219611
 30
0.0
 40
1.8
 41
0.0
 71
     1
 72
     1
  1
keitsgrad
  7
SLDTEXTSTYLE0
 73
     1
 44
1.0
  0
ENDBLK
  5
C3
330
C1
100
AcDbEntity
  8
0
100
AcDbBlockEnd
  0
BLOCK
  5
C8
330
C7
100
AcDbEntity
  8
0
100
AcDbBlockBegin
  2
SW_NOTE_0_11
 70
     0
 10
0.0
 20
0.0
 30
0.0
  3
SW_NOTE_0_11
  1

  0
MTEXT
  5
CA
330
C7
100
AcDbEntity
  8
VORLAGE_TEXT
 62
     0
100
AcDbMText
 10
6.80625
 20
2.3203219316
 30
0.0
 40
1.8
 41
0.0
 71
     3
 72
     1
  1
>  400
  7
SLDTEXTSTYLE1
 73
     1
 44
1.0
  0
MTEXT
  5
CB
330
C7
100
AcDbEntity
  8
VORLAGE_TEXT
 62
     0
100
AcDbMText
 10
7.0246870391
 20
0.0003219611
 30
0.0
 40
1.8
 41
0.0
 71
     3
 72
     1
  1
... 1000
  7
SLDTEXTSTYLE0
 73
     1
 44
1.0
  0
ENDBLK
  5
C9
330
C7
100
AcDbEntity
  8
0
100
AcDbBlockEnd
  0
BLOCK
  5
CE
330
CD
100
AcDbEntity
  8
0
100
AcDbBlockBegin
  2
SW_NOTE_0_12
 70
     0
 10
0.0
 20
0.0
 30
0.0
  3
SW_NOTE_0_12
  1

  0
MTEXT
  5
D1
330
CD
100
AcDbEntity
  8
VORLAGE_TEXT
 62
     0
100
AcDbMText
 10
5.45625
 20
2.3203219316
 30
0.0
 40
1.8
 41
0.0
 71
     3
 72
     1
  1
>  30
  7
SLDTEXTSTYLE2
 73
     1
 44
1.0
  0
MTEXT
  5
D2
330
CD
100
AcDbEntity
  8
VORLAGE_TEXT
 62
     0
100
AcDbMText
 10
5.6637495868
 20
0.0003219611
 30
0.0
 40
1.8
 41
0.0
 71
     3
 72
     1
  1
... 120
  7
SLDTEXTSTYLE0
 73
     1
 44
1.0
  0
ENDBLK
  5
CF
330
CD
100
AcDbEntity
  8
0
100
AcDbBlockEnd
  0
BLOCK
  5
D5
330
D4
100
AcDbEntity
  8
0
100
AcDbBlockBegin
  2
SW_NOTE_0_13
 70
     0
 10
0.0
 20
0.0
 30
0.0
  3
SW_NOTE_0_13
  1

  0
MTEXT
  5
D8
330
D4
100
AcDbEntity
  8
VORLAGE_TEXT
 62
     0
100
AcDbMText
 10
4.10625
 20
2.3203219316
 30
0.0
 40
1.8
 41
0.0
 71
     3
 72
     1
  1
>  3
  7
SLDTEXTSTYLE3
 73
     1
 44
1.0
  0
MTEXT
  5
D9
330
D4
100
AcDbEntity
  8
VORLAGE_TEXT
 62
     0
100
AcDbMText
 10
4.2490622841
 20
0.0003219611
 30
0.0
 40
1.8
 41
0.0
 71
     3
 72
     1
  1
... 6
  7
SLDTEXTSTYLE0
 73
     1
 44
1.0
  0
ENDBLK
  5
D6
330
D4
100
AcDbEntity
  8
0
100
AcDbBlockEnd
  0
BLOCK
  5
DC
330
DB
100
AcDbEntity
  8
0
100
AcDbBlockBegin
  2
SW_NOTE_0_14
 70
     0
 10
0.0
 20
0.0
 30
0.0
  3
SW_NOTE_0_14
  1

  0
MTEXT
  5
DE
330
DB
100
AcDbEntity
  8
VORLAGE_TEXT
 62
     0
100
AcDbMText
 10
3.375
 20
2.3203219316
 30
0.0
 40
1.8
 41
0.0
 71
     3
 72
     1
  1
0.5
  7
SLDTEXTSTYLE0
 73
     1
 44
1.0
  0
MTEXT
  5
DF
330
DB
100
AcDbEntity
  8
VORLAGE_TEXT
 62
     0
100
AcDbMText
 10
3.446875035
 20
0.0003219611
 30
0.0
 40
1.8
 41
0.0
 71
     3
 72
     1
  1
... 3
  7
SLDTEXTSTYLE0
 73
     1
 44
1.0
  0
ENDBLK
  5
DD
330
DB
100
AcDbEntity
  8
0
100
AcDbBlockEnd
  0
BLOCK
  5
E2
330
E1
100
AcDbEntity
  8
0
100
AcDbBlockBegin
  2
SW_NOTE_0_15
 70
     0
 10
0.0
 20
0.0
 30
0.0
  3
SW_NOTE_0_15
  1

  0
MTEXT
  5
E4
330
E1
100
AcDbEntity
  8
VORLAGE_TEXT
 62
     0
100
AcDbMText
 10
4.10625
 20
2.3203219316
 30
0.0
 40
1.8
 41
0.0
 71
     3
 72
     1
  1
>  6
  7
SLDTEXTSTYLE3
 73
     1
 44
1.0
  0
MTEXT
  5
E5
330
E1
100
AcDbEntity
  8
VORLAGE_TEXT
 62
     0
100
AcDbMText
 10
4.2546879031
 20
0.0003219611
 30
0.0
 40
1.8
 41
0.0
 71
     3
 72
     1
  1
... 30
  7
SLDTEXTSTYLE0
 73
     1
 44
1.0
  0
ENDBLK
  5
E3
330
E1
100
AcDbEntity
  8
0
100
AcDbBlockEnd
  0
BLOCK
  5
E8
330
E7
100
AcDbEntity
  8
0
100
AcDbBlockBegin
  2
SW_NOTE_0_16
 70
     0
 10
0.0
 20
0.0
 30
0.0
  3
SW_NOTE_0_16
  1

  0
MTEXT
  5
EB
330
E7
100
AcDbEntity
  8
VORLAGE_TEXT
 62
     0
100
AcDbMText
 10
8.15625
 20
2.3203219316
 30
0.0
 40
1.8
 41
0.0
 71
     3
 72
     1
  1
>  1000
  7
SLDTEXTSTYLE4
 73
     1
 44
1.0
  0
MTEXT
  5
EC
330
E7
100
AcDbEntity
  8
VORLAGE_TEXT
 62
     0
100
AcDbMText
 10
8.2353127882
 20
0.0003219611
 30
0.0
 40
1.8
 41
0.0
 71
     3
 72
     1
  1
... 2000
  7
SLDTEXTSTYLE0
 73
     1
 44
1.0
  0
ENDBLK
  5
E9
330
E7
100
AcDbEntity
  8
0
100
AcDbBlockEnd
  0
BLOCK
  5
EF
330
EE
100
AcDbEntity
  8
0
100
AcDbBlockBegin
  2
SW_NOTE_0_17
 70
     0
 10
0.0
 20
0.0
 30
0.0
  3
SW_NOTE_0_17
  1

  0
MTEXT
  5
F1
330
EE
100
AcDbEntity
  8
VORLAGE_TEXT
 62
     0
100
AcDbMText
 10
0.0
 20
2.3203219316
 30
0.0
 40
1.8
 41
0.0
 71
     1
 72
     1
  1
± 1.2
  7
SLDTEXTSTYLE0
 73
     1
 44
1.0
  0
ENDBLK
  5
F0
330
EE
100
AcDbEntity
  8
0
100
AcDbBlockEnd
  0
BLOCK
  5
F4
330
F3
100
AcDbEntity
  8
0
100
AcDbBlockBegin
  2
ACO-Logo
 70
     0
 10
0.0
 20
0.0
 30
0.0
  3
ACO-Logo
  1

  0
ARC
  5
F6
330
F3
100
AcDbEntity
  8
0
  6
Continuous
 62
   179
370
    18
100
AcDbCircle
 10
80.3853261169
 20
4.9940995715
 30
0.0
 40
0.3000000000000441
100
AcDbArc
 50
181.9349323096
 51
274.6062978506
  0
ARC
  5
F7
330
F3
100
AcDbEntity
  8
0
  6
Continuous
 62
   179
370
    18
100
AcDbCircle
 10
81.2359083165
 20
2.1946665956
 30
0.0
 40
1.000000000000021
100
AcDbArc
 50
221.4087409628
 51
276.0561297228
  0
ARC
  5
F8
330
F3
100
AcDbEntity
  8
0
  6
Continuous
 62
   179
370
    18
100
AcDbCircle
 10
79.1360017163
 20
3.654242048
 30
0.0
 40
0.300000000000004
100
AcDbArc
 50
181.2730300201
 51
274.4996077095
  0
ARC
  5
F9
330
F3
100
AcDbEntity
  8
0
  6
Continuous
 62
   179
370
    18
100
AcDbCircle
 10
78.7699033484
 20
3.2873137407
 30
0.0
 40
0.4000000000000358
100
AcDbArc
 50
221.0090869016
 51
274.5606296317
  0
ARC
  5
FA
330
F3
100
AcDbEntity
  8
0
  6
Continuous
 62
   179
370
    18
100
AcDbCircle
 10
91.2333953062
 20
4.6062442307
 30
0.0
 40
0.3000000000000493
100
AcDbArc
 50
274.4996077095
 51
3.7249371334
  0
ARC
  5
FB
330
F3
100
AcDbEntity
  8
0
  6
Continuous
 62
   179
370
    18
100
AcDbCircle
 10
81.5287571045
 20
9.7648973508
 30
0.0
 40
1.00000000000002
100
AcDbArc
 50
93.1134387481
 51
181.9414863909
  0
ARC
  5
FC
330
F3
100
AcDbEntity
  8
0
  6
Continuous
 62
   179
370
    18
100
AcDbCircle
 10
81.6051675115
 20
7.5107903456
 30
0.0
 40
1.0
100
AcDbArc
 50
181.9414863909
 51
274.398705355
  0
ARC
  5
FD
330
F3
100
AcDbEntity
  8
0
  6
Continuous
 62
   179
370
    18
100
AcDbCircle
 10
80.1506905656
 20
11.9393118923
 30
0.0
 40
0.300000000000045
100
AcDbArc
 50
93.0418421566
 51
181.9349323096
  0
ARC
  5
FE
330
F3
100
AcDbEntity
  8
0
  6
Continuous
 62
   179
370
    18
100
AcDbCircle
 10
78.1879722102
 20
12.3499352608
 30
0.0
 40
0.7999999999953393
100
AcDbArc
 50
92.6995697565
 51
148.2554209065
  0
ARC
  5
FF
330
F3
100
AcDbEntity
  8
0
  6
Continuous
 62
   179
370
    18
100
AcDbCircle
 10
78.930862229
 20
12.8855189761
 30
0.0
 40
0.3000000000000031
100
AcDbArc
 50
92.6995697565
 51
181.2730300201
  0
ARC
  5
100
330
F3
100
AcDbEntity
  8
0
  6
Continuous
 62
   179
370
    18
100
AcDbCircle
 10
82.327743407
 20
9.8083568568
 30
0.0
 40
1.000000000000034
100
AcDbArc
 50
1.9414863909
 51
93.1134387481
  0
ARC
  5
101
330
F3
100
AcDbEntity
  8
0
  6
Continuous
 62
   179
370
    18
100
AcDbCircle
 10
81.5287571045
 20
9.7648973508
 30
0.0
 40
0.3625000000000009
100
AcDbArc
 50
93.1134387481
 51
181.9414863909
  0
ARC
  5
102
330
F3
100
AcDbEntity
  8
0
  6
Continuous
 62
   179
370
    18
100
AcDbCircle
 10
82.327743407
 20
9.8083568568
 30
0.0
 40
0.3625000000000146
100
AcDbArc
 50
1.9414863909
 51
93.1134387481
  0
ARC
  5
103
330
F3
100
AcDbEntity
  8
0
  6
Continuous
 62
   179
370
    18
100
AcDbCircle
 10
82.4035451983
 20
7.5722040138
 30
0.0
 40
1.000000000000008
100
AcDbArc
 50
274.398705355
 51
1.9414863909
  0
ARC
  5
104
330
F3
100
AcDbEntity
  8
0
  6
Continuous
 62
   179
370
    18
100
AcDbCircle
 10
82.4035451983
 20
7.5722040138
 30
0.0
 40
0.3625000000000068
100
AcDbArc
 50
274.398705355
 51
1.9414863909
  0
ARC
  5
105
330
F3
100
AcDbEntity
  8
0
  6
Continuous
 62
   179
370
    18
100
AcDbCircle
 10
81.6051675115
 20
7.5107903456
 30
0.0
 40
0.3625000000000111
100
AcDbArc
 50
181.9414863909
 51
274.398705355
  0
ARC
  5
106
330
F3
100
AcDbEntity
  8
0
  6
Continuous
 62
   179
370
    18
100
AcDbCircle
 10
88.825822761
 20
8.0662148274
 30
0.0
 40
0.9999999999999997
100
AcDbArc
 50
274.398705355
 51
2.6541955134
  0
ARC
  5
107
330
F3
100
AcDbEntity
  8
0
  6
Continuous
 62
   179
370
    18
100
AcDbCircle
 10
90.1578295581
 20
5.7814576687
 30
0.0
 40
0.3000000000000043
100
AcDbArc
 50
274.6062978507
 51
2.5147526475
  0
ARC
  5
108
330
F3
100
AcDbEntity
  8
0
  6
Continuous
 62
   179
370
    18
100
AcDbCircle
 10
88.825822761
 20
8.0662148274
 30
0.0
 40
0.3625000000000083
100
AcDbArc
 50
274.398705355
 51
2.6541955134
  0
ARC
  5
109
330
F3
100
AcDbEntity
  8
0
  6
Continuous
 62
   179
370
    18
100
AcDbCircle
 10
88.728529747
 20
10.16496413
 30
0.0
 40
1.000000000000001
100
AcDbArc
 50
2.6541955134
 51
93.1134387481
  0
ARC
  5
10A
330
F3
100
AcDbEntity
  8
0
  6
Continuous
 62
   179
370
    18
100
AcDbCircle
 10
88.728529747
 20
10.16496413
 30
0.0
 40
0.3625000000000085
100
AcDbArc
 50
2.6541955134
 51
93.1134387481
  0
ARC
  5
10B
330
F3
100
AcDbEntity
  8
0
  6
Continuous
 62
   179
370
    18
100
AcDbCircle
 10
89.8647121341
 20
12.455515937
 30
0.0
 40
0.2999999999999984
100
AcDbArc
 50
2.5147526475
 51
93.0418421566
  0
ARC
  5
10C
330
F3
100
AcDbEntity
  8
0
  6
Continuous
 62
   179
370
    18
100
AcDbCircle
 10
90.6583795404
 20
13.4384863935
 30
0.0
 40
0.2999999999999911
100
AcDbArc
 50
3.7249371334
 51
92.6995697565
  0
CIRCLE
  5
10D
330
F3
100
AcDbEntity
  8
0
  6
Continuous
 62
   179
370
    18
100
AcDbCircle
 10
15.7233972286
 20
6.4054930194
 30
0.0
 40
1.579500000000014
  0
CIRCLE
  5
10E
330
F3
100
AcDbEntity
  8
0
  6
Continuous
 62
   179
370
    18
100
AcDbCircle
 10
15.7233972286
 20
6.4054930194
 30
0.0
 40
2.281499999999994
  0
ARC
  5
10F
330
F3
100
AcDbEntity
  8
0
  6
Continuous
 62
   179
370
    18
100
AcDbCircle
 10
89.7681336026
 20
2.3106616691
 30
0.0
 40
0.098384530246548
100
AcDbArc
 50
332.3802627259
 51
4.9765441602
  0
ARC
  5
110
330
F3
100
AcDbEntity
  8
0
  6
Continuous
 62
   179
370
    18
100
AcDbCircle
 10
89.6886560089
 20
2.3522464185
 30
0.0
 40
0.1880839130754018
100
AcDbArc
 50
303.690067526
 51
332.3802627258
  0
ARC
  5
111
330
F3
100
AcDbEntity
  8
0
  6
Continuous
 62
   179
370
    18
100
AcDbCircle
 10
89.4849700869
 20
2.6577753016
 30
0.0
 40
0.5552839311631531
100
AcDbArc
 50
287.108652213
 51
303.690067526
  0
ARC
  5
112
330
F3
100
AcDbEntity
  8
0
  6
Continuous
 62
   179
370
    18
100
AcDbCircle
 10
88.0513010646
 20
7.3154864882
 30
0.0
 40
5.428648309393203
100
AcDbArc
 50
285.2551187031
 51
287.108652213
  0
ARC
  5
113
330
F3
100
AcDbEntity
  8
0
  6
Continuous
 62
   179
370
    18
100
AcDbCircle
 10
89.1317168954
 20
3.3539617753
 30
0.0
 40
1.322436378825653
100
AcDbArc
 50
281.4991866428
 51
285.255118703
  0
ARC
  5
114
330
F3
100
AcDbEntity
  8
0
  6
Continuous
 62
   179
370
    18
100
AcDbCircle
 10
89.3198255509
 20
2.4293110075
 30
0.0
 40
0.3788454141584939
100
AcDbArc
 50
279.1917900003
 51
281.499186643
  0
ARC
  5
115
330
F3
100
AcDbEntity
  8
0
  6
Continuous
 62
   179
370
    18
100
AcDbCircle
 10
89.0487250788
 20
4.1046569124
 30
0.0
 40
2.07598399629105
100
AcDbArc
 50
277.7634675038
 51
279.1917900002
  0
ARC
  5
116
330
F3
100
AcDbEntity
  8
0
  6
Continuous
 62
   179
370
    18
100
AcDbCircle
 10
9.2588909915
 20
6.4054930194
 30
0.0
 40
1.579500000000074
100
AcDbArc
 50
31.0558004991
 51
330.0
  0
ARC
  5
117
330
F3
100
AcDbEntity
  8
0
  6
Continuous
 62
   179
370
    18
100
AcDbCircle
 10
9.2588909915
 20
6.4054930194
 30
0.0
 40
2.281500000000107
100
AcDbArc
 50
30.7309172659
 51
330.0
  0
ARC
  5
118
330
F3
100
AcDbEntity
  8
0
  6
Continuous
 62
   179
370
    18
100
AcDbCircle
 10
6.1288847544
 20
4.0685261312
 30
0.0
 40
4.914000000000307
100
AcDbArc
 50
172.3058370354
 51
179.7113029221
  0
ARC
  5
119
330
F3
100
AcDbEntity
  8
0
  6
Continuous
 62
   179
370
    18
100
AcDbCircle
 10
-0.5401152456
 20
4.0685261312
 30
0.0
 40
4.91400000000019
100
AcDbArc
 50
0.2886970779
 51
7.6941629646
  0
ARC
  5
11A
330
F3
100
AcDbEntity
  8
0
  6
Continuous
 62
   179
370
    18
100
AcDbCircle
 10
-0.5401152456
 20
4.0685261312
 30
0.0
 40
5.616000000000127
100
AcDbArc
 50
0.2526096926
 51
53.5764263577
  0
ARC
  5
11B
330
F3
100
AcDbEntity
  8
0
  6
Continuous
 62
   179
370
    18
100
AcDbCircle
 10
6.1288847544
 20
4.0685261312
 30
0.0
 40
5.61600000000074
100
AcDbArc
 50
126.4235736423
 51
179.7473903073
  0
ARC
  5
11C
330
F3
100
AcDbEntity
  8
0
  6
Continuous
 62
   179
370
    18
100
AcDbCircle
 10
-0.5401152456
 20
4.0685261312
 30
0.0
 40
4.914000000000161
100
AcDbArc
 50
16.0658750272
 51
47.2678899574
  0
ARC
  5
11D
330
F3
100
AcDbEntity
  8
0
  6
Continuous
 62
   179
370
    18
100
AcDbCircle
 10
6.1288847544
 20
4.0685261312
 30
0.0
 40
4.914000000000584
100
AcDbArc
 50
132.7321100426
 51
163.9341249728
  0
LINE
  5
11E
330
F3
100
AcDbEntity
  8
0
  6
Continuous
 62
   179
370
    18
100
AcDbLine
 10
78.8017089389
 20
2.8885802402
 30
0.0
 11
90.7982178739
 21
3.8455002136
 31
0.0
  0
LINE
  5
11F
330
F3
100
AcDbEntity
  8
0
  6
Continuous
 62
   179
370
    18
100
AcDbLine
 10
76.6545490427
 20
5.8693097374
 30
0.0
 11
78.0344191726
 21
3.5235305166
 31
0.0
  0
LINE
  5
120
330
F3
100
AcDbEntity
  8
0
  6
Continuous
 62
   179
370
    18
100
AcDbLine
 10
91.5327615373
 20
4.6257342197
 30
0.0
 11
90.9577457715
 21
13.4579763825
 31
0.0
  0
LINE
  5
121
330
F3
100
AcDbEntity
  8
0
  6
Continuous
 62
   179
370
    18
100
AcDbLine
 10
78.6309362756
 20
12.8788539549
 30
0.0
 11
78.8360757629
 21
3.6475770268
 31
0.0
  0
LINE
  5
122
330
F3
100
AcDbEntity
  8
0
  6
Continuous
 62
   179
370
    18
100
AcDbLine
 10
80.4094186633
 20
4.6950685544
 30
0.0
 11
90.1819221045
 21
5.4824266516
 31
0.0
  0
LINE
  5
123
330
F3
100
AcDbEntity
  8
0
  6
Continuous
 62
   179
370
    18
100
AcDbLine
 10
79.1595373973
 20
3.3551666867
 30
0.0
 11
91.2569309872
 21
4.3071688694
 31
0.0
  0
LINE
  5
124
330
F3
100
AcDbEntity
  8
0
  6
Continuous
 62
   179
370
    18
100
AcDbLine
 10
79.2585043218
 20
2.925017226
 30
0.0
 11
80.4858981444
 21
1.533240302
 31
0.0
  0
LINE
  5
125
330
F3
100
AcDbEntity
  8
0
  6
Continuous
 62
   179
370
    18
100
AcDbLine
 10
78.0344191726
 20
3.5235305166
 30
0.0
 11
78.3638740472
 21
3.1446574108
 31
0.0
  0
LINE
  5
126
330
F3
100
AcDbEntity
  8
0
  6
Continuous
 62
   179
370
    18
100
AcDbLine
 10
78.3638740472
 20
3.1446574108
 30
0.0
 11
78.4680611395
 21
3.0248422547
 31
0.0
  0
LINE
  5
127
330
F3
100
AcDbEntity
  8
0
  6
Continuous
 62
   179
370
    18
100
AcDbLine
 10
81.3414110113
 20
1.2002475785
 30
0.0
 11
89.3291569519
 21
2.0477010263
 31
0.0
  0
LINE
  5
128
330
F3
100
AcDbEntity
  8
0
  6
Continuous
 62
   179
370
    18
100
AcDbLine
 10
89.8661472522
 20
2.5197759309
 30
0.0
 11
89.8661472522
 21
2.3090867337
 31
0.0
  0
LINE
  5
129
330
F3
100
AcDbEntity
  8
0
  6
Continuous
 62
   179
370
    18
100
AcDbLine
 10
88.676842368
 20
3.6762854359
 30
0.0
 11
89.6713239345
 21
2.7875997807
 31
0.0
  0
LINE
  5
12A
330
F3
100
AcDbEntity
  8
0
  6
Continuous
 62
   179
370
    18
100
AcDbLine
 10
89.6713239345
 20
2.7875997807
 30
0.0
 11
89.7459749087
 21
2.7242700694
 31
0.0
  0
LINE
  5
12B
330
F3
100
AcDbEntity
  8
0
  6
Continuous
 62
   179
370
    18
100
AcDbLine
 10
90.7982178739
 20
3.8455002136
 30
0.0
 11
91.3961615969
 21
4.3514525945
 31
0.0
  0
LINE
  5
12C
330
F3
100
AcDbEntity
  8
0
  6
Continuous
 62
   179
370
    18
100
AcDbLine
 10
90.6442498554
 20
13.7381534621
 30
0.0
 11
78.1502930503
 21
13.1490474438
 31
0.0
  0
LINE
  5
12D
330
F3
100
AcDbEntity
  8
0
  6
Continuous
 62
   179
370
    18
100
AcDbLine
 10
80.1347709981
 20
12.2388892068
 30
0.0
 11
89.8487925667
 21
12.7550932515
 31
0.0
  0
LINE
  5
12E
330
F3
100
AcDbEntity
  8
0
  6
Continuous
 62
   179
370
    18
100
AcDbLine
 10
76.4935641943
 20
11.7567556248
 30
0.0
 11
76.6545490427
 21
5.8693097374
 31
0.0
  0
LINE
  5
12F
330
F3
100
AcDbEntity
  8
0
  6
Continuous
 62
   179
370
    18
100
AcDbLine
 10
79.8508616208
 20
11.929182536
 30
0.0
 11
80.0854971721
 21
4.9839702153
 31
0.0
  0
LINE
  5
130
330
F3
100
AcDbEntity
  8
0
  6
Continuous
 62
   179
370
    18
100
AcDbLine
 10
80.5293311574
 20
9.7310185051
 30
0.0
 11
80.6057415643
 21
7.4769115
 31
0.0
  0
LINE
  5
131
330
F3
100
AcDbEntity
  8
0
  6
Continuous
 62
   179
370
    18
100
AcDbLine
 10
77.507650604
 20
12.7708420346
 30
0.0
 11
76.4935641943
 21
11.7567556248
 31
0.0
  0
LINE
  5
132
330
F3
100
AcDbEntity
  8
0
  6
Continuous
 62
   179
370
    18
100
AcDbLine
 10
86.8848195129
 20
11.0661568594
 30
0.0
 11
88.6742167283
 21
11.1634880887
 31
0.0
  0
LINE
  5
133
330
F3
100
AcDbEntity
  8
0
  6
Continuous
 62
   179
370
    18
100
AcDbLine
 10
87.0766213517
 20
6.9287171941
 30
0.0
 11
88.90708891
 21
7.0695223909
 31
0.0
  0
LINE
  5
134
330
F3
100
AcDbEntity
  8
0
  6
Continuous
 62
   179
370
    18
100
AcDbLine
 10
87.6830038473
 20
7.6147347768
 30
0.0
 11
88.8536252418
 21
7.7047825764
 31
0.0
  0
LINE
  5
135
330
F3
100
AcDbEntity
  8
0
  6
Continuous
 62
   179
370
    18
100
AcDbLine
 10
87.5509212094
 20
10.4639459651
 30
0.0
 11
88.7088412777
 21
10.5269290651
 31
0.0
  0
LINE
  5
136
330
F3
100
AcDbEntity
  8
0
  6
Continuous
 62
   179
370
    18
100
AcDbLine
 10
87.0766218384
 20
6.9287066941
 30
0.0
 11
86.8848195129
 21
11.0661568594
 31
0.0
  0
LINE
  5
137
330
F3
100
AcDbEntity
  8
0
  6
Continuous
 62
   179
370
    18
100
AcDbLine
 10
83.7004598825
 20
6.6667911093
 30
0.0
 11
84.5054929504
 21
10.9267193262
 31
0.0
  0
LINE
  5
138
330
F3
100
AcDbEntity
  8
0
  6
Continuous
 62
   179
370
    18
100
AcDbLine
 10
85.3543248406
 20
10.9728900984
 30
0.0
 11
86.4940946704
 21
6.8816860929
 31
0.0
  0
LINE
  5
139
330
F3
100
AcDbEntity
  8
0
  6
Continuous
 62
   179
370
    18
100
AcDbLine
 10
84.9728575427
 20
9.9667192298
 30
0.0
 11
85.4540299774
 21
8.2395506903
 31
0.0
  0
LINE
  5
13A
330
F3
100
AcDbEntity
  8
0
  6
Continuous
 62
   179
370
    18
100
AcDbLine
 10
84.6363094629
 20
8.1858350416
 30
0.0
 11
84.9728575427
 21
9.9667192298
 31
0.0
  0
LINE
  5
13B
330
F3
100
AcDbEntity
  8
0
  6
Continuous
 62
   179
370
    18
100
AcDbLine
 10
87.6830038473
 20
7.6147347768
 30
0.0
 11
87.5509212094
 21
10.4639459651
 31
0.0
  0
LINE
  5
13C
330
F3
100
AcDbEntity
  8
0
  6
Continuous
 62
   179
370
    18
100
AcDbLine
 10
84.6363094629
 20
8.1858350416
 30
0.0
 11
85.4540299774
 21
8.2395506903
 31
0.0
  0
LINE
  5
13D
330
F3
100
AcDbEntity
  8
0
  6
Continuous
 62
   179
370
    18
100
AcDbLine
 10
84.5140586807
 20
7.5389304886
 30
0.0
 11
85.6288154243
 21
7.6121582976
 31
0.0
  0
LINE
  5
13E
330
F3
100
AcDbEntity
  8
0
  6
Continuous
 62
   179
370
    18
100
AcDbLine
 10
84.3588137958
 20
6.717433718
 30
0.0
 11
84.5140586807
 21
7.5389304886
 31
0.0
  0
LINE
  5
13F
330
F3
100
AcDbEntity
  8
0
  6
Continuous
 62
   179
370
    18
100
AcDbLine
 10
81.6818640104
 20
6.5137358601
 30
0.0
 11
82.4802416972
 21
6.5751495283
 31
0.0
  0
LINE
  5
140
330
F3
100
AcDbEntity
  8
0
  6
Continuous
 62
   179
370
    18
100
AcDbLine
 10
81.6329699923
 20
7.1493580946
 30
0.0
 11
82.4313476791
 21
7.2107717628
 31
0.0
  0
LINE
  5
141
330
F3
100
AcDbEntity
  8
0
  6
Continuous
 62
   179
370
    18
100
AcDbLine
 10
83.7004598825
 20
6.6667911093
 30
0.0
 11
84.3588137958
 21
6.717433718
 31
0.0
  0
LINE
  5
142
330
F3
100
AcDbEntity
  8
0
  6
Continuous
 62
   179
370
    18
100
AcDbLine
 10
82.7059483815
 20
9.3512024135
 30
0.0
 11
83.3423973297
 21
9.3930104243
 31
0.0
  0
LINE
  5
143
330
F3
100
AcDbEntity
  8
0
  6
Continuous
 62
   179
370
    18
100
AcDbLine
 10
82.7491656358
 20
8.0762934118
 30
0.0
 11
83.385614584
 21
8.1181014226
 31
0.0
  0
LINE
  5
144
330
F3
100
AcDbEntity
  8
0
  6
Continuous
 62
   179
370
    18
100
AcDbLine
 10
81.1664651987
 20
9.7526162692
 30
0.0
 11
81.2428756056
 21
7.4985092641
 31
0.0
  0
LINE
  5
145
330
F3
100
AcDbEntity
  8
0
  6
Continuous
 62
   179
370
    18
100
AcDbLine
 10
82.6900353128
 20
9.8206379383
 30
0.0
 11
82.7052632884
 21
9.3714126602
 31
0.0
  0
LINE
  5
146
330
F3
100
AcDbEntity
  8
0
  6
Continuous
 62
   179
370
    18
100
AcDbLine
 10
82.7491656358
 20
8.0762934118
 30
0.0
 11
82.7658371041
 21
7.5844850954
 31
0.0
  0
LINE
  5
147
330
F3
100
AcDbEntity
  8
0
  6
Continuous
 62
   179
370
    18
100
AcDbLine
 10
83.3271693541
 20
9.8422357024
 30
0.0
 11
83.3423973297
 21
9.3930104243
 31
0.0
  0
LINE
  5
148
330
F3
100
AcDbEntity
  8
0
  6
Continuous
 62
   179
370
    18
100
AcDbLine
 10
83.385614584
 20
8.1181014226
 30
0.0
 11
83.4029711454
 21
7.6060828595
 31
0.0
  0
LINE
  5
149
330
F3
100
AcDbEntity
  8
0
  6
Continuous
 62
   179
370
    18
100
AcDbLine
 10
85.6288154243
 20
7.6121582976
 30
0.0
 11
85.8462022593
 21
6.8318482152
 31
0.0
  0
LINE
  5
14A
330
F3
100
AcDbEntity
  8
0
  6
Continuous
 62
   179
370
    18
100
AcDbLine
 10
85.8462022593
 20
6.8318482152
 30
0.0
 11
86.4940946704
 21
6.8816860929
 31
0.0
  0
LINE
  5
14B
330
F3
100
AcDbEntity
  8
0
  6
Continuous
 62
   179
370
    18
100
AcDbLine
 10
84.5054929504
 20
10.9267193262
 30
0.0
 11
85.3543248406
 21
10.9728900984
 31
0.0
  0
LINE
  5
14C
330
F3
100
AcDbEntity
  8
0
  6
Continuous
 62
   179
370
    18
100
AcDbLine
 10
81.4744440858
 20
10.7634213094
 30
0.0
 11
82.2734303883
 21
10.8068808154
 31
0.0
  0
LINE
  5
14D
330
F3
100
AcDbEntity
  8
0
  6
Continuous
 62
   179
370
    18
100
AcDbLine
 10
81.5090686352
 20
10.1268622858
 30
0.0
 11
82.3080549377
 21
10.1703217918
 31
0.0
  0
LINE
  5
14E
330
F3
100
AcDbEntity
  8
0
  6
Continuous
 62
   179
370
    18
100
AcDbLine
 10
90.4575406452
 20
5.7946206556
 30
0.0
 11
90.1644232213
 21
12.4686789239
 31
0.0
  0
LINE
  5
14F
330
F3
100
AcDbEntity
  8
0
  6
Continuous
 62
   179
370
    18
100
AcDbLine
 10
89.8247499755
 20
8.1125227115
 30
0.0
 11
89.7274569615
 21
10.2112720142
 31
0.0
  0
LINE
  5
150
330
F3
100
AcDbEntity
  8
0
  6
Continuous
 62
   179
370
    18
100
AcDbLine
 10
89.1879338763
 20
8.0830014354
 30
0.0
 11
89.0906408622
 21
10.181750738
 31
0.0
  0
LINE
  5
151
330
F3
100
AcDbEntity
  8
0
  6
Continuous
 62
   179
370
    18
100
AcDbLine
 10
89.7459749087
 20
2.7242700694
 30
0.0
 11
89.7974962577
 21
2.6659765769
 31
0.0
  0
LINE
  5
152
330
F3
100
AcDbEntity
  8
0
  6
Continuous
 62
   179
370
    18
100
AcDbLine
 10
89.7974962577
 20
2.6659765769
 30
0.0
 11
89.8351851379
 21
2.60192886
 31
0.0
  0
LINE
  5
153
330
F3
100
AcDbEntity
  8
0
  6
Continuous
 62
   179
370
    18
100
AcDbLine
 10
89.8351851379
 20
2.60192886
 30
0.0
 11
89.8661472522
 21
2.5197759309
 31
0.0
  0
LINE
  5
154
330
F3
100
AcDbEntity
  8
0
  6
Continuous
 62
   179
370
    18
100
AcDbLine
 10
10.6119938288
 20
7.2203138351
 30
0.0
 11
11.2200151261
 21
7.5713550947
 31
0.0
  0
LINE
  5
155
330
F3
100
AcDbEntity
  8
0
  6
Continuous
 62
   179
370
    18
100
AcDbLine
 10
11.2347279503
 20
5.2647430194
 30
0.0
 11
10.6267781168
 21
5.6157430194
 31
0.0
  0
LINE
  5
156
330
F3
100
AcDbEntity
  8
0
  6
Continuous
 62
   179
370
    18
100
AcDbLine
 10
6.4645062371
 20
16.1712617198
 30
0.0
 11
6.4645062371
 21
2.9364593988
 31
0.0
  0
LINE
  5
157
330
F3
100
AcDbEntity
  8
0
  6
Continuous
 62
   179
370
    18
100
AcDbLine
 10
6.4645062371
 20
2.9364593988
 30
0.0
 11
12.0532757459
 21
2.9364593988
 31
0.0
  0
LINE
  5
158
330
F3
100
AcDbEntity
  8
0
  6
Continuous
 62
   179
370
    18
100
AcDbLine
 10
12.0532757459
 20
2.9364593988
 30
0.0
 11
12.0532757459
 21
16.1712617198
 31
0.0
  0
LINE
  5
159
330
F3
100
AcDbEntity
  8
0
  6
Continuous
 62
   179
370
    18
100
AcDbLine
 10
12.0532757459
 20
16.1712617198
 30
0.0
 11
6.4645062371
 21
16.1712617198
 31
0.0
  0
LINE
  5
15A
330
F3
100
AcDbEntity
  8
0
  6
Continuous
 62
   179
370
    18
100
AcDbLine
 10
0.0
 20
16.1712617198
 30
0.0
 11
0.0
 21
2.9364593988
 31
0.0
  0
LINE
  5
15B
330
F3
100
AcDbEntity
  8
0
  6
Continuous
 62
   179
370
    18
100
AcDbLine
 10
0.0
 20
2.9364593988
 30
0.0
 11
5.5887695089
 21
2.9364593988
 31
0.0
  0
LINE
  5
15C
330
F3
100
AcDbEntity
  8
0
  6
Continuous
 62
   179
370
    18
100
AcDbLine
 10
5.5887695089
 20
2.9364593988
 30
0.0
 11
5.5887695089
 21
16.1712617198
 31
0.0
  0
LINE
  5
15D
330
F3
100
AcDbEntity
  8
0
  6
Continuous
 62
   179
370
    18
100
AcDbLine
 10
5.5887695089
 20
16.1712617198
 30
0.0
 11
0.0
 21
16.1712617198
 31
0.0
  0
LINE
  5
15E
330
F3
100
AcDbEntity
  8
0
  6
Continuous
 62
   179
370
    18
100
AcDbLine
 10
1.2591262606
 20
4.7264381407
 30
0.0
 11
4.3296432482
 21
4.7264381407
 31
0.0
  0
LINE
  5
15F
330
F3
100
AcDbEntity
  8
0
  6
Continuous
 62
   179
370
    18
100
AcDbLine
 10
4.3738223747
 20
4.0932862697
 30
0.0
 11
5.0758301722
 21
4.0932862697
 31
0.0
  0
LINE
  5
160
330
F3
100
AcDbEntity
  8
0
  6
Continuous
 62
   179
370
    18
100
AcDbLine
 10
0.5129393366
 20
4.0932862697
 30
0.0
 11
1.2149471342
 21
4.0932862697
 31
0.0
  0
LINE
  5
161
330
F3
100
AcDbEntity
  8
0
  6
Continuous
 62
   179
370
    18
100
AcDbLine
 10
4.1819643097
 20
5.4284381407
 30
0.0
 11
1.4068051992
 21
5.4284381407
 31
0.0
  0
LINE
  5
162
330
F3
100
AcDbEntity
  8
0
  6
Continuous
 62
   179
370
    18
100
AcDbLine
 10
18.517781983
 20
16.1712617198
 30
0.0
 11
18.517781983
 21
2.9364593988
 31
0.0
  0
LINE
  5
163
330
F3
100
AcDbEntity
  8
0
  6
Continuous
 62
   179
370
    18
100
AcDbLine
 10
18.517781983
 20
2.9364593988
 30
0.0
 11
12.9290124742
 21
2.9364593988
 31
0.0
  0
LINE
  5
164
330
F3
100
AcDbEntity
  8
0
  6
Continuous
 62
   179
370
    18
100
AcDbLine
 10
12.9290124742
 20
2.9364593988
 30
0.0
 11
12.9290124742
 21
16.1712617198
 31
0.0
  0
LINE
  5
165
330
F3
100
AcDbEntity
  8
0
  6
Continuous
 62
   179
370
    18
100
AcDbLine
 10
12.9290124742
 20
16.1712617198
 30
0.0
 11
18.517781983
 21
16.1712617198
 31
0.0
  0
INSERT
  5
16A
330
F3
100
AcDbEntity
  8
0
  6
Continuous
 62
     7
370
     0
100
AcDbBlockReference
  2
SW_NOTE_0_18
 10
1.8998941161
 20
-0.3226565443
 30
0.0
  0
INSERT
  5
16F
330
F3
100
AcDbEntity
  8
0
  6
Continuous
 62
     7
370
     0
100
AcDbBlockReference
  2
SW_NOTE_0_19
 10
29.1164837035
 20
12.7459167441
 30
0.0
  0
INSERT
  5
177
330
F3
100
AcDbEntity
  8
0
  6
Continuous
 62
     7
370
     0
100
AcDbBlockReference
  2
SW_NOTE_0_20
 10
28.8863479825
 20
8.6365742194
 30
0.0
  0
ENDBLK
  5
F5
330
F3
100
AcDbEntity
  8
0
100
AcDbBlockEnd
  0
BLOCK
  5
167
330
166
100
AcDbEntity
  8
0
100
AcDbBlockBegin
  2
SW_NOTE_0_18
 70
     0
 10
0.0
 20
0.0
 30
0.0
  3
SW_NOTE_0_18
  1

  0
MTEXT
  5
169
330
166
100
AcDbEntity
  8
0
  6
Continuous
 62
     0
370
     0
100
AcDbMText
 10
7.09375
 20
2.5781354795
 30
0.0
 40
2.0
 41
0.0
 71
     2
 72
     1
  1
www.aco.ch
  7
SLDTEXTSTYLE0
 73
     1
 44
1.0
  0
ENDBLK
  5
168
330
166
100
AcDbEntity
  8
0
100
AcDbBlockEnd
  0
BLOCK
  5
16C
330
16B
100
AcDbEntity
  8
0
100
AcDbBlockBegin
  2
SW_NOTE_0_19
 70
     0
 10
0.0
 20
0.0
 30
0.0
  3
SW_NOTE_0_19
  1

  0
MTEXT
  5
16E
330
16B
100
AcDbEntity
  8
0
  6
Continuous
 62
     0
370
     0
100
AcDbMText
 10
0.0
 20
3.8672032193
 30
0.0
 40
3.0
 41
0.0
 71
     1
 72
     1
  1
ACO AG
  7
SLDTEXTSTYLE0
 73
     1
 44
1.0
  0
ENDBLK
  5
16D
330
16B
100
AcDbEntity
  8
0
100
AcDbBlockEnd
  0
BLOCK
  5
171
330
170
100
AcDbEntity
  8
0
100
AcDbBlockBegin
  2
SW_NOTE_0_20
 70
     0
 10
0.0
 20
0.0
 30
0.0
  3
SW_NOTE_0_20
  1

  0
MTEXT
  5
173
330
170
100
AcDbEntity
  8
0
  6
Continuous
 62
     0
370
     0
100
AcDbMText
 10
0.0
 20
2.5781354795
 30
0.0
 40
2.0
 41
0.0
 71
     1
 72
     1
  1
Industrie Kleinzaun
  7
SLDTEXTSTYLE0
 73
     1
 44
1.0
  0
MTEXT
  5
174
330
170
100
AcDbEntity
  8
0
  6
Continuous
 62
     0
370
     0
100
AcDbMText
 10
0.0
 20
-0.4218645465
 30
0.0
 40
2.0
 41
0.0
 71
     1
 72
     1
  1
CH-8754 Netstal
  7
SLDTEXTSTYLE0
 73
     1
 44
1.0
  0
MTEXT
  5
175
330
170
100
AcDbEntity
  8
0
  6
Continuous
 62
     0
370
     0
100
AcDbMText
 10
0.0
 20
-3.4218645726
 30
0.0
 40
2.0
 41
0.0
 71
     1
 72
     1
  1
Tel. 055 / 645 53 00
  7
SLDTEXTSTYLE0
 73
     1
 44
1.0
  0
MTEXT
  5
176
330
170
100
AcDbEntity
  8
0
  6
Continuous
 62
     0
370
     0
100
AcDbMText
 10
0.0
 20
-6.4218645987
 30
0.0
 40
2.0
 41
0.0
 71
     1
 72
     1
  1
E-Mail: aco@aco.ch
  7
SLDTEXTSTYLE0
 73
     1
 44
1.0
  0
ENDBLK
  5
172
330
170
100
AcDbEntity
  8
0
100
AcDbBlockEnd
  0
BLOCK
  5
1F1
330
1F0
100
AcDbEntity
  8
0
100
AcDbBlockBegin
  2
SW_NOTE_0_21
 70
     0
 10
0.0
 20
0.0
 30
0.0
  3
SW_NOTE_0_21
  1

  0
MTEXT
  5
1F3
330
1F0
100
AcDbEntity
  8
0
  6
Continuous
 62
     0
370
     0
100
AcDbMText
 10
0.0
 20
1.9336016097
 30
0.0
 40
1.5
 41
0.0
 71
     1
 72
     1
  1
Diese Zeichnung darf weder kopiert
  7
SLDTEXTSTYLE0
 73
     1
 44
1.0
  0
MTEXT
  5
1F4
330
1F0
100
AcDbEntity
  8
0
  6
Continuous
 62
     0
370
     0
100
AcDbMText
 10
0.0
 20
-0.5663983345
 30
0.0
 40
1.5
 41
0.0
 71
     1
 72
     1
  1
noch dritten Personen, insbesondere
  7
SLDTEXTSTYLE0
 73
     1
 44
1.0
  0
MTEXT
  5
1F5
330
1F0
100
AcDbEntity
  8
0
  6
Continuous
 62
     0
370
     0
100
AcDbMText
 10
0.0
 20
-3.0663982786
 30
0.0
 40
1.5
 41
0.0
 71
     1
 72
     1
  1
zum Zweck anderweitiger Benutzung
  7
SLDTEXTSTYLE0
 73
     1
 44
1.0
  0
MTEXT
  5
1F6
330
1F0
100
AcDbEntity
  8
0
  6
Continuous
 62
     0
370
     0
100
AcDbMText
 10
0.0
 20
-5.5663982227
 30
0.0
 40
1.5
 41
0.0
 71
     1
 72
     1
  1
mitgeteilt werden und bleibt unser
  7
SLDTEXTSTYLE0
 73
     1
 44
1.0
  0
MTEXT
  5
1F7
330
1F0
100
AcDbEntity
  8
0
  6
Continuous
 62
     0
370
     0
100
AcDbMText
 10
0.0
 20
-8.0663981668
 30
0.0
 40
1.5
 41
0.0
 71
     1
 72
     1
  1
Eigentum.
  7
SLDTEXTSTYLE0
 73
     1
 44
1.0
  0
ENDBLK
  5
1F2
330
1F0
100
AcDbEntity
  8
0
100
AcDbBlockEnd
  0
BLOCK
  5
241
330
240
100
AcDbEntity
  8
0
100
AcDbBlockBegin
  2
SW_CENTERMARKSYMBOL_0
 70
     0
 10
0.0
 20
0.0
 30
0.0
  3
SW_CENTERMARKSYMBOL_0
  1

  0
LINE
  5
243
330
240
100
AcDbEntity
  8
0
  6
Continuous
 62
     0
370
    18
100
AcDbLine
 10
0.0
 20
0.0
 30
0.0
 11
0.0
 21
2.5
 31
0.0
  0
LINE
  5
244
330
240
100
AcDbEntity
  8
0
  6
Continuous
 62
     0
370
    18
100
AcDbLine
 10
0.0
 20
0.0
 30
0.0
 11
-2.5
 21
0.0
 31
0.0
  0
LINE
  5
245
330
240
100
AcDbEntity
  8
0
  6
Continuous
 62
     0
370
    18
100
AcDbLine
 10
0.0
 20
0.0
 30
0.0
 11
0.0
 21
-2.5
 31
0.0
  0
LINE
  5
246
330
240
100
AcDbEntity
  8
0
  6
Continuous
 62
     0
370
    18
100
AcDbLine
 10
0.0
 20
0.0
 30
0.0
 11
2.5
 21
0.0
 31
0.0
  0
LINE
  5
247
330
240
100
AcDbEntity
  8
0
  6
Continuous
 62
     0
370
    18
100
AcDbLine
 10
0.0
 20
5.0
 30
0.0
 11
0.0
 21
80.4999999996
 31
0.0
  0
LINE
  5
248
330
240
100
AcDbEntity
  8
0
  6
Continuous
 62
     0
370
    18
100
AcDbLine
 10
-5.0
 20
0.0
 30
0.0
 11
-80.4999999996
 21
0.0
 31
0.0
  0
LINE
  5
249
330
240
100
AcDbEntity
  8
0
  6
Continuous
 62
     0
370
    18
100
AcDbLine
 10
0.0
 20
-5.0
 30
0.0
 11
0.0
 21
-80.4999999996
 31
0.0
  0
LINE
  5
24A
330
240
100
AcDbEntity
  8
0
  6
Continuous
 62
     0
370
    18
100
AcDbLine
 10
5.0
 20
0.0
 30
0.0
 11
80.4999999996
 21
0.0
 31
0.0
  0
ENDBLK
  5
242
330
240
100
AcDbEntity
  8
0
100
AcDbBlockEnd
  0
BLOCK
  5
336
330
335
100
AcDbEntity
  8
0
100
AcDbBlockBegin
  2
_D
 70
     0
 10
0.0
 20
0.0
 30
0.0
  3
_D
  1

  0
SOLID
  5
338
330
335
100
AcDbEntity
  8
0
  6
Continuous
 62
     7
370
    18
100
AcDbTrace
 10
229.2022856895
 20
212.3142342219
 30
0.0
 11
229.7407472257
 21
215.8142342222
 31
0.0
 12
228.6638241487
 22
215.8142342215
 32
0.0
 13
228.6638241487
 23
215.8142342215
 33
0.0
  0
SOLID
  5
339
330
335
100
AcDbEntity
  8
0
  6
Continuous
 62
     7
370
    18
100
AcDbTrace
 10
229.2022856755
 20
233.7701581188
 30
0.0
 11
228.6638241393
 21
230.2701581185
 31
0.0
 12
229.7407472163
 22
230.2701581192
 32
0.0
 13
229.7407472163
 23
230.2701581192
 33
0.0
  0
LINE
  5
33A
330
335
100
AcDbEntity
  8
0
  6
Continuous
 62
     7
370
     0
100
AcDbLine
 10
219.1387122842
 20
212.3142342154
 30
0.0
 11
230.2022856895
 21
212.3142342225
 31
0.0
  0
LINE
  5
33B
330
335
100
AcDbEntity
  8
0
  6
Continuous
 62
     7
370
     0
100
AcDbLine
 10
219.1387122842
 20
233.7701581123
 30
0.0
 11
230.2022856755
 21
233.7701581195
 31
0.0
  0
LINE
  5
33C
330
335
100
AcDbEntity
  8
0
  6
Continuous
 62
     7
370
     0
100
AcDbLine
 10
229.2022856895
 20
212.3142342219
 30
0.0
 11
229.2022856755
 21
233.7701581188
 31
0.0
  0
MTEXT
  5
33D
330
335
100
AcDbEntity
  8
0
  6
Continuous
 62
     7
370
    18
100
AcDbMText
 10
224.6905483635
 20
218.3633768331
 30
0.0
 40
3.5
 41
0.0
 71
     1
 72
     1
  1
21.5
  7
SLDTEXTSTYLE0
 11
-6.493611702205319E-10
 21
1.0
 31
0.0
 73
     1
 44
1.0
  0
ENDBLK
  5
337
330
335
100
AcDbEntity
  8
0
100
AcDbBlockEnd
  0
BLOCK
  5
341
330
340
100
AcDbEntity
  8
0
100
AcDbBlockBegin
  2
_D_1
 70
     0
 10
0.0
 20
0.0
 30
0.0
  3
_D_1
  1

  0
SOLID
  5
343
330
340
100
AcDbEntity
  8
0
  6
Continuous
 62
     7
370
    18
100
AcDbTrace
 10
200.5387122842
 20
244.088966703
 30
0.0
 11
197.0387122842
 21
244.6274282415
 31
0.0
 12
197.0387122842
 22
243.5505051646
 32
0.0
 13
197.0387122842
 23
243.5505051646
 33
0.0
  0
SOLID
  5
344
330
340
100
AcDbEntity
  8
0
  6
Continuous
 62
     7
370
    18
100
AcDbTrace
 10
81.5387122842
 20
244.088966703
 30
0.0
 11
85.0387122842
 21
243.5505051646
 31
0.0
 12
85.0387122842
 22
244.6274282415
 32
0.0
 13
85.0387122842
 23
244.6274282415
 33
0.0
  0
LINE
  5
345
330
340
100
AcDbEntity
  8
0
  6
Continuous
 62
     7
370
     0
100
AcDbLine
 10
200.5387122842
 20
225.6421961636
 30
0.0
 11
200.5387122842
 21
245.088966703
 31
0.0
  0
LINE
  5
346
330
340
100
AcDbEntity
  8
0
  6
Continuous
 62
     7
370
     0
100
AcDbLine
 10
81.5387122842
 20
225.6421961636
 30
0.0
 11
81.5387122842
 21
245.088966703
 31
0.0
  0
LINE
  5
347
330
340
100
AcDbEntity
  8
0
  6
Continuous
 62
     7
370
     0
100
AcDbLine
 10
200.5387122842
 20
244.088966703
 30
0.0
 11
81.5387122842
 21
244.088966703
 31
0.0
  0
MTEXT
  5
348
330
340
100
AcDbEntity
  8
0
  6
Continuous
 62
     7
370
    18
100
AcDbMText
 10
134.476820177
 20
248.6007037922
 30
0.0
 40
3.5
 41
0.0
 71
     1
 72
     1
  1
%%c
  7
SLDTEXTSTYLE0
 73
     1
 44
1.0
  0
MTEXT
  5
349
330
340
100
AcDbEntity
  8
0
  6
Continuous
 62
     7
370
    18
100
AcDbMText
 10
139.5797717223
 20
248.6104261014
 30
0.0
 40
3.5
 41
0.0
 71
     1
 72
     1
  1
119
  7
SLDTEXTSTYLE0
 73
     1
 44
1.0
  0
ENDBLK
  5
342
330
340
100
AcDbEntity
  8
0
100
AcDbBlockEnd
  0
BLOCK
  5
34C
330
34B
100
AcDbEntity
  8
0
100
AcDbBlockBegin
  2
_D_2
 70
     0
 10
0.0
 20
0.0
 30
0.0
  3
_D_2
  1

  0
SOLID
  5
34E
330
34B
100
AcDbEntity
  8
0
  6
Continuous
 62
     7
370
    18
100
AcDbTrace
 10
63.0387122842
 20
254.088966703
 30
0.0
 11
66.5387122842
 21
253.5505051646
 31
0.0
 12
66.5387122842
 22
254.6274282415
 32
0.0
 13
66.5387122842
 23
254.6274282415
 33
0.0
  0
SOLID
  5
34F
330
34B
100
AcDbEntity
  8
0
  6
Continuous
 62
     7
370
    18
100
AcDbTrace
 10
219.0387122842
 20
254.088966703
 30
0.0
 11
215.5387122842
 21
254.6274282415
 31
0.0
 12
215.5387122842
 22
253.5505051646
 32
0.0
 13
215.5387122842
 23
253.5505051646
 33
0.0
  0
LINE
  5
350
330
34B
100
AcDbEntity
  8
0
  6
Continuous
 62
     7
370
     0
100
AcDbLine
 10
63.0387122842
 20
233.8701581122
 30
0.0
 11
63.0387122842
 21
255.088966703
 31
0.0
  0
LINE
  5
351
330
34B
100
AcDbEntity
  8
0
  6
Continuous
 62
     7
370
     0
100
AcDbLine
 10
219.0387122842
 20
233.8701581122
 30
0.0
 11
219.0387122842
 21
255.088966703
 31
0.0
  0
LINE
  5
352
330
34B
100
AcDbEntity
  8
0
  6
Continuous
 62
     7
370
     0
100
AcDbLine
 10
63.0387122842
 20
254.088966703
 30
0.0
 11
219.0387122842
 21
254.088966703
 31
0.0
  0
MTEXT
  5
353
330
34B
100
AcDbEntity
  8
0
  6
Continuous
 62
     7
370
    18
100
AcDbMText
 10
134.476820177
 20
258.6007037922
 30
0.0
 40
3.5
 41
0.0
 71
     1
 72
     1
  1
%%c
  7
SLDTEXTSTYLE0
 73
     1
 44
1.0
  0
MTEXT
  5
354
330
34B
100
AcDbEntity
  8
0
  6
Continuous
 62
     7
370
    18
100
AcDbMText
 10
139.5797717223
 20
258.6104261014
 30
0.0
 40
3.5
 41
0.0
 71
     1
 72
     1
  1
156
  7
SLDTEXTSTYLE0
 73
     1
 44
1.0
  0
ENDBLK
  5
34D
330
34B
100
AcDbEntity
  8
0
100
AcDbBlockEnd
  0
ENDSEC
  0
SECTION
  2
ENTITIES
  0
LINE
  5
178
330
1F
100
AcDbEntity
  8
LINIEN-DÜNN
  6
CENTERX2
100
AcDbLine
 10
352.6174545849
 20
46.9080238789
 30
0.0
 11
352.6174545849
 21
39.4621586124
 31
0.0
  0
LINE
  5
179
330
1F
100
AcDbEntity
  8
LINIEN-DÜNN
100
AcDbLine
 10
357.7661698132
 20
46.3720107039
 30
0.0
 11
357.7661698132
 21
39.9353173413
 31
0.0
  0
LINE
  5
17A
330
1F
100
AcDbEntity
  8
LINIEN-DÜNN
100
AcDbLine
 10
364.6059427486
 20
44.7376225767
 30
0.0
 11
364.6059427486
 21
41.5697054685
 31
0.0
  0
LINE
  5
17B
330
1F
100
AcDbEntity
  8
LINIEN-DÜNN
100
AcDbLine
 10
364.6059427486
 20
44.7376225767
 30
0.0
 11
357.7661698132
 21
46.3720107039
 31
0.0
  0
LINE
  5
17C
330
1F
100
AcDbEntity
  8
LINIEN-DÜNN
100
AcDbLine
 10
15.0
 20
198.5
 30
0.0
 11
20.0
 21
198.5
 31
0.0
  0
LINE
  5
17D
330
1F
100
AcDbEntity
  8
LINIEN-DÜNN
100
AcDbLine
 10
12.0
 20
148.5
 30
0.0
 11
0.0
 21
148.5
 31
0.0
  0
LINE
  5
17E
330
1F
100
AcDbEntity
  8
LINIEN-DÜNN
100
AcDbLine
 10
357.7661698132
 20
39.9353173413
 30
0.0
 11
364.6059427486
 21
41.5697054685
 31
0.0
  0
LINE
  5
17F
330
1F
100
AcDbEntity
  8
LINIEN-DÜNN
  6
CENTERX2
100
AcDbLine
 10
348.6240467841
 20
43.1536640226
 30
0.0
 11
356.6108623857
 21
43.1536640226
 31
0.0
  0
LINE
  5
180
330
1F
100
AcDbEntity
  8
LINIEN-DÜNN
  6
CENTERX2
100
AcDbLine
 10
357.1289238876
 20
43.1536640226
 30
0.0
 11
365.6255362296
 21
43.1536640226
 31
0.0
  0
LINE
  5
181
330
1F
100
AcDbEntity
  8
LINIEN-DÜNN
100
AcDbLine
 10
0.0
 20
0.0
 30
0.0
 11
420.0
 21
0.0
 31
0.0
  0
LINE
  5
182
330
1F
100
AcDbEntity
  8
LINIEN-DÜNN
100
AcDbLine
 10
0.0
 20
0.0
 30
0.0
 11
0.0
 21
297.0
 31
0.0
  0
LINE
  5
183
330
1F
100
AcDbEntity
  8
LINIEN-DÜNN
100
AcDbLine
 10
0.0
 20
297.0
 30
0.0
 11
420.0
 21
297.0
 31
0.0
  0
LINE
  5
184
330
1F
100
AcDbEntity
  8
LINIEN-DÜNN
100
AcDbLine
 10
420.0
 20
0.0
 30
0.0
 11
420.0
 21
297.0
 31
0.0
  0
LINE
  5
185
330
1F
100
AcDbEntity
  8
LINIEN-NORMAL
100
AcDbLine
 10
228.0
 20
35.0
 30
0.0
 11
410.0
 21
35.0
 31
0.0
  0
LINE
  5
186
330
1F
100
AcDbEntity
  8
LINIEN-DÜNN
100
AcDbLine
 10
410.0
 20
198.5
 30
0.0
 11
415.0
 21
198.5
 31
0.0
  0
LINE
  5
187
330
1F
100
AcDbEntity
  8
LINIEN-DÜNN
100
AcDbLine
 10
15.0
 20
148.5
 30
0.0
 11
20.0
 21
148.5
 31
0.0
  0
LINE
  5
188
330
1F
100
AcDbEntity
  8
LINIEN-DÜNN
100
AcDbLine
 10
228.0
 20
40.0
 30
0.0
 11
296.6
 21
40.0
 31
0.0
  0
LINE
  5
189
330
1F
100
AcDbEntity
  8
LINIEN-DÜNN
100
AcDbLine
 10
15.0
 20
248.5
 30
0.0
 11
20.0
 21
248.5
 31
0.0
  0
LINE
  5
18A
330
1F
100
AcDbEntity
  8
LINIEN-DICK
100
AcDbLine
 10
20.0
 20
287.0
 30
0.0
 11
20.0
 21
10.0
 31
0.0
  0
LINE
  5
18B
330
1F
100
AcDbEntity
  8
LINIEN-DICK
100
AcDbLine
 10
410.0
 20
287.0
 30
0.0
 11
20.0
 21
287.0
 31
0.0
  0
LINE
  5
18C
330
1F
100
AcDbEntity
  8
LINIEN-DICK
100
AcDbLine
 10
410.0
 20
5.0
 30
0.0
 11
410.0
 21
287.0
 31
0.0
  0
LINE
  5
18D
330
1F
100
AcDbEntity
  8
LINIEN-DICK
100
AcDbLine
 10
20.0
 20
10.0
 30
0.0
 11
415.0
 21
10.0
 31
0.0
  0
LINE
  5
18E
330
1F
100
AcDbEntity
  8
LINIEN-DÜNN
100
AcDbLine
 10
410.0
 20
148.5
 30
0.0
 11
415.0
 21
148.5
 31
0.0
  0
LINE
  5
18F
330
1F
100
AcDbEntity
  8
LINIEN-DÜNN
100
AcDbLine
 10
228.0
 20
50.0
 30
0.0
 11
296.6
 21
50.0
 31
0.0
  0
LINE
  5
190
330
1F
100
AcDbEntity
  8
LINIEN-DÜNN
100
AcDbLine
 10
15.0
 20
98.5
 30
0.0
 11
20.0
 21
98.5
 31
0.0
  0
LINE
  5
191
330
1F
100
AcDbEntity
  8
LINIEN-DÜNN
100
AcDbLine
 10
296.6
 20
45.0
 30
0.0
 11
228.0
 21
45.0
 31
0.0
  0
LINE
  5
192
330
1F
100
AcDbEntity
  8
LINIEN-DÜNN
100
AcDbLine
 10
65.0
 20
292.0
 30
0.0
 11
65.0
 21
287.0
 31
0.0
  0
LINE
  5
193
330
1F
100
AcDbEntity
  8
LINIEN-DÜNN
100
AcDbLine
 10
230.0
 20
292.0
 30
0.0
 11
230.0
 21
297.0
 31
0.0
  0
LINE
  5
194
330
1F
100
AcDbEntity
  8
LINIEN-NORMAL
100
AcDbLine
 10
296.6
 20
55.0
 30
0.0
 11
296.6
 21
35.0
 31
0.0
  0
LINE
  5
195
330
1F
100
AcDbEntity
  8
LINIEN-DÜNN
100
AcDbLine
 10
410.0
 20
98.5
 30
0.0
 11
415.0
 21
98.5
 31
0.0
  0
LINE
  5
196
330
1F
100
AcDbEntity
  8
VORLAGE_BEMASSUNG
100
AcDbLine
 10
230.0
 20
5.0
 30
0.0
 11
230.0
 21
0.0
 31
0.0
  0
LINE
  5
197
330
1F
100
AcDbEntity
  8
LINIEN-DÜNN
100
AcDbLine
 10
125.0
 20
292.0
 30
0.0
 11
125.0
 21
297.0
 31
0.0
  0
LINE
  5
198
330
1F
100
AcDbEntity
  8
LINIEN-DÜNN
100
AcDbLine
 10
125.0
 20
5.0
 30
0.0
 11
125.0
 21
0.0
 31
0.0
  0
LINE
  5
199
330
1F
100
AcDbEntity
  8
LINIEN-NORMAL
100
AcDbLine
 10
410.0
 20
55.0
 30
0.0
 11
228.0
 21
55.0
 31
0.0
  0
LINE
  5
19A
330
1F
100
AcDbEntity
  8
LINIEN-DÜNN
100
AcDbLine
 10
228.0
 20
55.0
 30
0.0
 11
410.0
 21
55.0
 31
0.0
  0
LINE
  5
19B
330
1F
100
AcDbEntity
  8
LINIEN-DÜNN
100
AcDbLine
 10
410.0
 20
55.0
 30
0.0
 11
228.0
 21
55.0
 31
0.0
  0
LINE
  5
19C
330
1F
100
AcDbEntity
  8
LINIEN-DÜNN
100
AcDbLine
 10
268.0
 20
76.5
 30
0.0
 11
268.0
 21
55.0
 31
0.0
  0
LINE
  5
19D
330
1F
100
AcDbEntity
  8
LINIEN-DÜNN
100
AcDbLine
 10
271.6
 20
55.0
 30
0.0
 11
271.6
 21
40.0
 31
0.0
  0
LINE
  5
19E
330
1F
100
AcDbEntity
  8
LINIEN-DÜNN
100
AcDbLine
 10
247.0
 20
55.0
 30
0.0
 11
247.0
 21
35.0
 31
0.0
  0
LINE
  5
19F
330
1F
100
AcDbEntity
  8
LINIEN-DICK
100
AcDbLine
 10
228.0
 20
76.5
 30
0.0
 11
228.0
 21
10.0
 31
0.0
  0
LINE
  5
1A0
330
1F
100
AcDbEntity
  8
LINIEN-DÜNN
100
AcDbLine
 10
15.0
 20
292.0
 30
0.0
 11
415.0
 21
292.0
 31
0.0
  0
LINE
  5
1A1
330
1F
100
AcDbEntity
  8
LINIEN-DÜNN
100
AcDbLine
 10
228.0
 20
65.75
 30
0.0
 11
310.0
 21
65.75
 31
0.0
  0
LINE
  5
1A2
330
1F
100
AcDbEntity
  8
LINIEN-DICK
100
AcDbLine
 10
228.0
 20
76.5
 30
0.0
 11
410.0
 21
76.5
 31
0.0
  0
LINE
  5
1A3
330
1F
100
AcDbEntity
  8
LINIEN-DÜNN
100
AcDbLine
 10
15.0
 20
48.5
 30
0.0
 11
20.0
 21
48.5
 31
0.0
  0
LINE
  5
1A4
330
1F
100
AcDbEntity
  8
LINIEN-DÜNN
100
AcDbLine
 10
410.0
 20
48.5
 30
0.0
 11
415.0
 21
48.5
 31
0.0
  0
LINE
  5
1A5
330
1F
100
AcDbEntity
  8
LINIEN-DÜNN
100
AcDbLine
 10
332.6610845472
 20
20.0
 30
0.0
 11
332.6610845472
 21
10.0
 31
0.0
  0
LINE
  5
1A6
330
1F
100
AcDbEntity
  8
LINIEN-DÜNN
100
AcDbLine
 10
410.0
 20
248.5
 30
0.0
 11
415.0
 21
248.5
 31
0.0
  0
LINE
  5
1A7
330
1F
100
AcDbEntity
  8
LINIEN-DÜNN
100
AcDbLine
 10
65.0
 20
10.0
 30
0.0
 11
65.0
 21
5.0
 31
0.0
  0
LINE
  5
1A8
330
1F
100
AcDbEntity
  8
LINIEN-DÜNN
100
AcDbLine
 10
115.0
 20
10.0
 30
0.0
 11
115.0
 21
5.0
 31
0.0
  0
LINE
  5
1A9
330
1F
100
AcDbEntity
  8
LINIEN-DÜNN
100
AcDbLine
 10
115.0
 20
292.0
 30
0.0
 11
115.0
 21
287.0
 31
0.0
  0
LINE
  5
1AA
330
1F
100
AcDbEntity
  8
LINIEN-DÜNN
100
AcDbLine
 10
165.0
 20
10.0
 30
0.0
 11
165.0
 21
5.0
 31
0.0
  0
LINE
  5
1AB
330
1F
100
AcDbEntity
  8
LINIEN-DÜNN
100
AcDbLine
 10
165.0
 20
292.0
 30
0.0
 11
165.0
 21
287.0
 31
0.0
  0
LINE
  5
1AC
330
1F
100
AcDbEntity
  8
LINIEN-DÜNN
100
AcDbLine
 10
215.0
 20
10.0
 30
0.0
 11
215.0
 21
5.0
 31
0.0
  0
LINE
  5
1AD
330
1F
100
AcDbEntity
  8
LINIEN-DÜNN
100
AcDbLine
 10
215.0
 20
292.0
 30
0.0
 11
215.0
 21
287.0
 31
0.0
  0
LINE
  5
1AE
330
1F
100
AcDbEntity
  8
LINIEN-DÜNN
100
AcDbLine
 10
265.0
 20
10.0
 30
0.0
 11
265.0
 21
5.0
 31
0.0
  0
LINE
  5
1AF
330
1F
100
AcDbEntity
  8
LINIEN-DÜNN
100
AcDbLine
 10
265.0
 20
292.0
 30
0.0
 11
265.0
 21
287.0
 31
0.0
  0
LINE
  5
1B0
330
1F
100
AcDbEntity
  8
LINIEN-DÜNN
100
AcDbLine
 10
347.6610845472
 20
20.0
 30
0.0
 11
347.6610845472
 21
10.0
 31
0.0
  0
LINE
  5
1B1
330
1F
100
AcDbEntity
  8
LINIEN-DÜNN
100
AcDbLine
 10
362.6610845472
 20
20.0
 30
0.0
 11
362.6610845472
 21
10.0
 31
0.0
  0
LINE
  5
1B2
330
1F
100
AcDbEntity
  8
LINIEN-NORMAL
100
AcDbLine
 10
327.6610845472
 20
10.0
 30
0.0
 11
327.6610845472
 21
55.0
 31
0.0
  0
LINE
  5
1B3
330
1F
100
AcDbEntity
  8
LINIEN-DÜNN
100
AcDbLine
 10
20.0
 20
292.0
 30
0.0
 11
20.0
 21
297.0
 31
0.0
  0
LINE
  5
1B4
330
1F
100
AcDbEntity
  8
LINIEN-DÜNN
100
AcDbLine
 10
20.0
 20
5.0
 30
0.0
 11
20.0
 21
0.0
 31
0.0
  0
LINE
  5
1B5
330
1F
100
AcDbEntity
  8
LINIEN-DÜNN
100
AcDbLine
 10
315.0
 20
10.0
 30
0.0
 11
315.0
 21
5.0
 31
0.0
  0
LINE
  5
1B6
330
1F
100
AcDbEntity
  8
LINIEN-DÜNN
100
AcDbLine
 10
315.0
 20
292.0
 30
0.0
 11
315.0
 21
287.0
 31
0.0
  0
LINE
  5
1B7
330
1F
100
AcDbEntity
  8
LINIEN-DÜNN
100
AcDbLine
 10
365.0
 20
10.0
 30
0.0
 11
365.0
 21
5.0
 31
0.0
  0
LINE
  5
1B8
330
1F
100
AcDbEntity
  8
LINIEN-DÜNN
100
AcDbLine
 10
365.0
 20
292.0
 30
0.0
 11
365.0
 21
287.0
 31
0.0
  0
LINE
  5
1B9
330
1F
100
AcDbEntity
  8
LINIEN-DÜNN
100
AcDbLine
 10
15.0
 20
292.0
 30
0.0
 11
15.0
 21
5.0
 31
0.0
  0
LINE
  5
1BA
330
1F
100
AcDbEntity
  8
LINIEN-DÜNN
100
AcDbLine
 10
15.0
 20
5.0
 30
0.0
 11
415.0
 21
5.0
 31
0.0
  0
LINE
  5
1BB
330
1F
100
AcDbEntity
  8
LINIEN-DÜNN
100
AcDbLine
 10
415.0
 20
292.0
 30
0.0
 11
415.0
 21
5.0
 31
0.0
  0
LINE
  5
1BC
330
1F
100
AcDbEntity
  8
LINIEN-DÜNN
100
AcDbLine
 10
347.6610845472
 20
44.213444
 30
0.0
 11
327.6610845472
 21
44.213444
 31
0.0
  0
LINE
  5
1BD
330
1F
100
AcDbEntity
  8
LINIEN-DÜNN
100
AcDbLine
 10
347.6610845472
 20
35.0
 30
0.0
 11
347.6610845472
 21
55.0
 31
0.0
  0
LINE
  5
1BE
330
1F
100
AcDbEntity
  8
LINIEN-DÜNN
100
AcDbLine
 10
370.057188
 20
55.012032
 30
0.0
 11
370.057188
 21
35.0
 31
0.0
  0
LINE
  5
1BF
330
1F
100
AcDbEntity
  8
LINIEN-DÜNN
100
AcDbLine
 10
398.0
 20
35.0
 30
0.0
 11
398.0
 21
20.0
 31
0.0
  0
LINE
  5
1C0
330
1F
100
AcDbEntity
  8
LINIEN-DÜNN
100
AcDbLine
 10
410.0
 20
15.0
 30
0.0
 11
327.6610845472
 21
15.0
 31
0.0
  0
LINE
  5
1C1
330
1F
100
AcDbEntity
  8
LINIEN-DÜNN
100
AcDbLine
 10
327.6610845472
 20
20.0
 30
0.0
 11
410.0
 21
20.0
 31
0.0
  0
LINE
  5
1C2
330
1F
100
AcDbEntity
  8
LINIEN-DÜNN
100
AcDbLine
 10
341.485486
 20
20.0
 30
0.0
 11
341.485486
 21
27.564675
 31
0.0
  0
LINE
  5
1C3
330
1F
100
AcDbEntity
  8
LINIEN-NORMAL
100
AcDbLine
 10
310.0
 20
76.5
 30
0.0
 11
310.0
 21
55.0
 31
0.0
  0
CIRCLE
  5
1C4
330
1F
100
AcDbEntity
  8
LINIEN-DÜNN
100
AcDbCircle
 10
11.0
 20
108.5
 30
0.0
 40
2.750000000000001
  0
CIRCLE
  5
1C5
330
1F
100
AcDbEntity
  8
LINIEN-DÜNN
100
AcDbCircle
 10
11.0
 20
188.5
 30
0.0
 40
2.750000000000001
  0
CIRCLE
  5
1C6
330
1F
100
AcDbEntity
  8
LINIEN-DÜNN
100
AcDbCircle
 10
352.6174545849
 20
43.1536640226
 30
0.0
 40
3.218346681300138
  0
CIRCLE
  5
1C7
330
1F
100
AcDbEntity
  8
LINIEN-DÜNN
100
AcDbCircle
 10
352.6174545849
 20
43.1536640226
 30
0.0
 40
1.583958554121555
  0
INSERT
  5
1C8
330
1F
100
AcDbEntity
  8
0
  6
Continuous
 62
     7
100
AcDbBlockReference
  2
Allg-Toleranz-mittel
 10
20.0
 20
10.0
 30
0.0
  0
INSERT
  5
1C9
330
1F
100
AcDbEntity
  8
0
  6
Continuous
 62
     7
100
AcDbBlockReference
  2
ACO-Logo
 10
314.3510726297
 20
57.6366106772
 30
0.0
  0
POINT
  5
1CA
330
1F
100
AcDbEntity
  8
VORLAGE_BEMASSUNG
100
AcDbPoint
 10
0.0
 20
0.0
 30
0.0
  0
POINT
  5
1CB
330
1F
100
AcDbEntity
  8
VORLAGE_BEMASSUNG
100
AcDbPoint
 10
410.0
 20
10.0
 30
0.0
  0
MTEXT
  5
1CC
330
1F
100
AcDbEntity
  8
VORLAGE_TEXT
100
AcDbMText
 10
17.7046943114
 20
124.8017866468
 30
0.0
 40
2.0
 41
0.0
 71
     2
 72
     1
  1
D
  7
SLDTEXTSTYLE0
 73
     1
 44
1.0
  0
MTEXT
  5
1CD
330
1F
100
AcDbEntity
  8
VORLAGE_TEXT
100
AcDbMText
 10
17.5962322413
 20
174.7261854936
 30
0.0
 40
2.0
 41
0.0
 71
     2
 72
     1
  1
C
  7
SLDTEXTSTYLE0
 73
     1
 44
1.0
  0
MTEXT
  5
1CE
330
1F
100
AcDbEntity
  8
VORLAGE_TEXT
100
AcDbMText
 10
17.5516905072
 20
224.4926420442
 30
0.0
 40
2.0
 41
0.0
 71
     2
 72
     1
  1
B
  7
SLDTEXTSTYLE0
 73
     1
 44
1.0
  0
MTEXT
  5
1CF
330
1F
100
AcDbEntity
  8
VORLAGE_TEXT
100
AcDbMText
 10
290.0344258799
 20
290.5428789914
 30
0.0
 40
2.0
 41
0.0
 71
     2
 72
     1
  1
6
  7
SLDTEXTSTYLE0
 73
     1
 44
1.0
  0
MTEXT
  5
1D0
330
1F
100
AcDbEntity
  8
VORLAGE_TEXT
100
AcDbMText
 10
240.0417859812
 20
290.6369260235
 30
0.0
 40
2.0
 41
0.0
 71
     2
 72
     1
  1
5
  7
SLDTEXTSTYLE0
 73
     1
 44
1.0
  0
MTEXT
  5
1D1
330
1F
100
AcDbEntity
  8
VORLAGE_TEXT
100
AcDbMText
 10
190.0300404524
 20
290.6343268032
 30
0.0
 40
2.0
 41
0.0
 71
     2
 72
     1
  1
4
  7
SLDTEXTSTYLE0
 73
     1
 44
1.0
  0
MTEXT
  5
1D2
330
1F
100
AcDbEntity
  8
VORLAGE_TEXT
100
AcDbMText
 10
140.0165868337
 20
290.6378887952
 30
0.0
 40
2.0
 41
0.0
 71
     2
 72
     1
  1
3
  7
SLDTEXTSTYLE0
 73
     1
 44
1.0
  0
MTEXT
  5
1D3
330
1F
100
AcDbEntity
  8
VORLAGE_TEXT
100
AcDbMText
 10
90.033223
 20
290.5566702875
 30
0.0
 40
2.0
 41
0.0
 71
     2
 72
     1
  1
2
  7
SLDTEXTSTYLE0
 73
     1
 44
1.0
  0
MTEXT
  5
1D4
330
1F
100
AcDbEntity
  8
VORLAGE_TEXT
100
AcDbMText
 10
40.0509551097
 20
290.5530165805
 30
0.0
 40
2.0
 41
0.0
 71
     2
 72
     1
  1
1
  7
SLDTEXTSTYLE0
 73
     1
 44
1.0
  0
MTEXT
  5
1D5
330
1F
100
AcDbEntity
  8
VORLAGE_TEXT
100
AcDbMText
 10
17.5609786315
 20
271.2966048816
 30
0.0
 40
2.0
 41
0.0
 71
     2
 72
     1
  1
A
  7
SLDTEXTSTYLE0
 73
     1
 44
1.0
  0
MTEXT
  5
1D6
330
1F
100
AcDbEntity
  8
VORLAGE_TEXT
100
AcDbMText
 10
89.9333968896
 20
8.5904490253
 30
0.0
 40
2.0
 41
0.0
 71
     2
 72
     1
  1
2
  7
SLDTEXTSTYLE0
 73
     1
 44
1.0
  0
MTEXT
  5
1D7
330
1F
100
AcDbEntity
  8
VORLAGE_TEXT
100
AcDbMText
 10
39.9009486579
 20
8.6623118453
 30
0.0
 40
2.0
 41
0.0
 71
     2
 72
     1
  1
1
  7
SLDTEXTSTYLE0
 73
     1
 44
1.0
  0
MTEXT
  5
1D8
330
1F
100
AcDbEntity
  8
VORLAGE_TEXT
100
AcDbMText
 10
190.0227230239
 20
8.7073169286
 30
0.0
 40
2.0
 41
0.0
 71
     2
 72
     1
  1
4
  7
SLDTEXTSTYLE0
 73
     1
 44
1.0
  0
MTEXT
  5
1D9
330
1F
100
AcDbEntity
  8
VORLAGE_TEXT
100
AcDbMText
 10
140.0453427777
 20
8.5647154541
 30
0.0
 40
2.0
 41
0.0
 71
     2
 72
     1
  1
3
  7
SLDTEXTSTYLE0
 73
     1
 44
1.0
  0
MTEXT
  5
1DA
330
1F
100
AcDbEntity
  8
VORLAGE_TEXT
100
AcDbMText
 10
239.8749782531
 20
8.5637526825
 30
0.0
 40
2.0
 41
0.0
 71
     2
 72
     1
  1
5
  7
SLDTEXTSTYLE0
 73
     1
 44
1.0
  0
MTEXT
  5
1DB
330
1F
100
AcDbEntity
  8
VORLAGE_TEXT
100
AcDbMText
 10
412.6717254925
 20
224.51208263
 30
0.0
 40
2.0
 41
0.0
 71
     2
 72
     1
  1
B
  7
SLDTEXTSTYLE0
 73
     1
 44
1.0
  0
MTEXT
  5
1DC
330
1F
100
AcDbEntity
  8
VORLAGE_TEXT
100
AcDbMText
 10
412.5951211154
 20
271.2798202564
 30
0.0
 40
2.0
 41
0.0
 71
     2
 72
     1
  1
A
  7
SLDTEXTSTYLE0
 73
     1
 44
1.0
  0
MTEXT
  5
1DD
330
1F
100
AcDbEntity
  8
VORLAGE_TEXT
100
AcDbMText
 10
412.6178948679
 20
174.7279841048
 30
0.0
 40
2.0
 41
0.0
 71
     2
 72
     1
  1
C
  7
SLDTEXTSTYLE0
 73
     1
 44
1.0
  0
MTEXT
  5
1DE
330
1F
100
AcDbEntity
  8
VORLAGE_TEXT
100
AcDbMText
 10
340.0216466634
 20
290.5954278102
 30
0.0
 40
2.0
 41
0.0
 71
     2
 72
     1
  1
7
  7
SLDTEXTSTYLE0
 73
     1
 44
1.0
  0
MTEXT
  5
1DF
330
1F
100
AcDbEntity
  8
VORLAGE_TEXT
100
AcDbMText
 10
390.037657264
 20
290.6215496941
 30
0.0
 40
2.0
 41
0.0
 71
     2
 72
     1
  1
8
  7
SLDTEXTSTYLE0
 73
     1
 44
1.0
  0
MTEXT
  5
1E0
330
1F
100
AcDbEntity
  8
VORLAGE_TEXT
100
AcDbMText
 10
17.6897935208
 20
74.7267628143
 30
0.0
 40
2.0
 41
0.0
 71
     2
 72
     1
  1
E
  7
SLDTEXTSTYLE0
 73
     1
 44
1.0
  0
MTEXT
  5
1E1
330
1F
100
AcDbEntity
  8
VORLAGE_TEXT
100
AcDbMText
 10
17.5624430126
 20
27.773321616
 30
0.0
 40
2.0
 41
0.0
 71
     2
 72
     1
  1
F
  7
SLDTEXTSTYLE0
 73
     1
 44
1.0
  0
MTEXT
  5
1E2
330
1F
100
AcDbEntity
  8
VORLAGE_TEXT
100
AcDbMText
 10
339.8003474583
 20
8.7205095051
 30
0.0
 40
2.0
 41
0.0
 71
     2
 72
     1
  1
7
  7
SLDTEXTSTYLE0
 73
     1
 44
1.0
  0
MTEXT
  5
1E3
330
1F
100
AcDbEntity
  8
VORLAGE_TEXT
100
AcDbMText
 10
289.7886477179
 20
8.6884673623
 30
0.0
 40
2.0
 41
0.0
 71
     2
 72
     1
  1
6
  7
SLDTEXTSTYLE0
 73
     1
 44
1.0
  0
MTEXT
  5
1E4
330
1F
100
AcDbEntity
  8
VORLAGE_TEXT
100
AcDbMText
 10
412.5160699095
 20
74.5096307526
 30
0.0
 40
2.0
 41
0.0
 71
     2
 72
     1
  1
E
  7
SLDTEXTSTYLE0
 73
     1
 44
1.0
  0
MTEXT
  5
1E5
330
1F
100
AcDbEntity
  8
VORLAGE_TEXT
100
AcDbMText
 10
412.5921521365
 20
124.4517683275
 30
0.0
 40
2.0
 41
0.0
 71
     2
 72
     1
  1
D
  7
SLDTEXTSTYLE0
 73
     1
 44
1.0
  0
MTEXT
  5
1E6
330
1F
100
AcDbEntity
  8
TEXT-DEUTSCH
100
AcDbMText
 10
411.7952690469
 20
41.7351642101
 30
0.0
 40
1.8
 41
0.0
 71
     3
 72
     1
  1
Plotdatum: 19.04.2023
  7
SLDTEXTSTYLE0
 11
-3.269436733918102E-15
 21
1.0
 31
0.0
 73
     1
 44
1.0
  0
MTEXT
  5
1E7
330
1F
100
AcDbEntity
  8
VORLAGE_TEXT
100
AcDbMText
 10
412.557933251
 20
8.2549718046
 30
0.0
 40
1.8
 41
0.0
 71
     2
 72
     1
  1
A3
  7
SLDTEXTSTYLE0
 73
     1
 44
1.0
  0
MTEXT
  5
1E8
330
1F
100
AcDbEntity
  8
VORLAGE_TEXT
100
AcDbMText
 10
390.369604279
 20
8.3847467643
 30
0.0
 40
1.8
 41
0.0
 71
     2
 72
     1
  1
CAD-System: SolidWorks
  7
SLDTEXTSTYLE0
 73
     1
 44
1.0
  0
MTEXT
  5
1E9
330
1F
100
AcDbEntity
  8
TEXT
100
AcDbMText
 10
403.9760673444
 20
28.4394692021
 30
0.0
 40
5.0
 41
0.0
 71
     2
 72
     1
  1
-
  7
SLDTEXTSTYLE0
 73
     1
 44
1.0
  0
MTEXT
  5
1EA
330
1F
100
AcDbEntity
  8
TEXT
100
AcDbMText
 10
249.556836311
 20
38.5581729516
 30
0.0
 40
2.0
 41
0.0
 71
     1
 72
     1
  1
Freigegeben
  7
SLDTEXTSTYLE0
 73
     1
 44
1.0
  0
MTEXT
  5
1EB
330
1F
100
AcDbEntity
  8
TEXT
100
AcDbMText
 10
284.1032088477
 20
43.5473338598
 30
0.0
 40
2.0
 41
0.0
 71
     2
 72
     1
  1
AB
  7
SLDTEXTSTYLE0
 73
     1
 44
1.0
  0
MTEXT
  5
1EC
330
1F
100
AcDbEntity
  8
TEXT
100
AcDbMText
 10
249.5284668163
 20
43.5603133928
 30
0.0
 40
2.0
 41
0.0
 71
     1
 72
     1
  1
19.04.2023
  7
SLDTEXTSTYLE0
 73
     1
 44
1.0
  0
MTEXT
  5
1ED
330
1F
100
AcDbEntity
  8
TEXT
100
AcDbMText
 10
284.1309088133
 20
48.5138972561
 30
0.0
 40
2.0
 41
0.0
 71
     2
 72
     1
  1
AB
  7
SLDTEXTSTYLE0
 73
     1
 44
1.0
  0
MTEXT
  5
1EE
330
1F
100
AcDbEntity
  8
TEXT
100
AcDbMText
 10
249.5284668163
 20
48.4989062069
 30
0.0
 40
2.0
 41
0.0
 71
     1
 72
     1
  1
25.02.2021
  7
SLDTEXTSTYLE0
 73
     1
 44
1.0
  0
MTEXT
  5
1EF
330
1F
100
AcDbEntity
  8
0
  6
Continuous
 62
     7
370
     0
100
AcDbMText
 10
372.2351689601
 20
38.8723054925
 30
0.0
 40
1.5
 41
0.0
 71
     1
 72
     1
  1
Copyright reserved! © ACO AG
  7
SLDTEXTSTYLE0
 73
     1
 44
1.0
  0
INSERT
  5
1F8
330
1F
100
AcDbEntity
  8
0
  6
Continuous
 62
     7
370
     0
100
AcDbBlockReference
  2
SW_NOTE_0_21
 10
372.2203831445
 20
51.2202922854
 30
0.0
  0
MTEXT
  5
1F9
330
1F
100
AcDbEntity
  8
TEXT
100
AcDbMText
 10
364.9468572407
 20
18.4594173137
 30
0.0
 40
2.0
 41
0.0
 71
     1
 72
     1
  1
Erstausgabe
  7
SLDTEXTSTYLE0
 73
     1
 44
1.0
  0
MTEXT
  5
1FA
330
1F
100
AcDbEntity
  8
TEXT
100
AcDbMText
 10
330.2295005021
 20
18.524501801
 30
0.0
 40
2.0
 41
0.0
 71
     2
 72
     1
  1
-
  7
SLDTEXTSTYLE0
 73
     1
 44
1.0
  0
MTEXT
  5
1FB
330
1F
100
AcDbEntity
  8
VORLAGE_TEXT
100
AcDbMText
 10
311.764909851
 20
46.3490312465
 30
0.0
 40
5.0
 41
0.0
 71
     2
 72
     1
  1
1:1
  7
SLDTEXTSTYLE0
 73
     1
 44
1.0
  0
MTEXT
  5
1FC
330
1F
100
AcDbEntity
  8
VORLAGE_TEXT
100
AcDbMText
 10
230.1851195342
 20
38.7793829468
 30
0.0
 40
2.0
 41
0.0
 71
     1
 72
     1
  1
Status:
  7
SLDTEXTSTYLE0
 73
     1
 44
1.0
  0
MTEXT
  5
1FD
330
1F
100
AcDbEntity
  8
TEXT
100
AcDbMText
 10
344.926838705
 20
28.2772828851
 30
0.0
 40
5.0
 41
0.0
 71
     1
 72
     1
  1
408201
  7
SLDTEXTSTYLE0
 73
     1
 44
1.0
  0
MTEXT
  5
1FE
330
1F
100
AcDbEntity
  8
TEXT
100
AcDbMText
 10
231.1132118803
 20
14.9211049657
 30
0.0
 40
2.5
 41
0.0
 71
     1
 72
     1
  1
Art. Nr.: 2014715
  7
SLDTEXTSTYLE0
 73
     1
 44
1.0
  0
MTEXT
  5
1FF
330
1F
100
AcDbEntity
  8
TEXT
100
AcDbMText
 10
231.1475981734
 20
21.4529560996
 30
0.0
 40
2.5
 41
0.0
 71
     1
 72
     1
  1
passend zu Geruchsverschluss 408200
  7
SLDTEXTSTYLE0
 73
     1
 44
1.0
  0
MTEXT
  5
200
330
1F
100
AcDbEntity
  8
TEXT
100
AcDbMText
 10
231.1159560181
 20
33.0904969858
 30
0.0
 40
2.5
 41
0.0
 71
     1
 72
     1
  1
ACO-Standard
  7
SLDTEXTSTYLE0
 73
     1
 44
1.0
  0
MTEXT
  5
201
330
1F
100
AcDbEntity
  8
TEXT
100
AcDbMText
 10
231.1475981734
 20
28.0307932366
 30
0.0
 40
3.5
 41
0.0
 71
     1
 72
     1
  1
Dichtring GV Gully 157
  7
SLDTEXTSTYLE0
 73
     1
 44
1.0
  0
MTEXT
  5
202
330
1F
100
AcDbEntity
  8
VORLAGE_TEXT
100
AcDbMText
 10
348.2746465368
 20
53.819119072
 30
0.0
 40
2.0
 41
0.0
 71
     1
 72
     1
  1
Projektion: ISO-E
  7
SLDTEXTSTYLE0
 73
     1
 44
1.0
  0
MTEXT
  5
203
330
1F
100
AcDbEntity
  8
TEXT
100
AcDbMText
 10
337.5723966855
 20
49.3670227094
 30
0.0
 40
2.5
 41
0.0
 71
     2
 72
     1
  1
Millimeter
  7
SLDTEXTSTYLE0
 73
     1
 44
1.0
  0
MTEXT
  5
204
330
1F
100
AcDbEntity
  8
VORLAGE_TEXT
100
AcDbMText
 10
337.5698777421
 20
53.855374072
 30
0.0
 40
2.0
 41
0.0
 71
     2
 72
     1
  1
Masseinheit:
  7
SLDTEXTSTYLE0
 73
     1
 44
1.0
  0
MTEXT
  5
205
330
1F
100
AcDbEntity
  8
VORLAGE_TEXT
100
AcDbMText
 10
337.5801990186
 20
43.5452078816
 30
0.0
 40
2.0
 41
0.0
 71
     2
 72
     1
  1
Blatt / Anz.:
  7
SLDTEXTSTYLE0
 73
     1
 44
1.0
  0
MTEXT
  5
206
330
1F
100
AcDbEntity
  8
VORLAGE_TEXT
100
AcDbMText
 10
329.2895578243
 20
28.4139191092
 30
0.0
 40
5.0
 41
0.0
 71
     1
 72
     1
  1
CH
  7
SLDTEXTSTYLE0
 73
     1
 44
1.0
  0
MTEXT
  5
207
330
1F
100
AcDbEntity
  8
VORLAGE_TEXT
100
AcDbMText
 10
330.40704
 20
33.692638072
 30
0.0
 40
2.0
 41
0.0
 71
     1
 72
     1
  1
Zeichnung Nr.:
  7
SLDTEXTSTYLE0
 73
     1
 44
1.0
  0
MTEXT
  5
208
330
1F
100
AcDbEntity
  8
VORLAGE_TEXT
100
AcDbMText
 10
269.897953
 20
75.161075072
 30
0.0
 40
2.0
 41
0.0
 71
     1
 72
     1
  1
Gewicht:
  7
SLDTEXTSTYLE0
 73
     1
 44
1.0
  0
MTEXT
  5
209
330
1F
100
AcDbEntity
  8
VORLAGE_TEXT
100
AcDbMText
 10
230.0
 20
64.542328072
 30
0.0
 40
2.0
 41
0.0
 71
     1
 72
     1
  1
zul. Abweichung:
  7
SLDTEXTSTYLE0
 73
     1
 44
1.0
  0
MTEXT
  5
20A
330
1F
100
AcDbEntity
  8
VORLAGE_TEXT
100
AcDbMText
 10
269.612607
 20
64.542328072
 30
0.0
 40
2.0
 41
0.0
 71
     1
 72
     1
  1
Oberfläche:
  7
SLDTEXTSTYLE0
 73
     1
 44
1.0
  0
MTEXT
  5
20B
330
1F
100
AcDbEntity
  8
VORLAGE_TEXT
100
AcDbMText
 10
230.261411
 20
43.4433838912
 30
0.0
 40
2.0
 41
0.0
 71
     1
 72
     1
  1
Freigegeben:
  7
SLDTEXTSTYLE0
 73
     1
 44
1.0
  0
MTEXT
  5
20C
330
1F
100
AcDbEntity
  8
VORLAGE_TEXT
100
AcDbMText
 10
230.0
 20
75.161075072
 30
0.0
 40
2.0
 41
0.0
 71
     1
 72
     1
  1
Werkstoff:
  7
SLDTEXTSTYLE0
 73
     1
 44
1.0
  0
MTEXT
  5
20D
330
1F
100
AcDbEntity
  8
VORLAGE_TEXT
100
AcDbMText
 10
254.035545
 20
53.129475072
 30
0.0
 40
2.0
 41
0.0
 71
     1
 72
     1
  1
Datum:
  7
SLDTEXTSTYLE0
 73
     1
 44
1.0
  0
MTEXT
  5
20E
330
1F
100
AcDbEntity
  8
VORLAGE_TEXT
100
AcDbMText
 10
279.934928
 20
53.136060072
 30
0.0
 40
2.0
 41
0.0
 71
     1
 72
     1
  1
Name:
  7
SLDTEXTSTYLE0
 73
     1
 44
1.0
  0
MTEXT
  5
20F
330
1F
100
AcDbEntity
  8
VORLAGE_TEXT
100
AcDbMText
 10
312.068705406
 20
53.881591072
 30
0.0
 40
2.0
 41
0.0
 71
     2
 72
     1
  1
Massstab:
  7
SLDTEXTSTYLE0
 73
     1
 44
1.0
  0
MTEXT
  5
210
330
1F
100
AcDbEntity
  8
VORLAGE_TEXT
100
AcDbMText
 10
403.9552944035
 20
33.324874072
 30
0.0
 40
2.0
 41
0.0
 71
     2
 72
     1
  1
Index:
  7
SLDTEXTSTYLE0
 73
     1
 44
1.0
  0
MTEXT
  5
211
330
1F
100
AcDbEntity
  8
VORLAGE_TEXT
100
AcDbMText
 10
230.261411
 20
48.4499477886
 30
0.0
 40
2.0
 41
0.0
 71
     1
 72
     1
  1
Erstellt:
  7
SLDTEXTSTYLE0
 73
     1
 44
1.0
  0
MTEXT
  5
212
330
1F
100
AcDbEntity
  8
VORLAGE_TEXT
100
AcDbMText
 10
337.6348165843
 20
39.869706576
 30
0.0
 40
2.5
 41
0.0
 71
     2
 72
     1
  1
1 / 1
  7
SLDTEXTSTYLE2
 73
     1
 44
1.0
  0
MTEXT
  5
213
330
1F
100
AcDbEntity
  8
TEXT
100
AcDbMText
 10
269.612607
 20
60.8119428599
 30
0.0
 40
3.0
 41
0.0
 71
     1
 72
     1
  1
DIN ISO 1302
  7
SLDTEXTSTYLE0
 73
     1
 44
1.0
  0
MTEXT
  5
214
330
1F
100
AcDbEntity
  8
TEXT
100
AcDbMText
 10
230.0
 20
60.8119428599
 30
0.0
 40
3.0
 41
0.0
 71
     1
 72
     1
  1
Norm
  7
SLDTEXTSTYLE0
 73
     1
 44
1.0
  0
MTEXT
  5
215
330
1F
100
AcDbEntity
  8
TEXT
100
AcDbMText
 10
269.612607
 20
71.2121947186
 30
0.0
 40
3.0
 41
0.0
 71
     1
 72
     1
  1
0.14
  7
SLDTEXTSTYLE0
 73
     1
 44
1.0
  0
MTEXT
  5
216
330
1F
100
AcDbEntity
  8
TEXT
100
AcDbMText
 10
230.0
 20
71.2121947186
 30
0.0
 40
3.0
 41
0.0
 71
     1
 72
     1
  1
EPDM 60
  7
SLDTEXTSTYLE0
 73
     1
 44
1.0
  0
CIRCLE
  5
217
330
1F
100
AcDbEntity
  8
0
  6
Continuous
 62
     7
370
    25
100
AcDbCircle
 10
141.0387122845
 20
108.6738362069
 30
0.0
 40
63.5
  0
ARC
  5
218
330
1F
100
AcDbEntity
  8
0
  6
Continuous
 62
     7
370
    25
100
AcDbCircle
 10
141.0387122845
 20
108.6738362069
 30
0.0
 40
77.99999999955263
100
AcDbArc
 50
123.8932306611
 51
146.1067693389
  0
ARC
  5
219
330
1F
100
AcDbEntity
  8
0
  6
Continuous
 62
     7
370
    25
100
AcDbCircle
 10
141.0387122845
 20
108.6738362069
 30
0.0
 40
77.99999999955263
100
AcDbArc
 50
93.8932306611
 51
116.1067693389
  0
ARC
  5
21A
330
1F
100
AcDbEntity
  8
0
  6
Continuous
 62
     7
370
    25
100
AcDbCircle
 10
141.0387122845
 20
108.6738362069
 30
0.0
 40
77.99999999955263
100
AcDbArc
 50
63.8932306611
 51
86.1067693389
  0
ARC
  5
21B
330
1F
100
AcDbEntity
  8
0
  6
Continuous
 62
     7
370
    25
100
AcDbCircle
 10
141.0387122845
 20
108.6738362069
 30
0.0
 40
77.99999999955263
100
AcDbArc
 50
33.8932306611
 51
56.1067693389
  0
ARC
  5
21C
330
1F
100
AcDbEntity
  8
0
  6
Continuous
 62
     7
370
    25
100
AcDbCircle
 10
141.0387122845
 20
108.6738362069
 30
0.0
 40
77.99999999955263
100
AcDbArc
 50
3.8932306611
 51
26.1067693389
  0
ARC
  5
21D
330
1F
100
AcDbEntity
  8
0
  6
Continuous
 62
     7
370
    25
100
AcDbCircle
 10
141.0387122845
 20
108.6738362069
 30
0.0
 40
77.99999999955263
100
AcDbArc
 50
333.8932306611
 51
356.1067693389
  0
ARC
  5
21E
330
1F
100
AcDbEntity
  8
0
  6
Continuous
 62
     7
370
    25
100
AcDbCircle
 10
141.0387122845
 20
108.6738362069
 30
0.0
 40
77.99999999955266
100
AcDbArc
 50
303.8932306611
 51
326.1067693389
  0
ARC
  5
21F
330
1F
100
AcDbEntity
  8
0
  6
Continuous
 62
     7
370
    25
100
AcDbCircle
 10
141.0387122845
 20
108.6738362069
 30
0.0
 40
77.99999999955266
100
AcDbArc
 50
273.8932306611
 51
296.1067693389
  0
ARC
  5
220
330
1F
100
AcDbEntity
  8
0
  6
Continuous
 62
     7
370
    25
100
AcDbCircle
 10
141.0387122845
 20
108.6738362069
 30
0.0
 40
77.99999999955266
100
AcDbArc
 50
243.8932306611
 51
266.1067693389
  0
ARC
  5
221
330
1F
100
AcDbEntity
  8
0
  6
Continuous
 62
     7
370
    25
100
AcDbCircle
 10
141.0387122845
 20
108.6738362069
 30
0.0
 40
77.99999999955264
100
AcDbArc
 50
213.8932306611
 51
236.1067693389
  0
ARC
  5
222
330
1F
100
AcDbEntity
  8
0
  6
Continuous
 62
     7
370
    25
100
AcDbCircle
 10
141.0387122845
 20
108.6738362069
 30
0.0
 40
77.99999999955266
100
AcDbArc
 50
183.8932306611
 51
206.1067693389
  0
ARC
  5
223
330
1F
100
AcDbEntity
  8
0
  6
Continuous
 62
     7
370
    25
100
AcDbCircle
 10
141.0387122845
 20
108.6738362069
 30
0.0
 40
77.99999999955264
100
AcDbArc
 50
153.8932306611
 51
176.1067693389
  0
ARC
  5
224
330
1F
100
AcDbEntity
  8
0
  6
Continuous
 62
     7
370
    25
100
AcDbCircle
 10
141.0387122845
 20
108.6738362069
 30
0.0
 40
77.99999999955266
100
AcDbArc
 50
236.1067693389
 51
243.8932306611
  0
ARC
  5
225
330
1F
100
AcDbEntity
  8
0
  6
Continuous
 62
     7
370
    25
100
AcDbCircle
 10
103.5387122845
 20
43.7219309231
 30
0.0
 40
5.999999999999998
100
AcDbArc
 50
301.9657034702
 51
178.0342965298
  0
ARC
  5
226
330
1F
100
AcDbEntity
  8
0
  6
Continuous
 62
     7
370
    25
100
AcDbCircle
 10
141.0387122845
 20
108.6738362069
 30
0.0
 40
77.99999999955264
100
AcDbArc
 50
146.1067693389
 51
153.8932306611
  0
ARC
  5
227
330
1F
100
AcDbEntity
  8
0
  6
Continuous
 62
     7
370
    25
100
AcDbCircle
 10
76.0868070006
 20
146.1738362069
 30
0.0
 40
5.999999999999974
100
AcDbArc
 50
211.9657034702
 51
88.0342965298
  0
ARC
  5
228
330
1F
100
AcDbEntity
  8
0
  6
Continuous
 62
     7
370
    25
100
AcDbCircle
 10
141.0387122845
 20
108.6738362069
 30
0.0
 40
77.99999999955266
100
AcDbArc
 50
206.1067693389
 51
213.8932306611
  0
ARC
  5
229
330
1F
100
AcDbEntity
  8
0
  6
Continuous
 62
     7
370
    25
100
AcDbCircle
 10
76.0868070006
 20
71.1738362069
 30
0.0
 40
5.999999999999987
100
AcDbArc
 50
271.9657034702
 51
148.0342965298
  0
ARC
  5
22A
330
1F
100
AcDbEntity
  8
0
  6
Continuous
 62
     7
370
    25
100
AcDbCircle
 10
141.0387122845
 20
108.6738362069
 30
0.0
 40
77.99999999955266
100
AcDbArc
 50
326.1067693389
 51
333.8932306611
  0
ARC
  5
22B
330
1F
100
AcDbEntity
  8
0
  6
Continuous
 62
     7
370
    25
100
AcDbCircle
 10
205.9906175683
 20
71.1738362069
 30
0.0
 40
6.000000000000009
100
AcDbArc
 50
31.9657034702
 51
268.0342965298
  0
ARC
  5
22C
330
1F
100
AcDbEntity
  8
0
  6
Continuous
 62
     7
370
    25
100
AcDbCircle
 10
141.0387122845
 20
108.6738362069
 30
0.0
 40
77.99999999955266
100
AcDbArc
 50
296.1067693389
 51
303.8932306611
  0
ARC
  5
22D
330
1F
100
AcDbEntity
  8
0
  6
Continuous
 62
     7
370
    25
100
AcDbCircle
 10
178.5387122845
 20
43.7219309231
 30
0.0
 40
6.000000000000013
100
AcDbArc
 50
1.9657034702
 51
238.0342965298
  0
ARC
  5
22E
330
1F
100
AcDbEntity
  8
0
  6
Continuous
 62
     7
370
    25
100
AcDbCircle
 10
141.0387122845
 20
108.6738362069
 30
0.0
 40
77.99999999955263
100
AcDbArc
 50
116.1067693389
 51
123.8932306611
  0
ARC
  5
22F
330
1F
100
AcDbEntity
  8
0
  6
Continuous
 62
     7
370
    25
100
AcDbCircle
 10
103.5387122845
 20
173.6257414907
 30
0.0
 40
5.999999999999996
100
AcDbArc
 50
181.9657034702
 51
58.0342965298
  0
ARC
  5
230
330
1F
100
AcDbEntity
  8
0
  6
Continuous
 62
     7
370
    25
100
AcDbCircle
 10
141.0387122845
 20
108.6738362069
 30
0.0
 40
77.99999999955263
100
AcDbArc
 50
56.1067693389
 51
63.8932306611
  0
ARC
  5
231
330
1F
100
AcDbEntity
  8
0
  6
Continuous
 62
     7
370
    25
100
AcDbCircle
 10
178.5387122845
 20
173.6257414907
 30
0.0
 40
6.00000000000001
100
AcDbArc
 50
121.9657034702
 51
358.0342965298
  0
ARC
  5
232
330
1F
100
AcDbEntity
  8
0
  6
Continuous
 62
     7
370
    25
100
AcDbCircle
 10
141.0387122845
 20
108.6738362069
 30
0.0
 40
77.99999999955263
100
AcDbArc
 50
26.1067693389
 51
33.8932306611
  0
ARC
  5
233
330
1F
100
AcDbEntity
  8
0
  6
Continuous
 62
     7
370
    25
100
AcDbCircle
 10
205.9906175683
 20
146.1738362069
 30
0.0
 40
6.000000000000013
100
AcDbArc
 50
91.9657034702
 51
328.0342965298
  0
ARC
  5
234
330
1F
100
AcDbEntity
  8
0
  6
Continuous
 62
     7
370
    25
100
AcDbCircle
 10
141.0387122845
 20
108.6738362069
 30
0.0
 40
77.99999999955263
100
AcDbArc
 50
356.1067693389
 51
3.8932306611
  0
ARC
  5
235
330
1F
100
AcDbEntity
  8
0
  6
Continuous
 62
     7
370
    25
100
AcDbCircle
 10
216.0387122845
 20
108.6738362069
 30
0.0
 40
5.999999999999996
100
AcDbArc
 50
61.9657034702
 51
298.0342965298
  0
ARC
  5
236
330
1F
100
AcDbEntity
  8
0
  6
Continuous
 62
     7
370
    25
100
AcDbCircle
 10
141.0387122845
 20
108.6738362069
 30
0.0
 40
77.99999999955263
100
AcDbArc
 50
86.1067693389
 51
93.8932306611
  0
ARC
  5
237
330
1F
100
AcDbEntity
  8
0
  6
Continuous
 62
     7
370
    25
100
AcDbCircle
 10
141.0387122845
 20
183.6738362069
 30
0.0
 40
6.000000000000008
100
AcDbArc
 50
151.9657034702
 51
28.0342965298
  0
ARC
  5
238
330
1F
100
AcDbEntity
  8
0
  6
Continuous
 62
     7
370
    25
100
AcDbCircle
 10
141.0387122845
 20
108.6738362069
 30
0.0
 40
77.99999999955266
100
AcDbArc
 50
266.1067693389
 51
273.8932306611
  0
ARC
  5
239
330
1F
100
AcDbEntity
  8
0
  6
Continuous
 62
     7
370
    25
100
AcDbCircle
 10
141.0387122845
 20
33.6738362069
 30
0.0
 40
6.000000000000024
100
AcDbArc
 50
331.9657034702
 51
208.0342965298
  0
ARC
  5
23A
330
1F
100
AcDbEntity
  8
0
  6
Continuous
 62
     7
370
    25
100
AcDbCircle
 10
141.0387122845
 20
108.6738362069
 30
0.0
 40
77.99999999955263
100
AcDbArc
 50
176.1067693389
 51
183.8932306611
  0
ARC
  5
23B
330
1F
100
AcDbEntity
  8
0
  6
Continuous
 62
     7
370
    25
100
AcDbCircle
 10
66.0387122845
 20
108.6738362069
 30
0.0
 40
5.999999999999993
100
AcDbArc
 50
241.9657034702
 51
118.0342965298
  0
CIRCLE
  5
23C
330
1F
100
AcDbEntity
  8
0
  6
Continuous
 62
     7
370
    25
100
AcDbCircle
 10
141.0387122845
 20
108.6738362069
 30
0.0
 40
59.50000000000006
  0
CIRCLE
  5
23D
330
1F
100
AcDbEntity
  8
0
  6
Continuous
 62
     8
370
    18
100
AcDbCircle
 10
141.0387122845
 20
108.6738362069
 30
0.0
 40
64.07197128333432
  0
CIRCLE
  5
23E
330
1F
100
AcDbEntity
  8
0
  6
Continuous
 62
     8
370
    18
100
AcDbCircle
 10
141.0387122845
 20
108.6738362069
 30
0.0
 40
63.65192877376747
  0
CIRCLE
  5
23F
330
1F
100
AcDbEntity
  8
0
  6
Continuous
 62
     8
370
    18
100
AcDbCircle
 10
141.0387122845
 20
108.6738362069
 30
0.0
 40
60.00000000000008
  0
INSERT
  5
24B
330
1F
100
AcDbEntity
  8
0
  6
Continuous
 62
     7
370
     0
100
AcDbBlockReference
  2
SW_CENTERMARKSYMBOL_0
 10
141.0387122845
 20
108.6738362069
 30
0.0
  0
LINE
  5
24C
330
1F
100
AcDbEntity
  8
0
  6
CENTER
 62
     7
370
    18
100
AcDbLine
 10
225.0980334052
 20
108.6738362069
 30
0.0
 11
56.9793911638
 21
108.6738362069
 31
0.0
  0
LINE
  5
24D
330
1F
100
AcDbEntity
  8
0
  6
Continuous
 62
     7
370
    18
100
AcDbLine
 10
223.0980334052
 20
101.0738362069
 30
0.0
 11
223.0980334052
 21
108.6738362069
 31
0.0
  0
SOLID
  5
24E
330
1F
100
AcDbEntity
  8
0
  6
Continuous
 62
     7
370
    18
100
AcDbTrace
 10
223.0980334052
 20
108.6738362069
 30
0.0
 11
222.2980334052
 21
103.6738362069
 31
0.0
 12
223.8980334052
 22
103.6738362069
 32
0.0
 13
223.8980334052
 23
103.6738362069
 33
0.0
  0
LINE
  5
24F
330
1F
100
AcDbEntity
  8
0
  6
Continuous
 62
     7
370
    18
100
AcDbLine
 10
58.9793911638
 20
101.0738362069
 30
0.0
 11
58.9793911638
 21
108.6738362069
 31
0.0
  0
SOLID
  5
250
330
1F
100
AcDbEntity
  8
0
  6
Continuous
 62
     7
370
    18
100
AcDbTrace
 10
58.9793911638
 20
108.6738362069
 30
0.0
 11
58.1793911638
 21
103.6738362069
 31
0.0
 12
59.7793911638
 22
103.6738362069
 32
0.0
 13
59.7793911638
 23
103.6738362069
 33
0.0
  0
MTEXT
  5
251
330
1F
100
AcDbEntity
  8
0
  6
Continuous
 62
     7
100
AcDbMText
 10
221.0123941758
 20
99.6007237715
 30
0.0
 40
5.0
 41
0.0
 71
     1
 72
     1
  1
A
  7
SLDTEXTSTYLE0
 73
     1
 44
1.0
  0
MTEXT
  5
252
330
1F
100
AcDbEntity
  8
0
  6
Continuous
 62
     7
100
AcDbMText
 10
56.6979980788
 20
99.274279806
 30
0.0
 40
5.0
 41
0.0
 71
     1
 72
     1
  1
A
  7
SLDTEXTSTYLE0
 73
     1
 44
1.0
  0
LINE
  5
253
330
1F
100
AcDbEntity
  8
0
  6
Continuous
 62
     7
370
    25
100
AcDbLine
 10
241.4403394397
 20
171.7865752249
 30
0.0
 11
241.4403394397
 21
168.5043775369
 31
0.0
  0
LINE
  5
254
330
1F
100
AcDbEntity
  8
0
  6
Continuous
 62
     7
370
    25
100
AcDbLine
 10
397.4403394397
 20
168.5043775369
 30
0.0
 11
397.4403394397
 21
171.7865752249
 31
0.0
  0
LWPOLYLINE
  5
255
330
1F
100
AcDbEntity
  8
0
  6
Continuous
 62
     7
370
    25
100
AcDbPolyline
 90
       23
 70
   128
 43
0.0
 10
241.5168212016
 20
166.6342091683
 10
241.5638751388
 20
165.9070519785
 10
241.7722947938
 20
164.2498284879
 10
242.0813590284
 20
162.5985615737
 10
242.4907744181
 20
160.9550782354
 10
243.0002051222
 20
159.3212450487
 10
243.6092451697
 20
157.6989916666
 10
244.3173856294
 20
156.0903237088
 10
245.123981452
 20
154.4973239704
 10
246.0282224457
 20
152.9221426066
 10
247.0291117981
 20
151.3669784401
 10
248.1254540333
 20
149.8340545401
 10
249.3158526537
 20
148.3255915712
 10
250.598716299
 20
146.8437821232
 10
251.9722713166
 20
145.3907684737
 10
253.4345782549
 20
143.9686252363
 10
254.9835499079
 20
142.5793473693
 10
256.6169689916
 20
141.2248432315
 10
258.3325041419
 20
139.9069318635
 10
260.127723518
 20
138.627343441
 10
262.0001057975
 20
137.3877218357
 10
263.9470486967
 20
136.1896283486
 10
264.7003053368
 20
135.7487715629
  0
LWPOLYLINE
  5
256
330
1F
100
AcDbEntity
  8
0
  6
Continuous
 62
     7
370
    25
100
AcDbPolyline
 90
       66
 70
   128
 43
0.0
 10
264.7003053368
 20
135.7487715629
 10
265.770747476
 20
135.1425706241
 10
267.8522294148
 20
134.0276339994
 10
270.0002129175
 20
132.958373347
 10
272.2118849711
 20
131.9360299861
 10
274.4843197989
 20
130.9618093632
 10
276.8145309274
 20
130.0368546292
 10
279.1994728514
 20
129.1622476059
 10
281.6360428185
 20
128.3390092355
 10
284.1210828152
 20
127.5680996089
 10
286.651381799
 20
126.8504176634
 10
289.2236781986
 20
126.1868006355
 10
291.8346626854
 20
125.5780233425
 10
294.4809812081
 20
125.0247973541
 10
297.1592382746
 20
124.5277701105
 10
299.8660004597
 20
124.0875240257
 10
302.5978001175
 20
123.704575616
 10
305.3511392725
 20
123.379374678
 10
308.1224936674
 20
123.1123035408
 10
310.9083169434
 20
122.9036764087
 10
313.7050449297
 20
122.7537388089
 10
316.5091000221
 20
122.6626671539
 10
319.3168956289
 20
122.6305684269
 10
322.1248406635
 20
122.6574799954
 10
324.9293356643
 20
122.7433692115
 10
327.7267842256
 20
122.888133033
 10
330.5136092257
 20
123.0915990455
 10
333.2862472754
 20
123.3535258303
 10
336.0411531649
 20
123.6736034571
 10
338.7748042445
 20
124.051454107
 10
341.4837047192
 20
124.4866328218
 10
344.1643898328
 20
124.9786283719
 10
346.8134299205
 20
125.5268642316
 10
349.4274343028
 20
126.13069965
 10
352.0030549969
 20
126.7894307968
 10
354.5369902178
 20
127.5022919618
 10
357.0259876407
 20
128.2684567744
 10
359.4668473979
 20
129.0870394068
 10
361.8564247837
 20
129.9570957094
 10
364.1916326454
 20
130.8776242166
 10
366.4694434433
 20
131.84756695
 10
368.686890976
 20
132.8658099233
 10
370.8410717834
 20
133.931183246
 10
372.9291462632
 20
135.0424606978
 10
374.9483395747
 20
136.1983586409
 10
376.8959424493
 20
137.3975341244
 10
378.7693120882
 20
138.6385820465
 10
380.5658489039
 20
139.9200131223
 10
382.2830136227
 20
141.2402538651
 10
383.9183695488
 20
142.5976698599
 10
385.4695597049
 20
143.9905410087
 10
386.9343146476
 20
145.4170547021
 10
388.3104631278
 20
146.8752995868
 10
389.5959459114
 20
148.3632609762
 10
390.7888327575
 20
149.8788192129
 10
391.8873420461
 20
151.4197524374
 10
392.8898618924
 20
152.9837451452
 10
393.7949708555
 20
154.5684035256
 10
394.6014557208
 20
156.1712778264
 10
395.3083234947
 20
157.7898909063
 10
395.9148049216
 20
159.4217708947
 10
396.4203476307
 20
161.0644847299
 10
396.8245984032
 20
162.7156686241
 10
397.1273758024
 20
164.3730514444
 10
397.3286361485
 20
166.0344677095
 10
397.3712338552
 20
166.7444467412
  0
ARC
  5
257
330
1F
100
AcDbEntity
  8
0
  6
Continuous
 62
     7
370
    25
100
AcDbCircle
 10
374.9041016675
 20
158.2408819086
 30
0.0
 40
22.49165783739406
100
AcDbArc
 50
2.8599712688
 51
12.2807110634
  0
ARC
  5
258
330
1F
100
AcDbEntity
  8
0
  6
Continuous
 62
     7
370
    25
100
AcDbCircle
 10
264.0262708139
 20
158.2477425159
 30
0.0
 40
22.54145117157472
100
AcDbArc
 50
167.7342822865
 51
177.0131987297
  0
LINE
  5
259
330
1F
100
AcDbEntity
  8
0
  6
Continuous
 62
     7
370
    25
100
AcDbLine
 10
241.4403394397
 20
157.5491353941
 30
0.0
 11
241.4403394397
 21
154.2669377063
 31
0.0
  0
LINE
  5
25A
330
1F
100
AcDbEntity
  8
0
  6
Continuous
 62
     7
370
    25
100
AcDbLine
 10
397.4403394397
 20
154.2669377063
 30
0.0
 11
397.4403394397
 21
157.5491353941
 31
0.0
  0
LWPOLYLINE
  5
25B
330
1F
100
AcDbEntity
  8
0
  6
Continuous
 62
     7
370
    25
100
AcDbPolyline
 90
       35
 70
   128
 43
0.0
 10
346.1650365119
 20
201.6902286684
 10
347.4173640041
 20
201.3583345682
 10
349.4643934952
 20
200.7640941297
 10
351.479462734
 20
200.1261068373
 10
353.4580460341
 20
199.4453155691
 10
355.3959634525
 20
198.7227709692
 10
357.2893363444
 20
197.9596209652
 10
359.1345551773
 20
197.1571010183
 10
360.9282562097
 20
196.3165246355
 10
362.6673046137
 20
195.4392737436
 10
364.3487822608
 20
194.5267885679
 10
365.969978813
 20
193.5805566727
 10
367.5283850216
 20
192.6021008299
 10
369.0216872894
 20
191.5929653842
 10
370.4477626181
 20
190.5547007843
 10
371.8046000208
 20
189.4889055985
 10
373.0904324451
 20
188.3971082452
 10
374.3036645295
 20
187.2807856823
 10
375.4428593967
 20
186.1413388538
 10
376.5067215
 20
184.9800648196
 10
377.4940729044
 20
183.7981268662
 10
378.4038212728
 20
182.5965237966
 10
379.2349177636
 20
181.3760606005
 10
379.9863033004
 20
180.1373241127
 10
380.6568424709
 20
178.8806691689
 10
381.245246015
 20
177.606223095
 10
381.7499859511
 20
176.3139187535
 10
382.1692122807
 20
175.0035678224
 10
382.5006868545
 20
173.6749845881
 10
382.7417570473
 20
172.3281633984
 10
382.8893957446
 20
170.963497262
 10
382.9403286768
 20
169.5820013132
 10
382.8912495443
 20
168.1854812377
 10
382.739156705
 20
166.777048004
 10
382.5753224237
 20
165.8757094122
  0
LWPOLYLINE
  5
25C
330
1F
100
AcDbEntity
  8
0
  6
Continuous
 62
     7
370
    25
100
AcDbPolyline
 90
        3
 70
   128
 43
0.0
 10
382.0362794011
 20
163.6967473903
 10
381.6442727353
 20
162.5182545889
 10
381.1751632571
 20
161.3742255686
  0
LWPOLYLINE
  5
25D
330
1F
100
AcDbEntity
  8
0
  6
Continuous
 62
     7
370
    25
100
AcDbPolyline
 90
        3
 70
   128
 43
0.0
 10
257.6510828277
 20
161.4831234553
 10
257.6354328643
 20
161.5170203183
 10
257.2681890368
 20
162.4572882835
  0
LWPOLYLINE
  5
25E
330
1F
100
AcDbEntity
  8
0
  6
Continuous
 62
     7
370
    25
100
AcDbPolyline
 90
       35
 70
   128
 43
0.0
 10
256.4834141004
 20
165.0337328054
 10
256.3799920248
 20
165.4482588252
 10
256.138921832
 20
166.7950800149
 10
255.9912831347
 20
168.1597461513
 10
255.9403502025
 20
169.5412421
 10
255.989429335
 20
170.9377621755
 10
256.1415221743
 20
172.3461954093
 10
256.3989970741
 20
173.7627003175
 10
256.7635912397
 20
175.1835615636
 10
257.236406144
 20
176.6049888244
 10
257.8179897863
 20
178.0233114026
 10
258.4306229975
 20
179.2868193963
 10
259.1264502438
 20
180.5363062948
 10
259.9044760435
 20
181.7706952755
 10
260.7637884555
 20
182.9889321855
 10
261.703471465
 20
184.1898579909
 10
262.7225640006
 20
185.3721999949
 10
263.8200252514
 20
186.5345773477
 10
264.9947075616
 20
187.6755152583
 10
266.2453367491
 20
188.7934636841
 10
267.5704989871
 20
189.8868175985
 10
268.9686331068
 20
190.9539369838
 10
270.4380271425
 20
191.9931654691
 10
271.976770024
 20
193.002816711
 10
273.5828138015
 20
193.9812352587
 10
275.254014005
 20
194.9268251416
 10
276.988081969
 20
195.8380238588
 10
278.7825907669
 20
196.7133131116
 10
280.6349784856
 20
197.5512264407
 10
282.542550471
 20
198.3503555264
 10
284.5024797746
 20
199.1093553483
 10
286.5118047613
 20
199.8269483887
 10
288.5674223418
 20
200.5019280367
 10
290.6660743761
 20
201.1331613221
 10
292.6995285942
 20
201.6908504435
  0
LWPOLYLINE
  5
25F
330
1F
100
AcDbEntity
  8
0
  6
Continuous
 62
     7
370
    25
100
AcDbPolyline
 90
       51
 70
   128
 43
0.0
 10
377.1854844762
 20
154.8707065522
 10
377.0518228435
 20
154.6982575188
 10
375.931719818
 20
153.3951231997
 10
374.7221728036
 20
152.1183712788
 10
373.4250373591
 20
150.8699747607
 10
372.042302345
 20
149.6518811176
 10
370.5760921887
 20
148.4660083326
 10
369.0286675811
 20
147.3142397696
 10
367.4024246561
 20
146.1984184744
 10
365.699892836
 20
145.1203413547
 10
363.923740639
 20
144.0817586315
 10
362.0767606275
 20
143.0843609333
 10
360.1618565339
 20
142.1297712267
 10
358.1820480331
 20
141.2195468989
 10
356.1404652243
 20
140.3551757718
 10
354.0403428367
 20
139.5380725511
 10
351.885014245
 20
138.769575678
 10
349.6779053543
 20
138.0509445425
 10
347.4225283961
 20
137.3833570179
 10
345.1224756615
 20
136.7679072807
 10
342.7814131888
 20
136.2056038828
 10
340.4030744171
 20
135.6973680498
 10
337.9912538112
 20
135.2440321823
 10
335.549800463
 20
134.8463385426
 10
333.0826116702
 20
134.5049381144
 10
330.5936264968
 20
134.2203896216
 10
328.0868193155
 20
133.9931587011
 10
325.5661933351
 20
133.8236172213
 10
323.0357741165
 20
133.7120427426
 10
320.4996030788
 20
133.6586181157
 10
317.9617310011
 20
133.6634312165
 10
315.4262120218
 20
133.726474795
 10
312.897101664
 20
133.8476461502
 10
310.378439706
 20
134.0267475559
 10
307.8742492558
 20
134.2634865805
 10
305.3885302873
 20
134.557476484
 10
302.9252531939
 20
134.9082367468
 10
300.4883523641
 20
135.3151937313
 10
298.0817197807
 20
135.7776814786
 10
295.709198648
 20
136.2949426429
 10
293.3745770456
 20
136.8661295683
 10
291.081581612
 20
137.4903055151
 10
288.8338712568
 20
138.1664460437
 10
286.635030901
 20
138.8934405697
 10
284.4885652473
 20
139.6700941061
 10
282.39789258
 20
140.4951292146
 10
280.366338598
 20
141.3671881942
 10
278.3971302906
 20
142.2848355424
 10
276.4933898696
 20
143.2465607311
 10
274.7528462
 20
144.1969630462
 10
274.3472321662
 20
144.4290258218
  0
ARC
  5
260
330
1F
100
AcDbEntity
  8
0
  6
Continuous
 62
     7
370
    25
100
AcDbCircle
 10
296.4528415556
 20
184.1687765559
 30
0.0
 40
45.4742317679745
100
AcDbArc
 50
221.6961915912
 51
240.9145895141
  0
LINE
  5
261
330
1F
100
AcDbEntity
  8
0
  6
Continuous
 62
     7
370
    25
100
AcDbLine
 10
344.8517678223
 20
129.8582084502
 30
0.0
 11
344.8517678223
 21
129.9652919522
 31
0.0
  0
LINE
  5
262
330
1F
100
AcDbEntity
  8
0
  6
Continuous
 62
     7
370
    25
100
AcDbLine
 10
332.8517678223
 20
129.9652919522
 30
0.0
 11
332.8517678223
 21
129.5900955052
 31
0.0
  0
LINE
  5
263
330
1F
100
AcDbEntity
  8
0
  6
Continuous
 62
     7
370
    25
100
AcDbLine
 10
306.028911057
 20
129.5903802892
 30
0.0
 11
306.028911057
 21
129.9652919522
 31
0.0
  0
LINE
  5
264
330
1F
100
AcDbEntity
  8
0
  6
Continuous
 62
     7
370
    25
100
AcDbLine
 10
294.028911057
 20
129.9652919522
 30
0.0
 11
294.028911057
 21
129.8585367242
 31
0.0
  0
ARC
  5
265
330
1F
100
AcDbEntity
  8
0
  6
Continuous
 62
     7
370
    25
100
AcDbCircle
 10
355.1023713128
 20
166.2739103104
 30
0.0
 40
24.00424872955467
100
AcDbArc
 50
321.301095271
 51
346.1895032184
  0
ARC
  5
266
330
1F
100
AcDbEntity
  8
0
  6
Continuous
 62
     7
370
    25
100
AcDbCircle
 10
283.4791173782
 20
166.1246629798
 30
0.0
 40
23.67277484554654
100
AcDbArc
 50
195.6326896929
 51
218.9335487721
  0
LWPOLYLINE
  5
267
330
1F
100
AcDbEntity
  8
0
  6
Continuous
 62
     7
370
    25
100
AcDbPolyline
 90
       54
 70
   128
 43
0.0
 10
265.0561617188
 20
174.8036455339
 10
265.2549832091
 20
174.9976214038
 10
266.6249732474
 20
176.2203970809
 10
268.07876673
 20
177.4112383592
 10
269.6141234485
 20
178.5682563107
 10
271.2286675371
 20
179.6896014512
 10
272.9198894412
 20
180.7734695647
 10
274.6851426527
 20
181.8181037628
 10
276.5216501514
 20
182.8218024964
 10
278.4265261021
 20
183.7829333062
 10
280.3967679278
 20
184.6999286738
 10
282.4292617764
 20
185.5712900749
 10
284.5207882805
 20
186.3955915937
 10
286.6680285172
 20
187.1714831295
 10
288.8675701069
 20
187.897693235
 10
291.1159134055
 20
188.5730316279
 10
293.4094777637
 20
189.1963914114
 10
295.7446078325
 20
189.7667510385
 10
298.1175799059
 20
190.283176046
 10
300.5246082911
 20
190.7448205823
 10
302.9618517044
 20
191.1509287479
 10
305.4254196891
 20
191.5008357611
 10
307.911379052
 20
191.7939689619
 10
310.415760319
 20
192.0298486626
 10
312.9345642052
 20
192.2080888507
 10
315.4637680975
 20
192.3283977492
 10
317.9993325472
 20
192.3905782392
 10
320.5372077681
 20
192.3945281456
 10
323.0733401361
 20
192.3402403889
 10
325.603673068
 20
192.2278033197
 10
328.1241644276
 20
192.0574003946
 10
330.6307881854
 20
191.8293098201
 10
333.1195404751
 20
191.5439041792
 10
335.5864460419
 20
191.2016499227
 10
338.0275646714
 20
190.8031067272
 10
340.4389975933
 20
190.3489267193
 10
342.816893859
 20
189.839853562
 10
345.1574566918
 20
189.2767213999
 10
347.4569498075
 20
188.6604536556
 10
349.711703707
 20
187.9920616703
 10
351.9181219398
 20
187.2726431756
 10
354.0726873382
 20
186.5033805805
 10
356.1719682225
 20
185.6855390531
 10
358.2126245731
 20
184.82046437
 10
360.1914141614
 20
183.9095804987
 10
362.1051986284
 20
182.9543868718
 10
363.9509494847
 20
181.9564553024
 10
365.7257539934
 20
180.9174264835
 10
367.4268208788
 20
179.8390060079
 10
369.0514857704
 20
178.7229598452
 10
370.5972070374
 20
177.5711163841
 10
372.0615788916
 20
176.3853565641
 10
373.44234447
 20
175.1675999179
 10
373.8094912585
 20
174.8138483515
  0
LWPOLYLINE
  5
268
330
1F
100
AcDbEntity
  8
0
  6
Continuous
 62
     7
370
    25
100
AcDbPolyline
 90
       55
 70
   128
 43
0.0
 10
260.7127057556
 20
166.4143906673
 10
260.8473085831
 20
166.9102195817
 10
261.3236531804
 20
168.2881960319
 10
261.8985470548
 20
169.6535452107
 10
262.5709020841
 20
171.0039701985
 10
263.3394927177
 20
172.3372437951
 10
264.2029666693
 20
173.6511958175
 10
265.1598483928
 20
174.9436998838
 10
266.208537256
 20
176.2126627126
 10
267.347302758
 20
177.4560174032
 10
268.5742788757
 20
178.6717208988
 10
269.8874590417
 20
179.8577550508
 10
271.2846926279
 20
181.0121303578
 10
272.7636832943
 20
182.1328914248
 10
274.3219892116
 20
183.2181233223
 10
275.9570249603
 20
184.265958226
 10
277.666057897
 20
185.2745779924
 10
279.4462149404
 20
186.2422230665
 10
281.2945069319
 20
187.1672079722
 10
283.2078197509
 20
188.0479167191
 10
285.1829204348
 20
188.8828073625
 10
287.2164636332
 20
189.6704160409
 10
289.3049982849
 20
190.4093605309
 10
291.4449744429
 20
191.0983433707
 10
293.6327501979
 20
191.7361546032
 10
295.8645986652
 20
192.3216741833
 10
298.1367150166
 20
192.8538740917
 10
300.4452235455
 20
193.3318201871
 10
302.7861847557
 20
193.754673824
 10
305.1556024736
 20
194.1216932588
 10
307.5494309784
 20
194.4322348608
 10
309.9635821499
 20
194.6857541395
 10
312.3939326319
 20
194.8818066004
 10
314.8363310077
 20
195.0200484344
 10
317.2866049862
 20
195.1002370475
 10
319.7405685944
 20
195.1222314345
 10
322.1940293712
 20
195.0859923997
 10
324.6427914111
 20
194.991582835
 10
327.0826684015
 20
194.8391677028
 10
329.5094916996
 20
194.6290135218
 10
331.9191149664
 20
194.3614879932
 10
334.3074213084
 20
194.0370594707
 10
336.6703303993
 20
193.65629628
 10
339.0038055756
 20
193.2198658863
 10
341.3038609053
 20
192.728533905
 10
343.5665682289
 20
192.1831629518
 10
345.7880641706
 20
191.5847113234
 10
347.9645571224
 20
190.9342314979
 10
350.0923342007
 20
190.2328684401
 10
352.1677681759
 20
189.4818576909
 10
354.1873243754
 20
188.6825232132
 10
356.147567556
 20
187.8362749605
 10
358.0451687364
 20
186.9446061218
 10
359.8769119711
 20
186.0090899896
 10
361.6167666277
 20
185.0446233593
  0
LWPOLYLINE
  5
269
330
1F
100
AcDbEntity
  8
0
  6
Continuous
 62
     7
370
    25
100
AcDbPolyline
 90
       18
 70
   128
 43
0.0
 10
361.6167666277
 20
185.0446233593
 10
362.5154939936
 20
184.5144647346
 10
364.1683387174
 20
183.4762522935
 10
365.7450715176
 20
182.4002661262
 10
367.2430081021
 20
181.2884249386
 10
368.6596565024
 20
180.1426760351
 10
369.9926868898
 20
178.9650061805
 10
371.2399242499
 20
177.7574405603
 10
372.399350272
 20
176.522034131
 10
373.469103341
 20
175.2608627368
 10
374.4474762782
 20
173.9760146133
 10
375.3329116326
 20
172.6695831927
 10
376.1239946488
 20
171.3436624214
 10
376.8194445591
 20
170.000345991
 10
377.4181055622
 20
168.6417318056
 10
377.9189396273
 20
167.2699324867
 10
378.3210238662
 20
165.8870915685
 10
378.3696211868
 20
165.6635368285
  0
LINE
  5
26A
330
1F
100
AcDbEntity
  8
0
  6
Continuous
 62
     7
370
    25
100
AcDbLine
 10
366.4733480286
 20
141.1712710315
 30
0.0
 11
366.4733480286
 21
140.5544519534
 31
0.0
  0
LINE
  5
26B
330
1F
100
AcDbEntity
  8
0
  6
Continuous
 62
     7
370
    25
100
AcDbLine
 10
272.4073308507
 20
140.5551721733
 30
0.0
 11
272.4073308507
 21
141.1712710315
 31
0.0
  0
LINE
  5
26C
330
1F
100
AcDbEntity
  8
0
  6
Continuous
 62
     7
370
    25
100
AcDbLine
 10
385.8847764113
 20
160.5805961455
 30
0.0
 11
385.8847764113
 21
159.7996354882
 31
0.0
  0
LINE
  5
26D
330
1F
100
AcDbEntity
  8
0
  6
Continuous
 62
     7
370
    25
100
AcDbLine
 10
252.995902468
 20
159.7996354882
 30
0.0
 11
252.995902468
 21
160.5805961455
 31
0.0
  0
LINE
  5
26E
330
1F
100
AcDbEntity
  8
0
  6
Continuous
 62
     7
370
    25
100
AcDbLine
 10
385.8847764113
 20
182.9925543042
 30
0.0
 11
385.8847764113
 21
182.2115936469
 31
0.0
  0
LINE
  5
26F
330
1F
100
AcDbEntity
  8
0
  6
Continuous
 62
     7
370
    25
100
AcDbLine
 10
252.995902468
 20
182.2115936469
 30
0.0
 11
252.995902468
 21
182.9925543042
 31
0.0
  0
LINE
  5
270
330
1F
100
AcDbEntity
  8
0
  6
Continuous
 62
     7
370
    25
100
AcDbLine
 10
366.4733480286
 20
202.4018794182
 30
0.0
 11
366.4733480286
 21
201.78578056
 31
0.0
  0
LINE
  5
271
330
1F
100
AcDbEntity
  8
0
  6
Continuous
 62
     7
370
    25
100
AcDbLine
 10
272.4073308507
 20
201.7850603401
 30
0.0
 11
272.4073308507
 21
202.4018794182
 31
0.0
  0
LINE
  5
272
330
1F
100
AcDbEntity
  8
0
  6
Continuous
 62
     7
370
    25
100
AcDbLine
 10
344.8517678223
 20
213.5011032696
 30
0.0
 11
344.8517678223
 21
213.6078584976
 31
0.0
  0
LINE
  5
273
330
1F
100
AcDbEntity
  8
0
  6
Continuous
 62
     7
370
    25
100
AcDbLine
 10
332.8517678223
 20
213.6078584976
 30
0.0
 11
332.8517678223
 21
213.2329468346
 31
0.0
  0
LINE
  5
274
330
1F
100
AcDbEntity
  8
0
  6
Continuous
 62
     7
370
    25
100
AcDbLine
 10
306.028911057
 20
213.2326620506
 30
0.0
 11
306.028911057
 21
213.6078584976
 31
0.0
  0
LINE
  5
275
330
1F
100
AcDbEntity
  8
0
  6
Continuous
 62
     7
370
    25
100
AcDbLine
 10
294.028911057
 20
213.6078584976
 30
0.0
 11
294.028911057
 21
213.5007749956
 31
0.0
  0
LWPOLYLINE
  5
276
330
1F
100
AcDbEntity
  8
0
  6
Continuous
 62
     7
370
    25
100
AcDbPolyline
 90
       20
 70
   128
 43
0.0
 10
294.0490855396
 20
213.5010725021
 10
294.066147902
 20
213.0603031839
 10
294.259914132
 20
212.4078605754
 10
294.6265565793
 20
211.763441791
 10
295.1363502883
 20
211.1800948647
 10
295.8036815034
 20
210.6423158879
 10
296.5716436978
 20
210.1961935902
 10
297.4635051978
 20
209.8286656948
 10
298.3994235364
 20
209.5724377988
 10
299.4107854417
 20
209.4187670025
 10
300.4055091568
 20
209.3811582971
 10
301.4187512635
 20
209.4576018772
 10
302.3604363411
 20
209.6407028219
 10
303.2626312444
 20
209.9357465048
 10
304.0493253707
 20
210.3174662056
 10
304.7438564441
 20
210.796465486
 10
305.2906019553
 20
211.3345717771
 10
305.7026598714
 20
211.9449029837
 10
305.9472881467
 20
212.5803848555
 10
306.0261042541
 20
213.2327915018
  0
ARC
  5
277
330
1F
100
AcDbEntity
  8
0
  6
Continuous
 62
     7
370
    25
100
AcDbCircle
 10
319.4403394397
 20
82.7469596984
 30
0.0
 40
134.0693333585762
100
AcDbArc
 50
83.5650835037
 51
96.4349164963
  0
LWPOLYLINE
  5
278
330
1F
100
AcDbEntity
  8
0
  6
Continuous
 62
     7
370
    25
100
AcDbPolyline
 90
       21
 70
   128
 43
0.0
 10
332.8724147621
 20
213.2330675708
 10
332.8781052781
 20
212.8609233204
 10
333.0626213624
 20
212.1913773865
 10
333.4057840162
 20
211.5733821014
 10
333.9181111051
 20
210.9886490125
 10
334.5533436905
 20
210.4893895585
 10
335.3324177732
 20
210.0587673624
 10
336.1838265975
 20
209.7355919044
 10
337.1370000386
 20
209.5078629019
 10
338.106692527
 20
209.3953047467
 10
339.1252448395
 20
209.3932399971
 10
340.1066524393
 20
209.5014630461
 10
341.0796806079
 20
209.7225179658
 10
341.9667726304
 20
210.0388328527
 10
342.7895999731
 20
210.4581473443
 10
343.4840764112
 20
210.9483649527
 10
344.064906627
 20
211.5207453676
 10
344.4858242777
 20
212.1307576132
 10
344.7554942692
 20
212.7929190109
 10
344.8513252511
 20
213.453250242
 10
344.8459577163
 20
213.500854756
  0
ARC
  5
279
330
1F
100
AcDbEntity
  8
0
  6
Continuous
 62
     7
370
    25
100
AcDbCircle
 10
325.7268069027
 20
114.0923805381
 30
0.0
 40
102.0749549012793
100
AcDbArc
 50
63.8443731407
 51
79.289454124
  0
LWPOLYLINE
  5
27A
330
1F
100
AcDbEntity
  8
0
  6
Continuous
 62
     7
370
    25
100
AcDbPolyline
 90
       19
 70
   128
 43
0.0
 10
366.495539037
 20
201.7857249094
 10
366.4934097863
 20
201.470826014
 10
366.6577465604
 20
200.8478861521
 10
366.9957805492
 20
200.244465461
 10
367.4757401759
 20
199.7153489034
 10
368.1134428975
 20
199.2415371685
 10
368.8513144776
 20
198.8648465551
 10
369.7133039297
 20
198.5718925039
 10
370.6264576292
 20
198.3870576568
 10
371.6172607808
 20
198.304339732
 10
372.6070037237
 20
198.330338699
 10
373.6201245709
 20
198.4656617915
 10
374.5783647711
 20
198.7002309492
 10
375.5028664401
 20
199.0397609437
 10
376.3209096953
 20
199.4581260378
 10
377.050864882
 20
199.965661638
 10
377.6326800402
 20
200.5211720052
 10
378.0812153242
 20
201.1398593784
 10
378.2122255965
 20
201.3911667921
  0
ARC
  5
27B
330
1F
100
AcDbEntity
  8
0
  6
Continuous
 62
     7
370
    25
100
AcDbCircle
 10
352.7464890799
 20
160.8969142502
 30
0.0
 40
47.83605570344135
100
AcDbArc
 50
32.1708815813
 51
57.8353268721
  0
LWPOLYLINE
  5
27C
330
1F
100
AcDbEntity
  8
0
  6
Continuous
 62
     7
370
    25
100
AcDbPolyline
 90
       16
 70
   128
 43
0.0
 10
385.9042066296
 20
182.2323606127
 10
385.8966069188
 20
182.0053453142
 10
386.0479669918
 20
181.4094783666
 10
386.3563055695
 20
180.8709560152
 10
386.8307627836
 20
180.3712753469
 10
387.4309837864
 20
179.952345986
 10
388.1740770169
 20
179.6014224211
 10
389.0012700578
 20
179.346370869
 10
389.9332194968
 20
179.1808231445
 10
390.8984637712
 20
179.1178604602
 10
391.9189174177
 20
179.1565374218
 10
392.9148922479
 20
179.2943033482
 10
393.909541727
 20
179.5350705862
 10
394.8214441596
 20
179.8595270759
 10
395.674581699
 20
180.2768667812
 10
395.979392513
 20
180.4607597436
  0
ARC
  5
27D
330
1F
100
AcDbEntity
  8
0
  6
Continuous
 62
     7
370
    25
100
AcDbCircle
 10
370.8418153581
 20
171.7865752249
 30
0.0
 40
26.5920902202953
100
AcDbArc
 50
340.9620615188
 51
19.0379384812
  0
LWPOLYLINE
  5
27E
330
1F
100
AcDbEntity
  8
0
  6
Continuous
 62
     7
370
    25
100
AcDbPolyline
 90
       13
 70
   128
 43
0.0
 10
385.9017806249
 20
159.8200531289
 10
385.8910121249
 20
159.6682291952
 10
386.0174716981
 20
159.1368941386
 10
386.3137437763
 20
158.6251976229
 10
386.7567412081
 20
158.1736682119
 10
387.3578041392
 20
157.770988345
 10
388.0714160641
 20
157.4483338439
 10
388.9143919576
 20
157.1987684875
 10
389.8214277113
 20
157.0421695506
 10
390.8142559581
 20
156.9755062287
 10
391.8119021448
 20
157.004586527
 10
392.8410444248
 20
157.1307680819
 10
393.2379819691
 20
157.2061119582
  0
ARC
  5
27F
330
1F
100
AcDbEntity
  8
0
  6
Continuous
 62
     7
370
    25
100
AcDbCircle
 10
352.7464890861
 20
182.6762361934
 30
0.0
 40
47.83605569495196
100
AcDbArc
 50
302.1646731256
 51
327.829118421
  0
LWPOLYLINE
  5
280
330
1F
100
AcDbEntity
  8
0
  6
Continuous
 62
     7
370
    25
100
AcDbPolyline
 90
       10
 70
   128
 43
0.0
 10
366.482890723
 20
140.5541185574
 10
366.4748368671
 20
140.4854393063
 10
366.5839589634
 20
139.9729053375
 10
366.8547267997
 20
139.4979832577
 10
367.2943502303
 20
139.0500205944
 10
367.8694074099
 20
138.6641659258
 10
368.5943868975
 20
138.3317856167
 10
369.4104583481
 20
138.0803132218
 10
370.3398475259
 20
137.9035417349
 10
370.7225527061
 20
137.8582875305
  0
ARC
  5
281
330
1F
100
AcDbEntity
  8
0
  6
Continuous
 62
     7
370
    25
100
AcDbCircle
 10
325.726806913
 20
229.4807698808
 30
0.0
 40
102.0749548690008
100
AcDbArc
 50
280.7105458736
 51
296.1556268617
  0
LWPOLYLINE
  5
282
330
1F
100
AcDbEntity
  8
0
  6
Continuous
 62
     7
370
    25
100
AcDbPolyline
 90
        3
 70
   128
 43
0.0
 10
344.6971792466
 20
129.1841030118
 10
344.8408303936
 20
129.6790326579
 10
344.8315933397
 20
129.8579109437
  0
ARC
  5
283
330
1F
100
AcDbEntity
  8
0
  6
Continuous
 62
     7
370
    25
100
AcDbCircle
 10
335.1840330367
 20
129.830612931
 30
0.0
 40
2.341855548512803
100
AcDbArc
 50
185.8980717619
 51
252.1474957722
  0
ARC
  5
284
330
1F
100
AcDbEntity
  8
0
  6
Continuous
 62
     7
370
    25
100
AcDbCircle
 10
319.4403394397
 20
260.8261907019
 30
0.0
 40
134.0693333093927
100
AcDbArc
 50
263.5650835013
 51
276.4349164987
  0
ARC
  5
285
330
1F
100
AcDbEntity
  8
0
  6
Continuous
 62
     7
370
    25
100
AcDbCircle
 10
303.7650886378
 20
129.7549140677
 30
0.0
 40
2.249210381590786
100
AcDbArc
 50
286.7840645695
 51
355.8018798756
  0
LWPOLYLINE
  5
286
330
1F
100
AcDbEntity
  8
0
  6
Continuous
 62
     7
370
    25
100
AcDbPolyline
 90
        3
 70
   128
 43
0.0
 10
294.034721163
 20
129.8587852377
 10
294.1056052666
 20
129.3828737627
 10
294.1834996327
 20
129.1841030118
  0
ARC
  5
287
330
1F
100
AcDbEntity
  8
0
  6
Continuous
 62
     7
370
    25
100
AcDbCircle
 10
313.1538719668
 20
229.4807698823
 30
0.0
 40
102.0749548705582
100
AcDbArc
 50
243.8443731384
 51
259.2894541263
  0
LWPOLYLINE
  5
288
330
1F
100
AcDbEntity
  8
0
  6
Continuous
 62
     7
370
    25
100
AcDbPolyline
 90
        9
 70
   128
 43
0.0
 10
268.1581261732
 20
137.8582875305
 10
269.0882586637
 20
137.9953280796
 10
269.9667190616
 20
138.2206011845
 10
270.7197669379
 20
138.514870093
 10
271.3692434949
 20
138.8864602144
 10
271.861457116
 20
139.3050120485
 10
272.2091970982
 20
139.782194284
 10
272.3827841409
 20
140.2775192045
 10
272.3851398423
 20
140.5552278238
  0
ARC
  5
289
330
1F
100
AcDbEntity
  8
0
  6
Continuous
 62
     7
370
    25
100
AcDbCircle
 10
286.1341897941
 20
182.6762361943
 30
0.0
 40
47.83605569618664
100
AcDbArc
 50
212.1708815793
 51
237.8353268741
  0
LWPOLYLINE
  5
28A
330
1F
100
AcDbEntity
  8
0
  6
Continuous
 62
     7
370
    25
100
AcDbPolyline
 90
       12
 70
   128
 43
0.0
 10
245.6426969103
 20
157.2061119582
 10
246.6337843693
 20
157.0459709506
 10
247.6633270389
 20
156.9761069359
 10
248.6447428121
 20
157.0020824574
 10
249.6063748577
 20
157.1244602161
 10
250.4690637261
 20
157.3334306167
 10
251.2558831275
 20
157.6351149223
 10
251.8997073588
 20
158.0039995802
 10
252.4198026125
 20
158.4515769688
 10
252.7703955557
 20
158.9380362272
 10
252.9639775952
 20
159.4799647639
 10
252.9764722497
 20
159.8208556351
  0
ARC
  5
28B
330
1F
100
AcDbEntity
  8
0
  6
Continuous
 62
     7
370
    25
100
AcDbCircle
 10
268.0388635221
 20
171.7865752249
 30
0.0
 40
26.59209022104686
100
AcDbArc
 50
160.9620615194
 51
199.0379384806
  0
LWPOLYLINE
  5
28C
330
1F
100
AcDbEntity
  8
0
  6
Continuous
 62
     7
370
    25
100
AcDbPolyline
 90
       15
 70
   128
 43
0.0
 10
242.9012863663
 20
180.4607597436
 10
243.6877677097
 20
180.025657681
 10
244.592527524
 20
179.6565884537
 10
245.5393416303
 20
179.3842980959
 10
246.5554606346
 20
179.2007498537
 10
247.5574679647
 20
179.1212820048
 10
248.572539162
 20
179.1442430682
 10
249.514088399
 20
179.2678961713
 10
250.4104348512
 20
179.4963730079
 10
251.1820164156
 20
179.8092500759
 10
251.8553443322
 20
180.217081707
 10
252.3701084206
 20
180.682581084
 10
252.7456478056
 20
181.2219016689
 10
252.9494613032
 20
181.7867940996
 10
252.9788982544
 20
182.2327862497
  0
ARC
  5
28D
330
1F
100
AcDbEntity
  8
0
  6
Continuous
 62
     7
370
    25
100
AcDbCircle
 10
286.1341898003
 20
160.8969142493
 30
0.0
 40
47.83605570467579
100
AcDbArc
 50
122.1646731283
 51
147.8291184184
  0
LWPOLYLINE
  5
28E
330
1F
100
AcDbEntity
  8
0
  6
Continuous
 62
     7
370
    25
100
AcDbPolyline
 90
       18
 70
   128
 43
0.0
 10
260.6684532828
 20
201.3911667921
 10
261.0395914697
 20
200.7769997692
 10
261.5771387672
 20
200.1848290313
 10
262.2356531314
 20
199.6642204036
 10
263.0339908277
 20
199.2000051471
 10
263.9068295646
 20
198.8305290286
 10
264.8781650502
 20
198.5462252052
 10
265.8651519353
 20
198.3715650582
 10
266.8975742779
 20
198.3016926541
 10
267.8833998065
 20
198.3427273565
 10
268.8560559287
 20
198.4959519608
 10
269.7275591184
 20
198.7470182804
 10
270.5293724865
 20
199.1042214955
 10
271.1907263972
 20
199.5352865643
 10
271.7348214956
 20
200.0540478463
 10
272.1160080926
 20
200.6164197476
 10
272.3459430306
 20
201.2384189217
 10
272.3977881563
 20
201.7853937361
  0
ARC
  5
28F
330
1F
100
AcDbEntity
  8
0
  6
Continuous
 62
     7
370
    25
100
AcDbCircle
 10
313.1538719771
 20
114.0923805366
 30
0.0
 40
102.0749549028417
100
AcDbArc
 50
100.7105458761
 51
116.1556268591
  0
ARC
  5
290
330
1F
100
AcDbEntity
  8
0
  6
Continuous
 62
     7
370
    25
100
AcDbCircle
 10
272.6380968911
 20
170.2477172713
 30
0.0
 40
31.44175785044959
100
AcDbArc
 50
149.1579990175
 51
161.0450780935
  0
ARC
  5
291
330
1F
100
AcDbEntity
  8
0
  6
Continuous
 62
     7
370
    25
100
AcDbCircle
 10
272.6380968889
 20
173.3254331774
 30
0.0
 40
31.44175784798241
100
AcDbArc
 50
198.954921906
 51
210.842000983
  0
ARC
  5
292
330
1F
100
AcDbEntity
  8
0
  6
Continuous
 62
     7
370
    25
100
AcDbCircle
 10
301.0960022077
 20
203.5633424071
 30
0.0
 40
73.49869328096528
100
AcDbArc
 50
236.6299369586
 51
243.3754395741
  0
ARC
  5
293
330
1F
100
AcDbEntity
  8
0
  6
Continuous
 62
     7
370
    25
100
AcDbCircle
 10
318.5519756499
 20
252.859221601
 30
0.0
 40
126.0529951308253
100
AcDbArc
 50
258.8534418793
 51
263.560480255
  0
ARC
  5
294
330
1F
100
AcDbEntity
  8
0
  6
Continuous
 62
     7
370
    25
100
AcDbCircle
 10
320.3287032294
 20
252.8592216008
 30
0.0
 40
126.0529951306275
100
AcDbArc
 50
276.439519745
 51
281.1465581207
  0
ARC
  5
295
330
1F
100
AcDbEntity
  8
0
  6
Continuous
 62
     7
370
    25
100
AcDbCircle
 10
337.7846766717
 20
203.5633424068
 30
0.0
 40
73.49869328063623
100
AcDbArc
 50
296.6245604259
 51
303.3700630414
  0
ARC
  5
296
330
1F
100
AcDbEntity
  8
0
  6
Continuous
 62
     7
370
    25
100
AcDbCircle
 10
366.2425819906
 20
173.3254331773
 30
0.0
 40
31.44175784780484
100
AcDbArc
 50
329.157999017
 51
341.045078094
  0
ARC
  5
297
330
1F
100
AcDbEntity
  8
0
  6
Continuous
 62
     7
370
    25
100
AcDbCircle
 10
366.2425819884
 20
170.2477172714
 30
0.0
 40
31.44175785026239
100
AcDbArc
 50
18.9549219064
 51
30.8420009825
  0
ARC
  5
298
330
1F
100
AcDbEntity
  8
0
  6
Continuous
 62
     7
370
    25
100
AcDbCircle
 10
337.7846766638
 20
140.0098080292
 30
0.0
 40
73.4986932965073
100
AcDbArc
 50
56.6299369593
 51
63.3754395734
  0
ARC
  5
299
330
1F
100
AcDbEntity
  8
0
  6
Continuous
 62
     7
370
    25
100
AcDbCircle
 10
320.3287032237
 20
90.7139288122
 30
0.0
 40
126.0529951678568
100
AcDbArc
 50
78.85344188
 51
83.5604802543
  0
ARC
  5
29A
330
1F
100
AcDbEntity
  8
0
  6
Continuous
 62
     7
370
    25
100
AcDbCircle
 10
318.5519756556
 20
90.713928812
 30
0.0
 40
126.0529951680658
100
AcDbArc
 50
96.4395197457
 51
101.14655812
  0
ARC
  5
29B
330
1F
100
AcDbEntity
  8
0
  6
Continuous
 62
     7
370
    25
100
AcDbCircle
 10
301.0960022157
 20
140.0098080289
 30
0.0
 40
73.49869329684586
100
AcDbArc
 50
116.6245604266
 51
123.3700630407
  0
LWPOLYLINE
  5
29C
330
1F
100
AcDbEntity
  8
0
  6
Continuous
 62
     7
370
    25
100
AcDbPolyline
 90
        3
 70
   128
 43
0.0
 10
397.3863839361
 20
166.8298304258
 10
397.3970449743
 20
167.0043109757
 10
397.4403394397
 20
168.5043775369
  0
LWPOLYLINE
  5
29D
330
1F
100
AcDbEntity
  8
0
  6
Continuous
 62
     7
370
    25
100
AcDbPolyline
 90
        3
 70
   128
 43
0.0
 10
241.4403394397
 20
168.5043775369
 10
241.4624294536
 20
167.4328043041
 10
241.501291933
 20
166.7246009472
  0
ARC
  5
29E
330
1F
100
AcDbEntity
  8
0
  6
Continuous
 62
     7
370
    25
100
AcDbCircle
 10
267.4599773039
 20
157.5491379299
 30
0.0
 40
26.01962618669835
100
AcDbArc
 50
176.0725748233
 51
183.9084081213
  0
ARC
  5
29F
330
1F
100
AcDbEntity
  8
0
  6
Continuous
 62
     7
370
    25
100
AcDbCircle
 10
371.4195801399
 20
157.5491365833
 30
0.0
 40
26.02074317509134
100
AcDbArc
 50
356.2083577312
 51
3.8032801714
  0
ARC
  5
2A0
330
1F
100
AcDbEntity
  8
0
  6
Continuous
 62
     7
370
    25
100
AcDbCircle
 10
370.5976627538
 20
154.3277854437
 30
0.0
 40
26.84274565022056
100
AcDbArc
 50
341.0092800665
 51
359.8701205316
  0
ARC
  5
2A1
330
1F
100
AcDbEntity
  8
0
  6
Continuous
 62
     7
370
    25
100
AcDbCircle
 10
366.2425820054
 20
155.8057956508
 30
0.0
 40
31.4417578304628
100
AcDbArc
 50
329.1579990148
 51
341.0450780993
  0
ARC
  5
2A2
330
1F
100
AcDbEntity
  8
0
  6
Continuous
 62
     7
370
    25
100
AcDbCircle
 10
352.746489082
 20
165.156598679
 30
0.0
 40
47.83605570003165
100
AcDbArc
 50
302.1646731271
 51
327.8291184188
  0
ARC
  5
2A3
330
1F
100
AcDbEntity
  8
0
  6
Continuous
 62
     7
370
    25
100
AcDbCircle
 10
337.7846766874
 20
186.0437048584
 30
0.0
 40
73.49869324644897
100
AcDbArc
 50
296.624560425
 51
303.3700630441
  0
ARC
  5
2A4
330
1F
100
AcDbEntity
  8
0
  6
Continuous
 62
     7
370
    25
100
AcDbCircle
 10
325.72680691
 20
211.9611323722
 30
0.0
 40
102.0749548789124
100
AcDbArc
 50
280.7105458744
 51
296.1556268605
  0
ARC
  5
2A5
330
1F
100
AcDbEntity
  8
0
  6
Continuous
 62
     7
370
    25
100
AcDbCircle
 10
320.3287032355
 20
235.3395840331
 30
0.0
 40
126.0529950808069
100
AcDbArc
 50
276.4395197446
 51
281.1465581225
  0
ARC
  5
2A6
330
1F
100
AcDbEntity
  8
0
  6
Continuous
 62
     7
370
    25
100
AcDbCircle
 10
319.4403394402
 20
243.3065531943
 30
0.0
 40
134.0693333198293
100
AcDbArc
 50
263.5650835019
 51
276.4349164977
  0
ARC
  5
2A7
330
1F
100
AcDbEntity
  8
0
  6
Continuous
 62
     7
370
    25
100
AcDbCircle
 10
318.5519756414
 20
235.3395840359
 30
0.0
 40
126.0529950831875
100
AcDbArc
 50
258.8534418789
 51
263.5604802567
  0
ARC
  5
2A8
330
1F
100
AcDbEntity
  8
0
  6
Continuous
 62
     7
370
    25
100
AcDbCircle
 10
313.1538719694
 20
211.9611323695
 30
0.0
 40
102.0749548763363
100
AcDbArc
 50
243.8443731389
 51
259.2894541254
  0
ARC
  5
2A9
330
1F
100
AcDbEntity
  8
0
  6
Continuous
 62
     7
370
    25
100
AcDbCircle
 10
301.0960021919
 20
186.0437048628
 30
0.0
 40
73.4986932502615
100
AcDbArc
 50
236.6299369578
 51
243.3754395767
  0
ARC
  5
2AA
330
1F
100
AcDbEntity
  8
0
  6
Continuous
 62
     7
370
    25
100
AcDbCircle
 10
286.1341897963
 20
165.1565986772
 30
0.0
 40
47.83605569807102
100
AcDbArc
 50
212.17088158
 51
237.8353268727
  0
ARC
  5
2AB
330
1F
100
AcDbEntity
  8
0
  6
Continuous
 62
     7
370
    25
100
AcDbCircle
 10
272.6380968744
 20
155.8057956528
 30
0.0
 40
31.44175783172855
100
AcDbArc
 50
198.954921904
 51
210.8420009881
  0
ARC
  5
2AC
330
1F
100
AcDbEntity
  8
0
  6
Continuous
 62
     7
370
    25
100
AcDbCircle
 10
268.3474427917
 20
154.3386364851
 30
0.0
 40
26.90719887772663
100
AcDbArc
 50
180.1526744686
 51
198.9679249313
  0
ARC
  5
2AD
330
1F
100
AcDbEntity
  8
0
  6
Continuous
 62
     7
370
    25
100
AcDbCircle
 10
319.4404961305
 20
96.971220182
 30
0.0
 40
108.0846774891258
100
AcDbArc
 50
75.656335255
 51
104.350336283
  0
ARC
  5
2AE
330
1F
100
AcDbEntity
  8
0
  6
Continuous
 62
     7
370
    25
100
AcDbCircle
 10
357.5598004962
 20
171.3304108722
 30
0.0
 40
25.63132569359629
100
AcDbArc
 50
319.8517656032
 51
351.793698546
  0
ARC
  5
2AF
330
1F
100
AcDbEntity
  8
0
  6
Continuous
 62
     7
370
    25
100
AcDbCircle
 10
281.9966219906
 20
171.5906361529
 30
0.0
 40
26.33926719709968
100
AcDbArc
 50
188.6840457578
 51
222.273768789
  0
LWPOLYLINE
  5
2B0
330
1F
100
AcDbEntity
  8
0
  6
Continuous
 62
     7
370
    25
100
AcDbPolyline
 90
       66
 70
   128
 43
0.0
 10
382.4321481419
 20
174.0023152336
 10
382.2727273498
 20
174.3857263798
 10
381.571340903
 20
175.8968403843
 10
380.7609555673
 20
177.3896733585
 10
379.842993034
 20
178.8616063661
 10
378.8190637214
 20
180.3100571364
 10
377.6909639494
 20
181.7324845945
 10
376.4606727883
 20
183.1263933194
 10
375.1303485868
 20
184.4893379215
 10
373.7023251857
 20
185.8189273328
 10
372.1791078233
 20
187.1128290017
 10
370.5633687404
 20
188.368772985
 10
368.8579424923
 20
189.5845559303
 10
367.0658209763
 20
190.7580449409
 10
365.1901481824
 20
191.8871813186
 10
363.2342146781
 20
192.9699841744
 10
361.2014518354
 20
194.0045539042
 10
359.095425811
 20
194.9890755211
 10
356.9198312902
 20
195.9218218396
 10
354.6784850051
 20
196.8011565057
 10
352.3753190387
 20
197.6255368678
 10
350.0143739267
 20
198.3935166823
 10
347.599791569
 20
199.1037486519
 10
345.1358079637
 20
199.7549867883
 10
342.6267457752
 20
200.3460885986
 10
340.0770067512
 20
200.8760170892
 10
337.4910640004
 20
201.3438425855
 10
334.873454145
 20
201.7487443627
 10
332.2287693622
 20
202.0900120854
 10
329.5616493278
 20
202.3670470542
 10
326.8767730765
 20
202.5793632554
 10
324.1788507938
 20
202.7265882145
 10
321.472615552
 20
202.8084636487
 10
318.7628150073
 20
202.8248459207
 10
316.0542030707
 20
202.7757062904
 10
313.3515315679
 20
202.6611309656
 10
310.6595419032
 20
202.4813209501
 10
307.982956741
 20
202.2365916919
 10
305.3264717213
 20
201.9273725293
 10
302.6947472215
 20
201.5542059378
 10
300.0924001807
 20
201.1177465782
 10
297.5239959998
 20
200.6187601488
 10
294.9940405325
 20
200.0581220412
 10
292.5069721804
 20
199.4368158052
 10
290.0671541065
 20
198.755931423
 10
287.6788665808
 20
198.0166633972
 10
285.346299471
 20
197.2203086551
 10
283.0735448926
 20
196.3682642736
 10
280.8645900294
 20
195.462025028
 10
278.7233101387
 20
194.50318077
 10
276.6534617532
 20
193.493413638
 10
274.6586760902
 20
192.4344951069
 10
272.7424526817
 20
191.3282828795
 10
270.9081532346
 20
190.1767176281
 10
269.1589957334
 20
188.9818195892
 10
267.4980487948
 20
187.7456850202
 10
265.9282262841
 20
186.4704825211
 10
264.4522822034
 20
185.1584492304
 10
263.0728058602
 20
183.8118869004
 10
261.7922173247
 20
182.4331578588
 10
260.6127631843
 20
181.024680865
 10
259.5365126024
 20
179.5889268662
 10
258.5653536883
 20
178.1284146629
 10
257.7009901847
 20
176.6457064896
 10
256.9449384788
 20
175.1434035203
 10
256.3446476371
 20
173.7423583527
  0
LWPOLYLINE
  5
2B1
330
1F
100
AcDbEntity
  8
0
  6
Continuous
 62
     7
370
    25
100
AcDbPolyline
 90
       31
 70
   128
 43
0.0
 10
344.6971792466
 20
129.1841030118
 10
344.8274020472
 20
129.6534520462
 10
344.8450892538
 20
130.1286737775
 10
344.7499077736
 20
130.6008186352
 10
344.5436501033
 20
131.0609949937
 10
344.2302005719
 20
131.5005366232
 10
343.8154621895
 20
131.9111658954
 10
343.3072454795
 20
132.2851496715
 10
342.7151213872
 20
132.6154449356
 10
342.0502410364
 20
132.895831432
 10
341.3251257265
 20
133.1210288072
 10
340.5534311263
 20
133.2867960517
 10
339.7496901051
 20
133.390011369
 10
338.9290390432
 20
133.4287309659
 10
338.106932778
 20
133.4022256589
 10
337.2988535517
 20
133.310994607
 10
336.5200194438
 20
133.1567559106
 10
335.7850977775
 20
132.9424142563
 10
335.107928899
 20
132.6720062138
 10
334.5012655302
 20
132.3506242184
 10
333.9765326046
 20
131.9843206676
 10
333.5436121076
 20
131.57999394
 10
333.2106569757
 20
131.1452584823
 10
332.9839375565
 20
130.688301411
 10
332.8677235229
 20
130.217728329
 10
332.8642034653
 20
129.7424012616
 10
332.9734436749
 20
129.271271763
 10
333.1933868953
 20
128.813212337
 10
333.5198910655
 20
128.3768493467
 10
333.9468073252
 20
127.9704005588
 10
334.4660958122
 20
127.601520391
  0
LWPOLYLINE
  5
2B2
330
1F
100
AcDbEntity
  8
0
  6
Continuous
 62
     7
370
    25
100
AcDbPolyline
 90
       31
 70
   128
 43
0.0
 10
304.4145830671
 20
127.601520391
 10
304.9338715541
 20
127.9704005667
 10
305.3607878138
 20
128.376849355
 10
305.687291984
 20
128.8132123454
 10
305.9072352044
 20
129.2712717714
 10
306.016475414
 20
129.7424012699
 10
306.0129553564
 20
130.217728337
 10
305.8967413228
 20
130.6883014185
 10
305.6700219036
 20
131.1452584892
 10
305.3370667717
 20
131.5799939461
 10
304.9041462747
 20
131.9843206729
 10
304.3794133491
 20
132.3506242228
 10
303.7727499803
 20
132.6720062172
 10
303.0955811018
 20
132.9424142586
 10
302.3606594355
 20
133.1567559118
 10
301.5818253276
 20
133.310994607
 10
300.7737461013
 20
133.4022256578
 10
299.9516398361
 20
133.4287309636
 10
299.1309887742
 20
133.3900113657
 10
298.327247753
 20
133.2867960473
 10
297.5555531528
 20
133.1210288018
 10
296.8304378429
 20
132.8958314258
 10
296.1655574921
 20
132.6154449287
 10
295.5734333998
 20
132.285149664
 10
295.0652166898
 20
131.9111658874
 10
294.6504783074
 20
131.5005366149
 10
294.337028776
 20
131.0609949853
 10
294.1307711057
 20
130.6008186268
 10
294.0355896255
 20
130.1286737693
 10
294.0532768321
 20
129.6534520383
 10
294.1834996327
 20
129.1841030118
  0
ARC
  5
2B3
330
1F
100
AcDbEntity
  8
0
  6
Continuous
 62
     7
370
    25
100
AcDbCircle
 10
358.8360282929
 20
165.0722531298
 30
0.0
 40
20.1026839812343
100
AcDbArc
 50
346.7614044133
 51
16.0911493462
  0
ARC
  5
2B4
330
1F
100
AcDbEntity
  8
0
  6
Continuous
 62
     7
370
    25
100
AcDbCircle
 10
280.0444775543
 20
165.0656792469
 30
0.0
 40
20.10247031911842
100
AcDbArc
 50
166.0124383667
 51
195.6075224792
  0
ARC
  5
2B5
330
1F
100
AcDbEntity
  8
0
  6
Continuous
 62
     7
370
    25
100
AcDbCircle
 10
358.4695658572
 20
160.9137612821
 30
0.0
 40
20.47492598439135
100
AcDbArc
 50
5.9234224177
 51
13.6389619819
  0
ARC
  5
2B6
330
1F
100
AcDbEntity
  8
0
  6
Continuous
 62
     7
370
    25
100
AcDbCircle
 10
280.5142064454
 20
160.8985860273
 30
0.0
 40
20.57903551800602
100
AcDbArc
 50
164.1921757433
 51
174.0641738429
  0
LWPOLYLINE
  5
2B7
330
1F
100
AcDbEntity
  8
0
  6
Continuous
 62
     7
370
    25
100
AcDbPolyline
 90
       31
 70
   128
 43
0.0
 10
378.2122255965
 20
142.1819836576
 10
377.9184896164
 20
142.626039856
 10
377.5222084972
 20
143.0426992513
 10
377.0308451673
 20
143.4241151428
 10
376.4536531825
 20
143.7631045502
 10
375.8015024589
 20
144.0532834858
 10
375.0866745664
 20
144.2891871811
 10
374.3226314369
 20
144.4663730008
 10
373.523761844
 20
144.581504109
 10
372.7051104273
 20
144.6324123094
 10
371.8820943662
 20
144.6181388779
 10
371.0702130364
 20
144.5389526177
 10
370.2847561202
 20
144.3963447968
 10
369.5405156642
 20
144.1930010642
 10
368.85150751
 20
143.9327508725
 10
368.2307073415
 20
143.62049536
 10
367.6898063222
 20
143.2621150505
 10
367.2389909218
 20
142.864359109
 10
366.8867510807
 20
142.4347182385
 10
366.6397203242
 20
141.9812836121
 10
366.5025508368
 20
141.5125944964
 10
366.4778258503
 20
141.0374774373
 10
366.5660109961
 20
140.5648800338
 10
366.7654455351
 20
140.1037024342
 10
367.0723736344
 20
139.6626297241
 10
367.4810150982
 20
139.2499683657
 10
367.9836742229
 20
138.8734897667
 10
368.5708847257
 20
138.5402839267
 10
369.2315880176
 20
138.2566259146
 10
369.9533414633
 20
138.0278576944
 10
370.7225527061
 20
137.8582875305
  0
LWPOLYLINE
  5
2B8
330
1F
100
AcDbEntity
  8
0
  6
Continuous
 62
     7
370
    25
100
AcDbPolyline
 90
       31
 70
   128
 43
0.0
 10
268.1581261732
 20
137.8582875305
 10
268.927337416
 20
138.0278577023
 10
269.6490908617
 20
138.2566259228
 10
270.3097941536
 20
138.5402839351
 10
270.8970046564
 20
138.8734897751
 10
271.3996637811
 20
139.2499683739
 10
271.8083052449
 20
139.6626297321
 10
272.1152333442
 20
140.1037024417
 10
272.3146678833
 20
140.5648800407
 10
272.402853029
 20
141.0374774434
 10
272.3781280425
 20
141.5125945018
 10
272.2409585551
 20
141.9812836165
 10
271.9939277986
 20
142.4347182419
 10
271.6416879575
 20
142.8643591113
 10
271.1908725571
 20
143.2621150517
 10
270.6499715378
 20
143.62049536
 10
270.0291713693
 20
143.9327508714
 10
269.3401632151
 20
144.1930010619
 10
268.5959227591
 20
144.3963447934
 10
267.8104658429
 20
144.5389526133
 10
266.9985845131
 20
144.6181388726
 10
266.175568452
 20
144.6324123032
 10
265.3569170353
 20
144.5815041021
 10
264.5580474424
 20
144.4663729933
 10
263.7940043129
 20
144.2891871731
 10
263.0791764204
 20
144.0532834776
 10
262.4270256968
 20
143.7631045417
 10
261.849833712
 20
143.4241151344
 10
261.3584703821
 20
143.042699243
 10
260.9621892629
 20
142.6260398481
 10
260.6684532828
 20
142.1819836576
  0
LWPOLYLINE
  5
2B9
330
1F
100
AcDbEntity
  8
0
  6
Continuous
 62
     7
370
    25
100
AcDbPolyline
 90
       31
 70
   128
 43
0.0
 10
395.979392513
 20
163.1123907062
 10
395.3404040709
 20
163.4121695687
 10
394.6363378317
 20
163.6586230794
 10
393.8804530596
 20
163.8471099246
 10
393.0869848865
 20
163.9740804428
 10
392.2708762305
 20
164.0371434731
 10
391.4474963843
 20
164.0351113867
 10
390.6323515749
 20
163.9680224526
 10
389.8407929436
 20
163.8371401172
 10
389.0877274471
 20
163.6449292103
 10
388.3873371236
 20
163.3950095264
 10
387.7528120109
 20
163.0920876557
 10
387.1961017462
 20
162.7418683469
 10
386.7276905253
 20
162.3509470736
 10
386.3563996605
 20
161.9266858257
 10
386.0892214536
 20
161.4770744649
 10
385.9311875142
 20
161.0105802566
 10
385.8852740021
 20
160.5359884112
 10
385.9523455795
 20
160.0622366368
 10
386.131139127
 20
159.5982468211
 10
386.4182875311
 20
159.1527570107
 10
386.8083830953
 20
158.7341568522
 10
387.2940793801
 20
158.3503295956
 10
387.8662295537
 20
158.0085036331
 10
388.5140586496
 20
157.7151163713
 10
389.2253664846
 20
157.4756929996
 10
389.9867574178
 20
157.294742437
 10
390.783892623
 20
157.1756724187
 10
391.6017601231
 20
157.1207253202
 10
392.424957502
 20
157.1309359276
 10
393.2379819691
 20
157.2061119582
  0
LWPOLYLINE
  5
2BA
330
1F
100
AcDbEntity
  8
0
  6
Continuous
 62
     7
370
    25
100
AcDbPolyline
 90
       31
 70
   128
 43
0.0
 10
245.6426969103
 20
157.2061119582
 10
246.4557213773
 20
157.1309359356
 10
247.2789187562
 20
157.1207253284
 10
248.0967862563
 20
157.1756724271
 10
248.8939214615
 20
157.2947424454
 10
249.6553123947
 20
157.4756930078
 10
250.3666202297
 20
157.7151163793
 10
251.0144493256
 20
158.0085036406
 10
251.5865994992
 20
158.3503296025
 10
252.072295784
 20
158.7341568584
 10
252.4623913482
 20
159.152757016
 10
252.7495397523
 20
159.5982468255
 10
252.9283332998
 20
160.0622366402
 10
252.9954048772
 20
160.5359884135
 10
252.9494913652
 20
161.0105802578
 10
252.7914574257
 20
161.4770744649
 10
252.5242792188
 20
161.9266858246
 10
252.152988354
 20
162.3509470714
 10
251.6845771332
 20
162.7418683435
 10
251.1278668684
 20
163.0920876513
 10
250.4933417557
 20
163.3950095211
 10
249.7929514322
 20
163.6449292041
 10
249.0398859357
 20
163.8371401103
 10
248.2483273044
 20
163.9680224451
 10
247.433182495
 20
164.0351113787
 10
246.6098026488
 20
164.0371434648
 10
245.7936939928
 20
163.9740804344
 10
245.0002258197
 20
163.8471099162
 10
244.2443410476
 20
163.6586230712
 10
243.5402748084
 20
163.4121695608
 10
242.9012863663
 20
163.1123907062
  0
LWPOLYLINE
  5
2BB
330
1F
100
AcDbEntity
  8
0
  6
Continuous
 62
     7
370
    25
100
AcDbPolyline
 90
       31
 70
   128
 43
0.0
 10
393.2379819691
 20
186.3670384915
 10
392.424957502
 20
186.4422145141
 10
391.6017601231
 20
186.452425121
 10
390.783892623
 20
186.3974780219
 10
389.9867574178
 20
186.278408003
 10
389.2253664846
 20
186.0974574398
 10
388.5140586496
 20
185.8580340674
 10
387.8662295537
 20
185.5646468051
 10
387.2940793801
 20
185.2228208421
 10
386.8083830953
 20
184.8389935849
 10
386.4182875311
 20
184.4203934261
 10
386.131139127
 20
183.9749036153
 10
385.9523455795
 20
183.5109137993
 10
385.8852740021
 20
183.0371620247
 10
385.9311875142
 20
182.5625701792
 10
386.0892214536
 20
182.0960759709
 10
386.3563996605
 20
181.6464646101
 10
386.7276905253
 20
181.2222033623
 10
387.1961017462
 20
180.8312820892
 10
387.7528120109
 20
180.4810627807
 10
388.3873371236
 20
180.1781409103
 10
389.0877274471
 20
179.9282212269
 10
389.8407929436
 20
179.7360103205
 10
390.6323515749
 20
179.6051279856
 10
391.4474963843
 20
179.5380390521
 10
392.2708762305
 20
179.5360069663
 10
393.0869848865
 20
179.5990699972
 10
393.8804530596
 20
179.726040516
 10
394.6363378317
 20
179.9145273618
 10
395.3404040709
 20
180.160980873
 10
395.979392513
 20
180.4607597436
  0
LWPOLYLINE
  5
2BC
330
1F
100
AcDbEntity
  8
0
  6
Continuous
 62
     7
370
    25
100
AcDbPolyline
 90
       31
 70
   128
 43
0.0
 10
242.9012863663
 20
180.4607597436
 10
243.5402748084
 20
180.1609808809
 10
244.2443410476
 20
179.91452737
 10
245.0002258197
 20
179.7260405244
 10
245.7936939928
 20
179.5990700056
 10
246.6098026488
 20
179.5360069745
 10
247.433182495
 20
179.5380390601
 10
248.2483273044
 20
179.6051279931
 10
249.0398859357
 20
179.7360103274
 10
249.7929514322
 20
179.9282212331
 10
250.4933417557
 20
180.1781409157
 10
251.1278668684
 20
180.4810627851
 10
251.6845771332
 20
180.8312820926
 10
252.152988354
 20
181.2222033645
 10
252.5242792188
 20
181.6464646112
 10
252.7914574257
 20
182.0960759709
 10
252.9494913652
 20
182.562570178
 10
252.9954048772
 20
183.0371620225
 10
252.9283332998
 20
183.510913796
 10
252.7495397523
 20
183.9749036109
 10
252.4623913482
 20
184.4203934207
 10
252.072295784
 20
184.8389935788
 10
251.5865994992
 20
185.2228208352
 10
251.0144493256
 20
185.5646467976
 10
250.3666202297
 20
185.8580340595
 10
249.6553123947
 20
186.0974574315
 10
248.8939214615
 20
186.2784079946
 10
248.0967862563
 20
186.3974780135
 10
247.2789187562
 20
186.4524251128
 10
246.4557213773
 20
186.4422145062
 10
245.6426969103
 20
186.3670384915
  0
LWPOLYLINE
  5
2BD
330
1F
100
AcDbEntity
  8
0
  6
Continuous
 62
     7
370
    25
100
AcDbPolyline
 90
       31
 70
   128
 43
0.0
 10
370.7225527061
 20
205.7148629193
 10
369.9533414633
 20
205.5452927474
 10
369.2315880176
 20
205.3165245266
 10
368.5708847257
 20
205.0328665139
 10
367.9836742229
 20
204.6996606732
 10
367.4810150982
 20
204.3231820737
 10
367.0723736344
 20
203.9105207146
 10
366.7654455351
 20
203.469448004
 10
366.5660109961
 20
203.0082704038
 10
366.4778258503
 20
202.5356729999
 10
366.5025508368
 20
202.0605559403
 10
366.6397203242
 20
201.5918668243
 10
366.8867510807
 20
201.1384321976
 10
367.2389909218
 20
200.7087913269
 10
367.6898063222
 20
200.3110353853
 10
368.2307073415
 20
199.9526550758
 10
368.85150751
 20
199.6403995633
 10
369.5405156642
 20
199.3801493717
 10
370.2847561202
 20
199.1768056393
 10
371.0702130364
 20
199.0341978187
 10
371.8820943662
 20
198.9550115588
 10
372.7051104273
 20
198.9407381278
 10
373.523761844
 20
198.9916463287
 10
374.3226314369
 20
199.1067774374
 10
375.0866745664
 20
199.2839632577
 10
375.8015024589
 20
199.5198669535
 10
376.4536531825
 20
199.8100458898
 10
377.0308451673
 20
200.1490352978
 10
377.5222084972
 20
200.5304511899
 10
377.9184896164
 20
200.9471105858
 10
378.2122255965
 20
201.3911667921
  0
LWPOLYLINE
  5
2BE
330
1F
100
AcDbEntity
  8
0
  6
Continuous
 62
     7
370
    25
100
AcDbPolyline
 90
       31
 70
   128
 43
0.0
 10
260.6684532828
 20
201.3911667921
 10
260.9621892629
 20
200.9471105937
 10
261.3584703821
 20
200.5304511982
 10
261.849833712
 20
200.1490353062
 10
262.4270256968
 20
199.8100458982
 10
263.0791764204
 20
199.5198669618
 10
263.7940043129
 20
199.2839632656
 10
264.5580474424
 20
199.1067774449
 10
265.3569170353
 20
198.9916463356
 10
266.175568452
 20
198.940738134
 10
266.9985845131
 20
198.9550115642
 10
267.8104658429
 20
199.0341978231
 10
268.5959227591
 20
199.1768056427
 10
269.3401632151
 20
199.380149374
 10
270.0291713693
 20
199.6403995644
 10
270.6499715378
 20
199.9526550758
 10
271.1908725571
 20
200.3110353841
 10
271.6416879575
 20
200.7087913246
 10
271.9939277986
 20
201.1384321942
 10
272.2409585551
 20
201.5918668199
 10
272.3781280425
 20
202.060555935
 10
272.402853029
 20
202.5356729937
 10
272.3146678833
 20
203.0082703969
 10
272.1152333442
 20
203.4694479965
 10
271.8083052449
 20
203.9105207067
 10
271.3996637811
 20
204.3231820654
 10
270.8970046564
 20
204.6996606648
 10
270.3097941536
 20
205.0328665055
 10
269.6490908617
 20
205.3165245184
 10
268.927337416
 20
205.5452927395
 10
268.1581261732
 20
205.7148629193
  0
LWPOLYLINE
  5
2BF
330
1F
100
AcDbEntity
  8
0
  6
Continuous
 62
     7
370
    25
100
AcDbPolyline
 90
       31
 70
   128
 43
0.0
 10
334.4660958122
 20
215.9716300588
 10
333.9468073252
 20
215.602749883
 10
333.5198910655
 20
215.1963010945
 10
333.1933868953
 20
214.7599381035
 10
332.9734436749
 20
214.301878677
 10
332.8642034653
 20
213.8307491777
 10
332.8677235229
 20
213.3554221097
 10
332.9839375565
 20
212.8848490272
 10
333.2106569757
 20
212.4278919554
 10
333.5436121076
 20
211.9931564972
 10
333.9765326046
 20
211.5888297692
 10
334.5012655302
 20
211.222526218
 10
335.107928899
 20
210.9011442223
 10
335.7850977775
 20
210.6307361796
 10
336.5200194438
 20
210.4163945251
 10
337.2988535517
 20
210.2621558288
 10
338.106932778
 20
210.1709247769
 10
338.9290390432
 20
210.14441947
 10
339.7496901051
 20
210.1831390671
 10
340.5534311263
 20
210.2863543847
 10
341.3251257265
 20
210.4521216296
 10
342.0502410364
 20
210.6773190052
 10
342.7151213872
 20
210.957705502
 10
343.3072454795
 20
211.2880007667
 10
343.8154621895
 20
211.6619845434
 10
344.2302005719
 20
212.0726138161
 10
344.5436501033
 20
212.5121554462
 10
344.7499077736
 20
212.9723318053
 10
344.8450892538
 20
213.4444766637
 10
344.8274020472
 20
213.9196983956
 10
344.6971792466
 20
214.389047438
  0
LWPOLYLINE
  5
2C0
330
1F
100
AcDbEntity
  8
0
  6
Continuous
 62
     7
370
    25
100
AcDbPolyline
 90
       31
 70
   128
 43
0.0
 10
294.1834996327
 20
214.389047438
 10
294.0532768321
 20
213.9196984035
 10
294.0355896255
 20
213.4444766719
 10
294.1307711057
 20
212.9723318137
 10
294.337028776
 20
212.5121554546
 10
294.6504783074
 20
212.0726138244
 10
295.0652166898
 20
211.6619845513
 10
295.5734333998
 20
211.2880007742
 10
296.1655574921
 20
210.9577055089
 10
296.8304378429
 20
210.6773190113
 10
297.5555531528
 20
210.4521216349
 10
298.327247753
 20
210.2863543891
 10
299.1309887742
 20
210.1831390705
 10
299.9516398361
 20
210.1444194723
 10
300.7737461013
 20
210.170924778
 10
301.5818253276
 20
210.2621558288
 10
302.3606594355
 20
210.416394524
 10
303.0955811018
 20
210.6307361773
 10
303.7727499803
 20
210.9011442189
 10
304.3794133491
 20
211.2225262136
 10
304.9041462747
 20
211.5888297638
 10
305.3370667717
 20
211.993156491
 10
305.6700219036
 20
212.4278919485
 10
305.8967413228
 20
212.8848490197
 10
306.0129553564
 20
213.3554221018
 10
306.016475414
 20
213.8307491695
 10
305.9072352044
 20
214.3018786686
 10
305.687291984
 20
214.7599380952
 10
305.3607878138
 20
215.1963010862
 10
304.9338715541
 20
215.602749875
 10
304.4145830671
 20
215.9716300588
  0
LWPOLYLINE
  5
2C1
330
1F
100
AcDbEntity
  8
0
  6
Continuous
 62
     8
370
    18
100
AcDbPolyline
 90
      151
 70
   128
 43
0.0
 10
274.1346140612
 20
144.4235541783
 10
272.277148012
 20
145.5417302767
 10
270.5024222267
 20
146.7038284868
 10
268.8135501773
 20
147.9078100935
 10
267.2134947195
 20
149.1515629039
 10
265.7050628941
 20
150.432904953
 10
264.2909010031
 20
151.7495883314
 10
262.973489967
 20
153.099303129
 10
261.7551409725
 20
154.4796814874
 10
260.6379914177
 20
155.888301754
 10
259.6240011624
 20
157.3226927302
 10
258.7149490903
 20
158.7803380068
 10
257.9124299874
 20
160.2586803786
 10
257.217851745
 20
161.7551263307
 10
256.6324328894
 20
163.2670505886
 10
256.1572004442
 20
164.7918007232
 10
255.7929881285
 20
166.3267018048
 10
255.5404348945
 20
167.8690610953
 10
255.3999838064
 20
169.4161727723
 10
255.3718812632
 20
170.9653226764
 10
255.4561765662
 20
172.5137930721
 10
255.6527218328
 20
174.0588674161
 10
255.9611722559
 20
175.5978351232
 10
256.3809867087
 20
177.127996321
 10
256.9114286938
 20
178.6466665867
 10
257.5515676358
 20
180.1511816568
 10
258.3002805136
 20
181.6389021004
 10
259.1562538302
 20
183.1072179505
 10
260.1179859176
 20
184.5535532821
 10
261.183789571
 20
185.9753707316
 10
262.3517950086
 20
187.3701759479
 10
263.6199531519
 20
188.7355219689
 10
264.9860392207
 20
190.0690135136
 10
266.4476566357
 20
191.3683111848
 10
268.0022412235
 20
192.6311355728
 10
269.6470657142
 20
193.8552712545
 10
271.379244527
 20
195.03857068
 10
273.1957388315
 20
196.1789579401
 10
275.0933618795
 20
197.2744324078
 10
277.0687845953
 20
198.3230722489
 10
279.1185414163
 20
199.3230377926
 10
281.2390363724
 20
200.2725747597
 10
283.4265493951
 20
201.1700173396
 10
285.677242843
 20
202.0137911131
 10
287.9871682351
 20
202.8024158142
 10
290.3522731774
 20
203.5345079273
 10
292.7684084721
 20
204.2087831141
 10
295.231335397
 20
204.8240584667
 10
297.7367331411
 20
205.3792545831
 10
300.2802063857
 20
205.8733974607
 10
302.8572930143
 20
206.3056202048
 10
305.4634719412
 20
206.6751645501
 10
308.0941710432
 20
206.9813821901
 10
310.7447751799
 20
207.223735915
 10
313.4106342912
 20
207.4018005541
 10
316.0870715542
 20
207.5152637214
 10
318.7693915885
 20
207.563926364
 10
321.4528886933
 20
207.5477031111
 10
324.1328551029
 20
207.4666224238
 10
326.8045892454
 20
207.3208265452
 10
329.4634039914
 20
207.1105712507
 10
332.1046348764
 20
206.8362253997
 10
334.7236482837
 20
206.4982702879
 10
337.3158495741
 20
206.0972988035
 10
339.8766911456
 20
205.6340143867
 10
342.4016804118
 20
205.1092297958
 10
344.8863876836
 20
204.5238656813
 10
347.3264539403
 20
203.8789489707
 10
349.7175984763
 20
203.1756110672
 10
352.0556264116
 20
202.4150858643
 10
354.3364360509
 20
201.5987075817
 10
356.556026079
 20
200.7279084244
 10
358.7105025807
 20
199.8042160699
 10
360.7960858721
 20
198.8292509886
 10
362.8091171315
 20
197.8047236004
 10
364.7460648181
 20
196.7324312745
 10
366.6035308673
 20
195.6142551761
 10
368.3782566527
 20
194.452156966
 10
370.067128702
 20
193.2481753593
 10
371.6671841598
 20
192.0044225489
 10
373.1756159852
 20
190.7230804999
 10
374.5897778762
 20
189.4063971215
 10
375.9071889123
 20
188.0566823239
 10
377.1255379068
 20
186.6763039654
 10
378.2426874616
 20
185.2676836988
 10
379.2566777169
 20
183.8332927227
 10
380.165729789
 20
182.3756474461
 10
380.9682488919
 20
180.8973050743
 10
381.6628271343
 20
179.4008591221
 10
382.2482459899
 20
177.8889348643
 10
382.7234784352
 20
176.3641847296
 10
383.0876907509
 20
174.829283648
 10
383.3402439848
 20
173.2869243576
 10
383.4806950729
 20
171.7398126805
 10
383.5087976162
 20
170.1906627765
 10
383.4245023131
 20
168.6421923808
 10
383.2279570465
 20
167.0971180367
 10
382.9195066234
 20
165.5581503296
 10
382.4996921706
 20
164.0279891319
 10
381.9692501855
 20
162.5093188662
 10
381.3291112435
 20
161.0048037961
 10
380.5803983657
 20
159.5170833524
 10
379.7244250491
 20
158.0487675023
 10
378.7626929617
 20
156.6024321707
 10
377.6968893083
 20
155.1806147213
 10
376.5288838707
 20
153.7858095049
 10
375.2607257274
 20
152.4204634839
 10
373.8946396586
 20
151.0869719392
 10
372.4330222436
 20
149.7876742681
 10
370.8784376559
 20
148.5248498801
 10
369.2336131651
 20
147.3007141983
 10
367.5014343523
 20
146.1174147728
 10
365.6849400478
 20
144.9770275128
 10
363.7873169998
 20
143.881553045
 10
361.811894284
 20
142.832913204
 10
359.762137463
 20
141.8329476602
 10
357.6416425069
 20
140.8834106932
 10
355.4541294842
 20
139.9859681133
 10
353.2034360363
 20
139.1421943398
 10
350.8935106442
 20
138.3535696387
 10
348.5284057019
 20
137.6214775255
 10
346.1122704072
 20
136.9472023388
 10
343.6493434824
 20
136.3319269862
 10
341.1439457382
 20
135.7767308698
 10
338.6004724936
 20
135.2825879922
 10
336.023385865
 20
134.850365248
 10
333.4172069381
 20
134.4808209028
 10
330.7865078361
 20
134.1746032628
 10
328.1359036994
 20
133.9322495379
 10
325.4700445881
 20
133.7541848988
 10
322.7936073251
 20
133.6407217315
 10
320.1112872908
 20
133.5920590889
 10
317.427790186
 20
133.6082823418
 10
314.7478237764
 20
133.6893630291
 10
312.0760896339
 20
133.8351589077
 10
309.4172748879
 20
134.0454142021
 10
306.7760440029
 20
134.3197600532
 10
304.1570305956
 20
134.6577151649
 10
301.5648293052
 20
135.0586866493
 10
299.0039877338
 20
135.5219710661
 10
296.4789984675
 20
136.046755657
 10
293.9942911957
 20
136.6321197716
 10
291.5542249391
 20
137.2770364821
 10
289.163080403
 20
137.9803743857
 10
286.8250524677
 20
138.7408995886
 10
284.5442428284
 20
139.5572778712
 10
282.3246528003
 20
140.4280770285
 10
280.1701762986
 20
141.351769383
 10
278.0845930072
 20
142.3267344643
 10
276.0715617478
 20
143.3512618525
 10
274.1346140612
 20
144.4235541783
  0
LWPOLYLINE
  5
2C2
330
1F
100
AcDbEntity
  8
0
  6
Continuous
 62
     8
370
    18
100
AcDbPolyline
 90
       62
 70
   128
 43
0.0
 10
264.2860105071
 20
136.6644611758
 10
266.4257591368
 20
135.4753754197
 10
268.6423738397
 20
134.3341785591
 10
270.9326407363
 20
133.2425252203
 10
273.2932391588
 20
132.2019981963
 10
275.7207464649
 20
131.2141061518
 10
278.2116430012
 20
130.2802814358
 10
280.7623172058
 20
129.401878005
 10
283.369070845
 20
128.5801694602
 10
286.0281243752
 20
127.8163472003
 10
288.735622423
 20
127.1115186946
 10
291.4876393751
 20
126.466705877
 10
294.28018507
 20
125.8828436645
 10
297.1092105834
 20
125.3607786014
 10
299.9706140987
 20
124.9012676322
 10
302.8602468545
 20
124.5049770039
 10
305.7739191595
 20
124.1724813
 10
308.7074064673
 20
123.9042626074
 10
311.6564555019
 20
123.7007098177
 10
314.616790424
 20
123.5621180629
 10
317.5841190311
 20
123.4886882878
 10
320.5541389803
 20
123.4805269586
 10
323.5225440266
 20
123.5376459084
 10
326.4850302666
 20
123.6599623202
 10
329.4373023783
 20
123.8472988469
 10
332.3750798495
 20
124.0993838684
 10
335.2941031837
 20
124.4158518856
 10
338.1901400761
 20
124.7962440501
 10
341.05899155
 20
125.2400088296
 10
343.8964980452
 20
125.7465028076
 10
346.6985454484
 20
126.3149916163
 10
349.4610710588
 20
126.9446510012
 10
352.1800694784
 20
127.6345680165
 10
354.8515984193
 20
128.3837423483
 10
357.4717844201
 20
129.1910877656
 10
360.0368284616
 20
130.0554336947
 10
362.543011475
 20
130.9755269166
 10
364.9866997346
 20
131.9500333841
 10
367.364350126
 20
132.9775401561
 10
369.6725152835
 20
134.0565574458
 10
371.9078485884
 20
135.1855207814
 10
374.0671090208
 20
136.3627932739
 10
376.1471658598
 20
137.5866679909
 10
378.1450032217
 20
138.855370431
 10
380.0577244333
 20
140.1670610969
 10
381.8825562318
 20
141.5198381626
 10
383.6168527854
 20
142.9117402306
 10
385.25809953
 20
144.340749176
 10
386.8039168148
 20
145.8047930725
 10
388.2520633523
 20
147.3017491963
 10
389.6004394687
 20
148.8294471043
 10
390.8470901474
 20
150.3856717804
 10
391.9902078641
 20
151.9681668477
 10
393.0281352074
 20
153.5746378397
 10
393.959367282
 20
155.2027555269
 10
394.7825538902
 20
156.8501592944
 10
395.4965014903
 20
158.5144605641
 10
396.1001749264
 20
160.1932462585
 10
396.5926989299
 20
161.8840822986
 10
396.9733593879
 20
163.5845171339
 10
397.2416043793
 20
165.2920852965
 10
397.3863839361
 20
166.8298304258
  0
LWPOLYLINE
  5
2C3
330
1F
100
AcDbEntity
  8
0
  6
Continuous
 62
     8
370
    18
100
AcDbPolyline
 90
       21
 70
   128
 43
0.0
 10
241.501291933
 20
166.7246009472
 10
241.589627337
 20
165.7198019615
 10
241.8297013103
 20
164.0108369873
 10
242.1823032893
 20
162.3083872173
 10
242.6469220347
 20
160.6149210409
 10
243.2228838939
 20
158.9328938222
 10
243.9093537771
 20
157.2647443399
 10
244.7053363688
 20
155.6128912512
 10
245.6096775701
 20
153.9797295851
 10
246.6210661729
 20
152.36762727
 10
247.7380357603
 20
150.7789217001
 10
248.9589668332
 20
149.2159163466
 10
250.2820891584
 20
147.6808774178
 10
251.7054843348
 20
146.1760305735
 10
253.2270885756
 20
144.7035576976
 10
254.8446957002
 20
143.2655937352
 10
256.5559603327
 20
141.8642235963
 10
258.3584013032
 20
140.5014791339
 10
260.2494052444
 20
139.1793361971
 10
262.2262303816
 20
137.8997117667
 10
264.2860105071
 20
136.6644611758
  0
LWPOLYLINE
  5
2C4
330
1F
100
AcDbEntity
  8
0
  6
Continuous
 62
     8
370
    18
100
AcDbPolyline
 90
       74
 70
   128
 43
0.0
 10
392.7433051747
 20
152.6711564705
 10
392.7031490497
 20
152.5430222319
 10
392.1257560098
 20
150.8987631238
 10
391.43767507
 20
149.2687609011
 10
390.6399540641
 20
147.6554977882
 10
389.7338077895
 20
146.0614305186
 10
388.7206161577
 20
144.488986594
 10
387.6019220924
 20
142.940560587
 10
386.37942918
 20
141.418510495
 10
385.0549990756
 20
139.9251541493
 10
383.6306486678
 20
138.4627656852
 10
382.1085470073
 20
137.0335720791
 10
380.4910120039
 20
135.6397497573
 10
378.7805068966
 20
134.283421281
 10
376.9796365025
 20
132.9666521149
 10
375.0911432502
 20
131.6914474813
 10
373.1179030033
 20
130.4597493064
 10
371.0629206813
 20
129.2734332633
 10
368.9293256833
 20
128.1343059158
 10
366.7203671225
 20
127.0441019669
 10
364.4394088784
 20
126.0044816173
 10
362.0899244743
 20
125.0170280374
 10
359.6754917872
 20
124.0832449561
 10
357.1997876
 20
123.2045543709
 10
354.6665820017
 20
122.3822943828
 10
352.0797326466
 20
121.617717158
 10
349.4431788795
 20
120.9119870216
 10
346.760935737
 20
120.2661786841
 10
344.0370878329
 20
119.681275605
 10
341.2757831383
 20
119.1581684954
 10
338.4812266646
 20
118.697653961
 10
335.6576740606
 20
118.3004332896
 10
332.809425131
 20
117.9671113826
 10
329.9408172892
 20
117.6981958343
 10
327.0562189516
 20
117.4940961589
 10
324.1600228858
 20
117.3551231664
 10
321.2566395207
 20
117.2814884897
 10
318.3504902301
 20
117.2733042624
 10
315.4460006001
 20
117.3305829476
 10
312.5475936892
 20
117.4532373194
 10
309.6596832932
 20
117.6410805954
 10
306.7866672232
 20
117.8938267212
 10
303.9329206087
 20
118.2110908063
 10
301.1027892351
 20
118.5923897097
 10
298.3005829257
 20
119.0371427761
 10
295.5305689784
 20
119.54467272
 10
292.7969656675
 20
120.1142066569
 10
290.1039358201
 20
120.7448772807
 10
287.4555804763
 20
121.4357241839
 10
284.8559326445
 20
122.1856953208
 10
282.3089511595
 20
122.9936486089
 10
279.8185146539
 20
123.8583536688
 10
277.3884156519
 20
124.7784936972
 10
275.0223547932
 20
125.7526674726
 10
272.7239351983
 20
126.779391489
 10
270.4966569812
 20
127.8571022153
 10
268.3439119192
 20
128.9841584756
 10
266.2689782878
 20
130.1588439492
 10
264.2750158688
 20
131.379369784
 10
262.3650611379
 20
132.6438773203
 10
260.5420226413
 20
133.9504409218
 10
258.8086765658
 20
135.2970709077
 10
257.1676625116
 20
136.6817165825
 10
255.6214794724
 20
138.1022693594
 10
254.1724820299
 20
139.5565659708
 10
252.8228767683
 20
141.0423917628
 10
251.5747189136
 20
142.5574840679
 10
250.4299092045
 20
144.0995356503
 10
249.3901909973
 20
145.6661982199
 10
248.4571476113
 20
147.255086008
 10
247.6321999176
 20
148.8637794006
 10
246.9166041756
 20
150.489828623
 10
246.3114501195
 20
152.1307574705
 10
246.1430261853
 20
152.6529851803
  0
LWPOLYLINE
  5
2C5
330
1F
100
AcDbEntity
  8
0
  6
Continuous
 62
     8
370
    18
100
AcDbPolyline
 90
       21
 70
   128
 43
0.0
 10
264.2860105071
 20
125.7092190331
 10
262.2262303816
 20
126.9444696239
 10
260.2494052444
 20
128.2240940543
 10
258.3584013032
 20
129.5462369912
 10
256.5559603327
 20
130.9089814536
 10
254.8446957002
 20
132.3103515924
 10
253.2270885756
 20
133.7483155549
 10
251.7054843348
 20
135.2207884308
 10
250.2820891584
 20
136.7256352751
 10
248.9589668332
 20
138.2606742039
 10
247.7380357603
 20
139.8236795574
 10
246.6210661729
 20
141.4123851273
 10
245.6096775701
 20
143.0244874424
 10
244.7053363688
 20
144.6576491084
 10
243.9093537771
 20
146.3095021972
 10
243.2228838939
 20
147.9776516795
 10
242.6469220347
 20
149.6596788982
 10
242.1823032893
 20
151.3531450746
 10
241.8297013103
 20
153.0555948446
 10
241.589627337
 20
154.7645598188
 10
241.5008653029
 20
155.7755959886
  0
LWPOLYLINE
  5
2C6
330
1F
100
AcDbEntity
  8
0
  6
Continuous
 62
     8
370
    18
100
AcDbPolyline
 90
       62
 70
   128
 43
0.0
 10
397.3833671619
 20
155.8284277592
 10
397.2416043793
 20
154.3368431538
 10
396.9733593879
 20
152.6292749912
 10
396.5926989299
 20
150.9288401559
 10
396.1001749264
 20
149.2380041157
 10
395.4965014903
 20
147.5592184214
 10
394.7825538902
 20
145.8949171516
 10
393.959367282
 20
144.2475133841
 10
393.0281352074
 20
142.6193956969
 10
391.9902078641
 20
141.012924705
 10
390.8470901474
 20
139.4304296377
 10
389.6004394687
 20
137.8742049615
 10
388.2520633523
 20
136.3465070536
 10
386.8039168148
 20
134.8495509297
 10
385.25809953
 20
133.3855070332
 10
383.6168527854
 20
131.9564980878
 10
381.8825562318
 20
130.5645960198
 10
380.0577244333
 20
129.2118189541
 10
378.1450032217
 20
127.9001282882
 10
376.1471658598
 20
126.6314258482
 10
374.0671090208
 20
125.4075511312
 10
371.9078485884
 20
124.2302786386
 10
369.6725152835
 20
123.101315303
 10
367.364350126
 20
122.0222980133
 10
364.9866997346
 20
120.9947912414
 10
362.543011475
 20
120.0202847739
 10
360.0368284616
 20
119.100191552
 10
357.4717844201
 20
118.2358456229
 10
354.8515984193
 20
117.4285002056
 10
352.1800694784
 20
116.6793258737
 10
349.4610710588
 20
115.9894088585
 10
346.6985454484
 20
115.3597494736
 10
343.8964980452
 20
114.7912606649
 10
341.05899155
 20
114.2847666869
 10
338.1901400761
 20
113.8410019074
 10
335.2941031837
 20
113.4606097429
 10
332.3750798495
 20
113.1441417257
 10
329.4373023783
 20
112.8920567042
 10
326.4850302666
 20
112.7047201775
 10
323.5225440266
 20
112.5824037657
 10
320.5541389803
 20
112.5252848159
 10
317.5841190311
 20
112.5334461451
 10
314.616790424
 20
112.6068759202
 10
311.6564555019
 20
112.745467675
 10
308.7074064673
 20
112.9490204647
 10
305.7739191595
 20
113.2172391572
 10
302.8602468545
 20
113.5497348612
 10
299.9706140987
 20
113.9460254895
 10
297.1092105834
 20
114.4055364587
 10
294.28018507
 20
114.9276015217
 10
291.4876393751
 20
115.5114637342
 10
288.735622423
 20
116.1562765518
 10
286.0281243752
 20
116.8611050575
 10
283.369070845
 20
117.6249273174
 10
280.7623172058
 20
118.4466358622
 10
278.2116430012
 20
119.3250392931
 10
275.7207464649
 20
120.2588640091
 10
273.2932391588
 20
121.2467560536
 10
270.9326407363
 20
122.2872830776
 10
268.6423738397
 20
123.3789364164
 10
266.4257591368
 20
124.520133277
 10
264.2860105071
 20
125.7092190331
  0
LWPOLYLINE
  5
2C7
330
1F
100
AcDbEntity
  8
0
  6
Continuous
 62
     8
370
    18
100
AcDbPolyline
 90
       64
 70
   128
 43
0.0
 10
264.9480830669
 20
127.4743880571
 10
267.0752729012
 20
126.2925560318
 10
269.2793156917
 20
125.1586270355
 10
271.5569767017
 20
124.0742652652
 10
273.9049131496
 20
123.0410621713
 10
276.3196791148
 20
122.060534122
 10
278.7977305953
 20
121.1341201772
 10
281.3354307088
 20
120.2631799773
 10
283.9290550305
 20
119.4489917471
 10
286.574797059
 20
118.6927504201
 10
289.2687738031
 20
117.9955658846
 10
292.0070314803
 20
117.3584613552
 10
294.78555132
 20
116.7823718707
 10
297.6002554611
 20
116.2681429217
 10
300.4470129372
 20
115.8165292101
 10
303.321645739
 20
115.4281935414
 10
306.2199349466
 20
115.1037058517
 10
309.1376269209
 20
114.8435423715
 10
312.0704395465
 20
114.6480849265
 10
315.0140685165
 20
114.5176203774
 10
317.9641936494
 20
114.4523401991
 10
320.9164852299
 20
114.4523401991
 10
323.8666103628
 20
114.5176203774
 10
326.8102393328
 20
114.6480849265
 10
329.7430519584
 20
114.8435423715
 10
332.6607439327
 20
115.1037058517
 10
335.5590331403
 20
115.4281935414
 10
338.4336659421
 20
115.8165292101
 10
341.2804234182
 20
116.2681429217
 10
344.0951275593
 20
116.7823718707
 10
346.873647399
 20
117.3584613552
 10
349.6119050762
 20
117.9955658846
 10
352.3058818203
 20
118.6927504201
 10
354.9516238488
 20
119.4489917471
 10
357.5452481705
 20
120.2631799773
 10
360.082948284
 20
121.1341201772
 10
362.5609997645
 20
122.060534122
 10
364.9757657297
 20
123.0410621713
 10
367.3237021776
 20
124.0742652652
 10
369.6013631876
 20
125.1586270355
 10
371.8054059781
 20
126.2925560318
 10
373.9325958124
 20
127.4743880571
 10
375.9798107461
 20
128.7023886097
 10
377.944046209
 20
129.9747554296
 10
379.8224194146
 20
131.2896211429
 10
381.6121735913
 20
132.645056003
 10
383.3106820279
 20
134.0390707223
 10
384.9154519292
 20
135.4696193919
 10
386.424128074
 20
136.9346024844
 10
387.834496272
 20
138.4318699351
 10
389.1444866134
 20
139.9592242975
 10
390.3521765067
 20
141.5144239685
 10
391.4557935006
 20
143.0951864781
 10
392.4537178848
 20
144.6991918393
 10
393.3444850676
 20
146.3240859531
 10
394.1267877255
 20
147.9674840634
 10
394.7994777215
 20
149.6269742566
 10
395.36156779
 20
151.3001210022
 10
395.8122329866
 20
152.9844687266
 10
396.1508118978
 20
154.6775454172
 10
396.3768076125
 20
156.3768662506
 10
396.4898884506
 20
158.0799372389
 10
396.4898884506
 20
159.7842588908
 10
396.4278773673
 20
160.9093411801
  0
LWPOLYLINE
  5
2C8
330
1F
100
AcDbEntity
  8
0
  6
Continuous
 62
     8
370
    18
100
AcDbPolyline
 90
       23
 70
   128
 43
0.0
 10
242.4521600793
 20
160.9010002424
 10
242.3907904287
 20
159.7842588908
 10
242.3907904287
 20
158.0799372389
 10
242.5038712668
 20
156.3768662506
 10
242.7298669815
 20
154.6775454172
 10
243.0684458927
 20
152.9844687266
 10
243.5191110893
 20
151.3001210022
 10
244.0812011579
 20
149.6269742566
 10
244.7538911538
 20
147.9674840634
 10
245.5361938117
 20
146.3240859531
 10
246.4269609946
 20
144.6991918393
 10
247.4248853787
 20
143.0951864781
 10
248.5285023726
 20
141.5144239685
 10
249.7361922659
 20
139.9592242975
 10
251.0461826073
 20
138.4318699351
 10
252.4565508053
 20
136.9346024844
 10
253.9652269501
 20
135.4696193919
 10
255.5699968514
 20
134.0390707223
 10
257.2685052881
 20
132.645056003
 10
259.0582594647
 20
131.2896211429
 10
260.9366326703
 20
129.9747554296
 10
262.9008681332
 20
128.7023886097
 10
264.9480830669
 20
127.4743880571
  0
LWPOLYLINE
  5
2C9
330
1F
100
AcDbEntity
  8
0
  6
Continuous
 62
     8
370
    18
100
AcDbPolyline
 90
       80
 70
   128
 43
0.0
 10
382.9286752154
 20
167.6718520997
 10
383.0489435093
 20
168.9491188357
 10
383.0913839375
 20
170.4983313629
 10
383.0206551314
 20
172.0471995176
 10
382.8368828442
 20
173.592969469
 10
382.5403938164
 20
175.1328928943
 10
382.1317151946
 20
176.6642318659
 10
381.6115735945
 20
178.1842637191
 10
380.9808938089
 20
179.6902858927
 10
380.2407971634
 20
181.1796207341
 10
379.3925995229
 20
182.6496202604
 10
378.4378089518
 20
184.0976708662
 10
377.3781230329
 20
185.5211979701
 10
376.2154258491
 20
186.9176705931
 10
374.9517846336
 20
188.2846058578
 10
373.5894460943
 20
189.619573403
 10
372.1308324194
 20
190.9201997053
 10
370.5785369708
 20
192.1841722986
 10
368.9353196732
 20
193.4092438857
 10
367.204102107
 20
194.593236334
 10
365.3879623138
 20
195.7340445482
 10
363.4901293238
 20
196.8296402129
 10
361.513977415
 20
197.8780753989
 10
359.4630201133
 20
198.8774860268
 10
357.3409039458
 20
199.826095181
 10
355.1514019578
 20
200.722216269
 10
352.8984070038
 20
201.5642560202
 10
350.5859248267
 20
202.3507173187
 10
348.2180669354
 20
203.0802018649
 10
345.7990432947
 20
203.751412662
 10
343.3331548405
 20
204.3631563216
 10
340.8247858325
 20
204.9143451859
 10
338.2783960591
 20
205.4039992612
 10
335.6985129086
 20
205.8312479604
 10
333.0897233189
 20
206.1953316509
 10
330.4566656228
 20
206.4956030052
 10
327.8040213007
 20
206.7315281517
 10
325.1365066575
 20
206.9026876242
 10
322.4588644369
 20
207.0087771075
 10
319.775855389
 20
207.0496079781
 10
317.092249806
 20
207.0251076404
 10
314.4128190406
 20
206.9353196551
 10
311.7423270231
 20
206.7804036619
 10
309.0855217907
 20
206.5606350958
 10
306.4471270462
 20
206.2764046973
 10
303.8318337592
 20
205.9282178177
 10
301.2442918256
 20
205.5166935204
 10
298.6891018007
 20
205.0425634809
 10
296.1708067191
 20
204.5066706848
 10
293.6938840174
 20
203.9099679301
 10
291.262737574
 20
203.2535161325
 10
288.8816898783
 20
202.5384824393
 10
286.5549743464
 20
201.7661381543
 10
284.2867277936
 20
200.9378564776
 10
282.0809830794
 20
200.0551100636
 10
279.9416619375
 20
199.1194684033
 10
277.8725680027
 20
198.1325950334
 10
275.8773800486
 20
197.0962445788
 10
273.9596454466
 20
196.0122596328
 10
272.1227738587
 20
194.882567481
 10
270.3700311757
 20
193.7091766748
 10
268.7045337101
 20
192.4941734603
 10
267.1292426555
 20
191.2397180688
 10
265.6469588221
 20
189.9480408763
 10
264.2603176563
 20
188.6214384377
 10
262.9717845555
 20
187.2622694037
 10
261.7836504847
 20
185.8729503272
 10
260.6980279027
 20
184.4559513669
 10
259.7168470069
 20
183.0137918951
 10
258.8418523012
 20
181.5490360189
 10
258.0745994943
 20
180.0642880207
 10
257.4164527335
 20
178.5621877282
 10
256.8685821798
 20
177.045405821
 10
256.4319619271
 20
175.516639082
 10
256.1073682703
 20
173.9786056026
 10
255.895378325
 20
172.4340399502
 10
255.7963690016
 20
170.8856883061
 10
255.8105163351
 20
169.3363035832
 10
255.9377951721
 20
167.7886405309
 10
255.9593090041
 20
167.6137870331
  0
LWPOLYLINE
  5
2CA
330
1F
100
AcDbEntity
  8
0
  6
Continuous
 62
     8
370
    18
100
AcDbPolyline
 90
       92
 70
   128
 43
0.0
 10
264.0206247726
 20
152.2030890472
 10
263.1207895548
 20
153.5318469173
 10
262.2773578822
 20
154.9514638215
 10
261.5412437347
 20
156.3908401541
 10
260.9138290895
 20
157.8472736363
 10
260.3962918522
 20
159.3180299666
 10
259.9896036449
 20
160.8003479534
 10
259.6945279822
 20
162.2914446998
 10
259.5116188377
 20
163.7885208274
 10
259.4412196044
 20
165.2887657322
 10
259.4834624493
 20
166.789362861
 10
259.638268066
 20
168.2874949997
 10
259.9053458232
 20
169.7803495616
 10
260.2841943101
 20
171.2651238684
 10
260.7741022785
 20
172.7390304113
 10
261.3741499772
 20
174.1993020848
 10
262.0832108794
 20
175.6431973815
 10
262.8999537973
 20
177.0680055389
 10
263.8228453815
 20
178.4710516284
 10
264.8501529994
 20
179.8497015776
 10
265.9799479884
 20
181.2013671154
 10
267.2101092763
 20
182.5235106308
 10
268.5383273639
 20
183.8136499377
 10
269.9621086606
 20
185.0693629342
 10
271.4787801656
 20
186.2882921504
 10
273.0854944868
 20
187.4681491741
 10
274.7792351859
 20
188.606718947
 10
276.5568224417
 20
189.7018639232
 10
278.4149190198
 20
190.7515280827
 10
280.3500365381
 20
191.7537407904
 10
282.3585420156
 20
192.706620497
 10
284.4366646932
 20
193.6083782701
 10
286.5805031127
 20
194.4573211539
 10
288.7860324414
 20
195.2518553467
 10
291.0491120285
 20
195.9904891937
 10
293.3654931785
 20
196.671835987
 10
295.7308271278
 20
197.2946165692
 10
298.1406732092
 20
197.8576617348
 10
300.5905071884
 20
198.3599144253
 10
303.075729758
 20
198.8004317137
 10
305.5916751724
 20
199.178386575
 10
308.133620007
 20
199.4930694384
 10
310.6967920258
 20
199.7438895196
 10
313.2763791414
 20
199.9303759301
 10
315.8675384483
 20
200.0521785613
 10
318.4654053158
 20
200.1090687413
 10
321.0651025202
 20
200.1009396649
 10
323.6617494017
 20
200.0278065935
 10
326.2504710271
 20
199.8898068268
 10
328.8264073421
 20
199.6871994449
 10
331.3847222952
 20
199.4203648221
 10
333.9206129176
 20
199.0898039125
 10
336.4293183396
 20
198.6961373096
 10
338.9061287288
 20
198.2401040814
 10
341.3463941326
 20
197.7225603825
 10
343.7455332076
 20
197.1444778473
 10
346.0990418209
 20
196.5069417652
 10
348.402501506
 20
195.8111490437
 10
350.651587758
 20
195.0584059608
 10
352.8420781525
 20
194.2501257132
 10
354.9698602726
 20
193.3878257623
 10
357.0309394298
 20
192.4731249864
 10
359.0214461633
 20
191.5077406406
 10
360.9376435046
 20
190.4934851331
 10
362.7759339936
 20
189.4322626226
 10
364.5328664318
 20
188.3260654435
 10
366.2051423622
 20
187.1769703654
 10
367.7896222614
 20
185.9871346943
 10
369.2833314341
 20
184.7587922224
 10
370.6834655973
 20
183.4942490342
 10
371.9873961455
 20
182.1958791775
 10
373.1926750852
 20
180.866120206
 10
374.2970396312
 20
179.5074686033
 10
375.2984164544
 20
178.1224750957
 10
376.1949255746
 20
176.7137398639
 10
376.9848838895
 20
175.283907661
 10
377.6668083348
 20
173.8356628477
 10
378.2394186688
 20
172.3717243521
 10
378.7016398754
 20
170.894840566
 10
379.0526041824
 20
169.4077841843
 10
379.2916526912
 20
167.913347
 10
379.4183366131
 20
166.4143346626
 10
379.4324181122
 20
164.9135614114
 10
379.3338707521
 20
163.4138447911
 10
379.1228795451
 20
161.9180003632
 10
378.7998406052
 20
160.4288364191
 10
378.3653604042
 20
158.9491487087
 10
377.8202546333
 20
157.4817151909
 10
377.1655466716
 20
156.0292908189
 10
376.4024656649
 20
154.5946023676
 10
375.5324442181
 20
153.1803433148
 10
374.9709617056
 20
152.3584763551
  0
LWPOLYLINE
  5
2CB
330
1F
100
AcDbEntity
  8
0
  6
Continuous
 62
     8
370
    18
100
AcDbPolyline
 90
       51
 70
   128
 43
0.0
 10
265.0573198047
 20
174.8435309511
 10
265.6469588221
 20
175.3922695512
 10
267.1292426555
 20
176.6839467437
 10
268.7045337101
 20
177.9384021351
 10
270.3700311757
 20
179.1534053496
 10
272.1227738587
 20
180.3267961558
 10
273.9596454466
 20
181.4564883076
 10
275.8773800486
 20
182.5404732537
 10
277.8725680027
 20
183.5768237083
 10
279.9416619375
 20
184.5636970782
 10
282.0809830794
 20
185.4993387384
 10
284.2867277936
 20
186.3820851524
 10
286.5549743464
 20
187.2103668292
 10
288.8816898783
 20
187.9827111141
 10
291.262737574
 20
188.6977448073
 10
293.6938840174
 20
189.3541966049
 10
296.1708067191
 20
189.9508993596
 10
298.6891018007
 20
190.4867921557
 10
301.2442918256
 20
190.9609221953
 10
303.8318337592
 20
191.3724464925
 10
306.4471270462
 20
191.7206333721
 10
309.0855217907
 20
192.0048637706
 10
311.7423270231
 20
192.2246323367
 10
314.4128190406
 20
192.37954833
 10
317.092249806
 20
192.4693363153
 10
319.775855389
 20
192.493836653
 10
322.4588644369
 20
192.4530057823
 10
325.1365066575
 20
192.3469162991
 10
327.8040213007
 20
192.1757568266
 10
330.4566656228
 20
191.93983168
 10
333.0897233189
 20
191.6395603257
 10
335.6985129086
 20
191.2754766352
 10
338.2783960591
 20
190.8482279361
 10
340.8247858325
 20
190.3585738608
 10
343.3331548405
 20
189.8073849965
 10
345.7990432947
 20
189.1956413368
 10
348.2180669354
 20
188.5244305397
 10
350.5859248267
 20
187.7949459935
 10
352.8984070038
 20
187.0084846951
 10
355.1514019578
 20
186.1664449439
 10
357.3409039458
 20
185.2703238559
 10
359.4630201133
 20
184.3217147017
 10
361.513977415
 20
183.3223040737
 10
363.4901293238
 20
182.2738688877
 10
365.3879623138
 20
181.178273223
 10
367.204102107
 20
180.0374650089
 10
368.9353196732
 20
178.8534725605
 10
370.5785369708
 20
177.6284009735
 10
372.1308324194
 20
176.3644283802
 10
373.5894460943
 20
175.0638020779
 10
373.8709072799
 20
174.7983272158
  0
LWPOLYLINE
  5
2CC
330
1F
100
AcDbEntity
  8
0
  6
Continuous
 62
     8
370
    18
100
AcDbPolyline
 90
       67
 70
   128
 43
0.0
 10
378.1511289258
 20
170.6440383725
 10
378.0364007439
 20
171.0326835672
 10
377.5299518633
 20
172.5025103026
 10
376.9129261039
 20
173.9581852315
 10
376.1864980092
 20
175.3969373941
 10
375.3520503764
 20
176.8160280439
 10
374.4111716241
 20
178.2127558611
 10
373.3656527683
 20
179.5844620949
 10
372.2174840138
 20
180.9285356246
 10
370.9688509648
 20
182.2424179298
 10
369.6221304655
 20
183.5236079608
 10
368.1798860749
 20
184.7696668997
 10
366.644863187
 20
185.9782228025
 10
365.0199838052
 20
187.1469751141
 10
363.3083409799
 20
188.2736990483
 10
361.5131929203
 20
189.356249822
 10
359.6379567928
 20
190.3925667381
 10
357.686202216
 20
191.3806771087
 10
355.6616444657
 20
192.3187000094
 10
353.5681374025
 20
193.2048498604
 10
351.4096661363
 20
194.0374398249
 10
349.1903394397
 20
194.8148850208
 10
346.9143819271
 20
195.5357055368
 10
344.5861260132
 20
196.1985292502
 10
342.2100036654
 20
196.8020944384
 10
339.7905379675
 20
197.3452521807
 10
337.3323345102
 20
197.8269685455
 10
334.8400726233
 20
198.2463265582
 10
332.318496469
 20
198.6025279472
 10
329.7724060108
 20
198.8948946628
 10
327.2066478767
 20
199.1228701683
 10
324.6261061331
 20
199.2860204994
 10
322.0356929879
 20
199.3840350902
 10
319.4403394397
 20
199.4167273643
 10
316.8449858914
 20
199.3840350902
 10
314.2545727462
 20
199.2860204994
 10
311.6740310026
 20
199.1228701683
 10
309.1082728685
 20
198.8948946628
 10
306.5621824103
 20
198.6025279472
 10
304.0406062561
 20
198.2463265582
 10
301.5483443692
 20
197.8269685455
 10
299.0901409118
 20
197.3452521807
 10
296.6706752139
 20
196.8020944384
 10
294.2945528661
 20
196.1985292502
 10
291.9662969522
 20
195.5357055368
 10
289.6903394397
 20
194.8148850208
 10
287.471012743
 20
194.0374398249
 10
285.3125414768
 20
193.2048498603
 10
283.2190344136
 20
192.3187000094
 10
281.1944766633
 20
191.3806771087
 10
279.2427220865
 20
190.3925667381
 10
277.3674859591
 20
189.356249822
 10
275.5723378995
 20
188.2736990483
 10
273.8606950741
 20
187.1469751141
 10
272.2358156923
 20
185.9782228025
 10
270.7007928045
 20
184.7696668997
 10
269.2585484138
 20
183.5236079608
 10
267.9118279145
 20
182.2424179298
 10
266.6631948656
 20
180.9285356246
 10
265.515026111
 20
179.5844620949
 10
264.4695072552
 20
178.2127558611
 10
263.5286285029
 20
176.8160280439
 10
262.6941808701
 20
175.3969373941
 10
261.9677527755
 20
173.9581852315
 10
261.350727016
 20
172.5025103026
 10
260.8442781354
 20
171.0326835672
 10
260.5380812154
 20
169.9246724349
  0
LWPOLYLINE
  5
2CD
330
1F
100
AcDbEntity
  8
0
  6
Continuous
 62
     8
370
    18
100
AcDbPolyline
 90
       16
 70
   128
 43
0.0
 10
361.5131929203
 20
185.2735457625
 10
363.3083409799
 20
184.1909949889
 10
365.0199838052
 20
183.0642710547
 10
366.644863187
 20
181.895518743
 10
368.1798860749
 20
180.6869628403
 10
369.6221304655
 20
179.4409039014
 10
370.9688509648
 20
178.1597138703
 10
372.2174840138
 20
176.8458315651
 10
373.3656527683
 20
175.5017580355
 10
374.4111716241
 20
174.1300518016
 10
375.3520503764
 20
172.7333239844
 10
376.1864980092
 20
171.3142333347
 10
376.9129261039
 20
169.8754811721
 10
377.5299518633
 20
168.4198062431
 10
378.0364007439
 20
166.9499795078
 10
378.3671168593
 20
165.7418103894
  0
LWPOLYLINE
  5
2CE
330
1F
100
AcDbEntity
  8
0
  6
Continuous
 62
     8
370
    18
100
AcDbPolyline
 90
       52
 70
   128
 43
0.0
 10
260.7134535416
 20
166.5045549261
 10
260.8442781354
 20
166.9499795078
 10
261.350727016
 20
168.4198062431
 10
261.9677527755
 20
169.8754811721
 10
262.6941808701
 20
171.3142333347
 10
263.5286285029
 20
172.7333239844
 10
264.4695072552
 20
174.1300518016
 10
265.515026111
 20
175.5017580355
 10
266.6631948656
 20
176.8458315651
 10
267.9118279145
 20
178.1597138703
 10
269.2585484138
 20
179.4409039014
 10
270.7007928045
 20
180.6869628403
 10
272.2358156923
 20
181.895518743
 10
273.8606950741
 20
183.0642710547
 10
275.5723378995
 20
184.1909949889
 10
277.3674859591
 20
185.2735457625
 10
279.2427220865
 20
186.3098626787
 10
281.1944766633
 20
187.2979730493
 10
283.2190344136
 20
188.23599595
 10
285.3125414768
 20
189.1221458009
 10
287.471012743
 20
189.9547357655
 10
289.6903394397
 20
190.7321809613
 10
291.9662969522
 20
191.4530014774
 10
294.2945528661
 20
192.1158251908
 10
296.6706752139
 20
192.719390379
 10
299.0901409118
 20
193.2625481213
 10
301.5483443692
 20
193.744264486
 10
304.0406062561
 20
194.1636224988
 10
306.5621824103
 20
194.5198238878
 10
309.1082728685
 20
194.8121906033
 10
311.6740310026
 20
195.0401661088
 10
314.2545727462
 20
195.20331644
 10
316.8449858914
 20
195.3013310308
 10
319.4403394397
 20
195.3340233049
 10
322.0356929879
 20
195.3013310308
 10
324.6261061331
 20
195.20331644
 10
327.2066478767
 20
195.0401661088
 10
329.7724060108
 20
194.8121906033
 10
332.318496469
 20
194.5198238878
 10
334.8400726233
 20
194.1636224988
 10
337.3323345102
 20
193.744264486
 10
339.7905379675
 20
193.2625481213
 10
342.2100036654
 20
192.719390379
 10
344.5861260132
 20
192.1158251908
 10
346.9143819271
 20
191.4530014774
 10
349.1903394397
 20
190.7321809613
 10
351.4096661363
 20
189.9547357655
 10
353.5681374025
 20
189.1221458009
 10
355.6616444657
 20
188.23599595
 10
357.686202216
 20
187.2979730493
 10
359.6379567928
 20
186.3098626787
 10
361.5131929203
 20
185.2735457625
  0
LINE
  5
2CF
330
1F
100
AcDbEntity
  8
0
  6
Continuous
 62
     7
370
    25
100
AcDbLine
 10
199.990617568
 20
233.7701581122
 30
0.0
 11
199.990617568
 21
232.9068716378
 31
0.0
  0
LINE
  5
2D0
330
1F
100
AcDbEntity
  8
0
  6
Continuous
 62
     7
370
    25
100
AcDbLine
 10
199.990617568
 20
213.1782209907
 30
0.0
 11
199.990617568
 21
212.3142342153
 31
0.0
  0
LINE
  5
2D1
330
1F
100
AcDbEntity
  8
0
  6
Continuous
 62
     7
370
    25
100
AcDbLine
 10
82.0868070003
 20
212.3142342153
 30
0.0
 11
82.0868070003
 21
213.1775206895
 31
0.0
  0
LINE
  5
2D2
330
1F
100
AcDbEntity
  8
0
  6
Continuous
 62
     7
370
    25
100
AcDbLine
 10
82.0868070003
 20
232.9061713366
 30
0.0
 11
82.0868070003
 21
233.7701581122
 31
0.0
  0
LINE
  5
2D3
330
1F
100
AcDbEntity
  8
0
  6
Continuous
 62
     7
370
    25
100
AcDbLine
 10
172.5387122842
 20
212.9315301408
 30
0.0
 11
172.5387122842
 21
212.3142342153
 31
0.0
  0
LINE
  5
2D4
330
1F
100
AcDbEntity
  8
0
  6
Continuous
 62
     7
370
    25
100
AcDbLine
 10
172.5387122842
 20
233.7701581122
 30
0.0
 11
172.5387122842
 21
233.1524985308
 31
0.0
  0
LINE
  5
2D5
330
1F
100
AcDbEntity
  8
0
  6
Continuous
 62
     7
370
    25
100
AcDbLine
 10
109.5387122842
 20
233.1528621865
 30
0.0
 11
109.5387122842
 21
233.7701581122
 31
0.0
  0
LINE
  5
2D6
330
1F
100
AcDbEntity
  8
0
  6
Continuous
 62
     7
370
    25
100
AcDbLine
 10
109.5387122842
 20
212.3142342153
 30
0.0
 11
109.5387122842
 21
212.9318937965
 31
0.0
  0
LINE
  5
2D7
330
1F
100
AcDbEntity
  8
0
  6
Continuous
 62
     7
370
    25
100
AcDbLine
 10
147.0387122842
 20
233.4767255361
 30
0.0
 11
147.0387122842
 21
233.7701581122
 31
0.0
  0
LINE
  5
2D8
330
1F
100
AcDbEntity
  8
0
  6
Continuous
 62
     7
370
    25
100
AcDbLine
 10
135.0387122842
 20
233.7701581122
 30
0.0
 11
135.0387122842
 21
233.4767557572
 31
0.0
  0
LINE
  5
2D9
330
1F
100
AcDbEntity
  8
0
  6
Continuous
 62
     7
370
    25
100
AcDbLine
 10
147.0387122842
 20
212.3142342153
 30
0.0
 11
147.0387122842
 21
212.6076365701
 31
0.0
  0
LINE
  5
2DA
330
1F
100
AcDbEntity
  8
0
  6
Continuous
 62
     7
370
    25
100
AcDbLine
 10
135.0387122842
 20
212.6076667912
 30
0.0
 11
135.0387122842
 21
212.3142342153
 31
0.0
  0
LINE
  5
2DB
330
1F
100
AcDbEntity
  8
0
  6
Continuous
 62
     7
370
    25
100
AcDbLine
 10
76.9667410008
 20
232.2900330764
 30
0.0
 11
72.0387122842
 21
232.8137323635
 31
0.0
  0
ARC
  5
2DC
330
1F
100
AcDbEntity
  8
0
  6
Continuous
 62
     7
370
    25
100
AcDbCircle
 10
81.0219804469
 20
289.540164322
 30
0.0
 40
56.64397098553581
100
AcDbArc
 50
260.8748324742
 51
271.075446751
  0
LINE
  5
2DD
330
1F
100
AcDbEntity
  8
0
  6
Continuous
 62
     7
370
    25
100
AcDbLine
 10
82.0868070003
 20
233.7701581064
 30
0.0
 11
97.5422430539
 21
233.7701581122
 31
0.0
  0
LWPOLYLINE
  5
2DE
330
1F
100
AcDbEntity
  8
0
  6
Continuous
 62
     7
370
    25
100
AcDbPolyline
 90
       32
 70
   128
 43
0.0
 10
97.5422430539
 20
233.7701581122
 10
97.5628845694
 20
233.7396476436
 10
97.7380005724
 20
233.6416665388
 10
97.9518675469
 20
233.571442619
 10
98.0816349823
 20
233.5368233272
 10
98.2281416157
 20
233.501873906
 10
98.577184572
 20
233.4299473831
 10
98.9960785426
 20
233.3569233195
 10
99.2205081577
 20
233.3218704694
 10
99.4582604443
 20
233.2871407032
 10
99.9818642508
 20
233.2177172993
 10
100.5600180628
 20
233.1500934274
 10
100.8534880891
 20
233.1187881204
 10
101.155310042
 20
233.0884783993
 10
101.7935326841
 20
233.03013523
 10
102.4645291661
 20
232.9765151144
 10
103.1232341554
 20
232.9310828113
 10
103.8012604483
 20
232.8915831987
 10
104.486300294
 20
232.8592482733
 10
105.132176332
 20
232.8360740329
 10
105.7716834954
 20
232.8207304316
 10
106.3918722744
 20
232.814004723
 10
106.9529436424
 20
232.8160458856
 10
107.4830932071
 20
232.8266900813
 10
107.9703211093
 20
232.8461479246
 10
108.3862912494
 20
232.8728924312
 10
108.7505546941
 20
232.907810491
 10
109.0533994771
 20
232.9505397439
 10
109.2793495686
 20
232.9983561148
 10
109.4384515675
 20
233.0528877774
 10
109.524232893
 20
233.1133070647
 10
109.5302010978
 20
233.1528621865
  0
LINE
  5
2DF
330
1F
100
AcDbEntity
  8
0
  6
Continuous
 62
     7
370
    25
100
AcDbLine
 10
109.5387122842
 20
233.7701581064
 30
0.0
 11
135.0387122842
 21
233.7701581064
 31
0.0
  0
LWPOLYLINE
  5
2E0
330
1F
100
AcDbEntity
  8
0
  6
Continuous
 62
     7
370
    25
100
AcDbPolyline
 90
       32
 70
   128
 43
0.0
 10
135.0474287346
 20
233.4767557572
 10
135.054950165
 20
233.4299473831
 10
135.1447986002
 20
233.3569233195
 10
135.2161844132
 20
233.3218704694
 10
135.305510544
 20
233.2871407032
 10
135.5423600696
 20
233.2177172993
 10
135.8548898099
 20
233.1500934274
 10
136.0304442187
 20
233.1187881204
 10
136.2214729405
 20
233.0884783993
 10
136.6570485218
 20
233.03013523
 10
137.1569118538
 20
232.9765151144
 10
137.6860988994
 20
232.9310828113
 10
138.2689591876
 20
232.8915831987
 10
138.896997283
 20
232.8592482733
 10
139.5264239557
 20
232.8360740329
 10
140.1880185519
 20
232.8207304316
 10
140.8705173936
 20
232.814004723
 10
141.5285908548
 20
232.8160458856
 10
142.1940126528
 20
232.8266900813
 10
142.8541711471
 20
232.8461479246
 10
143.4690026958
 20
232.8728924312
 10
144.0659709501
 20
232.907810491
 10
144.6326001292
 20
232.9505397439
 10
145.1377416156
 20
232.9983561148
 10
145.6018961984
 20
233.0528877774
 10
146.0140326988
 20
233.1133070647
 10
146.353029254
 20
233.1761064326
 10
146.6321839486
 20
233.2434352755
 10
146.8430097595
 20
233.3141531223
 10
146.9754644751
 20
233.3842348945
 10
147.0355861188
 20
233.4562725385
 10
147.0307353905
 20
233.4767255361
  0
LINE
  5
2E1
330
1F
100
AcDbEntity
  8
0
  6
Continuous
 62
     7
370
    25
100
AcDbLine
 10
147.0387122842
 20
233.7701581064
 30
0.0
 11
172.5387122842
 21
233.7701581064
 31
0.0
  0
LWPOLYLINE
  5
2E2
330
1F
100
AcDbEntity
  8
0
  6
Continuous
 62
     7
370
    25
100
AcDbPolyline
 90
       32
 70
   128
 43
0.0
 10
172.540072723
 20
233.1524985308
 10
172.5387626027
 20
233.1500934274
 10
172.5493617319
 20
233.1187881204
 10
172.5784112308
 20
233.0884783993
 10
172.6946276262
 20
233.03013523
 10
172.889419832
 20
232.9765151144
 10
173.1472936923
 20
232.9310828113
 10
173.4788110324
 20
232.8915831987
 10
173.8815650769
 20
232.8592482733
 10
174.3258880157
 20
232.8360740329
 10
174.832296307
 20
232.8207304316
 10
175.3942301979
 20
232.814004723
 10
175.9729754999
 20
232.8160458856
 10
176.5953702977
 20
232.8266900813
 10
177.2515704488
 20
232.8461479246
 10
177.9005197891
 20
232.8728924312
 10
178.5702356914
 20
232.907810491
 10
179.2488214356
 20
232.9505397439
 10
179.8978020635
 20
232.9983561148
 10
180.5426393845
 20
233.0528877774
 10
181.1706994174
 20
233.1133070647
 10
181.7483833029
 20
233.1761064326
 10
182.2973199868
 20
233.2434352755
 10
182.8054256237
 20
233.3141531223
 10
183.2456444641
 20
233.3842348945
 10
183.635327348
 20
233.4562725385
 10
183.9642030491
 20
233.5289684733
 10
184.0979887799
 20
233.5637282594
 10
184.2146634918
 20
233.5980783989
 10
184.3982491325
 20
233.6665120393
 10
184.5076866982
 20
233.7329567679
 10
184.5351815144
 20
233.7701581122
  0
LINE
  5
2E3
330
1F
100
AcDbEntity
  8
0
  6
Continuous
 62
     7
370
    25
100
AcDbLine
 10
184.5351815144
 20
233.7701581122
 30
0.0
 11
199.990617568
 21
233.7701581064
 31
0.0
  0
LWPOLYLINE
  5
2E4
330
1F
100
AcDbEntity
  8
0
  6
Continuous
 62
     7
370
    25
100
AcDbPolyline
 90
       24
 70
   128
 43
0.0
 10
199.9997147173
 20
232.9068716378
 10
199.9963646152
 20
232.8915831987
 10
200.0659169879
 20
232.8592482733
 10
200.2060802202
 20
232.8360740329
 10
200.4216105138
 20
232.8207304316
 10
200.7124097216
 20
232.814004723
 10
201.0567525281
 20
232.8160458856
 10
201.4693501423
 20
232.8266900813
 10
201.9457636496
 20
232.8461479246
 10
202.4549453298
 20
232.8728924312
 10
203.017959045
 20
232.907810491
 10
203.6266748521
 20
232.9505397439
 10
204.2456007863
 20
232.9983561148
 10
204.8983372063
 20
233.0528877774
 10
205.5740325931
 20
233.1133070647
 10
206.2356138781
 20
233.1761064326
 10
206.9072454102
 20
233.2434352755
 10
207.5764843781
 20
233.3141531223
 10
208.2065110606
 20
233.3842348945
 10
208.8213399706
 20
233.4562725385
 10
209.408210301
 20
233.5289684733
 10
209.6765483945
 20
233.5637282594
 10
209.9335644416
 20
233.5980783989
 10
210.0387122842
 20
233.6128773772
  0
LINE
  5
2E5
330
1F
100
AcDbEntity
  8
0
  6
Continuous
 62
     7
370
    25
100
AcDbLine
 10
210.0387122842
 20
232.8137323635
 30
0.0
 11
205.1106835675
 21
232.2900330764
 31
0.0
  0
LINE
  5
2E6
330
1F
100
AcDbEntity
  8
0
  6
Continuous
 62
     7
370
    25
100
AcDbLine
 10
210.0387122842
 20
232.8137323635
 30
0.0
 11
210.0387122842
 21
233.7701581064
 31
0.0
  0
LINE
  5
2E7
330
1F
100
AcDbEntity
  8
0
  6
Continuous
 62
     7
370
    25
100
AcDbLine
 10
72.0387122842
 20
213.2706599638
 30
0.0
 11
72.0387122842
 21
212.3142342209
 31
0.0
  0
LINE
  5
2E8
330
1F
100
AcDbEntity
  8
0
  6
Continuous
 62
     7
370
    25
100
AcDbLine
 10
205.1106835675
 20
213.7943592509
 30
0.0
 11
210.0387122842
 21
213.2706599638
 31
0.0
  0
ARC
  5
2E9
330
1F
100
AcDbEntity
  8
0
  6
Continuous
 62
     7
370
    25
100
AcDbCircle
 10
201.0554441215
 20
156.544228006
 30
0.0
 40
56.64397098485067
100
AcDbArc
 50
80.8748324741
 51
91.0754467511
  0
LINE
  5
2EA
330
1F
100
AcDbEntity
  8
0
  6
Continuous
 62
     7
370
    25
100
AcDbLine
 10
199.990617568
 20
212.3142342093
 30
0.0
 11
184.5351815144
 21
212.3142342153
 31
0.0
  0
LWPOLYLINE
  5
2EB
330
1F
100
AcDbEntity
  8
0
  6
Continuous
 62
     7
370
    25
100
AcDbPolyline
 90
       32
 70
   128
 43
0.0
 10
184.5351815144
 20
212.3142342153
 10
184.514539999
 20
212.3447446837
 10
184.339423996
 20
212.4427257885
 10
184.1255570214
 20
212.5129497083
 10
183.995789586
 20
212.5475690001
 10
183.8492829526
 20
212.5825184213
 10
183.5002399963
 20
212.6544449442
 10
183.0813460256
 20
212.7274690079
 10
182.8569164105
 20
212.7625218579
 10
182.6191641239
 20
212.7972516241
 10
182.0955603174
 20
212.866675028
 10
181.5174065054
 20
212.9342988999
 10
181.2239364791
 20
212.9656042069
 10
180.9221145262
 20
212.9959139281
 10
180.2838918842
 20
213.0542570973
 10
179.6128954022
 20
213.1078772129
 10
178.9541904128
 20
213.153309516
 10
178.2761641199
 20
213.1928091286
 10
177.5911242742
 20
213.225144054
 10
176.9452482362
 20
213.2483182944
 10
176.3057410728
 20
213.2636618957
 10
175.6855522938
 20
213.2703876043
 10
175.1244809258
 20
213.2683464417
 10
174.5943313611
 20
213.257702246
 10
174.107103459
 20
213.2382444027
 10
173.6911333189
 20
213.2114998961
 10
173.3268698742
 20
213.1765818362
 10
173.0240250912
 20
213.1338525834
 10
172.7980749997
 20
213.0860362124
 10
172.6389730008
 20
213.0315045499
 10
172.5531916753
 20
212.9710852626
 10
172.5472234706
 20
212.9315301408
  0
LINE
  5
2EC
330
1F
100
AcDbEntity
  8
0
  6
Continuous
 62
     7
370
    25
100
AcDbLine
 10
172.5387122842
 20
212.3142342093
 30
0.0
 11
147.0387122842
 21
212.3142342093
 31
0.0
  0
LWPOLYLINE
  5
2ED
330
1F
100
AcDbEntity
  8
0
  6
Continuous
 62
     7
370
    25
100
AcDbPolyline
 90
       32
 70
   128
 43
0.0
 10
147.0299958337
 20
212.6076365701
 10
147.0224744034
 20
212.6544449442
 10
146.9326259681
 20
212.7274690079
 10
146.8612401551
 20
212.7625218579
 10
146.7719140243
 20
212.7972516241
 10
146.5350644987
 20
212.866675028
 10
146.2225347583
 20
212.9342988999
 10
146.0469803496
 20
212.9656042069
 10
145.8559516278
 20
212.9959139281
 10
145.4203760464
 20
213.0542570973
 10
144.9205127145
 20
213.1078772129
 10
144.3913256689
 20
213.153309516
 10
143.8084653806
 20
213.1928091286
 10
143.1804272852
 20
213.225144054
 10
142.5510006125
 20
213.2483182944
 10
141.8894060163
 20
213.2636618957
 10
141.2069071746
 20
213.2703876043
 10
140.5488337134
 20
213.2683464417
 10
139.8834119154
 20
213.257702246
 10
139.2232534211
 20
213.2382444027
 10
138.6084218724
 20
213.2114998961
 10
138.0114536181
 20
213.1765818362
 10
137.444824439
 20
213.1338525834
 10
136.9396829527
 20
213.0860362124
 10
136.4755283699
 20
213.0315045499
 10
136.0633918695
 20
212.9710852626
 10
135.7243953142
 20
212.9082858947
 10
135.4452406197
 20
212.8409570518
 10
135.2344148088
 20
212.770239205
 10
135.1019600932
 20
212.7001574328
 10
135.0418384495
 20
212.6281197888
 10
135.0466891778
 20
212.6076667912
  0
LINE
  5
2EE
330
1F
100
AcDbEntity
  8
0
  6
Continuous
 62
     7
370
    25
100
AcDbLine
 10
135.0387122842
 20
212.3142342093
 30
0.0
 11
109.5387122842
 21
212.3142342093
 31
0.0
  0
LWPOLYLINE
  5
2EF
330
1F
100
AcDbEntity
  8
0
  6
Continuous
 62
     7
370
    25
100
AcDbPolyline
 90
       32
 70
   128
 43
0.0
 10
109.5373518453
 20
212.9318937965
 10
109.5386619656
 20
212.9342988999
 10
109.5280628364
 20
212.9656042069
 10
109.4990133375
 20
212.9959139281
 10
109.3827969421
 20
213.0542570973
 10
109.1880047363
 20
213.1078772129
 10
108.9301308759
 20
213.153309516
 10
108.5986135358
 20
213.1928091286
 10
108.1958594913
 20
213.225144054
 10
107.7515365525
 20
213.2483182944
 10
107.2451282613
 20
213.2636618957
 10
106.6831943704
 20
213.2703876043
 10
106.1044490684
 20
213.2683464417
 10
105.4820542705
 20
213.257702246
 10
104.8258541195
 20
213.2382444027
 10
104.1769047791
 20
213.2114998961
 10
103.5071888768
 20
213.1765818362
 10
102.8286031326
 20
213.1338525834
 10
102.1796225048
 20
213.0860362124
 10
101.5347851837
 20
213.0315045499
 10
100.9067251508
 20
212.9710852626
 10
100.3290412654
 20
212.9082858947
 10
99.7801045815
 20
212.8409570518
 10
99.2719989445
 20
212.770239205
 10
98.8317801041
 20
212.7001574328
 10
98.4420972202
 20
212.6281197888
 10
98.1132215192
 20
212.5554238539
 10
97.9794357884
 20
212.5206640679
 10
97.8627610765
 20
212.4863139284
 10
97.6791754358
 20
212.417880288
 10
97.5697378701
 20
212.3514355594
 10
97.542243054
 20
212.3142342153
  0
LINE
  5
2F0
330
1F
100
AcDbEntity
  8
0
  6
Continuous
 62
     7
370
    25
100
AcDbLine
 10
97.542243054
 20
212.3142342153
 30
0.0
 11
82.0868070003
 21
212.3142342093
 31
0.0
  0
LWPOLYLINE
  5
2F1
330
1F
100
AcDbEntity
  8
0
  6
Continuous
 62
     7
370
    25
100
AcDbPolyline
 90
       24
 70
   128
 43
0.0
 10
82.077709851
 20
213.1775206895
 10
82.0810599531
 20
213.1928091286
 10
82.0115075804
 20
213.225144054
 10
81.8713443481
 20
213.2483182944
 10
81.6558140545
 20
213.2636618957
 10
81.3650148467
 20
213.2703876043
 10
81.0206720402
 20
213.2683464417
 10
80.608074426
 20
213.257702246
 10
80.1316609187
 20
213.2382444027
 10
79.6224792384
 20
213.2114998961
 10
79.0594655233
 20
213.1765818362
 10
78.4507497161
 20
213.1338525834
 10
77.8318237819
 20
213.0860362124
 10
77.179087362
 20
213.0315045499
 10
76.5033919752
 20
212.9710852626
 10
75.8418106901
 20
212.9082858947
 10
75.170179158
 20
212.8409570518
 10
74.5009401902
 20
212.770239205
 10
73.8709135077
 20
212.7001574328
 10
73.2560845977
 20
212.6281197888
 10
72.6692142673
 20
212.5554238539
 10
72.4008761737
 20
212.5206640679
 10
72.1438601266
 20
212.4863139284
 10
72.0387122842
 20
212.4715149501
  0
LINE
  5
2F2
330
1F
100
AcDbEntity
  8
0
  6
Continuous
 62
     7
370
    25
100
AcDbLine
 10
72.0387122842
 20
213.2706599638
 30
0.0
 11
76.9667410008
 21
213.7943592509
 31
0.0
  0
LINE
  5
2F3
330
1F
100
AcDbEntity
  8
0
  6
Continuous
 62
     7
370
    25
100
AcDbLine
 10
210.0387122842
 20
212.3142342209
 30
0.0
 11
210.0387122842
 21
213.2706599638
 31
0.0
  0
LINE
  5
2F4
330
1F
100
AcDbEntity
  8
0
  6
Continuous
 62
     7
370
    25
100
AcDbLine
 10
72.0387122842
 20
233.7701581064
 30
0.0
 11
72.0387122842
 21
232.8137323635
 31
0.0
  0
ARC
  5
2F5
330
1F
100
AcDbEntity
  8
0
  6
Continuous
 62
     7
370
    25
100
AcDbCircle
 10
74.7376903401
 20
215.0390870159
 30
0.0
 40
2.801021944051343
100
AcDbArc
 50
341.0424488268
 51
55.139177842
  0
LINE
  5
2F6
330
1F
100
AcDbEntity
  8
0
  6
Continuous
 62
     7
370
    25
100
AcDbLine
 10
205.7387122842
 20
217.3374457054
 30
0.0
 11
76.3387122842
 21
217.3374457054
 31
0.0
  0
ARC
  5
2F7
330
1F
100
AcDbEntity
  8
0
  6
Continuous
 62
     7
370
    25
100
AcDbCircle
 10
207.3397342282
 20
215.0390870159
 30
0.0
 40
2.801021944051316
100
AcDbArc
 50
124.860822158
 51
198.9575511732
  0
ARC
  5
2F8
330
1F
100
AcDbEntity
  8
0
  6
Continuous
 62
     7
370
    25
100
AcDbCircle
 10
74.7376903401
 20
231.0453053114
 30
0.0
 40
2.801021944051338
100
AcDbArc
 50
304.860822158
 51
18.9575511732
  0
ARC
  5
2F9
330
1F
100
AcDbEntity
  8
0
  6
Continuous
 62
     7
370
    25
100
AcDbCircle
 10
207.3397342282
 20
231.0453053114
 30
0.0
 40
2.80102194405133
100
AcDbArc
 50
161.0424488268
 51
235.139177842
  0
LINE
  5
2FA
330
1F
100
AcDbEntity
  8
0
  6
Continuous
 62
     7
370
    25
100
AcDbLine
 10
76.3387122842
 20
228.7469466219
 30
0.0
 11
205.7387122842
 21
228.7469466219
 31
0.0
  0
ARC
  5
2FB
330
1F
100
AcDbEntity
  8
0
  6
Continuous
 62
     7
370
    25
100
AcDbCircle
 10
64.4387122842
 20
223.0421961637
 30
0.0
 40
3.999999999117196
100
AcDbArc
 50
302.1301315277
 51
57.8698685327
  0
ARC
  5
2FC
330
1F
100
AcDbEntity
  8
0
  6
Continuous
 62
     7
370
    25
100
AcDbCircle
 10
217.6387122842
 20
223.0421961637
 30
0.0
 40
3.999999999117204
100
AcDbArc
 50
122.1301314673
 51
237.8698684723
  0
ARC
  5
2FD
330
1F
100
AcDbEntity
  8
0
  6
Continuous
 62
     7
370
    25
100
AcDbCircle
 10
201.0387122842
 20
220.5421961637
 30
0.0
 40
0.5000000000000284
100
AcDbArc
 50
180.0
 51
270.0
  0
LINE
  5
2FE
330
1F
100
AcDbEntity
  8
0
  6
Continuous
 62
     7
370
    25
100
AcDbLine
 10
200.5387122842
 20
225.5421961636
 30
0.0
 11
200.5387122842
 21
220.5421961637
 31
0.0
  0
ARC
  5
2FF
330
1F
100
AcDbEntity
  8
0
  6
Continuous
 62
     7
370
    25
100
AcDbCircle
 10
201.0387122842
 20
225.5421961636
 30
0.0
 40
0.5000000000000284
100
AcDbArc
 50
90.0
 51
180.0
  0
LINE
  5
300
330
1F
100
AcDbEntity
  8
0
  6
Continuous
 62
     7
370
    25
100
AcDbLine
 10
201.0387122842
 20
226.0421961636
 30
0.0
 11
205.7387122842
 21
226.0421961636
 31
0.0
  0
LINE
  5
301
330
1F
100
AcDbEntity
  8
0
  6
Continuous
 62
     7
370
    25
100
AcDbLine
 10
205.7387122842
 20
228.7469466219
 30
0.0
 11
205.7387122842
 21
226.0421961636
 31
0.0
  0
ARC
  5
302
330
1F
100
AcDbEntity
  8
0
  6
Continuous
 62
     7
370
    25
100
AcDbCircle
 10
205.1635208181
 20
231.7928326893
 30
0.0
 40
0.5000000000000232
100
AcDbArc
 50
96.0660288418
 51
161.0424488268
  0
LINE
  5
303
330
1F
100
AcDbEntity
  8
0
  6
Continuous
 62
     7
370
    25
100
AcDbLine
 10
210.0387122842
 20
233.7701581064
 30
0.0
 11
219.0387122842
 21
233.7701581122
 31
0.0
  0
LINE
  5
304
330
1F
100
AcDbEntity
  8
0
  6
Continuous
 62
     7
370
    25
100
AcDbLine
 10
219.0387122842
 20
233.7701581122
 30
0.0
 11
219.0387122842
 21
229.7505210773
 31
0.0
  0
ARC
  5
305
330
1F
100
AcDbEntity
  8
0
  6
Continuous
 62
     7
370
    25
100
AcDbCircle
 10
217.0387122842
 20
229.7505210773
 30
0.0
 40
2.000000000000015
100
AcDbArc
 50
302.1301315737
 51
0.0
  0
LINE
  5
306
330
1F
100
AcDbEntity
  8
0
  6
Continuous
 62
     7
370
    25
100
AcDbLine
 10
218.1024002908
 20
228.0568363887
 30
0.0
 11
215.511336278
 21
226.4295655433
 31
0.0
  0
LINE
  5
307
330
1F
100
AcDbEntity
  8
0
  6
Continuous
 62
     7
370
    25
100
AcDbLine
 10
215.511336274
 20
219.6548267855
 30
0.0
 11
218.1024002908
 21
218.0275559386
 31
0.0
  0
ARC
  5
308
330
1F
100
AcDbEntity
  8
0
  6
Continuous
 62
     7
370
    25
100
AcDbCircle
 10
217.0387122842
 20
216.33387125
 30
0.0
 40
2.0
100
AcDbArc
 50
0.0
 51
57.8698684263
  0
LINE
  5
309
330
1F
100
AcDbEntity
  8
0
  6
Continuous
 62
     7
370
    25
100
AcDbLine
 10
219.0387122842
 20
216.33387125
 30
0.0
 11
219.0387122842
 21
212.3142342153
 31
0.0
  0
LINE
  5
30A
330
1F
100
AcDbEntity
  8
0
  6
Continuous
 62
     7
370
    25
100
AcDbLine
 10
210.0387122842
 20
212.3142342209
 30
0.0
 11
219.0387122842
 21
212.3142342153
 31
0.0
  0
ARC
  5
30B
330
1F
100
AcDbEntity
  8
0
  6
Continuous
 62
     7
370
    25
100
AcDbCircle
 10
205.1635208181
 20
214.291559638
 30
0.0
 40
0.5000000000000269
100
AcDbArc
 50
198.9575511732
 51
263.9339711583
  0
LINE
  5
30C
330
1F
100
AcDbEntity
  8
0
  6
Continuous
 62
     7
370
    25
100
AcDbLine
 10
205.7387122842
 20
220.0421961636
 30
0.0
 11
205.7387122842
 21
217.3374457054
 31
0.0
  0
LINE
  5
30D
330
1F
100
AcDbEntity
  8
0
  6
Continuous
 62
     7
370
    25
100
AcDbLine
 10
205.7387122842
 20
220.0421961636
 30
0.0
 11
201.0387122842
 21
220.0421961636
 31
0.0
  0
LINE
  5
30E
330
1F
100
AcDbEntity
  8
0
  6
Continuous
 62
     7
370
    25
100
AcDbLine
 10
63.9750242775
 20
218.0275559386
 30
0.0
 11
66.5660882943
 21
219.6548267855
 31
0.0
  0
LINE
  5
30F
330
1F
100
AcDbEntity
  8
0
  6
Continuous
 62
     7
370
    25
100
AcDbLine
 10
66.5660882903
 20
226.4295655433
 30
0.0
 11
63.9750242775
 21
228.0568363887
 31
0.0
  0
LINE
  5
310
330
1F
100
AcDbEntity
  8
0
  6
Continuous
 62
     7
370
    25
100
AcDbLine
 10
76.3387122842
 20
217.3374457054
 30
0.0
 11
76.3387122842
 21
220.0421961636
 31
0.0
  0
LINE
  5
311
330
1F
100
AcDbEntity
  8
0
  6
Continuous
 62
     7
370
    25
100
AcDbLine
 10
76.3387122842
 20
226.0421961636
 30
0.0
 11
76.3387122842
 21
228.7469466219
 31
0.0
  0
ARC
  5
312
330
1F
100
AcDbEntity
  8
0
  6
Continuous
 62
     7
370
    25
100
AcDbCircle
 10
76.9139037502
 20
214.291559638
 30
0.0
 40
0.5000000000000283
100
AcDbArc
 50
276.0660288417
 51
341.0424488268
  0
LINE
  5
313
330
1F
100
AcDbEntity
  8
0
  6
Continuous
 62
     7
370
    25
100
AcDbLine
 10
63.0387122842
 20
212.3142342153
 30
0.0
 11
63.0387122842
 21
216.33387125
 31
0.0
  0
ARC
  5
314
330
1F
100
AcDbEntity
  8
0
  6
Continuous
 62
     7
370
    25
100
AcDbCircle
 10
65.0387122842
 20
216.33387125
 30
0.0
 40
2.000000000000007
100
AcDbArc
 50
122.1301315737
 51
180.0
  0
ARC
  5
315
330
1F
100
AcDbEntity
  8
0
  6
Continuous
 62
     7
370
    25
100
AcDbCircle
 10
65.0387122842
 20
229.7505210773
 30
0.0
 40
2.000000000000026
100
AcDbArc
 50
180.0
 51
237.8698684263
  0
LINE
  5
316
330
1F
100
AcDbEntity
  8
0
  6
Continuous
 62
     7
370
    25
100
AcDbLine
 10
63.0387122842
 20
229.7505210773
 30
0.0
 11
63.0387122842
 21
233.7701581122
 31
0.0
  0
LINE
  5
317
330
1F
100
AcDbEntity
  8
0
  6
Continuous
 62
     7
370
    25
100
AcDbLine
 10
63.0387122842
 20
233.7701581122
 30
0.0
 11
72.0387122842
 21
233.7701581064
 31
0.0
  0
ARC
  5
318
330
1F
100
AcDbEntity
  8
0
  6
Continuous
 62
     7
370
    25
100
AcDbCircle
 10
76.9139037502
 20
231.7928326893
 30
0.0
 40
0.5000000000000292
100
AcDbArc
 50
18.9575511732
 51
83.9339711582
  0
LINE
  5
319
330
1F
100
AcDbEntity
  8
0
  6
Continuous
 62
     7
370
    25
100
AcDbLine
 10
76.3387122842
 20
226.0421961636
 30
0.0
 11
81.0387122842
 21
226.0421961636
 31
0.0
  0
ARC
  5
31A
330
1F
100
AcDbEntity
  8
0
  6
Continuous
 62
     7
370
    25
100
AcDbCircle
 10
81.0387122842
 20
225.5421961636
 30
0.0
 40
0.5000000000000284
100
AcDbArc
 50
0.0
 51
90.0
  0
LINE
  5
31B
330
1F
100
AcDbEntity
  8
0
  6
Continuous
 62
     7
370
    25
100
AcDbLine
 10
81.5387122842
 20
220.5421961637
 30
0.0
 11
81.5387122842
 21
225.5421961636
 31
0.0
  0
ARC
  5
31C
330
1F
100
AcDbEntity
  8
0
  6
Continuous
 62
     7
370
    25
100
AcDbCircle
 10
81.0387122842
 20
220.5421961637
 30
0.0
 40
0.5000000000000284
100
AcDbArc
 50
270.0
 51
0.0
  0
LINE
  5
31D
330
1F
100
AcDbEntity
  8
0
  6
Continuous
 62
     7
370
    25
100
AcDbLine
 10
81.0387122842
 20
220.0421961636
 30
0.0
 11
76.3387122842
 21
220.0421961636
 31
0.0
  0
LINE
  5
31E
330
1F
100
AcDbEntity
  8
0
  6
Continuous
 62
     7
370
    25
100
AcDbLine
 10
63.0387122842
 20
212.3142342153
 30
0.0
 11
72.0387122842
 21
212.3142342209
 31
0.0
  0
LINE
  5
31F
330
1F
100
AcDbEntity
  8
0
  6
Continuous
 62
     7
370
    25
100
AcDbLine
 10
201.0387122842
 20
220.0421961636
 30
0.0
 11
81.0387122842
 21
220.0421961636
 31
0.0
  0
LINE
  5
320
330
1F
100
AcDbEntity
  8
0
  6
Continuous
 62
     7
370
    25
100
AcDbLine
 10
81.0387122842
 20
226.0421961636
 30
0.0
 11
201.0387122842
 21
226.0421961636
 31
0.0
  0
LINE
  5
321
330
1F
100
AcDbEntity
  8
0
  6
Continuous
 62
     7
370
    25
100
AcDbLine
 10
199.990617568
 20
233.7701581064
 30
0.0
 11
210.0387122842
 21
233.7701581064
 31
0.0
  0
LINE
  5
322
330
1F
100
AcDbEntity
  8
0
  6
Continuous
 62
     7
370
    25
100
AcDbLine
 10
199.990617568
 20
212.3142342209
 30
0.0
 11
210.0387122842
 21
212.3142342209
 31
0.0
  0
LINE
  5
323
330
1F
100
AcDbEntity
  8
0
  6
Continuous
 62
     7
370
    25
100
AcDbLine
 10
72.0387122842
 20
212.3142342209
 30
0.0
 11
82.0868070003
 21
212.3142342209
 31
0.0
  0
LINE
  5
324
330
1F
100
AcDbEntity
  8
0
  6
Continuous
 62
     7
370
    25
100
AcDbLine
 10
72.0387122842
 20
233.7701581064
 30
0.0
 11
82.0868070003
 21
233.7701581064
 31
0.0
  0
LWPOLYLINE
  5
325
330
1F
100
AcDbEntity
  8
0
  6
Continuous
 62
     7
370
    25
100
AcDbPolyline
 90
       26
 70
   128
 43
0.0
 10
172.5387122842
 20
212.3142342209
 10
172.5755007736
 20
212.3142342185
 10
172.7045328749
 20
212.3142342191
 10
172.9243927815
 20
212.3142342198
 10
173.2316576653
 20
212.3142342205
 10
173.6215439583
 20
212.3142342212
 10
174.0879818236
 20
212.3142342219
 10
174.6237096527
 20
212.3142342226
 10
175.2203871153
 20
212.3142342232
 10
175.8687250036
 20
212.3142342239
 10
176.558629849
 20
212.3142342244
 10
177.2793610591
 20
212.3142342249
 10
178.0196981297
 20
212.3142342254
 10
178.7681153283
 20
212.3142342258
 10
179.5129611292
 20
212.3142342261
 10
180.242639607
 20
212.3142342263
 10
180.9457909644
 20
212.3142342265
 10
181.6114683845
 20
212.3142342265
 10
182.2293084528
 20
212.3142342265
 10
182.7896924974
 20
212.3142342264
 10
183.2838963347
 20
212.3142342262
 10
183.704226089
 20
212.3142342259
 10
184.0441379733
 20
212.3142342255
 10
184.2983401634
 20
212.3142342251
 10
184.462875183
 20
212.3142342246
 10
184.5351815144
 20
212.3142342153
  0
LWPOLYLINE
  5
326
330
1F
100
AcDbEntity
  8
0
  6
Continuous
 62
     7
370
    25
100
AcDbPolyline
 90
       26
 70
   128
 43
0.0
 10
172.5387122842
 20
233.7701581064
 10
172.5755007735
 20
233.7701581089
 10
172.7045328748
 20
233.7701581082
 10
172.9243927813
 20
233.7701581075
 10
173.2316576652
 20
233.7701581068
 10
173.6215439581
 20
233.7701581061
 10
174.0879818235
 20
233.7701581054
 10
174.6237096525
 20
233.7701581046
 10
175.2203871152
 20
233.770158104
 10
175.8687250036
 20
233.7701581033
 10
176.558629849
 20
233.7701581027
 10
177.2793610591
 20
233.7701581022
 10
178.0196981298
 20
233.7701581017
 10
178.7681153284
 20
233.7701581013
 10
179.5129611294
 20
233.770158101
 10
180.2426396072
 20
233.7701581007
 10
180.9457909647
 20
233.7701581006
 10
181.6114683848
 20
233.7701581005
 10
182.2293084531
 20
233.7701581006
 10
182.7896924977
 20
233.7701581007
 10
183.2838963349
 20
233.7701581009
 10
183.7042260893
 20
233.7701581012
 10
184.0441379735
 20
233.7701581016
 10
184.2983401636
 20
233.770158102
 10
184.4628751832
 20
233.7701581025
 10
184.5351815144
 20
233.7701581122
  0
LINE
  5
327
330
1F
100
AcDbEntity
  8
0
  6
Continuous
 62
     7
370
    25
100
AcDbLine
 10
97.5422430539
 20
233.7701581122
 30
0.0
 11
109.5387122842
 21
233.7701581064
 31
0.0
  0
LINE
  5
328
330
1F
100
AcDbEntity
  8
0
  6
Continuous
 62
     7
370
    25
100
AcDbLine
 10
97.542243054
 20
212.3142342153
 30
0.0
 11
109.5387122842
 21
212.3142342209
 31
0.0
  0
LINE
  5
329
330
1F
100
AcDbEntity
  8
0
  6
Continuous
 62
     7
370
    25
100
AcDbLine
 10
135.0387122842
 20
233.7701581064
 30
0.0
 11
147.0387122842
 21
233.7701581064
 31
0.0
  0
LINE
  5
32A
330
1F
100
AcDbEntity
  8
0
  6
Continuous
 62
     7
370
    25
100
AcDbLine
 10
135.0387122842
 20
212.3142342209
 30
0.0
 11
147.0387122842
 21
212.3142342209
 31
0.0
  0
LINE
  5
32B
330
1F
100
AcDbEntity
  8
0
  6
Continuous
 62
     8
370
    18
100
AcDbLine
 10
76.9667410008
 20
232.2900330764
 30
0.0
 11
205.1106835675
 21
232.2900330764
 31
0.0
  0
LINE
  5
32C
330
1F
100
AcDbEntity
  8
0
  6
Continuous
 62
     8
370
    18
100
AcDbLine
 10
205.1106835675
 20
213.7943592509
 30
0.0
 11
76.9667410008
 21
213.7943592509
 31
0.0
  0
LINE
  5
32D
330
1F
100
AcDbEntity
  8
0
  6
Continuous
 62
     8
370
    18
100
AcDbLine
 10
77.3867835104
 20
214.1291258595
 30
0.0
 11
204.6906410579
 21
214.1291258595
 31
0.0
  0
LINE
  5
32E
330
1F
100
AcDbEntity
  8
0
  6
Continuous
 62
     8
370
    18
100
AcDbLine
 10
204.6906410579
 20
231.9552664678
 30
0.0
 11
77.3867835104
 21
231.9552664678
 31
0.0
  0
LINE
  5
32F
330
1F
100
AcDbEntity
  8
0
  6
Continuous
 62
     8
370
    18
100
AcDbLine
 10
200.5387122842
 20
225.5421961636
 30
0.0
 11
81.5387122842
 21
225.5421961636
 31
0.0
  0
LINE
  5
330
330
1F
100
AcDbEntity
  8
0
  6
Continuous
 62
     8
370
    18
100
AcDbLine
 10
81.5387122842
 20
220.5421961637
 30
0.0
 11
200.5387122842
 21
220.5421961637
 31
0.0
  0
HATCH
  5
331
330
1F
100
AcDbEntity
  8
0
  6
Continuous
 62
     7
370
    18
100
AcDbHatch
 10
0.0
 20
0.0
 30
0.0
210
0.0
220
0.0
230
1.0
  2
DIN 128 Elastomer-Gummi
 70
     0
 71
     0
 91
        1
 92
        0
 93
       24
 72
     2
 10
74.7376903401095
 20
215.0390870158927
 40
2.801021944051328
 50
341.0424488268039
 51
415.139177841997
 73
     1
 72
     1
 10
76.33871228416157
 20
217.3374457054189
 11
76.33871228416157
 21
220.04219616365
 72
     1
 10
76.33871228416157
 20
220.04219616365
 11
81.03871228416074
 21
220.04219616365
 72
     2
 10
81.03871228416074
 20
220.54219616365
 40
0.5000000000000193
 50
270.0000000000008
 51
360.0000000000008
 73
     1
 72
     1
 10
81.53871228416077
 20
220.54219616365
 11
81.53871228416077
 21
225.5421961636499
 72
     2
 10
81.03871228416074
 20
225.5421961636499
 40
0.5000000000000193
 50
0.0
 51
90.0
 73
     1
 72
     1
 10
81.03871228416074
 20
226.0421961636499
 11
76.33871228416157
 21
226.0421961636499
 72
     1
 10
76.33871228416157
 20
226.0421961636499
 11
76.33871228416157
 21
228.7469466218811
 72
     2
 10
74.7376903401095
 20
231.0453053114073
 40
2.801021944051328
 50
304.8608221580043
 51
378.9575511731966
 73
     1
 72
     2
 10
76.91390375022047
 20
231.792832689273
 40
0.5000000000000193
 50
18.95755117319445
 51
83.93397115824122
 73
     1
 72
     1
 10
76.96674100082652
 20
232.2900330763892
 11
72.03871228416081
 21
232.8137323635246
 72
     1
 10
72.03871228416081
 20
232.8137323635246
 11
72.03871228416081
 21
233.77015810638
 72
     1
 10
72.03871228416081
 20
233.77015810638
 11
63.03871228416082
 21
233.7701581122242
 72
     1
 10
63.03871228416082
 20
233.7701581122242
 11
63.03871228416082
 21
229.7505210772812
 72
     2
 10
65.03871228416082
 20
229.7505210772812
 40
1.999999999999999
 50
180.0
 51
237.8698684263342
 73
     1
 72
     1
 10
63.97502427747984
 20
228.0568363886679
 11
66.56608829029354
 21
226.4295655433318
 72
     2
 10
64.43871228416081
 20
223.04219616365
 40
4.0
 50
302.1301314672717
 51
417.8698684723252
 73
     0
 72
     1
 10
66.56608829433421
 20
219.6548267854634
 11
63.97502427747984
 21
218.027555938632
 72
     2
 10
65.03871228416082
 20
216.3338712500187
 40
1.999999999999999
 50
122.130131573667
 51
180.0
 73
     1
 72
     1
 10
63.03871228416082
 20
216.3338712500187
 11
63.03871228416082
 21
212.3142342152948
 72
     1
 10
63.03871228416082
 20
212.3142342152948
 11
72.03871228416081
 21
212.31423422092
 72
     1
 10
72.03871228416081
 20
212.31423422092
 11
72.03871228416081
 21
213.2706599637753
 72
     1
 10
72.03871228416081
 20
213.2706599637753
 11
76.9667410008257
 21
213.7943592509107
 72
     2
 10
76.91390375022047
 20
214.2915596380269
 40
0.5000000000000193
 50
276.0660288416663
 51
341.0424488268033
 73
     1
 97
        0
 75
     0
 76
     2
 52
0.0
 41
0.125
 77
     0
 78
     3
 53
45.00000209717174
 43
0.8418990000000001
 44
0.8418990000000001
 45
0.5612659459355175
 46
1.683798043244233
 79
     2
 49
0.79375
 49
-1.5875
 53
45.00000209717174
 43
1.96443125
 44
0.8418990000000001
 45
0.5612659459355175
 46
1.683798043244233
 79
     2
 49
0.79375
 49
-1.5875
 53
134.9999719140475
 43
0.0
 44
0.0
 45
-0.5612662826950551
 46
-0.5612657324384541
 79
     0
 98
        1
 10
0.0
 20
0.0
  0
HATCH
  5
332
330
1F
100
AcDbEntity
  8
0
  6
Continuous
 62
     7
370
    18
100
AcDbHatch
 10
0.0
 20
0.0
 30
0.0
210
0.0
220
0.0
230
1.0
  2
DIN 128 Elastomer-Gummi
 70
     0
 71
     0
 91
        1
 92
        0
 93
       24
 72
     1
 10
201.0387122841609
 20
220.04219616365
 11
205.7387122841601
 21
220.04219616365
 72
     1
 10
205.7387122841601
 20
220.04219616365
 11
205.7387122841601
 21
217.3374457054189
 72
     2
 10
207.3397342282121
 20
215.0390870158927
 40
2.801021944051328
 50
124.8608221580035
 51
198.9575511731977
 73
     1
 72
     2
 10
205.1635208181011
 20
214.2915596380269
 40
0.5000000000000193
 50
198.9575511731989
 51
263.933971158337
 73
     1
 72
     1
 10
205.1106835674959
 20
213.7943592509107
 11
210.0387122841608
 21
213.2706599637753
 72
     1
 10
210.0387122841608
 20
213.2706599637753
 11
210.0387122841608
 21
212.31423422092
 72
     1
 10
210.0387122841608
 20
212.31423422092
 11
219.0387122841608
 21
212.3142342152948
 72
     1
 10
219.0387122841608
 20
212.3142342152948
 11
219.0387122841608
 21
216.3338712500187
 72
     2
 10
217.0387122841608
 20
216.3338712500187
 40
1.999999999999999
 50
0.0
 51
57.86986842633356
 73
     1
 72
     1
 10
218.1024002908418
 20
218.027555938632
 11
215.5113362739874
 21
219.6548267854634
 72
     2
 10
217.6387122841608
 20
223.04219616365
 40
4.0
 50
122.1301315276754
 51
237.86986853273
 73
     0
 72
     1
 10
215.5113362780281
 20
226.4295655433318
 11
218.1024002908418
 21
228.0568363886679
 72
     2
 10
217.0387122841608
 20
229.7505210772812
 40
1.999999999999999
 50
302.1301315736669
 51
360.0000000000008
 73
     1
 72
     1
 10
219.0387122841608
 20
229.7505210772812
 11
219.0387122841608
 21
233.7701581122242
 72
     1
 10
219.0387122841608
 20
233.7701581122242
 11
210.0387122841608
 21
233.77015810638
 72
     1
 10
210.0387122841608
 20
233.77015810638
 11
210.0387122841608
 21
232.8137323635246
 72
     1
 10
210.0387122841608
 20
232.8137323635246
 11
205.1106835674951
 21
232.2900330763892
 72
     2
 10
205.1635208181011
 20
231.792832689273
 40
0.5000000000000193
 50
96.06602884175554
 51
161.042448826805
 73
     1
 72
     2
 10
207.3397342282121
 20
231.0453053114073
 40
2.801021944051328
 50
161.0424488268042
 51
235.1391778419976
 73
     1
 72
     1
 10
205.7387122841601
 20
228.7469466218811
 11
205.7387122841601
 21
226.0421961636499
 72
     1
 10
205.7387122841601
 20
226.0421961636499
 11
201.0387122841609
 21
226.0421961636499
 72
     2
 10
201.0387122841609
 20
225.5421961636499
 40
0.5000000000000193
 50
90.0
 51
180.0
 73
     1
 72
     1
 10
200.5387122841609
 20
225.5421961636499
 11
200.5387122841609
 21
220.54219616365
 72
     2
 10
201.0387122841609
 20
220.54219616365
 40
0.5000000000000193
 50
180.0
 51
270.0000000000008
 73
     1
 97
        0
 75
     0
 76
     2
 52
0.0
 41
0.125
 77
     0
 78
     3
 53
45.00000209717174
 43
0.8418990000000001
 44
0.8418990000000001
 45
0.5612659459355175
 46
1.683798043244233
 79
     2
 49
0.79375
 49
-1.5875
 53
45.00000209717174
 43
1.96443125
 44
0.8418990000000001
 45
0.5612659459355175
 46
1.683798043244233
 79
     2
 49
0.79375
 49
-1.5875
 53
134.9999719140475
 43
0.0
 44
0.0
 45
-0.5612662826950551
 46
-0.5612657324384541
 79
     0
 98
        1
 10
0.0
 20
0.0
  0
DIMENSION
  5
333
330
1F
100
AcDbEntity
  8
0
  6
Continuous
 62
     7
370
    18
100
AcDbDimension
  2
_D
 10
229.2022856755
 20
233.7701581188
 30
0.0
 11
229.2022856825
 21
223.0421961646
 31
0.0
 70
   160
  1
<>
 71
     2
 42
-1.0
  3
SLDDIMSTYLE0
100
AcDbAlignedDimension
 13
219.0387122842
 23
212.3142342153
 33
0.0
 14
219.0387122842
 24
233.7701581122
 34
0.0
 50
-89.9999999628
100
AcDbRotatedDimension
  0
DIMENSION
  5
33E
330
1F
100
AcDbEntity
  8
0
  6
Continuous
 62
     7
370
    18
100
AcDbDimension
  2
_D_1
 10
81.5387122842
 20
244.088966703
 30
0.0
 11
141.0387122842
 21
244.088966703
 31
0.0
 70
   160
  1
%%c<>
 71
     2
 42
-1.0
  3
SLDDIMSTYLE1
100
AcDbAlignedDimension
 13
200.5387122842
 23
225.5421961636
 33
0.0
 14
81.5387122842
 24
225.5421961636
 34
0.0
100
AcDbRotatedDimension
  0
DIMENSION
  5
34A
330
1F
100
AcDbEntity
  8
0
  6
Continuous
 62
     7
370
    18
100
AcDbDimension
  2
_D_2
 10
219.0387122842
 20
254.088966703
 30
0.0
 11
141.0387122842
 21
254.088966703
 31
0.0
 70
   160
  1
%%c<>
 71
     2
 42
-1.0
  3
SLDDIMSTYLE1
100
AcDbAlignedDimension
 13
63.0387122842
 23
233.7701581122
 33
0.0
 14
219.0387122842
 24
233.7701581122
 34
0.0
100
AcDbRotatedDimension
  0
MTEXT
  5
355
330
1F
100
AcDbEntity
  8
0
  6
Continuous
 62
     7
370
     0
100
AcDbMText
 10
140.9380183952
 20
269.5104124889
 30
0.0
 40
5.0
 41
0.0
 71
     2
 72
     1
  1
A-A
  7
SLDTEXTSTYLE0
 73
     1
 44
1.0
  0
ENDSEC
  0
SECTION
  2
OBJECTS
  0
DICTIONARY
  5
C
330
0
100
AcDbDictionary
281
     1
  3
ACAD_GROUP
350
D
  3
ACAD_LAYOUT
350
1A
  3
ACAD_MLINESTYLE
350
17
  3
ACAD_PLOTSETTINGS
350
19
  3
ACAD_PLOTSTYLENAME
350
E
  3
ACAD_SCALELIST
350
47
  3
DWGPROPS
350
356
  0
DICTIONARY
  5
D
102
{ACAD_REACTORS
330
C
102
}
330
C
100
AcDbDictionary
281
     1
  0
DICTIONARY
  5
1A
102
{ACAD_REACTORS
330
C
102
}
330
C
100
AcDbDictionary
281
     1
  3
Layout1
350
1E
  3
Layout2
350
26
  3
Model
350
22
  0
DICTIONARY
  5
17
102
{ACAD_REACTORS
330
C
102
}
330
C
100
AcDbDictionary
281
     1
  3
Standard
350
18
  0
DICTIONARY
  5
19
102
{ACAD_REACTORS
330
C
102
}
330
C
100
AcDbDictionary
281
     1
  0
ACDBDICTIONARYWDFLT
  5
E
102
{ACAD_REACTORS
330
C
102
}
330
C
100
AcDbDictionary
281
     1
  3
Normal
350
F
100
AcDbDictionaryWithDefault
340
F
  0
DICTIONARY
  5
47
102
{ACAD_REACTORS
330
C
102
}
330
C
100
AcDbDictionary
281
     1
  3
A0
350
48
  3
A1
350
49
  3
A2
350
4A
  3
A3
350
4B
  3
A4
350
4C
  3
A5
350
4D
  3
A6
350
4E
  3
A7
350
4F
  3
A8
350
50
  3
A9
350
51
  3
B0
350
52
  3
B1
350
53
  3
B2
350
54
  3
B3
350
55
  3
B4
350
56
  3
B5
350
57
  3
B6
350
58
  3
B7
350
59
  3
B8
350
5A
  3
B9
350
5B
  3
C0
350
5C
  3
C1
350
5D
  3
C2
350
5E
  3
C3
350
5F
  3
C4
350
60
  3
C5
350
61
  3
C6
350
62
  3
C7
350
63
  3
C8
350
64
  3
C9
350
65
  3
D0
350
66
  3
D1
350
67
  3
D2
350
68
  0
XRECORD
  5
356
102
{ACAD_REACTORS
330
C
102
}
330
C
100
AcDbXrecord
280
     1
  1
DWGPROPS COOKIE
  2

  3

  4

  6

  7

  8
ch-ntl-rs-wscad
  9

300
=
301
=
302
=
303
=
304
=
305
=
306
=
307
=
308
=
309
=
 40
0.0
 41
2460054.369234803
 42
2460054.369246007
  1

 90
        0
  0
LAYOUT
  5
1E
102
{ACAD_REACTORS
330
1A
102
}
330
1A
100
AcDbPlotSettings
  1

  2
none_device
  4

  6

 40
0.0
 41
0.0
 42
0.0
 43
0.0
 44
0.0
 45
0.0
 46
0.0
 47
0.0
 48
0.0
 49
0.0
140
0.0
141
0.0
142
1.0
143
1.0
 70
   688
 72
     1
 73
     0
 74
     5
  7

 75
    16
147
1.0
148
0.0
149
0.0
100
AcDbLayout
  1
Layout1
 70
     1
 71
     1
 10
0.0
 20
0.0
 11
420.0
 21
297.0
 12
0.0
 22
0.0
 32
0.0
 14
1.0000000000E+20
 24
1.0000000000E+20
 34
1.0000000000E+20
 15
-1.0000000000E+20
 25
-1.0000000000E+20
 35
-1.0000000000E+20
146
0.0
 13
0.0
 23
0.0
 33
0.0
 16
1.0
 26
0.0
 36
0.0
 17
0.0
 27
1.0
 37
0.0
 76
     0
330
1B
  0
LAYOUT
  5
26
102
{ACAD_REACTORS
330
1A
102
}
330
1A
100
AcDbPlotSettings
  1

  2
none_device
  4

  6

 40
0.0
 41
0.0
 42
0.0
 43
0.0
 44
0.0
 45
0.0
 46
0.0
 47
0.0
 48
0.0
 49
0.0
140
0.0
141
0.0
142
1.0
143
1.0
 70
   688
 72
     1
 73
     0
 74
     5
  7

 75
    16
147
1.0
148
0.0
149
0.0
100
AcDbLayout
  1
Layout2
 70
     1
 71
     2
 10
0.0
 20
0.0
 11
0.0
 21
0.0
 12
0.0
 22
0.0
 32
0.0
 14
0.0
 24
0.0
 34
0.0
 15
0.0
 25
0.0
 35
0.0
146
0.0
 13
0.0
 23
0.0
 33
0.0
 16
1.0
 26
0.0
 36
0.0
 17
0.0
 27
1.0
 37
0.0
 76
     0
330
23
  0
LAYOUT
  5
22
102
{ACAD_REACTORS
330
1A
102
}
330
1A
100
AcDbPlotSettings
  1

  2
none_device
  4
Letter_(8.50_x_11.00_Inches)
  6

 40
6.35
 41
6.35
 42
6.35000508
 43
6.35000508
 44
215.9
 45
279.4
 46
0.0
 47
0.0
 48
0.0
 49
0.0
140
0.0
141
0.0
142
1.0
143
1.0
 70
  1712
 72
     1
 73
     0
 74
     0
  7

 75
     0
147
1.0
148
0.0
149
0.0
100
AcDbLayout
  1
Model
 70
     1
 71
     0
 10
0.0
 20
0.0
 11
420.0
 21
297.0
 12
0.0
 22
0.0
 32
0.0
 14
0.0
 24
0.0
 34
0.0
 15
420.0
 25
297.0
 35
0.0
146
0.0
 13
0.0
 23
0.0
 33
0.0
 16
1.0
 26
0.0
 36
0.0
 17
0.0
 27
1.0
 37
0.0
 76
     0
330
1F
331
29
  0
MLINESTYLE
  5
18
102
{ACAD_REACTORS
330
17
102
}
330
17
100
AcDbMlineStyle
  2
Standard
 70
     0
  3

 62
   256
 51
90.0
 52
90.0
 71
     2
 49
0.5
 62
   256
  6
BYLAYER
 49
-0.5
 62
   256
  6
BYLAYER
  0
ACDBPLACEHOLDER
  5
F
102
{ACAD_REACTORS
330
E
102
}
330
E
  0
SCALE
  5
48
102
{ACAD_REACTORS
330
47
102
}
330
47
100
AcDbScale
 70
     0
300
1:1
140
1.0
141
1.0
290
     1
  0
SCALE
  5
49
102
{ACAD_REACTORS
330
47
102
}
330
47
100
AcDbScale
 70
     0
300
1:2
140
1.0
141
2.0
290
     0
  0
SCALE
  5
4A
102
{ACAD_REACTORS
330
47
102
}
330
47
100
AcDbScale
 70
     0
300
1:4
140
1.0
141
4.0
290
     0
  0
SCALE
  5
4B
102
{ACAD_REACTORS
330
47
102
}
330
47
100
AcDbScale
 70
     0
300
1:5
140
1.0
141
5.0
290
     0
  0
SCALE
  5
4C
102
{ACAD_REACTORS
330
47
102
}
330
47
100
AcDbScale
 70
     0
300
1:8
140
1.0
141
8.0
290
     0
  0
SCALE
  5
4D
102
{ACAD_REACTORS
330
47
102
}
330
47
100
AcDbScale
 70
     0
300
1:10
140
1.0
141
10.0
290
     0
  0
SCALE
  5
4E
102
{ACAD_REACTORS
330
47
102
}
330
47
100
AcDbScale
 70
     0
300
1:16
140
1.0
141
16.0
290
     0
  0
SCALE
  5
4F
102
{ACAD_REACTORS
330
47
102
}
330
47
100
AcDbScale
 70
     0
300
1:20
140
1.0
141
20.0
290
     0
  0
SCALE
  5
50
102
{ACAD_REACTORS
330
47
102
}
330
47
100
AcDbScale
 70
     0
300
1:30
140
1.0
141
30.0
290
     0
  0
SCALE
  5
51
102
{ACAD_REACTORS
330
47
102
}
330
47
100
AcDbScale
 70
     0
300
1:40
140
1.0
141
40.0
290
     0
  0
SCALE
  5
52
102
{ACAD_REACTORS
330
47
102
}
330
47
100
AcDbScale
 70
     0
300
1:50
140
1.0
141
50.0
290
     0
  0
SCALE
  5
53
102
{ACAD_REACTORS
330
47
102
}
330
47
100
AcDbScale
 70
     0
300
1:100
140
1.0
141
100.0
290
     0
  0
SCALE
  5
54
102
{ACAD_REACTORS
330
47
102
}
330
47
100
AcDbScale
 70
     0
300
2:1
140
2.0
141
1.0
290
     0
  0
SCALE
  5
55
102
{ACAD_REACTORS
330
47
102
}
330
47
100
AcDbScale
 70
     0
300
4:1
140
4.0
141
1.0
290
     0
  0
SCALE
  5
56
102
{ACAD_REACTORS
330
47
102
}
330
47
100
AcDbScale
 70
     0
300
8:1
140
8.0
141
1.0
290
     0
  0
SCALE
  5
57
102
{ACAD_REACTORS
330
47
102
}
330
47
100
AcDbScale
 70
     0
300
10:1
140
10.0
141
1.0
290
     0
  0
SCALE
  5
58
102
{ACAD_REACTORS
330
47
102
}
330
47
100
AcDbScale
 70
     0
300
100:1
140
100.0
141
1.0
290
     0
  0
SCALE
  5
59
102
{ACAD_REACTORS
330
47
102
}
330
47
100
AcDbScale
 70
     0
300
1/128" = 1'-0"
140
0.0078125
141
12.0
290
     0
  0
SCALE
  5
5A
102
{ACAD_REACTORS
330
47
102
}
330
47
100
AcDbScale
 70
     0
300
1/64" = 1'-0"
140
0.015625
141
12.0
290
     0
  0
SCALE
  5
5B
102
{ACAD_REACTORS
330
47
102
}
330
47
100
AcDbScale
 70
     0
300
1/32" = 1'-0"
140
0.03125
141
12.0
290
     0
  0
SCALE
  5
5C
102
{ACAD_REACTORS
330
47
102
}
330
47
100
AcDbScale
 70
     0
300
1/16" = 1'-0"
140
0.0625
141
12.0
290
     0
  0
SCALE
  5
5D
102
{ACAD_REACTORS
330
47
102
}
330
47
100
AcDbScale
 70
     0
300
3/32" = 1'-0"
140
0.09375
141
12.0
290
     0
  0
SCALE
  5
5E
102
{ACAD_REACTORS
330
47
102
}
330
47
100
AcDbScale
 70
     0
300
1/8" = 1'-0"
140
0.125
141
12.0
290
     0
  0
SCALE
  5
5F
102
{ACAD_REACTORS
330
47
102
}
330
47
100
AcDbScale
 70
     0
300
3/16" = 1'-0"
140
0.1875
141
12.0
290
     0
  0
SCALE
  5
60
102
{ACAD_REACTORS
330
47
102
}
330
47
100
AcDbScale
 70
     0
300
1/4" = 1'-0"
140
0.25
141
12.0
290
     0
  0
SCALE
  5
61
102
{ACAD_REACTORS
330
47
102
}
330
47
100
AcDbScale
 70
     0
300
3/8" = 1'-0"
140
0.375
141
12.0
290
     0
  0
SCALE
  5
62
102
{ACAD_REACTORS
330
47
102
}
330
47
100
AcDbScale
 70
     0
300
1/2" = 1'-0"
140
0.5
141
12.0
290
     0
  0
SCALE
  5
63
102
{ACAD_REACTORS
330
47
102
}
330
47
100
AcDbScale
 70
     0
300
3/4" = 1'-0"
140
0.75
141
12.0
290
     0
  0
SCALE
  5
64
102
{ACAD_REACTORS
330
47
102
}
330
47
100
AcDbScale
 70
     0
300
1" = 1'-0"
140
1.0
141
12.0
290
     0
  0
SCALE
  5
65
102
{ACAD_REACTORS
330
47
102
}
330
47
100
AcDbScale
 70
     0
300
1-1/2" = 1'-0"
140
1.5
141
12.0
290
     0
  0
SCALE
  5
66
102
{ACAD_REACTORS
330
47
102
}
330
47
100
AcDbScale
 70
     0
300
3" = 1'-0"
140
3.0
141
12.0
290
     0
  0
SCALE
  5
67
102
{ACAD_REACTORS
330
47
102
}
330
47
100
AcDbScale
 70
     0
300
6" = 1'-0"
140
6.0
141
12.0
290
     0
  0
SCALE
  5
68
102
{ACAD_REACTORS
330
47
102
}
330
47
100
AcDbScale
 70
     0
300
1'-0" = 1'-0"
140
12.0
141
12.0
290
     0
  0
ENDSEC
  0
EOF
