  0
SECTION
  2
HEADER
  9
$ACADVER
  1
AC1015
  9
$ACADMAINTVER
 70
     6
  9
$DWGCODEPAGE
  3
ANSI_1252
  9
$INSBASE
 10
0.0
 20
0.0
 30
0.0
  9
$EXTMIN
 10
0.0
 20
0.0
 30
0.0
  9
$EXTMAX
 10
420.0
 20
297.0
 30
0.0
  9
$LIMMIN
 10
0.0
 20
0.0
  9
$LIMMAX
 10
420.0
 20
297.0
  9
$ORTHOMODE
 70
     0
  9
$REGENMODE
 70
     1
  9
$FILLMODE
 70
     1
  9
$QTEXTMODE
 70
     0
  9
$MIRRTEXT
 70
     1
  9
$LTSCALE
 40
1.0
  9
$ATTMODE
 70
     1
  9
$TEXTSIZE
 40
3.5
  9
$TRACEWID
 40
1.0
  9
$TEXTSTYLE
  7
Standard
  9
$CLAYER
  8
0
  9
$CELTYPE
  6
ByLayer
  9
$CECOLOR
 62
   256
  9
$CELTSCALE
 40
1.0
  9
$DISPSILH
 70
     0
  9
$DIMSCALE
 40
1.0
  9
$DIMASZ
 40
3.5
  9
$DIMEXO
 40
0.1
  9
$DIMDLI
 40
3.75
  9
$DIMRND
 40
0.0
  9
$DIMDLE
 40
0.0
  9
$DIMEXE
 40
1.0
  9
$DIMTP
 40
0.0
  9
$DIMTM
 40
0.0
  9
$DIMTXT
 40
3.5
  9
$DIMCEN
 40
2.5
  9
$DIMTSZ
 40
0.0
  9
$DIMTOL
 70
     0
  9
$DIMLIM
 70
     0
  9
$DIMTIH
 70
     1
  9
$DIMTOH
 70
     1
  9
$DIMSE1
 70
     0
  9
$DIMSE2
 70
     0
  9
$DIMTAD
 70
     1
  9
$DIMZIN
 70
     0
  9
$DIMBLK
  1

  9
$DIMASO
 70
     1
  9
$DIMSHO
 70
     1
  9
$DIMPOST
  1

  9
$DIMAPOST
  1

  9
$DIMALT
 70
     0
  9
$DIMALTD
 70
     3
  9
$DIMALTF
 40
0.0393700787
  9
$DIMLFAC
 40
5.0
  9
$DIMTOFL
 70
     1
  9
$DIMTVP
 40
0.0
  9
$DIMTIX
 70
     0
  9
$DIMSOXD
 70
     0
  9
$DIMSAH
 70
     0
  9
$DIMBLK1
  1

  9
$DIMBLK2
  1

  9
$DIMSTYLE
  2
ISO-25
  9
$DIMCLRD
 70
     0
  9
$DIMCLRE
 70
     0
  9
$DIMCLRT
 70
     0
  9
$DIMTFAC
 40
1.0
  9
$DIMGAP
 40
2.0
  9
$DIMJUST
 70
     0
  9
$DIMSD1
 70
     0
  9
$DIMSD2
 70
     0
  9
$DIMTOLJ
 70
     0
  9
$DIMTZIN
 70
     0
  9
$DIMALTZ
 70
     0
  9
$DIMALTTZ
 70
     0
  9
$DIMUPT
 70
     0
  9
$DIMDEC
 70
     2
  9
$DIMTDEC
 70
     3
  9
$DIMALTU
 70
     2
  9
$DIMALTTD
 70
     3
  9
$DIMTXSTY
  7
Standard
  9
$DIMAUNIT
 70
     0
  9
$DIMADEC
 70
     2
  9
$DIMALTRND
 40
0.0
  9
$DIMAZIN
 70
     0
  9
$DIMDSEP
 70
    44
  9
$DIMATFIT
 70
     3
  9
$DIMFRAC
 70
     0
  9
$DIMLDRBLK
  1

  9
$DIMLUNIT
 70
     2
  9
$DIMLWD
 70
    -2
  9
$DIMLWE
 70
    -2
  9
$DIMTMOVE
 70
     0
  9
$LUNITS
 70
     2
  9
$LUPREC
 70
     2
  9
$SKETCHINC
 40
1.0
  9
$FILLETRAD
 40
10.0
  9
$AUNITS
 70
     0
  9
$AUPREC
 70
     2
  9
$MENU
  1
.
  9
$ELEVATION
 40
0.0
  9
$PELEVATION
 40
0.0
  9
$THICKNESS
 40
0.0
  9
$LIMCHECK
 70
     0
  9
$CHAMFERA
 40
0.0
  9
$CHAMFERB
 40
0.0
  9
$CHAMFERC
 40
0.0
  9
$CHAMFERD
 40
0.0
  9
$SKPOLY
 70
     0
  9
$TDCREATE
 40
2459373.520523599
  9
$TDUCREATE
 40
2459373.437190266
  9
$TDUPDATE
 40
2459373.520530174
  9
$TDUUPDATE
 40
2459373.43719684
  9
$TDINDWG
 40
0.0000000116
  9
$TDUSRTIMER
 40
0.0000000116
  9
$USRTIMER
 70
     1
  9
$ANGBASE
 50
0.0
  9
$ANGDIR
 70
     0
  9
$PDMODE
 70
     0
  9
$PDSIZE
 40
-1.0
  9
$PLINEWID
 40
0.0
  9
$SPLFRAME
 70
     0
  9
$SPLINETYPE
 70
     6
  9
$SPLINESEGS
 70
     8
  9
$HANDSEED
  5
45A
  9
$SURFTAB1
 70
     6
  9
$SURFTAB2
 70
     6
  9
$SURFTYPE
 70
     6
  9
$SURFU
 70
     6
  9
$SURFV
 70
     6
  9
$UCSBASE
  2

  9
$UCSNAME
  2

  9
$UCSORG
 10
0.0
 20
0.0
 30
0.0
  9
$UCSXDIR
 10
1.0
 20
0.0
 30
0.0
  9
$UCSYDIR
 10
0.0
 20
1.0
 30
0.0
  9
$UCSORTHOREF
  2

  9
$UCSORTHOVIEW
 70
     0
  9
$UCSORGTOP
 10
0.0
 20
0.0
 30
0.0
  9
$UCSORGBOTTOM
 10
0.0
 20
0.0
 30
0.0
  9
$UCSORGLEFT
 10
0.0
 20
0.0
 30
0.0
  9
$UCSORGRIGHT
 10
0.0
 20
0.0
 30
0.0
  9
$UCSORGFRONT
 10
0.0
 20
0.0
 30
0.0
  9
$UCSORGBACK
 10
0.0
 20
0.0
 30
0.0
  9
$PUCSBASE
  2

  9
$PUCSNAME
  2

  9
$PUCSORG
 10
0.0
 20
0.0
 30
0.0
  9
$PUCSXDIR
 10
1.0
 20
0.0
 30
0.0
  9
$PUCSYDIR
 10
0.0
 20
1.0
 30
0.0
  9
$PUCSORTHOREF
  2

  9
$PUCSORTHOVIEW
 70
     0
  9
$PUCSORGTOP
 10
0.0
 20
0.0
 30
0.0
  9
$PUCSORGBOTTOM
 10
0.0
 20
0.0
 30
0.0
  9
$PUCSORGLEFT
 10
0.0
 20
0.0
 30
0.0
  9
$PUCSORGRIGHT
 10
0.0
 20
0.0
 30
0.0
  9
$PUCSORGFRONT
 10
0.0
 20
0.0
 30
0.0
  9
$PUCSORGBACK
 10
0.0
 20
0.0
 30
0.0
  9
$USERI1
 70
     0
  9
$USERI2
 70
     0
  9
$USERI3
 70
     0
  9
$USERI4
 70
     0
  9
$USERI5
 70
     0
  9
$USERR1
 40
0.0
  9
$USERR2
 40
0.0
  9
$USERR3
 40
0.0
  9
$USERR4
 40
0.0
  9
$USERR5
 40
0.0
  9
$WORLDVIEW
 70
     1
  9
$SHADEDGE
 70
     3
  9
$SHADEDIF
 70
    70
  9
$TILEMODE
 70
     1
  9
$MAXACTVP
 70
    64
  9
$PINSBASE
 10
0.0
 20
0.0
 30
0.0
  9
$PLIMCHECK
 70
     0
  9
$PEXTMIN
 10
1.0000000000E+20
 20
1.0000000000E+20
 30
1.0000000000E+20
  9
$PEXTMAX
 10
-1.0000000000E+20
 20
-1.0000000000E+20
 30
-1.0000000000E+20
  9
$PLIMMIN
 10
0.0
 20
0.0
  9
$PLIMMAX
 10
420.0
 20
297.0
  9
$UNITMODE
 70
     0
  9
$VISRETAIN
 70
     1
  9
$PLINEGEN
 70
     0
  9
$PSLTSCALE
 70
     1
  9
$TREEDEPTH
 70
  3020
  9
$CMLSTYLE
  2
Standard
  9
$CMLJUST
 70
     0
  9
$CMLSCALE
 40
20.0
  9
$PROXYGRAPHICS
 70
     1
  9
$MEASUREMENT
 70
     1
  9
$CELWEIGHT
370
    -1
  9
$ENDCAPS
280
     0
  9
$JOINSTYLE
280
     0
  9
$LWDISPLAY
290
     1
  9
$INSUNITS
 70
     4
  9
$HYPERLINKBASE
  1

  9
$STYLESHEET
  1

  9
$XEDIT
290
     1
  9
$CEPSNTYPE
380
     0
  9
$PSTYLEMODE
290
     1
  9
$FINGERPRINTGUID
  2
{7e02346e-cab1-4564-a344-6f49120f4261}
  9
$VERSIONGUID
  2
{FAEB1C32-E019-11D5-929B-00C0DF256EC4}
  9
$EXTNAMES
290
     1
  9
$PSVPSCALE
 40
0.0
  9
$OLESTARTUP
290
     0
  0
ENDSEC
  0
SECTION
  2
CLASSES
  0
CLASS
  1
ACDBDICTIONARYWDFLT
  2
AcDbDictionaryWithDefault
  3
ObjectDBX Classes
 90
        0
280
     0
281
     0
  0
CLASS
  1
VISUALSTYLE
  2
AcDbVisualStyle
  3
ObjectDBX Classes
 90
     4095
280
     0
281
     0
  0
CLASS
  1
MATERIAL
  2
AcDbMaterial
  3
ObjectDBX Classes
 90
     1153
280
     0
281
     0
  0
CLASS
  1
SCALE
  2
AcDbScale
  3
ObjectDBX Classes
 90
     1153
280
     0
281
     0
  0
CLASS
  1
TABLESTYLE
  2
AcDbTableStyle
  3
ObjectDBX Classes
 90
     4095
280
     0
281
     0
  0
CLASS
  1
MLEADERSTYLE
  2
AcDbMLeaderStyle
  3
ACDB_MLEADERSTYLE_CLASS
 90
     4095
280
     0
281
     0
  0
CLASS
  1
SUN
  2
AcDbSun
  3
SCENEOE
 90
     1153
280
     0
281
     0
  0
CLASS
  1
ACDBPLACEHOLDER
  2
AcDbPlaceHolder
  3
ObjectDBX Classes
 90
        0
280
     0
281
     0
  0
CLASS
  1
LAYOUT
  2
AcDbLayout
  3
ObjectDBX Classes
 90
        0
280
     0
281
     0
  0
ENDSEC
  0
SECTION
  2
TABLES
  0
TABLE
  2
VPORT
  5
8
330
0
100
AcDbSymbolTable
 70
     1
  0
VPORT
  5
29
330
8
100
AcDbSymbolTableRecord
100
AcDbViewportTableRecord
  2
*Active
 70
     0
 10
0.0
 20
0.0
 11
1.0
 21
1.0
 12
210.0
 22
148.5
 13
0.0
 23
0.0
 14
10.0
 24
10.0
 15
10.0
 25
10.0
 16
0.0
 26
0.0
 36
1.0
 17
0.0
 27
0.0
 37
0.0
 40
297.0
 41
1.4141414141
 42
50.0
 43
0.0
 44
0.0
 50
0.0
 51
0.0
 71
     0
 72
  2000
 73
     1
 74
     3
 75
     0
 76
     0
 77
     0
 78
     0
281
     0
 65
     1
110
0.0
120
0.0
130
0.0
111
1.0
121
0.0
131
0.0
112
0.0
122
1.0
132
0.0
 79
     0
146
0.0
  0
ENDTAB
  0
TABLE
  2
LTYPE
  5
5
330
0
100
AcDbSymbolTable
 70
     6
  0
LTYPE
  5
14
330
5
100
AcDbSymbolTableRecord
100
AcDbLinetypeTableRecord
  2
ByBlock
 70
     0
  3

 72
    65
 73
     0
 40
0.0
  0
LTYPE
  5
15
330
5
100
AcDbSymbolTableRecord
100
AcDbLinetypeTableRecord
  2
ByLayer
 70
     0
  3

 72
    65
 73
     0
 40
0.0
  0
LTYPE
  5
16
330
5
100
AcDbSymbolTableRecord
100
AcDbLinetypeTableRecord
  2
Continuous
 70
     0
  3
Solid line
 72
    65
 73
     0
 40
0.0
  0
LTYPE
  5
6E
330
5
100
AcDbSymbolTableRecord
100
AcDbLinetypeTableRecord
  2
HIDDEN
 70
     0
  3
Hidden __ __ __ __ __ __ __ __ __ __ __ __ __ __
 72
    65
 73
     2
 40
1.905
 49
1.27
 74
     0
 49
-0.635
 74
     0
  0
LTYPE
  5
6F
330
5
100
AcDbSymbolTableRecord
100
AcDbLinetypeTableRecord
  2
PHANTOM
 70
     0
  3
Phantom ______  __  __  ______  __  __  ______
 72
    65
 73
     6
 40
12.7
 49
6.35
 74
     0
 49
-1.27
 74
     0
 49
1.27
 74
     0
 49
-1.27
 74
     0
 49
1.27
 74
     0
 49
-1.27
 74
     0
  0
LTYPE
  5
70
330
5
100
AcDbSymbolTableRecord
100
AcDbLinetypeTableRecord
  2
CENTER
 70
     0
  3
Center ____ _ ____ _ ____ _ ____ _ ____ _ ____
 72
    65
 73
     4
 40
10.16
 49
6.35
 74
     0
 49
-1.27
 74
     0
 49
1.27
 74
     0
 49
-1.27
 74
     0
  0
LTYPE
  5
71
330
5
100
AcDbSymbolTableRecord
100
AcDbLinetypeTableRecord
  2
CENTERX2
 70
     0
  3
Center (2x) ________  __  ________  __  _____
 72
    65
 73
     4
 40
20.32
 49
12.7
 74
     0
 49
-2.54
 74
     0
 49
2.54
 74
     0
 49
-2.54
 74
     0
  0
LTYPE
  5
72
330
5
100
AcDbSymbolTableRecord
100
AcDbLinetypeTableRecord
  2
DOT2
 70
     0
  3
Dot (.5x) ........................................
 72
    65
 73
     2
 40
0.635
 49
0.0
 74
     0
 49
-0.635
 74
     0
  0
ENDTAB
  0
TABLE
  2
LAYER
  5
2
330
0
100
AcDbSymbolTable
 70
     9
  0
LAYER
  5
10
330
2
100
AcDbSymbolTableRecord
100
AcDbLayerTableRecord
  2
0
 70
     0
 62
     7
  6
Continuous
370
    -3
390
F
  0
LAYER
  5
73
330
2
100
AcDbSymbolTableRecord
100
AcDbLayerTableRecord
  2
VORLAGE_TEXT
 70
     0
 62
     7
  6
Continuous
370
    -3
390
F
  0
LAYER
  5
74
330
2
100
AcDbSymbolTableRecord
100
AcDbLayerTableRecord
  2
VORLAGE_BEMASSUNG
 70
     0
 62
    -5
  6
Continuous
290
     0
370
    -3
390
F
  0
LAYER
  5
75
330
2
100
AcDbSymbolTableRecord
100
AcDbLayerTableRecord
  2
TEXT
 70
     0
 62
     7
  6
Continuous
370
    -3
390
F
  0
LAYER
  5
76
330
2
100
AcDbSymbolTableRecord
100
AcDbLayerTableRecord
  2
LINIEN-DICK
 70
     0
 62
     7
  6
Continuous
370
    35
390
F
  0
LAYER
  5
77
330
2
100
AcDbSymbolTableRecord
100
AcDbLayerTableRecord
  2
LINIEN-NORMAL
 70
     0
 62
     7
  6
Continuous
370
    25
390
F
  0
LAYER
  5
78
330
2
100
AcDbSymbolTableRecord
100
AcDbLayerTableRecord
  2
LINIEN-DÜNN
 70
     0
 62
     7
  6
Continuous
370
    -3
390
F
  0
LAYER
  5
79
330
2
100
AcDbSymbolTableRecord
100
AcDbLayerTableRecord
  2
TEXT-DEUTSCH
 70
     0
 62
     7
  6
Continuous
370
    -3
390
F
  0
LAYER
  5
7A
330
2
100
AcDbSymbolTableRecord
100
AcDbLayerTableRecord
  2
TEXT-ENGLISCH
 70
     0
 62
    -7
  6
Continuous
290
     0
370
    -3
390
F
  0
ENDTAB
  0
TABLE
  2
STYLE
  5
3
330
0
100
AcDbSymbolTable
 70
     6
  0
STYLE
  5
11
330
3
100
AcDbSymbolTableRecord
100
AcDbTextStyleTableRecord
  2
Standard
 70
     0
 40
0.0
 41
1.0
 50
0.0
 71
     0
 42
3.5
  3
txt
  4

  0
STYLE
  5
8F
330
3
100
AcDbSymbolTableRecord
100
AcDbTextStyleTableRecord
  2
SLDTEXTSTYLE0
 70
     0
 40
0.0
 41
0.605
 50
0.0
 71
     0
 42
3.5
  3
TXT
  4

  0
STYLE
  5
9F
330
3
100
AcDbSymbolTableRecord
100
AcDbTextStyleTableRecord
  2
SLDTEXTSTYLE1
 70
     0
 40
0.0
 41
0.57
 50
0.0
 71
     0
 42
3.5
  3
TXT
  4

  0
STYLE
  5
D0
330
3
100
AcDbSymbolTableRecord
100
AcDbTextStyleTableRecord
  2
SLDTEXTSTYLE2
 70
     0
 40
0.0
 41
0.563
 50
0.0
 71
     0
 42
3.5
  3
TXT
  4

  0
STYLE
  5
D7
330
3
100
AcDbSymbolTableRecord
100
AcDbTextStyleTableRecord
  2
SLDTEXTSTYLE3
 70
     0
 40
0.0
 41
0.5525
 50
0.0
 71
     0
 42
3.5
  3
TXT
  4

  0
STYLE
  5
EA
330
3
100
AcDbSymbolTableRecord
100
AcDbTextStyleTableRecord
  2
SLDTEXTSTYLE4
 70
     0
 40
0.0
 41
0.575
 50
0.0
 71
     0
 42
3.5
  3
TXT
  4

  0
ENDTAB
  0
TABLE
  2
VIEW
  5
6
330
0
100
AcDbSymbolTable
 70
     0
  0
ENDTAB
  0
TABLE
  2
UCS
  5
7
330
0
100
AcDbSymbolTable
 70
     0
  0
ENDTAB
  0
TABLE
  2
APPID
  5
9
330
0
100
AcDbSymbolTable
 70
     1
  0
APPID
  5
12
330
9
100
AcDbSymbolTableRecord
100
AcDbRegAppTableRecord
  2
ACAD
 70
     0
  0
ENDTAB
  0
TABLE
  2
DIMSTYLE
  5
A
330
0
100
AcDbSymbolTable
 70
     4
100
AcDbDimStyleTable
  0
DIMSTYLE
105
27
330
A
100
AcDbSymbolTableRecord
100
AcDbDimStyleTableRecord
  2
ISO-25
 70
     0
 41
2.5
 42
0.625
 43
3.75
 44
1.25
 73
     0
 74
     0
 77
     1
 78
     8
140
2.5
141
2.5
143
0.0393700787
147
0.625
171
     3
172
     1
178
     0
271
     2
272
     2
274
     3
278
    44
283
     0
284
     8
340
11
  0
DIMSTYLE
105
2A5
102
{ACAD_REACTORS
330
2A4
102
}
330
A
100
AcDbSymbolTableRecord
100
AcDbDimStyleTableRecord
  2
SLDDIMSTYLE0
 70
     0
 41
3.5
 44
0.0
 45
0.000000001
 73
     0
 74
     0
 77
     1
 78
    12
 79
     3
140
3.5
144
5.0
147
0.875
173
     1
178
     0
271
     2
272
     3
276
     2
284
    12
340
8F
  0
DIMSTYLE
105
395
102
{ACAD_REACTORS
330
394
330
39F
330
3B6
330
3C1
330
3CC
330
3D6
102
}
330
A
100
AcDbSymbolTableRecord
100
AcDbDimStyleTableRecord
  2
SLDDIMSTYLE1
 70
     0
 41
3.5
 44
0.0
 45
0.000000001
 73
     0
 74
     0
 77
     1
 78
    12
 79
     3
140
3.5
147
0.875
173
     1
178
     0
271
     2
272
     3
276
     2
284
    12
340
8F
  0
DIMSTYLE
105
3AA
102
{ACAD_REACTORS
330
3A9
330
3E0
330
3EC
102
}
330
A
100
AcDbSymbolTableRecord
100
AcDbDimStyleTableRecord
  2
SLDDIMSTYLE2
 70
     0
 41
3.5
 44
0.0
 45
0.000000001
 73
     0
 74
     0
 77
     1
 78
    12
 79
     3
140
3.5
147
0.875
172
     1
173
     1
178
     0
271
     2
272
     3
276
     2
284
    12
289
     0
340
8F
  0
ENDTAB
  0
TABLE
  2
BLOCK_RECORD
  5
1
330
0
100
AcDbSymbolTable
 70
    36
  0
BLOCK_RECORD
  5
1F
330
1
100
AcDbSymbolTableRecord
100
AcDbBlockTableRecord
  2
*Model_Space
340
22
  0
BLOCK_RECORD
  5
1B
330
1
100
AcDbSymbolTableRecord
100
AcDbBlockTableRecord
  2
*Paper_Space
340
1E
  0
BLOCK_RECORD
  5
23
330
1
100
AcDbSymbolTableRecord
100
AcDbBlockTableRecord
  2
*Paper_Space0
340
26
  0
BLOCK_RECORD
  5
7B
330
1
100
AcDbSymbolTableRecord
100
AcDbBlockTableRecord
  2
Allg-Toleranz-mittel
340
0
102
{BLKREFS
331
1C8
102
}
  0
BLOCK_RECORD
  5
8C
330
1
100
AcDbSymbolTableRecord
100
AcDbBlockTableRecord
  2
SW_NOTE_0
340
0
102
{BLKREFS
331
91
102
}
  0
BLOCK_RECORD
  5
92
330
1
100
AcDbSymbolTableRecord
100
AcDbBlockTableRecord
  2
SW_NOTE_0_1
340
0
102
{BLKREFS
331
96
102
}
  0
BLOCK_RECORD
  5
97
330
1
100
AcDbSymbolTableRecord
100
AcDbBlockTableRecord
  2
SW_NOTE_0_2
340
0
102
{BLKREFS
331
9B
102
}
  0
BLOCK_RECORD
  5
9C
330
1
100
AcDbSymbolTableRecord
100
AcDbBlockTableRecord
  2
SW_NOTE_0_3
340
0
102
{BLKREFS
331
A2
102
}
  0
BLOCK_RECORD
  5
A3
330
1
100
AcDbSymbolTableRecord
100
AcDbBlockTableRecord
  2
SW_NOTE_0_4
340
0
102
{BLKREFS
331
A7
102
}
  0
BLOCK_RECORD
  5
A8
330
1
100
AcDbSymbolTableRecord
100
AcDbBlockTableRecord
  2
SW_NOTE_0_5
340
0
102
{BLKREFS
331
AC
102
}
  0
BLOCK_RECORD
  5
AD
330
1
100
AcDbSymbolTableRecord
100
AcDbBlockTableRecord
  2
SW_NOTE_0_6
340
0
102
{BLKREFS
331
B1
102
}
  0
BLOCK_RECORD
  5
B2
330
1
100
AcDbSymbolTableRecord
100
AcDbBlockTableRecord
  2
SW_NOTE_0_7
340
0
102
{BLKREFS
331
B6
102
}
  0
BLOCK_RECORD
  5
B7
330
1
100
AcDbSymbolTableRecord
100
AcDbBlockTableRecord
  2
SW_NOTE_0_8
340
0
102
{BLKREFS
331
BB
102
}
  0
BLOCK_RECORD
  5
BC
330
1
100
AcDbSymbolTableRecord
100
AcDbBlockTableRecord
  2
SW_NOTE_0_9
340
0
102
{BLKREFS
331
C0
102
}
  0
BLOCK_RECORD
  5
C1
330
1
100
AcDbSymbolTableRecord
100
AcDbBlockTableRecord
  2
SW_NOTE_0_10
340
0
102
{BLKREFS
331
C6
102
}
  0
BLOCK_RECORD
  5
C7
330
1
100
AcDbSymbolTableRecord
100
AcDbBlockTableRecord
  2
SW_NOTE_0_11
340
0
102
{BLKREFS
331
CC
102
}
  0
BLOCK_RECORD
  5
CD
330
1
100
AcDbSymbolTableRecord
100
AcDbBlockTableRecord
  2
SW_NOTE_0_12
340
0
102
{BLKREFS
331
D3
102
}
  0
BLOCK_RECORD
  5
D4
330
1
100
AcDbSymbolTableRecord
100
AcDbBlockTableRecord
  2
SW_NOTE_0_13
340
0
102
{BLKREFS
331
DA
102
}
  0
BLOCK_RECORD
  5
DB
330
1
100
AcDbSymbolTableRecord
100
AcDbBlockTableRecord
  2
SW_NOTE_0_14
340
0
102
{BLKREFS
331
E0
102
}
  0
BLOCK_RECORD
  5
E1
330
1
100
AcDbSymbolTableRecord
100
AcDbBlockTableRecord
  2
SW_NOTE_0_15
340
0
102
{BLKREFS
331
E6
102
}
  0
BLOCK_RECORD
  5
E7
330
1
100
AcDbSymbolTableRecord
100
AcDbBlockTableRecord
  2
SW_NOTE_0_16
340
0
102
{BLKREFS
331
ED
102
}
  0
BLOCK_RECORD
  5
EE
330
1
100
AcDbSymbolTableRecord
100
AcDbBlockTableRecord
  2
SW_NOTE_0_17
340
0
102
{BLKREFS
331
F2
102
}
  0
BLOCK_RECORD
  5
F3
330
1
100
AcDbSymbolTableRecord
100
AcDbBlockTableRecord
  2
ACO-Logo
340
0
102
{BLKREFS
331
1C9
102
}
  0
BLOCK_RECORD
  5
166
330
1
100
AcDbSymbolTableRecord
100
AcDbBlockTableRecord
  2
SW_NOTE_0_18
340
0
102
{BLKREFS
331
16A
102
}
  0
BLOCK_RECORD
  5
16B
330
1
100
AcDbSymbolTableRecord
100
AcDbBlockTableRecord
  2
SW_NOTE_0_19
340
0
102
{BLKREFS
331
16F
102
}
  0
BLOCK_RECORD
  5
170
330
1
100
AcDbSymbolTableRecord
100
AcDbBlockTableRecord
  2
SW_NOTE_0_20
340
0
102
{BLKREFS
331
177
102
}
  0
BLOCK_RECORD
  5
1F1
330
1
100
AcDbSymbolTableRecord
100
AcDbBlockTableRecord
  2
SW_NOTE_0_21
340
0
102
{BLKREFS
331
1F9
102
}
  0
BLOCK_RECORD
  5
21A
330
1
100
AcDbSymbolTableRecord
100
AcDbBlockTableRecord
  2
SW_TABLEANNOTATION_0
340
0
102
{BLKREFS
331
28E
102
}
  0
BLOCK_RECORD
  5
2A6
330
1
100
AcDbSymbolTableRecord
100
AcDbBlockTableRecord
  2
_D
340
0
  0
BLOCK_RECORD
  5
396
330
1
100
AcDbSymbolTableRecord
100
AcDbBlockTableRecord
  2
_D_1
340
0
  0
BLOCK_RECORD
  5
3A0
330
1
100
AcDbSymbolTableRecord
100
AcDbBlockTableRecord
  2
_D_2
340
0
  0
BLOCK_RECORD
  5
3AB
330
1
100
AcDbSymbolTableRecord
100
AcDbBlockTableRecord
  2
_D_3
340
0
  0
BLOCK_RECORD
  5
3B7
330
1
100
AcDbSymbolTableRecord
100
AcDbBlockTableRecord
  2
_D_4
340
0
  0
BLOCK_RECORD
  5
3C2
330
1
100
AcDbSymbolTableRecord
100
AcDbBlockTableRecord
  2
_D_5
340
0
  0
BLOCK_RECORD
  5
3CD
330
1
100
AcDbSymbolTableRecord
100
AcDbBlockTableRecord
  2
_D_6
340
0
  0
BLOCK_RECORD
  5
3D7
330
1
100
AcDbSymbolTableRecord
100
AcDbBlockTableRecord
  2
_D_7
340
0
  0
BLOCK_RECORD
  5
3E1
330
1
100
AcDbSymbolTableRecord
100
AcDbBlockTableRecord
  2
_D_8
340
0
  0
BLOCK_RECORD
  5
3ED
330
1
100
AcDbSymbolTableRecord
100
AcDbBlockTableRecord
  2
_D_9
340
0
  0
ENDTAB
  0
ENDSEC
  0
SECTION
  2
BLOCKS
  0
BLOCK
  5
20
330
1F
100
AcDbEntity
  8
0
100
AcDbBlockBegin
  2
*Model_Space
 70
     0
 10
0.0
 20
0.0
 30
0.0
  3
*Model_Space
  1

  0
ENDBLK
  5
21
330
1F
100
AcDbEntity
  8
0
100
AcDbBlockEnd
  0
BLOCK
  5
1C
330
1B
100
AcDbEntity
 67
     1
  8
0
100
AcDbBlockBegin
  2
*Paper_Space
 70
     0
 10
0.0
 20
0.0
 30
0.0
  3
*Paper_Space
  1

  0
ENDBLK
  5
1D
330
1B
100
AcDbEntity
 67
     1
  8
0
100
AcDbBlockEnd
  0
BLOCK
  5
24
330
23
100
AcDbEntity
  8
0
100
AcDbBlockBegin
  2
*Paper_Space0
 70
     0
 10
0.0
 20
0.0
 30
0.0
  3
*Paper_Space0
  1

  0
ENDBLK
  5
25
330
23
100
AcDbEntity
  8
0
100
AcDbBlockEnd
  0
BLOCK
  5
7C
330
7B
100
AcDbEntity
  8
0
100
AcDbBlockBegin
  2
Allg-Toleranz-mittel
 70
     0
 10
0.0
 20
0.0
 30
0.0
  3
Allg-Toleranz-mittel
  1

  0
LINE
  5
7E
330
7B
100
AcDbEntity
  8
LINIEN-NORMAL
 62
     7
100
AcDbLine
 10
0.0
 20
18.0
 30
0.0
 11
0.0
 21
0.0
 31
0.0
  0
LINE
  5
7F
330
7B
100
AcDbEntity
  8
LINIEN-NORMAL
 62
     7
100
AcDbLine
 10
0.0
 20
18.0
 30
0.0
 11
70.0
 21
18.0
 31
0.0
  0
LINE
  5
80
330
7B
100
AcDbEntity
  8
LINIEN-DÜNN
 62
     7
100
AcDbLine
 10
0.0
 20
14.0
 30
0.0
 11
70.0
 21
14.0
 31
0.0
  0
LINE
  5
81
330
7B
100
AcDbEntity
  8
LINIEN-DÜNN
 62
     7
100
AcDbLine
 10
12.0
 20
14.0
 30
0.0
 11
12.0
 21
0.0
 31
0.0
  0
LINE
  5
82
330
7B
100
AcDbEntity
  8
LINIEN-DÜNN
 62
     7
100
AcDbLine
 10
20.0
 20
10.0
 30
0.0
 11
20.0
 21
0.0
 31
0.0
  0
LINE
  5
83
330
7B
100
AcDbEntity
  8
LINIEN-DÜNN
 62
     7
100
AcDbLine
 10
28.0
 20
10.0
 30
0.0
 11
28.0
 21
0.0
 31
0.0
  0
LINE
  5
84
330
7B
100
AcDbEntity
  8
LINIEN-DÜNN
 62
     7
100
AcDbLine
 10
36.0
 20
10.0
 30
0.0
 11
36.0
 21
0.0
 31
0.0
  0
LINE
  5
85
330
7B
100
AcDbEntity
  8
LINIEN-DÜNN
 62
     7
100
AcDbLine
 10
44.0
 20
10.0
 30
0.0
 11
44.0
 21
0.0
 31
0.0
  0
LINE
  5
86
330
7B
100
AcDbEntity
  8
LINIEN-DÜNN
 62
     7
100
AcDbLine
 10
52.0
 20
10.0
 30
0.0
 11
52.0
 21
0.0
 31
0.0
  0
LINE
  5
87
330
7B
100
AcDbEntity
  8
LINIEN-DÜNN
 62
     7
100
AcDbLine
 10
70.0
 20
10.0
 30
0.0
 11
12.0
 21
10.0
 31
0.0
  0
LINE
  5
88
330
7B
100
AcDbEntity
  8
LINIEN-DÜNN
 62
     7
100
AcDbLine
 10
70.0
 20
4.0
 30
0.0
 11
0.0
 21
4.0
 31
0.0
  0
LINE
  5
89
330
7B
100
AcDbEntity
  8
LINIEN-NORMAL
 62
     7
100
AcDbLine
 10
70.0
 20
18.0
 30
0.0
 11
70.0
 21
0.0
 31
0.0
  0
LINE
  5
8A
330
7B
100
AcDbEntity
  8
LINIEN-NORMAL
 62
     7
100
AcDbLine
 10
70.0
 20
0.0
 30
0.0
 11
0.0
 21
0.0
 31
0.0
  0
LINE
  5
8B
330
7B
100
AcDbEntity
  8
LINIEN-DÜNN
100
AcDbLine
 10
61.0
 20
10.0
 30
0.0
 11
61.0
 21
0.0
 31
0.0
  0
INSERT
  5
91
330
7B
100
AcDbEntity
  8
VORLAGE_TEXT
 62
     7
100
AcDbBlockReference
  2
SW_NOTE_0
 10
1.3715701559
 20
14.7823959776
 30
0.0
  0
INSERT
  5
96
330
7B
100
AcDbEntity
  8
VORLAGE_TEXT
 62
     7
100
AcDbBlockReference
  2
SW_NOTE_0_1
 10
19.4858329865
 20
10.8011997857
 30
0.0
  0
INSERT
  5
9B
330
7B
100
AcDbEntity
  8
VORLAGE_TEXT
 62
     7
100
AcDbBlockReference
  2
SW_NOTE_0_2
 10
0.7059049832
 20
0.7957779732
 30
0.0
  0
INSERT
  5
A2
330
7B
100
AcDbEntity
  8
VORLAGE_TEXT
 62
     7
100
AcDbBlockReference
  2
SW_NOTE_0_3
 10
44.6572377212
 20
6.9417037808
 30
0.0
  0
INSERT
  5
A7
330
7B
100
AcDbEntity
  8
VORLAGE_TEXT
 62
     7
100
AcDbBlockReference
  2
SW_NOTE_0_4
 10
21.3963023843
 20
0.8030156928
 30
0.0
  0
INSERT
  5
AC
330
7B
100
AcDbEntity
  8
VORLAGE_TEXT
 62
     7
100
AcDbBlockReference
  2
SW_NOTE_0_5
 10
29.3441244219
 20
0.8024484104
 30
0.0
  0
INSERT
  5
B1
330
7B
100
AcDbEntity
  8
VORLAGE_TEXT
 62
     7
100
AcDbBlockReference
  2
SW_NOTE_0_6
 10
37.3487166127
 20
0.7888202699
 30
0.0
  0
INSERT
  5
B6
330
7B
100
AcDbEntity
  8
VORLAGE_TEXT
 62
     7
100
AcDbBlockReference
  2
SW_NOTE_0_7
 10
45.3470367789
 20
0.8005698793
 30
0.0
  0
INSERT
  5
BB
330
7B
100
AcDbEntity
  8
VORLAGE_TEXT
 62
     7
100
AcDbBlockReference
  2
SW_NOTE_0_8
 10
53.8527888204
 20
0.8016543168
 30
0.0
  0
INSERT
  5
C0
330
7B
100
AcDbEntity
  8
VORLAGE_TEXT
 62
     7
100
AcDbBlockReference
  2
SW_NOTE_0_9
 10
13.3728379186
 20
0.8021647692
 30
0.0
  0
INSERT
  5
C6
330
7B
100
AcDbEntity
  8
VORLAGE_TEXT
 62
     7
100
AcDbBlockReference
  2
SW_NOTE_0_10
 10
0.7480385575
 20
8.9918758938
 30
0.0
  0
INSERT
  5
CC
330
7B
100
AcDbEntity
  8
VORLAGE_TEXT
 62
     7
100
AcDbBlockReference
  2
SW_NOTE_0_11
 10
53.6385910634
 20
6.9252111133
 30
0.0
  0
INSERT
  5
D3
330
7B
100
AcDbEntity
  8
VORLAGE_TEXT
 62
     7
100
AcDbBlockReference
  2
SW_NOTE_0_12
 10
37.834189587
 20
6.9615036443
 30
0.0
  0
INSERT
  5
DA
330
7B
100
AcDbEntity
  8
VORLAGE_TEXT
 62
     7
100
AcDbBlockReference
  2
SW_NOTE_0_13
 10
21.9401680118
 20
6.9455377904
 30
0.0
  0
INSERT
  5
E0
330
7B
100
AcDbEntity
  8
VORLAGE_TEXT
 62
     7
100
AcDbBlockReference
  2
SW_NOTE_0_14
 10
14.6500264887
 20
6.9584413
 30
0.0
  0
INSERT
  5
E6
330
7B
100
AcDbEntity
  8
VORLAGE_TEXT
 62
     7
100
AcDbBlockReference
  2
SW_NOTE_0_15
 10
30.5247714712
 20
6.9591233511
 30
0.0
  0
INSERT
  5
ED
330
7B
100
AcDbEntity
  8
VORLAGE_TEXT
 62
     7
100
AcDbBlockReference
  2
SW_NOTE_0_16
 10
61.480287246
 20
6.9546837425
 30
0.0
  0
INSERT
  5
F2
330
7B
100
AcDbEntity
  8
VORLAGE_TEXT
 62
     7
100
AcDbBlockReference
  2
SW_NOTE_0_17
 10
62.8737574935
 20
0.7955033114
 30
0.0
  0
ENDBLK
  5
7D
330
7B
100
AcDbEntity
  8
0
100
AcDbBlockEnd
  0
BLOCK
  5
8D
330
8C
100
AcDbEntity
  8
0
100
AcDbBlockBegin
  2
SW_NOTE_0
 70
     0
 10
0.0
 20
0.0
 30
0.0
  3
SW_NOTE_0
  1

  0
MTEXT
  5
90
330
8C
100
AcDbEntity
  8
VORLAGE_TEXT
 62
     0
100
AcDbMText
 10
0.0
 20
2.3203219316
 30
0.0
 40
1.8
 41
0.0
 71
     1
 72
     1
  1
Allgemeintoleranzen für Längenmasse            DIN  ISO 2768-1
  7
SLDTEXTSTYLE0
 73
     1
 44
1.0
  0
ENDBLK
  5
8E
330
8C
100
AcDbEntity
  8
0
100
AcDbBlockEnd
  0
BLOCK
  5
93
330
92
100
AcDbEntity
  8
0
100
AcDbBlockBegin
  2
SW_NOTE_0_1
 70
     0
 10
0.0
 20
0.0
 30
0.0
  3
SW_NOTE_0_1
  1

  0
MTEXT
  5
95
330
92
100
AcDbEntity
  8
VORLAGE_TEXT
 62
     0
100
AcDbMText
 10
0.675
 20
2.3203219316
 30
0.0
 40
1.8
 41
0.0
 71
     1
 72
     1
  1
Abmasse in mm für Nennmassbereiche
  7
SLDTEXTSTYLE0
 73
     1
 44
1.0
  0
ENDBLK
  5
94
330
92
100
AcDbEntity
  8
0
100
AcDbBlockEnd
  0
BLOCK
  5
98
330
97
100
AcDbEntity
  8
0
100
AcDbBlockBegin
  2
SW_NOTE_0_2
 70
     0
 10
0.0
 20
0.0
 30
0.0
  3
SW_NOTE_0_2
  1

  0
MTEXT
  5
9A
330
97
100
AcDbEntity
  8
VORLAGE_TEXT
 62
     0
100
AcDbMText
 10
0.0
 20
2.3203219316
 30
0.0
 40
1.8
 41
0.0
 71
     1
 72
     1
  1
m  (mittel)
  7
SLDTEXTSTYLE0
 73
     1
 44
1.0
  0
ENDBLK
  5
99
330
97
100
AcDbEntity
  8
0
100
AcDbBlockEnd
  0
BLOCK
  5
9D
330
9C
100
AcDbEntity
  8
0
100
AcDbBlockBegin
  2
SW_NOTE_0_3
 70
     0
 10
0.0
 20
0.0
 30
0.0
  3
SW_NOTE_0_3
  1

  0
MTEXT
  5
A0
330
9C
100
AcDbEntity
  8
VORLAGE_TEXT
 62
     0
100
AcDbMText
 10
6.80625
 20
2.3203219316
 30
0.0
 40
1.8
 41
0.0
 71
     3
 72
     1
  1
>  120
  7
SLDTEXTSTYLE1
 73
     1
 44
1.0
  0
MTEXT
  5
A1
330
9C
100
AcDbEntity
  8
VORLAGE_TEXT
 62
     0
100
AcDbMText
 10
6.8815628178
 20
0.0003219611
 30
0.0
 40
1.8
 41
0.0
 71
     3
 72
     1
  1
... 400
  7
SLDTEXTSTYLE0
 73
     1
 44
1.0
  0
ENDBLK
  5
9E
330
9C
100
AcDbEntity
  8
0
100
AcDbBlockEnd
  0
BLOCK
  5
A4
330
A3
100
AcDbEntity
  8
0
100
AcDbBlockBegin
  2
SW_NOTE_0_4
 70
     0
 10
0.0
 20
0.0
 30
0.0
  3
SW_NOTE_0_4
  1

  0
MTEXT
  5
A6
330
A3
100
AcDbEntity
  8
VORLAGE_TEXT
 62
     0
100
AcDbMText
 10
0.0
 20
2.3203219316
 30
0.0
 40
1.8
 41
0.0
 71
     1
 72
     1
  1
± 0.1
  7
SLDTEXTSTYLE0
 73
     1
 44
1.0
  0
ENDBLK
  5
A5
330
A3
100
AcDbEntity
  8
0
100
AcDbBlockEnd
  0
BLOCK
  5
A9
330
A8
100
AcDbEntity
  8
0
100
AcDbBlockBegin
  2
SW_NOTE_0_5
 70
     0
 10
0.0
 20
0.0
 30
0.0
  3
SW_NOTE_0_5
  1

  0
MTEXT
  5
AB
330
A8
100
AcDbEntity
  8
VORLAGE_TEXT
 62
     0
100
AcDbMText
 10
0.0
 20
2.3203219316
 30
0.0
 40
1.8
 41
0.0
 71
     1
 72
     1
  1
± 0.2
  7
SLDTEXTSTYLE0
 73
     1
 44
1.0
  0
ENDBLK
  5
AA
330
A8
100
AcDbEntity
  8
0
100
AcDbBlockEnd
  0
BLOCK
  5
AE
330
AD
100
AcDbEntity
  8
0
100
AcDbBlockBegin
  2
SW_NOTE_0_6
 70
     0
 10
0.0
 20
0.0
 30
0.0
  3
SW_NOTE_0_6
  1

  0
MTEXT
  5
B0
330
AD
100
AcDbEntity
  8
VORLAGE_TEXT
 62
     0
100
AcDbMText
 10
0.0
 20
2.3203219316
 30
0.0
 40
1.8
 41
0.0
 71
     1
 72
     1
  1
± 0.3
  7
SLDTEXTSTYLE0
 73
     1
 44
1.0
  0
ENDBLK
  5
AF
330
AD
100
AcDbEntity
  8
0
100
AcDbBlockEnd
  0
BLOCK
  5
B3
330
B2
100
AcDbEntity
  8
0
100
AcDbBlockBegin
  2
SW_NOTE_0_7
 70
     0
 10
0.0
 20
0.0
 30
0.0
  3
SW_NOTE_0_7
  1

  0
MTEXT
  5
B5
330
B2
100
AcDbEntity
  8
VORLAGE_TEXT
 62
     0
100
AcDbMText
 10
0.0
 20
2.3203219316
 30
0.0
 40
1.8
 41
0.0
 71
     1
 72
     1
  1
± 0.5
  7
SLDTEXTSTYLE0
 73
     1
 44
1.0
  0
ENDBLK
  5
B4
330
B2
100
AcDbEntity
  8
0
100
AcDbBlockEnd
  0
BLOCK
  5
B8
330
B7
100
AcDbEntity
  8
0
100
AcDbBlockBegin
  2
SW_NOTE_0_8
 70
     0
 10
0.0
 20
0.0
 30
0.0
  3
SW_NOTE_0_8
  1

  0
MTEXT
  5
BA
330
B7
100
AcDbEntity
  8
VORLAGE_TEXT
 62
     0
100
AcDbMText
 10
0.0
 20
2.3203219316
 30
0.0
 40
1.8
 41
0.0
 71
     1
 72
     1
  1
± 0.8
  7
SLDTEXTSTYLE0
 73
     1
 44
1.0
  0
ENDBLK
  5
B9
330
B7
100
AcDbEntity
  8
0
100
AcDbBlockEnd
  0
BLOCK
  5
BD
330
BC
100
AcDbEntity
  8
0
100
AcDbBlockBegin
  2
SW_NOTE_0_9
 70
     0
 10
0.0
 20
0.0
 30
0.0
  3
SW_NOTE_0_9
  1

  0
MTEXT
  5
BF
330
BC
100
AcDbEntity
  8
VORLAGE_TEXT
 62
     0
100
AcDbMText
 10
0.0
 20
2.3203219316
 30
0.0
 40
1.8
 41
0.0
 71
     1
 72
     1
  1
± 0.1
  7
SLDTEXTSTYLE0
 73
     1
 44
1.0
  0
ENDBLK
  5
BE
330
BC
100
AcDbEntity
  8
0
100
AcDbBlockEnd
  0
BLOCK
  5
C2
330
C1
100
AcDbEntity
  8
0
100
AcDbBlockBegin
  2
SW_NOTE_0_10
 70
     0
 10
0.0
 20
0.0
 30
0.0
  3
SW_NOTE_0_10
  1

  0
MTEXT
  5
C4
330
C1
100
AcDbEntity
  8
VORLAGE_TEXT
 62
     0
100
AcDbMText
 10
0.0
 20
2.3203219316
 30
0.0
 40
1.8
 41
0.0
 71
     1
 72
     1
  1
Genauig -
  7
SLDTEXTSTYLE0
 73
     1
 44
1.0
  0
MTEXT
  5
C5
330
C1
100
AcDbEntity
  8
VORLAGE_TEXT
 62
     0
100
AcDbMText
 10
0.0
 20
0.0003219611
 30
0.0
 40
1.8
 41
0.0
 71
     1
 72
     1
  1
keitsgrad
  7
SLDTEXTSTYLE0
 73
     1
 44
1.0
  0
ENDBLK
  5
C3
330
C1
100
AcDbEntity
  8
0
100
AcDbBlockEnd
  0
BLOCK
  5
C8
330
C7
100
AcDbEntity
  8
0
100
AcDbBlockBegin
  2
SW_NOTE_0_11
 70
     0
 10
0.0
 20
0.0
 30
0.0
  3
SW_NOTE_0_11
  1

  0
MTEXT
  5
CA
330
C7
100
AcDbEntity
  8
VORLAGE_TEXT
 62
     0
100
AcDbMText
 10
6.80625
 20
2.3203219316
 30
0.0
 40
1.8
 41
0.0
 71
     3
 72
     1
  1
>  400
  7
SLDTEXTSTYLE1
 73
     1
 44
1.0
  0
MTEXT
  5
CB
330
C7
100
AcDbEntity
  8
VORLAGE_TEXT
 62
     0
100
AcDbMText
 10
7.0246870391
 20
0.0003219611
 30
0.0
 40
1.8
 41
0.0
 71
     3
 72
     1
  1
... 1000
  7
SLDTEXTSTYLE0
 73
     1
 44
1.0
  0
ENDBLK
  5
C9
330
C7
100
AcDbEntity
  8
0
100
AcDbBlockEnd
  0
BLOCK
  5
CE
330
CD
100
AcDbEntity
  8
0
100
AcDbBlockBegin
  2
SW_NOTE_0_12
 70
     0
 10
0.0
 20
0.0
 30
0.0
  3
SW_NOTE_0_12
  1

  0
MTEXT
  5
D1
330
CD
100
AcDbEntity
  8
VORLAGE_TEXT
 62
     0
100
AcDbMText
 10
5.45625
 20
2.3203219316
 30
0.0
 40
1.8
 41
0.0
 71
     3
 72
     1
  1
>  30
  7
SLDTEXTSTYLE2
 73
     1
 44
1.0
  0
MTEXT
  5
D2
330
CD
100
AcDbEntity
  8
VORLAGE_TEXT
 62
     0
100
AcDbMText
 10
5.6637495868
 20
0.0003219611
 30
0.0
 40
1.8
 41
0.0
 71
     3
 72
     1
  1
... 120
  7
SLDTEXTSTYLE0
 73
     1
 44
1.0
  0
ENDBLK
  5
CF
330
CD
100
AcDbEntity
  8
0
100
AcDbBlockEnd
  0
BLOCK
  5
D5
330
D4
100
AcDbEntity
  8
0
100
AcDbBlockBegin
  2
SW_NOTE_0_13
 70
     0
 10
0.0
 20
0.0
 30
0.0
  3
SW_NOTE_0_13
  1

  0
MTEXT
  5
D8
330
D4
100
AcDbEntity
  8
VORLAGE_TEXT
 62
     0
100
AcDbMText
 10
4.10625
 20
2.3203219316
 30
0.0
 40
1.8
 41
0.0
 71
     3
 72
     1
  1
>  3
  7
SLDTEXTSTYLE3
 73
     1
 44
1.0
  0
MTEXT
  5
D9
330
D4
100
AcDbEntity
  8
VORLAGE_TEXT
 62
     0
100
AcDbMText
 10
4.2490622841
 20
0.0003219611
 30
0.0
 40
1.8
 41
0.0
 71
     3
 72
     1
  1
... 6
  7
SLDTEXTSTYLE0
 73
     1
 44
1.0
  0
ENDBLK
  5
D6
330
D4
100
AcDbEntity
  8
0
100
AcDbBlockEnd
  0
BLOCK
  5
DC
330
DB
100
AcDbEntity
  8
0
100
AcDbBlockBegin
  2
SW_NOTE_0_14
 70
     0
 10
0.0
 20
0.0
 30
0.0
  3
SW_NOTE_0_14
  1

  0
MTEXT
  5
DE
330
DB
100
AcDbEntity
  8
VORLAGE_TEXT
 62
     0
100
AcDbMText
 10
3.375
 20
2.3203219316
 30
0.0
 40
1.8
 41
0.0
 71
     3
 72
     1
  1
0.5
  7
SLDTEXTSTYLE0
 73
     1
 44
1.0
  0
MTEXT
  5
DF
330
DB
100
AcDbEntity
  8
VORLAGE_TEXT
 62
     0
100
AcDbMText
 10
3.446875035
 20
0.0003219611
 30
0.0
 40
1.8
 41
0.0
 71
     3
 72
     1
  1
... 3
  7
SLDTEXTSTYLE0
 73
     1
 44
1.0
  0
ENDBLK
  5
DD
330
DB
100
AcDbEntity
  8
0
100
AcDbBlockEnd
  0
BLOCK
  5
E2
330
E1
100
AcDbEntity
  8
0
100
AcDbBlockBegin
  2
SW_NOTE_0_15
 70
     0
 10
0.0
 20
0.0
 30
0.0
  3
SW_NOTE_0_15
  1

  0
MTEXT
  5
E4
330
E1
100
AcDbEntity
  8
VORLAGE_TEXT
 62
     0
100
AcDbMText
 10
4.10625
 20
2.3203219316
 30
0.0
 40
1.8
 41
0.0
 71
     3
 72
     1
  1
>  6
  7
SLDTEXTSTYLE3
 73
     1
 44
1.0
  0
MTEXT
  5
E5
330
E1
100
AcDbEntity
  8
VORLAGE_TEXT
 62
     0
100
AcDbMText
 10
4.2546879031
 20
0.0003219611
 30
0.0
 40
1.8
 41
0.0
 71
     3
 72
     1
  1
... 30
  7
SLDTEXTSTYLE0
 73
     1
 44
1.0
  0
ENDBLK
  5
E3
330
E1
100
AcDbEntity
  8
0
100
AcDbBlockEnd
  0
BLOCK
  5
E8
330
E7
100
AcDbEntity
  8
0
100
AcDbBlockBegin
  2
SW_NOTE_0_16
 70
     0
 10
0.0
 20
0.0
 30
0.0
  3
SW_NOTE_0_16
  1

  0
MTEXT
  5
EB
330
E7
100
AcDbEntity
  8
VORLAGE_TEXT
 62
     0
100
AcDbMText
 10
8.15625
 20
2.3203219316
 30
0.0
 40
1.8
 41
0.0
 71
     3
 72
     1
  1
>  1000
  7
SLDTEXTSTYLE4
 73
     1
 44
1.0
  0
MTEXT
  5
EC
330
E7
100
AcDbEntity
  8
VORLAGE_TEXT
 62
     0
100
AcDbMText
 10
8.2353127882
 20
0.0003219611
 30
0.0
 40
1.8
 41
0.0
 71
     3
 72
     1
  1
... 2000
  7
SLDTEXTSTYLE0
 73
     1
 44
1.0
  0
ENDBLK
  5
E9
330
E7
100
AcDbEntity
  8
0
100
AcDbBlockEnd
  0
BLOCK
  5
EF
330
EE
100
AcDbEntity
  8
0
100
AcDbBlockBegin
  2
SW_NOTE_0_17
 70
     0
 10
0.0
 20
0.0
 30
0.0
  3
SW_NOTE_0_17
  1

  0
MTEXT
  5
F1
330
EE
100
AcDbEntity
  8
VORLAGE_TEXT
 62
     0
100
AcDbMText
 10
0.0
 20
2.3203219316
 30
0.0
 40
1.8
 41
0.0
 71
     1
 72
     1
  1
± 1.2
  7
SLDTEXTSTYLE0
 73
     1
 44
1.0
  0
ENDBLK
  5
F0
330
EE
100
AcDbEntity
  8
0
100
AcDbBlockEnd
  0
BLOCK
  5
F4
330
F3
100
AcDbEntity
  8
0
100
AcDbBlockBegin
  2
ACO-Logo
 70
     0
 10
0.0
 20
0.0
 30
0.0
  3
ACO-Logo
  1

  0
ARC
  5
F6
330
F3
100
AcDbEntity
  8
0
  6
Continuous
 62
   179
370
    18
100
AcDbCircle
 10
80.3853261169
 20
4.9940995715
 30
0.0
 40
0.3000000000000441
100
AcDbArc
 50
181.9349323096
 51
274.6062978506
  0
ARC
  5
F7
330
F3
100
AcDbEntity
  8
0
  6
Continuous
 62
   179
370
    18
100
AcDbCircle
 10
81.2359083165
 20
2.1946665956
 30
0.0
 40
1.000000000000021
100
AcDbArc
 50
221.4087409628
 51
276.0561297228
  0
ARC
  5
F8
330
F3
100
AcDbEntity
  8
0
  6
Continuous
 62
   179
370
    18
100
AcDbCircle
 10
79.1360017163
 20
3.654242048
 30
0.0
 40
0.300000000000004
100
AcDbArc
 50
181.2730300201
 51
274.4996077095
  0
ARC
  5
F9
330
F3
100
AcDbEntity
  8
0
  6
Continuous
 62
   179
370
    18
100
AcDbCircle
 10
78.7699033484
 20
3.2873137407
 30
0.0
 40
0.4000000000000358
100
AcDbArc
 50
221.0090869016
 51
274.5606296317
  0
ARC
  5
FA
330
F3
100
AcDbEntity
  8
0
  6
Continuous
 62
   179
370
    18
100
AcDbCircle
 10
91.2333953062
 20
4.6062442307
 30
0.0
 40
0.3000000000000493
100
AcDbArc
 50
274.4996077095
 51
3.7249371334
  0
ARC
  5
FB
330
F3
100
AcDbEntity
  8
0
  6
Continuous
 62
   179
370
    18
100
AcDbCircle
 10
81.5287571045
 20
9.7648973508
 30
0.0
 40
1.00000000000002
100
AcDbArc
 50
93.1134387481
 51
181.9414863909
  0
ARC
  5
FC
330
F3
100
AcDbEntity
  8
0
  6
Continuous
 62
   179
370
    18
100
AcDbCircle
 10
81.6051675115
 20
7.5107903456
 30
0.0
 40
1.0
100
AcDbArc
 50
181.9414863909
 51
274.398705355
  0
ARC
  5
FD
330
F3
100
AcDbEntity
  8
0
  6
Continuous
 62
   179
370
    18
100
AcDbCircle
 10
80.1506905656
 20
11.9393118923
 30
0.0
 40
0.300000000000045
100
AcDbArc
 50
93.0418421566
 51
181.9349323096
  0
ARC
  5
FE
330
F3
100
AcDbEntity
  8
0
  6
Continuous
 62
   179
370
    18
100
AcDbCircle
 10
78.1879722102
 20
12.3499352608
 30
0.0
 40
0.7999999999953393
100
AcDbArc
 50
92.6995697565
 51
148.2554209065
  0
ARC
  5
FF
330
F3
100
AcDbEntity
  8
0
  6
Continuous
 62
   179
370
    18
100
AcDbCircle
 10
78.930862229
 20
12.8855189761
 30
0.0
 40
0.3000000000000031
100
AcDbArc
 50
92.6995697565
 51
181.2730300201
  0
ARC
  5
100
330
F3
100
AcDbEntity
  8
0
  6
Continuous
 62
   179
370
    18
100
AcDbCircle
 10
82.327743407
 20
9.8083568568
 30
0.0
 40
1.000000000000034
100
AcDbArc
 50
1.9414863909
 51
93.1134387481
  0
ARC
  5
101
330
F3
100
AcDbEntity
  8
0
  6
Continuous
 62
   179
370
    18
100
AcDbCircle
 10
81.5287571045
 20
9.7648973508
 30
0.0
 40
0.3625000000000009
100
AcDbArc
 50
93.1134387481
 51
181.9414863909
  0
ARC
  5
102
330
F3
100
AcDbEntity
  8
0
  6
Continuous
 62
   179
370
    18
100
AcDbCircle
 10
82.327743407
 20
9.8083568568
 30
0.0
 40
0.3625000000000146
100
AcDbArc
 50
1.9414863909
 51
93.1134387481
  0
ARC
  5
103
330
F3
100
AcDbEntity
  8
0
  6
Continuous
 62
   179
370
    18
100
AcDbCircle
 10
82.4035451983
 20
7.5722040138
 30
0.0
 40
1.000000000000008
100
AcDbArc
 50
274.398705355
 51
1.9414863909
  0
ARC
  5
104
330
F3
100
AcDbEntity
  8
0
  6
Continuous
 62
   179
370
    18
100
AcDbCircle
 10
82.4035451983
 20
7.5722040138
 30
0.0
 40
0.3625000000000068
100
AcDbArc
 50
274.398705355
 51
1.9414863909
  0
ARC
  5
105
330
F3
100
AcDbEntity
  8
0
  6
Continuous
 62
   179
370
    18
100
AcDbCircle
 10
81.6051675115
 20
7.5107903456
 30
0.0
 40
0.3625000000000111
100
AcDbArc
 50
181.9414863909
 51
274.398705355
  0
ARC
  5
106
330
F3
100
AcDbEntity
  8
0
  6
Continuous
 62
   179
370
    18
100
AcDbCircle
 10
88.825822761
 20
8.0662148274
 30
0.0
 40
0.9999999999999997
100
AcDbArc
 50
274.398705355
 51
2.6541955134
  0
ARC
  5
107
330
F3
100
AcDbEntity
  8
0
  6
Continuous
 62
   179
370
    18
100
AcDbCircle
 10
90.1578295581
 20
5.7814576687
 30
0.0
 40
0.3000000000000043
100
AcDbArc
 50
274.6062978507
 51
2.5147526475
  0
ARC
  5
108
330
F3
100
AcDbEntity
  8
0
  6
Continuous
 62
   179
370
    18
100
AcDbCircle
 10
88.825822761
 20
8.0662148274
 30
0.0
 40
0.3625000000000083
100
AcDbArc
 50
274.398705355
 51
2.6541955134
  0
ARC
  5
109
330
F3
100
AcDbEntity
  8
0
  6
Continuous
 62
   179
370
    18
100
AcDbCircle
 10
88.728529747
 20
10.16496413
 30
0.0
 40
1.000000000000001
100
AcDbArc
 50
2.6541955134
 51
93.1134387481
  0
ARC
  5
10A
330
F3
100
AcDbEntity
  8
0
  6
Continuous
 62
   179
370
    18
100
AcDbCircle
 10
88.728529747
 20
10.16496413
 30
0.0
 40
0.3625000000000085
100
AcDbArc
 50
2.6541955134
 51
93.1134387481
  0
ARC
  5
10B
330
F3
100
AcDbEntity
  8
0
  6
Continuous
 62
   179
370
    18
100
AcDbCircle
 10
89.8647121341
 20
12.455515937
 30
0.0
 40
0.2999999999999984
100
AcDbArc
 50
2.5147526475
 51
93.0418421566
  0
ARC
  5
10C
330
F3
100
AcDbEntity
  8
0
  6
Continuous
 62
   179
370
    18
100
AcDbCircle
 10
90.6583795404
 20
13.4384863935
 30
0.0
 40
0.2999999999999911
100
AcDbArc
 50
3.7249371334
 51
92.6995697565
  0
CIRCLE
  5
10D
330
F3
100
AcDbEntity
  8
0
  6
Continuous
 62
   179
370
    18
100
AcDbCircle
 10
15.7233972286
 20
6.4054930194
 30
0.0
 40
1.579500000000014
  0
CIRCLE
  5
10E
330
F3
100
AcDbEntity
  8
0
  6
Continuous
 62
   179
370
    18
100
AcDbCircle
 10
15.7233972286
 20
6.4054930194
 30
0.0
 40
2.281499999999994
  0
ARC
  5
10F
330
F3
100
AcDbEntity
  8
0
  6
Continuous
 62
   179
370
    18
100
AcDbCircle
 10
89.7681336026
 20
2.3106616691
 30
0.0
 40
0.098384530246548
100
AcDbArc
 50
332.3802627259
 51
4.9765441602
  0
ARC
  5
110
330
F3
100
AcDbEntity
  8
0
  6
Continuous
 62
   179
370
    18
100
AcDbCircle
 10
89.6886560089
 20
2.3522464185
 30
0.0
 40
0.1880839130754018
100
AcDbArc
 50
303.690067526
 51
332.3802627258
  0
ARC
  5
111
330
F3
100
AcDbEntity
  8
0
  6
Continuous
 62
   179
370
    18
100
AcDbCircle
 10
89.4849700869
 20
2.6577753016
 30
0.0
 40
0.5552839311631531
100
AcDbArc
 50
287.108652213
 51
303.690067526
  0
ARC
  5
112
330
F3
100
AcDbEntity
  8
0
  6
Continuous
 62
   179
370
    18
100
AcDbCircle
 10
88.0513010646
 20
7.3154864882
 30
0.0
 40
5.428648309393203
100
AcDbArc
 50
285.2551187031
 51
287.108652213
  0
ARC
  5
113
330
F3
100
AcDbEntity
  8
0
  6
Continuous
 62
   179
370
    18
100
AcDbCircle
 10
89.1317168954
 20
3.3539617753
 30
0.0
 40
1.322436378825653
100
AcDbArc
 50
281.4991866428
 51
285.255118703
  0
ARC
  5
114
330
F3
100
AcDbEntity
  8
0
  6
Continuous
 62
   179
370
    18
100
AcDbCircle
 10
89.3198255509
 20
2.4293110075
 30
0.0
 40
0.3788454141584939
100
AcDbArc
 50
279.1917900003
 51
281.499186643
  0
ARC
  5
115
330
F3
100
AcDbEntity
  8
0
  6
Continuous
 62
   179
370
    18
100
AcDbCircle
 10
89.0487250788
 20
4.1046569124
 30
0.0
 40
2.07598399629105
100
AcDbArc
 50
277.7634675038
 51
279.1917900002
  0
ARC
  5
116
330
F3
100
AcDbEntity
  8
0
  6
Continuous
 62
   179
370
    18
100
AcDbCircle
 10
9.2588909915
 20
6.4054930194
 30
0.0
 40
1.579500000000074
100
AcDbArc
 50
31.0558004991
 51
330.0
  0
ARC
  5
117
330
F3
100
AcDbEntity
  8
0
  6
Continuous
 62
   179
370
    18
100
AcDbCircle
 10
9.2588909915
 20
6.4054930194
 30
0.0
 40
2.281500000000107
100
AcDbArc
 50
30.7309172659
 51
330.0
  0
ARC
  5
118
330
F3
100
AcDbEntity
  8
0
  6
Continuous
 62
   179
370
    18
100
AcDbCircle
 10
6.1288847544
 20
4.0685261312
 30
0.0
 40
4.914000000000307
100
AcDbArc
 50
172.3058370354
 51
179.7113029221
  0
ARC
  5
119
330
F3
100
AcDbEntity
  8
0
  6
Continuous
 62
   179
370
    18
100
AcDbCircle
 10
-0.5401152456
 20
4.0685261312
 30
0.0
 40
4.91400000000019
100
AcDbArc
 50
0.2886970779
 51
7.6941629646
  0
ARC
  5
11A
330
F3
100
AcDbEntity
  8
0
  6
Continuous
 62
   179
370
    18
100
AcDbCircle
 10
-0.5401152456
 20
4.0685261312
 30
0.0
 40
5.616000000000127
100
AcDbArc
 50
0.2526096926
 51
53.5764263577
  0
ARC
  5
11B
330
F3
100
AcDbEntity
  8
0
  6
Continuous
 62
   179
370
    18
100
AcDbCircle
 10
6.1288847544
 20
4.0685261312
 30
0.0
 40
5.61600000000074
100
AcDbArc
 50
126.4235736423
 51
179.7473903073
  0
ARC
  5
11C
330
F3
100
AcDbEntity
  8
0
  6
Continuous
 62
   179
370
    18
100
AcDbCircle
 10
-0.5401152456
 20
4.0685261312
 30
0.0
 40
4.914000000000161
100
AcDbArc
 50
16.0658750272
 51
47.2678899574
  0
ARC
  5
11D
330
F3
100
AcDbEntity
  8
0
  6
Continuous
 62
   179
370
    18
100
AcDbCircle
 10
6.1288847544
 20
4.0685261312
 30
0.0
 40
4.914000000000584
100
AcDbArc
 50
132.7321100426
 51
163.9341249728
  0
LINE
  5
11E
330
F3
100
AcDbEntity
  8
0
  6
Continuous
 62
   179
370
    18
100
AcDbLine
 10
78.8017089389
 20
2.8885802402
 30
0.0
 11
90.7982178739
 21
3.8455002136
 31
0.0
  0
LINE
  5
11F
330
F3
100
AcDbEntity
  8
0
  6
Continuous
 62
   179
370
    18
100
AcDbLine
 10
76.6545490427
 20
5.8693097374
 30
0.0
 11
78.0344191726
 21
3.5235305166
 31
0.0
  0
LINE
  5
120
330
F3
100
AcDbEntity
  8
0
  6
Continuous
 62
   179
370
    18
100
AcDbLine
 10
91.5327615373
 20
4.6257342197
 30
0.0
 11
90.9577457715
 21
13.4579763825
 31
0.0
  0
LINE
  5
121
330
F3
100
AcDbEntity
  8
0
  6
Continuous
 62
   179
370
    18
100
AcDbLine
 10
78.6309362756
 20
12.8788539549
 30
0.0
 11
78.8360757629
 21
3.6475770268
 31
0.0
  0
LINE
  5
122
330
F3
100
AcDbEntity
  8
0
  6
Continuous
 62
   179
370
    18
100
AcDbLine
 10
80.4094186633
 20
4.6950685544
 30
0.0
 11
90.1819221045
 21
5.4824266516
 31
0.0
  0
LINE
  5
123
330
F3
100
AcDbEntity
  8
0
  6
Continuous
 62
   179
370
    18
100
AcDbLine
 10
79.1595373973
 20
3.3551666867
 30
0.0
 11
91.2569309872
 21
4.3071688694
 31
0.0
  0
LINE
  5
124
330
F3
100
AcDbEntity
  8
0
  6
Continuous
 62
   179
370
    18
100
AcDbLine
 10
79.2585043218
 20
2.925017226
 30
0.0
 11
80.4858981444
 21
1.533240302
 31
0.0
  0
LINE
  5
125
330
F3
100
AcDbEntity
  8
0
  6
Continuous
 62
   179
370
    18
100
AcDbLine
 10
78.0344191726
 20
3.5235305166
 30
0.0
 11
78.3638740472
 21
3.1446574108
 31
0.0
  0
LINE
  5
126
330
F3
100
AcDbEntity
  8
0
  6
Continuous
 62
   179
370
    18
100
AcDbLine
 10
78.3638740472
 20
3.1446574108
 30
0.0
 11
78.4680611395
 21
3.0248422547
 31
0.0
  0
LINE
  5
127
330
F3
100
AcDbEntity
  8
0
  6
Continuous
 62
   179
370
    18
100
AcDbLine
 10
81.3414110113
 20
1.2002475785
 30
0.0
 11
89.3291569519
 21
2.0477010263
 31
0.0
  0
LINE
  5
128
330
F3
100
AcDbEntity
  8
0
  6
Continuous
 62
   179
370
    18
100
AcDbLine
 10
89.8661472522
 20
2.5197759309
 30
0.0
 11
89.8661472522
 21
2.3090867337
 31
0.0
  0
LINE
  5
129
330
F3
100
AcDbEntity
  8
0
  6
Continuous
 62
   179
370
    18
100
AcDbLine
 10
88.676842368
 20
3.6762854359
 30
0.0
 11
89.6713239345
 21
2.7875997807
 31
0.0
  0
LINE
  5
12A
330
F3
100
AcDbEntity
  8
0
  6
Continuous
 62
   179
370
    18
100
AcDbLine
 10
89.6713239345
 20
2.7875997807
 30
0.0
 11
89.7459749087
 21
2.7242700694
 31
0.0
  0
LINE
  5
12B
330
F3
100
AcDbEntity
  8
0
  6
Continuous
 62
   179
370
    18
100
AcDbLine
 10
90.7982178739
 20
3.8455002136
 30
0.0
 11
91.3961615969
 21
4.3514525945
 31
0.0
  0
LINE
  5
12C
330
F3
100
AcDbEntity
  8
0
  6
Continuous
 62
   179
370
    18
100
AcDbLine
 10
90.6442498554
 20
13.7381534621
 30
0.0
 11
78.1502930503
 21
13.1490474438
 31
0.0
  0
LINE
  5
12D
330
F3
100
AcDbEntity
  8
0
  6
Continuous
 62
   179
370
    18
100
AcDbLine
 10
80.1347709981
 20
12.2388892068
 30
0.0
 11
89.8487925667
 21
12.7550932515
 31
0.0
  0
LINE
  5
12E
330
F3
100
AcDbEntity
  8
0
  6
Continuous
 62
   179
370
    18
100
AcDbLine
 10
76.4935641943
 20
11.7567556248
 30
0.0
 11
76.6545490427
 21
5.8693097374
 31
0.0
  0
LINE
  5
12F
330
F3
100
AcDbEntity
  8
0
  6
Continuous
 62
   179
370
    18
100
AcDbLine
 10
79.8508616208
 20
11.929182536
 30
0.0
 11
80.0854971721
 21
4.9839702153
 31
0.0
  0
LINE
  5
130
330
F3
100
AcDbEntity
  8
0
  6
Continuous
 62
   179
370
    18
100
AcDbLine
 10
80.5293311574
 20
9.7310185051
 30
0.0
 11
80.6057415643
 21
7.4769115
 31
0.0
  0
LINE
  5
131
330
F3
100
AcDbEntity
  8
0
  6
Continuous
 62
   179
370
    18
100
AcDbLine
 10
77.507650604
 20
12.7708420346
 30
0.0
 11
76.4935641943
 21
11.7567556248
 31
0.0
  0
LINE
  5
132
330
F3
100
AcDbEntity
  8
0
  6
Continuous
 62
   179
370
    18
100
AcDbLine
 10
86.8848195129
 20
11.0661568594
 30
0.0
 11
88.6742167283
 21
11.1634880887
 31
0.0
  0
LINE
  5
133
330
F3
100
AcDbEntity
  8
0
  6
Continuous
 62
   179
370
    18
100
AcDbLine
 10
87.0766213517
 20
6.9287171941
 30
0.0
 11
88.90708891
 21
7.0695223909
 31
0.0
  0
LINE
  5
134
330
F3
100
AcDbEntity
  8
0
  6
Continuous
 62
   179
370
    18
100
AcDbLine
 10
87.6830038473
 20
7.6147347768
 30
0.0
 11
88.8536252418
 21
7.7047825764
 31
0.0
  0
LINE
  5
135
330
F3
100
AcDbEntity
  8
0
  6
Continuous
 62
   179
370
    18
100
AcDbLine
 10
87.5509212094
 20
10.4639459651
 30
0.0
 11
88.7088412777
 21
10.5269290651
 31
0.0
  0
LINE
  5
136
330
F3
100
AcDbEntity
  8
0
  6
Continuous
 62
   179
370
    18
100
AcDbLine
 10
87.0766218384
 20
6.9287066941
 30
0.0
 11
86.8848195129
 21
11.0661568594
 31
0.0
  0
LINE
  5
137
330
F3
100
AcDbEntity
  8
0
  6
Continuous
 62
   179
370
    18
100
AcDbLine
 10
83.7004598825
 20
6.6667911093
 30
0.0
 11
84.5054929504
 21
10.9267193262
 31
0.0
  0
LINE
  5
138
330
F3
100
AcDbEntity
  8
0
  6
Continuous
 62
   179
370
    18
100
AcDbLine
 10
85.3543248406
 20
10.9728900984
 30
0.0
 11
86.4940946704
 21
6.8816860929
 31
0.0
  0
LINE
  5
139
330
F3
100
AcDbEntity
  8
0
  6
Continuous
 62
   179
370
    18
100
AcDbLine
 10
84.9728575427
 20
9.9667192298
 30
0.0
 11
85.4540299774
 21
8.2395506903
 31
0.0
  0
LINE
  5
13A
330
F3
100
AcDbEntity
  8
0
  6
Continuous
 62
   179
370
    18
100
AcDbLine
 10
84.6363094629
 20
8.1858350416
 30
0.0
 11
84.9728575427
 21
9.9667192298
 31
0.0
  0
LINE
  5
13B
330
F3
100
AcDbEntity
  8
0
  6
Continuous
 62
   179
370
    18
100
AcDbLine
 10
87.6830038473
 20
7.6147347768
 30
0.0
 11
87.5509212094
 21
10.4639459651
 31
0.0
  0
LINE
  5
13C
330
F3
100
AcDbEntity
  8
0
  6
Continuous
 62
   179
370
    18
100
AcDbLine
 10
84.6363094629
 20
8.1858350416
 30
0.0
 11
85.4540299774
 21
8.2395506903
 31
0.0
  0
LINE
  5
13D
330
F3
100
AcDbEntity
  8
0
  6
Continuous
 62
   179
370
    18
100
AcDbLine
 10
84.5140586807
 20
7.5389304886
 30
0.0
 11
85.6288154243
 21
7.6121582976
 31
0.0
  0
LINE
  5
13E
330
F3
100
AcDbEntity
  8
0
  6
Continuous
 62
   179
370
    18
100
AcDbLine
 10
84.3588137958
 20
6.717433718
 30
0.0
 11
84.5140586807
 21
7.5389304886
 31
0.0
  0
LINE
  5
13F
330
F3
100
AcDbEntity
  8
0
  6
Continuous
 62
   179
370
    18
100
AcDbLine
 10
81.6818640104
 20
6.5137358601
 30
0.0
 11
82.4802416972
 21
6.5751495283
 31
0.0
  0
LINE
  5
140
330
F3
100
AcDbEntity
  8
0
  6
Continuous
 62
   179
370
    18
100
AcDbLine
 10
81.6329699923
 20
7.1493580946
 30
0.0
 11
82.4313476791
 21
7.2107717628
 31
0.0
  0
LINE
  5
141
330
F3
100
AcDbEntity
  8
0
  6
Continuous
 62
   179
370
    18
100
AcDbLine
 10
83.7004598825
 20
6.6667911093
 30
0.0
 11
84.3588137958
 21
6.717433718
 31
0.0
  0
LINE
  5
142
330
F3
100
AcDbEntity
  8
0
  6
Continuous
 62
   179
370
    18
100
AcDbLine
 10
82.7059483815
 20
9.3512024135
 30
0.0
 11
83.3423973297
 21
9.3930104243
 31
0.0
  0
LINE
  5
143
330
F3
100
AcDbEntity
  8
0
  6
Continuous
 62
   179
370
    18
100
AcDbLine
 10
82.7491656358
 20
8.0762934118
 30
0.0
 11
83.385614584
 21
8.1181014226
 31
0.0
  0
LINE
  5
144
330
F3
100
AcDbEntity
  8
0
  6
Continuous
 62
   179
370
    18
100
AcDbLine
 10
81.1664651987
 20
9.7526162692
 30
0.0
 11
81.2428756056
 21
7.4985092641
 31
0.0
  0
LINE
  5
145
330
F3
100
AcDbEntity
  8
0
  6
Continuous
 62
   179
370
    18
100
AcDbLine
 10
82.6900353128
 20
9.8206379383
 30
0.0
 11
82.7052632884
 21
9.3714126602
 31
0.0
  0
LINE
  5
146
330
F3
100
AcDbEntity
  8
0
  6
Continuous
 62
   179
370
    18
100
AcDbLine
 10
82.7491656358
 20
8.0762934118
 30
0.0
 11
82.7658371041
 21
7.5844850954
 31
0.0
  0
LINE
  5
147
330
F3
100
AcDbEntity
  8
0
  6
Continuous
 62
   179
370
    18
100
AcDbLine
 10
83.3271693541
 20
9.8422357024
 30
0.0
 11
83.3423973297
 21
9.3930104243
 31
0.0
  0
LINE
  5
148
330
F3
100
AcDbEntity
  8
0
  6
Continuous
 62
   179
370
    18
100
AcDbLine
 10
83.385614584
 20
8.1181014226
 30
0.0
 11
83.4029711454
 21
7.6060828595
 31
0.0
  0
LINE
  5
149
330
F3
100
AcDbEntity
  8
0
  6
Continuous
 62
   179
370
    18
100
AcDbLine
 10
85.6288154243
 20
7.6121582976
 30
0.0
 11
85.8462022593
 21
6.8318482152
 31
0.0
  0
LINE
  5
14A
330
F3
100
AcDbEntity
  8
0
  6
Continuous
 62
   179
370
    18
100
AcDbLine
 10
85.8462022593
 20
6.8318482152
 30
0.0
 11
86.4940946704
 21
6.8816860929
 31
0.0
  0
LINE
  5
14B
330
F3
100
AcDbEntity
  8
0
  6
Continuous
 62
   179
370
    18
100
AcDbLine
 10
84.5054929504
 20
10.9267193262
 30
0.0
 11
85.3543248406
 21
10.9728900984
 31
0.0
  0
LINE
  5
14C
330
F3
100
AcDbEntity
  8
0
  6
Continuous
 62
   179
370
    18
100
AcDbLine
 10
81.4744440858
 20
10.7634213094
 30
0.0
 11
82.2734303883
 21
10.8068808154
 31
0.0
  0
LINE
  5
14D
330
F3
100
AcDbEntity
  8
0
  6
Continuous
 62
   179
370
    18
100
AcDbLine
 10
81.5090686352
 20
10.1268622858
 30
0.0
 11
82.3080549377
 21
10.1703217918
 31
0.0
  0
LINE
  5
14E
330
F3
100
AcDbEntity
  8
0
  6
Continuous
 62
   179
370
    18
100
AcDbLine
 10
90.4575406452
 20
5.7946206556
 30
0.0
 11
90.1644232213
 21
12.4686789239
 31
0.0
  0
LINE
  5
14F
330
F3
100
AcDbEntity
  8
0
  6
Continuous
 62
   179
370
    18
100
AcDbLine
 10
89.8247499755
 20
8.1125227115
 30
0.0
 11
89.7274569615
 21
10.2112720142
 31
0.0
  0
LINE
  5
150
330
F3
100
AcDbEntity
  8
0
  6
Continuous
 62
   179
370
    18
100
AcDbLine
 10
89.1879338763
 20
8.0830014354
 30
0.0
 11
89.0906408622
 21
10.181750738
 31
0.0
  0
LINE
  5
151
330
F3
100
AcDbEntity
  8
0
  6
Continuous
 62
   179
370
    18
100
AcDbLine
 10
89.7459749087
 20
2.7242700694
 30
0.0
 11
89.7974962577
 21
2.6659765769
 31
0.0
  0
LINE
  5
152
330
F3
100
AcDbEntity
  8
0
  6
Continuous
 62
   179
370
    18
100
AcDbLine
 10
89.7974962577
 20
2.6659765769
 30
0.0
 11
89.8351851379
 21
2.60192886
 31
0.0
  0
LINE
  5
153
330
F3
100
AcDbEntity
  8
0
  6
Continuous
 62
   179
370
    18
100
AcDbLine
 10
89.8351851379
 20
2.60192886
 30
0.0
 11
89.8661472522
 21
2.5197759309
 31
0.0
  0
LINE
  5
154
330
F3
100
AcDbEntity
  8
0
  6
Continuous
 62
   179
370
    18
100
AcDbLine
 10
10.6119938288
 20
7.2203138351
 30
0.0
 11
11.2200151261
 21
7.5713550947
 31
0.0
  0
LINE
  5
155
330
F3
100
AcDbEntity
  8
0
  6
Continuous
 62
   179
370
    18
100
AcDbLine
 10
11.2347279503
 20
5.2647430194
 30
0.0
 11
10.6267781168
 21
5.6157430194
 31
0.0
  0
LINE
  5
156
330
F3
100
AcDbEntity
  8
0
  6
Continuous
 62
   179
370
    18
100
AcDbLine
 10
6.4645062371
 20
16.1712617198
 30
0.0
 11
6.4645062371
 21
2.9364593988
 31
0.0
  0
LINE
  5
157
330
F3
100
AcDbEntity
  8
0
  6
Continuous
 62
   179
370
    18
100
AcDbLine
 10
6.4645062371
 20
2.9364593988
 30
0.0
 11
12.0532757459
 21
2.9364593988
 31
0.0
  0
LINE
  5
158
330
F3
100
AcDbEntity
  8
0
  6
Continuous
 62
   179
370
    18
100
AcDbLine
 10
12.0532757459
 20
2.9364593988
 30
0.0
 11
12.0532757459
 21
16.1712617198
 31
0.0
  0
LINE
  5
159
330
F3
100
AcDbEntity
  8
0
  6
Continuous
 62
   179
370
    18
100
AcDbLine
 10
12.0532757459
 20
16.1712617198
 30
0.0
 11
6.4645062371
 21
16.1712617198
 31
0.0
  0
LINE
  5
15A
330
F3
100
AcDbEntity
  8
0
  6
Continuous
 62
   179
370
    18
100
AcDbLine
 10
0.0
 20
16.1712617198
 30
0.0
 11
0.0
 21
2.9364593988
 31
0.0
  0
LINE
  5
15B
330
F3
100
AcDbEntity
  8
0
  6
Continuous
 62
   179
370
    18
100
AcDbLine
 10
0.0
 20
2.9364593988
 30
0.0
 11
5.5887695089
 21
2.9364593988
 31
0.0
  0
LINE
  5
15C
330
F3
100
AcDbEntity
  8
0
  6
Continuous
 62
   179
370
    18
100
AcDbLine
 10
5.5887695089
 20
2.9364593988
 30
0.0
 11
5.5887695089
 21
16.1712617198
 31
0.0
  0
LINE
  5
15D
330
F3
100
AcDbEntity
  8
0
  6
Continuous
 62
   179
370
    18
100
AcDbLine
 10
5.5887695089
 20
16.1712617198
 30
0.0
 11
0.0
 21
16.1712617198
 31
0.0
  0
LINE
  5
15E
330
F3
100
AcDbEntity
  8
0
  6
Continuous
 62
   179
370
    18
100
AcDbLine
 10
1.2591262606
 20
4.7264381407
 30
0.0
 11
4.3296432482
 21
4.7264381407
 31
0.0
  0
LINE
  5
15F
330
F3
100
AcDbEntity
  8
0
  6
Continuous
 62
   179
370
    18
100
AcDbLine
 10
4.3738223747
 20
4.0932862697
 30
0.0
 11
5.0758301722
 21
4.0932862697
 31
0.0
  0
LINE
  5
160
330
F3
100
AcDbEntity
  8
0
  6
Continuous
 62
   179
370
    18
100
AcDbLine
 10
0.5129393366
 20
4.0932862697
 30
0.0
 11
1.2149471342
 21
4.0932862697
 31
0.0
  0
LINE
  5
161
330
F3
100
AcDbEntity
  8
0
  6
Continuous
 62
   179
370
    18
100
AcDbLine
 10
4.1819643097
 20
5.4284381407
 30
0.0
 11
1.4068051992
 21
5.4284381407
 31
0.0
  0
LINE
  5
162
330
F3
100
AcDbEntity
  8
0
  6
Continuous
 62
   179
370
    18
100
AcDbLine
 10
18.517781983
 20
16.1712617198
 30
0.0
 11
18.517781983
 21
2.9364593988
 31
0.0
  0
LINE
  5
163
330
F3
100
AcDbEntity
  8
0
  6
Continuous
 62
   179
370
    18
100
AcDbLine
 10
18.517781983
 20
2.9364593988
 30
0.0
 11
12.9290124742
 21
2.9364593988
 31
0.0
  0
LINE
  5
164
330
F3
100
AcDbEntity
  8
0
  6
Continuous
 62
   179
370
    18
100
AcDbLine
 10
12.9290124742
 20
2.9364593988
 30
0.0
 11
12.9290124742
 21
16.1712617198
 31
0.0
  0
LINE
  5
165
330
F3
100
AcDbEntity
  8
0
  6
Continuous
 62
   179
370
    18
100
AcDbLine
 10
12.9290124742
 20
16.1712617198
 30
0.0
 11
18.517781983
 21
16.1712617198
 31
0.0
  0
INSERT
  5
16A
330
F3
100
AcDbEntity
  8
0
  6
Continuous
 62
     7
370
     0
100
AcDbBlockReference
  2
SW_NOTE_0_18
 10
1.8998941161
 20
-0.3226565443
 30
0.0
  0
INSERT
  5
16F
330
F3
100
AcDbEntity
  8
0
  6
Continuous
 62
     7
370
     0
100
AcDbBlockReference
  2
SW_NOTE_0_19
 10
29.0847521358
 20
12.7459167441
 30
0.0
  0
INSERT
  5
177
330
F3
100
AcDbEntity
  8
0
  6
Continuous
 62
     7
370
     0
100
AcDbBlockReference
  2
SW_NOTE_0_20
 10
28.8863479825
 20
8.6365742194
 30
0.0
  0
ENDBLK
  5
F5
330
F3
100
AcDbEntity
  8
0
100
AcDbBlockEnd
  0
BLOCK
  5
167
330
166
100
AcDbEntity
  8
0
100
AcDbBlockBegin
  2
SW_NOTE_0_18
 70
     0
 10
0.0
 20
0.0
 30
0.0
  3
SW_NOTE_0_18
  1

  0
MTEXT
  5
169
330
166
100
AcDbEntity
  8
0
  6
Continuous
 62
     0
370
     0
100
AcDbMText
 10
7.09375
 20
2.5781354795
 30
0.0
 40
2.0
 41
0.0
 71
     2
 72
     1
  1
www.aco.ch
  7
SLDTEXTSTYLE0
 73
     1
 44
1.0
  0
ENDBLK
  5
168
330
166
100
AcDbEntity
  8
0
100
AcDbBlockEnd
  0
BLOCK
  5
16C
330
16B
100
AcDbEntity
  8
0
100
AcDbBlockBegin
  2
SW_NOTE_0_19
 70
     0
 10
0.0
 20
0.0
 30
0.0
  3
SW_NOTE_0_19
  1

  0
MTEXT
  5
16E
330
16B
100
AcDbEntity
  8
0
  6
Continuous
 62
     0
370
     0
100
AcDbMText
 10
7.828125
 20
3.8672032193
 30
0.0
 40
3.0
 41
0.0
 71
     2
 72
     1
  1
ACO AG
  7
SLDTEXTSTYLE0
 73
     1
 44
1.0
  0
ENDBLK
  5
16D
330
16B
100
AcDbEntity
  8
0
100
AcDbBlockEnd
  0
BLOCK
  5
171
330
170
100
AcDbEntity
  8
0
100
AcDbBlockBegin
  2
SW_NOTE_0_20
 70
     0
 10
0.0
 20
0.0
 30
0.0
  3
SW_NOTE_0_20
  1

  0
MTEXT
  5
173
330
170
100
AcDbEntity
  8
0
  6
Continuous
 62
     0
370
     0
100
AcDbMText
 10
0.0
 20
2.5781354795
 30
0.0
 40
2.0
 41
0.0
 71
     1
 72
     1
  1
Industrie Kleinzaun
  7
SLDTEXTSTYLE0
 73
     1
 44
1.0
  0
MTEXT
  5
174
330
170
100
AcDbEntity
  8
0
  6
Continuous
 62
     0
370
     0
100
AcDbMText
 10
0.0
 20
-0.4218645465
 30
0.0
 40
2.0
 41
0.0
 71
     1
 72
     1
  1
CH-8754 Netstal
  7
SLDTEXTSTYLE0
 73
     1
 44
1.0
  0
MTEXT
  5
175
330
170
100
AcDbEntity
  8
0
  6
Continuous
 62
     0
370
     0
100
AcDbMText
 10
0.0
 20
-3.4218645726
 30
0.0
 40
2.0
 41
0.0
 71
     1
 72
     1
  1
Tel. 055 / 645 53 00
  7
SLDTEXTSTYLE0
 73
     1
 44
1.0
  0
MTEXT
  5
176
330
170
100
AcDbEntity
  8
0
  6
Continuous
 62
     0
370
     0
100
AcDbMText
 10
0.0
 20
-6.4218645987
 30
0.0
 40
2.0
 41
0.0
 71
     1
 72
     1
  1
E-Mail: aco@aco.ch
  7
SLDTEXTSTYLE0
 73
     1
 44
1.0
  0
ENDBLK
  5
172
330
170
100
AcDbEntity
  8
0
100
AcDbBlockEnd
  0
BLOCK
  5
1F2
330
1F1
100
AcDbEntity
  8
0
100
AcDbBlockBegin
  2
SW_NOTE_0_21
 70
     0
 10
0.0
 20
0.0
 30
0.0
  3
SW_NOTE_0_21
  1

  0
MTEXT
  5
1F4
330
1F1
100
AcDbEntity
  8
0
  6
Continuous
 62
     0
370
     0
100
AcDbMText
 10
0.0
 20
1.9336016097
 30
0.0
 40
1.5
 41
0.0
 71
     1
 72
     1
  1
Diese Zeichnung darf weder kopiert
  7
SLDTEXTSTYLE0
 73
     1
 44
1.0
  0
MTEXT
  5
1F5
330
1F1
100
AcDbEntity
  8
0
  6
Continuous
 62
     0
370
     0
100
AcDbMText
 10
0.0
 20
-0.5663983345
 30
0.0
 40
1.5
 41
0.0
 71
     1
 72
     1
  1
noch dritten Personen, insbesondere
  7
SLDTEXTSTYLE0
 73
     1
 44
1.0
  0
MTEXT
  5
1F6
330
1F1
100
AcDbEntity
  8
0
  6
Continuous
 62
     0
370
     0
100
AcDbMText
 10
0.0
 20
-3.0663982786
 30
0.0
 40
1.5
 41
0.0
 71
     1
 72
     1
  1
zum Zweck anderweitiger Benutzung
  7
SLDTEXTSTYLE0
 73
     1
 44
1.0
  0
MTEXT
  5
1F7
330
1F1
100
AcDbEntity
  8
0
  6
Continuous
 62
     0
370
     0
100
AcDbMText
 10
0.0
 20
-5.5663982227
 30
0.0
 40
1.5
 41
0.0
 71
     1
 72
     1
  1
mitgeteilt werden und bleibt unser
  7
SLDTEXTSTYLE0
 73
     1
 44
1.0
  0
MTEXT
  5
1F8
330
1F1
100
AcDbEntity
  8
0
  6
Continuous
 62
     0
370
     0
100
AcDbMText
 10
0.0
 20
-8.0663981668
 30
0.0
 40
1.5
 41
0.0
 71
     1
 72
     1
  1
Eigentum.
  7
SLDTEXTSTYLE0
 73
     1
 44
1.0
  0
ENDBLK
  5
1F3
330
1F1
100
AcDbEntity
  8
0
100
AcDbBlockEnd
  0
BLOCK
  5
21B
330
21A
100
AcDbEntity
  8
0
100
AcDbBlockBegin
  2
SW_TABLEANNOTATION_0
 70
     0
 10
0.0
 20
0.0
 30
0.0
  3
SW_TABLEANNOTATION_0
  1

  0
LINE
  5
21D
330
21A
100
AcDbEntity
  8
0
  6
Continuous
 62
     0
370
    18
100
AcDbLine
 10
0.0
 20
0.0
 30
0.0
 11
0.0
 21
-5.0
 31
0.0
  0
LINE
  5
21E
330
21A
100
AcDbEntity
  8
0
  6
Continuous
 62
     0
370
    18
100
AcDbLine
 10
7.5280556059
 20
0.0
 30
0.0
 11
7.5280556059
 21
-5.0
 31
0.0
  0
LINE
  5
21F
330
21A
100
AcDbEntity
  8
0
  6
Continuous
 62
     0
370
    18
100
AcDbLine
 10
20.2294435626
 20
0.0
 30
0.0
 11
20.2294435626
 21
-5.0
 31
0.0
  0
LINE
  5
220
330
21A
100
AcDbEntity
  8
0
  6
Continuous
 62
     0
370
    18
100
AcDbLine
 10
30.9905541143
 20
0.0
 30
0.0
 11
30.9905541143
 21
-5.0
 31
0.0
  0
LINE
  5
221
330
21A
100
AcDbEntity
  8
0
  6
Continuous
 62
     0
370
    18
100
AcDbLine
 10
63.5014174035
 20
0.0
 30
0.0
 11
63.5014174035
 21
-5.0
 31
0.0
  0
LINE
  5
222
330
21A
100
AcDbEntity
  8
0
  6
Continuous
 62
     0
370
    18
100
AcDbLine
 10
78.0725276297
 20
0.0
 30
0.0
 11
78.0725276297
 21
-5.0
 31
0.0
  0
LINE
  5
223
330
21A
100
AcDbEntity
  8
0
  6
Continuous
 62
     0
370
    18
100
AcDbLine
 10
105.5298520899
 20
0.0
 30
0.0
 11
105.5298520899
 21
-5.0
 31
0.0
  0
LINE
  5
224
330
21A
100
AcDbEntity
  8
0
  6
Continuous
 62
     0
370
    18
100
AcDbLine
 10
118.055130544
 20
0.0
 30
0.0
 11
118.055130544
 21
-5.0
 31
0.0
  0
LINE
  5
225
330
21A
100
AcDbEntity
  8
0
  6
Continuous
 62
     0
370
    18
100
AcDbLine
 10
0.0
 20
0.0
 30
0.0
 11
7.5280556059
 21
0.0
 31
0.0
  0
LINE
  5
226
330
21A
100
AcDbEntity
  8
0
  6
Continuous
 62
     0
370
    18
100
AcDbLine
 10
0.0
 20
-5.0
 30
0.0
 11
7.5280556059
 21
-5.0
 31
0.0
  0
LINE
  5
227
330
21A
100
AcDbEntity
  8
0
  6
Continuous
 62
     0
370
    18
100
AcDbLine
 10
7.5280556059
 20
0.0
 30
0.0
 11
20.2294435626
 21
0.0
 31
0.0
  0
LINE
  5
228
330
21A
100
AcDbEntity
  8
0
  6
Continuous
 62
     0
370
    18
100
AcDbLine
 10
7.5280556059
 20
-5.0
 30
0.0
 11
20.2294435626
 21
-5.0
 31
0.0
  0
LINE
  5
229
330
21A
100
AcDbEntity
  8
0
  6
Continuous
 62
     0
370
    18
100
AcDbLine
 10
20.2294435626
 20
0.0
 30
0.0
 11
30.9905541143
 21
0.0
 31
0.0
  0
LINE
  5
22A
330
21A
100
AcDbEntity
  8
0
  6
Continuous
 62
     0
370
    18
100
AcDbLine
 10
20.2294435626
 20
-5.0
 30
0.0
 11
30.9905541143
 21
-5.0
 31
0.0
  0
LINE
  5
22B
330
21A
100
AcDbEntity
  8
0
  6
Continuous
 62
     0
370
    18
100
AcDbLine
 10
30.9905541143
 20
0.0
 30
0.0
 11
63.5014174035
 21
0.0
 31
0.0
  0
LINE
  5
22C
330
21A
100
AcDbEntity
  8
0
  6
Continuous
 62
     0
370
    18
100
AcDbLine
 10
30.9905541143
 20
-5.0
 30
0.0
 11
63.5014174035
 21
-5.0
 31
0.0
  0
LINE
  5
22D
330
21A
100
AcDbEntity
  8
0
  6
Continuous
 62
     0
370
    18
100
AcDbLine
 10
63.5014174035
 20
0.0
 30
0.0
 11
78.0725276297
 21
0.0
 31
0.0
  0
LINE
  5
22E
330
21A
100
AcDbEntity
  8
0
  6
Continuous
 62
     0
370
    18
100
AcDbLine
 10
63.5014174035
 20
-5.0
 30
0.0
 11
78.0725276297
 21
-5.0
 31
0.0
  0
LINE
  5
22F
330
21A
100
AcDbEntity
  8
0
  6
Continuous
 62
     0
370
    18
100
AcDbLine
 10
78.0725276297
 20
0.0
 30
0.0
 11
105.5298520899
 21
0.0
 31
0.0
  0
LINE
  5
230
330
21A
100
AcDbEntity
  8
0
  6
Continuous
 62
     0
370
    18
100
AcDbLine
 10
78.0725276297
 20
-5.0
 30
0.0
 11
105.5298520899
 21
-5.0
 31
0.0
  0
LINE
  5
231
330
21A
100
AcDbEntity
  8
0
  6
Continuous
 62
     0
370
    18
100
AcDbLine
 10
105.5298520899
 20
0.0
 30
0.0
 11
118.055130544
 21
0.0
 31
0.0
  0
LINE
  5
232
330
21A
100
AcDbEntity
  8
0
  6
Continuous
 62
     0
370
    18
100
AcDbLine
 10
105.5298520899
 20
-5.0
 30
0.0
 11
118.055130544
 21
-5.0
 31
0.0
  0
LINE
  5
233
330
21A
100
AcDbEntity
  8
0
  6
Continuous
 62
     0
370
    18
100
AcDbLine
 10
0.0
 20
-5.0
 30
0.0
 11
0.0
 21
-10.0
 31
0.0
  0
LINE
  5
234
330
21A
100
AcDbEntity
  8
0
  6
Continuous
 62
     0
370
    18
100
AcDbLine
 10
7.5280556059
 20
-5.0
 30
0.0
 11
7.5280556059
 21
-10.0
 31
0.0
  0
LINE
  5
235
330
21A
100
AcDbEntity
  8
0
  6
Continuous
 62
     0
370
    18
100
AcDbLine
 10
0.0
 20
-10.0
 30
0.0
 11
0.0
 21
-15.0
 31
0.0
  0
LINE
  5
236
330
21A
100
AcDbEntity
  8
0
  6
Continuous
 62
     0
370
    18
100
AcDbLine
 10
7.5280556059
 20
-10.0
 30
0.0
 11
7.5280556059
 21
-15.0
 31
0.0
  0
LINE
  5
237
330
21A
100
AcDbEntity
  8
0
  6
Continuous
 62
     0
370
    18
100
AcDbLine
 10
0.0
 20
-15.0
 30
0.0
 11
0.0
 21
-20.0
 31
0.0
  0
LINE
  5
238
330
21A
100
AcDbEntity
  8
0
  6
Continuous
 62
     0
370
    18
100
AcDbLine
 10
7.5280556059
 20
-15.0
 30
0.0
 11
7.5280556059
 21
-20.0
 31
0.0
  0
LINE
  5
239
330
21A
100
AcDbEntity
  8
0
  6
Continuous
 62
     0
370
    18
100
AcDbLine
 10
0.0
 20
-20.0
 30
0.0
 11
0.0
 21
-25.0
 31
0.0
  0
LINE
  5
23A
330
21A
100
AcDbEntity
  8
0
  6
Continuous
 62
     0
370
    18
100
AcDbLine
 10
7.5280556059
 20
-20.0
 30
0.0
 11
7.5280556059
 21
-25.0
 31
0.0
  0
LINE
  5
23B
330
21A
100
AcDbEntity
  8
0
  6
Continuous
 62
     0
370
    18
100
AcDbLine
 10
20.2294435626
 20
-5.0
 30
0.0
 11
20.2294435626
 21
-10.0
 31
0.0
  0
LINE
  5
23C
330
21A
100
AcDbEntity
  8
0
  6
Continuous
 62
     0
370
    18
100
AcDbLine
 10
20.2294435626
 20
-10.0
 30
0.0
 11
20.2294435626
 21
-15.0
 31
0.0
  0
LINE
  5
23D
330
21A
100
AcDbEntity
  8
0
  6
Continuous
 62
     0
370
    18
100
AcDbLine
 10
20.2294435626
 20
-15.0
 30
0.0
 11
20.2294435626
 21
-20.0
 31
0.0
  0
LINE
  5
23E
330
21A
100
AcDbEntity
  8
0
  6
Continuous
 62
     0
370
    18
100
AcDbLine
 10
20.2294435626
 20
-20.0
 30
0.0
 11
20.2294435626
 21
-25.0
 31
0.0
  0
LINE
  5
23F
330
21A
100
AcDbEntity
  8
0
  6
Continuous
 62
     0
370
    18
100
AcDbLine
 10
30.9905541143
 20
-5.0
 30
0.0
 11
30.9905541143
 21
-10.0
 31
0.0
  0
LINE
  5
240
330
21A
100
AcDbEntity
  8
0
  6
Continuous
 62
     0
370
    18
100
AcDbLine
 10
30.9905541143
 20
-10.0
 30
0.0
 11
30.9905541143
 21
-15.0
 31
0.0
  0
LINE
  5
241
330
21A
100
AcDbEntity
  8
0
  6
Continuous
 62
     0
370
    18
100
AcDbLine
 10
30.9905541143
 20
-15.0
 30
0.0
 11
30.9905541143
 21
-20.0
 31
0.0
  0
LINE
  5
242
330
21A
100
AcDbEntity
  8
0
  6
Continuous
 62
     0
370
    18
100
AcDbLine
 10
30.9905541143
 20
-20.0
 30
0.0
 11
30.9905541143
 21
-25.0
 31
0.0
  0
LINE
  5
243
330
21A
100
AcDbEntity
  8
0
  6
Continuous
 62
     0
370
    18
100
AcDbLine
 10
63.5014174035
 20
-5.0
 30
0.0
 11
63.5014174035
 21
-10.0
 31
0.0
  0
LINE
  5
244
330
21A
100
AcDbEntity
  8
0
  6
Continuous
 62
     0
370
    18
100
AcDbLine
 10
63.5014174035
 20
-10.0
 30
0.0
 11
63.5014174035
 21
-15.0
 31
0.0
  0
LINE
  5
245
330
21A
100
AcDbEntity
  8
0
  6
Continuous
 62
     0
370
    18
100
AcDbLine
 10
63.5014174035
 20
-15.0
 30
0.0
 11
63.5014174035
 21
-20.0
 31
0.0
  0
LINE
  5
246
330
21A
100
AcDbEntity
  8
0
  6
Continuous
 62
     0
370
    18
100
AcDbLine
 10
63.5014174035
 20
-20.0
 30
0.0
 11
63.5014174035
 21
-25.0
 31
0.0
  0
LINE
  5
247
330
21A
100
AcDbEntity
  8
0
  6
Continuous
 62
     0
370
    18
100
AcDbLine
 10
78.0725276297
 20
-5.0
 30
0.0
 11
78.0725276297
 21
-10.0
 31
0.0
  0
LINE
  5
248
330
21A
100
AcDbEntity
  8
0
  6
Continuous
 62
     0
370
    18
100
AcDbLine
 10
78.0725276297
 20
-10.0
 30
0.0
 11
78.0725276297
 21
-15.0
 31
0.0
  0
LINE
  5
249
330
21A
100
AcDbEntity
  8
0
  6
Continuous
 62
     0
370
    18
100
AcDbLine
 10
78.0725276297
 20
-15.0
 30
0.0
 11
78.0725276297
 21
-20.0
 31
0.0
  0
LINE
  5
24A
330
21A
100
AcDbEntity
  8
0
  6
Continuous
 62
     0
370
    18
100
AcDbLine
 10
78.0725276297
 20
-20.0
 30
0.0
 11
78.0725276297
 21
-25.0
 31
0.0
  0
LINE
  5
24B
330
21A
100
AcDbEntity
  8
0
  6
Continuous
 62
     0
370
    18
100
AcDbLine
 10
105.5298520899
 20
-5.0
 30
0.0
 11
105.5298520899
 21
-10.0
 31
0.0
  0
LINE
  5
24C
330
21A
100
AcDbEntity
  8
0
  6
Continuous
 62
     0
370
    18
100
AcDbLine
 10
105.5298520899
 20
-10.0
 30
0.0
 11
105.5298520899
 21
-15.0
 31
0.0
  0
LINE
  5
24D
330
21A
100
AcDbEntity
  8
0
  6
Continuous
 62
     0
370
    18
100
AcDbLine
 10
105.5298520899
 20
-15.0
 30
0.0
 11
105.5298520899
 21
-20.0
 31
0.0
  0
LINE
  5
24E
330
21A
100
AcDbEntity
  8
0
  6
Continuous
 62
     0
370
    18
100
AcDbLine
 10
105.5298520899
 20
-20.0
 30
0.0
 11
105.5298520899
 21
-25.0
 31
0.0
  0
LINE
  5
24F
330
21A
100
AcDbEntity
  8
0
  6
Continuous
 62
     0
370
    18
100
AcDbLine
 10
118.055130544
 20
-5.0
 30
0.0
 11
118.055130544
 21
-10.0
 31
0.0
  0
LINE
  5
250
330
21A
100
AcDbEntity
  8
0
  6
Continuous
 62
     0
370
    18
100
AcDbLine
 10
118.055130544
 20
-10.0
 30
0.0
 11
118.055130544
 21
-15.0
 31
0.0
  0
LINE
  5
251
330
21A
100
AcDbEntity
  8
0
  6
Continuous
 62
     0
370
    18
100
AcDbLine
 10
118.055130544
 20
-15.0
 30
0.0
 11
118.055130544
 21
-20.0
 31
0.0
  0
LINE
  5
252
330
21A
100
AcDbEntity
  8
0
  6
Continuous
 62
     0
370
    18
100
AcDbLine
 10
118.055130544
 20
-20.0
 30
0.0
 11
118.055130544
 21
-25.0
 31
0.0
  0
LINE
  5
253
330
21A
100
AcDbEntity
  8
0
  6
Continuous
 62
     0
370
    18
100
AcDbLine
 10
0.0
 20
-10.0
 30
0.0
 11
7.5280556059
 21
-10.0
 31
0.0
  0
LINE
  5
254
330
21A
100
AcDbEntity
  8
0
  6
Continuous
 62
     0
370
    18
100
AcDbLine
 10
7.5280556059
 20
-10.0
 30
0.0
 11
20.2294435626
 21
-10.0
 31
0.0
  0
LINE
  5
255
330
21A
100
AcDbEntity
  8
0
  6
Continuous
 62
     0
370
    18
100
AcDbLine
 10
20.2294435626
 20
-10.0
 30
0.0
 11
30.9905541143
 21
-10.0
 31
0.0
  0
LINE
  5
256
330
21A
100
AcDbEntity
  8
0
  6
Continuous
 62
     0
370
    18
100
AcDbLine
 10
30.9905541143
 20
-10.0
 30
0.0
 11
63.5014174035
 21
-10.0
 31
0.0
  0
LINE
  5
257
330
21A
100
AcDbEntity
  8
0
  6
Continuous
 62
     0
370
    18
100
AcDbLine
 10
63.5014174035
 20
-10.0
 30
0.0
 11
78.0725276297
 21
-10.0
 31
0.0
  0
LINE
  5
258
330
21A
100
AcDbEntity
  8
0
  6
Continuous
 62
     0
370
    18
100
AcDbLine
 10
78.0725276297
 20
-10.0
 30
0.0
 11
105.5298520899
 21
-10.0
 31
0.0
  0
LINE
  5
259
330
21A
100
AcDbEntity
  8
0
  6
Continuous
 62
     0
370
    18
100
AcDbLine
 10
105.5298520899
 20
-10.0
 30
0.0
 11
118.055130544
 21
-10.0
 31
0.0
  0
LINE
  5
25A
330
21A
100
AcDbEntity
  8
0
  6
Continuous
 62
     0
370
    18
100
AcDbLine
 10
0.0
 20
-15.0
 30
0.0
 11
7.5280556059
 21
-15.0
 31
0.0
  0
LINE
  5
25B
330
21A
100
AcDbEntity
  8
0
  6
Continuous
 62
     0
370
    18
100
AcDbLine
 10
7.5280556059
 20
-15.0
 30
0.0
 11
20.2294435626
 21
-15.0
 31
0.0
  0
LINE
  5
25C
330
21A
100
AcDbEntity
  8
0
  6
Continuous
 62
     0
370
    18
100
AcDbLine
 10
20.2294435626
 20
-15.0
 30
0.0
 11
30.9905541143
 21
-15.0
 31
0.0
  0
LINE
  5
25D
330
21A
100
AcDbEntity
  8
0
  6
Continuous
 62
     0
370
    18
100
AcDbLine
 10
30.9905541143
 20
-15.0
 30
0.0
 11
63.5014174035
 21
-15.0
 31
0.0
  0
LINE
  5
25E
330
21A
100
AcDbEntity
  8
0
  6
Continuous
 62
     0
370
    18
100
AcDbLine
 10
63.5014174035
 20
-15.0
 30
0.0
 11
78.0725276297
 21
-15.0
 31
0.0
  0
LINE
  5
25F
330
21A
100
AcDbEntity
  8
0
  6
Continuous
 62
     0
370
    18
100
AcDbLine
 10
78.0725276297
 20
-15.0
 30
0.0
 11
105.5298520899
 21
-15.0
 31
0.0
  0
LINE
  5
260
330
21A
100
AcDbEntity
  8
0
  6
Continuous
 62
     0
370
    18
100
AcDbLine
 10
105.5298520899
 20
-15.0
 30
0.0
 11
118.055130544
 21
-15.0
 31
0.0
  0
LINE
  5
261
330
21A
100
AcDbEntity
  8
0
  6
Continuous
 62
     0
370
    18
100
AcDbLine
 10
0.0
 20
-20.0
 30
0.0
 11
7.5280556059
 21
-20.0
 31
0.0
  0
LINE
  5
262
330
21A
100
AcDbEntity
  8
0
  6
Continuous
 62
     0
370
    18
100
AcDbLine
 10
7.5280556059
 20
-20.0
 30
0.0
 11
20.2294435626
 21
-20.0
 31
0.0
  0
LINE
  5
263
330
21A
100
AcDbEntity
  8
0
  6
Continuous
 62
     0
370
    18
100
AcDbLine
 10
20.2294435626
 20
-20.0
 30
0.0
 11
30.9905541143
 21
-20.0
 31
0.0
  0
LINE
  5
264
330
21A
100
AcDbEntity
  8
0
  6
Continuous
 62
     0
370
    18
100
AcDbLine
 10
30.9905541143
 20
-20.0
 30
0.0
 11
63.5014174035
 21
-20.0
 31
0.0
  0
LINE
  5
265
330
21A
100
AcDbEntity
  8
0
  6
Continuous
 62
     0
370
    18
100
AcDbLine
 10
63.5014174035
 20
-20.0
 30
0.0
 11
78.0725276297
 21
-20.0
 31
0.0
  0
LINE
  5
266
330
21A
100
AcDbEntity
  8
0
  6
Continuous
 62
     0
370
    18
100
AcDbLine
 10
78.0725276297
 20
-20.0
 30
0.0
 11
105.5298520899
 21
-20.0
 31
0.0
  0
LINE
  5
267
330
21A
100
AcDbEntity
  8
0
  6
Continuous
 62
     0
370
    18
100
AcDbLine
 10
105.5298520899
 20
-20.0
 30
0.0
 11
118.055130544
 21
-20.0
 31
0.0
  0
LINE
  5
268
330
21A
100
AcDbEntity
  8
0
  6
Continuous
 62
     0
370
    18
100
AcDbLine
 10
0.0
 20
-25.0
 30
0.0
 11
7.5280556059
 21
-25.0
 31
0.0
  0
LINE
  5
269
330
21A
100
AcDbEntity
  8
0
  6
Continuous
 62
     0
370
    18
100
AcDbLine
 10
7.5280556059
 20
-25.0
 30
0.0
 11
20.2294435626
 21
-25.0
 31
0.0
  0
LINE
  5
26A
330
21A
100
AcDbEntity
  8
0
  6
Continuous
 62
     0
370
    18
100
AcDbLine
 10
20.2294435626
 20
-25.0
 30
0.0
 11
30.9905541143
 21
-25.0
 31
0.0
  0
LINE
  5
26B
330
21A
100
AcDbEntity
  8
0
  6
Continuous
 62
     0
370
    18
100
AcDbLine
 10
30.9905541143
 20
-25.0
 30
0.0
 11
63.5014174035
 21
-25.0
 31
0.0
  0
LINE
  5
26C
330
21A
100
AcDbEntity
  8
0
  6
Continuous
 62
     0
370
    18
100
AcDbLine
 10
63.5014174035
 20
-25.0
 30
0.0
 11
78.0725276297
 21
-25.0
 31
0.0
  0
LINE
  5
26D
330
21A
100
AcDbEntity
  8
0
  6
Continuous
 62
     0
370
    18
100
AcDbLine
 10
78.0725276297
 20
-25.0
 30
0.0
 11
105.5298520899
 21
-25.0
 31
0.0
  0
LINE
  5
26E
330
21A
100
AcDbEntity
  8
0
  6
Continuous
 62
     0
370
    18
100
AcDbLine
 10
105.5298520899
 20
-25.0
 30
0.0
 11
118.055130544
 21
-25.0
 31
0.0
  0
MTEXT
  5
26F
330
21A
100
AcDbEntity
  8
0
  6
Continuous
 62
     0
370
     0
100
AcDbMText
 10
1.03
 20
-1.0179073673
 30
0.0
 40
2.38125
 41
0.0
 71
     1
 72
     1
  1
Pos
  7
SLDTEXTSTYLE0
 73
     1
 44
1.0
  0
MTEXT
  5
270
330
21A
100
AcDbEntity
  8
0
  6
Continuous
 62
     0
370
     0
100
AcDbMText
 10
9.0280556059
 20
-1.0179073673
 30
0.0
 40
2.38125
 41
0.0
 71
     1
 72
     1
  1
Menge
  7
SLDTEXTSTYLE0
 73
     1
 44
1.0
  0
MTEXT
  5
271
330
21A
100
AcDbEntity
  8
0
  6
Continuous
 62
     0
370
     0
100
AcDbMText
 10
21.7294435626
 20
-1.0179073673
 30
0.0
 40
2.38125
 41
0.0
 71
     1
 72
     1
  1
Index
  7
SLDTEXTSTYLE0
 73
     1
 44
1.0
  0
MTEXT
  5
272
330
21A
100
AcDbEntity
  8
0
  6
Continuous
 62
     0
370
     0
100
AcDbMText
 10
31.9905541143
 20
-1.0179073673
 30
0.0
 40
2.38125
 41
0.0
 71
     1
 72
     1
  1
Beschreibung
  7
SLDTEXTSTYLE0
 73
     1
 44
1.0
  0
MTEXT
  5
273
330
21A
100
AcDbEntity
  8
0
  6
Continuous
 62
     0
370
     0
100
AcDbMText
 10
65.9362780726
 20
-1.0179073673
 30
0.0
 40
2.38125
 41
0.0
 71
     1
 72
     1
  1
Zn. Nr.
  7
SLDTEXTSTYLE0
 73
     1
 44
1.0
  0
MTEXT
  5
274
330
21A
100
AcDbEntity
  8
0
  6
Continuous
 62
     0
370
     0
100
AcDbMText
 10
79.0725276297
 20
-1.0179073673
 30
0.0
 40
2.38125
 41
0.0
 71
     1
 72
     1
  1
Material
  7
SLDTEXTSTYLE0
 73
     1
 44
1.0
  0
MTEXT
  5
275
330
21A
100
AcDbEntity
  8
0
  6
Continuous
 62
     0
370
     0
100
AcDbMText
 10
106.0598520899
 20
-1.0179073673
 30
0.0
 40
2.38125
 41
0.0
 71
     1
 72
     1
  1
Gewicht
  7
SLDTEXTSTYLE0
 73
     1
 44
1.0
  0
MTEXT
  5
276
330
21A
100
AcDbEntity
  8
0
  6
Continuous
 62
     0
370
     0
100
AcDbMText
 10
3.0408333556
 20
-6.0179074837
 30
0.0
 40
2.38125
 41
0.0
 71
     1
 72
     1
  1
1
  7
SLDTEXTSTYLE0
 73
     1
 44
1.0
  0
MTEXT
  5
277
330
21A
100
AcDbEntity
  8
0
  6
Continuous
 62
     0
370
     0
100
AcDbMText
 10
13.1555551369
 20
-6.0179074837
 30
0.0
 40
2.38125
 41
0.0
 71
     1
 72
     1
  1
1
  7
SLDTEXTSTYLE0
 73
     1
 44
1.0
  0
MTEXT
  5
278
330
21A
100
AcDbEntity
  8
0
  6
Continuous
 62
     0
370
     0
100
AcDbMText
 10
31.9905541143
 20
-6.0179074837
 30
0.0
 40
2.38125
 41
0.0
 71
     1
 72
     1
  1
Doppelschlitzrinne
  7
SLDTEXTSTYLE0
 73
     1
 44
1.0
  0
MTEXT
  5
279
330
21A
100
AcDbEntity
  8
0
  6
Continuous
 62
     0
370
     0
100
AcDbMText
 10
65.0014174035
 20
-6.0179074837
 30
0.0
 40
2.38125
 41
0.0
 71
     1
 72
     1
  1
437222_1
  7
SLDTEXTSTYLE0
 73
     1
 44
1.0
  0
MTEXT
  5
27A
330
21A
100
AcDbEntity
  8
0
  6
Continuous
 62
     0
370
     0
100
AcDbMText
 10
79.0725276297
 20
-6.0179074837
 30
0.0
 40
2.38125
 41
0.0
 71
     1
 72
     1
  1
1.4301 (X5CrNi18-10)
  7
SLDTEXTSTYLE0
 73
     1
 44
1.0
  0
MTEXT
  5
27B
330
21A
100
AcDbEntity
  8
0
  6
Continuous
 62
     0
370
     0
100
AcDbMText
 10
109.261310693
 20
-6.0179074837
 30
0.0
 40
2.38125
 41
0.0
 71
     1
 72
     1
  1
3.00
  7
SLDTEXTSTYLE0
 73
     1
 44
1.0
  0
MTEXT
  5
27C
330
21A
100
AcDbEntity
  8
0
  6
Continuous
 62
     0
370
     0
100
AcDbMText
 10
3.0408333556
 20
-11.0179074837
 30
0.0
 40
2.38125
 41
0.0
 71
     1
 72
     1
  1
2
  7
SLDTEXTSTYLE0
 73
     1
 44
1.0
  0
MTEXT
  5
27D
330
21A
100
AcDbEntity
  8
0
  6
Continuous
 62
     0
370
     0
100
AcDbMText
 10
13.1555551369
 20
-11.0179074837
 30
0.0
 40
2.38125
 41
0.0
 71
     1
 72
     1
  1
1
  7
SLDTEXTSTYLE0
 73
     1
 44
1.0
  0
MTEXT
  5
27E
330
21A
100
AcDbEntity
  8
0
  6
Continuous
 62
     0
370
     0
100
AcDbMText
 10
31.9905541143
 20
-11.0179074837
 30
0.0
 40
2.38125
 41
0.0
 71
     1
 72
     1
  1
Doppelschlitzrinne Einsatz
  7
SLDTEXTSTYLE0
 73
     1
 44
1.0
  0
MTEXT
  5
27F
330
21A
100
AcDbEntity
  8
0
  6
Continuous
 62
     0
370
     0
100
AcDbMText
 10
66.4478060654
 20
-11.0179074837
 30
0.0
 40
2.38125
 41
0.0
 71
     1
 72
     1
  1
136271
  7
SLDTEXTSTYLE0
 73
     1
 44
1.0
  0
MTEXT
  5
280
330
21A
100
AcDbEntity
  8
0
  6
Continuous
 62
     0
370
     0
100
AcDbMText
 10
79.0725276297
 20
-11.0179074837
 30
0.0
 40
2.38125
 41
0.0
 71
     1
 72
     1
  1
1.4301 (X5CrNi18-10)
  7
SLDTEXTSTYLE0
 73
     1
 44
1.0
  0
MTEXT
  5
281
330
21A
100
AcDbEntity
  8
0
  6
Continuous
 62
     0
370
     0
100
AcDbMText
 10
109.261310693
 20
-11.0179074837
 30
0.0
 40
2.38125
 41
0.0
 71
     1
 72
     1
  1
1.01
  7
SLDTEXTSTYLE0
 73
     1
 44
1.0
  0
MTEXT
  5
282
330
21A
100
AcDbEntity
  8
0
  6
Continuous
 62
     0
370
     0
100
AcDbMText
 10
3.0408333556
 20
-16.3214419053
 30
0.0
 40
2.38125
 41
0.0
 71
     1
 72
     1
  1
3
  7
SLDTEXTSTYLE0
 73
     1
 44
1.0
  0
MTEXT
  5
283
330
21A
100
AcDbEntity
  8
0
  6
Continuous
 62
     0
370
     0
100
AcDbMText
 10
13.1555551369
 20
-16.3214419053
 30
0.0
 40
2.38125
 41
0.0
 71
     1
 72
     1
  1
3
  7
SLDTEXTSTYLE0
 73
     1
 44
1.0
  0
MTEXT
  5
284
330
21A
100
AcDbEntity
  8
0
  6
Continuous
 62
     0
370
     0
100
AcDbMText
 10
31.9905541143
 20
-16.3214419053
 30
0.0
 40
2.38125
 41
0.0
 71
     1
 72
     1
  1
BolzenØ8x50
  7
SLDTEXTSTYLE0
 73
     1
 44
1.0
  0
MTEXT
  5
285
330
21A
100
AcDbEntity
  8
0
  6
Continuous
 62
     0
370
     0
100
AcDbMText
 10
66.4478060654
 20
-16.3214419053
 30
0.0
 40
2.38125
 41
0.0
 71
     1
 72
     1
  1
136272
  7
SLDTEXTSTYLE0
 73
     1
 44
1.0
  0
MTEXT
  5
286
330
21A
100
AcDbEntity
  8
0
  6
Continuous
 62
     0
370
     0
100
AcDbMText
 10
79.0725276297
 20
-16.3214419053
 30
0.0
 40
2.38125
 41
0.0
 71
     1
 72
     1
  1
1.4301 (X5CrNi18-10)
  7
SLDTEXTSTYLE0
 73
     1
 44
1.0
  0
MTEXT
  5
287
330
21A
100
AcDbEntity
  8
0
  6
Continuous
 62
     0
370
     0
100
AcDbMText
 10
109.261310693
 20
-16.3214419053
 30
0.0
 40
2.38125
 41
0.0
 71
     1
 72
     1
  1
0.02
  7
SLDTEXTSTYLE0
 73
     1
 44
1.0
  0
MTEXT
  5
288
330
21A
100
AcDbEntity
  8
0
  6
Continuous
 62
     0
370
     0
100
AcDbMText
 10
3.0408333556
 20
-21.3214419053
 30
0.0
 40
2.38125
 41
0.0
 71
     1
 72
     1
  1
4
  7
SLDTEXTSTYLE0
 73
     1
 44
1.0
  0
MTEXT
  5
289
330
21A
100
AcDbEntity
  8
0
  6
Continuous
 62
     0
370
     0
100
AcDbMText
 10
13.1555551369
 20
-21.3214419053
 30
0.0
 40
2.38125
 41
0.0
 71
     1
 72
     1
  1
2
  7
SLDTEXTSTYLE0
 73
     1
 44
1.0
  0
MTEXT
  5
28A
330
21A
100
AcDbEntity
  8
0
  6
Continuous
 62
     0
370
     0
100
AcDbMText
 10
31.9905541143
 20
-21.3214419053
 30
0.0
 40
2.38125
 41
0.0
 71
     1
 72
     1
  1
BolzenØ6x45
  7
SLDTEXTSTYLE0
 73
     1
 44
1.0
  0
MTEXT
  5
28B
330
21A
100
AcDbEntity
  8
0
  6
Continuous
 62
     0
370
     0
100
AcDbMText
 10
66.4478060654
 20
-21.3214419053
 30
0.0
 40
2.38125
 41
0.0
 71
     1
 72
     1
  1
136273
  7
SLDTEXTSTYLE0
 73
     1
 44
1.0
  0
MTEXT
  5
28C
330
21A
100
AcDbEntity
  8
0
  6
Continuous
 62
     0
370
     0
100
AcDbMText
 10
79.0725276297
 20
-21.3214419053
 30
0.0
 40
2.38125
 41
0.0
 71
     1
 72
     1
  1
1.4301 (X5CrNi18-10)
  7
SLDTEXTSTYLE0
 73
     1
 44
1.0
  0
MTEXT
  5
28D
330
21A
100
AcDbEntity
  8
0
  6
Continuous
 62
     0
370
     0
100
AcDbMText
 10
109.261310693
 20
-21.3214419053
 30
0.0
 40
2.38125
 41
0.0
 71
     1
 72
     1
  1
0.01
  7
SLDTEXTSTYLE0
 73
     1
 44
1.0
  0
ENDBLK
  5
21C
330
21A
100
AcDbEntity
  8
0
100
AcDbBlockEnd
  0
BLOCK
  5
2A7
330
2A6
100
AcDbEntity
  8
0
100
AcDbBlockBegin
  2
_D
 70
     0
 10
0.0
 20
0.0
 30
0.0
  3
_D
  1

  0
SOLID
  5
2A9
330
2A6
100
AcDbEntity
  8
0
  6
Continuous
 62
     7
370
    18
100
AcDbTrace
 10
56.1317124127
 20
252.8190178543
 30
0.0
 11
59.6317124127
 21
252.2805563158
 31
0.0
 12
59.6317124127
 22
253.3574793927
 32
0.0
 13
59.6317124127
 23
253.3574793927
 33
0.0
  0
SOLID
  5
2AA
330
2A6
100
AcDbEntity
  8
0
  6
Continuous
 62
     7
370
    18
100
AcDbTrace
 10
256.1317124127
 20
252.8190178543
 30
0.0
 11
252.6317124127
 21
253.3574793927
 31
0.0
 12
252.6317124127
 22
252.2805563158
 32
0.0
 13
252.6317124127
 23
252.2805563158
 33
0.0
  0
LINE
  5
2AB
330
2A6
100
AcDbEntity
  8
0
  6
Continuous
 62
     7
370
     0
100
AcDbLine
 10
56.1317124127
 20
244.5234911894
 30
0.0
 11
56.1317124127
 21
253.8190178543
 31
0.0
  0
LINE
  5
2AC
330
2A6
100
AcDbEntity
  8
0
  6
Continuous
 62
     7
370
     0
100
AcDbLine
 10
256.1317124127
 20
244.5234911894
 30
0.0
 11
256.1317124127
 21
253.8190178543
 31
0.0
  0
LINE
  5
2AD
330
2A6
100
AcDbEntity
  8
0
  6
Continuous
 62
     7
370
     0
100
AcDbLine
 10
56.1317124127
 20
252.8190178543
 30
0.0
 11
256.1317124127
 21
252.8190178543
 31
0.0
  0
MTEXT
  5
2AE
330
2A6
100
AcDbEntity
  8
0
  6
Continuous
 62
     7
370
    18
100
AcDbMText
 10
150.7844903229
 20
257.3307551763
 30
0.0
 40
3.5
 41
0.0
 71
     1
 72
     1
  1
1000
  7
SLDTEXTSTYLE0
 73
     1
 44
1.0
  0
ENDBLK
  5
2A8
330
2A6
100
AcDbEntity
  8
0
100
AcDbBlockEnd
  0
BLOCK
  5
397
330
396
100
AcDbEntity
  8
0
100
AcDbBlockBegin
  2
_D_1
 70
     0
 10
0.0
 20
0.0
 30
0.0
  3
_D_1
  1

  0
SOLID
  5
399
330
396
100
AcDbEntity
  8
0
  6
Continuous
 62
     7
370
    18
100
AcDbTrace
 10
316.7910194297
 20
193.4782666467
 30
0.0
 11
320.2910194297
 21
192.9398051082
 31
0.0
 12
320.2910194297
 22
194.0167281851
 32
0.0
 13
320.2910194297
 23
194.0167281851
 33
0.0
  0
SOLID
  5
39A
330
396
100
AcDbEntity
  8
0
  6
Continuous
 62
     7
370
    18
100
AcDbTrace
 10
347.7910194297
 20
193.4782666467
 30
0.0
 11
344.2910194297
 21
194.0167281851
 31
0.0
 12
344.2910194297
 22
192.9398051082
 32
0.0
 13
344.2910194297
 23
192.9398051082
 33
0.0
  0
LINE
  5
39B
330
396
100
AcDbEntity
  8
0
  6
Continuous
 62
     7
370
     0
100
AcDbLine
 10
316.7910194297
 20
179.5731666467
 30
0.0
 11
316.7910194297
 21
194.4782666467
 31
0.0
  0
LINE
  5
39C
330
396
100
AcDbEntity
  8
0
  6
Continuous
 62
     7
370
     0
100
AcDbLine
 10
347.7910194297
 20
179.5731666467
 30
0.0
 11
347.7910194297
 21
194.4782666467
 31
0.0
  0
LINE
  5
39D
330
396
100
AcDbEntity
  8
0
  6
Continuous
 62
     7
370
     0
100
AcDbLine
 10
316.7910194297
 20
193.4782666467
 30
0.0
 11
347.7910194297
 21
193.4782666467
 31
0.0
  0
MTEXT
  5
39E
330
396
100
AcDbEntity
  8
0
  6
Continuous
 62
     7
370
    18
100
AcDbMText
 10
329.6174083848
 20
197.9900039687
 30
0.0
 40
3.5
 41
0.0
 71
     1
 72
     1
  1
31
  7
SLDTEXTSTYLE0
 73
     1
 44
1.0
  0
ENDBLK
  5
398
330
396
100
AcDbEntity
  8
0
100
AcDbBlockEnd
  0
BLOCK
  5
3A1
330
3A0
100
AcDbEntity
  8
0
100
AcDbBlockBegin
  2
_D_2
 70
     0
 10
0.0
 20
0.0
 30
0.0
  3
_D_2
  1

  0
SOLID
  5
3A3
330
3A0
100
AcDbEntity
  8
0
  6
Continuous
 62
     7
370
    18
100
AcDbTrace
 10
291.2910194297
 20
203.4782666467
 30
0.0
 11
294.7910194297
 21
202.9398051082
 31
0.0
 12
294.7910194297
 22
204.0167281851
 32
0.0
 13
294.7910194297
 23
204.0167281851
 33
0.0
  0
SOLID
  5
3A4
330
3A0
100
AcDbEntity
  8
0
  6
Continuous
 62
     7
370
    18
100
AcDbTrace
 10
373.2910194297
 20
203.4782666467
 30
0.0
 11
369.7910194297
 21
204.0167281851
 31
0.0
 12
369.7910194297
 22
202.9398051082
 32
0.0
 13
369.7910194297
 23
202.9398051082
 33
0.0
  0
LINE
  5
3A5
330
3A0
100
AcDbEntity
  8
0
  6
Continuous
 62
     7
370
     0
100
AcDbLine
 10
291.2910194297
 20
179.5731666467
 30
0.0
 11
291.2910194297
 21
204.4782666467
 31
0.0
  0
LINE
  5
3A6
330
3A0
100
AcDbEntity
  8
0
  6
Continuous
 62
     7
370
     0
100
AcDbLine
 10
373.2910194297
 20
179.5731666467
 30
0.0
 11
373.2910194297
 21
204.4782666467
 31
0.0
  0
LINE
  5
3A7
330
3A0
100
AcDbEntity
  8
0
  6
Continuous
 62
     7
370
     0
100
AcDbLine
 10
291.2910194297
 20
203.4782666467
 30
0.0
 11
373.2910194297
 21
203.4782666467
 31
0.0
  0
MTEXT
  5
3A8
330
3A0
100
AcDbEntity
  8
0
  6
Continuous
 62
     7
370
    18
100
AcDbMText
 10
329.6174083848
 20
207.9900039687
 30
0.0
 40
3.5
 41
0.0
 71
     1
 72
     1
  1
82
  7
SLDTEXTSTYLE0
 73
     1
 44
1.0
  0
ENDBLK
  5
3A2
330
3A0
100
AcDbEntity
  8
0
100
AcDbBlockEnd
  0
BLOCK
  5
3AC
330
3AB
100
AcDbEntity
  8
0
100
AcDbBlockBegin
  2
_D_3
 70
     0
 10
0.0
 20
0.0
 30
0.0
  3
_D_3
  1

  0
SOLID
  5
3AE
330
3AB
100
AcDbEntity
  8
0
  6
Continuous
 62
     7
370
    18
100
AcDbTrace
 10
309.2910194297
 20
193.4782666467
 30
0.0
 11
305.7910194297
 21
194.0167281851
 31
0.0
 12
305.7910194297
 22
192.9398051082
 32
0.0
 13
305.7910194297
 23
192.9398051082
 33
0.0
  0
SOLID
  5
3AF
330
3AB
100
AcDbEntity
  8
0
  6
Continuous
 62
     7
370
    18
100
AcDbTrace
 10
316.7910194297
 20
193.4782666467
 30
0.0
 11
320.2910194297
 21
192.9398051082
 31
0.0
 12
320.2910194297
 22
194.0167281851
 32
0.0
 13
320.2910194297
 23
194.0167281851
 33
0.0
  0
LINE
  5
3B0
330
3AB
100
AcDbEntity
  8
0
  6
Continuous
 62
     7
370
     0
100
AcDbLine
 10
309.2910194297
 20
179.5731666467
 30
0.0
 11
309.2910194297
 21
194.4782666467
 31
0.0
  0
LINE
  5
3B1
330
3AB
100
AcDbEntity
  8
0
  6
Continuous
 62
     7
370
     0
100
AcDbLine
 10
316.7910194297
 20
179.5731666467
 30
0.0
 11
316.7910194297
 21
194.4782666467
 31
0.0
  0
LINE
  5
3B2
330
3AB
100
AcDbEntity
  8
0
  6
Continuous
 62
     7
370
     0
100
AcDbLine
 10
309.2910194297
 20
193.4782666467
 30
0.0
 11
302.5602501989
 21
193.4782666467
 31
0.0
  0
LINE
  5
3B3
330
3AB
100
AcDbEntity
  8
0
  6
Continuous
 62
     7
370
     0
100
AcDbLine
 10
309.2910194297
 20
193.4782666467
 30
0.0
 11
316.7910194297
 21
193.4782666467
 31
0.0
  0
LINE
  5
3B4
330
3AB
100
AcDbEntity
  8
0
  6
Continuous
 62
     7
370
     0
100
AcDbLine
 10
316.7910194297
 20
193.4782666467
 30
0.0
 11
323.5217886604
 21
193.4782666467
 31
0.0
  0
MTEXT
  5
3B5
330
3AB
100
AcDbEntity
  8
0
  6
Continuous
 62
     7
370
    18
100
AcDbMText
 10
309.6990056236
 20
197.9900039687
 30
0.0
 40
3.5
 41
0.0
 71
     1
 72
     1
  1
7.5
  7
SLDTEXTSTYLE0
 73
     1
 44
1.0
  0
ENDBLK
  5
3AD
330
3AB
100
AcDbEntity
  8
0
100
AcDbBlockEnd
  0
BLOCK
  5
3B8
330
3B7
100
AcDbEntity
  8
0
100
AcDbBlockBegin
  2
_D_4
 70
     0
 10
0.0
 20
0.0
 30
0.0
  3
_D_4
  1

  0
SOLID
  5
3BA
330
3B7
100
AcDbEntity
  8
0
  6
Continuous
 62
     7
370
    18
100
AcDbTrace
 10
281.2859194297
 20
183.4731666467
 30
0.0
 11
280.7474578912
 21
179.9731666467
 31
0.0
 12
281.8243809681
 22
179.9731666467
 32
0.0
 13
281.8243809681
 23
179.9731666467
 33
0.0
  0
SOLID
  5
3BB
330
3B7
100
AcDbEntity
  8
0
  6
Continuous
 62
     7
370
    18
100
AcDbTrace
 10
281.2859194297
 20
143.4735665267
 30
0.0
 11
281.8243809681
 21
146.9735665267
 31
0.0
 12
280.7474578912
 22
146.9735665267
 32
0.0
 13
280.7474578912
 23
146.9735665267
 33
0.0
  0
LINE
  5
3BC
330
3B7
100
AcDbEntity
  8
0
  6
Continuous
 62
     7
370
     0
100
AcDbLine
 10
295.1910194297
 20
183.4731666467
 30
0.0
 11
280.2859194297
 21
183.4731666467
 31
0.0
  0
LINE
  5
3BD
330
3B7
100
AcDbEntity
  8
0
  6
Continuous
 62
     7
370
     0
100
AcDbLine
 10
311.1910194297
 20
143.4735665267
 30
0.0
 11
280.2859194297
 21
143.4735665267
 31
0.0
  0
LINE
  5
3BE
330
3B7
100
AcDbEntity
  8
0
  6
Continuous
 62
     7
370
     0
100
AcDbLine
 10
281.2859194297
 20
183.4731666467
 30
0.0
 11
281.2859194297
 21
143.4735665267
 31
0.0
  0
MTEXT
  5
3BF
330
3B7
100
AcDbEntity
  8
0
  6
Continuous
 62
     7
370
    18
100
AcDbMText
 10
276.7741821076
 20
155.5886443837
 30
0.0
 40
3.5
 41
0.0
 71
     1
 72
     1
  1
min.
  7
SLDTEXTSTYLE0
 11
-7.932373437343760E-15
 21
1.0
 31
0.0
 73
     1
 44
1.0
  0
MTEXT
  5
3C0
330
3B7
100
AcDbEntity
  8
0
  6
Continuous
 62
     7
370
    18
100
AcDbMText
 10
276.7741821076
 20
166.0108666999
 30
0.0
 40
3.5
 41
0.0
 71
     1
 72
     1
  1
40
  7
SLDTEXTSTYLE0
 11
-7.932373437343760E-15
 21
1.0
 31
0.0
 73
     1
 44
1.0
  0
ENDBLK
  5
3B9
330
3B7
100
AcDbEntity
  8
0
100
AcDbBlockEnd
  0
BLOCK
  5
3C3
330
3C2
100
AcDbEntity
  8
0
100
AcDbBlockBegin
  2
_D_5
 70
     0
 10
0.0
 20
0.0
 30
0.0
  3
_D_5
  1

  0
SOLID
  5
3C5
330
3C2
100
AcDbEntity
  8
0
  6
Continuous
 62
     7
370
    18
100
AcDbTrace
 10
271.2859194297
 20
183.4731666467
 30
0.0
 11
270.7474578912
 21
179.9731666467
 31
0.0
 12
271.8243809681
 22
179.9731666467
 32
0.0
 13
271.8243809681
 23
179.9731666467
 33
0.0
  0
SOLID
  5
3C6
330
3C2
100
AcDbEntity
  8
0
  6
Continuous
 62
     7
370
    18
100
AcDbTrace
 10
271.2859194297
 20
123.4735665267
 30
0.0
 11
271.8243809681
 21
126.9735665267
 31
0.0
 12
270.7474578912
 22
126.9735665267
 32
0.0
 13
270.7474578912
 23
126.9735665267
 33
0.0
  0
LINE
  5
3C7
330
3C2
100
AcDbEntity
  8
0
  6
Continuous
 62
     7
370
     0
100
AcDbLine
 10
295.1910194297
 20
183.4731666467
 30
0.0
 11
270.2859194297
 21
183.4731666467
 31
0.0
  0
LINE
  5
3C8
330
3C2
100
AcDbEntity
  8
0
  6
Continuous
 62
     7
370
     0
100
AcDbLine
 10
311.1910194297
 20
123.4735665267
 30
0.0
 11
270.2859194297
 21
123.4735665267
 31
0.0
  0
LINE
  5
3C9
330
3C2
100
AcDbEntity
  8
0
  6
Continuous
 62
     7
370
     0
100
AcDbLine
 10
271.2859194297
 20
183.4731666467
 30
0.0
 11
271.2859194297
 21
123.4735665267
 31
0.0
  0
MTEXT
  5
3CA
330
3C2
100
AcDbEntity
  8
0
  6
Continuous
 62
     7
370
    18
100
AcDbMText
 10
266.7741821076
 20
144.9202416224
 30
0.0
 40
3.5
 41
0.0
 71
     1
 72
     1
  1
max.
  7
SLDTEXTSTYLE0
 11
-7.932373437343760E-15
 21
1.0
 31
0.0
 73
     1
 44
1.0
  0
MTEXT
  5
3CB
330
3C2
100
AcDbEntity
  8
0
  6
Continuous
 62
     7
370
    18
100
AcDbMText
 10
266.7741821076
 20
156.6792694612
 30
0.0
 40
3.5
 41
0.0
 71
     1
 72
     1
  1
60
  7
SLDTEXTSTYLE0
 11
-7.932373437343760E-15
 21
1.0
 31
0.0
 73
     1
 44
1.0
  0
ENDBLK
  5
3C4
330
3C2
100
AcDbEntity
  8
0
100
AcDbBlockEnd
  0
BLOCK
  5
3CE
330
3CD
100
AcDbEntity
  8
0
100
AcDbBlockBegin
  2
_D_6
 70
     0
 10
0.0
 20
0.0
 30
0.0
  3
_D_6
  1

  0
SOLID
  5
3D0
330
3CD
100
AcDbEntity
  8
0
  6
Continuous
 62
     7
370
    18
100
AcDbTrace
 10
307.2910194297
 20
113.4635665267
 30
0.0
 11
310.7910194297
 21
112.9251049882
 31
0.0
 12
310.7910194297
 22
114.0020280652
 32
0.0
 13
310.7910194297
 23
114.0020280652
 33
0.0
  0
SOLID
  5
3D1
330
3CD
100
AcDbEntity
  8
0
  6
Continuous
 62
     7
370
    18
100
AcDbTrace
 10
357.2910194297
 20
113.4635665267
 30
0.0
 11
353.7910194297
 21
114.0020280652
 31
0.0
 12
353.7910194297
 22
112.9251049882
 32
0.0
 13
353.7910194297
 23
112.9251049882
 33
0.0
  0
LINE
  5
3D2
330
3CD
100
AcDbEntity
  8
0
  6
Continuous
 62
     7
370
     0
100
AcDbLine
 10
307.2910194297
 20
127.3735666067
 30
0.0
 11
307.2910194297
 21
112.4635665267
 31
0.0
  0
LINE
  5
3D3
330
3CD
100
AcDbEntity
  8
0
  6
Continuous
 62
     7
370
     0
100
AcDbLine
 10
357.2910194297
 20
127.3735666067
 30
0.0
 11
357.2910194297
 21
112.4635665267
 31
0.0
  0
LINE
  5
3D4
330
3CD
100
AcDbEntity
  8
0
  6
Continuous
 62
     7
370
     0
100
AcDbLine
 10
307.2910194297
 20
113.4635665267
 30
0.0
 11
357.2910194297
 21
113.4635665267
 31
0.0
  0
MTEXT
  5
3D5
330
3CD
100
AcDbEntity
  8
0
  6
Continuous
 62
     7
370
    18
100
AcDbMText
 10
329.6174083848
 20
117.9753038487
 30
0.0
 40
3.5
 41
0.0
 71
     1
 72
     1
  1
50
  7
SLDTEXTSTYLE0
 73
     1
 44
1.0
  0
ENDBLK
  5
3CF
330
3CD
100
AcDbEntity
  8
0
100
AcDbBlockEnd
  0
BLOCK
  5
3D8
330
3D7
100
AcDbEntity
  8
0
100
AcDbBlockBegin
  2
_D_7
 70
     0
 10
0.0
 20
0.0
 30
0.0
  3
_D_7
  1

  0
SOLID
  5
3DA
330
3D7
100
AcDbEntity
  8
0
  6
Continuous
 62
     7
370
    18
100
AcDbTrace
 10
291.2910194297
 20
193.4782666467
 30
0.0
 11
294.7910194297
 21
192.9398051082
 31
0.0
 12
294.7910194297
 22
194.0167281851
 32
0.0
 13
294.7910194297
 23
194.0167281851
 33
0.0
  0
SOLID
  5
3DB
330
3D7
100
AcDbEntity
  8
0
  6
Continuous
 62
     7
370
    18
100
AcDbTrace
 10
309.2910194297
 20
193.4782666467
 30
0.0
 11
305.7910194297
 21
194.0167281851
 31
0.0
 12
305.7910194297
 22
192.9398051082
 32
0.0
 13
305.7910194297
 23
192.9398051082
 33
0.0
  0
LINE
  5
3DC
330
3D7
100
AcDbEntity
  8
0
  6
Continuous
 62
     7
370
     0
100
AcDbLine
 10
291.2910194297
 20
179.5731666467
 30
0.0
 11
291.2910194297
 21
194.4782666467
 31
0.0
  0
LINE
  5
3DD
330
3D7
100
AcDbEntity
  8
0
  6
Continuous
 62
     7
370
     0
100
AcDbLine
 10
309.2910194297
 20
179.5731666467
 30
0.0
 11
309.2910194297
 21
194.4782666467
 31
0.0
  0
LINE
  5
3DE
330
3D7
100
AcDbEntity
  8
0
  6
Continuous
 62
     7
370
     0
100
AcDbLine
 10
291.2910194297
 20
193.4782666467
 30
0.0
 11
309.2910194297
 21
193.4782666467
 31
0.0
  0
MTEXT
  5
3DF
330
3D7
100
AcDbEntity
  8
0
  6
Continuous
 62
     7
370
    18
100
AcDbMText
 10
297.6174083848
 20
197.9900039687
 30
0.0
 40
3.5
 41
0.0
 71
     1
 72
     1
  1
18
  7
SLDTEXTSTYLE0
 73
     1
 44
1.0
  0
ENDBLK
  5
3D9
330
3D7
100
AcDbEntity
  8
0
100
AcDbBlockEnd
  0
BLOCK
  5
3E2
330
3E1
100
AcDbEntity
  8
0
100
AcDbBlockBegin
  2
_D_8
 70
     0
 10
0.0
 20
0.0
 30
0.0
  3
_D_8
  1

  0
SOLID
  5
3E4
330
3E1
100
AcDbEntity
  8
0
  6
Continuous
 62
     7
370
    18
100
AcDbTrace
 10
383.2961194297
 20
171.4731666467
 30
0.0
 11
382.7576578912
 21
167.9731666467
 31
0.0
 12
383.8345809681
 22
167.9731666467
 32
0.0
 13
383.8345809681
 23
167.9731666467
 33
0.0
  0
SOLID
  5
3E5
330
3E1
100
AcDbEntity
  8
0
  6
Continuous
 62
     7
370
    18
100
AcDbTrace
 10
383.2961194297
 20
183.4731666467
 30
0.0
 11
383.8345809681
 21
186.9731666467
 31
0.0
 12
382.7576578912
 22
186.9731666467
 32
0.0
 13
382.7576578912
 23
186.9731666467
 33
0.0
  0
LINE
  5
3E6
330
3E1
100
AcDbEntity
  8
0
  6
Continuous
 62
     7
370
     0
100
AcDbLine
 10
373.3910194297
 20
171.4731666467
 30
0.0
 11
384.2961194297
 21
171.4731666467
 31
0.0
  0
LINE
  5
3E7
330
3E1
100
AcDbEntity
  8
0
  6
Continuous
 62
     7
370
     0
100
AcDbLine
 10
369.3910194297
 20
183.4731666467
 30
0.0
 11
384.2961194297
 21
183.4731666467
 31
0.0
  0
LINE
  5
3E8
330
3E1
100
AcDbEntity
  8
0
  6
Continuous
 62
     7
370
     0
100
AcDbLine
 10
383.2961194297
 20
171.4731666467
 30
0.0
 11
383.2961194297
 21
164.7423974159
 31
0.0
  0
LINE
  5
3E9
330
3E1
100
AcDbEntity
  8
0
  6
Continuous
 62
     7
370
     0
100
AcDbLine
 10
383.2961194297
 20
171.4731666467
 30
0.0
 11
383.2961194297
 21
183.4731666467
 31
0.0
  0
LINE
  5
3EA
330
3E1
100
AcDbEntity
  8
0
  6
Continuous
 62
     7
370
     0
100
AcDbLine
 10
383.2961194297
 20
183.4731666467
 30
0.0
 11
383.2961194297
 21
190.2039358774
 31
0.0
  0
MTEXT
  5
3EB
330
3E1
100
AcDbEntity
  8
0
  6
Continuous
 62
     7
370
    18
100
AcDbMText
 10
378.7843821076
 20
174.7995556018
 30
0.0
 40
3.5
 41
0.0
 71
     1
 72
     1
  1
12
  7
SLDTEXTSTYLE0
 11
6.123233995736766E-17
 21
1.0
 31
0.0
 73
     1
 44
1.0
  0
ENDBLK
  5
3E3
330
3E1
100
AcDbEntity
  8
0
100
AcDbBlockEnd
  0
BLOCK
  5
3EE
330
3ED
100
AcDbEntity
  8
0
100
AcDbBlockBegin
  2
_D_9
 70
     0
 10
0.0
 20
0.0
 30
0.0
  3
_D_9
  1

  0
SOLID
  5
3F0
330
3ED
100
AcDbEntity
  8
0
  6
Continuous
 62
     7
370
    18
100
AcDbTrace
 10
293.2910194297
 20
175.1009166595
 30
0.0
 11
296.7910194297
 21
174.562455121
 31
0.0
 12
296.7910194297
 22
175.6393781979
 32
0.0
 13
296.7910194297
 23
175.6393781979
 33
0.0
  0
SOLID
  5
3F1
330
3ED
100
AcDbEntity
  8
0
  6
Continuous
 62
     7
370
    18
100
AcDbTrace
 10
291.2910194297
 20
175.1009166595
 30
0.0
 11
287.7910194297
 21
175.6393781979
 31
0.0
 12
287.7910194297
 22
174.562455121
 32
0.0
 13
287.7910194297
 23
174.562455121
 33
0.0
  0
LINE
  5
3F2
330
3ED
100
AcDbEntity
  8
0
  6
Continuous
 62
     7
370
     0
100
AcDbLine
 10
293.2910194297
 20
175.1009166595
 30
0.0
 11
300.0217886604
 21
175.1009166595
 31
0.0
  0
LINE
  5
3F3
330
3ED
100
AcDbEntity
  8
0
  6
Continuous
 62
     7
370
     0
100
AcDbLine
 10
293.2910194297
 20
175.1009166595
 30
0.0
 11
291.2910194297
 21
175.1009166595
 31
0.0
  0
LINE
  5
3F4
330
3ED
100
AcDbEntity
  8
0
  6
Continuous
 62
     7
370
     0
100
AcDbLine
 10
291.2910194297
 20
175.1009166595
 30
0.0
 11
284.6433212244
 21
175.1009166595
 31
0.0
  0
MTEXT
  5
3F5
330
3ED
100
AcDbEntity
  8
0
  6
Continuous
 62
     7
370
    18
100
AcDbMText
 10
284.6433212244
 20
179.6126539815
 30
0.0
 40
3.5
 41
0.0
 71
     1
 72
     1
  1
2
  7
SLDTEXTSTYLE0
 73
     1
 44
1.0
  0
ENDBLK
  5
3EF
330
3ED
100
AcDbEntity
  8
0
100
AcDbBlockEnd
  0
ENDSEC
  0
SECTION
  2
ENTITIES
  0
LINE
  5
178
330
1F
100
AcDbEntity
  8
LINIEN-DÜNN
  6
CENTERX2
100
AcDbLine
 10
352.6174545849
 20
46.9080238789
 30
0.0
 11
352.6174545849
 21
39.4621586124
 31
0.0
  0
LINE
  5
179
330
1F
100
AcDbEntity
  8
LINIEN-DÜNN
100
AcDbLine
 10
357.7661698132
 20
46.3720107039
 30
0.0
 11
357.7661698132
 21
39.9353173413
 31
0.0
  0
LINE
  5
17A
330
1F
100
AcDbEntity
  8
LINIEN-DÜNN
100
AcDbLine
 10
364.6059427486
 20
44.7376225767
 30
0.0
 11
364.6059427486
 21
41.5697054685
 31
0.0
  0
LINE
  5
17B
330
1F
100
AcDbEntity
  8
LINIEN-DÜNN
100
AcDbLine
 10
364.6059427486
 20
44.7376225767
 30
0.0
 11
357.7661698132
 21
46.3720107039
 31
0.0
  0
LINE
  5
17C
330
1F
100
AcDbEntity
  8
LINIEN-DÜNN
100
AcDbLine
 10
15.0
 20
198.5
 30
0.0
 11
20.0
 21
198.5
 31
0.0
  0
LINE
  5
17D
330
1F
100
AcDbEntity
  8
LINIEN-DÜNN
100
AcDbLine
 10
12.0
 20
148.5
 30
0.0
 11
0.0
 21
148.5
 31
0.0
  0
LINE
  5
17E
330
1F
100
AcDbEntity
  8
LINIEN-DÜNN
100
AcDbLine
 10
357.7661698132
 20
39.9353173413
 30
0.0
 11
364.6059427486
 21
41.5697054685
 31
0.0
  0
LINE
  5
17F
330
1F
100
AcDbEntity
  8
LINIEN-DÜNN
  6
CENTERX2
100
AcDbLine
 10
348.6240467841
 20
43.1536640226
 30
0.0
 11
356.6108623857
 21
43.1536640226
 31
0.0
  0
LINE
  5
180
330
1F
100
AcDbEntity
  8
LINIEN-DÜNN
  6
CENTERX2
100
AcDbLine
 10
357.1289238876
 20
43.1536640226
 30
0.0
 11
365.6255362296
 21
43.1536640226
 31
0.0
  0
LINE
  5
181
330
1F
100
AcDbEntity
  8
LINIEN-DÜNN
100
AcDbLine
 10
0.0
 20
0.0
 30
0.0
 11
420.0
 21
0.0
 31
0.0
  0
LINE
  5
182
330
1F
100
AcDbEntity
  8
LINIEN-DÜNN
100
AcDbLine
 10
0.0
 20
0.0
 30
0.0
 11
0.0
 21
297.0
 31
0.0
  0
LINE
  5
183
330
1F
100
AcDbEntity
  8
LINIEN-DÜNN
100
AcDbLine
 10
0.0
 20
297.0
 30
0.0
 11
420.0
 21
297.0
 31
0.0
  0
LINE
  5
184
330
1F
100
AcDbEntity
  8
LINIEN-DÜNN
100
AcDbLine
 10
420.0
 20
0.0
 30
0.0
 11
420.0
 21
297.0
 31
0.0
  0
LINE
  5
185
330
1F
100
AcDbEntity
  8
LINIEN-NORMAL
100
AcDbLine
 10
228.0
 20
35.0
 30
0.0
 11
410.0
 21
35.0
 31
0.0
  0
LINE
  5
186
330
1F
100
AcDbEntity
  8
LINIEN-DÜNN
100
AcDbLine
 10
410.0
 20
198.5
 30
0.0
 11
415.0
 21
198.5
 31
0.0
  0
LINE
  5
187
330
1F
100
AcDbEntity
  8
LINIEN-DÜNN
100
AcDbLine
 10
15.0
 20
148.5
 30
0.0
 11
20.0
 21
148.5
 31
0.0
  0
LINE
  5
188
330
1F
100
AcDbEntity
  8
LINIEN-DÜNN
100
AcDbLine
 10
228.0
 20
40.0
 30
0.0
 11
296.6
 21
40.0
 31
0.0
  0
LINE
  5
189
330
1F
100
AcDbEntity
  8
LINIEN-DÜNN
100
AcDbLine
 10
15.0
 20
248.5
 30
0.0
 11
20.0
 21
248.5
 31
0.0
  0
LINE
  5
18A
330
1F
100
AcDbEntity
  8
LINIEN-DICK
100
AcDbLine
 10
20.0
 20
287.0
 30
0.0
 11
20.0
 21
10.0
 31
0.0
  0
LINE
  5
18B
330
1F
100
AcDbEntity
  8
LINIEN-DICK
100
AcDbLine
 10
410.0
 20
287.0
 30
0.0
 11
20.0
 21
287.0
 31
0.0
  0
LINE
  5
18C
330
1F
100
AcDbEntity
  8
LINIEN-DICK
100
AcDbLine
 10
410.0
 20
5.0
 30
0.0
 11
410.0
 21
287.0
 31
0.0
  0
LINE
  5
18D
330
1F
100
AcDbEntity
  8
LINIEN-DICK
100
AcDbLine
 10
20.0
 20
10.0
 30
0.0
 11
415.0
 21
10.0
 31
0.0
  0
LINE
  5
18E
330
1F
100
AcDbEntity
  8
LINIEN-DÜNN
100
AcDbLine
 10
410.0
 20
148.5
 30
0.0
 11
415.0
 21
148.5
 31
0.0
  0
LINE
  5
18F
330
1F
100
AcDbEntity
  8
LINIEN-DÜNN
100
AcDbLine
 10
228.0
 20
50.0
 30
0.0
 11
296.6
 21
50.0
 31
0.0
  0
LINE
  5
190
330
1F
100
AcDbEntity
  8
LINIEN-DÜNN
100
AcDbLine
 10
15.0
 20
98.5
 30
0.0
 11
20.0
 21
98.5
 31
0.0
  0
LINE
  5
191
330
1F
100
AcDbEntity
  8
LINIEN-DÜNN
100
AcDbLine
 10
296.6
 20
45.0
 30
0.0
 11
228.0
 21
45.0
 31
0.0
  0
LINE
  5
192
330
1F
100
AcDbEntity
  8
LINIEN-DÜNN
100
AcDbLine
 10
65.0
 20
292.0
 30
0.0
 11
65.0
 21
287.0
 31
0.0
  0
LINE
  5
193
330
1F
100
AcDbEntity
  8
LINIEN-DÜNN
100
AcDbLine
 10
230.0
 20
292.0
 30
0.0
 11
230.0
 21
297.0
 31
0.0
  0
LINE
  5
194
330
1F
100
AcDbEntity
  8
LINIEN-NORMAL
100
AcDbLine
 10
296.6
 20
55.0
 30
0.0
 11
296.6
 21
35.0
 31
0.0
  0
LINE
  5
195
330
1F
100
AcDbEntity
  8
LINIEN-DÜNN
100
AcDbLine
 10
410.0
 20
98.5
 30
0.0
 11
415.0
 21
98.5
 31
0.0
  0
LINE
  5
196
330
1F
100
AcDbEntity
  8
VORLAGE_BEMASSUNG
100
AcDbLine
 10
230.0
 20
5.0
 30
0.0
 11
230.0
 21
0.0
 31
0.0
  0
LINE
  5
197
330
1F
100
AcDbEntity
  8
LINIEN-DÜNN
100
AcDbLine
 10
125.0
 20
292.0
 30
0.0
 11
125.0
 21
297.0
 31
0.0
  0
LINE
  5
198
330
1F
100
AcDbEntity
  8
LINIEN-DÜNN
100
AcDbLine
 10
125.0
 20
5.0
 30
0.0
 11
125.0
 21
0.0
 31
0.0
  0
LINE
  5
199
330
1F
100
AcDbEntity
  8
LINIEN-NORMAL
100
AcDbLine
 10
410.0
 20
55.0
 30
0.0
 11
228.0
 21
55.0
 31
0.0
  0
LINE
  5
19A
330
1F
100
AcDbEntity
  8
LINIEN-DÜNN
100
AcDbLine
 10
228.0
 20
55.0
 30
0.0
 11
410.0
 21
55.0
 31
0.0
  0
LINE
  5
19B
330
1F
100
AcDbEntity
  8
LINIEN-DÜNN
100
AcDbLine
 10
410.0
 20
55.0
 30
0.0
 11
228.0
 21
55.0
 31
0.0
  0
LINE
  5
19C
330
1F
100
AcDbEntity
  8
LINIEN-DÜNN
100
AcDbLine
 10
268.0
 20
76.5
 30
0.0
 11
268.0
 21
55.0
 31
0.0
  0
LINE
  5
19D
330
1F
100
AcDbEntity
  8
LINIEN-DÜNN
100
AcDbLine
 10
271.6
 20
55.0
 30
0.0
 11
271.6
 21
40.0
 31
0.0
  0
LINE
  5
19E
330
1F
100
AcDbEntity
  8
LINIEN-DÜNN
100
AcDbLine
 10
247.0
 20
55.0
 30
0.0
 11
247.0
 21
35.0
 31
0.0
  0
LINE
  5
19F
330
1F
100
AcDbEntity
  8
LINIEN-DICK
100
AcDbLine
 10
228.0
 20
76.5
 30
0.0
 11
228.0
 21
10.0
 31
0.0
  0
LINE
  5
1A0
330
1F
100
AcDbEntity
  8
LINIEN-DÜNN
100
AcDbLine
 10
15.0
 20
292.0
 30
0.0
 11
415.0
 21
292.0
 31
0.0
  0
LINE
  5
1A1
330
1F
100
AcDbEntity
  8
LINIEN-DÜNN
100
AcDbLine
 10
228.0
 20
65.75
 30
0.0
 11
310.0
 21
65.75
 31
0.0
  0
LINE
  5
1A2
330
1F
100
AcDbEntity
  8
LINIEN-DICK
100
AcDbLine
 10
228.0
 20
76.5
 30
0.0
 11
410.0
 21
76.5
 31
0.0
  0
LINE
  5
1A3
330
1F
100
AcDbEntity
  8
LINIEN-DÜNN
100
AcDbLine
 10
15.0
 20
48.5
 30
0.0
 11
20.0
 21
48.5
 31
0.0
  0
LINE
  5
1A4
330
1F
100
AcDbEntity
  8
LINIEN-DÜNN
100
AcDbLine
 10
410.0
 20
48.5
 30
0.0
 11
415.0
 21
48.5
 31
0.0
  0
LINE
  5
1A5
330
1F
100
AcDbEntity
  8
LINIEN-DÜNN
100
AcDbLine
 10
332.6610845472
 20
20.0
 30
0.0
 11
332.6610845472
 21
10.0
 31
0.0
  0
LINE
  5
1A6
330
1F
100
AcDbEntity
  8
LINIEN-DÜNN
100
AcDbLine
 10
410.0
 20
248.5
 30
0.0
 11
415.0
 21
248.5
 31
0.0
  0
LINE
  5
1A7
330
1F
100
AcDbEntity
  8
LINIEN-DÜNN
100
AcDbLine
 10
65.0
 20
10.0
 30
0.0
 11
65.0
 21
5.0
 31
0.0
  0
LINE
  5
1A8
330
1F
100
AcDbEntity
  8
LINIEN-DÜNN
100
AcDbLine
 10
115.0
 20
10.0
 30
0.0
 11
115.0
 21
5.0
 31
0.0
  0
LINE
  5
1A9
330
1F
100
AcDbEntity
  8
LINIEN-DÜNN
100
AcDbLine
 10
115.0
 20
292.0
 30
0.0
 11
115.0
 21
287.0
 31
0.0
  0
LINE
  5
1AA
330
1F
100
AcDbEntity
  8
LINIEN-DÜNN
100
AcDbLine
 10
165.0
 20
10.0
 30
0.0
 11
165.0
 21
5.0
 31
0.0
  0
LINE
  5
1AB
330
1F
100
AcDbEntity
  8
LINIEN-DÜNN
100
AcDbLine
 10
165.0
 20
292.0
 30
0.0
 11
165.0
 21
287.0
 31
0.0
  0
LINE
  5
1AC
330
1F
100
AcDbEntity
  8
LINIEN-DÜNN
100
AcDbLine
 10
215.0
 20
10.0
 30
0.0
 11
215.0
 21
5.0
 31
0.0
  0
LINE
  5
1AD
330
1F
100
AcDbEntity
  8
LINIEN-DÜNN
100
AcDbLine
 10
215.0
 20
292.0
 30
0.0
 11
215.0
 21
287.0
 31
0.0
  0
LINE
  5
1AE
330
1F
100
AcDbEntity
  8
LINIEN-DÜNN
100
AcDbLine
 10
265.0
 20
10.0
 30
0.0
 11
265.0
 21
5.0
 31
0.0
  0
LINE
  5
1AF
330
1F
100
AcDbEntity
  8
LINIEN-DÜNN
100
AcDbLine
 10
265.0
 20
292.0
 30
0.0
 11
265.0
 21
287.0
 31
0.0
  0
LINE
  5
1B0
330
1F
100
AcDbEntity
  8
LINIEN-DÜNN
100
AcDbLine
 10
347.6610845472
 20
20.0
 30
0.0
 11
347.6610845472
 21
10.0
 31
0.0
  0
LINE
  5
1B1
330
1F
100
AcDbEntity
  8
LINIEN-DÜNN
100
AcDbLine
 10
362.6610845472
 20
20.0
 30
0.0
 11
362.6610845472
 21
10.0
 31
0.0
  0
LINE
  5
1B2
330
1F
100
AcDbEntity
  8
LINIEN-NORMAL
100
AcDbLine
 10
327.6610845472
 20
10.0
 30
0.0
 11
327.6610845472
 21
55.0
 31
0.0
  0
LINE
  5
1B3
330
1F
100
AcDbEntity
  8
LINIEN-DÜNN
100
AcDbLine
 10
20.0
 20
292.0
 30
0.0
 11
20.0
 21
297.0
 31
0.0
  0
LINE
  5
1B4
330
1F
100
AcDbEntity
  8
LINIEN-DÜNN
100
AcDbLine
 10
20.0
 20
5.0
 30
0.0
 11
20.0
 21
0.0
 31
0.0
  0
LINE
  5
1B5
330
1F
100
AcDbEntity
  8
LINIEN-DÜNN
100
AcDbLine
 10
315.0
 20
10.0
 30
0.0
 11
315.0
 21
5.0
 31
0.0
  0
LINE
  5
1B6
330
1F
100
AcDbEntity
  8
LINIEN-DÜNN
100
AcDbLine
 10
315.0
 20
292.0
 30
0.0
 11
315.0
 21
287.0
 31
0.0
  0
LINE
  5
1B7
330
1F
100
AcDbEntity
  8
LINIEN-DÜNN
100
AcDbLine
 10
365.0
 20
10.0
 30
0.0
 11
365.0
 21
5.0
 31
0.0
  0
LINE
  5
1B8
330
1F
100
AcDbEntity
  8
LINIEN-DÜNN
100
AcDbLine
 10
365.0
 20
292.0
 30
0.0
 11
365.0
 21
287.0
 31
0.0
  0
LINE
  5
1B9
330
1F
100
AcDbEntity
  8
LINIEN-DÜNN
100
AcDbLine
 10
15.0
 20
292.0
 30
0.0
 11
15.0
 21
5.0
 31
0.0
  0
LINE
  5
1BA
330
1F
100
AcDbEntity
  8
LINIEN-DÜNN
100
AcDbLine
 10
15.0
 20
5.0
 30
0.0
 11
415.0
 21
5.0
 31
0.0
  0
LINE
  5
1BB
330
1F
100
AcDbEntity
  8
LINIEN-DÜNN
100
AcDbLine
 10
415.0
 20
292.0
 30
0.0
 11
415.0
 21
5.0
 31
0.0
  0
LINE
  5
1BC
330
1F
100
AcDbEntity
  8
LINIEN-DÜNN
100
AcDbLine
 10
347.6610845472
 20
44.213444
 30
0.0
 11
327.6610845472
 21
44.213444
 31
0.0
  0
LINE
  5
1BD
330
1F
100
AcDbEntity
  8
LINIEN-DÜNN
100
AcDbLine
 10
347.6610845472
 20
35.0
 30
0.0
 11
347.6610845472
 21
55.0
 31
0.0
  0
LINE
  5
1BE
330
1F
100
AcDbEntity
  8
LINIEN-DÜNN
100
AcDbLine
 10
370.057188
 20
55.012032
 30
0.0
 11
370.057188
 21
35.0
 31
0.0
  0
LINE
  5
1BF
330
1F
100
AcDbEntity
  8
LINIEN-DÜNN
100
AcDbLine
 10
398.0
 20
35.0
 30
0.0
 11
398.0
 21
20.0
 31
0.0
  0
LINE
  5
1C0
330
1F
100
AcDbEntity
  8
LINIEN-DÜNN
100
AcDbLine
 10
410.0
 20
15.0
 30
0.0
 11
327.6610845472
 21
15.0
 31
0.0
  0
LINE
  5
1C1
330
1F
100
AcDbEntity
  8
LINIEN-DÜNN
100
AcDbLine
 10
327.6610845472
 20
20.0
 30
0.0
 11
410.0
 21
20.0
 31
0.0
  0
LINE
  5
1C2
330
1F
100
AcDbEntity
  8
LINIEN-DÜNN
100
AcDbLine
 10
341.485486
 20
20.0
 30
0.0
 11
341.485486
 21
27.564675
 31
0.0
  0
LINE
  5
1C3
330
1F
100
AcDbEntity
  8
LINIEN-NORMAL
100
AcDbLine
 10
310.0
 20
76.5
 30
0.0
 11
310.0
 21
55.0
 31
0.0
  0
CIRCLE
  5
1C4
330
1F
100
AcDbEntity
  8
LINIEN-DÜNN
100
AcDbCircle
 10
11.0
 20
108.5
 30
0.0
 40
2.749999999999999
  0
CIRCLE
  5
1C5
330
1F
100
AcDbEntity
  8
LINIEN-DÜNN
100
AcDbCircle
 10
11.0
 20
188.5
 30
0.0
 40
2.75000000000001
  0
CIRCLE
  5
1C6
330
1F
100
AcDbEntity
  8
LINIEN-DÜNN
100
AcDbCircle
 10
352.6174545849
 20
43.1536640226
 30
0.0
 40
3.218346681300192
  0
CIRCLE
  5
1C7
330
1F
100
AcDbEntity
  8
LINIEN-DÜNN
100
AcDbCircle
 10
352.6174545849
 20
43.1536640226
 30
0.0
 40
1.583958554121557
  0
INSERT
  5
1C8
330
1F
100
AcDbEntity
  8
0
  6
Continuous
 62
     7
100
AcDbBlockReference
  2
Allg-Toleranz-mittel
 10
20.0
 20
10.0
 30
0.0
  0
INSERT
  5
1C9
330
1F
100
AcDbEntity
  8
0
  6
Continuous
 62
     7
100
AcDbBlockReference
  2
ACO-Logo
 10
314.3510726297
 20
57.3011289497
 30
0.0
  0
POINT
  5
1CA
330
1F
100
AcDbEntity
  8
0
  6
Continuous
 62
     7
370
     0
100
AcDbPoint
 10
314.3510726297
 20
57.2426704952
 30
0.0
  0
POINT
  5
1CB
330
1F
100
AcDbEntity
  8
VORLAGE_BEMASSUNG
100
AcDbPoint
 10
0.0
 20
0.0
 30
0.0
  0
POINT
  5
1CC
330
1F
100
AcDbEntity
  8
VORLAGE_BEMASSUNG
100
AcDbPoint
 10
410.0
 20
10.0
 30
0.0
  0
MTEXT
  5
1CD
330
1F
100
AcDbEntity
  8
VORLAGE_TEXT
100
AcDbMText
 10
17.7046943114
 20
124.8017866468
 30
0.0
 40
2.0
 41
0.0
 71
     2
 72
     1
  1
D
  7
SLDTEXTSTYLE0
 73
     1
 44
1.0
  0
MTEXT
  5
1CE
330
1F
100
AcDbEntity
  8
VORLAGE_TEXT
100
AcDbMText
 10
17.5962322413
 20
174.7261854936
 30
0.0
 40
2.0
 41
0.0
 71
     2
 72
     1
  1
C
  7
SLDTEXTSTYLE0
 73
     1
 44
1.0
  0
MTEXT
  5
1CF
330
1F
100
AcDbEntity
  8
VORLAGE_TEXT
100
AcDbMText
 10
17.5516905072
 20
224.4926420442
 30
0.0
 40
2.0
 41
0.0
 71
     2
 72
     1
  1
B
  7
SLDTEXTSTYLE0
 73
     1
 44
1.0
  0
MTEXT
  5
1D0
330
1F
100
AcDbEntity
  8
VORLAGE_TEXT
100
AcDbMText
 10
290.0344258799
 20
290.5428789914
 30
0.0
 40
2.0
 41
0.0
 71
     2
 72
     1
  1
6
  7
SLDTEXTSTYLE0
 73
     1
 44
1.0
  0
MTEXT
  5
1D1
330
1F
100
AcDbEntity
  8
VORLAGE_TEXT
100
AcDbMText
 10
240.0417859812
 20
290.6369260235
 30
0.0
 40
2.0
 41
0.0
 71
     2
 72
     1
  1
5
  7
SLDTEXTSTYLE0
 73
     1
 44
1.0
  0
MTEXT
  5
1D2
330
1F
100
AcDbEntity
  8
VORLAGE_TEXT
100
AcDbMText
 10
190.0300404524
 20
290.6343268032
 30
0.0
 40
2.0
 41
0.0
 71
     2
 72
     1
  1
4
  7
SLDTEXTSTYLE0
 73
     1
 44
1.0
  0
MTEXT
  5
1D3
330
1F
100
AcDbEntity
  8
VORLAGE_TEXT
100
AcDbMText
 10
140.0165868337
 20
290.6378887952
 30
0.0
 40
2.0
 41
0.0
 71
     2
 72
     1
  1
3
  7
SLDTEXTSTYLE0
 73
     1
 44
1.0
  0
MTEXT
  5
1D4
330
1F
100
AcDbEntity
  8
VORLAGE_TEXT
100
AcDbMText
 10
90.033223
 20
290.5566702875
 30
0.0
 40
2.0
 41
0.0
 71
     2
 72
     1
  1
2
  7
SLDTEXTSTYLE0
 73
     1
 44
1.0
  0
MTEXT
  5
1D5
330
1F
100
AcDbEntity
  8
VORLAGE_TEXT
100
AcDbMText
 10
40.0509551097
 20
290.5530165805
 30
0.0
 40
2.0
 41
0.0
 71
     2
 72
     1
  1
1
  7
SLDTEXTSTYLE0
 73
     1
 44
1.0
  0
MTEXT
  5
1D6
330
1F
100
AcDbEntity
  8
VORLAGE_TEXT
100
AcDbMText
 10
17.5609786315
 20
271.2966048816
 30
0.0
 40
2.0
 41
0.0
 71
     2
 72
     1
  1
A
  7
SLDTEXTSTYLE0
 73
     1
 44
1.0
  0
MTEXT
  5
1D7
330
1F
100
AcDbEntity
  8
VORLAGE_TEXT
100
AcDbMText
 10
89.9333968896
 20
8.5904490253
 30
0.0
 40
2.0
 41
0.0
 71
     2
 72
     1
  1
2
  7
SLDTEXTSTYLE0
 73
     1
 44
1.0
  0
MTEXT
  5
1D8
330
1F
100
AcDbEntity
  8
VORLAGE_TEXT
100
AcDbMText
 10
39.9009486579
 20
8.6623118453
 30
0.0
 40
2.0
 41
0.0
 71
     2
 72
     1
  1
1
  7
SLDTEXTSTYLE0
 73
     1
 44
1.0
  0
MTEXT
  5
1D9
330
1F
100
AcDbEntity
  8
VORLAGE_TEXT
100
AcDbMText
 10
190.0227230239
 20
8.7073169286
 30
0.0
 40
2.0
 41
0.0
 71
     2
 72
     1
  1
4
  7
SLDTEXTSTYLE0
 73
     1
 44
1.0
  0
MTEXT
  5
1DA
330
1F
100
AcDbEntity
  8
VORLAGE_TEXT
100
AcDbMText
 10
140.0453427777
 20
8.5647154541
 30
0.0
 40
2.0
 41
0.0
 71
     2
 72
     1
  1
3
  7
SLDTEXTSTYLE0
 73
     1
 44
1.0
  0
MTEXT
  5
1DB
330
1F
100
AcDbEntity
  8
VORLAGE_TEXT
100
AcDbMText
 10
239.8749782531
 20
8.5637526825
 30
0.0
 40
2.0
 41
0.0
 71
     2
 72
     1
  1
5
  7
SLDTEXTSTYLE0
 73
     1
 44
1.0
  0
MTEXT
  5
1DC
330
1F
100
AcDbEntity
  8
VORLAGE_TEXT
100
AcDbMText
 10
412.6717254925
 20
224.51208263
 30
0.0
 40
2.0
 41
0.0
 71
     2
 72
     1
  1
B
  7
SLDTEXTSTYLE0
 73
     1
 44
1.0
  0
MTEXT
  5
1DD
330
1F
100
AcDbEntity
  8
VORLAGE_TEXT
100
AcDbMText
 10
412.5951211154
 20
271.2798202564
 30
0.0
 40
2.0
 41
0.0
 71
     2
 72
     1
  1
A
  7
SLDTEXTSTYLE0
 73
     1
 44
1.0
  0
MTEXT
  5
1DE
330
1F
100
AcDbEntity
  8
VORLAGE_TEXT
100
AcDbMText
 10
412.6178948679
 20
174.7279841048
 30
0.0
 40
2.0
 41
0.0
 71
     2
 72
     1
  1
C
  7
SLDTEXTSTYLE0
 73
     1
 44
1.0
  0
MTEXT
  5
1DF
330
1F
100
AcDbEntity
  8
VORLAGE_TEXT
100
AcDbMText
 10
340.0216466634
 20
290.5954278102
 30
0.0
 40
2.0
 41
0.0
 71
     2
 72
     1
  1
7
  7
SLDTEXTSTYLE0
 73
     1
 44
1.0
  0
MTEXT
  5
1E0
330
1F
100
AcDbEntity
  8
VORLAGE_TEXT
100
AcDbMText
 10
390.037657264
 20
290.6215496941
 30
0.0
 40
2.0
 41
0.0
 71
     2
 72
     1
  1
8
  7
SLDTEXTSTYLE0
 73
     1
 44
1.0
  0
MTEXT
  5
1E1
330
1F
100
AcDbEntity
  8
VORLAGE_TEXT
100
AcDbMText
 10
17.6897935208
 20
74.7267628143
 30
0.0
 40
2.0
 41
0.0
 71
     2
 72
     1
  1
E
  7
SLDTEXTSTYLE0
 73
     1
 44
1.0
  0
MTEXT
  5
1E2
330
1F
100
AcDbEntity
  8
VORLAGE_TEXT
100
AcDbMText
 10
17.5624430126
 20
27.773321616
 30
0.0
 40
2.0
 41
0.0
 71
     2
 72
     1
  1
F
  7
SLDTEXTSTYLE0
 73
     1
 44
1.0
  0
MTEXT
  5
1E3
330
1F
100
AcDbEntity
  8
VORLAGE_TEXT
100
AcDbMText
 10
339.8003474583
 20
8.7205095051
 30
0.0
 40
2.0
 41
0.0
 71
     2
 72
     1
  1
7
  7
SLDTEXTSTYLE0
 73
     1
 44
1.0
  0
MTEXT
  5
1E4
330
1F
100
AcDbEntity
  8
VORLAGE_TEXT
100
AcDbMText
 10
289.7886477179
 20
8.6884673623
 30
0.0
 40
2.0
 41
0.0
 71
     2
 72
     1
  1
6
  7
SLDTEXTSTYLE0
 73
     1
 44
1.0
  0
MTEXT
  5
1E5
330
1F
100
AcDbEntity
  8
VORLAGE_TEXT
100
AcDbMText
 10
412.5160699095
 20
74.5096307526
 30
0.0
 40
2.0
 41
0.0
 71
     2
 72
     1
  1
E
  7
SLDTEXTSTYLE0
 73
     1
 44
1.0
  0
MTEXT
  5
1E6
330
1F
100
AcDbEntity
  8
VORLAGE_TEXT
100
AcDbMText
 10
412.5921521365
 20
124.4517683275
 30
0.0
 40
2.0
 41
0.0
 71
     2
 72
     1
  1
D
  7
SLDTEXTSTYLE0
 73
     1
 44
1.0
  0
MTEXT
  5
1E7
330
1F
100
AcDbEntity
  8
TEXT-DEUTSCH
100
AcDbMText
 10
411.7952690469
 20
41.7448499649
 30
0.0
 40
1.8
 41
0.0
 71
     3
 72
     1
  1
Plotdatum: 07.06.2021
  7
SLDTEXTSTYLE0
 11
-3.269436733918102E-15
 21
1.0
 31
0.0
 73
     1
 44
1.0
  0
MTEXT
  5
1E8
330
1F
100
AcDbEntity
  8
VORLAGE_TEXT
100
AcDbMText
 10
412.557933251
 20
8.2549718046
 30
0.0
 40
1.8
 41
0.0
 71
     2
 72
     1
  1
A3
  7
SLDTEXTSTYLE0
 73
     1
 44
1.0
  0
MTEXT
  5
1E9
330
1F
100
AcDbEntity
  8
VORLAGE_TEXT
100
AcDbMText
 10
390.369604279
 20
8.3847467643
 30
0.0
 40
1.8
 41
0.0
 71
     2
 72
     1
  1
CAD-System: SolidWorks
  7
SLDTEXTSTYLE0
 73
     1
 44
1.0
  0
MTEXT
  5
1EA
330
1F
100
AcDbEntity
  8
TEXT
100
AcDbMText
 10
403.9986368527
 20
28.4394692021
 30
0.0
 40
5.0
 41
0.0
 71
     2
 72
     1
  1
A
  7
SLDTEXTSTYLE0
 73
     1
 44
1.0
  0
MTEXT
  5
1EB
330
1F
100
AcDbEntity
  8
TEXT
100
AcDbMText
 10
249.556836311
 20
38.5581729516
 30
0.0
 40
2.0
 41
0.0
 71
     1
 72
     1
  1
Freigegeben
  7
SLDTEXTSTYLE0
 73
     1
 44
1.0
  0
MTEXT
  5
1EC
330
1F
100
AcDbEntity
  8
TEXT
100
AcDbMText
 10
284.1032088477
 20
43.5473338598
 30
0.0
 40
2.0
 41
0.0
 71
     2
 72
     1
  1
AB
  7
SLDTEXTSTYLE0
 73
     1
 44
1.0
  0
MTEXT
  5
1ED
330
1F
100
AcDbEntity
  8
TEXT
100
AcDbMText
 10
249.5284668163
 20
43.5603133928
 30
0.0
 40
2.0
 41
0.0
 71
     1
 72
     1
  1
07.06.2021
  7
SLDTEXTSTYLE0
 73
     1
 44
1.0
  0
MTEXT
  5
1EE
330
1F
100
AcDbEntity
  8
TEXT
100
AcDbMText
 10
284.1413255175
 20
48.5138972561
 30
0.0
 40
2.0
 41
0.0
 71
     2
 72
     1
  1
KJ
  7
SLDTEXTSTYLE0
 73
     1
 44
1.0
  0
MTEXT
  5
1EF
330
1F
100
AcDbEntity
  8
TEXT
100
AcDbMText
 10
249.5284668163
 20
48.4989062069
 30
0.0
 40
2.0
 41
0.0
 71
     1
 72
     1
  1
16.09.2019
  7
SLDTEXTSTYLE0
 73
     1
 44
1.0
  0
MTEXT
  5
1F0
330
1F
100
AcDbEntity
  8
0
  6
Continuous
 62
     7
370
     0
100
AcDbMText
 10
370.655574235
 20
38.8723054925
 30
0.0
 40
1.5
 41
0.0
 71
     1
 72
     1
  1
Copyright reserved! © ACO Passavant AG
  7
SLDTEXTSTYLE0
 73
     1
 44
1.0
  0
INSERT
  5
1F9
330
1F
100
AcDbEntity
  8
0
  6
Continuous
 62
     7
370
     0
100
AcDbBlockReference
  2
SW_NOTE_0_21
 10
372.2203831445
 20
51.2202922854
 30
0.0
  0
MTEXT
  5
1FA
330
1F
100
AcDbEntity
  8
TEXT
100
AcDbMText
 10
364.9468572407
 20
13.5417229519
 30
0.0
 40
2.0
 41
0.0
 71
     1
 72
     1
  1
Erstausgabe
  7
SLDTEXTSTYLE0
 73
     1
 44
1.0
  0
MTEXT
  5
1FB
330
1F
100
AcDbEntity
  8
TEXT
100
AcDbMText
 10
330.2295005021
 20
13.524501801
 30
0.0
 40
2.0
 41
0.0
 71
     2
 72
     1
  1
-
  7
SLDTEXTSTYLE0
 73
     1
 44
1.0
  0
MTEXT
  5
1FC
330
1F
100
AcDbEntity
  8
TEXT
100
AcDbMText
 10
364.9468572407
 20
18.4594173137
 30
0.0
 40
2.0
 41
0.0
 71
     1
 72
     1
  1
Wannenrand
  7
SLDTEXTSTYLE0
 73
     1
 44
1.0
  0
MTEXT
  5
1FD
330
1F
100
AcDbEntity
  8
TEXT
100
AcDbMText
 10
354.2334651348
 20
18.5245664709
 30
0.0
 40
2.0
 41
0.0
 71
     2
 72
     1
  1
AB
  7
SLDTEXTSTYLE0
 73
     1
 44
1.0
  0
MTEXT
  5
1FE
330
1F
100
AcDbEntity
  8
TEXT
100
AcDbMText
 10
340.3094652526
 20
18.5245664709
 30
0.0
 40
2.0
 41
0.0
 71
     2
 72
     1
  1
07.06.2021
  7
SLDTEXTSTYLE0
 73
     1
 44
1.0
  0
MTEXT
  5
1FF
330
1F
100
AcDbEntity
  8
TEXT
100
AcDbMText
 10
330.227417144
 20
18.524501801
 30
0.0
 40
2.0
 41
0.0
 71
     2
 72
     1
  1
A
  7
SLDTEXTSTYLE0
 73
     1
 44
1.0
  0
MTEXT
  5
200
330
1F
100
AcDbEntity
  8
VORLAGE_TEXT
100
AcDbMText
 10
311.764909851
 20
46.3490312465
 30
0.0
 40
5.0
 41
0.0
 71
     2
 72
     1
  1
1:5
  7
SLDTEXTSTYLE0
 73
     1
 44
1.0
  0
MTEXT
  5
201
330
1F
100
AcDbEntity
  8
VORLAGE_TEXT
100
AcDbMText
 10
230.1851195342
 20
38.7793829468
 30
0.0
 40
2.0
 41
0.0
 71
     1
 72
     1
  1
Status:
  7
SLDTEXTSTYLE0
 73
     1
 44
1.0
  0
MTEXT
  5
202
330
1F
100
AcDbEntity
  8
TEXT
100
AcDbMText
 10
344.926838705
 20
28.2772828851
 30
0.0
 40
5.0
 41
0.0
 71
     1
 72
     1
  1
437222
  7
SLDTEXTSTYLE0
 73
     1
 44
1.0
  0
MTEXT
  5
203
330
1F
100
AcDbEntity
  8
TEXT
100
AcDbMText
 10
231.1132118803
 20
14.9211049657
 30
0.0
 40
2.5
 41
0.0
 71
     1
 72
     1
  1
Art. Nr.: 437222
  7
SLDTEXTSTYLE0
 73
     1
 44
1.0
  0
MTEXT
  5
204
330
1F
100
AcDbEntity
  8
TEXT
100
AcDbMText
 10
231.1159560181
 20
33.0904969858
 30
0.0
 40
2.5
 41
0.0
 71
     1
 72
     1
  1
Haustechnik
  7
SLDTEXTSTYLE0
 73
     1
 44
1.0
  0
MTEXT
  5
205
330
1F
100
AcDbEntity
  8
TEXT
100
AcDbMText
 10
231.1475981734
 20
28.0307932366
 30
0.0
 40
3.5
 41
0.0
 71
     1
 72
     1
  1
Doppelschlitzrinne mit Sohlengefälle
  7
SLDTEXTSTYLE0
 73
     1
 44
1.0
  0
MTEXT
  5
206
330
1F
100
AcDbEntity
  8
VORLAGE_TEXT
100
AcDbMText
 10
348.2746465368
 20
53.819119072
 30
0.0
 40
2.0
 41
0.0
 71
     1
 72
     1
  1
Projektion: ISO-E
  7
SLDTEXTSTYLE0
 73
     1
 44
1.0
  0
MTEXT
  5
207
330
1F
100
AcDbEntity
  8
TEXT
100
AcDbMText
 10
337.5723966855
 20
49.3670227094
 30
0.0
 40
2.5
 41
0.0
 71
     2
 72
     1
  1
Millimeter
  7
SLDTEXTSTYLE0
 73
     1
 44
1.0
  0
MTEXT
  5
208
330
1F
100
AcDbEntity
  8
VORLAGE_TEXT
100
AcDbMText
 10
337.5698777421
 20
53.855374072
 30
0.0
 40
2.0
 41
0.0
 71
     2
 72
     1
  1
Masseinheit:
  7
SLDTEXTSTYLE0
 73
     1
 44
1.0
  0
MTEXT
  5
209
330
1F
100
AcDbEntity
  8
VORLAGE_TEXT
100
AcDbMText
 10
337.5801990186
 20
43.5452078816
 30
0.0
 40
2.0
 41
0.0
 71
     2
 72
     1
  1
Blatt / Anz.:
  7
SLDTEXTSTYLE0
 73
     1
 44
1.0
  0
MTEXT
  5
20A
330
1F
100
AcDbEntity
  8
VORLAGE_TEXT
100
AcDbMText
 10
329.2895578243
 20
28.4139191092
 30
0.0
 40
5.0
 41
0.0
 71
     1
 72
     1
  1
CH
  7
SLDTEXTSTYLE0
 73
     1
 44
1.0
  0
MTEXT
  5
20B
330
1F
100
AcDbEntity
  8
VORLAGE_TEXT
100
AcDbMText
 10
330.40704
 20
33.692638072
 30
0.0
 40
2.0
 41
0.0
 71
     1
 72
     1
  1
Zeichnung Nr.:
  7
SLDTEXTSTYLE0
 73
     1
 44
1.0
  0
MTEXT
  5
20C
330
1F
100
AcDbEntity
  8
VORLAGE_TEXT
100
AcDbMText
 10
269.897953
 20
75.161075072
 30
0.0
 40
2.0
 41
0.0
 71
     1
 72
     1
  1
Gewicht:
  7
SLDTEXTSTYLE0
 73
     1
 44
1.0
  0
MTEXT
  5
20D
330
1F
100
AcDbEntity
  8
VORLAGE_TEXT
100
AcDbMText
 10
230.0
 20
64.542328072
 30
0.0
 40
2.0
 41
0.0
 71
     1
 72
     1
  1
zul. Abweichung:
  7
SLDTEXTSTYLE0
 73
     1
 44
1.0
  0
MTEXT
  5
20E
330
1F
100
AcDbEntity
  8
VORLAGE_TEXT
100
AcDbMText
 10
269.612607
 20
64.542328072
 30
0.0
 40
2.0
 41
0.0
 71
     1
 72
     1
  1
Oberfläche:
  7
SLDTEXTSTYLE0
 73
     1
 44
1.0
  0
MTEXT
  5
20F
330
1F
100
AcDbEntity
  8
VORLAGE_TEXT
100
AcDbMText
 10
230.261411
 20
43.4433838912
 30
0.0
 40
2.0
 41
0.0
 71
     1
 72
     1
  1
Freigegeben:
  7
SLDTEXTSTYLE0
 73
     1
 44
1.0
  0
MTEXT
  5
210
330
1F
100
AcDbEntity
  8
VORLAGE_TEXT
100
AcDbMText
 10
230.0
 20
75.161075072
 30
0.0
 40
2.0
 41
0.0
 71
     1
 72
     1
  1
Werkstoff:
  7
SLDTEXTSTYLE0
 73
     1
 44
1.0
  0
MTEXT
  5
211
330
1F
100
AcDbEntity
  8
VORLAGE_TEXT
100
AcDbMText
 10
254.035545
 20
53.129475072
 30
0.0
 40
2.0
 41
0.0
 71
     1
 72
     1
  1
Datum:
  7
SLDTEXTSTYLE0
 73
     1
 44
1.0
  0
MTEXT
  5
212
330
1F
100
AcDbEntity
  8
VORLAGE_TEXT
100
AcDbMText
 10
279.934928
 20
53.136060072
 30
0.0
 40
2.0
 41
0.0
 71
     1
 72
     1
  1
Name:
  7
SLDTEXTSTYLE0
 73
     1
 44
1.0
  0
MTEXT
  5
213
330
1F
100
AcDbEntity
  8
VORLAGE_TEXT
100
AcDbMText
 10
312.068705406
 20
53.881591072
 30
0.0
 40
2.0
 41
0.0
 71
     2
 72
     1
  1
Massstab:
  7
SLDTEXTSTYLE0
 73
     1
 44
1.0
  0
MTEXT
  5
214
330
1F
100
AcDbEntity
  8
VORLAGE_TEXT
100
AcDbMText
 10
403.9552944035
 20
33.324874072
 30
0.0
 40
2.0
 41
0.0
 71
     2
 72
     1
  1
Index:
  7
SLDTEXTSTYLE0
 73
     1
 44
1.0
  0
MTEXT
  5
215
330
1F
100
AcDbEntity
  8
VORLAGE_TEXT
100
AcDbMText
 10
230.261411
 20
48.4499477886
 30
0.0
 40
2.0
 41
0.0
 71
     1
 72
     1
  1
Erstellt:
  7
SLDTEXTSTYLE0
 73
     1
 44
1.0
  0
MTEXT
  5
216
330
1F
100
AcDbEntity
  8
VORLAGE_TEXT
100
AcDbMText
 10
337.6348165843
 20
39.869706576
 30
0.0
 40
2.5
 41
0.0
 71
     2
 72
     1
  1
1 / 1
  7
SLDTEXTSTYLE2
 73
     1
 44
1.0
  0
MTEXT
  5
217
330
1F
100
AcDbEntity
  8
TEXT
100
AcDbMText
 10
269.612607
 20
60.8119428599
 30
0.0
 40
3.0
 41
0.0
 71
     1
 72
     1
  1
DIN ISO 1302
  7
SLDTEXTSTYLE0
 73
     1
 44
1.0
  0
MTEXT
  5
218
330
1F
100
AcDbEntity
  8
TEXT
100
AcDbMText
 10
230.0
 20
60.8119428599
 30
0.0
 40
3.0
 41
0.0
 71
     1
 72
     1
  1
Norm
  7
SLDTEXTSTYLE0
 73
     1
 44
1.0
  0
MTEXT
  5
219
330
1F
100
AcDbEntity
  8
TEXT
100
AcDbMText
 10
269.612607
 20
71.2121947186
 30
0.0
 40
3.0
 41
0.0
 71
     1
 72
     1
  1
4.09 kg
  7
SLDTEXTSTYLE0
 73
     1
 44
1.0
  0
INSERT
  5
28E
330
1F
100
AcDbEntity
  8
0
  6
Continuous
 62
     7
370
     0
100
AcDbBlockReference
  2
SW_TABLEANNOTATION_0
 10
291.8919790905
 20
101.5391694352
 30
0.0
  0
CIRCLE
  5
28F
330
1F
100
AcDbEntity
  8
0
  6
Continuous
 62
     7
370
    25
100
AcDbCircle
 10
156.1317124127
 20
241.1234911894
 30
0.0
 40
0.7769059892324037
  0
CIRCLE
  5
290
330
1F
100
AcDbEntity
  8
0
  6
Continuous
 62
     7
370
    25
100
AcDbCircle
 10
60.1317124127
 20
241.1234911894
 30
0.0
 40
0.7769059892324108
  0
CIRCLE
  5
291
330
1F
100
AcDbEntity
  8
0
  6
Continuous
 62
     7
370
    25
100
AcDbCircle
 10
252.1317124127
 20
241.1234911894
 30
0.0
 40
0.7769059892324321
  0
LINE
  5
292
330
1F
100
AcDbEntity
  8
0
  6
Continuous
 62
     7
370
    25
100
AcDbLine
 10
56.1317124127
 20
242.0234911894
 30
0.0
 11
56.1317124127
 21
243.6234911894
 31
0.0
  0
LINE
  5
293
330
1F
100
AcDbEntity
  8
0
  6
Continuous
 62
     7
370
    25
100
AcDbLine
 10
256.1317124127
 20
242.0234911894
 30
0.0
 11
256.1317124127
 21
243.6234911894
 31
0.0
  0
LINE
  5
294
330
1F
100
AcDbEntity
  8
0
  6
Continuous
 62
     7
370
    25
100
AcDbLine
 10
56.1317124127
 20
242.0234911894
 30
0.0
 11
256.1317124127
 21
242.0234911894
 31
0.0
  0
LINE
  5
295
330
1F
100
AcDbEntity
  8
0
  6
Continuous
 62
     7
370
    25
100
AcDbLine
 10
56.1317124127
 20
244.4234911894
 30
0.0
 11
256.1317124127
 21
244.4234911894
 31
0.0
  0
LINE
  5
296
330
1F
100
AcDbEntity
  8
0
  6
Continuous
 62
     7
370
    25
100
AcDbLine
 10
56.1317124127
 20
244.4234911894
 30
0.0
 11
56.1317124127
 21
243.6234911894
 31
0.0
  0
LINE
  5
297
330
1F
100
AcDbEntity
  8
0
  6
Continuous
 62
     7
370
    25
100
AcDbLine
 10
256.1317124127
 20
243.6234911894
 30
0.0
 11
256.1317124127
 21
244.4234911894
 31
0.0
  0
LINE
  5
298
330
1F
100
AcDbEntity
  8
0
  6
Continuous
 62
     7
370
    25
100
AcDbLine
 10
56.1237140122
 20
236.4235711654
 30
0.0
 11
56.1317124127
 21
237.2235711814
 31
0.0
  0
CIRCLE
  5
299
330
1F
100
AcDbEntity
  8
0
  6
Continuous
 62
     7
370
    25
100
AcDbCircle
 10
156.1317124127
 20
241.1234911894
 30
0.0
 40
0.8000000000000114
  0
CIRCLE
  5
29A
330
1F
100
AcDbEntity
  8
0
  6
Continuous
 62
     7
370
    25
100
AcDbCircle
 10
252.1317124127
 20
241.1234911894
 30
0.0
 40
0.8000000000000114
  0
CIRCLE
  5
29B
330
1F
100
AcDbEntity
  8
0
  6
Continuous
 62
     7
370
    25
100
AcDbCircle
 10
60.1317124127
 20
241.1234911894
 30
0.0
 40
0.8000000000000114
  0
LINE
  5
29C
330
1F
100
AcDbEntity
  8
0
  6
Continuous
 62
     7
370
    25
100
AcDbLine
 10
256.1317124127
 20
241.9884891894
 30
0.0
 11
256.1317124127
 21
233.2235711814
 31
0.0
  0
LINE
  5
29D
330
1F
100
AcDbEntity
  8
0
  6
Continuous
 62
     7
370
    25
100
AcDbLine
 10
56.1317124127
 20
241.9884891894
 30
0.0
 11
56.1317124127
 21
237.2235711814
 31
0.0
  0
LINE
  5
29E
330
1F
100
AcDbEntity
  8
0
  6
Continuous
 62
     7
370
    25
100
AcDbLine
 10
256.1317124127
 20
233.2235711814
 30
0.0
 11
256.1317124127
 21
232.8234911894
 31
0.0
  0
LINE
  5
29F
330
1F
100
AcDbEntity
  8
0
  6
Continuous
 62
     7
370
    25
100
AcDbLine
 10
256.1237140122
 20
232.4235711654
 30
0.0
 11
256.1317124127
 21
232.8234911894
 31
0.0
  0
LINE
  5
2A0
330
1F
100
AcDbEntity
  8
0
  6
Continuous
 62
     7
370
    25
100
AcDbLine
 10
256.1317124127
 20
233.2235711814
 30
0.0
 11
256.1237140122
 21
232.4235711654
 31
0.0
  0
LINE
  5
2A1
330
1F
100
AcDbEntity
  8
0
  6
Continuous
 62
     7
370
    25
100
AcDbLine
 10
56.1237140122
 20
236.4235711654
 30
0.0
 11
256.1237140122
 21
232.4235711654
 31
0.0
  0
LINE
  5
2A2
330
1F
100
AcDbEntity
  8
0
  6
Continuous
 62
     8
370
    18
100
AcDbLine
 10
256.1317124127
 20
243.6234911894
 30
0.0
 11
56.1317124127
 21
243.6234911894
 31
0.0
  0
LINE
  5
2A3
330
1F
100
AcDbEntity
  8
0
  6
Continuous
 62
     8
370
    18
100
AcDbLine
 10
256.1317124127
 20
233.2235711814
 30
0.0
 11
56.1317124127
 21
237.2235711814
 31
0.0
  0
DIMENSION
  5
2A4
330
1F
100
AcDbEntity
  8
0
  6
Continuous
 62
     7
370
    18
100
AcDbDimension
  2
_D
 10
256.1317124127
 20
252.8190178543
 30
0.0
 11
156.1317124127
 21
252.8190178543
 31
0.0
 70
   160
  1
<>
 71
     2
 42
-1.0
  3
SLDDIMSTYLE0
100
AcDbAlignedDimension
 13
56.1317124127
 23
244.4234911894
 33
0.0
 14
256.1317124127
 24
244.4234911894
 34
0.0
100
AcDbRotatedDimension
  0
LINE
  5
2AF
330
1F
100
AcDbEntity
  8
0
  6
Continuous
 62
     7
370
    25
100
AcDbLine
 10
75.6317124127
 20
207.8133458978
 30
0.0
 11
75.6317124127
 21
206.4533458978
 31
0.0
  0
LINE
  5
2B0
330
1F
100
AcDbEntity
  8
0
  6
Continuous
 62
     7
370
    25
100
AcDbLine
 10
75.6317124127
 20
200.2533458978
 30
0.0
 11
75.6317124127
 21
198.8933458978
 31
0.0
  0
LINE
  5
2B1
330
1F
100
AcDbEntity
  8
0
  6
Continuous
 62
     7
370
    25
100
AcDbLine
 10
76.8317124127
 20
198.8933458978
 30
0.0
 11
76.8317124127
 21
200.2533458978
 31
0.0
  0
LINE
  5
2B2
330
1F
100
AcDbEntity
  8
0
  6
Continuous
 62
     7
370
    25
100
AcDbLine
 10
76.8317124127
 20
206.4533458978
 30
0.0
 11
76.8317124127
 21
207.8133458978
 31
0.0
  0
LINE
  5
2B3
330
1F
100
AcDbEntity
  8
0
  6
Continuous
 62
     7
370
    25
100
AcDbLine
 10
76.8317124127
 20
207.8133458978
 30
0.0
 11
76.8086184019
 21
207.8533458978
 31
0.0
  0
LINE
  5
2B4
330
1F
100
AcDbEntity
  8
0
  6
Continuous
 62
     7
370
    25
100
AcDbLine
 10
75.6548064234
 20
207.8533458978
 30
0.0
 11
75.6317124127
 21
207.8133458978
 31
0.0
  0
LINE
  5
2B5
330
1F
100
AcDbEntity
  8
0
  6
Continuous
 62
     7
370
    25
100
AcDbLine
 10
75.6317124127
 20
198.8933458978
 30
0.0
 11
75.6548064234
 21
198.8533458978
 31
0.0
  0
LINE
  5
2B6
330
1F
100
AcDbEntity
  8
0
  6
Continuous
 62
     7
370
    25
100
AcDbLine
 10
76.8086184019
 20
198.8533458978
 30
0.0
 11
76.8317124127
 21
198.8933458978
 31
0.0
  0
LINE
  5
2B7
330
1F
100
AcDbEntity
  8
0
  6
Continuous
 62
     7
370
    25
100
AcDbLine
 10
235.4317124127
 20
207.8133458978
 30
0.0
 11
235.4317124127
 21
206.4533458978
 31
0.0
  0
LINE
  5
2B8
330
1F
100
AcDbEntity
  8
0
  6
Continuous
 62
     7
370
    25
100
AcDbLine
 10
235.4317124127
 20
200.2533458978
 30
0.0
 11
235.4317124127
 21
198.8933458978
 31
0.0
  0
LINE
  5
2B9
330
1F
100
AcDbEntity
  8
0
  6
Continuous
 62
     7
370
    25
100
AcDbLine
 10
236.6317124127
 20
198.8933458978
 30
0.0
 11
236.6317124127
 21
200.2533458978
 31
0.0
  0
LINE
  5
2BA
330
1F
100
AcDbEntity
  8
0
  6
Continuous
 62
     7
370
    25
100
AcDbLine
 10
236.6317124127
 20
206.4533458978
 30
0.0
 11
236.6317124127
 21
207.8133458978
 31
0.0
  0
LINE
  5
2BB
330
1F
100
AcDbEntity
  8
0
  6
Continuous
 62
     7
370
    25
100
AcDbLine
 10
236.6317124127
 20
207.8133458978
 30
0.0
 11
236.6086184019
 21
207.8533458978
 31
0.0
  0
LINE
  5
2BC
330
1F
100
AcDbEntity
  8
0
  6
Continuous
 62
     7
370
    25
100
AcDbLine
 10
235.4548064234
 20
207.8533458978
 30
0.0
 11
235.4317124127
 21
207.8133458978
 31
0.0
  0
LINE
  5
2BD
330
1F
100
AcDbEntity
  8
0
  6
Continuous
 62
     7
370
    25
100
AcDbLine
 10
235.4317124127
 20
198.8933458978
 30
0.0
 11
235.4548064234
 21
198.8533458978
 31
0.0
  0
LINE
  5
2BE
330
1F
100
AcDbEntity
  8
0
  6
Continuous
 62
     7
370
    25
100
AcDbLine
 10
236.6086184019
 20
198.8533458978
 30
0.0
 11
236.6317124127
 21
198.8933458978
 31
0.0
  0
LINE
  5
2BF
330
1F
100
AcDbEntity
  8
0
  6
Continuous
 62
     7
370
    25
100
AcDbLine
 10
155.3317124127
 20
207.9533458978
 30
0.0
 11
155.3317124127
 21
206.4533458978
 31
0.0
  0
LINE
  5
2C0
330
1F
100
AcDbEntity
  8
0
  6
Continuous
 62
     7
370
    25
100
AcDbLine
 10
155.3317124127
 20
200.2533458978
 30
0.0
 11
155.3317124127
 21
198.7533458978
 31
0.0
  0
LINE
  5
2C1
330
1F
100
AcDbEntity
  8
0
  6
Continuous
 62
     7
370
    25
100
AcDbLine
 10
156.9317124127
 20
198.7533458978
 30
0.0
 11
156.9317124127
 21
200.2533458978
 31
0.0
  0
LINE
  5
2C2
330
1F
100
AcDbEntity
  8
0
  6
Continuous
 62
     7
370
    25
100
AcDbLine
 10
156.9317124127
 20
206.4533458978
 30
0.0
 11
156.9317124127
 21
207.9533458978
 31
0.0
  0
LINE
  5
2C3
330
1F
100
AcDbEntity
  8
0
  6
Continuous
 62
     7
370
    25
100
AcDbLine
 10
59.3317124127
 20
207.9533458978
 30
0.0
 11
59.3317124127
 21
206.4533458978
 31
0.0
  0
LINE
  5
2C4
330
1F
100
AcDbEntity
  8
0
  6
Continuous
 62
     7
370
    25
100
AcDbLine
 10
59.3317124127
 20
200.2533458978
 30
0.0
 11
59.3317124127
 21
198.7533458978
 31
0.0
  0
LINE
  5
2C5
330
1F
100
AcDbEntity
  8
0
  6
Continuous
 62
     7
370
    25
100
AcDbLine
 10
60.9317124127
 20
198.7533458978
 30
0.0
 11
60.9317124127
 21
200.2533458978
 31
0.0
  0
LINE
  5
2C6
330
1F
100
AcDbEntity
  8
0
  6
Continuous
 62
     7
370
    25
100
AcDbLine
 10
60.9317124127
 20
206.4533458978
 30
0.0
 11
60.9317124127
 21
207.9533458978
 31
0.0
  0
LINE
  5
2C7
330
1F
100
AcDbEntity
  8
0
  6
Continuous
 62
     7
370
    25
100
AcDbLine
 10
251.3317124127
 20
207.9533458978
 30
0.0
 11
251.3317124127
 21
206.4533458978
 31
0.0
  0
LINE
  5
2C8
330
1F
100
AcDbEntity
  8
0
  6
Continuous
 62
     7
370
    25
100
AcDbLine
 10
251.3317124127
 20
200.2533458978
 30
0.0
 11
251.3317124127
 21
198.7533458978
 31
0.0
  0
LINE
  5
2C9
330
1F
100
AcDbEntity
  8
0
  6
Continuous
 62
     7
370
    25
100
AcDbLine
 10
252.9317124127
 20
198.7533458978
 30
0.0
 11
252.9317124127
 21
200.2533458978
 31
0.0
  0
LINE
  5
2CA
330
1F
100
AcDbEntity
  8
0
  6
Continuous
 62
     7
370
    25
100
AcDbLine
 10
252.9317124127
 20
206.4533458978
 30
0.0
 11
252.9317124127
 21
207.9533458978
 31
0.0
  0
LINE
  5
2CB
330
1F
100
AcDbEntity
  8
0
  6
Continuous
 62
     7
370
    25
100
AcDbLine
 10
76.8317124127
 20
207.8133458978
 30
0.0
 11
75.6317124127
 21
207.8133458978
 31
0.0
  0
LINE
  5
2CC
330
1F
100
AcDbEntity
  8
0
  6
Continuous
 62
     7
370
    25
100
AcDbLine
 10
75.6317124127
 20
198.8933458978
 30
0.0
 11
76.8317124127
 21
198.8933458978
 31
0.0
  0
LINE
  5
2CD
330
1F
100
AcDbEntity
  8
0
  6
Continuous
 62
     7
370
    25
100
AcDbLine
 10
75.6548064234
 20
207.8533458978
 30
0.0
 11
76.8086184019
 21
207.8533458978
 31
0.0
  0
LINE
  5
2CE
330
1F
100
AcDbEntity
  8
0
  6
Continuous
 62
     7
370
    25
100
AcDbLine
 10
76.8086184019
 20
198.8533458978
 30
0.0
 11
75.6548064234
 21
198.8533458978
 31
0.0
  0
LINE
  5
2CF
330
1F
100
AcDbEntity
  8
0
  6
Continuous
 62
     7
370
    25
100
AcDbLine
 10
236.6317124127
 20
207.8133458978
 30
0.0
 11
235.4317124127
 21
207.8133458978
 31
0.0
  0
LINE
  5
2D0
330
1F
100
AcDbEntity
  8
0
  6
Continuous
 62
     7
370
    25
100
AcDbLine
 10
235.4317124127
 20
198.8933458978
 30
0.0
 11
236.6317124127
 21
198.8933458978
 31
0.0
  0
LINE
  5
2D1
330
1F
100
AcDbEntity
  8
0
  6
Continuous
 62
     7
370
    25
100
AcDbLine
 10
235.4548064234
 20
207.8533458978
 30
0.0
 11
236.6086184019
 21
207.8533458978
 31
0.0
  0
LINE
  5
2D2
330
1F
100
AcDbEntity
  8
0
  6
Continuous
 62
     7
370
    25
100
AcDbLine
 10
236.6086184019
 20
198.8533458978
 30
0.0
 11
235.4548064234
 21
198.8533458978
 31
0.0
  0
LINE
  5
2D3
330
1F
100
AcDbEntity
  8
0
  6
Continuous
 62
     7
370
    25
100
AcDbLine
 10
56.2317124127
 20
206.4533458978
 30
0.0
 11
256.0317124127
 21
206.4533458978
 31
0.0
  0
LINE
  5
2D4
330
1F
100
AcDbEntity
  8
0
  6
Continuous
 62
     7
370
    25
100
AcDbLine
 10
56.2317124127
 20
206.4533458978
 30
0.0
 11
56.2317124127
 21
205.6533458978
 31
0.0
  0
LINE
  5
2D5
330
1F
100
AcDbEntity
  8
0
  6
Continuous
 62
     7
370
    25
100
AcDbLine
 10
256.0317124127
 20
206.4533458978
 30
0.0
 11
256.0317124127
 21
205.6533458978
 31
0.0
  0
LINE
  5
2D6
330
1F
100
AcDbEntity
  8
0
  6
Continuous
 62
     7
370
    25
100
AcDbLine
 10
256.0317124127
 20
205.6533458978
 30
0.0
 11
256.0317124127
 21
201.0533458978
 31
0.0
  0
LINE
  5
2D7
330
1F
100
AcDbEntity
  8
0
  6
Continuous
 62
     7
370
    25
100
AcDbLine
 10
56.2317124127
 20
205.6533458978
 30
0.0
 11
56.2317124127
 21
201.0533458978
 31
0.0
  0
LINE
  5
2D8
330
1F
100
AcDbEntity
  8
0
  6
Continuous
 62
     7
370
    25
100
AcDbLine
 10
56.2317124127
 20
200.2533458978
 30
0.0
 11
256.0317124127
 21
200.2533458978
 31
0.0
  0
LINE
  5
2D9
330
1F
100
AcDbEntity
  8
0
  6
Continuous
 62
     7
370
    25
100
AcDbLine
 10
256.0317124127
 20
201.0533458978
 30
0.0
 11
256.0317124127
 21
200.2533458978
 31
0.0
  0
LINE
  5
2DA
330
1F
100
AcDbEntity
  8
0
  6
Continuous
 62
     7
370
    25
100
AcDbLine
 10
56.2317124127
 20
201.0533458978
 30
0.0
 11
56.2317124127
 21
200.2533458978
 31
0.0
  0
LINE
  5
2DB
330
1F
100
AcDbEntity
  8
0
  6
Continuous
 62
     7
370
    25
100
AcDbLine
 10
56.1317124127
 20
211.5533458978
 30
0.0
 11
256.1317124127
 21
211.5533458978
 31
0.0
  0
LINE
  5
2DC
330
1F
100
AcDbEntity
  8
0
  6
Continuous
 62
     7
370
    25
100
AcDbLine
 10
56.1317124127
 20
211.5533458978
 30
0.0
 11
56.1317124127
 21
210.7533458978
 31
0.0
  0
LINE
  5
2DD
330
1F
100
AcDbEntity
  8
0
  6
Continuous
 62
     7
370
    25
100
AcDbLine
 10
256.1317124127
 20
210.7533458978
 30
0.0
 11
256.1317124127
 21
211.5533458978
 31
0.0
  0
LINE
  5
2DE
330
1F
100
AcDbEntity
  8
0
  6
Continuous
 62
     7
370
    25
100
AcDbLine
 10
56.1317124127
 20
208.7533458978
 30
0.0
 11
56.1317124127
 21
210.7533458978
 31
0.0
  0
LINE
  5
2DF
330
1F
100
AcDbEntity
  8
0
  6
Continuous
 62
     7
370
    25
100
AcDbLine
 10
256.1317124127
 20
208.7533458978
 30
0.0
 11
256.1317124127
 21
210.7533458978
 31
0.0
  0
LINE
  5
2E0
330
1F
100
AcDbEntity
  8
0
  6
Continuous
 62
     7
370
    25
100
AcDbLine
 10
256.1317124127
 20
207.9533458978
 30
0.0
 11
56.1317124127
 21
207.9533458978
 31
0.0
  0
LINE
  5
2E1
330
1F
100
AcDbEntity
  8
0
  6
Continuous
 62
     7
370
    25
100
AcDbLine
 10
56.1317124127
 20
208.7533458978
 30
0.0
 11
56.1317124127
 21
207.9533458978
 31
0.0
  0
LINE
  5
2E2
330
1F
100
AcDbEntity
  8
0
  6
Continuous
 62
     7
370
    25
100
AcDbLine
 10
256.1317124127
 20
207.9533458978
 30
0.0
 11
256.1317124127
 21
208.7533458978
 31
0.0
  0
LINE
  5
2E3
330
1F
100
AcDbEntity
  8
0
  6
Continuous
 62
     7
370
    25
100
AcDbLine
 10
56.1317124127
 20
198.7533458978
 30
0.0
 11
256.1317124127
 21
198.7533458978
 31
0.0
  0
LINE
  5
2E4
330
1F
100
AcDbEntity
  8
0
  6
Continuous
 62
     7
370
    25
100
AcDbLine
 10
56.1317124127
 20
198.7533458978
 30
0.0
 11
56.1317124127
 21
197.9533458978
 31
0.0
  0
LINE
  5
2E5
330
1F
100
AcDbEntity
  8
0
  6
Continuous
 62
     7
370
    25
100
AcDbLine
 10
256.1317124127
 20
197.9533458978
 30
0.0
 11
256.1317124127
 21
198.7533458978
 31
0.0
  0
LINE
  5
2E6
330
1F
100
AcDbEntity
  8
0
  6
Continuous
 62
     7
370
    25
100
AcDbLine
 10
56.1317124127
 20
195.9533458978
 30
0.0
 11
56.1317124127
 21
197.9533458978
 31
0.0
  0
LINE
  5
2E7
330
1F
100
AcDbEntity
  8
0
  6
Continuous
 62
     7
370
    25
100
AcDbLine
 10
256.1317124127
 20
195.9533458978
 30
0.0
 11
256.1317124127
 21
197.9533458978
 31
0.0
  0
LINE
  5
2E8
330
1F
100
AcDbEntity
  8
0
  6
Continuous
 62
     7
370
    25
100
AcDbLine
 10
256.1317124127
 20
195.1533458978
 30
0.0
 11
56.1317124127
 21
195.1533458978
 31
0.0
  0
LINE
  5
2E9
330
1F
100
AcDbEntity
  8
0
  6
Continuous
 62
     7
370
    25
100
AcDbLine
 10
56.1317124127
 20
195.9533458978
 30
0.0
 11
56.1317124127
 21
195.1533458978
 31
0.0
  0
LINE
  5
2EA
330
1F
100
AcDbEntity
  8
0
  6
Continuous
 62
     7
370
    25
100
AcDbLine
 10
256.1317124127
 20
195.1533458978
 30
0.0
 11
256.1317124127
 21
195.9533458978
 31
0.0
  0
LINE
  5
2EB
330
1F
100
AcDbEntity
  8
0
  6
Continuous
 62
     7
370
    25
100
AcDbLine
 10
56.1317124127
 20
199.1533458978
 30
0.0
 11
56.1317124127
 21
198.7533458978
 31
0.0
  0
ELLIPSE
  5
2EC
330
1F
100
AcDbEntity
  8
0
  6
Continuous
 62
     7
370
    25
100
AcDbEllipse
 10
56.1317124127
 20
199.1533458978
 30
0.0
 11
0.0
 21
0.8000000000000114
 31
0.0
210
0.0
220
0.0
230
1.0
 40
0.0099980006
 41
1.570796326794897
 42
3.141592653589781
  0
ELLIPSE
  5
2ED
330
1F
100
AcDbEntity
  8
0
  6
Continuous
 62
     7
370
    25
100
AcDbEllipse
 10
56.1317124127
 20
207.5533458978
 30
0.0
 11
0.0
 21
0.7999999999999829
 31
0.0
210
0.0
220
0.0
230
1.0
 40
0.0099980006
 41
0.0
 42
1.570796326794897
  0
LINE
  5
2EE
330
1F
100
AcDbEntity
  8
0
  6
Continuous
 62
     7
370
    25
100
AcDbLine
 10
56.1317124127
 20
207.9533458978
 30
0.0
 11
56.1317124127
 21
207.5533458978
 31
0.0
  0
LINE
  5
2EF
330
1F
100
AcDbEntity
  8
0
  6
Continuous
 62
     7
370
    25
100
AcDbLine
 10
256.1317124127
 20
207.5533458978
 30
0.0
 11
256.1317124127
 21
207.9533458978
 31
0.0
  0
LINE
  5
2F0
330
1F
100
AcDbEntity
  8
0
  6
Continuous
 62
     7
370
    25
100
AcDbLine
 10
256.1317124127
 20
198.7533458978
 30
0.0
 11
256.1317124127
 21
199.1533458978
 31
0.0
  0
LINE
  5
2F1
330
1F
100
AcDbEntity
  8
0
  6
Continuous
 62
     7
370
    25
100
AcDbLine
 10
256.1317124127
 20
199.1533458978
 30
0.0
 11
256.1317124127
 21
203.3533458978
 31
0.0
  0
LINE
  5
2F2
330
1F
100
AcDbEntity
  8
0
  6
Continuous
 62
     7
370
    25
100
AcDbLine
 10
56.1317124127
 20
199.1533458978
 30
0.0
 11
56.1317124127
 21
203.3533458978
 31
0.0
  0
LINE
  5
2F3
330
1F
100
AcDbEntity
  8
0
  6
Continuous
 62
     7
370
    25
100
AcDbLine
 10
56.1317124127
 20
203.3533458978
 30
0.0
 11
56.1317124127
 21
207.5533458978
 31
0.0
  0
LINE
  5
2F4
330
1F
100
AcDbEntity
  8
0
  6
Continuous
 62
     7
370
    25
100
AcDbLine
 10
256.1317124127
 20
203.3533458978
 30
0.0
 11
256.1317124127
 21
207.5533458978
 31
0.0
  0
LINE
  5
2F5
330
1F
100
AcDbEntity
  8
0
  6
Continuous
 62
     7
370
    25
100
AcDbLine
 10
56.1237140122
 20
203.3533458978
 30
0.0
 11
56.1237140122
 21
207.5533458978
 31
0.0
  0
LINE
  5
2F6
330
1F
100
AcDbEntity
  8
0
  6
Continuous
 62
     7
370
    25
100
AcDbLine
 10
56.1237140122
 20
199.1533458978
 30
0.0
 11
56.1237140122
 21
203.3533458978
 31
0.0
  0
LINE
  5
2F7
330
1F
100
AcDbEntity
  8
0
  6
Continuous
 62
     8
370
    18
100
AcDbLine
 10
56.2317124127
 20
205.6533458978
 30
0.0
 11
256.0317124127
 21
205.6533458978
 31
0.0
  0
LINE
  5
2F8
330
1F
100
AcDbEntity
  8
0
  6
Continuous
 62
     8
370
    18
100
AcDbLine
 10
56.2317124127
 20
201.0533458978
 30
0.0
 11
256.0317124127
 21
201.0533458978
 31
0.0
  0
LINE
  5
2F9
330
1F
100
AcDbEntity
  8
0
  6
Continuous
 62
     8
370
    18
100
AcDbLine
 10
256.1317124127
 20
210.7533458978
 30
0.0
 11
56.1317124127
 21
210.7533458978
 31
0.0
  0
LINE
  5
2FA
330
1F
100
AcDbEntity
  8
0
  6
Continuous
 62
     8
370
    18
100
AcDbLine
 10
56.1317124127
 20
208.7533458978
 30
0.0
 11
256.1317124127
 21
208.7533458978
 31
0.0
  0
LINE
  5
2FB
330
1F
100
AcDbEntity
  8
0
  6
Continuous
 62
     8
370
    18
100
AcDbLine
 10
256.1317124127
 20
197.9533458978
 30
0.0
 11
56.1317124127
 21
197.9533458978
 31
0.0
  0
LINE
  5
2FC
330
1F
100
AcDbEntity
  8
0
  6
Continuous
 62
     8
370
    18
100
AcDbLine
 10
56.1317124127
 20
195.9533458978
 30
0.0
 11
256.1317124127
 21
195.9533458978
 31
0.0
  0
LINE
  5
2FD
330
1F
100
AcDbEntity
  8
0
  6
Continuous
 62
     8
370
    18
100
AcDbLine
 10
56.1237140122
 20
199.1533458978
 30
0.0
 11
56.1317124127
 21
199.1533458978
 31
0.0
  0
LINE
  5
2FE
330
1F
100
AcDbEntity
  8
0
  6
Continuous
 62
     8
370
    18
100
AcDbLine
 10
56.1237140122
 20
207.5533458978
 30
0.0
 11
56.1317124127
 21
207.5533458978
 31
0.0
  0
LINE
  5
2FF
330
1F
100
AcDbEntity
  8
0
  6
Continuous
 62
     8
370
    18
100
AcDbLine
 10
256.1317124127
 20
207.5533458978
 30
0.0
 11
252.9317124127
 21
207.5533458978
 31
0.0
  0
LINE
  5
300
330
1F
100
AcDbEntity
  8
0
  6
Continuous
 62
     8
370
    18
100
AcDbLine
 10
251.3317124127
 20
207.5533458978
 30
0.0
 11
236.6317124127
 21
207.5533458978
 31
0.0
  0
LINE
  5
301
330
1F
100
AcDbEntity
  8
0
  6
Continuous
 62
     8
370
    18
100
AcDbLine
 10
235.4317124127
 20
207.5533458978
 30
0.0
 11
156.9317124127
 21
207.5533458978
 31
0.0
  0
LINE
  5
302
330
1F
100
AcDbEntity
  8
0
  6
Continuous
 62
     8
370
    18
100
AcDbLine
 10
155.3317124127
 20
207.5533458978
 30
0.0
 11
76.8317124127
 21
207.5533458978
 31
0.0
  0
LINE
  5
303
330
1F
100
AcDbEntity
  8
0
  6
Continuous
 62
     8
370
    18
100
AcDbLine
 10
75.6317124127
 20
207.5533458978
 30
0.0
 11
60.9317124127
 21
207.5533458978
 31
0.0
  0
LINE
  5
304
330
1F
100
AcDbEntity
  8
0
  6
Continuous
 62
     8
370
    18
100
AcDbLine
 10
59.3317124127
 20
207.5533458978
 30
0.0
 11
56.1317124127
 21
207.5533458978
 31
0.0
  0
LINE
  5
305
330
1F
100
AcDbEntity
  8
0
  6
Continuous
 62
     8
370
    18
100
AcDbLine
 10
56.1317124127
 20
199.1533458978
 30
0.0
 11
59.3317124127
 21
199.1533458978
 31
0.0
  0
LINE
  5
306
330
1F
100
AcDbEntity
  8
0
  6
Continuous
 62
     8
370
    18
100
AcDbLine
 10
60.9317124127
 20
199.1533458978
 30
0.0
 11
75.6317124127
 21
199.1533458978
 31
0.0
  0
LINE
  5
307
330
1F
100
AcDbEntity
  8
0
  6
Continuous
 62
     8
370
    18
100
AcDbLine
 10
76.8317124127
 20
199.1533458978
 30
0.0
 11
155.3317124127
 21
199.1533458978
 31
0.0
  0
LINE
  5
308
330
1F
100
AcDbEntity
  8
0
  6
Continuous
 62
     8
370
    18
100
AcDbLine
 10
156.9317124127
 20
199.1533458978
 30
0.0
 11
235.4317124127
 21
199.1533458978
 31
0.0
  0
LINE
  5
309
330
1F
100
AcDbEntity
  8
0
  6
Continuous
 62
     8
370
    18
100
AcDbLine
 10
236.6317124127
 20
199.1533458978
 30
0.0
 11
251.3317124127
 21
199.1533458978
 31
0.0
  0
LINE
  5
30A
330
1F
100
AcDbEntity
  8
0
  6
Continuous
 62
     8
370
    18
100
AcDbLine
 10
252.9317124127
 20
199.1533458978
 30
0.0
 11
256.1317124127
 21
199.1533458978
 31
0.0
  0
LINE
  5
30B
330
1F
100
AcDbEntity
  8
0
  6
Continuous
 62
     8
370
    18
100
AcDbLine
 10
56.1237140122
 20
203.3533458978
 30
0.0
 11
56.1317124127
 21
203.3533458978
 31
0.0
  0
LINE
  5
30C
330
1F
100
AcDbEntity
  8
0
  6
Continuous
 62
     7
370
    25
100
AcDbLine
 10
354.7910194297
 20
173.3576965928
 30
0.0
 11
354.5910194297
 21
173.4731666467
 31
0.0
  0
LINE
  5
30D
330
1F
100
AcDbEntity
  8
0
  6
Continuous
 62
     7
370
    25
100
AcDbLine
 10
354.5910194297
 20
173.4731666467
 30
0.0
 11
347.7910194297
 21
173.4731666467
 31
0.0
  0
LINE
  5
30E
330
1F
100
AcDbEntity
  8
0
  6
Continuous
 62
     7
370
    25
100
AcDbLine
 10
345.7910194297
 20
173.4731666467
 30
0.0
 11
318.7910194297
 21
173.4731666467
 31
0.0
  0
LINE
  5
30F
330
1F
100
AcDbEntity
  8
0
  6
Continuous
 62
     7
370
    25
100
AcDbLine
 10
316.7910194297
 20
173.4731666467
 30
0.0
 11
309.9910194297
 21
173.4731666467
 31
0.0
  0
LINE
  5
310
330
1F
100
AcDbEntity
  8
0
  6
Continuous
 62
     7
370
    25
100
AcDbLine
 10
309.9910194297
 20
173.4731666467
 30
0.0
 11
309.7910194297
 21
173.3576965928
 31
0.0
  0
LINE
  5
311
330
1F
100
AcDbEntity
  8
0
  6
Continuous
 62
     7
370
    25
100
AcDbLine
 10
309.2910194297
 20
162.9731666467
 30
0.0
 11
355.2910194297
 21
162.9731666467
 31
0.0
  0
LINE
  5
312
330
1F
100
AcDbEntity
  8
0
  6
Continuous
 62
     7
370
    25
100
AcDbLine
 10
355.2910194297
 20
170.9731666467
 30
0.0
 11
347.7910194297
 21
170.9731666467
 31
0.0
  0
LINE
  5
313
330
1F
100
AcDbEntity
  8
0
  6
Continuous
 62
     7
370
    25
100
AcDbLine
 10
345.7910194297
 20
170.9731666467
 30
0.0
 11
318.7910194297
 21
170.9731666467
 31
0.0
  0
LINE
  5
314
330
1F
100
AcDbEntity
  8
0
  6
Continuous
 62
     7
370
    25
100
AcDbLine
 10
316.7910194297
 20
170.9731666467
 30
0.0
 11
309.2910194297
 21
170.9731666467
 31
0.0
  0
LINE
  5
315
330
1F
100
AcDbEntity
  8
0
  6
Continuous
 62
     7
370
    25
100
AcDbLine
 10
354.7910194297
 20
173.3576965928
 30
0.0
 11
354.7910194297
 21
170.9731666467
 31
0.0
  0
LINE
  5
316
330
1F
100
AcDbEntity
  8
0
  6
Continuous
 62
     7
370
    25
100
AcDbLine
 10
354.5910194297
 20
170.9731666467
 30
0.0
 11
354.5910194297
 21
173.4731666467
 31
0.0
  0
LINE
  5
317
330
1F
100
AcDbEntity
  8
0
  6
Continuous
 62
     7
370
    25
100
AcDbLine
 10
309.9910194297
 20
173.4731666467
 30
0.0
 11
309.9910194297
 21
170.9731666467
 31
0.0
  0
LINE
  5
318
330
1F
100
AcDbEntity
  8
0
  6
Continuous
 62
     7
370
    25
100
AcDbLine
 10
309.7910194297
 20
170.9731666467
 30
0.0
 11
309.7910194297
 21
173.3576965928
 31
0.0
  0
LINE
  5
319
330
1F
100
AcDbEntity
  8
0
  6
Continuous
 62
     7
370
    25
100
AcDbLine
 10
318.7910194297
 20
163.4731666467
 30
0.0
 11
316.7910194297
 21
163.4731666467
 31
0.0
  0
LINE
  5
31A
330
1F
100
AcDbEntity
  8
0
  6
Continuous
 62
     7
370
    25
100
AcDbLine
 10
316.7910194297
 20
163.4731666467
 30
0.0
 11
316.7910194297
 21
179.4731666467
 31
0.0
  0
LINE
  5
31B
330
1F
100
AcDbEntity
  8
0
  6
Continuous
 62
     7
370
    25
100
AcDbLine
 10
318.7910194297
 20
163.4731666467
 30
0.0
 11
318.7910194297
 21
179.4731666467
 31
0.0
  0
ARC
  5
31C
330
1F
100
AcDbEntity
  8
0
  6
Continuous
 62
     7
370
    25
100
AcDbCircle
 10
320.7910194297
 20
179.4731666467
 30
0.0
 40
4.0
100
AcDbArc
 50
90.0
 51
180.0
  0
ARC
  5
31D
330
1F
100
AcDbEntity
  8
0
  6
Continuous
 62
     7
370
    25
100
AcDbCircle
 10
320.7910194297
 20
179.4731666467
 30
0.0
 40
2.0
100
AcDbArc
 50
90.0
 51
180.0
  0
LINE
  5
31E
330
1F
100
AcDbEntity
  8
0
  6
Continuous
 62
     7
370
    25
100
AcDbLine
 10
345.7910194297
 20
179.4731666467
 30
0.0
 11
345.7910194297
 21
163.4731666467
 31
0.0
  0
LINE
  5
31F
330
1F
100
AcDbEntity
  8
0
  6
Continuous
 62
     7
370
    25
100
AcDbLine
 10
347.7910194297
 20
163.4731666467
 30
0.0
 11
345.7910194297
 21
163.4731666467
 31
0.0
  0
LINE
  5
320
330
1F
100
AcDbEntity
  8
0
  6
Continuous
 62
     7
370
    25
100
AcDbLine
 10
347.7910194297
 20
179.4731666467
 30
0.0
 11
347.7910194297
 21
163.4731666467
 31
0.0
  0
LINE
  5
321
330
1F
100
AcDbEntity
  8
0
  6
Continuous
 62
     7
370
    25
100
AcDbLine
 10
320.7910194297
 20
181.4731666467
 30
0.0
 11
343.7910194297
 21
181.4731666467
 31
0.0
  0
LINE
  5
322
330
1F
100
AcDbEntity
  8
0
  6
Continuous
 62
     7
370
    25
100
AcDbLine
 10
320.7910194297
 20
183.4731666467
 30
0.0
 11
343.7910194297
 21
183.4731666467
 31
0.0
  0
ARC
  5
323
330
1F
100
AcDbEntity
  8
0
  6
Continuous
 62
     7
370
    25
100
AcDbCircle
 10
343.7910194297
 20
179.4731666467
 30
0.0
 40
2.0
100
AcDbArc
 50
0.0
 51
90.0
  0
ARC
  5
324
330
1F
100
AcDbEntity
  8
0
  6
Continuous
 62
     7
370
    25
100
AcDbCircle
 10
343.7910194297
 20
179.4731666467
 30
0.0
 40
4.0
100
AcDbArc
 50
0.0
 51
90.0
  0
LINE
  5
325
330
1F
100
AcDbEntity
  8
0
  6
Continuous
 62
     7
370
    25
100
AcDbLine
 10
353.2910194297
 20
145.4731666467
 30
0.0
 11
332.2910194297
 21
145.4731666467
 31
0.0
  0
LINE
  5
326
330
1F
100
AcDbEntity
  8
0
  6
Continuous
 62
     7
370
    25
100
AcDbLine
 10
353.2910194297
 20
143.4735665267
 30
0.0
 11
332.2910194297
 21
143.4735665267
 31
0.0
  0
LINE
  5
327
330
1F
100
AcDbEntity
  8
0
  6
Continuous
 62
     7
370
    25
100
AcDbLine
 10
332.2910194297
 20
143.4735665267
 30
0.0
 11
311.2910194297
 21
143.4735665267
 31
0.0
  0
LINE
  5
328
330
1F
100
AcDbEntity
  8
0
  6
Continuous
 62
     7
370
    25
100
AcDbLine
 10
353.2910194297
 20
123.4735665267
 30
0.0
 11
332.2910194297
 21
123.4735665267
 31
0.0
  0
LINE
  5
329
330
1F
100
AcDbEntity
  8
0
  6
Continuous
 62
     7
370
    25
100
AcDbLine
 10
332.2910194297
 20
123.4735665267
 30
0.0
 11
311.2910194297
 21
123.4735665267
 31
0.0
  0
LINE
  5
32A
330
1F
100
AcDbEntity
  8
0
  6
Continuous
 62
     7
370
    25
100
AcDbLine
 10
332.2910194297
 20
145.4731666467
 30
0.0
 11
311.2910194297
 21
145.4731666467
 31
0.0
  0
ELLIPSE
  5
32B
330
1F
100
AcDbEntity
  8
0
  6
Continuous
 62
     7
370
    25
100
AcDbEllipse
 10
311.2910194297
 20
147.4735666067
 30
0.0
 11
0.0
 21
2.000399960007968
 31
0.0
210
0.0
220
0.0
230
1.0
 40
0.99980006
 41
1.570796326794897
 42
3.141592653589793
  0
ARC
  5
32C
330
1F
100
AcDbEntity
  8
0
  6
Continuous
 62
     7
370
    25
100
AcDbCircle
 10
311.2910194297
 20
147.4735666067
 30
0.0
 40
4.000000079968061
100
AcDbArc
 50
180.0
 51
270.0
  0
ELLIPSE
  5
32D
330
1F
100
AcDbEntity
  8
0
  6
Continuous
 62
     7
370
    25
100
AcDbEllipse
 10
353.2910194297
 20
147.4735666067
 30
0.0
 11
0.0
 21
2.000399960007996
 31
0.0
210
0.0
220
0.0
230
1.0
 40
0.99980006
 41
3.141592653589793
 42
4.712388980384704
  0
ARC
  5
32E
330
1F
100
AcDbEntity
  8
0
  6
Continuous
 62
     7
370
    25
100
AcDbCircle
 10
353.2910194297
 20
147.4735666067
 30
0.0
 40
4.000000079968004
100
AcDbArc
 50
270.0
 51
0.0
  0
LINE
  5
32F
330
1F
100
AcDbEntity
  8
0
  6
Continuous
 62
     7
370
    25
100
AcDbLine
 10
357.2910194297
 20
127.4735666067
 30
0.0
 11
357.2910194297
 21
147.4735666067
 31
0.0
  0
ARC
  5
330
330
1F
100
AcDbEntity
  8
0
  6
Continuous
 62
     7
370
    25
100
AcDbCircle
 10
353.2910194297
 20
127.4735666067
 30
0.0
 40
4.000000079968018
100
AcDbArc
 50
270.0
 51
0.0
  0
ARC
  5
331
330
1F
100
AcDbEntity
  8
0
  6
Continuous
 62
     7
370
    25
100
AcDbCircle
 10
311.2910194297
 20
127.4735666067
 30
0.0
 40
4.000000079968018
100
AcDbArc
 50
180.0
 51
270.0
  0
LINE
  5
332
330
1F
100
AcDbEntity
  8
0
  6
Continuous
 62
     7
370
    25
100
AcDbLine
 10
307.2910194297
 20
147.4735666067
 30
0.0
 11
307.2910194297
 21
127.4735666067
 31
0.0
  0
LINE
  5
333
330
1F
100
AcDbEntity
  8
0
  6
Continuous
 62
     7
370
    25
100
AcDbLine
 10
355.2910194297
 20
179.4731666467
 30
0.0
 11
355.2910194297
 21
147.4735666067
 31
0.0
  0
LINE
  5
334
330
1F
100
AcDbEntity
  8
0
  6
Continuous
 62
     7
370
    25
100
AcDbLine
 10
357.2910194297
 20
179.4731666467
 30
0.0
 11
357.2910194297
 21
147.4735666067
 31
0.0
  0
LINE
  5
335
330
1F
100
AcDbEntity
  8
0
  6
Continuous
 62
     7
370
    25
100
AcDbLine
 10
291.2910194297
 20
179.4731666467
 30
0.0
 11
291.2910194297
 21
171.4731666467
 31
0.0
  0
LINE
  5
336
330
1F
100
AcDbEntity
  8
0
  6
Continuous
 62
     7
370
    25
100
AcDbLine
 10
293.2910194297
 20
179.4731666467
 30
0.0
 11
293.2910194297
 21
171.4731666467
 31
0.0
  0
LINE
  5
337
330
1F
100
AcDbEntity
  8
0
  6
Continuous
 62
     7
370
    25
100
AcDbLine
 10
293.2910194297
 20
171.4731666467
 30
0.0
 11
291.2910194297
 21
171.4731666467
 31
0.0
  0
ARC
  5
338
330
1F
100
AcDbEntity
  8
0
  6
Continuous
 62
     7
370
    25
100
AcDbCircle
 10
295.2910194297
 20
179.4731666467
 30
0.0
 40
2.0
100
AcDbArc
 50
90.0
 51
180.0
  0
ARC
  5
339
330
1F
100
AcDbEntity
  8
0
  6
Continuous
 62
     7
370
    25
100
AcDbCircle
 10
295.2910194297
 20
179.4731666467
 30
0.0
 40
4.0
100
AcDbArc
 50
90.0
 51
180.0
  0
ARC
  5
33A
330
1F
100
AcDbEntity
  8
0
  6
Continuous
 62
     7
370
    25
100
AcDbCircle
 10
305.2910194297
 20
179.4731666467
 30
0.0
 40
2.0
100
AcDbArc
 50
0.0
 51
90.0
  0
ARC
  5
33B
330
1F
100
AcDbEntity
  8
0
  6
Continuous
 62
     7
370
    25
100
AcDbCircle
 10
305.2910194297
 20
179.4731666467
 30
0.0
 40
4.0
100
AcDbArc
 50
0.0
 51
90.0
  0
LINE
  5
33C
330
1F
100
AcDbEntity
  8
0
  6
Continuous
 62
     7
370
    25
100
AcDbLine
 10
309.2910194297
 20
147.4735666067
 30
0.0
 11
309.2910194297
 21
179.4731666467
 31
0.0
  0
LINE
  5
33D
330
1F
100
AcDbEntity
  8
0
  6
Continuous
 62
     7
370
    25
100
AcDbLine
 10
307.2910194297
 20
147.4735666067
 30
0.0
 11
307.2910194297
 21
179.4731666467
 31
0.0
  0
LINE
  5
33E
330
1F
100
AcDbEntity
  8
0
  6
Continuous
 62
     7
370
    25
100
AcDbLine
 10
369.2910194297
 20
181.4731666467
 30
0.0
 11
359.2910194297
 21
181.4731666467
 31
0.0
  0
LINE
  5
33F
330
1F
100
AcDbEntity
  8
0
  6
Continuous
 62
     7
370
    25
100
AcDbLine
 10
369.2910194297
 20
183.4731666467
 30
0.0
 11
359.2910194297
 21
183.4731666467
 31
0.0
  0
ARC
  5
340
330
1F
100
AcDbEntity
  8
0
  6
Continuous
 62
     7
370
    25
100
AcDbCircle
 10
369.2910194297
 20
179.4731666467
 30
0.0
 40
2.0
100
AcDbArc
 50
0.0
 51
90.0
  0
ARC
  5
341
330
1F
100
AcDbEntity
  8
0
  6
Continuous
 62
     7
370
    25
100
AcDbCircle
 10
369.2910194297
 20
179.4731666467
 30
0.0
 40
4.0
100
AcDbArc
 50
0.0
 51
90.0
  0
LINE
  5
342
330
1F
100
AcDbEntity
  8
0
  6
Continuous
 62
     7
370
    25
100
AcDbLine
 10
371.2910194297
 20
171.4731666467
 30
0.0
 11
373.2910194297
 21
171.4731666467
 31
0.0
  0
LINE
  5
343
330
1F
100
AcDbEntity
  8
0
  6
Continuous
 62
     7
370
    25
100
AcDbLine
 10
371.2910194297
 20
171.4731666467
 30
0.0
 11
371.2910194297
 21
179.4731666467
 31
0.0
  0
LINE
  5
344
330
1F
100
AcDbEntity
  8
0
  6
Continuous
 62
     7
370
    25
100
AcDbLine
 10
373.2910194297
 20
171.4731666467
 30
0.0
 11
373.2910194297
 21
179.4731666467
 31
0.0
  0
LINE
  5
345
330
1F
100
AcDbEntity
  8
0
  6
Continuous
 62
     7
370
    25
100
AcDbLine
 10
305.2910194297
 20
181.4731666467
 30
0.0
 11
295.2910194297
 21
181.4731666467
 31
0.0
  0
LINE
  5
346
330
1F
100
AcDbEntity
  8
0
  6
Continuous
 62
     7
370
    25
100
AcDbLine
 10
305.2910194297
 20
183.4731666467
 30
0.0
 11
295.2910194297
 21
183.4731666467
 31
0.0
  0
ARC
  5
347
330
1F
100
AcDbEntity
  8
0
  6
Continuous
 62
     7
370
    25
100
AcDbCircle
 10
359.2910194297
 20
179.4731666467
 30
0.0
 40
4.0
100
AcDbArc
 50
90.0
 51
180.0
  0
ARC
  5
348
330
1F
100
AcDbEntity
  8
0
  6
Continuous
 62
     7
370
    25
100
AcDbCircle
 10
359.2910194297
 20
179.4731666467
 30
0.0
 40
2.0
100
AcDbArc
 50
90.0
 51
180.0
  0
LINE
  5
349
330
1F
100
AcDbEntity
  8
0
  6
Continuous
 62
     8
370
    18
100
AcDbLine
 10
318.7910194297
 20
179.4731666467
 30
0.0
 11
316.7910194297
 21
179.4731666467
 31
0.0
  0
LINE
  5
34A
330
1F
100
AcDbEntity
  8
0
  6
Continuous
 62
     8
370
    18
100
AcDbLine
 10
320.7910194297
 20
183.4731666467
 30
0.0
 11
320.7910194297
 21
181.4731666467
 31
0.0
  0
LINE
  5
34B
330
1F
100
AcDbEntity
  8
0
  6
Continuous
 62
     8
370
    18
100
AcDbLine
 10
347.7910194297
 20
179.4731666467
 30
0.0
 11
345.7910194297
 21
179.4731666467
 31
0.0
  0
LINE
  5
34C
330
1F
100
AcDbEntity
  8
0
  6
Continuous
 62
     8
370
    18
100
AcDbLine
 10
343.7910194297
 20
181.4731666467
 30
0.0
 11
343.7910194297
 21
183.4731666467
 31
0.0
  0
LINE
  5
34D
330
1F
100
AcDbEntity
  8
0
  6
Continuous
 62
     8
370
    18
100
AcDbLine
 10
353.2910194297
 20
143.4735665267
 30
0.0
 11
353.2910194297
 21
145.4731666467
 31
0.0
  0
LINE
  5
34E
330
1F
100
AcDbEntity
  8
0
  6
Continuous
 62
     8
370
    18
100
AcDbLine
 10
332.2910194297
 20
143.4735665267
 30
0.0
 11
332.2910194297
 21
145.4731666467
 31
0.0
  0
LINE
  5
34F
330
1F
100
AcDbEntity
  8
0
  6
Continuous
 62
     8
370
    18
100
AcDbLine
 10
311.2910194297
 20
123.4735665267
 30
0.0
 11
311.2910194297
 21
143.4735665267
 31
0.0
  0
LINE
  5
350
330
1F
100
AcDbEntity
  8
0
  6
Continuous
 62
     8
370
    18
100
AcDbLine
 10
353.2910194297
 20
143.4735665267
 30
0.0
 11
353.2910194297
 21
123.4735665267
 31
0.0
  0
LINE
  5
351
330
1F
100
AcDbEntity
  8
0
  6
Continuous
 62
     8
370
    18
100
AcDbLine
 10
311.2910194297
 20
143.4735665267
 30
0.0
 11
311.2910194297
 21
145.4731666467
 31
0.0
  0
LINE
  5
352
330
1F
100
AcDbEntity
  8
0
  6
Continuous
 62
     8
370
    18
100
AcDbLine
 10
307.2910194297
 20
147.4735666067
 30
0.0
 11
309.2910194297
 21
147.4735666067
 31
0.0
  0
LINE
  5
353
330
1F
100
AcDbEntity
  8
0
  6
Continuous
 62
     8
370
    18
100
AcDbLine
 10
357.2910194297
 20
147.4735666067
 30
0.0
 11
355.2910194297
 21
147.4735666067
 31
0.0
  0
LINE
  5
354
330
1F
100
AcDbEntity
  8
0
  6
Continuous
 62
     8
370
    18
100
AcDbLine
 10
357.2910194297
 20
179.4731666467
 30
0.0
 11
355.2910194297
 21
179.4731666467
 31
0.0
  0
LINE
  5
355
330
1F
100
AcDbEntity
  8
0
  6
Continuous
 62
     8
370
    18
100
AcDbLine
 10
293.2910194297
 20
179.4731666467
 30
0.0
 11
291.2910194297
 21
179.4731666467
 31
0.0
  0
LINE
  5
356
330
1F
100
AcDbEntity
  8
0
  6
Continuous
 62
     8
370
    18
100
AcDbLine
 10
295.2910194297
 20
181.4731666467
 30
0.0
 11
295.2910194297
 21
183.4731666467
 31
0.0
  0
LINE
  5
357
330
1F
100
AcDbEntity
  8
0
  6
Continuous
 62
     8
370
    18
100
AcDbLine
 10
307.2910194297
 20
179.4731666467
 30
0.0
 11
309.2910194297
 21
179.4731666467
 31
0.0
  0
LINE
  5
358
330
1F
100
AcDbEntity
  8
0
  6
Continuous
 62
     8
370
    18
100
AcDbLine
 10
305.2910194297
 20
181.4731666467
 30
0.0
 11
305.2910194297
 21
183.4731666467
 31
0.0
  0
LINE
  5
359
330
1F
100
AcDbEntity
  8
0
  6
Continuous
 62
     8
370
    18
100
AcDbLine
 10
369.2910194297
 20
181.4731666467
 30
0.0
 11
369.2910194297
 21
183.4731666467
 31
0.0
  0
LINE
  5
35A
330
1F
100
AcDbEntity
  8
0
  6
Continuous
 62
     8
370
    18
100
AcDbLine
 10
359.2910194297
 20
181.4731666467
 30
0.0
 11
359.2910194297
 21
183.4731666467
 31
0.0
  0
LINE
  5
35B
330
1F
100
AcDbEntity
  8
0
  6
Continuous
 62
     8
370
    18
100
AcDbLine
 10
371.2910194297
 20
179.4731666467
 30
0.0
 11
373.2910194297
 21
179.4731666467
 31
0.0
  0
LINE
  5
35C
330
1F
100
AcDbEntity
  8
0
  6
HIDDEN
 62
     7
370
    18
100
AcDbLine
 10
354.7910194297
 20
170.9731666467
 30
0.0
 11
354.7910194297
 21
167.5886367005
 31
0.0
  0
LINE
  5
35D
330
1F
100
AcDbEntity
  8
0
  6
HIDDEN
 62
     7
370
    18
100
AcDbLine
 10
354.5910194297
 20
167.4731666467
 30
0.0
 11
354.5910194297
 21
170.9731666467
 31
0.0
  0
LINE
  5
35E
330
1F
100
AcDbEntity
  8
0
  6
HIDDEN
 62
     7
370
    18
100
AcDbLine
 10
309.9910194297
 20
170.9731666467
 30
0.0
 11
309.9910194297
 21
167.4731666467
 31
0.0
  0
LINE
  5
35F
330
1F
100
AcDbEntity
  8
0
  6
HIDDEN
 62
     7
370
    18
100
AcDbLine
 10
309.7910194297
 20
167.5886367005
 30
0.0
 11
309.7910194297
 21
170.9731666467
 31
0.0
  0
LINE
  5
360
330
1F
100
AcDbEntity
  8
0
  6
HIDDEN
 62
     7
370
    18
100
AcDbLine
 10
309.2910194297
 20
147.4735666067
 30
0.0
 11
309.2910194297
 21
127.4735666067
 31
0.0
  0
ELLIPSE
  5
361
330
1F
100
AcDbEntity
  8
0
  6
HIDDEN
 62
     7
370
    18
100
AcDbEllipse
 10
311.2910194297
 20
127.4735666067
 30
0.0
 11
0.0
 21
2.000399960007996
 31
0.0
210
0.0
220
0.0
230
1.0
 40
0.99980006
 41
1.570796326794897
 42
3.141592653589793
  0
ELLIPSE
  5
362
330
1F
100
AcDbEntity
  8
0
  6
HIDDEN
 62
     7
370
    18
100
AcDbEllipse
 10
353.2910194297
 20
127.4735666067
 30
0.0
 11
0.0
 21
2.000399960007996
 31
0.0
210
0.0
220
0.0
230
1.0
 40
0.99980006
 41
3.141592653589793
 42
4.712388980384704
  0
LINE
  5
363
330
1F
100
AcDbEntity
  8
0
  6
HIDDEN
 62
     7
370
    18
100
AcDbLine
 10
355.2910194297
 20
127.4735666067
 30
0.0
 11
355.2910194297
 21
147.4735666067
 31
0.0
  0
LINE
  5
364
330
1F
100
AcDbEntity
  8
0
  6
HIDDEN
 62
     7
370
    18
100
AcDbLine
 10
353.2910194297
 20
125.4731666467
 30
0.0
 11
332.2910194297
 21
125.4731666467
 31
0.0
  0
LINE
  5
365
330
1F
100
AcDbEntity
  8
0
  6
HIDDEN
 62
     7
370
    18
100
AcDbLine
 10
332.2910194297
 20
125.4731666467
 30
0.0
 11
311.2910194297
 21
125.4731666467
 31
0.0
  0
LINE
  5
366
330
1F
100
AcDbEntity
  8
0
  6
HIDDEN
 62
     7
370
    18
100
AcDbLine
 10
354.5910194297
 20
167.4731666467
 30
0.0
 11
354.7910194297
 21
167.5886367005
 31
0.0
  0
LINE
  5
367
330
1F
100
AcDbEntity
  8
0
  6
HIDDEN
 62
     7
370
    18
100
AcDbLine
 10
309.9910194297
 20
167.4731666467
 30
0.0
 11
354.5910194297
 21
167.4731666467
 31
0.0
  0
LINE
  5
368
330
1F
100
AcDbEntity
  8
0
  6
HIDDEN
 62
     7
370
    18
100
AcDbLine
 10
347.7910194297
 20
173.4731666467
 30
0.0
 11
345.7910194297
 21
173.4731666467
 31
0.0
  0
LINE
  5
369
330
1F
100
AcDbEntity
  8
0
  6
HIDDEN
 62
     7
370
    18
100
AcDbLine
 10
318.7910194297
 20
173.4731666467
 30
0.0
 11
316.7910194297
 21
173.4731666467
 31
0.0
  0
LINE
  5
36A
330
1F
100
AcDbEntity
  8
0
  6
HIDDEN
 62
     7
370
    18
100
AcDbLine
 10
309.7910194297
 20
167.5886367005
 30
0.0
 11
309.9910194297
 21
167.4731666467
 31
0.0
  0
LINE
  5
36B
330
1F
100
AcDbEntity
  8
0
  6
HIDDEN
 62
     7
370
    18
100
AcDbLine
 10
307.4910194297
 20
170.9731666467
 30
0.0
 11
307.2910194297
 21
170.8576965928
 31
0.0
  0
LINE
  5
36C
330
1F
100
AcDbEntity
  8
0
  6
HIDDEN
 62
     7
370
    18
100
AcDbLine
 10
307.2910194297
 20
163.0886367005
 30
0.0
 11
307.4910194297
 21
162.9731666467
 31
0.0
  0
LINE
  5
36D
330
1F
100
AcDbEntity
  8
0
  6
HIDDEN
 62
     7
370
    18
100
AcDbLine
 10
357.0910194297
 20
162.9731666467
 30
0.0
 11
357.2910194297
 21
163.0886367005
 31
0.0
  0
LINE
  5
36E
330
1F
100
AcDbEntity
  8
0
  6
HIDDEN
 62
     7
370
    18
100
AcDbLine
 10
357.2910194297
 20
170.8576965928
 30
0.0
 11
357.0910194297
 21
170.9731666467
 31
0.0
  0
LINE
  5
36F
330
1F
100
AcDbEntity
  8
0
  6
HIDDEN
 62
     7
370
    18
100
AcDbLine
 10
307.4910194297
 20
162.9731666467
 30
0.0
 11
309.2910194297
 21
162.9731666467
 31
0.0
  0
LINE
  5
370
330
1F
100
AcDbEntity
  8
0
  6
HIDDEN
 62
     7
370
    18
100
AcDbLine
 10
355.2910194297
 20
162.9731666467
 30
0.0
 11
357.0910194297
 21
162.9731666467
 31
0.0
  0
LINE
  5
371
330
1F
100
AcDbEntity
  8
0
  6
HIDDEN
 62
     7
370
    18
100
AcDbLine
 10
357.0910194297
 20
170.9731666467
 30
0.0
 11
355.2910194297
 21
170.9731666467
 31
0.0
  0
LINE
  5
372
330
1F
100
AcDbEntity
  8
0
  6
HIDDEN
 62
     7
370
    18
100
AcDbLine
 10
347.7910194297
 20
170.9731666467
 30
0.0
 11
345.7910194297
 21
170.9731666467
 31
0.0
  0
LINE
  5
373
330
1F
100
AcDbEntity
  8
0
  6
HIDDEN
 62
     7
370
    18
100
AcDbLine
 10
318.7910194297
 20
170.9731666467
 30
0.0
 11
316.7910194297
 21
170.9731666467
 31
0.0
  0
LINE
  5
374
330
1F
100
AcDbEntity
  8
0
  6
HIDDEN
 62
     7
370
    18
100
AcDbLine
 10
309.2910194297
 20
170.9731666467
 30
0.0
 11
307.4910194297
 21
170.9731666467
 31
0.0
  0
LINE
  5
375
330
1F
100
AcDbEntity
  8
0
  6
HIDDEN
 62
     7
370
    18
100
AcDbLine
 10
347.7910194297
 20
170.9731666467
 30
0.0
 11
345.7910194297
 21
170.9731666467
 31
0.0
  0
LINE
  5
376
330
1F
100
AcDbEntity
  8
0
  6
HIDDEN
 62
     7
370
    18
100
AcDbLine
 10
318.7910194297
 20
170.9731666467
 30
0.0
 11
316.7910194297
 21
170.9731666467
 31
0.0
  0
LINE
  5
377
330
1F
100
AcDbEntity
  8
0
  6
HIDDEN
 62
     7
370
    18
100
AcDbLine
 10
347.7910194297
 20
173.4731666467
 30
0.0
 11
345.7910194297
 21
173.4731666467
 31
0.0
  0
LINE
  5
378
330
1F
100
AcDbEntity
  8
0
  6
HIDDEN
 62
     7
370
    18
100
AcDbLine
 10
345.7910194297
 20
167.4731666467
 30
0.0
 11
347.7910194297
 21
167.4731666467
 31
0.0
  0
LINE
  5
379
330
1F
100
AcDbEntity
  8
0
  6
HIDDEN
 62
     7
370
    18
100
AcDbLine
 10
318.7910194297
 20
173.4731666467
 30
0.0
 11
316.7910194297
 21
173.4731666467
 31
0.0
  0
LINE
  5
37A
330
1F
100
AcDbEntity
  8
0
  6
HIDDEN
 62
     7
370
    18
100
AcDbLine
 10
316.7910194297
 20
167.4731666467
 30
0.0
 11
318.7910194297
 21
167.4731666467
 31
0.0
  0
LINE
  5
37B
330
1F
100
AcDbEntity
  8
0
  6
HIDDEN
 62
     7
370
    18
100
AcDbLine
 10
309.2910194297
 20
170.9731666467
 30
0.0
 11
307.2910194297
 21
170.9731666467
 31
0.0
  0
LINE
  5
37C
330
1F
100
AcDbEntity
  8
0
  6
HIDDEN
 62
     7
370
    18
100
AcDbLine
 10
307.2910194297
 20
162.9731666467
 30
0.0
 11
309.2910194297
 21
162.9731666467
 31
0.0
  0
LINE
  5
37D
330
1F
100
AcDbEntity
  8
0
  6
HIDDEN
 62
     7
370
    18
100
AcDbLine
 10
357.2910194297
 20
170.9731666467
 30
0.0
 11
355.2910194297
 21
170.9731666467
 31
0.0
  0
LINE
  5
37E
330
1F
100
AcDbEntity
  8
0
  6
HIDDEN
 62
     7
370
    18
100
AcDbLine
 10
355.2910194297
 20
162.9731666467
 30
0.0
 11
357.2910194297
 21
162.9731666467
 31
0.0
  0
LINE
  5
37F
330
1F
100
AcDbEntity
  8
0
  6
HIDDEN
 62
     7
370
    18
100
AcDbLine
 10
345.7910194297
 20
166.4731666467
 30
0.0
 11
347.7910194297
 21
166.4731666467
 31
0.0
  0
LINE
  5
380
330
1F
100
AcDbEntity
  8
0
  6
HIDDEN
 62
     7
370
    18
100
AcDbLine
 10
316.7910194297
 20
166.4731666467
 30
0.0
 11
318.7910194297
 21
166.4731666467
 31
0.0
  0
LINE
  5
381
330
1F
100
AcDbEntity
  8
0
  6
HIDDEN
 62
     7
370
    18
100
AcDbLine
 10
320.7910194297
 20
181.4731666467
 30
0.0
 11
320.7910194297
 21
183.4731666467
 31
0.0
  0
LINE
  5
382
330
1F
100
AcDbEntity
  8
0
  6
HIDDEN
 62
     7
370
    18
100
AcDbLine
 10
316.7910194297
 20
179.4731666467
 30
0.0
 11
318.7910194297
 21
179.4731666467
 31
0.0
  0
LINE
  5
383
330
1F
100
AcDbEntity
  8
0
  6
HIDDEN
 62
     7
370
    18
100
AcDbLine
 10
345.7910194297
 20
179.4731666467
 30
0.0
 11
347.7910194297
 21
179.4731666467
 31
0.0
  0
LINE
  5
384
330
1F
100
AcDbEntity
  8
0
  6
HIDDEN
 62
     7
370
    18
100
AcDbLine
 10
343.7910194297
 20
183.4731666467
 30
0.0
 11
343.7910194297
 21
181.4731666467
 31
0.0
  0
LINE
  5
385
330
1F
100
AcDbEntity
  8
0
  6
HIDDEN
 62
     7
370
    18
100
AcDbLine
 10
311.2910194297
 20
125.4731666467
 30
0.0
 11
311.2910194297
 21
145.4731666467
 31
0.0
  0
LINE
  5
386
330
1F
100
AcDbEntity
  8
0
  6
HIDDEN
 62
     7
370
    18
100
AcDbLine
 10
353.2910194297
 20
145.4731666467
 30
0.0
 11
353.2910194297
 21
125.4731666467
 31
0.0
  0
LINE
  5
387
330
1F
100
AcDbEntity
  8
0
  6
HIDDEN
 62
     7
370
    18
100
AcDbLine
 10
332.2910194297
 20
123.4735665267
 30
0.0
 11
332.2910194297
 21
125.4731666467
 31
0.0
  0
LINE
  5
388
330
1F
100
AcDbEntity
  8
0
  6
HIDDEN
 62
     7
370
    18
100
AcDbLine
 10
353.2910194297
 20
123.4735665267
 30
0.0
 11
353.2910194297
 21
125.4731666467
 31
0.0
  0
LINE
  5
389
330
1F
100
AcDbEntity
  8
0
  6
HIDDEN
 62
     7
370
    18
100
AcDbLine
 10
311.2910194297
 20
123.4735665267
 30
0.0
 11
311.2910194297
 21
125.4731666467
 31
0.0
  0
LINE
  5
38A
330
1F
100
AcDbEntity
  8
0
  6
HIDDEN
 62
     7
370
    18
100
AcDbLine
 10
357.2910194297
 20
179.4731666467
 30
0.0
 11
355.2910194297
 21
179.4731666467
 31
0.0
  0
LINE
  5
38B
330
1F
100
AcDbEntity
  8
0
  6
HIDDEN
 62
     7
370
    18
100
AcDbLine
 10
357.2910194297
 20
127.4735666067
 30
0.0
 11
355.2910194297
 21
127.4735666067
 31
0.0
  0
LINE
  5
38C
330
1F
100
AcDbEntity
  8
0
  6
HIDDEN
 62
     7
370
    18
100
AcDbLine
 10
307.2910194297
 20
127.4735666067
 30
0.0
 11
309.2910194297
 21
127.4735666067
 31
0.0
  0
LINE
  5
38D
330
1F
100
AcDbEntity
  8
0
  6
HIDDEN
 62
     7
370
    18
100
AcDbLine
 10
307.2910194297
 20
179.4731666467
 30
0.0
 11
309.2910194297
 21
179.4731666467
 31
0.0
  0
LINE
  5
38E
330
1F
100
AcDbEntity
  8
0
  6
HIDDEN
 62
     7
370
    18
100
AcDbLine
 10
293.2910194297
 20
179.4731666467
 30
0.0
 11
291.2910194297
 21
179.4731666467
 31
0.0
  0
LINE
  5
38F
330
1F
100
AcDbEntity
  8
0
  6
HIDDEN
 62
     7
370
    18
100
AcDbLine
 10
295.2910194297
 20
181.4731666467
 30
0.0
 11
295.2910194297
 21
183.4731666467
 31
0.0
  0
LINE
  5
390
330
1F
100
AcDbEntity
  8
0
  6
HIDDEN
 62
     7
370
    18
100
AcDbLine
 10
305.2910194297
 20
181.4731666467
 30
0.0
 11
305.2910194297
 21
183.4731666467
 31
0.0
  0
LINE
  5
391
330
1F
100
AcDbEntity
  8
0
  6
HIDDEN
 62
     7
370
    18
100
AcDbLine
 10
371.2910194297
 20
179.4731666467
 30
0.0
 11
373.2910194297
 21
179.4731666467
 31
0.0
  0
LINE
  5
392
330
1F
100
AcDbEntity
  8
0
  6
HIDDEN
 62
     7
370
    18
100
AcDbLine
 10
369.2910194297
 20
181.4731666467
 30
0.0
 11
369.2910194297
 21
183.4731666467
 31
0.0
  0
LINE
  5
393
330
1F
100
AcDbEntity
  8
0
  6
HIDDEN
 62
     7
370
    18
100
AcDbLine
 10
359.2910194297
 20
181.4731666467
 30
0.0
 11
359.2910194297
 21
183.4731666467
 31
0.0
  0
DIMENSION
  5
394
330
1F
100
AcDbEntity
  8
0
  6
Continuous
 62
     7
370
    18
100
AcDbDimension
  2
_D_1
 10
347.7910194297
 20
193.4782666467
 30
0.0
 11
332.2910194297
 21
193.4782666467
 31
0.0
 70
   160
  1
<>
 71
     2
 42
-1.0
  3
SLDDIMSTYLE1
100
AcDbAlignedDimension
 13
316.7910194297
 23
179.4731666467
 33
0.0
 14
347.7910194297
 24
179.4731666467
 34
0.0
100
AcDbRotatedDimension
  0
DIMENSION
  5
39F
330
1F
100
AcDbEntity
  8
0
  6
Continuous
 62
     7
370
    18
100
AcDbDimension
  2
_D_2
 10
373.2910194297
 20
203.4782666467
 30
0.0
 11
332.2910194297
 21
203.4782666467
 31
0.0
 70
   160
  1
<>
 71
     2
 42
-1.0
  3
SLDDIMSTYLE1
100
AcDbAlignedDimension
 13
291.2910194297
 23
179.4731666467
 33
0.0
 14
373.2910194297
 24
179.4731666467
 34
0.0
100
AcDbRotatedDimension
  0
DIMENSION
  5
3A9
330
1F
100
AcDbEntity
  8
0
  6
Continuous
 62
     7
370
    18
100
AcDbDimension
  2
_D_3
 10
316.7910194297
 20
193.4782666467
 30
0.0
 11
313.0410194297
 21
193.4782666467
 31
0.0
 70
   160
  1
<>
 71
     2
 42
-1.0
  3
SLDDIMSTYLE2
100
AcDbAlignedDimension
 13
309.2910194297
 23
179.4731666467
 33
0.0
 14
316.7910194297
 24
179.4731666467
 34
0.0
100
AcDbRotatedDimension
  0
DIMENSION
  5
3B6
330
1F
100
AcDbEntity
  8
0
  6
Continuous
 62
     7
370
    18
100
AcDbDimension
  2
_D_4
 10
281.2859194297
 20
143.4735665267
 30
0.0
 11
281.2859194297
 21
163.4733665867
 31
0.0
 70
   160
  1
min. <>
 71
     2
 42
-1.0
  3
SLDDIMSTYLE1
100
AcDbAlignedDimension
 13
295.2910194297
 23
183.4731666467
 33
0.0
 14
311.2910194297
 24
143.4735665267
 34
0.0
 50
90.0
100
AcDbRotatedDimension
  0
DIMENSION
  5
3C1
330
1F
100
AcDbEntity
  8
0
  6
Continuous
 62
     7
370
    18
100
AcDbDimension
  2
_D_5
 10
271.2859194297
 20
123.4735665267
 30
0.0
 11
271.2859194297
 21
153.4733665867
 31
0.0
 70
   160
  1
max. <>
 71
     2
 42
-1.0
  3
SLDDIMSTYLE1
100
AcDbAlignedDimension
 13
295.2910194297
 23
183.4731666467
 33
0.0
 14
311.2910194297
 24
123.4735665267
 34
0.0
 50
90.0
100
AcDbRotatedDimension
  0
DIMENSION
  5
3CC
330
1F
100
AcDbEntity
  8
0
  6
Continuous
 62
     7
370
    18
100
AcDbDimension
  2
_D_6
 10
357.2910194297
 20
113.4635665267
 30
0.0
 11
332.2910194297
 21
113.4635665267
 31
0.0
 70
   160
  1
<>
 71
     2
 42
-1.0
  3
SLDDIMSTYLE1
100
AcDbAlignedDimension
 13
307.2910194297
 23
127.4735666067
 33
0.0
 14
357.2910194297
 24
127.4735666067
 34
0.0
100
AcDbRotatedDimension
  0
DIMENSION
  5
3D6
330
1F
100
AcDbEntity
  8
0
  6
Continuous
 62
     7
370
    18
100
AcDbDimension
  2
_D_7
 10
309.2910194297
 20
193.4782666467
 30
0.0
 11
300.2910194297
 21
193.4782666467
 31
0.0
 70
   160
  1
<>
 71
     2
 42
-1.0
  3
SLDDIMSTYLE1
100
AcDbAlignedDimension
 13
291.2910194297
 23
179.4731666467
 33
0.0
 14
309.2910194297
 24
179.4731666467
 34
0.0
100
AcDbRotatedDimension
  0
DIMENSION
  5
3E0
330
1F
100
AcDbEntity
  8
0
  6
Continuous
 62
     7
370
    18
100
AcDbDimension
  2
_D_8
 10
383.2961194297
 20
183.4731666467
 30
0.0
 11
383.2961194297
 21
177.4731666467
 31
0.0
 70
   160
  1
<>
 71
     2
 42
-1.0
  3
SLDDIMSTYLE2
100
AcDbAlignedDimension
 13
373.2910194297
 23
171.4731666467
 33
0.0
 14
369.2910194297
 24
183.4731666467
 34
0.0
 50
90.0
100
AcDbRotatedDimension
  0
DIMENSION
  5
3EC
330
1F
100
AcDbEntity
  8
0
  6
Continuous
 62
     7
370
    18
100
AcDbDimension
  2
_D_9
 10
291.2910194297
 20
175.1009166595
 30
0.0
 11
285.9801267469
 21
175.1009166595
 31
0.0
 70
   160
  1
<>
 71
     2
 42
-1.0
  3
SLDDIMSTYLE2
100
AcDbAlignedDimension
 13
293.2910194297
 23
171.4731666467
 33
0.0
 14
291.2910194297
 24
171.4731666467
 34
0.0
100
AcDbRotatedDimension
  0
MTEXT
  5
3F6
330
1F
100
AcDbEntity
  8
0
  6
Continuous
 62
     7
370
     0
100
AcDbMText
 10
373.0868509165
 20
140.0330771226
 30
0.0
 40
5.0
 41
0.0
 71
     2
 72
     1
  1
(1:1)
  7
SLDTEXTSTYLE0
 73
     1
 44
1.0
  0
LINE
  5
3F7
330
1F
100
AcDbEntity
  8
0
  6
Continuous
 62
     7
370
    25
100
AcDbLine
 10
62.8702442917
 20
51.2460432789
 30
0.0
 11
64.4943735698
 21
50.3084534038
 31
0.0
  0
LINE
  5
3F8
330
1F
100
AcDbEntity
  8
0
  6
Continuous
 62
     7
370
    25
100
AcDbLine
 10
201.9117340487
 20
134.3404790877
 30
0.0
 11
60.6317991676
 21
52.7813087166
 31
0.0
  0
LINE
  5
3F9
330
1F
100
AcDbEntity
  8
0
  6
Continuous
 62
     7
370
    25
100
AcDbLine
 10
207.4271669419
 20
131.2381282628
 30
0.0
 11
66.0058107046
 21
49.5973170805
 31
0.0
  0
LINE
  5
3FA
330
1F
100
AcDbEntity
  8
0
  6
Continuous
 62
     7
370
    25
100
AcDbLine
 10
65.9490754563
 20
43.4710356202
 30
0.0
 11
207.3704316936
 21
121.845683555
 31
0.0
  0
LINE
  5
3FB
330
1F
100
AcDbEntity
  8
0
  6
Continuous
 62
     7
370
    25
100
AcDbLine
 10
198.3762001427
 20
136.4631401784
 30
0.0
 11
56.9548439054
 21
54.8223289962
 31
0.0
  0
ARC
  5
3FC
330
1F
100
AcDbEntity
  8
0
  6
Continuous
 62
     7
370
    25
100
AcDbCircle
 10
63.621970398
 20
49.828279043
 30
0.0
 40
1.229443846057689
100
AcDbArc
 50
2.6054784857
 51
57.39452166
  0
ARC
  5
3FD
330
1F
100
AcDbEntity
  8
0
  6
Continuous
 62
     7
370
    25
100
AcDbCircle
 10
204.901905279
 20
131.3874494141
 30
0.0
 40
1.229443846057586
100
AcDbArc
 50
2.6054784857
 51
57.39452166
  0
ARC
  5
3FE
330
1F
100
AcDbEntity
  8
0
  6
Continuous
 62
     7
370
    25
100
AcDbCircle
 10
63.953214126
 20
50.0195050063
 30
0.0
 40
0.6147219230288589
100
AcDbArc
 50
2.6054784857
 51
57.39452166
  0
LINE
  5
3FF
330
1F
100
AcDbEntity
  8
0
  6
Continuous
 62
     7
370
    25
100
AcDbLine
 10
64.8501432791
 20
49.8841677248
 30
0.0
 11
64.8501432791
 21
47.2712371268
 31
0.0
  0
LINE
  5
400
330
1F
100
AcDbEntity
  8
0
  6
Continuous
 62
     7
370
    25
100
AcDbLine
 10
64.8501432791
 20
47.2712371268
 30
0.0
 11
64.5673005666
 21
47.4345187491
 31
0.0
  0
LINE
  5
401
330
1F
100
AcDbEntity
  8
0
  6
Continuous
 62
     7
370
    25
100
AcDbLine
 10
64.5673005666
 20
50.0474493472
 30
0.0
 11
64.5673005666
 21
47.4345187491
 31
0.0
  0
LINE
  5
402
330
1F
100
AcDbEntity
  8
0
  6
Continuous
 62
     7
370
    25
100
AcDbLine
 10
64.8501432791
 20
47.2712371268
 30
0.0
 11
65.8400927727
 21
47.842722805
 31
0.0
  0
LINE
  5
403
330
1F
100
AcDbEntity
  8
0
  6
Continuous
 62
     7
370
    25
100
AcDbLine
 10
206.1300781601
 20
131.4433380959
 30
0.0
 11
206.1300781601
 21
130.4893348476
 31
0.0
  0
LINE
  5
404
330
1F
100
AcDbEntity
  8
0
  6
Continuous
 62
     7
370
    25
100
AcDbLine
 10
61.0317666606
 20
52.7417022762
 30
0.0
 11
64.2844578541
 21
50.863963619
 31
0.0
  0
LINE
  5
405
330
1F
100
AcDbEntity
  8
0
  6
Continuous
 62
     7
370
    25
100
AcDbLine
 10
202.3117015417
 20
134.3008726473
 30
0.0
 11
205.5643927352
 21
132.4231339901
 31
0.0
  0
LINE
  5
406
330
1F
100
AcDbEntity
  8
0
  6
Continuous
 62
     7
370
    25
100
AcDbLine
 10
61.0317666606
 20
52.4150859515
 30
0.0
 11
64.2844578541
 21
50.5373472943
 31
0.0
  0
ARC
  5
407
330
1F
100
AcDbEntity
  8
0
  6
Continuous
 62
     7
370
    25
100
AcDbCircle
 10
60.8109407296
 20
52.470974629
 30
0.0
 40
0.3493673579427873
100
AcDbArc
 50
50.7967147643
 51
189.2140369905
  0
ARC
  5
408
330
1F
100
AcDbEntity
  8
0
  6
Continuous
 62
     7
370
    25
100
AcDbCircle
 10
202.0773654978
 20
133.973767584
 30
0.0
 40
0.4023817887214438
100
AcDbArc
 50
54.3824225248
 51
114.3071190461
  0
ARC
  5
409
330
1F
100
AcDbEntity
  8
0
  6
Continuous
 62
     7
370
    25
100
AcDbCircle
 10
60.9213536951
 20
52.2797221278
 30
0.0
 40
0.174683678971389
100
AcDbArc
 50
50.7967147643
 51
189.2140369905
  0
LINE
  5
40A
330
1F
100
AcDbEntity
  8
0
  6
Continuous
 62
     7
370
    25
100
AcDbLine
 10
62.8702442917
 20
50.8634328188
 30
0.0
 11
62.8702442917
 21
51.3533573059
 31
0.0
  0
LINE
  5
40B
330
1F
100
AcDbEntity
  8
0
  6
Continuous
 62
     7
370
    25
100
AcDbLine
 10
60.7489239482
 20
49.638820651
 30
0.0
 11
62.8702442917
 21
50.8634328188
 31
0.0
  0
LINE
  5
40C
330
1F
100
AcDbEntity
  8
0
  6
Continuous
 62
     7
370
    25
100
AcDbLine
 10
60.7489239482
 20
49.638820651
 30
0.0
 11
60.7489239482
 21
52.2517512491
 31
0.0
  0
LINE
  5
40D
330
1F
100
AcDbEntity
  8
0
  6
Continuous
 62
     7
370
    25
100
AcDbLine
 10
60.7489239482
 20
49.638820651
 30
0.0
 11
60.4660812357
 21
49.8021022734
 31
0.0
  0
LINE
  5
40E
330
1F
100
AcDbEntity
  8
0
  6
Continuous
 62
     7
370
    25
100
AcDbLine
 10
60.4660812357
 20
49.8021022734
 30
0.0
 11
60.4660812357
 21
52.4150328714
 31
0.0
  0
ARC
  5
40F
330
1F
100
AcDbEntity
  8
0
  6
Continuous
 62
     7
370
    25
100
AcDbCircle
 10
208.5788605412
 20
129.3464291345
 30
0.0
 40
1.229443846057738
100
AcDbArc
 50
2.6054784857
 51
57.39452166
  0
ARC
  5
410
330
1F
100
AcDbEntity
  8
0
  6
Continuous
 62
     7
370
    25
100
AcDbCircle
 10
67.1575043039
 20
47.7056179522
 30
0.0
 40
1.229443846057592
100
AcDbArc
 50
2.6054784857
 51
57.39452166
  0
ARC
  5
411
330
1F
100
AcDbEntity
  8
0
  6
Continuous
 62
     7
370
    25
100
AcDbCircle
 10
67.488748032
 20
47.8968439155
 30
0.0
 40
0.6147219230287583
100
AcDbArc
 50
2.6054784857
 51
57.39452166
  0
LINE
  5
412
330
1F
100
AcDbEntity
  8
0
  6
Continuous
 62
     7
370
    25
100
AcDbLine
 10
68.385677185
 20
46.455041335
 30
0.0
 11
68.385677185
 21
47.7615066341
 31
0.0
  0
LINE
  5
413
330
1F
100
AcDbEntity
  8
0
  6
Continuous
 62
     7
370
    25
100
AcDbLine
 10
68.1028344725
 20
46.6183229574
 30
0.0
 11
68.385677185
 21
46.455041335
 31
0.0
  0
LINE
  5
414
330
1F
100
AcDbEntity
  8
0
  6
Continuous
 62
     7
370
    25
100
AcDbLine
 10
68.1028344725
 20
46.6183229574
 30
0.0
 11
68.1028344725
 21
47.9247882564
 31
0.0
  0
LINE
  5
415
330
1F
100
AcDbEntity
  8
0
  6
Continuous
 62
     7
370
    25
100
AcDbLine
 10
68.385677185
 20
46.455041335
 30
0.0
 11
209.8070334223
 21
128.0958525173
 31
0.0
  0
LINE
  5
416
330
1F
100
AcDbEntity
  8
0
  6
Continuous
 62
     7
370
    25
100
AcDbLine
 10
209.8070334223
 20
128.0958525173
 30
0.0
 11
209.8070334223
 21
129.4023178163
 31
0.0
  0
LINE
  5
417
330
1F
100
AcDbEntity
  8
0
  6
Continuous
 62
     7
370
    25
100
AcDbLine
 10
67.81999176
 20
48.7413025283
 30
0.0
 11
66.4057781977
 21
49.5577106401
 31
0.0
  0
LINE
  5
418
330
1F
100
AcDbEntity
  8
0
  6
Continuous
 62
     7
370
    25
100
AcDbLine
 10
209.2413479973
 20
130.3821137106
 30
0.0
 11
207.827134435
 21
131.1985218224
 31
0.0
  0
LINE
  5
419
330
1F
100
AcDbEntity
  8
0
  6
Continuous
 62
     7
370
    25
100
AcDbLine
 10
67.81999176
 20
48.4146862035
 30
0.0
 11
66.4057781977
 21
49.2310943154
 31
0.0
  0
ARC
  5
41A
330
1F
100
AcDbEntity
  8
0
  6
Continuous
 62
     7
370
    25
100
AcDbCircle
 10
66.1849522667
 20
49.2869829929
 30
0.0
 40
0.3493673579427661
100
AcDbArc
 50
50.7967147643
 51
189.2140369905
  0
ARC
  5
41B
330
1F
100
AcDbEntity
  8
0
  6
Continuous
 62
     7
370
    25
100
AcDbCircle
 10
66.2953652322
 20
49.0957304917
 30
0.0
 40
0.174683678971403
100
AcDbArc
 50
50.7967147643
 51
189.2140369905
  0
ARC
  5
41C
330
1F
100
AcDbEntity
  8
0
  6
Continuous
 62
     7
370
    25
100
AcDbCircle
 10
207.5927983911
 20
130.8714167591
 30
0.0
 40
0.4023817887215893
100
AcDbArc
 50
54.3824225248
 51
114.3071190461
  0
LINE
  5
41D
330
1F
100
AcDbEntity
  8
0
  6
Continuous
 62
     7
370
    25
100
AcDbLine
 10
65.8400927727
 20
49.2310412353
 30
0.0
 11
65.8400927727
 21
44.005245356
 31
0.0
  0
LINE
  5
41E
330
1F
100
AcDbEntity
  8
0
  6
Continuous
 62
     7
370
    25
100
AcDbLine
 10
66.1229354852
 20
49.067759613
 30
0.0
 11
66.1229354852
 21
43.8419637336
 31
0.0
  0
LINE
  5
41F
330
1F
100
AcDbEntity
  8
0
  6
Continuous
 62
     7
370
    25
100
AcDbLine
 10
207.5442917225
 20
126.7895995384
 30
0.0
 11
207.5442917225
 21
122.2166116684
 31
0.0
  0
ELLIPSE
  5
420
330
1F
100
AcDbEntity
  8
0
  6
Continuous
 62
     7
370
    25
100
AcDbEllipse
 10
65.5572500602
 20
44.1685269784
 30
0.0
 11
-0.1999437440313301
 21
0.3464888275594333
 31
0.0
210
0.0
220
0.0
230
1.0
 40
0.5773815033
 41
2.356475730491346
 42
3.927272057286234
  0
ELLIPSE
  5
421
330
1F
100
AcDbEntity
  8
0
  6
Continuous
 62
     7
370
    25
100
AcDbEllipse
 10
65.5572500602
 20
44.1685269784
 30
0.0
 11
-0.3939020098863324
 21
0.6963286119491627
 31
0.0
210
0.0
220
0.0
230
1.0
 40
0.5831238235
 41
2.361376387913997
 42
3.932172714708909
  0
ELLIPSE
  5
422
330
1F
100
AcDbEntity
  8
0
  6
Continuous
 62
     7
370
    25
100
AcDbEllipse
 10
206.9786062976
 20
122.5431749131
 30
0.0
 11
-0.3939020098863182
 21
0.6963286119491698
 31
0.0
210
0.0
220
0.0
230
1.0
 40
0.5831238235
 41
3.136491020069715
 42
3.932172714708914
  0
LINE
  5
423
330
1F
100
AcDbEntity
  8
0
  6
Continuous
 62
     7
370
    25
100
AcDbLine
 10
65.5572500602
 20
43.8418453369
 30
0.0
 11
62.5874015793
 21
45.5563023717
 31
0.0
  0
LINE
  5
424
330
1F
100
AcDbEntity
  8
0
  6
Continuous
 62
     7
370
    25
100
AcDbLine
 10
65.551594337
 20
43.5120293363
 30
0.0
 11
62.581745856
 21
45.2264863711
 31
0.0
  0
LINE
  5
425
330
1F
100
AcDbEntity
  8
0
  6
Continuous
 62
     7
370
    25
100
AcDbLine
 10
62.5874015793
 20
45.5563023717
 30
0.0
 11
59.6175530983
 21
47.2707594065
 31
0.0
  0
ARC
  5
426
330
1F
100
AcDbEntity
  8
0
  6
Continuous
 62
     7
370
    25
100
AcDbCircle
 10
58.1065375047
 20
52.9306298679
 30
0.0
 40
1.229443846057765
100
AcDbArc
 50
2.6054784857
 51
57.39452166
  0
ARC
  5
427
330
1F
100
AcDbEntity
  8
0
  6
Continuous
 62
     7
370
    25
100
AcDbCircle
 10
58.4377812328
 20
53.1218558312
 30
0.0
 40
0.6147219230287808
100
AcDbArc
 50
2.6054784857
 51
57.39452166
  0
ARC
  5
428
330
1F
100
AcDbEntity
  8
0
  6
Continuous
 62
     7
370
    25
100
AcDbCircle
 10
199.527893742
 20
134.5714410502
 30
0.0
 40
1.229443846057699
100
AcDbArc
 50
2.6054784857
 51
57.39452166
  0
LINE
  5
429
330
1F
100
AcDbEntity
  8
0
  6
Continuous
 62
     7
370
    25
100
AcDbLine
 10
59.3347103858
 20
47.7607226704
 30
0.0
 11
59.3347103858
 21
52.9865185497
 31
0.0
  0
LINE
  5
42A
330
1F
100
AcDbEntity
  8
0
  6
Continuous
 62
     7
370
    25
100
AcDbLine
 10
59.0518676733
 20
47.9240042927
 30
0.0
 11
59.0518676733
 21
53.1498001721
 31
0.0
  0
LINE
  5
42B
330
1F
100
AcDbEntity
  8
0
  6
Continuous
 62
     7
370
    25
100
AcDbLine
 10
200.7560666231
 20
133.6733264837
 30
0.0
 11
200.7560666231
 21
134.627329732
 31
0.0
  0
LINE
  5
42C
330
1F
100
AcDbEntity
  8
0
  6
Continuous
 62
     7
370
    25
100
AcDbLine
 10
58.7690249609
 20
53.966314444
 30
0.0
 11
57.3548113985
 21
54.7827225558
 31
0.0
  0
LINE
  5
42D
330
1F
100
AcDbEntity
  8
0
  6
Continuous
 62
     7
370
    25
100
AcDbLine
 10
58.7690249609
 20
53.6396981192
 30
0.0
 11
57.3548113985
 21
54.456106231
 31
0.0
  0
LINE
  5
42E
330
1F
100
AcDbEntity
  8
0
  6
Continuous
 62
     7
370
    25
100
AcDbLine
 10
200.1903811982
 20
135.6071256262
 30
0.0
 11
198.7761676358
 21
136.423533738
 31
0.0
  0
ARC
  5
42F
330
1F
100
AcDbEntity
  8
0
  6
Continuous
 62
     7
370
    25
100
AcDbCircle
 10
57.1339854675
 20
54.5119949085
 30
0.0
 40
0.3493673579428047
100
AcDbArc
 50
50.7967147643
 51
189.2140369905
  0
ARC
  5
430
330
1F
100
AcDbEntity
  8
0
  6
Continuous
 62
     7
370
    25
100
AcDbCircle
 10
57.244398433
 20
54.3207424074
 30
0.0
 40
0.1746836789714101
100
AcDbArc
 50
50.7967147643
 51
189.2140369905
  0
ARC
  5
431
330
1F
100
AcDbEntity
  8
0
  6
Continuous
 62
     7
370
    25
100
AcDbCircle
 10
198.5418315919
 20
136.0964286748
 30
0.0
 40
0.4023817887214737
100
AcDbArc
 50
54.3824225248
 51
114.3071190461
  0
LINE
  5
432
330
1F
100
AcDbEntity
  8
0
  6
Continuous
 62
     7
370
    25
100
AcDbLine
 10
62.581745856
 20
45.2264863711
 30
0.0
 11
59.6118973751
 21
46.9409434059
 31
0.0
  0
LINE
  5
433
330
1F
100
AcDbEntity
  8
0
  6
Continuous
 62
     7
370
    25
100
AcDbLine
 10
56.7891259735
 20
54.456053151
 30
0.0
 11
56.7891259735
 21
53.149587852
 31
0.0
  0
LINE
  5
434
330
1F
100
AcDbEntity
  8
0
  6
Continuous
 62
     7
370
    25
100
AcDbLine
 10
57.071968686
 20
54.2927715286
 30
0.0
 11
57.071968686
 21
52.9863062296
 31
0.0
  0
LINE
  5
435
330
1F
100
AcDbEntity
  8
0
  6
Continuous
 62
     7
370
    25
100
AcDbLine
 10
57.071968686
 20
52.9863062296
 30
0.0
 11
56.7891259735
 21
53.149587852
 31
0.0
  0
LINE
  5
436
330
1F
100
AcDbEntity
  8
0
  6
Continuous
 62
     7
370
    25
100
AcDbLine
 10
57.071968686
 20
52.9863062296
 30
0.0
 11
58.4864121165
 21
53.8028470415
 31
0.0
  0
ELLIPSE
  5
437
330
1F
100
AcDbEntity
  8
0
  6
Continuous
 62
     7
370
    25
100
AcDbEllipse
 10
59.6175530983
 20
47.597441048
 30
0.0
 11
-0.1999437440313443
 21
0.3464888275594333
 31
0.0
210
0.0
220
0.0
230
1.0
 40
0.5773815033
 41
0.7856794036963778
 42
2.356475730491309
  0
ELLIPSE
  5
438
330
1F
100
AcDbEntity
  8
0
  6
Continuous
 62
     7
370
    25
100
AcDbEllipse
 10
59.6175530983
 20
47.597441048
 30
0.0
 11
-0.3939020098863466
 21
0.6963286119491556
 31
0.0
210
0.0
220
0.0
230
1.0
 40
0.5831238235
 41
0.7905800611190965
 42
2.361376387913958
  0
LINE
  5
439
330
1F
100
AcDbEntity
  8
0
  6
Continuous
 62
     8
370
    18
100
AcDbLine
 10
64.8501432791
 20
49.8841677248
 30
0.0
 11
206.1300781601
 21
131.4433380959
 31
0.0
  0
LINE
  5
43A
330
1F
100
AcDbEntity
  8
0
  6
Continuous
 62
     8
370
    18
100
AcDbLine
 10
64.2844578541
 20
50.863963619
 30
0.0
 11
205.5643927352
 21
132.4231339901
 31
0.0
  0
LINE
  5
43B
330
1F
100
AcDbEntity
  8
0
  6
Continuous
 62
     8
370
    18
100
AcDbLine
 10
64.8501432791
 20
49.8841677248
 30
0.0
 11
64.5673005666
 21
50.0474493472
 31
0.0
  0
LINE
  5
43C
330
1F
100
AcDbEntity
  8
0
  6
Continuous
 62
     8
370
    18
100
AcDbLine
 10
64.2844578541
 20
50.5373472943
 30
0.0
 11
64.2844578541
 21
50.863963619
 31
0.0
  0
LINE
  5
43D
330
1F
100
AcDbEntity
  8
0
  6
Continuous
 62
     8
370
    18
100
AcDbLine
 10
61.0317666606
 20
52.7417022762
 30
0.0
 11
202.3117015417
 21
134.3008726473
 31
0.0
  0
LINE
  5
43E
330
1F
100
AcDbEntity
  8
0
  6
Continuous
 62
     8
370
    18
100
AcDbLine
 10
61.0317666606
 20
52.7417022762
 30
0.0
 11
61.0317666606
 21
52.4150859515
 31
0.0
  0
LINE
  5
43F
330
1F
100
AcDbEntity
  8
0
  6
Continuous
 62
     8
370
    18
100
AcDbLine
 10
60.7489239482
 20
52.2517512491
 30
0.0
 11
60.4660812357
 21
52.4150328714
 31
0.0
  0
LINE
  5
440
330
1F
100
AcDbEntity
  8
0
  6
Continuous
 62
     8
370
    18
100
AcDbLine
 10
60.7489239482
 20
52.2517512491
 30
0.0
 11
61.0318126343
 21
52.4150594115
 31
0.0
  0
LINE
  5
441
330
1F
100
AcDbEntity
  8
0
  6
Continuous
 62
     8
370
    18
100
AcDbLine
 10
67.81999176
 20
48.7413025283
 30
0.0
 11
209.2413479973
 21
130.3821137106
 31
0.0
  0
LINE
  5
442
330
1F
100
AcDbEntity
  8
0
  6
Continuous
 62
     8
370
    18
100
AcDbLine
 10
209.8070334223
 20
129.4023178163
 30
0.0
 11
68.385677185
 21
47.7615066341
 31
0.0
  0
LINE
  5
443
330
1F
100
AcDbEntity
  8
0
  6
Continuous
 62
     8
370
    18
100
AcDbLine
 10
68.1028344725
 20
47.9247882564
 30
0.0
 11
68.385677185
 21
47.7615066341
 31
0.0
  0
LINE
  5
444
330
1F
100
AcDbEntity
  8
0
  6
Continuous
 62
     8
370
    18
100
AcDbLine
 10
67.81999176
 20
48.4146862035
 30
0.0
 11
67.81999176
 21
48.7413025283
 31
0.0
  0
LINE
  5
445
330
1F
100
AcDbEntity
  8
0
  6
Continuous
 62
     8
370
    18
100
AcDbLine
 10
207.827134435
 20
131.1985218224
 30
0.0
 11
66.4057781977
 21
49.5577106401
 31
0.0
  0
LINE
  5
446
330
1F
100
AcDbEntity
  8
0
  6
Continuous
 62
     8
370
    18
100
AcDbLine
 10
66.4057781977
 20
49.2310943154
 30
0.0
 11
66.4057781977
 21
49.5577106401
 31
0.0
  0
LINE
  5
447
330
1F
100
AcDbEntity
  8
0
  6
Continuous
 62
     8
370
    18
100
AcDbLine
 10
66.1229354852
 20
49.067759613
 30
0.0
 11
65.8400927727
 21
49.2310412353
 31
0.0
  0
LINE
  5
448
330
1F
100
AcDbEntity
  8
0
  6
Continuous
 62
     8
370
    18
100
AcDbLine
 10
66.1229354852
 20
49.067759613
 30
0.0
 11
66.4058241713
 21
49.2310677753
 31
0.0
  0
LINE
  5
449
330
1F
100
AcDbEntity
  8
0
  6
Continuous
 62
     8
370
    18
100
AcDbLine
 10
66.1229354852
 20
43.8419637336
 30
0.0
 11
65.8400927727
 21
44.005245356
 31
0.0
  0
LINE
  5
44A
330
1F
100
AcDbEntity
  8
0
  6
Continuous
 62
     8
370
    18
100
AcDbLine
 10
207.5442917225
 20
122.2166116684
 30
0.0
 11
66.1229354852
 21
43.8419637336
 31
0.0
  0
LINE
  5
44B
330
1F
100
AcDbEntity
  8
0
  6
Continuous
 62
     8
370
    18
100
AcDbLine
 10
65.551594337
 20
43.5120293363
 30
0.0
 11
65.5572500602
 21
43.8418453369
 31
0.0
  0
LINE
  5
44C
330
1F
100
AcDbEntity
  8
0
  6
Continuous
 62
     8
370
    18
100
AcDbLine
 10
65.5572500602
 20
43.8418453369
 30
0.0
 11
65.840032953
 21
43.9985614811
 31
0.0
  0
LINE
  5
44D
330
1F
100
AcDbEntity
  8
0
  6
Continuous
 62
     8
370
    18
100
AcDbLine
 10
62.581745856
 20
45.2264863711
 30
0.0
 11
62.5874015793
 21
45.5563023717
 31
0.0
  0
LINE
  5
44E
330
1F
100
AcDbEntity
  8
0
  6
Continuous
 62
     8
370
    18
100
AcDbLine
 10
64.5673005666
 20
50.0138720842
 30
0.0
 11
59.6175530983
 21
47.2707594065
 31
0.0
  0
LINE
  5
44F
330
1F
100
AcDbEntity
  8
0
  6
Continuous
 62
     8
370
    18
100
AcDbLine
 10
59.0518676733
 20
53.1498001721
 30
0.0
 11
59.3347103858
 21
52.9865185497
 31
0.0
  0
LINE
  5
450
330
1F
100
AcDbEntity
  8
0
  6
Continuous
 62
     8
370
    18
100
AcDbLine
 10
58.7690249609
 20
53.6396981192
 30
0.0
 11
58.7690249609
 21
53.966314444
 31
0.0
  0
LINE
  5
451
330
1F
100
AcDbEntity
  8
0
  6
Continuous
 62
     8
370
    18
100
AcDbLine
 10
200.7560666231
 20
134.627329732
 30
0.0
 11
59.3347103858
 21
52.9865185497
 31
0.0
  0
LINE
  5
452
330
1F
100
AcDbEntity
  8
0
  6
Continuous
 62
     8
370
    18
100
AcDbLine
 10
58.7690249609
 20
53.966314444
 30
0.0
 11
200.1903811982
 21
135.6071256262
 31
0.0
  0
LINE
  5
453
330
1F
100
AcDbEntity
  8
0
  6
Continuous
 62
     8
370
    18
100
AcDbLine
 10
59.0518676733
 20
47.9240042927
 30
0.0
 11
59.3347103858
 21
47.7607226704
 31
0.0
  0
LINE
  5
454
330
1F
100
AcDbEntity
  8
0
  6
Continuous
 62
     8
370
    18
100
AcDbLine
 10
59.3347103858
 20
47.7607226704
 30
0.0
 11
64.2188798762
 21
50.4674925279
 31
0.0
  0
LINE
  5
455
330
1F
100
AcDbEntity
  8
0
  6
Continuous
 62
     8
370
    18
100
AcDbLine
 10
57.3548113985
 20
54.456106231
 30
0.0
 11
57.3548113985
 21
54.7827225558
 31
0.0
  0
LINE
  5
456
330
1F
100
AcDbEntity
  8
0
  6
Continuous
 62
     8
370
    18
100
AcDbLine
 10
198.7761676358
 20
136.423533738
 30
0.0
 11
57.3548113985
 21
54.7827225558
 31
0.0
  0
LINE
  5
457
330
1F
100
AcDbEntity
  8
0
  6
Continuous
 62
     8
370
    18
100
AcDbLine
 10
57.071968686
 20
54.2927715286
 30
0.0
 11
56.7891259735
 21
54.456053151
 31
0.0
  0
LINE
  5
458
330
1F
100
AcDbEntity
  8
0
  6
Continuous
 62
     8
370
    18
100
AcDbLine
 10
59.6118973751
 20
46.9409434059
 30
0.0
 11
59.6175530983
 21
47.2707594065
 31
0.0
  0
LINE
  5
459
330
1F
100
AcDbEntity
  8
0
  6
Continuous
 62
     8
370
    18
100
AcDbLine
 10
57.071968686
 20
54.2927715286
 30
0.0
 11
57.3548573721
 21
54.456079691
 31
0.0
  0
ENDSEC
  0
SECTION
  2
OBJECTS
  0
DICTIONARY
  5
C
330
0
100
AcDbDictionary
281
     1
  3
ACAD_GROUP
350
D
  3
ACAD_LAYOUT
350
1A
  3
ACAD_MLINESTYLE
350
17
  3
ACAD_PLOTSETTINGS
350
19
  3
ACAD_PLOTSTYLENAME
350
E
  3
ACAD_SCALELIST
350
47
  0
DICTIONARY
  5
D
102
{ACAD_REACTORS
330
C
102
}
330
C
100
AcDbDictionary
281
     1
  0
DICTIONARY
  5
1A
102
{ACAD_REACTORS
330
C
102
}
330
C
100
AcDbDictionary
281
     1
  3
Layout1
350
1E
  3
Layout2
350
26
  3
Model
350
22
  0
DICTIONARY
  5
17
102
{ACAD_REACTORS
330
C
102
}
330
C
100
AcDbDictionary
281
     1
  3
Standard
350
18
  0
DICTIONARY
  5
19
102
{ACAD_REACTORS
330
C
102
}
330
C
100
AcDbDictionary
281
     1
  0
ACDBDICTIONARYWDFLT
  5
E
102
{ACAD_REACTORS
330
C
102
}
330
C
100
AcDbDictionary
281
     1
  3
Normal
350
F
100
AcDbDictionaryWithDefault
340
F
  0
DICTIONARY
  5
47
102
{ACAD_REACTORS
330
C
102
}
330
C
100
AcDbDictionary
281
     1
  3
A0
350
48
  3
A1
350
49
  3
A2
350
4A
  3
A3
350
4B
  3
A4
350
4C
  3
A5
350
4D
  3
A6
350
4E
  3
A7
350
4F
  3
A8
350
50
  3
A9
350
51
  3
B0
350
52
  3
B1
350
53
  3
B2
350
54
  3
B3
350
55
  3
B4
350
56
  3
B5
350
57
  3
B6
350
58
  3
B7
350
59
  3
B8
350
5A
  3
B9
350
5B
  3
C0
350
5C
  3
C1
350
5D
  3
C2
350
5E
  3
C3
350
5F
  3
C4
350
60
  3
C5
350
61
  3
C6
350
62
  3
C7
350
63
  3
C8
350
64
  3
C9
350
65
  3
D0
350
66
  3
D1
350
67
  3
D2
350
68
  0
LAYOUT
  5
1E
102
{ACAD_REACTORS
330
1A
102
}
330
1A
100
AcDbPlotSettings
  1

  2
none_device
  4

  6

 40
0.0
 41
0.0
 42
0.0
 43
0.0
 44
0.0
 45
0.0
 46
0.0
 47
0.0
 48
0.0
 49
0.0
140
0.0
141
0.0
142
1.0
143
1.0
 70
   688
 72
     1
 73
     0
 74
     5
  7

 75
    16
147
1.0
148
0.0
149
0.0
100
AcDbLayout
  1
Layout1
 70
     1
 71
     1
 10
0.0
 20
0.0
 11
420.0
 21
297.0
 12
0.0
 22
0.0
 32
0.0
 14
1.0000000000E+20
 24
1.0000000000E+20
 34
1.0000000000E+20
 15
-1.0000000000E+20
 25
-1.0000000000E+20
 35
-1.0000000000E+20
146
0.0
 13
0.0
 23
0.0
 33
0.0
 16
1.0
 26
0.0
 36
0.0
 17
0.0
 27
1.0
 37
0.0
 76
     0
330
1B
  0
LAYOUT
  5
26
102
{ACAD_REACTORS
330
1A
102
}
330
1A
100
AcDbPlotSettings
  1

  2
none_device
  4

  6

 40
0.0
 41
0.0
 42
0.0
 43
0.0
 44
0.0
 45
0.0
 46
0.0
 47
0.0
 48
0.0
 49
0.0
140
0.0
141
0.0
142
1.0
143
1.0
 70
   688
 72
     1
 73
     0
 74
     5
  7

 75
    16
147
1.0
148
0.0
149
0.0
100
AcDbLayout
  1
Layout2
 70
     1
 71
     2
 10
0.0
 20
0.0
 11
0.0
 21
0.0
 12
0.0
 22
0.0
 32
0.0
 14
0.0
 24
0.0
 34
0.0
 15
0.0
 25
0.0
 35
0.0
146
0.0
 13
0.0
 23
0.0
 33
0.0
 16
1.0
 26
0.0
 36
0.0
 17
0.0
 27
1.0
 37
0.0
 76
     0
330
23
  0
LAYOUT
  5
22
102
{ACAD_REACTORS
330
1A
102
}
330
1A
100
AcDbPlotSettings
  1

  2
none_device
  4
Letter_(8.50_x_11.00_Inches)
  6

 40
6.35
 41
6.35
 42
6.35000508
 43
6.35000508
 44
215.9
 45
279.4
 46
0.0
 47
0.0
 48
0.0
 49
0.0
140
0.0
141
0.0
142
1.0
143
1.0
 70
  1712
 72
     1
 73
     0
 74
     0
  7

 75
     0
147
1.0
148
0.0
149
0.0
100
AcDbLayout
  1
Model
 70
     1
 71
     0
 10
0.0
 20
0.0
 11
420.0
 21
297.0
 12
0.0
 22
0.0
 32
0.0
 14
0.0
 24
0.0
 34
0.0
 15
420.0
 25
297.0
 35
0.0
146
0.0
 13
0.0
 23
0.0
 33
0.0
 16
1.0
 26
0.0
 36
0.0
 17
0.0
 27
1.0
 37
0.0
 76
     0
330
1F
331
29
  0
MLINESTYLE
  5
18
102
{ACAD_REACTORS
330
17
102
}
330
17
100
AcDbMlineStyle
  2
Standard
 70
     0
  3

 62
   256
 51
90.0
 52
90.0
 71
     2
 49
0.5
 62
   256
  6
BYLAYER
 49
-0.5
 62
   256
  6
BYLAYER
  0
ACDBPLACEHOLDER
  5
F
102
{ACAD_REACTORS
330
E
102
}
330
E
  0
SCALE
  5
48
102
{ACAD_REACTORS
330
47
102
}
330
47
100
AcDbScale
 70
     0
300
1:1
140
1.0
141
1.0
290
     1
  0
SCALE
  5
49
102
{ACAD_REACTORS
330
47
102
}
330
47
100
AcDbScale
 70
     0
300
1:2
140
1.0
141
2.0
290
     0
  0
SCALE
  5
4A
102
{ACAD_REACTORS
330
47
102
}
330
47
100
AcDbScale
 70
     0
300
1:4
140
1.0
141
4.0
290
     0
  0
SCALE
  5
4B
102
{ACAD_REACTORS
330
47
102
}
330
47
100
AcDbScale
 70
     0
300
1:5
140
1.0
141
5.0
290
     0
  0
SCALE
  5
4C
102
{ACAD_REACTORS
330
47
102
}
330
47
100
AcDbScale
 70
     0
300
1:8
140
1.0
141
8.0
290
     0
  0
SCALE
  5
4D
102
{ACAD_REACTORS
330
47
102
}
330
47
100
AcDbScale
 70
     0
300
1:10
140
1.0
141
10.0
290
     0
  0
SCALE
  5
4E
102
{ACAD_REACTORS
330
47
102
}
330
47
100
AcDbScale
 70
     0
300
1:16
140
1.0
141
16.0
290
     0
  0
SCALE
  5
4F
102
{ACAD_REACTORS
330
47
102
}
330
47
100
AcDbScale
 70
     0
300
1:20
140
1.0
141
20.0
290
     0
  0
SCALE
  5
50
102
{ACAD_REACTORS
330
47
102
}
330
47
100
AcDbScale
 70
     0
300
1:30
140
1.0
141
30.0
290
     0
  0
SCALE
  5
51
102
{ACAD_REACTORS
330
47
102
}
330
47
100
AcDbScale
 70
     0
300
1:40
140
1.0
141
40.0
290
     0
  0
SCALE
  5
52
102
{ACAD_REACTORS
330
47
102
}
330
47
100
AcDbScale
 70
     0
300
1:50
140
1.0
141
50.0
290
     0
  0
SCALE
  5
53
102
{ACAD_REACTORS
330
47
102
}
330
47
100
AcDbScale
 70
     0
300
1:100
140
1.0
141
100.0
290
     0
  0
SCALE
  5
54
102
{ACAD_REACTORS
330
47
102
}
330
47
100
AcDbScale
 70
     0
300
2:1
140
2.0
141
1.0
290
     0
  0
SCALE
  5
55
102
{ACAD_REACTORS
330
47
102
}
330
47
100
AcDbScale
 70
     0
300
4:1
140
4.0
141
1.0
290
     0
  0
SCALE
  5
56
102
{ACAD_REACTORS
330
47
102
}
330
47
100
AcDbScale
 70
     0
300
8:1
140
8.0
141
1.0
290
     0
  0
SCALE
  5
57
102
{ACAD_REACTORS
330
47
102
}
330
47
100
AcDbScale
 70
     0
300
10:1
140
10.0
141
1.0
290
     0
  0
SCALE
  5
58
102
{ACAD_REACTORS
330
47
102
}
330
47
100
AcDbScale
 70
     0
300
100:1
140
100.0
141
1.0
290
     0
  0
SCALE
  5
59
102
{ACAD_REACTORS
330
47
102
}
330
47
100
AcDbScale
 70
     0
300
1/128" = 1'-0"
140
0.0078125
141
12.0
290
     0
  0
SCALE
  5
5A
102
{ACAD_REACTORS
330
47
102
}
330
47
100
AcDbScale
 70
     0
300
1/64" = 1'-0"
140
0.015625
141
12.0
290
     0
  0
SCALE
  5
5B
102
{ACAD_REACTORS
330
47
102
}
330
47
100
AcDbScale
 70
     0
300
1/32" = 1'-0"
140
0.03125
141
12.0
290
     0
  0
SCALE
  5
5C
102
{ACAD_REACTORS
330
47
102
}
330
47
100
AcDbScale
 70
     0
300
1/16" = 1'-0"
140
0.0625
141
12.0
290
     0
  0
SCALE
  5
5D
102
{ACAD_REACTORS
330
47
102
}
330
47
100
AcDbScale
 70
     0
300
3/32" = 1'-0"
140
0.09375
141
12.0
290
     0
  0
SCALE
  5
5E
102
{ACAD_REACTORS
330
47
102
}
330
47
100
AcDbScale
 70
     0
300
1/8" = 1'-0"
140
0.125
141
12.0
290
     0
  0
SCALE
  5
5F
102
{ACAD_REACTORS
330
47
102
}
330
47
100
AcDbScale
 70
     0
300
3/16" = 1'-0"
140
0.1875
141
12.0
290
     0
  0
SCALE
  5
60
102
{ACAD_REACTORS
330
47
102
}
330
47
100
AcDbScale
 70
     0
300
1/4" = 1'-0"
140
0.25
141
12.0
290
     0
  0
SCALE
  5
61
102
{ACAD_REACTORS
330
47
102
}
330
47
100
AcDbScale
 70
     0
300
3/8" = 1'-0"
140
0.375
141
12.0
290
     0
  0
SCALE
  5
62
102
{ACAD_REACTORS
330
47
102
}
330
47
100
AcDbScale
 70
     0
300
1/2" = 1'-0"
140
0.5
141
12.0
290
     0
  0
SCALE
  5
63
102
{ACAD_REACTORS
330
47
102
}
330
47
100
AcDbScale
 70
     0
300
3/4" = 1'-0"
140
0.75
141
12.0
290
     0
  0
SCALE
  5
64
102
{ACAD_REACTORS
330
47
102
}
330
47
100
AcDbScale
 70
     0
300
1" = 1'-0"
140
1.0
141
12.0
290
     0
  0
SCALE
  5
65
102
{ACAD_REACTORS
330
47
102
}
330
47
100
AcDbScale
 70
     0
300
1-1/2" = 1'-0"
140
1.5
141
12.0
290
     0
  0
SCALE
  5
66
102
{ACAD_REACTORS
330
47
102
}
330
47
100
AcDbScale
 70
     0
300
3" = 1'-0"
140
3.0
141
12.0
290
     0
  0
SCALE
  5
67
102
{ACAD_REACTORS
330
47
102
}
330
47
100
AcDbScale
 70
     0
300
6" = 1'-0"
140
6.0
141
12.0
290
     0
  0
SCALE
  5
68
102
{ACAD_REACTORS
330
47
102
}
330
47
100
AcDbScale
 70
     0
300
1'-0" = 1'-0"
140
12.0
141
12.0
290
     0
  0
ENDSEC
  0
EOF
