  0
SECTION
  2
HEADER
  9
$ACADVER
  1
AC1015
  9
$ACADMAINTVER
 70
     6
  9
$DWGCODEPAGE
  3
ANSI_1252
  9
$INSBASE
 10
0.0
 20
0.0
 30
0.0
  9
$EXTMIN
 10
0.0
 20
0.0
 30
0.0
  9
$EXTMAX
 10
420.0
 20
297.0
 30
0.0
  9
$LIMMIN
 10
0.0
 20
0.0
  9
$LIMMAX
 10
420.0
 20
297.0
  9
$ORTHOMODE
 70
     0
  9
$REGENMODE
 70
     1
  9
$FILLMODE
 70
     1
  9
$QTEXTMODE
 70
     0
  9
$MIRRTEXT
 70
     1
  9
$LTSCALE
 40
1.0
  9
$ATTMODE
 70
     1
  9
$TEXTSIZE
 40
3.5
  9
$TRACEWID
 40
1.0
  9
$TEXTSTYLE
  7
Standard
  9
$CLAYER
  8
0
  9
$CELTYPE
  6
ByLayer
  9
$CECOLOR
 62
   256
  9
$CELTSCALE
 40
1.0
  9
$DISPSILH
 70
     0
  9
$DIMSCALE
 40
1.0
  9
$DIMASZ
 40
3.5
  9
$DIMEXO
 40
0.1
  9
$DIMDLI
 40
3.75
  9
$DIMRND
 40
0.0
  9
$DIMDLE
 40
0.0
  9
$DIMEXE
 40
1.0
  9
$DIMTP
 40
0.0
  9
$DIMTM
 40
0.0
  9
$DIMTXT
 40
3.5
  9
$DIMCEN
 40
2.5
  9
$DIMTSZ
 40
0.0
  9
$DIMTOL
 70
     0
  9
$DIMLIM
 70
     0
  9
$DIMTIH
 70
     1
  9
$DIMTOH
 70
     1
  9
$DIMSE1
 70
     0
  9
$DIMSE2
 70
     0
  9
$DIMTAD
 70
     1
  9
$DIMZIN
 70
     0
  9
$DIMBLK
  1

  9
$DIMASO
 70
     1
  9
$DIMSHO
 70
     1
  9
$DIMPOST
  1

  9
$DIMAPOST
  1

  9
$DIMALT
 70
     0
  9
$DIMALTD
 70
     3
  9
$DIMALTF
 40
0.0393700787
  9
$DIMLFAC
 40
1.0
  9
$DIMTOFL
 70
     1
  9
$DIMTVP
 40
0.0
  9
$DIMTIX
 70
     0
  9
$DIMSOXD
 70
     0
  9
$DIMSAH
 70
     0
  9
$DIMBLK1
  1

  9
$DIMBLK2
  1

  9
$DIMSTYLE
  2
ISO-25
  9
$DIMCLRD
 70
     0
  9
$DIMCLRE
 70
     0
  9
$DIMCLRT
 70
     0
  9
$DIMTFAC
 40
1.0
  9
$DIMGAP
 40
2.0
  9
$DIMJUST
 70
     0
  9
$DIMSD1
 70
     0
  9
$DIMSD2
 70
     0
  9
$DIMTOLJ
 70
     0
  9
$DIMTZIN
 70
     0
  9
$DIMALTZ
 70
     0
  9
$DIMALTTZ
 70
     0
  9
$DIMUPT
 70
     0
  9
$DIMDEC
 70
     2
  9
$DIMTDEC
 70
     3
  9
$DIMALTU
 70
     2
  9
$DIMALTTD
 70
     3
  9
$DIMTXSTY
  7
Standard
  9
$DIMAUNIT
 70
     0
  9
$DIMADEC
 70
     2
  9
$DIMALTRND
 40
0.0
  9
$DIMAZIN
 70
     0
  9
$DIMDSEP
 70
    44
  9
$DIMATFIT
 70
     3
  9
$DIMFRAC
 70
     0
  9
$DIMLDRBLK
  1

  9
$DIMLUNIT
 70
     2
  9
$DIMLWD
 70
    -2
  9
$DIMLWE
 70
    -2
  9
$DIMTMOVE
 70
     0
  9
$LUNITS
 70
     2
  9
$LUPREC
 70
     2
  9
$SKETCHINC
 40
1.0
  9
$FILLETRAD
 40
10.0
  9
$AUNITS
 70
     0
  9
$AUPREC
 70
     2
  9
$MENU
  1
.
  9
$ELEVATION
 40
0.0
  9
$PELEVATION
 40
0.0
  9
$THICKNESS
 40
0.0
  9
$LIMCHECK
 70
     0
  9
$CHAMFERA
 40
0.0
  9
$CHAMFERB
 40
0.0
  9
$CHAMFERC
 40
0.0
  9
$CHAMFERD
 40
0.0
  9
$SKPOLY
 70
     0
  9
$TDCREATE
 40
2460061.481590752
  9
$TDUCREATE
 40
2460061.398257419
  9
$TDUPDATE
 40
2460061.48160316
  9
$TDUUPDATE
 40
2460061.398269827
  9
$TDINDWG
 40
0.0000000116
  9
$TDUSRTIMER
 40
0.0000000116
  9
$USRTIMER
 70
     1
  9
$ANGBASE
 50
0.0
  9
$ANGDIR
 70
     0
  9
$PDMODE
 70
     0
  9
$PDSIZE
 40
-1.0
  9
$PLINEWID
 40
0.0
  9
$SPLFRAME
 70
     0
  9
$SPLINETYPE
 70
     6
  9
$SPLINESEGS
 70
     8
  9
$HANDSEED
  5
35A
  9
$SURFTAB1
 70
     6
  9
$SURFTAB2
 70
     6
  9
$SURFTYPE
 70
     6
  9
$SURFU
 70
     6
  9
$SURFV
 70
     6
  9
$UCSBASE
  2

  9
$UCSNAME
  2

  9
$UCSORG
 10
0.0
 20
0.0
 30
0.0
  9
$UCSXDIR
 10
1.0
 20
0.0
 30
0.0
  9
$UCSYDIR
 10
0.0
 20
1.0
 30
0.0
  9
$UCSORTHOREF
  2

  9
$UCSORTHOVIEW
 70
     0
  9
$UCSORGTOP
 10
0.0
 20
0.0
 30
0.0
  9
$UCSORGBOTTOM
 10
0.0
 20
0.0
 30
0.0
  9
$UCSORGLEFT
 10
0.0
 20
0.0
 30
0.0
  9
$UCSORGRIGHT
 10
0.0
 20
0.0
 30
0.0
  9
$UCSORGFRONT
 10
0.0
 20
0.0
 30
0.0
  9
$UCSORGBACK
 10
0.0
 20
0.0
 30
0.0
  9
$PUCSBASE
  2

  9
$PUCSNAME
  2

  9
$PUCSORG
 10
0.0
 20
0.0
 30
0.0
  9
$PUCSXDIR
 10
1.0
 20
0.0
 30
0.0
  9
$PUCSYDIR
 10
0.0
 20
1.0
 30
0.0
  9
$PUCSORTHOREF
  2

  9
$PUCSORTHOVIEW
 70
     0
  9
$PUCSORGTOP
 10
0.0
 20
0.0
 30
0.0
  9
$PUCSORGBOTTOM
 10
0.0
 20
0.0
 30
0.0
  9
$PUCSORGLEFT
 10
0.0
 20
0.0
 30
0.0
  9
$PUCSORGRIGHT
 10
0.0
 20
0.0
 30
0.0
  9
$PUCSORGFRONT
 10
0.0
 20
0.0
 30
0.0
  9
$PUCSORGBACK
 10
0.0
 20
0.0
 30
0.0
  9
$USERI1
 70
     0
  9
$USERI2
 70
     0
  9
$USERI3
 70
     0
  9
$USERI4
 70
     0
  9
$USERI5
 70
     0
  9
$USERR1
 40
0.0
  9
$USERR2
 40
0.0
  9
$USERR3
 40
0.0
  9
$USERR4
 40
0.0
  9
$USERR5
 40
0.0
  9
$WORLDVIEW
 70
     1
  9
$SHADEDGE
 70
     3
  9
$SHADEDIF
 70
    70
  9
$TILEMODE
 70
     1
  9
$MAXACTVP
 70
    64
  9
$PINSBASE
 10
0.0
 20
0.0
 30
0.0
  9
$PLIMCHECK
 70
     0
  9
$PEXTMIN
 10
1.0000000000E+20
 20
1.0000000000E+20
 30
1.0000000000E+20
  9
$PEXTMAX
 10
-1.0000000000E+20
 20
-1.0000000000E+20
 30
-1.0000000000E+20
  9
$PLIMMIN
 10
0.0
 20
0.0
  9
$PLIMMAX
 10
420.0
 20
297.0
  9
$UNITMODE
 70
     0
  9
$VISRETAIN
 70
     1
  9
$PLINEGEN
 70
     0
  9
$PSLTSCALE
 70
     1
  9
$TREEDEPTH
 70
  3020
  9
$CMLSTYLE
  2
Standard
  9
$CMLJUST
 70
     0
  9
$CMLSCALE
 40
20.0
  9
$PROXYGRAPHICS
 70
     1
  9
$MEASUREMENT
 70
     1
  9
$CELWEIGHT
370
    -1
  9
$ENDCAPS
280
     0
  9
$JOINSTYLE
280
     0
  9
$LWDISPLAY
290
     1
  9
$INSUNITS
 70
     4
  9
$HYPERLINKBASE
  1

  9
$STYLESHEET
  1

  9
$XEDIT
290
     1
  9
$CEPSNTYPE
380
     0
  9
$PSTYLEMODE
290
     1
  9
$FINGERPRINTGUID
  2
{9f7a3854-0e64-4d83-9d02-2202cb3e2f67}
  9
$VERSIONGUID
  2
{FAEB1C32-E019-11D5-929B-00C0DF256EC4}
  9
$EXTNAMES
290
     1
  9
$PSVPSCALE
 40
0.0
  9
$OLESTARTUP
290
     0
  0
ENDSEC
  0
SECTION
  2
CLASSES
  0
CLASS
  1
ACDBDICTIONARYWDFLT
  2
AcDbDictionaryWithDefault
  3
ObjectDBX Classes
 90
        0
280
     0
281
     0
  0
CLASS
  1
VISUALSTYLE
  2
AcDbVisualStyle
  3
ObjectDBX Classes
 90
     4095
280
     0
281
     0
  0
CLASS
  1
MATERIAL
  2
AcDbMaterial
  3
ObjectDBX Classes
 90
     1153
280
     0
281
     0
  0
CLASS
  1
SCALE
  2
AcDbScale
  3
ObjectDBX Classes
 90
     1153
280
     0
281
     0
  0
CLASS
  1
TABLESTYLE
  2
AcDbTableStyle
  3
ObjectDBX Classes
 90
     4095
280
     0
281
     0
  0
CLASS
  1
MLEADERSTYLE
  2
AcDbMLeaderStyle
  3
ACDB_MLEADERSTYLE_CLASS
 90
     4095
280
     0
281
     0
  0
CLASS
  1
SUN
  2
AcDbSun
  3
SCENEOE
 90
     1153
280
     0
281
     0
  0
CLASS
  1
ACDBPLACEHOLDER
  2
AcDbPlaceHolder
  3
ObjectDBX Classes
 90
        0
280
     0
281
     0
  0
CLASS
  1
LAYOUT
  2
AcDbLayout
  3
ObjectDBX Classes
 90
        0
280
     0
281
     0
  0
ENDSEC
  0
SECTION
  2
TABLES
  0
TABLE
  2
VPORT
  5
8
330
0
100
AcDbSymbolTable
 70
     1
  0
VPORT
  5
29
330
8
100
AcDbSymbolTableRecord
100
AcDbViewportTableRecord
  2
*Active
 70
     0
 10
0.0
 20
0.0
 11
1.0
 21
1.0
 12
210.0
 22
148.5
 13
0.0
 23
0.0
 14
10.0
 24
10.0
 15
10.0
 25
10.0
 16
0.0
 26
0.0
 36
1.0
 17
0.0
 27
0.0
 37
0.0
 40
297.0
 41
1.4141414141
 42
50.0
 43
0.0
 44
0.0
 50
0.0
 51
0.0
 71
     0
 72
  2000
 73
     1
 74
     3
 75
     0
 76
     0
 77
     0
 78
     0
281
     0
 65
     1
110
0.0
120
0.0
130
0.0
111
1.0
121
0.0
131
0.0
112
0.0
122
1.0
132
0.0
 79
     0
146
0.0
  0
ENDTAB
  0
TABLE
  2
LTYPE
  5
5
330
0
100
AcDbSymbolTable
 70
     6
  0
LTYPE
  5
14
330
5
100
AcDbSymbolTableRecord
100
AcDbLinetypeTableRecord
  2
ByBlock
 70
     0
  3

 72
    65
 73
     0
 40
0.0
  0
LTYPE
  5
15
330
5
100
AcDbSymbolTableRecord
100
AcDbLinetypeTableRecord
  2
ByLayer
 70
     0
  3

 72
    65
 73
     0
 40
0.0
  0
LTYPE
  5
16
330
5
100
AcDbSymbolTableRecord
100
AcDbLinetypeTableRecord
  2
Continuous
 70
     0
  3
Solid line
 72
    65
 73
     0
 40
0.0
  0
LTYPE
  5
6E
330
5
100
AcDbSymbolTableRecord
100
AcDbLinetypeTableRecord
  2
HIDDEN
 70
     0
  3
Hidden __ __ __ __ __ __ __ __ __ __ __ __ __ __
 72
    65
 73
     2
 40
1.905
 49
1.27
 74
     0
 49
-0.635
 74
     0
  0
LTYPE
  5
6F
330
5
100
AcDbSymbolTableRecord
100
AcDbLinetypeTableRecord
  2
PHANTOM
 70
     0
  3
Phantom ______  __  __  ______  __  __  ______
 72
    65
 73
     6
 40
12.7
 49
6.35
 74
     0
 49
-1.27
 74
     0
 49
1.27
 74
     0
 49
-1.27
 74
     0
 49
1.27
 74
     0
 49
-1.27
 74
     0
  0
LTYPE
  5
70
330
5
100
AcDbSymbolTableRecord
100
AcDbLinetypeTableRecord
  2
CENTER
 70
     0
  3
Center ____ _ ____ _ ____ _ ____ _ ____ _ ____
 72
    65
 73
     4
 40
10.16
 49
6.35
 74
     0
 49
-1.27
 74
     0
 49
1.27
 74
     0
 49
-1.27
 74
     0
  0
LTYPE
  5
71
330
5
100
AcDbSymbolTableRecord
100
AcDbLinetypeTableRecord
  2
CENTERX2
 70
     0
  3
Center (2x) ________  __  ________  __  _____
 72
    65
 73
     4
 40
20.32
 49
12.7
 74
     0
 49
-2.54
 74
     0
 49
2.54
 74
     0
 49
-2.54
 74
     0
  0
LTYPE
  5
72
330
5
100
AcDbSymbolTableRecord
100
AcDbLinetypeTableRecord
  2
DOT2
 70
     0
  3
Dot (.5x) ........................................
 72
    65
 73
     2
 40
0.635
 49
0.0
 74
     0
 49
-0.635
 74
     0
  0
ENDTAB
  0
TABLE
  2
LAYER
  5
2
330
0
100
AcDbSymbolTable
 70
     9
  0
LAYER
  5
10
330
2
100
AcDbSymbolTableRecord
100
AcDbLayerTableRecord
  2
0
 70
     0
 62
     7
  6
Continuous
370
    -3
390
F
  0
LAYER
  5
73
330
2
100
AcDbSymbolTableRecord
100
AcDbLayerTableRecord
  2
VORLAGE_TEXT
 70
     0
 62
     7
  6
Continuous
370
    -3
390
F
  0
LAYER
  5
74
330
2
100
AcDbSymbolTableRecord
100
AcDbLayerTableRecord
  2
VORLAGE_BEMASSUNG
 70
     0
 62
    -5
  6
Continuous
290
     0
370
    -3
390
F
  0
LAYER
  5
75
330
2
100
AcDbSymbolTableRecord
100
AcDbLayerTableRecord
  2
TEXT
 70
     0
 62
     7
  6
Continuous
370
    -3
390
F
  0
LAYER
  5
76
330
2
100
AcDbSymbolTableRecord
100
AcDbLayerTableRecord
  2
LINIEN-DICK
 70
     0
 62
     7
  6
Continuous
370
    35
390
F
  0
LAYER
  5
77
330
2
100
AcDbSymbolTableRecord
100
AcDbLayerTableRecord
  2
LINIEN-NORMAL
 70
     0
 62
     7
  6
Continuous
370
    25
390
F
  0
LAYER
  5
78
330
2
100
AcDbSymbolTableRecord
100
AcDbLayerTableRecord
  2
LINIEN-DÜNN
 70
     0
 62
     7
  6
Continuous
370
    -3
390
F
  0
LAYER
  5
79
330
2
100
AcDbSymbolTableRecord
100
AcDbLayerTableRecord
  2
TEXT-DEUTSCH
 70
     0
 62
     7
  6
Continuous
370
    -3
390
F
  0
LAYER
  5
7A
330
2
100
AcDbSymbolTableRecord
100
AcDbLayerTableRecord
  2
TEXT-ENGLISCH
 70
     0
 62
    -7
  6
Continuous
290
     0
370
    -3
390
F
  0
ENDTAB
  0
TABLE
  2
STYLE
  5
3
330
0
100
AcDbSymbolTable
 70
     3
  0
STYLE
  5
11
330
3
100
AcDbSymbolTableRecord
100
AcDbTextStyleTableRecord
  2
Standard
 70
     0
 40
0.0
 41
1.0
 50
0.0
 71
     0
 42
3.5
  3
txt
  4

  0
STYLE
  5
F1
330
3
100
AcDbSymbolTableRecord
100
AcDbTextStyleTableRecord
  2
SLDTEXTSTYLE0
 70
     0
 40
0.0
 41
0.605
 50
0.0
 71
     0
 42
3.5
  3
TXT
  4

  0
STYLE
  5
199
330
3
100
AcDbSymbolTableRecord
100
AcDbTextStyleTableRecord
  2
SLDTEXTSTYLE1
 70
     0
 40
0.0
 41
0.563
 50
0.0
 71
     0
 42
3.5
  3
TXT
  4

  0
ENDTAB
  0
TABLE
  2
VIEW
  5
6
330
0
100
AcDbSymbolTable
 70
     0
  0
ENDTAB
  0
TABLE
  2
UCS
  5
7
330
0
100
AcDbSymbolTable
 70
     0
  0
ENDTAB
  0
TABLE
  2
APPID
  5
9
330
0
100
AcDbSymbolTable
 70
     1
  0
APPID
  5
12
330
9
100
AcDbSymbolTableRecord
100
AcDbRegAppTableRecord
  2
ACAD
 70
     0
  0
ENDTAB
  0
TABLE
  2
DIMSTYLE
  5
A
330
0
100
AcDbSymbolTable
 70
     3
100
AcDbDimStyleTable
  0
DIMSTYLE
105
27
330
A
100
AcDbSymbolTableRecord
100
AcDbDimStyleTableRecord
  2
ISO-25
 70
     0
 41
2.5
 42
0.625
 43
3.75
 44
1.25
 73
     0
 74
     0
 77
     1
 78
     8
140
2.5
141
2.5
143
0.0393700787
147
0.625
171
     3
172
     1
178
     0
271
     2
272
     2
274
     3
278
    44
283
     0
284
     8
340
11
  0
DIMSTYLE
105
2B4
102
{ACAD_REACTORS
330
2B3
330
2CA
330
2D5
102
}
330
A
100
AcDbSymbolTableRecord
100
AcDbDimStyleTableRecord
  2
SLDDIMSTYLE0
 70
     0
 41
3.5
 44
0.0
 45
0.000000001
 73
     0
 74
     0
 77
     1
 78
    12
 79
     3
140
3.5
147
0.875
173
     1
178
     0
271
     2
272
     3
276
     2
284
    12
340
F1
  0
DIMSTYLE
105
2C0
102
{ACAD_REACTORS
330
2BF
102
}
330
A
100
AcDbSymbolTableRecord
100
AcDbDimStyleTableRecord
  2
SLDDIMSTYLE1
 70
     0
 41
3.5
 44
0.0
 45
0.000000001
 73
     0
 74
     0
 77
     1
 78
    12
 79
     3
140
3.5
147
0.875
173
     1
178
     0
271
     1
272
     3
276
     2
284
    12
340
F1
  0
ENDTAB
  0
TABLE
  2
BLOCK_RECORD
  5
1
330
0
100
AcDbSymbolTable
 70
    10
  0
BLOCK_RECORD
  5
1F
330
1
100
AcDbSymbolTableRecord
100
AcDbBlockTableRecord
  2
*Model_Space
340
22
  0
BLOCK_RECORD
  5
1B
330
1
100
AcDbSymbolTableRecord
100
AcDbBlockTableRecord
  2
*Paper_Space
340
1E
  0
BLOCK_RECORD
  5
23
330
1
100
AcDbSymbolTableRecord
100
AcDbBlockTableRecord
  2
*Paper_Space0
340
26
  0
BLOCK_RECORD
  5
7B
330
1
100
AcDbSymbolTableRecord
100
AcDbBlockTableRecord
  2
ACO-Logo
340
0
102
{BLKREFS
331
151
102
}
  0
BLOCK_RECORD
  5
EE
330
1
100
AcDbSymbolTableRecord
100
AcDbBlockTableRecord
  2
SW_NOTE_0
340
0
102
{BLKREFS
331
F3
102
}
  0
BLOCK_RECORD
  5
F4
330
1
100
AcDbSymbolTableRecord
100
AcDbBlockTableRecord
  2
SW_NOTE_0_1
340
0
102
{BLKREFS
331
F8
102
}
  0
BLOCK_RECORD
  5
F9
330
1
100
AcDbSymbolTableRecord
100
AcDbBlockTableRecord
  2
SW_NOTE_0_2
340
0
102
{BLKREFS
331
100
102
}
  0
BLOCK_RECORD
  5
178
330
1
100
AcDbSymbolTableRecord
100
AcDbBlockTableRecord
  2
SW_NOTE_0_3
340
0
102
{BLKREFS
331
180
102
}
  0
BLOCK_RECORD
  5
2B5
330
1
100
AcDbSymbolTableRecord
100
AcDbBlockTableRecord
  2
_D
340
0
  0
BLOCK_RECORD
  5
2C1
330
1
100
AcDbSymbolTableRecord
100
AcDbBlockTableRecord
  2
_D_1
340
0
  0
BLOCK_RECORD
  5
2CB
330
1
100
AcDbSymbolTableRecord
100
AcDbBlockTableRecord
  2
_D_2
340
0
  0
BLOCK_RECORD
  5
2D6
330
1
100
AcDbSymbolTableRecord
100
AcDbBlockTableRecord
  2
_D_3
340
0
  0
ENDTAB
  0
ENDSEC
  0
SECTION
  2
BLOCKS
  0
BLOCK
  5
20
330
1F
100
AcDbEntity
  8
0
100
AcDbBlockBegin
  2
*Model_Space
 70
     0
 10
0.0
 20
0.0
 30
0.0
  3
*Model_Space
  1

  0
ENDBLK
  5
21
330
1F
100
AcDbEntity
  8
0
100
AcDbBlockEnd
  0
BLOCK
  5
1C
330
1B
100
AcDbEntity
 67
     1
  8
0
100
AcDbBlockBegin
  2
*Paper_Space
 70
     0
 10
0.0
 20
0.0
 30
0.0
  3
*Paper_Space
  1

  0
ENDBLK
  5
1D
330
1B
100
AcDbEntity
 67
     1
  8
0
100
AcDbBlockEnd
  0
BLOCK
  5
24
330
23
100
AcDbEntity
  8
0
100
AcDbBlockBegin
  2
*Paper_Space0
 70
     0
 10
0.0
 20
0.0
 30
0.0
  3
*Paper_Space0
  1

  0
ENDBLK
  5
25
330
23
100
AcDbEntity
  8
0
100
AcDbBlockEnd
  0
BLOCK
  5
7C
330
7B
100
AcDbEntity
  8
0
100
AcDbBlockBegin
  2
ACO-Logo
 70
     0
 10
0.0
 20
0.0
 30
0.0
  3
ACO-Logo
  1

  0
ARC
  5
7E
330
7B
100
AcDbEntity
  8
0
  6
Continuous
 62
   179
370
    18
100
AcDbCircle
 10
80.3853261169
 20
4.9940995715
 30
0.0
 40
0.3000000000000441
100
AcDbArc
 50
181.9349323096
 51
274.6062978506
  0
ARC
  5
7F
330
7B
100
AcDbEntity
  8
0
  6
Continuous
 62
   179
370
    18
100
AcDbCircle
 10
81.2359083165
 20
2.1946665956
 30
0.0
 40
1.000000000000021
100
AcDbArc
 50
221.4087409628
 51
276.0561297228
  0
ARC
  5
80
330
7B
100
AcDbEntity
  8
0
  6
Continuous
 62
   179
370
    18
100
AcDbCircle
 10
79.1360017163
 20
3.654242048
 30
0.0
 40
0.300000000000004
100
AcDbArc
 50
181.2730300201
 51
274.4996077095
  0
ARC
  5
81
330
7B
100
AcDbEntity
  8
0
  6
Continuous
 62
   179
370
    18
100
AcDbCircle
 10
78.7699033484
 20
3.2873137407
 30
0.0
 40
0.4000000000000358
100
AcDbArc
 50
221.0090869016
 51
274.5606296317
  0
ARC
  5
82
330
7B
100
AcDbEntity
  8
0
  6
Continuous
 62
   179
370
    18
100
AcDbCircle
 10
91.2333953062
 20
4.6062442307
 30
0.0
 40
0.3000000000000493
100
AcDbArc
 50
274.4996077095
 51
3.7249371334
  0
ARC
  5
83
330
7B
100
AcDbEntity
  8
0
  6
Continuous
 62
   179
370
    18
100
AcDbCircle
 10
81.5287571045
 20
9.7648973508
 30
0.0
 40
1.00000000000002
100
AcDbArc
 50
93.1134387481
 51
181.9414863909
  0
ARC
  5
84
330
7B
100
AcDbEntity
  8
0
  6
Continuous
 62
   179
370
    18
100
AcDbCircle
 10
81.6051675115
 20
7.5107903456
 30
0.0
 40
1.0
100
AcDbArc
 50
181.9414863909
 51
274.398705355
  0
ARC
  5
85
330
7B
100
AcDbEntity
  8
0
  6
Continuous
 62
   179
370
    18
100
AcDbCircle
 10
80.1506905656
 20
11.9393118923
 30
0.0
 40
0.300000000000045
100
AcDbArc
 50
93.0418421566
 51
181.9349323096
  0
ARC
  5
86
330
7B
100
AcDbEntity
  8
0
  6
Continuous
 62
   179
370
    18
100
AcDbCircle
 10
78.1879722102
 20
12.3499352608
 30
0.0
 40
0.7999999999953393
100
AcDbArc
 50
92.6995697565
 51
148.2554209065
  0
ARC
  5
87
330
7B
100
AcDbEntity
  8
0
  6
Continuous
 62
   179
370
    18
100
AcDbCircle
 10
78.930862229
 20
12.8855189761
 30
0.0
 40
0.3000000000000031
100
AcDbArc
 50
92.6995697565
 51
181.2730300201
  0
ARC
  5
88
330
7B
100
AcDbEntity
  8
0
  6
Continuous
 62
   179
370
    18
100
AcDbCircle
 10
82.327743407
 20
9.8083568568
 30
0.0
 40
1.000000000000034
100
AcDbArc
 50
1.9414863909
 51
93.1134387481
  0
ARC
  5
89
330
7B
100
AcDbEntity
  8
0
  6
Continuous
 62
   179
370
    18
100
AcDbCircle
 10
81.5287571045
 20
9.7648973508
 30
0.0
 40
0.3625000000000009
100
AcDbArc
 50
93.1134387481
 51
181.9414863909
  0
ARC
  5
8A
330
7B
100
AcDbEntity
  8
0
  6
Continuous
 62
   179
370
    18
100
AcDbCircle
 10
82.327743407
 20
9.8083568568
 30
0.0
 40
0.3625000000000146
100
AcDbArc
 50
1.9414863909
 51
93.1134387481
  0
ARC
  5
8B
330
7B
100
AcDbEntity
  8
0
  6
Continuous
 62
   179
370
    18
100
AcDbCircle
 10
82.4035451983
 20
7.5722040138
 30
0.0
 40
1.000000000000008
100
AcDbArc
 50
274.398705355
 51
1.9414863909
  0
ARC
  5
8C
330
7B
100
AcDbEntity
  8
0
  6
Continuous
 62
   179
370
    18
100
AcDbCircle
 10
82.4035451983
 20
7.5722040138
 30
0.0
 40
0.3625000000000068
100
AcDbArc
 50
274.398705355
 51
1.9414863909
  0
ARC
  5
8D
330
7B
100
AcDbEntity
  8
0
  6
Continuous
 62
   179
370
    18
100
AcDbCircle
 10
81.6051675115
 20
7.5107903456
 30
0.0
 40
0.3625000000000111
100
AcDbArc
 50
181.9414863909
 51
274.398705355
  0
ARC
  5
8E
330
7B
100
AcDbEntity
  8
0
  6
Continuous
 62
   179
370
    18
100
AcDbCircle
 10
88.825822761
 20
8.0662148274
 30
0.0
 40
0.9999999999999997
100
AcDbArc
 50
274.398705355
 51
2.6541955134
  0
ARC
  5
8F
330
7B
100
AcDbEntity
  8
0
  6
Continuous
 62
   179
370
    18
100
AcDbCircle
 10
90.1578295581
 20
5.7814576687
 30
0.0
 40
0.3000000000000043
100
AcDbArc
 50
274.6062978507
 51
2.5147526475
  0
ARC
  5
90
330
7B
100
AcDbEntity
  8
0
  6
Continuous
 62
   179
370
    18
100
AcDbCircle
 10
88.825822761
 20
8.0662148274
 30
0.0
 40
0.3625000000000083
100
AcDbArc
 50
274.398705355
 51
2.6541955134
  0
ARC
  5
91
330
7B
100
AcDbEntity
  8
0
  6
Continuous
 62
   179
370
    18
100
AcDbCircle
 10
88.728529747
 20
10.16496413
 30
0.0
 40
1.000000000000001
100
AcDbArc
 50
2.6541955134
 51
93.1134387481
  0
ARC
  5
92
330
7B
100
AcDbEntity
  8
0
  6
Continuous
 62
   179
370
    18
100
AcDbCircle
 10
88.728529747
 20
10.16496413
 30
0.0
 40
0.3625000000000085
100
AcDbArc
 50
2.6541955134
 51
93.1134387481
  0
ARC
  5
93
330
7B
100
AcDbEntity
  8
0
  6
Continuous
 62
   179
370
    18
100
AcDbCircle
 10
89.8647121341
 20
12.455515937
 30
0.0
 40
0.2999999999999984
100
AcDbArc
 50
2.5147526475
 51
93.0418421566
  0
ARC
  5
94
330
7B
100
AcDbEntity
  8
0
  6
Continuous
 62
   179
370
    18
100
AcDbCircle
 10
90.6583795404
 20
13.4384863935
 30
0.0
 40
0.2999999999999911
100
AcDbArc
 50
3.7249371334
 51
92.6995697565
  0
CIRCLE
  5
95
330
7B
100
AcDbEntity
  8
0
  6
Continuous
 62
   179
370
    18
100
AcDbCircle
 10
15.7233972286
 20
6.4054930194
 30
0.0
 40
1.579500000000014
  0
CIRCLE
  5
96
330
7B
100
AcDbEntity
  8
0
  6
Continuous
 62
   179
370
    18
100
AcDbCircle
 10
15.7233972286
 20
6.4054930194
 30
0.0
 40
2.281499999999994
  0
ARC
  5
97
330
7B
100
AcDbEntity
  8
0
  6
Continuous
 62
   179
370
    18
100
AcDbCircle
 10
89.7681336026
 20
2.3106616691
 30
0.0
 40
0.098384530246548
100
AcDbArc
 50
332.3802627259
 51
4.9765441602
  0
ARC
  5
98
330
7B
100
AcDbEntity
  8
0
  6
Continuous
 62
   179
370
    18
100
AcDbCircle
 10
89.6886560089
 20
2.3522464185
 30
0.0
 40
0.1880839130754018
100
AcDbArc
 50
303.690067526
 51
332.3802627258
  0
ARC
  5
99
330
7B
100
AcDbEntity
  8
0
  6
Continuous
 62
   179
370
    18
100
AcDbCircle
 10
89.4849700869
 20
2.6577753016
 30
0.0
 40
0.5552839311631531
100
AcDbArc
 50
287.108652213
 51
303.690067526
  0
ARC
  5
9A
330
7B
100
AcDbEntity
  8
0
  6
Continuous
 62
   179
370
    18
100
AcDbCircle
 10
88.0513010646
 20
7.3154864882
 30
0.0
 40
5.428648309393203
100
AcDbArc
 50
285.2551187031
 51
287.108652213
  0
ARC
  5
9B
330
7B
100
AcDbEntity
  8
0
  6
Continuous
 62
   179
370
    18
100
AcDbCircle
 10
89.1317168954
 20
3.3539617753
 30
0.0
 40
1.322436378825653
100
AcDbArc
 50
281.4991866428
 51
285.255118703
  0
ARC
  5
9C
330
7B
100
AcDbEntity
  8
0
  6
Continuous
 62
   179
370
    18
100
AcDbCircle
 10
89.3198255509
 20
2.4293110075
 30
0.0
 40
0.3788454141584939
100
AcDbArc
 50
279.1917900003
 51
281.499186643
  0
ARC
  5
9D
330
7B
100
AcDbEntity
  8
0
  6
Continuous
 62
   179
370
    18
100
AcDbCircle
 10
89.0487250788
 20
4.1046569124
 30
0.0
 40
2.07598399629105
100
AcDbArc
 50
277.7634675038
 51
279.1917900002
  0
ARC
  5
9E
330
7B
100
AcDbEntity
  8
0
  6
Continuous
 62
   179
370
    18
100
AcDbCircle
 10
9.2588909915
 20
6.4054930194
 30
0.0
 40
1.579500000000074
100
AcDbArc
 50
31.0558004991
 51
330.0
  0
ARC
  5
9F
330
7B
100
AcDbEntity
  8
0
  6
Continuous
 62
   179
370
    18
100
AcDbCircle
 10
9.2588909915
 20
6.4054930194
 30
0.0
 40
2.281500000000107
100
AcDbArc
 50
30.7309172659
 51
330.0
  0
ARC
  5
A0
330
7B
100
AcDbEntity
  8
0
  6
Continuous
 62
   179
370
    18
100
AcDbCircle
 10
6.1288847544
 20
4.0685261312
 30
0.0
 40
4.914000000000307
100
AcDbArc
 50
172.3058370354
 51
179.7113029221
  0
ARC
  5
A1
330
7B
100
AcDbEntity
  8
0
  6
Continuous
 62
   179
370
    18
100
AcDbCircle
 10
-0.5401152456
 20
4.0685261312
 30
0.0
 40
4.91400000000019
100
AcDbArc
 50
0.2886970779
 51
7.6941629646
  0
ARC
  5
A2
330
7B
100
AcDbEntity
  8
0
  6
Continuous
 62
   179
370
    18
100
AcDbCircle
 10
-0.5401152456
 20
4.0685261312
 30
0.0
 40
5.616000000000127
100
AcDbArc
 50
0.2526096926
 51
53.5764263577
  0
ARC
  5
A3
330
7B
100
AcDbEntity
  8
0
  6
Continuous
 62
   179
370
    18
100
AcDbCircle
 10
6.1288847544
 20
4.0685261312
 30
0.0
 40
5.61600000000074
100
AcDbArc
 50
126.4235736423
 51
179.7473903073
  0
ARC
  5
A4
330
7B
100
AcDbEntity
  8
0
  6
Continuous
 62
   179
370
    18
100
AcDbCircle
 10
-0.5401152456
 20
4.0685261312
 30
0.0
 40
4.914000000000161
100
AcDbArc
 50
16.0658750272
 51
47.2678899574
  0
ARC
  5
A5
330
7B
100
AcDbEntity
  8
0
  6
Continuous
 62
   179
370
    18
100
AcDbCircle
 10
6.1288847544
 20
4.0685261312
 30
0.0
 40
4.914000000000584
100
AcDbArc
 50
132.7321100426
 51
163.9341249728
  0
LINE
  5
A6
330
7B
100
AcDbEntity
  8
0
  6
Continuous
 62
   179
370
    18
100
AcDbLine
 10
78.8017089389
 20
2.8885802402
 30
0.0
 11
90.7982178739
 21
3.8455002136
 31
0.0
  0
LINE
  5
A7
330
7B
100
AcDbEntity
  8
0
  6
Continuous
 62
   179
370
    18
100
AcDbLine
 10
76.6545490427
 20
5.8693097374
 30
0.0
 11
78.0344191726
 21
3.5235305166
 31
0.0
  0
LINE
  5
A8
330
7B
100
AcDbEntity
  8
0
  6
Continuous
 62
   179
370
    18
100
AcDbLine
 10
91.5327615373
 20
4.6257342197
 30
0.0
 11
90.9577457715
 21
13.4579763825
 31
0.0
  0
LINE
  5
A9
330
7B
100
AcDbEntity
  8
0
  6
Continuous
 62
   179
370
    18
100
AcDbLine
 10
78.6309362756
 20
12.8788539549
 30
0.0
 11
78.8360757629
 21
3.6475770268
 31
0.0
  0
LINE
  5
AA
330
7B
100
AcDbEntity
  8
0
  6
Continuous
 62
   179
370
    18
100
AcDbLine
 10
80.4094186633
 20
4.6950685544
 30
0.0
 11
90.1819221045
 21
5.4824266516
 31
0.0
  0
LINE
  5
AB
330
7B
100
AcDbEntity
  8
0
  6
Continuous
 62
   179
370
    18
100
AcDbLine
 10
79.1595373973
 20
3.3551666867
 30
0.0
 11
91.2569309872
 21
4.3071688694
 31
0.0
  0
LINE
  5
AC
330
7B
100
AcDbEntity
  8
0
  6
Continuous
 62
   179
370
    18
100
AcDbLine
 10
79.2585043218
 20
2.925017226
 30
0.0
 11
80.4858981444
 21
1.533240302
 31
0.0
  0
LINE
  5
AD
330
7B
100
AcDbEntity
  8
0
  6
Continuous
 62
   179
370
    18
100
AcDbLine
 10
78.0344191726
 20
3.5235305166
 30
0.0
 11
78.3638740472
 21
3.1446574108
 31
0.0
  0
LINE
  5
AE
330
7B
100
AcDbEntity
  8
0
  6
Continuous
 62
   179
370
    18
100
AcDbLine
 10
78.3638740472
 20
3.1446574108
 30
0.0
 11
78.4680611395
 21
3.0248422547
 31
0.0
  0
LINE
  5
AF
330
7B
100
AcDbEntity
  8
0
  6
Continuous
 62
   179
370
    18
100
AcDbLine
 10
81.3414110113
 20
1.2002475785
 30
0.0
 11
89.3291569519
 21
2.0477010263
 31
0.0
  0
LINE
  5
B0
330
7B
100
AcDbEntity
  8
0
  6
Continuous
 62
   179
370
    18
100
AcDbLine
 10
89.8661472522
 20
2.5197759309
 30
0.0
 11
89.8661472522
 21
2.3090867337
 31
0.0
  0
LINE
  5
B1
330
7B
100
AcDbEntity
  8
0
  6
Continuous
 62
   179
370
    18
100
AcDbLine
 10
88.676842368
 20
3.6762854359
 30
0.0
 11
89.6713239345
 21
2.7875997807
 31
0.0
  0
LINE
  5
B2
330
7B
100
AcDbEntity
  8
0
  6
Continuous
 62
   179
370
    18
100
AcDbLine
 10
89.6713239345
 20
2.7875997807
 30
0.0
 11
89.7459749087
 21
2.7242700694
 31
0.0
  0
LINE
  5
B3
330
7B
100
AcDbEntity
  8
0
  6
Continuous
 62
   179
370
    18
100
AcDbLine
 10
90.7982178739
 20
3.8455002136
 30
0.0
 11
91.3961615969
 21
4.3514525945
 31
0.0
  0
LINE
  5
B4
330
7B
100
AcDbEntity
  8
0
  6
Continuous
 62
   179
370
    18
100
AcDbLine
 10
90.6442498554
 20
13.7381534621
 30
0.0
 11
78.1502930503
 21
13.1490474438
 31
0.0
  0
LINE
  5
B5
330
7B
100
AcDbEntity
  8
0
  6
Continuous
 62
   179
370
    18
100
AcDbLine
 10
80.1347709981
 20
12.2388892068
 30
0.0
 11
89.8487925667
 21
12.7550932515
 31
0.0
  0
LINE
  5
B6
330
7B
100
AcDbEntity
  8
0
  6
Continuous
 62
   179
370
    18
100
AcDbLine
 10
76.4935641943
 20
11.7567556248
 30
0.0
 11
76.6545490427
 21
5.8693097374
 31
0.0
  0
LINE
  5
B7
330
7B
100
AcDbEntity
  8
0
  6
Continuous
 62
   179
370
    18
100
AcDbLine
 10
79.8508616208
 20
11.929182536
 30
0.0
 11
80.0854971721
 21
4.9839702153
 31
0.0
  0
LINE
  5
B8
330
7B
100
AcDbEntity
  8
0
  6
Continuous
 62
   179
370
    18
100
AcDbLine
 10
80.5293311574
 20
9.7310185051
 30
0.0
 11
80.6057415643
 21
7.4769115
 31
0.0
  0
LINE
  5
B9
330
7B
100
AcDbEntity
  8
0
  6
Continuous
 62
   179
370
    18
100
AcDbLine
 10
77.507650604
 20
12.7708420346
 30
0.0
 11
76.4935641943
 21
11.7567556248
 31
0.0
  0
LINE
  5
BA
330
7B
100
AcDbEntity
  8
0
  6
Continuous
 62
   179
370
    18
100
AcDbLine
 10
86.8848195129
 20
11.0661568594
 30
0.0
 11
88.6742167283
 21
11.1634880887
 31
0.0
  0
LINE
  5
BB
330
7B
100
AcDbEntity
  8
0
  6
Continuous
 62
   179
370
    18
100
AcDbLine
 10
87.0766213517
 20
6.9287171941
 30
0.0
 11
88.90708891
 21
7.0695223909
 31
0.0
  0
LINE
  5
BC
330
7B
100
AcDbEntity
  8
0
  6
Continuous
 62
   179
370
    18
100
AcDbLine
 10
87.6830038473
 20
7.6147347768
 30
0.0
 11
88.8536252418
 21
7.7047825764
 31
0.0
  0
LINE
  5
BD
330
7B
100
AcDbEntity
  8
0
  6
Continuous
 62
   179
370
    18
100
AcDbLine
 10
87.5509212094
 20
10.4639459651
 30
0.0
 11
88.7088412777
 21
10.5269290651
 31
0.0
  0
LINE
  5
BE
330
7B
100
AcDbEntity
  8
0
  6
Continuous
 62
   179
370
    18
100
AcDbLine
 10
87.0766218384
 20
6.9287066941
 30
0.0
 11
86.8848195129
 21
11.0661568594
 31
0.0
  0
LINE
  5
BF
330
7B
100
AcDbEntity
  8
0
  6
Continuous
 62
   179
370
    18
100
AcDbLine
 10
83.7004598825
 20
6.6667911093
 30
0.0
 11
84.5054929504
 21
10.9267193262
 31
0.0
  0
LINE
  5
C0
330
7B
100
AcDbEntity
  8
0
  6
Continuous
 62
   179
370
    18
100
AcDbLine
 10
85.3543248406
 20
10.9728900984
 30
0.0
 11
86.4940946704
 21
6.8816860929
 31
0.0
  0
LINE
  5
C1
330
7B
100
AcDbEntity
  8
0
  6
Continuous
 62
   179
370
    18
100
AcDbLine
 10
84.9728575427
 20
9.9667192298
 30
0.0
 11
85.4540299774
 21
8.2395506903
 31
0.0
  0
LINE
  5
C2
330
7B
100
AcDbEntity
  8
0
  6
Continuous
 62
   179
370
    18
100
AcDbLine
 10
84.6363094629
 20
8.1858350416
 30
0.0
 11
84.9728575427
 21
9.9667192298
 31
0.0
  0
LINE
  5
C3
330
7B
100
AcDbEntity
  8
0
  6
Continuous
 62
   179
370
    18
100
AcDbLine
 10
87.6830038473
 20
7.6147347768
 30
0.0
 11
87.5509212094
 21
10.4639459651
 31
0.0
  0
LINE
  5
C4
330
7B
100
AcDbEntity
  8
0
  6
Continuous
 62
   179
370
    18
100
AcDbLine
 10
84.6363094629
 20
8.1858350416
 30
0.0
 11
85.4540299774
 21
8.2395506903
 31
0.0
  0
LINE
  5
C5
330
7B
100
AcDbEntity
  8
0
  6
Continuous
 62
   179
370
    18
100
AcDbLine
 10
84.5140586807
 20
7.5389304886
 30
0.0
 11
85.6288154243
 21
7.6121582976
 31
0.0
  0
LINE
  5
C6
330
7B
100
AcDbEntity
  8
0
  6
Continuous
 62
   179
370
    18
100
AcDbLine
 10
84.3588137958
 20
6.717433718
 30
0.0
 11
84.5140586807
 21
7.5389304886
 31
0.0
  0
LINE
  5
C7
330
7B
100
AcDbEntity
  8
0
  6
Continuous
 62
   179
370
    18
100
AcDbLine
 10
81.6818640104
 20
6.5137358601
 30
0.0
 11
82.4802416972
 21
6.5751495283
 31
0.0
  0
LINE
  5
C8
330
7B
100
AcDbEntity
  8
0
  6
Continuous
 62
   179
370
    18
100
AcDbLine
 10
81.6329699923
 20
7.1493580946
 30
0.0
 11
82.4313476791
 21
7.2107717628
 31
0.0
  0
LINE
  5
C9
330
7B
100
AcDbEntity
  8
0
  6
Continuous
 62
   179
370
    18
100
AcDbLine
 10
83.7004598825
 20
6.6667911093
 30
0.0
 11
84.3588137958
 21
6.717433718
 31
0.0
  0
LINE
  5
CA
330
7B
100
AcDbEntity
  8
0
  6
Continuous
 62
   179
370
    18
100
AcDbLine
 10
82.7059483815
 20
9.3512024135
 30
0.0
 11
83.3423973297
 21
9.3930104243
 31
0.0
  0
LINE
  5
CB
330
7B
100
AcDbEntity
  8
0
  6
Continuous
 62
   179
370
    18
100
AcDbLine
 10
82.7491656358
 20
8.0762934118
 30
0.0
 11
83.385614584
 21
8.1181014226
 31
0.0
  0
LINE
  5
CC
330
7B
100
AcDbEntity
  8
0
  6
Continuous
 62
   179
370
    18
100
AcDbLine
 10
81.1664651987
 20
9.7526162692
 30
0.0
 11
81.2428756056
 21
7.4985092641
 31
0.0
  0
LINE
  5
CD
330
7B
100
AcDbEntity
  8
0
  6
Continuous
 62
   179
370
    18
100
AcDbLine
 10
82.6900353128
 20
9.8206379383
 30
0.0
 11
82.7052632884
 21
9.3714126602
 31
0.0
  0
LINE
  5
CE
330
7B
100
AcDbEntity
  8
0
  6
Continuous
 62
   179
370
    18
100
AcDbLine
 10
82.7491656358
 20
8.0762934118
 30
0.0
 11
82.7658371041
 21
7.5844850954
 31
0.0
  0
LINE
  5
CF
330
7B
100
AcDbEntity
  8
0
  6
Continuous
 62
   179
370
    18
100
AcDbLine
 10
83.3271693541
 20
9.8422357024
 30
0.0
 11
83.3423973297
 21
9.3930104243
 31
0.0
  0
LINE
  5
D0
330
7B
100
AcDbEntity
  8
0
  6
Continuous
 62
   179
370
    18
100
AcDbLine
 10
83.385614584
 20
8.1181014226
 30
0.0
 11
83.4029711454
 21
7.6060828595
 31
0.0
  0
LINE
  5
D1
330
7B
100
AcDbEntity
  8
0
  6
Continuous
 62
   179
370
    18
100
AcDbLine
 10
85.6288154243
 20
7.6121582976
 30
0.0
 11
85.8462022593
 21
6.8318482152
 31
0.0
  0
LINE
  5
D2
330
7B
100
AcDbEntity
  8
0
  6
Continuous
 62
   179
370
    18
100
AcDbLine
 10
85.8462022593
 20
6.8318482152
 30
0.0
 11
86.4940946704
 21
6.8816860929
 31
0.0
  0
LINE
  5
D3
330
7B
100
AcDbEntity
  8
0
  6
Continuous
 62
   179
370
    18
100
AcDbLine
 10
84.5054929504
 20
10.9267193262
 30
0.0
 11
85.3543248406
 21
10.9728900984
 31
0.0
  0
LINE
  5
D4
330
7B
100
AcDbEntity
  8
0
  6
Continuous
 62
   179
370
    18
100
AcDbLine
 10
81.4744440858
 20
10.7634213094
 30
0.0
 11
82.2734303883
 21
10.8068808154
 31
0.0
  0
LINE
  5
D5
330
7B
100
AcDbEntity
  8
0
  6
Continuous
 62
   179
370
    18
100
AcDbLine
 10
81.5090686352
 20
10.1268622858
 30
0.0
 11
82.3080549377
 21
10.1703217918
 31
0.0
  0
LINE
  5
D6
330
7B
100
AcDbEntity
  8
0
  6
Continuous
 62
   179
370
    18
100
AcDbLine
 10
90.4575406452
 20
5.7946206556
 30
0.0
 11
90.1644232213
 21
12.4686789239
 31
0.0
  0
LINE
  5
D7
330
7B
100
AcDbEntity
  8
0
  6
Continuous
 62
   179
370
    18
100
AcDbLine
 10
89.8247499755
 20
8.1125227115
 30
0.0
 11
89.7274569615
 21
10.2112720142
 31
0.0
  0
LINE
  5
D8
330
7B
100
AcDbEntity
  8
0
  6
Continuous
 62
   179
370
    18
100
AcDbLine
 10
89.1879338763
 20
8.0830014354
 30
0.0
 11
89.0906408622
 21
10.181750738
 31
0.0
  0
LINE
  5
D9
330
7B
100
AcDbEntity
  8
0
  6
Continuous
 62
   179
370
    18
100
AcDbLine
 10
89.7459749087
 20
2.7242700694
 30
0.0
 11
89.7974962577
 21
2.6659765769
 31
0.0
  0
LINE
  5
DA
330
7B
100
AcDbEntity
  8
0
  6
Continuous
 62
   179
370
    18
100
AcDbLine
 10
89.7974962577
 20
2.6659765769
 30
0.0
 11
89.8351851379
 21
2.60192886
 31
0.0
  0
LINE
  5
DB
330
7B
100
AcDbEntity
  8
0
  6
Continuous
 62
   179
370
    18
100
AcDbLine
 10
89.8351851379
 20
2.60192886
 30
0.0
 11
89.8661472522
 21
2.5197759309
 31
0.0
  0
LINE
  5
DC
330
7B
100
AcDbEntity
  8
0
  6
Continuous
 62
   179
370
    18
100
AcDbLine
 10
10.6119938288
 20
7.2203138351
 30
0.0
 11
11.2200151261
 21
7.5713550947
 31
0.0
  0
LINE
  5
DD
330
7B
100
AcDbEntity
  8
0
  6
Continuous
 62
   179
370
    18
100
AcDbLine
 10
11.2347279503
 20
5.2647430194
 30
0.0
 11
10.6267781168
 21
5.6157430194
 31
0.0
  0
LINE
  5
DE
330
7B
100
AcDbEntity
  8
0
  6
Continuous
 62
   179
370
    18
100
AcDbLine
 10
6.4645062371
 20
16.1712617198
 30
0.0
 11
6.4645062371
 21
2.9364593988
 31
0.0
  0
LINE
  5
DF
330
7B
100
AcDbEntity
  8
0
  6
Continuous
 62
   179
370
    18
100
AcDbLine
 10
6.4645062371
 20
2.9364593988
 30
0.0
 11
12.0532757459
 21
2.9364593988
 31
0.0
  0
LINE
  5
E0
330
7B
100
AcDbEntity
  8
0
  6
Continuous
 62
   179
370
    18
100
AcDbLine
 10
12.0532757459
 20
2.9364593988
 30
0.0
 11
12.0532757459
 21
16.1712617198
 31
0.0
  0
LINE
  5
E1
330
7B
100
AcDbEntity
  8
0
  6
Continuous
 62
   179
370
    18
100
AcDbLine
 10
12.0532757459
 20
16.1712617198
 30
0.0
 11
6.4645062371
 21
16.1712617198
 31
0.0
  0
LINE
  5
E2
330
7B
100
AcDbEntity
  8
0
  6
Continuous
 62
   179
370
    18
100
AcDbLine
 10
0.0
 20
16.1712617198
 30
0.0
 11
0.0
 21
2.9364593988
 31
0.0
  0
LINE
  5
E3
330
7B
100
AcDbEntity
  8
0
  6
Continuous
 62
   179
370
    18
100
AcDbLine
 10
0.0
 20
2.9364593988
 30
0.0
 11
5.5887695089
 21
2.9364593988
 31
0.0
  0
LINE
  5
E4
330
7B
100
AcDbEntity
  8
0
  6
Continuous
 62
   179
370
    18
100
AcDbLine
 10
5.5887695089
 20
2.9364593988
 30
0.0
 11
5.5887695089
 21
16.1712617198
 31
0.0
  0
LINE
  5
E5
330
7B
100
AcDbEntity
  8
0
  6
Continuous
 62
   179
370
    18
100
AcDbLine
 10
5.5887695089
 20
16.1712617198
 30
0.0
 11
0.0
 21
16.1712617198
 31
0.0
  0
LINE
  5
E6
330
7B
100
AcDbEntity
  8
0
  6
Continuous
 62
   179
370
    18
100
AcDbLine
 10
1.2591262606
 20
4.7264381407
 30
0.0
 11
4.3296432482
 21
4.7264381407
 31
0.0
  0
LINE
  5
E7
330
7B
100
AcDbEntity
  8
0
  6
Continuous
 62
   179
370
    18
100
AcDbLine
 10
4.3738223747
 20
4.0932862697
 30
0.0
 11
5.0758301722
 21
4.0932862697
 31
0.0
  0
LINE
  5
E8
330
7B
100
AcDbEntity
  8
0
  6
Continuous
 62
   179
370
    18
100
AcDbLine
 10
0.5129393366
 20
4.0932862697
 30
0.0
 11
1.2149471342
 21
4.0932862697
 31
0.0
  0
LINE
  5
E9
330
7B
100
AcDbEntity
  8
0
  6
Continuous
 62
   179
370
    18
100
AcDbLine
 10
4.1819643097
 20
5.4284381407
 30
0.0
 11
1.4068051992
 21
5.4284381407
 31
0.0
  0
LINE
  5
EA
330
7B
100
AcDbEntity
  8
0
  6
Continuous
 62
   179
370
    18
100
AcDbLine
 10
18.517781983
 20
16.1712617198
 30
0.0
 11
18.517781983
 21
2.9364593988
 31
0.0
  0
LINE
  5
EB
330
7B
100
AcDbEntity
  8
0
  6
Continuous
 62
   179
370
    18
100
AcDbLine
 10
18.517781983
 20
2.9364593988
 30
0.0
 11
12.9290124742
 21
2.9364593988
 31
0.0
  0
LINE
  5
EC
330
7B
100
AcDbEntity
  8
0
  6
Continuous
 62
   179
370
    18
100
AcDbLine
 10
12.9290124742
 20
2.9364593988
 30
0.0
 11
12.9290124742
 21
16.1712617198
 31
0.0
  0
LINE
  5
ED
330
7B
100
AcDbEntity
  8
0
  6
Continuous
 62
   179
370
    18
100
AcDbLine
 10
12.9290124742
 20
16.1712617198
 30
0.0
 11
18.517781983
 21
16.1712617198
 31
0.0
  0
INSERT
  5
F3
330
7B
100
AcDbEntity
  8
0
  6
Continuous
 62
     7
370
     0
100
AcDbBlockReference
  2
SW_NOTE_0
 10
1.8998941161
 20
-0.3226565443
 30
0.0
  0
INSERT
  5
F8
330
7B
100
AcDbEntity
  8
0
  6
Continuous
 62
     7
370
     0
100
AcDbBlockReference
  2
SW_NOTE_0_1
 10
29.1164837035
 20
12.7459167441
 30
0.0
  0
INSERT
  5
100
330
7B
100
AcDbEntity
  8
0
  6
Continuous
 62
     7
370
     0
100
AcDbBlockReference
  2
SW_NOTE_0_2
 10
28.8863479825
 20
8.6365742194
 30
0.0
  0
ENDBLK
  5
7D
330
7B
100
AcDbEntity
  8
0
100
AcDbBlockEnd
  0
BLOCK
  5
EF
330
EE
100
AcDbEntity
  8
0
100
AcDbBlockBegin
  2
SW_NOTE_0
 70
     0
 10
0.0
 20
0.0
 30
0.0
  3
SW_NOTE_0
  1

  0
MTEXT
  5
F2
330
EE
100
AcDbEntity
  8
0
  6
Continuous
 62
     0
370
     0
100
AcDbMText
 10
7.46875
 20
2.5781354795
 30
0.0
 40
2.0
 41
0.0
 71
     2
 72
     1
  1
www.aco.ch
  7
SLDTEXTSTYLE0
 73
     1
 44
1.0
  0
ENDBLK
  5
F0
330
EE
100
AcDbEntity
  8
0
100
AcDbBlockEnd
  0
BLOCK
  5
F5
330
F4
100
AcDbEntity
  8
0
100
AcDbBlockBegin
  2
SW_NOTE_0_1
 70
     0
 10
0.0
 20
0.0
 30
0.0
  3
SW_NOTE_0_1
  1

  0
MTEXT
  5
F7
330
F4
100
AcDbEntity
  8
0
  6
Continuous
 62
     0
370
     0
100
AcDbMText
 10
0.0
 20
3.8672032193
 30
0.0
 40
3.0
 41
0.0
 71
     1
 72
     1
  1
ACO AG
  7
SLDTEXTSTYLE0
 73
     1
 44
1.0
  0
ENDBLK
  5
F6
330
F4
100
AcDbEntity
  8
0
100
AcDbBlockEnd
  0
BLOCK
  5
FA
330
F9
100
AcDbEntity
  8
0
100
AcDbBlockBegin
  2
SW_NOTE_0_2
 70
     0
 10
0.0
 20
0.0
 30
0.0
  3
SW_NOTE_0_2
  1

  0
MTEXT
  5
FC
330
F9
100
AcDbEntity
  8
0
  6
Continuous
 62
     0
370
     0
100
AcDbMText
 10
0.0
 20
2.5781354795
 30
0.0
 40
2.0
 41
0.0
 71
     1
 72
     1
  1
Industrie Kleinzaun
  7
SLDTEXTSTYLE0
 73
     1
 44
1.0
  0
MTEXT
  5
FD
330
F9
100
AcDbEntity
  8
0
  6
Continuous
 62
     0
370
     0
100
AcDbMText
 10
0.0
 20
-0.4218645465
 30
0.0
 40
2.0
 41
0.0
 71
     1
 72
     1
  1
CH-8754 Netstal
  7
SLDTEXTSTYLE0
 73
     1
 44
1.0
  0
MTEXT
  5
FE
330
F9
100
AcDbEntity
  8
0
  6
Continuous
 62
     0
370
     0
100
AcDbMText
 10
0.0
 20
-3.4218645726
 30
0.0
 40
2.0
 41
0.0
 71
     1
 72
     1
  1
Tel. 055 / 645 53 00
  7
SLDTEXTSTYLE0
 73
     1
 44
1.0
  0
MTEXT
  5
FF
330
F9
100
AcDbEntity
  8
0
  6
Continuous
 62
     0
370
     0
100
AcDbMText
 10
0.0
 20
-6.4218645987
 30
0.0
 40
2.0
 41
0.0
 71
     1
 72
     1
  1
E-Mail: aco@aco.ch
  7
SLDTEXTSTYLE0
 73
     1
 44
1.0
  0
ENDBLK
  5
FB
330
F9
100
AcDbEntity
  8
0
100
AcDbBlockEnd
  0
BLOCK
  5
179
330
178
100
AcDbEntity
  8
0
100
AcDbBlockBegin
  2
SW_NOTE_0_3
 70
     0
 10
0.0
 20
0.0
 30
0.0
  3
SW_NOTE_0_3
  1

  0
MTEXT
  5
17B
330
178
100
AcDbEntity
  8
0
  6
Continuous
 62
     0
370
     0
100
AcDbMText
 10
0.0
 20
1.9336016097
 30
0.0
 40
1.5
 41
0.0
 71
     1
 72
     1
  1
Diese Zeichnung darf weder kopiert
  7
SLDTEXTSTYLE0
 73
     1
 44
1.0
  0
MTEXT
  5
17C
330
178
100
AcDbEntity
  8
0
  6
Continuous
 62
     0
370
     0
100
AcDbMText
 10
0.0
 20
-0.5663983345
 30
0.0
 40
1.5
 41
0.0
 71
     1
 72
     1
  1
noch dritten Personen, insbesondere
  7
SLDTEXTSTYLE0
 73
     1
 44
1.0
  0
MTEXT
  5
17D
330
178
100
AcDbEntity
  8
0
  6
Continuous
 62
     0
370
     0
100
AcDbMText
 10
0.0
 20
-3.0663982786
 30
0.0
 40
1.5
 41
0.0
 71
     1
 72
     1
  1
zum Zweck anderweitiger Benutzung
  7
SLDTEXTSTYLE0
 73
     1
 44
1.0
  0
MTEXT
  5
17E
330
178
100
AcDbEntity
  8
0
  6
Continuous
 62
     0
370
     0
100
AcDbMText
 10
0.0
 20
-5.5663982227
 30
0.0
 40
1.5
 41
0.0
 71
     1
 72
     1
  1
mitgeteilt werden und bleibt unser
  7
SLDTEXTSTYLE0
 73
     1
 44
1.0
  0
MTEXT
  5
17F
330
178
100
AcDbEntity
  8
0
  6
Continuous
 62
     0
370
     0
100
AcDbMText
 10
0.0
 20
-8.0663981668
 30
0.0
 40
1.5
 41
0.0
 71
     1
 72
     1
  1
Eigentum.
  7
SLDTEXTSTYLE0
 73
     1
 44
1.0
  0
ENDBLK
  5
17A
330
178
100
AcDbEntity
  8
0
100
AcDbBlockEnd
  0
BLOCK
  5
2B6
330
2B5
100
AcDbEntity
  8
0
100
AcDbBlockBegin
  2
_D
 70
     0
 10
0.0
 20
0.0
 30
0.0
  3
_D
  1

  0
SOLID
  5
2B8
330
2B5
100
AcDbEntity
  8
0
  6
Continuous
 62
     7
370
    18
100
AcDbTrace
 10
193.958609341
 20
262.2493514037
 30
0.0
 11
190.458609341
 21
262.7878129422
 31
0.0
 12
190.458609341
 22
261.7108898653
 32
0.0
 13
190.458609341
 23
261.7108898653
 33
0.0
  0
SOLID
  5
2B9
330
2B5
100
AcDbEntity
  8
0
  6
Continuous
 62
     7
370
    18
100
AcDbTrace
 10
85.958609341
 20
262.2493514037
 30
0.0
 11
89.458609341
 21
261.7108898653
 31
0.0
 12
89.458609341
 22
262.7878129422
 32
0.0
 13
89.458609341
 23
262.7878129422
 33
0.0
  0
LINE
  5
2BA
330
2B5
100
AcDbEntity
  8
0
  6
Continuous
 62
     7
370
     0
100
AcDbLine
 10
193.958609341
 20
250.8493514037
 30
0.0
 11
193.958609341
 21
263.2493514037
 31
0.0
  0
LINE
  5
2BB
330
2B5
100
AcDbEntity
  8
0
  6
Continuous
 62
     7
370
     0
100
AcDbLine
 10
85.958609341
 20
250.8493514037
 30
0.0
 11
85.958609341
 21
263.2493514037
 31
0.0
  0
LINE
  5
2BC
330
2B5
100
AcDbEntity
  8
0
  6
Continuous
 62
     7
370
     0
100
AcDbLine
 10
193.958609341
 20
262.2493514037
 30
0.0
 11
85.958609341
 21
262.2493514037
 31
0.0
  0
MTEXT
  5
2BD
330
2B5
100
AcDbEntity
  8
0
  6
Continuous
 62
     7
370
    18
100
AcDbMText
 10
133.3967172339
 20
266.7610884929
 30
0.0
 40
3.5
 41
0.0
 71
     1
 72
     1
  1
%%c
  7
SLDTEXTSTYLE0
 73
     1
 44
1.0
  0
MTEXT
  5
2BE
330
2B5
100
AcDbEntity
  8
0
  6
Continuous
 62
     7
370
    18
100
AcDbMText
 10
138.4996687791
 20
266.7708108021
 30
0.0
 40
3.5
 41
0.0
 71
     1
 72
     1
  1
108
  7
SLDTEXTSTYLE0
 73
     1
 44
1.0
  0
ENDBLK
  5
2B7
330
2B5
100
AcDbEntity
  8
0
100
AcDbBlockEnd
  0
BLOCK
  5
2C2
330
2C1
100
AcDbEntity
  8
0
100
AcDbBlockBegin
  2
_D_1
 70
     0
 10
0.0
 20
0.0
 30
0.0
  3
_D_1
  1

  0
SOLID
  5
2C4
330
2C1
100
AcDbEntity
  8
0
  6
Continuous
 62
     7
370
    18
100
AcDbTrace
 10
65.2904240847
 20
252.2493514037
 30
0.0
 11
64.7519625463
 21
248.7493514037
 31
0.0
 12
65.8288856232
 22
248.7493514037
 32
0.0
 13
65.8288856232
 23
248.7493514037
 33
0.0
  0
SOLID
  5
2C5
330
2C1
100
AcDbEntity
  8
0
  6
Continuous
 62
     7
370
    18
100
AcDbTrace
 10
65.2904240847
 20
160.829449665
 30
0.0
 11
65.8288856232
 21
164.329449665
 31
0.0
 12
64.7519625463
 22
164.329449665
 32
0.0
 13
64.7519625463
 23
164.329449665
 33
0.0
  0
LINE
  5
2C6
330
2C1
100
AcDbEntity
  8
0
  6
Continuous
 62
     7
370
     0
100
AcDbLine
 10
87.108609341
 20
252.2493514037
 30
0.0
 11
64.2904240847
 21
252.2493514037
 31
0.0
  0
LINE
  5
2C7
330
2C1
100
AcDbEntity
  8
0
  6
Continuous
 62
     7
370
     0
100
AcDbLine
 10
109.858609341
 20
160.829449665
 30
0.0
 11
64.2904240847
 21
160.829449665
 31
0.0
  0
LINE
  5
2C8
330
2C1
100
AcDbEntity
  8
0
  6
Continuous
 62
     7
370
     0
100
AcDbLine
 10
65.2904240847
 20
252.2493514037
 30
0.0
 11
65.2904240847
 21
160.829449665
 31
0.0
  0
MTEXT
  5
2C9
330
2C1
100
AcDbEntity
  8
0
  6
Continuous
 62
     7
370
    18
100
AcDbMText
 10
60.7786867627
 20
201.8605812058
 30
0.0
 40
3.5
 41
0.0
 71
     1
 72
     1
  1
91.4
  7
SLDTEXTSTYLE0
 11
-7.044195017643634E-15
 21
1.0
 31
0.0
 73
     1
 44
1.0
  0
ENDBLK
  5
2C3
330
2C1
100
AcDbEntity
  8
0
100
AcDbBlockEnd
  0
BLOCK
  5
2CC
330
2CB
100
AcDbEntity
  8
0
100
AcDbBlockBegin
  2
_D_2
 70
     0
 10
0.0
 20
0.0
 30
0.0
  3
_D_2
  1

  0
SOLID
  5
2CE
330
2CB
100
AcDbEntity
  8
0
  6
Continuous
 62
     7
370
    18
100
AcDbTrace
 10
93.9588172805
 20
150.8223727849
 30
0.0
 11
97.4588172805
 21
150.2839112464
 31
0.0
 12
97.4588172805
 22
151.3608343233
 32
0.0
 13
97.4588172805
 23
151.3608343233
 33
0.0
  0
SOLID
  5
2CF
330
2CB
100
AcDbEntity
  8
0
  6
Continuous
 62
     7
370
    18
100
AcDbTrace
 10
185.9584014015
 20
150.8223727849
 30
0.0
 11
182.4584014015
 21
151.3608343233
 31
0.0
 12
182.4584014015
 22
150.2839112464
 32
0.0
 13
182.4584014015
 23
150.2839112464
 33
0.0
  0
LINE
  5
2D0
330
2CB
100
AcDbEntity
  8
0
  6
Continuous
 62
     7
370
     0
100
AcDbLine
 10
93.9588172805
 20
176.6478774842
 30
0.0
 11
93.9588172805
 21
149.8223727849
 31
0.0
  0
LINE
  5
2D1
330
2CB
100
AcDbEntity
  8
0
  6
Continuous
 62
     7
370
     0
100
AcDbLine
 10
185.9584014015
 20
176.6478774842
 30
0.0
 11
185.9584014015
 21
149.8223727849
 31
0.0
  0
LINE
  5
2D2
330
2CB
100
AcDbEntity
  8
0
  6
Continuous
 62
     7
370
     0
100
AcDbLine
 10
93.9588172805
 20
150.8223727849
 30
0.0
 11
185.9584014015
 21
150.8223727849
 31
0.0
  0
MTEXT
  5
2D3
330
2CB
100
AcDbEntity
  8
0
  6
Continuous
 62
     7
370
    18
100
AcDbMText
 10
134.7335227563
 20
155.3341098741
 30
0.0
 40
3.5
 41
0.0
 71
     1
 72
     1
  1
%%c
  7
SLDTEXTSTYLE0
 73
     1
 44
1.0
  0
MTEXT
  5
2D4
330
2CB
100
AcDbEntity
  8
0
  6
Continuous
 62
     7
370
    18
100
AcDbMText
 10
139.8364743016
 20
155.3438321833
 30
0.0
 40
3.5
 41
0.0
 71
     1
 72
     1
  1
92
  7
SLDTEXTSTYLE0
 73
     1
 44
1.0
  0
ENDBLK
  5
2CD
330
2CB
100
AcDbEntity
  8
0
100
AcDbBlockEnd
  0
BLOCK
  5
2D7
330
2D6
100
AcDbEntity
  8
0
100
AcDbBlockBegin
  2
_D_3
 70
     0
 10
0.0
 20
0.0
 30
0.0
  3
_D_3
  1

  0
SOLID
  5
2D9
330
2D6
100
AcDbEntity
  8
0
  6
Continuous
 62
     7
370
    18
100
AcDbTrace
 10
78.4911627907
 20
225.8243514037
 30
0.0
 11
77.9527012522
 21
222.3243514037
 31
0.0
 12
79.0296243292
 22
222.3243514037
 32
0.0
 13
79.0296243292
 23
222.3243514037
 33
0.0
  0
SOLID
  5
2DA
330
2D6
100
AcDbEntity
  8
0
  6
Continuous
 62
     7
370
    18
100
AcDbTrace
 10
78.4911627907
 20
175.8243514037
 30
0.0
 11
79.0296243292
 21
179.3243514037
 31
0.0
 12
77.9527012522
 22
179.3243514037
 32
0.0
 13
77.9527012522
 23
179.3243514037
 33
0.0
  0
LINE
  5
2DB
330
2D6
100
AcDbEntity
  8
0
  6
Continuous
 62
     7
370
     0
100
AcDbLine
 10
93.608609341
 20
225.8243514037
 30
0.0
 11
77.4911627907
 21
225.8243514037
 31
0.0
  0
LINE
  5
2DC
330
2D6
100
AcDbEntity
  8
0
  6
Continuous
 62
     7
370
     0
100
AcDbLine
 10
105.858609341
 20
175.8243514037
 30
0.0
 11
77.4911627907
 21
175.8243514037
 31
0.0
  0
LINE
  5
2DD
330
2D6
100
AcDbEntity
  8
0
  6
Continuous
 62
     7
370
     0
100
AcDbLine
 10
78.4911627907
 20
225.8243514037
 30
0.0
 11
78.4911627907
 21
175.8243514037
 31
0.0
  0
MTEXT
  5
2DE
330
2D6
100
AcDbEntity
  8
0
  6
Continuous
 62
     7
370
    18
100
AcDbMText
 10
73.9794254687
 20
198.1507403588
 30
0.0
 40
3.5
 41
0.0
 71
     1
 72
     1
  1
50
  7
SLDTEXTSTYLE0
 11
-7.044195017643634E-15
 21
1.0
 31
0.0
 73
     1
 44
1.0
  0
ENDBLK
  5
2D8
330
2D6
100
AcDbEntity
  8
0
100
AcDbBlockEnd
  0
ENDSEC
  0
SECTION
  2
ENTITIES
  0
LINE
  5
101
330
1F
100
AcDbEntity
  8
LINIEN-DÜNN
  6
CENTERX2
100
AcDbLine
 10
352.6174545849
 20
46.9080238789
 30
0.0
 11
352.6174545849
 21
39.4621586124
 31
0.0
  0
LINE
  5
102
330
1F
100
AcDbEntity
  8
LINIEN-DÜNN
100
AcDbLine
 10
357.7661698132
 20
46.3720107039
 30
0.0
 11
357.7661698132
 21
39.9353173413
 31
0.0
  0
LINE
  5
103
330
1F
100
AcDbEntity
  8
LINIEN-DÜNN
100
AcDbLine
 10
364.6059427486
 20
44.7376225767
 30
0.0
 11
364.6059427486
 21
41.5697054685
 31
0.0
  0
LINE
  5
104
330
1F
100
AcDbEntity
  8
LINIEN-DÜNN
100
AcDbLine
 10
364.6059427486
 20
44.7376225767
 30
0.0
 11
357.7661698132
 21
46.3720107039
 31
0.0
  0
LINE
  5
105
330
1F
100
AcDbEntity
  8
LINIEN-DÜNN
100
AcDbLine
 10
15.0
 20
198.5
 30
0.0
 11
20.0
 21
198.5
 31
0.0
  0
LINE
  5
106
330
1F
100
AcDbEntity
  8
LINIEN-DÜNN
100
AcDbLine
 10
12.0
 20
148.5
 30
0.0
 11
0.0
 21
148.5
 31
0.0
  0
LINE
  5
107
330
1F
100
AcDbEntity
  8
LINIEN-DÜNN
100
AcDbLine
 10
357.7661698132
 20
39.9353173413
 30
0.0
 11
364.6059427486
 21
41.5697054685
 31
0.0
  0
LINE
  5
108
330
1F
100
AcDbEntity
  8
LINIEN-DÜNN
  6
CENTERX2
100
AcDbLine
 10
348.6240467841
 20
43.1536640226
 30
0.0
 11
356.6108623857
 21
43.1536640226
 31
0.0
  0
LINE
  5
109
330
1F
100
AcDbEntity
  8
LINIEN-DÜNN
  6
CENTERX2
100
AcDbLine
 10
357.1289238876
 20
43.1536640226
 30
0.0
 11
365.6255362296
 21
43.1536640226
 31
0.0
  0
LINE
  5
10A
330
1F
100
AcDbEntity
  8
LINIEN-DÜNN
100
AcDbLine
 10
0.0
 20
0.0
 30
0.0
 11
420.0
 21
0.0
 31
0.0
  0
LINE
  5
10B
330
1F
100
AcDbEntity
  8
LINIEN-DÜNN
100
AcDbLine
 10
0.0
 20
0.0
 30
0.0
 11
0.0
 21
297.0
 31
0.0
  0
LINE
  5
10C
330
1F
100
AcDbEntity
  8
LINIEN-DÜNN
100
AcDbLine
 10
0.0
 20
297.0
 30
0.0
 11
420.0
 21
297.0
 31
0.0
  0
LINE
  5
10D
330
1F
100
AcDbEntity
  8
LINIEN-DÜNN
100
AcDbLine
 10
420.0
 20
0.0
 30
0.0
 11
420.0
 21
297.0
 31
0.0
  0
LINE
  5
10E
330
1F
100
AcDbEntity
  8
LINIEN-NORMAL
100
AcDbLine
 10
228.0
 20
35.0
 30
0.0
 11
410.0
 21
35.0
 31
0.0
  0
LINE
  5
10F
330
1F
100
AcDbEntity
  8
LINIEN-DÜNN
100
AcDbLine
 10
410.0
 20
198.5
 30
0.0
 11
415.0
 21
198.5
 31
0.0
  0
LINE
  5
110
330
1F
100
AcDbEntity
  8
LINIEN-DÜNN
100
AcDbLine
 10
15.0
 20
148.5
 30
0.0
 11
20.0
 21
148.5
 31
0.0
  0
LINE
  5
111
330
1F
100
AcDbEntity
  8
LINIEN-DÜNN
100
AcDbLine
 10
228.0
 20
40.0
 30
0.0
 11
296.6
 21
40.0
 31
0.0
  0
LINE
  5
112
330
1F
100
AcDbEntity
  8
LINIEN-DÜNN
100
AcDbLine
 10
15.0
 20
248.5
 30
0.0
 11
20.0
 21
248.5
 31
0.0
  0
LINE
  5
113
330
1F
100
AcDbEntity
  8
LINIEN-DICK
100
AcDbLine
 10
20.0
 20
287.0
 30
0.0
 11
20.0
 21
10.0
 31
0.0
  0
LINE
  5
114
330
1F
100
AcDbEntity
  8
LINIEN-DICK
100
AcDbLine
 10
410.0
 20
287.0
 30
0.0
 11
20.0
 21
287.0
 31
0.0
  0
LINE
  5
115
330
1F
100
AcDbEntity
  8
LINIEN-DICK
100
AcDbLine
 10
410.0
 20
5.0
 30
0.0
 11
410.0
 21
287.0
 31
0.0
  0
LINE
  5
116
330
1F
100
AcDbEntity
  8
LINIEN-DICK
100
AcDbLine
 10
20.0
 20
10.0
 30
0.0
 11
415.0
 21
10.0
 31
0.0
  0
LINE
  5
117
330
1F
100
AcDbEntity
  8
LINIEN-DÜNN
100
AcDbLine
 10
410.0
 20
148.5
 30
0.0
 11
415.0
 21
148.5
 31
0.0
  0
LINE
  5
118
330
1F
100
AcDbEntity
  8
LINIEN-DÜNN
100
AcDbLine
 10
228.0
 20
50.0
 30
0.0
 11
296.6
 21
50.0
 31
0.0
  0
LINE
  5
119
330
1F
100
AcDbEntity
  8
LINIEN-DÜNN
100
AcDbLine
 10
15.0
 20
98.5
 30
0.0
 11
20.0
 21
98.5
 31
0.0
  0
LINE
  5
11A
330
1F
100
AcDbEntity
  8
LINIEN-DÜNN
100
AcDbLine
 10
296.6
 20
45.0
 30
0.0
 11
228.0
 21
45.0
 31
0.0
  0
LINE
  5
11B
330
1F
100
AcDbEntity
  8
LINIEN-DÜNN
100
AcDbLine
 10
65.0
 20
292.0
 30
0.0
 11
65.0
 21
287.0
 31
0.0
  0
LINE
  5
11C
330
1F
100
AcDbEntity
  8
LINIEN-DÜNN
100
AcDbLine
 10
230.0
 20
292.0
 30
0.0
 11
230.0
 21
297.0
 31
0.0
  0
LINE
  5
11D
330
1F
100
AcDbEntity
  8
LINIEN-NORMAL
100
AcDbLine
 10
296.6
 20
55.0
 30
0.0
 11
296.6
 21
35.0
 31
0.0
  0
LINE
  5
11E
330
1F
100
AcDbEntity
  8
LINIEN-DÜNN
100
AcDbLine
 10
410.0
 20
98.5
 30
0.0
 11
415.0
 21
98.5
 31
0.0
  0
LINE
  5
11F
330
1F
100
AcDbEntity
  8
VORLAGE_BEMASSUNG
100
AcDbLine
 10
230.0
 20
5.0
 30
0.0
 11
230.0
 21
0.0
 31
0.0
  0
LINE
  5
120
330
1F
100
AcDbEntity
  8
LINIEN-DÜNN
100
AcDbLine
 10
125.0
 20
292.0
 30
0.0
 11
125.0
 21
297.0
 31
0.0
  0
LINE
  5
121
330
1F
100
AcDbEntity
  8
LINIEN-DÜNN
100
AcDbLine
 10
125.0
 20
5.0
 30
0.0
 11
125.0
 21
0.0
 31
0.0
  0
LINE
  5
122
330
1F
100
AcDbEntity
  8
LINIEN-NORMAL
100
AcDbLine
 10
410.0
 20
55.0
 30
0.0
 11
228.0
 21
55.0
 31
0.0
  0
LINE
  5
123
330
1F
100
AcDbEntity
  8
LINIEN-DÜNN
100
AcDbLine
 10
228.0
 20
55.0
 30
0.0
 11
410.0
 21
55.0
 31
0.0
  0
LINE
  5
124
330
1F
100
AcDbEntity
  8
LINIEN-DÜNN
100
AcDbLine
 10
410.0
 20
55.0
 30
0.0
 11
228.0
 21
55.0
 31
0.0
  0
LINE
  5
125
330
1F
100
AcDbEntity
  8
LINIEN-DÜNN
100
AcDbLine
 10
268.0
 20
76.5
 30
0.0
 11
268.0
 21
55.0
 31
0.0
  0
LINE
  5
126
330
1F
100
AcDbEntity
  8
LINIEN-DÜNN
100
AcDbLine
 10
271.6
 20
55.0
 30
0.0
 11
271.6
 21
40.0
 31
0.0
  0
LINE
  5
127
330
1F
100
AcDbEntity
  8
LINIEN-DÜNN
100
AcDbLine
 10
247.0
 20
55.0
 30
0.0
 11
247.0
 21
35.0
 31
0.0
  0
LINE
  5
128
330
1F
100
AcDbEntity
  8
LINIEN-DICK
100
AcDbLine
 10
228.0
 20
76.5
 30
0.0
 11
228.0
 21
10.0
 31
0.0
  0
LINE
  5
129
330
1F
100
AcDbEntity
  8
LINIEN-DÜNN
100
AcDbLine
 10
15.0
 20
292.0
 30
0.0
 11
415.0
 21
292.0
 31
0.0
  0
LINE
  5
12A
330
1F
100
AcDbEntity
  8
LINIEN-DÜNN
100
AcDbLine
 10
228.0
 20
65.75
 30
0.0
 11
310.0
 21
65.75
 31
0.0
  0
LINE
  5
12B
330
1F
100
AcDbEntity
  8
LINIEN-DICK
100
AcDbLine
 10
228.0
 20
76.5
 30
0.0
 11
410.0
 21
76.5
 31
0.0
  0
LINE
  5
12C
330
1F
100
AcDbEntity
  8
LINIEN-DÜNN
100
AcDbLine
 10
15.0
 20
48.5
 30
0.0
 11
20.0
 21
48.5
 31
0.0
  0
LINE
  5
12D
330
1F
100
AcDbEntity
  8
LINIEN-DÜNN
100
AcDbLine
 10
410.0
 20
48.5
 30
0.0
 11
415.0
 21
48.5
 31
0.0
  0
LINE
  5
12E
330
1F
100
AcDbEntity
  8
LINIEN-DÜNN
100
AcDbLine
 10
332.6610845472
 20
20.0
 30
0.0
 11
332.6610845472
 21
10.0
 31
0.0
  0
LINE
  5
12F
330
1F
100
AcDbEntity
  8
LINIEN-DÜNN
100
AcDbLine
 10
410.0
 20
248.5
 30
0.0
 11
415.0
 21
248.5
 31
0.0
  0
LINE
  5
130
330
1F
100
AcDbEntity
  8
LINIEN-DÜNN
100
AcDbLine
 10
65.0
 20
10.0
 30
0.0
 11
65.0
 21
5.0
 31
0.0
  0
LINE
  5
131
330
1F
100
AcDbEntity
  8
LINIEN-DÜNN
100
AcDbLine
 10
115.0
 20
10.0
 30
0.0
 11
115.0
 21
5.0
 31
0.0
  0
LINE
  5
132
330
1F
100
AcDbEntity
  8
LINIEN-DÜNN
100
AcDbLine
 10
115.0
 20
292.0
 30
0.0
 11
115.0
 21
287.0
 31
0.0
  0
LINE
  5
133
330
1F
100
AcDbEntity
  8
LINIEN-DÜNN
100
AcDbLine
 10
165.0
 20
10.0
 30
0.0
 11
165.0
 21
5.0
 31
0.0
  0
LINE
  5
134
330
1F
100
AcDbEntity
  8
LINIEN-DÜNN
100
AcDbLine
 10
165.0
 20
292.0
 30
0.0
 11
165.0
 21
287.0
 31
0.0
  0
LINE
  5
135
330
1F
100
AcDbEntity
  8
LINIEN-DÜNN
100
AcDbLine
 10
215.0
 20
10.0
 30
0.0
 11
215.0
 21
5.0
 31
0.0
  0
LINE
  5
136
330
1F
100
AcDbEntity
  8
LINIEN-DÜNN
100
AcDbLine
 10
215.0
 20
292.0
 30
0.0
 11
215.0
 21
287.0
 31
0.0
  0
LINE
  5
137
330
1F
100
AcDbEntity
  8
LINIEN-DÜNN
100
AcDbLine
 10
265.0
 20
10.0
 30
0.0
 11
265.0
 21
5.0
 31
0.0
  0
LINE
  5
138
330
1F
100
AcDbEntity
  8
LINIEN-DÜNN
100
AcDbLine
 10
265.0
 20
292.0
 30
0.0
 11
265.0
 21
287.0
 31
0.0
  0
LINE
  5
139
330
1F
100
AcDbEntity
  8
LINIEN-DÜNN
100
AcDbLine
 10
347.6610845472
 20
20.0
 30
0.0
 11
347.6610845472
 21
10.0
 31
0.0
  0
LINE
  5
13A
330
1F
100
AcDbEntity
  8
LINIEN-DÜNN
100
AcDbLine
 10
362.6610845472
 20
20.0
 30
0.0
 11
362.6610845472
 21
10.0
 31
0.0
  0
LINE
  5
13B
330
1F
100
AcDbEntity
  8
LINIEN-NORMAL
100
AcDbLine
 10
327.6610845472
 20
10.0
 30
0.0
 11
327.6610845472
 21
55.0
 31
0.0
  0
LINE
  5
13C
330
1F
100
AcDbEntity
  8
LINIEN-DÜNN
100
AcDbLine
 10
20.0
 20
292.0
 30
0.0
 11
20.0
 21
297.0
 31
0.0
  0
LINE
  5
13D
330
1F
100
AcDbEntity
  8
LINIEN-DÜNN
100
AcDbLine
 10
20.0
 20
5.0
 30
0.0
 11
20.0
 21
0.0
 31
0.0
  0
LINE
  5
13E
330
1F
100
AcDbEntity
  8
LINIEN-DÜNN
100
AcDbLine
 10
315.0
 20
10.0
 30
0.0
 11
315.0
 21
5.0
 31
0.0
  0
LINE
  5
13F
330
1F
100
AcDbEntity
  8
LINIEN-DÜNN
100
AcDbLine
 10
315.0
 20
292.0
 30
0.0
 11
315.0
 21
287.0
 31
0.0
  0
LINE
  5
140
330
1F
100
AcDbEntity
  8
LINIEN-DÜNN
100
AcDbLine
 10
365.0
 20
10.0
 30
0.0
 11
365.0
 21
5.0
 31
0.0
  0
LINE
  5
141
330
1F
100
AcDbEntity
  8
LINIEN-DÜNN
100
AcDbLine
 10
365.0
 20
292.0
 30
0.0
 11
365.0
 21
287.0
 31
0.0
  0
LINE
  5
142
330
1F
100
AcDbEntity
  8
LINIEN-DÜNN
100
AcDbLine
 10
15.0
 20
292.0
 30
0.0
 11
15.0
 21
5.0
 31
0.0
  0
LINE
  5
143
330
1F
100
AcDbEntity
  8
LINIEN-DÜNN
100
AcDbLine
 10
15.0
 20
5.0
 30
0.0
 11
415.0
 21
5.0
 31
0.0
  0
LINE
  5
144
330
1F
100
AcDbEntity
  8
LINIEN-DÜNN
100
AcDbLine
 10
415.0
 20
292.0
 30
0.0
 11
415.0
 21
5.0
 31
0.0
  0
LINE
  5
145
330
1F
100
AcDbEntity
  8
LINIEN-DÜNN
100
AcDbLine
 10
347.6610845472
 20
44.213444
 30
0.0
 11
327.6610845472
 21
44.213444
 31
0.0
  0
LINE
  5
146
330
1F
100
AcDbEntity
  8
LINIEN-DÜNN
100
AcDbLine
 10
347.6610845472
 20
35.0
 30
0.0
 11
347.6610845472
 21
55.0
 31
0.0
  0
LINE
  5
147
330
1F
100
AcDbEntity
  8
LINIEN-DÜNN
100
AcDbLine
 10
370.057188
 20
55.012032
 30
0.0
 11
370.057188
 21
35.0
 31
0.0
  0
LINE
  5
148
330
1F
100
AcDbEntity
  8
LINIEN-DÜNN
100
AcDbLine
 10
398.0
 20
35.0
 30
0.0
 11
398.0
 21
20.0
 31
0.0
  0
LINE
  5
149
330
1F
100
AcDbEntity
  8
LINIEN-DÜNN
100
AcDbLine
 10
410.0
 20
15.0
 30
0.0
 11
327.6610845472
 21
15.0
 31
0.0
  0
LINE
  5
14A
330
1F
100
AcDbEntity
  8
LINIEN-DÜNN
100
AcDbLine
 10
327.6610845472
 20
20.0
 30
0.0
 11
410.0
 21
20.0
 31
0.0
  0
LINE
  5
14B
330
1F
100
AcDbEntity
  8
LINIEN-DÜNN
100
AcDbLine
 10
341.485486
 20
20.0
 30
0.0
 11
341.485486
 21
27.564675
 31
0.0
  0
LINE
  5
14C
330
1F
100
AcDbEntity
  8
LINIEN-NORMAL
100
AcDbLine
 10
310.0
 20
76.5
 30
0.0
 11
310.0
 21
55.0
 31
0.0
  0
CIRCLE
  5
14D
330
1F
100
AcDbEntity
  8
LINIEN-DÜNN
100
AcDbCircle
 10
11.0
 20
108.5
 30
0.0
 40
2.750000000000001
  0
CIRCLE
  5
14E
330
1F
100
AcDbEntity
  8
LINIEN-DÜNN
100
AcDbCircle
 10
11.0
 20
188.5
 30
0.0
 40
2.750000000000001
  0
CIRCLE
  5
14F
330
1F
100
AcDbEntity
  8
LINIEN-DÜNN
100
AcDbCircle
 10
352.6174545849
 20
43.1536640226
 30
0.0
 40
3.218346681300138
  0
CIRCLE
  5
150
330
1F
100
AcDbEntity
  8
LINIEN-DÜNN
100
AcDbCircle
 10
352.6174545849
 20
43.1536640226
 30
0.0
 40
1.583958554121555
  0
INSERT
  5
151
330
1F
100
AcDbEntity
  8
0
  6
Continuous
 62
     7
100
AcDbBlockReference
  2
ACO-Logo
 10
314.3510726297
 20
57.6366106772
 30
0.0
  0
POINT
  5
152
330
1F
100
AcDbEntity
  8
VORLAGE_BEMASSUNG
100
AcDbPoint
 10
0.0
 20
0.0
 30
0.0
  0
POINT
  5
153
330
1F
100
AcDbEntity
  8
VORLAGE_BEMASSUNG
100
AcDbPoint
 10
410.0
 20
10.0
 30
0.0
  0
MTEXT
  5
154
330
1F
100
AcDbEntity
  8
VORLAGE_TEXT
100
AcDbMText
 10
17.7359443114
 20
124.8017866468
 30
0.0
 40
2.0
 41
0.0
 71
     2
 72
     1
  1
D
  7
SLDTEXTSTYLE0
 73
     1
 44
1.0
  0
MTEXT
  5
155
330
1F
100
AcDbEntity
  8
VORLAGE_TEXT
100
AcDbMText
 10
17.6274822413
 20
174.7261854936
 30
0.0
 40
2.0
 41
0.0
 71
     2
 72
     1
  1
C
  7
SLDTEXTSTYLE0
 73
     1
 44
1.0
  0
MTEXT
  5
156
330
1F
100
AcDbEntity
  8
VORLAGE_TEXT
100
AcDbMText
 10
17.5516905072
 20
224.4926420442
 30
0.0
 40
2.0
 41
0.0
 71
     2
 72
     1
  1
B
  7
SLDTEXTSTYLE0
 73
     1
 44
1.0
  0
MTEXT
  5
157
330
1F
100
AcDbEntity
  8
VORLAGE_TEXT
100
AcDbMText
 10
290.0344258799
 20
290.5428789914
 30
0.0
 40
2.0
 41
0.0
 71
     2
 72
     1
  1
6
  7
SLDTEXTSTYLE0
 73
     1
 44
1.0
  0
MTEXT
  5
158
330
1F
100
AcDbEntity
  8
VORLAGE_TEXT
100
AcDbMText
 10
240.0417859812
 20
290.6369260235
 30
0.0
 40
2.0
 41
0.0
 71
     2
 72
     1
  1
5
  7
SLDTEXTSTYLE0
 73
     1
 44
1.0
  0
MTEXT
  5
159
330
1F
100
AcDbEntity
  8
VORLAGE_TEXT
100
AcDbMText
 10
190.0300404524
 20
290.6343268032
 30
0.0
 40
2.0
 41
0.0
 71
     2
 72
     1
  1
4
  7
SLDTEXTSTYLE0
 73
     1
 44
1.0
  0
MTEXT
  5
15A
330
1F
100
AcDbEntity
  8
VORLAGE_TEXT
100
AcDbMText
 10
140.0165868337
 20
290.6378887952
 30
0.0
 40
2.0
 41
0.0
 71
     2
 72
     1
  1
3
  7
SLDTEXTSTYLE0
 73
     1
 44
1.0
  0
MTEXT
  5
15B
330
1F
100
AcDbEntity
  8
VORLAGE_TEXT
100
AcDbMText
 10
90.033223
 20
290.5566702875
 30
0.0
 40
2.0
 41
0.0
 71
     2
 72
     1
  1
2
  7
SLDTEXTSTYLE0
 73
     1
 44
1.0
  0
MTEXT
  5
15C
330
1F
100
AcDbEntity
  8
VORLAGE_TEXT
100
AcDbMText
 10
40.0509551097
 20
290.5530165805
 30
0.0
 40
2.0
 41
0.0
 71
     2
 72
     1
  1
1
  7
SLDTEXTSTYLE0
 73
     1
 44
1.0
  0
MTEXT
  5
15D
330
1F
100
AcDbEntity
  8
VORLAGE_TEXT
100
AcDbMText
 10
17.5609786315
 20
271.2966048816
 30
0.0
 40
2.0
 41
0.0
 71
     2
 72
     1
  1
A
  7
SLDTEXTSTYLE0
 73
     1
 44
1.0
  0
MTEXT
  5
15E
330
1F
100
AcDbEntity
  8
VORLAGE_TEXT
100
AcDbMText
 10
89.9333968896
 20
8.5904490253
 30
0.0
 40
2.0
 41
0.0
 71
     2
 72
     1
  1
2
  7
SLDTEXTSTYLE0
 73
     1
 44
1.0
  0
MTEXT
  5
15F
330
1F
100
AcDbEntity
  8
VORLAGE_TEXT
100
AcDbMText
 10
39.9009486579
 20
8.6623118453
 30
0.0
 40
2.0
 41
0.0
 71
     2
 72
     1
  1
1
  7
SLDTEXTSTYLE0
 73
     1
 44
1.0
  0
MTEXT
  5
160
330
1F
100
AcDbEntity
  8
VORLAGE_TEXT
100
AcDbMText
 10
190.0227230239
 20
8.7073169286
 30
0.0
 40
2.0
 41
0.0
 71
     2
 72
     1
  1
4
  7
SLDTEXTSTYLE0
 73
     1
 44
1.0
  0
MTEXT
  5
161
330
1F
100
AcDbEntity
  8
VORLAGE_TEXT
100
AcDbMText
 10
140.0453427777
 20
8.5647154541
 30
0.0
 40
2.0
 41
0.0
 71
     2
 72
     1
  1
3
  7
SLDTEXTSTYLE0
 73
     1
 44
1.0
  0
MTEXT
  5
162
330
1F
100
AcDbEntity
  8
VORLAGE_TEXT
100
AcDbMText
 10
239.8749782531
 20
8.5637526825
 30
0.0
 40
2.0
 41
0.0
 71
     2
 72
     1
  1
5
  7
SLDTEXTSTYLE0
 73
     1
 44
1.0
  0
MTEXT
  5
163
330
1F
100
AcDbEntity
  8
VORLAGE_TEXT
100
AcDbMText
 10
412.6717254925
 20
224.51208263
 30
0.0
 40
2.0
 41
0.0
 71
     2
 72
     1
  1
B
  7
SLDTEXTSTYLE0
 73
     1
 44
1.0
  0
MTEXT
  5
164
330
1F
100
AcDbEntity
  8
VORLAGE_TEXT
100
AcDbMText
 10
412.5951211154
 20
271.2798202564
 30
0.0
 40
2.0
 41
0.0
 71
     2
 72
     1
  1
A
  7
SLDTEXTSTYLE0
 73
     1
 44
1.0
  0
MTEXT
  5
165
330
1F
100
AcDbEntity
  8
VORLAGE_TEXT
100
AcDbMText
 10
412.6491448679
 20
174.7279841048
 30
0.0
 40
2.0
 41
0.0
 71
     2
 72
     1
  1
C
  7
SLDTEXTSTYLE0
 73
     1
 44
1.0
  0
MTEXT
  5
166
330
1F
100
AcDbEntity
  8
VORLAGE_TEXT
100
AcDbMText
 10
340.0216466634
 20
290.5954278102
 30
0.0
 40
2.0
 41
0.0
 71
     2
 72
     1
  1
7
  7
SLDTEXTSTYLE0
 73
     1
 44
1.0
  0
MTEXT
  5
167
330
1F
100
AcDbEntity
  8
VORLAGE_TEXT
100
AcDbMText
 10
390.037657264
 20
290.6215496941
 30
0.0
 40
2.0
 41
0.0
 71
     2
 72
     1
  1
8
  7
SLDTEXTSTYLE0
 73
     1
 44
1.0
  0
MTEXT
  5
168
330
1F
100
AcDbEntity
  8
VORLAGE_TEXT
100
AcDbMText
 10
17.6897935208
 20
74.7267628143
 30
0.0
 40
2.0
 41
0.0
 71
     2
 72
     1
  1
E
  7
SLDTEXTSTYLE0
 73
     1
 44
1.0
  0
MTEXT
  5
169
330
1F
100
AcDbEntity
  8
VORLAGE_TEXT
100
AcDbMText
 10
17.5936930126
 20
27.773321616
 30
0.0
 40
2.0
 41
0.0
 71
     2
 72
     1
  1
F
  7
SLDTEXTSTYLE0
 73
     1
 44
1.0
  0
MTEXT
  5
16A
330
1F
100
AcDbEntity
  8
VORLAGE_TEXT
100
AcDbMText
 10
339.8003474583
 20
8.7205095051
 30
0.0
 40
2.0
 41
0.0
 71
     2
 72
     1
  1
7
  7
SLDTEXTSTYLE0
 73
     1
 44
1.0
  0
MTEXT
  5
16B
330
1F
100
AcDbEntity
  8
VORLAGE_TEXT
100
AcDbMText
 10
289.7886477179
 20
8.6884673623
 30
0.0
 40
2.0
 41
0.0
 71
     2
 72
     1
  1
6
  7
SLDTEXTSTYLE0
 73
     1
 44
1.0
  0
MTEXT
  5
16C
330
1F
100
AcDbEntity
  8
VORLAGE_TEXT
100
AcDbMText
 10
412.5160699095
 20
74.5096307526
 30
0.0
 40
2.0
 41
0.0
 71
     2
 72
     1
  1
E
  7
SLDTEXTSTYLE0
 73
     1
 44
1.0
  0
MTEXT
  5
16D
330
1F
100
AcDbEntity
  8
VORLAGE_TEXT
100
AcDbMText
 10
412.6234021365
 20
124.4517683275
 30
0.0
 40
2.0
 41
0.0
 71
     2
 72
     1
  1
D
  7
SLDTEXTSTYLE0
 73
     1
 44
1.0
  0
MTEXT
  5
16E
330
1F
100
AcDbEntity
  8
TEXT-DEUTSCH
100
AcDbMText
 10
411.7952690469
 20
41.7817265718
 30
0.0
 40
1.8
 41
0.0
 71
     3
 72
     1
  1
Plotdatum: 26.04.2023
  7
SLDTEXTSTYLE0
 11
-3.269436733918102E-15
 21
1.0
 31
0.0
 73
     1
 44
1.0
  0
MTEXT
  5
16F
330
1F
100
AcDbEntity
  8
VORLAGE_TEXT
100
AcDbMText
 10
412.557933251
 20
8.2549718046
 30
0.0
 40
1.8
 41
0.0
 71
     2
 72
     1
  1
A3
  7
SLDTEXTSTYLE0
 73
     1
 44
1.0
  0
MTEXT
  5
170
330
1F
100
AcDbEntity
  8
VORLAGE_TEXT
100
AcDbMText
 10
390.594604279
 20
8.3847467643
 30
0.0
 40
1.8
 41
0.0
 71
     2
 72
     1
  1
CAD-System: SolidWorks
  7
SLDTEXTSTYLE0
 73
     1
 44
1.0
  0
MTEXT
  5
171
330
1F
100
AcDbEntity
  8
TEXT
100
AcDbMText
 10
404.0541923444
 20
28.4394692021
 30
0.0
 40
5.0
 41
0.0
 71
     2
 72
     1
  1
-
  7
SLDTEXTSTYLE0
 73
     1
 44
1.0
  0
MTEXT
  5
172
330
1F
100
AcDbEntity
  8
TEXT
100
AcDbMText
 10
249.556836311
 20
38.5581729516
 30
0.0
 40
2.0
 41
0.0
 71
     1
 72
     1
  1
Freigegeben
  7
SLDTEXTSTYLE0
 73
     1
 44
1.0
  0
MTEXT
  5
173
330
1F
100
AcDbEntity
  8
TEXT
100
AcDbMText
 10
284.1032088477
 20
43.5473338598
 30
0.0
 40
2.0
 41
0.0
 71
     2
 72
     1
  1
AB
  7
SLDTEXTSTYLE0
 73
     1
 44
1.0
  0
MTEXT
  5
174
330
1F
100
AcDbEntity
  8
TEXT
100
AcDbMText
 10
249.5284668163
 20
43.5603133928
 30
0.0
 40
2.0
 41
0.0
 71
     1
 72
     1
  1
26.04.2023
  7
SLDTEXTSTYLE0
 73
     1
 44
1.0
  0
MTEXT
  5
175
330
1F
100
AcDbEntity
  8
TEXT
100
AcDbMText
 10
284.1309088133
 20
48.5138972561
 30
0.0
 40
2.0
 41
0.0
 71
     2
 72
     1
  1
AB
  7
SLDTEXTSTYLE0
 73
     1
 44
1.0
  0
MTEXT
  5
176
330
1F
100
AcDbEntity
  8
TEXT
100
AcDbMText
 10
249.5284668163
 20
48.4989062069
 30
0.0
 40
2.0
 41
0.0
 71
     1
 72
     1
  1
26.04.2023
  7
SLDTEXTSTYLE0
 73
     1
 44
1.0
  0
MTEXT
  5
177
330
1F
100
AcDbEntity
  8
0
  6
Continuous
 62
     7
370
     0
100
AcDbMText
 10
372.2007348103
 20
38.8723054925
 30
0.0
 40
1.5
 41
0.0
 71
     1
 72
     1
  1
Copyright reserved! © ACO AG
  7
SLDTEXTSTYLE0
 73
     1
 44
1.0
  0
INSERT
  5
180
330
1F
100
AcDbEntity
  8
0
  6
Continuous
 62
     7
370
     0
100
AcDbBlockReference
  2
SW_NOTE_0_3
 10
372.2203831445
 20
51.2202922854
 30
0.0
  0
MTEXT
  5
181
330
1F
100
AcDbEntity
  8
TEXT
100
AcDbMText
 10
364.9468572407
 20
18.4594173137
 30
0.0
 40
2.0
 41
0.0
 71
     1
 72
     1
  1
Erstausgabe
  7
SLDTEXTSTYLE0
 73
     1
 44
1.0
  0
MTEXT
  5
182
330
1F
100
AcDbEntity
  8
TEXT
100
AcDbMText
 10
330.2607505021
 20
18.524501801
 30
0.0
 40
2.0
 41
0.0
 71
     2
 72
     1
  1
-
  7
SLDTEXTSTYLE0
 73
     1
 44
1.0
  0
MTEXT
  5
183
330
1F
100
AcDbEntity
  8
VORLAGE_TEXT
100
AcDbMText
 10
311.764909851
 20
46.3490312465
 30
0.0
 40
5.0
 41
0.0
 71
     2
 72
     1
  1
1:1
  7
SLDTEXTSTYLE0
 73
     1
 44
1.0
  0
MTEXT
  5
184
330
1F
100
AcDbEntity
  8
VORLAGE_TEXT
100
AcDbMText
 10
230.1851195342
 20
38.7793829468
 30
0.0
 40
2.0
 41
0.0
 71
     1
 72
     1
  1
Status:
  7
SLDTEXTSTYLE0
 73
     1
 44
1.0
  0
MTEXT
  5
185
330
1F
100
AcDbEntity
  8
TEXT
100
AcDbMText
 10
344.926838705
 20
28.2772828851
 30
0.0
 40
5.0
 41
0.0
 71
     1
 72
     1
  1
97267
  7
SLDTEXTSTYLE0
 73
     1
 44
1.0
  0
MTEXT
  5
186
330
1F
100
AcDbEntity
  8
TEXT
100
AcDbMText
 10
231.1132118803
 20
14.9211049657
 30
0.0
 40
2.5
 41
0.0
 71
     1
 72
     1
  1
Art. Nr.: 2021376
  7
SLDTEXTSTYLE0
 73
     1
 44
1.0
  0
MTEXT
  5
187
330
1F
100
AcDbEntity
  8
TEXT
100
AcDbMText
 10
231.1159560181
 20
33.0904969858
 30
0.0
 40
2.5
 41
0.0
 71
     1
 72
     1
  1
Haustechnik
  7
SLDTEXTSTYLE0
 73
     1
 44
1.0
  0
MTEXT
  5
188
330
1F
100
AcDbEntity
  8
TEXT
100
AcDbMText
 10
231.1475981734
 20
28.0307932366
 30
0.0
 40
3.5
 41
0.0
 71
     1
 72
     1
  1
Geruchsverschluss zu EG150
  7
SLDTEXTSTYLE0
 73
     1
 44
1.0
  0
MTEXT
  5
189
330
1F
100
AcDbEntity
  8
VORLAGE_TEXT
100
AcDbMText
 10
348.2746465368
 20
53.819119072
 30
0.0
 40
2.0
 41
0.0
 71
     1
 72
     1
  1
Projektion: ISO-E
  7
SLDTEXTSTYLE0
 73
     1
 44
1.0
  0
MTEXT
  5
18A
330
1F
100
AcDbEntity
  8
TEXT
100
AcDbMText
 10
337.7677091855
 20
49.3670227094
 30
0.0
 40
2.5
 41
0.0
 71
     2
 72
     1
  1
Millimeter
  7
SLDTEXTSTYLE0
 73
     1
 44
1.0
  0
MTEXT
  5
18B
330
1F
100
AcDbEntity
  8
VORLAGE_TEXT
100
AcDbMText
 10
337.6323777421
 20
53.855374072
 30
0.0
 40
2.0
 41
0.0
 71
     2
 72
     1
  1
Masseinheit:
  7
SLDTEXTSTYLE0
 73
     1
 44
1.0
  0
MTEXT
  5
18C
330
1F
100
AcDbEntity
  8
VORLAGE_TEXT
100
AcDbMText
 10
337.6114490186
 20
43.5452078816
 30
0.0
 40
2.0
 41
0.0
 71
     2
 72
     1
  1
Blatt / Anz.:
  7
SLDTEXTSTYLE0
 73
     1
 44
1.0
  0
MTEXT
  5
18D
330
1F
100
AcDbEntity
  8
VORLAGE_TEXT
100
AcDbMText
 10
329.2895578243
 20
28.4139191092
 30
0.0
 40
5.0
 41
0.0
 71
     1
 72
     1
  1
CH
  7
SLDTEXTSTYLE0
 73
     1
 44
1.0
  0
MTEXT
  5
18E
330
1F
100
AcDbEntity
  8
VORLAGE_TEXT
100
AcDbMText
 10
330.40704
 20
33.692638072
 30
0.0
 40
2.0
 41
0.0
 71
     1
 72
     1
  1
Zeichnung Nr.:
  7
SLDTEXTSTYLE0
 73
     1
 44
1.0
  0
MTEXT
  5
18F
330
1F
100
AcDbEntity
  8
VORLAGE_TEXT
100
AcDbMText
 10
269.897953
 20
75.161075072
 30
0.0
 40
2.0
 41
0.0
 71
     1
 72
     1
  1
Gewicht:
  7
SLDTEXTSTYLE0
 73
     1
 44
1.0
  0
MTEXT
  5
190
330
1F
100
AcDbEntity
  8
VORLAGE_TEXT
100
AcDbMText
 10
230.0
 20
64.542328072
 30
0.0
 40
2.0
 41
0.0
 71
     1
 72
     1
  1
zul. Abweichung:
  7
SLDTEXTSTYLE0
 73
     1
 44
1.0
  0
MTEXT
  5
191
330
1F
100
AcDbEntity
  8
VORLAGE_TEXT
100
AcDbMText
 10
269.612607
 20
64.542328072
 30
0.0
 40
2.0
 41
0.0
 71
     1
 72
     1
  1
Oberfläche:
  7
SLDTEXTSTYLE0
 73
     1
 44
1.0
  0
MTEXT
  5
192
330
1F
100
AcDbEntity
  8
VORLAGE_TEXT
100
AcDbMText
 10
230.261411
 20
43.4433838912
 30
0.0
 40
2.0
 41
0.0
 71
     1
 72
     1
  1
Freigegeben:
  7
SLDTEXTSTYLE0
 73
     1
 44
1.0
  0
MTEXT
  5
193
330
1F
100
AcDbEntity
  8
VORLAGE_TEXT
100
AcDbMText
 10
230.0
 20
75.161075072
 30
0.0
 40
2.0
 41
0.0
 71
     1
 72
     1
  1
Werkstoff:
  7
SLDTEXTSTYLE0
 73
     1
 44
1.0
  0
MTEXT
  5
194
330
1F
100
AcDbEntity
  8
VORLAGE_TEXT
100
AcDbMText
 10
254.035545
 20
53.129475072
 30
0.0
 40
2.0
 41
0.0
 71
     1
 72
     1
  1
Datum:
  7
SLDTEXTSTYLE0
 73
     1
 44
1.0
  0
MTEXT
  5
195
330
1F
100
AcDbEntity
  8
VORLAGE_TEXT
100
AcDbMText
 10
279.934928
 20
53.136060072
 30
0.0
 40
2.0
 41
0.0
 71
     1
 72
     1
  1
Name:
  7
SLDTEXTSTYLE0
 73
     1
 44
1.0
  0
MTEXT
  5
196
330
1F
100
AcDbEntity
  8
VORLAGE_TEXT
100
AcDbMText
 10
312.162455406
 20
53.881591072
 30
0.0
 40
2.0
 41
0.0
 71
     2
 72
     1
  1
Massstab:
  7
SLDTEXTSTYLE0
 73
     1
 44
1.0
  0
MTEXT
  5
197
330
1F
100
AcDbEntity
  8
VORLAGE_TEXT
100
AcDbMText
 10
403.9552944035
 20
33.324874072
 30
0.0
 40
2.0
 41
0.0
 71
     2
 72
     1
  1
Index:
  7
SLDTEXTSTYLE0
 73
     1
 44
1.0
  0
MTEXT
  5
198
330
1F
100
AcDbEntity
  8
VORLAGE_TEXT
100
AcDbMText
 10
230.261411
 20
48.4499477886
 30
0.0
 40
2.0
 41
0.0
 71
     1
 72
     1
  1
Erstellt:
  7
SLDTEXTSTYLE0
 73
     1
 44
1.0
  0
MTEXT
  5
19A
330
1F
100
AcDbEntity
  8
VORLAGE_TEXT
100
AcDbMText
 10
337.6348165843
 20
39.869706576
 30
0.0
 40
2.5
 41
0.0
 71
     2
 72
     1
  1
1 / 1
  7
SLDTEXTSTYLE1
 73
     1
 44
1.0
  0
MTEXT
  5
19B
330
1F
100
AcDbEntity
  8
TEXT
100
AcDbMText
 10
269.612607
 20
60.8119428599
 30
0.0
 40
3.0
 41
0.0
 71
     1
 72
     1
  1
DIN ISO 1302
  7
SLDTEXTSTYLE0
 73
     1
 44
1.0
  0
MTEXT
  5
19C
330
1F
100
AcDbEntity
  8
TEXT
100
AcDbMText
 10
230.0
 20
60.8119428599
 30
0.0
 40
3.0
 41
0.0
 71
     1
 72
     1
  1
Norm
  7
SLDTEXTSTYLE0
 73
     1
 44
1.0
  0
MTEXT
  5
19D
330
1F
100
AcDbEntity
  8
TEXT
100
AcDbMText
 10
269.612607
 20
71.2121947186
 30
0.0
 40
3.0
 41
0.0
 71
     1
 72
     1
  1
0.39 kg
  7
SLDTEXTSTYLE0
 73
     1
 44
1.0
  0
MTEXT
  5
19E
330
1F
100
AcDbEntity
  8
TEXT
100
AcDbMText
 10
230.0
 20
71.2121947186
 30
0.0
 40
3.0
 41
0.0
 71
     1
 72
     1
  1
1.4404 / TPE
  7
SLDTEXTSTYLE0
 73
     1
 44
1.0
  0
CIRCLE
  5
19F
330
1F
100
AcDbEntity
  8
0
  6
Continuous
 62
     7
370
    25
100
AcDbCircle
 10
139.958609341
 20
78.65274047
 30
0.0
 40
54.00000000000014
  0
LINE
  5
1A0
330
1F
100
AcDbEntity
  8
0
  6
Continuous
 62
     7
370
    25
100
AcDbLine
 10
142.458609341
 20
42.35274047
 30
0.0
 11
142.458609341
 21
122.3312534941
 31
0.0
  0
LINE
  5
1A1
330
1F
100
AcDbEntity
  8
0
  6
Continuous
 62
     7
370
    25
100
AcDbLine
 10
137.458609341
 20
122.3312534941
 30
0.0
 11
137.458609341
 21
42.35274047
 31
0.0
  0
LWPOLYLINE
  5
1A2
330
1F
100
AcDbEntity
  8
0
  6
Continuous
 62
     7
370
    25
100
AcDbPolyline
 90
       10
 70
   128
 43
0.0
 10
151.4841712217
 20
109.3076685117
 10
151.6725700194
 20
109.236174506
 10
151.6979824027
 20
109.2264288142
 10
151.7054818613
 20
109.223548099
 10
151.7077743367
 20
109.2226670821
 10
151.7090358731
 20
109.2221821787
 10
151.7091849381
 20
109.2221248778
 10
151.7092660775
 20
109.2220936873
 10
151.7092785915
 20
109.2220888768
 10
151.7092746081
 20
109.2220904081
  0
CIRCLE
  5
1A3
330
1F
100
AcDbEntity
  8
0
  6
Continuous
 62
     7
370
    25
100
AcDbCircle
 10
139.958609341
 20
78.65274047
 30
0.0
 40
49.75000000000014
  0
CIRCLE
  5
1A4
330
1F
100
AcDbEntity
  8
0
  6
Continuous
 62
     7
370
    25
100
AcDbCircle
 10
139.958609341
 20
78.65274047
 30
0.0
 40
46.00000000000013
  0
LINE
  5
1A5
330
1F
100
AcDbEntity
  8
0
  6
Continuous
 62
     7
370
    25
100
AcDbLine
 10
142.0496617076
 20
122.35274047
 30
0.0
 11
137.8675569744
 21
122.35274047
 31
0.0
  0
LINE
  5
1A6
330
1F
100
AcDbEntity
  8
0
  6
Continuous
 62
     7
370
    25
100
AcDbLine
 10
137.458609341
 20
42.35274047
 30
0.0
 11
142.458609341
 21
42.35274047
 31
0.0
  0
ARC
  5
1A7
330
1F
100
AcDbEntity
  8
0
  6
Continuous
 62
     7
370
    25
100
AcDbCircle
 10
136.1801727948
 20
117.4692758289
 30
0.0
 40
4.750000000000019
100
AcDbArc
 50
95.5597071084
 51
122.5993414365
  0
ARC
  5
1A8
330
1F
100
AcDbEntity
  8
0
  6
Continuous
 62
     7
370
    25
100
AcDbCircle
 10
143.7370458872
 20
117.4692758289
 30
0.0
 40
4.750000000000015
100
AcDbArc
 50
57.4006585635
 51
84.4402928909
  0
ARC
  5
1A9
330
1F
100
AcDbEntity
  8
0
  6
Continuous
 62
     7
370
    25
100
AcDbCircle
 10
139.958609341
 20
78.65274047
 30
0.0
 40
43.75
100
AcDbArc
 50
84.4402928916
 51
95.5597071084
  0
ARC
  5
1AA
330
1F
100
AcDbEntity
  8
0
  6
Continuous
 62
     7
370
    25
100
AcDbCircle
 10
136.1801727948
 20
117.4692758289
 30
0.0
 40
4.749999999999517
100
AcDbArc
 50
122.5993414365
 51
150.0
  0
ARC
  5
1AB
330
1F
100
AcDbEntity
  8
0
  6
Continuous
 62
     7
370
    25
100
AcDbCircle
 10
143.7370458872
 20
117.4692758289
 30
0.0
 40
4.750000000000338
100
AcDbArc
 50
30.0
 51
57.4006585635
  0
LINE
  5
1AC
330
1F
100
AcDbEntity
  8
0
  6
Continuous
 62
     7
370
    25
100
AcDbLine
 10
126.0344945346
 20
109.3964456049
 30
0.0
 11
132.0665521268
 21
119.8442758289
 31
0.0
  0
LINE
  5
1AD
330
1F
100
AcDbEntity
  8
0
  6
Continuous
 62
     7
370
    25
100
AcDbLine
 10
147.8506665551
 20
119.8442758289
 30
0.0
 11
153.8827241474
 21
109.3964456049
 31
0.0
  0
ARC
  5
1AE
330
1F
100
AcDbEntity
  8
0
  6
Continuous
 62
     7
370
    25
100
AcDbCircle
 10
159.2953829211
 20
112.5214456049
 30
0.0
 40
6.249999999999449
100
AcDbArc
 50
210.0
 51
240.2765125913
  0
ARC
  5
1AF
330
1F
100
AcDbEntity
  8
0
  6
Continuous
 62
     7
370
    25
100
AcDbCircle
 10
120.6218357609
 20
112.5214456049
 30
0.0
 40
6.249999999999938
100
AcDbArc
 50
299.7234874087
 51
330.0
  0
ARC
  5
1B0
330
1F
100
AcDbEntity
  8
0
  6
Continuous
 62
     7
370
    25
100
AcDbCircle
 10
139.958609341
 20
78.65274047
 30
0.0
 40
32.75000000000001
100
AcDbArc
 50
274.37798254
 51
60.2765125913
  0
ARC
  5
1B1
330
1F
100
AcDbEntity
  8
0
  6
Continuous
 62
     7
370
    25
100
AcDbCircle
 10
139.958609341
 20
78.65274047
 30
0.0
 40
32.75000000000001
100
AcDbArc
 50
119.7234874087
 51
265.62201746
  0
ARC
  5
1B2
330
1F
100
AcDbEntity
  8
0
  6
Continuous
 62
     7
370
    25
100
AcDbCircle
 10
94.9887768949
 20
11.5659804987
 30
0.0
 40
113.4546106039928
100
AcDbArc
 50
57.3509906076
 51
60.7337357336
  0
ARC
  5
1B3
330
1F
100
AcDbEntity
  8
0
  6
Continuous
 62
     7
370
    25
100
AcDbCircle
 10
139.958609341
 20
78.65274047
 30
0.0
 40
32.74999999999916
100
AcDbArc
 50
108.5737084116
 51
119.7234874087
  0
LWPOLYLINE
  5
1B4
330
1F
100
AcDbEntity
  8
0
  6
Continuous
 62
     7
370
    25
100
AcDbPolyline
 90
        3
 70
   128
 43
0.0
 10
150.3902824162
 20
109.6969459978
 10
151.2710528575
 20
109.3869416421
 10
151.5752199353
 20
109.2701735433
  0
ARC
  5
1B5
330
1F
100
AcDbEntity
  8
0
  6
Continuous
 62
     7
370
    25
100
AcDbCircle
 10
140.3514211467
 20
79.4558646906
 30
0.0
 40
31.85641958604177
100
AcDbArc
 50
60.6215205117
 51
69.1558408825
  0
ARC
  5
1B6
330
1F
100
AcDbEntity
  8
0
  6
Continuous
 62
     7
370
    25
100
AcDbCircle
 10
139.958609341
 20
78.65274047
 30
0.0
 40
32.75
100
AcDbArc
 50
94.37798254
 51
106.6051701957
  0
ARC
  5
1B7
330
1F
100
AcDbEntity
  8
0
  6
Continuous
 62
     7
370
    25
100
AcDbCircle
 10
139.958609341
 20
78.65274047
 30
0.0
 40
32.74999999999999
100
AcDbArc
 50
73.3948298044
 51
85.62201746
  0
LINE
  5
1B8
330
1F
100
AcDbEntity
  8
0
  6
Continuous
 62
     7
370
    25
100
AcDbLine
 10
150.3902824162
 20
109.6969459978
 30
0.0
 11
149.3177354274
 21
110.0369603726
 31
0.0
  0
LINE
  5
1B9
330
1F
100
AcDbEntity
  8
0
  6
Continuous
 62
     7
370
    25
100
AcDbLine
 10
130.5994832545
 20
110.0369603726
 30
0.0
 11
129.5269362658
 21
109.6969459978
 31
0.0
  0
CIRCLE
  5
1BA
330
1F
100
AcDbEntity
  8
0
  6
Continuous
 62
     8
370
    18
100
AcDbCircle
 10
139.958609341
 20
78.65274047
 30
0.0
 40
52.34661478305749
  0
CIRCLE
  5
1BB
330
1F
100
AcDbEntity
  8
0
  6
Continuous
 62
     8
370
    18
100
AcDbCircle
 10
139.958609341
 20
78.65274047
 30
0.0
 40
53.19597047432303
  0
CIRCLE
  5
1BC
330
1F
100
AcDbEntity
  8
0
  6
Continuous
 62
     8
370
    18
100
AcDbCircle
 10
139.958609341
 20
78.65274047
 30
0.0
 40
53.54395571148449
  0
ARC
  5
1BD
330
1F
100
AcDbEntity
  8
0
  6
Continuous
 62
     8
370
    18
100
AcDbCircle
 10
139.9730067808
 20
78.6525479334
 30
0.0
 40
29.98916344568252
100
AcDbArc
 50
274.7543206398
 51
85.2456793602
  0
ARC
  5
1BE
330
1F
100
AcDbEntity
  8
0
  6
Continuous
 62
     8
370
    18
100
AcDbCircle
 10
139.9442309126
 20
78.6529291457
 30
0.0
 40
29.98917783085393
100
AcDbArc
 50
94.7543548016
 51
265.2456451984
  0
ARC
  5
1BF
330
1F
100
AcDbEntity
  8
0
  6
Continuous
 62
     8
370
    18
100
AcDbCircle
 10
139.958609341
 20
78.65274047
 30
0.0
 40
10.57657555120085
100
AcDbArc
 50
283.6724760661
 51
0.0
  0
ARC
  5
1C0
330
1F
100
AcDbEntity
  8
0
  6
Continuous
 62
     8
370
    18
100
AcDbCircle
 10
139.958609341
 20
78.65274047
 30
0.0
 40
10.57657555120084
100
AcDbArc
 50
103.6724760661
 51
256.3275239339
  0
ARC
  5
1C1
330
1F
100
AcDbEntity
  8
0
  6
Continuous
 62
     8
370
    18
100
AcDbCircle
 10
139.958609341
 20
78.65274047
 30
0.0
 40
10.57657555120085
100
AcDbArc
 50
0.0
 51
76.3275239339
  0
ARC
  5
1C2
330
1F
100
AcDbEntity
  8
0
  6
Continuous
 62
     8
370
    18
100
AcDbCircle
 10
139.958609341
 20
78.65274047
 30
0.0
 40
10.82255593067874
100
AcDbArc
 50
283.3558963687
 51
76.6441036313
  0
ARC
  5
1C3
330
1F
100
AcDbEntity
  8
0
  6
Continuous
 62
     8
370
    18
100
AcDbCircle
 10
139.958609341
 20
78.65274047
 30
0.0
 40
10.82255593067874
100
AcDbArc
 50
103.3558963687
 51
256.6441036313
  0
ARC
  5
1C4
330
1F
100
AcDbEntity
  8
0
  6
Continuous
 62
     8
370
    18
100
AcDbCircle
 10
139.9311078194
 20
78.6527508947
 30
0.0
 40
20.73975943475347
100
AcDbArc
 50
96.8468225962
 51
263.1531774038
  0
ARC
  5
1C5
330
1F
100
AcDbEntity
  8
0
  6
Continuous
 62
     8
370
    18
100
AcDbCircle
 10
139.9861048221
 20
78.6527300426
 30
0.0
 40
20.73976430942187
100
AcDbArc
 50
276.8468377865
 51
83.1531622135
  0
LINE
  5
1C6
330
1F
100
AcDbEntity
  8
0
  6
Continuous
 62
     8
370
    18
100
AcDbLine
 10
133.6210575616
 20
121.4709541296
 30
0.0
 11
132.0268870723
 21
123.9637521763
 31
0.0
  0
LWPOLYLINE
  5
1C7
330
1F
100
AcDbEntity
  8
0
  6
Continuous
 62
     8
370
    18
100
AcDbPolyline
 90
        3
 70
   128
 43
0.0
 10
132.3621191098
 20
121.4377035907
 10
133.0522791223
 20
121.3052614115
 10
133.6210575616
 20
121.4709541296
  0
LINE
  5
1C8
330
1F
100
AcDbEntity
  8
0
  6
Continuous
 62
     8
370
    18
100
AcDbLine
 10
132.3621191098
 20
121.4377035907
 30
0.0
 11
131.9170559565
 21
123.9443889183
 31
0.0
  0
LINE
  5
1C9
330
1F
100
AcDbEntity
  8
0
  6
Continuous
 62
     8
370
    18
100
AcDbLine
 10
135.7199786001
 20
122.1969307764
 30
0.0
 11
135.5019918763
 21
124.4363462779
 31
0.0
  0
LINE
  5
1CA
330
1F
100
AcDbEntity
  8
0
  6
Continuous
 62
     8
370
    18
100
AcDbLine
 10
147.8903316097
 20
123.9637521763
 30
0.0
 11
146.2961611204
 21
121.4709541296
 31
0.0
  0
LINE
  5
1CB
330
1F
100
AcDbEntity
  8
0
  6
Continuous
 62
     8
370
    18
100
AcDbLine
 10
148.0001627255
 20
123.9443889183
 30
0.0
 11
147.5550995721
 21
121.4377035907
 31
0.0
  0
LWPOLYLINE
  5
1CC
330
1F
100
AcDbEntity
  8
0
  6
Continuous
 62
     8
370
    18
100
AcDbPolyline
 90
        3
 70
   128
 43
0.0
 10
146.2961611204
 20
121.4709541296
 10
146.8649395596
 20
121.3052614115
 10
147.5550995721
 20
121.4377035907
  0
LINE
  5
1CD
330
1F
100
AcDbEntity
  8
0
  6
Continuous
 62
     8
370
    18
100
AcDbLine
 10
144.4152268057
 20
124.4363462779
 30
0.0
 11
144.1972400819
 21
122.1969307764
 31
0.0
  0
ARC
  5
1CE
330
1F
100
AcDbEntity
  8
0
  6
Continuous
 62
     8
370
    18
100
AcDbCircle
 10
139.958609341
 20
78.65274047
 30
0.0
 40
43.45411065798013
100
AcDbArc
 50
100.0679726183
 51
79.9320273817
  0
ARC
  5
1CF
330
1F
100
AcDbEntity
  8
0
  6
Continuous
 62
     8
370
    18
100
AcDbCircle
 10
136.5142437028
 20
115.2623503276
 30
0.0
 40
7.441446536822018
100
AcDbArc
 50
123.9157174175
 51
152.1492931712
  0
LWPOLYLINE
  5
1D0
330
1F
100
AcDbEntity
  8
0
  6
Continuous
 62
     8
370
    18
100
AcDbPolyline
 90
        7
 70
   128
 43
0.0
 10
129.9347557228
 20
118.738765792
 10
129.0316092995
 20
117.0460135896
 10
128.1552671091
 20
115.3988847089
 10
127.3045322987
 20
113.796368728
 10
126.3472445227
 20
111.9898354488
 10
125.4175106514
 20
110.232416089
 10
124.5127680301
 20
108.5213659634
  0
ARC
  5
1D1
330
1F
100
AcDbEntity
  8
0
  6
Continuous
 62
     8
370
    18
100
AcDbCircle
 10
122.2030769418
 20
109.7309439252
 30
0.0
 40
2.607249847852304
100
AcDbArc
 50
299.9515311475
 51
332.3590903882
  0
ARC
  5
1D2
330
1F
100
AcDbEntity
  8
0
  6
Continuous
 62
     8
370
    18
100
AcDbCircle
 10
139.958609341
 20
78.65274047
 30
0.0
 40
33.18541743770059
100
AcDbArc
 50
119.7234874087
 51
265.6795697088
  0
ARC
  5
1D3
330
1F
100
AcDbEntity
  8
0
  6
Continuous
 62
     8
370
    18
100
AcDbCircle
 10
139.958609341
 20
78.65274047
 30
0.0
 40
33.18541743770059
100
AcDbArc
 50
274.3204302912
 51
60.2765125913
  0
ARC
  5
1D4
330
1F
100
AcDbEntity
  8
0
  6
Continuous
 62
     8
370
    18
100
AcDbCircle
 10
157.7142628953
 20
109.7310602903
 30
0.0
 40
2.607411161297822
100
AcDbArc
 50
207.6419397032
 51
240.0474387611
  0
LWPOLYLINE
  5
1D5
330
1F
100
AcDbEntity
  8
0
  6
Continuous
 62
     8
370
    18
100
AcDbPolyline
 90
        7
 70
   128
 43
0.0
 10
155.4044506519
 20
108.5213659634
 10
154.4976086053
 20
110.2358434761
 10
153.5675959085
 20
111.9932037619
 10
152.6126258957
 20
113.796340448
 10
151.7603546284
 20
115.4026773802
 10
150.8838183771
 20
117.0497862245
 10
149.9824629565
 20
118.738765797
  0
ARC
  5
1D6
330
1F
100
AcDbEntity
  8
0
  6
Continuous
 62
     8
370
    18
100
AcDbCircle
 10
143.4225588602
 20
115.2799636257
 30
0.0
 40
7.415905488463324
100
AcDbArc
 50
27.8010736554
 51
56.1339157985
  0
ARC
  5
1D7
330
1F
100
AcDbEntity
  8
0
  6
Continuous
 62
     8
370
    18
100
AcDbCircle
 10
130.0157072342
 20
121.1908337381
 30
0.0
 40
2.453402326690905
100
AcDbArc
 50
268.109165952
 51
326.7116214336
  0
ARC
  5
1D8
330
1F
100
AcDbEntity
  8
0
  6
Continuous
 62
     8
370
    18
100
AcDbCircle
 10
149.8833583253
 20
121.1558283584
 30
0.0
 40
2.419091951651192
100
AcDbArc
 50
212.8312979448
 51
272.3479146696
  0
ARC
  5
1D9
330
1F
100
AcDbEntity
  8
0
  6
Continuous
 62
     8
370
    18
100
AcDbCircle
 10
124.3937106511
 20
110.4890505651
 30
0.0
 40
1.971283173773716
100
AcDbArc
 50
273.4625361414
 51
326.3401853989
  0
ARC
  5
1DA
330
1F
100
AcDbEntity
  8
0
  6
Continuous
 62
     8
370
    18
100
AcDbCircle
 10
155.4853932857
 20
110.4227706345
 30
0.0
 40
1.903126751796404
100
AcDbArc
 50
212.634883118
 51
267.5623953417
  0
LINE
  5
1DB
330
1F
100
AcDbEntity
  8
0
  6
Continuous
 62
     8
370
    18
100
AcDbLine
 10
156.4124273706
 20
107.4718973411
 30
0.0
 11
156.1965410012
 21
107.0937684999
 31
0.0
  0
LINE
  5
1DC
330
1F
100
AcDbEntity
  8
0
  6
Continuous
 62
     8
370
    18
100
AcDbLine
 10
123.7206776808
 20
107.0937684999
 30
0.0
 11
123.5047913114
 21
107.4718973411
 31
0.0
  0
LWPOLYLINE
  5
1DD
330
1F
100
AcDbEntity
  8
0
  6
Continuous
 62
     8
370
    18
100
AcDbPolyline
 90
        3
 70
   128
 43
0.0
 10
147.7633219495
 20
119.9492528392
 10
147.4947926487
 20
120.2719906084
 10
146.9169572362
 20
120.6422596873
  0
ARC
  5
1DE
330
1F
100
AcDbEntity
  8
0
  6
Continuous
 62
     8
370
    18
100
AcDbCircle
 10
151.2851345631
 20
107.3176136198
 30
0.0
 40
3.327012784901869
100
AcDbArc
 50
38.6700327354
 51
104.4806175528
  0
LINE
  5
1DF
330
1F
100
AcDbEntity
  8
0
  6
Continuous
 62
     8
370
    18
100
AcDbLine
 10
149.5897653462
 20
110.9491659255
 30
0.0
 11
150.4532067736
 21
110.5389348121
 31
0.0
  0
LWPOLYLINE
  5
1E0
330
1F
100
AcDbEntity
  8
0
  6
Continuous
 62
     8
370
    18
100
AcDbPolyline
 90
        5
 70
   128
 43
0.0
 10
143.2885074924
 20
120.4984562444
 10
144.9477472745
 20
117.9508031651
 10
146.5509883246
 20
115.5138609038
 10
148.0974677366
 20
113.181954846
 10
149.5897653461
 20
110.9491659257
  0
ARC
  5
1E1
330
1F
100
AcDbEntity
  8
0
  6
Continuous
 62
     8
370
    18
100
AcDbCircle
 10
145.2789923653
 20
116.1229640593
 30
0.0
 40
4.806970136327498
100
AcDbArc
 50
70.077554653
 51
114.4615852699
  0
LWPOLYLINE
  5
1E2
330
1F
100
AcDbEntity
  8
0
  6
Continuous
 62
     8
370
    18
100
AcDbPolyline
 90
        3
 70
   128
 43
0.0
 10
133.0002614457
 20
120.6422596873
 10
132.4224260332
 20
120.2719906084
 10
132.0665521269
 20
119.8442758289
  0
ARC
  5
1E3
330
1F
100
AcDbEntity
  8
0
  6
Continuous
 62
     8
370
    18
100
AcDbCircle
 10
134.6382263167
 20
116.1229640592
 30
0.0
 40
4.806970136364819
100
AcDbArc
 50
65.5384147303
 51
109.9224453468
  0
LWPOLYLINE
  5
1E4
330
1F
100
AcDbEntity
  8
0
  6
Continuous
 62
     8
370
    18
100
AcDbPolyline
 90
        5
 70
   128
 43
0.0
 10
130.3274533358
 20
110.9491659256
 10
131.8197509453
 20
113.1819548459
 10
133.3662303574
 20
115.5138609038
 10
134.9694714075
 20
117.9508031651
 10
136.6287111896
 20
120.4984562444
  0
LINE
  5
1E5
330
1F
100
AcDbEntity
  8
0
  6
Continuous
 62
     8
370
    18
100
AcDbLine
 10
129.4640119083
 20
110.5389348121
 30
0.0
 11
130.3274533358
 21
110.9491659255
 31
0.0
  0
ARC
  5
1E6
330
1F
100
AcDbEntity
  8
0
  6
Continuous
 62
     8
370
    18
100
AcDbCircle
 10
128.6320841189
 20
107.3176136198
 30
0.0
 40
3.327012784892724
100
AcDbArc
 50
75.5193824472
 51
141.3299672646
  0
ARC
  5
1E7
330
1F
100
AcDbEntity
  8
0
  6
Continuous
 62
     8
370
    18
100
AcDbCircle
 10
136.2842470287
 20
118.0454014908
 30
0.0
 40
4.186673357377102
100
AcDbArc
 50
96.0817801898
 51
141.664315023
  0
ARC
  5
1E8
330
1F
100
AcDbEntity
  8
0
  6
Continuous
 62
     8
370
    18
100
AcDbCircle
 10
143.66743985
 20
118.0759444997
 30
0.0
 40
4.140692802561653
100
AcDbArc
 50
38.3000107802
 51
71.6329906788
  0
LINE
  5
1E9
330
1F
100
AcDbEntity
  8
0
  6
Continuous
 62
     8
370
    18
100
AcDbLine
 10
144.4917590657
 20
122.1242532322
 30
0.0
 11
144.0765407812
 21
122.2085109333
 31
0.0
  0
ARC
  5
1EA
330
1F
100
AcDbEntity
  8
0
  6
Continuous
 62
     8
370
    18
100
AcDbCircle
 10
133.3939181826
 20
120.0443872457
 30
0.0
 40
3.266506460037089
100
AcDbArc
 50
7.9904204363
 51
41.4922958057
  0
LWPOLYLINE
  5
1EB
330
1F
100
AcDbEntity
  8
0
  6
Continuous
 62
     8
370
    18
100
AcDbPolyline
 90
        9
 70
   128
 43
0.0
 10
144.0765407812
 20
122.2085109333
 10
144.0253134815
 20
122.1966111534
 10
143.9653892601
 20
122.1494162409
 10
143.8965750811
 20
122.0630718194
 10
143.8187430521
 20
121.9338888928
 10
143.7318425354
 20
121.7584433036
 10
143.6181191275
 20
121.4890618126
 10
143.4707522904
 20
121.0817658922
 10
143.2885074924
 20
120.4984562444
  0
LINE
  5
1EC
330
1F
100
AcDbEntity
  8
0
  6
Continuous
 62
     8
370
    18
100
AcDbLine
 10
136.6287111896
 20
120.4984562444
 30
0.0
 11
137.458609341
 21
120.5562266063
 31
0.0
  0
LINE
  5
1ED
330
1F
100
AcDbEntity
  8
0
  6
Continuous
 62
     8
370
    18
100
AcDbLine
 10
142.458609341
 20
120.5562266063
 30
0.0
 11
143.2885074924
 21
120.4984562444
 31
0.0
  0
ARC
  5
1EE
330
1F
100
AcDbEntity
  8
0
  6
Continuous
 62
     8
370
    18
100
AcDbCircle
 10
139.958609341
 20
78.65274047
 30
0.0
 40
33.70190296125623
100
AcDbArc
 50
73.3948298044
 51
85.7459036904
  0
ARC
  5
1EF
330
1F
100
AcDbEntity
  8
0
  6
Continuous
 62
     8
370
    18
100
AcDbCircle
 10
139.958609341
 20
78.65274047
 30
0.0
 40
33.70190296125624
100
AcDbArc
 50
94.2540963096
 51
106.6051701957
  0
ARC
  5
1F0
330
1F
100
AcDbEntity
  8
0
  6
Continuous
 62
     8
370
    18
100
AcDbCircle
 10
190.6375287525
 20
2.0485315267
 30
0.0
 40
124.548652213119
100
AcDbArc
 50
119.4169596174
 51
122.4983140415
  0
ARC
  5
1F1
330
1F
100
AcDbEntity
  8
0
  6
Continuous
 62
     8
370
    18
100
AcDbCircle
 10
127.9711519938
 20
110.0040232286
 30
0.0
 40
1.585799838099998
100
AcDbArc
 50
348.8346042311
 51
19.7132780148
  0
ARC
  5
1F2
330
1F
100
AcDbEntity
  8
0
  6
Continuous
 62
     8
370
    18
100
AcDbCircle
 10
151.4809042686
 20
110.0387862158
 30
0.0
 40
1.142939525779062
100
AcDbArc
 50
154.0492453392
 51
197.4028724145
  0
LINE
  5
1F3
330
1F
100
AcDbEntity
  8
0
  6
Continuous
 62
     8
370
    18
100
AcDbLine
 10
130.3274533358
 20
110.9491659257
 30
0.0
 11
130.5994832545
 21
110.0369603726
 31
0.0
  0
LINE
  5
1F4
330
1F
100
AcDbEntity
  8
0
  6
Continuous
 62
     8
370
    18
100
AcDbLine
 10
149.3177354274
 20
110.0369603726
 30
0.0
 11
149.5897653461
 21
110.9491659257
 31
0.0
  0
LINE
  5
1F5
330
1F
100
AcDbEntity
  8
0
  6
CENTER
 62
     7
370
    18
100
AcDbLine
 10
200.0335288429
 20
78.65274047
 30
0.0
 11
80.4497620438
 21
78.65274047
 31
0.0
  0
LINE
  5
1F6
330
1F
100
AcDbEntity
  8
0
  6
Continuous
 62
     7
370
    18
100
AcDbLine
 10
198.0335288429
 20
71.05274047
 30
0.0
 11
198.0335288429
 21
78.65274047
 31
0.0
  0
SOLID
  5
1F7
330
1F
100
AcDbEntity
  8
0
  6
Continuous
 62
     7
370
    18
100
AcDbTrace
 10
198.0335288429
 20
78.65274047
 30
0.0
 11
197.2335288429
 21
73.65274047
 31
0.0
 12
198.8335288429
 22
73.65274047
 32
0.0
 13
198.8335288429
 23
73.65274047
 33
0.0
  0
LINE
  5
1F8
330
1F
100
AcDbEntity
  8
0
  6
Continuous
 62
     7
370
    18
100
AcDbLine
 10
82.4497620438
 20
71.05274047
 30
0.0
 11
82.4497620438
 21
78.65274047
 31
0.0
  0
SOLID
  5
1F9
330
1F
100
AcDbEntity
  8
0
  6
Continuous
 62
     7
370
    18
100
AcDbTrace
 10
82.4497620438
 20
78.65274047
 30
0.0
 11
81.6497620438
 21
73.65274047
 31
0.0
 12
83.2497620438
 22
73.65274047
 32
0.0
 13
83.2497620438
 23
73.65274047
 33
0.0
  0
MTEXT
  5
1FA
330
1F
100
AcDbEntity
  8
0
  6
Continuous
 62
     7
100
AcDbMText
 10
195.7218896345
 20
69.2440288275
 30
0.0
 40
5.0
 41
0.0
 71
     1
 72
     1
  1
A
  7
SLDTEXTSTYLE0
 73
     1
 44
1.0
  0
MTEXT
  5
1FB
330
1F
100
AcDbEntity
  8
0
  6
Continuous
 62
     7
100
AcDbMText
 10
80.3135056871
 20
69.8374194698
 30
0.0
 40
5.0
 41
0.0
 71
     1
 72
     1
  1
A
  7
SLDTEXTSTYLE0
 73
     1
 44
1.0
  0
LINE
  5
1FC
330
1F
100
AcDbEntity
  8
0
  6
Continuous
 62
     7
370
    25
100
AcDbLine
 10
192.708609341
 20
252.2493514037
 30
0.0
 11
87.208609341
 21
252.2493514037
 31
0.0
  0
ARC
  5
1FD
330
1F
100
AcDbEntity
  8
0
  6
Continuous
 62
     7
370
    25
100
AcDbCircle
 10
86.958609341
 20
250.7493514037
 30
0.0
 40
1.000000000000089
100
AcDbArc
 50
122.9533294624
 51
243.4225014848
  0
ARC
  5
1FE
330
1F
100
AcDbEntity
  8
0
  6
Continuous
 62
     7
370
    25
100
AcDbCircle
 10
192.958609341
 20
250.7493514037
 30
0.0
 40
1.000000000000021
100
AcDbArc
 50
296.5774985152
 51
57.0466705376
  0
ARC
  5
1FF
330
1F
100
AcDbEntity
  8
0
  6
Continuous
 62
     7
370
    25
100
AcDbCircle
 10
194.046520764
 20
252.4275792595
 30
0.0
 40
1.00000000000001
100
AcDbArc
 50
206.8818319097
 51
237.0466705376
  0
ARC
  5
200
330
1F
100
AcDbEntity
  8
0
  6
Continuous
 62
     7
370
    25
100
AcDbCircle
 10
85.870697918
 20
252.4275792595
 30
0.0
 40
0.9999999999999846
100
AcDbArc
 50
302.9533294624
 51
333.1181680903
  0
ARC
  5
201
330
1F
100
AcDbEntity
  8
0
  6
Continuous
 62
     7
370
    25
100
AcDbCircle
 10
193.8534251342
 20
248.9606913756
 30
0.0
 40
1.000000000000041
100
AcDbArc
 50
116.5774985152
 51
172.4784170159
  0
ARC
  5
202
330
1F
100
AcDbEntity
  8
0
  6
Continuous
 62
     7
370
    25
100
AcDbCircle
 10
86.0637935478
 20
248.9606913756
 30
0.0
 40
1.000000000000006
100
AcDbArc
 50
7.5215829841
 51
63.4225014848
  0
ARC
  5
203
330
1F
100
AcDbEntity
  8
0
  6
Continuous
 62
     7
370
    25
100
AcDbCircle
 10
192.708609341
 20
251.7493514037
 30
0.0
 40
0.5000000000000752
100
AcDbArc
 50
26.8818319097
 51
143.7815835926
  0
ARC
  5
204
330
1F
100
AcDbEntity
  8
0
  6
Continuous
 62
     7
370
    25
100
AcDbCircle
 10
87.208609341
 20
251.7493514037
 30
0.0
 40
0.5000000000000624
100
AcDbArc
 50
36.2184164074
 51
153.1181680903
  0
LINE
  5
205
330
1F
100
AcDbEntity
  8
0
  6
Continuous
 62
     7
370
    25
100
AcDbLine
 10
192.0159854945
 20
242.6839015765
 30
0.0
 11
192.8620295116
 21
249.09159103
 31
0.0
  0
LINE
  5
206
330
1F
100
AcDbEntity
  8
0
  6
Continuous
 62
     7
370
    25
100
AcDbLine
 10
87.0551891704
 20
249.09159103
 30
0.0
 11
87.9012331875
 21
242.6839015765
 31
0.0
  0
LINE
  5
207
330
1F
100
AcDbEntity
  8
0
  6
Continuous
 62
     7
370
    25
100
AcDbLine
 10
189.708609341
 20
248.4993514037
 30
0.0
 11
192.305224124
 21
252.0447839117
 31
0.0
  0
LINE
  5
208
330
1F
100
AcDbEntity
  8
0
  6
Continuous
 62
     7
370
    25
100
AcDbLine
 10
87.6119945579
 20
252.0447839117
 30
0.0
 11
90.208609341
 21
248.4993514037
 31
0.0
  0
ARC
  5
209
330
1F
100
AcDbEntity
  8
0
  6
Continuous
 62
     7
370
    25
100
AcDbCircle
 10
191.5202876832
 20
242.7493514037
 30
0.0
 40
0.4999999999996663
100
AcDbArc
 50
270.0
 51
352.4784170159
  0
ARC
  5
20A
330
1F
100
AcDbEntity
  8
0
  6
Continuous
 62
     7
370
    25
100
AcDbCircle
 10
88.3969309988
 20
242.7493514037
 30
0.0
 40
0.4999999999996663
100
AcDbArc
 50
187.5215829841
 51
270.0
  0
LINE
  5
20B
330
1F
100
AcDbEntity
  8
0
  6
Continuous
 62
     7
370
    25
100
AcDbLine
 10
190.958609341
 20
244.5743514037
 30
0.0
 11
190.958609341
 21
246.1743514037
 31
0.0
  0
LINE
  5
20C
330
1F
100
AcDbEntity
  8
0
  6
Continuous
 62
     7
370
    25
100
AcDbLine
 10
88.958609341
 20
246.1743514037
 30
0.0
 11
88.958609341
 21
244.5743514037
 31
0.0
  0
LINE
  5
20D
330
1F
100
AcDbEntity
  8
0
  6
Continuous
 62
     7
370
    25
100
AcDbLine
 10
185.958609341
 20
242.2493514037
 30
0.0
 11
185.958609341
 21
244.5743514037
 31
0.0
  0
LINE
  5
20E
330
1F
100
AcDbEntity
  8
0
  6
Continuous
 62
     7
370
    25
100
AcDbLine
 10
93.958609341
 20
244.5743514037
 30
0.0
 11
93.958609341
 21
242.2493514037
 31
0.0
  0
LINE
  5
20F
330
1F
100
AcDbEntity
  8
0
  6
Continuous
 62
     7
370
    25
100
AcDbLine
 10
185.958609341
 20
242.2493514037
 30
0.0
 11
183.730262647
 21
242.2493514037
 31
0.0
  0
LINE
  5
210
330
1F
100
AcDbEntity
  8
0
  6
Continuous
 62
     7
370
    25
100
AcDbLine
 10
96.186956035
 20
242.2493514037
 30
0.0
 11
93.958609341
 21
242.2493514037
 31
0.0
  0
LINE
  5
211
330
1F
100
AcDbEntity
  8
0
  6
Continuous
 62
     7
370
    25
100
AcDbLine
 10
185.958609341
 20
246.1743514037
 30
0.0
 11
185.958609341
 21
248.4993514037
 31
0.0
  0
LINE
  5
212
330
1F
100
AcDbEntity
  8
0
  6
Continuous
 62
     7
370
    25
100
AcDbLine
 10
93.958609341
 20
248.4993514037
 30
0.0
 11
93.958609341
 21
246.1743514037
 31
0.0
  0
LINE
  5
213
330
1F
100
AcDbEntity
  8
0
  6
Continuous
 62
     7
370
    25
100
AcDbLine
 10
93.958609341
 20
248.4993514037
 30
0.0
 11
185.958609341
 21
248.4993514037
 31
0.0
  0
LINE
  5
214
330
1F
100
AcDbEntity
  8
0
  6
Continuous
 62
     7
370
    25
100
AcDbLine
 10
185.958609341
 20
246.1743514037
 30
0.0
 11
93.958609341
 21
246.1743514037
 31
0.0
  0
LINE
  5
215
330
1F
100
AcDbEntity
  8
0
  6
Continuous
 62
     7
370
    25
100
AcDbLine
 10
93.958609341
 20
248.4993514037
 30
0.0
 11
90.208609341
 21
248.4993514037
 31
0.0
  0
LINE
  5
216
330
1F
100
AcDbEntity
  8
0
  6
Continuous
 62
     7
370
    25
100
AcDbLine
 10
93.958609341
 20
244.5743514037
 30
0.0
 11
88.958609341
 21
244.5743514037
 31
0.0
  0
LINE
  5
217
330
1F
100
AcDbEntity
  8
0
  6
Continuous
 62
     7
370
    25
100
AcDbLine
 10
88.958609341
 20
246.1743514037
 30
0.0
 11
93.958609341
 21
246.1743514037
 31
0.0
  0
LINE
  5
218
330
1F
100
AcDbEntity
  8
0
  6
Continuous
 62
     7
370
    25
100
AcDbLine
 10
88.3968165158
 20
242.2493514037
 30
0.0
 11
93.958609341
 21
242.2493514037
 31
0.0
  0
LINE
  5
219
330
1F
100
AcDbEntity
  8
0
  6
Continuous
 62
     7
370
    25
100
AcDbLine
 10
189.708609341
 20
248.4993514037
 30
0.0
 11
185.958609341
 21
248.4993514037
 31
0.0
  0
LINE
  5
21A
330
1F
100
AcDbEntity
  8
0
  6
Continuous
 62
     7
370
    25
100
AcDbLine
 10
190.958609341
 20
244.5743514037
 30
0.0
 11
185.958609341
 21
244.5743514037
 31
0.0
  0
LINE
  5
21B
330
1F
100
AcDbEntity
  8
0
  6
Continuous
 62
     7
370
    25
100
AcDbLine
 10
185.958609341
 20
246.1743514037
 30
0.0
 11
190.958609341
 21
246.1743514037
 31
0.0
  0
LINE
  5
21C
330
1F
100
AcDbEntity
  8
0
  6
Continuous
 62
     7
370
    25
100
AcDbLine
 10
185.958609341
 20
242.2493514037
 30
0.0
 11
191.5203484166
 21
242.2493514037
 31
0.0
  0
CIRCLE
  5
21D
330
1F
100
AcDbEntity
  8
0
  6
Continuous
 62
     7
370
    25
100
AcDbCircle
 10
139.958609341
 20
234.4243514037
 30
0.0
 40
2.5
  0
ARC
  5
21E
330
1F
100
AcDbEntity
  8
0
  6
Continuous
 62
     7
370
    25
100
AcDbCircle
 10
109.958609341
 20
176.829449665
 30
0.0
 40
15.00000000000001
100
AcDbArc
 50
180.2921050398
 51
269.9999978466
  0
LINE
  5
21F
330
1F
100
AcDbEntity
  8
0
  6
Continuous
 62
     7
370
    25
100
AcDbLine
 10
119.1967516019
 20
161.829449665
 30
0.0
 11
109.9586087772
 21
161.829449665
 31
0.0
  0
ARC
  5
220
330
1F
100
AcDbEntity
  8
0
  6
Continuous
 62
     7
370
    25
100
AcDbCircle
 10
119.1967516019
 20
176.829449665
 30
0.0
 40
15.0
100
AcDbArc
 50
270.0
 51
311.5000055346
  0
LINE
  5
221
330
1F
100
AcDbEntity
  8
0
  6
Continuous
 62
     7
370
    25
100
AcDbLine
 10
129.3820337898
 20
165.8127398696
 30
0.0
 11
129.1360534103
 21
165.5951148133
 31
0.0
  0
ARC
  5
222
330
1F
100
AcDbEntity
  8
0
  6
Continuous
 62
     7
370
    25
100
AcDbCircle
 10
139.9839560623
 20
153.829449665
 30
0.0
 40
16.00000000000005
100
AcDbArc
 50
90.0907662977
 51
131.5000071771
  0
ARC
  5
223
330
1F
100
AcDbEntity
  8
0
  6
Continuous
 62
     7
370
    25
100
AcDbCircle
 10
139.9332626197
 20
153.829449665
 30
0.0
 40
16.00000000000007
100
AcDbArc
 50
48.4999928229
 51
89.9092337023
  0
LINE
  5
224
330
1F
100
AcDbEntity
  8
0
  6
Continuous
 62
     7
370
    25
100
AcDbLine
 10
150.7811652717
 20
165.5951148133
 30
0.0
 11
150.5351848922
 21
165.8127398696
 31
0.0
  0
ARC
  5
225
330
1F
100
AcDbEntity
  8
0
  6
Continuous
 62
     7
370
    25
100
AcDbCircle
 10
160.7204670801
 20
176.829449665
 30
0.0
 40
15.0
100
AcDbArc
 50
228.4999944654
 51
270.0
  0
LINE
  5
226
330
1F
100
AcDbEntity
  8
0
  6
Continuous
 62
     7
370
    25
100
AcDbLine
 10
169.9586099048
 20
161.829449665
 30
0.0
 11
160.7204670801
 21
161.829449665
 31
0.0
  0
ARC
  5
227
330
1F
100
AcDbEntity
  8
0
  6
Continuous
 62
     7
370
    25
100
AcDbCircle
 10
169.958609341
 20
176.829449665
 30
0.0
 40
15.00000000000003
100
AcDbArc
 50
270.0000021534
 51
359.7078949603
  0
LINE
  5
228
330
1F
100
AcDbEntity
  8
0
  6
Continuous
 62
     7
370
    25
100
AcDbLine
 10
184.9584144045
 20
176.7529770757
 30
0.0
 11
185.2086223372
 21
225.829449665
 31
0.0
  0
LINE
  5
229
330
1F
100
AcDbEntity
  8
0
  6
Continuous
 62
     7
370
    25
100
AcDbLine
 10
186.208609341
 20
225.8243514037
 30
0.0
 11
185.2086223372
 21
225.829449665
 31
0.0
  0
LINE
  5
22A
330
1F
100
AcDbEntity
  8
0
  6
Continuous
 62
     7
370
    25
100
AcDbLine
 10
185.9584014015
 20
176.7478774842
 30
0.0
 11
186.208609341
 21
225.8243514037
 31
0.0
  0
ARC
  5
22B
330
1F
100
AcDbEntity
  8
0
  6
Continuous
 62
     7
370
    25
100
AcDbCircle
 10
169.958609341
 20
176.829449665
 30
0.0
 40
16.0
100
AcDbArc
 50
270.0
 51
359.7078898792
  0
LINE
  5
22C
330
1F
100
AcDbEntity
  8
0
  6
Continuous
 62
     7
370
    25
100
AcDbLine
 10
160.7204670801
 20
160.829449665
 30
0.0
 11
169.958609341
 21
160.829449665
 31
0.0
  0
ARC
  5
22D
330
1F
100
AcDbEntity
  8
0
  6
Continuous
 62
     7
370
    25
100
AcDbCircle
 10
160.7204670801
 20
176.829449665
 30
0.0
 40
16.00000000000002
100
AcDbArc
 50
228.5
 51
270.0
  0
LINE
  5
22E
330
1F
100
AcDbEntity
  8
0
  6
Continuous
 62
     7
370
    25
100
AcDbLine
 10
150.1185463087
 20
164.8461581324
 30
0.0
 11
149.8725633429
 21
165.0637854769
 31
0.0
  0
ARC
  5
22F
330
1F
100
AcDbEntity
  8
0
  6
Continuous
 62
     7
370
    25
100
AcDbCircle
 10
139.9332626197
 20
153.829449665
 30
0.0
 40
15.00000000000007
100
AcDbArc
 50
48.5
 51
89.9031826102
  0
ARC
  5
230
330
1F
100
AcDbEntity
  8
0
  6
Continuous
 62
     7
370
    25
100
AcDbCircle
 10
139.9839560623
 20
153.829449665
 30
0.0
 40
15.00000000000007
100
AcDbArc
 50
90.0968173898
 51
131.5
  0
LINE
  5
231
330
1F
100
AcDbEntity
  8
0
  6
Continuous
 62
     7
370
    25
100
AcDbLine
 10
130.0446553391
 20
165.0637854769
 30
0.0
 11
129.7986723733
 21
164.8461581324
 31
0.0
  0
ARC
  5
232
330
1F
100
AcDbEntity
  8
0
  6
Continuous
 62
     7
370
    25
100
AcDbCircle
 10
119.1967516019
 20
176.829449665
 30
0.0
 40
16.00000000000002
100
AcDbArc
 50
270.0
 51
311.5
  0
LINE
  5
233
330
1F
100
AcDbEntity
  8
0
  6
Continuous
 62
     7
370
    25
100
AcDbLine
 10
109.958609341
 20
160.829449665
 30
0.0
 11
119.1967516019
 21
160.829449665
 31
0.0
  0
ARC
  5
234
330
1F
100
AcDbEntity
  8
0
  6
Continuous
 62
     7
370
    25
100
AcDbCircle
 10
109.958609341
 20
176.829449665
 30
0.0
 40
16.0
100
AcDbArc
 50
180.2921101208
 51
270.0
  0
LINE
  5
235
330
1F
100
AcDbEntity
  8
0
  6
Continuous
 62
     7
370
    25
100
AcDbLine
 10
93.708609341
 20
225.8243514037
 30
0.0
 11
93.9588172805
 21
176.7478774842
 31
0.0
  0
LINE
  5
236
330
1F
100
AcDbEntity
  8
0
  6
Continuous
 62
     7
370
    25
100
AcDbLine
 10
94.7085963448
 20
225.829449665
 30
0.0
 11
93.708609341
 21
225.8243514037
 31
0.0
  0
LINE
  5
237
330
1F
100
AcDbEntity
  8
0
  6
Continuous
 62
     7
370
    25
100
AcDbLine
 10
94.7085963448
 20
225.829449665
 30
0.0
 11
94.9588042775
 21
176.7529770757
 31
0.0
  0
LINE
  5
238
330
1F
100
AcDbEntity
  8
0
  6
Continuous
 62
     7
370
    25
100
AcDbLine
 10
160.7204670801
 20
160.829449665
 30
0.0
 11
119.1967516019
 21
160.829449665
 31
0.0
  0
LINE
  5
239
330
1F
100
AcDbEntity
  8
0
  6
Continuous
 62
     7
370
    25
100
AcDbLine
 10
94.7085963448
 20
225.829449665
 30
0.0
 11
105.6669907239
 21
225.829449665
 31
0.0
  0
LINE
  5
23A
330
1F
100
AcDbEntity
  8
0
  6
Continuous
 62
     7
370
    25
100
AcDbLine
 10
174.2502279581
 20
225.829449665
 30
0.0
 11
185.2086223372
 21
225.829449665
 31
0.0
  0
LINE
  5
23B
330
1F
100
AcDbEntity
  8
0
  6
Continuous
 62
     7
370
    25
100
AcDbLine
 10
131.8700839809
 20
245.8243514037
 30
0.0
 11
93.6895830417
 21
245.8243514037
 31
0.0
  0
ARC
  5
23C
330
1F
100
AcDbEntity
  8
0
  6
Continuous
 62
     7
370
    25
100
AcDbCircle
 10
93.6899161207
 20
242.5743514037
 30
0.0
 40
3.250000000000028
100
AcDbArc
 50
30.0
 51
90.0
  0
ARC
  5
23D
330
1F
100
AcDbEntity
  8
0
  6
Continuous
 62
     7
370
    25
100
AcDbCircle
 10
93.6899161207
 20
242.5743514037
 30
0.0
 40
2.000000000000016
100
AcDbArc
 50
30.0
 51
90.0
  0
ARC
  5
23E
330
1F
100
AcDbEntity
  8
0
  6
Continuous
 62
     7
370
    25
100
AcDbCircle
 10
103.958609341
 20
224.7884530189
 30
0.0
 40
3.250000000000014
100
AcDbArc
 50
0.0
 51
30.0
  0
ARC
  5
23F
330
1F
100
AcDbEntity
  8
0
  6
Continuous
 62
     7
370
    25
100
AcDbCircle
 10
103.958609341
 20
224.7884530189
 30
0.0
 40
2.000000000000014
100
AcDbArc
 50
0.0
 51
30.0
  0
LINE
  5
240
330
1F
100
AcDbEntity
  8
0
  6
Continuous
 62
     7
370
    25
100
AcDbLine
 10
186.2276356403
 20
244.5743514037
 30
0.0
 11
190.958609341
 21
244.5743514037
 31
0.0
  0
ARC
  5
241
330
1F
100
AcDbEntity
  8
0
  6
Continuous
 62
     7
370
    25
100
AcDbCircle
 10
186.2273025613
 20
242.5743514037
 30
0.0
 40
2.000000000000016
100
AcDbArc
 50
90.0
 51
150.0
  0
LINE
  5
242
330
1F
100
AcDbEntity
  8
0
  6
Continuous
 62
     7
370
    25
100
AcDbLine
 10
174.2265585334
 20
225.7884530189
 30
0.0
 11
184.4952517537
 21
243.5743514037
 31
0.0
  0
ARC
  5
243
330
1F
100
AcDbEntity
  8
0
  6
Continuous
 62
     7
370
    25
100
AcDbCircle
 10
175.958609341
 20
224.7884530189
 30
0.0
 40
2.0
100
AcDbArc
 50
150.0
 51
180.0
  0
LINE
  5
244
330
1F
100
AcDbEntity
  8
0
  6
Continuous
 62
     7
370
    25
100
AcDbLine
 10
173.958609341
 20
175.8243514037
 30
0.0
 11
173.958609341
 21
224.7884530189
 31
0.0
  0
LINE
  5
245
330
1F
100
AcDbEntity
  8
0
  6
Continuous
 62
     7
370
    25
100
AcDbLine
 10
172.708609341
 20
175.8243514037
 30
0.0
 11
173.958609341
 21
175.8243514037
 31
0.0
  0
LINE
  5
246
330
1F
100
AcDbEntity
  8
0
  6
Continuous
 62
     7
370
    25
100
AcDbLine
 10
172.708609341
 20
175.8243514037
 30
0.0
 11
172.708609341
 21
224.7884530189
 31
0.0
  0
ARC
  5
247
330
1F
100
AcDbEntity
  8
0
  6
Continuous
 62
     7
370
    25
100
AcDbCircle
 10
175.958609341
 20
224.7884530189
 30
0.0
 40
3.249999999999972
100
AcDbArc
 50
150.0
 51
180.0
  0
LINE
  5
248
330
1F
100
AcDbEntity
  8
0
  6
Continuous
 62
     7
370
    25
100
AcDbLine
 10
173.1440267787
 20
226.4134530189
 30
0.0
 11
183.412719999
 21
244.1993514037
 31
0.0
  0
ARC
  5
249
330
1F
100
AcDbEntity
  8
0
  6
Continuous
 62
     7
370
    25
100
AcDbCircle
 10
186.2273025613
 20
242.5743514037
 30
0.0
 40
3.250000000000028
100
AcDbArc
 50
90.0
 51
150.0
  0
LINE
  5
24A
330
1F
100
AcDbEntity
  8
0
  6
Continuous
 62
     7
370
    25
100
AcDbLine
 10
190.958609341
 20
245.8243514037
 30
0.0
 11
186.2276357144
 21
245.8243514037
 31
0.0
  0
LINE
  5
24B
330
1F
100
AcDbEntity
  8
0
  6
Continuous
 62
     7
370
    25
100
AcDbLine
 10
190.958609341
 20
244.5743514037
 30
0.0
 11
190.958609341
 21
245.8243514037
 31
0.0
  0
LINE
  5
24C
330
1F
100
AcDbEntity
  8
0
  6
Continuous
 62
     7
370
    25
100
AcDbLine
 10
96.504498683
 20
244.1993514037
 30
0.0
 11
106.7731919033
 21
226.4134530189
 31
0.0
  0
LINE
  5
24D
330
1F
100
AcDbEntity
  8
0
  6
Continuous
 62
     7
370
    25
100
AcDbLine
 10
107.208609341
 20
224.7884530189
 30
0.0
 11
107.208609341
 21
175.8243514037
 31
0.0
  0
LINE
  5
24E
330
1F
100
AcDbEntity
  8
0
  6
Continuous
 62
     7
370
    25
100
AcDbLine
 10
105.958609341
 20
175.8243514037
 30
0.0
 11
107.208609341
 21
175.8243514037
 31
0.0
  0
LINE
  5
24F
330
1F
100
AcDbEntity
  8
0
  6
Continuous
 62
     7
370
    25
100
AcDbLine
 10
105.958609341
 20
224.7884530189
 30
0.0
 11
105.958609341
 21
175.8243514037
 31
0.0
  0
LINE
  5
250
330
1F
100
AcDbEntity
  8
0
  6
Continuous
 62
     7
370
    25
100
AcDbLine
 10
95.4219669283
 20
243.5743514037
 30
0.0
 11
105.6906601486
 21
225.7884530189
 31
0.0
  0
LINE
  5
251
330
1F
100
AcDbEntity
  8
0
  6
Continuous
 62
     7
370
    25
100
AcDbLine
 10
88.958609341
 20
244.5743514037
 30
0.0
 11
93.6895829675
 21
244.5743514037
 31
0.0
  0
LINE
  5
252
330
1F
100
AcDbEntity
  8
0
  6
Continuous
 62
     7
370
    25
100
AcDbLine
 10
88.958609341
 20
245.8243514037
 30
0.0
 11
88.958609341
 21
244.5743514037
 31
0.0
  0
LINE
  5
253
330
1F
100
AcDbEntity
  8
0
  6
Continuous
 62
     7
370
    25
100
AcDbLine
 10
93.6895830417
 20
245.8243514037
 30
0.0
 11
88.958609341
 21
245.8243514037
 31
0.0
  0
LINE
  5
254
330
1F
100
AcDbEntity
  8
0
  6
Continuous
 62
     7
370
    25
100
AcDbLine
 10
186.2276357144
 20
245.8243514037
 30
0.0
 11
148.0471347011
 21
245.8243514037
 31
0.0
  0
LINE
  5
255
330
1F
100
AcDbEntity
  8
0
  6
Continuous
 62
     7
370
    25
100
AcDbLine
 10
172.708609341
 20
175.8243514037
 30
0.0
 11
107.208609341
 21
175.8243514037
 31
0.0
  0
ARC
  5
256
330
1F
100
AcDbEntity
  8
0
  6
Continuous
 62
     7
370
    25
100
AcDbCircle
 10
151.001258099
 20
210.1249371128
 30
0.0
 40
8.941094525297844
100
AcDbArc
 50
266.4858078271
 51
305.5248998376
  0
LINE
  5
257
330
1F
100
AcDbEntity
  8
0
  6
Continuous
 62
     7
370
    25
100
AcDbLine
 10
131.8700839809
 20
245.8243514037
 30
0.0
 11
135.4051088879
 21
245.8243514037
 31
0.0
  0
LINE
  5
258
330
1F
100
AcDbEntity
  8
0
  6
Continuous
 62
     7
370
    25
100
AcDbLine
 10
144.5121097941
 20
245.8243514037
 30
0.0
 11
148.0471347011
 21
245.8243514037
 31
0.0
  0
LINE
  5
259
330
1F
100
AcDbEntity
  8
0
  6
Continuous
 62
     7
370
    25
100
AcDbLine
 10
135.4051088879
 20
245.8243514037
 30
0.0
 11
144.5121097941
 21
245.8243514037
 31
0.0
  0
LINE
  5
25A
330
1F
100
AcDbEntity
  8
0
  6
Continuous
 62
     8
370
    18
100
AcDbLine
 10
87.6119945579
 20
252.0447839117
 30
0.0
 11
192.305224124
 21
252.0447839117
 31
0.0
  0
LINE
  5
25B
330
1F
100
AcDbEntity
  8
0
  6
Continuous
 62
     8
370
    18
100
AcDbLine
 10
184.9584144045
 20
176.7529770757
 30
0.0
 11
173.958609341
 21
176.7529770757
 31
0.0
  0
LINE
  5
25C
330
1F
100
AcDbEntity
  8
0
  6
Continuous
 62
     8
370
    18
100
AcDbLine
 10
105.958609341
 20
176.7529770757
 30
0.0
 11
94.9588042775
 21
176.7529770757
 31
0.0
  0
LINE
  5
25D
330
1F
100
AcDbEntity
  8
0
  6
Continuous
 62
     8
370
    18
100
AcDbLine
 10
150.1185463087
 20
164.8461581324
 30
0.0
 11
129.7986723733
 21
164.8461581324
 31
0.0
  0
LINE
  5
25E
330
1F
100
AcDbEntity
  8
0
  6
Continuous
 62
     8
370
    18
100
AcDbLine
 10
130.0446553391
 20
165.0637854769
 30
0.0
 11
149.8725633429
 21
165.0637854769
 31
0.0
  0
ARC
  5
25F
330
1F
100
AcDbEntity
  8
0
  6
Continuous
 62
     8
370
    18
100
AcDbCircle
 10
130.1697089936
 20
244.4225015513
 30
0.0
 40
2.203737304247658
100
AcDbArc
 50
354.1882761361
 51
39.5033880448
  0
LINE
  5
260
330
1F
100
AcDbEntity
  8
0
  6
Continuous
 62
     8
370
    18
100
AcDbLine
 10
96.504498683
 20
244.1993514037
 30
0.0
 11
132.3621191098
 21
244.1993514037
 31
0.0
  0
LINE
  5
261
330
1F
100
AcDbEntity
  8
0
  6
Continuous
 62
     8
370
    18
100
AcDbLine
 10
123.5047913114
 20
226.4134530189
 30
0.0
 11
106.7731919033
 21
226.4134530189
 31
0.0
  0
LWPOLYLINE
  5
262
330
1F
100
AcDbEntity
  8
0
  6
Continuous
 62
     8
370
    18
100
AcDbPolyline
 90
        3
 70
   128
 43
0.0
 10
123.7206776808
 20
224.7884530189
 10
123.6657706323
 20
225.6296149155
 10
123.5047913114
 20
226.4134530189
  0
LINE
  5
263
330
1F
100
AcDbEntity
  8
0
  6
Continuous
 62
     8
370
    18
100
AcDbLine
 10
107.208609341
 20
224.7884530189
 30
0.0
 11
123.7206776808
 21
224.7884530189
 31
0.0
  0
LINE
  5
264
330
1F
100
AcDbEntity
  8
0
  6
Continuous
 62
     8
370
    18
100
AcDbLine
 10
156.1965410012
 20
224.7884530189
 30
0.0
 11
172.708609341
 21
224.7884530189
 31
0.0
  0
LWPOLYLINE
  5
265
330
1F
100
AcDbEntity
  8
0
  6
Continuous
 62
     8
370
    18
100
AcDbPolyline
 90
        3
 70
   128
 43
0.0
 10
156.4124273706
 20
226.4134530189
 10
156.2514480497
 20
225.6296149155
 10
156.1965410012
 20
224.7884530189
  0
LINE
  5
266
330
1F
100
AcDbEntity
  8
0
  6
Continuous
 62
     8
370
    18
100
AcDbLine
 10
173.1440267787
 20
226.4134530189
 30
0.0
 11
156.4124273706
 21
226.4134530189
 31
0.0
  0
LINE
  5
267
330
1F
100
AcDbEntity
  8
0
  6
Continuous
 62
     8
370
    18
100
AcDbLine
 10
147.5550995721
 20
244.1993514037
 30
0.0
 11
183.412719999
 21
244.1993514037
 31
0.0
  0
ARC
  5
268
330
1F
100
AcDbEntity
  8
0
  6
Continuous
 62
     8
370
    18
100
AcDbCircle
 10
149.7475096884
 20
244.4225015513
 30
0.0
 40
2.203737304247575
100
AcDbArc
 50
140.4966119552
 51
185.8117238639
  0
ARC
  5
269
330
1F
100
AcDbEntity
  8
0
  6
Continuous
 62
     8
370
    18
100
AcDbCircle
 10
138.251636847
 20
237.6861973425
 30
0.0
 40
8.7810930413914
100
AcDbArc
 50
132.1214540116
 51
161.2865635236
  0
ARC
  5
26A
330
1F
100
AcDbEntity
  8
0
  6
Continuous
 62
     8
370
    18
100
AcDbCircle
 10
-28.3526159045
 20
297.1356025608
 30
0.0
 40
168.1133227508904
100
AcDbArc
 50
335.408745753
 51
340.3137851592
  0
ARC
  5
26B
330
1F
100
AcDbEntity
  8
0
  6
Continuous
 62
     8
370
    18
100
AcDbCircle
 10
123.454672838
 20
227.5269050477
 30
0.0
 40
1.114579419314491
100
AcDbArc
 50
272.5772462161
 51
341.6811974122
  0
LINE
  5
26C
330
1F
100
AcDbEntity
  8
0
  6
Continuous
 62
     8
370
    18
100
AcDbLine
 10
123.7206776808
 20
224.7884530189
 30
0.0
 11
123.7206776808
 21
202.8481104091
 31
0.0
  0
ARC
  5
26D
330
1F
100
AcDbEntity
  8
0
  6
Continuous
 62
     8
370
    18
100
AcDbCircle
 10
129.9584898368
 20
206.055476142
 30
0.0
 40
7.014092631175463
100
AcDbArc
 50
207.2113756199
 51
266.4725551152
  0
LINE
  5
26E
330
1F
100
AcDbEntity
  8
0
  6
Continuous
 62
     8
370
    18
100
AcDbLine
 10
130.5994832545
 20
198.995924279
 30
0.0
 11
129.5269362658
 21
199.05467212
 31
0.0
  0
LINE
  5
26F
330
1F
100
AcDbEntity
  8
0
  6
Continuous
 62
     8
370
    18
100
AcDbLine
 10
130.5994832545
 20
198.995924279
 30
0.0
 11
149.3177354274
 21
198.995924279
 31
0.0
  0
LINE
  5
270
330
1F
100
AcDbEntity
  8
0
  6
Continuous
 62
     8
370
    18
100
AcDbLine
 10
150.3902824162
 20
199.05467212
 30
0.0
 11
149.3177354274
 21
198.995924279
 31
0.0
  0
ARC
  5
271
330
1F
100
AcDbEntity
  8
0
  6
Continuous
 62
     8
370
    18
100
AcDbCircle
 10
149.9206585865
 20
206.1137467001
 30
0.0
 40
7.074678824351579
100
AcDbArc
 50
273.806146445
 51
332.5099228199
  0
LINE
  5
272
330
1F
100
AcDbEntity
  8
0
  6
Continuous
 62
     8
370
    18
100
AcDbLine
 10
156.1965410012
 20
202.8481104091
 30
0.0
 11
156.1965410012
 21
224.7884530189
 31
0.0
  0
ARC
  5
273
330
1F
100
AcDbEntity
  8
0
  6
Continuous
 62
     8
370
    18
100
AcDbCircle
 10
156.4625848879
 20
227.5269566184
 30
0.0
 40
1.11463269404121
100
AcDbArc
 50
198.3206883424
 51
267.4208680293
  0
ARC
  5
274
330
1F
100
AcDbEntity
  8
0
  6
Continuous
 62
     8
370
    18
100
AcDbCircle
 10
313.3940893288
 20
299.2203831721
 30
0.0
 40
173.6405318855562
100
AcDbArc
 50
199.7643272608
 51
204.5131418249
  0
ARC
  5
275
330
1F
100
AcDbEntity
  8
0
  6
Continuous
 62
     8
370
    18
100
AcDbCircle
 10
141.9509751424
 20
237.8736371238
 30
0.0
 40
8.451087017418946
100
AcDbArc
 50
18.1305993113
 51
48.4613831988
  0
ARC
  5
276
330
1F
100
AcDbEntity
  8
0
  6
Continuous
 62
     8
370
    18
100
AcDbCircle
 10
128.9087281133
 20
210.099723386
 30
0.0
 40
8.916375836485505
100
AcDbArc
 50
234.418781181
 51
273.5705111542
  0
ARC
  5
277
330
1F
100
AcDbEntity
  8
0
  6
Continuous
 62
     8
370
    18
100
AcDbCircle
 10
123.0669213656
 20
205.8065775169
 30
0.0
 40
3.029839096075639
100
AcDbArc
 50
282.4608590672
 51
348.3641086551
  0
ARC
  5
278
330
1F
100
AcDbEntity
  8
0
  6
Continuous
 62
     8
370
    18
100
AcDbCircle
 10
133.2138034323
 20
207.889326141
 30
0.0
 40
7.668067421168825
100
AcDbArc
 50
200.5672434694
 51
240.7242115969
  0
ARC
  5
279
330
1F
100
AcDbEntity
  8
0
  6
Continuous
 62
     8
370
    18
100
AcDbCircle
 10
146.7034152497
 20
207.8893261411
 30
0.0
 40
7.668067421166515
100
AcDbArc
 50
299.275788403
 51
339.4327565306
  0
LWPOLYLINE
  5
27A
330
1F
100
AcDbEntity
  8
0
  6
Continuous
 62
     8
370
    18
100
AcDbPolyline
 90
        8
 70
   128
 43
0.0
 10
153.8827241474
 20
205.1954846968
 10
154.173117076
 20
204.521385133
 10
154.4894973596
 20
203.9660523184
 10
154.8258270007
 20
203.5294862531
 10
155.1349112188
 20
203.2406019682
 10
155.4618487111
 20
203.0301443959
 10
155.8242100965
 20
202.8936189058
 10
156.1965410012
 20
202.8481104091
  0
ARC
  5
27B
330
1F
100
AcDbEntity
  8
0
  6
Continuous
 62
     8
370
    18
100
AcDbCircle
 10
123.9075170995
 20
228.1112581554
 30
0.0
 40
3.32805392739311
100
AcDbArc
 50
266.7816803077
 51
309.7251481777
  0
LINE
  5
27C
330
1F
100
AcDbEntity
  8
0
  6
Continuous
 62
     8
370
    18
100
AcDbLine
 10
126.0344945346
 20
205.1954846968
 30
0.0
 11
126.0344945346
 21
225.5515882676
 31
0.0
  0
LINE
  5
27D
330
1F
100
AcDbEntity
  8
0
  6
Continuous
 62
     8
370
    18
100
AcDbLine
 10
153.8827241474
 20
225.5515882676
 30
0.0
 11
153.8827241474
 21
205.1954846968
 31
0.0
  0
ARC
  5
27E
330
1F
100
AcDbEntity
  8
0
  6
Continuous
 62
     8
370
    18
100
AcDbCircle
 10
156.0581345727
 20
228.2581063965
 30
0.0
 40
3.472412835521938
100
AcDbArc
 50
231.2088217309
 51
272.2843497836
  0
ARC
  5
27F
330
1F
100
AcDbEntity
  8
0
  6
Continuous
 62
     8
370
    18
100
AcDbCircle
 10
121.4419622624
 20
199.8915190648
 30
0.0
 40
8.128168148161889
100
AcDbArc
 50
354.0905611543
 51
9.2685219127
  0
ARC
  5
280
330
1F
100
AcDbEntity
  8
0
  6
Continuous
 62
     8
370
    18
100
AcDbCircle
 10
157.5428731799
 20
223.6490605655
 30
0.0
 40
4.125082132244289
100
AcDbArc
 50
121.2246620798
 51
152.5348081659
  0
ARC
  5
281
330
1F
100
AcDbEntity
  8
0
  6
Continuous
 62
     8
370
    18
100
AcDbCircle
 10
158.2998341298
 20
199.8966627846
 30
0.0
 40
7.954241421374673
100
AcDbArc
 50
170.5645282232
 51
186.0763887096
  0
ARC
  5
282
330
1F
100
AcDbEntity
  8
0
  6
Continuous
 62
     8
370
    18
100
AcDbCircle
 10
122.426401757
 20
223.6978084934
 30
0.0
 40
4.056455711965576
100
AcDbArc
 50
27.1933664478
 51
59.0471633066
  0
ARC
  5
283
330
1F
100
AcDbEntity
  8
0
  6
Continuous
 62
     8
370
    18
100
AcDbCircle
 10
128.2945691763
 20
236.1409391249
 30
0.0
 40
4.660686532833941
100
AcDbArc
 50
35.9705343982
 51
69.3952233353
  0
ARC
  5
284
330
1F
100
AcDbEntity
  8
0
  6
Continuous
 62
     8
370
    18
100
AcDbCircle
 10
1.9598724695
 20
289.7391751781
 30
0.0
 40
139.6945172653155
100
AcDbArc
 50
332.6460956648
 51
338.6487107748
  0
ARC
  5
285
330
1F
100
AcDbEntity
  8
0
  6
Continuous
 62
     8
370
    18
100
AcDbCircle
 10
151.552695541
 20
236.232709928
 30
0.0
 40
4.550289108129105
100
AcDbArc
 50
110.1869423798
 51
144.4472998867
  0
ARC
  5
286
330
1F
100
AcDbEntity
  8
0
  6
Continuous
 62
     8
370
    18
100
AcDbCircle
 10
277.943665218
 20
289.7329828466
 30
0.0
 40
139.6795207230769
100
AcDbArc
 50
201.3509666979
 51
207.3542268625
  0
LWPOLYLINE
  5
287
330
1F
100
AcDbEntity
  8
0
  6
Continuous
 62
     8
370
    18
100
AcDbPolyline
 90
        3
 70
   128
 43
0.0
 10
147.850666555
 20
214.4067137123
 10
147.4947926487
 20
213.4766111326
 10
146.9169572362
 20
212.5243359423
  0
ARC
  5
288
330
1F
100
AcDbEntity
  8
0
  6
Continuous
 62
     8
370
    18
100
AcDbCircle
 10
251.285548415
 20
275.5613038446
 30
0.0
 40
120.16096986809
100
AcDbArc
 50
210.5931752824
 51
215.8451269253
  0
LINE
  5
289
330
1F
100
AcDbEntity
  8
0
  6
Continuous
 62
     8
370
    18
100
AcDbLine
 10
149.5897653462
 20
201.2940213178
 30
0.0
 11
150.4532067736
 21
201.2006550098
 31
0.0
  0
ARC
  5
28A
330
1F
100
AcDbEntity
  8
0
  6
Continuous
 62
     8
370
    18
100
AcDbCircle
 10
217.8424992128
 20
259.7972129803
 30
0.0
 40
89.89471127353762
100
AcDbArc
 50
213.9681883273
 51
220.6017051809
  0
ARC
  5
28B
330
1F
100
AcDbEntity
  8
0
  6
Continuous
 62
     8
370
    18
100
AcDbCircle
 10
139.2892285592
 20
218.1875177805
 30
0.0
 40
9.500203855906692
100
AcDbArc
 50
294.8956972952
 51
323.4080829451
  0
LWPOLYLINE
  5
28C
330
1F
100
AcDbEntity
  8
0
  6
Continuous
 62
     8
370
    18
100
AcDbPolyline
 90
        3
 70
   128
 43
0.0
 10
133.0002614457
 20
212.5243359423
 10
132.4224260332
 20
213.4766111328
 10
132.0665521269
 20
214.4067137125
  0
ARC
  5
28D
330
1F
100
AcDbEntity
  8
0
  6
Continuous
 62
     8
370
    18
100
AcDbCircle
 10
140.6279901229
 20
218.1875177806
 30
0.0
 40
9.500203856027529
100
AcDbArc
 50
216.5919170551
 51
245.1043027047
  0
ARC
  5
28E
330
1F
100
AcDbEntity
  8
0
  6
Continuous
 62
     8
370
    18
100
AcDbCircle
 10
62.0747194724
 20
259.797212978
 30
0.0
 40
89.8947112696467
100
AcDbArc
 50
319.3982948188
 51
326.0318116727
  0
LINE
  5
28F
330
1F
100
AcDbEntity
  8
0
  6
Continuous
 62
     8
370
    18
100
AcDbLine
 10
129.4640119083
 20
201.2006550098
 30
0.0
 11
130.3274533358
 21
201.2940213178
 31
0.0
  0
ARC
  5
290
330
1F
100
AcDbEntity
  8
0
  6
Continuous
 62
     8
370
    18
100
AcDbCircle
 10
31.8801823638
 20
273.4339859752
 30
0.0
 40
116.2821033396128
100
AcDbArc
 50
324.0672129027
 51
329.494484892
  0
LINE
  5
291
330
1F
100
AcDbEntity
  8
0
  6
Continuous
 62
     8
370
    18
100
AcDbLine
 10
147.850666555
 20
214.4067137122
 30
0.0
 11
147.8506665551
 21
238.8784824722
 31
0.0
  0
LINE
  5
292
330
1F
100
AcDbEntity
  8
0
  6
Continuous
 62
     8
370
    18
100
AcDbLine
 10
132.0665521268
 20
238.8784824722
 30
0.0
 11
132.0665521269
 21
214.4067137125
 31
0.0
  0
ARC
  5
293
330
1F
100
AcDbEntity
  8
0
  6
Continuous
 62
     8
370
    18
100
AcDbCircle
 10
158.0713616746
 20
199.1248905052
 30
0.0
 40
8.754576218373447
100
AcDbArc
 50
165.6543446546
 51
180.8440714385
  0
ARC
  5
294
330
1F
100
AcDbEntity
  8
0
  6
Continuous
 62
     8
370
    18
100
AcDbCircle
 10
121.8458570073
 20
199.1248905052
 30
0.0
 40
8.754576218296979
100
AcDbArc
 50
359.1559285615
 51
14.3456553455
  0
LINE
  5
295
330
1F
100
AcDbEntity
  8
0
  6
Continuous
 62
     8
370
    18
100
AcDbLine
 10
149.5897653461
 20
201.294021318
 30
0.0
 11
130.3274533358
 21
201.294021318
 31
0.0
  0
LINE
  5
296
330
1F
100
AcDbEntity
  8
0
  6
Continuous
 62
     8
370
    18
100
AcDbLine
 10
136.6287111896
 20
209.5701143829
 30
0.0
 11
143.2885074924
 21
209.5701143829
 31
0.0
  0
ARC
  5
297
330
1F
100
AcDbEntity
  8
0
  6
Continuous
 62
     8
370
    18
100
AcDbCircle
 10
127.4568335814
 20
239.0989033538
 30
0.0
 40
7.07646779302489
100
AcDbArc
 50
29.4147169084
 51
46.1174164275
  0
ARC
  5
298
330
1F
100
AcDbEntity
  8
0
  6
Continuous
 62
     8
370
    18
100
AcDbCircle
 10
142.0262114317
 20
236.8642396777
 30
0.0
 40
10.16129851469575
100
AcDbArc
 50
145.8094435353
 51
168.5667073924
  0
ARC
  5
299
330
1F
100
AcDbEntity
  8
0
  6
Continuous
 62
     8
370
    18
100
AcDbCircle
 10
137.8910119947
 20
236.8642416733
 30
0.0
 40
10.16129346883833
100
AcDbArc
 50
11.4332868817
 51
34.1905621905
  0
ARC
  5
29A
330
1F
100
AcDbEntity
  8
0
  6
Continuous
 62
     8
370
    18
100
AcDbCircle
 10
152.456749932
 20
239.1017196329
 30
0.0
 40
7.071918121829833
100
AcDbArc
 50
133.8771723746
 51
150.5906942895
  0
LINE
  5
29B
330
1F
100
AcDbEntity
  8
0
  6
Continuous
 62
     8
370
    18
100
AcDbLine
 10
133.6210575616
 20
242.5743514037
 30
0.0
 11
135.7199786001
 21
242.5743514037
 31
0.0
  0
LINE
  5
29C
330
1F
100
AcDbEntity
  8
0
  6
Continuous
 62
     8
370
    18
100
AcDbLine
 10
135.7199786001
 20
242.5743514037
 30
0.0
 11
135.7199786001
 21
214.4067137126
 31
0.0
  0
LINE
  5
29D
330
1F
100
AcDbEntity
  8
0
  6
Continuous
 62
     8
370
    18
100
AcDbLine
 10
135.7199786001
 20
214.4067137126
 30
0.0
 11
132.0665521269
 21
214.4067137126
 31
0.0
  0
LINE
  5
29E
330
1F
100
AcDbEntity
  8
0
  6
Continuous
 62
     8
370
    18
100
AcDbLine
 10
144.1972400819
 20
242.5743514037
 30
0.0
 11
146.2961611204
 21
242.5743514037
 31
0.0
  0
LINE
  5
29F
330
1F
100
AcDbEntity
  8
0
  6
Continuous
 62
     8
370
    18
100
AcDbLine
 10
147.8506665551
 20
214.4067137122
 30
0.0
 11
144.1972400819
 21
214.4067137122
 31
0.0
  0
LINE
  5
2A0
330
1F
100
AcDbEntity
  8
0
  6
Continuous
 62
     8
370
    18
100
AcDbLine
 10
144.1972400819
 20
214.4067137122
 30
0.0
 11
144.1972400819
 21
242.5743514037
 31
0.0
  0
LWPOLYLINE
  5
2A1
330
1F
100
AcDbEntity
  8
0
  6
Continuous
 62
     8
370
    18
100
AcDbPolyline
 90
        3
 70
   128
 43
0.0
 10
135.8406779007
 20
213.848110409
 10
135.7503109053
 20
214.1089049364
 10
135.7199786001
 20
214.4067137126
  0
ARC
  5
2A2
330
1F
100
AcDbEntity
  8
0
  6
Continuous
 62
     8
370
    18
100
AcDbCircle
 10
170.4972437806
 20
135.7764638925
 30
0.0
 40
85.41814531112816
100
AcDbArc
 50
113.9367793512
 51
116.0389124714
  0
LWPOLYLINE
  5
2A3
330
1F
100
AcDbEntity
  8
0
  6
Continuous
 62
     8
370
    18
100
AcDbPolyline
 90
        3
 70
   128
 43
0.0
 10
144.1972400819
 20
214.4067137124
 10
144.1669077766
 20
214.1089049363
 10
144.0765407812
 20
213.848110409
  0
ARC
  5
2A4
330
1F
100
AcDbEntity
  8
0
  6
Continuous
 62
     8
370
    18
100
AcDbCircle
 10
109.4199749013
 20
135.7764638924
 30
0.0
 40
85.41814531121432
100
AcDbArc
 50
63.9610875286
 51
66.0632206488
  0
ARC
  5
2A5
330
1F
100
AcDbEntity
  8
0
  6
Continuous
 62
     8
370
    18
100
AcDbCircle
 10
161.9329445276
 20
216.4428887546
 30
0.0
 40
26.22096970723436
100
AcDbArc
 50
185.6791786134
 51
195.1952899376
  0
LINE
  5
2A6
330
1F
100
AcDbEntity
  8
0
  6
Continuous
 62
     8
370
    18
100
AcDbLine
 10
135.8406779007
 20
213.8481104091
 30
0.0
 11
144.0765407812
 21
213.8481104091
 31
0.0
  0
ARC
  5
2A7
330
1F
100
AcDbEntity
  8
0
  6
Continuous
 62
     8
370
    18
100
AcDbCircle
 10
117.2143577648
 20
216.5847121085
 30
0.0
 40
27.00121969963227
100
AcDbArc
 50
344.9425061246
 51
354.1830253244
  0
LWPOLYLINE
  5
2A8
330
1F
100
AcDbEntity
  8
0
  6
Continuous
 62
     8
370
    18
100
AcDbPolyline
 90
       10
 70
   128
 43
0.0
 10
133.6210575616
 20
242.5743514037
 10
133.5944563385
 20
243.1387079811
 10
133.5154609338
 20
243.6859168695
 10
133.3864715831
 20
244.1993514037
 10
133.2114075624
 20
244.6634111352
 10
132.9955881034
 20
245.0639958439
 10
132.7455707712
 20
245.388933966
 10
132.4689522159
 20
245.6283524213
 10
132.1741373523
 20
245.774976601
 10
131.8700839809
 20
245.8243514037
  0
LWPOLYLINE
  5
2A9
330
1F
100
AcDbEntity
  8
0
  6
Continuous
 62
     8
370
    18
100
AcDbPolyline
 90
       10
 70
   128
 43
0.0
 10
148.0471347011
 20
245.8243514037
 10
147.7430813296
 20
245.774976601
 10
147.448266466
 20
245.6283524213
 10
147.1716479107
 20
245.388933966
 10
146.9216305785
 20
245.0639958439
 10
146.7058111196
 20
244.6634111352
 10
146.5307470989
 20
244.1993514037
 10
146.4017577481
 20
243.6859168695
 10
146.3227623435
 20
243.1387079811
 10
146.2961611204
 20
242.5743514037
  0
ARC
  5
2AA
330
1F
100
AcDbEntity
  8
0
  6
Continuous
 62
     8
370
    18
100
AcDbCircle
 10
127.4387475195
 20
243.4122937486
 30
0.0
 40
8.323517020037945
100
AcDbArc
 50
354.2221505721
 51
16.8452808969
  0
ARC
  5
2AB
330
1F
100
AcDbEntity
  8
0
  6
Continuous
 62
     8
370
    18
100
AcDbCircle
 10
153.1611240232
 20
243.3461562995
 30
0.0
 40
8.99704941140568
100
AcDbArc
 50
164.0114462532
 51
184.9211222778
  0
LINE
  5
2AC
330
1F
100
AcDbEntity
  8
0
  6
Continuous
 62
     8
370
    18
100
AcDbLine
 10
135.7199786001
 20
242.5743514037
 30
0.0
 11
144.1972400819
 21
242.5743514037
 31
0.0
  0
HATCH
  5
2AD
330
1F
100
AcDbEntity
  8
0
  6
Continuous
 62
     7
370
    18
100
AcDbHatch
 10
0.0
 20
0.0
 30
0.0
210
0.0
220
0.0
230
1.0
  2
ANSI31
 70
     0
 71
     0
 91
        1
 92
        0
 93
       12
 72
     1
 10
190.9586093409897
 20
244.5743514037303
 11
190.9586093409897
 21
245.8243514037303
 72
     1
 10
190.9586093409897
 20
245.8243514037303
 11
186.2276357144306
 21
245.8243514037303
 72
     2
 10
186.2273025612693
 20
242.5743514037303
 40
3.25
 50
89.99412668615255
 51
149.9999999999995
 73
     1
 72
     1
 10
183.4127199989699
 20
244.1993514037304
 11
173.1440267786903
 21
226.413453018868
 72
     2
 10
175.9586093409897
 20
224.788453018868
 40
3.25
 50
149.9999999999993
 51
180.0
 73
     1
 72
     1
 10
172.7086093409897
 20
224.788453018868
 11
172.7086093409897
 21
175.8243514037303
 72
     1
 10
172.7086093409897
 20
175.8243514037303
 11
173.9586093409897
 21
175.8243514037303
 72
     1
 10
173.9586093409897
 20
175.8243514037303
 11
173.9586093409897
 21
224.788453018868
 72
     2
 10
175.9586093409897
 20
224.788453018868
 40
2.0
 50
180.0
 51
210.0000000000013
 73
     0
 72
     1
 10
174.2265585334209
 20
225.788453018868
 11
184.4952517537005
 21
243.5743514037303
 72
     2
 10
186.2273025612693
 20
242.5743514037303
 40
2.0
 50
210.0000000000003
 51
269.9999999999992
 73
     0
 72
     1
 10
186.2273025612693
 20
244.5743514037303
 11
190.9586093409897
 21
244.5743514037303
 97
        0
 75
     0
 76
     1
 52
0.0
 41
1.0
 77
     0
 78
     1
 53
45.0
 43
0.0
 44
0.0
 45
-2.245064030267288
 46
2.245064030267288
 79
     0
 98
        1
 10
0.0
 20
0.0
  0
HATCH
  5
2AE
330
1F
100
AcDbEntity
  8
0
  6
Continuous
 62
     7
370
    18
100
AcDbHatch
 10
0.0
 20
0.0
 30
0.0
210
0.0
220
0.0
230
1.0
  2
ANSI31
 70
     0
 71
     0
 91
        1
 92
        0
 93
       12
 72
     2
 10
93.68991612071015
 20
242.5743514037303
 40
3.25
 50
30.00000000000035
 51
89.999999999999
 73
     1
 72
     1
 10
93.68991612071021
 20
245.8243514037303
 11
88.95860934098974
 21
245.8243514037303
 72
     1
 10
88.95860934098974
 20
245.8243514037303
 11
88.95860934098974
 21
244.5743514037303
 72
     1
 10
88.95860934098974
 20
244.5743514037303
 11
93.68958296754269
 21
244.5743514037303
 72
     2
 10
93.68991612071015
 20
242.5743514037303
 40
2.0
 50
269.9904558648756
 51
330.0000000000018
 73
     0
 72
     1
 10
95.42196692827903
 20
243.5743514037303
 11
105.6906601485586
 21
225.788453018868
 72
     2
 10
103.9586093409897
 20
224.788453018868
 40
2.0
 50
330.0000000000009
 51
360.0000000000008
 73
     0
 72
     1
 10
105.9586093409897
 20
224.788453018868
 11
105.9586093409897
 21
175.8243514037303
 72
     1
 10
105.9586093409897
 20
175.8243514037303
 11
107.2086093409898
 21
175.8243514037303
 72
     1
 10
107.2086093409898
 20
175.8243514037303
 11
107.2086093409898
 21
224.788453018868
 72
     2
 10
103.9586093409897
 20
224.788453018868
 40
3.25
 50
0.0
 51
30.00000000000035
 73
     1
 72
     1
 10
106.7731919032892
 20
226.413453018868
 11
96.5044986830096
 21
244.1993514037304
 97
        0
 75
     0
 76
     1
 52
0.0
 41
1.0
 77
     0
 78
     1
 53
45.0
 43
0.0
 44
0.0
 45
-2.245064030267288
 46
2.245064030267288
 79
     0
 98
        1
 10
0.0
 20
0.0
  0
HATCH
  5
2AF
330
1F
100
AcDbEntity
  8
0
  6
Continuous
 62
     7
370
    18
100
AcDbHatch
 10
0.0
 20
0.0
 30
0.0
210
0.0
220
0.0
230
1.0
  2
ANSI31
 70
     0
 71
     0
 91
        1
 92
        0
 93
       26
 72
     1
 10
94.9588042774869
 20
176.7529770757261
 11
94.70859634477114
 21
225.8294496650306
 72
     1
 10
94.70859634477114
 20
225.8294496650306
 11
93.70860934098978
 21
225.8243514037308
 72
     1
 10
93.70860934098978
 20
225.8243514037308
 11
93.9588172804873
 21
176.747877484225
 72
     2
 10
109.9586093409898
 20
176.8294496650306
 40
16.0
 50
180.2921101208104
 51
270.0000000000008
 73
     1
 72
     1
 10
109.9586093409898
 20
160.8294496650306
 11
119.1967516018647
 21
160.8294496650306
 72
     2
 10
119.1967516018647
 20
176.8294496650306
 40
16.0
 50
270.0000000000008
 51
311.5000000000008
 73
     1
 72
     1
 10
129.7986723733165
 20
164.8461581324066
 11
130.0446553390774
 21
165.0637854768657
 72
     2
 10
139.9839560623135
 20
153.8294496650306
 40
15.00000000000004
 50
228.5000000000008
 51
269.9031826101696
 73
     0
 72
     2
 10
139.933262619666
 20
153.8294496650306
 40
15.00000000000004
 50
270.096817389832
 51
311.5000000000009
 73
     0
 72
     1
 10
149.8725633429021
 20
165.0637854768657
 11
150.118546308663
 21
164.8461581324066
 72
     2
 10
160.7204670801148
 20
176.8294496650306
 40
16.0
 50
228.5000000000008
 51
270.0000000000008
 73
     1
 72
     1
 10
160.7204670801148
 20
160.8294496650306
 11
169.9586093409897
 21
160.8294496650306
 72
     2
 10
169.9586093409897
 20
176.8294496650306
 40
16.0
 50
270.0000000000008
 51
359.7078898791937
 73
     1
 72
     1
 10
185.9584014014922
 20
176.7478774842257
 11
186.2086093409897
 21
225.8243514037325
 72
     1
 10
186.2086093409897
 20
225.8243514037325
 11
185.2086223372084
 21
225.8294496650306
 72
     1
 10
185.2086223372084
 20
225.8294496650306
 11
184.9584144044926
 21
176.7529770757269
 72
     2
 10
169.9586093409897
 20
176.8294496650306
 40
15.0
 50
0.2921050397482164
 51
89.9999978465691
 73
     0
 72
     1
 10
169.9586099047566
 20
161.8294496650306
 11
160.7204670801148
 21
161.8294496650306
 72
     2
 10
160.7204670801148
 20
176.8294496650306
 40
15.0
 50
90.0
 51
131.5000055346367
 73
     0
 72
     1
 10
150.7811652716685
 20
165.5951148133086
 11
150.5351848921906
 21
165.8127398696177
 72
     2
 10
139.933262619666
 20
153.8294496650307
 40
15.99999999999987
 50
48.49999282291201
 51
89.90923370226395
 73
     1
 72
     2
 10
139.9839560623135
 20
153.8294496650307
 40
15.99999999999987
 50
90.09076629773608
 51
131.5000071770879
 73
     1
 72
     1
 10
129.3820337897889
 20
165.8127398696177
 11
129.136053410311
 21
165.5951148133086
 72
     2
 10
119.1967516018647
 20
176.8294496650306
 40
15.0
 50
48.49999446536332
 51
90.0
 73
     0
 72
     1
 10
119.1967516018647
 20
161.8294496650306
 11
109.9586087772228
 21
161.8294496650306
 72
     2
 10
109.9586093409898
 20
176.8294496650306
 40
15.0
 50
90.00000215343096
 51
179.7078949602485
 73
     0
 97
        0
 75
     0
 76
     1
 52
0.0
 41
1.0
 77
     0
 78
     1
 53
45.0
 43
0.0
 44
0.0
 45
-2.245064030267288
 46
2.245064030267288
 79
     0
 98
        1
 10
0.0
 20
0.0
  0
HATCH
  5
2B0
330
1F
100
AcDbEntity
  8
0
  6
Continuous
 62
     7
370
    18
100
AcDbHatch
 10
0.0
 20
0.0
 30
0.0
210
0.0
220
0.0
230
1.0
  2
ANSI31
 70
     0
 71
     0
 91
        1
 92
        0
 93
        1
 72
     2
 10
139.9586093409897
 20
234.4243514037303
 40
2.5
 50
0.0
 51
360.0
 73
     1
 97
        0
 75
     0
 76
     1
 52
0.0
 41
0.25
 77
     0
 78
     1
 53
45.0
 43
0.0
 44
0.0
 45
-0.5612660075668221
 46
0.5612660075668221
 79
     0
 98
        1
 10
0.0
 20
0.0
  0
HATCH
  5
2B1
330
1F
100
AcDbEntity
  8
0
  6
Continuous
 62
     7
370
    18
100
AcDbHatch
 10
0.0
 20
0.0
 30
0.0
210
0.0
220
0.0
230
1.0
  2
DIN 128 Elastomer-Rubber
 70
     0
 71
     0
 91
        1
 92
        0
 93
       14
 72
     1
 10
185.9586093409899
 20
248.4993514037288
 11
185.9586093409899
 21
246.1743514037307
 72
     1
 10
185.9586093409899
 20
246.1743514037307
 11
190.9586093409899
 21
246.1743514037309
 72
     1
 10
190.9586093409899
 20
246.1743514037309
 11
190.9586093409899
 21
244.5743514037305
 72
     1
 10
190.9586093409899
 20
244.5743514037305
 11
185.9586093409903
 21
244.5743514037304
 72
     1
 10
185.9586093409903
 20
244.5743514037304
 11
185.9586093409903
 21
242.2493514037288
 72
     1
 10
185.9586093409903
 20
242.2493514037288
 11
191.5203484166384
 21
242.2493514037292
 72
     2
 10
191.5202876832237
 20
242.7493514037289
 40
0.499999999999634
 50
270.006959536642
 51
352.478417015937
 73
     1
 72
     1
 10
192.0159854945142
 20
242.6839015765218
 11
192.8620295116043
 21
249.0915910300021
 72
     2
 10
193.8534251341861
 20
248.9606913755879
 40
1.0
 50
187.5215829840575
 51
243.4225014848468
 73
     0
 72
     4
 94
        3
 73
     1
 74
     0
 95
       26
 96
       22
 40
0.0
 40
0.0
 40
0.0
 40
0.0
 40
0.0003357713719788
 40
0.0003357713719788
 40
0.0003357713719788
 40
0.0006715427439576
 40
0.0006715427439576
 40
0.0006715427439576
 40
0.0010073141159364
 40
0.0010073141159364
 40
0.0010073141159364
 40
0.0013430854879153
 40
0.0013430854879153
 40
0.0013430854879153
 40
0.0016788568598941
 40
0.0016788568598941
 40
0.0016788568598941
 40
0.0020146282318729
 40
0.0020146282318729
 40
0.0020146282318729
 40
0.0020919249173782
 40
0.0020919249173782
 40
0.0020919249173782
 40
0.0020919249173782
 10
193.4060172375879
 20
249.8550213896553
 42
1.0
 10
193.506114042863
 20
249.9050969774135
 42
1.0
 10
193.5989456211892
 20
249.9731449987141
 42
1.0
 10
193.6768245492033
 20
250.0535303673268
 42
1.0
 10
193.7547034772174
 20
250.1339157359394
 42
1.0
 10
193.81977775191
 20
250.228855579581
 42
1.0
 10
193.8666585443004
 20
250.330487888521
 42
1.0
 10
193.9135393366908
 20
250.4321201974608
 42
1.0
 10
193.9435196769161
 20
250.5432481162637
 42
1.0
 10
193.9541168799671
 20
250.6546690936562
 42
1.0
 10
193.9647140830181
 20
250.7660900710487
 42
1.0
 10
193.9562204328393
 20
250.8808772351573
 42
1.0
 10
193.9293392922948
 20
250.9895250110142
 42
1.0
 10
193.9024581517504
 20
251.0981727868711
 42
1.0
 10
193.8564481057943
 20
251.2036778142801
 42
1.0
 10
193.7951192663369
 20
251.2973031760493
 42
1.0
 10
193.7337904268794
 20
251.3909285378185
 42
1.0
 10
193.6554512688065
 20
251.4752565370233
 42
1.0
 10
193.5665890918591
 20
251.5433039353849
 42
1.0
 10
193.545853855602
 20
251.5591822193768
 42
1.0
 10
193.5244797449113
 20
251.5742591294053
 42
1.0
 10
193.5025650524743
 20
251.5884653315915
 42
1.0
 72
     2
 10
194.0465207639586
 20
252.4275792594603
 40
1.0
 50
122.9533294624138
 51
153.118168090344
 73
     0
 72
     2
 10
192.7086093409899
 20
251.7493514037288
 40
0.5
 50
26.88183190965811
 51
143.7815835925628
 73
     1
 72
     1
 10
192.3052241240472
 20
252.0447839116763
 11
189.7086093409899
 21
248.4993514037288
 72
     1
 10
189.7086093409899
 20
248.4993514037288
 11
185.9586093409899
 21
248.4993514037288
 97
        0
 75
     0
 76
     2
 52
180.0
 41
0.125
 77
     0
 78
     3
 53
225.0000020971721
 43
-0.8418989999999942
 44
-0.841899000000006
 45
-0.5612659459355058
 46
-1.683798043244237
 79
     2
 49
0.79375
 49
-1.5875
 53
225.0000020971721
 43
-1.964431249999994
 44
-0.8418990000000138
 45
-0.5612659459355058
 46
-1.683798043244237
 79
     2
 49
0.79375
 49
-1.5875
 53
314.9999719140479
 43
0.0
 44
0.0
 45
0.5612662826950509
 46
0.5612657324384583
 79
     0
 98
        1
 10
0.0
 20
0.0
  0
HATCH
  5
2B2
330
1F
100
AcDbEntity
  8
0
  6
Continuous
 62
     7
370
    18
100
AcDbHatch
 10
0.0
 20
0.0
 30
0.0
210
0.0
220
0.0
230
1.0
  2
DIN 128 Elastomer-Rubber
 70
     0
 71
     0
 91
        1
 92
        0
 93
       14
 72
     1
 10
93.95860934098961
 20
246.1743514037307
 11
93.95860934098961
 21
248.4993514037288
 72
     1
 10
93.95860934098961
 20
248.4993514037288
 11
90.20860934098958
 21
248.4993514037288
 72
     1
 10
90.20860934098958
 20
248.4993514037288
 11
87.61199455793226
 21
252.0447839116763
 72
     2
 10
87.20860934098963
 20
251.7493514037288
 40
0.5
 50
36.21841640743913
 51
153.1181680903419
 73
     1
 72
     2
 10
85.87069791802095
 20
252.4275792594603
 40
1.0
 50
26.88183190965707
 51
57.04667053759144
 73
     0
 72
     4
 94
        3
 73
     1
 74
     0
 95
       26
 96
       22
 40
0.0
 40
0.0
 40
0.0
 40
0.0
 40
0.0003357713719788
 40
0.0003357713719788
 40
0.0003357713719788
 40
0.0006715427439576
 40
0.0006715427439576
 40
0.0006715427439576
 40
0.0010073141159364
 40
0.0010073141159364
 40
0.0010073141159364
 40
0.0013430854879152
 40
0.0013430854879152
 40
0.0013430854879152
 40
0.001678856859894
 40
0.001678856859894
 40
0.001678856859894
 40
0.0020146282318729
 40
0.0020146282318729
 40
0.0020146282318729
 40
0.0020919249173782
 40
0.0020919249173782
 40
0.0020919249173782
 40
0.0020919249173782
 10
86.41465362950524
 20
251.5884653315915
 42
1.0
 10
86.32073681790288
 20
251.5275837464112
 42
1.0
 10
86.2360361304847
 20
251.4496476912868
 42
1.0
 10
86.16756566800258
 20
251.3611110848288
 42
1.0
 10
86.09909520552047
 20
251.2725744783708
 42
1.0
 10
86.04496646807966
 20
251.1709953716583
 42
1.0
 10
86.00966187996218
 20
251.0647855746833
 42
1.0
 10
85.97435729184468
 20
250.9585757777083
 42
1.0
 10
85.9569031089202
 20
250.8448058931346
 42
1.0
 10
85.95874471966549
 20
250.7328972545696
 42
1.0
 10
85.96058633041076
 20
250.6209886160046
 42
1.0
 10
85.98177452872397
 20
250.5078546450246
 42
1.0
 10
86.0205547106905
 20
250.4028640149558
 42
1.0
 10
86.05933489265703
 20
250.2978733848869
 42
1.0
 10
86.11677666357679
 20
250.1981303245215
 42
1.0
 10
86.18812324542498
 20
250.1118946000554
 42
1.0
 10
86.25946982727316
 20
250.0256588755892
 42
1.0
 10
86.34668904686774
 20
249.9505519992678
 42
1.0
 10
86.44255824271221
 20
249.8927936041745
 42
1.0
 10
86.46492850747387
 20
249.8793161719392
 42
1.0
 10
86.48784470278045
 20
249.8667061038784
 42
1.0
 10
86.51120144439152
 20
249.8550213896553
 42
1.0
 72
     2
 10
86.06379354779342
 20
248.9606913755879
 40
1.0
 50
296.5774985151541
 51
352.4784170159403
 73
     0
 72
     1
 10
87.05518917037516
 20
249.0915910300021
 11
87.90123318746524
 21
242.6839015765218
 72
     2
 10
88.39693099875583
 20
242.7493514037289
 40
0.499999999999634
 50
187.5215829840646
 51
270.0000000000008
 73
     1
 72
     1
 10
88.39693099875583
 20
242.2493514037292
 11
93.95860934098916
 21
242.2493514037288
 72
     1
 10
93.95860934098916
 20
242.2493514037288
 11
93.95860934098913
 21
244.5743514037304
 72
     1
 10
93.95860934098913
 20
244.5743514037304
 11
88.95860934098963
 21
244.5743514037305
 72
     1
 10
88.95860934098963
 20
244.5743514037305
 11
88.95860934098963
 21
246.1743514037309
 72
     1
 10
88.95860934098963
 20
246.1743514037309
 11
93.95860934098961
 21
246.1743514037307
 97
        0
 75
     0
 76
     2
 52
180.0
 41
0.125
 77
     0
 78
     3
 53
225.0000020971721
 43
-0.8418989999999942
 44
-0.841899000000006
 45
-0.5612659459355058
 46
-1.683798043244237
 79
     2
 49
0.79375
 49
-1.5875
 53
225.0000020971721
 43
-1.964431249999994
 44
-0.8418990000000138
 45
-0.5612659459355058
 46
-1.683798043244237
 79
     2
 49
0.79375
 49
-1.5875
 53
314.9999719140479
 43
0.0
 44
0.0
 45
0.5612662826950509
 46
0.5612657324384583
 79
     0
 98
        1
 10
0.0
 20
0.0
  0
DIMENSION
  5
2B3
330
1F
100
AcDbEntity
  8
0
  6
Continuous
 62
     7
370
    18
100
AcDbDimension
  2
_D
 10
85.958609341
 20
262.2493514037
 30
0.0
 11
139.958609341
 21
262.2493514037
 31
0.0
 70
   160
  1
%%c<>
 71
     2
 42
-1.0
  3
SLDDIMSTYLE0
100
AcDbAlignedDimension
 13
193.958609341
 23
250.7493514037
 33
0.0
 14
85.958609341
 24
250.7493514037
 34
0.0
 50
0.0
100
AcDbRotatedDimension
  0
DIMENSION
  5
2BF
330
1F
100
AcDbEntity
  8
0
  6
Continuous
 62
     7
370
    18
100
AcDbDimension
  2
_D_1
 10
65.2904240847
 20
160.829449665
 30
0.0
 11
65.2904240847
 21
206.5394005344
 31
0.0
 70
   160
  1
<>
 71
     2
 42
-1.0
  3
SLDDIMSTYLE1
100
AcDbAlignedDimension
 13
87.208609341
 23
252.2493514037
 33
0.0
 14
109.958609341
 24
160.829449665
 34
0.0
 50
90.0
100
AcDbRotatedDimension
  0
DIMENSION
  5
2CA
330
1F
100
AcDbEntity
  8
0
  6
Continuous
 62
     7
370
    18
100
AcDbDimension
  2
_D_2
 10
185.9584014015
 20
150.8223727849
 30
0.0
 11
139.958609341
 21
150.8223727849
 31
0.0
 70
   160
  1
%%c<>
 71
     2
 42
-1.0
  3
SLDDIMSTYLE0
100
AcDbAlignedDimension
 13
93.9588172805
 23
176.7478774842
 33
0.0
 14
185.9584014015
 24
176.7478774842
 34
0.0
 50
0.0
100
AcDbRotatedDimension
  0
DIMENSION
  5
2D5
330
1F
100
AcDbEntity
  8
0
  6
Continuous
 62
     7
370
    18
100
AcDbDimension
  2
_D_3
 10
78.4911627907
 20
175.8243514037
 30
0.0
 11
78.4911627907
 21
200.8243514037
 31
0.0
 70
   160
  1
<>
 71
     2
 42
-1.0
  3
SLDDIMSTYLE0
100
AcDbAlignedDimension
 13
93.708609341
 23
225.8243514037
 33
0.0
 14
105.958609341
 24
175.8243514037
 34
0.0
 50
90.0
100
AcDbRotatedDimension
  0
MTEXT
  5
2DF
330
1F
100
AcDbEntity
  8
0
  6
Continuous
 62
     7
370
     0
100
AcDbMText
 10
139.9338619109
 20
276.2896046025
 30
0.0
 40
5.0
 41
0.0
 71
     2
 72
     1
  1
A-A
  7
SLDTEXTSTYLE0
 73
     1
 44
1.0
  0
LINE
  5
2E0
330
1F
100
AcDbEntity
  8
0
  6
Continuous
 62
     7
370
    25
100
AcDbLine
 10
319.3956881722
 20
185.6291664774
 30
0.0
 11
319.8252577257
 21
185.6245649428
 31
0.0
  0
LWPOLYLINE
  5
2E1
330
1F
100
AcDbEntity
  8
0
  6
Continuous
 62
     7
370
    25
100
AcDbPolyline
 90
       46
 70
   128
 43
0.0
 10
283.4818345261
 20
240.615867647
 10
282.1979198366
 20
239.9214871496
 10
280.4229943299
 20
238.8667763794
 10
278.7305197508
 20
237.761275968
 10
277.1249983922
 20
236.6070470258
 10
275.6106756033
 20
235.4062163095
 10
274.1914866752
 20
234.1608952554
 10
272.8711424281
 20
232.8731956684
 10
271.6531671057
 20
231.5452165498
 10
270.5409403837
 20
230.1790349626
 10
269.5377417459
 20
228.7766992514
 10
268.6467978158
 20
227.3402243437
 10
267.871333626
 20
225.8715891417
 10
267.2146293086
 20
224.3727372609
 10
266.6800835339
 20
222.8455848025
 10
266.2712831958
 20
221.2920422372
 10
265.9920743545
 20
219.7140607771
 10
265.8466221324
 20
218.1137148719
 10
265.8394385131
 20
216.4933294632
 10
265.9753500938
 20
214.8556517726
 10
266.2592763586
 20
213.2045182118
 10
266.6960763262
 20
211.5441201277
 10
267.2902772697
 20
209.8795289179
 10
267.9604360693
 20
208.3876086962
 10
268.7536263638
 20
206.9171250135
 10
269.667825585
 20
205.4719067611
 10
270.7006702851
 20
204.0556095279
 10
271.8494433092
 20
202.671766842
 10
273.1111096285
 20
201.3237596884
 10
274.4823522345
 20
200.0148023969
 10
275.9596023103
 20
198.7479411995
 10
277.539061139
 20
197.5260605567
 10
279.2167136204
 20
196.3518928029
 10
280.9883145416
 20
195.2280399617
 10
282.8493779435
 20
194.1569821338
 10
284.7952710017
 20
193.1410269818
 10
286.8211314575
 20
192.1823630532
 10
288.9218538566
 20
191.2830570229
 10
291.0920615189
 20
190.4450518315
 10
293.3260609123
 20
189.6701636582
 10
295.61776445
 20
188.9600783406
 10
297.9605543438
 20
188.3163478951
 10
300.3470306373
 20
187.7403880506
 10
302.7685157939
 20
187.2334785179
 10
305.2140003186
 20
186.796770214
 10
307.438827117
 20
186.4653934128
  0
LWPOLYLINE
  5
2E2
330
1F
100
AcDbEntity
  8
0
  6
Continuous
 62
     7
370
    25
100
AcDbPolyline
 90
       50
 70
   128
 43
0.0
 10
327.6363548504
 20
185.9561577667
 10
327.7466152645
 20
185.9644690496
 10
329.8451298344
 20
186.1702295809
 10
332.0155261935
 20
186.4357098324
 10
334.2318658922
 20
186.7635449396
 10
336.4722558497
 20
187.1551324863
 10
338.7195217653
 20
187.6111615687
 10
340.9595506846
 20
188.1317522769
 10
343.1804299429
 20
188.7165802431
 10
345.3718625115
 20
189.3649626381
 10
347.5247781744
 20
190.0759223201
 10
349.6310690341
 20
190.8482374783
 10
351.6834061228
 20
191.6804817689
 10
353.6751094366
 20
192.5710581486
 10
355.6000533795
 20
193.5182284785
 10
357.4525956148
 20
194.5201402171
 10
359.2275211215
 20
195.5748509873
 10
360.9199957006
 20
196.6803513987
 10
362.5255170592
 20
197.8345803409
 10
364.0398398481
 20
199.0354110572
 10
365.4590287762
 20
200.2807321113
 10
366.7793730233
 20
201.5684316983
 10
367.9973483457
 20
202.8964108169
 10
369.1095750676
 20
204.2625924041
 10
370.1127737054
 20
205.6649281153
 10
371.0037176356
 20
207.101403023
 10
371.7791818254
 20
208.570038225
 10
372.4358861428
 20
210.0688901058
 10
372.9704319175
 20
211.5960425642
 10
373.3792322556
 20
213.1495851295
 10
373.6584410968
 20
214.7275665896
 10
373.803893319
 20
216.3279124949
 10
373.8110769383
 20
217.9482979036
 10
373.6751653576
 20
219.5859755941
 10
373.3912390928
 20
221.2371091549
 10
372.9544391252
 20
222.897507239
 10
372.3602381816
 20
224.5620984488
 10
371.690079382
 20
226.0540186705
 10
370.8968890875
 20
227.5245023533
 10
369.9826898663
 20
228.9697206056
 10
368.9498451663
 20
230.3860178389
 10
367.8010721422
 20
231.7698605247
 10
366.5394058229
 20
233.1178676783
 10
365.1681632169
 20
234.4268249698
 10
363.6909131411
 20
235.6936861672
 10
362.1114543124
 20
236.91556681
 10
360.433801831
 20
238.0897345638
 10
358.6622009097
 20
239.213587405
 10
356.8011375079
 20
240.2846452329
 10
356.54594769
 20
240.4178804121
  0
ARC
  5
2E3
330
1F
100
AcDbEntity
  8
0
  6
Continuous
 62
     7
370
    25
100
AcDbCircle
 10
319.8585037504
 20
277.0074476202
 30
0.0
 40
91.38288872501388
100
AcDbArc
 50
269.979155212
 51
274.8825098095
  0
ARC
  5
2E4
330
1F
100
AcDbEntity
  8
0
  6
Continuous
 62
     7
370
    25
100
AcDbCircle
 10
318.8841423389
 20
168.4074439144
 30
0.0
 40
80.58733284986256
100
AcDbArc
 50
89.330872936
 51
113.1311558981
  0
ARC
  5
2E5
330
1F
100
AcDbEntity
  8
0
  6
Continuous
 62
     7
370
    25
100
AcDbCircle
 10
320.7509123895
 20
168.4569490928
 30
0.0
 40
80.53765186874554
100
AcDbArc
 50
66.4906828647
 51
90.6585400994
  0
ARC
  5
2E6
330
1F
100
AcDbEntity
  8
0
  6
Continuous
 62
     7
370
    25
100
AcDbCircle
 10
320.1151614328
 20
265.3925422965
 30
0.0
 40
77.30765818514662
100
AcDbArc
 50
269.7851403315
 51
272.7305608186
  0
LWPOLYLINE
  5
2E7
330
1F
100
AcDbEntity
  8
0
  6
Continuous
 62
     7
370
    25
100
AcDbPolyline
 90
        3
 70
   128
 43
0.0
 10
350.4934220597
 20
193.8058438547
 10
348.5921816494
 20
193.0465775616
 10
346.9296435792
 20
192.4495801461
  0
LINE
  5
2E8
330
1F
100
AcDbEntity
  8
0
  6
Continuous
 62
     7
370
    25
100
AcDbLine
 10
267.8729547666
 20
208.5823612305
 30
0.0
 11
267.995188841
 21
207.8297370055
 31
0.0
  0
LINE
  5
2E9
330
1F
100
AcDbEntity
  8
0
  6
Continuous
 62
     7
370
    25
100
AcDbLine
 10
371.6553266104
 20
207.8297370055
 30
0.0
 11
371.7739500926
 21
208.5601299572
 31
0.0
  0
LWPOLYLINE
  5
2EA
330
1F
100
AcDbEntity
  8
0
  6
Continuous
 62
     7
370
    25
100
AcDbPolyline
 90
       28
 70
   128
 43
0.0
 10
271.1154654738
 20
199.9944620648
 10
271.2254248005
 20
199.8146760916
 10
272.2074942424
 20
198.4302589242
 10
273.3053833629
 20
197.0768823695
 10
274.5161826913
 20
195.7578356646
 10
275.8367161705
 20
194.4762817647
 10
277.2635550256
 20
193.2352580183
 10
278.7930267512
 20
192.0376790854
 10
280.4212197692
 20
190.8863399509
 10
282.14397472
 20
189.7839237564
 10
283.9568748431
 20
188.7330034047
 10
285.8552949697
 20
187.7360089653
 10
287.8343534522
 20
186.7952520745
 10
289.8888982988
 20
185.9129200554
 10
292.0134803514
 20
185.0910708574
 10
294.2023075095
 20
184.3316277644
 10
296.449164667
 20
183.6363742957
 10
298.7472692578
 20
183.0069498126
 10
301.0889992581
 20
182.4448466829
 10
303.4653500096
 20
181.9514108515
 10
305.8647584733
 20
181.5278506684
 10
308.2702591234
 20
181.1752691047
 10
310.6514246179
 20
180.8947778685
 10
312.9351641985
 20
180.688014569
 10
314.940686225
 20
180.5556788564
 10
316.4634956082
 20
180.4855435172
 10
318.2011991203
 20
180.437250438
 10
319.8252577257
 20
180.4225638668
  0
LWPOLYLINE
  5
2EB
330
1F
100
AcDbEntity
  8
0
  6
Continuous
 62
     7
370
    25
100
AcDbPolyline
 90
       28
 70
   128
 43
0.0
 10
319.8252577257
 20
180.4225638668
 10
322.6799582013
 20
180.4679643226
 10
323.8119894363
 20
180.5111744901
 10
325.6886945095
 20
180.6145656531
 10
327.6242892679
 20
180.7630977996
 10
329.6845578725
 20
180.9686584447
 10
331.8142415162
 20
181.2336696446
 10
333.9877310811
 20
181.560697267
 10
336.1833716462
 20
181.9510666239
 10
338.3841280301
 20
182.4053885271
 10
340.5759676828
 20
182.9236978304
 10
342.7470214315
 20
183.5055773437
 10
344.8870141217
 20
184.1502436081
 10
346.9868865171
 20
184.8566111433
 10
349.0385386661
 20
185.6233424928
 10
351.0346525376
 20
186.4488890951
 10
352.9685668801
 20
187.3315262503
 10
354.8341866792
 20
188.2693843573
 10
356.6259154234
 20
189.260477877
 10
358.3386020419
 20
190.302732975
 10
359.9674966992
 20
191.3940144248
 10
361.5082017279
 20
192.5321447498
 10
362.9566299304
 20
193.7149235093
 10
364.3089972292
 20
194.9401763928
 10
365.5617602697
 20
196.2057662845
 10
366.7115690865
 20
197.5096155861
 10
367.7552122638
 20
198.8497247361
 10
368.5257562712
 20
199.9832311159
  0
LINE
  5
2EC
330
1F
100
AcDbEntity
  8
0
  6
Continuous
 62
     7
370
    25
100
AcDbLine
 10
302.2314918819
 20
190.8474469456
 30
0.0
 11
351.9757224793
 21
219.5641800167
 31
0.0
  0
LINE
  5
2ED
330
1F
100
AcDbEntity
  8
0
  6
Continuous
 62
     7
370
    25
100
AcDbLine
 10
349.4759256477
 20
223.8944243286
 30
0.0
 11
295.617887168
 21
192.8028405172
 31
0.0
  0
LINE
  5
2EE
330
1F
100
AcDbEntity
  8
0
  6
Continuous
 62
     7
370
    25
100
AcDbLine
 10
273.5755581724
 20
196.7722960328
 30
0.0
 11
273.8257644865
 21
156.6998728117
 31
0.0
  0
LINE
  5
2EF
330
1F
100
AcDbEntity
  8
0
  6
Continuous
 62
     7
370
    25
100
AcDbLine
 10
365.8247509649
 20
156.6998728117
 30
0.0
 11
366.074957279
 21
196.7722960328
 31
0.0
  0
LWPOLYLINE
  5
2F0
330
1F
100
AcDbEntity
  8
0
  6
Continuous
 62
     7
370
    25
100
AcDbPolyline
 90
       31
 70
   128
 43
0.0
 10
273.8386022157
 20
156.6926246177
 10
273.8770678424
 20
155.2214941843
 10
274.0706692035
 20
153.2963018891
 10
274.4089327582
 20
151.3762103079
 10
274.893138671
 20
149.4674601427
 10
275.5246415189
 20
147.5760239582
 10
276.3050220202
 20
145.7075522156
 10
277.2362484092
 20
143.8673764635
 10
278.3208128608
 20
142.0605924622
 10
279.5617885183
 20
140.292243608
 10
280.9627308058
 20
138.5676154169
 10
282.3543151353
 20
137.0669279156
 10
283.8640630898
 20
135.6244584609
 10
285.4874713683
 20
134.2462361046
 10
287.2182879811
 20
132.9383386341
 10
289.0484628631
 20
131.7065836263
 10
290.9685447722
 20
130.5560531807
 10
292.9683067792
 20
129.4907233463
 10
295.0370485573
 20
128.5134587056
 10
297.1634513992
 20
127.6262302276
 10
299.3384703483
 20
126.8291945606
 10
301.5532236462
 20
126.1220121438
 10
303.7985523434
 20
125.504047174
 10
306.0639406965
 20
124.9745698806
 10
308.3352401842
 20
124.5329127933
 10
310.5888539915
 20
124.1786423343
 10
312.7726870977
 20
123.9119906928
 10
314.8211040431
 20
123.7284192059
 10
316.2806406748
 20
123.63615449
 10
317.8333231572
 20
123.5727707346
 10
319.8252577257
 20
123.5435657406
  0
LWPOLYLINE
  5
2F1
330
1F
100
AcDbEntity
  8
0
  6
Continuous
 62
     7
370
    25
100
AcDbPolyline
 90
       33
 70
   128
 43
0.0
 10
319.8252577257
 20
123.5435657406
 10
322.4139655433
 20
123.5929099148
 10
323.4739700603
 20
123.6416825788
 10
325.2271914434
 20
123.7590984953
 10
327.0402855599
 20
123.9292842461
 10
328.9738096395
 20
124.1664768117
 10
330.9753499592
 20
124.4742130675
 10
333.0210478969
 20
124.8564414028
 10
335.0908921953
 20
125.3159368647
 10
337.1692868607
 20
125.8549494241
 10
339.2433641955
 20
126.4753645277
 10
341.3020450769
 20
127.1788207549
 10
343.335340775
 20
127.9667447409
 10
345.3338280144
 20
128.8403127252
 10
347.2882474599
 20
129.8003391134
 10
349.1889231176
 20
130.8469271742
 10
351.0252120272
 20
131.9788839547
 10
352.7871895063
 20
133.1944203659
 10
354.4650722099
 20
134.4906770706
 10
356.0496690417
 20
135.8638398545
 10
357.5327860277
 20
137.3093822099
 10
358.9074934971
 20
138.8223886152
 10
360.1681725673
 20
140.397851569
 10
361.3103539751
 20
142.0308573146
 10
362.3304347575
 20
143.7166322092
 10
363.2253760392
 20
145.4504764076
 10
363.992457543
 20
147.2276386843
 10
364.6291212461
 20
149.0431854183
 10
365.1329011271
 20
150.89190086
 10
365.5014162336
 20
152.7682371418
 10
365.7323981487
 20
154.6663175867
 10
365.8237259805
 20
156.5799873114
 10
365.8202517971
 20
156.7128585876
  0
LINE
  5
2F2
330
1F
100
AcDbEntity
  8
0
  6
Continuous
 62
     7
370
    25
100
AcDbLine
 10
285.8252577257
 20
187.7517836428
 30
0.0
 11
285.8252577257
 21
179.635426403
 31
0.0
  0
LINE
  5
2F3
330
1F
100
AcDbEntity
  8
0
  6
Continuous
 62
     7
370
    25
100
AcDbLine
 10
353.8252577257
 20
179.635426403
 30
0.0
 11
353.8252577257
 21
187.7621898051
 31
0.0
  0
LWPOLYLINE
  5
2F4
330
1F
100
AcDbEntity
  8
0
  6
Continuous
 62
     7
370
    25
100
AcDbPolyline
 90
        4
 70
   128
 43
0.0
 10
354.4680034522
 20
221.1622536599
 10
353.4389496677
 20
215.0361729253
 10
352.4060277263
 20
209.1882008095
 10
351.3607409997
 20
203.6445945157
  0
LWPOLYLINE
  5
2F5
330
1F
100
AcDbEntity
  8
0
  6
Continuous
 62
     7
370
    25
100
AcDbPolyline
 90
        3
 70
   128
 43
0.0
 10
351.360751669
 20
203.6446632984
 10
351.2461993371
 20
202.9165768521
 10
351.1976254649
 20
202.1265324971
  0
LINE
  5
2F6
330
1F
100
AcDbEntity
  8
0
  6
Continuous
 62
     7
370
    25
100
AcDbLine
 10
354.6969126318
 20
223.6923431448
 30
0.0
 11
354.4680023349
 21
221.1622507104
 31
0.0
  0
LINE
  5
2F7
330
1F
100
AcDbEntity
  8
0
  6
Continuous
 62
     7
370
    25
100
AcDbLine
 10
351.1972125213
 20
202.1204906678
 30
0.0
 11
351.1972125213
 21
195.9623438957
 31
0.0
  0
ARC
  5
2F8
330
1F
100
AcDbEntity
  8
0
  6
Continuous
 62
     7
370
    25
100
AcDbCircle
 10
319.7793930289
 20
276.7169670577
 30
0.0
 40
91.08095617500614
100
AcDbArc
 50
262.3258421675
 51
270.0319416592
  0
LWPOLYLINE
  5
2F9
330
1F
100
AcDbEntity
  8
0
  6
Continuous
 62
     7
370
    25
100
AcDbPolyline
 90
       16
 70
   128
 43
0.0
 10
287.1467901616
 20
242.4538017957
 10
286.2674699876
 20
242.0499283596
 10
284.0635094013
 20
240.9564554007
 10
281.9662759276
 20
239.7951337563
 10
279.9820285355
 20
238.5694292667
 10
278.1166889991
 20
237.2829999158
 10
276.3758242246
 20
235.9396849145
 10
274.7646296368
 20
234.5434932427
 10
273.2879136736
 20
233.098591685
 10
271.9500834359
 20
231.6092923957
 10
270.7551315348
 20
230.0800400291
 10
269.7066241765
 20
228.5153984753
 10
268.807690519
 20
226.9200372398
 10
268.0610133338
 20
225.2987175074
 10
267.4688209989
 20
223.6562779335
 10
267.1925390913
 20
222.6789824164
  0
LWPOLYLINE
  5
2FA
330
1F
100
AcDbEntity
  8
0
  6
Continuous
 62
     7
370
    25
100
AcDbPolyline
 90
       16
 70
   128
 43
0.0
 10
372.4887195424
 20
222.5562693306
 10
372.187863599
 20
223.6364328184
 10
371.5975393307
 20
225.2790964889
 10
370.8527062259
 20
226.9006988746
 10
369.9555871592
 20
228.4964004769
 10
368.9088594865
 20
230.0614390948
 10
367.7156470546
 20
231.5911440381
 10
366.3795108784
 20
233.0809500659
 10
364.9044385134
 20
234.5264110116
 10
363.2948321552
 20
235.9232130516
 10
361.5554955019
 20
237.2671875795
 10
359.6916194177
 20
238.5543236472
 10
357.7087664413
 20
239.7807799348
 10
355.6128541854
 20
240.9428962146
 10
353.4101376759
 20
242.0372042749
 10
352.9578229768
 20
242.247420904
  0
ARC
  5
2FB
330
1F
100
AcDbEntity
  8
0
  6
Continuous
 62
     7
370
    25
100
AcDbCircle
 10
320.7241560058
 20
269.4453137129
 30
0.0
 40
81.35585940514203
100
AcDbArc
 50
272.2657758735
 51
288.7603962194
  0
LWPOLYLINE
  5
2FC
330
1F
100
AcDbEntity
  8
0
  6
Continuous
 62
     7
370
    25
100
AcDbPolyline
 90
       26
 70
   128
 43
0.0
 10
318.4871342235
 20
188.069404711
 10
318.0773277587
 20
188.0763813791
 10
315.1979322637
 20
188.1778297047
 10
312.3325898041
 20
188.3706930415
 10
309.4900023307
 20
188.6543856698
 10
306.6788026882
 20
189.0280460245
 10
303.9075283977
 20
189.4905393114
 10
301.1845957279
 20
190.0404609536
 10
298.5182741359
 20
190.676140857
 10
295.9166611529
 20
191.3956484828
 10
293.3876577918
 20
192.1967987099
 10
290.9389445528
 20
193.0771584714
 10
288.5779580975
 20
194.0340541437
 10
286.3118686642
 20
195.0645796659
 10
284.1475582921
 20
196.1656053661
 10
282.0915999204
 20
197.3337874654
 10
280.1502374274
 20
198.565578233
 10
278.329366667
 20
199.8572367609
 10
276.634517564
 20
201.2048403247
 10
275.0708373192
 20
202.6042962966
 10
273.6430747783
 20
204.0513545747
 10
272.3555660092
 20
205.5416204907
 10
271.2122211337
 20
207.070568156
 10
270.2165124525
 20
208.6335542067
 10
269.3714639003
 20
210.2258319057
 10
268.8412685303
 20
211.4285162837
  0
LWPOLYLINE
  5
2FD
330
1F
100
AcDbEntity
  8
0
  6
Continuous
 62
     7
370
    25
100
AcDbPolyline
 90
       15
 70
   128
 43
0.0
 10
371.0893404697
 20
212.1647342085
 10
370.8371745569
 20
211.4981612693
 10
370.1126907108
 20
209.8862024176
 10
369.2354855836
 20
208.2997309626
 10
368.2082232183
 20
206.743564966
 10
367.0340233769
 20
205.2224304528
 10
365.7164520659
 20
203.7409470585
 10
364.259510706
 20
202.3036139995
 10
362.6676239802
 20
200.9147964091
 10
360.9456263961
 20
199.5787120806
 10
359.0987476039
 20
198.2994186582
 10
357.1325965136
 20
197.080801314
 10
355.0531442617
 20
195.9265609488
 10
352.8667060762
 20
194.8402029527
 10
350.579922098
 20
193.8250265592
  0
LWPOLYLINE
  5
2FE
330
1F
100
AcDbEntity
  8
0
  6
Continuous
 62
     7
370
    25
100
AcDbPolyline
 90
       76
 70
   128
 43
0.0
 10
363.444801218
 20
201.5720812359
 10
363.7221629934
 20
201.868106564
 10
364.9763935112
 20
203.3234301277
 10
366.0859913292
 20
204.8173860413
 10
367.0474020709
 20
206.3451887136
 10
367.857546048
 20
207.901944132
 10
368.5138281251
 20
209.4826655396
 10
369.0141460327
 20
211.0822894093
 10
369.3568971019
 20
212.6956916634
 10
369.5409833976
 20
214.3177040882
 10
369.5658152359
 20
215.9431308888
 10
369.431313073
 20
217.5667653333
 10
369.1379077598
 20
219.183406431
 10
368.686539162
 20
220.787875593
 10
368.0786531493
 20
222.375033221
 10
367.3161969638
 20
223.9397951706
 10
366.4016129826
 20
225.4771490375
 10
365.3378308939
 20
226.9821702138
 10
364.1282583125
 20
228.450037663
 10
362.7767698638
 20
229.8760493631
 10
361.2876947731
 20
231.2556373686
 10
359.6658029965
 20
232.5843824434
 10
357.9162899425
 20
233.8580282163
 10
356.0447598288
 20
235.072494816
 10
354.0572077306
 20
236.2238919399
 10
351.9600003764
 20
237.3085313157
 10
349.7598557537
 20
238.3229385166
 10
347.463821589
 20
239.2638640906
 10
345.0792527719
 20
240.1282939693
 10
342.6137877952
 20
240.9134591232
 10
340.0753242865
 20
241.6168444317
 10
337.4719937097
 20
242.2361967395
 10
334.8121353175
 20
242.7695320745
 10
332.1042694382
 20
243.2151420028
 10
329.3570701826
 20
243.5715991015
 10
326.579337658
 20
243.8377615311
 10
323.7799697793
 20
244.0127766929
 10
320.9679337656
 20
244.0960839607
 10
318.1522374161
 20
244.0874164763
 10
315.3419002549
 20
243.9868020041
 10
312.5459246394
 20
243.7945628426
 10
309.7732669223
 20
243.5113147919
 10
307.0328087622
 20
243.1379651809
 10
304.3333286727
 20
242.6757099608
 10
301.6834739024
 20
242.1260298746
 10
299.091732735
 20
241.4906857132
 10
296.5664072987
 20
240.7717126756
 10
294.1155869724
 20
239.9714138491
 10
291.7471224723
 20
239.0923528322
 10
289.4686007043
 20
238.1373455223
 10
287.2873204605
 20
237.1094510958
 10
285.2102690391
 20
236.0119622083
 10
283.2440998621
 20
234.8483944476
 10
281.395111162
 20
233.6224750721
 10
279.6692258071
 20
232.3381310711
 10
278.0719723285
 20
230.9994765856
 10
276.6084672106
 20
229.6107997296
 10
275.2833985015
 20
228.1765488536
 10
274.1010107957
 20
226.7013182956
 10
273.0650916377
 20
225.1898336638
 10
272.1789593886
 20
223.6469366992
 10
271.4454525973
 20
222.0775697659
 10
270.8669209071
 20
220.4867600193
 10
270.4452175294
 20
218.8796033026
 10
270.1816933074
 20
217.2612478233
 10
270.0771923885
 20
215.6368776619
 10
270.1320495207
 20
214.0116961657
 10
270.3460889801
 20
212.390909281
 10
270.7186251337
 20
210.7797088769
 10
271.2484646359
 20
209.1832561139
 10
271.9339102511
 20
207.6066649115
 10
272.7727662903
 20
206.0549855667
 10
273.7623456447
 20
204.5331885763
 10
274.8994783934
 20
203.0461487147
 10
276.1805219572
 20
201.5986294189
 10
276.2057142333
 20
201.5720812359
  0
ARC
  5
2FF
330
1F
100
AcDbEntity
  8
0
  6
Continuous
 62
     7
370
    25
100
AcDbCircle
 10
351.8363914567
 20
211.240130408
 30
0.0
 40
20.1102206299653
100
AcDbArc
 50
326.3594345071
 51
350.2363043033
  0
ARC
  5
300
330
1F
100
AcDbEntity
  8
0
  6
Continuous
 62
     7
370
    25
100
AcDbCircle
 10
288.0221642135
 20
211.3232806501
 30
0.0
 40
20.32940210058753
100
AcDbArc
 50
189.8952160098
 51
213.4713213052
  0
LWPOLYLINE
  5
301
330
1F
100
AcDbEntity
  8
0
  6
Continuous
 62
     7
370
    25
100
AcDbPolyline
 90
      108
 70
   128
 43
0.0
 10
346.8511612533
 20
193.8948378621
 10
344.620011676
 20
193.0162480828
 10
342.3033894452
 20
192.2147631884
 10
339.9092804378
 20
191.4931460634
 10
337.4459376435
 20
190.8538842714
 10
334.9218527152
 20
190.2991814803
 10
332.3457266965
 20
189.8309498656
 10
329.7264400275
 20
189.4508035185
 10
327.073021932
 20
189.1600528824
 10
324.3946192918
 20
188.9597002348
 10
321.7004651157
 20
188.8504362329
 10
318.9998467112
 20
188.8326375323
 10
316.3020736695
 20
188.9063654889
 10
313.6164457731
 20
189.071365947
 10
310.9522209378
 20
189.327070116
 10
308.3185832984
 20
189.6725965306
 10
305.7246115495
 20
190.1067540896
 10
303.179247649
 20
190.628046162
 10
300.6912659938
 20
191.234675746
 10
298.2692431718
 20
191.9245516639
 10
295.9215283976
 20
192.6952957703
 10
293.6562147303
 20
193.5442511507
 10
291.4811111754
 20
194.4684912801
 10
289.4037157655
 20
195.4648301111
 10
287.431189713
 20
196.5298330576
 10
285.5703327236
 20
197.6598288336
 10
283.8275595571
 20
198.8509221097
 10
282.2088779134
 20
200.0990069406
 10
280.7198677237
 20
201.3997809193
 10
279.3656619144
 20
202.7487600084
 10
278.1509287135
 20
204.1412939976
 10
277.0798555581
 20
205.5725825338
 10
276.1561346591
 20
207.0376916687
 10
275.382950274
 20
208.5315708678
 10
274.7629677293
 20
210.04907042
 10
274.2983242334
 20
211.5849591899
 10
273.9906215087
 20
213.1339426507
 10
273.8409202702
 20
214.6906811357
 10
273.8497365691
 20
216.2498082447
 10
274.0170400138
 20
217.8059493436
 10
274.3422538746
 20
219.3537400916
 10
274.824257072
 20
220.8878449335
 10
275.4613880412
 20
222.4029754919
 10
276.2514504596
 20
223.8939087981
 10
277.1917208185
 20
225.355505296
 10
278.2789578112
 20
226.7827265597
 10
279.5094135065
 20
228.1706526619
 10
280.8788462686
 20
229.5144991337
 10
282.3825353793
 20
230.809633458
 10
284.0152973105
 20
232.0515910384
 10
285.7715035938
 20
233.23609059
 10
287.6451002222
 20
234.3590488972
 10
289.62962852
 20
235.4165948904
 10
291.718247407
 20
236.4050829892
 10
293.9037569813
 20
237.3211056705
 10
296.1786233386
 20
238.1615052143
 10
298.5350045433
 20
238.9233845893
 10
300.9647776613
 20
239.6041174394
 10
303.4595667611
 20
240.2013571375
 10
306.0107717881
 20
240.7130448747
 10
308.60959821
 20
241.1374167572
 10
311.2470873336
 20
241.4730098874
 10
313.9141471876
 20
241.7186674061
 10
316.6015838643
 20
241.873542481
 10
319.3001332125
 20
241.9371012257
 10
322.0004927738
 20
241.9091245399
 10
324.6933538492
 20
241.7897088651
 10
327.3694335887
 20
241.5792658519
 10
330.0195069912
 20
241.278520941
 10
332.6344387047
 20
240.8885108623
 10
335.2052145177
 20
240.4105800614
 10
337.7229724336
 20
239.8463760647
 10
340.1790332191
 20
239.1978438004
 10
342.564930324
 20
238.4672188935
 10
344.8724390666
 20
237.6570199594
 10
347.0936049864
 20
236.7700399216
 10
349.2207712642
 20
235.8093363842
 10
351.2466051172
 20
234.7782210911
 10
353.1641230764
 20
233.6802485106
 10
354.9667150603
 20
232.5192035814
 10
356.6481671608
 20
231.299088666
 10
358.2026830642
 20
230.0241097532
 10
359.6249040321
 20
228.6986619595
 10
360.9099273742
 20
227.3273143781
 10
362.0533233489
 20
225.9147943281
 10
363.0511504333
 20
224.4659710587
 10
363.8999689109
 20
222.985838964
 10
364.5968527284
 20
221.4795003658
 10
365.139399583
 20
219.9521479254
 10
365.5257392033
 20
218.409046743
 10
365.7545397965
 20
216.8555162081
 10
365.8250126397
 20
215.2969116623
 10
365.7369147982
 20
213.7386059383
 10
365.4905499638
 20
212.1859708387
 10
365.0867674069
 20
210.6443586185
 10
364.5269590497
 20
209.1190835343
 10
363.8130546675
 20
207.6154035253
 10
362.9475152367
 20
206.1385020879
 10
361.933324451
 20
204.6934704074
 10
360.7739784362
 20
203.2852898074
 10
359.473473698
 20
201.9188145781
 10
358.0362933458
 20
200.5987552427
 10
356.467391638
 20
199.3296623192
 10
354.7721769037
 20
198.1159106338
 10
352.9564928994
 20
196.96168424
 10
351.0265986639
 20
195.8709619953
 10
348.9891469425
 20
194.8475038453
 10
346.8511612533
 20
193.8948378621
  0
LWPOLYLINE
  5
302
330
1F
100
AcDbEntity
  8
0
  6
Continuous
 62
     7
370
    25
100
AcDbPolyline
 90
       54
 70
   128
 43
0.0
 10
365.7958603842
 20
214.4343681628
 10
365.7545397965
 20
214.9570588205
 10
365.5257392033
 20
216.5105893554
 10
365.139399583
 20
218.0536905377
 10
364.5968527284
 20
219.5810429782
 10
363.8999689109
 20
221.0873815763
 10
363.0511504333
 20
222.5675136711
 10
362.0533233489
 20
224.0163369404
 10
360.9099273742
 20
225.4288569905
 10
359.6249040321
 20
226.8002045719
 10
358.2026830642
 20
228.1256523656
 10
356.6481671608
 20
229.4006312783
 10
354.9667150603
 20
230.6207461937
 10
353.1641230764
 20
231.7817911229
 10
351.2466051172
 20
232.8797637035
 10
349.2207712642
 20
233.9108789965
 10
347.0936049864
 20
234.871582534
 10
344.8724390666
 20
235.7585625717
 10
342.564930324
 20
236.5687615059
 10
340.1790332191
 20
237.2993864128
 10
337.7229724336
 20
237.9479186771
 10
335.2052145177
 20
238.5121226738
 10
332.6344387047
 20
238.9900534747
 10
330.0195069912
 20
239.3800635534
 10
327.3694335887
 20
239.6808084643
 10
324.6933538492
 20
239.8912514775
 10
322.0004927738
 20
240.0106671522
 10
319.3001332125
 20
240.038643838
 10
316.6015838643
 20
239.9750850934
 10
313.9141471876
 20
239.8202100184
 10
311.2470873336
 20
239.5745524997
 10
308.60959821
 20
239.2389593696
 10
306.0107717881
 20
238.814587487
 10
303.4595667611
 20
238.3028997499
 10
300.9647776613
 20
237.7056600518
 10
298.5350045433
 20
237.0249272016
 10
296.1786233386
 20
236.2630478266
 10
293.9037569813
 20
235.4226482828
 10
291.718247407
 20
234.5066256015
 10
289.62962852
 20
233.5181375027
 10
287.6451002222
 20
232.4605915096
 10
285.7715035938
 20
231.3376332023
 10
284.0152973105
 20
230.1531336508
 10
282.3825353793
 20
228.9111760703
 10
280.8788462686
 20
227.6160417461
 10
279.5094135065
 20
226.2721952742
 10
278.2789578112
 20
224.8842691721
 10
277.1917208185
 20
223.4570479084
 10
276.2514504596
 20
221.9954514105
 10
275.4613880412
 20
220.5045181043
 10
274.824257072
 20
218.9893875458
 10
274.3422538746
 20
217.455282704
 10
274.0170400138
 20
215.9074919559
 10
273.8546550671
 20
214.4343681628
  0
LWPOLYLINE
  5
303
330
1F
100
AcDbEntity
  8
0
  6
Continuous
 62
     7
370
    25
100
AcDbPolyline
 90
       10
 70
   128
 43
0.0
 10
352.4935910165
 20
220.7087920329
 10
352.4333558183
 20
221.2719058557
 10
352.2567551528
 20
221.8661904816
 10
351.9758240635
 20
222.4511463955
 10
351.60970754
 20
222.9869098186
 10
351.1833558183
 20
223.4369693588
 10
350.7258240635
 20
223.7706542024
 10
350.2682923088
 20
223.9652242786
 10
349.8419405871
 20
224.0074199583
 10
349.4759256477
 20
223.8944243286
  0
ARC
  5
304
330
1F
100
AcDbEntity
  8
0
  6
Continuous
 62
     7
370
    25
100
AcDbCircle
 10
351.3087144249
 20
220.5554195932
 30
0.0
 40
1.194761751431187
100
AcDbArc
 50
303.9367271527
 51
7.3754532407
  0
LWPOLYLINE
  5
305
330
1F
100
AcDbEntity
  8
0
  6
Continuous
 62
     7
370
    25
100
AcDbPolyline
 90
       40
 70
   128
 43
0.0
 10
351.8218487641
 20
178.4014580504
 10
349.870156024
 20
177.3396507139
 10
347.8129294829
 20
176.3464539145
 10
345.657395224
 20
175.4253562921
 10
343.41112464
 20
174.5795932357
 10
341.0820078382
 20
173.812135519
 10
338.6782259265
 20
173.1256788651
 10
336.2082222763
 20
172.5226344781
 10
333.6806728656
 20
172.0051205734
 10
331.1044558039
 20
171.5749549375
 10
328.4886201476
 20
171.2336485428
 10
325.8423541148
 20
170.9824002405
 10
323.1749528116
 20
170.8220925494
 10
320.4957855821
 20
170.7532885561
 10
317.8142630991
 20
170.7762299372
 10
315.1398043081
 20
170.8908361102
 10
312.4818033431
 20
171.0967045168
 10
309.8495965294
 20
171.3931120367
 10
307.2524295895
 20
171.7790175276
 10
304.699425167
 20
172.2530654825
 10
302.199550783
 20
172.8135907906
 10
299.7615873375
 20
173.4586245863
 10
297.394098266
 20
174.1859011649
 10
295.1053994601
 20
174.9928659409
 10
292.903530058
 20
175.8766844211
 10
290.7962242062
 20
176.8342521608
 10
288.7908838934
 20
177.8622056685
 10
286.8945529505
 20
178.9569342199
 10
285.1138923091
 20
180.114592541
 10
283.4551566048
 20
181.3311143149
 10
281.9241722071
 20
182.6022264643
 10
280.5263167546
 20
183.9234641616
 10
279.2665002655
 20
185.2901865111
 10
278.1491478913
 20
186.6975928507
 10
277.1781843728
 20
188.1407396143
 10
276.3570202549
 20
189.6145576964
 10
275.6885399064
 20
191.113870257
 10
275.1750913891
 20
192.6334109062
 10
274.8184782094
 20
194.167842202
 10
274.631831779
 20
195.566708327
  0
LWPOLYLINE
  5
306
330
1F
100
AcDbEntity
  8
0
  6
Continuous
 62
     7
370
    25
100
AcDbPolyline
 90
       14
 70
   128
 43
0.0
 10
365.0249951467
 20
195.6416501984
 10
364.9511174847
 20
194.9389590732
 10
364.6734263304
 20
193.3991010776
 10
364.2382043483
 20
191.871444214
 10
363.6469802714
 20
190.3613544328
 10
362.9018307957
 20
188.8741359794
 10
362.0053732861
 20
187.4150127629
 10
360.9607565823
 20
185.9891100069
 10
359.7716499384
 20
184.6014362467
 10
358.442230135
 20
183.256865737
 10
356.9771668075
 20
181.9601213309
 10
355.3816060445
 20
180.7157578902
 10
353.6611523112
 20
179.528146287
 10
351.8218487641
 20
178.4014580504
  0
LWPOLYLINE
  5
307
330
1F
100
AcDbEntity
  8
0
  6
Continuous
 62
     7
370
    25
100
AcDbPolyline
 90
       42
 70
   128
 43
0.0
 10
352.5289463556
 20
177.9890963612
 10
350.5532766182
 20
176.9136478312
 10
348.4716810341
 20
175.9069879274
 10
346.2913352944
 20
174.9725868153
 10
344.0197555026
 20
174.1136655689
 10
341.6647722648
 20
173.3331850677
 10
339.234503696
 20
172.6338357897
 10
336.7373274356
 20
172.0180285368
 10
334.1818517673
 20
171.4878861241
 10
331.5768859452
 20
171.0452360623
 10
328.9314098262
 20
170.691604258
 10
326.2545429144
 20
170.4282097531
 10
323.5555129247
 20
170.2559605231
 10
320.8436239726
 20
170.1754503469
 10
318.128224501
 20
170.1869567595
 10
315.4186750545
 20
170.2904400962
 10
312.7243160114
 20
170.4855436283
 10
310.0544353854
 20
170.7715947935
 10
307.4182368081
 20
171.1476075143
 10
304.8248078022
 20
171.612285597
 10
302.2830884547
 20
172.1640271998
 10
299.8018405988
 20
172.8009303551
 10
297.3896176097
 20
173.520799526
 10
295.05473492
 20
174.3211531741
 10
292.8052413538
 20
175.1992323147
 10
290.6488913816
 20
176.1520100271
 10
288.5931183884
 20
177.1762018891
 10
286.6450090496
 20
178.2682772992
 10
284.8112789016
 20
179.4244716472
 10
283.0982491922
 20
180.6407992917
 10
281.5118250896
 20
181.9130672994
 10
280.0574753264
 20
183.2368898987
 10
278.7402133475
 20
184.6077035991
 10
277.5645800278
 20
186.0207829216
 10
276.5346280189
 20
187.4712566891
 10
275.6539077787
 20
188.9541248181
 10
274.9254553325
 20
190.464275555
 10
274.3517818065
 20
191.9965030972
 10
273.9348647725
 20
193.5455255391
 10
273.6761414296
 20
195.1060030793
 10
273.576503651
 20
196.6725564286
 10
273.5755581724
 20
196.7722960328
  0
LWPOLYLINE
  5
308
330
1F
100
AcDbEntity
  8
0
  6
Continuous
 62
     7
370
    25
100
AcDbPolyline
 90
       15
 70
   128
 43
0.0
 10
366.074957279
 20
196.7722960328
 10
366.0640448009
 20
196.2806436264
 10
365.924581974
 20
194.7151034578
 10
365.6262052264
 20
193.1569866101
 10
365.1699431246
 20
191.6116642351
 10
364.5573684985
 20
190.084463379
 10
363.7905930198
 20
188.5806486195
 10
362.8722599224
 20
187.1054039177
 10
361.8055348908
 20
185.6638147476
 10
360.5940951471
 20
184.2608505658
 10
359.2421167751
 20
182.9013476804
 10
357.7542603243
 20
181.5899925796
 10
356.1356547441
 20
180.3313057759
 10
354.3918797032
 20
179.1296262237
 10
352.5289463556
 20
177.9890963612
  0
LINE
  5
309
330
1F
100
AcDbEntity
  8
0
  6
Continuous
 62
     7
370
    25
100
AcDbLine
 10
354.6789036685
 20
223.4932942491
 30
0.0
 11
354.682278229
 21
223.6915580154
 31
0.0
  0
LWPOLYLINE
  5
30A
330
1F
100
AcDbEntity
  8
0
  6
Continuous
 62
     8
370
    18
100
AcDbPolyline
 90
       85
 70
   128
 43
0.0
 10
361.0194047872
 20
237.6522407338
 10
361.8284768304
 20
237.075803044
 10
363.5791914786
 20
235.7230368108
 10
365.1993271916
 20
234.3170974906
 10
366.6840488478
 20
232.862180959
 10
368.0289254541
 20
231.3626292587
 10
369.2299433702
 20
229.8229176413
 10
370.2835182867
 20
228.2476412116
 10
371.1865059218
 20
226.6415012135
 10
371.9362114055
 20
225.009291
 10
372.5303973221
 20
223.3558817279
 10
372.9672903872
 20
221.6862078203
 10
373.2455867402
 20
220.0052522405
 10
373.3644558354
 20
218.3180316204
 10
373.3235429207
 20
216.6295812897
 10
373.1229700962
 20
214.9449402477
 10
372.7633359503
 20
213.2691361254
 10
372.2457137724
 20
211.6071701809
 10
371.5716483507
 20
209.9640023739
 10
370.7431513612
 20
208.3445365628
 10
369.7626953647
 20
206.7536058702
 10
368.633206427
 20
205.1959582586
 10
367.3580553873
 20
203.6762423606
 10
365.9410477973
 20
202.1989936058
 10
364.3864125647
 20
200.7686206851
 10
362.698789332
 20
199.3893923934
 10
360.8832146301
 20
198.06542489
 10
358.9451068477
 20
196.8006694145
 10
356.8902500601
 20
195.5989004941
 10
354.7247767675
 20
194.4637046796
 10
352.4551495934
 20
193.3984698417
 10
350.0881419973
 20
192.4063750596
 10
347.6308180601
 20
191.4903811342
 10
345.0905114024
 20
190.6532217513
 10
342.4748032976
 20
189.8973953236
 10
339.7915000468
 20
189.2251575342
 10
337.0486096815
 20
188.6385146048
 10
334.2543180645
 20
188.1392173086
 10
331.4169644604
 20
187.7287557449
 10
328.5450166475
 20
187.4083548924
 10
325.6470456467
 20
187.178970953
 10
322.7317001427
 20
187.0412884988
 10
319.8076806721
 20
186.9957184281
 10
316.8837136584
 20
187.04239674
 10
313.9685253683
 20
187.1811841282
 10
311.0708158695
 20
187.4116663963
 10
308.1992330659
 20
187.7331556949
 10
305.3623468894
 20
188.1446925735
 10
302.5686237232
 20
188.6450488442
 10
299.8264011354
 20
189.2327312473
 10
297.1438629958
 20
189.9059859076
 10
294.5290150527
 20
190.6628035684
 10
291.98966104
 20
191.5009255886
 10
289.5333793882
 20
192.4178506824
 10
287.167500607
 20
193.4108423852
 10
284.8990854088
 20
194.4769372193
 10
282.7349036359
 20
195.6129535388
 10
280.6814140574
 20
196.8155010244
 10
278.7447450932
 20
198.0809908019
 10
276.9306765249
 20
199.4056461523
 10
275.2446222458
 20
200.7855137835
 10
273.6916141048
 20
202.216475628
 10
272.2762868884
 20
203.6942611335
 10
271.0028644894
 20
205.214460007
 10
269.8751473007
 20
206.7725353776
 10
268.8965008736
 20
208.3638373361
 10
268.0698458737
 20
209.983616812
 10
267.3976493645
 20
211.6270397467
 10
266.8819174444
 20
213.2892015202
 10
266.5241892603
 20
214.9651415886
 10
266.3255324136
 20
216.6498582879
 10
266.2865397745
 20
218.3383237614
 10
266.4073277123
 20
220.0254989644
 10
266.6875357483
 20
221.7063487031
 10
267.1263276317
 20
223.3758566612
 10
267.722393835
 20
225.0290403708
 10
268.4739554623
 20
226.6609660819
 10
269.3787695584
 20
228.2667634869
 10
270.4341358024
 20
229.841640255
 10
271.6369045667
 20
231.3808963351
 10
272.9834863164
 20
232.879937982
 10
274.4698623224
 20
234.3342914663
 10
276.0915966546
 20
235.7396164256
 10
277.8438494202
 20
237.0917188179
 10
278.6311106641
 20
237.6522407338
  0
LWPOLYLINE
  5
30B
330
1F
100
AcDbEntity
  8
0
  6
Continuous
 62
     8
370
    18
100
AcDbPolyline
 90
       65
 70
   128
 43
0.0
 10
267.1925390913
 20
222.6789824164
 10
267.0328808492
 20
221.9976202033
 10
266.7544939012
 20
220.3276944034
 10
266.6344909711
 20
218.6514842487
 10
266.6732301948
 20
216.9739922091
 10
266.8705959593
 20
215.3002245802
 10
267.2259992474
 20
213.6351765424
 10
267.7383793962
 20
211.9838172535
 10
268.4062072618
 20
210.3510750187
 10
269.2274897835
 20
208.7418225824
 10
270.1997759314
 20
207.1608625866
 10
271.3201640215
 20
205.6129132371
 10
272.5853103753
 20
204.1025942232
 10
273.991439299
 20
202.6344129305
 10
275.5343543511
 20
201.2127509889
 10
277.2094508667
 20
199.8418511966
 10
279.0117296995
 20
198.5258048572
 10
280.935812141
 20
197.2685395703
 10
282.975955973
 20
196.0738075097
 10
285.1260726045
 20
194.9451742254
 10
287.3797452424
 20
193.8860080028
 10
289.7302480417
 20
192.89946981
 10
292.1705661783
 20
191.9885038649
 10
294.6934167837
 20
191.1558288478
 10
297.2912706802
 20
190.4039297883
 10
299.9563748506
 20
189.7350506486
 10
302.6807755767
 20
189.1511876271
 10
305.4563421759
 20
188.6540832005
 10
308.2747912666
 20
188.2452209237
 10
311.1277114889
 20
187.9258210025
 10
314.0065886076
 20
187.6968366518
 10
316.9028309219
 20
187.5589512509
 10
319.8077949064
 20
187.512576304
 10
322.7128110068
 20
187.5578502121
 10
325.6092095134
 20
187.6946378602
 10
328.4883464345
 20
187.9225310202
 10
331.3416292939
 20
188.2408495692
 10
334.1605427744
 20
188.6486435197
 10
336.9366741299
 20
189.1446958542
 10
339.6617382935
 20
189.7275261575
 10
342.3276026028
 20
190.395395035
 10
344.9263110706
 20
191.1463093034
 10
347.4501081298
 20
191.9780279395
 10
349.8914617778
 20
192.8880687679
 10
352.2430860559
 20
193.8737158691
 10
354.4979627929
 20
194.9320276848
 10
356.6493625504
 20
196.0598457966
 10
358.690864706
 20
197.2538043519
 10
360.6163766149
 20
198.5103401091
 10
362.4201517927
 20
199.8257030718
 10
364.0968070653
 20
201.1959676797
 10
365.6413386344
 20
202.6170445249
 10
367.0491370109
 20
204.0846925554
 10
368.3160007709
 20
205.5945317326
 10
369.4381490952
 20
207.1420561031
 10
370.412233052
 20
208.722647246
 10
371.2353455921
 20
210.3315880559
 10
371.905030224
 20
211.9640768212
 10
372.4192883456
 20
213.6152415537
 10
372.7765852087
 20
215.280154529
 10
372.9758544988
 20
216.9538469923
 10
373.0165015181
 20
218.6313239876
 10
372.89840496
 20
220.3075792641
 10
372.621917271
 20
221.9776102173
 10
372.4887195424
 20
222.5562693306
  0
LWPOLYLINE
  5
30C
330
1F
100
AcDbEntity
  8
0
  6
Continuous
 62
     8
370
    18
100
AcDbPolyline
 90
       67
 70
   128
 43
0.0
 10
268.8412685303
 20
211.4285162837
 10
268.6796418616
 20
211.8425655577
 10
268.1431473774
 20
213.478845196
 10
267.7636097637
 20
215.1297014929
 10
267.5421816637
 20
216.7901208523
 10
267.4795355474
 20
218.4550606349
 10
267.5758616688
 20
220.1194644736
 10
267.8308674889
 20
221.7782776285
 10
268.2437785632
 20
223.4264623385
 10
268.8133408945
 20
225.0590131209
 10
269.5378247405
 20
226.6709719727
 10
270.4150298678
 20
228.2574434277
 10
271.4422922331
 20
229.8136094243
 10
272.6164920744
 20
231.3347439375
 10
273.9340633854
 20
232.8162273318
 10
275.3910047454
 20
234.2535603907
 10
276.9828914712
 20
235.6423779812
 10
278.7048890553
 20
236.9784623097
 10
280.5517678475
 20
238.2577557321
 10
282.5179189377
 20
239.4763730763
 10
284.5973711897
 20
240.6306134415
 10
286.7838093752
 20
241.7169714376
 10
289.0705933534
 20
242.7321478311
 10
291.4507782365
 20
243.6730595646
 10
293.9171354812
 20
244.5368491202
 10
296.4621748417
 20
245.3208931974
 10
299.078167117
 20
246.02281068
 10
301.7571676247
 20
246.6404698677
 10
304.4910403281
 20
247.1719949499
 10
307.2714825458
 20
247.6157717024
 10
310.0900501661
 20
247.9704523898
 10
312.9381832918
 20
248.2349598585
 10
315.8072322361
 20
248.4084908079
 10
318.6884837919
 20
248.4905182303
 10
321.5731876927
 20
248.4807930112
 10
324.4525831877
 20
248.3793446856
 10
327.3179256473
 20
248.1864813488
 10
330.1605131207
 20
247.9027887205
 10
332.9717127631
 20
247.5291283658
 10
335.7429870537
 20
247.0666350789
 10
338.4659197235
 20
246.5167134367
 10
341.1322413154
 20
245.8810335333
 10
343.7338542985
 20
245.1615259075
 10
346.2628576596
 20
244.3603756804
 10
348.7115708985
 20
243.4800159189
 10
351.0725573538
 20
242.5231202466
 10
353.3386467871
 20
241.4925947243
 10
355.5029571593
 20
240.3915690241
 10
357.5589155309
 20
239.2233869249
 10
359.500278024
 20
237.9915961573
 10
361.3211487843
 20
236.6999376293
 10
363.0159978874
 20
235.3523340656
 10
364.5796781321
 20
233.9528780937
 10
366.007440673
 20
232.5058198156
 10
367.2949494421
 20
231.0155538996
 10
368.4382943177
 20
229.4866062343
 10
369.4340029989
 20
227.9236201835
 10
370.2790515511
 20
226.3313424846
 10
370.9708735897
 20
224.7146088326
 10
371.507368074
 20
223.0783291943
 10
371.8869056877
 20
221.4274728974
 10
372.1083337877
 20
219.767053538
 10
372.170979904
 20
218.1021137553
 10
372.0746537825
 20
216.4377099167
 10
371.8196479625
 20
214.7788967618
 10
371.4067368881
 20
213.1307120518
 10
371.0893404697
 20
212.1647342085
  0
LINE
  5
30D
330
1F
100
AcDbEntity
  8
0
  6
Continuous
 62
     8
370
    18
100
AcDbLine
 10
277.0152861144
 20
197.9240443532
 30
0.0
 11
276.9504853288
 21
197.9756818662
 31
0.0
  0
LWPOLYLINE
  5
30E
330
1F
100
AcDbEntity
  8
0
  6
Continuous
 62
     8
370
    18
100
AcDbPolyline
 90
       35
 70
   128
 43
0.0
 10
360.8358045279
 20
196.5741385127
 10
360.4651881679
 20
196.3145264074
 10
358.5376619614
 20
195.0518065723
 10
356.4925674555
 20
193.8523023565
 10
354.3361155352
 20
192.7196566147
 10
352.0748552739
 20
191.6573091548
 10
349.7156540448
 20
190.6684862913
 10
347.2656766645
 20
189.7561910466
 10
344.7323636337
 20
188.9231940313
 10
342.1234085409
 20
188.1720250301
 10
339.446734697
 20
187.5049653185
 10
336.7104710723
 20
186.924040735
 10
333.9229276097
 20
186.4310155283
 10
331.0925699871
 20
186.0273869999
 10
328.2279939073
 20
185.7143809564
 10
325.337898994
 20
185.4929479867
 10
322.4310623703
 20
185.3637605756
 10
319.5163120036
 20
185.3272110609
 10
316.6024998949
 20
185.3834104424
 10
313.6984751957
 20
185.5321880443
 10
310.8130573338
 20
185.7730920341
 10
307.9550092282
 20
186.1053907941
 10
305.1330106772
 20
186.5280751439
 10
302.3556319976
 20
187.0398614052
 10
299.6313079972
 20
187.6391952998
 10
296.9683123584
 20
188.3242566704
 10
294.3747325114
 20
189.0929650081
 10
291.858445073
 20
189.942985771
 10
289.4270919255
 20
190.8717374739
 10
287.0880570085
 20
191.8763995285
 10
284.848443894
 20
192.9539208091
 10
282.7150542136
 20
194.101028919
 10
280.6943670016
 20
195.3142401286
 10
278.7925190186
 20
196.5898699553
 10
277.6114922879
 20
197.4593100356
  0
LINE
  5
30F
330
1F
100
AcDbEntity
  8
0
  6
Continuous
 62
     8
370
    18
100
AcDbLine
 10
277.3298126082
 20
197.676584049
 30
0.0
 11
277.0152861144
 21
197.9240443532
 31
0.0
  0
LWPOLYLINE
  5
310
330
1F
100
AcDbEntity
  8
0
  6
Continuous
 62
     8
370
    18
100
AcDbPolyline
 90
       41
 70
   128
 43
0.0
 10
277.6999133131
 20
192.9788553517
 10
279.448724288
 20
191.6660173865
 10
281.3201574679
 20
190.4107877339
 10
283.3085293718
 20
189.2169784852
 10
285.4078013795
 20
188.0882151997
 10
287.6115980709
 20
187.0279258944
 10
289.913226588
 20
186.0393306332
 10
292.3056969605
 20
185.1254317473
 10
294.7817433345
 20
184.2890047177
 10
297.3338460387
 20
183.5325897456
 10
299.954254421
 20
182.8584840386
 10
302.6350103872
 20
182.2687348335
 10
305.3679725695
 20
181.7651331793
 10
308.1448410518
 20
181.3492084976
 10
310.9571825756
 20
181.022223938
 10
313.7964561521
 20
180.7851725419
 10
316.6540390009
 20
180.6387742266
 10
319.5212527367
 20
180.5834735989
 10
322.3893897257
 20
180.6194386051
 10
325.2497395301
 20
180.7465600206
 10
328.0936153615
 20
180.9644517818
 10
330.9123804625
 20
181.2724521586
 10
333.6974743362
 20
181.669625764
 10
336.4404387439
 20
182.1547663949
 10
339.132943393
 20
182.726400695
 10
341.7668112353
 20
183.3827926298
 10
344.3340433008
 20
184.1219487585
 10
346.8268429899
 20
184.9416242883
 10
349.2376397521
 20
185.8393298916
 10
351.5591120767
 20
186.8123392659
 10
353.7842097287
 20
187.8576974137
 10
355.9061751596
 20
188.9722296167
 10
357.91856403
 20
190.1525510772
 10
359.8152647812
 20
191.3950771978
 10
361.5905171953
 20
192.6960344674
 10
363.2389298891
 20
194.0514719216
 10
364.7554966874
 20
195.4572731414
 10
366.1356118267
 20
196.9091687546
 10
367.3750839426
 20
198.4027494021
 10
368.4701487991
 20
199.9334791285
 10
368.5787379526
 20
200.0994478618
  0
ARC
  5
311
330
1F
100
AcDbEntity
  8
0
  6
Continuous
 62
     8
370
    18
100
AcDbCircle
 10
296.3361143529
 20
216.970539387
 30
0.0
 40
30.37941559749659
100
AcDbArc
 50
213.7078700491
 51
232.1607422237
  0
LWPOLYLINE
  5
312
330
1F
100
AcDbEntity
  8
0
  6
Continuous
 62
     8
370
    18
100
AcDbPolyline
 90
       15
 70
   128
 43
0.0
 10
352.3520226248
 20
138.0182883982
 10
354.2048776868
 20
139.1526481066
 10
355.9392190766
 20
140.347826691
 10
357.5490681602
 20
141.5997041231
 10
359.0288754544
 20
142.9039649221
 10
360.3735397567
 20
144.256113031
 10
361.5784257308
 20
145.6514873149
 10
362.6393798852
 20
147.0852776297
 10
363.5527448911
 20
148.5525414032
 10
364.31537219
 20
150.0482206731
 10
364.9246328478
 20
151.5671595232
 10
365.3784266166
 20
153.1041218565
 10
365.6751891754
 20
154.6538094456
 10
365.8138975222
 20
156.2108801963
 10
365.8247509649
 20
156.6998728117
  0
LWPOLYLINE
  5
313
330
1F
100
AcDbEntity
  8
0
  6
Continuous
 62
     8
370
    18
100
AcDbPolyline
 90
       42
 70
   128
 43
0.0
 10
273.8257644865
 20
156.6998728117
 10
273.8267048501
 20
156.6006727889
 10
273.9258035982
 20
155.0425943388
 10
274.1831272733
 20
153.4905588282
 10
274.5977888273
 20
151.949916445
 10
275.168358836
 20
150.4259781027
 10
275.8928704264
 20
148.9239971324
 10
276.7688260569
 20
147.4491511737
 10
277.793206127
 20
146.0065243263
 10
278.9624793864
 20
144.6010896235
 10
280.2726151079
 20
143.2376918901
 10
281.7190969823
 20
141.9210310405
 10
283.2969386869
 20
140.6556458774
 10
285.0007010745
 20
139.4458984455
 10
286.8245109232
 20
138.2959589949
 10
288.7620811825
 20
137.209791605
 10
290.8067326466
 20
136.19114052
 10
292.9514169781
 20
135.2435172411
 10
295.1887410058
 20
134.3701884221
 10
297.5109922105
 20
133.5741646082
 10
299.910165311
 20
132.8581898586
 10
302.3779898607
 20
132.2247322865
 10
304.9059587572
 20
131.6759755514
 10
307.4853575679
 20
131.2138113314
 10
310.1072945708
 20
130.8398328023
 10
312.7627314059
 20
130.5553291457
 10
315.4425142323
 20
130.3612811044
 10
318.1374052834
 20
130.2583576024
 10
320.8381147116
 20
130.2469134383
 10
323.5353326119
 20
130.3269880625
 10
326.2197611155
 20
130.4983054411
 10
328.8821464413
 20
130.7602750077
 10
331.5133107953
 20
131.1119936988
 10
334.1041840092
 20
131.5522490674
 10
336.6458348061
 20
132.079523462
 10
339.1295015892
 20
132.6919992584
 10
341.5466226446
 20
133.3875651257
 10
343.8888656554
 20
134.1638233043
 10
346.1481564245
 20
135.0180978715
 10
348.3167067087
 20
135.9474439658
 10
350.387041066
 20
136.9486579387
 10
352.3520226248
 20
138.0182883982
  0
LWPOLYLINE
  5
314
330
1F
100
AcDbEntity
  8
0
  6
Continuous
 62
     8
370
    18
100
AcDbPolyline
 90
       19
 70
   128
 43
0.0
 10
346.318907421
 20
235.0973463189
 10
342.9201869336
 20
236.3445423239
 10
339.3463877556
 20
237.4159845314
 10
335.4225713853
 20
238.3465342975
 10
331.3678812398
 20
239.0651886062
 10
327.0614764394
 20
239.5812908581
 10
322.6900572389
 20
239.8584498262
 10
318.2097672847
 20
239.8937073687
 10
313.7451679656
 20
239.6780749653
 10
309.3369455113
 20
239.2146949053
 10
305.0277963183
 20
238.5068633172
 10
300.9319594828
 20
237.5816706052
 10
297.0076812397
 20
236.4358093338
 10
293.4169348229
 20
235.131955954
 10
290.0490300635
 20
233.6435544961
 10
287.0819484191
 20
232.0714365889
 10
284.3637471064
 20
230.3562908435
 10
281.9133480539
 20
228.5111914372
 10
280.7125171005
 20
227.4221416126
  0
LINE
  5
315
330
1F
100
AcDbEntity
  8
0
  6
Continuous
 62
     8
370
    18
100
AcDbLine
 10
358.6884080515
 20
227.648665401
 30
0.0
 11
357.7578096848
 21
228.4938086022
 31
0.0
  0
LINE
  5
316
330
1F
100
AcDbEntity
  8
0
  6
Continuous
 62
     8
370
    18
100
AcDbLine
 10
346.318907421
 20
235.0973463189
 30
0.0
 11
346.6570667471
 21
235.0295157959
 31
0.0
  0
ARC
  5
317
330
1F
100
AcDbEntity
  8
0
  6
Continuous
 62
     8
370
    18
100
AcDbCircle
 10
350.2143848255
 20
230.9183284048
 30
0.0
 40
5.713049530205748
100
AcDbArc
 50
132.9888523945
 51
164.5696090741
  0
LWPOLYLINE
  5
318
330
1F
100
AcDbEntity
  8
0
  6
Continuous
 62
     8
370
    18
100
AcDbPolyline
 90
       18
 70
   128
 43
0.0
 10
355.4503250369
 20
226.2365487204
 10
356.8902256366
 20
224.9661900871
 10
358.1943749087
 20
223.6478753973
 10
359.3579963754
 20
222.2864330097
 10
360.3768282454
 20
220.8868492397
 10
361.2471390228
 20
219.454250096
 10
361.9657411735
 20
217.9938825072
 10
362.5300028001
 20
216.5110951043
 10
362.937857281
 20
215.0113186315
 10
363.1878108393
 20
213.5000460558
 10
363.2789480143
 20
211.9828124491
 10
363.2109350138
 20
210.4651747155
 10
362.9840209371
 20
208.9526912395
 10
362.5990368624
 20
207.4509015276
 10
362.057392803
 20
205.9653059206
 10
361.3610725433
 20
204.5013454477
 10
360.5126263727
 20
203.064381899
 10
360.3513338507
 20
202.8199652117
  0
LWPOLYLINE
  5
319
330
1F
100
AcDbEntity
  8
0
  6
Continuous
 62
     8
370
    18
100
AcDbPolyline
 90
       44
 70
   128
 43
0.0
 10
279.2991816007
 20
202.8199652117
 10
279.1828057663
 20
202.9955425666
 10
278.327064014
 20
204.4310636535
 10
277.6233103844
 20
205.8938390734
 10
277.0741223919
 20
207.3785113764
 10
276.6815114506
 20
208.8796429148
 10
276.4469155074
 20
210.3917357588
 10
276.3711937755
 20
211.9092518321
 10
276.4546235876
 20
213.4266331962
 10
276.69689938
 20
214.9383224055
 10
277.0971338119
 20
216.4387828623
 10
277.6538610151
 20
217.9225190946
 10
278.365041963
 20
219.384096883
 10
279.2280719385
 20
220.818163164
 10
280.2397900736
 20
222.2194656359
 10
281.3964909266
 20
223.5828719948
 10
282.6939380531
 20
224.9033887325
 10
284.1273795222
 20
226.1761794251
 10
285.6915653202
 20
227.3965824463
 10
287.3807665795
 20
228.560128041
 10
289.1887965602
 20
229.6625546958
 10
291.1090333095
 20
230.6998247467
 10
293.1344439145
 20
231.6681391675
 10
295.2576102607
 20
232.5639514836
 10
297.4707562008
 20
233.383980761
 10
299.765776035
 20
234.125223623
 10
302.1342641986
 20
234.78496525
 10
304.5675460473
 20
235.3607893225
 10
307.0567096283
 20
235.8505868712
 10
309.5926383208
 20
236.2525640008
 10
312.1660442255
 20
236.5652484606
 10
314.7675021821
 20
236.7874950363
 10
317.3874842888
 20
236.9184897444
 10
320.0163947987
 20
236.9577528139
 10
322.6446052646
 20
236.9051404427
 10
325.2624898029
 20
236.7608453248
 10
327.8604603493
 20
236.5253959447
 10
330.4290017748
 20
236.1996546413
 10
332.9587067352
 20
235.7848144498
 10
335.4403101258
 20
235.2823947323
 10
337.8647230151
 20
234.6942356131
 10
340.2230659333
 20
234.0224912388
 10
342.5067013932
 20
233.2696218893
 10
344.7072655255
 20
232.4383849665
  0
ARC
  5
31A
330
1F
100
AcDbEntity
  8
0
  6
Continuous
 62
     8
370
    18
100
AcDbCircle
 10
359.5832157461
 20
224.319743256
 30
0.0
 40
4.55575776387056
100
AcDbArc
 50
113.6207646338
 51
155.118463382
  0
LWPOLYLINE
  5
31B
330
1F
100
AcDbEntity
  8
0
  6
Continuous
 62
     8
370
    18
100
AcDbPolyline
 90
       29
 70
   128
 43
0.0
 10
292.5545956624
 20
184.8599334363
 10
293.2487478602
 20
184.350826075
 10
294.7829997502
 20
183.3354060876
 10
296.4334288672
 20
182.3826336387
 10
298.1923784623
 20
181.4969288753
 10
300.0516883334
 20
180.6824008009
 10
302.0027326823
 20
179.9428282126
 10
304.0364601319
 20
179.2816421704
 10
306.1434357176
 20
178.70191008
 10
308.3138846586
 20
178.2063214618
 10
310.5377377058
 20
177.797175474
 10
312.8046778548
 20
177.4763702461
 10
315.1041882098
 20
177.2453940726
 10
317.4256007737
 20
177.1053185094
 10
319.7581459396
 20
177.0567934014
 10
322.0910024536
 20
177.1000438688
 10
324.4133476175
 20
177.2348692619
 10
326.714407498
 20
177.4606440923
 10
328.9835069092
 20
177.7763209348
 10
331.2101189379
 20
178.1804352864
 10
333.3839137803
 20
178.6711123609
 10
335.4948066646
 20
179.2460757858
 10
337.5330046368
 20
179.9026581636
 10
339.4890519925
 20
180.6378134465
 10
341.3538741444
 20
181.4481310672
 10
343.1188197213
 20
182.3298517619
 10
344.7757007044
 20
183.2788850103
 10
346.316830413
 20
184.2908280126
 10
347.1418619404
 20
184.894868378
  0
ARC
  5
31C
330
1F
100
AcDbEntity
  8
0
  6
Continuous
 62
     8
370
    18
100
AcDbCircle
 10
349.626957416
 20
223.0743330963
 30
0.0
 40
10.5777519220518
100
AcDbArc
 50
117.7165684615
 51
143.8799421394
  0
ARC
  5
31D
330
1F
100
AcDbEntity
  8
0
  6
Continuous
 62
     8
370
    18
100
AcDbCircle
 10
214.3710157955
 20
327.2649342513
 30
0.0
 40
160.1593242674859
100
AcDbArc
 50
316.228982927
 51
322.2939053287
  0
ARC
  5
31E
330
1F
100
AcDbEntity
  8
0
  6
Continuous
 62
     8
370
    18
100
AcDbCircle
 10
328.7044740087
 20
217.495363628
 30
0.0
 40
1.670704270455265
100
AcDbArc
 50
265.3445142304
 51
322.150612669
  0
LWPOLYLINE
  5
31F
330
1F
100
AcDbEntity
  8
0
  6
Continuous
 62
     8
370
    18
100
AcDbPolyline
 90
       28
 70
   128
 43
0.0
 10
328.5688726722
 20
215.8301714359
 10
326.3402318733
 20
216.1342837714
 10
324.0805661998
 20
216.3489416132
 10
321.8006363766
 20
216.4731227417
 10
319.5112996281
 20
216.5062357957
 10
317.2234579755
 20
216.448123088
 10
314.9480063199
 20
216.2990613562
 10
312.6957805605
 20
216.0597604453
 10
310.4775059925
 20
215.7313599272
 10
308.3037462328
 20
215.3154236738
 10
306.1848529146
 20
214.8139324096
 10
304.1309163925
 20
214.2292742797
 10
302.1517176913
 20
213.5642334773
 10
300.2566819276
 20
212.8219769844
 10
298.4548334267
 20
212.0060394911
 10
296.7547527484
 20
211.120306563
 10
295.1645358248
 20
210.1689961374
 10
293.6917554075
 20
209.1566384374
 10
292.3434250052
 20
208.0880543985
 10
291.1259654847
 20
206.9683327112
 10
290.0451744943
 20
205.8028055875
 10
289.106198855
 20
204.5970233693
 10
288.3135100505
 20
203.3567280965
 10
287.6708829339
 20
202.0878261632
 10
287.1813777516
 20
200.7963601911
 10
286.8473255699
 20
199.4884802535
 10
286.6703171744
 20
198.1704145888
 10
286.6456625643
 20
196.9907132934
  0
ARC
  5
320
330
1F
100
AcDbEntity
  8
0
  6
Continuous
 62
     8
370
    18
100
AcDbCircle
 10
341.3423997032
 20
197.3029399141
 30
0.0
 40
11.66663189309555
100
AcDbArc
 50
358.4664465354
 51
25.8901479615
  0
ARC
  5
321
330
1F
100
AcDbEntity
  8
0
  6
Continuous
 62
     8
370
    18
100
AcDbCircle
 10
354.1598375309
 20
203.0823683124
 30
0.0
 40
2.420758160979838
100
AcDbArc
 50
161.2591475926
 51
196.4431073792
  0
LWPOLYLINE
  5
322
330
1F
100
AcDbEntity
  8
0
  6
Continuous
 62
     8
370
    18
100
AcDbPolyline
 90
        6
 70
   128
 43
0.0
 10
351.8674244889
 20
203.8601295346
 10
352.5543755796
 20
207.1037906159
 10
353.2616134042
 20
210.5889707884
 10
353.9418122447
 20
214.0665701086
 10
354.5914345348
 20
217.4988909372
 10
355.2582929304
 20
221.1261422171
  0
ARC
  5
323
330
1F
100
AcDbEntity
  8
0
  6
Continuous
 62
     8
370
    18
100
AcDbCircle
 10
340.3955741374
 20
224.2434450514
 30
0.0
 40
15.18611164451484
100
AcDbArc
 50
348.1545033735
 51
7.5415513289
  0
LWPOLYLINE
  5
324
330
1F
100
AcDbEntity
  8
0
  6
Continuous
 62
     8
370
    18
100
AcDbPolyline
 90
       31
 70
   128
 43
0.0
 10
348.3399532434
 20
185.3325320108
 10
347.2850656492
 20
184.4486890004
 10
345.8369734682
 20
183.3829712038
 10
344.2650112304
 20
182.3774448048
 10
342.5766647571
 20
181.4368982077
 10
340.7799741013
 20
180.5658103773
 10
338.8834952604
 20
179.7683295099
 10
336.8962594318
 20
179.0482532787
 10
334.8277300057
 20
178.4090107496
 10
332.6877574995
 20
177.8536460511
 10
330.4865326488
 20
177.3848038783
 10
328.2345378779
 20
177.0047168985
 10
325.9424973823
 20
176.715195119
 10
323.6213260585
 20
176.5176172678
 10
321.2820775265
 20
176.4129242277
 10
318.9358914918
 20
176.4016145563
 10
316.5939406965
 20
176.483742111
 10
314.2673777144
 20
176.6589157934
 10
311.9672818412
 20
176.9263014111
 10
309.7046063338
 20
177.2846256505
 10
307.4901262501
 20
177.7321821404
 10
305.3343871372
 20
178.2668395777
 10
303.2476548126
 20
178.8860518771
 10
301.2398664775
 20
179.5868702958
 10
299.3205833947
 20
180.3659574753
 10
297.4989453577
 20
181.2196033347
 10
295.7836271653
 20
182.1437427379
 10
294.1827973124
 20
183.1339748527
 10
292.7040790901
 20
184.1855841073
 10
291.3545142835
 20
185.293562647
 10
291.3214446088
 20
185.3228644897
  0
ARC
  5
325
330
1F
100
AcDbEntity
  8
0
  6
Continuous
 62
     8
370
    18
100
AcDbCircle
 10
340.9057565269
 20
195.9267503039
 30
0.0
 40
11.67421045194838
100
AcDbArc
 50
3.9097120794
 51
25.7798555019
  0
LWPOLYLINE
  5
326
330
1F
100
AcDbEntity
  8
0
  6
Continuous
 62
     8
370
    18
100
AcDbPolyline
 90
       27
 70
   128
 43
0.0
 10
287.0977174494
 20
196.7227493965
 10
287.2045153274
 20
197.700758349
 10
287.4874143803
 20
199.0126959506
 10
287.9284413025
 20
200.3100127643
 10
288.5254395293
 20
201.5863650788
 10
289.2754898167
 20
202.8355116962
 10
290.1749245159
 20
204.0513444515
 10
291.2193455075
 20
205.2279180796
 10
292.403645708
 20
206.3594792879
 10
293.7220340429
 20
207.4404948884
 10
295.1680637636
 20
208.4656788548
 10
296.7346639719
 20
209.4300181701
 10
298.4141741957
 20
210.3287973399
 10
300.1983818472
 20
211.1576214503
 10
302.0785623819
 20
211.9124376587
 10
304.0455219603
 20
212.5895550115
 10
306.0896424046
 20
213.1856624925
 10
308.2009282304
 20
213.6978452132
 10
310.3690555231
 20
214.1235986664
 10
312.5834224209
 20
214.4608409729
 10
314.8332009562
 20
214.7079230613
 10
317.107390003
 20
214.8636367323
 10
319.3948690714
 20
214.9272205661
 10
321.6844526846
 20
214.898363646
 10
323.964945075
 20
214.7772070787
 10
326.22519493
 20
214.564343304
 10
328.4541499202
 20
214.2608131983
  0
LWPOLYLINE
  5
327
330
1F
100
AcDbEntity
  8
0
  6
Continuous
 62
     8
370
    18
100
AcDbPolyline
 90
        3
 70
   128
 43
0.0
 10
351.8380852825
 20
202.3971409261
 10
351.5248811842
 20
201.7077210708
 10
351.4180530989
 20
201.0040340717
  0
LWPOLYLINE
  5
328
330
1F
100
AcDbEntity
  8
0
  6
Continuous
 62
     8
370
    18
100
AcDbPolyline
 90
        3
 70
   128
 43
0.0
 10
328.4541499202
 20
214.2608131983
 10
328.4833277128
 20
215.0093267572
 10
328.5688726722
 20
215.8301714359
  0
ARC
  5
329
330
1F
100
AcDbEntity
  8
0
  6
Continuous
 62
     8
370
    18
100
AcDbCircle
 10
338.1296953287
 20
203.1907156861
 30
0.0
 40
11.85206327873206
100
AcDbArc
 50
215.2779831969
 51
251.6606990221
  0
LINE
  5
32A
330
1F
100
AcDbEntity
  8
0
  6
Continuous
 62
     8
370
    18
100
AcDbLine
 10
335.3993509193
 20
191.5936273652
 30
0.0
 11
334.4005192003
 21
191.9406201591
 31
0.0
  0
LWPOLYLINE
  5
32B
330
1F
100
AcDbEntity
  8
0
  6
Continuous
 62
     8
370
    18
100
AcDbPolyline
 90
        3
 70
   128
 43
0.0
 10
335.3993509193
 20
191.5936273652
 10
337.4440487953
 20
190.8991500531
 10
337.5190583924
 20
190.8714315992
  0
LINE
  5
32C
330
1F
100
AcDbEntity
  8
0
  6
Continuous
 62
     8
370
    18
100
AcDbLine
 10
351.4180530989
 20
196.0820162558
 30
0.0
 11
351.4180530989
 21
201.0040340717
 31
0.0
  0
LINE
  5
32D
330
1F
100
AcDbEntity
  8
0
  6
Continuous
 62
     8
370
    18
100
AcDbLine
 10
328.4541499202
 20
214.2608131983
 30
0.0
 11
328.4541499202
 21
211.7588115149
 31
0.0
  0
LINE
  5
32E
330
1F
100
AcDbEntity
  8
0
  6
Continuous
 62
     8
370
    18
100
AcDbLine
 10
328.4541499202
 20
205.9854652094
 30
0.0
 11
328.4541499202
 21
196.3456280306
 31
0.0
  0
LWPOLYLINE
  5
32F
330
1F
100
AcDbEntity
  8
0
  6
Continuous
 62
     8
370
    18
100
AcDbPolyline
 90
        4
 70
   128
 43
0.0
 10
355.2582934159
 20
221.1261448931
 10
354.801762752
 20
221.1700411964
 10
354.5350313244
 20
221.1785664831
 10
354.5325988791
 20
221.1207467667
  0
LWPOLYLINE
  5
330
330
1F
100
AcDbEntity
  8
0
  6
Continuous
 62
     8
370
    18
100
AcDbPolyline
 90
        3
 70
   128
 43
0.0
 10
351.410176107
 20
203.5116367054
 10
351.452931088
 20
203.7557876042
 10
351.8674244889
 20
203.8601295346
  0
ARC
  5
331
330
1F
100
AcDbEntity
  8
0
  6
Continuous
 62
     8
370
    18
100
AcDbCircle
 10
353.5522024311
 20
202.0107535996
 30
0.0
 40
2.359677431268062
100
AcDbArc
 50
173.8795658938
 51
205.254158534
  0
LWPOLYLINE
  5
332
330
1F
100
AcDbEntity
  8
0
  6
Continuous
 62
     8
370
    18
100
AcDbPolyline
 90
        3
 70
   128
 43
0.0
 10
354.682278229
 20
223.6915580154
 10
354.6894406157
 20
224.1123659266
 10
354.5836328021
 20
225.437146688
  0
LWPOLYLINE
  5
333
330
1F
100
AcDbEntity
  8
0
  6
Continuous
 62
     8
370
    18
100
AcDbPolyline
 90
        3
 70
   128
 43
0.0
 10
354.5836328021
 20
225.437146688
 10
354.8686574489
 20
225.8366743582
 10
355.4503250369
 20
226.2365487204
  0
ARC
  5
334
330
1F
100
AcDbEntity
  8
0
  6
Continuous
 62
     8
370
    18
100
AcDbCircle
 10
357.9987749651
 20
225.0671434405
 30
0.0
 40
3.435127129622972
100
AcDbArc
 50
94.0224541536
 51
173.8165804362
  0
ARC
  5
335
330
1F
100
AcDbEntity
  8
0
  6
Continuous
 62
     8
370
    18
100
AcDbCircle
 10
352.205055173
 20
224.419865023
 30
0.0
 40
2.586985412323116
100
AcDbArc
 50
23.1556628441
 51
57.0320509539
  0
ARC
  5
336
330
1F
100
AcDbEntity
  8
0
  6
Continuous
 62
     8
370
    18
100
AcDbCircle
 10
358.2740656503
 20
226.3006086514
 30
0.0
 40
4.670243297762211
100
AcDbArc
 50
124.4125329461
 51
176.4439357777
  0
LINE
  5
337
330
1F
100
AcDbEntity
  8
0
  6
Continuous
 62
     8
370
    18
100
AcDbLine
 10
353.6128145125
 20
216.0712112221
 30
0.0
 11
353.6128145125
 21
226.5902813807
 31
0.0
  0
ARC
  5
338
330
1F
100
AcDbEntity
  8
0
  6
Continuous
 62
     8
370
    18
100
AcDbCircle
 10
330.0898338155
 20
192.7648986653
 30
0.0
 40
41.20057204353505
100
AcDbArc
 50
55.1843243313
 51
64.8210522014
  0
ARC
  5
339
330
1F
100
AcDbEntity
  8
0
  6
Continuous
 62
     8
370
    18
100
AcDbCircle
 10
353.2318523602
 20
229.8249176603
 30
0.0
 40
5.617907193617405
100
AcDbArc
 50
134.0729148246
 51
177.696330024
  0
ARC
  5
33A
330
1F
100
AcDbEntity
  8
0
  6
Continuous
 62
     8
370
    18
100
AcDbCircle
 10
329.1785331469
 20
167.5749498808
 30
0.0
 40
43.15724795700709
100
AcDbArc
 50
58.818702976
 51
64.5679156559
  0
LWPOLYLINE
  5
33B
330
1F
100
AcDbEntity
  8
0
  6
Continuous
 62
     8
370
    18
100
AcDbPolyline
 90
        3
 70
   128
 43
0.0
 10
347.7120211342
 20
206.5500428793
 10
347.642013856
 20
206.7963542611
 10
347.6184854328
 20
207.0507081514
  0
LINE
  5
33C
330
1F
100
AcDbEntity
  8
0
  6
Continuous
 62
     8
370
    18
100
AcDbLine
 10
347.6184854328
 20
230.0507339006
 30
0.0
 11
347.6184854328
 21
222.8221469166
 31
0.0
  0
LINE
  5
33D
330
1F
100
AcDbEntity
  8
0
  6
Continuous
 62
     8
370
    18
100
AcDbLine
 10
347.6184854328
 20
217.0488006111
 30
0.0
 11
347.6184854328
 21
207.0507081514
 31
0.0
  0
LWPOLYLINE
  5
33E
330
1F
100
AcDbEntity
  8
0
  6
Continuous
 62
     8
370
    18
100
AcDbPolyline
 90
        3
 70
   128
 43
0.0
 10
330.0237062247
 20
216.4702396748
 10
330.9747298249
 20
215.5023755899
 10
331.7185041037
 20
214.8793969833
  0
ARC
  5
33F
330
1F
100
AcDbEntity
  8
0
  6
Continuous
 62
     8
370
    18
100
AcDbCircle
 10
347.9556872324
 20
235.9482981555
 30
0.0
 40
9.5557692804281
100
AcDbArc
 50
224.0050296294
 51
241.3325483629
  0
ARC
  5
340
330
1F
100
AcDbEntity
  8
0
  6
Continuous
 62
     8
370
    18
100
AcDbCircle
 10
231.1519506381
 20
318.9632817133
 30
0.0
 40
144.7310842094705
100
AcDbArc
 50
314.0153532115
 51
320.8382472813
  0
LINE
  5
341
330
1F
100
AcDbEntity
  8
0
  6
Continuous
 62
     8
370
    18
100
AcDbLine
 10
343.3715445318
 20
227.5638862953
 30
0.0
 11
343.3715445318
 21
220.3704401205
 31
0.0
  0
LINE
  5
342
330
1F
100
AcDbEntity
  8
0
  6
Continuous
 62
     8
370
    18
100
AcDbLine
 10
343.3715445318
 20
214.597093815
 30
0.0
 11
343.3715445319
 21
207.5816883639
 31
0.0
  0
ARC
  5
343
330
1F
100
AcDbEntity
  8
0
  6
Continuous
 62
     8
370
    18
100
AcDbCircle
 10
220.587940788
 20
349.0933922273
 30
0.0
 40
187.3536113306364
100
AcDbArc
 50
306.3815337279
 51
310.9467668667
  0
LINE
  5
344
330
1F
100
AcDbEntity
  8
0
  6
Continuous
 62
     8
370
    18
100
AcDbLine
 10
331.7185041037
 20
198.2578076467
 30
0.0
 11
331.7185041037
 21
207.8699367674
 31
0.0
  0
LINE
  5
345
330
1F
100
AcDbEntity
  8
0
  6
Continuous
 62
     8
370
    18
100
AcDbLine
 10
331.7185041037
 20
213.6432830729
 30
0.0
 11
331.7185041037
 21
214.8793969833
 31
0.0
  0
ARC
  5
346
330
1F
100
AcDbEntity
  8
0
  6
Continuous
 62
     8
370
    18
100
AcDbCircle
 10
344.8482575039
 20
224.0171276131
 30
0.0
 40
6.639169195796578
100
AcDbArc
 50
65.3385817754
 51
83.3162760507
  0
ARC
  5
347
330
1F
100
AcDbEntity
  8
0
  6
Continuous
 62
     8
370
    18
100
AcDbCircle
 10
360.4686519648
 20
230.5986558985
 30
0.0
 40
14.84767611959268
100
AcDbArc
 50
162.3627499277
 51
179.951688537
  0
LWPOLYLINE
  5
348
330
1F
100
AcDbEntity
  8
0
  6
Continuous
 62
     8
370
    18
100
AcDbPolyline
 90
        3
 70
   128
 43
0.0
 10
344.7072655255
 20
232.4383849665
 10
345.1016315874
 20
231.4750583716
 10
345.6209811234
 20
230.6111753699
  0
ARC
  5
349
330
1F
100
AcDbEntity
  8
0
  6
Continuous
 62
     8
370
    18
100
AcDbCircle
 10
352.1496882574
 20
223.4379535226
 30
0.0
 40
9.699439597883709
100
AcDbArc
 50
132.306892082
 51
154.8253783429
  0
ARC
  5
34A
330
1F
100
AcDbEntity
  8
0
  6
Continuous
 62
     8
370
    18
100
AcDbCircle
 10
344.5995625898
 20
200.1540982388
 30
0.0
 40
7.528421044176505
100
AcDbArc
 50
66.3590757583
 51
99.3879001061
  0
ARC
  5
34B
330
1F
100
AcDbEntity
  8
0
  6
Continuous
 62
     8
370
    18
100
AcDbCircle
 10
323.7687992247
 20
154.8456836849
 30
0.0
 40
40.93198901920729
100
AcDbArc
 50
64.7726375439
 51
72.8303212968
  0
ARC
  5
34C
330
1F
100
AcDbEntity
  8
0
  6
Continuous
 62
     8
370
    18
100
AcDbCircle
 10
254.7032515334
 20
318.2789406802
 30
0.0
 40
148.4652539932071
100
AcDbArc
 50
303.1329934659
 51
308.4679583936
  0
ARC
  5
34D
330
1F
100
AcDbEntity
  8
0
  6
Continuous
 62
     8
370
    18
100
AcDbCircle
 10
329.4925569256
 20
166.1398400815
 30
0.0
 40
39.96541189384165
100
AcDbArc
 50
57.106035782
 51
63.9237101156
  0
ARC
  5
34E
330
1F
100
AcDbEntity
  8
0
  6
Continuous
 62
     8
370
    18
100
AcDbCircle
 10
329.1605250838
 20
219.4556928975
 30
0.0
 40
5.242684518514871
100
AcDbArc
 50
262.2566807172
 51
299.2035648887
  0
ARC
  5
34F
330
1F
100
AcDbEntity
  8
0
  6
Continuous
 62
     8
370
    18
100
AcDbCircle
 10
328.3980513275
 20
200.1838371475
 30
0.0
 40
3.838619058585631
100
AcDbArc
 50
270.8373654619
 51
329.8841120273
  0
LWPOLYLINE
  5
350
330
1F
100
AcDbEntity
  8
0
  6
Continuous
 62
     8
370
    18
100
AcDbPolyline
 90
        3
 70
   128
 43
0.0
 10
344.5960365204
 20
205.9892464077
 10
343.9256254052
 20
206.8515473841
 10
343.3715445319
 20
207.5816883639
  0
ARC
  5
351
330
1F
100
AcDbEntity
  8
0
  6
Continuous
 62
     8
370
    18
100
AcDbCircle
 10
327.8654637507
 20
192.8140404203
 30
0.0
 40
21.29549525160728
100
AcDbArc
 50
25.6645613013
 51
38.2201782579
  0
LINE
  5
352
330
1F
100
AcDbEntity
  8
0
  6
Continuous
 62
     8
370
    18
100
AcDbLine
 10
334.9514009608
 20
194.0622919971
 30
0.0
 11
335.8520234514
 21
193.9535271098
 31
0.0
  0
ARC
  5
353
330
1F
100
AcDbEntity
  8
0
  6
Continuous
 62
     8
370
    18
100
AcDbCircle
 10
304.6008745016
 20
174.0187164757
 30
0.0
 40
36.37168371184575
100
AcDbArc
 50
33.4408879974
 51
41.7919346589
  0
ARC
  5
354
330
1F
100
AcDbEntity
  8
0
  6
Continuous
 62
     8
370
    18
100
AcDbCircle
 10
342.6516722329
 20
191.425863018
 30
0.0
 40
7.254261458712248
100
AcDbArc
 50
159.6081625609
 51
178.6748415233
  0
ARC
  5
355
330
1F
100
AcDbEntity
  8
0
  6
Continuous
 62
     8
370
    18
100
AcDbCircle
 10
337.1547965846
 20
205.7716850512
 30
0.0
 40
10.58587885347563
100
AcDbArc
 50
339.3422996017
 51
4.216645723
  0
ARC
  5
356
330
1F
100
AcDbEntity
  8
0
  6
Continuous
 62
     8
370
    18
100
AcDbCircle
 10
348.0383703493
 20
195.799573082
 30
0.0
 40
10.75542210581884
100
AcDbArc
 50
91.7387790919
 51
108.6662916068
  0
ARC
  5
357
330
1F
100
AcDbEntity
  8
0
  6
Continuous
 62
     8
370
    18
100
AcDbCircle
 10
337.1178948307
 20
210.6127257744
 30
0.0
 40
16.69163125356907
100
AcDbArc
 50
238.7316369783
 51
262.5422412516
  0
LWPOLYLINE
  5
358
330
1F
100
AcDbEntity
  8
0
  6
Continuous
 62
     8
370
    18
100
AcDbPolyline
 90
        3
 70
   128
 43
0.0
 10
334.9514009608
 20
194.0622919971
 10
334.562768035
 20
192.8293773995
 10
334.4005192003
 20
191.9406201591
  0
ENDSEC
  0
SECTION
  2
OBJECTS
  0
DICTIONARY
  5
C
330
0
100
AcDbDictionary
281
     1
  3
ACAD_GROUP
350
D
  3
ACAD_LAYOUT
350
1A
  3
ACAD_MLINESTYLE
350
17
  3
ACAD_PLOTSETTINGS
350
19
  3
ACAD_PLOTSTYLENAME
350
E
  3
ACAD_SCALELIST
350
47
  3
DWGPROPS
350
359
  0
DICTIONARY
  5
D
102
{ACAD_REACTORS
330
C
102
}
330
C
100
AcDbDictionary
281
     1
  0
DICTIONARY
  5
1A
102
{ACAD_REACTORS
330
C
102
}
330
C
100
AcDbDictionary
281
     1
  3
Layout1
350
1E
  3
Layout2
350
26
  3
Model
350
22
  0
DICTIONARY
  5
17
102
{ACAD_REACTORS
330
C
102
}
330
C
100
AcDbDictionary
281
     1
  3
Standard
350
18
  0
DICTIONARY
  5
19
102
{ACAD_REACTORS
330
C
102
}
330
C
100
AcDbDictionary
281
     1
  0
ACDBDICTIONARYWDFLT
  5
E
102
{ACAD_REACTORS
330
C
102
}
330
C
100
AcDbDictionary
281
     1
  3
Normal
350
F
100
AcDbDictionaryWithDefault
340
F
  0
DICTIONARY
  5
47
102
{ACAD_REACTORS
330
C
102
}
330
C
100
AcDbDictionary
281
     1
  3
A0
350
48
  3
A1
350
49
  3
A2
350
4A
  3
A3
350
4B
  3
A4
350
4C
  3
A5
350
4D
  3
A6
350
4E
  3
A7
350
4F
  3
A8
350
50
  3
A9
350
51
  3
B0
350
52
  3
B1
350
53
  3
B2
350
54
  3
B3
350
55
  3
B4
350
56
  3
B5
350
57
  3
B6
350
58
  3
B7
350
59
  3
B8
350
5A
  3
B9
350
5B
  3
C0
350
5C
  3
C1
350
5D
  3
C2
350
5E
  3
C3
350
5F
  3
C4
350
60
  3
C5
350
61
  3
C6
350
62
  3
C7
350
63
  3
C8
350
64
  3
C9
350
65
  3
D0
350
66
  3
D1
350
67
  3
D2
350
68
  0
XRECORD
  5
359
102
{ACAD_REACTORS
330
C
102
}
330
C
100
AcDbXrecord
280
     1
  1
DWGPROPS COOKIE
  2

  3

  4

  6

  7

  8
ch-ntl-rs-wscad
  9

300
=
301
=
302
=
303
=
304
=
305
=
306
=
307
=
308
=
309
=
 40
0.0
 41
2460061.398257419
 42
2460061.398269827
  1

 90
        0
  0
LAYOUT
  5
1E
102
{ACAD_REACTORS
330
1A
102
}
330
1A
100
AcDbPlotSettings
  1

  2
none_device
  4

  6

 40
0.0
 41
0.0
 42
0.0
 43
0.0
 44
0.0
 45
0.0
 46
0.0
 47
0.0
 48
0.0
 49
0.0
140
0.0
141
0.0
142
1.0
143
1.0
 70
   688
 72
     1
 73
     0
 74
     5
  7

 75
    16
147
1.0
148
0.0
149
0.0
100
AcDbLayout
  1
Layout1
 70
     1
 71
     1
 10
0.0
 20
0.0
 11
420.0
 21
297.0
 12
0.0
 22
0.0
 32
0.0
 14
1.0000000000E+20
 24
1.0000000000E+20
 34
1.0000000000E+20
 15
-1.0000000000E+20
 25
-1.0000000000E+20
 35
-1.0000000000E+20
146
0.0
 13
0.0
 23
0.0
 33
0.0
 16
1.0
 26
0.0
 36
0.0
 17
0.0
 27
1.0
 37
0.0
 76
     0
330
1B
  0
LAYOUT
  5
26
102
{ACAD_REACTORS
330
1A
102
}
330
1A
100
AcDbPlotSettings
  1

  2
none_device
  4

  6

 40
0.0
 41
0.0
 42
0.0
 43
0.0
 44
0.0
 45
0.0
 46
0.0
 47
0.0
 48
0.0
 49
0.0
140
0.0
141
0.0
142
1.0
143
1.0
 70
   688
 72
     1
 73
     0
 74
     5
  7

 75
    16
147
1.0
148
0.0
149
0.0
100
AcDbLayout
  1
Layout2
 70
     1
 71
     2
 10
0.0
 20
0.0
 11
0.0
 21
0.0
 12
0.0
 22
0.0
 32
0.0
 14
0.0
 24
0.0
 34
0.0
 15
0.0
 25
0.0
 35
0.0
146
0.0
 13
0.0
 23
0.0
 33
0.0
 16
1.0
 26
0.0
 36
0.0
 17
0.0
 27
1.0
 37
0.0
 76
     0
330
23
  0
LAYOUT
  5
22
102
{ACAD_REACTORS
330
1A
102
}
330
1A
100
AcDbPlotSettings
  1

  2
none_device
  4
Letter_(8.50_x_11.00_Inches)
  6

 40
6.35
 41
6.35
 42
6.35000508
 43
6.35000508
 44
215.9
 45
279.4
 46
0.0
 47
0.0
 48
0.0
 49
0.0
140
0.0
141
0.0
142
1.0
143
1.0
 70
  1712
 72
     1
 73
     0
 74
     0
  7

 75
     0
147
1.0
148
0.0
149
0.0
100
AcDbLayout
  1
Model
 70
     1
 71
     0
 10
0.0
 20
0.0
 11
420.0
 21
297.0
 12
0.0
 22
0.0
 32
0.0
 14
0.0
 24
0.0
 34
0.0
 15
420.0
 25
297.0
 35
0.0
146
0.0
 13
0.0
 23
0.0
 33
0.0
 16
1.0
 26
0.0
 36
0.0
 17
0.0
 27
1.0
 37
0.0
 76
     0
330
1F
331
29
  0
MLINESTYLE
  5
18
102
{ACAD_REACTORS
330
17
102
}
330
17
100
AcDbMlineStyle
  2
Standard
 70
     0
  3

 62
   256
 51
90.0
 52
90.0
 71
     2
 49
0.5
 62
   256
  6
BYLAYER
 49
-0.5
 62
   256
  6
BYLAYER
  0
ACDBPLACEHOLDER
  5
F
102
{ACAD_REACTORS
330
E
102
}
330
E
  0
SCALE
  5
48
102
{ACAD_REACTORS
330
47
102
}
330
47
100
AcDbScale
 70
     0
300
1:1
140
1.0
141
1.0
290
     1
  0
SCALE
  5
49
102
{ACAD_REACTORS
330
47
102
}
330
47
100
AcDbScale
 70
     0
300
1:2
140
1.0
141
2.0
290
     0
  0
SCALE
  5
4A
102
{ACAD_REACTORS
330
47
102
}
330
47
100
AcDbScale
 70
     0
300
1:4
140
1.0
141
4.0
290
     0
  0
SCALE
  5
4B
102
{ACAD_REACTORS
330
47
102
}
330
47
100
AcDbScale
 70
     0
300
1:5
140
1.0
141
5.0
290
     0
  0
SCALE
  5
4C
102
{ACAD_REACTORS
330
47
102
}
330
47
100
AcDbScale
 70
     0
300
1:8
140
1.0
141
8.0
290
     0
  0
SCALE
  5
4D
102
{ACAD_REACTORS
330
47
102
}
330
47
100
AcDbScale
 70
     0
300
1:10
140
1.0
141
10.0
290
     0
  0
SCALE
  5
4E
102
{ACAD_REACTORS
330
47
102
}
330
47
100
AcDbScale
 70
     0
300
1:16
140
1.0
141
16.0
290
     0
  0
SCALE
  5
4F
102
{ACAD_REACTORS
330
47
102
}
330
47
100
AcDbScale
 70
     0
300
1:20
140
1.0
141
20.0
290
     0
  0
SCALE
  5
50
102
{ACAD_REACTORS
330
47
102
}
330
47
100
AcDbScale
 70
     0
300
1:30
140
1.0
141
30.0
290
     0
  0
SCALE
  5
51
102
{ACAD_REACTORS
330
47
102
}
330
47
100
AcDbScale
 70
     0
300
1:40
140
1.0
141
40.0
290
     0
  0
SCALE
  5
52
102
{ACAD_REACTORS
330
47
102
}
330
47
100
AcDbScale
 70
     0
300
1:50
140
1.0
141
50.0
290
     0
  0
SCALE
  5
53
102
{ACAD_REACTORS
330
47
102
}
330
47
100
AcDbScale
 70
     0
300
1:100
140
1.0
141
100.0
290
     0
  0
SCALE
  5
54
102
{ACAD_REACTORS
330
47
102
}
330
47
100
AcDbScale
 70
     0
300
2:1
140
2.0
141
1.0
290
     0
  0
SCALE
  5
55
102
{ACAD_REACTORS
330
47
102
}
330
47
100
AcDbScale
 70
     0
300
4:1
140
4.0
141
1.0
290
     0
  0
SCALE
  5
56
102
{ACAD_REACTORS
330
47
102
}
330
47
100
AcDbScale
 70
     0
300
8:1
140
8.0
141
1.0
290
     0
  0
SCALE
  5
57
102
{ACAD_REACTORS
330
47
102
}
330
47
100
AcDbScale
 70
     0
300
10:1
140
10.0
141
1.0
290
     0
  0
SCALE
  5
58
102
{ACAD_REACTORS
330
47
102
}
330
47
100
AcDbScale
 70
     0
300
100:1
140
100.0
141
1.0
290
     0
  0
SCALE
  5
59
102
{ACAD_REACTORS
330
47
102
}
330
47
100
AcDbScale
 70
     0
300
1/128" = 1'-0"
140
0.0078125
141
12.0
290
     0
  0
SCALE
  5
5A
102
{ACAD_REACTORS
330
47
102
}
330
47
100
AcDbScale
 70
     0
300
1/64" = 1'-0"
140
0.015625
141
12.0
290
     0
  0
SCALE
  5
5B
102
{ACAD_REACTORS
330
47
102
}
330
47
100
AcDbScale
 70
     0
300
1/32" = 1'-0"
140
0.03125
141
12.0
290
     0
  0
SCALE
  5
5C
102
{ACAD_REACTORS
330
47
102
}
330
47
100
AcDbScale
 70
     0
300
1/16" = 1'-0"
140
0.0625
141
12.0
290
     0
  0
SCALE
  5
5D
102
{ACAD_REACTORS
330
47
102
}
330
47
100
AcDbScale
 70
     0
300
3/32" = 1'-0"
140
0.09375
141
12.0
290
     0
  0
SCALE
  5
5E
102
{ACAD_REACTORS
330
47
102
}
330
47
100
AcDbScale
 70
     0
300
1/8" = 1'-0"
140
0.125
141
12.0
290
     0
  0
SCALE
  5
5F
102
{ACAD_REACTORS
330
47
102
}
330
47
100
AcDbScale
 70
     0
300
3/16" = 1'-0"
140
0.1875
141
12.0
290
     0
  0
SCALE
  5
60
102
{ACAD_REACTORS
330
47
102
}
330
47
100
AcDbScale
 70
     0
300
1/4" = 1'-0"
140
0.25
141
12.0
290
     0
  0
SCALE
  5
61
102
{ACAD_REACTORS
330
47
102
}
330
47
100
AcDbScale
 70
     0
300
3/8" = 1'-0"
140
0.375
141
12.0
290
     0
  0
SCALE
  5
62
102
{ACAD_REACTORS
330
47
102
}
330
47
100
AcDbScale
 70
     0
300
1/2" = 1'-0"
140
0.5
141
12.0
290
     0
  0
SCALE
  5
63
102
{ACAD_REACTORS
330
47
102
}
330
47
100
AcDbScale
 70
     0
300
3/4" = 1'-0"
140
0.75
141
12.0
290
     0
  0
SCALE
  5
64
102
{ACAD_REACTORS
330
47
102
}
330
47
100
AcDbScale
 70
     0
300
1" = 1'-0"
140
1.0
141
12.0
290
     0
  0
SCALE
  5
65
102
{ACAD_REACTORS
330
47
102
}
330
47
100
AcDbScale
 70
     0
300
1-1/2" = 1'-0"
140
1.5
141
12.0
290
     0
  0
SCALE
  5
66
102
{ACAD_REACTORS
330
47
102
}
330
47
100
AcDbScale
 70
     0
300
3" = 1'-0"
140
3.0
141
12.0
290
     0
  0
SCALE
  5
67
102
{ACAD_REACTORS
330
47
102
}
330
47
100
AcDbScale
 70
     0
300
6" = 1'-0"
140
6.0
141
12.0
290
     0
  0
SCALE
  5
68
102
{ACAD_REACTORS
330
47
102
}
330
47
100
AcDbScale
 70
     0
300
1'-0" = 1'-0"
140
12.0
141
12.0
290
     0
  0
ENDSEC
  0
EOF
