  0
SECTION
  2
HEADER
  9
$ACADVER
  1
AC1015
  9
$ACADMAINTVER
 70
     6
  9
$DWGCODEPAGE
  3
ANSI_1252
  9
$INSBASE
 10
0.0
 20
0.0
 30
0.0
  9
$EXTMIN
 10
0.0
 20
0.0
 30
0.0
  9
$EXTMAX
 10
420.0
 20
297.0
 30
0.0
  9
$LIMMIN
 10
0.0
 20
0.0
  9
$LIMMAX
 10
420.0
 20
297.0
  9
$ORTHOMODE
 70
     0
  9
$REGENMODE
 70
     1
  9
$FILLMODE
 70
     1
  9
$QTEXTMODE
 70
     0
  9
$MIRRTEXT
 70
     1
  9
$LTSCALE
 40
1.0
  9
$ATTMODE
 70
     1
  9
$TEXTSIZE
 40
3.5
  9
$TRACEWID
 40
1.0
  9
$TEXTSTYLE
  7
Standard
  9
$CLAYER
  8
0
  9
$CELTYPE
  6
ByLayer
  9
$CECOLOR
 62
   256
  9
$CELTSCALE
 40
1.0
  9
$DISPSILH
 70
     0
  9
$DIMSCALE
 40
1.0
  9
$DIMASZ
 40
3.5
  9
$DIMEXO
 40
0.1
  9
$DIMDLI
 40
3.75
  9
$DIMRND
 40
0.0
  9
$DIMDLE
 40
0.0
  9
$DIMEXE
 40
1.0
  9
$DIMTP
 40
0.0
  9
$DIMTM
 40
0.0
  9
$DIMTXT
 40
3.5
  9
$DIMCEN
 40
2.5
  9
$DIMTSZ
 40
0.0
  9
$DIMTOL
 70
     0
  9
$DIMLIM
 70
     0
  9
$DIMTIH
 70
     1
  9
$DIMTOH
 70
     1
  9
$DIMSE1
 70
     0
  9
$DIMSE2
 70
     0
  9
$DIMTAD
 70
     1
  9
$DIMZIN
 70
     0
  9
$DIMBLK
  1

  9
$DIMASO
 70
     1
  9
$DIMSHO
 70
     1
  9
$DIMPOST
  1

  9
$DIMAPOST
  1

  9
$DIMALT
 70
     0
  9
$DIMALTD
 70
     3
  9
$DIMALTF
 40
0.0393700787
  9
$DIMLFAC
 40
1.0
  9
$DIMTOFL
 70
     1
  9
$DIMTVP
 40
0.0
  9
$DIMTIX
 70
     0
  9
$DIMSOXD
 70
     0
  9
$DIMSAH
 70
     0
  9
$DIMBLK1
  1

  9
$DIMBLK2
  1

  9
$DIMSTYLE
  2
ISO-25
  9
$DIMCLRD
 70
     0
  9
$DIMCLRE
 70
     0
  9
$DIMCLRT
 70
     0
  9
$DIMTFAC
 40
1.0
  9
$DIMGAP
 40
2.0
  9
$DIMJUST
 70
     0
  9
$DIMSD1
 70
     0
  9
$DIMSD2
 70
     0
  9
$DIMTOLJ
 70
     0
  9
$DIMTZIN
 70
     0
  9
$DIMALTZ
 70
     0
  9
$DIMALTTZ
 70
     0
  9
$DIMUPT
 70
     0
  9
$DIMDEC
 70
     2
  9
$DIMTDEC
 70
     3
  9
$DIMALTU
 70
     2
  9
$DIMALTTD
 70
     3
  9
$DIMTXSTY
  7
Standard
  9
$DIMAUNIT
 70
     0
  9
$DIMADEC
 70
     2
  9
$DIMALTRND
 40
0.0
  9
$DIMAZIN
 70
     0
  9
$DIMDSEP
 70
    44
  9
$DIMATFIT
 70
     3
  9
$DIMFRAC
 70
     0
  9
$DIMLDRBLK
  1

  9
$DIMLUNIT
 70
     2
  9
$DIMLWD
 70
    -2
  9
$DIMLWE
 70
    -2
  9
$DIMTMOVE
 70
     0
  9
$LUNITS
 70
     2
  9
$LUPREC
 70
     2
  9
$SKETCHINC
 40
1.0
  9
$FILLETRAD
 40
10.0
  9
$AUNITS
 70
     0
  9
$AUPREC
 70
     2
  9
$MENU
  1
.
  9
$ELEVATION
 40
0.0
  9
$PELEVATION
 40
0.0
  9
$THICKNESS
 40
0.0
  9
$LIMCHECK
 70
     0
  9
$CHAMFERA
 40
0.0
  9
$CHAMFERB
 40
0.0
  9
$CHAMFERC
 40
0.0
  9
$CHAMFERD
 40
0.0
  9
$SKPOLY
 70
     0
  9
$TDCREATE
 40
2460209.634591748
  9
$TDUCREATE
 40
2460209.551258415
  9
$TDUPDATE
 40
2460209.634601886
  9
$TDUUPDATE
 40
2460209.551268553
  9
$TDINDWG
 40
0.0000000116
  9
$TDUSRTIMER
 40
0.0000000116
  9
$USRTIMER
 70
     1
  9
$ANGBASE
 50
0.0
  9
$ANGDIR
 70
     0
  9
$PDMODE
 70
     0
  9
$PDSIZE
 40
-1.0
  9
$PLINEWID
 40
0.0
  9
$SPLFRAME
 70
     0
  9
$SPLINETYPE
 70
     6
  9
$SPLINESEGS
 70
     8
  9
$HANDSEED
  5
438
  9
$SURFTAB1
 70
     6
  9
$SURFTAB2
 70
     6
  9
$SURFTYPE
 70
     6
  9
$SURFU
 70
     6
  9
$SURFV
 70
     6
  9
$UCSBASE
  2

  9
$UCSNAME
  2

  9
$UCSORG
 10
0.0
 20
0.0
 30
0.0
  9
$UCSXDIR
 10
1.0
 20
0.0
 30
0.0
  9
$UCSYDIR
 10
0.0
 20
1.0
 30
0.0
  9
$UCSORTHOREF
  2

  9
$UCSORTHOVIEW
 70
     0
  9
$UCSORGTOP
 10
0.0
 20
0.0
 30
0.0
  9
$UCSORGBOTTOM
 10
0.0
 20
0.0
 30
0.0
  9
$UCSORGLEFT
 10
0.0
 20
0.0
 30
0.0
  9
$UCSORGRIGHT
 10
0.0
 20
0.0
 30
0.0
  9
$UCSORGFRONT
 10
0.0
 20
0.0
 30
0.0
  9
$UCSORGBACK
 10
0.0
 20
0.0
 30
0.0
  9
$PUCSBASE
  2

  9
$PUCSNAME
  2

  9
$PUCSORG
 10
0.0
 20
0.0
 30
0.0
  9
$PUCSXDIR
 10
1.0
 20
0.0
 30
0.0
  9
$PUCSYDIR
 10
0.0
 20
1.0
 30
0.0
  9
$PUCSORTHOREF
  2

  9
$PUCSORTHOVIEW
 70
     0
  9
$PUCSORGTOP
 10
0.0
 20
0.0
 30
0.0
  9
$PUCSORGBOTTOM
 10
0.0
 20
0.0
 30
0.0
  9
$PUCSORGLEFT
 10
0.0
 20
0.0
 30
0.0
  9
$PUCSORGRIGHT
 10
0.0
 20
0.0
 30
0.0
  9
$PUCSORGFRONT
 10
0.0
 20
0.0
 30
0.0
  9
$PUCSORGBACK
 10
0.0
 20
0.0
 30
0.0
  9
$USERI1
 70
     0
  9
$USERI2
 70
     0
  9
$USERI3
 70
     0
  9
$USERI4
 70
     0
  9
$USERI5
 70
     0
  9
$USERR1
 40
0.0
  9
$USERR2
 40
0.0
  9
$USERR3
 40
0.0
  9
$USERR4
 40
0.0
  9
$USERR5
 40
0.0
  9
$WORLDVIEW
 70
     1
  9
$SHADEDGE
 70
     3
  9
$SHADEDIF
 70
    70
  9
$TILEMODE
 70
     1
  9
$MAXACTVP
 70
    64
  9
$PINSBASE
 10
0.0
 20
0.0
 30
0.0
  9
$PLIMCHECK
 70
     0
  9
$PEXTMIN
 10
1.0000000000E+20
 20
1.0000000000E+20
 30
1.0000000000E+20
  9
$PEXTMAX
 10
-1.0000000000E+20
 20
-1.0000000000E+20
 30
-1.0000000000E+20
  9
$PLIMMIN
 10
0.0
 20
0.0
  9
$PLIMMAX
 10
420.0
 20
297.0
  9
$UNITMODE
 70
     0
  9
$VISRETAIN
 70
     1
  9
$PLINEGEN
 70
     0
  9
$PSLTSCALE
 70
     1
  9
$TREEDEPTH
 70
  3020
  9
$CMLSTYLE
  2
Standard
  9
$CMLJUST
 70
     0
  9
$CMLSCALE
 40
20.0
  9
$PROXYGRAPHICS
 70
     1
  9
$MEASUREMENT
 70
     1
  9
$CELWEIGHT
370
    -1
  9
$ENDCAPS
280
     0
  9
$JOINSTYLE
280
     0
  9
$LWDISPLAY
290
     1
  9
$INSUNITS
 70
     4
  9
$HYPERLINKBASE
  1

  9
$STYLESHEET
  1

  9
$XEDIT
290
     1
  9
$CEPSNTYPE
380
     0
  9
$PSTYLEMODE
290
     1
  9
$FINGERPRINTGUID
  2
{c11d8fcc-3187-42e7-bbdd-1cb165c968dc}
  9
$VERSIONGUID
  2
{FAEB1C32-E019-11D5-929B-00C0DF256EC4}
  9
$EXTNAMES
290
     1
  9
$PSVPSCALE
 40
0.0
  9
$OLESTARTUP
290
     0
  0
ENDSEC
  0
SECTION
  2
CLASSES
  0
CLASS
  1
ACDBDICTIONARYWDFLT
  2
AcDbDictionaryWithDefault
  3
ObjectDBX Classes
 90
        0
280
     0
281
     0
  0
CLASS
  1
VISUALSTYLE
  2
AcDbVisualStyle
  3
ObjectDBX Classes
 90
     4095
280
     0
281
     0
  0
CLASS
  1
MATERIAL
  2
AcDbMaterial
  3
ObjectDBX Classes
 90
     1153
280
     0
281
     0
  0
CLASS
  1
SCALE
  2
AcDbScale
  3
ObjectDBX Classes
 90
     1153
280
     0
281
     0
  0
CLASS
  1
TABLESTYLE
  2
AcDbTableStyle
  3
ObjectDBX Classes
 90
     4095
280
     0
281
     0
  0
CLASS
  1
MLEADERSTYLE
  2
AcDbMLeaderStyle
  3
ACDB_MLEADERSTYLE_CLASS
 90
     4095
280
     0
281
     0
  0
CLASS
  1
SUN
  2
AcDbSun
  3
SCENEOE
 90
     1153
280
     0
281
     0
  0
CLASS
  1
ACDBPLACEHOLDER
  2
AcDbPlaceHolder
  3
ObjectDBX Classes
 90
        0
280
     0
281
     0
  0
CLASS
  1
LAYOUT
  2
AcDbLayout
  3
ObjectDBX Classes
 90
        0
280
     0
281
     0
  0
ENDSEC
  0
SECTION
  2
TABLES
  0
TABLE
  2
VPORT
  5
8
330
0
100
AcDbSymbolTable
 70
     1
  0
VPORT
  5
29
330
8
100
AcDbSymbolTableRecord
100
AcDbViewportTableRecord
  2
*Active
 70
     0
 10
0.0
 20
0.0
 11
1.0
 21
1.0
 12
210.0
 22
148.5
 13
0.0
 23
0.0
 14
10.0
 24
10.0
 15
10.0
 25
10.0
 16
0.0
 26
0.0
 36
1.0
 17
0.0
 27
0.0
 37
0.0
 40
297.0
 41
1.4141414141
 42
50.0
 43
0.0
 44
0.0
 50
0.0
 51
0.0
 71
     0
 72
  2000
 73
     1
 74
     3
 75
     0
 76
     0
 77
     0
 78
     0
281
     0
 65
     1
110
0.0
120
0.0
130
0.0
111
1.0
121
0.0
131
0.0
112
0.0
122
1.0
132
0.0
 79
     0
146
0.0
  0
ENDTAB
  0
TABLE
  2
LTYPE
  5
5
330
0
100
AcDbSymbolTable
 70
     6
  0
LTYPE
  5
14
330
5
100
AcDbSymbolTableRecord
100
AcDbLinetypeTableRecord
  2
ByBlock
 70
     0
  3

 72
    65
 73
     0
 40
0.0
  0
LTYPE
  5
15
330
5
100
AcDbSymbolTableRecord
100
AcDbLinetypeTableRecord
  2
ByLayer
 70
     0
  3

 72
    65
 73
     0
 40
0.0
  0
LTYPE
  5
16
330
5
100
AcDbSymbolTableRecord
100
AcDbLinetypeTableRecord
  2
Continuous
 70
     0
  3
Solid line
 72
    65
 73
     0
 40
0.0
  0
LTYPE
  5
6E
330
5
100
AcDbSymbolTableRecord
100
AcDbLinetypeTableRecord
  2
HIDDEN
 70
     0
  3
Hidden __ __ __ __ __ __ __ __ __ __ __ __ __ __
 72
    65
 73
     2
 40
1.905
 49
1.27
 74
     0
 49
-0.635
 74
     0
  0
LTYPE
  5
6F
330
5
100
AcDbSymbolTableRecord
100
AcDbLinetypeTableRecord
  2
PHANTOM
 70
     0
  3
Phantom ______  __  __  ______  __  __  ______
 72
    65
 73
     6
 40
12.7
 49
6.35
 74
     0
 49
-1.27
 74
     0
 49
1.27
 74
     0
 49
-1.27
 74
     0
 49
1.27
 74
     0
 49
-1.27
 74
     0
  0
LTYPE
  5
70
330
5
100
AcDbSymbolTableRecord
100
AcDbLinetypeTableRecord
  2
CENTER
 70
     0
  3
Center ____ _ ____ _ ____ _ ____ _ ____ _ ____
 72
    65
 73
     4
 40
10.16
 49
6.35
 74
     0
 49
-1.27
 74
     0
 49
1.27
 74
     0
 49
-1.27
 74
     0
  0
LTYPE
  5
71
330
5
100
AcDbSymbolTableRecord
100
AcDbLinetypeTableRecord
  2
CENTERX2
 70
     0
  3
Center (2x) ________  __  ________  __  _____
 72
    65
 73
     4
 40
20.32
 49
12.7
 74
     0
 49
-2.54
 74
     0
 49
2.54
 74
     0
 49
-2.54
 74
     0
  0
LTYPE
  5
72
330
5
100
AcDbSymbolTableRecord
100
AcDbLinetypeTableRecord
  2
DOT2
 70
     0
  3
Dot (.5x) ........................................
 72
    65
 73
     2
 40
0.635
 49
0.0
 74
     0
 49
-0.635
 74
     0
  0
ENDTAB
  0
TABLE
  2
LAYER
  5
2
330
0
100
AcDbSymbolTable
 70
     9
  0
LAYER
  5
10
330
2
100
AcDbSymbolTableRecord
100
AcDbLayerTableRecord
  2
0
 70
     0
 62
     7
  6
Continuous
370
    -3
390
F
  0
LAYER
  5
73
330
2
100
AcDbSymbolTableRecord
100
AcDbLayerTableRecord
  2
VORLAGE_TEXT
 70
     0
 62
     7
  6
Continuous
370
    -3
390
F
  0
LAYER
  5
74
330
2
100
AcDbSymbolTableRecord
100
AcDbLayerTableRecord
  2
VORLAGE_BEMASSUNG
 70
     0
 62
    -5
  6
Continuous
290
     0
370
    -3
390
F
  0
LAYER
  5
75
330
2
100
AcDbSymbolTableRecord
100
AcDbLayerTableRecord
  2
TEXT
 70
     0
 62
     7
  6
Continuous
370
    -3
390
F
  0
LAYER
  5
76
330
2
100
AcDbSymbolTableRecord
100
AcDbLayerTableRecord
  2
LINIEN-DICK
 70
     0
 62
     7
  6
Continuous
370
    35
390
F
  0
LAYER
  5
77
330
2
100
AcDbSymbolTableRecord
100
AcDbLayerTableRecord
  2
LINIEN-NORMAL
 70
     0
 62
     7
  6
Continuous
370
    25
390
F
  0
LAYER
  5
78
330
2
100
AcDbSymbolTableRecord
100
AcDbLayerTableRecord
  2
LINIEN-DÜNN
 70
     0
 62
     7
  6
Continuous
370
    -3
390
F
  0
LAYER
  5
79
330
2
100
AcDbSymbolTableRecord
100
AcDbLayerTableRecord
  2
TEXT-DEUTSCH
 70
     0
 62
     7
  6
Continuous
370
    -3
390
F
  0
LAYER
  5
7A
330
2
100
AcDbSymbolTableRecord
100
AcDbLayerTableRecord
  2
TEXT-ENGLISCH
 70
     0
 62
    -7
  6
Continuous
290
     0
370
    -3
390
F
  0
ENDTAB
  0
TABLE
  2
STYLE
  5
3
330
0
100
AcDbSymbolTable
 70
     3
  0
STYLE
  5
11
330
3
100
AcDbSymbolTableRecord
100
AcDbTextStyleTableRecord
  2
Standard
 70
     0
 40
0.0
 41
1.0
 50
0.0
 71
     0
 42
3.5
  3
txt
  4

  0
STYLE
  5
F1
330
3
100
AcDbSymbolTableRecord
100
AcDbTextStyleTableRecord
  2
SLDTEXTSTYLE0
 70
     0
 40
0.0
 41
0.605
 50
0.0
 71
     0
 42
3.5
  3
TXT
  4

  0
STYLE
  5
19A
330
3
100
AcDbSymbolTableRecord
100
AcDbTextStyleTableRecord
  2
SLDTEXTSTYLE1
 70
     0
 40
0.0
 41
0.563
 50
0.0
 71
     0
 42
3.5
  3
TXT
  4

  0
ENDTAB
  0
TABLE
  2
VIEW
  5
6
330
0
100
AcDbSymbolTable
 70
     0
  0
ENDTAB
  0
TABLE
  2
UCS
  5
7
330
0
100
AcDbSymbolTable
 70
     0
  0
ENDTAB
  0
TABLE
  2
APPID
  5
9
330
0
100
AcDbSymbolTable
 70
     1
  0
APPID
  5
12
330
9
100
AcDbSymbolTableRecord
100
AcDbRegAppTableRecord
  2
ACAD
 70
     0
  0
ENDTAB
  0
TABLE
  2
DIMSTYLE
  5
A
330
0
100
AcDbSymbolTable
 70
     2
100
AcDbDimStyleTable
  0
DIMSTYLE
105
27
330
A
100
AcDbSymbolTableRecord
100
AcDbDimStyleTableRecord
  2
ISO-25
 70
     0
 41
2.5
 42
0.625
 43
3.75
 44
1.25
 73
     0
 74
     0
 77
     1
 78
     8
140
2.5
141
2.5
143
0.0393700787
147
0.625
171
     3
172
     1
178
     0
271
     2
272
     2
274
     3
278
    44
283
     0
284
     8
340
11
  0
DIMSTYLE
105
32A
102
{ACAD_REACTORS
330
329
330
335
330
33F
102
}
330
A
100
AcDbSymbolTableRecord
100
AcDbDimStyleTableRecord
  2
SLDDIMSTYLE0
 70
     0
 41
3.5
 44
0.0
 45
0.000000001
 73
     0
 74
     0
 77
     1
 78
    12
 79
     3
140
3.5
147
0.875
173
     1
178
     0
271
     2
272
     3
276
     2
284
    12
340
F1
  0
ENDTAB
  0
TABLE
  2
BLOCK_RECORD
  5
1
330
0
100
AcDbSymbolTable
 70
    12
  0
BLOCK_RECORD
  5
1F
330
1
100
AcDbSymbolTableRecord
100
AcDbBlockTableRecord
  2
*Model_Space
340
22
  0
BLOCK_RECORD
  5
1B
330
1
100
AcDbSymbolTableRecord
100
AcDbBlockTableRecord
  2
*Paper_Space
340
1E
  0
BLOCK_RECORD
  5
23
330
1
100
AcDbSymbolTableRecord
100
AcDbBlockTableRecord
  2
*Paper_Space0
340
26
  0
BLOCK_RECORD
  5
7B
330
1
100
AcDbSymbolTableRecord
100
AcDbBlockTableRecord
  2
ACO-Logo
340
0
102
{BLKREFS
331
151
102
}
  0
BLOCK_RECORD
  5
EE
330
1
100
AcDbSymbolTableRecord
100
AcDbBlockTableRecord
  2
SW_NOTE_0
340
0
102
{BLKREFS
331
F3
102
}
  0
BLOCK_RECORD
  5
F4
330
1
100
AcDbSymbolTableRecord
100
AcDbBlockTableRecord
  2
SW_NOTE_0_1
340
0
102
{BLKREFS
331
F8
102
}
  0
BLOCK_RECORD
  5
F9
330
1
100
AcDbSymbolTableRecord
100
AcDbBlockTableRecord
  2
SW_NOTE_0_2
340
0
102
{BLKREFS
331
100
102
}
  0
BLOCK_RECORD
  5
178
330
1
100
AcDbSymbolTableRecord
100
AcDbBlockTableRecord
  2
SW_NOTE_0_3
340
0
102
{BLKREFS
331
180
102
}
  0
BLOCK_RECORD
  5
204
330
1
100
AcDbSymbolTableRecord
100
AcDbBlockTableRecord
  2
SW_CENTERMARKSYMBOL_0
340
0
102
{BLKREFS
331
20F
102
}
  0
BLOCK_RECORD
  5
217
330
1
100
AcDbSymbolTableRecord
100
AcDbBlockTableRecord
  2
SW_BROKEN_VIEW_0
340
0
102
{BLKREFS
331
21A
102
}
  0
BLOCK_RECORD
  5
32B
330
1
100
AcDbSymbolTableRecord
100
AcDbBlockTableRecord
  2
_D
340
0
  0
BLOCK_RECORD
  5
336
330
1
100
AcDbSymbolTableRecord
100
AcDbBlockTableRecord
  2
_D_1
340
0
  0
BLOCK_RECORD
  5
340
330
1
100
AcDbSymbolTableRecord
100
AcDbBlockTableRecord
  2
_D_2
340
0
  0
BLOCK_RECORD
  5
34F
330
1
100
AcDbSymbolTableRecord
100
AcDbBlockTableRecord
  2
SW_HATCH_0
340
0
102
{BLKREFS
331
436
102
}
  0
ENDTAB
  0
ENDSEC
  0
SECTION
  2
BLOCKS
  0
BLOCK
  5
20
330
1F
100
AcDbEntity
  8
0
100
AcDbBlockBegin
  2
*Model_Space
 70
     0
 10
0.0
 20
0.0
 30
0.0
  3
*Model_Space
  1

  0
ENDBLK
  5
21
330
1F
100
AcDbEntity
  8
0
100
AcDbBlockEnd
  0
BLOCK
  5
1C
330
1B
100
AcDbEntity
 67
     1
  8
0
100
AcDbBlockBegin
  2
*Paper_Space
 70
     0
 10
0.0
 20
0.0
 30
0.0
  3
*Paper_Space
  1

  0
ENDBLK
  5
1D
330
1B
100
AcDbEntity
 67
     1
  8
0
100
AcDbBlockEnd
  0
BLOCK
  5
24
330
23
100
AcDbEntity
  8
0
100
AcDbBlockBegin
  2
*Paper_Space0
 70
     0
 10
0.0
 20
0.0
 30
0.0
  3
*Paper_Space0
  1

  0
ENDBLK
  5
25
330
23
100
AcDbEntity
  8
0
100
AcDbBlockEnd
  0
BLOCK
  5
7C
330
7B
100
AcDbEntity
  8
0
100
AcDbBlockBegin
  2
ACO-Logo
 70
     0
 10
0.0
 20
0.0
 30
0.0
  3
ACO-Logo
  1

  0
ARC
  5
7E
330
7B
100
AcDbEntity
  8
0
  6
Continuous
 62
   179
370
    18
100
AcDbCircle
 10
80.3853261169
 20
4.9940995715
 30
0.0
 40
0.3000000000000441
100
AcDbArc
 50
181.9349323096
 51
274.6062978506
  0
ARC
  5
7F
330
7B
100
AcDbEntity
  8
0
  6
Continuous
 62
   179
370
    18
100
AcDbCircle
 10
81.2359083165
 20
2.1946665956
 30
0.0
 40
1.000000000000021
100
AcDbArc
 50
221.4087409628
 51
276.0561297228
  0
ARC
  5
80
330
7B
100
AcDbEntity
  8
0
  6
Continuous
 62
   179
370
    18
100
AcDbCircle
 10
79.1360017163
 20
3.654242048
 30
0.0
 40
0.300000000000004
100
AcDbArc
 50
181.2730300201
 51
274.4996077095
  0
ARC
  5
81
330
7B
100
AcDbEntity
  8
0
  6
Continuous
 62
   179
370
    18
100
AcDbCircle
 10
78.7699033484
 20
3.2873137407
 30
0.0
 40
0.4000000000000358
100
AcDbArc
 50
221.0090869016
 51
274.5606296317
  0
ARC
  5
82
330
7B
100
AcDbEntity
  8
0
  6
Continuous
 62
   179
370
    18
100
AcDbCircle
 10
91.2333953062
 20
4.6062442307
 30
0.0
 40
0.3000000000000493
100
AcDbArc
 50
274.4996077095
 51
3.7249371334
  0
ARC
  5
83
330
7B
100
AcDbEntity
  8
0
  6
Continuous
 62
   179
370
    18
100
AcDbCircle
 10
81.5287571045
 20
9.7648973508
 30
0.0
 40
1.00000000000002
100
AcDbArc
 50
93.1134387481
 51
181.9414863909
  0
ARC
  5
84
330
7B
100
AcDbEntity
  8
0
  6
Continuous
 62
   179
370
    18
100
AcDbCircle
 10
81.6051675115
 20
7.5107903456
 30
0.0
 40
1.0
100
AcDbArc
 50
181.9414863909
 51
274.398705355
  0
ARC
  5
85
330
7B
100
AcDbEntity
  8
0
  6
Continuous
 62
   179
370
    18
100
AcDbCircle
 10
80.1506905656
 20
11.9393118923
 30
0.0
 40
0.300000000000045
100
AcDbArc
 50
93.0418421566
 51
181.9349323096
  0
ARC
  5
86
330
7B
100
AcDbEntity
  8
0
  6
Continuous
 62
   179
370
    18
100
AcDbCircle
 10
78.1879722102
 20
12.3499352608
 30
0.0
 40
0.7999999999953393
100
AcDbArc
 50
92.6995697565
 51
148.2554209065
  0
ARC
  5
87
330
7B
100
AcDbEntity
  8
0
  6
Continuous
 62
   179
370
    18
100
AcDbCircle
 10
78.930862229
 20
12.8855189761
 30
0.0
 40
0.3000000000000031
100
AcDbArc
 50
92.6995697565
 51
181.2730300201
  0
ARC
  5
88
330
7B
100
AcDbEntity
  8
0
  6
Continuous
 62
   179
370
    18
100
AcDbCircle
 10
82.327743407
 20
9.8083568568
 30
0.0
 40
1.000000000000034
100
AcDbArc
 50
1.9414863909
 51
93.1134387481
  0
ARC
  5
89
330
7B
100
AcDbEntity
  8
0
  6
Continuous
 62
   179
370
    18
100
AcDbCircle
 10
81.5287571045
 20
9.7648973508
 30
0.0
 40
0.3625000000000009
100
AcDbArc
 50
93.1134387481
 51
181.9414863909
  0
ARC
  5
8A
330
7B
100
AcDbEntity
  8
0
  6
Continuous
 62
   179
370
    18
100
AcDbCircle
 10
82.327743407
 20
9.8083568568
 30
0.0
 40
0.3625000000000146
100
AcDbArc
 50
1.9414863909
 51
93.1134387481
  0
ARC
  5
8B
330
7B
100
AcDbEntity
  8
0
  6
Continuous
 62
   179
370
    18
100
AcDbCircle
 10
82.4035451983
 20
7.5722040138
 30
0.0
 40
1.000000000000008
100
AcDbArc
 50
274.398705355
 51
1.9414863909
  0
ARC
  5
8C
330
7B
100
AcDbEntity
  8
0
  6
Continuous
 62
   179
370
    18
100
AcDbCircle
 10
82.4035451983
 20
7.5722040138
 30
0.0
 40
0.3625000000000068
100
AcDbArc
 50
274.398705355
 51
1.9414863909
  0
ARC
  5
8D
330
7B
100
AcDbEntity
  8
0
  6
Continuous
 62
   179
370
    18
100
AcDbCircle
 10
81.6051675115
 20
7.5107903456
 30
0.0
 40
0.3625000000000111
100
AcDbArc
 50
181.9414863909
 51
274.398705355
  0
ARC
  5
8E
330
7B
100
AcDbEntity
  8
0
  6
Continuous
 62
   179
370
    18
100
AcDbCircle
 10
88.825822761
 20
8.0662148274
 30
0.0
 40
0.9999999999999997
100
AcDbArc
 50
274.398705355
 51
2.6541955134
  0
ARC
  5
8F
330
7B
100
AcDbEntity
  8
0
  6
Continuous
 62
   179
370
    18
100
AcDbCircle
 10
90.1578295581
 20
5.7814576687
 30
0.0
 40
0.3000000000000043
100
AcDbArc
 50
274.6062978507
 51
2.5147526475
  0
ARC
  5
90
330
7B
100
AcDbEntity
  8
0
  6
Continuous
 62
   179
370
    18
100
AcDbCircle
 10
88.825822761
 20
8.0662148274
 30
0.0
 40
0.3625000000000083
100
AcDbArc
 50
274.398705355
 51
2.6541955134
  0
ARC
  5
91
330
7B
100
AcDbEntity
  8
0
  6
Continuous
 62
   179
370
    18
100
AcDbCircle
 10
88.728529747
 20
10.16496413
 30
0.0
 40
1.000000000000001
100
AcDbArc
 50
2.6541955134
 51
93.1134387481
  0
ARC
  5
92
330
7B
100
AcDbEntity
  8
0
  6
Continuous
 62
   179
370
    18
100
AcDbCircle
 10
88.728529747
 20
10.16496413
 30
0.0
 40
0.3625000000000085
100
AcDbArc
 50
2.6541955134
 51
93.1134387481
  0
ARC
  5
93
330
7B
100
AcDbEntity
  8
0
  6
Continuous
 62
   179
370
    18
100
AcDbCircle
 10
89.8647121341
 20
12.455515937
 30
0.0
 40
0.2999999999999984
100
AcDbArc
 50
2.5147526475
 51
93.0418421566
  0
ARC
  5
94
330
7B
100
AcDbEntity
  8
0
  6
Continuous
 62
   179
370
    18
100
AcDbCircle
 10
90.6583795404
 20
13.4384863935
 30
0.0
 40
0.2999999999999911
100
AcDbArc
 50
3.7249371334
 51
92.6995697565
  0
CIRCLE
  5
95
330
7B
100
AcDbEntity
  8
0
  6
Continuous
 62
   179
370
    18
100
AcDbCircle
 10
15.7233972286
 20
6.4054930194
 30
0.0
 40
1.579500000000014
  0
CIRCLE
  5
96
330
7B
100
AcDbEntity
  8
0
  6
Continuous
 62
   179
370
    18
100
AcDbCircle
 10
15.7233972286
 20
6.4054930194
 30
0.0
 40
2.281499999999994
  0
ARC
  5
97
330
7B
100
AcDbEntity
  8
0
  6
Continuous
 62
   179
370
    18
100
AcDbCircle
 10
89.7681336026
 20
2.3106616691
 30
0.0
 40
0.098384530246548
100
AcDbArc
 50
332.3802627259
 51
4.9765441602
  0
ARC
  5
98
330
7B
100
AcDbEntity
  8
0
  6
Continuous
 62
   179
370
    18
100
AcDbCircle
 10
89.6886560089
 20
2.3522464185
 30
0.0
 40
0.1880839130754018
100
AcDbArc
 50
303.690067526
 51
332.3802627258
  0
ARC
  5
99
330
7B
100
AcDbEntity
  8
0
  6
Continuous
 62
   179
370
    18
100
AcDbCircle
 10
89.4849700869
 20
2.6577753016
 30
0.0
 40
0.5552839311631531
100
AcDbArc
 50
287.108652213
 51
303.690067526
  0
ARC
  5
9A
330
7B
100
AcDbEntity
  8
0
  6
Continuous
 62
   179
370
    18
100
AcDbCircle
 10
88.0513010646
 20
7.3154864882
 30
0.0
 40
5.428648309393203
100
AcDbArc
 50
285.2551187031
 51
287.108652213
  0
ARC
  5
9B
330
7B
100
AcDbEntity
  8
0
  6
Continuous
 62
   179
370
    18
100
AcDbCircle
 10
89.1317168954
 20
3.3539617753
 30
0.0
 40
1.322436378825653
100
AcDbArc
 50
281.4991866428
 51
285.255118703
  0
ARC
  5
9C
330
7B
100
AcDbEntity
  8
0
  6
Continuous
 62
   179
370
    18
100
AcDbCircle
 10
89.3198255509
 20
2.4293110075
 30
0.0
 40
0.3788454141584939
100
AcDbArc
 50
279.1917900003
 51
281.499186643
  0
ARC
  5
9D
330
7B
100
AcDbEntity
  8
0
  6
Continuous
 62
   179
370
    18
100
AcDbCircle
 10
89.0487250788
 20
4.1046569124
 30
0.0
 40
2.07598399629105
100
AcDbArc
 50
277.7634675038
 51
279.1917900002
  0
ARC
  5
9E
330
7B
100
AcDbEntity
  8
0
  6
Continuous
 62
   179
370
    18
100
AcDbCircle
 10
9.2588909915
 20
6.4054930194
 30
0.0
 40
1.579500000000074
100
AcDbArc
 50
31.0558004991
 51
330.0
  0
ARC
  5
9F
330
7B
100
AcDbEntity
  8
0
  6
Continuous
 62
   179
370
    18
100
AcDbCircle
 10
9.2588909915
 20
6.4054930194
 30
0.0
 40
2.281500000000107
100
AcDbArc
 50
30.7309172659
 51
330.0
  0
ARC
  5
A0
330
7B
100
AcDbEntity
  8
0
  6
Continuous
 62
   179
370
    18
100
AcDbCircle
 10
6.1288847544
 20
4.0685261312
 30
0.0
 40
4.914000000000307
100
AcDbArc
 50
172.3058370354
 51
179.7113029221
  0
ARC
  5
A1
330
7B
100
AcDbEntity
  8
0
  6
Continuous
 62
   179
370
    18
100
AcDbCircle
 10
-0.5401152456
 20
4.0685261312
 30
0.0
 40
4.91400000000019
100
AcDbArc
 50
0.2886970779
 51
7.6941629646
  0
ARC
  5
A2
330
7B
100
AcDbEntity
  8
0
  6
Continuous
 62
   179
370
    18
100
AcDbCircle
 10
-0.5401152456
 20
4.0685261312
 30
0.0
 40
5.616000000000127
100
AcDbArc
 50
0.2526096926
 51
53.5764263577
  0
ARC
  5
A3
330
7B
100
AcDbEntity
  8
0
  6
Continuous
 62
   179
370
    18
100
AcDbCircle
 10
6.1288847544
 20
4.0685261312
 30
0.0
 40
5.61600000000074
100
AcDbArc
 50
126.4235736423
 51
179.7473903073
  0
ARC
  5
A4
330
7B
100
AcDbEntity
  8
0
  6
Continuous
 62
   179
370
    18
100
AcDbCircle
 10
-0.5401152456
 20
4.0685261312
 30
0.0
 40
4.914000000000161
100
AcDbArc
 50
16.0658750272
 51
47.2678899574
  0
ARC
  5
A5
330
7B
100
AcDbEntity
  8
0
  6
Continuous
 62
   179
370
    18
100
AcDbCircle
 10
6.1288847544
 20
4.0685261312
 30
0.0
 40
4.914000000000584
100
AcDbArc
 50
132.7321100426
 51
163.9341249728
  0
LINE
  5
A6
330
7B
100
AcDbEntity
  8
0
  6
Continuous
 62
   179
370
    18
100
AcDbLine
 10
78.8017089389
 20
2.8885802402
 30
0.0
 11
90.7982178739
 21
3.8455002136
 31
0.0
  0
LINE
  5
A7
330
7B
100
AcDbEntity
  8
0
  6
Continuous
 62
   179
370
    18
100
AcDbLine
 10
76.6545490427
 20
5.8693097374
 30
0.0
 11
78.0344191726
 21
3.5235305166
 31
0.0
  0
LINE
  5
A8
330
7B
100
AcDbEntity
  8
0
  6
Continuous
 62
   179
370
    18
100
AcDbLine
 10
91.5327615373
 20
4.6257342197
 30
0.0
 11
90.9577457715
 21
13.4579763825
 31
0.0
  0
LINE
  5
A9
330
7B
100
AcDbEntity
  8
0
  6
Continuous
 62
   179
370
    18
100
AcDbLine
 10
78.6309362756
 20
12.8788539549
 30
0.0
 11
78.8360757629
 21
3.6475770268
 31
0.0
  0
LINE
  5
AA
330
7B
100
AcDbEntity
  8
0
  6
Continuous
 62
   179
370
    18
100
AcDbLine
 10
80.4094186633
 20
4.6950685544
 30
0.0
 11
90.1819221045
 21
5.4824266516
 31
0.0
  0
LINE
  5
AB
330
7B
100
AcDbEntity
  8
0
  6
Continuous
 62
   179
370
    18
100
AcDbLine
 10
79.1595373973
 20
3.3551666867
 30
0.0
 11
91.2569309872
 21
4.3071688694
 31
0.0
  0
LINE
  5
AC
330
7B
100
AcDbEntity
  8
0
  6
Continuous
 62
   179
370
    18
100
AcDbLine
 10
79.2585043218
 20
2.925017226
 30
0.0
 11
80.4858981444
 21
1.533240302
 31
0.0
  0
LINE
  5
AD
330
7B
100
AcDbEntity
  8
0
  6
Continuous
 62
   179
370
    18
100
AcDbLine
 10
78.0344191726
 20
3.5235305166
 30
0.0
 11
78.3638740472
 21
3.1446574108
 31
0.0
  0
LINE
  5
AE
330
7B
100
AcDbEntity
  8
0
  6
Continuous
 62
   179
370
    18
100
AcDbLine
 10
78.3638740472
 20
3.1446574108
 30
0.0
 11
78.4680611395
 21
3.0248422547
 31
0.0
  0
LINE
  5
AF
330
7B
100
AcDbEntity
  8
0
  6
Continuous
 62
   179
370
    18
100
AcDbLine
 10
81.3414110113
 20
1.2002475785
 30
0.0
 11
89.3291569519
 21
2.0477010263
 31
0.0
  0
LINE
  5
B0
330
7B
100
AcDbEntity
  8
0
  6
Continuous
 62
   179
370
    18
100
AcDbLine
 10
89.8661472522
 20
2.5197759309
 30
0.0
 11
89.8661472522
 21
2.3090867337
 31
0.0
  0
LINE
  5
B1
330
7B
100
AcDbEntity
  8
0
  6
Continuous
 62
   179
370
    18
100
AcDbLine
 10
88.676842368
 20
3.6762854359
 30
0.0
 11
89.6713239345
 21
2.7875997807
 31
0.0
  0
LINE
  5
B2
330
7B
100
AcDbEntity
  8
0
  6
Continuous
 62
   179
370
    18
100
AcDbLine
 10
89.6713239345
 20
2.7875997807
 30
0.0
 11
89.7459749087
 21
2.7242700694
 31
0.0
  0
LINE
  5
B3
330
7B
100
AcDbEntity
  8
0
  6
Continuous
 62
   179
370
    18
100
AcDbLine
 10
90.7982178739
 20
3.8455002136
 30
0.0
 11
91.3961615969
 21
4.3514525945
 31
0.0
  0
LINE
  5
B4
330
7B
100
AcDbEntity
  8
0
  6
Continuous
 62
   179
370
    18
100
AcDbLine
 10
90.6442498554
 20
13.7381534621
 30
0.0
 11
78.1502930503
 21
13.1490474438
 31
0.0
  0
LINE
  5
B5
330
7B
100
AcDbEntity
  8
0
  6
Continuous
 62
   179
370
    18
100
AcDbLine
 10
80.1347709981
 20
12.2388892068
 30
0.0
 11
89.8487925667
 21
12.7550932515
 31
0.0
  0
LINE
  5
B6
330
7B
100
AcDbEntity
  8
0
  6
Continuous
 62
   179
370
    18
100
AcDbLine
 10
76.4935641943
 20
11.7567556248
 30
0.0
 11
76.6545490427
 21
5.8693097374
 31
0.0
  0
LINE
  5
B7
330
7B
100
AcDbEntity
  8
0
  6
Continuous
 62
   179
370
    18
100
AcDbLine
 10
79.8508616208
 20
11.929182536
 30
0.0
 11
80.0854971721
 21
4.9839702153
 31
0.0
  0
LINE
  5
B8
330
7B
100
AcDbEntity
  8
0
  6
Continuous
 62
   179
370
    18
100
AcDbLine
 10
80.5293311574
 20
9.7310185051
 30
0.0
 11
80.6057415643
 21
7.4769115
 31
0.0
  0
LINE
  5
B9
330
7B
100
AcDbEntity
  8
0
  6
Continuous
 62
   179
370
    18
100
AcDbLine
 10
77.507650604
 20
12.7708420346
 30
0.0
 11
76.4935641943
 21
11.7567556248
 31
0.0
  0
LINE
  5
BA
330
7B
100
AcDbEntity
  8
0
  6
Continuous
 62
   179
370
    18
100
AcDbLine
 10
86.8848195129
 20
11.0661568594
 30
0.0
 11
88.6742167283
 21
11.1634880887
 31
0.0
  0
LINE
  5
BB
330
7B
100
AcDbEntity
  8
0
  6
Continuous
 62
   179
370
    18
100
AcDbLine
 10
87.0766213517
 20
6.9287171941
 30
0.0
 11
88.90708891
 21
7.0695223909
 31
0.0
  0
LINE
  5
BC
330
7B
100
AcDbEntity
  8
0
  6
Continuous
 62
   179
370
    18
100
AcDbLine
 10
87.6830038473
 20
7.6147347768
 30
0.0
 11
88.8536252418
 21
7.7047825764
 31
0.0
  0
LINE
  5
BD
330
7B
100
AcDbEntity
  8
0
  6
Continuous
 62
   179
370
    18
100
AcDbLine
 10
87.5509212094
 20
10.4639459651
 30
0.0
 11
88.7088412777
 21
10.5269290651
 31
0.0
  0
LINE
  5
BE
330
7B
100
AcDbEntity
  8
0
  6
Continuous
 62
   179
370
    18
100
AcDbLine
 10
87.0766218384
 20
6.9287066941
 30
0.0
 11
86.8848195129
 21
11.0661568594
 31
0.0
  0
LINE
  5
BF
330
7B
100
AcDbEntity
  8
0
  6
Continuous
 62
   179
370
    18
100
AcDbLine
 10
83.7004598825
 20
6.6667911093
 30
0.0
 11
84.5054929504
 21
10.9267193262
 31
0.0
  0
LINE
  5
C0
330
7B
100
AcDbEntity
  8
0
  6
Continuous
 62
   179
370
    18
100
AcDbLine
 10
85.3543248406
 20
10.9728900984
 30
0.0
 11
86.4940946704
 21
6.8816860929
 31
0.0
  0
LINE
  5
C1
330
7B
100
AcDbEntity
  8
0
  6
Continuous
 62
   179
370
    18
100
AcDbLine
 10
84.9728575427
 20
9.9667192298
 30
0.0
 11
85.4540299774
 21
8.2395506903
 31
0.0
  0
LINE
  5
C2
330
7B
100
AcDbEntity
  8
0
  6
Continuous
 62
   179
370
    18
100
AcDbLine
 10
84.6363094629
 20
8.1858350416
 30
0.0
 11
84.9728575427
 21
9.9667192298
 31
0.0
  0
LINE
  5
C3
330
7B
100
AcDbEntity
  8
0
  6
Continuous
 62
   179
370
    18
100
AcDbLine
 10
87.6830038473
 20
7.6147347768
 30
0.0
 11
87.5509212094
 21
10.4639459651
 31
0.0
  0
LINE
  5
C4
330
7B
100
AcDbEntity
  8
0
  6
Continuous
 62
   179
370
    18
100
AcDbLine
 10
84.6363094629
 20
8.1858350416
 30
0.0
 11
85.4540299774
 21
8.2395506903
 31
0.0
  0
LINE
  5
C5
330
7B
100
AcDbEntity
  8
0
  6
Continuous
 62
   179
370
    18
100
AcDbLine
 10
84.5140586807
 20
7.5389304886
 30
0.0
 11
85.6288154243
 21
7.6121582976
 31
0.0
  0
LINE
  5
C6
330
7B
100
AcDbEntity
  8
0
  6
Continuous
 62
   179
370
    18
100
AcDbLine
 10
84.3588137958
 20
6.717433718
 30
0.0
 11
84.5140586807
 21
7.5389304886
 31
0.0
  0
LINE
  5
C7
330
7B
100
AcDbEntity
  8
0
  6
Continuous
 62
   179
370
    18
100
AcDbLine
 10
81.6818640104
 20
6.5137358601
 30
0.0
 11
82.4802416972
 21
6.5751495283
 31
0.0
  0
LINE
  5
C8
330
7B
100
AcDbEntity
  8
0
  6
Continuous
 62
   179
370
    18
100
AcDbLine
 10
81.6329699923
 20
7.1493580946
 30
0.0
 11
82.4313476791
 21
7.2107717628
 31
0.0
  0
LINE
  5
C9
330
7B
100
AcDbEntity
  8
0
  6
Continuous
 62
   179
370
    18
100
AcDbLine
 10
83.7004598825
 20
6.6667911093
 30
0.0
 11
84.3588137958
 21
6.717433718
 31
0.0
  0
LINE
  5
CA
330
7B
100
AcDbEntity
  8
0
  6
Continuous
 62
   179
370
    18
100
AcDbLine
 10
82.7059483815
 20
9.3512024135
 30
0.0
 11
83.3423973297
 21
9.3930104243
 31
0.0
  0
LINE
  5
CB
330
7B
100
AcDbEntity
  8
0
  6
Continuous
 62
   179
370
    18
100
AcDbLine
 10
82.7491656358
 20
8.0762934118
 30
0.0
 11
83.385614584
 21
8.1181014226
 31
0.0
  0
LINE
  5
CC
330
7B
100
AcDbEntity
  8
0
  6
Continuous
 62
   179
370
    18
100
AcDbLine
 10
81.1664651987
 20
9.7526162692
 30
0.0
 11
81.2428756056
 21
7.4985092641
 31
0.0
  0
LINE
  5
CD
330
7B
100
AcDbEntity
  8
0
  6
Continuous
 62
   179
370
    18
100
AcDbLine
 10
82.6900353128
 20
9.8206379383
 30
0.0
 11
82.7052632884
 21
9.3714126602
 31
0.0
  0
LINE
  5
CE
330
7B
100
AcDbEntity
  8
0
  6
Continuous
 62
   179
370
    18
100
AcDbLine
 10
82.7491656358
 20
8.0762934118
 30
0.0
 11
82.7658371041
 21
7.5844850954
 31
0.0
  0
LINE
  5
CF
330
7B
100
AcDbEntity
  8
0
  6
Continuous
 62
   179
370
    18
100
AcDbLine
 10
83.3271693541
 20
9.8422357024
 30
0.0
 11
83.3423973297
 21
9.3930104243
 31
0.0
  0
LINE
  5
D0
330
7B
100
AcDbEntity
  8
0
  6
Continuous
 62
   179
370
    18
100
AcDbLine
 10
83.385614584
 20
8.1181014226
 30
0.0
 11
83.4029711454
 21
7.6060828595
 31
0.0
  0
LINE
  5
D1
330
7B
100
AcDbEntity
  8
0
  6
Continuous
 62
   179
370
    18
100
AcDbLine
 10
85.6288154243
 20
7.6121582976
 30
0.0
 11
85.8462022593
 21
6.8318482152
 31
0.0
  0
LINE
  5
D2
330
7B
100
AcDbEntity
  8
0
  6
Continuous
 62
   179
370
    18
100
AcDbLine
 10
85.8462022593
 20
6.8318482152
 30
0.0
 11
86.4940946704
 21
6.8816860929
 31
0.0
  0
LINE
  5
D3
330
7B
100
AcDbEntity
  8
0
  6
Continuous
 62
   179
370
    18
100
AcDbLine
 10
84.5054929504
 20
10.9267193262
 30
0.0
 11
85.3543248406
 21
10.9728900984
 31
0.0
  0
LINE
  5
D4
330
7B
100
AcDbEntity
  8
0
  6
Continuous
 62
   179
370
    18
100
AcDbLine
 10
81.4744440858
 20
10.7634213094
 30
0.0
 11
82.2734303883
 21
10.8068808154
 31
0.0
  0
LINE
  5
D5
330
7B
100
AcDbEntity
  8
0
  6
Continuous
 62
   179
370
    18
100
AcDbLine
 10
81.5090686352
 20
10.1268622858
 30
0.0
 11
82.3080549377
 21
10.1703217918
 31
0.0
  0
LINE
  5
D6
330
7B
100
AcDbEntity
  8
0
  6
Continuous
 62
   179
370
    18
100
AcDbLine
 10
90.4575406452
 20
5.7946206556
 30
0.0
 11
90.1644232213
 21
12.4686789239
 31
0.0
  0
LINE
  5
D7
330
7B
100
AcDbEntity
  8
0
  6
Continuous
 62
   179
370
    18
100
AcDbLine
 10
89.8247499755
 20
8.1125227115
 30
0.0
 11
89.7274569615
 21
10.2112720142
 31
0.0
  0
LINE
  5
D8
330
7B
100
AcDbEntity
  8
0
  6
Continuous
 62
   179
370
    18
100
AcDbLine
 10
89.1879338763
 20
8.0830014354
 30
0.0
 11
89.0906408622
 21
10.181750738
 31
0.0
  0
LINE
  5
D9
330
7B
100
AcDbEntity
  8
0
  6
Continuous
 62
   179
370
    18
100
AcDbLine
 10
89.7459749087
 20
2.7242700694
 30
0.0
 11
89.7974962577
 21
2.6659765769
 31
0.0
  0
LINE
  5
DA
330
7B
100
AcDbEntity
  8
0
  6
Continuous
 62
   179
370
    18
100
AcDbLine
 10
89.7974962577
 20
2.6659765769
 30
0.0
 11
89.8351851379
 21
2.60192886
 31
0.0
  0
LINE
  5
DB
330
7B
100
AcDbEntity
  8
0
  6
Continuous
 62
   179
370
    18
100
AcDbLine
 10
89.8351851379
 20
2.60192886
 30
0.0
 11
89.8661472522
 21
2.5197759309
 31
0.0
  0
LINE
  5
DC
330
7B
100
AcDbEntity
  8
0
  6
Continuous
 62
   179
370
    18
100
AcDbLine
 10
10.6119938288
 20
7.2203138351
 30
0.0
 11
11.2200151261
 21
7.5713550947
 31
0.0
  0
LINE
  5
DD
330
7B
100
AcDbEntity
  8
0
  6
Continuous
 62
   179
370
    18
100
AcDbLine
 10
11.2347279503
 20
5.2647430194
 30
0.0
 11
10.6267781168
 21
5.6157430194
 31
0.0
  0
LINE
  5
DE
330
7B
100
AcDbEntity
  8
0
  6
Continuous
 62
   179
370
    18
100
AcDbLine
 10
6.4645062371
 20
16.1712617198
 30
0.0
 11
6.4645062371
 21
2.9364593988
 31
0.0
  0
LINE
  5
DF
330
7B
100
AcDbEntity
  8
0
  6
Continuous
 62
   179
370
    18
100
AcDbLine
 10
6.4645062371
 20
2.9364593988
 30
0.0
 11
12.0532757459
 21
2.9364593988
 31
0.0
  0
LINE
  5
E0
330
7B
100
AcDbEntity
  8
0
  6
Continuous
 62
   179
370
    18
100
AcDbLine
 10
12.0532757459
 20
2.9364593988
 30
0.0
 11
12.0532757459
 21
16.1712617198
 31
0.0
  0
LINE
  5
E1
330
7B
100
AcDbEntity
  8
0
  6
Continuous
 62
   179
370
    18
100
AcDbLine
 10
12.0532757459
 20
16.1712617198
 30
0.0
 11
6.4645062371
 21
16.1712617198
 31
0.0
  0
LINE
  5
E2
330
7B
100
AcDbEntity
  8
0
  6
Continuous
 62
   179
370
    18
100
AcDbLine
 10
0.0
 20
16.1712617198
 30
0.0
 11
0.0
 21
2.9364593988
 31
0.0
  0
LINE
  5
E3
330
7B
100
AcDbEntity
  8
0
  6
Continuous
 62
   179
370
    18
100
AcDbLine
 10
0.0
 20
2.9364593988
 30
0.0
 11
5.5887695089
 21
2.9364593988
 31
0.0
  0
LINE
  5
E4
330
7B
100
AcDbEntity
  8
0
  6
Continuous
 62
   179
370
    18
100
AcDbLine
 10
5.5887695089
 20
2.9364593988
 30
0.0
 11
5.5887695089
 21
16.1712617198
 31
0.0
  0
LINE
  5
E5
330
7B
100
AcDbEntity
  8
0
  6
Continuous
 62
   179
370
    18
100
AcDbLine
 10
5.5887695089
 20
16.1712617198
 30
0.0
 11
0.0
 21
16.1712617198
 31
0.0
  0
LINE
  5
E6
330
7B
100
AcDbEntity
  8
0
  6
Continuous
 62
   179
370
    18
100
AcDbLine
 10
1.2591262606
 20
4.7264381407
 30
0.0
 11
4.3296432482
 21
4.7264381407
 31
0.0
  0
LINE
  5
E7
330
7B
100
AcDbEntity
  8
0
  6
Continuous
 62
   179
370
    18
100
AcDbLine
 10
4.3738223747
 20
4.0932862697
 30
0.0
 11
5.0758301722
 21
4.0932862697
 31
0.0
  0
LINE
  5
E8
330
7B
100
AcDbEntity
  8
0
  6
Continuous
 62
   179
370
    18
100
AcDbLine
 10
0.5129393366
 20
4.0932862697
 30
0.0
 11
1.2149471342
 21
4.0932862697
 31
0.0
  0
LINE
  5
E9
330
7B
100
AcDbEntity
  8
0
  6
Continuous
 62
   179
370
    18
100
AcDbLine
 10
4.1819643097
 20
5.4284381407
 30
0.0
 11
1.4068051992
 21
5.4284381407
 31
0.0
  0
LINE
  5
EA
330
7B
100
AcDbEntity
  8
0
  6
Continuous
 62
   179
370
    18
100
AcDbLine
 10
18.517781983
 20
16.1712617198
 30
0.0
 11
18.517781983
 21
2.9364593988
 31
0.0
  0
LINE
  5
EB
330
7B
100
AcDbEntity
  8
0
  6
Continuous
 62
   179
370
    18
100
AcDbLine
 10
18.517781983
 20
2.9364593988
 30
0.0
 11
12.9290124742
 21
2.9364593988
 31
0.0
  0
LINE
  5
EC
330
7B
100
AcDbEntity
  8
0
  6
Continuous
 62
   179
370
    18
100
AcDbLine
 10
12.9290124742
 20
2.9364593988
 30
0.0
 11
12.9290124742
 21
16.1712617198
 31
0.0
  0
LINE
  5
ED
330
7B
100
AcDbEntity
  8
0
  6
Continuous
 62
   179
370
    18
100
AcDbLine
 10
12.9290124742
 20
16.1712617198
 30
0.0
 11
18.517781983
 21
16.1712617198
 31
0.0
  0
INSERT
  5
F3
330
7B
100
AcDbEntity
  8
0
  6
Continuous
 62
     7
370
     0
100
AcDbBlockReference
  2
SW_NOTE_0
 10
1.8998941161
 20
-0.3226565443
 30
0.0
  0
INSERT
  5
F8
330
7B
100
AcDbEntity
  8
0
  6
Continuous
 62
     7
370
     0
100
AcDbBlockReference
  2
SW_NOTE_0_1
 10
29.1164837035
 20
12.7459167441
 30
0.0
  0
INSERT
  5
100
330
7B
100
AcDbEntity
  8
0
  6
Continuous
 62
     7
370
     0
100
AcDbBlockReference
  2
SW_NOTE_0_2
 10
28.8863479825
 20
8.6365742194
 30
0.0
  0
ENDBLK
  5
7D
330
7B
100
AcDbEntity
  8
0
100
AcDbBlockEnd
  0
BLOCK
  5
EF
330
EE
100
AcDbEntity
  8
0
100
AcDbBlockBegin
  2
SW_NOTE_0
 70
     0
 10
0.0
 20
0.0
 30
0.0
  3
SW_NOTE_0
  1

  0
MTEXT
  5
F2
330
EE
100
AcDbEntity
  8
0
  6
Continuous
 62
     0
370
     0
100
AcDbMText
 10
7.46875
 20
2.5781354795
 30
0.0
 40
2.0
 41
0.0
 71
     2
 72
     1
  1
www.aco.ch
  7
SLDTEXTSTYLE0
 73
     1
 44
1.0
  0
ENDBLK
  5
F0
330
EE
100
AcDbEntity
  8
0
100
AcDbBlockEnd
  0
BLOCK
  5
F5
330
F4
100
AcDbEntity
  8
0
100
AcDbBlockBegin
  2
SW_NOTE_0_1
 70
     0
 10
0.0
 20
0.0
 30
0.0
  3
SW_NOTE_0_1
  1

  0
MTEXT
  5
F7
330
F4
100
AcDbEntity
  8
0
  6
Continuous
 62
     0
370
     0
100
AcDbMText
 10
0.0
 20
3.8672032193
 30
0.0
 40
3.0
 41
0.0
 71
     1
 72
     1
  1
ACO AG
  7
SLDTEXTSTYLE0
 73
     1
 44
1.0
  0
ENDBLK
  5
F6
330
F4
100
AcDbEntity
  8
0
100
AcDbBlockEnd
  0
BLOCK
  5
FA
330
F9
100
AcDbEntity
  8
0
100
AcDbBlockBegin
  2
SW_NOTE_0_2
 70
     0
 10
0.0
 20
0.0
 30
0.0
  3
SW_NOTE_0_2
  1

  0
MTEXT
  5
FC
330
F9
100
AcDbEntity
  8
0
  6
Continuous
 62
     0
370
     0
100
AcDbMText
 10
0.0
 20
2.5781354795
 30
0.0
 40
2.0
 41
0.0
 71
     1
 72
     1
  1
Industrie Kleinzaun
  7
SLDTEXTSTYLE0
 73
     1
 44
1.0
  0
MTEXT
  5
FD
330
F9
100
AcDbEntity
  8
0
  6
Continuous
 62
     0
370
     0
100
AcDbMText
 10
0.0
 20
-0.4218645465
 30
0.0
 40
2.0
 41
0.0
 71
     1
 72
     1
  1
CH-8754 Netstal
  7
SLDTEXTSTYLE0
 73
     1
 44
1.0
  0
MTEXT
  5
FE
330
F9
100
AcDbEntity
  8
0
  6
Continuous
 62
     0
370
     0
100
AcDbMText
 10
0.0
 20
-3.4218645726
 30
0.0
 40
2.0
 41
0.0
 71
     1
 72
     1
  1
Tel. 055 / 645 53 00
  7
SLDTEXTSTYLE0
 73
     1
 44
1.0
  0
MTEXT
  5
FF
330
F9
100
AcDbEntity
  8
0
  6
Continuous
 62
     0
370
     0
100
AcDbMText
 10
0.0
 20
-6.4218645987
 30
0.0
 40
2.0
 41
0.0
 71
     1
 72
     1
  1
E-Mail: aco@aco.ch
  7
SLDTEXTSTYLE0
 73
     1
 44
1.0
  0
ENDBLK
  5
FB
330
F9
100
AcDbEntity
  8
0
100
AcDbBlockEnd
  0
BLOCK
  5
179
330
178
100
AcDbEntity
  8
0
100
AcDbBlockBegin
  2
SW_NOTE_0_3
 70
     0
 10
0.0
 20
0.0
 30
0.0
  3
SW_NOTE_0_3
  1

  0
MTEXT
  5
17B
330
178
100
AcDbEntity
  8
0
  6
Continuous
 62
     0
370
     0
100
AcDbMText
 10
0.0
 20
1.9336016097
 30
0.0
 40
1.5
 41
0.0
 71
     1
 72
     1
  1
Diese Zeichnung darf weder kopiert
  7
SLDTEXTSTYLE0
 73
     1
 44
1.0
  0
MTEXT
  5
17C
330
178
100
AcDbEntity
  8
0
  6
Continuous
 62
     0
370
     0
100
AcDbMText
 10
0.0
 20
-0.5663983345
 30
0.0
 40
1.5
 41
0.0
 71
     1
 72
     1
  1
noch dritten Personen, insbesondere
  7
SLDTEXTSTYLE0
 73
     1
 44
1.0
  0
MTEXT
  5
17D
330
178
100
AcDbEntity
  8
0
  6
Continuous
 62
     0
370
     0
100
AcDbMText
 10
0.0
 20
-3.0663982786
 30
0.0
 40
1.5
 41
0.0
 71
     1
 72
     1
  1
zum Zweck anderweitiger Benutzung
  7
SLDTEXTSTYLE0
 73
     1
 44
1.0
  0
MTEXT
  5
17E
330
178
100
AcDbEntity
  8
0
  6
Continuous
 62
     0
370
     0
100
AcDbMText
 10
0.0
 20
-5.5663982227
 30
0.0
 40
1.5
 41
0.0
 71
     1
 72
     1
  1
mitgeteilt werden und bleibt unser
  7
SLDTEXTSTYLE0
 73
     1
 44
1.0
  0
MTEXT
  5
17F
330
178
100
AcDbEntity
  8
0
  6
Continuous
 62
     0
370
     0
100
AcDbMText
 10
0.0
 20
-8.0663981668
 30
0.0
 40
1.5
 41
0.0
 71
     1
 72
     1
  1
Eigentum.
  7
SLDTEXTSTYLE0
 73
     1
 44
1.0
  0
ENDBLK
  5
17A
330
178
100
AcDbEntity
  8
0
100
AcDbBlockEnd
  0
BLOCK
  5
205
330
204
100
AcDbEntity
  8
0
100
AcDbBlockBegin
  2
SW_CENTERMARKSYMBOL_0
 70
     0
 10
0.0
 20
0.0
 30
0.0
  3
SW_CENTERMARKSYMBOL_0
  1

  0
LINE
  5
207
330
204
100
AcDbEntity
  8
0
  6
Continuous
 62
     0
370
    18
100
AcDbLine
 10
0.0
 20
0.0
 30
0.0
 11
0.0
 21
2.5
 31
0.0
  0
LINE
  5
208
330
204
100
AcDbEntity
  8
0
  6
Continuous
 62
     0
370
    18
100
AcDbLine
 10
0.0
 20
0.0
 30
0.0
 11
-2.5
 21
0.0
 31
0.0
  0
LINE
  5
209
330
204
100
AcDbEntity
  8
0
  6
Continuous
 62
     0
370
    18
100
AcDbLine
 10
0.0
 20
0.0
 30
0.0
 11
0.0
 21
-2.5
 31
0.0
  0
LINE
  5
20A
330
204
100
AcDbEntity
  8
0
  6
Continuous
 62
     0
370
    18
100
AcDbLine
 10
0.0
 20
0.0
 30
0.0
 11
2.5
 21
0.0
 31
0.0
  0
LINE
  5
20B
330
204
100
AcDbEntity
  8
0
  6
Continuous
 62
     0
370
    18
100
AcDbLine
 10
0.0
 20
5.0
 30
0.0
 11
0.0
 21
46.1
 31
0.0
  0
LINE
  5
20C
330
204
100
AcDbEntity
  8
0
  6
Continuous
 62
     0
370
    18
100
AcDbLine
 10
-5.0
 20
0.0
 30
0.0
 11
-46.1
 21
0.0
 31
0.0
  0
LINE
  5
20D
330
204
100
AcDbEntity
  8
0
  6
Continuous
 62
     0
370
    18
100
AcDbLine
 10
0.0
 20
-5.0
 30
0.0
 11
0.0
 21
-46.1
 31
0.0
  0
LINE
  5
20E
330
204
100
AcDbEntity
  8
0
  6
Continuous
 62
     0
370
    18
100
AcDbLine
 10
5.0
 20
0.0
 30
0.0
 11
46.1
 21
0.0
 31
0.0
  0
ENDBLK
  5
206
330
204
100
AcDbEntity
  8
0
100
AcDbBlockEnd
  0
BLOCK
  5
218
330
217
100
AcDbEntity
  8
0
100
AcDbBlockBegin
  2
SW_BROKEN_VIEW_0
 70
     0
 10
0.0
 20
0.0
 30
0.0
  3
SW_BROKEN_VIEW_0
  1

  0
ENDBLK
  5
219
330
217
100
AcDbEntity
  8
0
100
AcDbBlockEnd
  0
BLOCK
  5
32C
330
32B
100
AcDbEntity
  8
0
100
AcDbBlockBegin
  2
_D
 70
     0
 10
0.0
 20
0.0
 30
0.0
  3
_D
  1

  0
SOLID
  5
32E
330
32B
100
AcDbEntity
  8
0
  6
Continuous
 62
     7
370
    18
100
AcDbTrace
 10
108.8925921497
 20
126.3926189312
 30
0.0
 11
112.3925921497
 21
125.8541573927
 31
0.0
 12
112.3925921497
 22
126.9310804697
 32
0.0
 13
112.3925921497
 23
126.9310804697
 33
0.0
  0
SOLID
  5
32F
330
32B
100
AcDbEntity
  8
0
  6
Continuous
 62
     7
370
    18
100
AcDbTrace
 10
183.8925921497
 20
126.3926189312
 30
0.0
 11
180.3925921497
 21
126.9310804697
 31
0.0
 12
180.3925921497
 22
125.8541573927
 32
0.0
 13
180.3925921497
 23
125.8541573927
 33
0.0
  0
LINE
  5
330
330
32B
100
AcDbEntity
  8
0
  6
Continuous
 62
     7
370
     0
100
AcDbLine
 10
108.8925921497
 20
142.290238964
 30
0.0
 11
108.8925921497
 21
125.3926189312
 31
0.0
  0
LINE
  5
331
330
32B
100
AcDbEntity
  8
0
  6
Continuous
 62
     7
370
     0
100
AcDbLine
 10
183.8925921497
 20
142.290238964
 30
0.0
 11
183.8925921497
 21
125.3926189312
 31
0.0
  0
LINE
  5
332
330
32B
100
AcDbEntity
  8
0
  6
Continuous
 62
     7
370
     0
100
AcDbLine
 10
108.8925921497
 20
126.3926189312
 30
0.0
 11
183.8925921497
 21
126.3926189312
 31
0.0
  0
MTEXT
  5
333
330
32B
100
AcDbEntity
  8
0
  6
Continuous
 62
     7
370
    18
100
AcDbMText
 10
141.167505565
 20
130.9043560204
 30
0.0
 40
3.5
 41
0.0
 71
     1
 72
     1
  1
%%c
  7
SLDTEXTSTYLE0
 73
     1
 44
1.0
  0
MTEXT
  5
334
330
32B
100
AcDbEntity
  8
0
  6
Continuous
 62
     7
370
    18
100
AcDbMText
 10
146.2704571103
 20
130.9140783296
 30
0.0
 40
3.5
 41
0.0
 71
     1
 72
     1
  1
75
  7
SLDTEXTSTYLE0
 73
     1
 44
1.0
  0
ENDBLK
  5
32D
330
32B
100
AcDbEntity
  8
0
100
AcDbBlockEnd
  0
BLOCK
  5
337
330
336
100
AcDbEntity
  8
0
100
AcDbBlockBegin
  2
_D_1
 70
     0
 10
0.0
 20
0.0
 30
0.0
  3
_D_1
  1

  0
SOLID
  5
339
330
336
100
AcDbEntity
  8
0
  6
Continuous
 62
     7
370
    18
100
AcDbTrace
 10
199.9925921497
 20
136.4493609166
 30
0.0
 11
200.5310536882
 21
139.9493609166
 31
0.0
 12
199.4541306113
 22
139.9493609166
 32
0.0
 13
199.4541306113
 23
139.9493609166
 33
0.0
  0
SOLID
  5
33A
330
336
100
AcDbEntity
  8
0
  6
Continuous
 62
     7
370
    18
100
AcDbTrace
 10
199.9925921497
 20
254.2786346188
 30
0.0
 11
199.4541306113
 21
250.7786346188
 31
0.0
 12
200.5310536882
 22
250.7786346188
 32
0.0
 13
200.5310536882
 23
250.7786346188
 33
0.0
  0
LINE
  5
33B
330
336
100
AcDbEntity
  8
0
  6
Continuous
 62
     7
370
     0
100
AcDbLine
 10
182.5725921497
 20
136.4493609166
 30
0.0
 11
200.9925921497
 21
136.4493609166
 31
0.0
  0
LINE
  5
33C
330
336
100
AcDbEntity
  8
0
  6
Continuous
 62
     7
370
     0
100
AcDbLine
 10
185.4925921497
 20
254.2786346189
 30
0.0
 11
200.9925921497
 21
254.2786346188
 31
0.0
  0
LINE
  5
33D
330
336
100
AcDbEntity
  8
0
  6
Continuous
 62
     7
370
     0
100
AcDbLine
 10
199.9925921497
 20
136.4493609166
 30
0.0
 11
199.9925921497
 21
254.2786346188
 31
0.0
  0
MTEXT
  5
33E
330
336
100
AcDbEntity
  8
0
  6
Continuous
 62
     7
370
    18
100
AcDbMText
 10
195.4808548277
 20
191.3535812004
 30
0.0
 40
3.5
 41
0.0
 71
     1
 72
     1
  1
550
  7
SLDTEXTSTYLE0
 11
1.077528657285976E-13
 21
1.0
 31
0.0
 73
     1
 44
1.0
  0
ENDBLK
  5
338
330
336
100
AcDbEntity
  8
0
100
AcDbBlockEnd
  0
BLOCK
  5
341
330
340
100
AcDbEntity
  8
0
100
AcDbBlockBegin
  2
_D_2
 70
     0
 10
0.0
 20
0.0
 30
0.0
  3
_D_2
  1

  0
SOLID
  5
343
330
340
100
AcDbEntity
  8
0
  6
Continuous
 62
     7
370
    18
100
AcDbTrace
 10
108.3925921497
 20
264.3082958962
 30
0.0
 11
111.8925921497
 21
263.7698343577
 31
0.0
 12
111.8925921497
 22
264.8467574346
 32
0.0
 13
111.8925921497
 23
264.8467574346
 33
0.0
  0
SOLID
  5
344
330
340
100
AcDbEntity
  8
0
  6
Continuous
 62
     7
370
    18
100
AcDbTrace
 10
184.3925921497
 20
264.3082958962
 30
0.0
 11
180.8925921497
 21
264.8467574346
 31
0.0
 12
180.8925921497
 22
263.7698343577
 32
0.0
 13
180.8925921497
 23
263.7698343577
 33
0.0
  0
LINE
  5
345
330
340
100
AcDbEntity
  8
0
  6
Continuous
 62
     7
370
     0
100
AcDbLine
 10
108.3925921497
 20
254.3786346189
 30
0.0
 11
108.3925921497
 21
265.3082958962
 31
0.0
  0
LINE
  5
346
330
340
100
AcDbEntity
  8
0
  6
Continuous
 62
     7
370
     0
100
AcDbLine
 10
184.3925921497
 20
254.3786346189
 30
0.0
 11
184.3925921497
 21
265.3082958962
 31
0.0
  0
LINE
  5
347
330
340
100
AcDbEntity
  8
0
  6
Continuous
 62
     7
370
     0
100
AcDbLine
 10
108.3925921497
 20
264.3082958962
 30
0.0
 11
184.3925921497
 21
264.3082958962
 31
0.0
  0
MTEXT
  5
348
330
340
100
AcDbEntity
  8
0
  6
Continuous
 62
     7
370
    18
100
AcDbMText
 10
141.167505565
 20
268.8200329854
 30
0.0
 40
3.5
 41
0.0
 71
     1
 72
     1
  1
%%c
  7
SLDTEXTSTYLE0
 73
     1
 44
1.0
  0
MTEXT
  5
349
330
340
100
AcDbEntity
  8
0
  6
Continuous
 62
     7
370
    18
100
AcDbMText
 10
146.2704571103
 20
268.8297552946
 30
0.0
 40
3.5
 41
0.0
 71
     1
 72
     1
  1
76
  7
SLDTEXTSTYLE0
 73
     1
 44
1.0
  0
ENDBLK
  5
342
330
340
100
AcDbEntity
  8
0
100
AcDbBlockEnd
  0
BLOCK
  5
350
330
34F
100
AcDbEntity
  8
0
100
AcDbBlockBegin
  2
SW_HATCH_0
 70
     0
 10
0.0
 20
0.0
 30
0.0
  3
SW_HATCH_0
  1

  0
LINE
  5
352
330
34F
100
AcDbEntity
  8
0
  6
Continuous
 62
     0
370
    18
100
AcDbLine
 10
0.0
 20
0.0
 30
0.0
 11
-0.1660883427
 21
-0.1660883427
 31
0.0
  0
LINE
  5
353
330
34F
100
AcDbEntity
  8
0
  6
Continuous
 62
     0
370
    18
100
AcDbLine
 10
0.8339136839
 20
-1.4111697674
 30
0.0
 11
-0.1660883427
 21
-2.4111568928
 31
0.0
  0
LINE
  5
354
330
34F
100
AcDbEntity
  8
0
  6
Continuous
 62
     0
370
    18
100
AcDbLine
 10
0.8339136839
 20
-3.6562085152
 30
0.0
 11
-0.0786110759
 21
-4.5687556267
 31
0.0
  0
LINE
  5
355
330
34F
100
AcDbEntity
  8
0
  6
Continuous
 62
     0
370
    18
100
AcDbLine
 10
1.4457851648
 20
-5.2894055843
 30
0.0
 11
0.7386021316
 21
-5.9965848923
 31
0.0
  0
LINE
  5
356
330
34F
100
AcDbEntity
  8
0
  6
Continuous
 62
     0
370
    18
100
AcDbLine
 10
2.9791034758
 20
-6.0011744499
 30
0.0
 11
2.1862015128
 21
-6.794065237
 31
0.0
  0
LINE
  5
357
330
34F
100
AcDbEntity
  8
0
  6
Continuous
 62
     0
370
    18
100
AcDbLine
 10
4.4592879713
 20
-6.766051054
 30
0.0
 11
3.7511400878
 21
-7.4741840363
 31
0.0
  0
LINE
  5
358
330
34F
100
AcDbEntity
  8
0
  6
Continuous
 62
     0
370
    18
100
AcDbLine
 10
5.317799747
 20
-8.1526041031
 30
0.0
 11
4.4339112937
 21
-9.0364813805
 31
0.0
  0
LINE
  5
359
330
34F
100
AcDbEntity
  8
0
  6
Continuous
 62
     0
370
    18
100
AcDbLine
 10
5.4339133203
 20
-10.2815330029
 30
0.0
 11
4.4339112937
 21
-11.2815499306
 31
0.0
  0
LINE
  5
35A
330
34F
100
AcDbEntity
  8
0
  6
Continuous
 62
     0
370
    18
100
AcDbLine
 10
5.4339133203
 20
-12.526601553
 30
0.0
 11
4.4339112937
 21
-13.5266184807
 31
0.0
  0
LINE
  5
35B
330
34F
100
AcDbEntity
  8
0
  6
Continuous
 62
     0
370
    18
100
AcDbLine
 10
5.4339133203
 20
-14.7716701031
 30
0.0
 11
4.4339112937
 21
-15.7716572285
 31
0.0
  0
LINE
  5
35C
330
34F
100
AcDbEntity
  8
0
  6
Continuous
 62
     0
370
    18
100
AcDbLine
 10
5.4339133203
 20
-17.0167386532
 30
0.0
 11
4.4339112937
 21
-18.0167257786
 31
0.0
  0
LINE
  5
35D
330
34F
100
AcDbEntity
  8
0
  6
Continuous
 62
     0
370
    18
100
AcDbLine
 10
0.8032657206
 20
-23.8924324512
 30
0.0
 11
0.2572089434
 21
-24.4385004044
 31
0.0
  0
LINE
  5
35E
330
34F
100
AcDbEntity
  8
0
  6
Continuous
 62
     0
370
    18
100
AcDbLine
 10
5.4339133203
 20
-19.2618072033
 30
0.0
 11
4.4339112937
 21
-20.2617943287
 31
0.0
  0
LINE
  5
35F
330
34F
100
AcDbEntity
  8
0
  6
Continuous
 62
     0
370
    18
100
AcDbLine
 10
0.6339140236
 20
-26.3068675995
 30
0.0
 11
-0.3660880029
 21
-27.306869626
 31
0.0
  0
LINE
  5
360
330
34F
100
AcDbEntity
  8
0
  6
Continuous
 62
     0
370
    18
100
AcDbLine
 10
5.4001957178
 20
-21.54058218
 30
0.0
 11
2.8285160661
 21
-24.1122543812
 31
0.0
  0
LINE
  5
361
330
34F
100
AcDbEntity
  8
0
  6
Continuous
 62
     0
370
    18
100
AcDbLine
 10
0.6339140236
 20
-28.5519212484
 30
0.0
 11
-0.3660880029
 21
-29.551923275
 31
0.0
  0
LINE
  5
362
330
34F
100
AcDbEntity
  8
0
  6
Continuous
 62
     0
370
    18
100
AcDbLine
 10
0.6339140236
 20
-30.7969897985
 30
0.0
 11
-0.3660880029
 21
-31.7969918251
 31
0.0
  0
LINE
  5
363
330
34F
100
AcDbEntity
  8
0
  6
Continuous
 62
     0
370
    18
100
AcDbLine
 10
0.6339140236
 20
-33.0420583487
 30
0.0
 11
-0.3660880029
 21
-34.0420603752
 31
0.0
  0
LINE
  5
364
330
34F
100
AcDbEntity
  8
0
  6
Continuous
 62
     0
370
    18
100
AcDbLine
 10
0.6339140236
 20
-35.2871119976
 30
0.0
 11
-0.3660880029
 21
-36.2871140242
 31
0.0
  0
LINE
  5
365
330
34F
100
AcDbEntity
  8
0
  6
Continuous
 62
     0
370
    18
100
AcDbLine
 10
0.6339140236
 20
-37.5321805477
 30
0.0
 11
-0.3660880029
 21
-38.5321825743
 31
0.0
  0
LINE
  5
366
330
34F
100
AcDbEntity
  8
0
  6
Continuous
 62
     0
370
    18
100
AcDbLine
 10
0.6339140236
 20
-39.7772490978
 30
0.0
 11
-0.3660880029
 21
-40.7772511244
 31
0.0
  0
LINE
  5
367
330
34F
100
AcDbEntity
  8
0
  6
Continuous
 62
     0
370
    18
100
AcDbLine
 10
0.6339140236
 20
-42.0223176479
 30
0.0
 11
-0.3660880029
 21
-43.0223047733
 31
0.0
  0
LINE
  5
368
330
34F
100
AcDbEntity
  8
0
  6
Continuous
 62
     0
370
    18
100
AcDbLine
 10
0.6339140236
 20
-44.2673712969
 30
0.0
 11
-0.3660880029
 21
-45.2673733234
 31
0.0
  0
LINE
  5
369
330
34F
100
AcDbEntity
  8
0
  6
Continuous
 62
     0
370
    18
100
AcDbLine
 10
0.6339140236
 20
-46.512439847
 30
0.0
 11
-0.3660880029
 21
-47.5124418736
 31
0.0
  0
LINE
  5
36A
330
34F
100
AcDbEntity
  8
0
  6
Continuous
 62
     0
370
    18
100
AcDbLine
 10
0.6339140236
 20
-48.7575083971
 30
0.0
 11
-0.3660880029
 21
-49.7575104237
 31
0.0
  0
LINE
  5
36B
330
34F
100
AcDbEntity
  8
0
  6
Continuous
 62
     0
370
    18
100
AcDbLine
 10
0.6339140236
 20
-51.0025620461
 30
0.0
 11
-0.4770644009
 21
-52.1135479212
 31
0.0
  0
LINE
  5
36C
330
34F
100
AcDbEntity
  8
0
  6
Continuous
 62
     0
370
    18
100
AcDbLine
 10
0.0404678285
 20
-53.8410693407
 30
0.0
 11
-1.4657080173
 21
-55.3472489119
 31
0.0
  0
LINE
  5
36D
330
34F
100
AcDbEntity
  8
0
  6
Continuous
 62
     0
370
    18
100
AcDbLine
 10
-0.6660856307
 20
-56.79269135
 30
0.0
 11
-1.6660876572
 21
-57.7926933765
 31
0.0
  0
LINE
  5
36E
330
34F
100
AcDbEntity
  8
0
  6
Continuous
 62
     0
370
    18
100
AcDbLine
 10
-0.6660856307
 20
-59.0377599001
 30
0.0
 11
-1.6660876572
 21
-60.0377619267
 31
0.0
  0
LINE
  5
36F
330
34F
100
AcDbEntity
  8
0
  6
Continuous
 62
     0
370
    18
100
AcDbLine
 10
-0.6660856307
 20
-61.2828284502
 30
0.0
 11
-1.6660876572
 21
-62.2828304768
 31
0.0
  0
LINE
  5
370
330
34F
100
AcDbEntity
  8
0
  6
Continuous
 62
     0
370
    18
100
AcDbLine
 10
-0.6660856307
 20
-63.5278820992
 30
0.0
 11
-1.6660876572
 21
-64.5278841257
 31
0.0
  0
LINE
  5
371
330
34F
100
AcDbEntity
  8
0
  6
Continuous
 62
     0
370
    18
100
AcDbLine
 10
-0.6660856307
 20
-65.7729506493
 30
0.0
 11
-1.6660876572
 21
-66.7729526758
 31
0.0
  0
LINE
  5
372
330
34F
100
AcDbEntity
  8
0
  6
Continuous
 62
     0
370
    18
100
AcDbLine
 10
-0.6660856307
 20
-68.0180191994
 30
0.0
 11
-1.6660876572
 21
-69.0180212259
 31
0.0
  0
LINE
  5
373
330
34F
100
AcDbEntity
  8
0
  6
Continuous
 62
     0
370
    18
100
AcDbLine
 10
-0.6660856307
 20
-70.2630728483
 30
0.0
 11
-1.6660876572
 21
-71.2630748749
 31
0.0
  0
LINE
  5
374
330
34F
100
AcDbEntity
  8
0
  6
Continuous
 62
     0
370
    18
100
AcDbLine
 10
-0.6660856307
 20
-72.5081413984
 30
0.0
 11
-1.6660876572
 21
-73.508143425
 31
0.0
  0
LINE
  5
375
330
34F
100
AcDbEntity
  8
0
  6
Continuous
 62
     0
370
    18
100
AcDbLine
 10
-0.6660856307
 20
-74.7532099485
 30
0.0
 11
-1.6660876572
 21
-75.7532119751
 31
0.0
  0
LINE
  5
376
330
34F
100
AcDbEntity
  8
0
  6
Continuous
 62
     0
370
    18
100
AcDbLine
 10
-76.3321742415
 20
0.0
 30
0.0
 11
-77.1660879254
 21
-0.8339285851
 31
0.0
  0
LINE
  5
377
330
34F
100
AcDbEntity
  8
0
  6
Continuous
 62
     0
370
    18
100
AcDbLine
 10
-76.1660858989
 20
-2.0789802074
 30
0.0
 11
-77.1660879254
 21
-3.0789673328
 31
0.0
  0
LINE
  5
378
330
34F
100
AcDbEntity
  8
0
  6
Continuous
 62
     0
370
    18
100
AcDbLine
 10
-80.7653069496
 20
-8.9232623577
 30
0.0
 11
-81.7660875618
 21
-9.9240541458
 31
0.0
  0
LINE
  5
379
330
34F
100
AcDbEntity
  8
0
  6
Continuous
 62
     0
370
    18
100
AcDbLine
 10
-76.2114711106
 20
-4.3694376945
 30
0.0
 11
-78.693266958
 21
-6.8512260914
 31
0.0
  0
LINE
  5
37A
330
34F
100
AcDbEntity
  8
0
  6
Continuous
 62
     0
370
    18
100
AcDbLine
 10
-80.7660855353
 20
-11.1691057682
 30
0.0
 11
-81.7660875618
 21
-12.1691226959
 31
0.0
  0
LINE
  5
37B
330
34F
100
AcDbEntity
  8
0
  6
Continuous
 62
     0
370
    18
100
AcDbLine
 10
-80.7660855353
 20
-13.4141743183
 30
0.0
 11
-81.7660875618
 21
-14.4141614437
 31
0.0
  0
LINE
  5
37C
330
34F
100
AcDbEntity
  8
0
  6
Continuous
 62
     0
370
    18
100
AcDbLine
 10
-80.7660855353
 20
-15.6592428684
 30
0.0
 11
-81.7660875618
 21
-16.6592299938
 31
0.0
  0
LINE
  5
37D
330
34F
100
AcDbEntity
  8
0
  6
Continuous
 62
     0
370
    18
100
AcDbLine
 10
-80.7660855353
 20
-17.9043114185
 30
0.0
 11
-81.7660875618
 21
-18.9042985439
 31
0.0
  0
LINE
  5
37E
330
34F
100
AcDbEntity
  8
0
  6
Continuous
 62
     0
370
    18
100
AcDbLine
 10
-80.7660855353
 20
-20.1493799686
 30
0.0
 11
-81.76555112
 21
-21.1488306522
 31
0.0
  0
LINE
  5
37F
330
34F
100
AcDbEntity
  8
0
  6
Continuous
 62
     0
370
    18
100
AcDbLine
 10
-80.4854221642
 20
-22.1137702465
 30
0.0
 11
-81.2073461711
 21
-22.835701704
 31
0.0
  0
LINE
  5
380
330
34F
100
AcDbEntity
  8
0
  6
Continuous
 62
     0
370
    18
100
AcDbLine
 10
-79.1836902499
 20
-23.057103157
 30
0.0
 11
-79.9675546587
 21
-23.8409638405
 31
0.0
  0
LINE
  5
381
330
34F
100
AcDbEntity
  8
0
  6
Continuous
 62
     0
370
    18
100
AcDbLine
 10
-77.5214284658
 20
-23.6398875713
 30
0.0
 11
-78.27417925
 21
-24.3926346302
 31
0.0
  0
LINE
  5
382
330
34F
100
AcDbEntity
  8
0
  6
Continuous
 62
     0
370
    18
100
AcDbLine
 10
-76.3818696141
 20
-24.7454047203
 30
0.0
 11
-77.1248042583
 21
-25.4883319139
 31
0.0
  0
LINE
  5
383
330
34F
100
AcDbEntity
  8
0
  6
Continuous
 62
     0
370
    18
100
AcDbLine
 10
-75.9660862386
 20
-26.5746861696
 30
0.0
 11
-76.9660882652
 21
-27.5746881962
 31
0.0
  0
LINE
  5
384
330
34F
100
AcDbEntity
  8
0
  6
Continuous
 62
     0
370
    18
100
AcDbLine
 10
-75.9660862386
 20
-28.8197547197
 30
0.0
 11
-76.9660882652
 21
-29.8197567463
 31
0.0
  0
LINE
  5
385
330
34F
100
AcDbEntity
  8
0
  6
Continuous
 62
     0
370
    18
100
AcDbLine
 10
-75.9660862386
 20
-31.0648083687
 30
0.0
 11
-76.9660882652
 21
-32.0648103952
 31
0.0
  0
LINE
  5
386
330
34F
100
AcDbEntity
  8
0
  6
Continuous
 62
     0
370
    18
100
AcDbLine
 10
-75.9660862386
 20
-33.3098769188
 30
0.0
 11
-76.9660882652
 21
-34.3098789454
 31
0.0
  0
LINE
  5
387
330
34F
100
AcDbEntity
  8
0
  6
Continuous
 62
     0
370
    18
100
AcDbLine
 10
-75.9660862386
 20
-35.5549454689
 30
0.0
 11
-76.9660882652
 21
-36.5549474955
 31
0.0
  0
LINE
  5
388
330
34F
100
AcDbEntity
  8
0
  6
Continuous
 62
     0
370
    18
100
AcDbLine
 10
-75.9660862386
 20
-37.7999991179
 30
0.0
 11
-76.9660882652
 21
-38.8000011444
 31
0.0
  0
LINE
  5
389
330
34F
100
AcDbEntity
  8
0
  6
Continuous
 62
     0
370
    18
100
AcDbLine
 10
-75.9660862386
 20
-40.045067668
 30
0.0
 11
-76.9660882652
 21
-41.0450696945
 31
0.0
  0
LINE
  5
38A
330
34F
100
AcDbEntity
  8
0
  6
Continuous
 62
     0
370
    18
100
AcDbLine
 10
-75.9660862386
 20
-42.2901362181
 30
0.0
 11
-76.9660882652
 21
-43.2901382446
 31
0.0
  0
LINE
  5
38B
330
34F
100
AcDbEntity
  8
0
  6
Continuous
 62
     0
370
    18
100
AcDbLine
 10
-75.9660862386
 20
-44.5352047682
 30
0.0
 11
-76.9660882652
 21
-45.5351918936
 31
0.0
  0
LINE
  5
38C
330
34F
100
AcDbEntity
  8
0
  6
Continuous
 62
     0
370
    18
100
AcDbLine
 10
-75.9660862386
 20
-46.7802584171
 30
0.0
 11
-76.9660882652
 21
-47.7802604437
 31
0.0
  0
LINE
  5
38D
330
34F
100
AcDbEntity
  8
0
  6
Continuous
 62
     0
370
    18
100
AcDbLine
 10
-75.9660862386
 20
-49.0253269672
 30
0.0
 11
-76.9660882652
 21
-50.0253289938
 31
0.0
  0
LINE
  5
38E
330
34F
100
AcDbEntity
  8
0
  6
Continuous
 62
     0
370
    18
100
AcDbLine
 10
-75.9660862386
 20
-51.2703955173
 30
0.0
 11
-76.8762044609
 21
-52.1804988384
 31
0.0
  0
LINE
  5
38F
330
34F
100
AcDbEntity
  8
0
  6
Continuous
 62
     0
370
    18
100
AcDbLine
 10
-75.5528435111
 20
-53.1022101641
 30
0.0
 11
-76.3536915183
 21
-53.9030581713
 31
0.0
  0
LINE
  5
390
330
34F
100
AcDbEntity
  8
0
  6
Continuous
 62
     0
370
    18
100
AcDbLine
 10
-75.0271715224
 20
-54.8216104507
 30
0.0
 11
-75.8280195296
 21
-55.6224584579
 31
0.0
  0
LINE
  5
391
330
34F
100
AcDbEntity
  8
0
  6
Continuous
 62
     0
370
    18
100
AcDbLine
 10
-74.6660865843
 20
-56.7055791616
 30
0.0
 11
-75.6660886109
 21
-57.7055811882
 31
0.0
  0
LINE
  5
392
330
34F
100
AcDbEntity
  8
0
  6
Continuous
 62
     0
370
    18
100
AcDbLine
 10
-74.6660865843
 20
-58.9506477118
 30
0.0
 11
-75.6660886109
 21
-59.9506497383
 31
0.0
  0
LINE
  5
393
330
34F
100
AcDbEntity
  8
0
  6
Continuous
 62
     0
370
    18
100
AcDbLine
 10
-74.6660865843
 20
-61.1957162619
 30
0.0
 11
-75.6660886109
 21
-62.1957033873
 31
0.0
  0
LINE
  5
394
330
34F
100
AcDbEntity
  8
0
  6
Continuous
 62
     0
370
    18
100
AcDbLine
 10
-74.6660865843
 20
-63.4407699108
 30
0.0
 11
-75.6660886109
 21
-64.4407719374
 31
0.0
  0
LINE
  5
395
330
34F
100
AcDbEntity
  8
0
  6
Continuous
 62
     0
370
    18
100
AcDbLine
 10
-74.6660865843
 20
-65.6858384609
 30
0.0
 11
-75.6660886109
 21
-66.6858404875
 31
0.0
  0
LINE
  5
396
330
34F
100
AcDbEntity
  8
0
  6
Continuous
 62
     0
370
    18
100
AcDbLine
 10
-74.6660865843
 20
-67.930907011
 30
0.0
 11
-75.6660886109
 21
-68.9309090376
 31
0.0
  0
LINE
  5
397
330
34F
100
AcDbEntity
  8
0
  6
Continuous
 62
     0
370
    18
100
AcDbLine
 10
-74.6660865843
 20
-70.17596066
 30
0.0
 11
-75.6660886109
 21
-71.1759626865
 31
0.0
  0
LINE
  5
398
330
34F
100
AcDbEntity
  8
0
  6
Continuous
 62
     0
370
    18
100
AcDbLine
 10
-74.6660865843
 20
-72.4210292101
 30
0.0
 11
-75.6660886109
 21
-73.4210312366
 31
0.0
  0
LINE
  5
399
330
34F
100
AcDbEntity
  8
0
  6
Continuous
 62
     0
370
    18
100
AcDbLine
 10
-74.6660865843
 20
-74.6660977602
 30
0.0
 11
-75.2368941903
 21
-75.2369016409
 31
0.0
  0
LINE
  5
39A
330
34F
100
AcDbEntity
  8
0
  6
Continuous
 62
     0
370
    18
100
AcDbLine
 10
0.2806335688
 20
-7.5770914555
 30
0.0
 11
0.8419007063
 21
-7.0158243179
 31
0.0
  0
LINE
  5
39B
330
34F
100
AcDbEntity
  8
0
  6
Continuous
 62
     0
370
    18
100
AcDbLine
 10
1.4031678438
 20
-7.5770914555
 30
0.0
 11
1.9644312561
 21
-7.0158243179
 31
0.0
  0
LINE
  5
39C
330
34F
100
AcDbEntity
  8
0
  6
Continuous
 62
     0
370
    18
100
AcDbLine
 10
-0.2806298435
 20
-9.260892868
 30
0.0
 11
0.2806335688
 21
-8.6996257305
 31
0.0
  0
LINE
  5
39D
330
34F
100
AcDbEntity
  8
0
  6
Continuous
 62
     0
370
    18
100
AcDbLine
 10
2.5256983936
 20
-7.5770914555
 30
0.0
 11
3.0706338584
 21
-7.0321559906
 31
0.0
  0
LINE
  5
39E
330
34F
100
AcDbEntity
  8
0
  6
Continuous
 62
     0
370
    18
100
AcDbLine
 10
0.8419007063
 20
-9.260892868
 30
0.0
 11
1.4031678438
 21
-8.6996257305
 31
0.0
  0
LINE
  5
39F
330
34F
100
AcDbEntity
  8
0
  6
Continuous
 62
     0
370
    18
100
AcDbLine
 10
-0.841896981
 20
-10.9446942806
 30
0.0
 11
-0.2806298435
 21
-10.3834271431
 31
0.0
  0
LINE
  5
3A0
330
34F
100
AcDbEntity
  8
0
  6
Continuous
 62
     0
370
    18
100
AcDbLine
 10
3.6482289433
 20
-7.5770914555
 30
0.0
 11
3.7822909653
 21
-7.4430406094
 31
0.0
  0
LINE
  5
3A1
330
34F
100
AcDbEntity
  8
0
  6
Continuous
 62
     0
370
    18
100
AcDbLine
 10
1.9644312561
 20
-9.260892868
 30
0.0
 11
2.5256983936
 21
-8.6996257305
 31
0.0
  0
LINE
  5
3A2
330
34F
100
AcDbEntity
  8
0
  6
Continuous
 62
     0
370
    18
100
AcDbLine
 10
0.2806335688
 20
-10.9446942806
 30
0.0
 11
0.8419007063
 21
-10.3834271431
 31
0.0
  0
LINE
  5
3A3
330
34F
100
AcDbEntity
  8
0
  6
Continuous
 62
     0
370
    18
100
AcDbLine
 10
3.0869655311
 20
-9.260892868
 30
0.0
 11
3.6482289433
 21
-8.6996257305
 31
0.0
  0
LINE
  5
3A4
330
34F
100
AcDbEntity
  8
0
  6
Continuous
 62
     0
370
    18
100
AcDbLine
 10
1.4031678438
 20
-10.9446942806
 30
0.0
 11
1.9644312561
 21
-10.3834271431
 31
0.0
  0
LINE
  5
3A5
330
34F
100
AcDbEntity
  8
0
  6
Continuous
 62
     0
370
    18
100
AcDbLine
 10
-0.1527741551
 20
-12.5006437302
 30
0.0
 11
0.2806335688
 21
-12.0672285557
 31
0.0
  0
LINE
  5
3A6
330
34F
100
AcDbEntity
  8
0
  6
Continuous
 62
     0
370
    18
100
AcDbLine
 10
2.5256983936
 20
-10.9446942806
 30
0.0
 11
3.0869655311
 21
-10.3834271431
 31
0.0
  0
LINE
  5
3A7
330
34F
100
AcDbEntity
  8
0
  6
Continuous
 62
     0
370
    18
100
AcDbLine
 10
0.8419007063
 20
-12.6284956932
 30
0.0
 11
1.4031678438
 21
-12.0672285557
 31
0.0
  0
LINE
  5
3A8
330
34F
100
AcDbEntity
  8
0
  6
Continuous
 62
     0
370
    18
100
AcDbLine
 10
-1.4031641185
 20
-15.9960985184
 30
0.0
 11
-1.3406313956
 21
-15.9335434437
 31
0.0
  0
LINE
  5
3A9
330
34F
100
AcDbEntity
  8
0
  6
Continuous
 62
     0
370
    18
100
AcDbLine
 10
3.6482289433
 20
-10.9446942806
 30
0.0
 11
4.1932612658
 21
-10.3996694088
 31
0.0
  0
LINE
  5
3AA
330
34F
100
AcDbEntity
  8
0
  6
Continuous
 62
     0
370
    18
100
AcDbLine
 10
1.9644312561
 20
-12.6284956932
 30
0.0
 11
2.5256983936
 21
-12.0672285557
 31
0.0
  0
LINE
  5
3AB
330
34F
100
AcDbEntity
  8
0
  6
Continuous
 62
     0
370
    18
100
AcDbLine
 10
0.2806335688
 20
-14.3122971058
 30
0.0
 11
0.8419007063
 21
-13.7510299683
 31
0.0
  0
LINE
  5
3AC
330
34F
100
AcDbEntity
  8
0
  6
Continuous
 62
     0
370
    18
100
AcDbLine
 10
-1.9644312561
 20
-17.679899931
 30
0.0
 11
-1.8552541733
 21
-17.5707042217
 31
0.0
  0
LINE
  5
3AD
330
34F
100
AcDbEntity
  8
0
  6
Continuous
 62
     0
370
    18
100
AcDbLine
 10
3.0869655311
 20
-12.6284956932
 30
0.0
 11
3.6482289433
 21
-12.0672285557
 31
0.0
  0
LINE
  5
3AE
330
34F
100
AcDbEntity
  8
0
  6
Continuous
 62
     0
370
    18
100
AcDbLine
 10
1.4031678438
 20
-14.3122971058
 30
0.0
 11
1.9644312561
 21
-13.7510299683
 31
0.0
  0
LINE
  5
3AF
330
34F
100
AcDbEntity
  8
0
  6
Continuous
 62
     0
370
    18
100
AcDbLine
 10
-0.2806298435
 20
-15.9960985184
 30
0.0
 11
0.2806335688
 21
-15.4348313808
 31
0.0
  0
LINE
  5
3B0
330
34F
100
AcDbEntity
  8
0
  6
Continuous
 62
     0
370
    18
100
AcDbLine
 10
2.5256983936
 20
-14.3122971058
 30
0.0
 11
3.0869655311
 21
-13.7510299683
 31
0.0
  0
LINE
  5
3B1
330
34F
100
AcDbEntity
  8
0
  6
Continuous
 62
     0
370
    18
100
AcDbLine
 10
0.8419007063
 20
-15.9960985184
 30
0.0
 11
1.4031678438
 21
-15.4348313808
 31
0.0
  0
LINE
  5
3B2
330
34F
100
AcDbEntity
  8
0
  6
Continuous
 62
     0
370
    18
100
AcDbLine
 10
-0.841896981
 20
-17.679899931
 30
0.0
 11
-0.2806298435
 21
-17.1186327934
 31
0.0
  0
LINE
  5
3B3
330
34F
100
AcDbEntity
  8
0
  6
Continuous
 62
     0
370
    18
100
AcDbLine
 10
-2.2149309516
 20
-19.0529227257
 30
0.0
 11
-1.9644312561
 21
-18.8024044037
 31
0.0
  0
LINE
  5
3B4
330
34F
100
AcDbEntity
  8
0
  6
Continuous
 62
     0
370
    18
100
AcDbLine
 10
3.6482289433
 20
-14.3122971058
 30
0.0
 11
4.2094960809
 21
-13.7510299683
 31
0.0
  0
LINE
  5
3B5
330
34F
100
AcDbEntity
  8
0
  6
Continuous
 62
     0
370
    18
100
AcDbLine
 10
1.9644312561
 20
-15.9960985184
 30
0.0
 11
2.5256983936
 21
-15.4348313808
 31
0.0
  0
LINE
  5
3B6
330
34F
100
AcDbEntity
  8
0
  6
Continuous
 62
     0
370
    18
100
AcDbLine
 10
0.2806335688
 20
-17.679899931
 30
0.0
 11
0.8419007063
 21
-17.1186327934
 31
0.0
  0
LINE
  5
3B7
330
34F
100
AcDbEntity
  8
0
  6
Continuous
 62
     0
370
    18
100
AcDbLine
 10
-1.2984760106
 20
-19.259005785
 30
0.0
 11
-0.841896981
 21
-18.8024044037
 31
0.0
  0
LINE
  5
3B8
330
34F
100
AcDbEntity
  8
0
  6
Continuous
 62
     0
370
    18
100
AcDbLine
 10
3.0869655311
 20
-15.9960985184
 30
0.0
 11
3.6482289433
 21
-15.4348313808
 31
0.0
  0
LINE
  5
3B9
330
34F
100
AcDbEntity
  8
0
  6
Continuous
 62
     0
370
    18
100
AcDbLine
 10
1.4031678438
 20
-17.679899931
 30
0.0
 11
1.9644312561
 21
-17.1186327934
 31
0.0
  0
LINE
  5
3BA
330
34F
100
AcDbEntity
  8
0
  6
Continuous
 62
     0
370
    18
100
AcDbLine
 10
-0.2396516502
 20
-19.3226933479
 30
0.0
 11
0.2806335688
 21
-18.8024044037
 31
0.0
  0
LINE
  5
3BB
330
34F
100
AcDbEntity
  8
0
  6
Continuous
 62
     0
370
    18
100
AcDbLine
 10
2.5256983936
 20
-17.679899931
 30
0.0
 11
3.0869655311
 21
-17.1186327934
 31
0.0
  0
LINE
  5
3BC
330
34F
100
AcDbEntity
  8
0
  6
Continuous
 62
     0
370
    18
100
AcDbLine
 10
3.6482289433
 20
-17.679899931
 30
0.0
 11
4.2094960809
 21
-17.1186327934
 31
0.0
  0
LINE
  5
3BD
330
34F
100
AcDbEntity
  8
0
  6
Continuous
 62
     0
370
    18
100
AcDbLine
 10
3.0869655311
 20
-19.3636715412
 30
0.0
 11
3.6482289433
 21
-18.8024044037
 31
0.0
  0
LINE
  5
3BE
330
34F
100
AcDbEntity
  8
0
  6
Continuous
 62
     0
370
    18
100
AcDbLine
 10
4.2094960809
 20
-19.3636715412
 30
0.0
 11
4.3748281896
 21
-19.1983580589
 31
0.0
  0
LINE
  5
3BF
330
34F
100
AcDbEntity
  8
0
  6
Continuous
 62
     0
370
    18
100
AcDbLine
 10
2.5256983936
 20
-21.0474729538
 30
0.0
 11
3.0869655311
 21
-20.4862058163
 31
0.0
  0
LINE
  5
3C0
330
34F
100
AcDbEntity
  8
0
  6
Continuous
 62
     0
370
    18
100
AcDbLine
 10
3.6482289433
 20
-21.0474729538
 30
0.0
 11
4.1916593909
 21
-20.5040574074
 31
0.0
  0
LINE
  5
3C1
330
34F
100
AcDbEntity
  8
0
  6
Continuous
 62
     0
370
    18
100
AcDbLine
 10
2.1528676152
 20
-22.5428342819
 30
0.0
 11
2.5256983936
 21
-22.1700072289
 31
0.0
  0
LINE
  5
3C2
330
34F
100
AcDbEntity
  8
0
  6
Continuous
 62
     0
370
    18
100
AcDbLine
 10
3.0869655311
 20
-22.7312743664
 30
0.0
 11
3.6482289433
 21
-22.1700072289
 31
0.0
  0
LINE
  5
3C3
330
34F
100
AcDbEntity
  8
0
  6
Continuous
 62
     0
370
    18
100
AcDbLine
 10
-3.0687302351
 20
-18.2593762875
 30
0.0
 11
-2.4159476161
 21
-18.912166357
 31
0.0
  0
LINE
  5
3C4
330
34F
100
AcDbEntity
  8
0
  6
Continuous
 62
     0
370
    18
100
AcDbLine
 10
2.1588988602
 20
-22.3644673824
 30
0.0
 11
2.9878243804
 21
-23.1934189796
 31
0.0
  0
LINE
  5
3C5
330
34F
100
AcDbEntity
  8
0
  6
Continuous
 62
     0
370
    18
100
AcDbLine
 10
-2.3928135633
 20
-17.8127586842
 30
0.0
 11
-0.9240582585
 21
-19.2815363407
 31
0.0
  0
LINE
  5
3C6
330
34F
100
AcDbEntity
  8
0
  6
Continuous
 62
     0
370
    18
100
AcDbLine
 10
2.1956115961
 20
-21.2786495686
 30
0.0
 11
3.7439092994
 21
-22.8269696236
 31
0.0
  0
LINE
  5
3C7
330
34F
100
AcDbEntity
  8
0
  6
Continuous
 62
     0
370
    18
100
AcDbLine
 10
-1.618809998
 20
-17.4642503262
 30
0.0
 11
0.270344317
 21
-19.35338974
 31
0.0
  0
LINE
  5
3C8
330
34F
100
AcDbEntity
  8
0
  6
Continuous
 62
     0
370
    18
100
AcDbLine
 10
2.0454451442
 20
-20.0059711933
 30
0.0
 11
4.4339112937
 21
-22.3944187164
 31
0.0
  0
LINE
  5
3C9
330
34F
100
AcDbEntity
  8
0
  6
Continuous
 62
     0
370
    18
100
AcDbLine
 10
-1.4510042965
 20
-16.5095031261
 30
0.0
 11
1.0264627635
 21
-18.9869701862
 31
0.0
  0
LINE
  5
3CA
330
34F
100
AcDbEntity
  8
0
  6
Continuous
 62
     0
370
    18
100
AcDbLine
 10
2.4067461491
 20
-19.2447304726
 30
0.0
 11
4.1887797415
 21
-21.0267603397
 31
0.0
  0
LINE
  5
3CB
330
34F
100
AcDbEntity
  8
0
  6
Continuous
 62
     0
370
    18
100
AcDbLine
 10
-0.7935166359
 20
-16.0444676876
 30
0.0
 11
1.2201033533
 21
-18.0580914021
 31
0.0
  0
LINE
  5
3CC
330
34F
100
AcDbEntity
  8
0
  6
Continuous
 62
     0
370
    18
100
AcDbLine
 10
2.6304870844
 20
-18.345952034
 30
0.0
 11
4.2866058648
 21
-20.0020670891
 31
0.0
  0
LINE
  5
3CD
330
34F
100
AcDbEntity
  8
0
  6
Continuous
 62
     0
370
    18
100
AcDbLine
 10
-0.4455372691
 20
-15.2699053288
 30
0.0
 11
2.0453371108
 21
-17.7607834339
 31
0.0
  0
LINE
  5
3CE
330
34F
100
AcDbEntity
  8
0
  6
Continuous
 62
     0
370
    18
100
AcDbLine
 10
-0.188510865
 20
-14.4044160843
 30
0.0
 11
4.1932612658
 21
-18.7861919403
 31
0.0
  0
LINE
  5
3CF
330
34F
100
AcDbEntity
  8
0
  6
Continuous
 62
     0
370
    18
100
AcDbLine
 10
-0.1527741551
 20
-13.3176147938
 30
0.0
 11
4.1971430182
 21
-17.6675319672
 31
0.0
  0
LINE
  5
3D0
330
34F
100
AcDbEntity
  8
0
  6
Continuous
 62
     0
370
    18
100
AcDbLine
 10
4.3170489371
 20
-16.6648924351
 30
0.0
 11
4.4339112937
 21
-16.7817771435
 31
0.0
  0
LINE
  5
3D1
330
34F
100
AcDbEntity
  8
0
  6
Continuous
 62
     0
370
    18
100
AcDbLine
 10
-0.1527741551
 20
-12.1950805187
 30
0.0
 11
4.2438097298
 21
-16.591668129
 31
0.0
  0
LINE
  5
3D2
330
34F
100
AcDbEntity
  8
0
  6
Continuous
 62
     0
370
    18
100
AcDbLine
 10
-1.4090836048
 20
-10.9387636185
 30
0.0
 11
-0.804707408
 21
-11.5431547165
 31
0.0
  0
LINE
  5
3D3
330
34F
100
AcDbEntity
  8
0
  6
Continuous
 62
     0
370
    18
100
AcDbLine
 10
-0.9425915778
 20
-10.2827250957
 30
0.0
 11
4.1932612658
 21
-15.4185891151
 31
0.0
  0
LINE
  5
3D4
330
34F
100
AcDbEntity
  8
0
  6
Continuous
 62
     0
370
    18
100
AcDbLine
 10
-0.552918762
 20
-9.5498859882
 30
0.0
 11
4.4339112937
 21
-14.5367085934
 31
0.0
  0
LINE
  5
3D5
330
34F
100
AcDbEntity
  8
0
  6
Continuous
 62
     0
370
    18
100
AcDbLine
 10
-0.1632496715
 20
-8.8170170784
 30
0.0
 11
4.1932612658
 21
-13.173520565
 31
0.0
  0
LINE
  5
3D6
330
34F
100
AcDbEntity
  8
0
  6
Continuous
 62
     0
370
    18
100
AcDbLine
 10
0.1947619021
 20
-8.0524981022
 30
0.0
 11
4.1932612658
 21
-12.05098629
 31
0.0
  0
LINE
  5
3D7
330
34F
100
AcDbEntity
  8
0
  6
Continuous
 62
     0
370
    18
100
AcDbLine
 10
0.2940744162
 20
-7.0292651653
 30
0.0
 11
4.4339112937
 21
-11.1691057682
 31
0.0
  0
LINE
  5
3D8
330
34F
100
AcDbEntity
  8
0
  6
Continuous
 62
     0
370
    18
100
AcDbLine
 10
1.2066885829
 20
-6.8193674088
 30
0.0
 11
4.1932612658
 21
-9.8059177399
 31
0.0
  0
LINE
  5
3D9
330
34F
100
AcDbEntity
  8
0
  6
Continuous
 62
     0
370
    18
100
AcDbLine
 10
2.3273490369
 20
-6.8174898624
 30
0.0
 11
4.2109973729
 21
-8.7011158466
 31
0.0
  0
LINE
  5
3DA
330
34F
100
AcDbEntity
  8
0
  6
Continuous
 62
     0
370
    18
100
AcDbLine
 10
-79.4191397727
 20
-7.5770914555
 30
0.0
 11
-78.8578726351
 21
-7.0158243179
 31
0.0
  0
LINE
  5
3DB
330
34F
100
AcDbEntity
  8
0
  6
Continuous
 62
     0
370
    18
100
AcDbLine
 10
-80.5431716144
 20
-8.7011158466
 30
0.0
 11
-80.5416703224
 21
-8.6996257305
 31
0.0
  0
LINE
  5
3DC
330
34F
100
AcDbEntity
  8
0
  6
Continuous
 62
     0
370
    18
100
AcDbLine
 10
-78.2966054976
 20
-7.5770914555
 30
0.0
 11
-77.7353420854
 21
-7.0158243179
 31
0.0
  0
LINE
  5
3DD
330
34F
100
AcDbEntity
  8
0
  6
Continuous
 62
     0
370
    18
100
AcDbLine
 10
-79.9804031849
 20
-9.260892868
 30
0.0
 11
-79.4191397727
 21
-8.6996257305
 31
0.0
  0
LINE
  5
3DE
330
34F
100
AcDbEntity
  8
0
  6
Continuous
 62
     0
370
    18
100
AcDbLine
 10
-77.1740749478
 20
-7.5770914555
 30
0.0
 11
-76.6262486577
 21
-7.0292651653
 31
0.0
  0
LINE
  5
3DF
330
34F
100
AcDbEntity
  8
0
  6
Continuous
 62
     0
370
    18
100
AcDbLine
 10
-78.8578726351
 20
-9.260892868
 30
0.0
 11
-78.2966054976
 21
-8.6996257305
 31
0.0
  0
LINE
  5
3E0
330
34F
100
AcDbEntity
  8
0
  6
Continuous
 62
     0
370
    18
100
AcDbLine
 10
-80.5416703224
 20
-10.9446942806
 30
0.0
 11
-79.9804031849
 21
-10.3834271431
 31
0.0
  0
LINE
  5
3E1
330
34F
100
AcDbEntity
  8
0
  6
Continuous
 62
     0
370
    18
100
AcDbLine
 10
-77.7353420854
 20
-9.260892868
 30
0.0
 11
-77.1740749478
 21
-8.6996257305
 31
0.0
  0
LINE
  5
3E2
330
34F
100
AcDbEntity
  8
0
  6
Continuous
 62
     0
370
    18
100
AcDbLine
 10
-79.4191397727
 20
-10.9446942806
 30
0.0
 11
-78.8578726351
 21
-10.3834271431
 31
0.0
  0
LINE
  5
3E3
330
34F
100
AcDbEntity
  8
0
  6
Continuous
 62
     0
370
    18
100
AcDbLine
 10
-76.6128078103
 20
-9.260892868
 30
0.0
 11
-76.1689245701
 21
-8.8170170784
 31
0.0
  0
LINE
  5
3E4
330
34F
100
AcDbEntity
  8
0
  6
Continuous
 62
     0
370
    18
100
AcDbLine
 10
-78.2966054976
 20
-10.9446942806
 30
0.0
 11
-77.7353420854
 21
-10.3834271431
 31
0.0
  0
LINE
  5
3E5
330
34F
100
AcDbEntity
  8
0
  6
Continuous
 62
     0
370
    18
100
AcDbLine
 10
-79.9804031849
 20
-12.6284956932
 30
0.0
 11
-79.4191397727
 21
-12.0672285557
 31
0.0
  0
LINE
  5
3E6
330
34F
100
AcDbEntity
  8
0
  6
Continuous
 62
     0
370
    18
100
AcDbLine
 10
-77.1740749478
 20
-10.9446942806
 30
0.0
 11
-76.6128078103
 21
-10.3834271431
 31
0.0
  0
LINE
  5
3E7
330
34F
100
AcDbEntity
  8
0
  6
Continuous
 62
     0
370
    18
100
AcDbLine
 10
-78.8578726351
 20
-12.6284956932
 30
0.0
 11
-78.2966054976
 21
-12.0672285557
 31
0.0
  0
LINE
  5
3E8
330
34F
100
AcDbEntity
  8
0
  6
Continuous
 62
     0
370
    18
100
AcDbLine
 10
-80.5416703224
 20
-14.3122971058
 30
0.0
 11
-79.9804031849
 21
-13.7510299683
 31
0.0
  0
LINE
  5
3E9
330
34F
100
AcDbEntity
  8
0
  6
Continuous
 62
     0
370
    18
100
AcDbLine
 10
-76.0515443981
 20
-10.9446942806
 30
0.0
 11
-75.4902772605
 21
-10.3834271431
 31
0.0
  0
LINE
  5
3EA
330
34F
100
AcDbEntity
  8
0
  6
Continuous
 62
     0
370
    18
100
AcDbLine
 10
-77.7353420854
 20
-12.6284956932
 30
0.0
 11
-77.1740749478
 21
-12.0672285557
 31
0.0
  0
LINE
  5
3EB
330
34F
100
AcDbEntity
  8
0
  6
Continuous
 62
     0
370
    18
100
AcDbLine
 10
-79.4191397727
 20
-14.3122971058
 30
0.0
 11
-78.8578726351
 21
-13.7510299683
 31
0.0
  0
LINE
  5
3EC
330
34F
100
AcDbEntity
  8
0
  6
Continuous
 62
     0
370
    18
100
AcDbLine
 10
-76.6128078103
 20
-12.6284956932
 30
0.0
 11
-76.1794000864
 21
-12.1950805187
 31
0.0
  0
LINE
  5
3ED
330
34F
100
AcDbEntity
  8
0
  6
Continuous
 62
     0
370
    18
100
AcDbLine
 10
-78.2966054976
 20
-14.3122971058
 30
0.0
 11
-77.7353420854
 21
-13.7510299683
 31
0.0
  0
LINE
  5
3EE
330
34F
100
AcDbEntity
  8
0
  6
Continuous
 62
     0
370
    18
100
AcDbLine
 10
-79.9804031849
 20
-15.9960985184
 30
0.0
 11
-79.4191397727
 21
-15.4348313808
 31
0.0
  0
LINE
  5
3EF
330
34F
100
AcDbEntity
  8
0
  6
Continuous
 62
     0
370
    18
100
AcDbLine
 10
-74.929010123
 20
-10.9446942806
 30
0.0
 11
-74.9230906367
 21
-10.9387636185
 31
0.0
  0
LINE
  5
3F0
330
34F
100
AcDbEntity
  8
0
  6
Continuous
 62
     0
370
    18
100
AcDbLine
 10
-77.1740749478
 20
-14.3122971058
 30
0.0
 11
-76.6128078103
 21
-13.7510299683
 31
0.0
  0
LINE
  5
3F1
330
34F
100
AcDbEntity
  8
0
  6
Continuous
 62
     0
370
    18
100
AcDbLine
 10
-78.8578726351
 20
-15.9960985184
 30
0.0
 11
-78.2966054976
 21
-15.4348313808
 31
0.0
  0
LINE
  5
3F2
330
34F
100
AcDbEntity
  8
0
  6
Continuous
 62
     0
370
    18
100
AcDbLine
 10
-80.5293172598
 20
-17.6675319672
 30
0.0
 11
-79.9804031849
 21
-17.1186327934
 31
0.0
  0
LINE
  5
3F3
330
34F
100
AcDbEntity
  8
0
  6
Continuous
 62
     0
370
    18
100
AcDbLine
 10
-77.7353420854
 20
-15.9960985184
 30
0.0
 11
-77.1740749478
 21
-15.4348313808
 31
0.0
  0
LINE
  5
3F4
330
34F
100
AcDbEntity
  8
0
  6
Continuous
 62
     0
370
    18
100
AcDbLine
 10
-79.4191397727
 20
-17.679899931
 30
0.0
 11
-78.8578726351
 21
-17.1186327934
 31
0.0
  0
LINE
  5
3F5
330
34F
100
AcDbEntity
  8
0
  6
Continuous
 62
     0
370
    18
100
AcDbLine
 10
-79.9804031849
 20
-19.3636715412
 30
0.0
 11
-79.4191397727
 21
-18.8024044037
 31
0.0
  0
LINE
  5
3F6
330
34F
100
AcDbEntity
  8
0
  6
Continuous
 62
     0
370
    18
100
AcDbLine
 10
-76.6128078103
 20
-15.9960985184
 30
0.0
 11
-76.0515443981
 21
-15.4348313808
 31
0.0
  0
LINE
  5
3F7
330
34F
100
AcDbEntity
  8
0
  6
Continuous
 62
     0
370
    18
100
AcDbLine
 10
-78.2966054976
 20
-17.679899931
 30
0.0
 11
-77.7353420854
 21
-17.1186327934
 31
0.0
  0
LINE
  5
3F8
330
34F
100
AcDbEntity
  8
0
  6
Continuous
 62
     0
370
    18
100
AcDbLine
 10
-78.8578726351
 20
-19.3636715412
 30
0.0
 11
-78.7389203906
 21
-19.2447304726
 31
0.0
  0
LINE
  5
3F9
330
34F
100
AcDbEntity
  8
0
  6
Continuous
 62
     0
370
    18
100
AcDbLine
 10
-80.5209539831
 20
-21.0267603397
 30
0.0
 11
-79.9804031849
 21
-20.4862058163
 31
0.0
  0
LINE
  5
3FA
330
34F
100
AcDbEntity
  8
0
  6
Continuous
 62
     0
370
    18
100
AcDbLine
 10
-77.1740749478
 20
-17.679899931
 30
0.0
 11
-76.6128078103
 21
-17.1186327934
 31
0.0
  0
LINE
  5
3FB
330
34F
100
AcDbEntity
  8
0
  6
Continuous
 62
     0
370
    18
100
AcDbLine
 10
-79.4191397727
 20
-21.0474729538
 30
0.0
 11
-78.8578726351
 21
-20.4862058163
 31
0.0
  0
LINE
  5
3FC
330
34F
100
AcDbEntity
  8
0
  6
Continuous
 62
     0
370
    18
100
AcDbLine
 10
-80.7660855353
 20
-22.3944187164
 30
0.0
 11
-80.5416703224
 21
-22.1700072289
 31
0.0
  0
LINE
  5
3FD
330
34F
100
AcDbEntity
  8
0
  6
Continuous
 62
     0
370
    18
100
AcDbLine
 10
-76.0515443981
 20
-17.679899931
 30
0.0
 11
-75.4902772605
 21
-17.1186327934
 31
0.0
  0
LINE
  5
3FE
330
34F
100
AcDbEntity
  8
0
  6
Continuous
 62
     0
370
    18
100
AcDbLine
 10
-77.3586370051
 20
-18.9869701862
 30
0.0
 11
-77.1740749478
 21
-18.8024044037
 31
0.0
  0
LINE
  5
3FF
330
34F
100
AcDbEntity
  8
0
  6
Continuous
 62
     0
370
    18
100
AcDbLine
 10
-79.9804031849
 20
-22.7312743664
 30
0.0
 11
-79.4191397727
 21
-22.1700072289
 31
0.0
  0
LINE
  5
400
330
34F
100
AcDbEntity
  8
0
  6
Continuous
 62
     0
370
    18
100
AcDbLine
 10
-74.929010123
 20
-17.679899931
 30
0.0
 11
-74.7133642435
 21
-17.4642503262
 31
0.0
  0
LINE
  5
401
330
34F
100
AcDbEntity
  8
0
  6
Continuous
 62
     0
370
    18
100
AcDbLine
 10
-76.6025185585
 20
-19.35338974
 30
0.0
 11
-76.0515443981
 21
-18.8024044037
 31
0.0
  0
LINE
  5
402
330
34F
100
AcDbEntity
  8
0
  6
Continuous
 62
     0
370
    18
100
AcDbLine
 10
-78.8578726351
 20
-22.7312743664
 30
0.0
 11
-78.4910731018
 21
-22.3644673824
 31
0.0
  0
LINE
  5
403
330
34F
100
AcDbEntity
  8
0
  6
Continuous
 62
     0
370
    18
100
AcDbLine
 10
-75.408115983
 20
-19.2815363407
 30
0.0
 11
-74.929010123
 21
-18.8024044037
 31
0.0
  0
LINE
  5
404
330
34F
100
AcDbEntity
  8
0
  6
Continuous
 62
     0
370
    18
100
AcDbLine
 10
-73.9162266254
 20
-18.912166357
 30
0.0
 11
-73.8064795732
 21
-18.8024044037
 31
0.0
  0
LINE
  5
405
330
34F
100
AcDbEntity
  8
0
  6
Continuous
 62
     0
370
    18
100
AcDbLine
 10
-80.5565565825
 20
-21.5938687325
 30
0.0
 11
-78.7876583636
 21
-23.3627557755
 31
0.0
  0
LINE
  5
406
330
34F
100
AcDbEntity
  8
0
  6
Continuous
 62
     0
370
    18
100
AcDbLine
 10
-80.5238336325
 20
-20.5040574074
 30
0.0
 11
-78.4850418568
 21
-22.5428342819
 31
0.0
  0
LINE
  5
407
330
34F
100
AcDbEntity
  8
0
  6
Continuous
 62
     0
370
    18
100
AcDbLine
 10
-80.7070024312
 20
-19.1983580589
 30
0.0
 11
-78.524325043
 21
-21.381020546
 31
0.0
  0
LINE
  5
408
330
34F
100
AcDbEntity
  8
0
  6
Continuous
 62
     0
370
    18
100
AcDbLine
 10
-80.5254355073
 20
-18.2573795319
 30
0.0
 11
-78.4920826554
 21
-20.2907323837
 31
0.0
  0
LINE
  5
409
330
34F
100
AcDbEntity
  8
0
  6
Continuous
 62
     0
370
    18
100
AcDbLine
 10
-80.7660855353
 20
-16.8941915035
 30
0.0
 11
-78.9697766304
 21
-18.6905264854
 31
0.0
  0
LINE
  5
40A
330
34F
100
AcDbEntity
  8
0
  6
Continuous
 62
     0
370
    18
100
AcDbLine
 10
-80.5254355073
 20
-16.0123109818
 30
0.0
 11
-78.6554142833
 21
-17.8823471069
 31
0.0
  0
LINE
  5
40B
330
34F
100
AcDbEntity
  8
0
  6
Continuous
 62
     0
370
    18
100
AcDbLine
 10
-80.7660855353
 20
-14.6491527557
 30
0.0
 11
-76.0925225914
 21
-19.3226933479
 31
0.0
  0
LINE
  5
40C
330
34F
100
AcDbEntity
  8
0
  6
Continuous
 62
     0
370
    18
100
AcDbLine
 10
-80.5809311569
 20
-13.7117505074
 30
0.0
 11
-75.033698231
 21
-19.259005785
 31
0.0
  0
LINE
  5
40D
330
34F
100
AcDbEntity
  8
0
  6
Continuous
 62
     0
370
    18
100
AcDbLine
 10
-80.5254355073
 20
-12.6447379589
 30
0.0
 11
-74.1172432899
 21
-19.0529227257
 31
0.0
  0
LINE
  5
40E
330
34F
100
AcDbEntity
  8
0
  6
Continuous
 62
     0
370
    18
100
AcDbLine
 10
-74.4769200683
 20
-17.5707042217
 30
0.0
 11
-73.4570100904
 21
-18.5906291008
 31
0.0
  0
LINE
  5
40F
330
34F
100
AcDbEntity
  8
0
  6
Continuous
 62
     0
370
    18
100
AcDbLine
 10
-80.7660855353
 20
-11.2815499306
 30
0.0
 11
-75.013037771
 21
-17.0345902443
 31
0.0
  0
LINE
  5
410
330
34F
100
AcDbEntity
  8
0
  6
Continuous
 62
     0
370
    18
100
AcDbLine
 10
-74.991542846
 20
-15.9335434437
 30
0.0
 11
-74.8034827411
 21
-16.1216259003
 31
0.0
  0
LINE
  5
411
330
34F
100
AcDbEntity
  8
0
  6
Continuous
 62
     0
370
    18
100
AcDbLine
 10
-80.5254355073
 20
-10.3996694088
 30
0.0
 11
-75.870193541
 21
-15.054911375
 31
0.0
  0
LINE
  5
412
330
34F
100
AcDbEntity
  8
0
  6
Continuous
 62
     0
370
    18
100
AcDbLine
 10
-80.5254355073
 20
-9.2771351337
 30
0.0
 11
-76.1794000864
 21
-13.6231780052
 31
0.0
  0
LINE
  5
413
330
34F
100
AcDbEntity
  8
0
  6
Continuous
 62
     0
370
    18
100
AcDbLine
 10
-80.7660855353
 20
-7.9139471054
 30
0.0
 11
-76.1794000864
 21
-12.5006437302
 31
0.0
  0
LINE
  5
414
330
34F
100
AcDbEntity
  8
0
  6
Continuous
 62
     0
370
    18
100
AcDbLine
 10
-80.1144652069
 20
-7.4430406094
 30
0.0
 11
-75.9240686893
 21
-11.633425951
 31
0.0
  0
LINE
  5
415
330
34F
100
AcDbEntity
  8
0
  6
Continuous
 62
     0
370
    18
100
AcDbLine
 10
-79.4028081
 20
-7.0321559906
 30
0.0
 11
-74.7869126499
 21
-11.6480588913
 31
0.0
  0
LINE
  5
416
330
34F
100
AcDbEntity
  8
0
  6
Continuous
 62
     0
370
    18
100
AcDbLine
 10
-78.5106085241
 20
-6.8018436432
 30
0.0
 11
-75.798202306
 21
-9.5142424107
 31
0.0
  0
LINE
  5
417
330
34F
100
AcDbEntity
  8
0
  6
Continuous
 62
     0
370
    18
100
AcDbLine
 10
-77.3400962353
 20
-6.8497955799
 30
0.0
 11
-76.5269361436
 21
-7.6629817486
 31
0.0
  0
LINE
  5
418
330
34F
100
AcDbEntity
  8
0
  6
Continuous
 62
     0
370
    18
100
AcDbLine
 10
-0.6660856307
 20
-87.1051625029
 30
0.0
 11
-1.6660876572
 21
-88.1051645294
 31
0.0
  0
LINE
  5
419
330
34F
100
AcDbEntity
  8
0
  6
Continuous
 62
     0
370
    18
100
AcDbLine
 10
-0.6660856307
 20
-89.3502161518
 30
0.0
 11
-1.6660876572
 21
-90.3502181784
 31
0.0
  0
LINE
  5
41A
330
34F
100
AcDbEntity
  8
0
  6
Continuous
 62
     0
370
    18
100
AcDbLine
 10
-0.6660856307
 20
-91.5952847019
 30
0.0
 11
-1.6660876572
 21
-92.5952867285
 31
0.0
  0
LINE
  5
41B
330
34F
100
AcDbEntity
  8
0
  6
Continuous
 62
     0
370
    18
100
AcDbLine
 10
-0.6660856307
 20
-93.840353252
 30
0.0
 11
-1.6660876572
 21
-94.8403403774
 31
0.0
  0
LINE
  5
41C
330
34F
100
AcDbEntity
  8
0
  6
Continuous
 62
     0
370
    18
100
AcDbLine
 10
-0.6660856307
 20
-96.0854218021
 30
0.0
 11
-1.6660876572
 21
-97.0854089275
 31
0.0
  0
LINE
  5
41D
330
34F
100
AcDbEntity
  8
0
  6
Continuous
 62
     0
370
    18
100
AcDbLine
 10
-0.6660856307
 20
-98.3304903523
 30
0.0
 11
-1.6660876572
 21
-99.3304774777
 31
0.0
  0
LINE
  5
41E
330
34F
100
AcDbEntity
  8
0
  6
Continuous
 62
     0
370
    18
100
AcDbLine
 10
-0.6660856307
 20
-100.5755291
 30
0.0
 11
-1.6660876572
 21
-101.5755460278
 31
0.0
  0
LINE
  5
41F
330
34F
100
AcDbEntity
  8
0
  6
Continuous
 62
     0
370
    18
100
AcDbLine
 10
-0.6660856307
 20
-102.8205976502
 30
0.0
 11
-1.6660876572
 21
-103.8206145779
 31
0.0
  0
LINE
  5
420
330
34F
100
AcDbEntity
  8
0
  6
Continuous
 62
     0
370
    18
100
AcDbLine
 10
-0.6660856307
 20
-105.0656662003
 30
0.0
 11
-1.6660876572
 21
-106.065683128
 31
0.0
  0
LINE
  5
421
330
34F
100
AcDbEntity
  8
0
  6
Continuous
 62
     0
370
    18
100
AcDbLine
 10
-0.6660856307
 20
-107.3107347504
 30
0.0
 11
-1.6660876572
 21
-108.3107218758
 31
0.0
  0
LINE
  5
422
330
34F
100
AcDbEntity
  8
0
  6
Continuous
 62
     0
370
    18
100
AcDbLine
 10
-0.6660856307
 20
-109.5558033005
 30
0.0
 11
-1.6660876572
 21
-110.5557904259
 31
0.0
  0
LINE
  5
423
330
34F
100
AcDbEntity
  8
0
  6
Continuous
 62
     0
370
    18
100
AcDbLine
 10
-0.6660856307
 20
-111.8008718506
 30
0.0
 11
-1.928370446
 21
-113.0631492153
 31
0.0
  0
LINE
  5
424
330
34F
100
AcDbEntity
  8
0
  6
Continuous
 62
     0
370
    18
100
AcDbLine
 10
-1.301124692
 20
-114.6809682861
 30
0.0
 11
-2.6740469038
 21
-116.0538718716
 31
0.0
  0
LINE
  5
425
330
34F
100
AcDbEntity
  8
0
  6
Continuous
 62
     0
370
    18
100
AcDbLine
 10
-2.0467974246
 20
-117.6716909424
 30
0.0
 11
-2.2043734789
 21
-117.8292856232
 31
0.0
  0
LINE
  5
426
330
34F
100
AcDbEntity
  8
0
  6
Continuous
 62
     0
370
    18
100
AcDbLine
 10
-75.0648006797
 20
-85.1716921345
 30
0.0
 11
-75.6660886109
 21
-85.772983791
 31
0.0
  0
LINE
  5
427
330
34F
100
AcDbEntity
  8
0
  6
Continuous
 62
     0
370
    18
100
AcDbLine
 10
-74.6660865843
 20
-87.0180503145
 30
0.0
 11
-75.6660886109
 21
-88.0180523411
 31
0.0
  0
LINE
  5
428
330
34F
100
AcDbEntity
  8
0
  6
Continuous
 62
     0
370
    18
100
AcDbLine
 10
-74.6660865843
 20
-89.2631039635
 30
0.0
 11
-75.6660886109
 21
-90.26310599
 31
0.0
  0
LINE
  5
429
330
34F
100
AcDbEntity
  8
0
  6
Continuous
 62
     0
370
    18
100
AcDbLine
 10
-74.6660865843
 20
-91.5081725136
 30
0.0
 11
-75.6660886109
 21
-92.5081745401
 31
0.0
  0
LINE
  5
42A
330
34F
100
AcDbEntity
  8
0
  6
Continuous
 62
     0
370
    18
100
AcDbLine
 10
-74.6660865843
 20
-93.7532410637
 30
0.0
 11
-75.6660886109
 21
-94.7532281891
 31
0.0
  0
LINE
  5
42B
330
34F
100
AcDbEntity
  8
0
  6
Continuous
 62
     0
370
    18
100
AcDbLine
 10
-74.6660865843
 20
-95.9983096138
 30
0.0
 11
-75.6660886109
 21
-96.9982967392
 31
0.0
  0
LINE
  5
42C
330
34F
100
AcDbEntity
  8
0
  6
Continuous
 62
     0
370
    18
100
AcDbLine
 10
-74.6660865843
 20
-98.2433781639
 30
0.0
 11
-75.6660886109
 21
-99.2433652893
 31
0.0
  0
LINE
  5
42D
330
34F
100
AcDbEntity
  8
0
  6
Continuous
 62
     0
370
    18
100
AcDbLine
 10
-74.6660865843
 20
-100.4884169117
 30
0.0
 11
-75.6660886109
 21
-101.4884338394
 31
0.0
  0
LINE
  5
42E
330
34F
100
AcDbEntity
  8
0
  6
Continuous
 62
     0
370
    18
100
AcDbLine
 10
-74.6660865843
 20
-102.7334854618
 30
0.0
 11
-75.6660886109
 21
-103.7335023895
 31
0.0
  0
LINE
  5
42F
330
34F
100
AcDbEntity
  8
0
  6
Continuous
 62
     0
370
    18
100
AcDbLine
 10
-74.6660865843
 20
-104.9785540119
 30
0.0
 11
-75.6660886109
 21
-105.9785709396
 31
0.0
  0
LINE
  5
430
330
34F
100
AcDbEntity
  8
0
  6
Continuous
 62
     0
370
    18
100
AcDbLine
 10
-74.6660865843
 20
-107.223622562
 30
0.0
 11
-75.6660886109
 21
-108.2236096874
 31
0.0
  0
LINE
  5
431
330
34F
100
AcDbEntity
  8
0
  6
Continuous
 62
     0
370
    18
100
AcDbLine
 10
-74.6660865843
 20
-109.4686911121
 30
0.0
 11
-75.6660886109
 21
-110.4686782375
 31
0.0
  0
LINE
  5
432
330
34F
100
AcDbEntity
  8
0
  6
Continuous
 62
     0
370
    18
100
AcDbLine
 10
-74.6660865843
 20
-111.7137596623
 30
0.0
 11
-75.5503810942
 21
-112.5980541721
 31
0.0
  0
LINE
  5
433
330
34F
100
AcDbEntity
  8
0
  6
Continuous
 62
     0
370
    18
100
AcDbLine
 10
-74.2774009705
 20
-113.5701165215
 30
0.0
 11
-75.1023329794
 21
-114.3950746075
 31
0.0
  0
LINE
  5
434
330
34F
100
AcDbEntity
  8
0
  6
Continuous
 62
     0
370
    18
100
AcDbLine
 10
-73.8293528557
 20
-115.3671369568
 30
0.0
 11
-74.65428859
 21
-116.1920652405
 31
0.0
  0
LINE
  5
435
330
34F
100
AcDbEntity
  8
0
  6
Continuous
 62
     0
370
    18
100
AcDbLine
 10
-73.3813047409
 20
-117.1641573921
 30
0.0
 11
-74.0464255214
 21
-117.8292856232
 31
0.0
  0
ENDBLK
  5
351
330
34F
100
AcDbEntity
  8
0
100
AcDbBlockEnd
  0
ENDSEC
  0
SECTION
  2
ENTITIES
  0
LINE
  5
101
330
1F
100
AcDbEntity
  8
LINIEN-DÜNN
  6
CENTERX2
100
AcDbLine
 10
352.6174545849
 20
46.9080238789
 30
0.0
 11
352.6174545849
 21
39.4621586124
 31
0.0
  0
LINE
  5
102
330
1F
100
AcDbEntity
  8
LINIEN-DÜNN
100
AcDbLine
 10
357.7661698132
 20
46.3720107039
 30
0.0
 11
357.7661698132
 21
39.9353173413
 31
0.0
  0
LINE
  5
103
330
1F
100
AcDbEntity
  8
LINIEN-DÜNN
100
AcDbLine
 10
364.6059427486
 20
44.7376225767
 30
0.0
 11
364.6059427486
 21
41.5697054685
 31
0.0
  0
LINE
  5
104
330
1F
100
AcDbEntity
  8
LINIEN-DÜNN
100
AcDbLine
 10
364.6059427486
 20
44.7376225767
 30
0.0
 11
357.7661698132
 21
46.3720107039
 31
0.0
  0
LINE
  5
105
330
1F
100
AcDbEntity
  8
LINIEN-DÜNN
100
AcDbLine
 10
15.0
 20
198.5
 30
0.0
 11
20.0
 21
198.5
 31
0.0
  0
LINE
  5
106
330
1F
100
AcDbEntity
  8
LINIEN-DÜNN
100
AcDbLine
 10
12.0
 20
148.5
 30
0.0
 11
0.0
 21
148.5
 31
0.0
  0
LINE
  5
107
330
1F
100
AcDbEntity
  8
LINIEN-DÜNN
100
AcDbLine
 10
357.7661698132
 20
39.9353173413
 30
0.0
 11
364.6059427486
 21
41.5697054685
 31
0.0
  0
LINE
  5
108
330
1F
100
AcDbEntity
  8
LINIEN-DÜNN
  6
CENTERX2
100
AcDbLine
 10
348.6240467841
 20
43.1536640226
 30
0.0
 11
356.6108623857
 21
43.1536640226
 31
0.0
  0
LINE
  5
109
330
1F
100
AcDbEntity
  8
LINIEN-DÜNN
  6
CENTERX2
100
AcDbLine
 10
357.1289238876
 20
43.1536640226
 30
0.0
 11
365.6255362296
 21
43.1536640226
 31
0.0
  0
LINE
  5
10A
330
1F
100
AcDbEntity
  8
LINIEN-DÜNN
100
AcDbLine
 10
0.0
 20
0.0
 30
0.0
 11
420.0
 21
0.0
 31
0.0
  0
LINE
  5
10B
330
1F
100
AcDbEntity
  8
LINIEN-DÜNN
100
AcDbLine
 10
0.0
 20
0.0
 30
0.0
 11
0.0
 21
297.0
 31
0.0
  0
LINE
  5
10C
330
1F
100
AcDbEntity
  8
LINIEN-DÜNN
100
AcDbLine
 10
0.0
 20
297.0
 30
0.0
 11
420.0
 21
297.0
 31
0.0
  0
LINE
  5
10D
330
1F
100
AcDbEntity
  8
LINIEN-DÜNN
100
AcDbLine
 10
420.0
 20
0.0
 30
0.0
 11
420.0
 21
297.0
 31
0.0
  0
LINE
  5
10E
330
1F
100
AcDbEntity
  8
LINIEN-NORMAL
100
AcDbLine
 10
228.0
 20
35.0
 30
0.0
 11
410.0
 21
35.0
 31
0.0
  0
LINE
  5
10F
330
1F
100
AcDbEntity
  8
LINIEN-DÜNN
100
AcDbLine
 10
410.0
 20
198.5
 30
0.0
 11
415.0
 21
198.5
 31
0.0
  0
LINE
  5
110
330
1F
100
AcDbEntity
  8
LINIEN-DÜNN
100
AcDbLine
 10
15.0
 20
148.5
 30
0.0
 11
20.0
 21
148.5
 31
0.0
  0
LINE
  5
111
330
1F
100
AcDbEntity
  8
LINIEN-DÜNN
100
AcDbLine
 10
228.0
 20
40.0
 30
0.0
 11
296.6
 21
40.0
 31
0.0
  0
LINE
  5
112
330
1F
100
AcDbEntity
  8
LINIEN-DÜNN
100
AcDbLine
 10
15.0
 20
248.5
 30
0.0
 11
20.0
 21
248.5
 31
0.0
  0
LINE
  5
113
330
1F
100
AcDbEntity
  8
LINIEN-DICK
100
AcDbLine
 10
20.0
 20
287.0
 30
0.0
 11
20.0
 21
10.0
 31
0.0
  0
LINE
  5
114
330
1F
100
AcDbEntity
  8
LINIEN-DICK
100
AcDbLine
 10
410.0
 20
287.0
 30
0.0
 11
20.0
 21
287.0
 31
0.0
  0
LINE
  5
115
330
1F
100
AcDbEntity
  8
LINIEN-DICK
100
AcDbLine
 10
410.0
 20
5.0
 30
0.0
 11
410.0
 21
287.0
 31
0.0
  0
LINE
  5
116
330
1F
100
AcDbEntity
  8
LINIEN-DICK
100
AcDbLine
 10
20.0
 20
10.0
 30
0.0
 11
415.0
 21
10.0
 31
0.0
  0
LINE
  5
117
330
1F
100
AcDbEntity
  8
LINIEN-DÜNN
100
AcDbLine
 10
410.0
 20
148.5
 30
0.0
 11
415.0
 21
148.5
 31
0.0
  0
LINE
  5
118
330
1F
100
AcDbEntity
  8
LINIEN-DÜNN
100
AcDbLine
 10
228.0
 20
50.0
 30
0.0
 11
296.6
 21
50.0
 31
0.0
  0
LINE
  5
119
330
1F
100
AcDbEntity
  8
LINIEN-DÜNN
100
AcDbLine
 10
15.0
 20
98.5
 30
0.0
 11
20.0
 21
98.5
 31
0.0
  0
LINE
  5
11A
330
1F
100
AcDbEntity
  8
LINIEN-DÜNN
100
AcDbLine
 10
296.6
 20
45.0
 30
0.0
 11
228.0
 21
45.0
 31
0.0
  0
LINE
  5
11B
330
1F
100
AcDbEntity
  8
LINIEN-DÜNN
100
AcDbLine
 10
65.0
 20
292.0
 30
0.0
 11
65.0
 21
287.0
 31
0.0
  0
LINE
  5
11C
330
1F
100
AcDbEntity
  8
LINIEN-DÜNN
100
AcDbLine
 10
230.0
 20
292.0
 30
0.0
 11
230.0
 21
297.0
 31
0.0
  0
LINE
  5
11D
330
1F
100
AcDbEntity
  8
LINIEN-NORMAL
100
AcDbLine
 10
296.6
 20
55.0
 30
0.0
 11
296.6
 21
35.0
 31
0.0
  0
LINE
  5
11E
330
1F
100
AcDbEntity
  8
LINIEN-DÜNN
100
AcDbLine
 10
410.0
 20
98.5
 30
0.0
 11
415.0
 21
98.5
 31
0.0
  0
LINE
  5
11F
330
1F
100
AcDbEntity
  8
VORLAGE_BEMASSUNG
100
AcDbLine
 10
230.0
 20
5.0
 30
0.0
 11
230.0
 21
0.0
 31
0.0
  0
LINE
  5
120
330
1F
100
AcDbEntity
  8
LINIEN-DÜNN
100
AcDbLine
 10
125.0
 20
292.0
 30
0.0
 11
125.0
 21
297.0
 31
0.0
  0
LINE
  5
121
330
1F
100
AcDbEntity
  8
LINIEN-DÜNN
100
AcDbLine
 10
125.0
 20
5.0
 30
0.0
 11
125.0
 21
0.0
 31
0.0
  0
LINE
  5
122
330
1F
100
AcDbEntity
  8
LINIEN-NORMAL
100
AcDbLine
 10
410.0
 20
55.0
 30
0.0
 11
228.0
 21
55.0
 31
0.0
  0
LINE
  5
123
330
1F
100
AcDbEntity
  8
LINIEN-DÜNN
100
AcDbLine
 10
228.0
 20
55.0
 30
0.0
 11
410.0
 21
55.0
 31
0.0
  0
LINE
  5
124
330
1F
100
AcDbEntity
  8
LINIEN-DÜNN
100
AcDbLine
 10
410.0
 20
55.0
 30
0.0
 11
228.0
 21
55.0
 31
0.0
  0
LINE
  5
125
330
1F
100
AcDbEntity
  8
LINIEN-DÜNN
100
AcDbLine
 10
268.0
 20
76.5
 30
0.0
 11
268.0
 21
55.0
 31
0.0
  0
LINE
  5
126
330
1F
100
AcDbEntity
  8
LINIEN-DÜNN
100
AcDbLine
 10
271.6
 20
55.0
 30
0.0
 11
271.6
 21
40.0
 31
0.0
  0
LINE
  5
127
330
1F
100
AcDbEntity
  8
LINIEN-DÜNN
100
AcDbLine
 10
247.0
 20
55.0
 30
0.0
 11
247.0
 21
35.0
 31
0.0
  0
LINE
  5
128
330
1F
100
AcDbEntity
  8
LINIEN-DICK
100
AcDbLine
 10
228.0
 20
76.5
 30
0.0
 11
228.0
 21
10.0
 31
0.0
  0
LINE
  5
129
330
1F
100
AcDbEntity
  8
LINIEN-DÜNN
100
AcDbLine
 10
15.0
 20
292.0
 30
0.0
 11
415.0
 21
292.0
 31
0.0
  0
LINE
  5
12A
330
1F
100
AcDbEntity
  8
LINIEN-DÜNN
100
AcDbLine
 10
228.0
 20
65.75
 30
0.0
 11
310.0
 21
65.75
 31
0.0
  0
LINE
  5
12B
330
1F
100
AcDbEntity
  8
LINIEN-DICK
100
AcDbLine
 10
228.0
 20
76.5
 30
0.0
 11
410.0
 21
76.5
 31
0.0
  0
LINE
  5
12C
330
1F
100
AcDbEntity
  8
LINIEN-DÜNN
100
AcDbLine
 10
15.0
 20
48.5
 30
0.0
 11
20.0
 21
48.5
 31
0.0
  0
LINE
  5
12D
330
1F
100
AcDbEntity
  8
LINIEN-DÜNN
100
AcDbLine
 10
410.0
 20
48.5
 30
0.0
 11
415.0
 21
48.5
 31
0.0
  0
LINE
  5
12E
330
1F
100
AcDbEntity
  8
LINIEN-DÜNN
100
AcDbLine
 10
332.6610845472
 20
20.0
 30
0.0
 11
332.6610845472
 21
10.0
 31
0.0
  0
LINE
  5
12F
330
1F
100
AcDbEntity
  8
LINIEN-DÜNN
100
AcDbLine
 10
410.0
 20
248.5
 30
0.0
 11
415.0
 21
248.5
 31
0.0
  0
LINE
  5
130
330
1F
100
AcDbEntity
  8
LINIEN-DÜNN
100
AcDbLine
 10
65.0
 20
10.0
 30
0.0
 11
65.0
 21
5.0
 31
0.0
  0
LINE
  5
131
330
1F
100
AcDbEntity
  8
LINIEN-DÜNN
100
AcDbLine
 10
115.0
 20
10.0
 30
0.0
 11
115.0
 21
5.0
 31
0.0
  0
LINE
  5
132
330
1F
100
AcDbEntity
  8
LINIEN-DÜNN
100
AcDbLine
 10
115.0
 20
292.0
 30
0.0
 11
115.0
 21
287.0
 31
0.0
  0
LINE
  5
133
330
1F
100
AcDbEntity
  8
LINIEN-DÜNN
100
AcDbLine
 10
165.0
 20
10.0
 30
0.0
 11
165.0
 21
5.0
 31
0.0
  0
LINE
  5
134
330
1F
100
AcDbEntity
  8
LINIEN-DÜNN
100
AcDbLine
 10
165.0
 20
292.0
 30
0.0
 11
165.0
 21
287.0
 31
0.0
  0
LINE
  5
135
330
1F
100
AcDbEntity
  8
LINIEN-DÜNN
100
AcDbLine
 10
215.0
 20
10.0
 30
0.0
 11
215.0
 21
5.0
 31
0.0
  0
LINE
  5
136
330
1F
100
AcDbEntity
  8
LINIEN-DÜNN
100
AcDbLine
 10
215.0
 20
292.0
 30
0.0
 11
215.0
 21
287.0
 31
0.0
  0
LINE
  5
137
330
1F
100
AcDbEntity
  8
LINIEN-DÜNN
100
AcDbLine
 10
265.0
 20
10.0
 30
0.0
 11
265.0
 21
5.0
 31
0.0
  0
LINE
  5
138
330
1F
100
AcDbEntity
  8
LINIEN-DÜNN
100
AcDbLine
 10
265.0
 20
292.0
 30
0.0
 11
265.0
 21
287.0
 31
0.0
  0
LINE
  5
139
330
1F
100
AcDbEntity
  8
LINIEN-DÜNN
100
AcDbLine
 10
347.6610845472
 20
20.0
 30
0.0
 11
347.6610845472
 21
10.0
 31
0.0
  0
LINE
  5
13A
330
1F
100
AcDbEntity
  8
LINIEN-DÜNN
100
AcDbLine
 10
362.6610845472
 20
20.0
 30
0.0
 11
362.6610845472
 21
10.0
 31
0.0
  0
LINE
  5
13B
330
1F
100
AcDbEntity
  8
LINIEN-NORMAL
100
AcDbLine
 10
327.6610845472
 20
10.0
 30
0.0
 11
327.6610845472
 21
55.0
 31
0.0
  0
LINE
  5
13C
330
1F
100
AcDbEntity
  8
LINIEN-DÜNN
100
AcDbLine
 10
20.0
 20
292.0
 30
0.0
 11
20.0
 21
297.0
 31
0.0
  0
LINE
  5
13D
330
1F
100
AcDbEntity
  8
LINIEN-DÜNN
100
AcDbLine
 10
20.0
 20
5.0
 30
0.0
 11
20.0
 21
0.0
 31
0.0
  0
LINE
  5
13E
330
1F
100
AcDbEntity
  8
LINIEN-DÜNN
100
AcDbLine
 10
315.0
 20
10.0
 30
0.0
 11
315.0
 21
5.0
 31
0.0
  0
LINE
  5
13F
330
1F
100
AcDbEntity
  8
LINIEN-DÜNN
100
AcDbLine
 10
315.0
 20
292.0
 30
0.0
 11
315.0
 21
287.0
 31
0.0
  0
LINE
  5
140
330
1F
100
AcDbEntity
  8
LINIEN-DÜNN
100
AcDbLine
 10
365.0
 20
10.0
 30
0.0
 11
365.0
 21
5.0
 31
0.0
  0
LINE
  5
141
330
1F
100
AcDbEntity
  8
LINIEN-DÜNN
100
AcDbLine
 10
365.0
 20
292.0
 30
0.0
 11
365.0
 21
287.0
 31
0.0
  0
LINE
  5
142
330
1F
100
AcDbEntity
  8
LINIEN-DÜNN
100
AcDbLine
 10
15.0
 20
292.0
 30
0.0
 11
15.0
 21
5.0
 31
0.0
  0
LINE
  5
143
330
1F
100
AcDbEntity
  8
LINIEN-DÜNN
100
AcDbLine
 10
15.0
 20
5.0
 30
0.0
 11
415.0
 21
5.0
 31
0.0
  0
LINE
  5
144
330
1F
100
AcDbEntity
  8
LINIEN-DÜNN
100
AcDbLine
 10
415.0
 20
292.0
 30
0.0
 11
415.0
 21
5.0
 31
0.0
  0
LINE
  5
145
330
1F
100
AcDbEntity
  8
LINIEN-DÜNN
100
AcDbLine
 10
347.6610845472
 20
44.213444
 30
0.0
 11
327.6610845472
 21
44.213444
 31
0.0
  0
LINE
  5
146
330
1F
100
AcDbEntity
  8
LINIEN-DÜNN
100
AcDbLine
 10
347.6610845472
 20
35.0
 30
0.0
 11
347.6610845472
 21
55.0
 31
0.0
  0
LINE
  5
147
330
1F
100
AcDbEntity
  8
LINIEN-DÜNN
100
AcDbLine
 10
370.057188
 20
55.012032
 30
0.0
 11
370.057188
 21
35.0
 31
0.0
  0
LINE
  5
148
330
1F
100
AcDbEntity
  8
LINIEN-DÜNN
100
AcDbLine
 10
398.0
 20
35.0
 30
0.0
 11
398.0
 21
20.0
 31
0.0
  0
LINE
  5
149
330
1F
100
AcDbEntity
  8
LINIEN-DÜNN
100
AcDbLine
 10
410.0
 20
15.0
 30
0.0
 11
327.6610845472
 21
15.0
 31
0.0
  0
LINE
  5
14A
330
1F
100
AcDbEntity
  8
LINIEN-DÜNN
100
AcDbLine
 10
327.6610845472
 20
20.0
 30
0.0
 11
410.0
 21
20.0
 31
0.0
  0
LINE
  5
14B
330
1F
100
AcDbEntity
  8
LINIEN-DÜNN
100
AcDbLine
 10
341.485486
 20
20.0
 30
0.0
 11
341.485486
 21
27.564675
 31
0.0
  0
LINE
  5
14C
330
1F
100
AcDbEntity
  8
LINIEN-NORMAL
100
AcDbLine
 10
310.0
 20
76.5
 30
0.0
 11
310.0
 21
55.0
 31
0.0
  0
CIRCLE
  5
14D
330
1F
100
AcDbEntity
  8
LINIEN-DÜNN
100
AcDbCircle
 10
11.0
 20
108.5
 30
0.0
 40
2.750000000000001
  0
CIRCLE
  5
14E
330
1F
100
AcDbEntity
  8
LINIEN-DÜNN
100
AcDbCircle
 10
11.0
 20
188.5
 30
0.0
 40
2.750000000000001
  0
CIRCLE
  5
14F
330
1F
100
AcDbEntity
  8
LINIEN-DÜNN
100
AcDbCircle
 10
352.6174545849
 20
43.1536640226
 30
0.0
 40
3.218346681300138
  0
CIRCLE
  5
150
330
1F
100
AcDbEntity
  8
LINIEN-DÜNN
100
AcDbCircle
 10
352.6174545849
 20
43.1536640226
 30
0.0
 40
1.583958554121555
  0
INSERT
  5
151
330
1F
100
AcDbEntity
  8
0
  6
Continuous
 62
     7
100
AcDbBlockReference
  2
ACO-Logo
 10
314.3510726297
 20
57.6366106772
 30
0.0
  0
POINT
  5
152
330
1F
100
AcDbEntity
  8
VORLAGE_BEMASSUNG
100
AcDbPoint
 10
0.0
 20
0.0
 30
0.0
  0
POINT
  5
153
330
1F
100
AcDbEntity
  8
VORLAGE_BEMASSUNG
100
AcDbPoint
 10
410.0
 20
10.0
 30
0.0
  0
MTEXT
  5
154
330
1F
100
AcDbEntity
  8
VORLAGE_TEXT
100
AcDbMText
 10
17.7359443114
 20
124.8017866468
 30
0.0
 40
2.0
 41
0.0
 71
     2
 72
     1
  1
D
  7
SLDTEXTSTYLE0
 73
     1
 44
1.0
  0
MTEXT
  5
155
330
1F
100
AcDbEntity
  8
VORLAGE_TEXT
100
AcDbMText
 10
17.6274822413
 20
174.7261854936
 30
0.0
 40
2.0
 41
0.0
 71
     2
 72
     1
  1
C
  7
SLDTEXTSTYLE0
 73
     1
 44
1.0
  0
MTEXT
  5
156
330
1F
100
AcDbEntity
  8
VORLAGE_TEXT
100
AcDbMText
 10
17.5516905072
 20
224.4926420442
 30
0.0
 40
2.0
 41
0.0
 71
     2
 72
     1
  1
B
  7
SLDTEXTSTYLE0
 73
     1
 44
1.0
  0
MTEXT
  5
157
330
1F
100
AcDbEntity
  8
VORLAGE_TEXT
100
AcDbMText
 10
290.0344258799
 20
290.5428789914
 30
0.0
 40
2.0
 41
0.0
 71
     2
 72
     1
  1
6
  7
SLDTEXTSTYLE0
 73
     1
 44
1.0
  0
MTEXT
  5
158
330
1F
100
AcDbEntity
  8
VORLAGE_TEXT
100
AcDbMText
 10
240.0417859812
 20
290.6369260235
 30
0.0
 40
2.0
 41
0.0
 71
     2
 72
     1
  1
5
  7
SLDTEXTSTYLE0
 73
     1
 44
1.0
  0
MTEXT
  5
159
330
1F
100
AcDbEntity
  8
VORLAGE_TEXT
100
AcDbMText
 10
190.0300404524
 20
290.6343268032
 30
0.0
 40
2.0
 41
0.0
 71
     2
 72
     1
  1
4
  7
SLDTEXTSTYLE0
 73
     1
 44
1.0
  0
MTEXT
  5
15A
330
1F
100
AcDbEntity
  8
VORLAGE_TEXT
100
AcDbMText
 10
140.0165868337
 20
290.6378887952
 30
0.0
 40
2.0
 41
0.0
 71
     2
 72
     1
  1
3
  7
SLDTEXTSTYLE0
 73
     1
 44
1.0
  0
MTEXT
  5
15B
330
1F
100
AcDbEntity
  8
VORLAGE_TEXT
100
AcDbMText
 10
90.033223
 20
290.5566702875
 30
0.0
 40
2.0
 41
0.0
 71
     2
 72
     1
  1
2
  7
SLDTEXTSTYLE0
 73
     1
 44
1.0
  0
MTEXT
  5
15C
330
1F
100
AcDbEntity
  8
VORLAGE_TEXT
100
AcDbMText
 10
40.0509551097
 20
290.5530165805
 30
0.0
 40
2.0
 41
0.0
 71
     2
 72
     1
  1
1
  7
SLDTEXTSTYLE0
 73
     1
 44
1.0
  0
MTEXT
  5
15D
330
1F
100
AcDbEntity
  8
VORLAGE_TEXT
100
AcDbMText
 10
17.5609786315
 20
271.2966048816
 30
0.0
 40
2.0
 41
0.0
 71
     2
 72
     1
  1
A
  7
SLDTEXTSTYLE0
 73
     1
 44
1.0
  0
MTEXT
  5
15E
330
1F
100
AcDbEntity
  8
VORLAGE_TEXT
100
AcDbMText
 10
89.9333968896
 20
8.5904490253
 30
0.0
 40
2.0
 41
0.0
 71
     2
 72
     1
  1
2
  7
SLDTEXTSTYLE0
 73
     1
 44
1.0
  0
MTEXT
  5
15F
330
1F
100
AcDbEntity
  8
VORLAGE_TEXT
100
AcDbMText
 10
39.9009486579
 20
8.6623118453
 30
0.0
 40
2.0
 41
0.0
 71
     2
 72
     1
  1
1
  7
SLDTEXTSTYLE0
 73
     1
 44
1.0
  0
MTEXT
  5
160
330
1F
100
AcDbEntity
  8
VORLAGE_TEXT
100
AcDbMText
 10
190.0227230239
 20
8.7073169286
 30
0.0
 40
2.0
 41
0.0
 71
     2
 72
     1
  1
4
  7
SLDTEXTSTYLE0
 73
     1
 44
1.0
  0
MTEXT
  5
161
330
1F
100
AcDbEntity
  8
VORLAGE_TEXT
100
AcDbMText
 10
140.0453427777
 20
8.5647154541
 30
0.0
 40
2.0
 41
0.0
 71
     2
 72
     1
  1
3
  7
SLDTEXTSTYLE0
 73
     1
 44
1.0
  0
MTEXT
  5
162
330
1F
100
AcDbEntity
  8
VORLAGE_TEXT
100
AcDbMText
 10
239.8749782531
 20
8.5637526825
 30
0.0
 40
2.0
 41
0.0
 71
     2
 72
     1
  1
5
  7
SLDTEXTSTYLE0
 73
     1
 44
1.0
  0
MTEXT
  5
163
330
1F
100
AcDbEntity
  8
VORLAGE_TEXT
100
AcDbMText
 10
412.6717254925
 20
224.51208263
 30
0.0
 40
2.0
 41
0.0
 71
     2
 72
     1
  1
B
  7
SLDTEXTSTYLE0
 73
     1
 44
1.0
  0
MTEXT
  5
164
330
1F
100
AcDbEntity
  8
VORLAGE_TEXT
100
AcDbMText
 10
412.5951211154
 20
271.2798202564
 30
0.0
 40
2.0
 41
0.0
 71
     2
 72
     1
  1
A
  7
SLDTEXTSTYLE0
 73
     1
 44
1.0
  0
MTEXT
  5
165
330
1F
100
AcDbEntity
  8
VORLAGE_TEXT
100
AcDbMText
 10
412.6491448679
 20
174.7279841048
 30
0.0
 40
2.0
 41
0.0
 71
     2
 72
     1
  1
C
  7
SLDTEXTSTYLE0
 73
     1
 44
1.0
  0
MTEXT
  5
166
330
1F
100
AcDbEntity
  8
VORLAGE_TEXT
100
AcDbMText
 10
340.0216466634
 20
290.5954278102
 30
0.0
 40
2.0
 41
0.0
 71
     2
 72
     1
  1
7
  7
SLDTEXTSTYLE0
 73
     1
 44
1.0
  0
MTEXT
  5
167
330
1F
100
AcDbEntity
  8
VORLAGE_TEXT
100
AcDbMText
 10
390.037657264
 20
290.6215496941
 30
0.0
 40
2.0
 41
0.0
 71
     2
 72
     1
  1
8
  7
SLDTEXTSTYLE0
 73
     1
 44
1.0
  0
MTEXT
  5
168
330
1F
100
AcDbEntity
  8
VORLAGE_TEXT
100
AcDbMText
 10
17.6897935208
 20
74.7267628143
 30
0.0
 40
2.0
 41
0.0
 71
     2
 72
     1
  1
E
  7
SLDTEXTSTYLE0
 73
     1
 44
1.0
  0
MTEXT
  5
169
330
1F
100
AcDbEntity
  8
VORLAGE_TEXT
100
AcDbMText
 10
17.5936930126
 20
27.773321616
 30
0.0
 40
2.0
 41
0.0
 71
     2
 72
     1
  1
F
  7
SLDTEXTSTYLE0
 73
     1
 44
1.0
  0
MTEXT
  5
16A
330
1F
100
AcDbEntity
  8
VORLAGE_TEXT
100
AcDbMText
 10
339.8003474583
 20
8.7205095051
 30
0.0
 40
2.0
 41
0.0
 71
     2
 72
     1
  1
7
  7
SLDTEXTSTYLE0
 73
     1
 44
1.0
  0
MTEXT
  5
16B
330
1F
100
AcDbEntity
  8
VORLAGE_TEXT
100
AcDbMText
 10
289.7886477179
 20
8.6884673623
 30
0.0
 40
2.0
 41
0.0
 71
     2
 72
     1
  1
6
  7
SLDTEXTSTYLE0
 73
     1
 44
1.0
  0
MTEXT
  5
16C
330
1F
100
AcDbEntity
  8
VORLAGE_TEXT
100
AcDbMText
 10
412.5160699095
 20
74.5096307526
 30
0.0
 40
2.0
 41
0.0
 71
     2
 72
     1
  1
E
  7
SLDTEXTSTYLE0
 73
     1
 44
1.0
  0
MTEXT
  5
16D
330
1F
100
AcDbEntity
  8
VORLAGE_TEXT
100
AcDbMText
 10
412.6234021365
 20
124.4517683275
 30
0.0
 40
2.0
 41
0.0
 71
     2
 72
     1
  1
D
  7
SLDTEXTSTYLE0
 73
     1
 44
1.0
  0
MTEXT
  5
16E
330
1F
100
AcDbEntity
  8
TEXT-DEUTSCH
100
AcDbMText
 10
411.7952690469
 20
41.8539115219
 30
0.0
 40
1.8
 41
0.0
 71
     3
 72
     1
  1
Plotdatum: 21.09.2023
  7
SLDTEXTSTYLE0
 11
-3.269436733918102E-15
 21
1.0
 31
0.0
 73
     1
 44
1.0
  0
MTEXT
  5
16F
330
1F
100
AcDbEntity
  8
VORLAGE_TEXT
100
AcDbMText
 10
412.557933251
 20
8.2549718046
 30
0.0
 40
1.8
 41
0.0
 71
     2
 72
     1
  1
A3
  7
SLDTEXTSTYLE0
 73
     1
 44
1.0
  0
MTEXT
  5
170
330
1F
100
AcDbEntity
  8
VORLAGE_TEXT
100
AcDbMText
 10
390.594604279
 20
8.3847467643
 30
0.0
 40
1.8
 41
0.0
 71
     2
 72
     1
  1
CAD-System: SolidWorks
  7
SLDTEXTSTYLE0
 73
     1
 44
1.0
  0
MTEXT
  5
171
330
1F
100
AcDbEntity
  8
TEXT
100
AcDbMText
 10
404.0541923444
 20
28.4394692021
 30
0.0
 40
5.0
 41
0.0
 71
     2
 72
     1
  1
-
  7
SLDTEXTSTYLE0
 73
     1
 44
1.0
  0
MTEXT
  5
172
330
1F
100
AcDbEntity
  8
TEXT
100
AcDbMText
 10
249.556836311
 20
38.5581729516
 30
0.0
 40
2.0
 41
0.0
 71
     1
 72
     1
  1
Freigegeben
  7
SLDTEXTSTYLE0
 73
     1
 44
1.0
  0
MTEXT
  5
173
330
1F
100
AcDbEntity
  8
TEXT
100
AcDbMText
 10
284.0823755556
 20
43.5473338598
 30
0.0
 40
2.0
 41
0.0
 71
     2
 72
     1
  1
nae
  7
SLDTEXTSTYLE0
 73
     1
 44
1.0
  0
MTEXT
  5
174
330
1F
100
AcDbEntity
  8
TEXT
100
AcDbMText
 10
249.5284668163
 20
43.5603133928
 30
0.0
 40
2.0
 41
0.0
 71
     1
 72
     1
  1
21.09.2023
  7
SLDTEXTSTYLE0
 73
     1
 44
1.0
  0
MTEXT
  5
175
330
1F
100
AcDbEntity
  8
TEXT
100
AcDbMText
 10
284.1309088133
 20
48.5138972561
 30
0.0
 40
2.0
 41
0.0
 71
     2
 72
     1
  1
AB
  7
SLDTEXTSTYLE0
 73
     1
 44
1.0
  0
MTEXT
  5
176
330
1F
100
AcDbEntity
  8
TEXT
100
AcDbMText
 10
249.5284668163
 20
48.4989062069
 30
0.0
 40
2.0
 41
0.0
 71
     1
 72
     1
  1
05.02.2021
  7
SLDTEXTSTYLE0
 73
     1
 44
1.0
  0
MTEXT
  5
177
330
1F
100
AcDbEntity
  8
0
  6
Continuous
 62
     7
370
     0
100
AcDbMText
 10
372.2007348103
 20
38.8723054925
 30
0.0
 40
1.5
 41
0.0
 71
     1
 72
     1
  1
Copyright reserved! © ACO AG
  7
SLDTEXTSTYLE0
 73
     1
 44
1.0
  0
INSERT
  5
180
330
1F
100
AcDbEntity
  8
0
  6
Continuous
 62
     7
370
     0
100
AcDbBlockReference
  2
SW_NOTE_0_3
 10
372.2203831445
 20
51.2202922854
 30
0.0
  0
MTEXT
  5
181
330
1F
100
AcDbEntity
  8
TEXT
100
AcDbMText
 10
364.9468572407
 20
18.4594173137
 30
0.0
 40
2.0
 41
0.0
 71
     1
 72
     1
  1
Erstausgabe
  7
SLDTEXTSTYLE0
 73
     1
 44
1.0
  0
MTEXT
  5
182
330
1F
100
AcDbEntity
  8
TEXT
100
AcDbMText
 10
330.2607505021
 20
18.524501801
 30
0.0
 40
2.0
 41
0.0
 71
     2
 72
     1
  1
-
  7
SLDTEXTSTYLE0
 73
     1
 44
1.0
  0
MTEXT
  5
183
330
1F
100
AcDbEntity
  8
VORLAGE_TEXT
100
AcDbMText
 10
311.764909851
 20
46.3490312465
 30
0.0
 40
5.0
 41
0.0
 71
     2
 72
     1
  1
1:1
  7
SLDTEXTSTYLE0
 73
     1
 44
1.0
  0
MTEXT
  5
184
330
1F
100
AcDbEntity
  8
VORLAGE_TEXT
100
AcDbMText
 10
230.1851195342
 20
38.7793829468
 30
0.0
 40
2.0
 41
0.0
 71
     1
 72
     1
  1
Status:
  7
SLDTEXTSTYLE0
 73
     1
 44
1.0
  0
MTEXT
  5
185
330
1F
100
AcDbEntity
  8
TEXT
100
AcDbMText
 10
344.926838705
 20
28.2772828851
 30
0.0
 40
5.0
 41
0.0
 71
     1
 72
     1
  1
98570
  7
SLDTEXTSTYLE0
 73
     1
 44
1.0
  0
MTEXT
  5
186
330
1F
100
AcDbEntity
  8
TEXT
100
AcDbMText
 10
231.1132118803
 20
14.9211049657
 30
0.0
 40
2.5
 41
0.0
 71
     1
 72
     1
  1
Art. Nr.: 2021460
  7
SLDTEXTSTYLE0
 73
     1
 44
1.0
  0
MTEXT
  5
187
330
1F
100
AcDbEntity
  8
TEXT
100
AcDbMText
 10
231.1475981734
 20
21.4529560996
 30
0.0
 40
2.5
 41
0.0
 71
     1
 72
     1
  1
Pipe Rohre mit Steckmuffe DN70
  7
SLDTEXTSTYLE0
 73
     1
 44
1.0
  0
MTEXT
  5
188
330
1F
100
AcDbEntity
  8
TEXT
100
AcDbMText
 10
231.1159560181
 20
33.0904969858
 30
0.0
 40
2.5
 41
0.0
 71
     1
 72
     1
  1
Haustechnik
  7
SLDTEXTSTYLE0
 73
     1
 44
1.0
  0
MTEXT
  5
189
330
1F
100
AcDbEntity
  8
TEXT
100
AcDbMText
 10
231.1475981734
 20
28.0307932366
 30
0.0
 40
3.5
 41
0.0
 71
     1
 72
     1
  1
Pipe Rohr mit Steckmuffe DN70 x 500
  7
SLDTEXTSTYLE0
 73
     1
 44
1.0
  0
MTEXT
  5
18A
330
1F
100
AcDbEntity
  8
VORLAGE_TEXT
100
AcDbMText
 10
348.2746465368
 20
53.819119072
 30
0.0
 40
2.0
 41
0.0
 71
     1
 72
     1
  1
Projektion: ISO-E
  7
SLDTEXTSTYLE0
 73
     1
 44
1.0
  0
MTEXT
  5
18B
330
1F
100
AcDbEntity
  8
TEXT
100
AcDbMText
 10
337.7677091855
 20
49.3670227094
 30
0.0
 40
2.5
 41
0.0
 71
     2
 72
     1
  1
Millimeter
  7
SLDTEXTSTYLE0
 73
     1
 44
1.0
  0
MTEXT
  5
18C
330
1F
100
AcDbEntity
  8
VORLAGE_TEXT
100
AcDbMText
 10
337.6323777421
 20
53.855374072
 30
0.0
 40
2.0
 41
0.0
 71
     2
 72
     1
  1
Masseinheit:
  7
SLDTEXTSTYLE0
 73
     1
 44
1.0
  0
MTEXT
  5
18D
330
1F
100
AcDbEntity
  8
VORLAGE_TEXT
100
AcDbMText
 10
337.6114490186
 20
43.5452078816
 30
0.0
 40
2.0
 41
0.0
 71
     2
 72
     1
  1
Blatt / Anz.:
  7
SLDTEXTSTYLE0
 73
     1
 44
1.0
  0
MTEXT
  5
18E
330
1F
100
AcDbEntity
  8
VORLAGE_TEXT
100
AcDbMText
 10
329.2895578243
 20
28.4139191092
 30
0.0
 40
5.0
 41
0.0
 71
     1
 72
     1
  1
CH
  7
SLDTEXTSTYLE0
 73
     1
 44
1.0
  0
MTEXT
  5
18F
330
1F
100
AcDbEntity
  8
VORLAGE_TEXT
100
AcDbMText
 10
330.40704
 20
33.692638072
 30
0.0
 40
2.0
 41
0.0
 71
     1
 72
     1
  1
Zeichnung Nr.:
  7
SLDTEXTSTYLE0
 73
     1
 44
1.0
  0
MTEXT
  5
190
330
1F
100
AcDbEntity
  8
VORLAGE_TEXT
100
AcDbMText
 10
269.897953
 20
75.161075072
 30
0.0
 40
2.0
 41
0.0
 71
     1
 72
     1
  1
Gewicht:
  7
SLDTEXTSTYLE0
 73
     1
 44
1.0
  0
MTEXT
  5
191
330
1F
100
AcDbEntity
  8
VORLAGE_TEXT
100
AcDbMText
 10
230.0
 20
64.542328072
 30
0.0
 40
2.0
 41
0.0
 71
     1
 72
     1
  1
zul. Abweichung:
  7
SLDTEXTSTYLE0
 73
     1
 44
1.0
  0
MTEXT
  5
192
330
1F
100
AcDbEntity
  8
VORLAGE_TEXT
100
AcDbMText
 10
269.612607
 20
64.542328072
 30
0.0
 40
2.0
 41
0.0
 71
     1
 72
     1
  1
Oberfläche:
  7
SLDTEXTSTYLE0
 73
     1
 44
1.0
  0
MTEXT
  5
193
330
1F
100
AcDbEntity
  8
VORLAGE_TEXT
100
AcDbMText
 10
230.261411
 20
43.4433838912
 30
0.0
 40
2.0
 41
0.0
 71
     1
 72
     1
  1
Freigegeben:
  7
SLDTEXTSTYLE0
 73
     1
 44
1.0
  0
MTEXT
  5
194
330
1F
100
AcDbEntity
  8
VORLAGE_TEXT
100
AcDbMText
 10
230.0
 20
75.161075072
 30
0.0
 40
2.0
 41
0.0
 71
     1
 72
     1
  1
Werkstoff:
  7
SLDTEXTSTYLE0
 73
     1
 44
1.0
  0
MTEXT
  5
195
330
1F
100
AcDbEntity
  8
VORLAGE_TEXT
100
AcDbMText
 10
254.035545
 20
53.129475072
 30
0.0
 40
2.0
 41
0.0
 71
     1
 72
     1
  1
Datum:
  7
SLDTEXTSTYLE0
 73
     1
 44
1.0
  0
MTEXT
  5
196
330
1F
100
AcDbEntity
  8
VORLAGE_TEXT
100
AcDbMText
 10
279.934928
 20
53.136060072
 30
0.0
 40
2.0
 41
0.0
 71
     1
 72
     1
  1
Name:
  7
SLDTEXTSTYLE0
 73
     1
 44
1.0
  0
MTEXT
  5
197
330
1F
100
AcDbEntity
  8
VORLAGE_TEXT
100
AcDbMText
 10
312.162455406
 20
53.881591072
 30
0.0
 40
2.0
 41
0.0
 71
     2
 72
     1
  1
Massstab:
  7
SLDTEXTSTYLE0
 73
     1
 44
1.0
  0
MTEXT
  5
198
330
1F
100
AcDbEntity
  8
VORLAGE_TEXT
100
AcDbMText
 10
403.9552944035
 20
33.324874072
 30
0.0
 40
2.0
 41
0.0
 71
     2
 72
     1
  1
Index:
  7
SLDTEXTSTYLE0
 73
     1
 44
1.0
  0
MTEXT
  5
199
330
1F
100
AcDbEntity
  8
VORLAGE_TEXT
100
AcDbMText
 10
230.261411
 20
48.4499477886
 30
0.0
 40
2.0
 41
0.0
 71
     1
 72
     1
  1
Erstellt:
  7
SLDTEXTSTYLE0
 73
     1
 44
1.0
  0
MTEXT
  5
19B
330
1F
100
AcDbEntity
  8
VORLAGE_TEXT
100
AcDbMText
 10
337.6348165843
 20
39.869706576
 30
0.0
 40
2.5
 41
0.0
 71
     2
 72
     1
  1
1 / 1
  7
SLDTEXTSTYLE1
 73
     1
 44
1.0
  0
MTEXT
  5
19C
330
1F
100
AcDbEntity
  8
TEXT
100
AcDbMText
 10
269.612607
 20
60.8119428599
 30
0.0
 40
3.0
 41
0.0
 71
     1
 72
     1
  1
DIN ISO 1302
  7
SLDTEXTSTYLE0
 73
     1
 44
1.0
  0
MTEXT
  5
19D
330
1F
100
AcDbEntity
  8
TEXT
100
AcDbMText
 10
230.0
 20
60.8119428599
 30
0.0
 40
3.0
 41
0.0
 71
     1
 72
     1
  1
Norm
  7
SLDTEXTSTYLE0
 73
     1
 44
1.0
  0
MTEXT
  5
19E
330
1F
100
AcDbEntity
  8
TEXT
100
AcDbMText
 10
269.612607
 20
71.2121947186
 30
0.0
 40
3.0
 41
0.0
 71
     1
 72
     1
  1
1.06 kg
  7
SLDTEXTSTYLE0
 73
     1
 44
1.0
  0
MTEXT
  5
19F
330
1F
100
AcDbEntity
  8
TEXT
100
AcDbMText
 10
230.0
 20
71.2121947186
 30
0.0
 40
3.0
 41
0.0
 71
     1
 72
     1
  1
1.4404 / EPDM
  7
SLDTEXTSTYLE0
 73
     1
 44
1.0
  0
LINE
  5
1A0
330
1F
100
AcDbEntity
  8
0
  6
Continuous
 62
     7
370
    25
100
AcDbLine
 10
351.9492483136
 20
258.4539009389
 30
0.0
 11
352.2500239967
 21
257.5579733425
 31
0.0
  0
ARC
  5
1A1
330
1F
100
AcDbEntity
  8
0
  6
Continuous
 62
     7
370
    25
100
AcDbCircle
 10
348.3390620021
 20
257.2286833206
 30
0.0
 40
6.396394478323515
100
AcDbArc
 50
359.9872554873
 51
48.5763771385
  0
ARC
  5
1A2
330
1F
100
AcDbEntity
  8
0
  6
Continuous
 62
     7
370
    25
100
AcDbCircle
 10
332.2558587813
 20
257.1492273032
 30
0.0
 40
6.5690108305062
100
AcDbArc
 50
133.0953292218
 51
178.6164543452
  0
LINE
  5
1A3
330
1F
100
AcDbEntity
  8
0
  6
Continuous
 62
     7
370
    25
100
AcDbLine
 10
354.7488667922
 20
254.0574860875
 30
0.0
 11
354.7488667922
 21
257.3543812534
 31
0.0
  0
LINE
  5
1A4
330
1F
100
AcDbEntity
  8
0
  6
Continuous
 62
     7
370
    25
100
AcDbLine
 10
325.6822001255
 20
257.3543812534
 30
0.0
 11
325.6822001255
 21
254.0574860875
 31
0.0
  0
LINE
  5
1A5
330
1F
100
AcDbEntity
  8
0
  6
Continuous
 62
     7
370
    25
100
AcDbLine
 10
353.2155334589
 20
258.7505468413
 30
0.0
 11
353.2155334589
 21
259.7983265351
 31
0.0
  0
LINE
  5
1A6
330
1F
100
AcDbEntity
  8
0
  6
Continuous
 62
     7
370
    25
100
AcDbLine
 10
327.2155334589
 20
259.7983265351
 30
0.0
 11
327.2155334589
 21
258.7505468413
 31
0.0
  0
LWPOLYLINE
  5
1A7
330
1F
100
AcDbEntity
  8
0
  6
Continuous
 62
     7
370
    25
100
AcDbPolyline
 90
       20
 70
   128
 43
0.0
 10
327.5973052472
 20
259.3273070101
 10
327.7260934312
 20
259.8708668772
 10
327.9445975709
 20
260.4202917435
 10
328.2445388533
 20
260.9557617697
 10
328.6242981188
 20
261.4774874285
 10
329.0826813138
 20
261.9839580253
 10
329.6180338778
 20
262.4722819197
 10
330.2278165119
 20
262.9387390968
 10
330.9082133911
 20
263.3790972773
 10
331.654490335
 20
263.7892388177
 10
332.4609953234
 20
264.1652877505
 10
333.3208280693
 20
264.5035921772
 10
334.225547835
 20
264.8008321389
 10
335.1642941775
 20
265.0540590395
 10
336.1212540404
 20
265.2606703323
 10
337.0669984285
 20
265.4181825724
 10
337.9690071685
 20
265.5279959951
 10
338.6197506256
 20
265.583773772
 10
339.3176298181
 20
265.6223451773
 10
340.2155334589
 20
265.6401455731
  0
LWPOLYLINE
  5
1A8
330
1F
100
AcDbEntity
  8
0
  6
Continuous
 62
     7
370
    25
100
AcDbPolyline
 90
       23
 70
   128
 43
0.0
 10
340.2155334589
 20
265.6401455731
 10
341.3975256875
 20
265.6092720024
 10
341.87371164
 20
265.5792605023
 10
342.6568697245
 20
265.5075157525
 10
343.4567475206
 20
265.4047032577
 10
344.2960587406
 20
265.2632846705
 10
345.1467630845
 20
265.0827142641
 10
345.9935977306
 20
264.8626600098
 10
346.8232810545
 20
264.6039616797
 10
347.6248983508
 20
264.3082160275
 10
348.3892831564
 20
263.977638505
 10
349.1087270904
 20
263.614923358
 10
349.7767970193
 20
263.2231143516
 10
350.388224547
 20
262.8054640258
 10
350.9388301997
 20
262.3652618725
 10
351.4252489186
 20
261.9058124246
 10
351.8451828238
 20
261.4298750622
 10
352.197068084
 20
260.9393073888
 10
352.4796467975
 20
260.4344809256
 10
352.6911607696
 20
259.9135233366
 10
352.8278824066
 20
259.3716065583
 10
352.8818406929
 20
258.8010961956
 10
352.8758473646
 20
258.7168854944
  0
LWPOLYLINE
  5
1A9
330
1F
100
AcDbEntity
  8
0
  6
Continuous
 62
     7
370
    25
100
AcDbPolyline
 90
       23
 70
   128
 43
0.0
 10
340.2155334589
 20
245.2448590506
 10
341.4786389082
 20
245.2775587743
 10
341.9878725044
 20
245.3093628628
 10
342.8265870694
 20
245.3854990418
 10
343.6853106324
 20
245.4948631859
 10
344.5896058739
 20
245.6458198578
 10
345.5106952538
 20
245.8394965896
 10
346.4335013265
 20
246.0770088122
 10
347.3449801838
 20
246.3584526692
 10
348.2344807211
 20
246.6833575332
 10
349.0930100489
 20
247.0508358439
 10
349.9128407846
 20
247.4597222654
 10
350.6872165878
 20
247.9086778958
 10
351.4101181766
 20
248.3962656571
 10
352.0759282601
 20
248.9208819168
 10
352.6793825674
 20
249.4807989692
 10
353.2155109887
 20
250.074207322
 10
353.6794504311
 20
250.6991009966
 10
354.0664027653
 20
251.3532513182
 10
354.3716053496
 20
252.0342499395
 10
354.5902383946
 20
252.7396303782
 10
354.7171859724
 20
253.4669985382
 10
354.7354563222
 20
253.9303653809
  0
LWPOLYLINE
  5
1AA
330
1F
100
AcDbEntity
  8
0
  6
Continuous
 62
     7
370
    25
100
AcDbPolyline
 90
       23
 70
   128
 43
0.0
 10
325.688763047
 20
254.0109414318
 10
325.6844247935
 20
253.9009160158
 10
325.759404379
 20
253.1365575723
 10
325.946837526
 20
252.3590229957
 10
326.2162706429
 20
251.6579554188
 10
326.5778778433
 20
250.9730137967
 10
327.0293456378
 20
250.3095823929
 10
327.5670932037
 20
249.6730000058
 10
328.1864119479
 20
249.068152308
 10
328.8818309739
 20
248.4991936398
 10
329.6474439718
 20
247.9695265985
 10
330.4768857377
 20
247.4820370203
 10
331.3635274628
 20
247.0390914205
 10
332.3005054599
 20
246.6426245552
 10
333.2800552967
 20
246.294406865
 10
334.2928215108
 20
245.9960508803
 10
335.3261356201
 20
245.7490392264
 10
336.3589606999
 20
245.5548339661
 10
337.3419620379
 20
245.4155089974
 10
338.1717523584
 20
245.3307440388
 10
338.873075929
 20
245.2818058067
 10
339.7326072849
 20
245.2496310616
 10
340.2155334589
 20
245.2448590506
  0
LINE
  5
1AB
330
1F
100
AcDbEntity
  8
0
  6
Continuous
 62
     7
370
    25
100
AcDbLine
 10
353.1488667922
 20
245.7942033314
 30
0.0
 11
353.1488667922
 21
250.0004428632
 31
0.0
  0
LINE
  5
1AC
330
1F
100
AcDbEntity
  8
0
  6
Continuous
 62
     7
370
    25
100
AcDbLine
 10
327.2822001255
 20
250.0102547462
 30
0.0
 11
327.2822001255
 21
245.7942033314
 31
0.0
  0
ARC
  5
1AD
330
1F
100
AcDbEntity
  8
0
  6
Continuous
 62
     7
370
    25
100
AcDbCircle
 10
348.7420781232
 20
245.6418323375
 30
0.0
 40
4.397524783213266
100
AcDbArc
 50
337.4420042089
 51
1.8424318917
  0
ARC
  5
1AE
330
1F
100
AcDbEntity
  8
0
  6
Continuous
 62
     7
370
    25
100
AcDbCircle
 10
331.5911792608
 20
245.6370208126
 30
0.0
 40
4.30049387206159
100
AcDbArc
 50
178.0039822638
 51
204.8638256803
  0
LINE
  5
1AF
330
1F
100
AcDbEntity
  8
0
  6
Continuous
 62
     7
370
    25
100
AcDbLine
 10
327.6306016954
 20
243.9470979968
 30
0.0
 11
327.9825873466
 21
243.0292432185
 31
0.0
  0
LINE
  5
1B0
330
1F
100
AcDbEntity
  8
0
  6
Continuous
 62
     7
370
    25
100
AcDbLine
 10
352.4484795711
 20
243.0292432185
 30
0.0
 11
352.8004652223
 21
243.9470979968
 31
0.0
  0
LINE
  5
1B1
330
1F
100
AcDbEntity
  8
0
  6
Continuous
 62
     7
370
    25
100
AcDbLine
 10
352.7155334589
 20
111.7161674841
 30
0.0
 11
352.7155334589
 21
243.7256258298
 31
0.0
  0
LINE
  5
1B2
330
1F
100
AcDbEntity
  8
0
  6
Continuous
 62
     7
370
    25
100
AcDbLine
 10
327.7155334589
 20
243.7256258298
 30
0.0
 11
327.7155334589
 21
111.7161674841
 31
0.0
  0
ARC
  5
1B3
330
1F
100
AcDbEntity
  8
0
  6
Continuous
 62
     7
370
    25
100
AcDbCircle
 10
331.4375810872
 20
111.5632398534
 30
0.0
 40
3.712935896062946
100
AcDbArc
 50
177.5548923125
 51
201.1711659337
  0
ARC
  5
1B4
330
1F
100
AcDbEntity
  8
0
  6
Continuous
 62
     7
370
    25
100
AcDbCircle
 10
348.8826752779
 20
111.548547085
 30
0.0
 40
3.821967453681182
100
AcDbArc
 50
339.1419888269
 51
0.9192719069
  0
LINE
  5
1B5
330
1F
100
AcDbEntity
  8
0
  6
Continuous
 62
     7
370
    25
100
AcDbLine
 10
327.9307594612
 20
110.3144878689
 30
0.0
 11
328.3771882661
 21
108.8753421437
 31
0.0
  0
LINE
  5
1B6
330
1F
100
AcDbEntity
  8
0
  6
Continuous
 62
     7
370
    25
100
AcDbLine
 10
352.0538786516
 20
108.8753421437
 30
0.0
 11
352.5003074566
 21
110.3144878689
 31
0.0
  0
ARC
  5
1B7
330
1F
100
AcDbEntity
  8
0
  6
Continuous
 62
     7
370
    25
100
AcDbCircle
 10
340.3906776053
 20
244.6054532441
 30
0.0
 40
19.24690636436053
100
AcDbArc
 50
72.9951323838
 51
87.7472905997
  0
ARC
  5
1B8
330
1F
100
AcDbEntity
  8
0
  6
Continuous
 62
     7
370
    25
100
AcDbCircle
 10
340.0873971177
 20
244.2756578743
 30
0.0
 40
19.57874951029527
100
AcDbArc
 50
91.9771122376
 51
105.6307814634
  0
LINE
  5
1B9
330
1F
100
AcDbEntity
  8
0
  6
Continuous
 62
     7
370
    25
100
AcDbLine
 10
348.9485656203
 20
259.4291864531
 30
0.0
 11
348.7106708023
 21
259.5439511607
 31
0.0
  0
ARC
  5
1BA
330
1F
100
AcDbEntity
  8
0
  6
Continuous
 62
     7
370
    25
100
AcDbCircle
 10
340.2155334589
 20
239.6817017039
 30
0.0
 40
21.631327604195
100
AcDbArc
 50
69.8570637325
 51
110.1429362675
  0
LINE
  5
1BB
330
1F
100
AcDbEntity
  8
0
  6
Continuous
 62
     7
370
    25
100
AcDbLine
 10
331.7203961154
 20
259.5439511607
 30
0.0
 11
331.4825012974
 21
259.4291864531
 31
0.0
  0
ARC
  5
1BC
330
1F
100
AcDbEntity
  8
0
  6
Continuous
 62
     7
370
    25
100
AcDbCircle
 10
340.2155334589
 20
237.8348976506
 30
0.0
 40
23.4557983760556
100
AcDbArc
 50
85.8473384236
 51
94.1526615764
  0
LWPOLYLINE
  5
1BD
330
1F
100
AcDbEntity
  8
0
  6
Continuous
 62
     7
370
    25
100
AcDbPolyline
 90
       29
 70
   128
 43
0.0
 10
328.4195399325
 20
257.1340964498
 10
328.4594899694
 20
257.2117163141
 10
328.865643024
 20
257.867008149
 10
329.381101728
 20
258.4961627734
 10
330.0009019323
 20
259.0931210842
 10
330.7190746221
 20
259.6521340466
 10
331.5287034017
 20
260.1678180602
 10
332.4219911035
 20
260.6352068061
 10
333.3903348786
 20
261.049799075
 10
334.424409047
 20
261.4076021169
 10
335.5142549093
 20
261.7051700928
 10
336.649376654
 20
261.9396372605
 10
337.8188424382
 20
262.1087455729
 10
339.011389667
 20
262.2108664246
 10
340.2155334589
 20
262.245016336
 10
341.4196772507
 20
262.2108664246
 10
342.6122244796
 20
262.1087455729
 10
343.7816902637
 20
261.9396372605
 10
344.9168120084
 20
261.7051700928
 10
346.0066578707
 20
261.4076021169
 10
347.0407320391
 20
261.049799075
 10
348.0090758142
 20
260.6352068061
 10
348.902363516
 20
260.1678180602
 10
349.7119922957
 20
259.6521340466
 10
350.4301649854
 20
259.0931210842
 10
351.0499651897
 20
258.4961627734
 10
351.5654238937
 20
257.867008149
 10
351.9715769483
 20
257.2117163141
 10
352.0115269852
 20
257.1340964498
  0
LWPOLYLINE
  5
1BE
330
1F
100
AcDbEntity
  8
0
  6
Continuous
 62
     7
370
    25
100
AcDbPolyline
 90
       20
 70
   128
 43
0.0
 10
330.9492807898
 20
259.0622389671
 10
331.2397095804
 20
259.2544513053
 10
332.0930505935
 20
259.7470745863
 10
333.0271164904
 20
260.1882004724
 10
334.0326241047
 20
260.5734448561
 10
335.09958025
 20
260.8989790059
 10
336.2173810367
 20
261.161567617
 10
337.3749172584
 20
261.3586009658
 10
338.5606848001
 20
261.4881208465
 10
339.7628989713
 20
261.5488400322
 10
340.9696116274
 20
261.5401550684
 10
342.1688299158
 20
261.4621522701
 10
343.3486354665
 20
261.3156068643
 10
344.4973028418
 20
261.101975285
 10
345.6034160693
 20
260.8233806989
 10
346.6559820989
 20
260.482591904
 10
347.6445400563
 20
260.0829958125
 10
348.5592652086
 20
259.6285637899
 10
349.3910666062
 20
259.1238121859
 10
349.4817861279
 20
259.0622389671
  0
LWPOLYLINE
  5
1BF
330
1F
100
AcDbEntity
  8
0
  6
Continuous
 62
     7
370
    25
100
AcDbPolyline
 90
       28
 70
   128
 43
0.0
 10
351.5951654688
 20
256.5867997188
 10
351.4034632639
 20
256.9682107597
 10
350.9889892145
 20
257.6009453323
 10
350.4674437216
 20
258.2067120289
 10
349.8440101387
 20
258.7794904678
 10
349.1248844288
 20
259.3135881195
 10
348.3172135862
 20
259.8036968817
 10
347.4290246067
 20
260.2449458332
 10
346.4691447114
 20
260.6329496438
 10
345.4471136178
 20
260.9638521572
 10
344.3730887303
 20
261.2343647156
 10
343.2577441906
 20
261.4417988437
 10
342.1121647939
 20
261.5840929679
 10
340.9477358229
 20
261.6598329053
 10
339.7760298959
 20
261.6682659183
 10
338.6086919527
 20
261.609308196
 10
337.4573235223
 20
261.4835456865
 10
336.3333674214
 20
261.2922282743
 10
335.2479940307
 20
261.0372573577
 10
334.2119902787
 20
260.7211669522
 10
333.235652436
 20
260.3470985064
 10
332.3286837867
 20
259.9187696804
 10
331.5000981928
 20
259.4404373986
 10
330.7581305101
 20
258.9168555421
 10
330.1101547469
 20
258.3532277027
 10
329.5626107773
 20
257.755155467
 10
329.1209403394
 20
257.1285827455
 10
328.8359014489
 20
256.5867997188
  0
LWPOLYLINE
  5
1C0
330
1F
100
AcDbEntity
  8
0
  6
Continuous
 62
     7
370
    25
100
AcDbPolyline
 90
       28
 70
   128
 43
0.0
 10
328.8866765052
 20
256.5275219231
 10
328.9297986526
 20
256.6168273661
 10
329.3144006274
 20
257.2663860611
 10
329.8108629767
 20
257.8901500833
 10
330.4140913249
 20
258.4817187696
 10
331.1178957329
 20
259.0350218249
 10
331.915054215
 20
259.544381611
 10
332.7973868465
 20
260.0045714073
 10
333.7558397005
 20
260.4108690437
 10
334.780577754
 20
260.7591053567
 10
335.8610858076
 20
261.0457069705
 10
336.9862763866
 20
261.2677329646
 10
338.1446035131
 20
261.422905052
 10
339.3241811832
 20
261.5096309569
 10
340.5129053339
 20
261.5270207543
 10
341.6985780467
 20
261.4748960014
 10
342.8690327152
 20
261.3537915686
 10
344.0122588905
 20
261.1649501513
 10
345.1165255252
 20
260.9103095179
 10
346.1705013491
 20
260.592482626
 10
347.1633711441
 20
260.2147308095
 10
348.0849467225
 20
259.7809303133
 10
348.9257714719
 20
259.2955325175
 10
349.6772173923
 20
258.7635182603
 10
350.331573632
 20
258.190346728
 10
350.8821256102
 20
257.581899436
 10
351.3232239188
 20
256.9444198769
 10
351.5443904125
 20
256.5275219231
  0
LINE
  5
1C1
330
1F
100
AcDbEntity
  8
0
  6
Continuous
 62
     7
370
    25
100
AcDbLine
 10
325.6823733873
 20
257.3134137035
 30
0.0
 11
325.6822001255
 21
257.3543812534
 31
0.0
  0
LINE
  5
1C2
330
1F
100
AcDbEntity
  8
0
  6
Continuous
 62
     7
370
    25
100
AcDbLine
 10
354.7488667922
 20
257.3543812534
 30
0.0
 11
354.747572194
 21
257.242399371
 31
0.0
  0
LINE
  5
1C3
330
1F
100
AcDbEntity
  8
0
  6
Continuous
 62
     7
370
    25
100
AcDbLine
 10
325.6823733873
 20
254.0165185376
 30
0.0
 11
325.6822001255
 21
254.0574860875
 31
0.0
  0
LINE
  5
1C4
330
1F
100
AcDbEntity
  8
0
  6
Continuous
 62
     7
370
    25
100
AcDbLine
 10
354.7488667922
 20
254.0574860875
 30
0.0
 11
354.747572194
 21
253.9455042051
 31
0.0
  0
LWPOLYLINE
  5
1C5
330
1F
100
AcDbEntity
  8
0
  6
Continuous
 62
     7
370
    25
100
AcDbPolyline
 90
       67
 70
   128
 43
0.0
 10
349.4079216143
 20
254.4916738082
 10
348.4925057224
 20
254.0112733312
 10
347.502132288
 20
253.5832813042
 10
346.4457702862
 20
253.2115736892
 10
345.332986295
 20
252.899516728
 10
344.1738578584
 20
252.6499364567
 10
342.9788822231
 20
252.4650931129
 10
341.7588812734
 20
252.3466606666
 10
340.524903527
 20
252.2957116602
 10
339.2881240773
 20
252.312707496
 10
338.0597433906
 20
252.397494257
 10
336.8508858725
 20
252.5493041011
 10
335.6724991241
 20
252.766762215
 10
334.5352547981
 20
253.0478992642
 10
333.4494519552
 20
253.390169228
 10
332.4249237942
 20
253.7904724568
 10
331.4709486008
 20
254.2451837425
 10
330.5961657219
 20
254.7501851492
 10
329.8084973269
 20
255.300903306
 10
329.1150766626
 20
255.892350824
 10
328.522183454
 20
256.519171463
 10
328.0351870339
 20
257.175688638
 10
327.6584977171
 20
257.855956828
 10
327.3955268605
 20
258.5538154188
 10
327.2486559689
 20
259.262944495
 10
327.2192151279
 20
259.9769220739
 10
327.3074709581
 20
260.6892822639
 10
327.5126242012
 20
261.3935738208
 10
327.8328169577
 20
262.0834185714
 10
328.2651495123
 20
262.7525691745
 10
328.8057065945
 20
263.3949656989
 10
329.4495928356
 20
264.004790502
 10
330.1909771022
 20
264.5765209161
 10
331.0231453034
 20
265.1049792619
 10
331.9385611953
 20
265.5853797389
 10
332.9289346297
 20
266.0133717659
 10
333.9852966315
 20
266.3850793809
 10
335.0980806228
 20
266.6971363421
 10
336.2572090594
 20
266.9467166134
 10
337.4521846947
 20
267.1315599572
 10
338.6721856443
 20
267.2499924036
 10
339.9061633908
 20
267.3009414099
 10
341.1429428405
 20
267.2839455741
 10
342.3713235272
 20
267.1991588131
 10
343.5801810452
 20
267.047348969
 10
344.7585677937
 20
266.8298908552
 10
345.8958121197
 20
266.548753806
 10
346.9816149625
 20
266.2064838421
 10
348.0061431235
 20
265.8061806133
 10
348.960118317
 20
265.3514693277
 10
349.8349011959
 20
264.846467921
 10
350.6225695909
 20
264.2957497641
 10
351.3159902551
 20
263.7043022461
 10
351.9088834637
 20
263.0774816072
 10
352.3958798839
 20
262.4209644321
 10
352.7725692006
 20
261.7406962422
 10
353.0355400572
 20
261.0428376513
 10
353.1824109488
 20
260.3337085751
 10
353.2118517899
 20
259.6197309963
 10
353.1235959596
 20
258.9073708063
 10
352.9184427165
 20
258.2030792493
 10
352.59824996
 20
257.5132344988
 10
352.1659174054
 20
256.8440838956
 10
351.6253603232
 20
256.2016873713
 10
350.9814740821
 20
255.5918625681
 10
350.2400898156
 20
255.0201321541
 10
349.4079216143
 20
254.4916738082
  0
LWPOLYLINE
  5
1C6
330
1F
100
AcDbEntity
  8
0
  6
Continuous
 62
     7
370
    25
100
AcDbPolyline
 90
       66
 70
   128
 43
0.0
 10
331.2588475638
 20
264.9689112433
 10
332.1651055194
 20
265.4438064688
 10
333.1465281517
 20
265.8659913692
 10
334.1939521818
 20
266.2315241179
 10
335.2975980939
 20
266.5369918341
 10
336.4471614434
 20
266.779542448
 10
337.6319090671
 20
266.95691133
 10
338.8407792956
 20
267.0674424345
 10
340.0624852333
 20
267.1101037624
 10
341.2856201411
 20
267.0844969964
 10
342.4987639378
 20
266.9908612199
 10
343.6905898268
 20
266.830070685
 10
344.8499700507
 20
266.6036266496
 10
345.9660797889
 20
266.3136433606
 10
347.0284982254
 20
265.9628283138
 10
348.0273058455
 20
265.5544569749
 10
348.9531770516
 20
265.092342197
 10
349.7974672337
 20
264.5807986212
 10
350.5522934819
 20
264.0246023921
 10
351.2106081868
 20
263.4289465641
 10
351.7662648414
 20
262.799392615
 10
352.2140754293
 20
262.1418185206
 10
352.5498588637
 20
261.4623638729
 10
352.770480025
 20
260.767372557
 10
352.873879033
 20
260.0633335194
 10
352.859090479
 20
259.356820183
 10
352.7262524397
 20
258.6544290725
 10
352.4766051882
 20
257.9627182244
 10
352.1124796134
 20
257.2881459565
 10
351.6372754579
 20
256.6370105683
 10
351.0554295747
 20
256.0153915355
 10
350.3723745021
 20
255.4290927476
 10
349.5944877414
 20
254.8835883183
 10
348.7290322115
 20
254.3839714756
 10
347.7840884376
 20
253.9349070072
 10
346.7684791051
 20
253.5405877071
 10
345.6916866847
 20
253.2046952284
 10
344.5637648971
 20
252.9303657087
 10
343.3952448442
 20
252.7201604888
 10
342.1970366827
 20
252.5760421981
 10
340.9803277596
 20
252.4993564303
 10
339.7564781581
 20
252.4908191798
 10
338.5369146322
 20
252.5505101565
 10
337.3330239181
 20
252.677872042
 10
336.1560464189
 20
252.8717156926
 10
335.0169712565
 20
253.1302312423
 10
333.9264336686
 20
253.4510050012
 10
332.894615711
 20
253.831041991
 10
331.9311511899
 20
254.2667939088
 10
331.0450357139
 20
254.7541922564
 10
330.2445427045
 20
255.2886863267
 10
329.5371461492
 20
255.8652856925
 10
328.9294508192
 20
256.478606801
 10
328.4271306018
 20
257.1229232381
 10
328.0348755257
 20
257.7922191951
 10
327.7563479709
 20
258.4802456357
 10
327.594148474
 20
259.1805786426
 10
327.549791448
 20
259.886679395
 10
327.6236910427
 20
260.5919552207
 10
327.8151572772
 20
261.2898211491
 10
328.1224024831
 20
261.9737613942
 10
328.5425579946
 20
262.6373901901
 10
329.0717009329
 20
263.2745114137
 10
329.7048908329
 20
263.8791764356
 10
330.4362157712
 20
264.4457396615
 10
331.2588475638
 20
264.9689112433
  0
LINE
  5
1C7
330
1F
100
AcDbEntity
  8
0
  6
Continuous
 62
     7
370
    25
100
AcDbLine
 10
353.2147764708
 20
258.6695594917
 30
0.0
 11
353.2155334589
 21
258.7505468413
 31
0.0
  0
LINE
  5
1C8
330
1F
100
AcDbEntity
  8
0
  6
Continuous
 62
     7
370
    25
100
AcDbLine
 10
327.2155334589
 20
258.7505468413
 30
0.0
 11
327.215981659
 21
258.6882291651
 31
0.0
  0
LINE
  5
1C9
330
1F
100
AcDbEntity
  8
0
  6
Continuous
 62
     7
370
    25
100
AcDbLine
 10
327.6730329674
 20
243.8401916512
 30
0.0
 11
327.6306016954
 21
243.9470979968
 31
0.0
  0
LWPOLYLINE
  5
1CA
330
1F
100
AcDbEntity
  8
0
  6
Continuous
 62
     7
370
    25
100
AcDbPolyline
 90
       34
 70
   128
 43
0.0
 10
327.7155334589
 20
111.7161674841
 10
327.760219329
 20
111.1065478533
 10
327.920284622
 20
110.4154297544
 10
328.1951473406
 20
109.7364562933
 10
328.5822411657
 20
109.0759668621
 10
329.0779519065
 20
108.4401282728
 10
329.6776512454
 20
107.8348771789
 10
330.3757399513
 20
107.2658646468
 10
331.1657001579
 20
106.7384033933
 10
332.0401562197
 20
106.2574181819
 10
332.9909435761
 20
105.8273998419
 10
334.0091849816
 20
105.4523633388
 10
335.0853733907
 20
105.1358102873
 10
336.2094607221
 20
104.8806962579
 10
337.3709516752
 20
104.6894031817
 10
338.5590017221
 20
104.5637171105
 10
339.7625183594
 20
104.5048115413
 10
340.9702646767
 20
104.5132364596
 10
342.1709642719
 20
104.5889132041
 10
343.3534065365
 20
104.7311352015
 10
344.5065513256
 20
104.9385745633
 10
345.619632037
 20
105.2092944841
 10
346.6822561361
 20
105.5407673249
 10
347.6845021879
 20
105.9298982131
 10
348.6170124911
 20
106.3730539385
 10
349.4710804482
 20
106.8660968754
 10
350.2387318568
 20
107.4044236149
 10
350.9127993626
 20
107.983007945
 10
351.4869893789
 20
108.59644778
 10
351.9559408482
 20
109.2390155973
 10
352.315275297
 20
109.9047119143
 10
352.5616377163
 20
110.5873213039
 10
352.6927278867
 20
111.2804704261
 10
352.7155334589
 20
111.7161674841
  0
LINE
  5
1CB
330
1F
100
AcDbEntity
  8
0
  6
Continuous
 62
     7
370
    25
100
AcDbLine
 10
327.9307594612
 20
110.3144878689
 30
0.0
 11
327.9587777909
 21
110.2272639209
 31
0.0
  0
LINE
  5
1CC
330
1F
100
AcDbEntity
  8
0
  6
Continuous
 62
     7
370
    25
100
AcDbLine
 10
352.4623338913
 20
110.1976378795
 30
0.0
 11
352.5003074566
 21
110.3144878689
 31
0.0
  0
LWPOLYLINE
  5
1CD
330
1F
100
AcDbEntity
  8
0
  6
Continuous
 62
     7
370
    25
100
AcDbPolyline
 90
       30
 70
   128
 43
0.0
 10
328.3771882661
 20
108.8753421437
 10
328.5246737314
 20
108.4699872877
 10
328.863763273
 20
107.8061007332
 10
329.3156718068
 20
107.1650038077
 10
329.8759080626
 20
106.5530680205
 10
330.5389041609
 20
105.9763750643
 10
331.2980709485
 20
105.4406563728
 10
332.145863485
 20
104.9512361592
 10
333.073856027
 20
104.5129785012
 10
334.072825768
 20
104.1302390005
 10
335.1328444977
 20
103.8068214942
 10
336.2433772738
 20
103.5459402506
 10
337.3933871226
 20
103.350188025
 10
338.5714447296
 20
103.2215102907
 10
339.765842029
 20
103.1611859049
 10
340.964708564
 20
103.1698143985
 10
342.1561294601
 20
103.2473100177
 10
343.3282638413
 20
103.3929025761
 10
344.4694625095
 20
103.6051451095
 10
345.5683837197
 20
103.8819282563
 10
346.6141058991
 20
104.2205012211
 10
347.5962361909
 20
104.6174991138
 10
348.505013743
 20
105.0689763909
 10
349.3314067159
 20
105.5704460685
 10
350.0672020449
 20
106.1169243155
 10
350.7050870653
 20
106.7029799856
 10
351.2387221895
 20
107.3227885944
 10
351.6628039116
 20
107.9701902053
 10
351.9731175171
 20
108.6387506503
 10
352.0538786516
 20
108.8753421437
  0
ARC
  5
1CE
330
1F
100
AcDbEntity
  8
0
  6
Continuous
 62
     8
370
    18
100
AcDbCircle
 10
340.2241470558
 20
242.9016998161
 30
0.0
 40
22.7617232171487
100
AcDbArc
 50
81.8002957021
 51
90.7841404215
  0
LWPOLYLINE
  5
1CF
330
1F
100
AcDbEntity
  8
0
  6
Continuous
 62
     8
370
    18
100
AcDbPolyline
 90
       21
 70
   128
 43
0.0
 10
329.9093416053
 20
262.7188237982
 10
330.0324210667
 20
262.8061841243
 10
330.8777514754
 20
263.3430009707
 10
331.8076462838
 20
263.8309998283
 10
332.8136842205
 20
264.2657613039
 10
333.88675445
 20
264.6433481303
 10
335.0171390823
 20
264.9603408226
 10
336.1946011791
 20
265.213868646
 10
337.4084774612
 20
265.4016356133
 10
338.6477748772
 20
265.5219412776
 10
339.9012701576
 20
265.5736961323
 10
341.1576114552
 20
265.5564314774
 10
342.4054211485
 20
265.4703036643
 10
343.6333988798
 20
265.3160926798
 10
344.8304238926
 20
265.0951950824
 10
345.985655743
 20
264.809611355
 10
347.0886324724
 20
264.4619277881
 10
348.1293653529
 20
264.0552930579
 10
349.0984293462
 20
263.5933897115
 10
349.9870484589
 20
263.080400817
 10
350.785094221
 20
262.5225764365
  0
LWPOLYLINE
  5
1D0
330
1F
100
AcDbEntity
  8
0
  6
Continuous
 62
     8
370
    18
100
AcDbPolyline
 90
       31
 70
   128
 43
0.0
 10
352.8586689012
 20
259.3470686603
 10
352.6615838962
 20
259.8375142797
 10
352.2882239463
 20
260.5117699223
 10
351.8055318418
 20
261.1624844732
 10
351.2178789172
 20
261.7837649607
 10
350.5305870484
 20
262.3699849725
 10
349.749880457
 20
262.9158356094
 10
348.8828293427
 20
263.4163735634
 10
347.9372858547
 20
263.8670658854
 10
346.9218129813
 20
264.2638310359
 10
345.8456070021
 20
264.6030758482
 10
344.7184142049
 20
264.8817280688
 10
343.5504426225
 20
265.0972641801
 10
342.3522695863
 20
265.2477322536
 10
341.1347459368
 20
265.3317696272
 10
339.9088977567
 20
265.3486152454
 10
338.6858265171
 20
265.2981165516
 10
337.4766085404
 20
265.1807308699
 10
336.2921946919
 20
264.9975212632
 10
335.1433112068
 20
264.750146906
 10
334.0403625519
 20
264.4408480588
 10
332.993337201
 20
264.0724257799
 10
332.0117171778
 20
263.6482165585
 10
331.1043921852
 20
263.172062099
 10
330.2795790989
 20
262.6482745299
 10
329.5447475538
 20
262.0815973526
 10
328.9065522984
 20
261.4771624832
 10
328.3707729275
 20
260.8404437777
 10
327.9422615423
 20
260.1772074591
 10
327.6248988081
 20
259.4934598984
 10
327.5728634427
 20
259.3484348071
  0
LWPOLYLINE
  5
1D1
330
1F
100
AcDbEntity
  8
0
  6
Continuous
 62
     8
370
    18
100
AcDbPolyline
 90
       31
 70
   128
 43
0.0
 10
327.6124838075
 20
259.066380367
 10
327.8380298782
 20
259.6719930602
 10
328.2056132106
 20
260.3529711057
 10
328.6853299325
 20
261.0102897135
 10
329.2727010581
 20
261.6378116768
 10
329.9622424614
 20
262.2296779921
 10
330.7475160801
 20
262.7803625633
 10
331.6211900261
 20
263.2847237967
 10
332.5751070411
 20
263.7380526074
 10
333.600360659
 20
264.1361163865
 10
334.687378363
 20
264.4751985197
 10
335.8260109616
 20
264.7521330885
 10
337.005627349
 20
264.9643344295
 10
338.215213765
 20
265.1098212759
 10
339.443476627
 20
265.1872352562
 10
340.6789479756
 20
265.1958535769
 10
341.9100925477
 20
265.1355957712
 10
343.1254154781
 20
265.0070244498
 10
344.3135696242
 20
264.8113400487
 10
345.4634615108
 20
264.5503696202
 10
346.5643549071
 20
264.226549775
 10
347.6059710682
 20
263.8429039318
 10
348.5785847045
 20
263.4030140884
 10
349.4731147847
 20
262.9109873777
 10
350.2812093223
 20
262.3714177206
 10
350.9953233565
 20
261.7893429336
 10
351.6087893968
 20
261.1701976922
 10
352.1158796762
 20
260.5197627886
 10
352.5118596293
 20
259.8441111583
 10
352.7930320981
 20
259.1495511785
 10
352.8185831102
 20
259.066380367
  0
LWPOLYLINE
  5
1D2
330
1F
100
AcDbEntity
  8
0
  6
Continuous
 62
     8
370
    18
100
AcDbPolyline
 90
       30
 70
   128
 43
0.0
 10
327.6385730063
 20
258.9296072638
 10
327.8380298782
 20
259.450354888
 10
328.2056132106
 20
260.1313329334
 10
328.6853299325
 20
260.7886515412
 10
329.2727010581
 20
261.4161735045
 10
329.9622424614
 20
262.0080398199
 10
330.7475160801
 20
262.558724391
 10
331.6211900261
 20
263.0630856244
 10
332.5751070411
 20
263.5164144351
 10
333.600360659
 20
263.9144782142
 10
334.687378363
 20
264.2535603474
 10
335.8260109616
 20
264.5304949163
 10
337.005627349
 20
264.7426962572
 10
338.215213765
 20
264.8881831036
 10
339.443476627
 20
264.9655970839
 10
340.6789479756
 20
264.9742154047
 10
341.9100925477
 20
264.9139575989
 10
343.1254154781
 20
264.7853862775
 10
344.3135696242
 20
264.5897018764
 10
345.4634615108
 20
264.3287314479
 10
346.5643549071
 20
264.0049116028
 10
347.6059710682
 20
263.6212657595
 10
348.5785847045
 20
263.1813759161
 10
349.4731147847
 20
262.6893492054
 10
350.2812093223
 20
262.1497795483
 10
350.9953233565
 20
261.5677047614
 10
351.6087893968
 20
260.9485595199
 10
352.1158796762
 20
260.2981246163
 10
352.5118596293
 20
259.622472986
 10
352.7924939114
 20
258.9296072638
  0
LWPOLYLINE
  5
1D3
330
1F
100
AcDbEntity
  8
0
  6
Continuous
 62
     8
370
    18
100
AcDbPolyline
 90
       31
 70
   128
 43
0.0
 10
327.6459176862
 20
258.8948751808
 10
327.8466772394
 20
259.419803656
 10
328.2140037651
 20
260.1003059461
 10
328.69338534
 20
260.7571653279
 10
329.2803461073
 20
261.3842488822
 10
329.9694057726
 20
261.9757016988
 10
330.7541307715
 20
262.5260015422
 10
331.627194338
 20
263.0300104111
 10
332.5804449129
 20
263.4830225103
 10
333.6049822524
 20
263.880808188
 10
334.6912405274
 20
264.2196534264
 10
335.829077637
 20
264.496394519
 10
337.0078699028
 20
264.7084476086
 10
338.216611259
 20
264.8538328127
 10
339.4440160131
 20
264.9311927089
 10
340.6786242178
 20
264.9398050086
 10
341.9089086688
 20
264.8795893011
 10
343.1233825318
 20
264.7511078042
 10
344.3107065914
 20
264.555560115
 10
345.4597951229
 20
264.2947720097
 10
346.5599193962
 20
263.9711783965
 10
347.6008078474
 20
263.5878005819
 10
348.5727419815
 20
263.148218061
 10
349.4666471114
 20
262.6565350976
 10
350.2741770856
 20
262.1173424029
 10
350.9877922145
 20
261.5356742739
 10
351.6008296658
 20
260.9169615892
 10
352.107565674
 20
260.2669811024
 10
352.5032689815
 20
259.5918015062
 10
352.7842450132
 20
258.8977267705
 10
352.7851492315
 20
258.8948751808
  0
LWPOLYLINE
  5
1D4
330
1F
100
AcDbEntity
  8
0
  6
Continuous
 62
     8
370
    18
100
AcDbPolyline
 90
       31
 70
   128
 43
0.0
 10
327.9986160927
 20
257.8670964068
 10
328.1181585714
 20
258.2759026564
 10
328.4122710959
 20
258.9537325373
 10
328.8200554894
 20
259.6116563923
 10
329.337584565
 20
260.243338055
 10
329.959874235
 20
260.8426940857
 10
330.6809315097
 20
261.4039523581
 10
331.4938122132
 20
261.9217076484
 10
332.3906878602
 20
262.3909736899
 10
333.3629210477
 20
262.8072311943
 10
334.4011486388
 20
263.1664713741
 10
335.4953719342
 20
263.4652345502
 10
336.6350529653
 20
263.7006434697
 10
337.8092159809
 20
263.8704310161
 10
339.0065531493
 20
263.9729620425
 10
340.2155334589
 20
264.007249119
 10
341.4245137685
 20
263.9729620425
 10
342.6218509368
 20
263.8704310161
 10
343.7960139524
 20
263.7006434697
 10
344.9356949836
 20
263.4652345502
 10
346.0299182789
 20
263.1664713741
 10
347.06814587
 20
262.8072311943
 10
348.0403790576
 20
262.3909736899
 10
348.9372547045
 20
261.9217076484
 10
349.7501354081
 20
261.4039523581
 10
350.4711926827
 20
260.8426940857
 10
351.0934823527
 20
260.243338055
 10
351.6110114284
 20
259.6116563923
 10
352.0187958218
 20
258.9537325373
 10
352.3129083464
 20
258.2759026564
 10
352.4324508251
 20
257.8670964068
  0
LWPOLYLINE
  5
1D5
330
1F
100
AcDbEntity
  8
0
  6
Continuous
 62
     8
370
    18
100
AcDbPolyline
 90
       26
 70
   128
 43
0.0
 10
328.4698270144
 20
258.6552701187
 10
328.78979001
 20
259.0735867697
 10
329.3718397348
 20
259.6954235781
 10
330.0551341063
 20
260.2819277678
 10
330.833293389
 20
260.827623307
 10
331.6990521193
 20
261.3274151836
 10
332.6443269412
 20
261.7766369756
 10
333.6602920784
 20
262.17109442
 10
334.7374617382
 20
262.5071045739
 10
335.8657786776
 20
262.7815302012
 10
337.0347081055
 20
262.9918090637
 10
338.2333360427
 20
263.1359778443
 10
339.450471223
 20
263.2126904778
 10
340.6747495834
 20
263.2212307193
 10
341.8947403665
 20
263.1615188306
 10
343.0990528471
 20
263.0341123256
 10
344.2764426842
 20
262.8402007646
 10
345.4159169059
 20
262.5815946475
 10
346.5068365486
 20
262.26070851
 10
347.5390159894
 20
261.8805383794
 10
348.502818047
 20
261.4446338019
 10
349.3892439614
 20
260.9570647011
 10
350.1900174125
 20
260.4223833782
 10
350.8976617944
 20
259.8455820087
 10
351.5055700221
 20
259.2320460316
 10
351.9612399033
 20
258.6552701187
  0
LWPOLYLINE
  5
1D6
330
1F
100
AcDbEntity
  8
0
  6
Continuous
 62
     8
370
    18
100
AcDbPolyline
 90
       11
 70
   128
 43
0.0
 10
352.3339002165
 20
257.6767367674
 10
352.1922169403
 20
258.183866445
 10
351.9010386766
 20
258.8549338471
 10
351.4973226098
 20
259.5062938189
 10
350.9849567462
 20
260.1316734079
 10
350.3688754491
 20
260.7250498668
 10
349.6550119183
 20
261.2807086558
 10
348.8502410499
 20
261.7932984771
 10
347.962313227
 20
262.2578828105
 10
346.9997796803
 20
262.669987455
 10
346.0194921005
 20
263.0108832032
  0
LWPOLYLINE
  5
1D7
330
1F
100
AcDbEntity
  8
0
  6
Continuous
 62
     8
370
    18
100
AcDbPolyline
 90
        3
 70
   128
 43
0.0
 10
341.1472170475
 20
263.8374851875
 10
340.2155334589
 20
263.8580332079
 10
339.4119249643
 20
263.8427519293
  0
LWPOLYLINE
  5
1D8
330
1F
100
AcDbEntity
  8
0
  6
Continuous
 62
     8
370
    18
100
AcDbPolyline
 90
       12
 70
   128
 43
0.0
 10
334.8121530984
 20
263.1303451675
 10
334.459156784
 20
263.0256436174
 10
333.4312872375
 20
262.669987455
 10
332.4687536907
 20
262.2578828105
 10
331.5808258679
 20
261.7932984771
 10
330.7760549994
 20
261.2807086558
 10
330.0621914686
 20
260.7250498668
 10
329.4461101716
 20
260.1316734079
 10
328.933744308
 20
259.5062938189
 10
328.5300282411
 20
258.8549338471
 10
328.2388499775
 20
258.183866445
 10
328.0971667013
 20
257.6767367674
  0
LWPOLYLINE
  5
1D9
330
1F
100
AcDbEntity
  8
0
  6
Continuous
 62
     8
370
    18
100
AcDbPolyline
 90
       28
 70
   128
 43
0.0
 10
328.3296767372
 20
258.3621350427
 10
328.3363618787
 20
258.3727194346
 10
328.8108560578
 20
259.0228819971
 10
329.391832637
 20
259.643572303
 10
330.0738671944
 20
260.228995134
 10
330.8505917573
 20
260.7736845551
 10
331.7147542575
 20
261.2725549477
 10
332.6582862428
 20
261.7209484935
 10
333.6723782091
 20
262.1146786628
 10
334.747561853
 20
262.4500693029
 10
335.8737984746
 20
262.723988962
 10
337.0405727059
 20
262.9338801259
 10
338.2369906903
 20
263.0777830973
 10
339.4518817954
 20
263.1543542931
 10
340.6739029103
 20
263.1628787886
 10
341.8916443532
 20
263.1032769928
 10
343.0937364003
 20
262.9761053918
 10
344.268955442
 20
262.7825513524
 10
345.4063287748
 20
262.5244220365
 10
346.4952370503
 20
262.2041275281
 10
347.5255134253
 20
261.8246583307
 10
348.487538487
 20
261.3895574459
 10
349.3723300664
 20
260.9028872935
 10
350.1716271032
 20
260.3691917815
 10
350.877966776
 20
259.7934538811
 10
351.4847541819
 20
259.181049102
 10
351.9863239102
 20
258.5376953027
 10
352.0647490544
 20
258.4195375057
  0
LWPOLYLINE
  5
1DA
330
1F
100
AcDbEntity
  8
0
  6
Continuous
 62
     8
370
    18
100
AcDbPolyline
 90
       27
 70
   128
 43
0.0
 10
351.9106157021
 20
258.4926371075
 10
351.4259223916
 20
259.1117900684
 10
350.8223027637
 20
259.7209977435
 10
350.1196505887
 20
260.2937299621
 10
349.3245263406
 20
260.8246392777
 10
348.4443538802
 20
261.308768733
 10
347.4873511407
 20
261.7415981419
 10
346.4624533988
 20
262.1190862926
 10
345.3792298485
 20
262.4377086801
 10
344.2477942563
 20
262.694490413
 10
343.0787105315
 20
262.8870339894
 10
341.8828940938
 20
263.0135416819
 10
340.6715099591
 20
263.0728323221
 10
339.4558684947
 20
263.0643523294
 10
338.2473198174
 20
262.9881808791
 10
337.0571478205
 20
262.8450291636
 10
335.8964648194
 20
262.6362337519
 10
334.7761077984
 20
262.3637441104
 10
333.7065372292
 20
262.0301044016
 10
332.6977394041
 20
261.6384297295
 10
331.7591331966
 20
261.192377055
 10
330.8994821198
 20
260.6961110517
 10
330.1268125043
 20
260.1542652216
 10
329.4483385581
 20
259.5718986331
 10
328.8703950096
 20
258.9544486864
 10
328.398377962
 20
258.307680345
 10
328.1425071116
 20
257.8587449583
  0
LWPOLYLINE
  5
1DB
330
1F
100
AcDbEntity
  8
0
  6
Continuous
 62
     8
370
    18
100
AcDbPolyline
 90
       28
 70
   128
 43
0.0
 10
328.1060588024
 20
257.6534041172
 10
328.4227529613
 20
258.2262833199
 10
328.8937963892
 20
258.8717175857
 10
329.4705478256
 20
259.4878939314
 10
330.1476222978
 20
260.0690592845
 10
330.9186981439
 20
260.6097874605
 10
331.7765760364
 20
261.1050298263
 10
332.7132462006
 20
261.5501624374
 10
333.7199631995
 20
261.9410292103
 10
334.7873275878
 20
262.2739807275
 10
335.9053736718
 20
262.5459083103
 10
337.0636625564
 20
262.7542730441
 10
338.2513796104
 20
262.8971294835
 10
339.4574354397
 20
262.9731438165
 10
340.6705694259
 20
262.9816063177
 10
341.8794548639
 20
262.9224379751
 10
343.0728047161
 20
262.7961912274
 10
344.2394769964
 20
262.6040448066
 10
345.3685788
 20
262.347792732
 10
346.4495680078
 20
262.0298275602
 10
347.4723517146
 20
261.6531180464
 10
348.4273804646
 20
261.2211814257
 10
349.3057374116
 20
260.7380505741
 10
350.0992215736
 20
260.208236354
 10
350.8004244027
 20
259.6366854982
 10
351.402798957
 20
259.028734423
 10
351.9007210275
 20
258.3900594037
 10
352.1210774438
 20
258.0403788136
  0
LWPOLYLINE
  5
1DC
330
1F
100
AcDbEntity
  8
0
  6
Continuous
 62
     8
370
    18
100
AcDbPolyline
 90
       28
 70
   128
 43
0.0
 10
328.1107056341
 20
257.6446806386
 10
328.4033897802
 20
258.1675443352
 10
328.8752066388
 20
258.8140383732
 10
329.4529050735
 20
259.431226451
 10
330.1310912696
 20
260.0133460497
 10
330.9034331853
 20
260.5549620755
 10
331.7627196722
 20
261.0510176056
 10
332.700927804
 20
261.4968811031
 10
333.7092977841
 20
261.8883896606
 10
334.7784147336
 20
262.2218878682
 10
335.8982965958
 20
262.494261943
 10
337.0584873353
 20
262.7029688018
 10
338.2481545638
 20
262.8460598046
 10
339.4561906791
 20
262.9221989495
 10
340.6713165732
 20
262.9306753458
 10
341.8821869432
 20
262.8714098515
 10
343.0774962187
 20
262.7449558127
 10
344.2460841191
 20
262.5524938967
 10
345.3770398538
 20
262.2958210685
 10
346.4598039941
 20
261.9773338131
 10
347.4842670628
 20
261.6000057603
 10
348.4408639243
 20
261.1673599204
 10
349.3206630914
 20
260.683435791
 10
350.1154501164
 20
260.1527516413
 10
350.817804287
 20
259.5802623264
 10
351.4211679114
 20
258.9713130246
 10
351.9199075462
 20
258.3315893315
 10
352.135482308
 20
257.9901796829
  0
LWPOLYLINE
  5
1DD
330
1F
100
AcDbEntity
  8
0
  6
Continuous
 62
     8
370
    18
100
AcDbPolyline
 90
       28
 70
   128
 43
0.0
 10
328.1167927931
 20
257.6333114476
 10
328.4033177711
 20
258.1436019165
 10
328.875137506
 20
258.7900998957
 10
329.4528394625
 20
259.4072917359
 10
330.1310297929
 20
259.9894148834
 10
330.9033764169
 20
260.531034211
 10
331.7626681422
 20
261.0270927651
 10
332.7008819935
 20
261.4729589806
 10
333.7092581208
 20
261.8644699249
 10
334.7783815879
 20
262.1979701656
 10
335.8982702771
 20
262.4703459008
 10
337.0584680893
 20
262.6790540319
 10
338.2481425703
 20
262.8221459071
 10
339.45618605
 20
262.8982855161
 10
340.6713193518
 20
262.906761964
 10
341.8821971035
 20
262.8474961085
 10
343.0775136658
 20
262.7210412988
 10
344.2461086901
 20
262.5285782095
 10
345.3770713194
 20
262.2719038166
 10
346.4598420604
 20
261.9534146196
 10
347.4843113744
 20
261.5760842665
 10
348.4409140675
 20
261.1434357891
 10
349.3207185981
 20
260.6595087096
 10
350.1155104682
 20
260.1288213249
 10
350.8178689205
 20
259.5563285199
 10
351.4212362231
 20
258.9473755058
 10
351.9199788983
 20
258.3076479128
 10
352.1480651734
 20
257.9446565795
  0
LWPOLYLINE
  5
1DE
330
1F
100
AcDbEntity
  8
0
  6
Continuous
 62
     8
370
    18
100
AcDbPolyline
 90
       28
 70
   128
 43
0.0
 10
328.1981732397
 20
257.4871922703
 10
328.4592062181
 20
257.9466117826
 10
328.9287935799
 20
258.5900509141
 10
329.503762191
 20
259.2043225661
 10
330.1787437242
 20
259.7836914497
 10
330.947436059
 20
260.3227481538
 10
331.802662122
 20
260.816459651
 10
332.7364368979
 20
261.2602162902
 10
333.7400419833
 20
261.6498748352
 10
334.8041069879
 20
261.9817971492
 10
335.9186970235
 20
262.252884163
 10
337.0734054631
 20
262.4606048101
 10
338.2574511052
 20
262.6030196588
 10
339.4597788346
 20
262.6787990201
 10
340.6691628414
 20
262.6872353624
 10
341.8743114328
 20
262.628249918
 10
343.0639724613
 20
262.502393418
 10
344.2270383822
 20
262.3108409507
 10
345.3526499625
 20
262.0553809898
 10
346.4302976701
 20
261.7383986961
 10
347.4499197988
 20
261.362853648
 10
348.4019964114
 20
260.9322522083
 10
349.2776382252
 20
260.4506147867
 10
350.0686696084
 20
259.9224383021
 10
350.7677049141
 20
259.3526541958
 10
351.3682174381
 20
258.7465823887
 10
351.8646003567
 20
258.1098816099
 10
352.2328936781
 20
257.4871922703
  0
LWPOLYLINE
  5
1DF
330
1F
100
AcDbEntity
  8
0
  6
Continuous
 62
     8
370
    18
100
AcDbPolyline
 90
       29
 70
   128
 43
0.0
 10
352.1850961477
 20
257.4059572767
 10
352.1276613551
 20
257.5185620025
 10
351.7161158265
 20
258.1825541147
 10
351.1938134028
 20
258.8200619938
 10
350.565784142
 20
259.4249460905
 10
349.838076309
 20
259.9913810403
 10
349.0176981282
 20
260.513911765
 10
348.1125502898
 20
260.9875060081
 10
347.1313498624
 20
261.4076027981
 10
346.0835463425
 20
261.7701563732
 10
344.9792306507
 20
262.0716751444
 10
343.8290379509
 20
262.309255321
 10
342.6440452275
 20
262.4806088761
 10
341.4356646082
 20
262.5840855813
 10
340.2155334589
 20
262.6186888993
 10
338.9954023096
 20
262.5840855813
 10
337.7870216903
 20
262.4806088761
 10
336.6020289668
 20
262.309255321
 10
335.451836267
 20
262.0716751444
 10
334.3475205752
 20
261.7701563732
 10
333.2997170553
 20
261.4076027981
 10
332.3185166279
 20
260.9875060081
 10
331.4133687896
 20
260.513911765
 10
330.5929906088
 20
259.9913810403
 10
329.8652827758
 20
259.4249460905
 10
329.2372535149
 20
258.8200619938
 10
328.7149510913
 20
258.1825541147
 10
328.3034055626
 20
257.5185620025
 10
328.2459707701
 20
257.4059572767
  0
LWPOLYLINE
  5
1E0
330
1F
100
AcDbEntity
  8
0
  6
Continuous
 62
     8
370
    18
100
AcDbPolyline
 90
       29
 70
   128
 43
0.0
 10
352.109327008
 20
257.2831720552
 10
351.9913196037
 20
257.5227948893
 10
351.5844844709
 20
258.1791871966
 10
351.068160125
 20
258.8093983994
 10
350.4473190517
 20
259.4073592195
 10
349.7279402899
 20
259.9673109672
 10
348.9169518502
 20
260.483861001
 10
348.0221639948
 20
260.9520346619
 10
347.0521940198
 20
261.3673231814
 10
346.0163832663
 20
261.7257271042
 10
344.924707158
 20
262.0237948045
 10
343.7876791328
 20
262.2586557275
 10
342.6162493919
 20
262.4280480341
 10
341.4216994443
 20
262.5303403837
 10
340.2155334589
 20
262.5645476451
 10
339.0093674734
 20
262.5303403837
 10
337.8148175258
 20
262.4280480341
 10
336.643387785
 20
262.2586557275
 10
335.5063597597
 20
262.0237948045
 10
334.4146836515
 20
261.7257271042
 10
333.378872898
 20
261.3673231814
 10
332.4089029229
 20
260.9520346619
 10
331.5141150675
 20
260.483861001
 10
330.7031266279
 20
259.9673109672
 10
329.983747866
 20
259.4073592195
 10
329.3629067927
 20
258.8093983994
 10
328.8465824468
 20
258.1791871966
 10
328.4397473141
 20
257.5227948893
 10
328.3217399097
 20
257.2831720552
  0
LWPOLYLINE
  5
1E1
330
1F
100
AcDbEntity
  8
0
  6
Continuous
 62
     8
370
    18
100
AcDbPolyline
 90
       29
 70
   128
 43
0.0
 10
328.3979855393
 20
257.1661220992
 10
328.5277334719
 20
257.431632477
 10
328.9315288195
 20
258.0831203612
 10
329.4439953002
 20
258.7086227607
 10
330.0601975817
 20
259.3021157452
 10
330.7742012991
 20
259.8578836531
 10
331.5791302064
 20
260.3705741355
 10
332.4672323982
 20
260.8352497028
 10
333.4299549648
 20
261.2474352753
 10
334.4580263617
 20
261.6031612805
 10
335.5415456994
 20
261.8990018827
 10
336.6700780942
 20
262.132107975
 10
337.8327551623
 20
262.3002346184
 10
339.018379688
 20
262.4017626614
 10
340.2155334589
 20
262.4357143335
 10
341.4126872298
 20
262.4017626614
 10
342.5983117555
 20
262.3002346184
 10
343.7609888236
 20
262.132107975
 10
344.8895212184
 20
261.8990018827
 10
345.973040556
 20
261.6031612805
 10
347.0011119529
 20
261.2474352753
 10
347.9638345196
 20
260.8352497028
 10
348.8519367113
 20
260.3705741355
 10
349.6568656186
 20
259.8578836531
 10
350.3708693361
 20
259.3021157452
 10
350.9870716176
 20
258.7086227607
 10
351.4995380983
 20
258.0831203612
 10
351.9033334458
 20
257.431632477
 10
352.0330813784
 20
257.1661220992
  0
LWPOLYLINE
  5
1E2
330
1F
100
AcDbEntity
  8
0
  6
Continuous
 62
     8
370
    18
100
AcDbPolyline
 90
       29
 70
   128
 43
0.0
 10
328.4778887208
 20
257.049555442
 10
328.5105492116
 20
257.1127719438
 10
328.9149382487
 20
257.7652176933
 10
329.4281581952
 20
258.3916397522
 10
330.0452664624
 20
258.9860053336
 10
330.7603199605
 20
259.5425903722
 10
331.5664323333
 20
260.0560346497
 10
332.455840278
 20
260.5213934171
 10
333.4199783099
 20
260.934185015
 10
334.4495612528
 20
261.2904340347
 10
335.5346736599
 20
261.5867096034
 10
336.6648653058
 20
261.8201584254
 10
337.829251827
 20
261.988532261
 10
339.0166195447
 20
262.0902095779
 10
340.2155334589
 20
262.1242111682
 10
341.414447373
 20
262.0902095779
 10
342.6018150908
 20
261.988532261
 10
343.7662016119
 20
261.8201584254
 10
344.8963932578
 20
261.5867096034
 10
345.981505665
 20
261.2904340347
 10
347.0110886078
 20
260.934185015
 10
347.9752266397
 20
260.5213934171
 10
348.8646345845
 20
260.0560346497
 10
349.6707469573
 20
259.5425903722
 10
350.3858004553
 20
258.9860053336
 10
351.0029087226
 20
258.3916397522
 10
351.516128669
 20
257.7652176933
 10
351.9205177061
 20
257.1127719438
 10
351.953178197
 20
257.049555442
  0
LWPOLYLINE
  5
1E3
330
1F
100
AcDbEntity
  8
0
  6
Continuous
 62
     8
370
    18
100
AcDbPolyline
 90
       28
 70
   128
 43
0.0
 10
328.7470941423
 20
256.6938632168
 10
329.0128848746
 20
257.1925020983
 10
329.4588569488
 20
257.8251773064
 10
330.0117337069
 20
258.4290744492
 10
330.6660204111
 20
258.9981917254
 10
331.4152144662
 20
259.5268729921
 10
332.2518700453
 20
260.0098639771
 10
333.1676720891
 20
260.4423644991
 10
334.1535189457
 20
260.8200761736
 10
335.1996128259
 20
261.1392451323
 10
336.295557179
 20
261.3966993307
 10
337.4304600174
 20
261.5898800733
 10
338.5930421669
 20
261.716867443
 10
339.7717493638
 20
261.7763993824
 10
340.9548670864
 20
261.7678842363
 10
342.1306369793
 20
261.691406632
 10
343.287373713
 20
261.5477266383
 10
344.4135811181
 20
261.3382722116
 10
345.4980664396
 20
261.0651250041
 10
346.530051575
 20
260.7309996753
 10
347.4992801925
 20
260.339216913
 10
348.3961196625
 20
259.8936704302
 10
349.2116567916
 20
259.3987882682
 10
349.9377864054
 20
258.859488788
 10
350.5672919014
 20
258.2811317903
 10
351.0939169713
 20
257.6694652467
 10
351.5124277786
 20
257.0305681742
 10
351.6839727755
 20
256.6938632168
  0
LWPOLYLINE
  5
1E4
330
1F
100
AcDbEntity
  8
0
  6
Continuous
 62
     8
370
    18
100
AcDbPolyline
 90
       31
 70
   128
 43
0.0
 10
350.0047266411
 20
252.4793352053
 10
349.0597348734
 20
251.982016953
 10
348.0392874975
 20
251.5371555278
 10
346.9520906109
 20
251.1485463306
 10
345.8074197938
 20
250.8195048381
 10
344.6150409742
 20
250.5528383162
 10
343.3851271076
 20
250.3508218697
 10
342.1281713856
 20
250.2151790317
 10
340.8548977113
 20
250.147067059
 10
339.5761692065
 20
250.147067059
 10
338.3028955321
 20
250.2151790317
 10
337.0459398101
 20
250.3508218697
 10
335.8160259436
 20
250.5528383162
 10
334.623647124
 20
250.8195048381
 10
333.4789763069
 20
251.1485463306
 10
332.3917794202
 20
251.5371555278
 10
331.3713320444
 20
251.982016953
 10
330.4263402767
 20
252.4793352053
 10
329.5648664536
 20
253.0248673408
 10
328.7942603661
 20
253.6139590717
 10
328.1210965536
 20
254.241584475
 10
327.5511182124
 20
254.9023888721
 10
327.0891881968
 20
255.5907345128
 10
326.7392475307
 20
256.3007486749
 10
326.5042817845
 20
257.0263737678
 10
326.3862956032
 20
257.7614190142
 10
326.3862956032
 20
258.4996132671
 10
326.5042817845
 20
259.2346585134
 10
326.7392475307
 20
259.9602836063
 10
327.0891881968
 20
260.6702977684
 10
327.4536194425
 20
261.2280376415
  0
LWPOLYLINE
  5
1E5
330
1F
100
AcDbEntity
  8
0
  6
Continuous
 62
     8
370
    18
100
AcDbPolyline
 90
       14
 70
   128
 43
0.0
 10
352.9774474753
 20
261.2280376415
 10
353.341878721
 20
260.6702977684
 10
353.6918193871
 20
259.9602836063
 10
353.9267851333
 20
259.2346585134
 10
354.0447713146
 20
258.4996132671
 10
354.0447713146
 20
257.7614190142
 10
353.9267851333
 20
257.0263737678
 10
353.6918193871
 20
256.3007486749
 10
353.341878721
 20
255.5907345128
 10
352.8799487053
 20
254.9023888721
 10
352.3099703641
 20
254.241584475
 10
351.6368065516
 20
253.6139590717
 10
350.8662004641
 20
253.0248673408
 10
350.0047266411
 20
252.4793352053
  0
LWPOLYLINE
  5
1E6
330
1F
100
AcDbEntity
  8
0
  6
Continuous
 62
     8
370
    18
100
AcDbPolyline
 90
       28
 70
   128
 43
0.0
 10
350.4921520121
 20
251.4218156408
 10
349.5295923821
 20
250.9139073243
 10
348.4920414263
 20
250.4578539169
 10
347.3878528947
 20
250.0573272925
 10
346.2259170644
 20
249.7155522561
 10
345.0155891593
 20
249.4352805791
 10
343.7666140281
 20
249.2187688445
 10
342.4890476841
 20
249.0677602772
 10
341.1931763404
 20
248.9834707097
 10
339.8894335911
 20
248.9665787918
 10
338.5883164062
 20
249.0172205274
 10
337.3003006162
 20
249.134988179
 10
336.0357565669
 20
249.3189335506
 10
334.8048656234
 20
249.5675756225
 10
333.617538196
 20
249.8789124747
 10
332.4833339468
 20
250.250437406
 10
331.4113848217
 20
250.6791591161
 10
330.4103215247
 20
251.1616257899
 10
329.4882040287
 20
251.6939528894
 10
328.6524566818
 20
252.2718544298
 10
327.9098084301
 20
252.8906774877
 10
327.2662386407
 20
253.5454396637
 10
326.7269289591
 20
254.2308691978
 10
326.2962215897
 20
254.9414474144
 10
325.9775843351
 20
255.6714531554
 10
325.7735826751
 20
256.415008844
 10
325.685859111
 20
257.1661278068
 10
325.6823733873
 20
257.3134137035
  0
LWPOLYLINE
  5
1E7
330
1F
100
AcDbEntity
  8
0
  6
Continuous
 62
     8
370
    18
100
AcDbPolyline
 90
       10
 70
   128
 43
0.0
 10
354.747572194
 20
257.242399371
 10
354.7159469762
 20
256.7900000311
 10
354.5699373422
 20
256.0419094279
 10
354.3083544883
 20
255.3043860762
 10
353.933304526
 20
254.5833680802
 10
353.447807137
 20
253.884660653
 10
352.8557712607
 20
253.2138893759
 10
352.161963622
 20
252.5764549048
 10
351.3719703521
 20
251.9774894874
 10
350.4921520121
 20
251.4218156408
  0
LWPOLYLINE
  5
1E8
330
1F
100
AcDbEntity
  8
0
  6
Continuous
 62
     8
370
    18
100
AcDbPolyline
 90
       28
 70
   128
 43
0.0
 10
350.4921520121
 20
248.1249204749
 10
349.5295923821
 20
247.6170121584
 10
348.4920414263
 20
247.160958751
 10
347.3878528947
 20
246.7604321266
 10
346.2259170644
 20
246.4186570902
 10
345.0155891593
 20
246.1383854132
 10
343.7666140281
 20
245.9218736785
 10
342.4890476841
 20
245.7708651113
 10
341.1931763404
 20
245.6865755438
 10
339.8894335911
 20
245.6696836259
 10
338.5883164062
 20
245.7203253615
 10
337.3003006162
 20
245.838093013
 10
336.0357565669
 20
246.0220383847
 10
334.8048656234
 20
246.2706804566
 10
333.617538196
 20
246.5820173088
 10
332.4833339468
 20
246.9535422401
 10
331.4113848217
 20
247.3822639502
 10
330.4103215247
 20
247.864730624
 10
329.4882040287
 20
248.3970577235
 10
328.6524566818
 20
248.9749592639
 10
327.9098084301
 20
249.5937823218
 10
327.2662386407
 20
250.2485444978
 10
326.7269289591
 20
250.9339740319
 10
326.2962215897
 20
251.6445522485
 10
325.9775843351
 20
252.3745579895
 10
325.7735826751
 20
253.1181136781
 10
325.685859111
 20
253.8692326409
 10
325.6823733873
 20
254.0165185376
  0
LWPOLYLINE
  5
1E9
330
1F
100
AcDbEntity
  8
0
  6
Continuous
 62
     8
370
    18
100
AcDbPolyline
 90
       10
 70
   128
 43
0.0
 10
354.747572194
 20
253.9455042051
 10
354.7159469762
 20
253.4931048651
 10
354.5699373422
 20
252.745014262
 10
354.3083544883
 20
252.0074909103
 10
353.933304526
 20
251.2864729143
 10
353.447807137
 20
250.5877654871
 10
352.8557712607
 20
249.91699421
 10
352.161963622
 20
249.2795597389
 10
351.3719703521
 20
248.6805943214
 10
350.4921520121
 20
248.1249204749
  0
LWPOLYLINE
  5
1EA
330
1F
100
AcDbEntity
  8
0
  6
Continuous
 62
     8
370
    18
100
AcDbPolyline
 90
       10
 70
   128
 43
0.0
 10
349.4079216143
 20
253.4438941145
 10
350.2400898156
 20
253.9723524603
 10
350.9814740821
 20
254.5440828743
 10
351.6253603232
 20
255.1539076775
 10
352.1659174054
 20
255.7963042018
 10
352.59824996
 20
256.465454805
 10
352.9184427165
 20
257.1552995555
 10
353.1235959596
 20
257.8595911125
 10
353.2118517899
 20
258.5719513025
 10
353.2147764708
 20
258.6695594917
  0
LWPOLYLINE
  5
1EB
330
1F
100
AcDbEntity
  8
0
  6
Continuous
 62
     8
370
    18
100
AcDbPolyline
 90
       26
 70
   128
 43
0.0
 10
327.215981659
 20
258.6882291651
 10
327.2486559689
 20
258.2151648012
 10
327.3955268605
 20
257.506035725
 10
327.6584977171
 20
256.8081771342
 10
328.0351870339
 20
256.1279089442
 10
328.522183454
 20
255.4713917692
 10
329.1150766626
 20
254.8445711303
 10
329.8084973269
 20
254.2531236122
 10
330.5961657219
 20
253.7024054554
 10
331.4709486008
 20
253.1974040487
 10
332.4249237942
 20
252.7426927631
 10
333.4494519552
 20
252.3423895343
 10
334.5352547981
 20
252.0001195704
 10
335.6724991241
 20
251.7189825212
 10
336.8508858725
 20
251.5015244074
 10
338.0597433906
 20
251.3497145632
 10
339.2881240773
 20
251.2649278022
 10
340.524903527
 20
251.2479319665
 10
341.7588812734
 20
251.2988809728
 10
342.9788822231
 20
251.4173134191
 10
344.1738578584
 20
251.6021567629
 10
345.332986295
 20
251.8517370342
 10
346.4457702862
 20
252.1637939955
 10
347.502132288
 20
252.5355016105
 10
348.4925057224
 20
252.9634936375
 10
349.4079216143
 20
253.4438941145
  0
LWPOLYLINE
  5
1EC
330
1F
100
AcDbEntity
  8
0
  6
Continuous
 62
     8
370
    18
100
AcDbPolyline
 90
       30
 70
   128
 43
0.0
 10
349.7328718617
 20
252.7388810715
 10
348.7998347612
 20
252.2485338192
 10
347.7913585122
 20
251.8107793569
 10
346.7163056402
 20
251.4294646867
 10
345.5841237486
 20
251.1079408154
 10
344.4047624925
 20
250.8490333065
 10
343.188586141
 20
250.6550174485
 10
341.9462824956
 20
250.5275982596
 10
340.6887689655
 20
250.4678955044
 10
339.4270966247
 20
250.4764338527
 10
338.1723530951
 20
250.5531382692
 10
336.9355651081
 20
250.6973346729
 10
335.7276016009
 20
250.9077558604
 10
334.5590782002
 20
251.1825526429
 10
333.4402639317
 20
251.5193100964
 10
332.3809909754
 20
251.9150687841
 10
331.3905682601
 20
252.3663507646
 10
330.4776996564
 20
252.8691901556
 10
329.6504074862
 20
253.4191679864
 10
328.915962023
 20
254.0114510321
 10
328.2808175998
 20
254.6408342879
 10
327.7505558887
 20
255.3017867113
 10
327.3298368487
 20
255.9884998285
 10
327.0223577739
 20
256.6949387799
 10
326.8308208013
 20
257.4148953547
 10
326.7569091649
 20
258.1420425486
 10
326.8012724026
 20
258.8699901659
 10
326.9635206488
 20
259.5923409767
 10
327.2422280601
 20
260.3027469363
 10
327.2458093339
 20
260.3102138099
  0
LWPOLYLINE
  5
1ED
330
1F
100
AcDbEntity
  8
0
  6
Continuous
 62
     8
370
    18
100
AcDbPolyline
 90
       13
 70
   128
 43
0.0
 10
353.1852575838
 20
260.3102138099
 10
353.2693171312
 20
260.1266090081
 10
353.5190996931
 20
259.4126265007
 10
353.6519700365
 20
258.6882784793
 10
353.6667604922
 20
257.9599305403
 10
353.563341081
 20
257.2339834316
 10
353.3426206566
 20
256.5168168024
 10
353.0065389178
 20
255.8147331389
 10
352.5580493631
 20
255.1339023777
 10
352.0010933349
 20
254.4803076838
 10
351.3405653828
 20
253.859692871
 10
350.5822702501
 20
253.2775119245
 10
349.7328718617
 20
252.7388810715
  0
LWPOLYLINE
  5
1EE
330
1F
100
AcDbEntity
  8
0
  6
Continuous
 62
     8
370
    18
100
AcDbPolyline
 90
       33
 70
   128
 43
0.0
 10
352.8496493468
 20
259.2744366882
 10
352.8369184438
 20
259.3682947338
 10
352.6747189469
 20
260.0686277407
 10
352.396191392
 20
260.7566541813
 10
352.0039363159
 20
261.4259501382
 10
351.5016160986
 20
262.0702665754
 10
350.8939207685
 20
262.6835876839
 10
350.1865242133
 20
263.2601870497
 10
349.3860312039
 20
263.79468112
 10
348.4999157279
 20
264.2820794675
 10
347.5364512068
 20
264.7178313854
 10
346.5046332491
 20
265.0978683752
 10
345.4140956613
 20
265.4186421341
 10
344.2750204988
 20
265.6771576838
 10
343.0980429996
 20
265.8710013344
 10
341.8941522855
 20
265.9983632198
 10
340.6745887597
 20
266.0580541966
 10
339.4507391582
 20
266.0495169461
 10
338.234030235
 20
265.9728311783
 10
337.0358220736
 20
265.8287128876
 10
335.8673020206
 20
265.6185076677
 10
334.739380233
 20
265.3441781479
 10
333.6625878126
 20
265.0082856692
 10
332.6469784801
 20
264.6139663692
 10
331.7020347062
 20
264.1649019008
 10
330.8365791764
 20
263.6652850581
 10
330.0586924156
 20
263.1197806288
 10
329.3756373431
 20
262.5334818408
 10
328.7937914599
 20
261.9118628081
 10
328.3185873043
 20
261.2607274199
 10
327.9544617296
 20
260.586155152
 10
327.704814478
 20
259.8944443039
 10
327.5814175709
 20
259.2744366882
  0
LWPOLYLINE
  5
1EF
330
1F
100
AcDbEntity
  8
0
  6
Continuous
 62
     8
370
    18
100
AcDbPolyline
 90
       18
 70
   128
 43
0.0
 10
349.3490228215
 20
259.0095133323
 10
348.4561976871
 20
259.4548127501
 10
347.4423109552
 20
259.873803387
 10
346.3649150428
 20
260.2361442002
 10
345.2334781439
 20
260.5386509256
 10
344.0579433668
 20
260.7786651232
 10
342.8486413532
 20
260.9540775396
 10
341.6161994927
 20
261.0633466442
 10
340.3714485288
 20
261.1055121761
 10
339.1253273776
 20
261.0802035832
 10
337.8887869967
 20
260.9876432783
 10
336.6726941474
 20
260.8286446846
 10
335.4877358973
 20
260.6046050876
 10
334.3443257022
 20
260.3174933552
 10
333.2525118919
 20
259.9698326357
 10
332.2218893656
 20
259.564678184
 10
331.2615152709
 20
259.1055905119
 10
331.0820440962
 20
259.0095133323
  0
LWPOLYLINE
  5
1F0
330
1F
100
AcDbEntity
  8
0
  6
Continuous
 62
     8
370
    18
100
AcDbPolyline
 90
       24
 70
   128
 43
0.0
 10
329.2042655351
 20
256.1840986513
 10
329.4326894279
 20
256.4114080676
 10
330.1121494737
 20
256.9946210724
 10
330.8859420936
 20
257.5372544258
 10
331.7468425944
 20
258.0342417062
 10
332.68681298
 20
258.4809426774
 10
333.6970770002
 20
258.8731866127
 10
334.7682020921
 20
259.2073112362
 10
335.8901874492
 20
259.4801969164
 10
337.0525573967
 20
259.6892957931
 10
338.2444591994
 20
259.8326555664
 10
339.4547643914
 20
259.9089377249
 10
340.6721726791
 20
259.9174300425
 10
341.8853174496
 20
259.8580532288
 10
343.0828718968
 20
259.731361669
 10
344.2536547775
 20
259.5385382482
 10
345.3867348076
 20
259.2813833066
 10
346.4715327239
 20
258.9622978307
 10
347.4979200607
 20
258.5842610356
 10
348.4563137159
 20
258.1508025489
 10
349.3377654263
 20
257.6659694558
 10
350.1340453145
 20
257.1342885122
 10
350.83771873
 20
256.5607238799
 10
351.2268013826
 20
256.1840986513
  0
ARC
  5
1F1
330
1F
100
AcDbEntity
  8
0
  6
Continuous
 62
     8
370
    18
100
AcDbCircle
 10
340.2209311858
 20
266.9687376954
 30
0.0
 40
21.78981791879803
100
AcDbArc
 50
257.2438154629
 51
280.5948461611
  0
LWPOLYLINE
  5
1F2
330
1F
100
AcDbEntity
  8
0
  6
Continuous
 62
     8
370
    18
100
AcDbPolyline
 90
       26
 70
   128
 43
0.0
 10
349.3607811622
 20
240.5147642083
 10
348.4500597108
 20
240.0368273235
 10
347.4647651145
 20
239.6110301274
 10
346.4138203538
 20
239.2412287053
 10
345.3067429471
 20
238.9307720362
 10
344.1535587589
 20
238.6824716637
 10
342.9647112038
 20
238.4985762345
 10
341.7509666692
 20
238.380751134
 10
340.5233170138
 20
238.3300634047
 10
339.2928800228
 20
238.3469720823
 10
338.0707987242
 20
238.4313240394
 10
336.8681404755
 20
238.5823553715
 10
335.6957967361
 20
238.7986983155
 10
334.5643844322
 20
239.0783936363
 10
333.4841498091
 20
239.4189083696
 10
332.4648756387
 20
239.8171587613
 10
331.5157926257
 20
240.2695381942
 10
330.6454958129
 20
240.7719498501
 10
329.8618667429
 20
241.3198438112
 10
329.1720020821
 20
241.9082582651
 10
328.5821493515
 20
242.5318644392
 10
328.0976503489
 20
243.1850148595
 10
327.7228927722
 20
243.8617944946
 10
327.4612704841
 20
244.5560743234
 10
327.3151527766
 20
245.2615668403
 10
327.2822001255
 20
245.7942033314
  0
LWPOLYLINE
  5
1F3
330
1F
100
AcDbEntity
  8
0
  6
Continuous
 62
     8
370
    18
100
AcDbPolyline
 90
       10
 70
   128
 43
0.0
 10
353.1488667922
 20
245.7942033314
 10
353.1452040036
 20
245.6165236672
 10
353.0574007673
 20
244.9078166064
 10
352.8532995921
 20
244.207136801
 10
352.5347488498
 20
243.5208297158
 10
352.1046333852
 20
242.8551106542
 10
351.5668483906
 20
242.216008471
 10
350.9262641302
 20
241.6093109746
 10
350.1886818342
 20
241.0405125113
 10
349.3607811622
 20
240.5147642083
  0
LWPOLYLINE
  5
1F4
330
1F
100
AcDbEntity
  8
0
  6
Continuous
 62
     8
370
    18
100
AcDbPolyline
 90
       24
 70
   128
 43
0.0
 10
349.3298839589
 20
240.293867355
 10
348.4222393783
 20
239.8175451791
 10
347.4402735981
 20
239.3931865381
 10
346.3928794524
 20
239.0246344895
 10
345.2895423048
 20
238.7152266977
 10
344.1402541473
 20
238.4677652076
 10
342.9554231116
 20
238.2844910687
 10
341.7457792108
 20
238.1670640402
 10
340.5222771676
 20
238.1165475592
 10
339.2959972058
 20
238.1333991109
 10
338.0780447068
 20
238.2174660851
 10
336.8794496369
 20
238.3679871581
 10
335.7110666587
 20
238.5835991878
 10
334.5834768293
 20
238.8623495584
 10
333.506891777
 20
239.2017138633
 10
332.4910612225
 20
239.5986187668
 10
331.5451846849
 20
240.0494698365
 10
330.6778281683
 20
240.5501840955
 10
329.8968465878
 20
241.0962269979
 10
329.2093126335
 20
241.6826534945
 10
328.6214527193
 20
242.3041528163
 10
328.1385905958
 20
242.955096569
 10
327.7650991369
 20
243.6295897054
 10
327.6730329674
 20
243.8401916512
  0
ARC
  5
1F5
330
1F
100
AcDbEntity
  8
0
  6
Continuous
 62
     8
370
    18
100
AcDbCircle
 10
345.8415654224
 20
247.0820424442
 30
0.0
 40
7.632017246668437
100
AcDbArc
 50
297.1977993107
 51
335.8041871639
  0
ARC
  5
1F6
330
1F
100
AcDbEntity
  8
0
  6
Continuous
 62
     8
370
    18
100
AcDbCircle
 10
345.6944551342
 20
246.0676374644
 30
0.0
 40
7.40598985206451
100
AcDbArc
 50
297.1586786884
 51
335.778722358
  0
LWPOLYLINE
  5
1F7
330
1F
100
AcDbEntity
  8
0
  6
Continuous
 62
     8
370
    18
100
AcDbPolyline
 90
       24
 70
   128
 43
0.0
 10
327.9825873466
 20
243.0292432185
 10
328.0151359484
 20
242.9466618857
 10
328.3472733975
 20
242.2745848551
 10
328.7902215931
 20
241.6241507956
 10
329.3398448472
 20
241.0014326346
 10
329.9910114756
 20
240.412244524
 10
330.7376417108
 20
239.8620875542
 10
331.5727644677
 20
239.3560983928
 10
332.4885824299
 20
238.8990013242
 10
333.476544852
 20
238.4950641405
 10
334.527427395
 20
238.1480582944
 10
335.6314182517
 20
237.861223686
 10
336.7782097571
 20
237.6372384128
 10
337.9570946276
 20
237.4781937648
 10
339.1570659331
 20
237.3855746992
 10
340.3669198646
 20
237.3602459752
 10
341.575360342
 20
237.4024440802
 10
342.7711044823
 20
237.5117750219
 10
343.9429879444
 20
237.6872180068
 10
345.0800691683
 20
237.927134971
 10
346.171731533
 20
238.2292858744
 10
347.2077824811
 20
238.5908496155
 10
348.178548684
 20
239.0084503711
 10
349.0749663593
 20
239.4781891153
  0
LWPOLYLINE
  5
1F8
330
1F
100
AcDbEntity
  8
0
  6
Continuous
 62
     8
370
    18
100
AcDbPolyline
 90
       24
 70
   128
 43
0.0
 10
349.0543682237
 20
239.3309245464
 10
348.1600347149
 20
238.8622779423
 10
347.1915255384
 20
238.4456481064
 10
346.1578834034
 20
238.0849249991
 10
345.068759148
 20
237.783476595
 10
343.9343216321
 20
237.5441174365
 10
342.7651627929
 20
237.3690823556
 10
341.5721987516
 20
237.2600056077
 10
340.366567892
 20
237.2179056131
 10
339.1595268646
 20
237.243175448
 10
337.9623454862
 20
237.3355791748
 10
336.7862015168
 20
237.4942540447
 10
335.6420762958
 20
237.7177185534
 10
334.5406522121
 20
238.0038862728
 10
333.4922129656
 20
238.3500853321
 10
332.506547551
 20
238.7530833639
 10
331.5928588608
 20
239.2091176842
 10
330.75967776
 20
239.7139304235
 10
330.0147834362
 20
240.2628082811
 10
329.3651307668
 20
240.8506265325
 10
328.816785384
 20
241.4718968769
 10
328.3748670406
 20
242.1208186806
 10
328.0435018094
 20
242.7913331356
 10
327.8522610022
 20
243.3690884866
  0
LWPOLYLINE
  5
1F9
330
1F
100
AcDbEntity
  8
0
  6
Continuous
 62
     8
370
    18
100
AcDbPolyline
 90
        8
 70
   128
 43
0.0
 10
352.5788059156
 20
243.3690884866
 10
352.452746796
 20
242.9616055604
 10
352.1495442902
 20
242.2866645291
 10
351.7349171407
 20
241.631767691
 10
351.2127366095
 20
241.0030296414
 10
350.5878781556
 20
240.4063207382
 10
349.8661759138
 20
239.8472122916
 10
349.0543682237
 20
239.3309245464
  0
LWPOLYLINE
  5
1FA
330
1F
100
AcDbEntity
  8
0
  6
Continuous
 62
     8
370
    18
100
AcDbPolyline
 90
       31
 70
   128
 43
0.0
 10
327.9587777909
 20
110.2272639209
 10
327.9751397968
 20
110.1789144406
 10
328.2727294073
 20
109.4930710527
 10
328.6853347495
 20
108.8273690256
 10
329.2089822083
 20
108.1882194339
 10
329.8386287724
 20
107.5817776374
 10
330.5682106012
 20
107.0138840022
 10
331.390701423
 20
106.4900076545
 10
332.2981802013
 20
106.0151938098
 10
333.2819074196
 20
105.5940151851
 10
334.332409247
 20
105.2305279606
 10
335.4395687766
 20
104.9282327172
 10
336.5927234569
 20
104.6900407232
 10
337.7807677779
 20
104.5182458978
 10
338.9922602234
 20
104.4145027191
 10
340.2155334589
 20
104.3798102904
 10
341.4388066943
 20
104.4145027191
 10
342.6502991399
 20
104.5182458978
 10
343.8383434609
 20
104.6900407232
 10
344.9914981412
 20
104.9282327172
 10
346.0986576707
 20
105.2305279606
 10
347.1491594981
 20
105.5940151851
 10
348.1328867164
 20
106.0151938098
 10
349.0403654948
 20
106.4900076545
 10
349.8628563165
 20
107.0138840022
 10
350.5924381453
 20
107.5817776374
 10
351.2220847095
 20
108.1882194339
 10
351.7457321682
 20
108.8273690256
 10
352.1583375104
 20
109.4930710527
 10
352.455927121
 20
110.1789144406
 10
352.4623338913
 20
110.1976378795
  0
MTEXT
  5
1FB
330
1F
100
AcDbEntity
  8
0
  6
Continuous
 62
     7
370
     0
100
AcDbMText
 10
339.1963657455
 20
277.0052680682
 30
0.0
 40
3.5
 41
0.0
 71
     2
 72
     1
  1
(1:3)
  7
SLDTEXTSTYLE0
 73
     1
 44
1.0
  0
CIRCLE
  5
1FC
330
1F
100
AcDbEntity
  8
0
  6
Continuous
 62
     7
370
    25
100
AcDbCircle
 10
146.3925921497
 20
70.2199662046
 30
0.0
 40
35.09390887643659
  0
CIRCLE
  5
1FD
330
1F
100
AcDbEntity
  8
0
  6
Continuous
 62
     7
370
    25
100
AcDbCircle
 10
146.3925921497
 20
70.2199662046
 30
0.0
 40
39.0
  0
CIRCLE
  5
1FE
330
1F
100
AcDbEntity
  8
0
  6
Continuous
 62
     7
370
    25
100
AcDbCircle
 10
146.3925921497
 20
70.2199662046
 30
0.0
 40
38.0
  0
CIRCLE
  5
1FF
330
1F
100
AcDbEntity
  8
0
  6
Continuous
 62
     7
370
    25
100
AcDbCircle
 10
146.3925921497
 20
70.2199662046
 30
0.0
 40
43.59999999999999
  0
CIRCLE
  5
200
330
1F
100
AcDbEntity
  8
0
  6
Continuous
 62
     7
370
    25
100
AcDbCircle
 10
146.3925921497
 20
70.2199662046
 30
0.0
 40
35.04938637064742
  0
CIRCLE
  5
201
330
1F
100
AcDbEntity
  8
0
  6
Continuous
 62
     8
370
    18
100
AcDbCircle
 10
146.3925921497
 20
70.2199662046
 30
0.0
 40
35.26259897774298
  0
CIRCLE
  5
202
330
1F
100
AcDbEntity
  8
0
  6
Continuous
 62
     8
370
    18
100
AcDbCircle
 10
146.3925921497
 20
70.2199662046
 30
0.0
 40
40.37864714073729
  0
CIRCLE
  5
203
330
1F
100
AcDbEntity
  8
0
  6
Continuous
 62
     8
370
    18
100
AcDbCircle
 10
146.3925921497
 20
70.2199662046
 30
0.0
 40
41.5320292888922
  0
INSERT
  5
20F
330
1F
100
AcDbEntity
  8
0
  6
Continuous
 62
     7
370
     0
100
AcDbBlockReference
  2
SW_CENTERMARKSYMBOL_0
 10
146.3925921497
 20
70.2199662046
 30
0.0
  0
LINE
  5
210
330
1F
100
AcDbEntity
  8
0
  6
CENTER
 62
     7
370
    18
100
AcDbLine
 10
196.0775083056
 20
70.2199662046
 30
0.0
 11
96.9426578073
 21
70.2199662046
 31
0.0
  0
LINE
  5
211
330
1F
100
AcDbEntity
  8
0
  6
Continuous
 62
     7
370
    18
100
AcDbLine
 10
194.0775083056
 20
62.6199662046
 30
0.0
 11
194.0775083056
 21
70.2199662046
 31
0.0
  0
SOLID
  5
212
330
1F
100
AcDbEntity
  8
0
  6
Continuous
 62
     7
370
    18
100
AcDbTrace
 10
194.0775083056
 20
70.2199662046
 30
0.0
 11
193.2775083056
 21
65.2199662046
 31
0.0
 12
194.8775083056
 22
65.2199662046
 32
0.0
 13
194.8775083056
 23
65.2199662046
 33
0.0
  0
LINE
  5
213
330
1F
100
AcDbEntity
  8
0
  6
Continuous
 62
     7
370
    18
100
AcDbLine
 10
98.9426578073
 20
62.6199662046
 30
0.0
 11
98.9426578073
 21
70.2199662046
 31
0.0
  0
SOLID
  5
214
330
1F
100
AcDbEntity
  8
0
  6
Continuous
 62
     7
370
    18
100
AcDbTrace
 10
98.9426578073
 20
70.2199662046
 30
0.0
 11
98.1426578073
 21
65.2199662046
 31
0.0
 12
99.7426578073
 22
65.2199662046
 32
0.0
 13
99.7426578073
 23
65.2199662046
 33
0.0
  0
MTEXT
  5
215
330
1F
100
AcDbEntity
  8
0
  6
Continuous
 62
     7
100
AcDbMText
 10
191.8432179346
 20
60.245245727
 30
0.0
 40
5.0
 41
0.0
 71
     1
 72
     1
  1
A
  7
SLDTEXTSTYLE0
 73
     1
 44
1.0
  0
MTEXT
  5
216
330
1F
100
AcDbEntity
  8
0
  6
Continuous
 62
     7
100
AcDbMText
 10
96.5207326772
 20
60.5807274546
 30
0.0
 40
5.0
 41
0.0
 71
     1
 72
     1
  1
A
  7
SLDTEXTSTYLE0
 73
     1
 44
1.0
  0
INSERT
  5
21A
330
1F
100
AcDbEntity
  8
0
  6
Continuous
 62
     7
100
AcDbBlockReference
  2
SW_BROKEN_VIEW_0
 10
0.0
 20
0.0
 30
0.0
  0
LINE
  5
21B
330
1F
100
AcDbEntity
  8
0
  6
Continuous
 62
     7
370
    25
100
AcDbLine
 10
186.2695300159
 20
247.5164936295
 30
0.0
 11
106.5156542835
 21
247.5164936295
 31
0.0
  0
LINE
  5
21C
330
1F
100
AcDbEntity
  8
0
  6
Continuous
 62
     7
370
    25
100
AcDbLine
 10
183.2558111427
 20
238.3482263795
 30
0.0
 11
109.5293731568
 21
238.3482263795
 31
0.0
  0
LINE
  5
21D
330
1F
100
AcDbEntity
  8
0
  6
Continuous
 62
     7
370
    25
100
AcDbLine
 10
183.3095857081
 20
238.3418188802
 30
0.0
 11
183.7370143411
 21
238.2385538331
 31
0.0
  0
ARC
  5
21E
330
1F
100
AcDbEntity
  8
0
  6
Continuous
 62
     7
370
    25
100
AcDbCircle
 10
183.7773662281
 20
238.4054363843
 30
0.0
 40
0.1716917606444831
100
AcDbArc
 50
256.4068929237
 51
345.3026244944
  0
LINE
  5
21F
330
1F
100
AcDbEntity
  8
0
  6
Continuous
 62
     7
370
    25
100
AcDbLine
 10
184.1219560382
 20
239.0423224679
 30
0.0
 11
183.9434401271
 21
238.3618758431
 31
0.0
  0
LWPOLYLINE
  5
220
330
1F
100
AcDbEntity
  8
0
  6
Continuous
 62
     7
370
    25
100
AcDbPolyline
 90
        3
 70
   128
 43
0.0
 10
184.1217250702
 20
239.1303287259
 10
184.127085763
 20
239.072929453
 10
184.1219560382
 20
239.0423224679
  0
LINE
  5
221
330
1F
100
AcDbEntity
  8
0
  6
Continuous
 62
     7
370
    25
100
AcDbLine
 10
184.0598778007
 20
239.3611477128
 30
0.0
 11
184.1217250702
 21
239.1303287259
 31
0.0
  0
ARC
  5
222
330
1F
100
AcDbEntity
  8
0
  6
Continuous
 62
     7
370
    25
100
AcDbCircle
 10
184.3363404688
 20
239.4352266
 30
0.0
 40
0.286215457975966
100
AcDbArc
 50
133.9404378606
 51
195.0001814803
  0
LINE
  5
223
330
1F
100
AcDbEntity
  8
0
  6
Continuous
 62
     7
370
    25
100
AcDbLine
 10
184.3358175037
 20
239.8322032205
 30
0.0
 11
184.1377326426
 21
239.6413193456
 31
0.0
  0
ARC
  5
224
330
1F
100
AcDbEntity
  8
0
  6
Continuous
 62
     7
370
    25
100
AcDbCircle
 10
184.1770020411
 20
239.9970494114
 30
0.0
 40
0.2289030751515044
100
AcDbArc
 50
313.9325417523
 51
0.0050703289
  0
LINE
  5
225
330
1F
100
AcDbEntity
  8
0
  6
Continuous
 62
     7
370
    25
100
AcDbLine
 10
184.4059051154
 20
242.168645691
 30
0.0
 11
184.4059051154
 21
239.9970696679
 31
0.0
  0
ARC
  5
226
330
1F
100
AcDbEntity
  8
0
  6
Continuous
 62
     7
370
    25
100
AcDbCircle
 10
183.8334847543
 20
242.1686300526
 30
0.0
 40
0.5724203612990016
100
AcDbArc
 50
0.0015653128
 51
100.9972520703
  0
LINE
  5
227
330
1F
100
AcDbEntity
  8
0
  6
Continuous
 62
     7
370
    25
100
AcDbLine
 10
183.7242887495
 20
242.7305386773
 30
0.0
 11
183.1738249538
 21
242.6235185376
 31
0.0
  0
ARC
  5
228
330
1F
100
AcDbEntity
  8
0
  6
Continuous
 62
     7
370
    25
100
AcDbCircle
 10
183.1082964661
 20
242.9606493988
 30
0.0
 40
0.3434402425947044
100
AcDbArc
 50
103.7693250454
 51
280.9994901496
  0
ARC
  5
229
330
1F
100
AcDbEntity
  8
0
  6
Continuous
 62
     7
370
    25
100
AcDbCircle
 10
182.8903043809
 20
243.8501882609
 30
0.0
 40
0.572419974057265
100
AcDbArc
 50
283.7698393858
 51
332.0001388757
  0
LINE
  5
22A
330
1F
100
AcDbEntity
  8
0
  6
Continuous
 62
     7
370
    25
100
AcDbLine
 10
184.7266414342
 20
246.0845516435
 30
0.0
 11
183.3957218704
 21
243.5814545861
 31
0.0
  0
ARC
  5
22B
330
1F
100
AcDbEntity
  8
0
  6
Continuous
 62
     7
370
    25
100
AcDbCircle
 10
184.5245916532
 20
246.192013217
 30
0.0
 40
0.2288495221164178
100
AcDbArc
 50
331.9934126045
 51
0.0088637361
  0
LINE
  5
22C
330
1F
100
AcDbEntity
  8
0
  6
Continuous
 62
     7
370
    25
100
AcDbLine
 10
184.7534411726
 20
247.0063374749
 30
0.0
 11
184.7534411726
 21
246.1920486203
 31
0.0
  0
ARC
  5
22D
330
1F
100
AcDbEntity
  8
0
  6
Continuous
 62
     7
370
    25
100
AcDbCircle
 10
185.1004463614
 20
247.006359838
 30
0.0
 40
0.3470051895648411
100
AcDbArc
 50
98.7110628167
 51
180.0036924802
  0
LINE
  5
22E
330
1F
100
AcDbEntity
  8
0
  6
Continuous
 62
     7
370
    25
100
AcDbLine
 10
186.0094451485
 20
247.4966750852
 30
0.0
 11
185.0478918431
 21
247.3493622056
 31
0.0
  0
ARC
  5
22F
330
1F
100
AcDbEntity
  8
0
  6
Continuous
 62
     7
370
    25
100
AcDbCircle
 10
186.2694827377
 20
245.8008927758
 30
0.0
 40
1.715604030271652
100
AcDbArc
 50
83.9928308581
 51
98.7180391191
  0
LINE
  5
230
330
1F
100
AcDbEntity
  8
0
  6
Continuous
 62
     7
370
    25
100
AcDbLine
 10
186.4490256784
 20
247.5070760957
 30
0.0
 11
187.0497436402
 21
247.4439547769
 31
0.0
  0
ARC
  5
231
330
1F
100
AcDbEntity
  8
0
  6
Continuous
 62
     7
370
    25
100
AcDbCircle
 10
186.9059535549
 20
246.0771039737
 30
0.0
 40
1.374393214052166
100
AcDbArc
 50
60.0060210983
 51
83.9946816803
  0
LINE
  5
232
330
1F
100
AcDbEntity
  8
0
  6
Continuous
 62
     7
370
    25
100
AcDbLine
 10
187.5930250761
 20
247.2674356214
 30
0.0
 11
188.9925905642
 21
246.4593754521
 31
0.0
  0
LINE
  5
233
330
1F
100
AcDbEntity
  8
0
  6
Continuous
 62
     7
370
    25
100
AcDbLine
 10
188.9925905642
 20
246.4593754521
 30
0.0
 11
188.9925905642
 21
245.7825051061
 31
0.0
  0
LINE
  5
234
330
1F
100
AcDbEntity
  8
0
  6
Continuous
 62
     7
370
    25
100
AcDbLine
 10
188.9925905642
 20
245.7825051061
 30
0.0
 11
188.8950438378
 21
245.7261787168
 31
0.0
  0
ARC
  5
235
330
1F
100
AcDbEntity
  8
0
  6
Continuous
 62
     7
370
    25
100
AcDbCircle
 10
189.0381350985
 20
245.4783234789
 30
0.0
 40
0.2861945628544058
100
AcDbArc
 50
119.9986081987
 51
179.9961712284
  0
LINE
  5
236
330
1F
100
AcDbEntity
  8
0
  6
Continuous
 62
     7
370
    25
100
AcDbLine
 10
188.7519405363
 20
245.4783426038
 30
0.0
 11
188.7519405363
 21
243.5290024987
 31
0.0
  0
ARC
  5
237
330
1F
100
AcDbEntity
  8
0
  6
Continuous
 62
     7
370
    25
100
AcDbCircle
 10
189.0381350973
 20
243.5289918201
 30
0.0
 40
0.2861945612131816
100
AcDbArc
 50
179.9978621448
 51
240.0013918893
  0
LINE
  5
238
330
1F
100
AcDbEntity
  8
0
  6
Continuous
 62
     7
370
    25
100
AcDbLine
 10
188.8950438378
 20
243.2811365834
 30
0.0
 11
188.9925905642
 21
243.2248101941
 31
0.0
  0
LINE
  5
239
330
1F
100
AcDbEntity
  8
0
  6
Continuous
 62
     7
370
    25
100
AcDbLine
 10
188.9925905642
 20
243.2248101941
 30
0.0
 11
188.9925905642
 21
242.547939848
 31
0.0
  0
LINE
  5
23A
330
1F
100
AcDbEntity
  8
0
  6
Continuous
 62
     7
370
    25
100
AcDbLine
 10
188.9925905642
 20
242.547939848
 30
0.0
 11
188.8950438378
 21
242.4916134587
 31
0.0
  0
ARC
  5
23B
330
1F
100
AcDbEntity
  8
0
  6
Continuous
 62
     7
370
    25
100
AcDbCircle
 10
189.0381350973
 20
242.2437582221
 30
0.0
 40
0.2861945612131903
100
AcDbArc
 50
119.9986081107
 51
180.0021378552
  0
LINE
  5
23C
330
1F
100
AcDbEntity
  8
0
  6
Continuous
 62
     7
370
    25
100
AcDbLine
 10
188.7519405363
 20
242.2437475434
 30
0.0
 11
188.7519405363
 21
240.6649993173
 31
0.0
  0
ARC
  5
23D
330
1F
100
AcDbEntity
  8
0
  6
Continuous
 62
     7
370
    25
100
AcDbCircle
 10
188.866413822
 20
240.6649744561
 30
0.0
 40
0.1144732884600778
100
AcDbArc
 50
179.9875565881
 51
305.0069636705
  0
LINE
  5
23E
330
1F
100
AcDbEntity
  8
0
  6
Continuous
 62
     7
370
    25
100
AcDbLine
 10
188.9925905642
 20
240.6135903111
 30
0.0
 11
188.9320843992
 21
240.5712114087
 31
0.0
  0
LINE
  5
23F
330
1F
100
AcDbEntity
  8
0
  6
Continuous
 62
     7
370
    25
100
AcDbLine
 10
188.9925905642
 20
240.6135903111
 30
0.0
 11
188.9925905642
 21
239.5703302136
 31
0.0
  0
LINE
  5
240
330
1F
100
AcDbEntity
  8
0
  6
Continuous
 62
     7
370
    25
100
AcDbLine
 10
188.9925905642
 20
239.5703302136
 30
0.0
 11
188.7787551758
 21
239.1117618791
 31
0.0
  0
ARC
  5
241
330
1F
100
AcDbEntity
  8
0
  6
Continuous
 62
     7
370
    25
100
AcDbCircle
 10
189.0382809173
 20
238.9907775677
 30
0.0
 40
0.2863403814902921
100
AcDbArc
 50
155.0062618666
 51
179.9966614207
  0
LINE
  5
242
330
1F
100
AcDbEntity
  8
0
  6
Continuous
 62
     7
370
    25
100
AcDbLine
 10
188.7519405363
 20
238.9907942525
 30
0.0
 11
188.7519405363
 21
237.8493951074
 31
0.0
  0
ARC
  5
243
330
1F
100
AcDbEntity
  8
0
  6
Continuous
 62
     7
370
    25
100
AcDbCircle
 10
189.0381350973
 20
237.8493844287
 30
0.0
 40
0.2861945612131816
100
AcDbArc
 50
179.9978621448
 51
240.0013918893
  0
LINE
  5
244
330
1F
100
AcDbEntity
  8
0
  6
Continuous
 62
     7
370
    25
100
AcDbLine
 10
188.8950438378
 20
237.6015291921
 30
0.0
 11
188.9925905642
 21
237.5452028028
 31
0.0
  0
LINE
  5
245
330
1F
100
AcDbEntity
  8
0
  6
Continuous
 62
     7
370
    25
100
AcDbLine
 10
188.9925905642
 20
237.5452028028
 30
0.0
 11
188.9925905642
 21
236.8683324567
 31
0.0
  0
LINE
  5
246
330
1F
100
AcDbEntity
  8
0
  6
Continuous
 62
     7
370
    25
100
AcDbLine
 10
188.9925905642
 20
236.8683324567
 30
0.0
 11
188.8950438378
 21
236.8120060674
 31
0.0
  0
ARC
  5
247
330
1F
100
AcDbEntity
  8
0
  6
Continuous
 62
     7
370
    25
100
AcDbCircle
 10
189.0381350973
 20
236.5641508307
 30
0.0
 40
0.2861945612131903
100
AcDbArc
 50
119.9986081107
 51
180.0021378552
  0
LINE
  5
248
330
1F
100
AcDbEntity
  8
0
  6
Continuous
 62
     7
370
    25
100
AcDbLine
 10
188.7519405363
 20
236.5641401521
 30
0.0
 11
188.7519405363
 21
235.3503511659
 31
0.0
  0
ARC
  5
249
330
1F
100
AcDbEntity
  8
0
  6
Continuous
 62
     7
370
    25
100
AcDbCircle
 10
189.0381350973
 20
235.3503404872
 30
0.0
 40
0.2861945612131816
100
AcDbArc
 50
179.9978621448
 51
240.0013918893
  0
LINE
  5
24A
330
1F
100
AcDbEntity
  8
0
  6
Continuous
 62
     7
370
    25
100
AcDbLine
 10
188.8950438378
 20
235.1024852506
 30
0.0
 11
188.9925905642
 21
235.0461886636
 31
0.0
  0
LINE
  5
24B
330
1F
100
AcDbEntity
  8
0
  6
Continuous
 62
     7
370
    25
100
AcDbLine
 10
188.9925905642
 20
235.0461886636
 30
0.0
 11
188.9925905642
 21
234.3692885152
 31
0.0
  0
LINE
  5
24C
330
1F
100
AcDbEntity
  8
0
  6
Continuous
 62
     7
370
    25
100
AcDbLine
 10
188.9925905642
 20
234.3692885152
 30
0.0
 11
188.8950438378
 21
234.3129621259
 31
0.0
  0
ARC
  5
24D
330
1F
100
AcDbEntity
  8
0
  6
Continuous
 62
     7
370
    25
100
AcDbCircle
 10
189.0381147926
 20
234.065122158
 30
0.0
 40
0.2861711862017344
100
AcDbArc
 50
119.9966158584
 51
179.6829822653
  0
LINE
  5
24E
330
1F
100
AcDbEntity
  8
0
  6
Continuous
 62
     7
370
    25
100
AcDbLine
 10
188.7519479868
 20
234.066705536
 30
0.0
 11
188.7451269803
 21
232.8287468663
 31
0.0
  0
ARC
  5
24F
330
1F
100
AcDbEntity
  8
0
  6
Continuous
 62
     7
370
    25
100
AcDbCircle
 10
189.0313239949
 20
232.8271884809
 30
0.0
 40
0.28620125737968
100
AcDbArc
 50
179.6880190174
 51
239.9998763372
  0
LINE
  5
250
330
1F
100
AcDbEntity
  8
0
  6
Continuous
 62
     7
370
    25
100
AcDbLine
 10
188.8882228312
 20
232.5793312303
 30
0.0
 11
188.9925905642
 21
232.5190709344
 31
0.0
  0
LINE
  5
251
330
1F
100
AcDbEntity
  8
0
  6
Continuous
 62
     7
370
    25
100
AcDbLine
 10
188.9925905642
 20
232.5190709344
 30
0.0
 11
188.9925905642
 21
231.8500684014
 31
0.0
  0
LINE
  5
252
330
1F
100
AcDbEntity
  8
0
  6
Continuous
 62
     7
370
    25
100
AcDbLine
 10
188.9925905642
 20
231.8500684014
 30
0.0
 11
188.0019427416
 21
231.2781022302
 31
0.0
  0
ARC
  5
253
330
1F
100
AcDbEntity
  8
0
  6
Continuous
 62
     7
370
    25
100
AcDbCircle
 10
187.3162478098
 20
232.4653772922
 30
0.0
 40
1.371057844318967
100
AcDbArc
 50
290.9759725523
 51
300.0080110086
  0
LINE
  5
254
330
1F
100
AcDbEntity
  8
0
  6
Continuous
 62
     7
370
    25
100
AcDbLine
 10
187.8070541797
 20
231.185178589
 30
0.0
 11
187.1620387909
 21
230.9377597085
 31
0.0
  0
ARC
  5
255
330
1F
100
AcDbEntity
  8
0
  6
Continuous
 62
     7
370
    25
100
AcDbCircle
 10
187.0390442662
 20
231.258424733
 30
0.0
 40
0.3434438979491695
100
AcDbArc
 50
178.0642582546
 51
290.9848543473
  0
LINE
  5
256
330
1F
100
AcDbEntity
  8
0
  6
Continuous
 62
     7
370
    25
100
AcDbLine
 10
186.7822119174
 20
233.8257239572
 30
0.0
 11
186.6957963583
 21
231.2700258008
 31
0.0
  0
LWPOLYLINE
  5
257
330
1F
100
AcDbEntity
  8
0
  6
Continuous
 62
     7
370
    25
100
AcDbPolyline
 90
        3
 70
   128
 43
0.0
 10
186.7593051074
 20
233.9173660985
 10
186.7793397186
 20
233.8633046857
 10
186.7822119174
 20
233.8257239572
  0
LINE
  5
258
330
1F
100
AcDbEntity
  8
0
  6
Continuous
 62
     7
370
    25
100
AcDbLine
 10
186.6236374853
 20
234.1523574105
 30
0.0
 11
186.7593051074
 21
233.9173660985
 31
0.0
  0
ARC
  5
259
330
1F
100
AcDbEntity
  8
0
  6
Continuous
 62
     7
370
    25
100
AcDbCircle
 10
186.772358226
 20
234.238220514
 30
0.0
 40
0.1717274912944983
100
AcDbArc
 50
154.2550354464
 51
209.999752594
  0
LINE
  5
25A
330
1F
100
AcDbEntity
  8
0
  6
Continuous
 62
     7
370
    25
100
AcDbLine
 10
187.1421606419
 20
235.4003892652
 30
0.0
 11
186.6176770208
 21
234.3128131143
 31
0.0
  0
ARC
  5
25B
330
1F
100
AcDbEntity
  8
0
  6
Continuous
 62
     7
370
    25
100
AcDbCircle
 10
186.4203522805
 20
235.748481478
 30
0.0
 40
0.8013585335165759
100
AcDbArc
 50
334.2543024904
 51
180.0000777456
  0
LINE
  5
25C
330
1F
100
AcDbEntity
  8
0
  6
Continuous
 62
     7
370
    25
100
AcDbLine
 10
185.618993747
 20
235.7484803906
 30
0.0
 11
185.618993747
 21
235.4855941049
 31
0.0
  0
ARC
  5
25D
330
1F
100
AcDbEntity
  8
0
  6
Continuous
 62
     7
370
    25
100
AcDbCircle
 10
185.0465895227
 20
235.4855953359
 30
0.0
 40
0.5724042243183355
100
AcDbArc
 50
266.5574991897
 51
359.9998767776
  0
LINE
  5
25E
330
1F
100
AcDbEntity
  8
0
  6
Continuous
 62
     7
370
    25
100
AcDbLine
 10
182.70872246
 20
235.0528345815
 30
0.0
 11
185.0122184632
 21
234.91422398
 31
0.0
  0
ARC
  5
25F
330
1F
100
AcDbEntity
  8
0
  6
Continuous
 62
     7
370
    25
100
AcDbCircle
 10
182.736264514
 20
235.5100403457
 30
0.0
 40
0.4580345789994543
100
AcDbArc
 50
235.0042777253
 51
266.5526708223
  0
LINE
  5
260
330
1F
100
AcDbEntity
  8
0
  6
Continuous
 62
     7
370
    25
100
AcDbLine
 10
181.6085436521
 20
235.7405231706
 30
0.0
 11
182.4735746858
 21
235.1348207704
 31
0.0
  0
ARC
  5
261
330
1F
100
AcDbEntity
  8
0
  6
Continuous
 62
     7
370
    25
100
AcDbCircle
 10
181.7727007494
 20
235.9749640927
 30
0.0
 40
0.2861994035377944
100
AcDbArc
 50
114.2415515842
 51
235.0000333929
  0
LINE
  5
262
330
1F
100
AcDbEntity
  8
0
  6
Continuous
 62
     7
370
    25
100
AcDbLine
 10
181.9986299751
 20
236.3905714265
 30
0.0
 11
181.6551917372
 21
236.2359271756
 31
0.0
  0
LINE
  5
263
330
1F
100
AcDbEntity
  8
0
  6
Continuous
 62
     7
370
    25
100
AcDbLine
 10
183.0876217363
 20
236.8809388391
 30
0.0
 11
181.9986299751
 21
236.3905714265
 31
0.0
  0
ARC
  5
264
330
1F
100
AcDbEntity
  8
0
  6
Continuous
 62
     7
370
    25
100
AcDbCircle
 10
182.9701599185
 20
237.141873421
 30
0.0
 40
0.286154040111859
100
AcDbArc
 50
294.2352782935
 51
14.1022224383
  0
LINE
  5
265
330
1F
100
AcDbEntity
  8
0
  6
Continuous
 62
     7
370
    25
100
AcDbLine
 10
183.033746588
 20
238.0634949914
 30
0.0
 11
183.2476900098
 21
237.2115956059
 31
0.0
  0
ARC
  5
266
330
1F
100
AcDbEntity
  8
0
  6
Continuous
 62
     7
370
    25
100
AcDbCircle
 10
183.2558199929
 20
238.1192543841
 30
0.0
 40
0.2289666068672221
100
AcDbArc
 50
76.4190448882
 51
194.0947598918
  0
LINE
  5
267
330
1F
100
AcDbEntity
  8
0
  6
Continuous
 62
     7
370
    25
100
AcDbLine
 10
109.5374942896
 20
237.2115956059
 30
0.0
 11
109.7514377115
 21
238.0634949914
 31
0.0
  0
ARC
  5
268
330
1F
100
AcDbEntity
  8
0
  6
Continuous
 62
     7
370
    25
100
AcDbCircle
 10
109.8150041684
 20
237.1418636362
 30
0.0
 40
0.2861368211554082
100
AcDbArc
 50
165.8948911778
 51
245.7676080903
  0
LINE
  5
269
330
1F
100
AcDbEntity
  8
0
  6
Continuous
 62
     7
370
    25
100
AcDbLine
 10
110.7865543244
 20
236.3905714265
 30
0.0
 11
109.6975625632
 21
236.8809388391
 31
0.0
  0
LINE
  5
26A
330
1F
100
AcDbEntity
  8
0
  6
Continuous
 62
     7
370
    25
100
AcDbLine
 10
111.1299925623
 20
236.2359271756
 30
0.0
 11
110.7865543244
 21
236.3905714265
 31
0.0
  0
ARC
  5
26B
330
1F
100
AcDbEntity
  8
0
  6
Continuous
 62
     7
370
    25
100
AcDbCircle
 10
111.0124835501
 20
235.9749640927
 30
0.0
 40
0.2861994035377769
100
AcDbArc
 50
304.999966607
 51
65.7584484158
  0
LINE
  5
26C
330
1F
100
AcDbEntity
  8
0
  6
Continuous
 62
     7
370
    25
100
AcDbLine
 10
110.3116096137
 20
235.1348207704
 30
0.0
 11
111.1766406474
 21
235.7405231706
 31
0.0
  0
ARC
  5
26D
330
1F
100
AcDbEntity
  8
0
  6
Continuous
 62
     7
370
    25
100
AcDbCircle
 10
110.0489197854
 20
235.5100403457
 30
0.0
 40
0.4580345789994543
100
AcDbArc
 50
273.4473291777
 51
304.9957222747
  0
LINE
  5
26E
330
1F
100
AcDbEntity
  8
0
  6
Continuous
 62
     7
370
    25
100
AcDbLine
 10
107.7729658363
 20
234.91422398
 30
0.0
 11
110.0764618394
 21
235.0528345815
 31
0.0
  0
ARC
  5
26F
330
1F
100
AcDbEntity
  8
0
  6
Continuous
 62
     7
370
    25
100
AcDbCircle
 10
107.7385947768
 20
235.4855953359
 30
0.0
 40
0.5724042243183355
100
AcDbArc
 50
180.0001232224
 51
273.4425008103
  0
LINE
  5
270
330
1F
100
AcDbEntity
  8
0
  6
Continuous
 62
     7
370
    25
100
AcDbLine
 10
107.1661905525
 20
235.4855941049
 30
0.0
 11
107.1661905525
 21
235.7484803906
 31
0.0
  0
ARC
  5
271
330
1F
100
AcDbEntity
  8
0
  6
Continuous
 62
     7
370
    25
100
AcDbCircle
 10
106.3648325244
 20
235.7484792665
 30
0.0
 40
0.8013580281087298
100
AcDbArc
 50
0.0000803765
 51
205.7455393876
  0
LINE
  5
272
330
1F
100
AcDbEntity
  8
0
  6
Continuous
 62
     7
370
    25
100
AcDbLine
 10
106.1675072787
 20
234.3128131143
 30
0.0
 11
105.6430236576
 21
235.4003892652
 31
0.0
  0
ARC
  5
273
330
1F
100
AcDbEntity
  8
0
  6
Continuous
 62
     7
370
    25
100
AcDbCircle
 10
106.0128260734
 20
234.238220514
 30
0.0
 40
0.1717274912944859
100
AcDbArc
 50
330.000247406
 51
25.7449645536
  0
LINE
  5
274
330
1F
100
AcDbEntity
  8
0
  6
Continuous
 62
     7
370
    25
100
AcDbLine
 10
106.0258791921
 20
233.9173660985
 30
0.0
 11
106.1615468142
 21
234.1523574105
 31
0.0
  0
LWPOLYLINE
  5
275
330
1F
100
AcDbEntity
  8
0
  6
Continuous
 62
     7
370
    25
100
AcDbPolyline
 90
        3
 70
   128
 43
0.0
 10
106.0029723821
 20
233.8257239572
 10
106.0107284365
 20
233.8828550092
 10
106.0258791921
 20
233.9173660985
  0
LINE
  5
276
330
1F
100
AcDbEntity
  8
0
  6
Continuous
 62
     7
370
    25
100
AcDbLine
 10
106.0893879411
 20
231.2700258008
 30
0.0
 11
106.0029723821
 21
233.8257239572
 31
0.0
  0
ARC
  5
277
330
1F
100
AcDbEntity
  8
0
  6
Continuous
 62
     7
370
    25
100
AcDbCircle
 10
105.7461400332
 20
231.258424733
 30
0.0
 40
0.3434438979491837
100
AcDbArc
 50
249.0151456527
 51
1.9357417454
  0
LINE
  5
278
330
1F
100
AcDbEntity
  8
0
  6
Continuous
 62
     7
370
    25
100
AcDbLine
 10
105.6231455085
 20
230.9377597085
 30
0.0
 11
104.9781301198
 21
231.185178589
 31
0.0
  0
ARC
  5
279
330
1F
100
AcDbEntity
  8
0
  6
Continuous
 62
     7
370
    25
100
AcDbCircle
 10
105.4689364897
 20
232.4653772922
 30
0.0
 40
1.371057844318713
100
AcDbArc
 50
239.9919889914
 51
249.0240274477
  0
LINE
  5
27A
330
1F
100
AcDbEntity
  8
0
  6
Continuous
 62
     7
370
    25
100
AcDbLine
 10
104.7832415578
 20
231.2781022302
 30
0.0
 11
103.7925937352
 21
231.8500684014
 31
0.0
  0
LINE
  5
27B
330
1F
100
AcDbEntity
  8
0
  6
Continuous
 62
     7
370
    25
100
AcDbLine
 10
103.7925937352
 20
231.8500684014
 30
0.0
 11
103.7925937352
 21
232.5190709344
 31
0.0
  0
LINE
  5
27C
330
1F
100
AcDbEntity
  8
0
  6
Continuous
 62
     7
370
    25
100
AcDbLine
 10
103.7925937352
 20
232.5190709344
 30
0.0
 11
103.8969614682
 21
232.5793312303
 31
0.0
  0
ARC
  5
27D
330
1F
100
AcDbEntity
  8
0
  6
Continuous
 62
     7
370
    25
100
AcDbCircle
 10
103.7538603046
 20
232.8271884809
 30
0.0
 40
0.2862012573796942
100
AcDbArc
 50
300.0001236628
 51
0.3119809826
  0
LINE
  5
27E
330
1F
100
AcDbEntity
  8
0
  6
Continuous
 62
     7
370
    25
100
AcDbLine
 10
104.0400573192
 20
232.8287468663
 30
0.0
 11
104.0332363126
 21
234.066705536
 31
0.0
  0
ARC
  5
27F
330
1F
100
AcDbEntity
  8
0
  6
Continuous
 62
     7
370
    25
100
AcDbCircle
 10
103.7470695069
 20
234.065122158
 30
0.0
 40
0.2861711862017628
100
AcDbArc
 50
0.3170177347
 51
60.0033841416
  0
LINE
  5
280
330
1F
100
AcDbEntity
  8
0
  6
Continuous
 62
     7
370
    25
100
AcDbLine
 10
103.8901404617
 20
234.3129621259
 30
0.0
 11
103.7925937352
 21
234.3692885152
 31
0.0
  0
LINE
  5
281
330
1F
100
AcDbEntity
  8
0
  6
Continuous
 62
     7
370
    25
100
AcDbLine
 10
103.7925937352
 20
234.3692885152
 30
0.0
 11
103.7925937352
 21
235.0461886636
 31
0.0
  0
LINE
  5
282
330
1F
100
AcDbEntity
  8
0
  6
Continuous
 62
     7
370
    25
100
AcDbLine
 10
103.7925937352
 20
235.0461886636
 30
0.0
 11
103.8901404617
 21
235.1024852506
 31
0.0
  0
ARC
  5
283
330
1F
100
AcDbEntity
  8
0
  6
Continuous
 62
     7
370
    25
100
AcDbCircle
 10
103.7470492022
 20
235.3503404872
 30
0.0
 40
0.2861945612131974
100
AcDbArc
 50
299.9986081107
 51
0.0021378552
  0
LINE
  5
284
330
1F
100
AcDbEntity
  8
0
  6
Continuous
 62
     7
370
    25
100
AcDbLine
 10
104.0332437632
 20
235.3503511659
 30
0.0
 11
104.0332437632
 21
236.5641401521
 31
0.0
  0
ARC
  5
285
330
1F
100
AcDbEntity
  8
0
  6
Continuous
 62
     7
370
    25
100
AcDbCircle
 10
103.7470492022
 20
236.5641508307
 30
0.0
 40
0.2861945612131832
100
AcDbArc
 50
359.9978621448
 51
60.0013918893
  0
LINE
  5
286
330
1F
100
AcDbEntity
  8
0
  6
Continuous
 62
     7
370
    25
100
AcDbLine
 10
103.8901404617
 20
236.8120060674
 30
0.0
 11
103.7925937352
 21
236.8683324567
 31
0.0
  0
LINE
  5
287
330
1F
100
AcDbEntity
  8
0
  6
Continuous
 62
     7
370
    25
100
AcDbLine
 10
103.7925937352
 20
236.8683324567
 30
0.0
 11
103.7925937352
 21
237.5452028028
 31
0.0
  0
LINE
  5
288
330
1F
100
AcDbEntity
  8
0
  6
Continuous
 62
     7
370
    25
100
AcDbLine
 10
103.7925937352
 20
237.5452028028
 30
0.0
 11
103.8901404617
 21
237.6015291921
 31
0.0
  0
ARC
  5
289
330
1F
100
AcDbEntity
  8
0
  6
Continuous
 62
     7
370
    25
100
AcDbCircle
 10
103.7470492022
 20
237.8493844287
 30
0.0
 40
0.2861945612131974
100
AcDbArc
 50
299.9986081107
 51
0.0021378552
  0
LINE
  5
28A
330
1F
100
AcDbEntity
  8
0
  6
Continuous
 62
     7
370
    25
100
AcDbLine
 10
104.0332437632
 20
237.8493951074
 30
0.0
 11
104.0332437632
 21
238.9907942525
 31
0.0
  0
ARC
  5
28B
330
1F
100
AcDbEntity
  8
0
  6
Continuous
 62
     7
370
    25
100
AcDbCircle
 10
103.7469033822
 20
238.9907775677
 30
0.0
 40
0.2863403814902157
100
AcDbArc
 50
0.0033385793
 51
24.9937381334
  0
LINE
  5
28C
330
1F
100
AcDbEntity
  8
0
  6
Continuous
 62
     7
370
    25
100
AcDbLine
 10
104.0064291236
 20
239.1117618791
 30
0.0
 11
103.7925937352
 21
239.5703302136
 31
0.0
  0
LINE
  5
28D
330
1F
100
AcDbEntity
  8
0
  6
Continuous
 62
     7
370
    25
100
AcDbLine
 10
103.7925937352
 20
239.5703302136
 30
0.0
 11
103.7925937352
 21
240.6135903111
 31
0.0
  0
LINE
  5
28E
330
1F
100
AcDbEntity
  8
0
  6
Continuous
 62
     7
370
    25
100
AcDbLine
 10
103.8530999002
 20
240.5712114087
 30
0.0
 11
103.7925937352
 21
240.6135903111
 31
0.0
  0
ARC
  5
28F
330
1F
100
AcDbEntity
  8
0
  6
Continuous
 62
     7
370
    25
100
AcDbCircle
 10
103.9187704774
 20
240.6649744561
 30
0.0
 40
0.114473288460092
100
AcDbArc
 50
234.9930363295
 51
0.0124434119
  0
LINE
  5
290
330
1F
100
AcDbEntity
  8
0
  6
Continuous
 62
     7
370
    25
100
AcDbLine
 10
104.0332437632
 20
240.6649993173
 30
0.0
 11
104.0332437632
 21
242.2437475434
 31
0.0
  0
ARC
  5
291
330
1F
100
AcDbEntity
  8
0
  6
Continuous
 62
     7
370
    25
100
AcDbCircle
 10
103.7470492022
 20
242.2437582221
 30
0.0
 40
0.2861945612131832
100
AcDbArc
 50
359.9978621448
 51
60.0013918893
  0
LINE
  5
292
330
1F
100
AcDbEntity
  8
0
  6
Continuous
 62
     7
370
    25
100
AcDbLine
 10
103.8901404617
 20
242.4916134587
 30
0.0
 11
103.7925937352
 21
242.547939848
 31
0.0
  0
LINE
  5
293
330
1F
100
AcDbEntity
  8
0
  6
Continuous
 62
     7
370
    25
100
AcDbLine
 10
103.7925937352
 20
242.547939848
 30
0.0
 11
103.7925937352
 21
243.2248101941
 31
0.0
  0
LINE
  5
294
330
1F
100
AcDbEntity
  8
0
  6
Continuous
 62
     7
370
    25
100
AcDbLine
 10
103.7925937352
 20
243.2248101941
 30
0.0
 11
103.8901404617
 21
243.2811365834
 31
0.0
  0
ARC
  5
295
330
1F
100
AcDbEntity
  8
0
  6
Continuous
 62
     7
370
    25
100
AcDbCircle
 10
103.7470492022
 20
243.5289918201
 30
0.0
 40
0.2861945612131974
100
AcDbArc
 50
299.9986081107
 51
0.0021378552
  0
LINE
  5
296
330
1F
100
AcDbEntity
  8
0
  6
Continuous
 62
     7
370
    25
100
AcDbLine
 10
104.0332437632
 20
243.5290024987
 30
0.0
 11
104.0332437632
 21
245.4783426038
 31
0.0
  0
ARC
  5
297
330
1F
100
AcDbEntity
  8
0
  6
Continuous
 62
     7
370
    25
100
AcDbCircle
 10
103.747049201
 20
245.4783234789
 30
0.0
 40
0.2861945628544058
100
AcDbArc
 50
0.0038287716
 51
60.0013918013
  0
LINE
  5
298
330
1F
100
AcDbEntity
  8
0
  6
Continuous
 62
     7
370
    25
100
AcDbLine
 10
103.8901404617
 20
245.7261787168
 30
0.0
 11
103.7925937352
 21
245.7825051061
 31
0.0
  0
LINE
  5
299
330
1F
100
AcDbEntity
  8
0
  6
Continuous
 62
     7
370
    25
100
AcDbLine
 10
103.7925937352
 20
245.7825051061
 30
0.0
 11
103.7925937352
 21
246.4593754521
 31
0.0
  0
LINE
  5
29A
330
1F
100
AcDbEntity
  8
0
  6
Continuous
 62
     7
370
    25
100
AcDbLine
 10
103.7925937352
 20
246.4593754521
 30
0.0
 11
105.1921592233
 21
247.2674356214
 31
0.0
  0
ARC
  5
29B
330
1F
100
AcDbEntity
  8
0
  6
Continuous
 62
     7
370
    25
100
AcDbCircle
 10
105.8792307446
 20
246.0771039737
 30
0.0
 40
1.374393214052194
100
AcDbArc
 50
96.0053183197
 51
119.9939789017
  0
LINE
  5
29C
330
1F
100
AcDbEntity
  8
0
  6
Continuous
 62
     7
370
    25
100
AcDbLine
 10
105.7354406593
 20
247.4439547769
 30
0.0
 11
106.3361586211
 21
247.5070760957
 31
0.0
  0
ARC
  5
29D
330
1F
100
AcDbEntity
  8
0
  6
Continuous
 62
     7
370
    25
100
AcDbCircle
 10
106.5157015617
 20
245.8008927758
 30
0.0
 40
1.715604030271906
100
AcDbArc
 50
81.2819608809
 51
96.0071691419
  0
LINE
  5
29E
330
1F
100
AcDbEntity
  8
0
  6
Continuous
 62
     7
370
    25
100
AcDbLine
 10
107.7372924564
 20
247.3493622056
 30
0.0
 11
106.775739151
 21
247.4966750852
 31
0.0
  0
ARC
  5
29F
330
1F
100
AcDbEntity
  8
0
  6
Continuous
 62
     7
370
    25
100
AcDbCircle
 10
107.684737938
 20
247.006359838
 30
0.0
 40
0.347005189564813
100
AcDbArc
 50
359.9963075198
 51
81.2889371833
  0
LINE
  5
2A0
330
1F
100
AcDbEntity
  8
0
  6
Continuous
 62
     7
370
    25
100
AcDbLine
 10
108.0317431269
 20
246.1920486203
 30
0.0
 11
108.0317431269
 21
247.0063374749
 31
0.0
  0
ARC
  5
2A1
330
1F
100
AcDbEntity
  8
0
  6
Continuous
 62
     7
370
    25
100
AcDbCircle
 10
108.2605926462
 20
246.192013217
 30
0.0
 40
0.2288495221164037
100
AcDbArc
 50
179.9911362639
 51
208.0065873955
  0
LINE
  5
2A2
330
1F
100
AcDbEntity
  8
0
  6
Continuous
 62
     7
370
    25
100
AcDbLine
 10
109.389462429
 20
243.5814545861
 30
0.0
 11
108.0585428653
 21
246.0845516435
 31
0.0
  0
ARC
  5
2A3
330
1F
100
AcDbEntity
  8
0
  6
Continuous
 62
     7
370
    25
100
AcDbCircle
 10
109.8948799186
 20
243.8501882609
 30
0.0
 40
0.5724199740573181
100
AcDbArc
 50
207.9998611243
 51
256.2301606142
  0
ARC
  5
2A4
330
1F
100
AcDbEntity
  8
0
  6
Continuous
 62
     7
370
    25
100
AcDbCircle
 10
109.6768878334
 20
242.9606493988
 30
0.0
 40
0.343440242594701
100
AcDbArc
 50
259.0005098504
 51
76.2306749546
  0
LINE
  5
2A5
330
1F
100
AcDbEntity
  8
0
  6
Continuous
 62
     7
370
    25
100
AcDbLine
 10
109.6113593457
 20
242.6235185376
 30
0.0
 11
109.06089555
 21
242.7305386773
 31
0.0
  0
ARC
  5
2A6
330
1F
100
AcDbEntity
  8
0
  6
Continuous
 62
     7
370
    25
100
AcDbCircle
 10
108.9516995452
 20
242.1686300526
 30
0.0
 40
0.5724203612989989
100
AcDbArc
 50
79.0027479297
 51
179.9984346872
  0
LINE
  5
2A7
330
1F
100
AcDbEntity
  8
0
  6
Continuous
 62
     7
370
    25
100
AcDbLine
 10
108.3792791841
 20
239.9970696679
 30
0.0
 11
108.3792791841
 21
242.168645691
 31
0.0
  0
ARC
  5
2A8
330
1F
100
AcDbEntity
  8
0
  6
Continuous
 62
     7
370
    25
100
AcDbCircle
 10
108.6081822584
 20
239.9970494114
 30
0.0
 40
0.2289030751515897
100
AcDbArc
 50
179.9949296712
 51
226.0674582477
  0
LINE
  5
2A9
330
1F
100
AcDbEntity
  8
0
  6
Continuous
 62
     7
370
    25
100
AcDbLine
 10
108.6474516568
 20
239.6413193456
 30
0.0
 11
108.4493667958
 21
239.8322032205
 31
0.0
  0
ARC
  5
2AA
330
1F
100
AcDbEntity
  8
0
  6
Continuous
 62
     7
370
    25
100
AcDbCircle
 10
108.4488438307
 20
239.4352266
 30
0.0
 40
0.2862154579759641
100
AcDbArc
 50
344.9998185197
 51
46.0595621394
  0
LINE
  5
2AB
330
1F
100
AcDbEntity
  8
0
  6
Continuous
 62
     7
370
    25
100
AcDbLine
 10
108.6634592292
 20
239.1303287259
 30
0.0
 11
108.7253064988
 21
239.3611477128
 31
0.0
  0
LWPOLYLINE
  5
2AC
330
1F
100
AcDbEntity
  8
0
  6
Continuous
 62
     7
370
    25
100
AcDbPolyline
 90
        3
 70
   128
 43
0.0
 10
108.6632282612
 20
239.0423224679
 10
108.658169317
 20
239.0997515431
 10
108.6634592292
 20
239.1303287259
  0
LINE
  5
2AD
330
1F
100
AcDbEntity
  8
0
  6
Continuous
 62
     7
370
    25
100
AcDbLine
 10
108.8417441723
 20
238.3618758431
 30
0.0
 11
108.6632282612
 21
239.0423224679
 31
0.0
  0
ARC
  5
2AE
330
1F
100
AcDbEntity
  8
0
  6
Continuous
 62
     7
370
    25
100
AcDbCircle
 10
109.0078180713
 20
238.4054363843
 30
0.0
 40
0.1716917606444759
100
AcDbArc
 50
194.6973755056
 51
283.5931070763
  0
LINE
  5
2AF
330
1F
100
AcDbEntity
  8
0
  6
Continuous
 62
     7
370
    25
100
AcDbLine
 10
109.0481699583
 20
238.2385538331
 30
0.0
 11
109.4755985913
 21
238.3418188802
 31
0.0
  0
ARC
  5
2B0
330
1F
100
AcDbEntity
  8
0
  6
Continuous
 62
     7
370
    25
100
AcDbCircle
 10
109.5293643065
 20
238.1192543841
 30
0.0
 40
0.2289666068672221
100
AcDbArc
 50
345.9052401082
 51
103.5809551118
  0
LINE
  5
2B1
330
1F
100
AcDbEntity
  8
0
  6
Continuous
 62
     7
370
    25
100
AcDbLine
 10
108.4493667958
 20
239.8322032205
 30
0.0
 11
184.3358175037
 21
239.8322032205
 31
0.0
  0
LINE
  5
2B2
330
1F
100
AcDbEntity
  8
0
  6
Continuous
 62
     7
370
    25
100
AcDbLine
 10
185.0478918431
 20
247.3493622056
 30
0.0
 11
107.7372924564
 21
247.3493622056
 31
0.0
  0
LINE
  5
2B3
330
1F
100
AcDbEntity
  8
0
  6
Continuous
 62
     7
370
    25
100
AcDbLine
 10
186.7593051074
 20
233.9173660985
 30
0.0
 11
106.0258791921
 21
233.9173660985
 31
0.0
  0
LINE
  5
2B4
330
1F
100
AcDbEntity
  8
0
  6
Continuous
 62
     7
370
    25
100
AcDbLine
 10
103.7925937352
 20
240.6135903111
 30
0.0
 11
104.0210508881
 21
240.6135903111
 31
0.0
  0
LINE
  5
2B5
330
1F
100
AcDbEntity
  8
0
  6
Continuous
 62
     7
370
    25
100
AcDbLine
 10
188.7641334114
 20
240.6135903111
 30
0.0
 11
188.9925905642
 21
240.6135903111
 31
0.0
  0
LINE
  5
2B6
330
1F
100
AcDbEntity
  8
0
  6
Continuous
 62
     7
370
    25
100
AcDbLine
 10
110.0764618394
 20
235.0528345815
 30
0.0
 11
182.70872246
 21
235.0528345815
 31
0.0
  0
LINE
  5
2B7
330
1F
100
AcDbEntity
  8
0
  6
Continuous
 62
     7
370
    25
100
AcDbLine
 10
185.0122184632
 20
234.91422398
 30
0.0
 11
107.7729658363
 21
234.91422398
 31
0.0
  0
LINE
  5
2B8
330
1F
100
AcDbEntity
  8
0
  6
Continuous
 62
     7
370
    25
100
AcDbLine
 10
183.1738249538
 20
242.6235185376
 30
0.0
 11
109.742422509
 21
242.6235185376
 31
0.0
  0
LINE
  5
2B9
330
1F
100
AcDbEntity
  8
0
  6
Continuous
 62
     7
370
    25
100
AcDbLine
 10
109.6975625632
 20
236.8809388391
 30
0.0
 11
183.0876217363
 21
236.8809388391
 31
0.0
  0
LINE
  5
2BA
330
1F
100
AcDbEntity
  8
0
  6
Continuous
 62
     7
370
    25
100
AcDbLine
 10
183.0265530524
 20
243.2942198029
 30
0.0
 11
109.758631247
 21
243.2942198029
 31
0.0
  0
ARC
  5
2BB
330
1F
100
AcDbEntity
  8
0
  6
Continuous
 62
     7
370
    25
100
AcDbCircle
 10
187.3926052861
 20
250.4290549353
 30
0.0
 40
2.000012331703038
100
AcDbArc
 50
180.0002905214
 51
251.8997691892
  0
ARC
  5
2BC
330
1F
100
AcDbEntity
  8
0
  6
Continuous
 62
     7
370
    25
100
AcDbCircle
 10
105.3925790134
 20
250.4290549353
 30
0.0
 40
2.000012331703043
100
AcDbArc
 50
288.1002308108
 51
359.9997094786
  0
LINE
  5
2BD
330
1F
100
AcDbEntity
  8
0
  6
Continuous
 62
     7
370
    25
100
AcDbLine
 10
183.8925936398
 20
197.8276179543
 30
0.0
 11
183.8925936398
 21
178.0677841416
 31
0.0
  0
LINE
  5
2BE
330
1F
100
AcDbEntity
  8
0
  6
Continuous
 62
     7
370
    25
100
AcDbLine
 10
108.8925906596
 20
178.8759337178
 30
0.0
 11
108.8925906596
 21
197.8276179543
 31
0.0
  0
ARC
  5
2BF
330
1F
100
AcDbEntity
  8
0
  6
Continuous
 62
     7
370
    25
100
AcDbCircle
 10
186.9925751943
 20
245.2994877402
 30
0.0
 40
2.000015369959158
100
AcDbArc
 50
0.0003187598
 51
71.8995937911
  0
ARC
  5
2C0
330
1F
100
AcDbEntity
  8
0
  6
Continuous
 62
     7
370
    25
100
AcDbCircle
 10
105.7926091051
 20
245.2994877402
 30
0.0
 40
2.000015369959149
100
AcDbArc
 50
108.1004062089
 51
179.9996812402
  0
ARC
  5
2C1
330
1F
100
AcDbEntity
  8
0
  6
Continuous
 62
     7
370
    25
100
AcDbCircle
 10
186.9925740933
 20
245.2994836554
 30
0.0
 40
3.000018497554549
100
AcDbArc
 50
0.0002905214
 51
71.8997691892
  0
ARC
  5
2C2
330
1F
100
AcDbEntity
  8
0
  6
Continuous
 62
     7
370
    25
100
AcDbCircle
 10
105.7926102062
 20
245.2994836554
 30
0.0
 40
3.000018497554544
100
AcDbArc
 50
108.1002308108
 51
179.9997094786
  0
ARC
  5
2C3
330
1F
100
AcDbEntity
  8
0
  6
Continuous
 62
     7
370
    25
100
AcDbCircle
 10
187.3926094254
 20
250.4290600059
 30
0.0
 40
3.000018497554519
100
AcDbArc
 50
180.0002905214
 51
251.8997691892
  0
ARC
  5
2C4
330
1F
100
AcDbEntity
  8
0
  6
Continuous
 62
     7
370
    25
100
AcDbCircle
 10
105.3925748741
 20
250.4290600059
 30
0.0
 40
3.000018497554561
100
AcDbArc
 50
288.1002308108
 51
359.9997094786
  0
ARC
  5
2C5
330
1F
100
AcDbEntity
  8
0
  6
Continuous
 62
     7
370
    25
100
AcDbCircle
 10
185.8928873097
 20
197.8275864101
 30
0.0
 40
3.000295696591464
100
AcDbArc
 50
163.0008581144
 51
179.9993976078
  0
ARC
  5
2C6
330
1F
100
AcDbEntity
  8
0
  6
Continuous
 62
     7
370
    25
100
AcDbCircle
 10
106.8922969897
 20
197.8275864101
 30
0.0
 40
3.00029569659145
100
AcDbArc
 50
0.0006023922
 51
16.9991418856
  0
ARC
  5
2C7
330
1F
100
AcDbEntity
  8
0
  6
Continuous
 62
     7
370
    25
100
AcDbCircle
 10
186.9925690936
 20
233.1865979478
 30
0.0
 40
2.000021470748467
100
AcDbArc
 50
287.4005199487
 51
359.9995818426
  0
ARC
  5
2C8
330
1F
100
AcDbEntity
  8
0
  6
Continuous
 62
     7
370
    25
100
AcDbCircle
 10
105.7926152059
 20
233.1865979478
 30
0.0
 40
2.000021470748467
100
AcDbArc
 50
180.0004181575
 51
252.5994800513
  0
LINE
  5
2C9
330
1F
100
AcDbEntity
  8
0
  6
Continuous
 62
     7
370
    25
100
AcDbLine
 10
185.3925929544
 20
254.2786405793
 30
0.0
 11
185.3925929544
 21
250.4290447942
 31
0.0
  0
LINE
  5
2CA
330
1F
100
AcDbEntity
  8
0
  6
Continuous
 62
     7
370
    25
100
AcDbLine
 10
107.3925913451
 20
250.4290447942
 30
0.0
 11
107.3925913451
 21
254.2786405793
 31
0.0
  0
ARC
  5
2CB
330
1F
100
AcDbEntity
  8
0
  6
Continuous
 62
     7
370
    25
100
AcDbCircle
 10
187.1926147648
 20
228.0094881235
 30
0.0
 40
2.000021470611296
100
AcDbArc
 50
107.4005199475
 51
180.0000087282
  0
ARC
  5
2CC
330
1F
100
AcDbEntity
  8
0
  6
Continuous
 62
     7
370
    25
100
AcDbCircle
 10
105.5925695347
 20
228.0094881235
 30
0.0
 40
2.000021470611269
100
AcDbArc
 50
359.9999912718
 51
72.5994800525
  0
ARC
  5
2CD
330
1F
100
AcDbEntity
  8
0
  6
Continuous
 62
     7
370
    25
100
AcDbCircle
 10
187.1925902031
 20
228.0095040972
 30
0.0
 40
2.999998935560566
100
AcDbArc
 50
107.3999786316
 51
180.0003108938
  0
ARC
  5
2CE
330
1F
100
AcDbEntity
  8
0
  6
Continuous
 62
     7
370
    25
100
AcDbCircle
 10
105.5925940964
 20
228.0095040972
 30
0.0
 40
2.999998935560525
100
AcDbArc
 50
359.9996891062
 51
72.6000213684
  0
ARC
  5
2CF
330
1F
100
AcDbEntity
  8
0
  6
Continuous
 62
     7
370
    25
100
AcDbCircle
 10
186.9925936554
 20
233.1865819739
 30
0.0
 40
2.999998935447596
100
AcDbArc
 50
287.3999786309
 51
0.0000263044
  0
ARC
  5
2D0
330
1F
100
AcDbEntity
  8
0
  6
Continuous
 62
     7
370
    25
100
AcDbCircle
 10
105.7925906441
 20
233.1865819739
 30
0.0
 40
2.999998935447596
100
AcDbArc
 50
179.9999736956
 51
252.6000213691
  0
ARC
  5
2D1
330
1F
100
AcDbEntity
  8
0
  6
Continuous
 62
     7
370
    25
100
AcDbCircle
 10
182.1924959314
 20
202.8270041421
 30
0.0
 40
3.000097362778234
100
AcDbArc
 50
343.0002920737
 51
359.9996790605
  0
ARC
  5
2D2
330
1F
100
AcDbEntity
  8
0
  6
Continuous
 62
     7
370
    25
100
AcDbCircle
 10
110.5926883681
 20
202.8270041421
 30
0.0
 40
3.00009736277822
100
AcDbArc
 50
180.0003209395
 51
196.9997079263
  0
ARC
  5
2D3
330
1F
100
AcDbEntity
  8
0
  6
Continuous
 62
     7
370
    25
100
AcDbCircle
 10
185.8927221879
 20
197.8276152981
 30
0.0
 40
2.000128548043422
100
AcDbArc
 50
163.0008078673
 51
179.9999239101
  0
ARC
  5
2D4
330
1F
100
AcDbEntity
  8
0
  6
Continuous
 62
     7
370
    25
100
AcDbCircle
 10
106.8924621116
 20
197.8276152981
 30
0.0
 40
2.000128548043429
100
AcDbArc
 50
0.0000760899
 51
16.9991921327
  0
ARC
  5
2D5
330
1F
100
AcDbEntity
  8
0
  6
Continuous
 62
     7
370
    25
100
AcDbCircle
 10
182.1926610413
 20
202.826975256
 30
0.0
 40
1.999930226296268
100
AcDbArc
 50
342.99995879
 51
0.0003461136
  0
ARC
  5
2D6
330
1F
100
AcDbEntity
  8
0
  6
Continuous
 62
     7
370
    25
100
AcDbCircle
 10
110.5925232581
 20
202.826975256
 30
0.0
 40
1.999930226296297
100
AcDbArc
 50
179.9996538864
 51
197.00004121
  0
LINE
  5
2D7
330
1F
100
AcDbEntity
  8
0
  6
Continuous
 62
     7
370
    25
100
AcDbLine
 10
184.3925909278
 20
254.2786405793
 30
0.0
 11
184.3925909278
 21
250.4290447942
 31
0.0
  0
LINE
  5
2D8
330
1F
100
AcDbEntity
  8
0
  6
Continuous
 62
     7
370
    25
100
AcDbLine
 10
184.3925909278
 20
254.2786405793
 30
0.0
 11
185.3925929544
 21
254.2786405793
 31
0.0
  0
LINE
  5
2D9
330
1F
100
AcDbEntity
  8
0
  6
Continuous
 62
     7
370
    25
100
AcDbLine
 10
186.7712409375
 20
248.5280142537
 30
0.0
 11
187.9246206162
 21
248.1510446778
 31
0.0
  0
LINE
  5
2DA
330
1F
100
AcDbEntity
  8
0
  6
Continuous
 62
     7
370
    25
100
AcDbLine
 10
189.9925925908
 20
245.2994988671
 30
0.0
 11
189.9925925908
 21
233.1865833512
 31
0.0
  0
LINE
  5
2DB
330
1F
100
AcDbEntity
  8
0
  6
Continuous
 62
     7
370
    25
100
AcDbLine
 10
187.8897146461
 20
230.3238616696
 30
0.0
 11
186.5945094404
 21
229.917983841
 31
0.0
  0
LINE
  5
2DC
330
1F
100
AcDbEntity
  8
0
  6
Continuous
 62
     7
370
    25
100
AcDbLine
 10
185.1925932941
 20
228.0094878188
 30
0.0
 11
185.1925932941
 21
202.8269873372
 31
0.0
  0
LINE
  5
2DD
330
1F
100
AcDbEntity
  8
0
  6
Continuous
 62
     7
370
    25
100
AcDbLine
 10
185.0615077791
 20
201.949875187
 30
0.0
 11
183.9799814997
 21
198.4123693219
 31
0.0
  0
LINE
  5
2DE
330
1F
100
AcDbEntity
  8
0
  6
Continuous
 62
     7
370
    25
100
AcDbLine
 10
182.8925916133
 20
197.8276179543
 30
0.0
 11
182.8925916133
 21
177.6884601823
 31
0.0
  0
LINE
  5
2DF
330
1F
100
AcDbEntity
  8
0
  6
Continuous
 62
     7
370
    25
100
AcDbLine
 10
184.1052034078
 20
202.2422508708
 30
0.0
 11
183.0236771283
 21
198.7047450057
 31
0.0
  0
LINE
  5
2E0
330
1F
100
AcDbEntity
  8
0
  6
Continuous
 62
     7
370
    25
100
AcDbLine
 10
184.1925912676
 20
228.0094878188
 30
0.0
 11
184.1925912676
 21
202.8269873372
 31
0.0
  0
LINE
  5
2E1
330
1F
100
AcDbEntity
  8
0
  6
Continuous
 62
     7
370
    25
100
AcDbLine
 10
187.590674418
 20
231.2781022302
 30
0.0
 11
186.2954692123
 21
230.8722244016
 31
0.0
  0
LINE
  5
2E2
330
1F
100
AcDbEntity
  8
0
  6
Continuous
 62
     7
370
    25
100
AcDbLine
 10
188.9925905642
 20
245.2994988671
 30
0.0
 11
188.9925905642
 21
233.1865833512
 31
0.0
  0
LINE
  5
2E3
330
1F
100
AcDbEntity
  8
0
  6
Continuous
 62
     7
370
    25
100
AcDbLine
 10
186.4605629024
 20
247.5774989835
 30
0.0
 11
187.6139463065
 21
247.2005294076
 31
0.0
  0
LINE
  5
2E4
330
1F
100
AcDbEntity
  8
0
  6
Continuous
 62
     7
370
    25
100
AcDbLine
 10
109.8925926862
 20
179.2552576772
 30
0.0
 11
109.8925926862
 21
197.8276179543
 31
0.0
  0
LINE
  5
2E5
330
1F
100
AcDbEntity
  8
0
  6
Continuous
 62
     7
370
    25
100
AcDbLine
 10
102.7925917087
 20
233.1865833512
 30
0.0
 11
102.7925917087
 21
245.2994988671
 31
0.0
  0
LINE
  5
2E6
330
1F
100
AcDbEntity
  8
0
  6
Continuous
 62
     7
370
    25
100
AcDbLine
 10
103.7925937352
 20
233.1865833512
 30
0.0
 11
103.7925937352
 21
245.2994988671
 31
0.0
  0
LINE
  5
2E7
330
1F
100
AcDbEntity
  8
0
  6
Continuous
 62
     7
370
    25
100
AcDbLine
 10
106.4897150872
 20
230.8722244016
 30
0.0
 11
105.1945098815
 21
231.2781022302
 31
0.0
  0
LINE
  5
2E8
330
1F
100
AcDbEntity
  8
0
  6
Continuous
 62
     7
370
    25
100
AcDbLine
 10
108.5925930319
 20
202.8269873372
 30
0.0
 11
108.5925930319
 21
228.0094878188
 31
0.0
  0
LINE
  5
2E9
330
1F
100
AcDbEntity
  8
0
  6
Continuous
 62
     7
370
    25
100
AcDbLine
 10
109.7615071712
 20
198.7047450057
 30
0.0
 11
108.6799808917
 21
202.2422508708
 31
0.0
  0
LINE
  5
2EA
330
1F
100
AcDbEntity
  8
0
  6
Continuous
 62
     7
370
    25
100
AcDbLine
 10
108.8052027998
 20
198.4123693219
 30
0.0
 11
107.7236765203
 21
201.949875187
 31
0.0
  0
LINE
  5
2EB
330
1F
100
AcDbEntity
  8
0
  6
Continuous
 62
     7
370
    25
100
AcDbLine
 10
107.5925910053
 20
202.8269873372
 30
0.0
 11
107.5925910053
 21
228.0094878188
 31
0.0
  0
LINE
  5
2EC
330
1F
100
AcDbEntity
  8
0
  6
Continuous
 62
     7
370
    25
100
AcDbLine
 10
106.190674859
 20
229.917983841
 30
0.0
 11
104.8954696534
 21
230.3238616696
 31
0.0
  0
LINE
  5
2ED
330
1F
100
AcDbEntity
  8
0
  6
Continuous
 62
     7
370
    25
100
AcDbLine
 10
104.8605636833
 20
248.1510446778
 30
0.0
 11
106.013943362
 21
248.5280142537
 31
0.0
  0
LINE
  5
2EE
330
1F
100
AcDbEntity
  8
0
  6
Continuous
 62
     7
370
    25
100
AcDbLine
 10
107.3925913451
 20
254.2786405793
 30
0.0
 11
108.3925933716
 21
254.2786405793
 31
0.0
  0
LINE
  5
2EF
330
1F
100
AcDbEntity
  8
0
  6
Continuous
 62
     7
370
    25
100
AcDbLine
 10
108.3925933716
 20
250.4290447942
 30
0.0
 11
108.3925933716
 21
254.2786405793
 31
0.0
  0
LINE
  5
2F0
330
1F
100
AcDbEntity
  8
0
  6
Continuous
 62
     7
370
    25
100
AcDbLine
 10
105.171237993
 20
247.2005294076
 30
0.0
 11
106.324621397
 21
247.5774989835
 31
0.0
  0
LINE
  5
2F1
330
1F
100
AcDbEntity
  8
0
  6
Continuous
 62
     7
370
    25
100
AcDbLine
 10
108.3925933716
 20
254.2786405793
 30
0.0
 11
184.3925909278
 21
254.2786405793
 31
0.0
  0
LINE
  5
2F2
330
1F
100
AcDbEntity
  8
0
  6
Continuous
 62
     8
370
    18
100
AcDbLine
 10
186.6957963583
 20
231.2700258008
 30
0.0
 11
106.0893879411
 21
231.2700258008
 31
0.0
  0
LINE
  5
2F3
330
1F
100
AcDbEntity
  8
0
  6
Continuous
 62
     8
370
    18
100
AcDbLine
 10
188.9320843992
 20
240.5712114087
 30
0.0
 11
188.8007604656
 21
240.5712114087
 31
0.0
  0
LINE
  5
2F4
330
1F
100
AcDbEntity
  8
0
  6
Continuous
 62
     8
370
    18
100
AcDbLine
 10
103.9844238338
 20
240.5712114087
 30
0.0
 11
103.8530999002
 21
240.5712114087
 31
0.0
  0
LINE
  5
2F5
330
1F
100
AcDbEntity
  8
0
  6
Continuous
 62
     8
370
    18
100
AcDbLine
 10
187.1421606419
 20
235.4003892652
 30
0.0
 11
185.6126197753
 21
235.4003892652
 31
0.0
  0
LINE
  5
2F6
330
1F
100
AcDbEntity
  8
0
  6
Continuous
 62
     8
370
    18
100
AcDbLine
 10
107.1725645242
 20
235.4003892652
 30
0.0
 11
105.6430236576
 21
235.4003892652
 31
0.0
  0
LINE
  5
2F7
330
1F
100
AcDbEntity
  8
0
  6
Continuous
 62
     8
370
    18
100
AcDbLine
 10
106.775739151
 20
247.4966750852
 30
0.0
 11
186.0094451485
 21
247.4966750852
 31
0.0
  0
LINE
  5
2F8
330
1F
100
AcDbEntity
  8
0
  6
Continuous
 62
     8
370
    18
100
AcDbLine
 10
108.3792791841
 20
239.9970696679
 30
0.0
 11
184.4059051154
 21
239.9970696679
 31
0.0
  0
LINE
  5
2F9
330
1F
100
AcDbEntity
  8
0
  6
Continuous
 62
     8
370
    18
100
AcDbLine
 10
108.8417441723
 20
238.3618758431
 30
0.0
 11
183.9434401271
 21
238.3618758431
 31
0.0
  0
LINE
  5
2FA
330
1F
100
AcDbEntity
  8
0
  6
Continuous
 62
     8
370
    18
100
AcDbLine
 10
108.7253064988
 20
239.3611477128
 30
0.0
 11
184.0598778007
 21
239.3611477128
 31
0.0
  0
LINE
  5
2FB
330
1F
100
AcDbEntity
  8
0
  6
Continuous
 62
     8
370
    18
100
AcDbLine
 10
184.1377326426
 20
239.6413193456
 30
0.0
 11
108.6474516568
 21
239.6413193456
 31
0.0
  0
LINE
  5
2FC
330
1F
100
AcDbEntity
  8
0
  6
Continuous
 62
     8
370
    18
100
AcDbLine
 10
108.3792791841
 20
242.168645691
 30
0.0
 11
184.4059051154
 21
242.168645691
 31
0.0
  0
LINE
  5
2FD
330
1F
100
AcDbEntity
  8
0
  6
Continuous
 62
     8
370
    18
100
AcDbLine
 10
109.7514377115
 20
238.0634949914
 30
0.0
 11
183.033746588
 21
238.0634949914
 31
0.0
  0
LINE
  5
2FE
330
1F
100
AcDbEntity
  8
0
  6
Continuous
 62
     8
370
    18
100
AcDbLine
 10
108.0317431269
 20
247.0063374749
 30
0.0
 11
184.7534411726
 21
247.0063374749
 31
0.0
  0
LINE
  5
2FF
330
1F
100
AcDbEntity
  8
0
  6
Continuous
 62
     8
370
    18
100
AcDbLine
 10
106.1615468142
 20
234.1523574105
 30
0.0
 11
186.6236374853
 21
234.1523574105
 31
0.0
  0
LINE
  5
300
330
1F
100
AcDbEntity
  8
0
  6
Continuous
 62
     8
370
    18
100
AcDbLine
 10
108.6632282612
 20
239.0423224679
 30
0.0
 11
184.1219560382
 21
239.0423224679
 31
0.0
  0
LINE
  5
301
330
1F
100
AcDbEntity
  8
0
  6
Continuous
 62
     8
370
    18
100
AcDbLine
 10
109.5374942896
 20
237.2115956059
 30
0.0
 11
183.2476900098
 21
237.2115956059
 31
0.0
  0
LINE
  5
302
330
1F
100
AcDbEntity
  8
0
  6
Continuous
 62
     8
370
    18
100
AcDbLine
 10
186.6176770208
 20
234.3128131143
 30
0.0
 11
106.1675072787
 21
234.3128131143
 31
0.0
  0
LINE
  5
303
330
1F
100
AcDbEntity
  8
0
  6
Continuous
 62
     8
370
    18
100
AcDbLine
 10
186.7822119174
 20
233.8257239572
 30
0.0
 11
106.0029723821
 21
233.8257239572
 31
0.0
  0
LINE
  5
304
330
1F
100
AcDbEntity
  8
0
  6
Continuous
 62
     8
370
    18
100
AcDbLine
 10
109.389462429
 20
243.5814545861
 30
0.0
 11
183.3957218704
 21
243.5814545861
 31
0.0
  0
LINE
  5
305
330
1F
100
AcDbEntity
  8
0
  6
Continuous
 62
     8
370
    18
100
AcDbLine
 10
108.0585428653
 20
246.0845516435
 30
0.0
 11
184.7266414342
 21
246.0845516435
 31
0.0
  0
LINE
  5
306
330
1F
100
AcDbEntity
  8
0
  6
Continuous
 62
     8
370
    18
100
AcDbLine
 10
108.0317431269
 20
246.1920486203
 30
0.0
 11
184.7534411726
 21
246.1920486203
 31
0.0
  0
LINE
  5
307
330
1F
100
AcDbEntity
  8
0
  6
Continuous
 62
     8
370
    18
100
AcDbLine
 10
108.6634592292
 20
239.1303287259
 30
0.0
 11
184.1217250702
 21
239.1303287259
 31
0.0
  0
LINE
  5
308
330
1F
100
AcDbEntity
  8
0
  6
Continuous
 62
     8
370
    18
100
AcDbLine
 10
110.7865543244
 20
236.3905714265
 30
0.0
 11
181.9986299751
 21
236.3905714265
 31
0.0
  0
LINE
  5
309
330
1F
100
AcDbEntity
  8
0
  6
Continuous
 62
     8
370
    18
100
AcDbLine
 10
111.1766406474
 20
235.7405231706
 30
0.0
 11
181.6085436521
 21
235.7405231706
 31
0.0
  0
LINE
  5
30A
330
1F
100
AcDbEntity
  8
0
  6
Continuous
 62
     8
370
    18
100
AcDbLine
 10
182.4735746858
 20
235.1348207704
 30
0.0
 11
110.3116096137
 21
235.1348207704
 31
0.0
  0
LINE
  5
30B
330
1F
100
AcDbEntity
  8
0
  6
Continuous
 62
     8
370
    18
100
AcDbLine
 10
181.6551917372
 20
236.2359271756
 30
0.0
 11
111.1299925623
 21
236.2359271756
 31
0.0
  0
LINE
  5
30C
330
1F
100
AcDbEntity
  8
0
  6
Continuous
 62
     8
370
    18
100
AcDbLine
 10
103.7925937352
 20
245.2994988671
 30
0.0
 11
104.0332437632
 21
245.2994988671
 31
0.0
  0
LINE
  5
30D
330
1F
100
AcDbEntity
  8
0
  6
Continuous
 62
     8
370
    18
100
AcDbLine
 10
188.7519405363
 20
245.2994988671
 30
0.0
 11
188.9925905642
 21
245.2994988671
 31
0.0
  0
LINE
  5
30E
330
1F
100
AcDbEntity
  8
0
  6
Continuous
 62
     8
370
    18
100
AcDbLine
 10
106.324621397
 20
247.5774989835
 30
0.0
 11
186.4605629024
 21
247.5774989835
 31
0.0
  0
LINE
  5
30F
330
1F
100
AcDbEntity
  8
0
  6
Continuous
 62
     8
370
    18
100
AcDbLine
 10
184.3925909278
 20
250.4290447942
 30
0.0
 11
108.3925933716
 21
250.4290447942
 31
0.0
  0
LINE
  5
310
330
1F
100
AcDbEntity
  8
0
  6
Continuous
 62
     8
370
    18
100
AcDbLine
 10
109.8925926862
 20
197.8276179543
 30
0.0
 11
182.8925916133
 21
197.8276179543
 31
0.0
  0
LINE
  5
311
330
1F
100
AcDbEntity
  8
0
  6
Continuous
 62
     8
370
    18
100
AcDbLine
 10
183.0236771283
 20
198.7047450057
 30
0.0
 11
109.7615071712
 21
198.7047450057
 31
0.0
  0
LINE
  5
312
330
1F
100
AcDbEntity
  8
0
  6
Continuous
 62
     8
370
    18
100
AcDbLine
 10
103.7925937352
 20
233.1865833512
 30
0.0
 11
104.0380866406
 21
233.1865833512
 31
0.0
  0
LINE
  5
313
330
1F
100
AcDbEntity
  8
0
  6
Continuous
 62
     8
370
    18
100
AcDbLine
 10
188.7470976589
 20
233.1865833512
 30
0.0
 11
188.9925905642
 21
233.1865833512
 31
0.0
  0
LINE
  5
314
330
1F
100
AcDbEntity
  8
0
  6
Continuous
 62
     8
370
    18
100
AcDbLine
 10
108.5925930319
 20
228.0094878188
 30
0.0
 11
184.1925912676
 21
228.0094878188
 31
0.0
  0
LINE
  5
315
330
1F
100
AcDbEntity
  8
0
  6
Continuous
 62
     8
370
    18
100
AcDbLine
 10
186.2954692123
 20
230.8722244016
 30
0.0
 11
106.4897150872
 21
230.8722244016
 31
0.0
  0
LINE
  5
316
330
1F
100
AcDbEntity
  8
0
  6
Continuous
 62
     8
370
    18
100
AcDbLine
 10
108.5925930319
 20
202.8269873372
 30
0.0
 11
184.1925912676
 21
202.8269873372
 31
0.0
  0
LINE
  5
317
330
1F
100
AcDbEntity
  8
0
  6
Continuous
 62
     8
370
    18
100
AcDbLine
 10
108.6799808917
 20
202.2422508708
 30
0.0
 11
184.1052034078
 21
202.2422508708
 31
0.0
  0
LINE
  5
318
330
1F
100
AcDbEntity
  8
0
  6
Continuous
 62
     7
370
    25
100
AcDbLine
 10
183.8925936398
 20
168.0677861667
 30
0.0
 11
183.8925936398
 21
142.3902393079
 31
0.0
  0
LINE
  5
319
330
1F
100
AcDbEntity
  8
0
  6
Continuous
 62
     7
370
    25
100
AcDbLine
 10
108.8925906596
 20
142.3902393079
 30
0.0
 11
108.8925906596
 21
168.8759357428
 31
0.0
  0
ARC
  5
31A
330
1F
100
AcDbEntity
  8
0
  6
Continuous
 62
     7
370
    25
100
AcDbCircle
 10
110.8922710398
 20
142.3902127036
 30
0.0
 40
1.999680380371494
100
AcDbArc
 50
179.9992377214
 51
194.0014065434
  0
ARC
  5
31B
330
1F
100
AcDbEntity
  8
0
  6
Continuous
 62
     7
370
    25
100
AcDbCircle
 10
181.8929132597
 20
142.3902127036
 30
0.0
 40
1.999680380371722
100
AcDbArc
 50
345.9985934566
 51
0.0007622786
  0
ARC
  5
31C
330
1F
100
AcDbEntity
  8
0
  6
Continuous
 62
     7
370
    25
100
AcDbCircle
 10
110.8929165498
 20
142.3902704926
 30
0.0
 40
1.000323864064885
100
AcDbArc
 50
180.0017861738
 51
193.9980043252
  0
ARC
  5
31D
330
1F
100
AcDbEntity
  8
0
  6
Continuous
 62
     7
370
    25
100
AcDbCircle
 10
181.8922677497
 20
142.3902704926
 30
0.0
 40
1.000323864064872
100
AcDbArc
 50
346.0019956748
 51
359.9982138262
  0
LINE
  5
31E
330
1F
100
AcDbEntity
  8
0
  6
Continuous
 62
     7
370
    25
100
AcDbLine
 10
110.3125930903
 20
136.4493549561
 30
0.0
 11
108.9520015893
 21
141.9063986039
 31
0.0
  0
LINE
  5
31F
330
1F
100
AcDbEntity
  8
0
  6
Continuous
 62
     7
370
    25
100
AcDbLine
 10
183.8331827102
 20
141.9063986039
 30
0.0
 11
182.4725912092
 21
136.4493549561
 31
0.0
  0
LINE
  5
320
330
1F
100
AcDbEntity
  8
0
  6
Continuous
 62
     7
370
    25
100
AcDbLine
 10
182.4725912092
 20
136.4493549561
 30
0.0
 11
181.4419784722
 21
136.4493549561
 31
0.0
  0
LINE
  5
321
330
1F
100
AcDbEntity
  8
0
  6
Continuous
 62
     7
370
    25
100
AcDbLine
 10
182.8628861484
 20
142.1483040547
 30
0.0
 11
181.4419784722
 21
136.4493549561
 31
0.0
  0
LINE
  5
322
330
1F
100
AcDbEntity
  8
0
  6
Continuous
 62
     7
370
    25
100
AcDbLine
 10
182.8925916133
 20
167.6884622073
 30
0.0
 11
182.8925916133
 21
142.3902393079
 31
0.0
  0
LINE
  5
323
330
1F
100
AcDbEntity
  8
0
  6
Continuous
 62
     7
370
    25
100
AcDbLine
 10
109.8925926862
 20
142.3902393079
 30
0.0
 11
109.8925926862
 21
169.2552597022
 31
0.0
  0
LINE
  5
324
330
1F
100
AcDbEntity
  8
0
  6
Continuous
 62
     7
370
    25
100
AcDbLine
 10
111.3432058272
 20
136.4493549561
 30
0.0
 11
109.922298151
 21
142.1483040547
 31
0.0
  0
LINE
  5
325
330
1F
100
AcDbEntity
  8
0
  6
Continuous
 62
     7
370
    25
100
AcDbLine
 10
111.3432058272
 20
136.4493549561
 30
0.0
 11
110.3125930903
 21
136.4493549561
 31
0.0
  0
LINE
  5
326
330
1F
100
AcDbEntity
  8
0
  6
Continuous
 62
     7
370
    25
100
AcDbLine
 10
181.4419784722
 20
136.4493549561
 30
0.0
 11
111.3432058272
 21
136.4493549561
 31
0.0
  0
LINE
  5
327
330
1F
100
AcDbEntity
  8
0
  6
Continuous
 62
     8
370
    18
100
AcDbLine
 10
109.922298151
 20
142.1483040547
 30
0.0
 11
182.8628861484
 21
142.1483040547
 31
0.0
  0
LINE
  5
328
330
1F
100
AcDbEntity
  8
0
  6
Continuous
 62
     8
370
    18
100
AcDbLine
 10
109.8925926862
 20
142.3902393079
 30
0.0
 11
182.8925916133
 21
142.3902393079
 31
0.0
  0
DIMENSION
  5
329
330
1F
100
AcDbEntity
  8
0
  6
Continuous
 62
     7
370
    18
100
AcDbDimension
  2
_D
 10
183.8925921497
 20
126.3926189312
 30
0.0
 11
146.3925921497
 21
126.3926189312
 31
0.0
 70
   160
  1
%%c<>
 71
     2
 42
-1.0
  3
SLDDIMSTYLE0
100
AcDbAlignedDimension
 13
108.8925921497
 23
142.390238964
 33
0.0
 14
183.8925921497
 24
142.390238964
 34
0.0
100
AcDbRotatedDimension
  0
DIMENSION
  5
335
330
1F
100
AcDbEntity
  8
0
  6
Continuous
 62
     7
370
    18
100
AcDbDimension
  2
_D_1
 10
199.9925921497
 20
254.2786346188
 30
0.0
 11
199.9925921497
 21
195.3639977677
 31
0.0
 70
   160
  1
550
 71
     2
 42
-1.0
  3
SLDDIMSTYLE0
100
AcDbAlignedDimension
 13
182.4725921497
 23
136.4493609166
 33
0.0
 14
185.3925921497
 24
254.2786346189
 34
0.0
 50
90.0
100
AcDbRotatedDimension
  0
DIMENSION
  5
33F
330
1F
100
AcDbEntity
  8
0
  6
Continuous
 62
     7
370
    18
100
AcDbDimension
  2
_D_2
 10
184.3925921497
 20
264.3082958962
 30
0.0
 11
146.3925921497
 21
264.3082958962
 31
0.0
 70
   160
  1
%%c<>
 71
     2
 42
-1.0
  3
SLDDIMSTYLE0
100
AcDbAlignedDimension
 13
108.3925921497
 23
254.2786346189
 33
0.0
 14
184.3925921497
 24
254.2786346189
 34
0.0
100
AcDbRotatedDimension
  0
MTEXT
  5
34A
330
1F
100
AcDbEntity
  8
0
  6
Continuous
 62
     7
370
     0
100
AcDbMText
 10
146.3700232608
 20
278.8460306074
 30
0.0
 40
5.0
 41
0.0
 71
     2
 72
     1
  1
A-A
  7
SLDTEXTSTYLE0
 73
     1
 44
1.0
  0
ARC
  5
34B
330
1F
100
AcDbEntity
  8
0
  6
HIDDEN
 62
     7
370
    18
100
AcDbCircle
 10
165.6425921497
 20
214.6718578588
 30
0.0
 40
50.04999999999999
100
AcDbArc
 50
247.380135052
 51
292.619864948
  0
ARC
  5
34C
330
1F
100
AcDbEntity
  8
0
  6
HIDDEN
 62
     7
370
    18
100
AcDbCircle
 10
127.1425921497
 20
122.2718578588
 30
0.0
 40
50.05
100
AcDbArc
 50
67.380135052
 51
112.619864948
  0
ARC
  5
34D
330
1F
100
AcDbEntity
  8
0
  6
HIDDEN
 62
     7
370
    18
100
AcDbCircle
 10
165.6425921497
 20
224.6718578588
 30
0.0
 40
50.04999999999999
100
AcDbArc
 50
247.380135052
 51
292.619864948
  0
ARC
  5
34E
330
1F
100
AcDbEntity
  8
0
  6
HIDDEN
 62
     7
370
    18
100
AcDbCircle
 10
127.1425921497
 20
132.2718578588
 30
0.0
 40
50.05000000000002
100
AcDbArc
 50
67.380135052
 51
112.619864948
  0
INSERT
  5
436
330
1F
100
AcDbEntity
  8
0
  6
Continuous
 62
     7
370
    18
100
AcDbBlockReference
  2
SW_HATCH_0
 10
184.5586792705
 20
254.2786405793
 30
0.0
  0
ENDSEC
  0
SECTION
  2
OBJECTS
  0
DICTIONARY
  5
C
330
0
100
AcDbDictionary
281
     1
  3
ACAD_GROUP
350
D
  3
ACAD_LAYOUT
350
1A
  3
ACAD_MLINESTYLE
350
17
  3
ACAD_PLOTSETTINGS
350
19
  3
ACAD_PLOTSTYLENAME
350
E
  3
ACAD_SCALELIST
350
47
  3
DWGPROPS
350
437
  0
DICTIONARY
  5
D
102
{ACAD_REACTORS
330
C
102
}
330
C
100
AcDbDictionary
281
     1
  0
DICTIONARY
  5
1A
102
{ACAD_REACTORS
330
C
102
}
330
C
100
AcDbDictionary
281
     1
  3
Layout1
350
1E
  3
Layout2
350
26
  3
Model
350
22
  0
DICTIONARY
  5
17
102
{ACAD_REACTORS
330
C
102
}
330
C
100
AcDbDictionary
281
     1
  3
Standard
350
18
  0
DICTIONARY
  5
19
102
{ACAD_REACTORS
330
C
102
}
330
C
100
AcDbDictionary
281
     1
  0
ACDBDICTIONARYWDFLT
  5
E
102
{ACAD_REACTORS
330
C
102
}
330
C
100
AcDbDictionary
281
     1
  3
Normal
350
F
100
AcDbDictionaryWithDefault
340
F
  0
DICTIONARY
  5
47
102
{ACAD_REACTORS
330
C
102
}
330
C
100
AcDbDictionary
281
     1
  3
A0
350
48
  3
A1
350
49
  3
A2
350
4A
  3
A3
350
4B
  3
A4
350
4C
  3
A5
350
4D
  3
A6
350
4E
  3
A7
350
4F
  3
A8
350
50
  3
A9
350
51
  3
B0
350
52
  3
B1
350
53
  3
B2
350
54
  3
B3
350
55
  3
B4
350
56
  3
B5
350
57
  3
B6
350
58
  3
B7
350
59
  3
B8
350
5A
  3
B9
350
5B
  3
C0
350
5C
  3
C1
350
5D
  3
C2
350
5E
  3
C3
350
5F
  3
C4
350
60
  3
C5
350
61
  3
C6
350
62
  3
C7
350
63
  3
C8
350
64
  3
C9
350
65
  3
D0
350
66
  3
D1
350
67
  3
D2
350
68
  0
XRECORD
  5
437
102
{ACAD_REACTORS
330
C
102
}
330
C
100
AcDbXrecord
280
     1
  1
DWGPROPS COOKIE
  2

  3

  4

  6

  7

  8
ch-ntl-rs-wscad
  9

300
=
301
=
302
=
303
=
304
=
305
=
306
=
307
=
308
=
309
=
 40
0.0
 41
2460209.551258415
 42
2460209.551268553
  1

 90
        0
  0
LAYOUT
  5
1E
102
{ACAD_REACTORS
330
1A
102
}
330
1A
100
AcDbPlotSettings
  1

  2
none_device
  4

  6

 40
0.0
 41
0.0
 42
0.0
 43
0.0
 44
0.0
 45
0.0
 46
0.0
 47
0.0
 48
0.0
 49
0.0
140
0.0
141
0.0
142
1.0
143
1.0
 70
   688
 72
     1
 73
     0
 74
     5
  7

 75
    16
147
1.0
148
0.0
149
0.0
100
AcDbLayout
  1
Layout1
 70
     1
 71
     1
 10
0.0
 20
0.0
 11
420.0
 21
297.0
 12
0.0
 22
0.0
 32
0.0
 14
1.0000000000E+20
 24
1.0000000000E+20
 34
1.0000000000E+20
 15
-1.0000000000E+20
 25
-1.0000000000E+20
 35
-1.0000000000E+20
146
0.0
 13
0.0
 23
0.0
 33
0.0
 16
1.0
 26
0.0
 36
0.0
 17
0.0
 27
1.0
 37
0.0
 76
     0
330
1B
  0
LAYOUT
  5
26
102
{ACAD_REACTORS
330
1A
102
}
330
1A
100
AcDbPlotSettings
  1

  2
none_device
  4

  6

 40
0.0
 41
0.0
 42
0.0
 43
0.0
 44
0.0
 45
0.0
 46
0.0
 47
0.0
 48
0.0
 49
0.0
140
0.0
141
0.0
142
1.0
143
1.0
 70
   688
 72
     1
 73
     0
 74
     5
  7

 75
    16
147
1.0
148
0.0
149
0.0
100
AcDbLayout
  1
Layout2
 70
     1
 71
     2
 10
0.0
 20
0.0
 11
0.0
 21
0.0
 12
0.0
 22
0.0
 32
0.0
 14
0.0
 24
0.0
 34
0.0
 15
0.0
 25
0.0
 35
0.0
146
0.0
 13
0.0
 23
0.0
 33
0.0
 16
1.0
 26
0.0
 36
0.0
 17
0.0
 27
1.0
 37
0.0
 76
     0
330
23
  0
LAYOUT
  5
22
102
{ACAD_REACTORS
330
1A
102
}
330
1A
100
AcDbPlotSettings
  1

  2
none_device
  4
Letter_(8.50_x_11.00_Inches)
  6

 40
6.35
 41
6.35
 42
6.35000508
 43
6.35000508
 44
215.9
 45
279.4
 46
0.0
 47
0.0
 48
0.0
 49
0.0
140
0.0
141
0.0
142
1.0
143
1.0
 70
  1712
 72
     1
 73
     0
 74
     0
  7

 75
     0
147
1.0
148
0.0
149
0.0
100
AcDbLayout
  1
Model
 70
     1
 71
     0
 10
0.0
 20
0.0
 11
420.0
 21
297.0
 12
0.0
 22
0.0
 32
0.0
 14
0.0
 24
0.0
 34
0.0
 15
420.0
 25
297.0
 35
0.0
146
0.0
 13
0.0
 23
0.0
 33
0.0
 16
1.0
 26
0.0
 36
0.0
 17
0.0
 27
1.0
 37
0.0
 76
     0
330
1F
331
29
  0
MLINESTYLE
  5
18
102
{ACAD_REACTORS
330
17
102
}
330
17
100
AcDbMlineStyle
  2
Standard
 70
     0
  3

 62
   256
 51
90.0
 52
90.0
 71
     2
 49
0.5
 62
   256
  6
BYLAYER
 49
-0.5
 62
   256
  6
BYLAYER
  0
ACDBPLACEHOLDER
  5
F
102
{ACAD_REACTORS
330
E
102
}
330
E
  0
SCALE
  5
48
102
{ACAD_REACTORS
330
47
102
}
330
47
100
AcDbScale
 70
     0
300
1:1
140
1.0
141
1.0
290
     1
  0
SCALE
  5
49
102
{ACAD_REACTORS
330
47
102
}
330
47
100
AcDbScale
 70
     0
300
1:2
140
1.0
141
2.0
290
     0
  0
SCALE
  5
4A
102
{ACAD_REACTORS
330
47
102
}
330
47
100
AcDbScale
 70
     0
300
1:4
140
1.0
141
4.0
290
     0
  0
SCALE
  5
4B
102
{ACAD_REACTORS
330
47
102
}
330
47
100
AcDbScale
 70
     0
300
1:5
140
1.0
141
5.0
290
     0
  0
SCALE
  5
4C
102
{ACAD_REACTORS
330
47
102
}
330
47
100
AcDbScale
 70
     0
300
1:8
140
1.0
141
8.0
290
     0
  0
SCALE
  5
4D
102
{ACAD_REACTORS
330
47
102
}
330
47
100
AcDbScale
 70
     0
300
1:10
140
1.0
141
10.0
290
     0
  0
SCALE
  5
4E
102
{ACAD_REACTORS
330
47
102
}
330
47
100
AcDbScale
 70
     0
300
1:16
140
1.0
141
16.0
290
     0
  0
SCALE
  5
4F
102
{ACAD_REACTORS
330
47
102
}
330
47
100
AcDbScale
 70
     0
300
1:20
140
1.0
141
20.0
290
     0
  0
SCALE
  5
50
102
{ACAD_REACTORS
330
47
102
}
330
47
100
AcDbScale
 70
     0
300
1:30
140
1.0
141
30.0
290
     0
  0
SCALE
  5
51
102
{ACAD_REACTORS
330
47
102
}
330
47
100
AcDbScale
 70
     0
300
1:40
140
1.0
141
40.0
290
     0
  0
SCALE
  5
52
102
{ACAD_REACTORS
330
47
102
}
330
47
100
AcDbScale
 70
     0
300
1:50
140
1.0
141
50.0
290
     0
  0
SCALE
  5
53
102
{ACAD_REACTORS
330
47
102
}
330
47
100
AcDbScale
 70
     0
300
1:100
140
1.0
141
100.0
290
     0
  0
SCALE
  5
54
102
{ACAD_REACTORS
330
47
102
}
330
47
100
AcDbScale
 70
     0
300
2:1
140
2.0
141
1.0
290
     0
  0
SCALE
  5
55
102
{ACAD_REACTORS
330
47
102
}
330
47
100
AcDbScale
 70
     0
300
4:1
140
4.0
141
1.0
290
     0
  0
SCALE
  5
56
102
{ACAD_REACTORS
330
47
102
}
330
47
100
AcDbScale
 70
     0
300
8:1
140
8.0
141
1.0
290
     0
  0
SCALE
  5
57
102
{ACAD_REACTORS
330
47
102
}
330
47
100
AcDbScale
 70
     0
300
10:1
140
10.0
141
1.0
290
     0
  0
SCALE
  5
58
102
{ACAD_REACTORS
330
47
102
}
330
47
100
AcDbScale
 70
     0
300
100:1
140
100.0
141
1.0
290
     0
  0
SCALE
  5
59
102
{ACAD_REACTORS
330
47
102
}
330
47
100
AcDbScale
 70
     0
300
1/128" = 1'-0"
140
0.0078125
141
12.0
290
     0
  0
SCALE
  5
5A
102
{ACAD_REACTORS
330
47
102
}
330
47
100
AcDbScale
 70
     0
300
1/64" = 1'-0"
140
0.015625
141
12.0
290
     0
  0
SCALE
  5
5B
102
{ACAD_REACTORS
330
47
102
}
330
47
100
AcDbScale
 70
     0
300
1/32" = 1'-0"
140
0.03125
141
12.0
290
     0
  0
SCALE
  5
5C
102
{ACAD_REACTORS
330
47
102
}
330
47
100
AcDbScale
 70
     0
300
1/16" = 1'-0"
140
0.0625
141
12.0
290
     0
  0
SCALE
  5
5D
102
{ACAD_REACTORS
330
47
102
}
330
47
100
AcDbScale
 70
     0
300
3/32" = 1'-0"
140
0.09375
141
12.0
290
     0
  0
SCALE
  5
5E
102
{ACAD_REACTORS
330
47
102
}
330
47
100
AcDbScale
 70
     0
300
1/8" = 1'-0"
140
0.125
141
12.0
290
     0
  0
SCALE
  5
5F
102
{ACAD_REACTORS
330
47
102
}
330
47
100
AcDbScale
 70
     0
300
3/16" = 1'-0"
140
0.1875
141
12.0
290
     0
  0
SCALE
  5
60
102
{ACAD_REACTORS
330
47
102
}
330
47
100
AcDbScale
 70
     0
300
1/4" = 1'-0"
140
0.25
141
12.0
290
     0
  0
SCALE
  5
61
102
{ACAD_REACTORS
330
47
102
}
330
47
100
AcDbScale
 70
     0
300
3/8" = 1'-0"
140
0.375
141
12.0
290
     0
  0
SCALE
  5
62
102
{ACAD_REACTORS
330
47
102
}
330
47
100
AcDbScale
 70
     0
300
1/2" = 1'-0"
140
0.5
141
12.0
290
     0
  0
SCALE
  5
63
102
{ACAD_REACTORS
330
47
102
}
330
47
100
AcDbScale
 70
     0
300
3/4" = 1'-0"
140
0.75
141
12.0
290
     0
  0
SCALE
  5
64
102
{ACAD_REACTORS
330
47
102
}
330
47
100
AcDbScale
 70
     0
300
1" = 1'-0"
140
1.0
141
12.0
290
     0
  0
SCALE
  5
65
102
{ACAD_REACTORS
330
47
102
}
330
47
100
AcDbScale
 70
     0
300
1-1/2" = 1'-0"
140
1.5
141
12.0
290
     0
  0
SCALE
  5
66
102
{ACAD_REACTORS
330
47
102
}
330
47
100
AcDbScale
 70
     0
300
3" = 1'-0"
140
3.0
141
12.0
290
     0
  0
SCALE
  5
67
102
{ACAD_REACTORS
330
47
102
}
330
47
100
AcDbScale
 70
     0
300
6" = 1'-0"
140
6.0
141
12.0
290
     0
  0
SCALE
  5
68
102
{ACAD_REACTORS
330
47
102
}
330
47
100
AcDbScale
 70
     0
300
1'-0" = 1'-0"
140
12.0
141
12.0
290
     0
  0
ENDSEC
  0
EOF
