  0
SECTION
  2
HEADER
  9
$ACADVER
  1
AC1015
  9
$ACADMAINTVER
 70
     6
  9
$DWGCODEPAGE
  3
ANSI_1252
  9
$INSBASE
 10
0.0
 20
0.0
 30
0.0
  9
$EXTMIN
 10
0.0
 20
0.0
 30
0.0
  9
$EXTMAX
 10
420.0
 20
297.0
 30
0.0
  9
$LIMMIN
 10
0.0
 20
0.0
  9
$LIMMAX
 10
420.0
 20
297.0
  9
$ORTHOMODE
 70
     0
  9
$REGENMODE
 70
     1
  9
$FILLMODE
 70
     1
  9
$QTEXTMODE
 70
     0
  9
$MIRRTEXT
 70
     1
  9
$LTSCALE
 40
1.0
  9
$ATTMODE
 70
     1
  9
$TEXTSIZE
 40
3.5
  9
$TRACEWID
 40
1.0
  9
$TEXTSTYLE
  7
Standard
  9
$CLAYER
  8
0
  9
$CELTYPE
  6
ByLayer
  9
$CECOLOR
 62
   256
  9
$CELTSCALE
 40
1.0
  9
$DISPSILH
 70
     0
  9
$DIMSCALE
 40
1.0
  9
$DIMASZ
 40
3.5
  9
$DIMEXO
 40
0.1
  9
$DIMDLI
 40
3.75
  9
$DIMRND
 40
0.0
  9
$DIMDLE
 40
0.0
  9
$DIMEXE
 40
1.0
  9
$DIMTP
 40
0.0
  9
$DIMTM
 40
0.0
  9
$DIMTXT
 40
3.5
  9
$DIMCEN
 40
2.5
  9
$DIMTSZ
 40
0.0
  9
$DIMTOL
 70
     0
  9
$DIMLIM
 70
     0
  9
$DIMTIH
 70
     1
  9
$DIMTOH
 70
     1
  9
$DIMSE1
 70
     0
  9
$DIMSE2
 70
     0
  9
$DIMTAD
 70
     1
  9
$DIMZIN
 70
     0
  9
$DIMBLK
  1

  9
$DIMASO
 70
     1
  9
$DIMSHO
 70
     1
  9
$DIMPOST
  1

  9
$DIMAPOST
  1

  9
$DIMALT
 70
     0
  9
$DIMALTD
 70
     3
  9
$DIMALTF
 40
0.0393700787
  9
$DIMLFAC
 40
1.0
  9
$DIMTOFL
 70
     1
  9
$DIMTVP
 40
0.0
  9
$DIMTIX
 70
     0
  9
$DIMSOXD
 70
     0
  9
$DIMSAH
 70
     0
  9
$DIMBLK1
  1

  9
$DIMBLK2
  1

  9
$DIMSTYLE
  2
ISO-25
  9
$DIMCLRD
 70
     0
  9
$DIMCLRE
 70
     0
  9
$DIMCLRT
 70
     0
  9
$DIMTFAC
 40
1.0
  9
$DIMGAP
 40
2.0
  9
$DIMJUST
 70
     0
  9
$DIMSD1
 70
     0
  9
$DIMSD2
 70
     0
  9
$DIMTOLJ
 70
     0
  9
$DIMTZIN
 70
     0
  9
$DIMALTZ
 70
     0
  9
$DIMALTTZ
 70
     0
  9
$DIMUPT
 70
     0
  9
$DIMDEC
 70
     2
  9
$DIMTDEC
 70
     3
  9
$DIMALTU
 70
     2
  9
$DIMALTTD
 70
     3
  9
$DIMTXSTY
  7
Standard
  9
$DIMAUNIT
 70
     0
  9
$DIMADEC
 70
     2
  9
$DIMALTRND
 40
0.0
  9
$DIMAZIN
 70
     0
  9
$DIMDSEP
 70
    44
  9
$DIMATFIT
 70
     3
  9
$DIMFRAC
 70
     0
  9
$DIMLDRBLK
  1

  9
$DIMLUNIT
 70
     2
  9
$DIMLWD
 70
    -2
  9
$DIMLWE
 70
    -2
  9
$DIMTMOVE
 70
     0
  9
$LUNITS
 70
     2
  9
$LUPREC
 70
     2
  9
$SKETCHINC
 40
1.0
  9
$FILLETRAD
 40
10.0
  9
$AUNITS
 70
     0
  9
$AUPREC
 70
     2
  9
$MENU
  1
.
  9
$ELEVATION
 40
0.0
  9
$PELEVATION
 40
0.0
  9
$THICKNESS
 40
0.0
  9
$LIMCHECK
 70
     0
  9
$CHAMFERA
 40
0.0
  9
$CHAMFERB
 40
0.0
  9
$CHAMFERC
 40
0.0
  9
$CHAMFERD
 40
0.0
  9
$SKPOLY
 70
     0
  9
$TDCREATE
 40
2460209.634484097
  9
$TDUCREATE
 40
2460209.551150764
  9
$TDUPDATE
 40
2460209.63449478
  9
$TDUUPDATE
 40
2460209.551161447
  9
$TDINDWG
 40
0.0000000116
  9
$TDUSRTIMER
 40
0.0000000116
  9
$USRTIMER
 70
     1
  9
$ANGBASE
 50
0.0
  9
$ANGDIR
 70
     0
  9
$PDMODE
 70
     0
  9
$PDSIZE
 40
-1.0
  9
$PLINEWID
 40
0.0
  9
$SPLFRAME
 70
     0
  9
$SPLINETYPE
 70
     6
  9
$SPLINESEGS
 70
     8
  9
$HANDSEED
  5
43A
  9
$SURFTAB1
 70
     6
  9
$SURFTAB2
 70
     6
  9
$SURFTYPE
 70
     6
  9
$SURFU
 70
     6
  9
$SURFV
 70
     6
  9
$UCSBASE
  2

  9
$UCSNAME
  2

  9
$UCSORG
 10
0.0
 20
0.0
 30
0.0
  9
$UCSXDIR
 10
1.0
 20
0.0
 30
0.0
  9
$UCSYDIR
 10
0.0
 20
1.0
 30
0.0
  9
$UCSORTHOREF
  2

  9
$UCSORTHOVIEW
 70
     0
  9
$UCSORGTOP
 10
0.0
 20
0.0
 30
0.0
  9
$UCSORGBOTTOM
 10
0.0
 20
0.0
 30
0.0
  9
$UCSORGLEFT
 10
0.0
 20
0.0
 30
0.0
  9
$UCSORGRIGHT
 10
0.0
 20
0.0
 30
0.0
  9
$UCSORGFRONT
 10
0.0
 20
0.0
 30
0.0
  9
$UCSORGBACK
 10
0.0
 20
0.0
 30
0.0
  9
$PUCSBASE
  2

  9
$PUCSNAME
  2

  9
$PUCSORG
 10
0.0
 20
0.0
 30
0.0
  9
$PUCSXDIR
 10
1.0
 20
0.0
 30
0.0
  9
$PUCSYDIR
 10
0.0
 20
1.0
 30
0.0
  9
$PUCSORTHOREF
  2

  9
$PUCSORTHOVIEW
 70
     0
  9
$PUCSORGTOP
 10
0.0
 20
0.0
 30
0.0
  9
$PUCSORGBOTTOM
 10
0.0
 20
0.0
 30
0.0
  9
$PUCSORGLEFT
 10
0.0
 20
0.0
 30
0.0
  9
$PUCSORGRIGHT
 10
0.0
 20
0.0
 30
0.0
  9
$PUCSORGFRONT
 10
0.0
 20
0.0
 30
0.0
  9
$PUCSORGBACK
 10
0.0
 20
0.0
 30
0.0
  9
$USERI1
 70
     0
  9
$USERI2
 70
     0
  9
$USERI3
 70
     0
  9
$USERI4
 70
     0
  9
$USERI5
 70
     0
  9
$USERR1
 40
0.0
  9
$USERR2
 40
0.0
  9
$USERR3
 40
0.0
  9
$USERR4
 40
0.0
  9
$USERR5
 40
0.0
  9
$WORLDVIEW
 70
     1
  9
$SHADEDGE
 70
     3
  9
$SHADEDIF
 70
    70
  9
$TILEMODE
 70
     1
  9
$MAXACTVP
 70
    64
  9
$PINSBASE
 10
0.0
 20
0.0
 30
0.0
  9
$PLIMCHECK
 70
     0
  9
$PEXTMIN
 10
1.0000000000E+20
 20
1.0000000000E+20
 30
1.0000000000E+20
  9
$PEXTMAX
 10
-1.0000000000E+20
 20
-1.0000000000E+20
 30
-1.0000000000E+20
  9
$PLIMMIN
 10
0.0
 20
0.0
  9
$PLIMMAX
 10
420.0
 20
297.0
  9
$UNITMODE
 70
     0
  9
$VISRETAIN
 70
     1
  9
$PLINEGEN
 70
     0
  9
$PSLTSCALE
 70
     1
  9
$TREEDEPTH
 70
  3020
  9
$CMLSTYLE
  2
Standard
  9
$CMLJUST
 70
     0
  9
$CMLSCALE
 40
20.0
  9
$PROXYGRAPHICS
 70
     1
  9
$MEASUREMENT
 70
     1
  9
$CELWEIGHT
370
    -1
  9
$ENDCAPS
280
     0
  9
$JOINSTYLE
280
     0
  9
$LWDISPLAY
290
     1
  9
$INSUNITS
 70
     4
  9
$HYPERLINKBASE
  1

  9
$STYLESHEET
  1

  9
$XEDIT
290
     1
  9
$CEPSNTYPE
380
     0
  9
$PSTYLEMODE
290
     1
  9
$FINGERPRINTGUID
  2
{500cfc1b-ea5c-4eac-b0cd-ad1413869fa7}
  9
$VERSIONGUID
  2
{FAEB1C32-E019-11D5-929B-00C0DF256EC4}
  9
$EXTNAMES
290
     1
  9
$PSVPSCALE
 40
0.0
  9
$OLESTARTUP
290
     0
  0
ENDSEC
  0
SECTION
  2
CLASSES
  0
CLASS
  1
ACDBDICTIONARYWDFLT
  2
AcDbDictionaryWithDefault
  3
ObjectDBX Classes
 90
        0
280
     0
281
     0
  0
CLASS
  1
VISUALSTYLE
  2
AcDbVisualStyle
  3
ObjectDBX Classes
 90
     4095
280
     0
281
     0
  0
CLASS
  1
MATERIAL
  2
AcDbMaterial
  3
ObjectDBX Classes
 90
     1153
280
     0
281
     0
  0
CLASS
  1
SCALE
  2
AcDbScale
  3
ObjectDBX Classes
 90
     1153
280
     0
281
     0
  0
CLASS
  1
TABLESTYLE
  2
AcDbTableStyle
  3
ObjectDBX Classes
 90
     4095
280
     0
281
     0
  0
CLASS
  1
MLEADERSTYLE
  2
AcDbMLeaderStyle
  3
ACDB_MLEADERSTYLE_CLASS
 90
     4095
280
     0
281
     0
  0
CLASS
  1
SUN
  2
AcDbSun
  3
SCENEOE
 90
     1153
280
     0
281
     0
  0
CLASS
  1
ACDBPLACEHOLDER
  2
AcDbPlaceHolder
  3
ObjectDBX Classes
 90
        0
280
     0
281
     0
  0
CLASS
  1
LAYOUT
  2
AcDbLayout
  3
ObjectDBX Classes
 90
        0
280
     0
281
     0
  0
ENDSEC
  0
SECTION
  2
TABLES
  0
TABLE
  2
VPORT
  5
8
330
0
100
AcDbSymbolTable
 70
     1
  0
VPORT
  5
29
330
8
100
AcDbSymbolTableRecord
100
AcDbViewportTableRecord
  2
*Active
 70
     0
 10
0.0
 20
0.0
 11
1.0
 21
1.0
 12
210.0
 22
148.5
 13
0.0
 23
0.0
 14
10.0
 24
10.0
 15
10.0
 25
10.0
 16
0.0
 26
0.0
 36
1.0
 17
0.0
 27
0.0
 37
0.0
 40
297.0
 41
1.4141414141
 42
50.0
 43
0.0
 44
0.0
 50
0.0
 51
0.0
 71
     0
 72
  2000
 73
     1
 74
     3
 75
     0
 76
     0
 77
     0
 78
     0
281
     0
 65
     1
110
0.0
120
0.0
130
0.0
111
1.0
121
0.0
131
0.0
112
0.0
122
1.0
132
0.0
 79
     0
146
0.0
  0
ENDTAB
  0
TABLE
  2
LTYPE
  5
5
330
0
100
AcDbSymbolTable
 70
     6
  0
LTYPE
  5
14
330
5
100
AcDbSymbolTableRecord
100
AcDbLinetypeTableRecord
  2
ByBlock
 70
     0
  3

 72
    65
 73
     0
 40
0.0
  0
LTYPE
  5
15
330
5
100
AcDbSymbolTableRecord
100
AcDbLinetypeTableRecord
  2
ByLayer
 70
     0
  3

 72
    65
 73
     0
 40
0.0
  0
LTYPE
  5
16
330
5
100
AcDbSymbolTableRecord
100
AcDbLinetypeTableRecord
  2
Continuous
 70
     0
  3
Solid line
 72
    65
 73
     0
 40
0.0
  0
LTYPE
  5
6E
330
5
100
AcDbSymbolTableRecord
100
AcDbLinetypeTableRecord
  2
HIDDEN
 70
     0
  3
Hidden __ __ __ __ __ __ __ __ __ __ __ __ __ __
 72
    65
 73
     2
 40
1.905
 49
1.27
 74
     0
 49
-0.635
 74
     0
  0
LTYPE
  5
6F
330
5
100
AcDbSymbolTableRecord
100
AcDbLinetypeTableRecord
  2
PHANTOM
 70
     0
  3
Phantom ______  __  __  ______  __  __  ______
 72
    65
 73
     6
 40
12.7
 49
6.35
 74
     0
 49
-1.27
 74
     0
 49
1.27
 74
     0
 49
-1.27
 74
     0
 49
1.27
 74
     0
 49
-1.27
 74
     0
  0
LTYPE
  5
70
330
5
100
AcDbSymbolTableRecord
100
AcDbLinetypeTableRecord
  2
CENTER
 70
     0
  3
Center ____ _ ____ _ ____ _ ____ _ ____ _ ____
 72
    65
 73
     4
 40
10.16
 49
6.35
 74
     0
 49
-1.27
 74
     0
 49
1.27
 74
     0
 49
-1.27
 74
     0
  0
LTYPE
  5
71
330
5
100
AcDbSymbolTableRecord
100
AcDbLinetypeTableRecord
  2
CENTERX2
 70
     0
  3
Center (2x) ________  __  ________  __  _____
 72
    65
 73
     4
 40
20.32
 49
12.7
 74
     0
 49
-2.54
 74
     0
 49
2.54
 74
     0
 49
-2.54
 74
     0
  0
LTYPE
  5
72
330
5
100
AcDbSymbolTableRecord
100
AcDbLinetypeTableRecord
  2
DOT2
 70
     0
  3
Dot (.5x) ........................................
 72
    65
 73
     2
 40
0.635
 49
0.0
 74
     0
 49
-0.635
 74
     0
  0
ENDTAB
  0
TABLE
  2
LAYER
  5
2
330
0
100
AcDbSymbolTable
 70
     9
  0
LAYER
  5
10
330
2
100
AcDbSymbolTableRecord
100
AcDbLayerTableRecord
  2
0
 70
     0
 62
     7
  6
Continuous
370
    -3
390
F
  0
LAYER
  5
73
330
2
100
AcDbSymbolTableRecord
100
AcDbLayerTableRecord
  2
VORLAGE_TEXT
 70
     0
 62
     7
  6
Continuous
370
    -3
390
F
  0
LAYER
  5
74
330
2
100
AcDbSymbolTableRecord
100
AcDbLayerTableRecord
  2
VORLAGE_BEMASSUNG
 70
     0
 62
    -5
  6
Continuous
290
     0
370
    -3
390
F
  0
LAYER
  5
75
330
2
100
AcDbSymbolTableRecord
100
AcDbLayerTableRecord
  2
TEXT
 70
     0
 62
     7
  6
Continuous
370
    -3
390
F
  0
LAYER
  5
76
330
2
100
AcDbSymbolTableRecord
100
AcDbLayerTableRecord
  2
LINIEN-DICK
 70
     0
 62
     7
  6
Continuous
370
    35
390
F
  0
LAYER
  5
77
330
2
100
AcDbSymbolTableRecord
100
AcDbLayerTableRecord
  2
LINIEN-NORMAL
 70
     0
 62
     7
  6
Continuous
370
    25
390
F
  0
LAYER
  5
78
330
2
100
AcDbSymbolTableRecord
100
AcDbLayerTableRecord
  2
LINIEN-DÜNN
 70
     0
 62
     7
  6
Continuous
370
    -3
390
F
  0
LAYER
  5
79
330
2
100
AcDbSymbolTableRecord
100
AcDbLayerTableRecord
  2
TEXT-DEUTSCH
 70
     0
 62
     7
  6
Continuous
370
    -3
390
F
  0
LAYER
  5
7A
330
2
100
AcDbSymbolTableRecord
100
AcDbLayerTableRecord
  2
TEXT-ENGLISCH
 70
     0
 62
    -7
  6
Continuous
290
     0
370
    -3
390
F
  0
ENDTAB
  0
TABLE
  2
STYLE
  5
3
330
0
100
AcDbSymbolTable
 70
     3
  0
STYLE
  5
11
330
3
100
AcDbSymbolTableRecord
100
AcDbTextStyleTableRecord
  2
Standard
 70
     0
 40
0.0
 41
1.0
 50
0.0
 71
     0
 42
3.5
  3
txt
  4

  0
STYLE
  5
F1
330
3
100
AcDbSymbolTableRecord
100
AcDbTextStyleTableRecord
  2
SLDTEXTSTYLE0
 70
     0
 40
0.0
 41
0.605
 50
0.0
 71
     0
 42
3.5
  3
TXT
  4

  0
STYLE
  5
19A
330
3
100
AcDbSymbolTableRecord
100
AcDbTextStyleTableRecord
  2
SLDTEXTSTYLE1
 70
     0
 40
0.0
 41
0.563
 50
0.0
 71
     0
 42
3.5
  3
TXT
  4

  0
ENDTAB
  0
TABLE
  2
VIEW
  5
6
330
0
100
AcDbSymbolTable
 70
     0
  0
ENDTAB
  0
TABLE
  2
UCS
  5
7
330
0
100
AcDbSymbolTable
 70
     0
  0
ENDTAB
  0
TABLE
  2
APPID
  5
9
330
0
100
AcDbSymbolTable
 70
     1
  0
APPID
  5
12
330
9
100
AcDbSymbolTableRecord
100
AcDbRegAppTableRecord
  2
ACAD
 70
     0
  0
ENDTAB
  0
TABLE
  2
DIMSTYLE
  5
A
330
0
100
AcDbSymbolTable
 70
     2
100
AcDbDimStyleTable
  0
DIMSTYLE
105
27
330
A
100
AcDbSymbolTableRecord
100
AcDbDimStyleTableRecord
  2
ISO-25
 70
     0
 41
2.5
 42
0.625
 43
3.75
 44
1.25
 73
     0
 74
     0
 77
     1
 78
     8
140
2.5
141
2.5
143
0.0393700787
147
0.625
171
     3
172
     1
178
     0
271
     2
272
     2
274
     3
278
    44
283
     0
284
     8
340
11
  0
DIMSTYLE
105
32A
102
{ACAD_REACTORS
330
329
330
335
330
340
102
}
330
A
100
AcDbSymbolTableRecord
100
AcDbDimStyleTableRecord
  2
SLDDIMSTYLE0
 70
     0
 41
3.5
 44
0.0
 45
0.000000001
 73
     0
 74
     0
 77
     1
 78
    12
 79
     3
140
3.5
147
0.875
173
     1
178
     0
271
     2
272
     3
276
     2
284
    12
340
F1
  0
ENDTAB
  0
TABLE
  2
BLOCK_RECORD
  5
1
330
0
100
AcDbSymbolTable
 70
    12
  0
BLOCK_RECORD
  5
1F
330
1
100
AcDbSymbolTableRecord
100
AcDbBlockTableRecord
  2
*Model_Space
340
22
  0
BLOCK_RECORD
  5
1B
330
1
100
AcDbSymbolTableRecord
100
AcDbBlockTableRecord
  2
*Paper_Space
340
1E
  0
BLOCK_RECORD
  5
23
330
1
100
AcDbSymbolTableRecord
100
AcDbBlockTableRecord
  2
*Paper_Space0
340
26
  0
BLOCK_RECORD
  5
7B
330
1
100
AcDbSymbolTableRecord
100
AcDbBlockTableRecord
  2
ACO-Logo
340
0
102
{BLKREFS
331
151
102
}
  0
BLOCK_RECORD
  5
EE
330
1
100
AcDbSymbolTableRecord
100
AcDbBlockTableRecord
  2
SW_NOTE_0
340
0
102
{BLKREFS
331
F3
102
}
  0
BLOCK_RECORD
  5
F4
330
1
100
AcDbSymbolTableRecord
100
AcDbBlockTableRecord
  2
SW_NOTE_0_1
340
0
102
{BLKREFS
331
F8
102
}
  0
BLOCK_RECORD
  5
F9
330
1
100
AcDbSymbolTableRecord
100
AcDbBlockTableRecord
  2
SW_NOTE_0_2
340
0
102
{BLKREFS
331
100
102
}
  0
BLOCK_RECORD
  5
178
330
1
100
AcDbSymbolTableRecord
100
AcDbBlockTableRecord
  2
SW_NOTE_0_3
340
0
102
{BLKREFS
331
180
102
}
  0
BLOCK_RECORD
  5
204
330
1
100
AcDbSymbolTableRecord
100
AcDbBlockTableRecord
  2
SW_CENTERMARKSYMBOL_0
340
0
102
{BLKREFS
331
20F
102
}
  0
BLOCK_RECORD
  5
217
330
1
100
AcDbSymbolTableRecord
100
AcDbBlockTableRecord
  2
SW_BROKEN_VIEW_0
340
0
102
{BLKREFS
331
21A
102
}
  0
BLOCK_RECORD
  5
32B
330
1
100
AcDbSymbolTableRecord
100
AcDbBlockTableRecord
  2
_D
340
0
  0
BLOCK_RECORD
  5
336
330
1
100
AcDbSymbolTableRecord
100
AcDbBlockTableRecord
  2
_D_1
340
0
  0
BLOCK_RECORD
  5
341
330
1
100
AcDbSymbolTableRecord
100
AcDbBlockTableRecord
  2
_D_2
340
0
  0
BLOCK_RECORD
  5
34F
330
1
100
AcDbSymbolTableRecord
100
AcDbBlockTableRecord
  2
SW_HATCH_0
340
0
102
{BLKREFS
331
438
102
}
  0
ENDTAB
  0
ENDSEC
  0
SECTION
  2
BLOCKS
  0
BLOCK
  5
20
330
1F
100
AcDbEntity
  8
0
100
AcDbBlockBegin
  2
*Model_Space
 70
     0
 10
0.0
 20
0.0
 30
0.0
  3
*Model_Space
  1

  0
ENDBLK
  5
21
330
1F
100
AcDbEntity
  8
0
100
AcDbBlockEnd
  0
BLOCK
  5
1C
330
1B
100
AcDbEntity
 67
     1
  8
0
100
AcDbBlockBegin
  2
*Paper_Space
 70
     0
 10
0.0
 20
0.0
 30
0.0
  3
*Paper_Space
  1

  0
ENDBLK
  5
1D
330
1B
100
AcDbEntity
 67
     1
  8
0
100
AcDbBlockEnd
  0
BLOCK
  5
24
330
23
100
AcDbEntity
  8
0
100
AcDbBlockBegin
  2
*Paper_Space0
 70
     0
 10
0.0
 20
0.0
 30
0.0
  3
*Paper_Space0
  1

  0
ENDBLK
  5
25
330
23
100
AcDbEntity
  8
0
100
AcDbBlockEnd
  0
BLOCK
  5
7C
330
7B
100
AcDbEntity
  8
0
100
AcDbBlockBegin
  2
ACO-Logo
 70
     0
 10
0.0
 20
0.0
 30
0.0
  3
ACO-Logo
  1

  0
ARC
  5
7E
330
7B
100
AcDbEntity
  8
0
  6
Continuous
 62
   179
370
    18
100
AcDbCircle
 10
80.3853261169
 20
4.9940995715
 30
0.0
 40
0.3000000000000441
100
AcDbArc
 50
181.9349323096
 51
274.6062978506
  0
ARC
  5
7F
330
7B
100
AcDbEntity
  8
0
  6
Continuous
 62
   179
370
    18
100
AcDbCircle
 10
81.2359083165
 20
2.1946665956
 30
0.0
 40
1.000000000000021
100
AcDbArc
 50
221.4087409628
 51
276.0561297228
  0
ARC
  5
80
330
7B
100
AcDbEntity
  8
0
  6
Continuous
 62
   179
370
    18
100
AcDbCircle
 10
79.1360017163
 20
3.654242048
 30
0.0
 40
0.300000000000004
100
AcDbArc
 50
181.2730300201
 51
274.4996077095
  0
ARC
  5
81
330
7B
100
AcDbEntity
  8
0
  6
Continuous
 62
   179
370
    18
100
AcDbCircle
 10
78.7699033484
 20
3.2873137407
 30
0.0
 40
0.4000000000000358
100
AcDbArc
 50
221.0090869016
 51
274.5606296317
  0
ARC
  5
82
330
7B
100
AcDbEntity
  8
0
  6
Continuous
 62
   179
370
    18
100
AcDbCircle
 10
91.2333953062
 20
4.6062442307
 30
0.0
 40
0.3000000000000493
100
AcDbArc
 50
274.4996077095
 51
3.7249371334
  0
ARC
  5
83
330
7B
100
AcDbEntity
  8
0
  6
Continuous
 62
   179
370
    18
100
AcDbCircle
 10
81.5287571045
 20
9.7648973508
 30
0.0
 40
1.00000000000002
100
AcDbArc
 50
93.1134387481
 51
181.9414863909
  0
ARC
  5
84
330
7B
100
AcDbEntity
  8
0
  6
Continuous
 62
   179
370
    18
100
AcDbCircle
 10
81.6051675115
 20
7.5107903456
 30
0.0
 40
1.0
100
AcDbArc
 50
181.9414863909
 51
274.398705355
  0
ARC
  5
85
330
7B
100
AcDbEntity
  8
0
  6
Continuous
 62
   179
370
    18
100
AcDbCircle
 10
80.1506905656
 20
11.9393118923
 30
0.0
 40
0.300000000000045
100
AcDbArc
 50
93.0418421566
 51
181.9349323096
  0
ARC
  5
86
330
7B
100
AcDbEntity
  8
0
  6
Continuous
 62
   179
370
    18
100
AcDbCircle
 10
78.1879722102
 20
12.3499352608
 30
0.0
 40
0.7999999999953393
100
AcDbArc
 50
92.6995697565
 51
148.2554209065
  0
ARC
  5
87
330
7B
100
AcDbEntity
  8
0
  6
Continuous
 62
   179
370
    18
100
AcDbCircle
 10
78.930862229
 20
12.8855189761
 30
0.0
 40
0.3000000000000031
100
AcDbArc
 50
92.6995697565
 51
181.2730300201
  0
ARC
  5
88
330
7B
100
AcDbEntity
  8
0
  6
Continuous
 62
   179
370
    18
100
AcDbCircle
 10
82.327743407
 20
9.8083568568
 30
0.0
 40
1.000000000000034
100
AcDbArc
 50
1.9414863909
 51
93.1134387481
  0
ARC
  5
89
330
7B
100
AcDbEntity
  8
0
  6
Continuous
 62
   179
370
    18
100
AcDbCircle
 10
81.5287571045
 20
9.7648973508
 30
0.0
 40
0.3625000000000009
100
AcDbArc
 50
93.1134387481
 51
181.9414863909
  0
ARC
  5
8A
330
7B
100
AcDbEntity
  8
0
  6
Continuous
 62
   179
370
    18
100
AcDbCircle
 10
82.327743407
 20
9.8083568568
 30
0.0
 40
0.3625000000000146
100
AcDbArc
 50
1.9414863909
 51
93.1134387481
  0
ARC
  5
8B
330
7B
100
AcDbEntity
  8
0
  6
Continuous
 62
   179
370
    18
100
AcDbCircle
 10
82.4035451983
 20
7.5722040138
 30
0.0
 40
1.000000000000008
100
AcDbArc
 50
274.398705355
 51
1.9414863909
  0
ARC
  5
8C
330
7B
100
AcDbEntity
  8
0
  6
Continuous
 62
   179
370
    18
100
AcDbCircle
 10
82.4035451983
 20
7.5722040138
 30
0.0
 40
0.3625000000000068
100
AcDbArc
 50
274.398705355
 51
1.9414863909
  0
ARC
  5
8D
330
7B
100
AcDbEntity
  8
0
  6
Continuous
 62
   179
370
    18
100
AcDbCircle
 10
81.6051675115
 20
7.5107903456
 30
0.0
 40
0.3625000000000111
100
AcDbArc
 50
181.9414863909
 51
274.398705355
  0
ARC
  5
8E
330
7B
100
AcDbEntity
  8
0
  6
Continuous
 62
   179
370
    18
100
AcDbCircle
 10
88.825822761
 20
8.0662148274
 30
0.0
 40
0.9999999999999997
100
AcDbArc
 50
274.398705355
 51
2.6541955134
  0
ARC
  5
8F
330
7B
100
AcDbEntity
  8
0
  6
Continuous
 62
   179
370
    18
100
AcDbCircle
 10
90.1578295581
 20
5.7814576687
 30
0.0
 40
0.3000000000000043
100
AcDbArc
 50
274.6062978507
 51
2.5147526475
  0
ARC
  5
90
330
7B
100
AcDbEntity
  8
0
  6
Continuous
 62
   179
370
    18
100
AcDbCircle
 10
88.825822761
 20
8.0662148274
 30
0.0
 40
0.3625000000000083
100
AcDbArc
 50
274.398705355
 51
2.6541955134
  0
ARC
  5
91
330
7B
100
AcDbEntity
  8
0
  6
Continuous
 62
   179
370
    18
100
AcDbCircle
 10
88.728529747
 20
10.16496413
 30
0.0
 40
1.000000000000001
100
AcDbArc
 50
2.6541955134
 51
93.1134387481
  0
ARC
  5
92
330
7B
100
AcDbEntity
  8
0
  6
Continuous
 62
   179
370
    18
100
AcDbCircle
 10
88.728529747
 20
10.16496413
 30
0.0
 40
0.3625000000000085
100
AcDbArc
 50
2.6541955134
 51
93.1134387481
  0
ARC
  5
93
330
7B
100
AcDbEntity
  8
0
  6
Continuous
 62
   179
370
    18
100
AcDbCircle
 10
89.8647121341
 20
12.455515937
 30
0.0
 40
0.2999999999999984
100
AcDbArc
 50
2.5147526475
 51
93.0418421566
  0
ARC
  5
94
330
7B
100
AcDbEntity
  8
0
  6
Continuous
 62
   179
370
    18
100
AcDbCircle
 10
90.6583795404
 20
13.4384863935
 30
0.0
 40
0.2999999999999911
100
AcDbArc
 50
3.7249371334
 51
92.6995697565
  0
CIRCLE
  5
95
330
7B
100
AcDbEntity
  8
0
  6
Continuous
 62
   179
370
    18
100
AcDbCircle
 10
15.7233972286
 20
6.4054930194
 30
0.0
 40
1.579500000000014
  0
CIRCLE
  5
96
330
7B
100
AcDbEntity
  8
0
  6
Continuous
 62
   179
370
    18
100
AcDbCircle
 10
15.7233972286
 20
6.4054930194
 30
0.0
 40
2.281499999999994
  0
ARC
  5
97
330
7B
100
AcDbEntity
  8
0
  6
Continuous
 62
   179
370
    18
100
AcDbCircle
 10
89.7681336026
 20
2.3106616691
 30
0.0
 40
0.098384530246548
100
AcDbArc
 50
332.3802627259
 51
4.9765441602
  0
ARC
  5
98
330
7B
100
AcDbEntity
  8
0
  6
Continuous
 62
   179
370
    18
100
AcDbCircle
 10
89.6886560089
 20
2.3522464185
 30
0.0
 40
0.1880839130754018
100
AcDbArc
 50
303.690067526
 51
332.3802627258
  0
ARC
  5
99
330
7B
100
AcDbEntity
  8
0
  6
Continuous
 62
   179
370
    18
100
AcDbCircle
 10
89.4849700869
 20
2.6577753016
 30
0.0
 40
0.5552839311631531
100
AcDbArc
 50
287.108652213
 51
303.690067526
  0
ARC
  5
9A
330
7B
100
AcDbEntity
  8
0
  6
Continuous
 62
   179
370
    18
100
AcDbCircle
 10
88.0513010646
 20
7.3154864882
 30
0.0
 40
5.428648309393203
100
AcDbArc
 50
285.2551187031
 51
287.108652213
  0
ARC
  5
9B
330
7B
100
AcDbEntity
  8
0
  6
Continuous
 62
   179
370
    18
100
AcDbCircle
 10
89.1317168954
 20
3.3539617753
 30
0.0
 40
1.322436378825653
100
AcDbArc
 50
281.4991866428
 51
285.255118703
  0
ARC
  5
9C
330
7B
100
AcDbEntity
  8
0
  6
Continuous
 62
   179
370
    18
100
AcDbCircle
 10
89.3198255509
 20
2.4293110075
 30
0.0
 40
0.3788454141584939
100
AcDbArc
 50
279.1917900003
 51
281.499186643
  0
ARC
  5
9D
330
7B
100
AcDbEntity
  8
0
  6
Continuous
 62
   179
370
    18
100
AcDbCircle
 10
89.0487250788
 20
4.1046569124
 30
0.0
 40
2.07598399629105
100
AcDbArc
 50
277.7634675038
 51
279.1917900002
  0
ARC
  5
9E
330
7B
100
AcDbEntity
  8
0
  6
Continuous
 62
   179
370
    18
100
AcDbCircle
 10
9.2588909915
 20
6.4054930194
 30
0.0
 40
1.579500000000074
100
AcDbArc
 50
31.0558004991
 51
330.0
  0
ARC
  5
9F
330
7B
100
AcDbEntity
  8
0
  6
Continuous
 62
   179
370
    18
100
AcDbCircle
 10
9.2588909915
 20
6.4054930194
 30
0.0
 40
2.281500000000107
100
AcDbArc
 50
30.7309172659
 51
330.0
  0
ARC
  5
A0
330
7B
100
AcDbEntity
  8
0
  6
Continuous
 62
   179
370
    18
100
AcDbCircle
 10
6.1288847544
 20
4.0685261312
 30
0.0
 40
4.914000000000307
100
AcDbArc
 50
172.3058370354
 51
179.7113029221
  0
ARC
  5
A1
330
7B
100
AcDbEntity
  8
0
  6
Continuous
 62
   179
370
    18
100
AcDbCircle
 10
-0.5401152456
 20
4.0685261312
 30
0.0
 40
4.91400000000019
100
AcDbArc
 50
0.2886970779
 51
7.6941629646
  0
ARC
  5
A2
330
7B
100
AcDbEntity
  8
0
  6
Continuous
 62
   179
370
    18
100
AcDbCircle
 10
-0.5401152456
 20
4.0685261312
 30
0.0
 40
5.616000000000127
100
AcDbArc
 50
0.2526096926
 51
53.5764263577
  0
ARC
  5
A3
330
7B
100
AcDbEntity
  8
0
  6
Continuous
 62
   179
370
    18
100
AcDbCircle
 10
6.1288847544
 20
4.0685261312
 30
0.0
 40
5.61600000000074
100
AcDbArc
 50
126.4235736423
 51
179.7473903073
  0
ARC
  5
A4
330
7B
100
AcDbEntity
  8
0
  6
Continuous
 62
   179
370
    18
100
AcDbCircle
 10
-0.5401152456
 20
4.0685261312
 30
0.0
 40
4.914000000000161
100
AcDbArc
 50
16.0658750272
 51
47.2678899574
  0
ARC
  5
A5
330
7B
100
AcDbEntity
  8
0
  6
Continuous
 62
   179
370
    18
100
AcDbCircle
 10
6.1288847544
 20
4.0685261312
 30
0.0
 40
4.914000000000584
100
AcDbArc
 50
132.7321100426
 51
163.9341249728
  0
LINE
  5
A6
330
7B
100
AcDbEntity
  8
0
  6
Continuous
 62
   179
370
    18
100
AcDbLine
 10
78.8017089389
 20
2.8885802402
 30
0.0
 11
90.7982178739
 21
3.8455002136
 31
0.0
  0
LINE
  5
A7
330
7B
100
AcDbEntity
  8
0
  6
Continuous
 62
   179
370
    18
100
AcDbLine
 10
76.6545490427
 20
5.8693097374
 30
0.0
 11
78.0344191726
 21
3.5235305166
 31
0.0
  0
LINE
  5
A8
330
7B
100
AcDbEntity
  8
0
  6
Continuous
 62
   179
370
    18
100
AcDbLine
 10
91.5327615373
 20
4.6257342197
 30
0.0
 11
90.9577457715
 21
13.4579763825
 31
0.0
  0
LINE
  5
A9
330
7B
100
AcDbEntity
  8
0
  6
Continuous
 62
   179
370
    18
100
AcDbLine
 10
78.6309362756
 20
12.8788539549
 30
0.0
 11
78.8360757629
 21
3.6475770268
 31
0.0
  0
LINE
  5
AA
330
7B
100
AcDbEntity
  8
0
  6
Continuous
 62
   179
370
    18
100
AcDbLine
 10
80.4094186633
 20
4.6950685544
 30
0.0
 11
90.1819221045
 21
5.4824266516
 31
0.0
  0
LINE
  5
AB
330
7B
100
AcDbEntity
  8
0
  6
Continuous
 62
   179
370
    18
100
AcDbLine
 10
79.1595373973
 20
3.3551666867
 30
0.0
 11
91.2569309872
 21
4.3071688694
 31
0.0
  0
LINE
  5
AC
330
7B
100
AcDbEntity
  8
0
  6
Continuous
 62
   179
370
    18
100
AcDbLine
 10
79.2585043218
 20
2.925017226
 30
0.0
 11
80.4858981444
 21
1.533240302
 31
0.0
  0
LINE
  5
AD
330
7B
100
AcDbEntity
  8
0
  6
Continuous
 62
   179
370
    18
100
AcDbLine
 10
78.0344191726
 20
3.5235305166
 30
0.0
 11
78.3638740472
 21
3.1446574108
 31
0.0
  0
LINE
  5
AE
330
7B
100
AcDbEntity
  8
0
  6
Continuous
 62
   179
370
    18
100
AcDbLine
 10
78.3638740472
 20
3.1446574108
 30
0.0
 11
78.4680611395
 21
3.0248422547
 31
0.0
  0
LINE
  5
AF
330
7B
100
AcDbEntity
  8
0
  6
Continuous
 62
   179
370
    18
100
AcDbLine
 10
81.3414110113
 20
1.2002475785
 30
0.0
 11
89.3291569519
 21
2.0477010263
 31
0.0
  0
LINE
  5
B0
330
7B
100
AcDbEntity
  8
0
  6
Continuous
 62
   179
370
    18
100
AcDbLine
 10
89.8661472522
 20
2.5197759309
 30
0.0
 11
89.8661472522
 21
2.3090867337
 31
0.0
  0
LINE
  5
B1
330
7B
100
AcDbEntity
  8
0
  6
Continuous
 62
   179
370
    18
100
AcDbLine
 10
88.676842368
 20
3.6762854359
 30
0.0
 11
89.6713239345
 21
2.7875997807
 31
0.0
  0
LINE
  5
B2
330
7B
100
AcDbEntity
  8
0
  6
Continuous
 62
   179
370
    18
100
AcDbLine
 10
89.6713239345
 20
2.7875997807
 30
0.0
 11
89.7459749087
 21
2.7242700694
 31
0.0
  0
LINE
  5
B3
330
7B
100
AcDbEntity
  8
0
  6
Continuous
 62
   179
370
    18
100
AcDbLine
 10
90.7982178739
 20
3.8455002136
 30
0.0
 11
91.3961615969
 21
4.3514525945
 31
0.0
  0
LINE
  5
B4
330
7B
100
AcDbEntity
  8
0
  6
Continuous
 62
   179
370
    18
100
AcDbLine
 10
90.6442498554
 20
13.7381534621
 30
0.0
 11
78.1502930503
 21
13.1490474438
 31
0.0
  0
LINE
  5
B5
330
7B
100
AcDbEntity
  8
0
  6
Continuous
 62
   179
370
    18
100
AcDbLine
 10
80.1347709981
 20
12.2388892068
 30
0.0
 11
89.8487925667
 21
12.7550932515
 31
0.0
  0
LINE
  5
B6
330
7B
100
AcDbEntity
  8
0
  6
Continuous
 62
   179
370
    18
100
AcDbLine
 10
76.4935641943
 20
11.7567556248
 30
0.0
 11
76.6545490427
 21
5.8693097374
 31
0.0
  0
LINE
  5
B7
330
7B
100
AcDbEntity
  8
0
  6
Continuous
 62
   179
370
    18
100
AcDbLine
 10
79.8508616208
 20
11.929182536
 30
0.0
 11
80.0854971721
 21
4.9839702153
 31
0.0
  0
LINE
  5
B8
330
7B
100
AcDbEntity
  8
0
  6
Continuous
 62
   179
370
    18
100
AcDbLine
 10
80.5293311574
 20
9.7310185051
 30
0.0
 11
80.6057415643
 21
7.4769115
 31
0.0
  0
LINE
  5
B9
330
7B
100
AcDbEntity
  8
0
  6
Continuous
 62
   179
370
    18
100
AcDbLine
 10
77.507650604
 20
12.7708420346
 30
0.0
 11
76.4935641943
 21
11.7567556248
 31
0.0
  0
LINE
  5
BA
330
7B
100
AcDbEntity
  8
0
  6
Continuous
 62
   179
370
    18
100
AcDbLine
 10
86.8848195129
 20
11.0661568594
 30
0.0
 11
88.6742167283
 21
11.1634880887
 31
0.0
  0
LINE
  5
BB
330
7B
100
AcDbEntity
  8
0
  6
Continuous
 62
   179
370
    18
100
AcDbLine
 10
87.0766213517
 20
6.9287171941
 30
0.0
 11
88.90708891
 21
7.0695223909
 31
0.0
  0
LINE
  5
BC
330
7B
100
AcDbEntity
  8
0
  6
Continuous
 62
   179
370
    18
100
AcDbLine
 10
87.6830038473
 20
7.6147347768
 30
0.0
 11
88.8536252418
 21
7.7047825764
 31
0.0
  0
LINE
  5
BD
330
7B
100
AcDbEntity
  8
0
  6
Continuous
 62
   179
370
    18
100
AcDbLine
 10
87.5509212094
 20
10.4639459651
 30
0.0
 11
88.7088412777
 21
10.5269290651
 31
0.0
  0
LINE
  5
BE
330
7B
100
AcDbEntity
  8
0
  6
Continuous
 62
   179
370
    18
100
AcDbLine
 10
87.0766218384
 20
6.9287066941
 30
0.0
 11
86.8848195129
 21
11.0661568594
 31
0.0
  0
LINE
  5
BF
330
7B
100
AcDbEntity
  8
0
  6
Continuous
 62
   179
370
    18
100
AcDbLine
 10
83.7004598825
 20
6.6667911093
 30
0.0
 11
84.5054929504
 21
10.9267193262
 31
0.0
  0
LINE
  5
C0
330
7B
100
AcDbEntity
  8
0
  6
Continuous
 62
   179
370
    18
100
AcDbLine
 10
85.3543248406
 20
10.9728900984
 30
0.0
 11
86.4940946704
 21
6.8816860929
 31
0.0
  0
LINE
  5
C1
330
7B
100
AcDbEntity
  8
0
  6
Continuous
 62
   179
370
    18
100
AcDbLine
 10
84.9728575427
 20
9.9667192298
 30
0.0
 11
85.4540299774
 21
8.2395506903
 31
0.0
  0
LINE
  5
C2
330
7B
100
AcDbEntity
  8
0
  6
Continuous
 62
   179
370
    18
100
AcDbLine
 10
84.6363094629
 20
8.1858350416
 30
0.0
 11
84.9728575427
 21
9.9667192298
 31
0.0
  0
LINE
  5
C3
330
7B
100
AcDbEntity
  8
0
  6
Continuous
 62
   179
370
    18
100
AcDbLine
 10
87.6830038473
 20
7.6147347768
 30
0.0
 11
87.5509212094
 21
10.4639459651
 31
0.0
  0
LINE
  5
C4
330
7B
100
AcDbEntity
  8
0
  6
Continuous
 62
   179
370
    18
100
AcDbLine
 10
84.6363094629
 20
8.1858350416
 30
0.0
 11
85.4540299774
 21
8.2395506903
 31
0.0
  0
LINE
  5
C5
330
7B
100
AcDbEntity
  8
0
  6
Continuous
 62
   179
370
    18
100
AcDbLine
 10
84.5140586807
 20
7.5389304886
 30
0.0
 11
85.6288154243
 21
7.6121582976
 31
0.0
  0
LINE
  5
C6
330
7B
100
AcDbEntity
  8
0
  6
Continuous
 62
   179
370
    18
100
AcDbLine
 10
84.3588137958
 20
6.717433718
 30
0.0
 11
84.5140586807
 21
7.5389304886
 31
0.0
  0
LINE
  5
C7
330
7B
100
AcDbEntity
  8
0
  6
Continuous
 62
   179
370
    18
100
AcDbLine
 10
81.6818640104
 20
6.5137358601
 30
0.0
 11
82.4802416972
 21
6.5751495283
 31
0.0
  0
LINE
  5
C8
330
7B
100
AcDbEntity
  8
0
  6
Continuous
 62
   179
370
    18
100
AcDbLine
 10
81.6329699923
 20
7.1493580946
 30
0.0
 11
82.4313476791
 21
7.2107717628
 31
0.0
  0
LINE
  5
C9
330
7B
100
AcDbEntity
  8
0
  6
Continuous
 62
   179
370
    18
100
AcDbLine
 10
83.7004598825
 20
6.6667911093
 30
0.0
 11
84.3588137958
 21
6.717433718
 31
0.0
  0
LINE
  5
CA
330
7B
100
AcDbEntity
  8
0
  6
Continuous
 62
   179
370
    18
100
AcDbLine
 10
82.7059483815
 20
9.3512024135
 30
0.0
 11
83.3423973297
 21
9.3930104243
 31
0.0
  0
LINE
  5
CB
330
7B
100
AcDbEntity
  8
0
  6
Continuous
 62
   179
370
    18
100
AcDbLine
 10
82.7491656358
 20
8.0762934118
 30
0.0
 11
83.385614584
 21
8.1181014226
 31
0.0
  0
LINE
  5
CC
330
7B
100
AcDbEntity
  8
0
  6
Continuous
 62
   179
370
    18
100
AcDbLine
 10
81.1664651987
 20
9.7526162692
 30
0.0
 11
81.2428756056
 21
7.4985092641
 31
0.0
  0
LINE
  5
CD
330
7B
100
AcDbEntity
  8
0
  6
Continuous
 62
   179
370
    18
100
AcDbLine
 10
82.6900353128
 20
9.8206379383
 30
0.0
 11
82.7052632884
 21
9.3714126602
 31
0.0
  0
LINE
  5
CE
330
7B
100
AcDbEntity
  8
0
  6
Continuous
 62
   179
370
    18
100
AcDbLine
 10
82.7491656358
 20
8.0762934118
 30
0.0
 11
82.7658371041
 21
7.5844850954
 31
0.0
  0
LINE
  5
CF
330
7B
100
AcDbEntity
  8
0
  6
Continuous
 62
   179
370
    18
100
AcDbLine
 10
83.3271693541
 20
9.8422357024
 30
0.0
 11
83.3423973297
 21
9.3930104243
 31
0.0
  0
LINE
  5
D0
330
7B
100
AcDbEntity
  8
0
  6
Continuous
 62
   179
370
    18
100
AcDbLine
 10
83.385614584
 20
8.1181014226
 30
0.0
 11
83.4029711454
 21
7.6060828595
 31
0.0
  0
LINE
  5
D1
330
7B
100
AcDbEntity
  8
0
  6
Continuous
 62
   179
370
    18
100
AcDbLine
 10
85.6288154243
 20
7.6121582976
 30
0.0
 11
85.8462022593
 21
6.8318482152
 31
0.0
  0
LINE
  5
D2
330
7B
100
AcDbEntity
  8
0
  6
Continuous
 62
   179
370
    18
100
AcDbLine
 10
85.8462022593
 20
6.8318482152
 30
0.0
 11
86.4940946704
 21
6.8816860929
 31
0.0
  0
LINE
  5
D3
330
7B
100
AcDbEntity
  8
0
  6
Continuous
 62
   179
370
    18
100
AcDbLine
 10
84.5054929504
 20
10.9267193262
 30
0.0
 11
85.3543248406
 21
10.9728900984
 31
0.0
  0
LINE
  5
D4
330
7B
100
AcDbEntity
  8
0
  6
Continuous
 62
   179
370
    18
100
AcDbLine
 10
81.4744440858
 20
10.7634213094
 30
0.0
 11
82.2734303883
 21
10.8068808154
 31
0.0
  0
LINE
  5
D5
330
7B
100
AcDbEntity
  8
0
  6
Continuous
 62
   179
370
    18
100
AcDbLine
 10
81.5090686352
 20
10.1268622858
 30
0.0
 11
82.3080549377
 21
10.1703217918
 31
0.0
  0
LINE
  5
D6
330
7B
100
AcDbEntity
  8
0
  6
Continuous
 62
   179
370
    18
100
AcDbLine
 10
90.4575406452
 20
5.7946206556
 30
0.0
 11
90.1644232213
 21
12.4686789239
 31
0.0
  0
LINE
  5
D7
330
7B
100
AcDbEntity
  8
0
  6
Continuous
 62
   179
370
    18
100
AcDbLine
 10
89.8247499755
 20
8.1125227115
 30
0.0
 11
89.7274569615
 21
10.2112720142
 31
0.0
  0
LINE
  5
D8
330
7B
100
AcDbEntity
  8
0
  6
Continuous
 62
   179
370
    18
100
AcDbLine
 10
89.1879338763
 20
8.0830014354
 30
0.0
 11
89.0906408622
 21
10.181750738
 31
0.0
  0
LINE
  5
D9
330
7B
100
AcDbEntity
  8
0
  6
Continuous
 62
   179
370
    18
100
AcDbLine
 10
89.7459749087
 20
2.7242700694
 30
0.0
 11
89.7974962577
 21
2.6659765769
 31
0.0
  0
LINE
  5
DA
330
7B
100
AcDbEntity
  8
0
  6
Continuous
 62
   179
370
    18
100
AcDbLine
 10
89.7974962577
 20
2.6659765769
 30
0.0
 11
89.8351851379
 21
2.60192886
 31
0.0
  0
LINE
  5
DB
330
7B
100
AcDbEntity
  8
0
  6
Continuous
 62
   179
370
    18
100
AcDbLine
 10
89.8351851379
 20
2.60192886
 30
0.0
 11
89.8661472522
 21
2.5197759309
 31
0.0
  0
LINE
  5
DC
330
7B
100
AcDbEntity
  8
0
  6
Continuous
 62
   179
370
    18
100
AcDbLine
 10
10.6119938288
 20
7.2203138351
 30
0.0
 11
11.2200151261
 21
7.5713550947
 31
0.0
  0
LINE
  5
DD
330
7B
100
AcDbEntity
  8
0
  6
Continuous
 62
   179
370
    18
100
AcDbLine
 10
11.2347279503
 20
5.2647430194
 30
0.0
 11
10.6267781168
 21
5.6157430194
 31
0.0
  0
LINE
  5
DE
330
7B
100
AcDbEntity
  8
0
  6
Continuous
 62
   179
370
    18
100
AcDbLine
 10
6.4645062371
 20
16.1712617198
 30
0.0
 11
6.4645062371
 21
2.9364593988
 31
0.0
  0
LINE
  5
DF
330
7B
100
AcDbEntity
  8
0
  6
Continuous
 62
   179
370
    18
100
AcDbLine
 10
6.4645062371
 20
2.9364593988
 30
0.0
 11
12.0532757459
 21
2.9364593988
 31
0.0
  0
LINE
  5
E0
330
7B
100
AcDbEntity
  8
0
  6
Continuous
 62
   179
370
    18
100
AcDbLine
 10
12.0532757459
 20
2.9364593988
 30
0.0
 11
12.0532757459
 21
16.1712617198
 31
0.0
  0
LINE
  5
E1
330
7B
100
AcDbEntity
  8
0
  6
Continuous
 62
   179
370
    18
100
AcDbLine
 10
12.0532757459
 20
16.1712617198
 30
0.0
 11
6.4645062371
 21
16.1712617198
 31
0.0
  0
LINE
  5
E2
330
7B
100
AcDbEntity
  8
0
  6
Continuous
 62
   179
370
    18
100
AcDbLine
 10
0.0
 20
16.1712617198
 30
0.0
 11
0.0
 21
2.9364593988
 31
0.0
  0
LINE
  5
E3
330
7B
100
AcDbEntity
  8
0
  6
Continuous
 62
   179
370
    18
100
AcDbLine
 10
0.0
 20
2.9364593988
 30
0.0
 11
5.5887695089
 21
2.9364593988
 31
0.0
  0
LINE
  5
E4
330
7B
100
AcDbEntity
  8
0
  6
Continuous
 62
   179
370
    18
100
AcDbLine
 10
5.5887695089
 20
2.9364593988
 30
0.0
 11
5.5887695089
 21
16.1712617198
 31
0.0
  0
LINE
  5
E5
330
7B
100
AcDbEntity
  8
0
  6
Continuous
 62
   179
370
    18
100
AcDbLine
 10
5.5887695089
 20
16.1712617198
 30
0.0
 11
0.0
 21
16.1712617198
 31
0.0
  0
LINE
  5
E6
330
7B
100
AcDbEntity
  8
0
  6
Continuous
 62
   179
370
    18
100
AcDbLine
 10
1.2591262606
 20
4.7264381407
 30
0.0
 11
4.3296432482
 21
4.7264381407
 31
0.0
  0
LINE
  5
E7
330
7B
100
AcDbEntity
  8
0
  6
Continuous
 62
   179
370
    18
100
AcDbLine
 10
4.3738223747
 20
4.0932862697
 30
0.0
 11
5.0758301722
 21
4.0932862697
 31
0.0
  0
LINE
  5
E8
330
7B
100
AcDbEntity
  8
0
  6
Continuous
 62
   179
370
    18
100
AcDbLine
 10
0.5129393366
 20
4.0932862697
 30
0.0
 11
1.2149471342
 21
4.0932862697
 31
0.0
  0
LINE
  5
E9
330
7B
100
AcDbEntity
  8
0
  6
Continuous
 62
   179
370
    18
100
AcDbLine
 10
4.1819643097
 20
5.4284381407
 30
0.0
 11
1.4068051992
 21
5.4284381407
 31
0.0
  0
LINE
  5
EA
330
7B
100
AcDbEntity
  8
0
  6
Continuous
 62
   179
370
    18
100
AcDbLine
 10
18.517781983
 20
16.1712617198
 30
0.0
 11
18.517781983
 21
2.9364593988
 31
0.0
  0
LINE
  5
EB
330
7B
100
AcDbEntity
  8
0
  6
Continuous
 62
   179
370
    18
100
AcDbLine
 10
18.517781983
 20
2.9364593988
 30
0.0
 11
12.9290124742
 21
2.9364593988
 31
0.0
  0
LINE
  5
EC
330
7B
100
AcDbEntity
  8
0
  6
Continuous
 62
   179
370
    18
100
AcDbLine
 10
12.9290124742
 20
2.9364593988
 30
0.0
 11
12.9290124742
 21
16.1712617198
 31
0.0
  0
LINE
  5
ED
330
7B
100
AcDbEntity
  8
0
  6
Continuous
 62
   179
370
    18
100
AcDbLine
 10
12.9290124742
 20
16.1712617198
 30
0.0
 11
18.517781983
 21
16.1712617198
 31
0.0
  0
INSERT
  5
F3
330
7B
100
AcDbEntity
  8
0
  6
Continuous
 62
     7
370
     0
100
AcDbBlockReference
  2
SW_NOTE_0
 10
1.8998941161
 20
-0.3226565443
 30
0.0
  0
INSERT
  5
F8
330
7B
100
AcDbEntity
  8
0
  6
Continuous
 62
     7
370
     0
100
AcDbBlockReference
  2
SW_NOTE_0_1
 10
29.1164837035
 20
12.7459167441
 30
0.0
  0
INSERT
  5
100
330
7B
100
AcDbEntity
  8
0
  6
Continuous
 62
     7
370
     0
100
AcDbBlockReference
  2
SW_NOTE_0_2
 10
28.8863479825
 20
8.6365742194
 30
0.0
  0
ENDBLK
  5
7D
330
7B
100
AcDbEntity
  8
0
100
AcDbBlockEnd
  0
BLOCK
  5
EF
330
EE
100
AcDbEntity
  8
0
100
AcDbBlockBegin
  2
SW_NOTE_0
 70
     0
 10
0.0
 20
0.0
 30
0.0
  3
SW_NOTE_0
  1

  0
MTEXT
  5
F2
330
EE
100
AcDbEntity
  8
0
  6
Continuous
 62
     0
370
     0
100
AcDbMText
 10
7.46875
 20
2.5781354795
 30
0.0
 40
2.0
 41
0.0
 71
     2
 72
     1
  1
www.aco.ch
  7
SLDTEXTSTYLE0
 73
     1
 44
1.0
  0
ENDBLK
  5
F0
330
EE
100
AcDbEntity
  8
0
100
AcDbBlockEnd
  0
BLOCK
  5
F5
330
F4
100
AcDbEntity
  8
0
100
AcDbBlockBegin
  2
SW_NOTE_0_1
 70
     0
 10
0.0
 20
0.0
 30
0.0
  3
SW_NOTE_0_1
  1

  0
MTEXT
  5
F7
330
F4
100
AcDbEntity
  8
0
  6
Continuous
 62
     0
370
     0
100
AcDbMText
 10
0.0
 20
3.8672032193
 30
0.0
 40
3.0
 41
0.0
 71
     1
 72
     1
  1
ACO AG
  7
SLDTEXTSTYLE0
 73
     1
 44
1.0
  0
ENDBLK
  5
F6
330
F4
100
AcDbEntity
  8
0
100
AcDbBlockEnd
  0
BLOCK
  5
FA
330
F9
100
AcDbEntity
  8
0
100
AcDbBlockBegin
  2
SW_NOTE_0_2
 70
     0
 10
0.0
 20
0.0
 30
0.0
  3
SW_NOTE_0_2
  1

  0
MTEXT
  5
FC
330
F9
100
AcDbEntity
  8
0
  6
Continuous
 62
     0
370
     0
100
AcDbMText
 10
0.0
 20
2.5781354795
 30
0.0
 40
2.0
 41
0.0
 71
     1
 72
     1
  1
Industrie Kleinzaun
  7
SLDTEXTSTYLE0
 73
     1
 44
1.0
  0
MTEXT
  5
FD
330
F9
100
AcDbEntity
  8
0
  6
Continuous
 62
     0
370
     0
100
AcDbMText
 10
0.0
 20
-0.4218645465
 30
0.0
 40
2.0
 41
0.0
 71
     1
 72
     1
  1
CH-8754 Netstal
  7
SLDTEXTSTYLE0
 73
     1
 44
1.0
  0
MTEXT
  5
FE
330
F9
100
AcDbEntity
  8
0
  6
Continuous
 62
     0
370
     0
100
AcDbMText
 10
0.0
 20
-3.4218645726
 30
0.0
 40
2.0
 41
0.0
 71
     1
 72
     1
  1
Tel. 055 / 645 53 00
  7
SLDTEXTSTYLE0
 73
     1
 44
1.0
  0
MTEXT
  5
FF
330
F9
100
AcDbEntity
  8
0
  6
Continuous
 62
     0
370
     0
100
AcDbMText
 10
0.0
 20
-6.4218645987
 30
0.0
 40
2.0
 41
0.0
 71
     1
 72
     1
  1
E-Mail: aco@aco.ch
  7
SLDTEXTSTYLE0
 73
     1
 44
1.0
  0
ENDBLK
  5
FB
330
F9
100
AcDbEntity
  8
0
100
AcDbBlockEnd
  0
BLOCK
  5
179
330
178
100
AcDbEntity
  8
0
100
AcDbBlockBegin
  2
SW_NOTE_0_3
 70
     0
 10
0.0
 20
0.0
 30
0.0
  3
SW_NOTE_0_3
  1

  0
MTEXT
  5
17B
330
178
100
AcDbEntity
  8
0
  6
Continuous
 62
     0
370
     0
100
AcDbMText
 10
0.0
 20
1.9336016097
 30
0.0
 40
1.5
 41
0.0
 71
     1
 72
     1
  1
Diese Zeichnung darf weder kopiert
  7
SLDTEXTSTYLE0
 73
     1
 44
1.0
  0
MTEXT
  5
17C
330
178
100
AcDbEntity
  8
0
  6
Continuous
 62
     0
370
     0
100
AcDbMText
 10
0.0
 20
-0.5663983345
 30
0.0
 40
1.5
 41
0.0
 71
     1
 72
     1
  1
noch dritten Personen, insbesondere
  7
SLDTEXTSTYLE0
 73
     1
 44
1.0
  0
MTEXT
  5
17D
330
178
100
AcDbEntity
  8
0
  6
Continuous
 62
     0
370
     0
100
AcDbMText
 10
0.0
 20
-3.0663982786
 30
0.0
 40
1.5
 41
0.0
 71
     1
 72
     1
  1
zum Zweck anderweitiger Benutzung
  7
SLDTEXTSTYLE0
 73
     1
 44
1.0
  0
MTEXT
  5
17E
330
178
100
AcDbEntity
  8
0
  6
Continuous
 62
     0
370
     0
100
AcDbMText
 10
0.0
 20
-5.5663982227
 30
0.0
 40
1.5
 41
0.0
 71
     1
 72
     1
  1
mitgeteilt werden und bleibt unser
  7
SLDTEXTSTYLE0
 73
     1
 44
1.0
  0
MTEXT
  5
17F
330
178
100
AcDbEntity
  8
0
  6
Continuous
 62
     0
370
     0
100
AcDbMText
 10
0.0
 20
-8.0663981668
 30
0.0
 40
1.5
 41
0.0
 71
     1
 72
     1
  1
Eigentum.
  7
SLDTEXTSTYLE0
 73
     1
 44
1.0
  0
ENDBLK
  5
17A
330
178
100
AcDbEntity
  8
0
100
AcDbBlockEnd
  0
BLOCK
  5
205
330
204
100
AcDbEntity
  8
0
100
AcDbBlockBegin
  2
SW_CENTERMARKSYMBOL_0
 70
     0
 10
0.0
 20
0.0
 30
0.0
  3
SW_CENTERMARKSYMBOL_0
  1

  0
LINE
  5
207
330
204
100
AcDbEntity
  8
0
  6
Continuous
 62
     0
370
    18
100
AcDbLine
 10
0.0
 20
0.0
 30
0.0
 11
0.0
 21
2.5
 31
0.0
  0
LINE
  5
208
330
204
100
AcDbEntity
  8
0
  6
Continuous
 62
     0
370
    18
100
AcDbLine
 10
0.0
 20
0.0
 30
0.0
 11
-2.5
 21
0.0
 31
0.0
  0
LINE
  5
209
330
204
100
AcDbEntity
  8
0
  6
Continuous
 62
     0
370
    18
100
AcDbLine
 10
0.0
 20
0.0
 30
0.0
 11
0.0
 21
-2.5
 31
0.0
  0
LINE
  5
20A
330
204
100
AcDbEntity
  8
0
  6
Continuous
 62
     0
370
    18
100
AcDbLine
 10
0.0
 20
0.0
 30
0.0
 11
2.5
 21
0.0
 31
0.0
  0
LINE
  5
20B
330
204
100
AcDbEntity
  8
0
  6
Continuous
 62
     0
370
    18
100
AcDbLine
 10
0.0
 20
5.0
 30
0.0
 11
0.0
 21
46.6524887412
 31
0.0
  0
LINE
  5
20C
330
204
100
AcDbEntity
  8
0
  6
Continuous
 62
     0
370
    18
100
AcDbLine
 10
-5.0
 20
0.0
 30
0.0
 11
-46.6524887412
 21
0.0
 31
0.0
  0
LINE
  5
20D
330
204
100
AcDbEntity
  8
0
  6
Continuous
 62
     0
370
    18
100
AcDbLine
 10
0.0
 20
-5.0
 30
0.0
 11
0.0
 21
-46.6524887412
 31
0.0
  0
LINE
  5
20E
330
204
100
AcDbEntity
  8
0
  6
Continuous
 62
     0
370
    18
100
AcDbLine
 10
5.0
 20
0.0
 30
0.0
 11
46.6524887412
 21
0.0
 31
0.0
  0
ENDBLK
  5
206
330
204
100
AcDbEntity
  8
0
100
AcDbBlockEnd
  0
BLOCK
  5
218
330
217
100
AcDbEntity
  8
0
100
AcDbBlockBegin
  2
SW_BROKEN_VIEW_0
 70
     0
 10
0.0
 20
0.0
 30
0.0
  3
SW_BROKEN_VIEW_0
  1

  0
ENDBLK
  5
219
330
217
100
AcDbEntity
  8
0
100
AcDbBlockEnd
  0
BLOCK
  5
32C
330
32B
100
AcDbEntity
  8
0
100
AcDbBlockBegin
  2
_D
 70
     0
 10
0.0
 20
0.0
 30
0.0
  3
_D
  1

  0
SOLID
  5
32E
330
32B
100
AcDbEntity
  8
0
  6
Continuous
 62
     7
370
    18
100
AcDbTrace
 10
108.3925921497
 20
266.2460021698
 30
0.0
 11
111.8925921497
 21
265.7075406314
 31
0.0
 12
111.8925921497
 22
266.7844637083
 32
0.0
 13
111.8925921497
 23
266.7844637083
 33
0.0
  0
SOLID
  5
32F
330
32B
100
AcDbEntity
  8
0
  6
Continuous
 62
     7
370
    18
100
AcDbTrace
 10
184.3925921497
 20
266.2460021698
 30
0.0
 11
180.8925921497
 21
266.7844637083
 31
0.0
 12
180.8925921497
 22
265.7075406314
 32
0.0
 13
180.8925921497
 23
265.7075406314
 33
0.0
  0
LINE
  5
330
330
32B
100
AcDbEntity
  8
0
  6
Continuous
 62
     7
370
     0
100
AcDbLine
 10
108.3925921497
 20
256.3460021698
 30
0.0
 11
108.3925921497
 21
267.2460021698
 31
0.0
  0
LINE
  5
331
330
32B
100
AcDbEntity
  8
0
  6
Continuous
 62
     7
370
     0
100
AcDbLine
 10
184.3925921497
 20
256.3460021698
 30
0.0
 11
184.3925921497
 21
267.2460021698
 31
0.0
  0
LINE
  5
332
330
32B
100
AcDbEntity
  8
0
  6
Continuous
 62
     7
370
     0
100
AcDbLine
 10
108.3925921497
 20
266.2460021698
 30
0.0
 11
184.3925921497
 21
266.2460021698
 31
0.0
  0
MTEXT
  5
333
330
32B
100
AcDbEntity
  8
0
  6
Continuous
 62
     7
370
    18
100
AcDbMText
 10
141.167505565
 20
270.757739259
 30
0.0
 40
3.5
 41
0.0
 71
     1
 72
     1
  1
%%c
  7
SLDTEXTSTYLE0
 73
     1
 44
1.0
  0
MTEXT
  5
334
330
32B
100
AcDbEntity
  8
0
  6
Continuous
 62
     7
370
    18
100
AcDbMText
 10
146.2704571103
 20
270.7674615682
 30
0.0
 40
3.5
 41
0.0
 71
     1
 72
     1
  1
76
  7
SLDTEXTSTYLE0
 73
     1
 44
1.0
  0
ENDBLK
  5
32D
330
32B
100
AcDbEntity
  8
0
100
AcDbBlockEnd
  0
BLOCK
  5
337
330
336
100
AcDbEntity
  8
0
100
AcDbBlockBegin
  2
_D_1
 70
     0
 10
0.0
 20
0.0
 30
0.0
  3
_D_1
  1

  0
SOLID
  5
339
330
336
100
AcDbEntity
  8
0
  6
Continuous
 62
     7
370
    18
100
AcDbTrace
 10
108.8925921497
 20
124.8371426672
 30
0.0
 11
112.3925921497
 21
124.2986811288
 31
0.0
 12
112.3925921497
 22
125.3756042057
 32
0.0
 13
112.3925921497
 23
125.3756042057
 33
0.0
  0
SOLID
  5
33A
330
336
100
AcDbEntity
  8
0
  6
Continuous
 62
     7
370
    18
100
AcDbTrace
 10
183.8925921497
 20
124.8371426672
 30
0.0
 11
180.3925921497
 21
125.3756042057
 31
0.0
 12
180.3925921497
 22
124.2986811288
 32
0.0
 13
180.3925921497
 23
124.2986811288
 33
0.0
  0
LINE
  5
33B
330
336
100
AcDbEntity
  8
0
  6
Continuous
 62
     7
370
     0
100
AcDbLine
 10
108.8925921497
 20
140.3228714131
 30
0.0
 11
108.8925921497
 21
123.8371426672
 31
0.0
  0
LINE
  5
33C
330
336
100
AcDbEntity
  8
0
  6
Continuous
 62
     7
370
     0
100
AcDbLine
 10
183.8925921497
 20
140.3228714131
 30
0.0
 11
183.8925921497
 21
123.8371426672
 31
0.0
  0
LINE
  5
33D
330
336
100
AcDbEntity
  8
0
  6
Continuous
 62
     7
370
     0
100
AcDbLine
 10
108.8925921497
 20
124.8371426672
 30
0.0
 11
183.8925921497
 21
124.8371426672
 31
0.0
  0
MTEXT
  5
33E
330
336
100
AcDbEntity
  8
0
  6
Continuous
 62
     7
370
    18
100
AcDbMText
 10
141.167505565
 20
129.3488797564
 30
0.0
 40
3.5
 41
0.0
 71
     1
 72
     1
  1
%%c
  7
SLDTEXTSTYLE0
 73
     1
 44
1.0
  0
MTEXT
  5
33F
330
336
100
AcDbEntity
  8
0
  6
Continuous
 62
     7
370
    18
100
AcDbMText
 10
146.2704571103
 20
129.3586020656
 30
0.0
 40
3.5
 41
0.0
 71
     1
 72
     1
  1
75
  7
SLDTEXTSTYLE0
 73
     1
 44
1.0
  0
ENDBLK
  5
338
330
336
100
AcDbEntity
  8
0
100
AcDbBlockEnd
  0
BLOCK
  5
342
330
341
100
AcDbEntity
  8
0
100
AcDbBlockBegin
  2
_D_2
 70
     0
 10
0.0
 20
0.0
 30
0.0
  3
_D_2
  1

  0
SOLID
  5
344
330
341
100
AcDbEntity
  8
0
  6
Continuous
 62
     7
370
    18
100
AcDbTrace
 10
200.5501182215
 20
134.4819933656
 30
0.0
 11
201.0885797599
 21
137.9819933656
 31
0.0
 12
200.011656683
 22
137.9819933656
 32
0.0
 13
200.011656683
 23
137.9819933656
 33
0.0
  0
SOLID
  5
345
330
341
100
AcDbEntity
  8
0
  6
Continuous
 62
     7
370
    18
100
AcDbTrace
 10
200.5501182215
 20
256.2460021698
 30
0.0
 11
200.011656683
 21
252.7460021698
 31
0.0
 12
201.0885797599
 22
252.7460021698
 32
0.0
 13
201.0885797599
 23
252.7460021698
 33
0.0
  0
LINE
  5
346
330
341
100
AcDbEntity
  8
0
  6
Continuous
 62
     7
370
     0
100
AcDbLine
 10
182.5725921497
 20
134.4819933656
 30
0.0
 11
201.5501182215
 21
134.4819933656
 31
0.0
  0
LINE
  5
347
330
341
100
AcDbEntity
  8
0
  6
Continuous
 62
     7
370
     0
100
AcDbLine
 10
185.4925921497
 20
256.2460021698
 30
0.0
 11
201.5501182215
 21
256.2460021698
 31
0.0
  0
LINE
  5
348
330
341
100
AcDbEntity
  8
0
  6
Continuous
 62
     7
370
     0
100
AcDbLine
 10
200.5501182215
 20
134.4819933656
 30
0.0
 11
200.5501182215
 21
256.2460021698
 31
0.0
  0
MTEXT
  5
349
330
341
100
AcDbEntity
  8
0
  6
Continuous
 62
     7
370
    18
100
AcDbMText
 10
196.0383808994
 20
190.016775678
 30
0.0
 40
3.5
 41
0.0
 71
     1
 72
     1
  1
1050
  7
SLDTEXTSTYLE0
 11
6.123233995736766E-17
 21
1.0
 31
0.0
 73
     1
 44
1.0
  0
ENDBLK
  5
343
330
341
100
AcDbEntity
  8
0
100
AcDbBlockEnd
  0
BLOCK
  5
350
330
34F
100
AcDbEntity
  8
0
100
AcDbBlockBegin
  2
SW_HATCH_0
 70
     0
 10
0.0
 20
0.0
 30
0.0
  3
SW_HATCH_0
  1

  0
LINE
  5
352
330
34F
100
AcDbEntity
  8
0
  6
Continuous
 62
     0
370
    18
100
AcDbLine
 10
0.0
 20
0.0
 30
0.0
 11
-0.1660883427
 21
-0.1660585403
 31
0.0
  0
LINE
  5
353
330
34F
100
AcDbEntity
  8
0
  6
Continuous
 62
     0
370
    18
100
AcDbLine
 10
0.8339136839
 20
-1.4111399651
 30
0.0
 11
-0.1660883427
 21
-2.4111270905
 31
0.0
  0
LINE
  5
354
330
34F
100
AcDbEntity
  8
0
  6
Continuous
 62
     0
370
    18
100
AcDbLine
 10
0.8339136839
 20
-3.6562085152
 30
0.0
 11
-0.0786110759
 21
-4.568696022
 31
0.0
  0
LINE
  5
355
330
34F
100
AcDbEntity
  8
0
  6
Continuous
 62
     0
370
    18
100
AcDbLine
 10
1.4457851648
 20
-5.289375782
 30
0.0
 11
0.7386021316
 21
-5.9965848923
 31
0.0
  0
LINE
  5
356
330
34F
100
AcDbEntity
  8
0
  6
Continuous
 62
     0
370
    18
100
AcDbLine
 10
2.9791034758
 20
-6.0011148453
 30
0.0
 11
2.1862015128
 21
-6.7940354347
 31
0.0
  0
LINE
  5
357
330
34F
100
AcDbEntity
  8
0
  6
Continuous
 62
     0
370
    18
100
AcDbLine
 10
4.4592879713
 20
-6.7660212517
 30
0.0
 11
3.7511400878
 21
-7.4741840363
 31
0.0
  0
LINE
  5
358
330
34F
100
AcDbEntity
  8
0
  6
Continuous
 62
     0
370
    18
100
AcDbLine
 10
5.317799747
 20
-8.1525444984
 30
0.0
 11
4.4339112937
 21
-9.0364217758
 31
0.0
  0
LINE
  5
359
330
34F
100
AcDbEntity
  8
0
  6
Continuous
 62
     0
370
    18
100
AcDbLine
 10
5.4339133203
 20
-10.2815032005
 30
0.0
 11
4.4339112937
 21
-11.2814903259
 31
0.0
  0
LINE
  5
35A
330
34F
100
AcDbEntity
  8
0
  6
Continuous
 62
     0
370
    18
100
AcDbLine
 10
5.4339133203
 20
-12.5265717506
 30
0.0
 11
4.4339112937
 21
-13.526558876
 31
0.0
  0
LINE
  5
35B
330
34F
100
AcDbEntity
  8
0
  6
Continuous
 62
     0
370
    18
100
AcDbLine
 10
5.4339133203
 20
-14.7716403008
 30
0.0
 11
4.4339112937
 21
-15.7716274261
 31
0.0
  0
LINE
  5
35C
330
34F
100
AcDbEntity
  8
0
  6
Continuous
 62
     0
370
    18
100
AcDbLine
 10
5.4339133203
 20
-17.0167088509
 30
0.0
 11
4.4339112937
 21
-18.0166959763
 31
0.0
  0
LINE
  5
35D
330
34F
100
AcDbEntity
  8
0
  6
Continuous
 62
     0
370
    18
100
AcDbLine
 10
0.8032657206
 20
-23.8924026489
 30
0.0
 11
0.2572089434
 21
-24.4385004044
 31
0.0
  0
LINE
  5
35E
330
34F
100
AcDbEntity
  8
0
  6
Continuous
 62
     0
370
    18
100
AcDbLine
 10
5.4339133203
 20
-19.261777401
 30
0.0
 11
4.4339112937
 21
-20.2617645264
 31
0.0
  0
LINE
  5
35F
330
34F
100
AcDbEntity
  8
0
  6
Continuous
 62
     0
370
    18
100
AcDbLine
 10
0.6339140236
 20
-26.3068377972
 30
0.0
 11
-0.3660880029
 21
-27.3068249226
 31
0.0
  0
LINE
  5
360
330
34F
100
AcDbEntity
  8
0
  6
Continuous
 62
     0
370
    18
100
AcDbLine
 10
5.4001957178
 20
-21.5405225754
 30
0.0
 11
2.8285160661
 21
-24.1122245789
 31
0.0
  0
LINE
  5
361
330
34F
100
AcDbEntity
  8
0
  6
Continuous
 62
     0
370
    18
100
AcDbLine
 10
0.6339140236
 20
-28.5519063473
 30
0.0
 11
-0.3660880029
 21
-29.5518934727
 31
0.0
  0
LINE
  5
362
330
34F
100
AcDbEntity
  8
0
  6
Continuous
 62
     0
370
    18
100
AcDbLine
 10
0.6339140236
 20
-30.7969748974
 30
0.0
 11
-0.3660880029
 21
-31.7969620228
 31
0.0
  0
LINE
  5
363
330
34F
100
AcDbEntity
  8
0
  6
Continuous
 62
     0
370
    18
100
AcDbLine
 10
0.6339140236
 20
-33.0420136452
 30
0.0
 11
-0.3660880029
 21
-34.0420305729
 31
0.0
  0
LINE
  5
364
330
34F
100
AcDbEntity
  8
0
  6
Continuous
 62
     0
370
    18
100
AcDbLine
 10
0.6339140236
 20
-35.2870821953
 30
0.0
 11
-0.3660880029
 21
-36.287099123
 31
0.0
  0
LINE
  5
365
330
34F
100
AcDbEntity
  8
0
  6
Continuous
 62
     0
370
    18
100
AcDbLine
 10
0.6339140236
 20
-37.5321507454
 30
0.0
 11
-0.3660880029
 21
-38.5321676731
 31
0.0
  0
LINE
  5
366
330
34F
100
AcDbEntity
  8
0
  6
Continuous
 62
     0
370
    18
100
AcDbLine
 10
0.6339140236
 20
-39.7772192955
 30
0.0
 11
-0.3660880029
 21
-40.7772064209
 31
0.0
  0
LINE
  5
367
330
34F
100
AcDbEntity
  8
0
  6
Continuous
 62
     0
370
    18
100
AcDbLine
 10
0.6339140236
 20
-42.0222878456
 30
0.0
 11
-0.3660880029
 21
-43.022274971
 31
0.0
  0
LINE
  5
368
330
34F
100
AcDbEntity
  8
0
  6
Continuous
 62
     0
370
    18
100
AcDbLine
 10
0.6339140236
 20
-44.2673563957
 30
0.0
 11
-0.3660880029
 21
-45.2673435211
 31
0.0
  0
LINE
  5
369
330
34F
100
AcDbEntity
  8
0
  6
Continuous
 62
     0
370
    18
100
AcDbLine
 10
0.6339140236
 20
-46.5123951435
 30
0.0
 11
-0.3660880029
 21
-47.5124120712
 31
0.0
  0
LINE
  5
36A
330
34F
100
AcDbEntity
  8
0
  6
Continuous
 62
     0
370
    18
100
AcDbLine
 10
0.6339140236
 20
-48.7574636936
 30
0.0
 11
-0.3660880029
 21
-49.7574806213
 31
0.0
  0
LINE
  5
36B
330
34F
100
AcDbEntity
  8
0
  6
Continuous
 62
     0
370
    18
100
AcDbLine
 10
0.6339140236
 20
-51.0025322437
 30
0.0
 11
-0.4770644009
 21
-52.1135032177
 31
0.0
  0
LINE
  5
36C
330
34F
100
AcDbEntity
  8
0
  6
Continuous
 62
     0
370
    18
100
AcDbLine
 10
0.0404678285
 20
-53.8410544395
 30
0.0
 11
-1.4657080173
 21
-55.3472340107
 31
0.0
  0
LINE
  5
36D
330
34F
100
AcDbEntity
  8
0
  6
Continuous
 62
     0
370
    18
100
AcDbLine
 10
-0.6660856307
 20
-56.7926764488
 30
0.0
 11
-1.6660876572
 21
-57.7926635742
 31
0.0
  0
LINE
  5
36E
330
34F
100
AcDbEntity
  8
0
  6
Continuous
 62
     0
370
    18
100
AcDbLine
 10
-0.6660856307
 20
-59.0377151966
 30
0.0
 11
-1.6660876572
 21
-60.0377321243
 31
0.0
  0
LINE
  5
36F
330
34F
100
AcDbEntity
  8
0
  6
Continuous
 62
     0
370
    18
100
AcDbLine
 10
-0.6660856307
 20
-61.2827837467
 30
0.0
 11
-1.6660876572
 21
-62.2828006744
 31
0.0
  0
LINE
  5
370
330
34F
100
AcDbEntity
  8
0
  6
Continuous
 62
     0
370
    18
100
AcDbLine
 10
-0.6660856307
 20
-63.5278522968
 30
0.0
 11
-1.6660876572
 21
-64.5278692245
 31
0.0
  0
LINE
  5
371
330
34F
100
AcDbEntity
  8
0
  6
Continuous
 62
     0
370
    18
100
AcDbLine
 10
-0.6660856307
 20
-65.7729208469
 30
0.0
 11
-1.6660876572
 21
-66.7729079723
 31
0.0
  0
LINE
  5
372
330
34F
100
AcDbEntity
  8
0
  6
Continuous
 62
     0
370
    18
100
AcDbLine
 10
-0.6660856307
 20
-68.017989397
 30
0.0
 11
-1.6660876572
 21
-69.0179765224
 31
0.0
  0
LINE
  5
373
330
34F
100
AcDbEntity
  8
0
  6
Continuous
 62
     0
370
    18
100
AcDbLine
 10
-0.6660856307
 20
-70.2630579472
 30
0.0
 11
-1.6660876572
 21
-71.2630450726
 31
0.0
  0
LINE
  5
374
330
34F
100
AcDbEntity
  8
0
  6
Continuous
 62
     0
370
    18
100
AcDbLine
 10
-0.6660856307
 20
-72.5081264973
 30
0.0
 11
-1.6660876572
 21
-73.5081136227
 31
0.0
  0
LINE
  5
375
330
34F
100
AcDbEntity
  8
0
  6
Continuous
 62
     0
370
    18
100
AcDbLine
 10
-0.6660856307
 20
-74.7531652451
 30
0.0
 11
-1.6660876572
 21
-75.7531821728
 31
0.0
  0
LINE
  5
376
330
34F
100
AcDbEntity
  8
0
  6
Continuous
 62
     0
370
    18
100
AcDbLine
 10
-0.6660856307
 20
-76.9982337952
 30
0.0
 11
-1.6660876572
 21
-77.9982507229
 31
0.0
  0
LINE
  5
377
330
34F
100
AcDbEntity
  8
0
  6
Continuous
 62
     0
370
    18
100
AcDbLine
 10
-76.3321742415
 20
0.0
 30
0.0
 11
-77.1660879254
 21
-0.8338689804
 31
0.0
  0
LINE
  5
378
330
34F
100
AcDbEntity
  8
0
  6
Continuous
 62
     0
370
    18
100
AcDbLine
 10
-76.1660858989
 20
-2.0789504051
 30
0.0
 11
-77.1660879254
 21
-3.0789375305
 31
0.0
  0
LINE
  5
379
330
34F
100
AcDbEntity
  8
0
  6
Continuous
 62
     0
370
    18
100
AcDbLine
 10
-80.7653069496
 20
-8.9232325554
 30
0.0
 11
-81.7660875618
 21
-9.9239945412
 31
0.0
  0
LINE
  5
37A
330
34F
100
AcDbEntity
  8
0
  6
Continuous
 62
     0
370
    18
100
AcDbLine
 10
-76.2114711106
 20
-4.3693780899
 30
0.0
 11
-78.693266958
 21
-6.8511962891
 31
0.0
  0
LINE
  5
37B
330
34F
100
AcDbEntity
  8
0
  6
Continuous
 62
     0
370
    18
100
AcDbLine
 10
-80.7660855353
 20
-11.1690759659
 30
0.0
 11
-81.7660875618
 21
-12.1690630913
 31
0.0
  0
LINE
  5
37C
330
34F
100
AcDbEntity
  8
0
  6
Continuous
 62
     0
370
    18
100
AcDbLine
 10
-80.7660855353
 20
-13.414144516
 30
0.0
 11
-81.7660875618
 21
-14.4141316414
 31
0.0
  0
LINE
  5
37D
330
34F
100
AcDbEntity
  8
0
  6
Continuous
 62
     0
370
    18
100
AcDbLine
 10
-80.7660855353
 20
-15.6592130661
 30
0.0
 11
-81.7660875618
 21
-16.6592001915
 31
0.0
  0
LINE
  5
37E
330
34F
100
AcDbEntity
  8
0
  6
Continuous
 62
     0
370
    18
100
AcDbLine
 10
-80.7660855353
 20
-17.9042816162
 30
0.0
 11
-81.7660875618
 21
-18.9042687416
 31
0.0
  0
LINE
  5
37F
330
34F
100
AcDbEntity
  8
0
  6
Continuous
 62
     0
370
    18
100
AcDbLine
 10
-80.7660855353
 20
-20.1493501663
 30
0.0
 11
-81.76555112
 21
-21.1488008499
 31
0.0
  0
LINE
  5
380
330
34F
100
AcDbEntity
  8
0
  6
Continuous
 62
     0
370
    18
100
AcDbLine
 10
-80.4854221642
 20
-22.1137404442
 30
0.0
 11
-81.2073461711
 21
-22.8356719017
 31
0.0
  0
LINE
  5
381
330
34F
100
AcDbEntity
  8
0
  6
Continuous
 62
     0
370
    18
100
AcDbLine
 10
-79.1836902499
 20
-23.0570435524
 30
0.0
 11
-79.9675546587
 21
-23.8409042358
 31
0.0
  0
LINE
  5
382
330
34F
100
AcDbEntity
  8
0
  6
Continuous
 62
     0
370
    18
100
AcDbLine
 10
-77.5214284658
 20
-23.639857769
 30
0.0
 11
-78.27417925
 21
-24.3926048279
 31
0.0
  0
LINE
  5
383
330
34F
100
AcDbEntity
  8
0
  6
Continuous
 62
     0
370
    18
100
AcDbLine
 10
-76.3818696141
 20
-24.7453451157
 30
0.0
 11
-77.1248042583
 21
-25.4883170128
 31
0.0
  0
LINE
  5
384
330
34F
100
AcDbEntity
  8
0
  6
Continuous
 62
     0
370
    18
100
AcDbLine
 10
-75.9660862386
 20
-26.5746414661
 30
0.0
 11
-76.9660882652
 21
-27.5746583939
 31
0.0
  0
LINE
  5
385
330
34F
100
AcDbEntity
  8
0
  6
Continuous
 62
     0
370
    18
100
AcDbLine
 10
-75.9660862386
 20
-28.8197100163
 30
0.0
 11
-76.9660882652
 21
-29.819726944
 31
0.0
  0
LINE
  5
386
330
34F
100
AcDbEntity
  8
0
  6
Continuous
 62
     0
370
    18
100
AcDbLine
 10
-75.9660862386
 20
-31.0647785664
 30
0.0
 11
-76.9660882652
 21
-32.0647954941
 31
0.0
  0
LINE
  5
387
330
34F
100
AcDbEntity
  8
0
  6
Continuous
 62
     0
370
    18
100
AcDbLine
 10
-75.9660862386
 20
-33.3098471165
 30
0.0
 11
-76.9660882652
 21
-34.3098342419
 31
0.0
  0
LINE
  5
388
330
34F
100
AcDbEntity
  8
0
  6
Continuous
 62
     0
370
    18
100
AcDbLine
 10
-75.9660862386
 20
-35.5549156666
 30
0.0
 11
-76.9660882652
 21
-36.554902792
 31
0.0
  0
LINE
  5
389
330
34F
100
AcDbEntity
  8
0
  6
Continuous
 62
     0
370
    18
100
AcDbLine
 10
-75.9660862386
 20
-37.7999842167
 30
0.0
 11
-76.9660882652
 21
-38.7999713421
 31
0.0
  0
LINE
  5
38A
330
34F
100
AcDbEntity
  8
0
  6
Continuous
 62
     0
370
    18
100
AcDbLine
 10
-75.9660862386
 20
-40.0450527668
 30
0.0
 11
-76.9660882652
 21
-41.0450398922
 31
0.0
  0
LINE
  5
38B
330
34F
100
AcDbEntity
  8
0
  6
Continuous
 62
     0
370
    18
100
AcDbLine
 10
-75.9660862386
 20
-42.2900915146
 30
0.0
 11
-76.9660882652
 21
-43.2901084423
 31
0.0
  0
LINE
  5
38C
330
34F
100
AcDbEntity
  8
0
  6
Continuous
 62
     0
370
    18
100
AcDbLine
 10
-75.9660862386
 20
-44.5351600647
 30
0.0
 11
-76.9660882652
 21
-45.5351769924
 31
0.0
  0
LINE
  5
38D
330
34F
100
AcDbEntity
  8
0
  6
Continuous
 62
     0
370
    18
100
AcDbLine
 10
-75.9660862386
 20
-46.7802286148
 30
0.0
 11
-76.9660882652
 21
-47.7802455425
 31
0.0
  0
LINE
  5
38E
330
34F
100
AcDbEntity
  8
0
  6
Continuous
 62
     0
370
    18
100
AcDbLine
 10
-75.9660862386
 20
-49.0252971649
 30
0.0
 11
-76.9660882652
 21
-50.0252842903
 31
0.0
  0
LINE
  5
38F
330
34F
100
AcDbEntity
  8
0
  6
Continuous
 62
     0
370
    18
100
AcDbLine
 10
-75.9660862386
 20
-51.270365715
 30
0.0
 11
-76.8762044609
 21
-52.1804690361
 31
0.0
  0
LINE
  5
390
330
34F
100
AcDbEntity
  8
0
  6
Continuous
 62
     0
370
    18
100
AcDbLine
 10
-75.5528435111
 20
-53.1021952629
 30
0.0
 11
-76.3536915183
 21
-53.9030432701
 31
0.0
  0
LINE
  5
391
330
34F
100
AcDbEntity
  8
0
  6
Continuous
 62
     0
370
    18
100
AcDbLine
 10
-75.0271715224
 20
-54.8215806484
 30
0.0
 11
-75.8280195296
 21
-55.6224286556
 31
0.0
  0
LINE
  5
392
330
34F
100
AcDbEntity
  8
0
  6
Continuous
 62
     0
370
    18
100
AcDbLine
 10
-74.6660865843
 20
-56.7055642605
 30
0.0
 11
-75.6660886109
 21
-57.7055513859
 31
0.0
  0
LINE
  5
393
330
34F
100
AcDbEntity
  8
0
  6
Continuous
 62
     0
370
    18
100
AcDbLine
 10
-74.6660865843
 20
-58.9506030083
 30
0.0
 11
-75.6660886109
 21
-59.950619936
 31
0.0
  0
LINE
  5
394
330
34F
100
AcDbEntity
  8
0
  6
Continuous
 62
     0
370
    18
100
AcDbLine
 10
-74.6660865843
 20
-61.1956715584
 30
0.0
 11
-75.6660886109
 21
-62.1956884861
 31
0.0
  0
LINE
  5
395
330
34F
100
AcDbEntity
  8
0
  6
Continuous
 62
     0
370
    18
100
AcDbLine
 10
-74.6660865843
 20
-63.4407401085
 30
0.0
 11
-75.6660886109
 21
-64.4407570362
 31
0.0
  0
LINE
  5
396
330
34F
100
AcDbEntity
  8
0
  6
Continuous
 62
     0
370
    18
100
AcDbLine
 10
-74.6660865843
 20
-65.6858086586
 30
0.0
 11
-75.6660886109
 21
-66.685795784
 31
0.0
  0
LINE
  5
397
330
34F
100
AcDbEntity
  8
0
  6
Continuous
 62
     0
370
    18
100
AcDbLine
 10
-74.6660865843
 20
-67.9308772087
 30
0.0
 11
-75.6660886109
 21
-68.9308643341
 31
0.0
  0
LINE
  5
398
330
34F
100
AcDbEntity
  8
0
  6
Continuous
 62
     0
370
    18
100
AcDbLine
 10
-74.6660865843
 20
-70.1759457588
 30
0.0
 11
-75.6660886109
 21
-71.1759328842
 31
0.0
  0
LINE
  5
399
330
34F
100
AcDbEntity
  8
0
  6
Continuous
 62
     0
370
    18
100
AcDbLine
 10
-74.6660865843
 20
-72.4210143089
 30
0.0
 11
-75.6660886109
 21
-73.4210014343
 31
0.0
  0
LINE
  5
39A
330
34F
100
AcDbEntity
  8
0
  6
Continuous
 62
     0
370
    18
100
AcDbLine
 10
-74.6660865843
 20
-74.6660530567
 30
0.0
 11
-75.6660886109
 21
-75.6660699844
 31
0.0
  0
LINE
  5
39B
330
34F
100
AcDbEntity
  8
0
  6
Continuous
 62
     0
370
    18
100
AcDbLine
 10
0.2806335688
 20
-7.5770616531
 30
0.0
 11
0.8419007063
 21
-7.0158243179
 31
0.0
  0
LINE
  5
39C
330
34F
100
AcDbEntity
  8
0
  6
Continuous
 62
     0
370
    18
100
AcDbLine
 10
1.4031678438
 20
-7.5770616531
 30
0.0
 11
1.9644312561
 21
-7.0158243179
 31
0.0
  0
LINE
  5
39D
330
34F
100
AcDbEntity
  8
0
  6
Continuous
 62
     0
370
    18
100
AcDbLine
 10
-0.2806298435
 20
-9.260892868
 30
0.0
 11
0.2806335688
 21
-8.6995959282
 31
0.0
  0
LINE
  5
39E
330
34F
100
AcDbEntity
  8
0
  6
Continuous
 62
     0
370
    18
100
AcDbLine
 10
2.5256983936
 20
-7.5770616531
 30
0.0
 11
3.0706338584
 21
-7.0321559906
 31
0.0
  0
LINE
  5
39F
330
34F
100
AcDbEntity
  8
0
  6
Continuous
 62
     0
370
    18
100
AcDbLine
 10
0.8419007063
 20
-9.260892868
 30
0.0
 11
1.4031678438
 21
-8.6995959282
 31
0.0
  0
LINE
  5
3A0
330
34F
100
AcDbEntity
  8
0
  6
Continuous
 62
     0
370
    18
100
AcDbLine
 10
-0.841896981
 20
-10.9446644783
 30
0.0
 11
-0.2806298435
 21
-10.3833675385
 31
0.0
  0
LINE
  5
3A1
330
34F
100
AcDbEntity
  8
0
  6
Continuous
 62
     0
370
    18
100
AcDbLine
 10
3.6482289433
 20
-7.5770616531
 30
0.0
 11
3.7822909653
 21
-7.443010807
 31
0.0
  0
LINE
  5
3A2
330
34F
100
AcDbEntity
  8
0
  6
Continuous
 62
     0
370
    18
100
AcDbLine
 10
1.9644312561
 20
-9.260892868
 30
0.0
 11
2.5256983936
 21
-8.6995959282
 31
0.0
  0
LINE
  5
3A3
330
34F
100
AcDbEntity
  8
0
  6
Continuous
 62
     0
370
    18
100
AcDbLine
 10
0.2806335688
 20
-10.9446644783
 30
0.0
 11
0.8419007063
 21
-10.3833675385
 31
0.0
  0
LINE
  5
3A4
330
34F
100
AcDbEntity
  8
0
  6
Continuous
 62
     0
370
    18
100
AcDbLine
 10
3.0869655311
 20
-9.260892868
 30
0.0
 11
3.6482289433
 21
-8.6995959282
 31
0.0
  0
LINE
  5
3A5
330
34F
100
AcDbEntity
  8
0
  6
Continuous
 62
     0
370
    18
100
AcDbLine
 10
1.4031678438
 20
-10.9446644783
 30
0.0
 11
1.9644312561
 21
-10.3833675385
 31
0.0
  0
LINE
  5
3A6
330
34F
100
AcDbEntity
  8
0
  6
Continuous
 62
     0
370
    18
100
AcDbLine
 10
-0.1527741551
 20
-12.5005841255
 30
0.0
 11
0.2806335688
 21
-12.0671987534
 31
0.0
  0
LINE
  5
3A7
330
34F
100
AcDbEntity
  8
0
  6
Continuous
 62
     0
370
    18
100
AcDbLine
 10
2.5256983936
 20
-10.9446644783
 30
0.0
 11
3.0869655311
 21
-10.3833675385
 31
0.0
  0
LINE
  5
3A8
330
34F
100
AcDbEntity
  8
0
  6
Continuous
 62
     0
370
    18
100
AcDbLine
 10
0.8419007063
 20
-12.6284360886
 30
0.0
 11
1.4031678438
 21
-12.0671987534
 31
0.0
  0
LINE
  5
3A9
330
34F
100
AcDbEntity
  8
0
  6
Continuous
 62
     0
370
    18
100
AcDbLine
 10
-1.4031641185
 20
-15.9960389137
 30
0.0
 11
-1.3406313956
 21
-15.9335136414
 31
0.0
  0
LINE
  5
3AA
330
34F
100
AcDbEntity
  8
0
  6
Continuous
 62
     0
370
    18
100
AcDbLine
 10
3.6482289433
 20
-10.9446644783
 30
0.0
 11
4.1932612658
 21
-10.3996396065
 31
0.0
  0
LINE
  5
3AB
330
34F
100
AcDbEntity
  8
0
  6
Continuous
 62
     0
370
    18
100
AcDbLine
 10
1.9644312561
 20
-12.6284360886
 30
0.0
 11
2.5256983936
 21
-12.0671987534
 31
0.0
  0
LINE
  5
3AC
330
34F
100
AcDbEntity
  8
0
  6
Continuous
 62
     0
370
    18
100
AcDbLine
 10
0.2806335688
 20
-14.3122673035
 30
0.0
 11
0.8419007063
 21
-13.7509703636
 31
0.0
  0
LINE
  5
3AD
330
34F
100
AcDbEntity
  8
0
  6
Continuous
 62
     0
370
    18
100
AcDbLine
 10
-1.9644312561
 20
-17.6798701286
 30
0.0
 11
-1.8552541733
 21
-17.5706744194
 31
0.0
  0
LINE
  5
3AE
330
34F
100
AcDbEntity
  8
0
  6
Continuous
 62
     0
370
    18
100
AcDbLine
 10
3.0869655311
 20
-12.6284360886
 30
0.0
 11
3.6482289433
 21
-12.0671987534
 31
0.0
  0
LINE
  5
3AF
330
34F
100
AcDbEntity
  8
0
  6
Continuous
 62
     0
370
    18
100
AcDbLine
 10
1.4031678438
 20
-14.3122673035
 30
0.0
 11
1.9644312561
 21
-13.7509703636
 31
0.0
  0
LINE
  5
3B0
330
34F
100
AcDbEntity
  8
0
  6
Continuous
 62
     0
370
    18
100
AcDbLine
 10
-0.2806298435
 20
-15.9960389137
 30
0.0
 11
0.2806335688
 21
-15.4348015785
 31
0.0
  0
LINE
  5
3B1
330
34F
100
AcDbEntity
  8
0
  6
Continuous
 62
     0
370
    18
100
AcDbLine
 10
2.5256983936
 20
-14.3122673035
 30
0.0
 11
3.0869655311
 21
-13.7509703636
 31
0.0
  0
LINE
  5
3B2
330
34F
100
AcDbEntity
  8
0
  6
Continuous
 62
     0
370
    18
100
AcDbLine
 10
0.8419007063
 20
-15.9960389137
 30
0.0
 11
1.4031678438
 21
-15.4348015785
 31
0.0
  0
LINE
  5
3B3
330
34F
100
AcDbEntity
  8
0
  6
Continuous
 62
     0
370
    18
100
AcDbLine
 10
-0.841896981
 20
-17.6798701286
 30
0.0
 11
-0.2806298435
 21
-17.1185731888
 31
0.0
  0
LINE
  5
3B4
330
34F
100
AcDbEntity
  8
0
  6
Continuous
 62
     0
370
    18
100
AcDbLine
 10
-2.2149309516
 20
-19.052863121
 30
0.0
 11
-1.9644312561
 21
-18.8024044037
 31
0.0
  0
LINE
  5
3B5
330
34F
100
AcDbEntity
  8
0
  6
Continuous
 62
     0
370
    18
100
AcDbLine
 10
3.6482289433
 20
-14.3122673035
 30
0.0
 11
4.2094960809
 21
-13.7509703636
 31
0.0
  0
LINE
  5
3B6
330
34F
100
AcDbEntity
  8
0
  6
Continuous
 62
     0
370
    18
100
AcDbLine
 10
1.9644312561
 20
-15.9960389137
 30
0.0
 11
2.5256983936
 21
-15.4348015785
 31
0.0
  0
LINE
  5
3B7
330
34F
100
AcDbEntity
  8
0
  6
Continuous
 62
     0
370
    18
100
AcDbLine
 10
0.2806335688
 20
-17.6798701286
 30
0.0
 11
0.8419007063
 21
-17.1185731888
 31
0.0
  0
LINE
  5
3B8
330
34F
100
AcDbEntity
  8
0
  6
Continuous
 62
     0
370
    18
100
AcDbLine
 10
-1.2984760106
 20
-19.2589759827
 30
0.0
 11
-0.841896981
 21
-18.8024044037
 31
0.0
  0
LINE
  5
3B9
330
34F
100
AcDbEntity
  8
0
  6
Continuous
 62
     0
370
    18
100
AcDbLine
 10
3.0869655311
 20
-15.9960389137
 30
0.0
 11
3.6482289433
 21
-15.4348015785
 31
0.0
  0
LINE
  5
3BA
330
34F
100
AcDbEntity
  8
0
  6
Continuous
 62
     0
370
    18
100
AcDbLine
 10
1.4031678438
 20
-17.6798701286
 30
0.0
 11
1.9644312561
 21
-17.1185731888
 31
0.0
  0
LINE
  5
3BB
330
34F
100
AcDbEntity
  8
0
  6
Continuous
 62
     0
370
    18
100
AcDbLine
 10
-0.2396516502
 20
-19.3226933479
 30
0.0
 11
0.2806335688
 21
-18.8024044037
 31
0.0
  0
LINE
  5
3BC
330
34F
100
AcDbEntity
  8
0
  6
Continuous
 62
     0
370
    18
100
AcDbLine
 10
2.5256983936
 20
-17.6798701286
 30
0.0
 11
3.0869655311
 21
-17.1185731888
 31
0.0
  0
LINE
  5
3BD
330
34F
100
AcDbEntity
  8
0
  6
Continuous
 62
     0
370
    18
100
AcDbLine
 10
3.6482289433
 20
-17.6798701286
 30
0.0
 11
4.2094960809
 21
-17.1185731888
 31
0.0
  0
LINE
  5
3BE
330
34F
100
AcDbEntity
  8
0
  6
Continuous
 62
     0
370
    18
100
AcDbLine
 10
3.0869655311
 20
-19.3636417389
 30
0.0
 11
3.6482289433
 21
-18.8024044037
 31
0.0
  0
LINE
  5
3BF
330
34F
100
AcDbEntity
  8
0
  6
Continuous
 62
     0
370
    18
100
AcDbLine
 10
4.2094960809
 20
-19.3636417389
 30
0.0
 11
4.3748281896
 21
-19.1982984543
 31
0.0
  0
LINE
  5
3C0
330
34F
100
AcDbEntity
  8
0
  6
Continuous
 62
     0
370
    18
100
AcDbLine
 10
2.5256983936
 20
-21.0474729538
 30
0.0
 11
3.0869655311
 21
-20.4861760139
 31
0.0
  0
LINE
  5
3C1
330
34F
100
AcDbEntity
  8
0
  6
Continuous
 62
     0
370
    18
100
AcDbLine
 10
3.6482289433
 20
-21.0474729538
 30
0.0
 11
4.1916593909
 21
-20.5039978027
 31
0.0
  0
LINE
  5
3C2
330
34F
100
AcDbEntity
  8
0
  6
Continuous
 62
     0
370
    18
100
AcDbLine
 10
2.1528676152
 20
-22.5428342819
 30
0.0
 11
2.5256983936
 21
-22.1700072289
 31
0.0
  0
LINE
  5
3C3
330
34F
100
AcDbEntity
  8
0
  6
Continuous
 62
     0
370
    18
100
AcDbLine
 10
3.0869655311
 20
-22.7312445641
 30
0.0
 11
3.6482289433
 21
-22.1700072289
 31
0.0
  0
LINE
  5
3C4
330
34F
100
AcDbEntity
  8
0
  6
Continuous
 62
     0
370
    18
100
AcDbLine
 10
-3.0687302351
 20
-18.2593464851
 30
0.0
 11
-2.4159476161
 21
-18.9121365547
 31
0.0
  0
LINE
  5
3C5
330
34F
100
AcDbEntity
  8
0
  6
Continuous
 62
     0
370
    18
100
AcDbLine
 10
2.1588988602
 20
-22.3644375801
 30
0.0
 11
2.9878243804
 21
-23.193359375
 31
0.0
  0
LINE
  5
3C6
330
34F
100
AcDbEntity
  8
0
  6
Continuous
 62
     0
370
    18
100
AcDbLine
 10
-2.3928135633
 20
-17.8127288818
 30
0.0
 11
-0.9240582585
 21
-19.2815065384
 31
0.0
  0
LINE
  5
3C7
330
34F
100
AcDbEntity
  8
0
  6
Continuous
 62
     0
370
    18
100
AcDbLine
 10
2.1956115961
 20
-21.2786197662
 30
0.0
 11
3.7439092994
 21
-22.8269100189
 31
0.0
  0
LINE
  5
3C8
330
34F
100
AcDbEntity
  8
0
  6
Continuous
 62
     0
370
    18
100
AcDbLine
 10
-1.618809998
 20
-17.4642205238
 30
0.0
 11
0.270344317
 21
-19.35338974
 31
0.0
  0
LINE
  5
3C9
330
34F
100
AcDbEntity
  8
0
  6
Continuous
 62
     0
370
    18
100
AcDbLine
 10
2.0454451442
 20
-20.005941391
 30
0.0
 11
4.4339112937
 21
-22.3944187164
 31
0.0
  0
LINE
  5
3CA
330
34F
100
AcDbEntity
  8
0
  6
Continuous
 62
     0
370
    18
100
AcDbLine
 10
-1.4510042965
 20
-16.5094733238
 30
0.0
 11
1.0264627635
 21
-18.9869403839
 31
0.0
  0
LINE
  5
3CB
330
34F
100
AcDbEntity
  8
0
  6
Continuous
 62
     0
370
    18
100
AcDbLine
 10
2.4067461491
 20
-19.2447304726
 30
0.0
 11
4.1887797415
 21
-21.0267305374
 31
0.0
  0
LINE
  5
3CC
330
34F
100
AcDbEntity
  8
0
  6
Continuous
 62
     0
370
    18
100
AcDbLine
 10
-0.7935166359
 20
-16.0444378853
 30
0.0
 11
1.2201033533
 21
-18.0580615997
 31
0.0
  0
LINE
  5
3CD
330
34F
100
AcDbEntity
  8
0
  6
Continuous
 62
     0
370
    18
100
AcDbLine
 10
2.6304870844
 20
-18.3458924294
 30
0.0
 11
4.2866058648
 21
-20.0020074844
 31
0.0
  0
LINE
  5
3CE
330
34F
100
AcDbEntity
  8
0
  6
Continuous
 62
     0
370
    18
100
AcDbLine
 10
-0.4455372691
 20
-15.2698755264
 30
0.0
 11
2.0453371108
 21
-17.7607536316
 31
0.0
  0
LINE
  5
3CF
330
34F
100
AcDbEntity
  8
0
  6
Continuous
 62
     0
370
    18
100
AcDbLine
 10
-0.188510865
 20
-14.4043564796
 30
0.0
 11
4.1932612658
 21
-18.7861323357
 31
0.0
  0
LINE
  5
3D0
330
34F
100
AcDbEntity
  8
0
  6
Continuous
 62
     0
370
    18
100
AcDbLine
 10
-0.1527741551
 20
-13.3175849915
 30
0.0
 11
4.1971430182
 21
-17.6674723625
 31
0.0
  0
LINE
  5
3D1
330
34F
100
AcDbEntity
  8
0
  6
Continuous
 62
     0
370
    18
100
AcDbLine
 10
4.3170489371
 20
-16.6648626328
 30
0.0
 11
4.4339112937
 21
-16.7817473412
 31
0.0
  0
LINE
  5
3D2
330
34F
100
AcDbEntity
  8
0
  6
Continuous
 62
     0
370
    18
100
AcDbLine
 10
-0.1527741551
 20
-12.1950507164
 30
0.0
 11
4.2438097298
 21
-16.5916085243
 31
0.0
  0
LINE
  5
3D3
330
34F
100
AcDbEntity
  8
0
  6
Continuous
 62
     0
370
    18
100
AcDbLine
 10
-1.4090836048
 20
-10.9387636185
 30
0.0
 11
-0.804707408
 21
-11.5430951118
 31
0.0
  0
LINE
  5
3D4
330
34F
100
AcDbEntity
  8
0
  6
Continuous
 62
     0
370
    18
100
AcDbLine
 10
-0.9425915778
 20
-10.2826952934
 30
0.0
 11
4.1932612658
 21
-15.4185295105
 31
0.0
  0
LINE
  5
3D5
330
34F
100
AcDbEntity
  8
0
  6
Continuous
 62
     0
370
    18
100
AcDbLine
 10
-0.552918762
 20
-9.5498561859
 30
0.0
 11
4.4339112937
 21
-14.536678791
 31
0.0
  0
LINE
  5
3D6
330
34F
100
AcDbEntity
  8
0
  6
Continuous
 62
     0
370
    18
100
AcDbLine
 10
-0.1632496715
 20
-8.8169574738
 30
0.0
 11
4.1932612658
 21
-13.173520565
 31
0.0
  0
LINE
  5
3D7
330
34F
100
AcDbEntity
  8
0
  6
Continuous
 62
     0
370
    18
100
AcDbLine
 10
0.1947619021
 20
-8.0524682999
 30
0.0
 11
4.1932612658
 21
-12.05098629
 31
0.0
  0
LINE
  5
3D8
330
34F
100
AcDbEntity
  8
0
  6
Continuous
 62
     0
370
    18
100
AcDbLine
 10
0.2940744162
 20
-7.029235363
 30
0.0
 11
4.4339112937
 21
-11.1690759659
 31
0.0
  0
LINE
  5
3D9
330
34F
100
AcDbEntity
  8
0
  6
Continuous
 62
     0
370
    18
100
AcDbLine
 10
1.2066885829
 20
-6.8193078041
 30
0.0
 11
4.1932612658
 21
-9.8059177399
 31
0.0
  0
LINE
  5
3DA
330
34F
100
AcDbEntity
  8
0
  6
Continuous
 62
     0
370
    18
100
AcDbLine
 10
2.3273490369
 20
-6.8174600601
 30
0.0
 11
4.2109973729
 21
-8.7010860443
 31
0.0
  0
LINE
  5
3DB
330
34F
100
AcDbEntity
  8
0
  6
Continuous
 62
     0
370
    18
100
AcDbLine
 10
-79.4191397727
 20
-7.5770616531
 30
0.0
 11
-78.8578726351
 21
-7.0158243179
 31
0.0
  0
LINE
  5
3DC
330
34F
100
AcDbEntity
  8
0
  6
Continuous
 62
     0
370
    18
100
AcDbLine
 10
-80.5431716144
 20
-8.7010860443
 30
0.0
 11
-80.5416703224
 21
-8.6995959282
 31
0.0
  0
LINE
  5
3DD
330
34F
100
AcDbEntity
  8
0
  6
Continuous
 62
     0
370
    18
100
AcDbLine
 10
-78.2966054976
 20
-7.5770616531
 30
0.0
 11
-77.7353420854
 21
-7.0158243179
 31
0.0
  0
LINE
  5
3DE
330
34F
100
AcDbEntity
  8
0
  6
Continuous
 62
     0
370
    18
100
AcDbLine
 10
-79.9804031849
 20
-9.260892868
 30
0.0
 11
-79.4191397727
 21
-8.6995959282
 31
0.0
  0
LINE
  5
3DF
330
34F
100
AcDbEntity
  8
0
  6
Continuous
 62
     0
370
    18
100
AcDbLine
 10
-77.1740749478
 20
-7.5770616531
 30
0.0
 11
-76.6262486577
 21
-7.029235363
 31
0.0
  0
LINE
  5
3E0
330
34F
100
AcDbEntity
  8
0
  6
Continuous
 62
     0
370
    18
100
AcDbLine
 10
-78.8578726351
 20
-9.260892868
 30
0.0
 11
-78.2966054976
 21
-8.6995959282
 31
0.0
  0
LINE
  5
3E1
330
34F
100
AcDbEntity
  8
0
  6
Continuous
 62
     0
370
    18
100
AcDbLine
 10
-80.5416703224
 20
-10.9446644783
 30
0.0
 11
-79.9804031849
 21
-10.3833675385
 31
0.0
  0
LINE
  5
3E2
330
34F
100
AcDbEntity
  8
0
  6
Continuous
 62
     0
370
    18
100
AcDbLine
 10
-77.7353420854
 20
-9.260892868
 30
0.0
 11
-77.1740749478
 21
-8.6995959282
 31
0.0
  0
LINE
  5
3E3
330
34F
100
AcDbEntity
  8
0
  6
Continuous
 62
     0
370
    18
100
AcDbLine
 10
-79.4191397727
 20
-10.9446644783
 30
0.0
 11
-78.8578726351
 21
-10.3833675385
 31
0.0
  0
LINE
  5
3E4
330
34F
100
AcDbEntity
  8
0
  6
Continuous
 62
     0
370
    18
100
AcDbLine
 10
-76.6128078103
 20
-9.260892868
 30
0.0
 11
-76.1689245701
 21
-8.8169574738
 31
0.0
  0
LINE
  5
3E5
330
34F
100
AcDbEntity
  8
0
  6
Continuous
 62
     0
370
    18
100
AcDbLine
 10
-78.2966054976
 20
-10.9446644783
 30
0.0
 11
-77.7353420854
 21
-10.3833675385
 31
0.0
  0
LINE
  5
3E6
330
34F
100
AcDbEntity
  8
0
  6
Continuous
 62
     0
370
    18
100
AcDbLine
 10
-79.9804031849
 20
-12.6284360886
 30
0.0
 11
-79.4191397727
 21
-12.0671987534
 31
0.0
  0
LINE
  5
3E7
330
34F
100
AcDbEntity
  8
0
  6
Continuous
 62
     0
370
    18
100
AcDbLine
 10
-77.1740749478
 20
-10.9446644783
 30
0.0
 11
-76.6128078103
 21
-10.3833675385
 31
0.0
  0
LINE
  5
3E8
330
34F
100
AcDbEntity
  8
0
  6
Continuous
 62
     0
370
    18
100
AcDbLine
 10
-78.8578726351
 20
-12.6284360886
 30
0.0
 11
-78.2966054976
 21
-12.0671987534
 31
0.0
  0
LINE
  5
3E9
330
34F
100
AcDbEntity
  8
0
  6
Continuous
 62
     0
370
    18
100
AcDbLine
 10
-80.5416703224
 20
-14.3122673035
 30
0.0
 11
-79.9804031849
 21
-13.7509703636
 31
0.0
  0
LINE
  5
3EA
330
34F
100
AcDbEntity
  8
0
  6
Continuous
 62
     0
370
    18
100
AcDbLine
 10
-76.0515443981
 20
-10.9446644783
 30
0.0
 11
-75.4902772605
 21
-10.3833675385
 31
0.0
  0
LINE
  5
3EB
330
34F
100
AcDbEntity
  8
0
  6
Continuous
 62
     0
370
    18
100
AcDbLine
 10
-77.7353420854
 20
-12.6284360886
 30
0.0
 11
-77.1740749478
 21
-12.0671987534
 31
0.0
  0
LINE
  5
3EC
330
34F
100
AcDbEntity
  8
0
  6
Continuous
 62
     0
370
    18
100
AcDbLine
 10
-79.4191397727
 20
-14.3122673035
 30
0.0
 11
-78.8578726351
 21
-13.7509703636
 31
0.0
  0
LINE
  5
3ED
330
34F
100
AcDbEntity
  8
0
  6
Continuous
 62
     0
370
    18
100
AcDbLine
 10
-76.6128078103
 20
-12.6284360886
 30
0.0
 11
-76.1794000864
 21
-12.1950507164
 31
0.0
  0
LINE
  5
3EE
330
34F
100
AcDbEntity
  8
0
  6
Continuous
 62
     0
370
    18
100
AcDbLine
 10
-78.2966054976
 20
-14.3122673035
 30
0.0
 11
-77.7353420854
 21
-13.7509703636
 31
0.0
  0
LINE
  5
3EF
330
34F
100
AcDbEntity
  8
0
  6
Continuous
 62
     0
370
    18
100
AcDbLine
 10
-79.9804031849
 20
-15.9960389137
 30
0.0
 11
-79.4191397727
 21
-15.4348015785
 31
0.0
  0
LINE
  5
3F0
330
34F
100
AcDbEntity
  8
0
  6
Continuous
 62
     0
370
    18
100
AcDbLine
 10
-74.929010123
 20
-10.9446644783
 30
0.0
 11
-74.9230906367
 21
-10.9387636185
 31
0.0
  0
LINE
  5
3F1
330
34F
100
AcDbEntity
  8
0
  6
Continuous
 62
     0
370
    18
100
AcDbLine
 10
-77.1740749478
 20
-14.3122673035
 30
0.0
 11
-76.6128078103
 21
-13.7509703636
 31
0.0
  0
LINE
  5
3F2
330
34F
100
AcDbEntity
  8
0
  6
Continuous
 62
     0
370
    18
100
AcDbLine
 10
-78.8578726351
 20
-15.9960389137
 30
0.0
 11
-78.2966054976
 21
-15.4348015785
 31
0.0
  0
LINE
  5
3F3
330
34F
100
AcDbEntity
  8
0
  6
Continuous
 62
     0
370
    18
100
AcDbLine
 10
-80.5293172598
 20
-17.6674723625
 30
0.0
 11
-79.9804031849
 21
-17.1185731888
 31
0.0
  0
LINE
  5
3F4
330
34F
100
AcDbEntity
  8
0
  6
Continuous
 62
     0
370
    18
100
AcDbLine
 10
-77.7353420854
 20
-15.9960389137
 30
0.0
 11
-77.1740749478
 21
-15.4348015785
 31
0.0
  0
LINE
  5
3F5
330
34F
100
AcDbEntity
  8
0
  6
Continuous
 62
     0
370
    18
100
AcDbLine
 10
-79.4191397727
 20
-17.6798701286
 30
0.0
 11
-78.8578726351
 21
-17.1185731888
 31
0.0
  0
LINE
  5
3F6
330
34F
100
AcDbEntity
  8
0
  6
Continuous
 62
     0
370
    18
100
AcDbLine
 10
-79.9804031849
 20
-19.3636417389
 30
0.0
 11
-79.4191397727
 21
-18.8024044037
 31
0.0
  0
LINE
  5
3F7
330
34F
100
AcDbEntity
  8
0
  6
Continuous
 62
     0
370
    18
100
AcDbLine
 10
-76.6128078103
 20
-15.9960389137
 30
0.0
 11
-76.0515443981
 21
-15.4348015785
 31
0.0
  0
LINE
  5
3F8
330
34F
100
AcDbEntity
  8
0
  6
Continuous
 62
     0
370
    18
100
AcDbLine
 10
-78.2966054976
 20
-17.6798701286
 30
0.0
 11
-77.7353420854
 21
-17.1185731888
 31
0.0
  0
LINE
  5
3F9
330
34F
100
AcDbEntity
  8
0
  6
Continuous
 62
     0
370
    18
100
AcDbLine
 10
-78.8578726351
 20
-19.3636417389
 30
0.0
 11
-78.7389203906
 21
-19.2447304726
 31
0.0
  0
LINE
  5
3FA
330
34F
100
AcDbEntity
  8
0
  6
Continuous
 62
     0
370
    18
100
AcDbLine
 10
-80.5209539831
 20
-21.0267305374
 30
0.0
 11
-79.9804031849
 21
-20.4861760139
 31
0.0
  0
LINE
  5
3FB
330
34F
100
AcDbEntity
  8
0
  6
Continuous
 62
     0
370
    18
100
AcDbLine
 10
-77.1740749478
 20
-17.6798701286
 30
0.0
 11
-76.6128078103
 21
-17.1185731888
 31
0.0
  0
LINE
  5
3FC
330
34F
100
AcDbEntity
  8
0
  6
Continuous
 62
     0
370
    18
100
AcDbLine
 10
-79.4191397727
 20
-21.0474729538
 30
0.0
 11
-78.8578726351
 21
-20.4861760139
 31
0.0
  0
LINE
  5
3FD
330
34F
100
AcDbEntity
  8
0
  6
Continuous
 62
     0
370
    18
100
AcDbLine
 10
-80.7660855353
 20
-22.3944187164
 30
0.0
 11
-80.5416703224
 21
-22.1700072289
 31
0.0
  0
LINE
  5
3FE
330
34F
100
AcDbEntity
  8
0
  6
Continuous
 62
     0
370
    18
100
AcDbLine
 10
-76.0515443981
 20
-17.6798701286
 30
0.0
 11
-75.4902772605
 21
-17.1185731888
 31
0.0
  0
LINE
  5
3FF
330
34F
100
AcDbEntity
  8
0
  6
Continuous
 62
     0
370
    18
100
AcDbLine
 10
-77.3586370051
 20
-18.9869403839
 30
0.0
 11
-77.1740749478
 21
-18.8024044037
 31
0.0
  0
LINE
  5
400
330
34F
100
AcDbEntity
  8
0
  6
Continuous
 62
     0
370
    18
100
AcDbLine
 10
-79.9804031849
 20
-22.7312445641
 30
0.0
 11
-79.4191397727
 21
-22.1700072289
 31
0.0
  0
LINE
  5
401
330
34F
100
AcDbEntity
  8
0
  6
Continuous
 62
     0
370
    18
100
AcDbLine
 10
-74.929010123
 20
-17.6798701286
 30
0.0
 11
-74.7133642435
 21
-17.4642205238
 31
0.0
  0
LINE
  5
402
330
34F
100
AcDbEntity
  8
0
  6
Continuous
 62
     0
370
    18
100
AcDbLine
 10
-76.6025185585
 20
-19.35338974
 30
0.0
 11
-76.0515443981
 21
-18.8024044037
 31
0.0
  0
LINE
  5
403
330
34F
100
AcDbEntity
  8
0
  6
Continuous
 62
     0
370
    18
100
AcDbLine
 10
-78.8578726351
 20
-22.7312445641
 30
0.0
 11
-78.4910731018
 21
-22.3644375801
 31
0.0
  0
LINE
  5
404
330
34F
100
AcDbEntity
  8
0
  6
Continuous
 62
     0
370
    18
100
AcDbLine
 10
-75.408115983
 20
-19.2815065384
 30
0.0
 11
-74.929010123
 21
-18.8024044037
 31
0.0
  0
LINE
  5
405
330
34F
100
AcDbEntity
  8
0
  6
Continuous
 62
     0
370
    18
100
AcDbLine
 10
-73.9162266254
 20
-18.9121365547
 30
0.0
 11
-73.8064795732
 21
-18.8024044037
 31
0.0
  0
LINE
  5
406
330
34F
100
AcDbEntity
  8
0
  6
Continuous
 62
     0
370
    18
100
AcDbLine
 10
-80.5565565825
 20
-21.5938091278
 30
0.0
 11
-78.7876583636
 21
-23.3627557755
 31
0.0
  0
LINE
  5
407
330
34F
100
AcDbEntity
  8
0
  6
Continuous
 62
     0
370
    18
100
AcDbLine
 10
-80.5238336325
 20
-20.5039978027
 30
0.0
 11
-78.4850418568
 21
-22.5428342819
 31
0.0
  0
LINE
  5
408
330
34F
100
AcDbEntity
  8
0
  6
Continuous
 62
     0
370
    18
100
AcDbLine
 10
-80.7070024312
 20
-19.1982984543
 30
0.0
 11
-78.524325043
 21
-21.381020546
 31
0.0
  0
LINE
  5
409
330
34F
100
AcDbEntity
  8
0
  6
Continuous
 62
     0
370
    18
100
AcDbLine
 10
-80.5254355073
 20
-18.2573795319
 30
0.0
 11
-78.4920826554
 21
-20.2907323837
 31
0.0
  0
LINE
  5
40A
330
34F
100
AcDbEntity
  8
0
  6
Continuous
 62
     0
370
    18
100
AcDbLine
 10
-80.7660855353
 20
-16.8941617012
 30
0.0
 11
-78.9697766304
 21
-18.6904668808
 31
0.0
  0
LINE
  5
40B
330
34F
100
AcDbEntity
  8
0
  6
Continuous
 62
     0
370
    18
100
AcDbLine
 10
-80.5254355073
 20
-16.0123109818
 30
0.0
 11
-78.6554142833
 21
-17.8822875023
 31
0.0
  0
LINE
  5
40C
330
34F
100
AcDbEntity
  8
0
  6
Continuous
 62
     0
370
    18
100
AcDbLine
 10
-80.7660855353
 20
-14.6490931511
 30
0.0
 11
-76.0925225914
 21
-19.3226933479
 31
0.0
  0
LINE
  5
40D
330
34F
100
AcDbEntity
  8
0
  6
Continuous
 62
     0
370
    18
100
AcDbLine
 10
-80.5809311569
 20
-13.7117505074
 30
0.0
 11
-75.033698231
 21
-19.2589759827
 31
0.0
  0
LINE
  5
40E
330
34F
100
AcDbEntity
  8
0
  6
Continuous
 62
     0
370
    18
100
AcDbLine
 10
-80.5254355073
 20
-12.6447081566
 30
0.0
 11
-74.1172432899
 21
-19.052863121
 31
0.0
  0
LINE
  5
40F
330
34F
100
AcDbEntity
  8
0
  6
Continuous
 62
     0
370
    18
100
AcDbLine
 10
-74.4769200683
 20
-17.5706744194
 30
0.0
 11
-73.4570100904
 21
-18.5905694962
 31
0.0
  0
LINE
  5
410
330
34F
100
AcDbEntity
  8
0
  6
Continuous
 62
     0
370
    18
100
AcDbLine
 10
-80.7660855353
 20
-11.2814903259
 30
0.0
 11
-75.013037771
 21
-17.0345902443
 31
0.0
  0
LINE
  5
411
330
34F
100
AcDbEntity
  8
0
  6
Continuous
 62
     0
370
    18
100
AcDbLine
 10
-74.991542846
 20
-15.9335136414
 30
0.0
 11
-74.8034827411
 21
-16.1215662956
 31
0.0
  0
LINE
  5
412
330
34F
100
AcDbEntity
  8
0
  6
Continuous
 62
     0
370
    18
100
AcDbLine
 10
-80.5254355073
 20
-10.3996396065
 30
0.0
 11
-75.870193541
 21
-15.0548815727
 31
0.0
  0
LINE
  5
413
330
34F
100
AcDbEntity
  8
0
  6
Continuous
 62
     0
370
    18
100
AcDbLine
 10
-80.5254355073
 20
-9.2771053314
 30
0.0
 11
-76.1794000864
 21
-13.6231184006
 31
0.0
  0
LINE
  5
414
330
34F
100
AcDbEntity
  8
0
  6
Continuous
 62
     0
370
    18
100
AcDbLine
 10
-80.7660855353
 20
-7.9138875008
 30
0.0
 11
-76.1794000864
 21
-12.5005841255
 31
0.0
  0
LINE
  5
415
330
34F
100
AcDbEntity
  8
0
  6
Continuous
 62
     0
370
    18
100
AcDbLine
 10
-80.1144652069
 20
-7.443010807
 30
0.0
 11
-75.9240686893
 21
-11.6333961487
 31
0.0
  0
LINE
  5
416
330
34F
100
AcDbEntity
  8
0
  6
Continuous
 62
     0
370
    18
100
AcDbLine
 10
-79.4028081
 20
-7.0321559906
 30
0.0
 11
-74.7869126499
 21
-11.6479992867
 31
0.0
  0
LINE
  5
417
330
34F
100
AcDbEntity
  8
0
  6
Continuous
 62
     0
370
    18
100
AcDbLine
 10
-78.5106085241
 20
-6.8017840385
 30
0.0
 11
-75.798202306
 21
-9.5142126083
 31
0.0
  0
LINE
  5
418
330
34F
100
AcDbEntity
  8
0
  6
Continuous
 62
     0
370
    18
100
AcDbLine
 10
-77.3400962353
 20
-6.8497657776
 30
0.0
 11
-76.5269361436
 21
-7.6629519463
 31
0.0
  0
LINE
  5
419
330
34F
100
AcDbEntity
  8
0
  6
Continuous
 62
     0
370
    18
100
AcDbLine
 10
-0.6660856307
 20
-89.4440875491
 30
0.0
 11
-1.6660876572
 21
-90.4440746745
 31
0.0
  0
LINE
  5
41A
330
34F
100
AcDbEntity
  8
0
  6
Continuous
 62
     0
370
    18
100
AcDbLine
 10
-0.6660856307
 20
-91.6891560992
 30
0.0
 11
-1.6660876572
 21
-92.6891432246
 31
0.0
  0
LINE
  5
41B
330
34F
100
AcDbEntity
  8
0
  6
Continuous
 62
     0
370
    18
100
AcDbLine
 10
-0.6660856307
 20
-93.934194847
 30
0.0
 11
-1.6660876572
 21
-94.9342117747
 31
0.0
  0
LINE
  5
41C
330
34F
100
AcDbEntity
  8
0
  6
Continuous
 62
     0
370
    18
100
AcDbLine
 10
-0.6660856307
 20
-96.1792633971
 30
0.0
 11
-1.6660876572
 21
-97.1792505225
 31
0.0
  0
LINE
  5
41D
330
34F
100
AcDbEntity
  8
0
  6
Continuous
 62
     0
370
    18
100
AcDbLine
 10
-0.6660856307
 20
-98.4243319472
 30
0.0
 11
-1.6660876572
 21
-99.4243190726
 31
0.0
  0
LINE
  5
41E
330
34F
100
AcDbEntity
  8
0
  6
Continuous
 62
     0
370
    18
100
AcDbLine
 10
-0.6660856307
 20
-100.6694004973
 30
0.0
 11
-1.6660876572
 21
-101.6693876227
 31
0.0
  0
LINE
  5
41F
330
34F
100
AcDbEntity
  8
0
  6
Continuous
 62
     0
370
    18
100
AcDbLine
 10
-0.6660856307
 20
-102.9144690474
 30
0.0
 11
-1.6660876572
 21
-103.9144561728
 31
0.0
  0
LINE
  5
420
330
34F
100
AcDbEntity
  8
0
  6
Continuous
 62
     0
370
    18
100
AcDbLine
 10
-0.6660856307
 20
-105.1595375975
 30
0.0
 11
-1.6660876572
 21
-106.1595247229
 31
0.0
  0
LINE
  5
421
330
34F
100
AcDbEntity
  8
0
  6
Continuous
 62
     0
370
    18
100
AcDbLine
 10
-0.6660856307
 20
-107.4046061476
 30
0.0
 11
-1.6660876572
 21
-108.404593273
 31
0.0
  0
LINE
  5
422
330
34F
100
AcDbEntity
  8
0
  6
Continuous
 62
     0
370
    18
100
AcDbLine
 10
-0.6660856307
 20
-109.6496746977
 30
0.0
 11
-1.6660876572
 21
-110.6496618231
 31
0.0
  0
LINE
  5
423
330
34F
100
AcDbEntity
  8
0
  6
Continuous
 62
     0
370
    18
100
AcDbLine
 10
-0.6660856307
 20
-111.8947432478
 30
0.0
 11
-1.6660876572
 21
-112.8947303732
 31
0.0
  0
LINE
  5
424
330
34F
100
AcDbEntity
  8
0
  6
Continuous
 62
     0
370
    18
100
AcDbLine
 10
-0.6660856307
 20
-114.1398117979
 30
0.0
 11
-1.6660876572
 21
-115.1397989233
 31
0.0
  0
LINE
  5
425
330
34F
100
AcDbEntity
  8
0
  6
Continuous
 62
     0
370
    18
100
AcDbLine
 10
-0.7711015642
 20
-116.4898441275
 30
0.0
 11
-2.1440200508
 21
-117.8627775153
 31
0.0
  0
LINE
  5
426
330
34F
100
AcDbEntity
  8
0
  6
Continuous
 62
     0
370
    18
100
AcDbLine
 10
-1.5167742968
 20
-119.4806263884
 30
0.0
 11
-2.8896965086
 21
-120.8535001715
 31
0.0
  0
LINE
  5
427
330
34F
100
AcDbEntity
  8
0
  6
Continuous
 62
     0
370
    18
100
AcDbLine
 10
-74.6660865843
 20
-87.1119068106
 30
0.0
 11
-75.6660886109
 21
-88.111893936
 31
0.0
  0
LINE
  5
428
330
34F
100
AcDbEntity
  8
0
  6
Continuous
 62
     0
370
    18
100
AcDbLine
 10
-74.6660865843
 20
-89.3569753607
 30
0.0
 11
-75.6660886109
 21
-90.3569624861
 31
0.0
  0
LINE
  5
429
330
34F
100
AcDbEntity
  8
0
  6
Continuous
 62
     0
370
    18
100
AcDbLine
 10
-74.6660865843
 20
-91.6020439108
 30
0.0
 11
-75.6660886109
 21
-92.6020310362
 31
0.0
  0
LINE
  5
42A
330
34F
100
AcDbEntity
  8
0
  6
Continuous
 62
     0
370
    18
100
AcDbLine
 10
-74.6660865843
 20
-93.8470826586
 30
0.0
 11
-75.6660886109
 21
-94.8470995863
 31
0.0
  0
LINE
  5
42B
330
34F
100
AcDbEntity
  8
0
  6
Continuous
 62
     0
370
    18
100
AcDbLine
 10
-74.6660865843
 20
-96.0921512087
 30
0.0
 11
-75.6660886109
 21
-97.0921681364
 31
0.0
  0
LINE
  5
42C
330
34F
100
AcDbEntity
  8
0
  6
Continuous
 62
     0
370
    18
100
AcDbLine
 10
-74.6660865843
 20
-98.3372495612
 30
0.0
 11
-75.6660886109
 21
-99.3372366866
 31
0.0
  0
LINE
  5
42D
330
34F
100
AcDbEntity
  8
0
  6
Continuous
 62
     0
370
    18
100
AcDbLine
 10
-74.6660865843
 20
-100.5822585066
 30
0.0
 11
-75.6660886109
 21
-101.5823052367
 31
0.0
  0
LINE
  5
42E
330
34F
100
AcDbEntity
  8
0
  6
Continuous
 62
     0
370
    18
100
AcDbLine
 10
-74.6660865843
 20
-102.8273270567
 30
0.0
 11
-75.6660886109
 21
-103.8273737868
 31
0.0
  0
LINE
  5
42F
330
34F
100
AcDbEntity
  8
0
  6
Continuous
 62
     0
370
    18
100
AcDbLine
 10
-74.6660865843
 20
-105.0723956068
 30
0.0
 11
-75.6660886109
 21
-106.0724423369
 31
0.0
  0
LINE
  5
430
330
34F
100
AcDbEntity
  8
0
  6
Continuous
 62
     0
370
    18
100
AcDbLine
 10
-74.6660865843
 20
-107.317464157
 30
0.0
 11
-75.6660886109
 21
-108.3174512824
 31
0.0
  0
LINE
  5
431
330
34F
100
AcDbEntity
  8
0
  6
Continuous
 62
     0
370
    18
100
AcDbLine
 10
-74.6660865843
 20
-109.5625327071
 30
0.0
 11
-75.6660886109
 21
-110.5625198325
 31
0.0
  0
LINE
  5
432
330
34F
100
AcDbEntity
  8
0
  6
Continuous
 62
     0
370
    18
100
AcDbLine
 10
-74.6660865843
 20
-111.8076012572
 30
0.0
 11
-75.6660886109
 21
-112.8075883826
 31
0.0
  0
LINE
  5
433
330
34F
100
AcDbEntity
  8
0
  6
Continuous
 62
     0
370
    18
100
AcDbLine
 10
-74.6660865843
 20
-114.0526698073
 30
0.0
 11
-75.6660886109
 21
-115.0526569327
 31
0.0
  0
LINE
  5
434
330
34F
100
AcDbEntity
  8
0
  6
Continuous
 62
     0
370
    18
100
AcDbLine
 10
-74.5958685875
 20
-116.2275240858
 30
0.0
 11
-75.4208043218
 21
-117.0524523695
 31
0.0
  0
LINE
  5
435
330
34F
100
AcDbEntity
  8
0
  6
Continuous
 62
     0
370
    18
100
AcDbLine
 10
-74.147824198
 20
-118.0245445212
 30
0.0
 11
-74.972756207
 21
-118.8494728049
 31
0.0
  0
LINE
  5
436
330
34F
100
AcDbEntity
  8
0
  6
Continuous
 62
     0
370
    18
100
AcDbLine
 10
-73.6997760832
 20
-119.8215649565
 30
0.0
 11
-74.5247118175
 21
-120.6464932402
 31
0.0
  0
LINE
  5
437
330
34F
100
AcDbEntity
  8
0
  6
Continuous
 62
     0
370
    18
100
AcDbLine
 10
-73.2517279685
 20
-121.6185853918
 30
0.0
 11
-73.3971446753
 21
-121.7639611205
 31
0.0
  0
ENDBLK
  5
351
330
34F
100
AcDbEntity
  8
0
100
AcDbBlockEnd
  0
ENDSEC
  0
SECTION
  2
ENTITIES
  0
LINE
  5
101
330
1F
100
AcDbEntity
  8
LINIEN-DÜNN
  6
CENTERX2
100
AcDbLine
 10
352.6174545849
 20
46.9080238789
 30
0.0
 11
352.6174545849
 21
39.4621586124
 31
0.0
  0
LINE
  5
102
330
1F
100
AcDbEntity
  8
LINIEN-DÜNN
100
AcDbLine
 10
357.7661698132
 20
46.3720107039
 30
0.0
 11
357.7661698132
 21
39.9353173413
 31
0.0
  0
LINE
  5
103
330
1F
100
AcDbEntity
  8
LINIEN-DÜNN
100
AcDbLine
 10
364.6059427486
 20
44.7376225767
 30
0.0
 11
364.6059427486
 21
41.5697054685
 31
0.0
  0
LINE
  5
104
330
1F
100
AcDbEntity
  8
LINIEN-DÜNN
100
AcDbLine
 10
364.6059427486
 20
44.7376225767
 30
0.0
 11
357.7661698132
 21
46.3720107039
 31
0.0
  0
LINE
  5
105
330
1F
100
AcDbEntity
  8
LINIEN-DÜNN
100
AcDbLine
 10
15.0
 20
198.5
 30
0.0
 11
20.0
 21
198.5
 31
0.0
  0
LINE
  5
106
330
1F
100
AcDbEntity
  8
LINIEN-DÜNN
100
AcDbLine
 10
12.0
 20
148.5
 30
0.0
 11
0.0
 21
148.5
 31
0.0
  0
LINE
  5
107
330
1F
100
AcDbEntity
  8
LINIEN-DÜNN
100
AcDbLine
 10
357.7661698132
 20
39.9353173413
 30
0.0
 11
364.6059427486
 21
41.5697054685
 31
0.0
  0
LINE
  5
108
330
1F
100
AcDbEntity
  8
LINIEN-DÜNN
  6
CENTERX2
100
AcDbLine
 10
348.6240467841
 20
43.1536640226
 30
0.0
 11
356.6108623857
 21
43.1536640226
 31
0.0
  0
LINE
  5
109
330
1F
100
AcDbEntity
  8
LINIEN-DÜNN
  6
CENTERX2
100
AcDbLine
 10
357.1289238876
 20
43.1536640226
 30
0.0
 11
365.6255362296
 21
43.1536640226
 31
0.0
  0
LINE
  5
10A
330
1F
100
AcDbEntity
  8
LINIEN-DÜNN
100
AcDbLine
 10
0.0
 20
0.0
 30
0.0
 11
420.0
 21
0.0
 31
0.0
  0
LINE
  5
10B
330
1F
100
AcDbEntity
  8
LINIEN-DÜNN
100
AcDbLine
 10
0.0
 20
0.0
 30
0.0
 11
0.0
 21
297.0
 31
0.0
  0
LINE
  5
10C
330
1F
100
AcDbEntity
  8
LINIEN-DÜNN
100
AcDbLine
 10
0.0
 20
297.0
 30
0.0
 11
420.0
 21
297.0
 31
0.0
  0
LINE
  5
10D
330
1F
100
AcDbEntity
  8
LINIEN-DÜNN
100
AcDbLine
 10
420.0
 20
0.0
 30
0.0
 11
420.0
 21
297.0
 31
0.0
  0
LINE
  5
10E
330
1F
100
AcDbEntity
  8
LINIEN-NORMAL
100
AcDbLine
 10
228.0
 20
35.0
 30
0.0
 11
410.0
 21
35.0
 31
0.0
  0
LINE
  5
10F
330
1F
100
AcDbEntity
  8
LINIEN-DÜNN
100
AcDbLine
 10
410.0
 20
198.5
 30
0.0
 11
415.0
 21
198.5
 31
0.0
  0
LINE
  5
110
330
1F
100
AcDbEntity
  8
LINIEN-DÜNN
100
AcDbLine
 10
15.0
 20
148.5
 30
0.0
 11
20.0
 21
148.5
 31
0.0
  0
LINE
  5
111
330
1F
100
AcDbEntity
  8
LINIEN-DÜNN
100
AcDbLine
 10
228.0
 20
40.0
 30
0.0
 11
296.6
 21
40.0
 31
0.0
  0
LINE
  5
112
330
1F
100
AcDbEntity
  8
LINIEN-DÜNN
100
AcDbLine
 10
15.0
 20
248.5
 30
0.0
 11
20.0
 21
248.5
 31
0.0
  0
LINE
  5
113
330
1F
100
AcDbEntity
  8
LINIEN-DICK
100
AcDbLine
 10
20.0
 20
287.0
 30
0.0
 11
20.0
 21
10.0
 31
0.0
  0
LINE
  5
114
330
1F
100
AcDbEntity
  8
LINIEN-DICK
100
AcDbLine
 10
410.0
 20
287.0
 30
0.0
 11
20.0
 21
287.0
 31
0.0
  0
LINE
  5
115
330
1F
100
AcDbEntity
  8
LINIEN-DICK
100
AcDbLine
 10
410.0
 20
5.0
 30
0.0
 11
410.0
 21
287.0
 31
0.0
  0
LINE
  5
116
330
1F
100
AcDbEntity
  8
LINIEN-DICK
100
AcDbLine
 10
20.0
 20
10.0
 30
0.0
 11
415.0
 21
10.0
 31
0.0
  0
LINE
  5
117
330
1F
100
AcDbEntity
  8
LINIEN-DÜNN
100
AcDbLine
 10
410.0
 20
148.5
 30
0.0
 11
415.0
 21
148.5
 31
0.0
  0
LINE
  5
118
330
1F
100
AcDbEntity
  8
LINIEN-DÜNN
100
AcDbLine
 10
228.0
 20
50.0
 30
0.0
 11
296.6
 21
50.0
 31
0.0
  0
LINE
  5
119
330
1F
100
AcDbEntity
  8
LINIEN-DÜNN
100
AcDbLine
 10
15.0
 20
98.5
 30
0.0
 11
20.0
 21
98.5
 31
0.0
  0
LINE
  5
11A
330
1F
100
AcDbEntity
  8
LINIEN-DÜNN
100
AcDbLine
 10
296.6
 20
45.0
 30
0.0
 11
228.0
 21
45.0
 31
0.0
  0
LINE
  5
11B
330
1F
100
AcDbEntity
  8
LINIEN-DÜNN
100
AcDbLine
 10
65.0
 20
292.0
 30
0.0
 11
65.0
 21
287.0
 31
0.0
  0
LINE
  5
11C
330
1F
100
AcDbEntity
  8
LINIEN-DÜNN
100
AcDbLine
 10
230.0
 20
292.0
 30
0.0
 11
230.0
 21
297.0
 31
0.0
  0
LINE
  5
11D
330
1F
100
AcDbEntity
  8
LINIEN-NORMAL
100
AcDbLine
 10
296.6
 20
55.0
 30
0.0
 11
296.6
 21
35.0
 31
0.0
  0
LINE
  5
11E
330
1F
100
AcDbEntity
  8
LINIEN-DÜNN
100
AcDbLine
 10
410.0
 20
98.5
 30
0.0
 11
415.0
 21
98.5
 31
0.0
  0
LINE
  5
11F
330
1F
100
AcDbEntity
  8
VORLAGE_BEMASSUNG
100
AcDbLine
 10
230.0
 20
5.0
 30
0.0
 11
230.0
 21
0.0
 31
0.0
  0
LINE
  5
120
330
1F
100
AcDbEntity
  8
LINIEN-DÜNN
100
AcDbLine
 10
125.0
 20
292.0
 30
0.0
 11
125.0
 21
297.0
 31
0.0
  0
LINE
  5
121
330
1F
100
AcDbEntity
  8
LINIEN-DÜNN
100
AcDbLine
 10
125.0
 20
5.0
 30
0.0
 11
125.0
 21
0.0
 31
0.0
  0
LINE
  5
122
330
1F
100
AcDbEntity
  8
LINIEN-NORMAL
100
AcDbLine
 10
410.0
 20
55.0
 30
0.0
 11
228.0
 21
55.0
 31
0.0
  0
LINE
  5
123
330
1F
100
AcDbEntity
  8
LINIEN-DÜNN
100
AcDbLine
 10
228.0
 20
55.0
 30
0.0
 11
410.0
 21
55.0
 31
0.0
  0
LINE
  5
124
330
1F
100
AcDbEntity
  8
LINIEN-DÜNN
100
AcDbLine
 10
410.0
 20
55.0
 30
0.0
 11
228.0
 21
55.0
 31
0.0
  0
LINE
  5
125
330
1F
100
AcDbEntity
  8
LINIEN-DÜNN
100
AcDbLine
 10
268.0
 20
76.5
 30
0.0
 11
268.0
 21
55.0
 31
0.0
  0
LINE
  5
126
330
1F
100
AcDbEntity
  8
LINIEN-DÜNN
100
AcDbLine
 10
271.6
 20
55.0
 30
0.0
 11
271.6
 21
40.0
 31
0.0
  0
LINE
  5
127
330
1F
100
AcDbEntity
  8
LINIEN-DÜNN
100
AcDbLine
 10
247.0
 20
55.0
 30
0.0
 11
247.0
 21
35.0
 31
0.0
  0
LINE
  5
128
330
1F
100
AcDbEntity
  8
LINIEN-DICK
100
AcDbLine
 10
228.0
 20
76.5
 30
0.0
 11
228.0
 21
10.0
 31
0.0
  0
LINE
  5
129
330
1F
100
AcDbEntity
  8
LINIEN-DÜNN
100
AcDbLine
 10
15.0
 20
292.0
 30
0.0
 11
415.0
 21
292.0
 31
0.0
  0
LINE
  5
12A
330
1F
100
AcDbEntity
  8
LINIEN-DÜNN
100
AcDbLine
 10
228.0
 20
65.75
 30
0.0
 11
310.0
 21
65.75
 31
0.0
  0
LINE
  5
12B
330
1F
100
AcDbEntity
  8
LINIEN-DICK
100
AcDbLine
 10
228.0
 20
76.5
 30
0.0
 11
410.0
 21
76.5
 31
0.0
  0
LINE
  5
12C
330
1F
100
AcDbEntity
  8
LINIEN-DÜNN
100
AcDbLine
 10
15.0
 20
48.5
 30
0.0
 11
20.0
 21
48.5
 31
0.0
  0
LINE
  5
12D
330
1F
100
AcDbEntity
  8
LINIEN-DÜNN
100
AcDbLine
 10
410.0
 20
48.5
 30
0.0
 11
415.0
 21
48.5
 31
0.0
  0
LINE
  5
12E
330
1F
100
AcDbEntity
  8
LINIEN-DÜNN
100
AcDbLine
 10
332.6610845472
 20
20.0
 30
0.0
 11
332.6610845472
 21
10.0
 31
0.0
  0
LINE
  5
12F
330
1F
100
AcDbEntity
  8
LINIEN-DÜNN
100
AcDbLine
 10
410.0
 20
248.5
 30
0.0
 11
415.0
 21
248.5
 31
0.0
  0
LINE
  5
130
330
1F
100
AcDbEntity
  8
LINIEN-DÜNN
100
AcDbLine
 10
65.0
 20
10.0
 30
0.0
 11
65.0
 21
5.0
 31
0.0
  0
LINE
  5
131
330
1F
100
AcDbEntity
  8
LINIEN-DÜNN
100
AcDbLine
 10
115.0
 20
10.0
 30
0.0
 11
115.0
 21
5.0
 31
0.0
  0
LINE
  5
132
330
1F
100
AcDbEntity
  8
LINIEN-DÜNN
100
AcDbLine
 10
115.0
 20
292.0
 30
0.0
 11
115.0
 21
287.0
 31
0.0
  0
LINE
  5
133
330
1F
100
AcDbEntity
  8
LINIEN-DÜNN
100
AcDbLine
 10
165.0
 20
10.0
 30
0.0
 11
165.0
 21
5.0
 31
0.0
  0
LINE
  5
134
330
1F
100
AcDbEntity
  8
LINIEN-DÜNN
100
AcDbLine
 10
165.0
 20
292.0
 30
0.0
 11
165.0
 21
287.0
 31
0.0
  0
LINE
  5
135
330
1F
100
AcDbEntity
  8
LINIEN-DÜNN
100
AcDbLine
 10
215.0
 20
10.0
 30
0.0
 11
215.0
 21
5.0
 31
0.0
  0
LINE
  5
136
330
1F
100
AcDbEntity
  8
LINIEN-DÜNN
100
AcDbLine
 10
215.0
 20
292.0
 30
0.0
 11
215.0
 21
287.0
 31
0.0
  0
LINE
  5
137
330
1F
100
AcDbEntity
  8
LINIEN-DÜNN
100
AcDbLine
 10
265.0
 20
10.0
 30
0.0
 11
265.0
 21
5.0
 31
0.0
  0
LINE
  5
138
330
1F
100
AcDbEntity
  8
LINIEN-DÜNN
100
AcDbLine
 10
265.0
 20
292.0
 30
0.0
 11
265.0
 21
287.0
 31
0.0
  0
LINE
  5
139
330
1F
100
AcDbEntity
  8
LINIEN-DÜNN
100
AcDbLine
 10
347.6610845472
 20
20.0
 30
0.0
 11
347.6610845472
 21
10.0
 31
0.0
  0
LINE
  5
13A
330
1F
100
AcDbEntity
  8
LINIEN-DÜNN
100
AcDbLine
 10
362.6610845472
 20
20.0
 30
0.0
 11
362.6610845472
 21
10.0
 31
0.0
  0
LINE
  5
13B
330
1F
100
AcDbEntity
  8
LINIEN-NORMAL
100
AcDbLine
 10
327.6610845472
 20
10.0
 30
0.0
 11
327.6610845472
 21
55.0
 31
0.0
  0
LINE
  5
13C
330
1F
100
AcDbEntity
  8
LINIEN-DÜNN
100
AcDbLine
 10
20.0
 20
292.0
 30
0.0
 11
20.0
 21
297.0
 31
0.0
  0
LINE
  5
13D
330
1F
100
AcDbEntity
  8
LINIEN-DÜNN
100
AcDbLine
 10
20.0
 20
5.0
 30
0.0
 11
20.0
 21
0.0
 31
0.0
  0
LINE
  5
13E
330
1F
100
AcDbEntity
  8
LINIEN-DÜNN
100
AcDbLine
 10
315.0
 20
10.0
 30
0.0
 11
315.0
 21
5.0
 31
0.0
  0
LINE
  5
13F
330
1F
100
AcDbEntity
  8
LINIEN-DÜNN
100
AcDbLine
 10
315.0
 20
292.0
 30
0.0
 11
315.0
 21
287.0
 31
0.0
  0
LINE
  5
140
330
1F
100
AcDbEntity
  8
LINIEN-DÜNN
100
AcDbLine
 10
365.0
 20
10.0
 30
0.0
 11
365.0
 21
5.0
 31
0.0
  0
LINE
  5
141
330
1F
100
AcDbEntity
  8
LINIEN-DÜNN
100
AcDbLine
 10
365.0
 20
292.0
 30
0.0
 11
365.0
 21
287.0
 31
0.0
  0
LINE
  5
142
330
1F
100
AcDbEntity
  8
LINIEN-DÜNN
100
AcDbLine
 10
15.0
 20
292.0
 30
0.0
 11
15.0
 21
5.0
 31
0.0
  0
LINE
  5
143
330
1F
100
AcDbEntity
  8
LINIEN-DÜNN
100
AcDbLine
 10
15.0
 20
5.0
 30
0.0
 11
415.0
 21
5.0
 31
0.0
  0
LINE
  5
144
330
1F
100
AcDbEntity
  8
LINIEN-DÜNN
100
AcDbLine
 10
415.0
 20
292.0
 30
0.0
 11
415.0
 21
5.0
 31
0.0
  0
LINE
  5
145
330
1F
100
AcDbEntity
  8
LINIEN-DÜNN
100
AcDbLine
 10
347.6610845472
 20
44.213444
 30
0.0
 11
327.6610845472
 21
44.213444
 31
0.0
  0
LINE
  5
146
330
1F
100
AcDbEntity
  8
LINIEN-DÜNN
100
AcDbLine
 10
347.6610845472
 20
35.0
 30
0.0
 11
347.6610845472
 21
55.0
 31
0.0
  0
LINE
  5
147
330
1F
100
AcDbEntity
  8
LINIEN-DÜNN
100
AcDbLine
 10
370.057188
 20
55.012032
 30
0.0
 11
370.057188
 21
35.0
 31
0.0
  0
LINE
  5
148
330
1F
100
AcDbEntity
  8
LINIEN-DÜNN
100
AcDbLine
 10
398.0
 20
35.0
 30
0.0
 11
398.0
 21
20.0
 31
0.0
  0
LINE
  5
149
330
1F
100
AcDbEntity
  8
LINIEN-DÜNN
100
AcDbLine
 10
410.0
 20
15.0
 30
0.0
 11
327.6610845472
 21
15.0
 31
0.0
  0
LINE
  5
14A
330
1F
100
AcDbEntity
  8
LINIEN-DÜNN
100
AcDbLine
 10
327.6610845472
 20
20.0
 30
0.0
 11
410.0
 21
20.0
 31
0.0
  0
LINE
  5
14B
330
1F
100
AcDbEntity
  8
LINIEN-DÜNN
100
AcDbLine
 10
341.485486
 20
20.0
 30
0.0
 11
341.485486
 21
27.564675
 31
0.0
  0
LINE
  5
14C
330
1F
100
AcDbEntity
  8
LINIEN-NORMAL
100
AcDbLine
 10
310.0
 20
76.5
 30
0.0
 11
310.0
 21
55.0
 31
0.0
  0
CIRCLE
  5
14D
330
1F
100
AcDbEntity
  8
LINIEN-DÜNN
100
AcDbCircle
 10
11.0
 20
108.5
 30
0.0
 40
2.750000000000001
  0
CIRCLE
  5
14E
330
1F
100
AcDbEntity
  8
LINIEN-DÜNN
100
AcDbCircle
 10
11.0
 20
188.5
 30
0.0
 40
2.750000000000001
  0
CIRCLE
  5
14F
330
1F
100
AcDbEntity
  8
LINIEN-DÜNN
100
AcDbCircle
 10
352.6174545849
 20
43.1536640226
 30
0.0
 40
3.218346681300138
  0
CIRCLE
  5
150
330
1F
100
AcDbEntity
  8
LINIEN-DÜNN
100
AcDbCircle
 10
352.6174545849
 20
43.1536640226
 30
0.0
 40
1.583958554121555
  0
INSERT
  5
151
330
1F
100
AcDbEntity
  8
0
  6
Continuous
 62
     7
100
AcDbBlockReference
  2
ACO-Logo
 10
314.3510726297
 20
57.6366106772
 30
0.0
  0
POINT
  5
152
330
1F
100
AcDbEntity
  8
VORLAGE_BEMASSUNG
100
AcDbPoint
 10
0.0
 20
0.0
 30
0.0
  0
POINT
  5
153
330
1F
100
AcDbEntity
  8
VORLAGE_BEMASSUNG
100
AcDbPoint
 10
410.0
 20
10.0
 30
0.0
  0
MTEXT
  5
154
330
1F
100
AcDbEntity
  8
VORLAGE_TEXT
100
AcDbMText
 10
17.7359443114
 20
124.8017866468
 30
0.0
 40
2.0
 41
0.0
 71
     2
 72
     1
  1
D
  7
SLDTEXTSTYLE0
 73
     1
 44
1.0
  0
MTEXT
  5
155
330
1F
100
AcDbEntity
  8
VORLAGE_TEXT
100
AcDbMText
 10
17.6274822413
 20
174.7261854936
 30
0.0
 40
2.0
 41
0.0
 71
     2
 72
     1
  1
C
  7
SLDTEXTSTYLE0
 73
     1
 44
1.0
  0
MTEXT
  5
156
330
1F
100
AcDbEntity
  8
VORLAGE_TEXT
100
AcDbMText
 10
17.5516905072
 20
224.4926420442
 30
0.0
 40
2.0
 41
0.0
 71
     2
 72
     1
  1
B
  7
SLDTEXTSTYLE0
 73
     1
 44
1.0
  0
MTEXT
  5
157
330
1F
100
AcDbEntity
  8
VORLAGE_TEXT
100
AcDbMText
 10
290.0344258799
 20
290.5428789914
 30
0.0
 40
2.0
 41
0.0
 71
     2
 72
     1
  1
6
  7
SLDTEXTSTYLE0
 73
     1
 44
1.0
  0
MTEXT
  5
158
330
1F
100
AcDbEntity
  8
VORLAGE_TEXT
100
AcDbMText
 10
240.0417859812
 20
290.6369260235
 30
0.0
 40
2.0
 41
0.0
 71
     2
 72
     1
  1
5
  7
SLDTEXTSTYLE0
 73
     1
 44
1.0
  0
MTEXT
  5
159
330
1F
100
AcDbEntity
  8
VORLAGE_TEXT
100
AcDbMText
 10
190.0300404524
 20
290.6343268032
 30
0.0
 40
2.0
 41
0.0
 71
     2
 72
     1
  1
4
  7
SLDTEXTSTYLE0
 73
     1
 44
1.0
  0
MTEXT
  5
15A
330
1F
100
AcDbEntity
  8
VORLAGE_TEXT
100
AcDbMText
 10
140.0165868337
 20
290.6378887952
 30
0.0
 40
2.0
 41
0.0
 71
     2
 72
     1
  1
3
  7
SLDTEXTSTYLE0
 73
     1
 44
1.0
  0
MTEXT
  5
15B
330
1F
100
AcDbEntity
  8
VORLAGE_TEXT
100
AcDbMText
 10
90.033223
 20
290.5566702875
 30
0.0
 40
2.0
 41
0.0
 71
     2
 72
     1
  1
2
  7
SLDTEXTSTYLE0
 73
     1
 44
1.0
  0
MTEXT
  5
15C
330
1F
100
AcDbEntity
  8
VORLAGE_TEXT
100
AcDbMText
 10
40.0509551097
 20
290.5530165805
 30
0.0
 40
2.0
 41
0.0
 71
     2
 72
     1
  1
1
  7
SLDTEXTSTYLE0
 73
     1
 44
1.0
  0
MTEXT
  5
15D
330
1F
100
AcDbEntity
  8
VORLAGE_TEXT
100
AcDbMText
 10
17.5609786315
 20
271.2966048816
 30
0.0
 40
2.0
 41
0.0
 71
     2
 72
     1
  1
A
  7
SLDTEXTSTYLE0
 73
     1
 44
1.0
  0
MTEXT
  5
15E
330
1F
100
AcDbEntity
  8
VORLAGE_TEXT
100
AcDbMText
 10
89.9333968896
 20
8.5904490253
 30
0.0
 40
2.0
 41
0.0
 71
     2
 72
     1
  1
2
  7
SLDTEXTSTYLE0
 73
     1
 44
1.0
  0
MTEXT
  5
15F
330
1F
100
AcDbEntity
  8
VORLAGE_TEXT
100
AcDbMText
 10
39.9009486579
 20
8.6623118453
 30
0.0
 40
2.0
 41
0.0
 71
     2
 72
     1
  1
1
  7
SLDTEXTSTYLE0
 73
     1
 44
1.0
  0
MTEXT
  5
160
330
1F
100
AcDbEntity
  8
VORLAGE_TEXT
100
AcDbMText
 10
190.0227230239
 20
8.7073169286
 30
0.0
 40
2.0
 41
0.0
 71
     2
 72
     1
  1
4
  7
SLDTEXTSTYLE0
 73
     1
 44
1.0
  0
MTEXT
  5
161
330
1F
100
AcDbEntity
  8
VORLAGE_TEXT
100
AcDbMText
 10
140.0453427777
 20
8.5647154541
 30
0.0
 40
2.0
 41
0.0
 71
     2
 72
     1
  1
3
  7
SLDTEXTSTYLE0
 73
     1
 44
1.0
  0
MTEXT
  5
162
330
1F
100
AcDbEntity
  8
VORLAGE_TEXT
100
AcDbMText
 10
239.8749782531
 20
8.5637526825
 30
0.0
 40
2.0
 41
0.0
 71
     2
 72
     1
  1
5
  7
SLDTEXTSTYLE0
 73
     1
 44
1.0
  0
MTEXT
  5
163
330
1F
100
AcDbEntity
  8
VORLAGE_TEXT
100
AcDbMText
 10
412.6717254925
 20
224.51208263
 30
0.0
 40
2.0
 41
0.0
 71
     2
 72
     1
  1
B
  7
SLDTEXTSTYLE0
 73
     1
 44
1.0
  0
MTEXT
  5
164
330
1F
100
AcDbEntity
  8
VORLAGE_TEXT
100
AcDbMText
 10
412.5951211154
 20
271.2798202564
 30
0.0
 40
2.0
 41
0.0
 71
     2
 72
     1
  1
A
  7
SLDTEXTSTYLE0
 73
     1
 44
1.0
  0
MTEXT
  5
165
330
1F
100
AcDbEntity
  8
VORLAGE_TEXT
100
AcDbMText
 10
412.6491448679
 20
174.7279841048
 30
0.0
 40
2.0
 41
0.0
 71
     2
 72
     1
  1
C
  7
SLDTEXTSTYLE0
 73
     1
 44
1.0
  0
MTEXT
  5
166
330
1F
100
AcDbEntity
  8
VORLAGE_TEXT
100
AcDbMText
 10
340.0216466634
 20
290.5954278102
 30
0.0
 40
2.0
 41
0.0
 71
     2
 72
     1
  1
7
  7
SLDTEXTSTYLE0
 73
     1
 44
1.0
  0
MTEXT
  5
167
330
1F
100
AcDbEntity
  8
VORLAGE_TEXT
100
AcDbMText
 10
390.037657264
 20
290.6215496941
 30
0.0
 40
2.0
 41
0.0
 71
     2
 72
     1
  1
8
  7
SLDTEXTSTYLE0
 73
     1
 44
1.0
  0
MTEXT
  5
168
330
1F
100
AcDbEntity
  8
VORLAGE_TEXT
100
AcDbMText
 10
17.6897935208
 20
74.7267628143
 30
0.0
 40
2.0
 41
0.0
 71
     2
 72
     1
  1
E
  7
SLDTEXTSTYLE0
 73
     1
 44
1.0
  0
MTEXT
  5
169
330
1F
100
AcDbEntity
  8
VORLAGE_TEXT
100
AcDbMText
 10
17.5936930126
 20
27.773321616
 30
0.0
 40
2.0
 41
0.0
 71
     2
 72
     1
  1
F
  7
SLDTEXTSTYLE0
 73
     1
 44
1.0
  0
MTEXT
  5
16A
330
1F
100
AcDbEntity
  8
VORLAGE_TEXT
100
AcDbMText
 10
339.8003474583
 20
8.7205095051
 30
0.0
 40
2.0
 41
0.0
 71
     2
 72
     1
  1
7
  7
SLDTEXTSTYLE0
 73
     1
 44
1.0
  0
MTEXT
  5
16B
330
1F
100
AcDbEntity
  8
VORLAGE_TEXT
100
AcDbMText
 10
289.7886477179
 20
8.6884673623
 30
0.0
 40
2.0
 41
0.0
 71
     2
 72
     1
  1
6
  7
SLDTEXTSTYLE0
 73
     1
 44
1.0
  0
MTEXT
  5
16C
330
1F
100
AcDbEntity
  8
VORLAGE_TEXT
100
AcDbMText
 10
412.5160699095
 20
74.5096307526
 30
0.0
 40
2.0
 41
0.0
 71
     2
 72
     1
  1
E
  7
SLDTEXTSTYLE0
 73
     1
 44
1.0
  0
MTEXT
  5
16D
330
1F
100
AcDbEntity
  8
VORLAGE_TEXT
100
AcDbMText
 10
412.6234021365
 20
124.4517683275
 30
0.0
 40
2.0
 41
0.0
 71
     2
 72
     1
  1
D
  7
SLDTEXTSTYLE0
 73
     1
 44
1.0
  0
MTEXT
  5
16E
330
1F
100
AcDbEntity
  8
TEXT-DEUTSCH
100
AcDbMText
 10
411.7952690469
 20
41.8539115219
 30
0.0
 40
1.8
 41
0.0
 71
     3
 72
     1
  1
Plotdatum: 21.09.2023
  7
SLDTEXTSTYLE0
 11
-3.269436733918102E-15
 21
1.0
 31
0.0
 73
     1
 44
1.0
  0
MTEXT
  5
16F
330
1F
100
AcDbEntity
  8
VORLAGE_TEXT
100
AcDbMText
 10
412.557933251
 20
8.2549718046
 30
0.0
 40
1.8
 41
0.0
 71
     2
 72
     1
  1
A3
  7
SLDTEXTSTYLE0
 73
     1
 44
1.0
  0
MTEXT
  5
170
330
1F
100
AcDbEntity
  8
VORLAGE_TEXT
100
AcDbMText
 10
390.594604279
 20
8.3847467643
 30
0.0
 40
1.8
 41
0.0
 71
     2
 72
     1
  1
CAD-System: SolidWorks
  7
SLDTEXTSTYLE0
 73
     1
 44
1.0
  0
MTEXT
  5
171
330
1F
100
AcDbEntity
  8
TEXT
100
AcDbMText
 10
404.0541923444
 20
28.4394692021
 30
0.0
 40
5.0
 41
0.0
 71
     2
 72
     1
  1
-
  7
SLDTEXTSTYLE0
 73
     1
 44
1.0
  0
MTEXT
  5
172
330
1F
100
AcDbEntity
  8
TEXT
100
AcDbMText
 10
249.556836311
 20
38.5581729516
 30
0.0
 40
2.0
 41
0.0
 71
     1
 72
     1
  1
Freigegeben
  7
SLDTEXTSTYLE0
 73
     1
 44
1.0
  0
MTEXT
  5
173
330
1F
100
AcDbEntity
  8
TEXT
100
AcDbMText
 10
284.0823755556
 20
43.5473338598
 30
0.0
 40
2.0
 41
0.0
 71
     2
 72
     1
  1
nae
  7
SLDTEXTSTYLE0
 73
     1
 44
1.0
  0
MTEXT
  5
174
330
1F
100
AcDbEntity
  8
TEXT
100
AcDbMText
 10
249.5284668163
 20
43.5603133928
 30
0.0
 40
2.0
 41
0.0
 71
     1
 72
     1
  1
21.09.2023
  7
SLDTEXTSTYLE0
 73
     1
 44
1.0
  0
MTEXT
  5
175
330
1F
100
AcDbEntity
  8
TEXT
100
AcDbMText
 10
284.1309088133
 20
48.5138972561
 30
0.0
 40
2.0
 41
0.0
 71
     2
 72
     1
  1
AB
  7
SLDTEXTSTYLE0
 73
     1
 44
1.0
  0
MTEXT
  5
176
330
1F
100
AcDbEntity
  8
TEXT
100
AcDbMText
 10
249.5284668163
 20
48.4989062069
 30
0.0
 40
2.0
 41
0.0
 71
     1
 72
     1
  1
05.02.2021
  7
SLDTEXTSTYLE0
 73
     1
 44
1.0
  0
MTEXT
  5
177
330
1F
100
AcDbEntity
  8
0
  6
Continuous
 62
     7
370
     0
100
AcDbMText
 10
372.2007348103
 20
38.8723054925
 30
0.0
 40
1.5
 41
0.0
 71
     1
 72
     1
  1
Copyright reserved! © ACO AG
  7
SLDTEXTSTYLE0
 73
     1
 44
1.0
  0
INSERT
  5
180
330
1F
100
AcDbEntity
  8
0
  6
Continuous
 62
     7
370
     0
100
AcDbBlockReference
  2
SW_NOTE_0_3
 10
372.2203831445
 20
51.2202922854
 30
0.0
  0
MTEXT
  5
181
330
1F
100
AcDbEntity
  8
TEXT
100
AcDbMText
 10
364.9468572407
 20
18.4594173137
 30
0.0
 40
2.0
 41
0.0
 71
     1
 72
     1
  1
Erstausgabe
  7
SLDTEXTSTYLE0
 73
     1
 44
1.0
  0
MTEXT
  5
182
330
1F
100
AcDbEntity
  8
TEXT
100
AcDbMText
 10
330.2607505021
 20
18.524501801
 30
0.0
 40
2.0
 41
0.0
 71
     2
 72
     1
  1
-
  7
SLDTEXTSTYLE0
 73
     1
 44
1.0
  0
MTEXT
  5
183
330
1F
100
AcDbEntity
  8
VORLAGE_TEXT
100
AcDbMText
 10
311.764909851
 20
46.3490312465
 30
0.0
 40
5.0
 41
0.0
 71
     2
 72
     1
  1
1:1
  7
SLDTEXTSTYLE0
 73
     1
 44
1.0
  0
MTEXT
  5
184
330
1F
100
AcDbEntity
  8
VORLAGE_TEXT
100
AcDbMText
 10
230.1851195342
 20
38.7793829468
 30
0.0
 40
2.0
 41
0.0
 71
     1
 72
     1
  1
Status:
  7
SLDTEXTSTYLE0
 73
     1
 44
1.0
  0
MTEXT
  5
185
330
1F
100
AcDbEntity
  8
TEXT
100
AcDbMText
 10
344.926838705
 20
28.2772828851
 30
0.0
 40
5.0
 41
0.0
 71
     1
 72
     1
  1
98574
  7
SLDTEXTSTYLE0
 73
     1
 44
1.0
  0
MTEXT
  5
186
330
1F
100
AcDbEntity
  8
TEXT
100
AcDbMText
 10
231.1132118803
 20
14.9211049657
 30
0.0
 40
2.5
 41
0.0
 71
     1
 72
     1
  1
Art. Nr.: 2021463
  7
SLDTEXTSTYLE0
 73
     1
 44
1.0
  0
MTEXT
  5
187
330
1F
100
AcDbEntity
  8
TEXT
100
AcDbMText
 10
231.1475981734
 20
21.4529560996
 30
0.0
 40
2.5
 41
0.0
 71
     1
 72
     1
  1
Pipe Rohre mit Steckmuffe DN70
  7
SLDTEXTSTYLE0
 73
     1
 44
1.0
  0
MTEXT
  5
188
330
1F
100
AcDbEntity
  8
TEXT
100
AcDbMText
 10
231.1159560181
 20
33.0904969858
 30
0.0
 40
2.5
 41
0.0
 71
     1
 72
     1
  1
Haustechnik
  7
SLDTEXTSTYLE0
 73
     1
 44
1.0
  0
MTEXT
  5
189
330
1F
100
AcDbEntity
  8
TEXT
100
AcDbMText
 10
231.1475981734
 20
28.0307932366
 30
0.0
 40
3.5
 41
0.0
 71
     1
 72
     1
  1
Pipe Rohr mit Steckmuffe DN70 x 1000
  7
SLDTEXTSTYLE0
 73
     1
 44
1.0
  0
MTEXT
  5
18A
330
1F
100
AcDbEntity
  8
VORLAGE_TEXT
100
AcDbMText
 10
348.2746465368
 20
53.819119072
 30
0.0
 40
2.0
 41
0.0
 71
     1
 72
     1
  1
Projektion: ISO-E
  7
SLDTEXTSTYLE0
 73
     1
 44
1.0
  0
MTEXT
  5
18B
330
1F
100
AcDbEntity
  8
TEXT
100
AcDbMText
 10
337.7677091855
 20
49.3670227094
 30
0.0
 40
2.5
 41
0.0
 71
     2
 72
     1
  1
Millimeter
  7
SLDTEXTSTYLE0
 73
     1
 44
1.0
  0
MTEXT
  5
18C
330
1F
100
AcDbEntity
  8
VORLAGE_TEXT
100
AcDbMText
 10
337.6323777421
 20
53.855374072
 30
0.0
 40
2.0
 41
0.0
 71
     2
 72
     1
  1
Masseinheit:
  7
SLDTEXTSTYLE0
 73
     1
 44
1.0
  0
MTEXT
  5
18D
330
1F
100
AcDbEntity
  8
VORLAGE_TEXT
100
AcDbMText
 10
337.6114490186
 20
43.5452078816
 30
0.0
 40
2.0
 41
0.0
 71
     2
 72
     1
  1
Blatt / Anz.:
  7
SLDTEXTSTYLE0
 73
     1
 44
1.0
  0
MTEXT
  5
18E
330
1F
100
AcDbEntity
  8
VORLAGE_TEXT
100
AcDbMText
 10
329.2895578243
 20
28.4139191092
 30
0.0
 40
5.0
 41
0.0
 71
     1
 72
     1
  1
CH
  7
SLDTEXTSTYLE0
 73
     1
 44
1.0
  0
MTEXT
  5
18F
330
1F
100
AcDbEntity
  8
VORLAGE_TEXT
100
AcDbMText
 10
330.40704
 20
33.692638072
 30
0.0
 40
2.0
 41
0.0
 71
     1
 72
     1
  1
Zeichnung Nr.:
  7
SLDTEXTSTYLE0
 73
     1
 44
1.0
  0
MTEXT
  5
190
330
1F
100
AcDbEntity
  8
VORLAGE_TEXT
100
AcDbMText
 10
269.897953
 20
75.161075072
 30
0.0
 40
2.0
 41
0.0
 71
     1
 72
     1
  1
Gewicht:
  7
SLDTEXTSTYLE0
 73
     1
 44
1.0
  0
MTEXT
  5
191
330
1F
100
AcDbEntity
  8
VORLAGE_TEXT
100
AcDbMText
 10
230.0
 20
64.542328072
 30
0.0
 40
2.0
 41
0.0
 71
     1
 72
     1
  1
zul. Abweichung:
  7
SLDTEXTSTYLE0
 73
     1
 44
1.0
  0
MTEXT
  5
192
330
1F
100
AcDbEntity
  8
VORLAGE_TEXT
100
AcDbMText
 10
269.612607
 20
64.542328072
 30
0.0
 40
2.0
 41
0.0
 71
     1
 72
     1
  1
Oberfläche:
  7
SLDTEXTSTYLE0
 73
     1
 44
1.0
  0
MTEXT
  5
193
330
1F
100
AcDbEntity
  8
VORLAGE_TEXT
100
AcDbMText
 10
230.261411
 20
43.4433838912
 30
0.0
 40
2.0
 41
0.0
 71
     1
 72
     1
  1
Freigegeben:
  7
SLDTEXTSTYLE0
 73
     1
 44
1.0
  0
MTEXT
  5
194
330
1F
100
AcDbEntity
  8
VORLAGE_TEXT
100
AcDbMText
 10
230.0
 20
75.161075072
 30
0.0
 40
2.0
 41
0.0
 71
     1
 72
     1
  1
Werkstoff:
  7
SLDTEXTSTYLE0
 73
     1
 44
1.0
  0
MTEXT
  5
195
330
1F
100
AcDbEntity
  8
VORLAGE_TEXT
100
AcDbMText
 10
254.035545
 20
53.129475072
 30
0.0
 40
2.0
 41
0.0
 71
     1
 72
     1
  1
Datum:
  7
SLDTEXTSTYLE0
 73
     1
 44
1.0
  0
MTEXT
  5
196
330
1F
100
AcDbEntity
  8
VORLAGE_TEXT
100
AcDbMText
 10
279.934928
 20
53.136060072
 30
0.0
 40
2.0
 41
0.0
 71
     1
 72
     1
  1
Name:
  7
SLDTEXTSTYLE0
 73
     1
 44
1.0
  0
MTEXT
  5
197
330
1F
100
AcDbEntity
  8
VORLAGE_TEXT
100
AcDbMText
 10
312.162455406
 20
53.881591072
 30
0.0
 40
2.0
 41
0.0
 71
     2
 72
     1
  1
Massstab:
  7
SLDTEXTSTYLE0
 73
     1
 44
1.0
  0
MTEXT
  5
198
330
1F
100
AcDbEntity
  8
VORLAGE_TEXT
100
AcDbMText
 10
403.9552944035
 20
33.324874072
 30
0.0
 40
2.0
 41
0.0
 71
     2
 72
     1
  1
Index:
  7
SLDTEXTSTYLE0
 73
     1
 44
1.0
  0
MTEXT
  5
199
330
1F
100
AcDbEntity
  8
VORLAGE_TEXT
100
AcDbMText
 10
230.261411
 20
48.4499477886
 30
0.0
 40
2.0
 41
0.0
 71
     1
 72
     1
  1
Erstellt:
  7
SLDTEXTSTYLE0
 73
     1
 44
1.0
  0
MTEXT
  5
19B
330
1F
100
AcDbEntity
  8
VORLAGE_TEXT
100
AcDbMText
 10
337.6348165843
 20
39.869706576
 30
0.0
 40
2.5
 41
0.0
 71
     2
 72
     1
  1
1 / 1
  7
SLDTEXTSTYLE1
 73
     1
 44
1.0
  0
MTEXT
  5
19C
330
1F
100
AcDbEntity
  8
TEXT
100
AcDbMText
 10
269.612607
 20
60.8119428599
 30
0.0
 40
3.0
 41
0.0
 71
     1
 72
     1
  1
DIN ISO 1302
  7
SLDTEXTSTYLE0
 73
     1
 44
1.0
  0
MTEXT
  5
19D
330
1F
100
AcDbEntity
  8
TEXT
100
AcDbMText
 10
230.0
 20
60.8119428599
 30
0.0
 40
3.0
 41
0.0
 71
     1
 72
     1
  1
Norm
  7
SLDTEXTSTYLE0
 73
     1
 44
1.0
  0
MTEXT
  5
19E
330
1F
100
AcDbEntity
  8
TEXT
100
AcDbMText
 10
269.612607
 20
71.2121947186
 30
0.0
 40
3.0
 41
0.0
 71
     1
 72
     1
  1
1.99 kg
  7
SLDTEXTSTYLE0
 73
     1
 44
1.0
  0
MTEXT
  5
19F
330
1F
100
AcDbEntity
  8
TEXT
100
AcDbMText
 10
230.0
 20
71.2121947186
 30
0.0
 40
3.0
 41
0.0
 71
     1
 72
     1
  1
1.4404 / EPDM
  7
SLDTEXTSTYLE0
 73
     1
 44
1.0
  0
LINE
  5
1A0
330
1F
100
AcDbEntity
  8
0
  6
Continuous
 62
     7
370
    25
100
AcDbLine
 10
347.2557623717
 20
269.8788820025
 30
0.0
 11
347.4362277816
 21
269.3413254447
 31
0.0
  0
ARC
  5
1A1
330
1F
100
AcDbEntity
  8
0
  6
Continuous
 62
     7
370
    25
100
AcDbCircle
 10
345.0896505848
 20
269.1437514315
 30
0.0
 40
3.837836686994121
100
AcDbArc
 50
359.9872554873
 51
48.5763771385
  0
ARC
  5
1A2
330
1F
100
AcDbEntity
  8
0
  6
Continuous
 62
     7
370
    25
100
AcDbCircle
 10
335.4397286523
 20
269.0960778211
 30
0.0
 40
3.94140649830319
100
AcDbArc
 50
133.0953292218
 51
178.6164543452
  0
LINE
  5
1A3
330
1F
100
AcDbEntity
  8
0
  6
Continuous
 62
     7
370
    25
100
AcDbLine
 10
348.9355334589
 20
267.2410330917
 30
0.0
 11
348.9355334589
 21
269.2191701912
 31
0.0
  0
LINE
  5
1A4
330
1F
100
AcDbEntity
  8
0
  6
Continuous
 62
     7
370
    25
100
AcDbLine
 10
331.4955334589
 20
269.2191701912
 30
0.0
 11
331.4955334589
 21
267.2410330917
 31
0.0
  0
LINE
  5
1A5
330
1F
100
AcDbEntity
  8
0
  6
Continuous
 62
     7
370
    25
100
AcDbLine
 10
348.0155334589
 20
270.056869544
 30
0.0
 11
348.0155334589
 21
270.6855373602
 31
0.0
  0
LINE
  5
1A6
330
1F
100
AcDbEntity
  8
0
  6
Continuous
 62
     7
370
    25
100
AcDbLine
 10
332.4155334589
 20
270.6855373602
 30
0.0
 11
332.4155334589
 21
270.056869544
 31
0.0
  0
LWPOLYLINE
  5
1A7
330
1F
100
AcDbEntity
  8
0
  6
Continuous
 62
     7
370
    25
100
AcDbPolyline
 90
       20
 70
   128
 43
0.0
 10
332.6445965318
 20
270.4029256453
 10
332.7218694423
 20
270.7290615655
 10
332.8529719261
 20
271.0587164853
 10
333.0329366956
 20
271.379998501
 10
333.2607922548
 20
271.6930338963
 10
333.5358221718
 20
271.9969162544
 10
333.8570337102
 20
272.289910591
 10
334.2229032907
 20
272.5697848973
 10
334.6311414182
 20
272.8339998056
 10
335.0789075845
 20
273.0800847298
 10
335.5628105776
 20
273.3057140895
 10
336.0787102251
 20
273.5086967455
 10
336.6215420846
 20
273.6870407225
 10
337.1847898901
 20
273.8389768629
 10
337.7589658078
 20
273.9629436386
 10
338.3264124406
 20
274.0574509826
 10
338.8676176847
 20
274.1233390363
 10
339.2580637589
 20
274.1568057023
 10
339.6767912744
 20
274.1799485456
 10
340.2155334589
 20
274.1906287831
  0
LWPOLYLINE
  5
1A8
330
1F
100
AcDbEntity
  8
0
  6
Continuous
 62
     7
370
    25
100
AcDbPolyline
 90
       23
 70
   128
 43
0.0
 10
340.2155334589
 20
274.1906287831
 10
340.9247287961
 20
274.1721046406
 10
341.2104403676
 20
274.1540977406
 10
341.6803352183
 20
274.1110508907
 10
342.1602618959
 20
274.0493633938
 10
342.6638486279
 20
273.9645122415
 10
343.1742712343
 20
273.8561699976
 10
343.6823720219
 20
273.724137445
 10
344.1801820162
 20
273.568918447
 10
344.661152394
 20
273.3914710557
 10
345.1197832774
 20
273.1931245422
 10
345.5514496378
 20
272.9754954539
 10
345.9522915951
 20
272.7404100502
 10
346.3191481117
 20
272.4898198547
 10
346.6495115034
 20
272.2256985627
 10
346.9413627347
 20
271.9500288939
 10
347.1933230778
 20
271.6644664765
 10
347.404454234
 20
271.3701258725
 10
347.5740014621
 20
271.0672299945
 10
347.7009098453
 20
270.7546554411
 10
347.7829428275
 20
270.4295053741
 10
347.8153177993
 20
270.0871991565
 10
347.8117218023
 20
270.0366727358
  0
LWPOLYLINE
  5
1A9
330
1F
100
AcDbEntity
  8
0
  6
Continuous
 62
     7
370
    25
100
AcDbPolyline
 90
       23
 70
   128
 43
0.0
 10
340.2155334589
 20
261.9534568695
 10
340.9733967285
 20
261.9730767037
 10
341.2789368862
 20
261.9921591569
 10
341.7821656252
 20
262.0378408643
 10
342.297399763
 20
262.1034593507
 10
342.8399769079
 20
262.1940333539
 10
343.3926305358
 20
262.3102393929
 10
343.9463141795
 20
262.4527467265
 10
344.4932014938
 20
262.6216130407
 10
345.0269018162
 20
262.8165559591
 10
345.5420194129
 20
263.0370429455
 10
346.0339178543
 20
263.2823747984
 10
346.4985433362
 20
263.5517481766
 10
346.9322842895
 20
263.8443008334
 10
347.3317703396
 20
264.1590705893
 10
347.693842924
 20
264.4950208207
 10
348.0155199767
 20
264.8510658324
 10
348.2938836422
 20
265.2260020372
 10
348.5260550428
 20
265.6184922301
 10
348.7091765933
 20
266.0270914028
 10
348.8403564203
 20
266.4503196661
 10
348.916524967
 20
266.8867405621
 10
348.9274871769
 20
267.1647606677
  0
LWPOLYLINE
  5
1AA
330
1F
100
AcDbEntity
  8
0
  6
Continuous
 62
     7
370
    25
100
AcDbPolyline
 90
       23
 70
   128
 43
0.0
 10
331.4994712118
 20
267.2131062982
 10
331.4968682597
 20
267.1470910487
 10
331.5418560109
 20
266.6884759826
 10
331.6543158992
 20
266.2219552366
 10
331.8159757693
 20
265.8013146905
 10
332.0329400895
 20
265.3903497172
 10
332.3038207662
 20
264.9922908749
 10
332.6264693058
 20
264.6103414426
 10
332.9980605523
 20
264.247432824
 10
333.4153119679
 20
263.9060576231
 10
333.8746797666
 20
263.5882573983
 10
334.3723448262
 20
263.2957636514
 10
334.9043298612
 20
263.0299962915
 10
335.4665166595
 20
262.7921161723
 10
336.0542465616
 20
262.5831855582
 10
336.6619062901
 20
262.4041719674
 10
337.2818947556
 20
262.255964975
 10
337.9015898035
 20
262.1394418188
 10
338.4913906063
 20
262.0558468376
 10
338.9892647986
 20
262.0049878625
 10
339.410058941
 20
261.9756249232
 10
339.9257777545
 20
261.9563200761
 10
340.2155334589
 20
261.9534568695
  0
LINE
  5
1AB
330
1F
100
AcDbEntity
  8
0
  6
Continuous
 62
     7
370
    25
100
AcDbLine
 10
347.9755334589
 20
262.283063438
 30
0.0
 11
347.9755334589
 21
264.8068071571
 31
0.0
  0
LINE
  5
1AC
330
1F
100
AcDbEntity
  8
0
  6
Continuous
 62
     7
370
    25
100
AcDbLine
 10
332.4555334589
 20
264.8126942869
 30
0.0
 11
332.4555334589
 21
262.283063438
 31
0.0
  0
ARC
  5
1AD
330
1F
100
AcDbEntity
  8
0
  6
Continuous
 62
     7
370
    25
100
AcDbCircle
 10
345.3314602575
 20
262.1916408417
 30
0.0
 40
2.638514869916338
100
AcDbArc
 50
337.4420042088
 51
1.8424318918
  0
ARC
  5
1AE
330
1F
100
AcDbEntity
  8
0
  6
Continuous
 62
     7
370
    25
100
AcDbCircle
 10
335.04092094
 20
262.1887539267
 30
0.0
 40
2.580296323238833
100
AcDbArc
 50
178.0039822638
 51
204.8638256803
  0
LINE
  5
1AF
330
1F
100
AcDbEntity
  8
0
  6
Continuous
 62
     7
370
    25
100
AcDbLine
 10
332.6645744008
 20
261.1748002373
 30
0.0
 11
332.8757657915
 21
260.6240873703
 31
0.0
  0
LINE
  5
1B0
330
1F
100
AcDbEntity
  8
0
  6
Continuous
 62
     7
370
    25
100
AcDbLine
 10
347.5553011262
 20
260.6240873703
 30
0.0
 11
347.7664925169
 21
261.1748002373
 31
0.0
  0
LINE
  5
1B1
330
1F
100
AcDbEntity
  8
0
  6
Continuous
 62
     7
370
    25
100
AcDbLine
 10
347.7155334589
 20
100.182160741
 30
0.0
 11
347.7155334589
 21
261.0419169371
 31
0.0
  0
LINE
  5
1B2
330
1F
100
AcDbEntity
  8
0
  6
Continuous
 62
     7
370
    25
100
AcDbLine
 10
332.7155334589
 20
261.0419169371
 30
0.0
 11
332.7155334589
 21
100.182160741
 31
0.0
  0
ARC
  5
1B3
330
1F
100
AcDbEntity
  8
0
  6
Continuous
 62
     7
370
    25
100
AcDbCircle
 10
334.9487620359
 20
100.0904041627
 30
0.0
 40
2.227761537639497
100
AcDbArc
 50
177.5548923126
 51
201.1711659337
  0
ARC
  5
1B4
330
1F
100
AcDbEntity
  8
0
  6
Continuous
 62
     7
370
    25
100
AcDbCircle
 10
345.4158185503
 20
100.0815885016
 30
0.0
 40
2.29318047220981
100
AcDbArc
 50
339.1419888269
 51
0.9192719069
  0
LINE
  5
1B5
330
1F
100
AcDbEntity
  8
0
  6
Continuous
 62
     7
370
    25
100
AcDbLine
 10
332.8446690603
 20
99.3411529719
 30
0.0
 11
333.1125263432
 21
98.4776655368
 31
0.0
  0
LINE
  5
1B6
330
1F
100
AcDbEntity
  8
0
  6
Continuous
 62
     7
370
    25
100
AcDbLine
 10
347.3185405745
 20
98.4776655368
 30
0.0
 11
347.5863978575
 21
99.3411529719
 31
0.0
  0
ARC
  5
1B7
330
1F
100
AcDbEntity
  8
0
  6
Continuous
 62
     7
370
    25
100
AcDbCircle
 10
340.3206199468
 20
261.5698133857
 30
0.0
 40
11.54814381859902
100
AcDbArc
 50
72.9951323838
 51
87.7472905997
  0
ARC
  5
1B8
330
1F
100
AcDbEntity
  8
0
  6
Continuous
 62
     7
370
    25
100
AcDbCircle
 10
340.1386516542
 20
261.3719361637
 30
0.0
 40
11.74724970617361
100
AcDbArc
 50
91.9771122376
 51
105.6307814634
  0
LINE
  5
1B9
330
1F
100
AcDbEntity
  8
0
  6
Continuous
 62
     7
370
    25
100
AcDbLine
 10
345.4553527557
 20
270.464053311
 30
0.0
 11
345.3126158649
 21
270.5329121356
 31
0.0
  0
ARC
  5
1BA
330
1F
100
AcDbEntity
  8
0
  6
Continuous
 62
     7
370
    25
100
AcDbCircle
 10
340.2155334589
 20
258.6155624615
 30
0.0
 40
12.97879656251652
100
AcDbArc
 50
69.8570637325
 51
110.1429362675
  0
LINE
  5
1BB
330
1F
100
AcDbEntity
  8
0
  6
Continuous
 62
     7
370
    25
100
AcDbLine
 10
335.1184510528
 20
270.5329121356
 30
0.0
 11
334.975714162
 21
270.464053311
 31
0.0
  0
ARC
  5
1BC
330
1F
100
AcDbEntity
  8
0
  6
Continuous
 62
     7
370
    25
100
AcDbCircle
 10
340.2155334589
 20
257.5074800295
 30
0.0
 40
14.07347902564762
100
AcDbArc
 50
85.8473384236
 51
94.1526615764
  0
LWPOLYLINE
  5
1BD
330
1F
100
AcDbEntity
  8
0
  6
Continuous
 62
     7
370
    25
100
AcDbPolyline
 90
       29
 70
   128
 43
0.0
 10
333.137937343
 20
269.086999309
 10
333.1619073652
 20
269.1335712276
 10
333.405599198
 20
269.5267463286
 10
333.7148744204
 20
269.9042391032
 10
334.0867545429
 20
270.2624140897
 10
334.5176581568
 20
270.5978218672
 10
335.0034354246
 20
270.9072322753
 10
335.5394080457
 20
271.1876655228
 10
336.1204143107
 20
271.4364208842
 10
336.7408588118
 20
271.6511027093
 10
337.3947663291
 20
271.8296434949
 10
338.0758393759
 20
271.9703237955
 10
338.7775188465
 20
272.0717887829
 10
339.4930471838
 20
272.1330612939
 10
340.2155334589
 20
272.1535512407
 10
340.938019734
 20
272.1330612939
 10
341.6535480713
 20
272.0717887829
 10
342.3552275418
 20
271.9703237955
 10
343.0363005886
 20
271.8296434949
 10
343.690208106
 20
271.6511027093
 10
344.310652607
 20
271.4364208842
 10
344.8916588721
 20
271.1876655228
 10
345.4276314932
 20
270.9072322753
 10
345.9134087609
 20
270.5978218672
 10
346.3443123748
 20
270.2624140897
 10
346.7161924974
 20
269.9042391032
 10
347.0254677198
 20
269.5267463286
 10
347.2691595526
 20
269.1335712276
 10
347.2931295747
 20
269.086999309
  0
LWPOLYLINE
  5
1BE
330
1F
100
AcDbEntity
  8
0
  6
Continuous
 62
     7
370
    25
100
AcDbPolyline
 90
       20
 70
   128
 43
0.0
 10
334.6557818574
 20
270.2438848194
 10
334.8300391318
 20
270.3592122223
 10
335.3420437396
 20
270.654786191
 10
335.9024832778
 20
270.9194617226
 10
336.5057878464
 20
271.1506083529
 10
337.1459615336
 20
271.3459288427
 10
337.8166420056
 20
271.5034820094
 10
338.5111637386
 20
271.6217020187
 10
339.2226242636
 20
271.6994139471
 10
339.9439527663
 20
271.7358454585
 10
340.66798036
 20
271.7306344802
 10
341.387511333
 20
271.6838328013
 10
342.0953946634
 20
271.5959055578
 10
342.7845950886
 20
271.4677266102
 10
343.4482630252
 20
271.3005698585
 10
344.0798026429
 20
271.0960965815
 10
344.6729374174
 20
270.8563389267
 10
345.2217725087
 20
270.5836797131
 10
345.7208533473
 20
270.2808287507
 10
345.7752850603
 20
270.2438848194
  0
LWPOLYLINE
  5
1BF
330
1F
100
AcDbEntity
  8
0
  6
Continuous
 62
     7
370
    25
100
AcDbPolyline
 90
       28
 70
   128
 43
0.0
 10
347.0433126649
 20
268.7586212705
 10
346.9282913419
 20
268.987467895
 10
346.6796069122
 20
269.3671086386
 10
346.3666796165
 20
269.7305686565
 10
345.9926194668
 20
270.0742357199
 10
345.5611440408
 20
270.3946943109
 10
345.0765415353
 20
270.6887595682
 10
344.5436281476
 20
270.9535089391
 10
343.9677002104
 20
271.1863112254
 10
343.3544815542
 20
271.3848527335
 10
342.7100666217
 20
271.5471602685
 10
342.0408598979
 20
271.6716207454
 10
341.3535122599
 20
271.7569972199
 10
340.6548548773
 20
271.8024411824
 10
339.9518313211
 20
271.8075009902
 10
339.2514285551
 20
271.7721263567
 10
338.5606074969
 20
271.6966688511
 10
337.8862338364
 20
271.5818784037
 10
337.235009802
 20
271.4288958538
 10
336.6134075508
 20
271.2392416105
 10
336.0276048451
 20
271.014800543
 10
335.4834236556
 20
270.7578032474
 10
334.9862722992
 20
270.4708038783
 10
334.5410916896
 20
270.1566547645
 10
334.1523062317
 20
269.8184780608
 10
333.8237798499
 20
269.4596347193
 10
333.5587775872
 20
269.0836910865
 10
333.3877542529
 20
268.7586212705
  0
LWPOLYLINE
  5
1C0
330
1F
100
AcDbEntity
  8
0
  6
Continuous
 62
     7
370
    25
100
AcDbPolyline
 90
       28
 70
   128
 43
0.0
 10
333.4182192867
 20
268.723054593
 10
333.4440925751
 20
268.7766378588
 10
333.67485376
 20
269.1663730758
 10
333.9727311696
 20
269.5406314891
 10
334.3346681785
 20
269.8955727009
 10
334.7569508233
 20
270.2275545341
 10
335.2352459125
 20
270.5331704058
 10
335.7646454914
 20
270.8092842836
 10
336.3397172039
 20
271.0530628654
 10
336.9545600359
 20
271.2620046532
 10
337.6028648681
 20
271.4339656215
 10
338.2779792155
 20
271.5671812179
 10
338.9729754914
 20
271.6602844703
 10
339.6807220935
 20
271.7123200133
 10
340.3939565839
 20
271.7227538918
 10
341.1053602116
 20
271.69147904
 10
341.8076330127
 20
271.6188163803
 10
342.4935687179
 20
271.5055115299
 10
343.1561286986
 20
271.3527271499
 10
343.788514193
 20
271.1620310148
 10
344.38423607
 20
270.9353799249
 10
344.9371814171
 20
270.6750996272
 10
345.4416762667
 20
270.3838609497
 10
345.892543819
 20
270.0646523954
 10
346.2851575627
 20
269.7207494759
 10
346.6154887497
 20
269.3556811008
 10
346.8801477348
 20
268.9731933653
 10
347.012847631
 20
268.723054593
  0
LINE
  5
1C1
330
1F
100
AcDbEntity
  8
0
  6
Continuous
 62
     7
370
    25
100
AcDbLine
 10
331.4956374159
 20
269.1945896613
 30
0.0
 11
331.4955334589
 21
269.2191701912
 31
0.0
  0
LINE
  5
1C2
330
1F
100
AcDbEntity
  8
0
  6
Continuous
 62
     7
370
    25
100
AcDbLine
 10
348.9355334589
 20
269.2191701912
 30
0.0
 11
348.9347566999
 21
269.1519810618
 31
0.0
  0
LINE
  5
1C3
330
1F
100
AcDbEntity
  8
0
  6
Continuous
 62
     7
370
    25
100
AcDbLine
 10
331.4956374159
 20
267.2164525617
 30
0.0
 11
331.4955334589
 21
267.2410330917
 31
0.0
  0
LINE
  5
1C4
330
1F
100
AcDbEntity
  8
0
  6
Continuous
 62
     7
370
    25
100
AcDbLine
 10
348.9355334589
 20
267.2410330917
 30
0.0
 11
348.9347566999
 21
267.1738439622
 31
0.0
  0
LWPOLYLINE
  5
1C5
330
1F
100
AcDbEntity
  8
0
  6
Continuous
 62
     7
370
    25
100
AcDbPolyline
 90
       67
 70
   128
 43
0.0
 10
345.7309663521
 20
267.5015457241
 10
345.181716817
 20
267.2133054379
 10
344.5874927564
 20
266.9565102217
 10
343.9536755553
 20
266.7334856527
 10
343.2860051605
 20
266.546251476
 10
342.5905280986
 20
266.3965033132
 10
341.8735427174
 20
266.2855973069
 10
341.1415421476
 20
266.2145378391
 10
340.4011554997
 20
266.1839684353
 10
339.6590878299
 20
266.1941659368
 10
338.9220594179
 20
266.2450379934
 10
338.1967449071
 20
266.3361238999
 10
337.489712858
 20
266.4665987682
 10
336.8073662624
 20
266.6352809977
 10
336.1558845567
 20
266.840642976
 10
335.5411676601
 20
267.0808249133
 10
334.968782544
 20
267.3536516847
 10
334.4439128167
 20
267.6566525287
 10
333.9713117797
 20
267.9870834228
 10
333.5552593811
 20
268.3419519336
 10
333.199523456
 20
268.718044317
 10
332.9073256039
 20
269.111954622
 10
332.6813120138
 20
269.520115536
 10
332.5235294999
 20
269.9388306905
 10
332.4354069649
 20
270.3643081362
 10
332.4177424603
 20
270.7926946835
 10
332.4706959584
 20
271.2201107975
 10
332.5937879043
 20
271.6426857317
 10
332.7859035582
 20
272.056592582
 10
333.0453030909
 20
272.4580829439
 10
333.3696373402
 20
272.8435208585
 10
333.7559690849
 20
273.2094157404
 10
334.2007996449
 20
273.5524539888
 10
334.7001005656
 20
273.8695289963
 10
335.2493501007
 20
274.1577692825
 10
335.8435741614
 20
274.4145644987
 10
336.4773913625
 20
274.6375890677
 10
337.1450617572
 20
274.8248232444
 10
337.8405388192
 20
274.9745714072
 10
338.5575242004
 20
275.0854774135
 10
339.2895247701
 20
275.1565368813
 10
340.029911418
 20
275.1871062851
 10
340.7719790878
 20
275.1769087837
 10
341.5090074999
 20
275.1260367271
 10
342.2343220107
 20
275.0349508206
 10
342.9413540597
 20
274.9044759523
 10
343.6237006554
 20
274.7357937228
 10
344.2751823611
 20
274.5304317444
 10
344.8898992577
 20
274.2902498072
 10
345.4622843737
 20
274.0174230358
 10
345.9871541011
 20
273.7144221917
 10
346.4597551381
 20
273.3839912976
 10
346.8758075366
 20
273.0291227868
 10
347.2315434618
 20
272.6530304035
 10
347.5237413139
 20
272.2591200984
 10
347.7497549039
 20
271.8509591845
 10
347.9075374179
 20
271.43224403
 10
347.9956599528
 20
271.0067665843
 10
348.0133244575
 20
270.5783800369
 10
347.9603709593
 20
270.1509639229
 10
347.8372790134
 20
269.7283889888
 10
347.6451633596
 20
269.3144821384
 10
347.3857638268
 20
268.9129917765
 10
347.0614295775
 20
268.5275538619
 10
346.6750978328
 20
268.16165898
 10
346.2302672729
 20
267.8186207316
 10
345.7309663521
 20
267.5015457241
  0
LWPOLYLINE
  5
1C6
330
1F
100
AcDbEntity
  8
0
  6
Continuous
 62
     7
370
    25
100
AcDbPolyline
 90
       66
 70
   128
 43
0.0
 10
334.8415219219
 20
273.7878881851
 10
335.3852766952
 20
274.0728253204
 10
335.9741302745
 20
274.3261362607
 10
336.6025846926
 20
274.5454559099
 10
337.2647722399
 20
274.7287365396
 10
337.9545102496
 20
274.874266908
 10
338.6653588238
 20
274.9806882372
 10
339.3906809609
 20
275.0470068999
 10
340.1237045235
 20
275.0726036966
 10
340.8575854682
 20
275.057239637
 10
341.5854717463
 20
275.0010581711
 10
342.3005672796
 20
274.9045838502
 10
342.996195414
 20
274.7687174289
 10
343.6658612569
 20
274.5947274555
 10
344.3033123188
 20
274.3842384275
 10
344.9025968908
 20
274.1392156241
 10
345.4581196145
 20
273.8619467573
 10
345.9646937238
 20
273.5550206119
 10
346.4175894727
 20
273.2213028744
 10
346.8125782956
 20
272.8639093776
 10
347.1459722884
 20
272.4861770082
 10
347.4146586412
 20
272.0916325515
 10
347.6161287018
 20
271.6839597629
 10
347.7485013986
 20
271.2669649733
 10
347.8105408034
 20
270.8445415508
 10
347.801667671
 20
270.420633549
 10
347.7219648474
 20
269.9991988827
 10
347.5721764964
 20
269.5841723738
 10
347.3537011516
 20
269.179429013
 10
347.0685786583
 20
268.7887477801
 10
346.7194711284
 20
268.4157763605
 10
346.3096380848
 20
268.0639970877
 10
345.8429060284
 20
267.7366944302
 10
345.3236327105
 20
267.4369243245
 10
344.7566664461
 20
267.1674856435
 10
344.1473008466
 20
266.9308940634
 10
343.5012253944
 20
266.7293585762
 10
342.8244723218
 20
266.5647608644
 10
342.12336029
 20
266.4386377324
 10
341.4044353932
 20
266.352166758
 10
340.6744100393
 20
266.3061552973
 10
339.9401002784
 20
266.301032947
 10
339.2083621629
 20
266.3368475331
 10
338.4860277344
 20
266.4132646644
 10
337.7798412349
 20
266.5295708547
 10
337.0963961374
 20
266.6846801846
 10
336.4420735847
 20
266.8771444399
 10
335.8229828101
 20
267.1051666338
 10
335.2449040975
 20
267.3666177845
 10
334.7132348119
 20
267.659056793
 10
334.2329390062
 20
267.9797532352
 10
333.8085010731
 20
268.3257128547
 10
333.443883875
 20
268.6937055198
 10
333.1424917446
 20
269.0802953821
 10
332.907138699
 20
269.4818729562
 10
332.7400221661
 20
269.8946888206
 10
332.6427024679
 20
270.3148886247
 10
332.6160882524
 20
270.7385490762
 10
332.6604280091
 20
271.1617145716
 10
332.7753077499
 20
271.5804341286
 10
332.9596548734
 20
271.9907982757
 10
333.2117481803
 20
272.3889755532
 10
333.5292339433
 20
272.7712482874
 10
333.9091478833
 20
273.1340473005
 10
334.3479428463
 20
273.4739852361
 10
334.8415219219
 20
273.7878881851
  0
LINE
  5
1C7
330
1F
100
AcDbEntity
  8
0
  6
Continuous
 62
     7
370
    25
100
AcDbLine
 10
348.015079266
 20
270.0082771342
 30
0.0
 11
348.0155334589
 21
270.056869544
 31
0.0
  0
LINE
  5
1C8
330
1F
100
AcDbEntity
  8
0
  6
Continuous
 62
     7
370
    25
100
AcDbLine
 10
332.4155334589
 20
270.056869544
 30
0.0
 11
332.415802379
 21
270.0194789382
 31
0.0
  0
LINE
  5
1C9
330
1F
100
AcDbEntity
  8
0
  6
Continuous
 62
     7
370
    25
100
AcDbLine
 10
332.690033164
 20
261.1106564299
 30
0.0
 11
332.6645744008
 21
261.1748002373
 31
0.0
  0
LWPOLYLINE
  5
1CA
330
1F
100
AcDbEntity
  8
0
  6
Continuous
 62
     7
370
    25
100
AcDbPolyline
 90
       34
 70
   128
 43
0.0
 10
332.7155334589
 20
100.182160741
 10
332.742344981
 20
99.8163889626
 10
332.8383841568
 20
99.4017181033
 10
333.0033017879
 20
98.9943340266
 10
333.235558083
 20
98.5980403679
 10
333.5329845275
 20
98.2165372143
 10
333.8928041308
 20
97.8533865579
 10
334.3116573543
 20
97.5119790387
 10
334.7856334783
 20
97.1955022866
 10
335.3103071154
 20
96.9069111597
 10
335.8807795292
 20
96.6489001557
 10
336.4917243725
 20
96.4238782539
 10
337.137437418
 20
96.233946423
 10
337.8118898168
 20
96.0808780054
 10
338.5087843887
 20
95.9661021596
 10
339.2216144168
 20
95.8906905169
 10
339.9437243992
 20
95.8553471754
 10
340.6683721895
 20
95.8604021264
 10
341.3887919467
 20
95.9058081731
 10
342.0982573054
 20
95.9911413715
 10
342.7901441789
 20
96.1156049886
 10
343.4579926058
 20
96.2780369411
 10
344.0955670652
 20
96.4769206455
 10
344.6969146963
 20
96.7103991785
 10
345.2564208782
 20
96.9762926137
 10
345.7688616525
 20
97.2721183759
 10
346.2294524976
 20
97.5951144195
 10
346.6338930011
 20
97.9422650176
 10
346.9784070109
 20
98.3103289186
 10
347.2597778925
 20
98.695869609
 10
347.4753785617
 20
99.0952873992
 10
347.6231960133
 20
99.5048530329
 10
347.7018501155
 20
99.9207425063
 10
347.7155334589
 20
100.182160741
  0
LINE
  5
1CB
330
1F
100
AcDbEntity
  8
0
  6
Continuous
 62
     7
370
    25
100
AcDbLine
 10
332.8446690603
 20
99.3411529719
 30
0.0
 11
332.8614800581
 21
99.2888186031
 31
0.0
  0
LINE
  5
1CC
330
1F
100
AcDbEntity
  8
0
  6
Continuous
 62
     7
370
    25
100
AcDbLine
 10
347.5636137183
 20
99.2710429783
 30
0.0
 11
347.5863978575
 21
99.3411529719
 31
0.0
  0
LWPOLYLINE
  5
1CD
330
1F
100
AcDbEntity
  8
0
  6
Continuous
 62
     7
370
    25
100
AcDbPolyline
 90
       30
 70
   128
 43
0.0
 10
333.1125263432
 20
98.4776655368
 10
333.2010176224
 20
98.2344526232
 10
333.4044713474
 20
97.8361206905
 10
333.6756164676
 20
97.4514625352
 10
334.0117582211
 20
97.0843010629
 10
334.4095558801
 20
96.7382852892
 10
334.8650559527
 20
96.4168540743
 10
335.3737314745
 20
96.1232019461
 10
335.9305269998
 20
95.8602473513
 10
336.5299088443
 20
95.6306036509
 10
337.1659200822
 20
95.4365531471
 10
337.8322397478
 20
95.280024401
 10
338.5222456571
 20
95.1625730656
 10
339.2290802213
 20
95.085366425
 10
339.945718601
 20
95.0491717935
 10
340.6650385219
 20
95.0543488897
 10
341.3798910596
 20
95.1008462612
 10
342.0831716883
 20
95.1882017963
 10
342.7678908893
 20
95.3155473163
 10
343.4272436154
 20
95.4816172044
 10
344.054676923
 20
95.6847609833
 10
344.6439550981
 20
95.9229597189
 10
345.1892216294
 20
96.1938460852
 10
345.6850574131
 20
96.4947278917
 10
346.1265346105
 20
96.8226148399
 10
346.5092656228
 20
97.174248242
 10
346.8294466972
 20
97.5461334072
 10
347.0838957305
 20
97.9345743738
 10
347.2700838938
 20
98.3357106408
 10
347.3185405745
 20
98.4776655368
  0
ARC
  5
1CE
330
1F
100
AcDbEntity
  8
0
  6
Continuous
 62
     8
370
    18
100
AcDbCircle
 10
340.220701617
 20
260.5475613289
 30
0.0
 40
13.65703393025548
100
AcDbArc
 50
81.8002957021
 51
90.7841404216
  0
LWPOLYLINE
  5
1CF
330
1F
100
AcDbEntity
  8
0
  6
Continuous
 62
     8
370
    18
100
AcDbPolyline
 90
       21
 70
   128
 43
0.0
 10
334.0318183467
 20
272.4378357181
 10
334.1056660236
 20
272.4902519137
 10
334.6128642688
 20
272.8123420216
 10
335.1708011538
 20
273.1051413362
 10
335.7744239158
 20
273.3659982215
 10
336.4182660536
 20
273.5925503174
 10
337.096496833
 20
273.7827459328
 10
337.802974091
 20
273.9348626268
 10
338.5312998603
 20
274.0475228071
 10
339.2748783099
 20
274.1197062057
 10
340.0269754781
 20
274.1507591185
 10
340.7807802567
 20
274.1404003256
 10
341.5294660727
 20
274.0887236377
 10
342.2662527114
 20
273.996197047
 10
342.9844677191
 20
273.8636584886
 10
343.6776068293
 20
273.6923082522
 10
344.339392867
 20
273.4836981121
 10
344.9638325953
 20
273.2397172739
 10
345.5452709913
 20
272.9625752661
 10
346.0784424589
 20
272.6547819294
 10
346.5572699162
 20
272.3200873011
  0
LWPOLYLINE
  5
1D0
330
1F
100
AcDbEntity
  8
0
  6
Continuous
 62
     8
370
    18
100
AcDbPolyline
 90
       31
 70
   128
 43
0.0
 10
347.8014147243
 20
270.4147826354
 10
347.6831637213
 20
270.709050007
 10
347.4591477513
 20
271.1136033926
 10
347.1695324886
 20
271.5040321231
 10
346.8169407339
 20
271.8768004156
 10
346.4045656126
 20
272.2285324227
 10
345.9361416577
 20
272.5560428048
 10
345.4159109892
 20
272.8563655772
 10
344.8485848964
 20
273.1267809704
 10
344.2393011723
 20
273.3648400607
 10
343.5935775848
 20
273.5683869481
 10
342.9172619065
 20
273.7355782805
 10
342.2164789571
 20
273.8648999472
 10
341.4975751353
 20
273.9551807913
 10
340.7670609456
 20
274.0056032155
 10
340.0315520376
 20
274.0157105864
 10
339.2977092938
 20
273.9854113701
 10
338.5721785078
 20
273.9149799611
 10
337.8615301987
 20
273.8050541971
 10
337.1722001077
 20
273.6566295827
 10
336.5104309147
 20
273.4710502744
 10
335.8822157042
 20
273.2499969071
 10
335.2932436902
 20
272.9954713743
 10
334.7488486947
 20
272.7097786986
 10
334.2539608429
 20
272.3955061571
 10
333.8130619158
 20
272.0554998507
 10
333.4301447626
 20
271.6928389291
 10
333.1086771401
 20
271.3108077058
 10
332.8515703089
 20
270.9128659147
 10
332.6611526684
 20
270.5026173782
 10
332.6299314492
 20
270.4156023234
  0
LWPOLYLINE
  5
1D1
330
1F
100
AcDbEntity
  8
0
  6
Continuous
 62
     8
370
    18
100
AcDbPolyline
 90
       31
 70
   128
 43
0.0
 10
332.6537036681
 20
270.2463696594
 10
332.7890313104
 20
270.6097372753
 10
333.0095813099
 20
271.0183241026
 10
333.297411343
 20
271.4127152672
 10
333.6498340184
 20
271.7892284452
 10
334.0635588604
 20
272.1443482345
 10
334.5347230316
 20
272.4747589771
 10
335.0589273992
 20
272.7773757172
 10
335.6312776082
 20
273.0493730036
 10
336.246429779
 20
273.2882112711
 10
336.8986404013
 20
273.491660551
 10
337.5818199605
 20
273.6578212923
 10
338.289589793
 20
273.7851420969
 10
339.0153416425
 20
273.8724342047
 10
339.7522993597
 20
273.9188825929
 10
340.4935821689
 20
273.9240535853
 10
341.2322689121
 20
273.8878989019
 10
341.9614626704
 20
273.8107561091
 10
342.6743551581
 20
273.6933454684
 10
343.36429029
 20
273.5367632113
 10
344.0248263278
 20
273.3424713042
 10
344.6497960245
 20
273.1122837983
 10
345.2333642063
 20
272.8483498922
 10
345.7700822544
 20
272.5531338658
 10
346.2549389769
 20
272.2293920715
 10
346.6834073974
 20
271.8801471994
 10
347.0514870216
 20
271.5086600545
 10
347.3557411893
 20
271.1183991123
 10
347.5933291612
 20
270.7130081341
 10
347.7620326424
 20
270.2962721463
 10
347.7773632497
 20
270.2463696594
  0
LWPOLYLINE
  5
1D2
330
1F
100
AcDbEntity
  8
0
  6
Continuous
 62
     8
370
    18
100
AcDbPolyline
 90
       30
 70
   128
 43
0.0
 10
332.6693571873
 20
270.1643057974
 10
332.7890313105
 20
270.476754372
 10
333.0095813099
 20
270.8853411992
 10
333.297411343
 20
271.2797323639
 10
333.6498340184
 20
271.6562455419
 10
334.0635588604
 20
272.0113653311
 10
334.5347230316
 20
272.3417760738
 10
335.0589273992
 20
272.6443928138
 10
335.6312776082
 20
272.9163901002
 10
336.246429779
 20
273.1552283677
 10
336.8986404013
 20
273.3586776476
 10
337.5818199605
 20
273.5248383889
 10
338.289589793
 20
273.6521591935
 10
339.0153416425
 20
273.7394513013
 10
339.7522993597
 20
273.7858996895
 10
340.4935821689
 20
273.791070682
 10
341.2322689121
 20
273.7549159985
 10
341.9614626704
 20
273.6777732057
 10
342.6743551581
 20
273.560362565
 10
343.36429029
 20
273.4037803079
 10
344.0248263278
 20
273.2094884008
 10
344.6497960245
 20
272.9793008949
 10
345.2333642063
 20
272.7153669888
 10
345.7700822544
 20
272.4201509624
 10
346.2549389769
 20
272.0964091682
 10
346.6834073974
 20
271.747164296
 10
347.0514870216
 20
271.3756771511
 10
347.3557411893
 20
270.985416209
 10
347.5933291612
 20
270.5800252308
 10
347.7617097304
 20
270.1643057974
  0
LWPOLYLINE
  5
1D3
330
1F
100
AcDbEntity
  8
0
  6
Continuous
 62
     8
370
    18
100
AcDbPolyline
 90
       31
 70
   128
 43
0.0
 10
332.6737639953
 20
270.1434665476
 10
332.7942197272
 20
270.4584236328
 10
333.0146156426
 20
270.8667250068
 10
333.3022445875
 20
271.2608406359
 10
333.6544210479
 20
271.6370907685
 10
334.0678568471
 20
271.9919624585
 10
334.5386918465
 20
272.3221423645
 10
335.0625299864
 20
272.6245476858
 10
335.6344803313
 20
272.8963549453
 10
336.249202735
 20
273.135026352
 10
336.9009577
 20
273.338333495
 10
337.5836599658
 20
273.5043781506
 10
338.2909353252
 20
273.6316100043
 10
339.0161801389
 20
273.7188411268
 10
339.7526229914
 20
273.7652570645
 10
340.4933879142
 20
273.7704244443
 10
341.2315585848
 20
273.7342950198
 10
341.9602429026
 20
273.6572061217
 10
342.6726373384
 20
273.5398775082
 10
343.3620904573
 20
273.383404645
 10
344.0221650213
 20
273.1892484771
 10
344.646698092
 20
272.9592217883
 10
345.2298585725
 20
272.6954722758
 10
345.7662016504
 20
272.4004624977
 10
346.2507196349
 20
272.0769468809
 10
346.6788887122
 20
271.7279460035
 10
347.046711183
 20
271.3567183927
 10
347.3507527879
 20
270.9667301006
 10
347.5881747725
 20
270.5616223429
 10
347.7567603915
 20
270.1451775015
 10
347.7573029225
 20
270.1434665476
  0
LWPOLYLINE
  5
1D4
330
1F
100
AcDbEntity
  8
0
  6
Continuous
 62
     8
370
    18
100
AcDbPolyline
 90
       31
 70
   128
 43
0.0
 10
332.8853830391
 20
269.5267992832
 10
332.9571085264
 20
269.772083033
 10
333.1335760411
 20
270.1787809616
 10
333.3782466772
 20
270.5735352745
 10
333.6887641226
 20
270.9525442722
 10
334.0621379246
 20
271.3121578906
 10
334.4947722894
 20
271.648912854
 10
334.9825007115
 20
271.9595660282
 10
335.5206260997
 20
272.2411256531
 10
336.1039660122
 20
272.4908801557
 10
336.7269025668
 20
272.7064242637
 10
337.3834365441
 20
272.8856821693
 10
338.0672451627
 20
273.026927521
 10
338.7717429721
 20
273.1288000488
 10
339.4901452731
 20
273.1903186646
 10
340.2155334589
 20
273.2108909106
 10
340.9409216446
 20
273.1903186646
 10
341.6593239456
 20
273.1288000488
 10
342.363821755
 20
273.026927521
 10
343.0476303737
 20
272.8856821693
 10
343.7041643509
 20
272.7064242637
 10
344.3271009056
 20
272.4908801557
 10
344.9104408181
 20
272.2411256531
 10
345.4485662063
 20
271.9595660282
 10
345.9362946284
 20
271.648912854
 10
346.3689289932
 20
271.3121578906
 10
346.7423027952
 20
270.9525442722
 10
347.0528202406
 20
270.5735352745
 10
347.2974908766
 20
270.1787809616
 10
347.4739583914
 20
269.772083033
 10
347.5456838786
 20
269.5267992832
  0
LWPOLYLINE
  5
1D5
330
1F
100
AcDbEntity
  8
0
  6
Continuous
 62
     8
370
    18
100
AcDbPolyline
 90
       26
 70
   128
 43
0.0
 10
333.1681095922
 20
269.9997035104
 10
333.3600873895
 20
270.250693501
 10
333.7093172244
 20
270.6237955861
 10
334.1192938473
 20
270.9756980998
 10
334.5861894169
 20
271.3031154234
 10
335.1056446551
 20
271.6029905494
 10
335.6728095483
 20
271.8725236245
 10
336.2823886306
 20
272.1091980912
 10
336.9286904265
 20
272.3108041835
 10
337.6056805901
 20
272.4754595599
 10
338.3070382469
 20
272.6016268774
 10
339.0262150092
 20
272.6881281457
 10
339.7564961174
 20
272.7341557259
 10
340.4910631336
 20
272.7392798707
 10
341.2230576034
 20
272.7034527375
 10
341.9456450918
 20
272.6270088346
 10
342.652078994
 20
272.5106618979
 10
343.3357635271
 20
272.3554982277
 10
343.9903153127
 20
272.1629665452
 10
344.6096229772
 20
271.9348644668
 10
345.1879042118
 20
271.6733217203
 10
345.7197597604
 20
271.3807802598
 10
346.200223831
 20
271.0599714661
 10
346.6248104602
 20
270.7138906444
 10
346.9895553968
 20
270.3457690581
 10
347.2629573255
 20
269.9997035104
  0
LWPOLYLINE
  5
1D6
330
1F
100
AcDbEntity
  8
0
  6
Continuous
 62
     8
370
    18
100
AcDbPolyline
 90
       11
 70
   128
 43
0.0
 10
347.4865535134
 20
269.4125834996
 10
347.4015435477
 20
269.7168613062
 10
347.2268365895
 20
270.1195017474
 10
346.9846069494
 20
270.5103177305
 10
346.6771874313
 20
270.8855454839
 10
346.307538653
 20
271.2415713592
 10
345.8792205346
 20
271.5749666326
 10
345.3963580135
 20
271.8825205254
 10
344.8636013198
 20
272.1612711255
 10
344.2860811917
 20
272.4085339122
 10
343.6979086438
 20
272.6130713611
  0
LWPOLYLINE
  5
1D7
330
1F
100
AcDbEntity
  8
0
  6
Continuous
 62
     8
370
    18
100
AcDbPolyline
 90
        3
 70
   128
 43
0.0
 10
340.774543612
 20
273.1090325517
 10
340.2155334589
 20
273.1213613639
 10
339.7333683621
 20
273.1121925967
  0
LWPOLYLINE
  5
1D8
330
1F
100
AcDbEntity
  8
0
  6
Continuous
 62
     8
370
    18
100
AcDbPolyline
 90
       12
 70
   128
 43
0.0
 10
336.9735052426
 20
272.6847485397
 10
336.761707454
 20
272.6219276096
 10
336.144985726
 20
272.4085339122
 10
335.567465598
 20
272.1612711255
 10
335.0347089043
 20
271.8825205254
 10
334.5518463832
 20
271.5749666326
 10
334.1235282647
 20
271.2415713592
 10
333.7538794865
 20
270.8855454839
 10
333.4464599683
 20
270.5103177305
 10
333.2042303282
 20
270.1195017474
 10
333.02952337
 20
269.7168613062
 10
332.9445134043
 20
269.4125834996
  0
LWPOLYLINE
  5
1D9
330
1F
100
AcDbEntity
  8
0
  6
Continuous
 62
     8
370
    18
100
AcDbPolyline
 90
       28
 70
   128
 43
0.0
 10
333.0840194258
 20
269.8238224648
 10
333.0880305108
 20
269.8301730999
 10
333.3727270182
 20
270.2202706374
 10
333.7213129657
 20
270.592684821
 10
334.1305337002
 20
270.9439385196
 10
334.5965684379
 20
271.2707521722
 10
335.1150659381
 20
271.5700744078
 10
335.6811851292
 20
271.8391105353
 10
336.289640309
 20
272.0753486368
 10
336.9347504954
 20
272.2765830209
 10
337.6104924683
 20
272.4409348164
 10
338.3105570071
 20
272.5668695147
 10
339.0284077977
 20
272.6532112976
 10
339.7573424608
 20
272.699154015
 10
340.4905551298
 20
272.7042687123
 10
341.2211999955
 20
272.6685076349
 10
341.9424552237
 20
272.5922046742
 10
342.6475866487
 20
272.4760722506
 10
343.3300106484
 20
272.3211946611
 10
343.9833556137
 20
272.129017956
 10
344.6015214387
 20
271.9013364376
 10
345.1787364757
 20
271.6402759067
 10
345.7096114234
 20
271.3482738152
 10
346.1891896454
 20
271.028056508
 10
346.6129934492
 20
270.6826137678
 10
346.9770658927
 20
270.3151709004
 10
347.2780077296
 20
269.9291586208
 10
347.3250628162
 20
269.8582639426
  0
LWPOLYLINE
  5
1DA
330
1F
100
AcDbEntity
  8
0
  6
Continuous
 62
     8
370
    18
100
AcDbPolyline
 90
       27
 70
   128
 43
0.0
 10
347.2325828048
 20
269.9021237037
 10
346.9417668185
 20
270.2736154802
 10
346.5795950418
 20
270.6391400853
 10
346.1580037368
 20
270.9827794164
 10
345.6809291879
 20
271.3013250058
 10
345.1528257117
 20
271.591802679
 10
344.578624068
 20
271.8515003243
 10
343.9636854228
 20
272.0779932147
 10
343.3137512926
 20
272.2691666473
 10
342.6348899373
 20
272.423235687
 10
341.9334397025
 20
272.5387618328
 10
341.2159498398
 20
272.6146664483
 10
340.489119359
 20
272.6502408324
 10
339.7597344804
 20
272.6451528368
 10
339.034605274
 20
272.5994499666
 10
338.3205020758
 20
272.5135589373
 10
337.6240922752
 20
272.3882816903
 10
336.9518780626
 20
272.2247879054
 10
336.3101357211
 20
272.0246040801
 10
335.704857026
 20
271.7895992769
 10
335.1416933015
 20
271.5219676722
 10
334.6259026554
 20
271.2242080702
 10
334.1623008861
 20
270.8991005721
 10
333.7552165184
 20
270.5496806191
 10
333.4084503893
 20
270.179210651
 10
333.1252401608
 20
269.7911496462
 10
332.9717176505
 20
269.5217884142
  0
LWPOLYLINE
  5
1DB
330
1F
100
AcDbEntity
  8
0
  6
Continuous
 62
     8
370
    18
100
AcDbPolyline
 90
       28
 70
   128
 43
0.0
 10
332.949848665
 20
269.3985839095
 10
333.1398651604
 20
269.7423114311
 10
333.4224912171
 20
270.1295719906
 10
333.7685420789
 20
270.499277798
 10
334.1747867622
 20
270.8479770099
 10
334.6374322699
 20
271.1724139155
 10
335.1521590054
 20
271.469559335
 10
335.7141611039
 20
271.7366389016
 10
336.3181913033
 20
271.9711589654
 10
336.9586099363
 20
272.1709298757
 10
337.6294375866
 20
272.3340864253
 10
338.3244109174
 20
272.4591052656
 10
339.0370411498
 20
272.5448191293
 10
339.7606746474
 20
272.5904277291
 10
340.4885550391
 20
272.5955052298
 10
341.2138863019
 20
272.5600042242
 10
341.9298962132
 20
272.4842561756
 10
342.6298995814
 20
272.3689683231
 10
343.3073606636
 20
272.2152170784
 10
343.9559541882
 20
272.0244379753
 10
344.5696244123
 20
271.798412267
 10
345.1426416623
 20
271.5392502946
 10
345.6696558305
 20
271.2493717836
 10
346.1457463277
 20
270.9314832516
 10
346.5664680252
 20
270.5885527381
 10
346.9278927577
 20
270.223782093
 10
347.2266460001
 20
269.8405770814
 10
347.3588598498
 20
269.6307687273
  0
LWPOLYLINE
  5
1DC
330
1F
100
AcDbEntity
  8
0
  6
Continuous
 62
     8
370
    18
100
AcDbPolyline
 90
       28
 70
   128
 43
0.0
 10
332.952636764
 20
269.3933498224
 10
333.1282472517
 20
269.7070680403
 10
333.4113373669
 20
270.0949644631
 10
333.7579564277
 20
270.4652773097
 10
334.1648681453
 20
270.814549069
 10
334.6282732947
 20
271.1395186845
 10
335.1438451869
 20
271.4371520025
 10
335.7067700659
 20
271.704670101
 10
336.311792054
 20
271.9395752355
 10
336.9532622237
 20
272.1396741601
 10
337.625191341
 20
272.303098605
 10
338.3213057847
 20
272.4283227202
 10
339.0351061219
 20
272.5141773219
 10
339.759927791
 20
272.5598608089
 10
340.4890033275
 20
272.5649466466
 10
341.2155255495
 20
272.5293873501
 10
341.9327111148
 20
272.4535149268
 10
342.633863855
 20
272.3380377772
 10
343.3124372959
 20
272.1840340803
 10
343.96209578
 20
271.992941727
 10
344.5767736212
 20
271.7665448953
 10
345.1507317381
 20
271.5069573914
 10
345.6786112384
 20
271.2166029138
 10
346.1554834534
 20
270.898192424
 10
346.5768959557
 20
270.554698835
 10
346.9389141304
 20
270.1893292539
 10
347.2381579113
 20
269.8054950381
 10
347.3675027683
 20
269.6006492489
  0
LWPOLYLINE
  5
1DD
330
1F
100
AcDbEntity
  8
0
  6
Continuous
 62
     8
370
    18
100
AcDbPolyline
 90
       28
 70
   128
 43
0.0
 10
332.9562890594
 20
269.3865283078
 10
333.1282040462
 20
269.6927025891
 10
333.4112958872
 20
270.0806013766
 10
333.757917061
 20
270.4509164807
 10
334.1648312593
 20
270.8001903692
 10
334.6282392337
 20
271.1251619658
 10
335.1438142689
 20
271.4227970982
 10
335.7067425797
 20
271.6903168276
 10
336.311768256
 20
271.9252233941
 10
336.9532423363
 20
272.1253235385
 10
337.6251755498
 20
272.2887489797
 10
338.3212942371
 20
272.4139738583
 10
339.0350989257
 20
272.4998289834
 10
339.7599250135
 20
272.5455127488
 10
340.4890049946
 20
272.5505986176
 10
341.2155316456
 20
272.5150391043
 10
341.932721583
 20
272.4391662185
 10
342.6338785976
 20
272.3236883649
 10
343.3124561752
 20
272.1696837291
 10
343.9621186198
 20
271.978590211
 10
344.5768002082
 20
271.7521919991
 10
345.150761824
 20
271.4926029126
 10
345.6786445424
 20
271.202246665
 10
346.1555196645
 20
270.8838342341
 10
346.5769347358
 20
270.5403385511
 10
346.9389551174
 20
270.1749667427
 10
347.2382007225
 20
269.7911301869
 10
347.3750524876
 20
269.5733353869
  0
LWPOLYLINE
  5
1DE
330
1F
100
AcDbEntity
  8
0
  6
Continuous
 62
     8
370
    18
100
AcDbPolyline
 90
       28
 70
   128
 43
0.0
 10
333.0051173273
 20
269.2988568014
 10
333.1617371144
 20
269.5745085087
 10
333.4434895315
 20
269.9605719877
 10
333.7884706981
 20
270.3291349789
 10
334.1934596181
 20
270.676756309
 10
334.6546750189
 20
271.0001903314
 10
335.1678106567
 20
271.2964172298
 10
335.7280755223
 20
271.5626712133
 10
336.3302385736
 20
271.7964663403
 10
336.9686775763
 20
271.9956197287
 10
337.6374315976
 20
272.158271937
 10
338.3302566614
 20
272.2829043252
 10
339.0406840466
 20
272.3683532344
 10
339.7620806843
 20
272.4138208512
 10
340.4877110884
 20
272.4188826566
 10
341.2108002432
 20
272.38349139
 10
341.9245968603
 20
272.30797749
 10
342.6224364129
 20
272.1930460096
 10
343.297803361
 20
272.039770033
 10
343.9443919856
 20
271.8495806568
 10
344.5561652628
 20
271.624253628
 10
345.1274112304
 20
271.3658927642
 10
345.6527963186
 20
271.0769103112
 10
346.1274151486
 20
270.7600044204
 10
346.546836332
 20
270.4181339567
 10
346.9071438464
 20
270.0544908724
 10
347.2049735976
 20
269.6724704051
 10
347.4259495904
 20
269.2988568014
  0
LWPOLYLINE
  5
1DF
330
1F
100
AcDbEntity
  8
0
  6
Continuous
 62
     8
370
    18
100
AcDbPolyline
 90
       29
 70
   128
 43
0.0
 10
347.3972710721
 20
269.2501158052
 10
347.3628101966
 20
269.3176786407
 10
347.1158828794
 20
269.716073908
 10
346.8025014252
 20
270.0985786354
 10
346.4256838687
 20
270.4615090935
 10
345.9890591689
 20
270.8013700634
 10
345.4968322604
 20
271.1148884982
 10
344.9537435574
 20
271.399045044
 10
344.365023301
 20
271.651103118
 10
343.736341189
 20
271.8686352631
 10
343.073751774
 20
272.0495465258
 10
342.3836361541
 20
272.1920946318
 10
341.67264052
 20
272.2949067648
 10
340.9476121484
 20
272.356992788
 10
340.2155334589
 20
272.3777547788
 10
339.4834547693
 20
272.356992788
 10
338.7584263977
 20
272.2949067648
 10
338.0474307637
 20
272.1920946318
 10
337.3573151438
 20
272.0495465258
 10
336.6947257287
 20
271.8686352631
 10
336.0660436167
 20
271.651103118
 10
335.4773233603
 20
271.399045044
 10
334.9342346573
 20
271.1148884982
 10
334.4420077488
 20
270.8013700634
 10
334.005383049
 20
270.4615090935
 10
333.6285654925
 20
270.0985786354
 10
333.3151840383
 20
269.716073908
 10
333.0682567211
 20
269.3176786407
 10
333.0337958456
 20
269.2501158052
  0
LWPOLYLINE
  5
1E0
330
1F
100
AcDbEntity
  8
0
  6
Continuous
 62
     8
370
    18
100
AcDbPolyline
 90
       29
 70
   128
 43
0.0
 10
347.3518095884
 20
269.1764446723
 10
347.2810051457
 20
269.3202183728
 10
347.0369040661
 20
269.7140537571
 10
346.7271094586
 20
270.0921804788
 10
346.3546048146
 20
270.4509569709
 10
345.9229775575
 20
270.7869280195
 10
345.4363844937
 20
271.0968580398
 10
344.8995117804
 20
271.3777622363
 10
344.3175297954
 20
271.626935348
 10
343.6960433433
 20
271.8419777017
 10
343.0410376784
 20
272.0208183219
 10
342.3588208632
 20
272.1617348757
 10
341.6559630187
 20
272.2633702596
 10
340.9392330501
 20
272.3247456694
 10
340.2155334589
 20
272.3452700262
 10
339.4918338676
 20
272.3247456694
 10
338.775103899
 20
272.2633702596
 10
338.0722460545
 20
272.1617348757
 10
337.3900292394
 20
272.0208183219
 10
336.7350235744
 20
271.8419777017
 10
336.1135371223
 20
271.626935348
 10
335.5315551373
 20
271.3777622363
 10
334.9946824241
 20
271.0968580398
 10
334.5080893603
 20
270.7869280195
 10
334.0764621032
 20
270.4509569709
 10
333.7039574592
 20
270.0921804788
 10
333.3941628516
 20
269.7140537571
 10
333.150061772
 20
269.3202183728
 10
333.0792573294
 20
269.1764446723
  0
LWPOLYLINE
  5
1E1
330
1F
100
AcDbEntity
  8
0
  6
Continuous
 62
     8
370
    18
100
AcDbPolyline
 90
       29
 70
   128
 43
0.0
 10
333.1250047072
 20
269.1062146987
 10
333.2028534667
 20
269.2655209254
 10
333.4451306752
 20
269.6564136559
 10
333.7526105637
 20
270.0317150956
 10
334.1223319325
 20
270.3878108863
 10
334.550734163
 20
270.721271631
 10
335.0336915074
 20
271.0288859205
 10
335.5665528225
 20
271.3076912608
 10
336.1441863624
 20
271.5550026043
 10
336.7610292006
 20
271.7684382075
 10
337.4111408032
 20
271.9459425688
 10
338.0882602401
 20
272.0858062242
 10
338.7858664809
 20
272.1866822102
 10
339.4972411963
 20
272.247599036
 10
340.2155334589
 20
272.2679700393
 10
340.9338257214
 20
272.247599036
 10
341.6452004368
 20
272.1866822102
 10
342.3428066777
 20
272.0858062242
 10
343.0199261146
 20
271.9459425688
 10
343.6700377172
 20
271.7684382075
 10
344.2868805553
 20
271.5550026043
 10
344.8645140953
 20
271.3076912608
 10
345.3973754103
 20
271.0288859205
 10
345.8803327547
 20
270.721271631
 10
346.3087349852
 20
270.3878108863
 10
346.6784563541
 20
270.0317150956
 10
346.9859362425
 20
269.6564136559
 10
347.228213451
 20
269.2655209254
 10
347.3060622106
 20
269.1062146987
  0
LWPOLYLINE
  5
1E2
330
1F
100
AcDbEntity
  8
0
  6
Continuous
 62
     8
370
    18
100
AcDbPolyline
 90
       29
 70
   128
 43
0.0
 10
333.172946616
 20
269.0362747044
 10
333.1925429105
 20
269.0742046055
 10
333.4351763328
 20
269.4656720551
 10
333.7431083007
 20
269.8415252905
 10
334.113373261
 20
270.1981446393
 10
334.5424053598
 20
270.5320956625
 10
335.0260727835
 20
270.840162229
 10
335.5597175503
 20
271.1193774894
 10
336.1382003695
 20
271.3670524482
 10
336.7559501352
 20
271.58080186
 10
337.4070175795
 20
271.7585672012
 10
338.085132567
 20
271.8986364944
 10
338.7837644797
 20
271.9996607957
 10
339.4961851104
 20
272.0606671859
 10
340.2155334589
 20
272.0810681401
 10
340.9348818074
 20
272.0606671859
 10
341.647302438
 20
271.9996607957
 10
342.3459343507
 20
271.8986364944
 10
343.0240493382
 20
271.7585672012
 10
343.6751167825
 20
271.58080186
 10
344.2928665482
 20
271.3670524482
 10
344.8713493674
 20
271.1193774894
 10
345.4049941342
 20
270.840162229
 10
345.8886615579
 20
270.5320956625
 10
346.3176936567
 20
270.1981446393
 10
346.6879586171
 20
269.8415252905
 10
346.995890585
 20
269.4656720551
 10
347.2385240072
 20
269.0742046055
 10
347.2581203017
 20
269.0362747044
  0
LWPOLYLINE
  5
1E3
330
1F
100
AcDbEntity
  8
0
  6
Continuous
 62
     8
370
    18
100
AcDbPolyline
 90
       28
 70
   128
 43
0.0
 10
333.3344698689
 20
268.8228593693
 10
333.4939443083
 20
269.1220426981
 10
333.7615275529
 20
269.501647823
 10
334.0932536077
 20
269.8639861087
 10
334.4858256302
 20
270.2054564744
 10
334.9353420633
 20
270.5226652344
 10
335.4373354107
 20
270.8124598254
 10
335.986816637
 20
271.0719601386
 10
336.578324751
 20
271.2985871434
 10
337.2059810791
 20
271.4900885186
 10
337.8635476909
 20
271.6445610376
 10
338.544489394
 20
271.7604694831
 10
339.2420386837
 20
271.836661905
 10
339.9492630018
 20
271.8723810686
 10
340.6591336354
 20
271.8672719809
 10
341.3645955711
 20
271.8213854184
 10
342.0586376113
 20
271.7351774222
 10
342.7343620544
 20
271.6095047662
 10
343.3850532473
 20
271.4456164416
 10
344.0042443286
 20
271.2451412444
 10
344.585781499
 20
271.010071587
 10
345.1238851811
 20
270.7427436973
 10
345.6132074585
 20
270.4458144001
 10
346.0488852268
 20
270.122234712
 10
346.4265885244
 20
269.7752205133
 10
346.7425635663
 20
269.4082205872
 10
346.9936700507
 20
269.0248823437
 10
347.0965970488
 20
268.8228593693
  0
LWPOLYLINE
  5
1E4
330
1F
100
AcDbEntity
  8
0
  6
Continuous
 62
     8
370
    18
100
AcDbPolyline
 90
       31
 70
   128
 43
0.0
 10
346.0890493682
 20
266.2941425623
 10
345.5220543076
 20
265.9957516109
 10
344.9097858821
 20
265.7288347558
 10
344.2574677501
 20
265.4956692375
 10
343.5706652598
 20
265.298244342
 10
342.855237968
 20
265.1382444289
 10
342.1172896481
 20
265.017034561
 10
341.3631162149
 20
264.9356488582
 10
340.5991520103
 20
264.8947816746
 10
339.8319149074
 20
264.8947816746
 10
339.0679507028
 20
264.9356488582
 10
338.3137772696
 20
265.017034561
 10
337.5758289497
 20
265.1382444289
 10
336.8604016579
 20
265.298244342
 10
336.1735991677
 20
265.4956692375
 10
335.5212810357
 20
265.7288347558
 10
334.9090126102
 20
265.9957516109
 10
334.3420175495
 20
266.2941425623
 10
333.8251332557
 20
266.6214618437
 10
333.3627696032
 20
266.9749168822
 10
332.9588713157
 20
267.3514921242
 10
332.616884311
 20
267.7479747624
 10
332.3397263016
 20
268.1609821469
 10
332.1297619019
 20
268.5869906441
 10
331.9887824542
 20
269.0223656999
 10
331.9179907454
 20
269.4633928477
 10
331.9179907454
 20
269.9063093994
 10
331.9887824542
 20
270.3473365472
 10
332.1297619019
 20
270.782711603
 10
332.3397263016
 20
271.2087201002
 10
332.558385049
 20
271.5433640241
  0
LWPOLYLINE
  5
1E5
330
1F
100
AcDbEntity
  8
0
  6
Continuous
 62
     8
370
    18
100
AcDbPolyline
 90
       14
 70
   128
 43
0.0
 10
347.8726818687
 20
271.5433640241
 10
348.0913406161
 20
271.2087201002
 10
348.3013050158
 20
270.782711603
 10
348.4422844635
 20
270.3473365472
 10
348.5130761723
 20
269.9063093994
 10
348.5130761723
 20
269.4633928477
 10
348.4422844635
 20
269.0223656999
 10
348.3013050158
 20
268.5869906441
 10
348.0913406161
 20
268.1609821469
 10
347.8141826067
 20
267.7479747624
 10
347.472195602
 20
267.3514921242
 10
347.0682973145
 20
266.9749168822
 10
346.605933662
 20
266.6214618437
 10
346.0890493682
 20
266.2941425623
  0
LWPOLYLINE
  5
1E6
330
1F
100
AcDbEntity
  8
0
  6
Continuous
 62
     8
370
    18
100
AcDbPolyline
 90
       28
 70
   128
 43
0.0
 10
346.3815045908
 20
265.6596308237
 10
345.8039688128
 20
265.3548858337
 10
345.1814382393
 20
265.0812537893
 10
344.5189251204
 20
264.8409378147
 10
343.8217636222
 20
264.6358727928
 10
343.0955668791
 20
264.4677097866
 10
342.3461818004
 20
264.3378027458
 10
341.579641994
 20
264.2471976055
 10
340.8021191878
 20
264.196623865
 10
340.0198735382
 20
264.1864887142
 10
339.2392032273
 20
264.2168737556
 10
338.4663937532
 20
264.2875343465
 10
337.7076673237
 20
264.3979015696
 10
336.9691327576
 20
264.5470868127
 10
336.2567363011
 20
264.733888924
 10
335.5762137517
 20
264.9568038828
 10
334.9330442766
 20
265.2140369088
 10
334.3324062983
 20
265.5035169131
 10
333.7791358008
 20
265.8229131728
 10
333.2776873926
 20
266.169654097
 10
332.8320984416
 20
266.5409479318
 10
332.445956568
 20
266.9338052374
 10
332.122370759
 20
267.3450629579
 10
331.8639463374
 20
267.7714098878
 10
331.6727639846
 20
268.2094133324
 10
331.5503629886
 20
268.6555467456
 10
331.4977288502
 20
269.1062181233
 10
331.4956374159
 20
269.1945896613
  0
LWPOLYLINE
  5
1E7
330
1F
100
AcDbEntity
  8
0
  6
Continuous
 62
     8
370
    18
100
AcDbPolyline
 90
       10
 70
   128
 43
0.0
 10
348.9347566999
 20
269.1519810618
 10
348.9157815693
 20
268.8805414578
 10
348.8281757889
 20
268.4316870959
 10
348.6712260766
 20
267.9891730849
 10
348.4461960992
 20
267.5565622873
 10
348.1548976657
 20
267.137337831
 10
347.79967614
 20
266.7348750647
 10
347.3833915568
 20
266.3524143821
 10
346.9093955948
 20
265.9930351316
 10
346.3815045908
 20
265.6596308237
  0
LWPOLYLINE
  5
1E8
330
1F
100
AcDbEntity
  8
0
  6
Continuous
 62
     8
370
    18
100
AcDbPolyline
 90
       28
 70
   128
 43
0.0
 10
346.3815045908
 20
263.6814937241
 10
345.8039688128
 20
263.3767487342
 10
345.1814382393
 20
263.1031166898
 10
344.5189251204
 20
262.8628007151
 10
343.8217636222
 20
262.6577356933
 10
343.0955668791
 20
262.4895726871
 10
342.3461818004
 20
262.3596656463
 10
341.579641994
 20
262.269060506
 10
340.8021191878
 20
262.2184867654
 10
340.0198735382
 20
262.2083516147
 10
339.2392032273
 20
262.238736656
 10
338.4663937532
 20
262.309397247
 10
337.7076673237
 20
262.41976447
 10
336.9691327576
 20
262.5689497131
 10
336.2567363011
 20
262.7557518244
 10
335.5762137517
 20
262.9786667832
 10
334.9330442766
 20
263.2358998093
 10
334.3324062983
 20
263.5253798135
 10
333.7791358008
 20
263.8447760733
 10
333.2776873926
 20
264.1915169975
 10
332.8320984416
 20
264.5628108322
 10
332.445956568
 20
264.9556681379
 10
332.122370759
 20
265.3669258583
 10
331.8639463374
 20
265.7932727882
 10
331.6727639846
 20
266.2312762329
 10
331.5503629886
 20
266.677409646
 10
331.4977288502
 20
267.1280810237
 10
331.4956374159
 20
267.2164525617
  0
LWPOLYLINE
  5
1E9
330
1F
100
AcDbEntity
  8
0
  6
Continuous
 62
     8
370
    18
100
AcDbPolyline
 90
       10
 70
   128
 43
0.0
 10
348.9347566999
 20
267.1738439622
 10
348.9157815693
 20
266.9024043583
 10
348.8281757889
 20
266.4535499964
 10
348.6712260766
 20
266.0110359853
 10
348.4461960992
 20
265.5784251878
 10
348.1548976657
 20
265.1592007314
 10
347.79967614
 20
264.7567379652
 10
347.3833915568
 20
264.3742772825
 10
346.9093955948
 20
264.014898032
 10
346.3815045908
 20
263.6814937241
  0
LWPOLYLINE
  5
1EA
330
1F
100
AcDbEntity
  8
0
  6
Continuous
 62
     8
370
    18
100
AcDbPolyline
 90
       10
 70
   128
 43
0.0
 10
345.7309663521
 20
266.8728779078
 10
346.2302672729
 20
267.1899529153
 10
346.6750978328
 20
267.5329911638
 10
347.0614295775
 20
267.8988860457
 10
347.3857638268
 20
268.2843239603
 10
347.6451633596
 20
268.6858143222
 10
347.8372790134
 20
269.0997211725
 10
347.9603709593
 20
269.5222961067
 10
348.0133244575
 20
269.9497122207
 10
348.015079266
 20
270.0082771342
  0
LWPOLYLINE
  5
1EB
330
1F
100
AcDbEntity
  8
0
  6
Continuous
 62
     8
370
    18
100
AcDbPolyline
 90
       26
 70
   128
 43
0.0
 10
332.415802379
 20
270.0194789382
 10
332.4354069649
 20
269.7356403199
 10
332.5235294999
 20
269.3101628742
 10
332.6813120138
 20
268.8914477197
 10
332.9073256039
 20
268.4832868057
 10
333.199523456
 20
268.0893765007
 10
333.5552593811
 20
267.7132841173
 10
333.9713117797
 20
267.3584156065
 10
334.4439128167
 20
267.0279847124
 10
334.968782544
 20
266.7249838684
 10
335.5411676601
 20
266.452157097
 10
336.1558845567
 20
266.2119751597
 10
336.8073662624
 20
266.0066131814
 10
337.489712858
 20
265.8379309519
 10
338.1967449071
 20
265.7074560836
 10
338.9220594179
 20
265.6163701771
 10
339.6590878299
 20
265.5654981205
 10
340.4011554997
 20
265.555300619
 10
341.1415421476
 20
265.5858700228
 10
341.8735427174
 20
265.6569294907
 10
342.5905280986
 20
265.7678354969
 10
343.2860051605
 20
265.9175836597
 10
343.9536755553
 20
266.1048178365
 10
344.5874927564
 20
266.3278424054
 10
345.181716817
 20
266.5846376217
 10
345.7309663521
 20
266.8728779078
  0
LWPOLYLINE
  5
1EC
330
1F
100
AcDbEntity
  8
0
  6
Continuous
 62
     8
370
    18
100
AcDbPolyline
 90
       30
 70
   128
 43
0.0
 10
345.9259365005
 20
266.4498700821
 10
345.3661142403
 20
266.1556617307
 10
344.7610284909
 20
265.8930090533
 10
344.1159967677
 20
265.6642202512
 10
343.4366876327
 20
265.4713059284
 10
342.729070879
 20
265.3159614231
 10
341.9993650681
 20
265.1995519082
 10
341.2539828809
 20
265.1231003949
 10
340.4994747628
 20
265.0872787418
 10
339.7424713584
 20
265.0924017508
 10
338.9896252406
 20
265.1384244007
 10
338.2475524484
 20
265.2249422429
 10
337.5227743441
 20
265.3511949554
 10
336.8216603036
 20
265.5160730249
 10
336.1503717425
 20
265.718127497
 10
335.5148079688
 20
265.9555827096
 10
334.9205543396
 20
266.2263518979
 10
334.3728331774
 20
266.5280555325
 10
333.8764578753
 20
266.858042231
 10
333.4357905973
 20
267.2134120584
 10
333.0547039434
 20
267.5910420119
 10
332.7365469168
 20
267.9876134659
 10
332.4841154928
 20
268.3996413362
 10
332.2996280479
 20
268.8235047071
 10
332.1847058643
 20
269.255478652
 10
332.1403588825
 20
269.6917669683
 10
332.1669768251
 20
270.1285355387
 10
332.2643257729
 20
270.5619460252
 10
332.4315502196
 20
270.9881896009
 10
332.4336989839
 20
270.9926697251
  0
LWPOLYLINE
  5
1ED
330
1F
100
AcDbEntity
  8
0
  6
Continuous
 62
     8
370
    18
100
AcDbPolyline
 90
       13
 70
   128
 43
0.0
 10
347.9973679339
 20
270.9926697251
 10
348.0478036623
 20
270.882506844
 10
348.1976731994
 20
270.4541173396
 10
348.2773954055
 20
270.0195085268
 10
348.2862696789
 20
269.5824997633
 10
348.2242180322
 20
269.1469314981
 10
348.0917857775
 20
268.7166315206
 10
347.8901367342
 20
268.2953813225
 10
347.6210430014
 20
267.8868828658
 10
347.2868693845
 20
267.4947260494
 10
346.8905526132
 20
267.1223571618
 10
346.4355755336
 20
266.7730485939
 10
345.9259365005
 20
266.4498700821
  0
LWPOLYLINE
  5
1EE
330
1F
100
AcDbEntity
  8
0
  6
Continuous
 62
     8
370
    18
100
AcDbPolyline
 90
       33
 70
   128
 43
0.0
 10
347.7960029916
 20
270.3712034521
 10
347.7883644498
 20
270.4275182795
 10
347.6910447517
 20
270.8477180836
 10
347.5239282188
 20
271.260533948
 10
347.2885751731
 20
271.6621115221
 10
346.9871830427
 20
272.0487013844
 10
346.6225658447
 20
272.4166940495
 10
346.1981279115
 20
272.762653669
 10
345.7178321059
 20
273.0833501112
 10
345.1861628203
 20
273.3757891197
 10
344.6080841076
 20
273.6372402704
 10
343.988993333
 20
273.8652624643
 10
343.3346707803
 20
274.0577267196
 10
342.6512256828
 20
274.2128360494
 10
341.9450391833
 20
274.3291422398
 10
341.2227047548
 20
274.4055593711
 10
340.4909666394
 20
274.4413739571
 10
339.7566568785
 20
274.4362516068
 10
339.0266315246
 20
274.3902401462
 10
338.3077066277
 20
274.3037691717
 10
337.6065945959
 20
274.1776460398
 10
336.9298415234
 20
274.0130483279
 10
336.2837660711
 20
273.8115128407
 10
335.6744004716
 20
273.5749212607
 10
335.1074342073
 20
273.3054825797
 10
334.5881608894
 20
273.005712474
 10
334.1214288329
 20
272.6784098164
 10
333.7115957894
 20
272.3266305437
 10
333.3624882595
 20
271.953659124
 10
333.0773657662
 20
271.5629778911
 10
332.8588904213
 20
271.1582345304
 10
332.7091020703
 20
270.7432080215
 10
332.6350639261
 20
270.3712034521
  0
LWPOLYLINE
  5
1EF
330
1F
100
AcDbEntity
  8
0
  6
Continuous
 62
     8
370
    18
100
AcDbPolyline
 90
       18
 70
   128
 43
0.0
 10
345.6956270765
 20
270.2122494385
 10
345.1599319958
 20
270.4794290892
 10
344.5515999566
 20
270.7308234714
 10
343.9051624092
 20
270.9482279593
 10
343.2263002699
 20
271.1297319945
 10
342.5209794036
 20
271.2737405131
 10
341.7953981954
 20
271.3789879629
 10
341.0559330792
 20
271.4445494257
 10
340.3090825008
 20
271.4698487448
 10
339.5614098101
 20
271.4546635891
 10
338.8194855816
 20
271.3991274061
 10
338.089829872
 20
271.3037282499
 10
337.3788549219
 20
271.1693044917
 10
336.6928088049
 20
270.9970374523
 10
336.0377205187
 20
270.7884410206
 10
335.4193470029
 20
270.5453483496
 10
334.8431225461
 20
270.2698957463
 10
334.7354398413
 20
270.2122494385
  0
LWPOLYLINE
  5
1F0
330
1F
100
AcDbEntity
  8
0
  6
Continuous
 62
     8
370
    18
100
AcDbPolyline
 90
       24
 70
   128
 43
0.0
 10
333.6087727046
 20
268.51700063
 10
333.7458270403
 20
268.6533862797
 10
334.1535030678
 20
269.0033140826
 10
334.6177786397
 20
269.3288940946
 10
335.1343189402
 20
269.6270864629
 10
335.6983011716
 20
269.8951070456
 10
336.3044595837
 20
270.1304534068
 10
336.9471346388
 20
270.3309281809
 10
337.6203258531
 20
270.494659589
 10
338.3177478215
 20
270.620118915
 10
339.0328889032
 20
270.706134779
 10
339.7590720184
 20
270.7519040741
 10
340.489516991
 20
270.7569994647
 10
341.2174038533
 20
270.7213733765
 10
341.9359365216
 20
270.6453584406
 10
342.6384062501
 20
270.5296643881
 10
343.3182542681
 20
270.3753714232
 10
343.9691330179
 20
270.1839201376
 10
344.58496542
 20
269.9570980605
 10
345.1600016131
 20
269.6970229685
 10
345.6888726393
 20
269.4061231126
 10
346.1666405723
 20
269.0871145465
 10
346.5888446216
 20
268.7429757671
 10
346.8222942131
 20
268.51700063
  0
ARC
  5
1F1
330
1F
100
AcDbEntity
  8
0
  6
Continuous
 62
     8
370
    18
100
AcDbCircle
 10
340.2187720951
 20
274.9877840564
 30
0.0
 40
13.07389075127844
100
AcDbArc
 50
257.2438154629
 51
280.5948461611
  0
LWPOLYLINE
  5
1F2
330
1F
100
AcDbEntity
  8
0
  6
Continuous
 62
     8
370
    18
100
AcDbPolyline
 90
       26
 70
   128
 43
0.0
 10
345.7026820809
 20
259.1153999642
 10
345.15624921
 20
258.8286378333
 10
344.5650724523
 20
258.5731595156
 10
343.9345055958
 20
258.3512786624
 10
343.2702591518
 20
258.1650046609
 10
342.5783486389
 20
258.0160244374
 10
341.8650401058
 20
257.9056871799
 10
341.1367933851
 20
257.8349921196
 10
340.4002035918
 20
257.804579482
 10
339.6619413972
 20
257.8147246886
 10
338.9286926181
 20
257.8653358628
 10
338.2070976689
 20
257.9559546621
 10
337.5036914252
 20
258.0857604285
 10
336.8248440429
 20
258.2535776209
 10
336.176703269
 20
258.4578864609
 10
335.5651387667
 20
258.6968366959
 10
334.995688959
 20
258.9682643557
 10
334.4735108713
 20
259.2697113492
 10
334.0033334293
 20
259.5984477259
 10
333.5894146328
 20
259.9514963982
 10
333.2355029944
 20
260.3256601027
 10
332.9448035929
 20
260.7175503549
 10
332.7199490469
 20
261.123618136
 10
332.562975674
 20
261.5401860332
 10
332.4753050495
 20
261.9634815433
 10
332.4555334589
 20
262.283063438
  0
LWPOLYLINE
  5
1F3
330
1F
100
AcDbEntity
  8
0
  6
Continuous
 62
     8
370
    18
100
AcDbPolyline
 90
       10
 70
   128
 43
0.0
 10
347.9755334589
 20
262.283063438
 10
347.9733357857
 20
262.1764556395
 10
347.9206538439
 20
261.751231403
 10
347.7981931388
 20
261.3308235198
 10
347.6070626934
 20
260.9190392687
 10
347.3489934147
 20
260.5196078317
 10
347.0263224179
 20
260.1361465218
 10
346.6419718617
 20
259.7721280239
 10
346.1994224841
 20
259.430848946
 10
345.7026820809
 20
259.1153999642
  0
LWPOLYLINE
  5
1F4
330
1F
100
AcDbEntity
  8
0
  6
Continuous
 62
     8
370
    18
100
AcDbPolyline
 90
       24
 70
   128
 43
0.0
 10
345.6841437589
 20
258.9828618522
 10
345.1395570105
 20
258.6970685467
 10
344.5503775424
 20
258.442453362
 10
343.921941055
 20
258.2213221329
 10
343.2599387664
 20
258.0356774578
 10
342.5703658719
 20
257.8872005637
 10
341.8594672505
 20
257.7772360804
 10
341.13368091
 20
257.7067798633
 10
340.3995796841
 20
257.6764699747
 10
339.6638117071
 20
257.6865809057
 10
338.9330402076
 20
257.7370210902
 10
338.2138831657
 20
257.827333734
 10
337.5128533787
 20
257.9567009519
 10
336.8362994811
 20
258.1239511742
 10
336.1903484497
 20
258.3275697571
 10
335.5808501171
 20
258.5657126992
 10
335.0133241945
 20
258.8362233411
 10
334.4929102845
 20
259.1366518965
 10
334.0243213362
 20
259.4642776379
 10
333.6118009636
 20
259.8161335359
 10
333.2590850152
 20
260.1890331289
 10
332.969367741
 20
260.5795993806
 10
332.7452728657
 20
260.9842952624
 10
332.690033164
 20
261.1106564299
  0
ARC
  5
1F5
330
1F
100
AcDbEntity
  8
0
  6
Continuous
 62
     8
370
    18
100
AcDbCircle
 10
343.591152637
 20
263.0557669057
 30
0.0
 40
4.579210348000771
100
AcDbArc
 50
297.1977993107
 51
335.8041871639
  0
ARC
  5
1F6
330
1F
100
AcDbEntity
  8
0
  6
Continuous
 62
     8
370
    18
100
AcDbCircle
 10
343.502886464
 20
262.4471239178
 30
0.0
 40
4.44359391123785
100
AcDbArc
 50
297.1586786884
 51
335.778722358
  0
LWPOLYLINE
  5
1F7
330
1F
100
AcDbEntity
  8
0
  6
Continuous
 62
     8
370
    18
100
AcDbPolyline
 90
       24
 70
   128
 43
0.0
 10
332.8757657915
 20
260.6240873703
 10
332.8952949526
 20
260.5745385706
 10
333.0945774221
 20
260.1712923522
 10
333.3603463394
 20
259.7810319165
 10
333.6901202919
 20
259.40740102
 10
334.0808202689
 20
259.0538881536
 10
334.52879841
 20
258.7237939717
 10
335.0298720642
 20
258.4202004749
 10
335.5793628415
 20
258.1459422337
 10
336.1721402948
 20
257.9035799235
 10
336.8026698206
 20
257.6953764158
 10
337.4650643346
 20
257.5232756508
 10
338.1531392378
 20
257.3888844868
 10
338.8604701601
 20
257.2934576981
 10
339.5804529434
 20
257.2378862587
 10
340.3063653023
 20
257.2226890243
 10
341.0314295888
 20
257.2480078873
 10
341.7488760729
 20
257.3136064523
 10
342.4520061502
 20
257.4188722433
 10
343.1342548846
 20
257.5628224218
 10
343.7892523034
 20
257.7441129638
 10
344.4108828722
 20
257.9610512085
 10
344.993342594
 20
258.2116116618
 10
345.5311931991
 20
258.4934549083
  0
LWPOLYLINE
  5
1F8
330
1F
100
AcDbEntity
  8
0
  6
Continuous
 62
     8
370
    18
100
AcDbPolyline
 90
       24
 70
   128
 43
0.0
 10
345.5188343178
 20
258.405096167
 10
344.9822342125
 20
258.1239082046
 10
344.4011287066
 20
257.873930303
 10
343.7809434256
 20
257.6574964386
 10
343.1274688724
 20
257.4766273962
 10
342.4468063628
 20
257.3330119011
 10
341.7453110593
 20
257.2279908525
 10
341.0295326345
 20
257.1625448038
 10
340.3061541187
 20
257.137284807
 10
339.5819295023
 20
257.152446708
 10
338.8636206753
 20
257.207888944
 10
338.1579342937
 20
257.303093866
 10
337.4714591611
 20
257.4371725712
 10
336.8106047108
 20
257.6088732028
 10
336.1815411629
 20
257.8165926384
 10
335.5901419142
 20
258.0583914575
 10
335.0419287
 20
258.3320120497
 10
334.5420200396
 20
258.6348996933
 10
334.0950834453
 20
258.9642264078
 10
333.7052918437
 20
259.3169173587
 10
333.3762846139
 20
259.6896795653
 10
333.1111336079
 20
260.0790326476
 10
332.9123144692
 20
260.4813413205
 10
332.7975699848
 20
260.8279945311
  0
LWPOLYLINE
  5
1F9
330
1F
100
AcDbEntity
  8
0
  6
Continuous
 62
     8
370
    18
100
AcDbPolyline
 90
        8
 70
   128
 43
0.0
 10
347.6334969329
 20
260.8279945311
 10
347.5578614612
 20
260.5835047754
 10
347.3759399577
 20
260.1785401566
 10
347.127163668
 20
259.7856020538
 10
346.8138553493
 20
259.408359224
 10
346.4389402769
 20
259.0503338821
 10
346.0059189318
 20
258.7148688141
 10
345.5188343178
 20
258.405096167
  0
LWPOLYLINE
  5
1FA
330
1F
100
AcDbEntity
  8
0
  6
Continuous
 62
     8
370
    18
100
AcDbPolyline
 90
       31
 70
   128
 43
0.0
 10
332.8614800581
 20
99.2888186031
 10
332.8712972616
 20
99.259808915
 10
333.0498510279
 20
98.8483028822
 10
333.2974142332
 20
98.448881666
 10
333.6116027085
 20
98.0653919109
 10
333.989390647
 20
97.701526833
 10
334.4271397443
 20
97.3607906519
 10
334.9206342373
 20
97.0464648433
 10
335.4651215043
 20
96.7615765365
 10
336.0553578353
 20
96.5088693616
 10
336.6856589318
 20
96.290777027
 10
337.3499546495
 20
96.1093998809
 10
338.0418474577
 20
95.9664846845
 10
338.7546740503
 20
95.8634077893
 10
339.4815695176
 20
95.801161882
 10
340.2155334589
 20
95.7803464249
 10
340.9494974002
 20
95.801161882
 10
341.6763928675
 20
95.8634077893
 10
342.3892194601
 20
95.9664846845
 10
343.0811122682
 20
96.1093998809
 10
343.745407986
 20
96.290777027
 10
344.3757090824
 20
96.5088693616
 10
344.9659454134
 20
96.7615765365
 10
345.5104326804
 20
97.0464648433
 10
346.0039271735
 20
97.3607906519
 10
346.4416762708
 20
97.701526833
 10
346.8194642092
 20
98.0653919109
 10
347.1336526845
 20
98.448881666
 10
347.3812158898
 20
98.8483028822
 10
347.5597696561
 20
99.259808915
 10
347.5636137183
 20
99.2710429783
  0
MTEXT
  5
1FB
330
1F
100
AcDbEntity
  8
0
  6
Continuous
 62
     7
370
     0
100
AcDbMText
 10
339.7064708607
 20
283.1464264032
 30
0.0
 40
3.5
 41
0.0
 71
     2
 72
     1
  1
(1:5)
  7
SLDTEXTSTYLE0
 73
     1
 44
1.0
  0
CIRCLE
  5
1FC
330
1F
100
AcDbEntity
  8
0
  6
Continuous
 62
     7
370
    25
100
AcDbCircle
 10
146.3925921497
 20
70.2199662046
 30
0.0
 40
35.09390887643659
  0
CIRCLE
  5
1FD
330
1F
100
AcDbEntity
  8
0
  6
Continuous
 62
     7
370
    25
100
AcDbCircle
 10
146.3925921497
 20
70.2199662046
 30
0.0
 40
39.0
  0
CIRCLE
  5
1FE
330
1F
100
AcDbEntity
  8
0
  6
Continuous
 62
     7
370
    25
100
AcDbCircle
 10
146.3925921497
 20
70.2199662046
 30
0.0
 40
37.99999999999999
  0
CIRCLE
  5
1FF
330
1F
100
AcDbEntity
  8
0
  6
Continuous
 62
     7
370
    25
100
AcDbCircle
 10
146.3925921497
 20
70.2199662046
 30
0.0
 40
43.59999999999999
  0
CIRCLE
  5
200
330
1F
100
AcDbEntity
  8
0
  6
Continuous
 62
     7
370
    25
100
AcDbCircle
 10
146.3925921497
 20
70.2199662046
 30
0.0
 40
35.04938637064786
  0
CIRCLE
  5
201
330
1F
100
AcDbEntity
  8
0
  6
Continuous
 62
     8
370
    18
100
AcDbCircle
 10
146.3925921497
 20
70.2199662046
 30
0.0
 40
35.26259897774298
  0
CIRCLE
  5
202
330
1F
100
AcDbEntity
  8
0
  6
Continuous
 62
     8
370
    18
100
AcDbCircle
 10
146.3925921497
 20
70.2199662046
 30
0.0
 40
40.37864714073729
  0
CIRCLE
  5
203
330
1F
100
AcDbEntity
  8
0
  6
Continuous
 62
     8
370
    18
100
AcDbCircle
 10
146.3925921497
 20
70.2199662046
 30
0.0
 40
41.5320292888922
  0
INSERT
  5
20F
330
1F
100
AcDbEntity
  8
0
  6
Continuous
 62
     7
370
     0
100
AcDbBlockReference
  2
SW_CENTERMARKSYMBOL_0
 10
146.3925921497
 20
70.2199662046
 30
0.0
  0
LINE
  5
210
330
1F
100
AcDbEntity
  8
0
  6
CENTER
 62
     7
370
    18
100
AcDbLine
 10
196.0775083056
 20
70.2199662046
 30
0.0
 11
96.9426578073
 21
70.2199662046
 31
0.0
  0
LINE
  5
211
330
1F
100
AcDbEntity
  8
0
  6
Continuous
 62
     7
370
    18
100
AcDbLine
 10
194.0775083056
 20
62.6199662046
 30
0.0
 11
194.0775083056
 21
70.2199662046
 31
0.0
  0
SOLID
  5
212
330
1F
100
AcDbEntity
  8
0
  6
Continuous
 62
     7
370
    18
100
AcDbTrace
 10
194.0775083056
 20
70.2199662046
 30
0.0
 11
193.2775083056
 21
65.2199662046
 31
0.0
 12
194.8775083056
 22
65.2199662046
 32
0.0
 13
194.8775083056
 23
65.2199662046
 33
0.0
  0
LINE
  5
213
330
1F
100
AcDbEntity
  8
0
  6
Continuous
 62
     7
370
    18
100
AcDbLine
 10
98.9426578073
 20
62.6199662046
 30
0.0
 11
98.9426578073
 21
70.2199662046
 31
0.0
  0
SOLID
  5
214
330
1F
100
AcDbEntity
  8
0
  6
Continuous
 62
     7
370
    18
100
AcDbTrace
 10
98.9426578073
 20
70.2199662046
 30
0.0
 11
98.1426578073
 21
65.2199662046
 31
0.0
 12
99.7426578073
 22
65.2199662046
 32
0.0
 13
99.7426578073
 23
65.2199662046
 33
0.0
  0
MTEXT
  5
215
330
1F
100
AcDbEntity
  8
0
  6
Continuous
 62
     7
100
AcDbMText
 10
191.8369874257
 20
60.5676474789
 30
0.0
 40
5.0
 41
0.0
 71
     1
 72
     1
  1
A
  7
SLDTEXTSTYLE0
 73
     1
 44
1.0
  0
MTEXT
  5
216
330
1F
100
AcDbEntity
  8
0
  6
Continuous
 62
     7
100
AcDbMText
 10
96.5556512534
 20
60.7353883427
 30
0.0
 40
5.0
 41
0.0
 71
     1
 72
     1
  1
A
  7
SLDTEXTSTYLE0
 73
     1
 44
1.0
  0
INSERT
  5
21A
330
1F
100
AcDbEntity
  8
0
  6
Continuous
 62
     7
100
AcDbBlockReference
  2
SW_BROKEN_VIEW_0
 10
0.0
 20
0.0
 30
0.0
  0
LINE
  5
21B
330
1F
100
AcDbEntity
  8
0
  6
Continuous
 62
     7
370
    25
100
AcDbLine
 10
186.2695300159
 20
249.4838909828
 30
0.0
 11
106.5156542835
 21
249.4838909828
 31
0.0
  0
LINE
  5
21C
330
1F
100
AcDbEntity
  8
0
  6
Continuous
 62
     7
370
    25
100
AcDbLine
 10
183.2558111427
 20
240.3155641281
 30
0.0
 11
109.5293731568
 21
240.3155641281
 31
0.0
  0
LINE
  5
21D
330
1F
100
AcDbEntity
  8
0
  6
Continuous
 62
     7
370
    25
100
AcDbLine
 10
183.3095857081
 20
240.3091864311
 30
0.0
 11
183.7370143411
 21
240.2058915817
 31
0.0
  0
ARC
  5
21E
330
1F
100
AcDbEntity
  8
0
  6
Continuous
 62
     7
370
    25
100
AcDbCircle
 10
183.7772787411
 20
240.3728994752
 30
0.0
 40
0.1717930685257927
100
AcDbArc
 50
256.4450788718
 51
345.2888202446
  0
LINE
  5
21F
330
1F
100
AcDbEntity
  8
0
  6
Continuous
 62
     7
370
    25
100
AcDbLine
 10
184.1219560382
 20
241.0096602165
 30
0.0
 11
183.9434401271
 21
240.3292731964
 31
0.0
  0
LWPOLYLINE
  5
220
330
1F
100
AcDbEntity
  8
0
  6
Continuous
 62
     7
370
    25
100
AcDbPolyline
 90
        3
 70
   128
 43
0.0
 10
184.1217250702
 20
241.0976962769
 10
184.127085763
 20
241.040297004
 10
184.1219560382
 20
241.0096602165
  0
LINE
  5
221
330
1F
100
AcDbEntity
  8
0
  6
Continuous
 62
     7
370
    25
100
AcDbLine
 10
184.0598778007
 20
241.3285450661
 30
0.0
 11
184.1217250702
 21
241.0976962769
 31
0.0
  0
ARC
  5
222
330
1F
100
AcDbEntity
  8
0
  6
Continuous
 62
     7
370
    25
100
AcDbCircle
 10
184.336315698
 20
241.4026089142
 30
0.0
 40
0.2861876389246183
100
AcDbArc
 50
133.9389178913
 51
194.9985567512
  0
LINE
  5
223
330
1F
100
AcDbEntity
  8
0
  6
Continuous
 62
     7
370
    25
100
AcDbLine
 10
184.3358175037
 20
241.7995409691
 30
0.0
 11
184.1377326426
 21
241.6086868965
 31
0.0
  0
ARC
  5
224
330
1F
100
AcDbEntity
  8
0
  6
Continuous
 62
     7
370
    25
100
AcDbCircle
 10
184.1767326303
 20
241.9645016913
 30
0.0
 40
0.2291725044797159
100
AcDbArc
 50
313.9611818549
 51
359.9764302262
  0
LINE
  5
225
330
1F
100
AcDbEntity
  8
0
  6
Continuous
 62
     7
370
    25
100
AcDbLine
 10
184.4059051154
 20
244.1360430443
 30
0.0
 11
184.4059051154
 21
241.9644074165
 31
0.0
  0
ARC
  5
226
330
1F
100
AcDbEntity
  8
0
  6
Continuous
 62
     7
370
    25
100
AcDbCircle
 10
183.8335651375
 20
244.1360653174
 30
0.0
 40
0.5723399782491606
100
AcDbArc
 50
359.997770287
 51
101.0070135472
  0
LINE
  5
227
330
1F
100
AcDbEntity
  8
0
  6
Continuous
 62
     7
370
    25
100
AcDbLine
 10
183.7242887495
 20
244.6978764259
 30
0.0
 11
183.1738249538
 21
244.5908860886
 31
0.0
  0
ARC
  5
228
330
1F
100
AcDbEntity
  8
0
  6
Continuous
 62
     7
370
    25
100
AcDbCircle
 10
183.1083142449
 20
244.9280356754
 30
0.0
 40
0.3434552327631502
100
AcDbArc
 50
103.7717658887
 51
280.995982721
  0
ARC
  5
229
330
1F
100
AcDbEntity
  8
0
  6
Continuous
 62
     7
370
    25
100
AcDbCircle
 10
182.890232915
 20
245.817733268
 30
0.0
 40
0.5725803957340214
100
AcDbArc
 50
283.7732683442
 51
331.9851842686
  0
LINE
  5
22A
330
1F
100
AcDbEntity
  8
0
  6
Continuous
 62
     7
370
    25
100
AcDbLine
 10
184.7266414342
 20
248.0519489967
 30
0.0
 11
183.3957218704
 21
245.5487923348
 31
0.0
  0
ARC
  5
22B
330
1F
100
AcDbEntity
  8
0
  6
Continuous
 62
     7
370
    25
100
AcDbCircle
 10
184.5245916955
 20
248.159410554
 30
0.0
 40
0.2288494771946596
100
AcDbArc
 50
331.993411223
 51
0.0014063564
  0
LINE
  5
22C
330
1F
100
AcDbEntity
  8
0
  6
Continuous
 62
     7
370
    25
100
AcDbLine
 10
184.7534411726
 20
248.9737348282
 30
0.0
 11
184.7534411726
 21
248.1594161713
 31
0.0
  0
ARC
  5
22D
330
1F
100
AcDbEntity
  8
0
  6
Continuous
 62
     7
370
    25
100
AcDbCircle
 10
185.1003853084
 20
248.9737500021
 30
0.0
 40
0.34694413613646
100
AcDbArc
 50
98.7024075534
 51
180.0025058738
  0
LINE
  5
22E
330
1F
100
AcDbEntity
  8
0
  6
Continuous
 62
     7
370
    25
100
AcDbLine
 10
186.0094451485
 20
249.4640426361
 30
0.0
 11
185.0478918431
 21
249.3166999542
 31
0.0
  0
ARC
  5
22F
330
1F
100
AcDbEntity
  8
0
  6
Continuous
 62
     7
370
    25
100
AcDbCircle
 10
186.2697271154
 20
247.7628364911
 30
0.0
 40
1.721002338807689
100
AcDbArc
 50
84.0199231307
 51
98.698711472
  0
LINE
  5
230
330
1F
100
AcDbEntity
  8
0
  6
Continuous
 62
     7
370
    25
100
AcDbLine
 10
186.4490256784
 20
249.474473449
 30
0.0
 11
187.0497436402
 21
249.4112925255
 31
0.0
  0
ARC
  5
231
330
1F
100
AcDbEntity
  8
0
  6
Continuous
 62
     7
370
    25
100
AcDbCircle
 10
186.9066313649
 20
248.0463271987
 30
0.0
 40
1.372447254621256
100
AcDbArc
 50
59.9918006852
 51
84.014587994
  0
LINE
  5
232
330
1F
100
AcDbEntity
  8
0
  6
Continuous
 62
     7
370
    25
100
AcDbLine
 10
187.5930250761
 20
249.2348031723
 30
0.0
 11
188.9925905642
 21
248.4267430031
 31
0.0
  0
LINE
  5
233
330
1F
100
AcDbEntity
  8
0
  6
Continuous
 62
     7
370
    25
100
AcDbLine
 10
188.9925905642
 20
248.4267430031
 30
0.0
 11
188.9925905642
 21
247.749872657
 31
0.0
  0
LINE
  5
234
330
1F
100
AcDbEntity
  8
0
  6
Continuous
 62
     7
370
    25
100
AcDbLine
 10
188.9925905642
 20
247.749872657
 30
0.0
 11
188.8950438378
 21
247.6935462677
 31
0.0
  0
ARC
  5
235
330
1F
100
AcDbEntity
  8
0
  6
Continuous
 62
     7
370
    25
100
AcDbCircle
 10
189.0380387963
 20
247.4457466358
 30
0.0
 40
0.2860982623298655
100
AcDbArc
 50
119.9874734999
 51
180.0073059272
  0
LINE
  5
236
330
1F
100
AcDbEntity
  8
0
  6
Continuous
 62
     7
370
    25
100
AcDbLine
 10
188.7519405363
 20
247.4457101547
 30
0.0
 11
188.7519405363
 21
245.4963402474
 31
0.0
  0
ARC
  5
237
330
1F
100
AcDbEntity
  8
0
  6
Continuous
 62
     7
370
    25
100
AcDbCircle
 10
189.0380387963
 20
245.4963037663
 30
0.0
 40
0.2860982623298896
100
AcDbArc
 50
179.9926940728
 51
240.0125265001
  0
LINE
  5
238
330
1F
100
AcDbEntity
  8
0
  6
Continuous
 62
     7
370
    25
100
AcDbLine
 10
188.8950438378
 20
245.2485041344
 30
0.0
 11
188.9925905642
 21
245.1921777451
 31
0.0
  0
LINE
  5
239
330
1F
100
AcDbEntity
  8
0
  6
Continuous
 62
     7
370
    25
100
AcDbLine
 10
188.9925905642
 20
245.1921777451
 30
0.0
 11
188.9925905642
 21
244.515307399
 31
0.0
  0
LINE
  5
23A
330
1F
100
AcDbEntity
  8
0
  6
Continuous
 62
     7
370
    25
100
AcDbLine
 10
188.9925905642
 20
244.515307399
 30
0.0
 11
188.8950438378
 21
244.4589810097
 31
0.0
  0
ARC
  5
23B
330
1F
100
AcDbEntity
  8
0
  6
Continuous
 62
     7
370
    25
100
AcDbCircle
 10
189.0382314555
 20
244.2110701342
 30
0.0
 40
0.286290929011831
100
AcDbArc
 50
120.0097417387
 51
179.9850376884
  0
LINE
  5
23C
330
1F
100
AcDbEntity
  8
0
  6
Continuous
 62
     7
370
    25
100
AcDbLine
 10
188.7519405363
 20
244.2111448967
 30
0.0
 11
188.7519405363
 21
242.6323370659
 31
0.0
  0
ARC
  5
23D
330
1F
100
AcDbEntity
  8
0
  6
Continuous
 62
     7
370
    25
100
AcDbCircle
 10
188.8664365018
 20
242.6323855802
 30
0.0
 40
0.1144959758354702
100
AcDbArc
 50
180.0242773828
 51
304.985158757
  0
LINE
  5
23E
330
1F
100
AcDbEntity
  8
0
  6
Continuous
 62
     7
370
    25
100
AcDbLine
 10
188.9925905642
 20
242.5809578621
 30
0.0
 11
188.9320843992
 21
242.5385789597
 31
0.0
  0
LINE
  5
23F
330
1F
100
AcDbEntity
  8
0
  6
Continuous
 62
     7
370
    25
100
AcDbLine
 10
188.9925905642
 20
242.5809578621
 30
0.0
 11
188.9925905642
 21
241.5376977646
 31
0.0
  0
LINE
  5
240
330
1F
100
AcDbEntity
  8
0
  6
Continuous
 62
     7
370
    25
100
AcDbLine
 10
188.9925905642
 20
241.5376977646
 30
0.0
 11
188.7787551758
 21
241.0790996277
 31
0.0
  0
ARC
  5
241
330
1F
100
AcDbEntity
  8
0
  6
Continuous
 62
     7
370
    25
100
AcDbCircle
 10
189.0382809834
 20
240.9581152939
 30
0.0
 40
0.286340450928582
100
AcDbArc
 50
155.0062633875
 51
179.9906935829
  0
LINE
  5
242
330
1F
100
AcDbEntity
  8
0
  6
Continuous
 62
     7
370
    25
100
AcDbLine
 10
188.7519405363
 20
240.9581618035
 30
0.0
 11
188.7519405363
 21
239.816732856
 31
0.0
  0
ARC
  5
243
330
1F
100
AcDbEntity
  8
0
  6
Continuous
 62
     7
370
    25
100
AcDbCircle
 10
189.0382314555
 20
239.8168076185
 30
0.0
 40
0.2862909290118389
100
AcDbArc
 50
180.0149623116
 51
239.9902582613
  0
LINE
  5
244
330
1F
100
AcDbEntity
  8
0
  6
Continuous
 62
     7
370
    25
100
AcDbLine
 10
188.8950438378
 20
239.568896743
 30
0.0
 11
188.9925905642
 21
239.5125703537
 31
0.0
  0
LINE
  5
245
330
1F
100
AcDbEntity
  8
0
  6
Continuous
 62
     7
370
    25
100
AcDbLine
 10
188.9925905642
 20
239.5125703537
 30
0.0
 11
188.9925905642
 21
238.8357000076
 31
0.0
  0
LINE
  5
246
330
1F
100
AcDbEntity
  8
0
  6
Continuous
 62
     7
370
    25
100
AcDbLine
 10
188.9925905642
 20
238.8357000076
 30
0.0
 11
188.8950438378
 21
238.7793736183
 31
0.0
  0
ARC
  5
247
330
1F
100
AcDbEntity
  8
0
  6
Continuous
 62
     7
370
    25
100
AcDbCircle
 10
189.0382314555
 20
238.5314627429
 30
0.0
 40
0.286290929011831
100
AcDbArc
 50
120.0097417387
 51
179.9850376884
  0
LINE
  5
248
330
1F
100
AcDbEntity
  8
0
  6
Continuous
 62
     7
370
    25
100
AcDbLine
 10
188.7519405363
 20
238.5315375054
 30
0.0
 11
188.7519405363
 21
237.3177485191
 31
0.0
  0
ARC
  5
249
330
1F
100
AcDbEntity
  8
0
  6
Continuous
 62
     7
370
    25
100
AcDbCircle
 10
189.0382314299
 20
237.3177636514
 30
0.0
 40
0.2862908940621239
100
AcDbArc
 50
180.0030284363
 51
239.9902601351
  0
LINE
  5
24A
330
1F
100
AcDbEntity
  8
0
  6
Continuous
 62
     7
370
    25
100
AcDbLine
 10
188.8950438378
 20
237.0698528015
 30
0.0
 11
188.9925905642
 21
237.0135264122
 31
0.0
  0
LINE
  5
24B
330
1F
100
AcDbEntity
  8
0
  6
Continuous
 62
     7
370
    25
100
AcDbLine
 10
188.9925905642
 20
237.0135264122
 30
0.0
 11
188.9925905642
 21
236.3366560661
 31
0.0
  0
LINE
  5
24C
330
1F
100
AcDbEntity
  8
0
  6
Continuous
 62
     7
370
    25
100
AcDbLine
 10
188.9925905642
 20
236.3366560661
 30
0.0
 11
188.8950438378
 21
236.2803296768
 31
0.0
  0
ARC
  5
24D
330
1F
100
AcDbEntity
  8
0
  6
Continuous
 62
     7
370
    25
100
AcDbCircle
 10
189.0381143427
 20
236.0324901601
 30
0.0
 40
0.2861705704625567
100
AcDbArc
 50
119.9965830042
 51
179.6890389028
  0
LINE
  5
24E
330
1F
100
AcDbEntity
  8
0
  6
Continuous
 62
     7
370
    25
100
AcDbLine
 10
188.7519479868
 20
236.0340432846
 30
0.0
 11
188.7451269803
 21
234.7961144173
 31
0.0
  0
ARC
  5
24F
330
1F
100
AcDbEntity
  8
0
  6
Continuous
 62
     7
370
    25
100
AcDbCircle
 10
189.0313244386
 20
234.7945266721
 30
0.0
 40
0.2862018624949333
100
AcDbArc
 50
179.6821419454
 51
239.9998436989
  0
LINE
  5
250
330
1F
100
AcDbEntity
  8
0
  6
Continuous
 62
     7
370
    25
100
AcDbLine
 10
188.8882228312
 20
234.5466689789
 30
0.0
 11
188.9925905642
 21
234.486408683
 31
0.0
  0
LINE
  5
251
330
1F
100
AcDbEntity
  8
0
  6
Continuous
 62
     7
370
    25
100
AcDbLine
 10
188.9925905642
 20
234.486408683
 30
0.0
 11
188.9925905642
 21
233.8174061501
 31
0.0
  0
LINE
  5
252
330
1F
100
AcDbEntity
  8
0
  6
Continuous
 62
     7
370
    25
100
AcDbLine
 10
188.9925905642
 20
233.8174061501
 30
0.0
 11
188.0019427416
 21
233.2454399788
 31
0.0
  0
ARC
  5
253
330
1F
100
AcDbEntity
  8
0
  6
Continuous
 62
     7
370
    25
100
AcDbCircle
 10
187.3086941486
 20
234.4485573189
 30
0.0
 40
1.388554984740983
100
AcDbArc
 50
291.0329946826
 51
299.9509888783
  0
LINE
  5
254
330
1F
100
AcDbEntity
  8
0
  6
Continuous
 62
     7
370
    25
100
AcDbLine
 10
187.8070541797
 20
233.1525163376
 30
0.0
 11
187.1620387909
 21
232.9051570618
 31
0.0
  0
ARC
  5
255
330
1F
100
AcDbEntity
  8
0
  6
Continuous
 62
     7
370
    25
100
AcDbCircle
 10
187.0390126321
 20
233.2257766534
 30
0.0
 40
0.3434128103104049
100
AcDbArc
 50
178.0614736289
 51
290.9924967944
  0
LINE
  5
256
330
1F
100
AcDbEntity
  8
0
  6
Continuous
 62
     7
370
    25
100
AcDbLine
 10
186.7822119174
 20
235.7930617058
 30
0.0
 11
186.6957963583
 21
233.2373933518
 31
0.0
  0
LWPOLYLINE
  5
257
330
1F
100
AcDbEntity
  8
0
  6
Continuous
 62
     7
370
    25
100
AcDbPolyline
 90
        3
 70
   128
 43
0.0
 10
186.7593051074
 20
235.8847336495
 10
186.7793397186
 20
235.8306722366
 10
186.7822119174
 20
235.7930617058
  0
LINE
  5
258
330
1F
100
AcDbEntity
  8
0
  6
Continuous
 62
     7
370
    25
100
AcDbLine
 10
186.6236374853
 20
236.1197547638
 30
0.0
 11
186.7593051074
 21
235.8847336495
 31
0.0
  0
ARC
  5
259
330
1F
100
AcDbEntity
  8
0
  6
Continuous
 62
     7
370
    25
100
AcDbCircle
 10
186.7722382353
 20
236.2055857001
 30
0.0
 40
0.1716074955277558
100
AcDbArc
 50
154.2458852182
 51
210.0104824865
  0
LINE
  5
25A
330
1F
100
AcDbEntity
  8
0
  6
Continuous
 62
     7
370
    25
100
AcDbLine
 10
187.1421606419
 20
237.3677568161
 30
0.0
 11
186.6176770208
 21
236.2801508629
 31
0.0
  0
ARC
  5
25B
330
1F
100
AcDbEntity
  8
0
  6
Continuous
 62
     7
370
    25
100
AcDbCircle
 10
186.4203506908
 20
237.7158420727
 30
0.0
 40
0.8013569438094218
100
AcDbArc
 50
334.2547998538
 51
179.9995803822
  0
LINE
  5
25C
330
1F
100
AcDbEntity
  8
0
  6
Continuous
 62
     7
370
    25
100
AcDbLine
 10
185.618993747
 20
237.7158479416
 30
0.0
 11
185.618993747
 21
237.4529318535
 31
0.0
  0
ARC
  5
25D
330
1F
100
AcDbEntity
  8
0
  6
Continuous
 62
     7
370
    25
100
AcDbCircle
 10
185.0466368223
 20
237.4529424566
 30
0.0
 40
0.5723569247682734
100
AcDbArc
 50
266.5524708559
 51
359.998938578
  0
LINE
  5
25E
330
1F
100
AcDbEntity
  8
0
  6
Continuous
 62
     7
370
    25
100
AcDbLine
 10
182.70872246
 20
237.0202021324
 30
0.0
 11
185.0122184632
 21
236.8816213333
 31
0.0
  0
ARC
  5
25F
330
1F
100
AcDbEntity
  8
0
  6
Continuous
 62
     7
370
    25
100
AcDbCircle
 10
182.7360829671
 20
237.4770234544
 30
0.0
 40
0.4576399431066833
100
AcDbArc
 50
234.9974332417
 51
266.5724648802
  0
LINE
  5
260
330
1F
100
AcDbEntity
  8
0
  6
Continuous
 62
     7
370
    25
100
AcDbLine
 10
181.6085436521
 20
237.7078609192
 30
0.0
 11
182.4735746858
 21
237.102158519
 31
0.0
  0
ARC
  5
261
330
1F
100
AcDbEntity
  8
0
  6
Continuous
 62
     7
370
    25
100
AcDbCircle
 10
181.7727234615
 20
237.9423154017
 30
0.0
 40
0.2862235388871247
100
AcDbArc
 50
114.2443622361
 51
234.9978661069
  0
LINE
  5
262
330
1F
100
AcDbEntity
  8
0
  6
Continuous
 62
     7
370
    25
100
AcDbLine
 10
181.9986299751
 20
238.3579091751
 30
0.0
 11
181.6551917372
 21
238.2032947266
 31
0.0
  0
LINE
  5
263
330
1F
100
AcDbEntity
  8
0
  6
Continuous
 62
     7
370
    25
100
AcDbLine
 10
183.0876217363
 20
238.8482765877
 30
0.0
 11
181.9986299751
 21
238.3579091751
 31
0.0
  0
ARC
  5
264
330
1F
100
AcDbEntity
  8
0
  6
Continuous
 62
     7
370
    25
100
AcDbCircle
 10
182.9697810653
 20
239.1094008377
 30
0.0
 40
0.2864826306769213
100
AcDbArc
 50
294.2887992174
 51
14.052751793
  0
LINE
  5
265
330
1F
100
AcDbEntity
  8
0
  6
Continuous
 62
     7
370
    25
100
AcDbLine
 10
183.033746588
 20
240.03083274
 30
0.0
 11
183.2476900098
 21
239.1789631569
 31
0.0
  0
ARC
  5
266
330
1F
100
AcDbEntity
  8
0
  6
Continuous
 62
     7
370
    25
100
AcDbCircle
 10
183.2558223497
 20
240.0866136281
 30
0.0
 40
0.2289741282072066
100
AcDbArc
 50
76.4201062181
 51
194.0998330925
  0
LINE
  5
267
330
1F
100
AcDbEntity
  8
0
  6
Continuous
 62
     7
370
    25
100
AcDbLine
 10
109.5374942896
 20
239.1789631569
 30
0.0
 11
109.7514377115
 21
240.03083274
 31
0.0
  0
ARC
  5
268
330
1F
100
AcDbEntity
  8
0
  6
Continuous
 62
     7
370
    25
100
AcDbCircle
 10
109.8151149465
 20
239.1092612926
 30
0.0
 40
0.2862369281251012
100
AcDbArc
 50
165.9061395836
 51
245.752309406
  0
LINE
  5
269
330
1F
100
AcDbEntity
  8
0
  6
Continuous
 62
     7
370
    25
100
AcDbLine
 10
110.7865543244
 20
238.3579091751
 30
0.0
 11
109.6975625632
 21
238.8482765877
 31
0.0
  0
LINE
  5
26A
330
1F
100
AcDbEntity
  8
0
  6
Continuous
 62
     7
370
    25
100
AcDbLine
 10
111.1299925623
 20
238.2032947266
 30
0.0
 11
110.7865543244
 21
238.3579091751
 31
0.0
  0
ARC
  5
26B
330
1F
100
AcDbEntity
  8
0
  6
Continuous
 62
     7
370
    25
100
AcDbCircle
 10
111.012460838
 20
237.9423154017
 30
0.0
 40
0.2862235388871305
100
AcDbArc
 50
305.0021338931
 51
65.7556377639
  0
LINE
  5
26C
330
1F
100
AcDbEntity
  8
0
  6
Continuous
 62
     7
370
    25
100
AcDbLine
 10
110.3116096137
 20
237.102158519
 30
0.0
 11
111.1766406474
 21
237.7078609192
 31
0.0
  0
ARC
  5
26D
330
1F
100
AcDbEntity
  8
0
  6
Continuous
 62
     7
370
    25
100
AcDbCircle
 10
110.0491013323
 20
237.4770234544
 30
0.0
 40
0.4576399431066725
100
AcDbArc
 50
273.4275351198
 51
305.0025667583
  0
LINE
  5
26E
330
1F
100
AcDbEntity
  8
0
  6
Continuous
 62
     7
370
    25
100
AcDbLine
 10
107.7729658363
 20
236.8816213333
 30
0.0
 11
110.0764618394
 21
237.0202021324
 31
0.0
  0
ARC
  5
26F
330
1F
100
AcDbEntity
  8
0
  6
Continuous
 62
     7
370
    25
100
AcDbCircle
 10
107.7385474771
 20
237.4529424566
 30
0.0
 40
0.572356924768297
100
AcDbArc
 50
180.001061422
 51
273.4475291441
  0
LINE
  5
270
330
1F
100
AcDbEntity
  8
0
  6
Continuous
 62
     7
370
    25
100
AcDbLine
 10
107.1661905525
 20
237.4529318535
 30
0.0
 11
107.1661905525
 21
237.7158479416
 31
0.0
  0
ARC
  5
271
330
1F
100
AcDbEntity
  8
0
  6
Continuous
 62
     7
370
    25
100
AcDbCircle
 10
106.3648343737
 20
237.7158387251
 30
0.0
 40
0.8013561788045049
100
AcDbArc
 50
0.0006589683
 51
205.7449607957
  0
LINE
  5
272
330
1F
100
AcDbEntity
  8
0
  6
Continuous
 62
     7
370
    25
100
AcDbLine
 10
106.1675072787
 20
236.2801508629
 30
0.0
 11
105.6430236576
 21
237.3677568161
 31
0.0
  0
ARC
  5
273
330
1F
100
AcDbEntity
  8
0
  6
Continuous
 62
     7
370
    25
100
AcDbCircle
 10
106.0129460642
 20
236.2055857001
 30
0.0
 40
0.1716074955277046
100
AcDbArc
 50
329.9895175135
 51
25.7541147818
  0
LINE
  5
274
330
1F
100
AcDbEntity
  8
0
  6
Continuous
 62
     7
370
    25
100
AcDbLine
 10
106.0258791921
 20
235.8847336495
 30
0.0
 11
106.1615468142
 21
236.1197547638
 31
0.0
  0
LWPOLYLINE
  5
275
330
1F
100
AcDbEntity
  8
0
  6
Continuous
 62
     7
370
    25
100
AcDbPolyline
 90
        3
 70
   128
 43
0.0
 10
106.0029723821
 20
235.7930617058
 10
106.0107284365
 20
235.8502225601
 10
106.0258791921
 20
235.8847336495
  0
LINE
  5
276
330
1F
100
AcDbEntity
  8
0
  6
Continuous
 62
     7
370
    25
100
AcDbLine
 10
106.0893879411
 20
233.2373933518
 30
0.0
 11
106.0029723821
 21
235.7930617058
 31
0.0
  0
ARC
  5
277
330
1F
100
AcDbEntity
  8
0
  6
Continuous
 62
     7
370
    25
100
AcDbCircle
 10
105.7461716673
 20
233.2257766534
 30
0.0
 40
0.3434128103103907
100
AcDbArc
 50
249.0075032056
 51
1.9385263711
  0
LINE
  5
278
330
1F
100
AcDbEntity
  8
0
  6
Continuous
 62
     7
370
    25
100
AcDbLine
 10
105.6231455085
 20
232.9051570618
 30
0.0
 11
104.9781301198
 21
233.1525163376
 31
0.0
  0
ARC
  5
279
330
1F
100
AcDbEntity
  8
0
  6
Continuous
 62
     7
370
    25
100
AcDbCircle
 10
105.4764901508
 20
234.4485573189
 30
0.0
 40
1.388554984740654
100
AcDbArc
 50
240.0490111217
 51
248.9670053175
  0
LINE
  5
27A
330
1F
100
AcDbEntity
  8
0
  6
Continuous
 62
     7
370
    25
100
AcDbLine
 10
104.7832415578
 20
233.2454399788
 30
0.0
 11
103.7925937352
 21
233.8174061501
 31
0.0
  0
LINE
  5
27B
330
1F
100
AcDbEntity
  8
0
  6
Continuous
 62
     7
370
    25
100
AcDbLine
 10
103.7925937352
 20
233.8174061501
 30
0.0
 11
103.7925937352
 21
234.486408683
 31
0.0
  0
LINE
  5
27C
330
1F
100
AcDbEntity
  8
0
  6
Continuous
 62
     7
370
    25
100
AcDbLine
 10
103.7925937352
 20
234.486408683
 30
0.0
 11
103.8969614682
 21
234.5466689789
 31
0.0
  0
ARC
  5
27D
330
1F
100
AcDbEntity
  8
0
  6
Continuous
 62
     7
370
    25
100
AcDbCircle
 10
103.7538598608
 20
234.7945266721
 30
0.0
 40
0.2862018624949112
100
AcDbArc
 50
300.0001563011
 51
0.3178580546
  0
LINE
  5
27E
330
1F
100
AcDbEntity
  8
0
  6
Continuous
 62
     7
370
    25
100
AcDbLine
 10
104.0400573192
 20
234.7961144173
 30
0.0
 11
104.0332363126
 21
236.0340432846
 31
0.0
  0
ARC
  5
27F
330
1F
100
AcDbEntity
  8
0
  6
Continuous
 62
     7
370
    25
100
AcDbCircle
 10
103.7470699568
 20
236.0324901601
 30
0.0
 40
0.2861705704625488
100
AcDbArc
 50
0.3109610972
 51
60.0034169958
  0
LINE
  5
280
330
1F
100
AcDbEntity
  8
0
  6
Continuous
 62
     7
370
    25
100
AcDbLine
 10
103.8901404617
 20
236.2803296768
 30
0.0
 11
103.7925937352
 21
236.3366560661
 31
0.0
  0
LINE
  5
281
330
1F
100
AcDbEntity
  8
0
  6
Continuous
 62
     7
370
    25
100
AcDbLine
 10
103.7925937352
 20
236.3366560661
 30
0.0
 11
103.7925937352
 21
237.0135264122
 31
0.0
  0
LINE
  5
282
330
1F
100
AcDbEntity
  8
0
  6
Continuous
 62
     7
370
    25
100
AcDbLine
 10
103.7925937352
 20
237.0135264122
 30
0.0
 11
103.8901404617
 21
237.0698528015
 31
0.0
  0
ARC
  5
283
330
1F
100
AcDbEntity
  8
0
  6
Continuous
 62
     7
370
    25
100
AcDbCircle
 10
103.7469528695
 20
237.3177636514
 30
0.0
 40
0.2862908940620856
100
AcDbArc
 50
300.0097398649
 51
359.9969715637
  0
LINE
  5
284
330
1F
100
AcDbEntity
  8
0
  6
Continuous
 62
     7
370
    25
100
AcDbLine
 10
104.0332437632
 20
237.3177485191
 30
0.0
 11
104.0332437632
 21
238.5315375054
 31
0.0
  0
ARC
  5
285
330
1F
100
AcDbEntity
  8
0
  6
Continuous
 62
     7
370
    25
100
AcDbCircle
 10
103.746952844
 20
238.5314627429
 30
0.0
 40
0.2862909290118389
100
AcDbArc
 50
0.0149623116
 51
59.9902582613
  0
LINE
  5
286
330
1F
100
AcDbEntity
  8
0
  6
Continuous
 62
     7
370
    25
100
AcDbLine
 10
103.8901404617
 20
238.7793736183
 30
0.0
 11
103.7925937352
 21
238.8357000076
 31
0.0
  0
LINE
  5
287
330
1F
100
AcDbEntity
  8
0
  6
Continuous
 62
     7
370
    25
100
AcDbLine
 10
103.7925937352
 20
238.8357000076
 30
0.0
 11
103.7925937352
 21
239.5125703537
 31
0.0
  0
LINE
  5
288
330
1F
100
AcDbEntity
  8
0
  6
Continuous
 62
     7
370
    25
100
AcDbLine
 10
103.7925937352
 20
239.5125703537
 30
0.0
 11
103.8901404617
 21
239.568896743
 31
0.0
  0
ARC
  5
289
330
1F
100
AcDbEntity
  8
0
  6
Continuous
 62
     7
370
    25
100
AcDbCircle
 10
103.746952844
 20
239.8168076185
 30
0.0
 40
0.2862909290118168
100
AcDbArc
 50
300.0097417387
 51
359.9850376884
  0
LINE
  5
28A
330
1F
100
AcDbEntity
  8
0
  6
Continuous
 62
     7
370
    25
100
AcDbLine
 10
104.0332437632
 20
239.816732856
 30
0.0
 11
104.0332437632
 21
240.9581618035
 31
0.0
  0
ARC
  5
28B
330
1F
100
AcDbEntity
  8
0
  6
Continuous
 62
     7
370
    25
100
AcDbCircle
 10
103.7469033161
 20
240.9581152939
 30
0.0
 40
0.2863404509285252
100
AcDbArc
 50
0.0093064171
 51
24.9937366125
  0
LINE
  5
28C
330
1F
100
AcDbEntity
  8
0
  6
Continuous
 62
     7
370
    25
100
AcDbLine
 10
104.0064291236
 20
241.0790996277
 30
0.0
 11
103.7925937352
 21
241.5376977646
 31
0.0
  0
LINE
  5
28D
330
1F
100
AcDbEntity
  8
0
  6
Continuous
 62
     7
370
    25
100
AcDbLine
 10
103.7925937352
 20
241.5376977646
 30
0.0
 11
103.7925937352
 21
242.5809578621
 31
0.0
  0
LINE
  5
28E
330
1F
100
AcDbEntity
  8
0
  6
Continuous
 62
     7
370
    25
100
AcDbLine
 10
103.8530999002
 20
242.5385789597
 30
0.0
 11
103.7925937352
 21
242.5809578621
 31
0.0
  0
ARC
  5
28F
330
1F
100
AcDbEntity
  8
0
  6
Continuous
 62
     7
370
    25
100
AcDbCircle
 10
103.9187477976
 20
242.6323855802
 30
0.0
 40
0.1144959758354635
100
AcDbArc
 50
235.014841243
 51
359.9757226172
  0
LINE
  5
290
330
1F
100
AcDbEntity
  8
0
  6
Continuous
 62
     7
370
    25
100
AcDbLine
 10
104.0332437632
 20
242.6323370659
 30
0.0
 11
104.0332437632
 21
244.2111448967
 31
0.0
  0
ARC
  5
291
330
1F
100
AcDbEntity
  8
0
  6
Continuous
 62
     7
370
    25
100
AcDbCircle
 10
103.746952844
 20
244.2110701342
 30
0.0
 40
0.286290929011831
100
AcDbArc
 50
0.0149623116
 51
59.9902582613
  0
LINE
  5
292
330
1F
100
AcDbEntity
  8
0
  6
Continuous
 62
     7
370
    25
100
AcDbLine
 10
103.8901404617
 20
244.4589810097
 30
0.0
 11
103.7925937352
 21
244.515307399
 31
0.0
  0
LINE
  5
293
330
1F
100
AcDbEntity
  8
0
  6
Continuous
 62
     7
370
    25
100
AcDbLine
 10
103.7925937352
 20
244.515307399
 30
0.0
 11
103.7925937352
 21
245.1921777451
 31
0.0
  0
LINE
  5
294
330
1F
100
AcDbEntity
  8
0
  6
Continuous
 62
     7
370
    25
100
AcDbLine
 10
103.7925937352
 20
245.1921777451
 30
0.0
 11
103.8901404617
 21
245.2485041344
 31
0.0
  0
ARC
  5
295
330
1F
100
AcDbEntity
  8
0
  6
Continuous
 62
     7
370
    25
100
AcDbCircle
 10
103.7471455032
 20
245.4963037663
 30
0.0
 40
0.2860982623298579
100
AcDbArc
 50
299.9874734999
 51
0.0073059272
  0
LINE
  5
296
330
1F
100
AcDbEntity
  8
0
  6
Continuous
 62
     7
370
    25
100
AcDbLine
 10
104.0332437632
 20
245.4963402474
 30
0.0
 11
104.0332437632
 21
247.4457101547
 31
0.0
  0
ARC
  5
297
330
1F
100
AcDbEntity
  8
0
  6
Continuous
 62
     7
370
    25
100
AcDbCircle
 10
103.7471455032
 20
247.4457466358
 30
0.0
 40
0.2860982623298797
100
AcDbArc
 50
359.9926940728
 51
60.0125265001
  0
LINE
  5
298
330
1F
100
AcDbEntity
  8
0
  6
Continuous
 62
     7
370
    25
100
AcDbLine
 10
103.8901404617
 20
247.6935462677
 30
0.0
 11
103.7925937352
 21
247.749872657
 31
0.0
  0
LINE
  5
299
330
1F
100
AcDbEntity
  8
0
  6
Continuous
 62
     7
370
    25
100
AcDbLine
 10
103.7925937352
 20
247.749872657
 30
0.0
 11
103.7925937352
 21
248.4267430031
 31
0.0
  0
LINE
  5
29A
330
1F
100
AcDbEntity
  8
0
  6
Continuous
 62
     7
370
    25
100
AcDbLine
 10
103.7925937352
 20
248.4267430031
 30
0.0
 11
105.1921592233
 21
249.2348031723
 31
0.0
  0
ARC
  5
29B
330
1F
100
AcDbEntity
  8
0
  6
Continuous
 62
     7
370
    25
100
AcDbCircle
 10
105.8785529346
 20
248.0463271987
 30
0.0
 40
1.372447254621256
100
AcDbArc
 50
95.985412006
 51
120.0081993148
  0
LINE
  5
29C
330
1F
100
AcDbEntity
  8
0
  6
Continuous
 62
     7
370
    25
100
AcDbLine
 10
105.7354406593
 20
249.4112925255
 30
0.0
 11
106.3361586211
 21
249.474473449
 31
0.0
  0
ARC
  5
29D
330
1F
100
AcDbEntity
  8
0
  6
Continuous
 62
     7
370
    25
100
AcDbCircle
 10
106.515457184
 20
247.7628364911
 30
0.0
 40
1.721002338807743
100
AcDbArc
 50
81.301288528
 51
95.9800768693
  0
LINE
  5
29E
330
1F
100
AcDbEntity
  8
0
  6
Continuous
 62
     7
370
    25
100
AcDbLine
 10
107.7372924564
 20
249.3166999542
 30
0.0
 11
106.775739151
 21
249.4640426361
 31
0.0
  0
ARC
  5
29F
330
1F
100
AcDbEntity
  8
0
  6
Continuous
 62
     7
370
    25
100
AcDbCircle
 10
107.6847989911
 20
248.9737500021
 30
0.0
 40
0.3469441361364622
100
AcDbArc
 50
359.9974941262
 51
81.2975924466
  0
LINE
  5
2A0
330
1F
100
AcDbEntity
  8
0
  6
Continuous
 62
     7
370
    25
100
AcDbLine
 10
108.0317431269
 20
248.1594161713
 30
0.0
 11
108.0317431269
 21
248.9737348282
 31
0.0
  0
ARC
  5
2A1
330
1F
100
AcDbEntity
  8
0
  6
Continuous
 62
     7
370
    25
100
AcDbCircle
 10
108.260592604
 20
248.159410554
 30
0.0
 40
0.2288494771946739
100
AcDbArc
 50
179.9985936436
 51
208.006588777
  0
LINE
  5
2A2
330
1F
100
AcDbEntity
  8
0
  6
Continuous
 62
     7
370
    25
100
AcDbLine
 10
109.389462429
 20
245.5487923348
 30
0.0
 11
108.0585428653
 21
248.0519489967
 31
0.0
  0
ARC
  5
2A3
330
1F
100
AcDbEntity
  8
0
  6
Continuous
 62
     7
370
    25
100
AcDbCircle
 10
109.8949513844
 20
245.817733268
 30
0.0
 40
0.5725803957339956
100
AcDbArc
 50
208.0148157314
 51
256.2267316558
  0
ARC
  5
2A4
330
1F
100
AcDbEntity
  8
0
  6
Continuous
 62
     7
370
    25
100
AcDbCircle
 10
109.6768700546
 20
244.9280356754
 30
0.0
 40
0.3434552327631502
100
AcDbArc
 50
259.004017279
 51
76.2282341113
  0
LINE
  5
2A5
330
1F
100
AcDbEntity
  8
0
  6
Continuous
 62
     7
370
    25
100
AcDbLine
 10
109.6113593457
 20
244.5908860886
 30
0.0
 11
109.06089555
 21
244.6978764259
 31
0.0
  0
ARC
  5
2A6
330
1F
100
AcDbEntity
  8
0
  6
Continuous
 62
     7
370
    25
100
AcDbCircle
 10
108.9516191619
 20
244.1360653174
 30
0.0
 40
0.5723399782491551
100
AcDbArc
 50
78.9929864528
 51
180.002229713
  0
LINE
  5
2A7
330
1F
100
AcDbEntity
  8
0
  6
Continuous
 62
     7
370
    25
100
AcDbLine
 10
108.3792791841
 20
241.9644074165
 30
0.0
 11
108.3792791841
 21
244.1360430443
 31
0.0
  0
ARC
  5
2A8
330
1F
100
AcDbEntity
  8
0
  6
Continuous
 62
     7
370
    25
100
AcDbCircle
 10
108.6084516692
 20
241.9645016913
 30
0.0
 40
0.2291725044797568
100
AcDbArc
 50
180.0235697738
 51
226.0388181451
  0
LINE
  5
2A9
330
1F
100
AcDbEntity
  8
0
  6
Continuous
 62
     7
370
    25
100
AcDbLine
 10
108.6474516568
 20
241.6086868965
 30
0.0
 11
108.4493667958
 21
241.7995409691
 31
0.0
  0
ARC
  5
2AA
330
1F
100
AcDbEntity
  8
0
  6
Continuous
 62
     7
370
    25
100
AcDbCircle
 10
108.4488686014
 20
241.4026089142
 30
0.0
 40
0.2861876389246183
100
AcDbArc
 50
345.0014432488
 51
46.0610821087
  0
LINE
  5
2AB
330
1F
100
AcDbEntity
  8
0
  6
Continuous
 62
     7
370
    25
100
AcDbLine
 10
108.6634592292
 20
241.0976962769
 30
0.0
 11
108.7253064988
 21
241.3285450661
 31
0.0
  0
LWPOLYLINE
  5
2AC
330
1F
100
AcDbEntity
  8
0
  6
Continuous
 62
     7
370
    25
100
AcDbPolyline
 90
        3
 70
   128
 43
0.0
 10
108.6632282612
 20
241.0096602165
 10
108.658169317
 20
241.0671190941
 10
108.6634592292
 20
241.0976962769
  0
LINE
  5
2AD
330
1F
100
AcDbEntity
  8
0
  6
Continuous
 62
     7
370
    25
100
AcDbLine
 10
108.8417441723
 20
240.3292731964
 30
0.0
 11
108.6632282612
 21
241.0096602165
 31
0.0
  0
ARC
  5
2AE
330
1F
100
AcDbEntity
  8
0
  6
Continuous
 62
     7
370
    25
100
AcDbCircle
 10
109.0079055583
 20
240.3728994752
 30
0.0
 40
0.1717930685258169
100
AcDbArc
 50
194.7111797554
 51
283.5549211281
  0
LINE
  5
2AF
330
1F
100
AcDbEntity
  8
0
  6
Continuous
 62
     7
370
    25
100
AcDbLine
 10
109.0481699583
 20
240.2058915817
 30
0.0
 11
109.4755985913
 21
240.3091864311
 31
0.0
  0
ARC
  5
2B0
330
1F
100
AcDbEntity
  8
0
  6
Continuous
 62
     7
370
    25
100
AcDbCircle
 10
109.5293619498
 20
240.0866136281
 30
0.0
 40
0.2289741282071997
100
AcDbArc
 50
345.9001669075
 51
103.5798937819
  0
LINE
  5
2B1
330
1F
100
AcDbEntity
  8
0
  6
Continuous
 62
     7
370
    25
100
AcDbLine
 10
108.4493667958
 20
241.7995409691
 30
0.0
 11
184.3358175037
 21
241.7995409691
 31
0.0
  0
LINE
  5
2B2
330
1F
100
AcDbEntity
  8
0
  6
Continuous
 62
     7
370
    25
100
AcDbLine
 10
185.0478918431
 20
249.3166999542
 30
0.0
 11
107.7372924564
 21
249.3166999542
 31
0.0
  0
LINE
  5
2B3
330
1F
100
AcDbEntity
  8
0
  6
Continuous
 62
     7
370
    25
100
AcDbLine
 10
186.7593051074
 20
235.8847336495
 30
0.0
 11
106.0258791921
 21
235.8847336495
 31
0.0
  0
LINE
  5
2B4
330
1F
100
AcDbEntity
  8
0
  6
Continuous
 62
     7
370
    25
100
AcDbLine
 10
103.7925937352
 20
242.5809578621
 30
0.0
 11
104.0210508881
 21
242.5809578621
 31
0.0
  0
LINE
  5
2B5
330
1F
100
AcDbEntity
  8
0
  6
Continuous
 62
     7
370
    25
100
AcDbLine
 10
188.7641334114
 20
242.5809578621
 30
0.0
 11
188.9925905642
 21
242.5809578621
 31
0.0
  0
LINE
  5
2B6
330
1F
100
AcDbEntity
  8
0
  6
Continuous
 62
     7
370
    25
100
AcDbLine
 10
110.0764618394
 20
237.0202021324
 30
0.0
 11
182.70872246
 21
237.0202021324
 31
0.0
  0
LINE
  5
2B7
330
1F
100
AcDbEntity
  8
0
  6
Continuous
 62
     7
370
    25
100
AcDbLine
 10
185.0122184632
 20
236.8816213333
 30
0.0
 11
107.7729658363
 21
236.8816213333
 31
0.0
  0
LINE
  5
2B8
330
1F
100
AcDbEntity
  8
0
  6
Continuous
 62
     7
370
    25
100
AcDbLine
 10
183.1738249538
 20
244.5908860886
 30
0.0
 11
109.742422509
 21
244.5908860886
 31
0.0
  0
LINE
  5
2B9
330
1F
100
AcDbEntity
  8
0
  6
Continuous
 62
     7
370
    25
100
AcDbLine
 10
109.6975625632
 20
238.8482765877
 30
0.0
 11
183.0876217363
 21
238.8482765877
 31
0.0
  0
LINE
  5
2BA
330
1F
100
AcDbEntity
  8
0
  6
Continuous
 62
     7
370
    25
100
AcDbLine
 10
183.0265530524
 20
245.2616171562
 30
0.0
 11
109.758631247
 21
245.2616171562
 31
0.0
  0
ARC
  5
2BB
330
1F
100
AcDbEntity
  8
0
  6
Continuous
 62
     7
370
    25
100
AcDbCircle
 10
187.3926052861
 20
252.3964224863
 30
0.0
 40
2.000012331703065
100
AcDbArc
 50
180.0002905214
 51
251.8997691892
  0
ARC
  5
2BC
330
1F
100
AcDbEntity
  8
0
  6
Continuous
 62
     7
370
    25
100
AcDbCircle
 10
105.3925790134
 20
252.3964224863
 30
0.0
 40
2.00001233170307
100
AcDbArc
 50
288.1002308108
 51
359.9997094786
  0
LINE
  5
2BD
330
1F
100
AcDbEntity
  8
0
  6
Continuous
 62
     7
370
    25
100
AcDbLine
 10
183.8925936398
 20
199.7949855053
 30
0.0
 11
183.8925936398
 21
178.300686332
 31
0.0
  0
LINE
  5
2BE
330
1F
100
AcDbEntity
  8
0
  6
Continuous
 62
     7
370
    25
100
AcDbLine
 10
108.8925906596
 20
179.1088359081
 30
0.0
 11
108.8925906596
 21
199.7949855053
 31
0.0
  0
ARC
  5
2BF
330
1F
100
AcDbEntity
  8
0
  6
Continuous
 62
     7
370
    25
100
AcDbCircle
 10
186.9925751943
 20
247.2668254889
 30
0.0
 40
2.000015369959187
100
AcDbArc
 50
0.0003187598
 51
71.8995937911
  0
ARC
  5
2C0
330
1F
100
AcDbEntity
  8
0
  6
Continuous
 62
     7
370
    25
100
AcDbCircle
 10
105.7926091051
 20
247.2668254889
 30
0.0
 40
2.000015369959149
100
AcDbArc
 50
108.1004062089
 51
179.9996812402
  0
ARC
  5
2C1
330
1F
100
AcDbEntity
  8
0
  6
Continuous
 62
     7
370
    25
100
AcDbCircle
 10
186.9926484546
 20
247.2668753316
 30
0.0
 40
2.999944136446854
100
AcDbArc
 50
359.9992605675
 51
71.9007991432
  0
ARC
  5
2C2
330
1F
100
AcDbEntity
  8
0
  6
Continuous
 62
     7
370
    25
100
AcDbCircle
 10
105.7925358449
 20
247.2668753316
 30
0.0
 40
2.999944136446882
100
AcDbArc
 50
108.0992008568
 51
180.0007394325
  0
ARC
  5
2C3
330
1F
100
AcDbEntity
  8
0
  6
Continuous
 62
     7
370
    25
100
AcDbCircle
 10
187.39268379
 20
252.3964814869
 30
0.0
 40
3.000092862927312
100
AcDbArc
 50
180.00132047
 51
251.8987392407
  0
ARC
  5
2C4
330
1F
100
AcDbEntity
  8
0
  6
Continuous
 62
     7
370
    25
100
AcDbCircle
 10
105.3925005095
 20
252.3964814869
 30
0.0
 40
3.000092862927302
100
AcDbArc
 50
288.1012607593
 51
359.99867953
  0
ARC
  5
2C5
330
1F
100
AcDbEntity
  8
0
  6
Continuous
 62
     7
370
    25
100
AcDbCircle
 10
185.892688976
 20
199.7949687004
 30
0.0
 40
3.000097362778234
100
AcDbArc
 50
163.0002920737
 51
179.9996790605
  0
ARC
  5
2C6
330
1F
100
AcDbEntity
  8
0
  6
Continuous
 62
     7
370
    25
100
AcDbCircle
 10
106.8924953234
 20
199.7949687004
 30
0.0
 40
3.000097362778248
100
AcDbArc
 50
0.0003209395
 51
16.9997079263
  0
ARC
  5
2C7
330
1F
100
AcDbEntity
  8
0
  6
Continuous
 62
     7
370
    25
100
AcDbCircle
 10
186.9924958215
 20
235.15398952
 30
0.0
 40
2.000094743874347
100
AcDbArc
 50
287.4020617913
 51
359.99804
  0
ARC
  5
2C8
330
1F
100
AcDbEntity
  8
0
  6
Continuous
 62
     7
370
    25
100
AcDbCircle
 10
105.7926884779
 20
235.15398952
 30
0.0
 40
2.000094743874391
100
AcDbArc
 50
180.00196
 51
252.5979382087
  0
LINE
  5
2C9
330
1F
100
AcDbEntity
  8
0
  6
Continuous
 62
     7
370
    25
100
AcDbLine
 10
185.3925929544
 20
256.245978328
 30
0.0
 11
185.3925929544
 21
252.3964123451
 31
0.0
  0
LINE
  5
2CA
330
1F
100
AcDbEntity
  8
0
  6
Continuous
 62
     7
370
    25
100
AcDbLine
 10
107.3925913451
 20
252.3964123451
 30
0.0
 11
107.3925913451
 21
256.245978328
 31
0.0
  0
ARC
  5
2CB
330
1F
100
AcDbEntity
  8
0
  6
Continuous
 62
     7
370
    25
100
AcDbCircle
 10
187.1925414971
 20
229.9768796928
 30
0.0
 40
1.999948202954131
100
AcDbArc
 50
107.3989780859
 51
180.0002699238
  0
ARC
  5
2CC
330
1F
100
AcDbEntity
  8
0
  6
Continuous
 62
     7
370
    25
100
AcDbCircle
 10
105.5926428024
 20
229.9768796928
 30
0.0
 40
1.999948202954112
100
AcDbArc
 50
359.9997300762
 51
72.6010219141
  0
ARC
  5
2CD
330
1F
100
AcDbEntity
  8
0
  6
Continuous
 62
     7
370
    25
100
AcDbCircle
 10
187.1926634727
 20
229.9768178263
 30
0.0
 40
3.000072205610604
100
AcDbArc
 50
107.4010065302
 51
179.9989984051
  0
ARC
  5
2CE
330
1F
100
AcDbEntity
  8
0
  6
Continuous
 62
     7
370
    25
100
AcDbCircle
 10
105.5925208267
 20
229.9768178263
 30
0.0
 40
3.000072205610575
100
AcDbArc
 50
0.0010015949
 51
72.5989934698
  0
ARC
  5
2CF
330
1F
100
AcDbEntity
  8
0
  6
Continuous
 62
     7
370
    25
100
AcDbCircle
 10
186.9926669225
 20
235.1538957044
 30
0.0
 40
2.999925668429996
100
AcDbArc
 50
287.39895072
 51
0.0004850292
  0
ARC
  5
2D0
330
1F
100
AcDbEntity
  8
0
  6
Continuous
 62
     7
370
    25
100
AcDbCircle
 10
105.792517377
 20
235.1538957044
 30
0.0
 40
2.999925668430009
100
AcDbArc
 50
179.9995149708
 51
252.6010492801
  0
ARC
  5
2D1
330
1F
100
AcDbEntity
  8
0
  6
Continuous
 62
     7
370
    25
100
AcDbCircle
 10
182.1924959314
 20
204.7943716931
 30
0.0
 40
3.000097362778234
100
AcDbArc
 50
343.0002920737
 51
359.9996790605
  0
ARC
  5
2D2
330
1F
100
AcDbEntity
  8
0
  6
Continuous
 62
     7
370
    25
100
AcDbCircle
 10
110.5926883681
 20
204.7943716931
 30
0.0
 40
3.000097362778193
100
AcDbArc
 50
180.0003209395
 51
196.9997079263
  0
ARC
  5
2D3
330
1F
100
AcDbEntity
  8
0
  6
Continuous
 62
     7
370
    25
100
AcDbCircle
 10
185.8925238726
 20
199.7950124862
 30
0.0
 40
1.999930232919767
100
AcDbArc
 50
162.9999588041
 51
180.0007729733
  0
ARC
  5
2D4
330
1F
100
AcDbEntity
  8
0
  6
Continuous
 62
     7
370
    25
100
AcDbCircle
 10
106.8926604269
 20
199.7950124862
 30
0.0
 40
1.999930232919781
100
AcDbArc
 50
359.9992270267
 51
17.0000411959
  0
ARC
  5
2D5
330
1F
100
AcDbEntity
  8
0
  6
Continuous
 62
     7
370
    25
100
AcDbCircle
 10
182.1922643745
 20
204.794387186
 30
0.0
 40
2.000326893378348
100
AcDbArc
 50
343.0016568895
 51
359.9990748878
  0
ARC
  5
2D6
330
1F
100
AcDbEntity
  8
0
  6
Continuous
 62
     7
370
    25
100
AcDbCircle
 10
110.592919925
 20
204.794387186
 30
0.0
 40
2.000326893378375
100
AcDbArc
 50
180.0009251122
 51
196.9983431105
  0
LINE
  5
2D7
330
1F
100
AcDbEntity
  8
0
  6
Continuous
 62
     7
370
    25
100
AcDbLine
 10
184.3925909278
 20
256.245978328
 30
0.0
 11
184.3925909278
 21
252.3964123451
 31
0.0
  0
LINE
  5
2D8
330
1F
100
AcDbEntity
  8
0
  6
Continuous
 62
     7
370
    25
100
AcDbLine
 10
184.3925909278
 20
256.245978328
 30
0.0
 11
185.3925929544
 21
256.245978328
 31
0.0
  0
LINE
  5
2D9
330
1F
100
AcDbEntity
  8
0
  6
Continuous
 62
     7
370
    25
100
AcDbLine
 10
186.7712409375
 20
250.4953818047
 30
0.0
 11
187.9246206162
 21
250.1183824265
 31
0.0
  0
LINE
  5
2DA
330
1F
100
AcDbEntity
  8
0
  6
Continuous
 62
     7
370
    25
100
AcDbLine
 10
189.9925925908
 20
247.2668366158
 30
0.0
 11
189.9925925908
 21
235.1539210999
 31
0.0
  0
LINE
  5
2DB
330
1F
100
AcDbEntity
  8
0
  6
Continuous
 62
     7
370
    25
100
AcDbLine
 10
187.8897146461
 20
232.2912292206
 30
0.0
 11
186.5945094404
 21
231.8853215897
 31
0.0
  0
LINE
  5
2DC
330
1F
100
AcDbEntity
  8
0
  6
Continuous
 62
     7
370
    25
100
AcDbLine
 10
185.1925932941
 20
229.9768702709
 30
0.0
 11
185.1925932941
 21
204.7943548882
 31
0.0
  0
LINE
  5
2DD
330
1F
100
AcDbEntity
  8
0
  6
Continuous
 62
     7
370
    25
100
AcDbLine
 10
185.0615077791
 20
203.917242738
 30
0.0
 11
183.9799814997
 21
200.3797368729
 31
0.0
  0
LINE
  5
2DE
330
1F
100
AcDbEntity
  8
0
  6
Continuous
 62
     7
370
    25
100
AcDbLine
 10
182.8925916133
 20
199.7949855053
 30
0.0
 11
182.8925916133
 21
177.9213623726
 31
0.0
  0
LINE
  5
2DF
330
1F
100
AcDbEntity
  8
0
  6
Continuous
 62
     7
370
    25
100
AcDbLine
 10
184.1052034078
 20
204.2096035206
 30
0.0
 11
183.0236771283
 21
200.6720976555
 31
0.0
  0
LINE
  5
2E0
330
1F
100
AcDbEntity
  8
0
  6
Continuous
 62
     7
370
    25
100
AcDbLine
 10
184.1925912676
 20
229.9768702709
 30
0.0
 11
184.1925912676
 21
204.7943548882
 31
0.0
  0
LINE
  5
2E1
330
1F
100
AcDbEntity
  8
0
  6
Continuous
 62
     7
370
    25
100
AcDbLine
 10
187.590674418
 20
233.2454399788
 30
0.0
 11
186.2954692123
 21
232.8395919525
 31
0.0
  0
LINE
  5
2E2
330
1F
100
AcDbEntity
  8
0
  6
Continuous
 62
     7
370
    25
100
AcDbLine
 10
188.9925905642
 20
247.2668366158
 30
0.0
 11
188.9925905642
 21
235.1539210999
 31
0.0
  0
LINE
  5
2E3
330
1F
100
AcDbEntity
  8
0
  6
Continuous
 62
     7
370
    25
100
AcDbLine
 10
186.4605629024
 20
249.5448665344
 30
0.0
 11
187.6139463065
 21
249.1678671562
 31
0.0
  0
LINE
  5
2E4
330
1F
100
AcDbEntity
  8
0
  6
Continuous
 62
     7
370
    25
100
AcDbLine
 10
109.8925926862
 20
179.4881598675
 30
0.0
 11
109.8925926862
 21
199.7949855053
 31
0.0
  0
LINE
  5
2E5
330
1F
100
AcDbEntity
  8
0
  6
Continuous
 62
     7
370
    25
100
AcDbLine
 10
102.7925917087
 20
235.1539210999
 30
0.0
 11
102.7925917087
 21
247.2668366158
 31
0.0
  0
LINE
  5
2E6
330
1F
100
AcDbEntity
  8
0
  6
Continuous
 62
     7
370
    25
100
AcDbLine
 10
103.7925937352
 20
235.1539210999
 30
0.0
 11
103.7925937352
 21
247.2668366158
 31
0.0
  0
LINE
  5
2E7
330
1F
100
AcDbEntity
  8
0
  6
Continuous
 62
     7
370
    25
100
AcDbLine
 10
106.4897150872
 20
232.8395919525
 30
0.0
 11
105.1945098815
 21
233.2454399788
 31
0.0
  0
LINE
  5
2E8
330
1F
100
AcDbEntity
  8
0
  6
Continuous
 62
     7
370
    25
100
AcDbLine
 10
108.5925930319
 20
204.7943548882
 30
0.0
 11
108.5925930319
 21
229.9768702709
 31
0.0
  0
LINE
  5
2E9
330
1F
100
AcDbEntity
  8
0
  6
Continuous
 62
     7
370
    25
100
AcDbLine
 10
109.7615071712
 20
200.6720976555
 30
0.0
 11
108.6799808917
 21
204.2096035206
 31
0.0
  0
LINE
  5
2EA
330
1F
100
AcDbEntity
  8
0
  6
Continuous
 62
     7
370
    25
100
AcDbLine
 10
108.8052027998
 20
200.3797368729
 30
0.0
 11
107.7236765203
 21
203.917242738
 31
0.0
  0
LINE
  5
2EB
330
1F
100
AcDbEntity
  8
0
  6
Continuous
 62
     7
370
    25
100
AcDbLine
 10
107.5925910053
 20
204.7943548882
 30
0.0
 11
107.5925910053
 21
229.9768702709
 31
0.0
  0
LINE
  5
2EC
330
1F
100
AcDbEntity
  8
0
  6
Continuous
 62
     7
370
    25
100
AcDbLine
 10
106.190674859
 20
231.8853215897
 30
0.0
 11
104.8954696534
 21
232.2912292206
 31
0.0
  0
LINE
  5
2ED
330
1F
100
AcDbEntity
  8
0
  6
Continuous
 62
     7
370
    25
100
AcDbLine
 10
104.8605636833
 20
250.1183824265
 30
0.0
 11
106.013943362
 21
250.4953818047
 31
0.0
  0
LINE
  5
2EE
330
1F
100
AcDbEntity
  8
0
  6
Continuous
 62
     7
370
    25
100
AcDbLine
 10
107.3925913451
 20
256.245978328
 30
0.0
 11
108.3925933716
 21
256.245978328
 31
0.0
  0
LINE
  5
2EF
330
1F
100
AcDbEntity
  8
0
  6
Continuous
 62
     7
370
    25
100
AcDbLine
 10
108.3925933716
 20
252.3964123451
 30
0.0
 11
108.3925933716
 21
256.245978328
 31
0.0
  0
LINE
  5
2F0
330
1F
100
AcDbEntity
  8
0
  6
Continuous
 62
     7
370
    25
100
AcDbLine
 10
105.171237993
 20
249.1678671562
 30
0.0
 11
106.324621397
 21
249.5448665344
 31
0.0
  0
LINE
  5
2F1
330
1F
100
AcDbEntity
  8
0
  6
Continuous
 62
     7
370
    25
100
AcDbLine
 10
108.3925933716
 20
256.245978328
 30
0.0
 11
184.3925909278
 21
256.245978328
 31
0.0
  0
LINE
  5
2F2
330
1F
100
AcDbEntity
  8
0
  6
Continuous
 62
     8
370
    18
100
AcDbLine
 10
186.6957963583
 20
233.2373933518
 30
0.0
 11
106.0893879411
 21
233.2373933518
 31
0.0
  0
LINE
  5
2F3
330
1F
100
AcDbEntity
  8
0
  6
Continuous
 62
     8
370
    18
100
AcDbLine
 10
188.9320843992
 20
242.5385789597
 30
0.0
 11
188.8007604656
 21
242.5385789597
 31
0.0
  0
LINE
  5
2F4
330
1F
100
AcDbEntity
  8
0
  6
Continuous
 62
     8
370
    18
100
AcDbLine
 10
103.9844238338
 20
242.5385789597
 30
0.0
 11
103.8530999002
 21
242.5385789597
 31
0.0
  0
LINE
  5
2F5
330
1F
100
AcDbEntity
  8
0
  6
Continuous
 62
     8
370
    18
100
AcDbLine
 10
187.1421606419
 20
237.3677568161
 30
0.0
 11
185.6126197753
 21
237.3677568161
 31
0.0
  0
LINE
  5
2F6
330
1F
100
AcDbEntity
  8
0
  6
Continuous
 62
     8
370
    18
100
AcDbLine
 10
107.1725645242
 20
237.3677568161
 30
0.0
 11
105.6430236576
 21
237.3677568161
 31
0.0
  0
LINE
  5
2F7
330
1F
100
AcDbEntity
  8
0
  6
Continuous
 62
     8
370
    18
100
AcDbLine
 10
106.775739151
 20
249.4640426361
 30
0.0
 11
186.0094451485
 21
249.4640426361
 31
0.0
  0
LINE
  5
2F8
330
1F
100
AcDbEntity
  8
0
  6
Continuous
 62
     8
370
    18
100
AcDbLine
 10
108.3792791841
 20
241.9644074165
 30
0.0
 11
184.4059051154
 21
241.9644074165
 31
0.0
  0
LINE
  5
2F9
330
1F
100
AcDbEntity
  8
0
  6
Continuous
 62
     8
370
    18
100
AcDbLine
 10
108.8417441723
 20
240.3292731964
 30
0.0
 11
183.9434401271
 21
240.3292731964
 31
0.0
  0
LINE
  5
2FA
330
1F
100
AcDbEntity
  8
0
  6
Continuous
 62
     8
370
    18
100
AcDbLine
 10
108.7253064988
 20
241.3285450661
 30
0.0
 11
184.0598778007
 21
241.3285450661
 31
0.0
  0
LINE
  5
2FB
330
1F
100
AcDbEntity
  8
0
  6
Continuous
 62
     8
370
    18
100
AcDbLine
 10
184.1377326426
 20
241.6086868965
 30
0.0
 11
108.6474516568
 21
241.6086868965
 31
0.0
  0
LINE
  5
2FC
330
1F
100
AcDbEntity
  8
0
  6
Continuous
 62
     8
370
    18
100
AcDbLine
 10
108.3792791841
 20
244.1360430443
 30
0.0
 11
184.4059051154
 21
244.1360430443
 31
0.0
  0
LINE
  5
2FD
330
1F
100
AcDbEntity
  8
0
  6
Continuous
 62
     8
370
    18
100
AcDbLine
 10
109.7514377115
 20
240.03083274
 30
0.0
 11
183.033746588
 21
240.03083274
 31
0.0
  0
LINE
  5
2FE
330
1F
100
AcDbEntity
  8
0
  6
Continuous
 62
     8
370
    18
100
AcDbLine
 10
108.0317431269
 20
248.9737348282
 30
0.0
 11
184.7534411726
 21
248.9737348282
 31
0.0
  0
LINE
  5
2FF
330
1F
100
AcDbEntity
  8
0
  6
Continuous
 62
     8
370
    18
100
AcDbLine
 10
106.1615468142
 20
236.1197547638
 30
0.0
 11
186.6236374853
 21
236.1197547638
 31
0.0
  0
LINE
  5
300
330
1F
100
AcDbEntity
  8
0
  6
Continuous
 62
     8
370
    18
100
AcDbLine
 10
108.6632282612
 20
241.0096602165
 30
0.0
 11
184.1219560382
 21
241.0096602165
 31
0.0
  0
LINE
  5
301
330
1F
100
AcDbEntity
  8
0
  6
Continuous
 62
     8
370
    18
100
AcDbLine
 10
109.5374942896
 20
239.1789631569
 30
0.0
 11
183.2476900098
 21
239.1789631569
 31
0.0
  0
LINE
  5
302
330
1F
100
AcDbEntity
  8
0
  6
Continuous
 62
     8
370
    18
100
AcDbLine
 10
186.6176770208
 20
236.2801508629
 30
0.0
 11
106.1675072787
 21
236.2801508629
 31
0.0
  0
LINE
  5
303
330
1F
100
AcDbEntity
  8
0
  6
Continuous
 62
     8
370
    18
100
AcDbLine
 10
186.7822119174
 20
235.7930617058
 30
0.0
 11
106.0029723821
 21
235.7930617058
 31
0.0
  0
LINE
  5
304
330
1F
100
AcDbEntity
  8
0
  6
Continuous
 62
     8
370
    18
100
AcDbLine
 10
109.389462429
 20
245.5487923348
 30
0.0
 11
183.3957218704
 21
245.5487923348
 31
0.0
  0
LINE
  5
305
330
1F
100
AcDbEntity
  8
0
  6
Continuous
 62
     8
370
    18
100
AcDbLine
 10
108.0585428653
 20
248.0519489967
 30
0.0
 11
184.7266414342
 21
248.0519489967
 31
0.0
  0
LINE
  5
306
330
1F
100
AcDbEntity
  8
0
  6
Continuous
 62
     8
370
    18
100
AcDbLine
 10
108.0317431269
 20
248.1594161713
 30
0.0
 11
184.7534411726
 21
248.1594161713
 31
0.0
  0
LINE
  5
307
330
1F
100
AcDbEntity
  8
0
  6
Continuous
 62
     8
370
    18
100
AcDbLine
 10
108.6634592292
 20
241.0976962769
 30
0.0
 11
184.1217250702
 21
241.0976962769
 31
0.0
  0
LINE
  5
308
330
1F
100
AcDbEntity
  8
0
  6
Continuous
 62
     8
370
    18
100
AcDbLine
 10
110.7865543244
 20
238.3579091751
 30
0.0
 11
181.9986299751
 21
238.3579091751
 31
0.0
  0
LINE
  5
309
330
1F
100
AcDbEntity
  8
0
  6
Continuous
 62
     8
370
    18
100
AcDbLine
 10
111.1766406474
 20
237.7078609192
 30
0.0
 11
181.6085436521
 21
237.7078609192
 31
0.0
  0
LINE
  5
30A
330
1F
100
AcDbEntity
  8
0
  6
Continuous
 62
     8
370
    18
100
AcDbLine
 10
182.4735746858
 20
237.102158519
 30
0.0
 11
110.3116096137
 21
237.102158519
 31
0.0
  0
LINE
  5
30B
330
1F
100
AcDbEntity
  8
0
  6
Continuous
 62
     8
370
    18
100
AcDbLine
 10
181.6551917372
 20
238.2032947266
 30
0.0
 11
111.1299925623
 21
238.2032947266
 31
0.0
  0
LINE
  5
30C
330
1F
100
AcDbEntity
  8
0
  6
Continuous
 62
     8
370
    18
100
AcDbLine
 10
103.7925937352
 20
247.2668366158
 30
0.0
 11
104.0332437632
 21
247.2668366158
 31
0.0
  0
LINE
  5
30D
330
1F
100
AcDbEntity
  8
0
  6
Continuous
 62
     8
370
    18
100
AcDbLine
 10
188.7519405363
 20
247.2668366158
 30
0.0
 11
188.9925905642
 21
247.2668366158
 31
0.0
  0
LINE
  5
30E
330
1F
100
AcDbEntity
  8
0
  6
Continuous
 62
     8
370
    18
100
AcDbLine
 10
106.324621397
 20
249.5448665344
 30
0.0
 11
186.4605629024
 21
249.5448665344
 31
0.0
  0
LINE
  5
30F
330
1F
100
AcDbEntity
  8
0
  6
Continuous
 62
     8
370
    18
100
AcDbLine
 10
184.3925909278
 20
252.3964123451
 30
0.0
 11
108.3925933716
 21
252.3964123451
 31
0.0
  0
LINE
  5
310
330
1F
100
AcDbEntity
  8
0
  6
Continuous
 62
     8
370
    18
100
AcDbLine
 10
109.8925926862
 20
199.7949855053
 30
0.0
 11
182.8925916133
 21
199.7949855053
 31
0.0
  0
LINE
  5
311
330
1F
100
AcDbEntity
  8
0
  6
Continuous
 62
     8
370
    18
100
AcDbLine
 10
183.0236771283
 20
200.6720976555
 30
0.0
 11
109.7615071712
 21
200.6720976555
 31
0.0
  0
LINE
  5
312
330
1F
100
AcDbEntity
  8
0
  6
Continuous
 62
     8
370
    18
100
AcDbLine
 10
103.7925937352
 20
235.1539210999
 30
0.0
 11
104.0380866406
 21
235.1539210999
 31
0.0
  0
LINE
  5
313
330
1F
100
AcDbEntity
  8
0
  6
Continuous
 62
     8
370
    18
100
AcDbLine
 10
188.7470976589
 20
235.1539210999
 30
0.0
 11
188.9925905642
 21
235.1539210999
 31
0.0
  0
LINE
  5
314
330
1F
100
AcDbEntity
  8
0
  6
Continuous
 62
     8
370
    18
100
AcDbLine
 10
108.5925930319
 20
229.9768702709
 30
0.0
 11
184.1925912676
 21
229.9768702709
 31
0.0
  0
LINE
  5
315
330
1F
100
AcDbEntity
  8
0
  6
Continuous
 62
     8
370
    18
100
AcDbLine
 10
186.2954692123
 20
232.8395919525
 30
0.0
 11
106.4897150872
 21
232.8395919525
 31
0.0
  0
LINE
  5
316
330
1F
100
AcDbEntity
  8
0
  6
Continuous
 62
     8
370
    18
100
AcDbLine
 10
108.5925930319
 20
204.7943548882
 30
0.0
 11
184.1925912676
 21
204.7943548882
 31
0.0
  0
LINE
  5
317
330
1F
100
AcDbEntity
  8
0
  6
Continuous
 62
     8
370
    18
100
AcDbLine
 10
108.6799808917
 20
204.2096035206
 30
0.0
 11
184.1052034078
 21
204.2096035206
 31
0.0
  0
LINE
  5
318
330
1F
100
AcDbEntity
  8
0
  6
Continuous
 62
     7
370
    25
100
AcDbLine
 10
183.8925936398
 20
168.3006793741
 30
0.0
 11
183.8925936398
 21
140.4228717569
 31
0.0
  0
LINE
  5
319
330
1F
100
AcDbEntity
  8
0
  6
Continuous
 62
     7
370
    25
100
AcDbLine
 10
108.8925906596
 20
140.4228717569
 30
0.0
 11
108.8925906596
 21
169.1088289503
 31
0.0
  0
ARC
  5
31A
330
1F
100
AcDbEntity
  8
0
  6
Continuous
 62
     7
370
    25
100
AcDbCircle
 10
110.8932383868
 20
140.4229341263
 30
0.0
 40
2.000647728129683
100
AcDbArc
 50
180.0017861738
 51
193.9980043253
  0
ARC
  5
31B
330
1F
100
AcDbEntity
  8
0
  6
Continuous
 62
     7
370
    25
100
AcDbCircle
 10
181.8919459127
 20
140.4229341263
 30
0.0
 40
2.00064772812989
100
AcDbArc
 50
346.0019956748
 51
359.9982138262
  0
ARC
  5
31C
330
1F
100
AcDbEntity
  8
0
  6
Continuous
 62
     7
370
    25
100
AcDbCircle
 10
110.8924328967
 20
140.4228435574
 30
0.0
 40
0.9998402109212189
100
AcDbArc
 50
179.9983840283
 51
194.0014064708
  0
ARC
  5
31D
330
1F
100
AcDbEntity
  8
0
  6
Continuous
 62
     7
370
    25
100
AcDbCircle
 10
181.8927514028
 20
140.4228435574
 30
0.0
 40
0.9998402109213154
100
AcDbArc
 50
345.9985935292
 51
0.0016159717
  0
LINE
  5
31E
330
1F
100
AcDbEntity
  8
0
  6
Continuous
 62
     7
370
    25
100
AcDbLine
 10
110.3125930903
 20
134.4820172075
 30
0.0
 11
108.9520015893
 21
139.9390012506
 31
0.0
  0
LINE
  5
31F
330
1F
100
AcDbEntity
  8
0
  6
Continuous
 62
     7
370
    25
100
AcDbLine
 10
183.8331827102
 20
139.9390012506
 30
0.0
 11
182.4725912092
 21
134.4820172075
 31
0.0
  0
LINE
  5
320
330
1F
100
AcDbEntity
  8
0
  6
Continuous
 62
     7
370
    25
100
AcDbLine
 10
182.4725912092
 20
134.4820172075
 30
0.0
 11
181.4419784722
 21
134.4820172075
 31
0.0
  0
LINE
  5
321
330
1F
100
AcDbEntity
  8
0
  6
Continuous
 62
     7
370
    25
100
AcDbLine
 10
182.8628861484
 20
140.1809365038
 30
0.0
 11
181.4419784722
 21
134.4820172075
 31
0.0
  0
LINE
  5
322
330
1F
100
AcDbEntity
  8
0
  6
Continuous
 62
     7
370
    25
100
AcDbLine
 10
182.8925916133
 20
167.9213554147
 30
0.0
 11
182.8925916133
 21
140.4228717569
 31
0.0
  0
LINE
  5
323
330
1F
100
AcDbEntity
  8
0
  6
Continuous
 62
     7
370
    25
100
AcDbLine
 10
109.8925926862
 20
140.4228717569
 30
0.0
 11
109.8925926862
 21
169.4881529096
 31
0.0
  0
LINE
  5
324
330
1F
100
AcDbEntity
  8
0
  6
Continuous
 62
     7
370
    25
100
AcDbLine
 10
111.3432058272
 20
134.4820172075
 30
0.0
 11
109.922298151
 21
140.1809365038
 31
0.0
  0
LINE
  5
325
330
1F
100
AcDbEntity
  8
0
  6
Continuous
 62
     7
370
    25
100
AcDbLine
 10
111.3432058272
 20
134.4820172075
 30
0.0
 11
110.3125930903
 21
134.4820172075
 31
0.0
  0
LINE
  5
326
330
1F
100
AcDbEntity
  8
0
  6
Continuous
 62
     7
370
    25
100
AcDbLine
 10
181.4419784722
 20
134.4820172075
 30
0.0
 11
111.3432058272
 21
134.4820172075
 31
0.0
  0
LINE
  5
327
330
1F
100
AcDbEntity
  8
0
  6
Continuous
 62
     8
370
    18
100
AcDbLine
 10
109.922298151
 20
140.1809365038
 30
0.0
 11
182.8628861484
 21
140.1809365038
 31
0.0
  0
LINE
  5
328
330
1F
100
AcDbEntity
  8
0
  6
Continuous
 62
     8
370
    18
100
AcDbLine
 10
109.8925926862
 20
140.4228717569
 30
0.0
 11
182.8925916133
 21
140.4228717569
 31
0.0
  0
DIMENSION
  5
329
330
1F
100
AcDbEntity
  8
0
  6
Continuous
 62
     7
370
    18
100
AcDbDimension
  2
_D
 10
184.3925921497
 20
266.2460021698
 30
0.0
 11
146.3925921497
 21
266.2460021698
 31
0.0
 70
   160
  1
%%c<>
 71
     2
 42
-1.0
  3
SLDDIMSTYLE0
100
AcDbAlignedDimension
 13
108.3925921497
 23
256.2460021698
 33
0.0
 14
184.3925921497
 24
256.2460021698
 34
0.0
 50
0.0
100
AcDbRotatedDimension
  0
DIMENSION
  5
335
330
1F
100
AcDbEntity
  8
0
  6
Continuous
 62
     7
370
    18
100
AcDbDimension
  2
_D_1
 10
183.8925921497
 20
124.8371426672
 30
0.0
 11
146.3925921497
 21
124.8371426672
 31
0.0
 70
   160
  1
%%c<>
 71
     2
 42
-1.0
  3
SLDDIMSTYLE0
100
AcDbAlignedDimension
 13
108.8925921497
 23
140.4228714131
 33
0.0
 14
183.8925921497
 24
140.4228714131
 34
0.0
100
AcDbRotatedDimension
  0
DIMENSION
  5
340
330
1F
100
AcDbEntity
  8
0
  6
Continuous
 62
     7
370
    18
100
AcDbDimension
  2
_D_2
 10
200.5501182215
 20
256.2460021698
 30
0.0
 11
200.5501182215
 21
195.3639977677
 31
0.0
 70
   160
  1
1050
 71
     2
 42
-1.0
  3
SLDDIMSTYLE0
100
AcDbAlignedDimension
 13
182.4725921497
 23
134.4819933656
 33
0.0
 14
185.3925921497
 24
256.2460021698
 34
0.0
 50
90.0
100
AcDbRotatedDimension
  0
MTEXT
  5
34A
330
1F
100
AcDbEntity
  8
0
  6
Continuous
 62
     7
370
     0
100
AcDbMText
 10
146.3704464412
 20
280.9019619059
 30
0.0
 40
5.0
 41
0.0
 71
     2
 72
     1
  1
A-A
  7
SLDTEXTSTYLE0
 73
     1
 44
1.0
  0
ARC
  5
34B
330
1F
100
AcDbEntity
  8
0
  6
HIDDEN
 62
     7
370
    18
100
AcDbCircle
 10
165.6425921497
 20
214.9047510205
 30
0.0
 40
50.05000000000001
100
AcDbArc
 50
247.380135052
 51
292.619864948
  0
ARC
  5
34C
330
1F
100
AcDbEntity
  8
0
  6
HIDDEN
 62
     7
370
    18
100
AcDbCircle
 10
127.1425921497
 20
122.5047510205
 30
0.0
 40
50.05000000000002
100
AcDbArc
 50
67.380135052
 51
112.619864948
  0
ARC
  5
34D
330
1F
100
AcDbEntity
  8
0
  6
HIDDEN
 62
     7
370
    18
100
AcDbCircle
 10
165.6425921497
 20
224.9047510205
 30
0.0
 40
50.05000000000001
100
AcDbArc
 50
247.380135052
 51
292.619864948
  0
ARC
  5
34E
330
1F
100
AcDbEntity
  8
0
  6
HIDDEN
 62
     7
370
    18
100
AcDbCircle
 10
127.1425921497
 20
132.5047510205
 30
0.0
 40
50.05000000000002
100
AcDbArc
 50
67.380135052
 51
112.619864948
  0
INSERT
  5
438
330
1F
100
AcDbEntity
  8
0
  6
Continuous
 62
     7
370
    18
100
AcDbBlockReference
  2
SW_HATCH_0
 10
184.5586792705
 20
256.245978328
 30
0.0
  0
ENDSEC
  0
SECTION
  2
OBJECTS
  0
DICTIONARY
  5
C
330
0
100
AcDbDictionary
281
     1
  3
ACAD_GROUP
350
D
  3
ACAD_LAYOUT
350
1A
  3
ACAD_MLINESTYLE
350
17
  3
ACAD_PLOTSETTINGS
350
19
  3
ACAD_PLOTSTYLENAME
350
E
  3
ACAD_SCALELIST
350
47
  3
DWGPROPS
350
439
  0
DICTIONARY
  5
D
102
{ACAD_REACTORS
330
C
102
}
330
C
100
AcDbDictionary
281
     1
  0
DICTIONARY
  5
1A
102
{ACAD_REACTORS
330
C
102
}
330
C
100
AcDbDictionary
281
     1
  3
Layout1
350
1E
  3
Layout2
350
26
  3
Model
350
22
  0
DICTIONARY
  5
17
102
{ACAD_REACTORS
330
C
102
}
330
C
100
AcDbDictionary
281
     1
  3
Standard
350
18
  0
DICTIONARY
  5
19
102
{ACAD_REACTORS
330
C
102
}
330
C
100
AcDbDictionary
281
     1
  0
ACDBDICTIONARYWDFLT
  5
E
102
{ACAD_REACTORS
330
C
102
}
330
C
100
AcDbDictionary
281
     1
  3
Normal
350
F
100
AcDbDictionaryWithDefault
340
F
  0
DICTIONARY
  5
47
102
{ACAD_REACTORS
330
C
102
}
330
C
100
AcDbDictionary
281
     1
  3
A0
350
48
  3
A1
350
49
  3
A2
350
4A
  3
A3
350
4B
  3
A4
350
4C
  3
A5
350
4D
  3
A6
350
4E
  3
A7
350
4F
  3
A8
350
50
  3
A9
350
51
  3
B0
350
52
  3
B1
350
53
  3
B2
350
54
  3
B3
350
55
  3
B4
350
56
  3
B5
350
57
  3
B6
350
58
  3
B7
350
59
  3
B8
350
5A
  3
B9
350
5B
  3
C0
350
5C
  3
C1
350
5D
  3
C2
350
5E
  3
C3
350
5F
  3
C4
350
60
  3
C5
350
61
  3
C6
350
62
  3
C7
350
63
  3
C8
350
64
  3
C9
350
65
  3
D0
350
66
  3
D1
350
67
  3
D2
350
68
  0
XRECORD
  5
439
102
{ACAD_REACTORS
330
C
102
}
330
C
100
AcDbXrecord
280
     1
  1
DWGPROPS COOKIE
  2

  3

  4

  6

  7

  8
ch-ntl-rs-wscad
  9

300
=
301
=
302
=
303
=
304
=
305
=
306
=
307
=
308
=
309
=
 40
0.0
 41
2460209.551150764
 42
2460209.551161447
  1

 90
        0
  0
LAYOUT
  5
1E
102
{ACAD_REACTORS
330
1A
102
}
330
1A
100
AcDbPlotSettings
  1

  2
none_device
  4

  6

 40
0.0
 41
0.0
 42
0.0
 43
0.0
 44
0.0
 45
0.0
 46
0.0
 47
0.0
 48
0.0
 49
0.0
140
0.0
141
0.0
142
1.0
143
1.0
 70
   688
 72
     1
 73
     0
 74
     5
  7

 75
    16
147
1.0
148
0.0
149
0.0
100
AcDbLayout
  1
Layout1
 70
     1
 71
     1
 10
0.0
 20
0.0
 11
420.0
 21
297.0
 12
0.0
 22
0.0
 32
0.0
 14
1.0000000000E+20
 24
1.0000000000E+20
 34
1.0000000000E+20
 15
-1.0000000000E+20
 25
-1.0000000000E+20
 35
-1.0000000000E+20
146
0.0
 13
0.0
 23
0.0
 33
0.0
 16
1.0
 26
0.0
 36
0.0
 17
0.0
 27
1.0
 37
0.0
 76
     0
330
1B
  0
LAYOUT
  5
26
102
{ACAD_REACTORS
330
1A
102
}
330
1A
100
AcDbPlotSettings
  1

  2
none_device
  4

  6

 40
0.0
 41
0.0
 42
0.0
 43
0.0
 44
0.0
 45
0.0
 46
0.0
 47
0.0
 48
0.0
 49
0.0
140
0.0
141
0.0
142
1.0
143
1.0
 70
   688
 72
     1
 73
     0
 74
     5
  7

 75
    16
147
1.0
148
0.0
149
0.0
100
AcDbLayout
  1
Layout2
 70
     1
 71
     2
 10
0.0
 20
0.0
 11
0.0
 21
0.0
 12
0.0
 22
0.0
 32
0.0
 14
0.0
 24
0.0
 34
0.0
 15
0.0
 25
0.0
 35
0.0
146
0.0
 13
0.0
 23
0.0
 33
0.0
 16
1.0
 26
0.0
 36
0.0
 17
0.0
 27
1.0
 37
0.0
 76
     0
330
23
  0
LAYOUT
  5
22
102
{ACAD_REACTORS
330
1A
102
}
330
1A
100
AcDbPlotSettings
  1

  2
none_device
  4
Letter_(8.50_x_11.00_Inches)
  6

 40
6.35
 41
6.35
 42
6.35000508
 43
6.35000508
 44
215.9
 45
279.4
 46
0.0
 47
0.0
 48
0.0
 49
0.0
140
0.0
141
0.0
142
1.0
143
1.0
 70
  1712
 72
     1
 73
     0
 74
     0
  7

 75
     0
147
1.0
148
0.0
149
0.0
100
AcDbLayout
  1
Model
 70
     1
 71
     0
 10
0.0
 20
0.0
 11
420.0
 21
297.0
 12
0.0
 22
0.0
 32
0.0
 14
0.0
 24
0.0
 34
0.0
 15
420.0
 25
297.0
 35
0.0
146
0.0
 13
0.0
 23
0.0
 33
0.0
 16
1.0
 26
0.0
 36
0.0
 17
0.0
 27
1.0
 37
0.0
 76
     0
330
1F
331
29
  0
MLINESTYLE
  5
18
102
{ACAD_REACTORS
330
17
102
}
330
17
100
AcDbMlineStyle
  2
Standard
 70
     0
  3

 62
   256
 51
90.0
 52
90.0
 71
     2
 49
0.5
 62
   256
  6
BYLAYER
 49
-0.5
 62
   256
  6
BYLAYER
  0
ACDBPLACEHOLDER
  5
F
102
{ACAD_REACTORS
330
E
102
}
330
E
  0
SCALE
  5
48
102
{ACAD_REACTORS
330
47
102
}
330
47
100
AcDbScale
 70
     0
300
1:1
140
1.0
141
1.0
290
     1
  0
SCALE
  5
49
102
{ACAD_REACTORS
330
47
102
}
330
47
100
AcDbScale
 70
     0
300
1:2
140
1.0
141
2.0
290
     0
  0
SCALE
  5
4A
102
{ACAD_REACTORS
330
47
102
}
330
47
100
AcDbScale
 70
     0
300
1:4
140
1.0
141
4.0
290
     0
  0
SCALE
  5
4B
102
{ACAD_REACTORS
330
47
102
}
330
47
100
AcDbScale
 70
     0
300
1:5
140
1.0
141
5.0
290
     0
  0
SCALE
  5
4C
102
{ACAD_REACTORS
330
47
102
}
330
47
100
AcDbScale
 70
     0
300
1:8
140
1.0
141
8.0
290
     0
  0
SCALE
  5
4D
102
{ACAD_REACTORS
330
47
102
}
330
47
100
AcDbScale
 70
     0
300
1:10
140
1.0
141
10.0
290
     0
  0
SCALE
  5
4E
102
{ACAD_REACTORS
330
47
102
}
330
47
100
AcDbScale
 70
     0
300
1:16
140
1.0
141
16.0
290
     0
  0
SCALE
  5
4F
102
{ACAD_REACTORS
330
47
102
}
330
47
100
AcDbScale
 70
     0
300
1:20
140
1.0
141
20.0
290
     0
  0
SCALE
  5
50
102
{ACAD_REACTORS
330
47
102
}
330
47
100
AcDbScale
 70
     0
300
1:30
140
1.0
141
30.0
290
     0
  0
SCALE
  5
51
102
{ACAD_REACTORS
330
47
102
}
330
47
100
AcDbScale
 70
     0
300
1:40
140
1.0
141
40.0
290
     0
  0
SCALE
  5
52
102
{ACAD_REACTORS
330
47
102
}
330
47
100
AcDbScale
 70
     0
300
1:50
140
1.0
141
50.0
290
     0
  0
SCALE
  5
53
102
{ACAD_REACTORS
330
47
102
}
330
47
100
AcDbScale
 70
     0
300
1:100
140
1.0
141
100.0
290
     0
  0
SCALE
  5
54
102
{ACAD_REACTORS
330
47
102
}
330
47
100
AcDbScale
 70
     0
300
2:1
140
2.0
141
1.0
290
     0
  0
SCALE
  5
55
102
{ACAD_REACTORS
330
47
102
}
330
47
100
AcDbScale
 70
     0
300
4:1
140
4.0
141
1.0
290
     0
  0
SCALE
  5
56
102
{ACAD_REACTORS
330
47
102
}
330
47
100
AcDbScale
 70
     0
300
8:1
140
8.0
141
1.0
290
     0
  0
SCALE
  5
57
102
{ACAD_REACTORS
330
47
102
}
330
47
100
AcDbScale
 70
     0
300
10:1
140
10.0
141
1.0
290
     0
  0
SCALE
  5
58
102
{ACAD_REACTORS
330
47
102
}
330
47
100
AcDbScale
 70
     0
300
100:1
140
100.0
141
1.0
290
     0
  0
SCALE
  5
59
102
{ACAD_REACTORS
330
47
102
}
330
47
100
AcDbScale
 70
     0
300
1/128" = 1'-0"
140
0.0078125
141
12.0
290
     0
  0
SCALE
  5
5A
102
{ACAD_REACTORS
330
47
102
}
330
47
100
AcDbScale
 70
     0
300
1/64" = 1'-0"
140
0.015625
141
12.0
290
     0
  0
SCALE
  5
5B
102
{ACAD_REACTORS
330
47
102
}
330
47
100
AcDbScale
 70
     0
300
1/32" = 1'-0"
140
0.03125
141
12.0
290
     0
  0
SCALE
  5
5C
102
{ACAD_REACTORS
330
47
102
}
330
47
100
AcDbScale
 70
     0
300
1/16" = 1'-0"
140
0.0625
141
12.0
290
     0
  0
SCALE
  5
5D
102
{ACAD_REACTORS
330
47
102
}
330
47
100
AcDbScale
 70
     0
300
3/32" = 1'-0"
140
0.09375
141
12.0
290
     0
  0
SCALE
  5
5E
102
{ACAD_REACTORS
330
47
102
}
330
47
100
AcDbScale
 70
     0
300
1/8" = 1'-0"
140
0.125
141
12.0
290
     0
  0
SCALE
  5
5F
102
{ACAD_REACTORS
330
47
102
}
330
47
100
AcDbScale
 70
     0
300
3/16" = 1'-0"
140
0.1875
141
12.0
290
     0
  0
SCALE
  5
60
102
{ACAD_REACTORS
330
47
102
}
330
47
100
AcDbScale
 70
     0
300
1/4" = 1'-0"
140
0.25
141
12.0
290
     0
  0
SCALE
  5
61
102
{ACAD_REACTORS
330
47
102
}
330
47
100
AcDbScale
 70
     0
300
3/8" = 1'-0"
140
0.375
141
12.0
290
     0
  0
SCALE
  5
62
102
{ACAD_REACTORS
330
47
102
}
330
47
100
AcDbScale
 70
     0
300
1/2" = 1'-0"
140
0.5
141
12.0
290
     0
  0
SCALE
  5
63
102
{ACAD_REACTORS
330
47
102
}
330
47
100
AcDbScale
 70
     0
300
3/4" = 1'-0"
140
0.75
141
12.0
290
     0
  0
SCALE
  5
64
102
{ACAD_REACTORS
330
47
102
}
330
47
100
AcDbScale
 70
     0
300
1" = 1'-0"
140
1.0
141
12.0
290
     0
  0
SCALE
  5
65
102
{ACAD_REACTORS
330
47
102
}
330
47
100
AcDbScale
 70
     0
300
1-1/2" = 1'-0"
140
1.5
141
12.0
290
     0
  0
SCALE
  5
66
102
{ACAD_REACTORS
330
47
102
}
330
47
100
AcDbScale
 70
     0
300
3" = 1'-0"
140
3.0
141
12.0
290
     0
  0
SCALE
  5
67
102
{ACAD_REACTORS
330
47
102
}
330
47
100
AcDbScale
 70
     0
300
6" = 1'-0"
140
6.0
141
12.0
290
     0
  0
SCALE
  5
68
102
{ACAD_REACTORS
330
47
102
}
330
47
100
AcDbScale
 70
     0
300
1'-0" = 1'-0"
140
12.0
141
12.0
290
     0
  0
ENDSEC
  0
EOF
