  0
SECTION
  2
HEADER
  9
$ACADVER
  1
AC1015
  9
$ACADMAINTVER
 70
     6
  9
$DWGCODEPAGE
  3
ANSI_1252
  9
$INSBASE
 10
0.0
 20
0.0
 30
0.0
  9
$EXTMIN
 10
0.0
 20
0.0
 30
0.0
  9
$EXTMAX
 10
420.0
 20
297.0
 30
0.0
  9
$LIMMIN
 10
0.0
 20
0.0
  9
$LIMMAX
 10
420.0
 20
297.0
  9
$ORTHOMODE
 70
     0
  9
$REGENMODE
 70
     1
  9
$FILLMODE
 70
     1
  9
$QTEXTMODE
 70
     0
  9
$MIRRTEXT
 70
     1
  9
$LTSCALE
 40
1.0
  9
$ATTMODE
 70
     1
  9
$TEXTSIZE
 40
3.5
  9
$TRACEWID
 40
1.0
  9
$TEXTSTYLE
  7
Standard
  9
$CLAYER
  8
0
  9
$CELTYPE
  6
ByLayer
  9
$CECOLOR
 62
   256
  9
$CELTSCALE
 40
1.0
  9
$DISPSILH
 70
     0
  9
$DIMSCALE
 40
1.0
  9
$DIMASZ
 40
3.302
  9
$DIMEXO
 40
1.0
  9
$DIMDLI
 40
3.75
  9
$DIMRND
 40
0.0
  9
$DIMDLE
 40
0.0
  9
$DIMEXE
 40
1.0
  9
$DIMTP
 40
0.0
  9
$DIMTM
 40
0.0
  9
$DIMTXT
 40
3.5
  9
$DIMCEN
 40
2.5
  9
$DIMTSZ
 40
0.0
  9
$DIMTOL
 70
     0
  9
$DIMLIM
 70
     0
  9
$DIMTIH
 70
     1
  9
$DIMTOH
 70
     1
  9
$DIMSE1
 70
     0
  9
$DIMSE2
 70
     0
  9
$DIMTAD
 70
     1
  9
$DIMZIN
 70
     0
  9
$DIMBLK
  1

  9
$DIMASO
 70
     1
  9
$DIMSHO
 70
     1
  9
$DIMPOST
  1

  9
$DIMAPOST
  1

  9
$DIMALT
 70
     0
  9
$DIMALTD
 70
     3
  9
$DIMALTF
 40
0.0393700787
  9
$DIMLFAC
 40
2.0
  9
$DIMTOFL
 70
     1
  9
$DIMTVP
 40
0.0
  9
$DIMTIX
 70
     0
  9
$DIMSOXD
 70
     0
  9
$DIMSAH
 70
     0
  9
$DIMBLK1
  1

  9
$DIMBLK2
  1

  9
$DIMSTYLE
  2
ISO-25
  9
$DIMCLRD
 70
     0
  9
$DIMCLRE
 70
     0
  9
$DIMCLRT
 70
     0
  9
$DIMTFAC
 40
1.0
  9
$DIMGAP
 40
1.524
  9
$DIMJUST
 70
     0
  9
$DIMSD1
 70
     0
  9
$DIMSD2
 70
     0
  9
$DIMTOLJ
 70
     0
  9
$DIMTZIN
 70
     0
  9
$DIMALTZ
 70
     0
  9
$DIMALTTZ
 70
     0
  9
$DIMUPT
 70
     0
  9
$DIMDEC
 70
     2
  9
$DIMTDEC
 70
     2
  9
$DIMALTU
 70
     2
  9
$DIMALTTD
 70
     3
  9
$DIMTXSTY
  7
Standard
  9
$DIMAUNIT
 70
     0
  9
$DIMADEC
 70
     2
  9
$DIMALTRND
 40
0.0
  9
$DIMAZIN
 70
     0
  9
$DIMDSEP
 70
    44
  9
$DIMATFIT
 70
     3
  9
$DIMFRAC
 70
     0
  9
$DIMLDRBLK
  1

  9
$DIMLUNIT
 70
     2
  9
$DIMLWD
 70
    -2
  9
$DIMLWE
 70
    -2
  9
$DIMTMOVE
 70
     0
  9
$LUNITS
 70
     2
  9
$LUPREC
 70
     2
  9
$SKETCHINC
 40
1.0
  9
$FILLETRAD
 40
10.0
  9
$AUNITS
 70
     0
  9
$AUPREC
 70
     2
  9
$MENU
  1
.
  9
$ELEVATION
 40
0.0
  9
$PELEVATION
 40
0.0
  9
$THICKNESS
 40
0.0
  9
$LIMCHECK
 70
     0
  9
$CHAMFERA
 40
0.0
  9
$CHAMFERB
 40
0.0
  9
$CHAMFERC
 40
0.0
  9
$CHAMFERD
 40
0.0
  9
$SKPOLY
 70
     0
  9
$TDCREATE
 40
2458289.980630278
  9
$TDUCREATE
 40
2458289.897296945
  9
$TDUPDATE
 40
2458289.980639132
  9
$TDUUPDATE
 40
2458289.897305799
  9
$TDINDWG
 40
0.0000000116
  9
$TDUSRTIMER
 40
0.0000000116
  9
$USRTIMER
 70
     1
  9
$ANGBASE
 50
0.0
  9
$ANGDIR
 70
     0
  9
$PDMODE
 70
     0
  9
$PDSIZE
 40
-1.0
  9
$PLINEWID
 40
0.0
  9
$SPLFRAME
 70
     0
  9
$SPLINETYPE
 70
     6
  9
$SPLINESEGS
 70
     8
  9
$HANDSEED
  5
5B4
  9
$SURFTAB1
 70
     6
  9
$SURFTAB2
 70
     6
  9
$SURFTYPE
 70
     6
  9
$SURFU
 70
     6
  9
$SURFV
 70
     6
  9
$UCSBASE
  2

  9
$UCSNAME
  2

  9
$UCSORG
 10
0.0
 20
0.0
 30
0.0
  9
$UCSXDIR
 10
1.0
 20
0.0
 30
0.0
  9
$UCSYDIR
 10
0.0
 20
1.0
 30
0.0
  9
$UCSORTHOREF
  2

  9
$UCSORTHOVIEW
 70
     0
  9
$UCSORGTOP
 10
0.0
 20
0.0
 30
0.0
  9
$UCSORGBOTTOM
 10
0.0
 20
0.0
 30
0.0
  9
$UCSORGLEFT
 10
0.0
 20
0.0
 30
0.0
  9
$UCSORGRIGHT
 10
0.0
 20
0.0
 30
0.0
  9
$UCSORGFRONT
 10
0.0
 20
0.0
 30
0.0
  9
$UCSORGBACK
 10
0.0
 20
0.0
 30
0.0
  9
$PUCSBASE
  2

  9
$PUCSNAME
  2

  9
$PUCSORG
 10
0.0
 20
0.0
 30
0.0
  9
$PUCSXDIR
 10
1.0
 20
0.0
 30
0.0
  9
$PUCSYDIR
 10
0.0
 20
1.0
 30
0.0
  9
$PUCSORTHOREF
  2

  9
$PUCSORTHOVIEW
 70
     0
  9
$PUCSORGTOP
 10
0.0
 20
0.0
 30
0.0
  9
$PUCSORGBOTTOM
 10
0.0
 20
0.0
 30
0.0
  9
$PUCSORGLEFT
 10
0.0
 20
0.0
 30
0.0
  9
$PUCSORGRIGHT
 10
0.0
 20
0.0
 30
0.0
  9
$PUCSORGFRONT
 10
0.0
 20
0.0
 30
0.0
  9
$PUCSORGBACK
 10
0.0
 20
0.0
 30
0.0
  9
$USERI1
 70
     0
  9
$USERI2
 70
     0
  9
$USERI3
 70
     0
  9
$USERI4
 70
     0
  9
$USERI5
 70
     0
  9
$USERR1
 40
0.0
  9
$USERR2
 40
0.0
  9
$USERR3
 40
0.0
  9
$USERR4
 40
0.0
  9
$USERR5
 40
0.0
  9
$WORLDVIEW
 70
     1
  9
$SHADEDGE
 70
     3
  9
$SHADEDIF
 70
    70
  9
$TILEMODE
 70
     1
  9
$MAXACTVP
 70
    64
  9
$PINSBASE
 10
0.0
 20
0.0
 30
0.0
  9
$PLIMCHECK
 70
     0
  9
$PEXTMIN
 10
1.0000000000E+20
 20
1.0000000000E+20
 30
1.0000000000E+20
  9
$PEXTMAX
 10
-1.0000000000E+20
 20
-1.0000000000E+20
 30
-1.0000000000E+20
  9
$PLIMMIN
 10
0.0
 20
0.0
  9
$PLIMMAX
 10
420.0
 20
297.0
  9
$UNITMODE
 70
     0
  9
$VISRETAIN
 70
     1
  9
$PLINEGEN
 70
     0
  9
$PSLTSCALE
 70
     1
  9
$TREEDEPTH
 70
  3020
  9
$CMLSTYLE
  2
Standard
  9
$CMLJUST
 70
     0
  9
$CMLSCALE
 40
20.0
  9
$PROXYGRAPHICS
 70
     1
  9
$MEASUREMENT
 70
     1
  9
$CELWEIGHT
370
    -1
  9
$ENDCAPS
280
     0
  9
$JOINSTYLE
280
     0
  9
$LWDISPLAY
290
     1
  9
$INSUNITS
 70
     4
  9
$HYPERLINKBASE
  1

  9
$STYLESHEET
  1

  9
$XEDIT
290
     1
  9
$CEPSNTYPE
380
     0
  9
$PSTYLEMODE
290
     1
  9
$FINGERPRINTGUID
  2
{6C67B649-3D8F-49C2-B152-71B7267F3577}
  9
$VERSIONGUID
  2
{FAEB1C32-E019-11D5-929B-00C0DF256EC4}
  9
$EXTNAMES
290
     1
  9
$PSVPSCALE
 40
0.0
  9
$OLESTARTUP
290
     0
  0
ENDSEC
  0
SECTION
  2
CLASSES
  0
CLASS
  1
ACDBDICTIONARYWDFLT
  2
AcDbDictionaryWithDefault
  3
ObjectDBX Classes
 90
        0
280
     0
281
     0
  0
CLASS
  1
VISUALSTYLE
  2
AcDbVisualStyle
  3
ObjectDBX Classes
 90
     4095
280
     0
281
     0
  0
CLASS
  1
MATERIAL
  2
AcDbMaterial
  3
ObjectDBX Classes
 90
     1153
280
     0
281
     0
  0
CLASS
  1
SCALE
  2
AcDbScale
  3
ObjectDBX Classes
 90
     1153
280
     0
281
     0
  0
CLASS
  1
TABLESTYLE
  2
AcDbTableStyle
  3
ObjectDBX Classes
 90
     4095
280
     0
281
     0
  0
CLASS
  1
MLEADERSTYLE
  2
AcDbMLeaderStyle
  3
ACDB_MLEADERSTYLE_CLASS
 90
     4095
280
     0
281
     0
  0
CLASS
  1
SUN
  2
AcDbSun
  3
SCENEOE
 90
     1153
280
     0
281
     0
  0
CLASS
  1
ACDBPLACEHOLDER
  2
AcDbPlaceHolder
  3
ObjectDBX Classes
 90
        0
280
     0
281
     0
  0
CLASS
  1
LAYOUT
  2
AcDbLayout
  3
ObjectDBX Classes
 90
        0
280
     0
281
     0
  0
ENDSEC
  0
SECTION
  2
TABLES
  0
TABLE
  2
VPORT
  5
8
330
0
100
AcDbSymbolTable
 70
     1
  0
VPORT
  5
29
330
8
100
AcDbSymbolTableRecord
100
AcDbViewportTableRecord
  2
*Active
 70
     0
 10
0.0
 20
0.0
 11
1.0
 21
1.0
 12
210.0
 22
148.5
 13
0.0
 23
0.0
 14
10.0
 24
10.0
 15
10.0
 25
10.0
 16
0.0
 26
0.0
 36
1.0
 17
0.0
 27
0.0
 37
0.0
 40
297.0
 41
1.4141414141
 42
50.0
 43
0.0
 44
0.0
 50
0.0
 51
0.0
 71
     0
 72
  2000
 73
     1
 74
     3
 75
     0
 76
     0
 77
     0
 78
     0
281
     0
 65
     1
110
0.0
120
0.0
130
0.0
111
1.0
121
0.0
131
0.0
112
0.0
122
1.0
132
0.0
 79
     0
146
0.0
  0
ENDTAB
  0
TABLE
  2
LTYPE
  5
5
330
0
100
AcDbSymbolTable
 70
     6
  0
LTYPE
  5
14
330
5
100
AcDbSymbolTableRecord
100
AcDbLinetypeTableRecord
  2
ByBlock
 70
     0
  3

 72
    65
 73
     0
 40
0.0
  0
LTYPE
  5
15
330
5
100
AcDbSymbolTableRecord
100
AcDbLinetypeTableRecord
  2
ByLayer
 70
     0
  3

 72
    65
 73
     0
 40
0.0
  0
LTYPE
  5
16
330
5
100
AcDbSymbolTableRecord
100
AcDbLinetypeTableRecord
  2
Continuous
 70
     0
  3
Solid line
 72
    65
 73
     0
 40
0.0
  0
LTYPE
  5
6E
330
5
100
AcDbSymbolTableRecord
100
AcDbLinetypeTableRecord
  2
HIDDEN
 70
     0
  3
Hidden __ __ __ __ __ __ __ __ __ __ __ __ __ __
 72
    65
 73
     2
 40
1.905
 49
1.27
 74
     0
 49
-0.635
 74
     0
  0
LTYPE
  5
6F
330
5
100
AcDbSymbolTableRecord
100
AcDbLinetypeTableRecord
  2
PHANTOM
 70
     0
  3
Phantom ______  __  __  ______  __  __  ______
 72
    65
 73
     6
 40
12.7
 49
6.35
 74
     0
 49
-1.27
 74
     0
 49
1.27
 74
     0
 49
-1.27
 74
     0
 49
1.27
 74
     0
 49
-1.27
 74
     0
  0
LTYPE
  5
70
330
5
100
AcDbSymbolTableRecord
100
AcDbLinetypeTableRecord
  2
CENTER
 70
     0
  3
Center ____ _ ____ _ ____ _ ____ _ ____ _ ____
 72
    65
 73
     4
 40
10.16
 49
6.35
 74
     0
 49
-1.27
 74
     0
 49
1.27
 74
     0
 49
-1.27
 74
     0
  0
LTYPE
  5
71
330
5
100
AcDbSymbolTableRecord
100
AcDbLinetypeTableRecord
  2
CENTERX2
 70
     0
  3
Center (2x) ________  __  ________  __  _____
 72
    65
 73
     4
 40
20.32
 49
12.7
 74
     0
 49
-2.54
 74
     0
 49
2.54
 74
     0
 49
-2.54
 74
     0
  0
LTYPE
  5
72
330
5
100
AcDbSymbolTableRecord
100
AcDbLinetypeTableRecord
  2
DOT2
 70
     0
  3
Dot (.5x) ........................................
 72
    65
 73
     2
 40
0.635
 49
0.0
 74
     0
 49
-0.635
 74
     0
  0
ENDTAB
  0
TABLE
  2
LAYER
  5
2
330
0
100
AcDbSymbolTable
 70
    14
  0
LAYER
  5
10
330
2
100
AcDbSymbolTableRecord
100
AcDbLayerTableRecord
  2
0
 70
     0
 62
     7
  6
Continuous
370
    -3
390
F
  0
LAYER
  5
73
330
2
100
AcDbSymbolTableRecord
100
AcDbLayerTableRecord
  2
SLD-0
 70
     0
 62
   179
  6
Continuous
370
    -3
390
F
  0
LAYER
  5
74
330
2
100
AcDbSymbolTableRecord
100
AcDbLayerTableRecord
  2
RAHMEN
 70
     0
 62
     9
  6
Continuous
370
    -3
390
F
  0
LAYER
  5
75
330
2
100
AcDbSymbolTableRecord
100
AcDbLayerTableRecord
  2
ASHADE
 70
     0
 62
   179
  6
Continuous
370
    -3
390
F
  0
LAYER
  5
76
330
2
100
AcDbSymbolTableRecord
100
AcDbLayerTableRecord
  2
SLD-DEFPOINTS
 70
     0
 62
   179
  6
Continuous
370
    -3
390
F
  0
LAYER
  5
77
330
2
100
AcDbSymbolTableRecord
100
AcDbLayerTableRecord
  2
KOPF
 70
     0
 62
     9
  6
Continuous
370
    -3
390
F
  0
LAYER
  5
78
330
2
100
AcDbSymbolTableRecord
100
AcDbLayerTableRecord
  2
VORLAGE_TEXT
 70
     0
 62
     7
  6
Continuous
370
    -3
390
F
  0
LAYER
  5
79
330
2
100
AcDbSymbolTableRecord
100
AcDbLayerTableRecord
  2
VORLAGE_BEMASSUNG
 70
     0
 62
    -5
  6
Continuous
290
     0
370
    -3
390
F
  0
LAYER
  5
7A
330
2
100
AcDbSymbolTableRecord
100
AcDbLayerTableRecord
  2
TEXT
 70
     0
 62
     7
  6
Continuous
370
    -3
390
F
  0
LAYER
  5
7B
330
2
100
AcDbSymbolTableRecord
100
AcDbLayerTableRecord
  2
LINIEN-DICK
 70
     0
 62
     7
  6
Continuous
370
    35
390
F
  0
LAYER
  5
7C
330
2
100
AcDbSymbolTableRecord
100
AcDbLayerTableRecord
  2
LINIEN-NORMAL
 70
     0
 62
     7
  6
Continuous
370
    25
390
F
  0
LAYER
  5
7D
330
2
100
AcDbSymbolTableRecord
100
AcDbLayerTableRecord
  2
LINIEN-DÜNN
 70
     0
 62
     7
  6
Continuous
370
    -3
390
F
  0
LAYER
  5
7E
330
2
100
AcDbSymbolTableRecord
100
AcDbLayerTableRecord
  2
TEXT-DEUTSCH
 70
     0
 62
     7
  6
Continuous
370
    -3
390
F
  0
LAYER
  5
7F
330
2
100
AcDbSymbolTableRecord
100
AcDbLayerTableRecord
  2
TEXT-ENGLISCH
 70
     0
 62
    -7
  6
Continuous
290
     0
370
    -3
390
F
  0
ENDTAB
  0
TABLE
  2
STYLE
  5
3
330
0
100
AcDbSymbolTable
 70
     5
  0
STYLE
  5
11
330
3
100
AcDbSymbolTableRecord
100
AcDbTextStyleTableRecord
  2
Standard
 70
     0
 40
0.0
 41
1.0
 50
0.0
 71
     0
 42
3.5
  3
txt
  4

  0
STYLE
  5
F3
330
3
100
AcDbSymbolTableRecord
100
AcDbTextStyleTableRecord
  2
SLDTEXTSTYLE0
 70
     0
 40
0.0
 41
0.605
 50
0.0
 71
     0
 42
3.5
  3
TXT
  4

  0
STYLE
  5
FB
330
3
100
AcDbSymbolTableRecord
100
AcDbTextStyleTableRecord
  2
SLDTEXTSTYLE1
 70
     0
 40
0.0
 41
0.5715909091
 50
0.0
 71
     0
 42
3.5
  3
TXT
  4

  0
STYLE
  5
153
330
3
100
AcDbSymbolTableRecord
100
AcDbTextStyleTableRecord
  2
SLDTEXTSTYLE2
 70
     0
 40
0.0
 41
0.75
 50
0.0
 71
     0
 42
3.5
  3
TXT
  4

  0
STYLE
  5
1A8
330
3
100
AcDbSymbolTableRecord
100
AcDbTextStyleTableRecord
  2
SLDTEXTSTYLE3
 70
     0
 40
0.0
 41
0.563
 50
0.0
 71
     0
 42
3.5
  3
TXT
  4

  0
ENDTAB
  0
TABLE
  2
VIEW
  5
6
330
0
100
AcDbSymbolTable
 70
     0
  0
ENDTAB
  0
TABLE
  2
UCS
  5
7
330
0
100
AcDbSymbolTable
 70
     0
  0
ENDTAB
  0
TABLE
  2
APPID
  5
9
330
0
100
AcDbSymbolTable
 70
     1
  0
APPID
  5
12
330
9
100
AcDbSymbolTableRecord
100
AcDbRegAppTableRecord
  2
ACAD
 70
     0
  0
ENDTAB
  0
TABLE
  2
DIMSTYLE
  5
A
330
0
100
AcDbSymbolTable
 70
     5
100
AcDbDimStyleTable
  0
DIMSTYLE
105
27
330
A
100
AcDbSymbolTableRecord
100
AcDbDimStyleTableRecord
  2
ISO-25
 70
     0
 41
2.5
 42
0.625
 43
3.75
 44
1.25
 73
     0
 74
     0
 77
     1
 78
     8
140
2.5
141
2.5
143
0.0393700787
147
0.625
171
     3
172
     1
178
     0
271
     2
272
     2
274
     3
278
    44
283
     0
284
     8
340
11
  0
DIMSTYLE
105
243
102
{ACAD_REACTORS
330
242
330
24D
330
257
330
26C
330
278
330
284
102
}
330
A
100
AcDbSymbolTableRecord
100
AcDbDimStyleTableRecord
  2
SLDDIMSTYLE0
 70
     0
 41
3.302
 44
0.0
 45
0.000000001
 73
     0
 74
     0
 77
     1
 78
    12
 79
     3
140
3.5
147
0.875
173
     1
178
     0
271
     2
272
     2
276
     2
284
    12
340
153
  0
DIMSTYLE
105
262
102
{ACAD_REACTORS
330
261
102
}
330
A
100
AcDbSymbolTableRecord
100
AcDbDimStyleTableRecord
  2
SLDDIMSTYLE1
 70
     0
 41
3.302
 44
0.0
 45
0.000000001
 73
     0
 74
     0
 77
     1
 78
    12
 79
     3
140
3.5
147
0.875
173
     1
178
     0
271
     0
272
     0
276
     2
284
    12
340
153
  0
DIMSTYLE
105
365
102
{ACAD_REACTORS
330
364
102
}
330
A
100
AcDbSymbolTableRecord
100
AcDbDimStyleTableRecord
  2
SLDDIMSTYLE2
 70
     0
 41
3.302
 44
0.0
 45
0.000000001
 73
     0
 74
     0
 77
     1
 78
    12
 79
     3
140
3.5
144
5.0
147
0.875
173
     1
178
     0
271
     2
272
     2
276
     2
284
    12
340
153
  0
DIMSTYLE
105
370
102
{ACAD_REACTORS
330
36F
102
}
330
A
100
AcDbSymbolTableRecord
100
AcDbDimStyleTableRecord
  2
SLDDIMSTYLE3
 70
     0
 41
3.302
 44
0.0
 45
0.000000001
 73
     0
 74
     0
 77
     1
 78
    12
 79
     3
140
3.5
144
5.0
147
0.875
172
     1
173
     1
178
     0
271
     2
272
     2
276
     2
284
    12
289
     0
340
153
  0
ENDTAB
  0
TABLE
  2
BLOCK_RECORD
  5
1
330
0
100
AcDbSymbolTable
 70
    14
  0
BLOCK_RECORD
  5
1F
330
1
100
AcDbSymbolTableRecord
100
AcDbBlockTableRecord
  2
*Model_Space
340
22
  0
BLOCK_RECORD
  5
1B
330
1
100
AcDbSymbolTableRecord
100
AcDbBlockTableRecord
  2
*Paper_Space
340
1E
  0
BLOCK_RECORD
  5
23
330
1
100
AcDbSymbolTableRecord
100
AcDbBlockTableRecord
  2
*Paper_Space0
340
26
  0
BLOCK_RECORD
  5
80
330
1
100
AcDbSymbolTableRecord
100
AcDbBlockTableRecord
  2
ACO-Logo
340
0
102
{BLKREFS
331
14F
102
}
  0
BLOCK_RECORD
  5
F6
330
1
100
AcDbSymbolTableRecord
100
AcDbBlockTableRecord
  2
SW_NOTE_0
340
0
102
{BLKREFS
331
FE
102
}
  0
BLOCK_RECORD
  5
156
330
1
100
AcDbSymbolTableRecord
100
AcDbBlockTableRecord
  2
SW_NOTE_1
340
0
102
{BLKREFS
331
15B
102
}
  0
BLOCK_RECORD
  5
180
330
1
100
AcDbSymbolTableRecord
100
AcDbBlockTableRecord
  2
SW_NOTE_2
340
0
102
{BLKREFS
331
188
102
}
  0
BLOCK_RECORD
  5
244
330
1
100
AcDbSymbolTableRecord
100
AcDbBlockTableRecord
  2
_D
340
0
  0
BLOCK_RECORD
  5
24E
330
1
100
AcDbSymbolTableRecord
100
AcDbBlockTableRecord
  2
_D_1
340
0
  0
BLOCK_RECORD
  5
258
330
1
100
AcDbSymbolTableRecord
100
AcDbBlockTableRecord
  2
_D_2
340
0
  0
BLOCK_RECORD
  5
263
330
1
100
AcDbSymbolTableRecord
100
AcDbBlockTableRecord
  2
_D_3
340
0
  0
BLOCK_RECORD
  5
26D
330
1
100
AcDbSymbolTableRecord
100
AcDbBlockTableRecord
  2
_D_4
340
0
  0
BLOCK_RECORD
  5
279
330
1
100
AcDbSymbolTableRecord
100
AcDbBlockTableRecord
  2
_D_5
340
0
  0
BLOCK_RECORD
  5
285
330
1
100
AcDbSymbolTableRecord
100
AcDbBlockTableRecord
  2
_D_6
340
0
  0
BLOCK_RECORD
  5
366
330
1
100
AcDbSymbolTableRecord
100
AcDbBlockTableRecord
  2
_D_7
340
0
  0
BLOCK_RECORD
  5
371
330
1
100
AcDbSymbolTableRecord
100
AcDbBlockTableRecord
  2
_D_8
340
0
  0
ENDTAB
  0
ENDSEC
  0
SECTION
  2
BLOCKS
  0
BLOCK
  5
20
330
1F
100
AcDbEntity
  8
0
100
AcDbBlockBegin
  2
*Model_Space
 70
     0
 10
0.0
 20
0.0
 30
0.0
  3
*Model_Space
  1

  0
ENDBLK
  5
21
330
1F
100
AcDbEntity
  8
0
100
AcDbBlockEnd
  0
BLOCK
  5
1C
330
1B
100
AcDbEntity
 67
     1
  8
0
100
AcDbBlockBegin
  2
*Paper_Space
 70
     0
 10
0.0
 20
0.0
 30
0.0
  3
*Paper_Space
  1

  0
ENDBLK
  5
1D
330
1B
100
AcDbEntity
 67
     1
  8
0
100
AcDbBlockEnd
  0
BLOCK
  5
24
330
23
100
AcDbEntity
  8
0
100
AcDbBlockBegin
  2
*Paper_Space0
 70
     0
 10
0.0
 20
0.0
 30
0.0
  3
*Paper_Space0
  1

  0
ENDBLK
  5
25
330
23
100
AcDbEntity
  8
0
100
AcDbBlockEnd
  0
BLOCK
  5
81
330
80
100
AcDbEntity
  8
0
100
AcDbBlockBegin
  2
ACO-Logo
 70
     0
 10
0.0
 20
0.0
 30
0.0
  3
ACO-Logo
  1

  0
ARC
  5
83
330
80
100
AcDbEntity
  8
0
  6
Continuous
 62
   179
370
    18
100
AcDbCircle
 10
80.3853261169
 20
4.9940995715
 30
0.0
 40
0.3000000000000441
100
AcDbArc
 50
181.9349323096
 51
274.6062978506
  0
ARC
  5
84
330
80
100
AcDbEntity
  8
0
  6
Continuous
 62
   179
370
    18
100
AcDbCircle
 10
81.2359083165
 20
2.1946665956
 30
0.0
 40
1.000000000000021
100
AcDbArc
 50
221.4087409628
 51
276.0561297228
  0
ARC
  5
85
330
80
100
AcDbEntity
  8
0
  6
Continuous
 62
   179
370
    18
100
AcDbCircle
 10
79.1360017163
 20
3.654242048
 30
0.0
 40
0.300000000000004
100
AcDbArc
 50
181.2730300201
 51
274.4996077095
  0
ARC
  5
86
330
80
100
AcDbEntity
  8
0
  6
Continuous
 62
   179
370
    18
100
AcDbCircle
 10
78.7699033484
 20
3.2873137407
 30
0.0
 40
0.4000000000000358
100
AcDbArc
 50
221.0090869016
 51
274.5606296317
  0
ARC
  5
87
330
80
100
AcDbEntity
  8
0
  6
Continuous
 62
   179
370
    18
100
AcDbCircle
 10
91.2333953062
 20
4.6062442307
 30
0.0
 40
0.3000000000000493
100
AcDbArc
 50
274.4996077095
 51
3.7249371334
  0
ARC
  5
88
330
80
100
AcDbEntity
  8
0
  6
Continuous
 62
   179
370
    18
100
AcDbCircle
 10
81.5287571045
 20
9.7648973508
 30
0.0
 40
1.00000000000002
100
AcDbArc
 50
93.1134387481
 51
181.9414863909
  0
ARC
  5
89
330
80
100
AcDbEntity
  8
0
  6
Continuous
 62
   179
370
    18
100
AcDbCircle
 10
81.6051675115
 20
7.5107903456
 30
0.0
 40
1.0
100
AcDbArc
 50
181.9414863909
 51
274.398705355
  0
ARC
  5
8A
330
80
100
AcDbEntity
  8
0
  6
Continuous
 62
   179
370
    18
100
AcDbCircle
 10
80.1506905656
 20
11.9393118923
 30
0.0
 40
0.300000000000045
100
AcDbArc
 50
93.0418421566
 51
181.9349323096
  0
ARC
  5
8B
330
80
100
AcDbEntity
  8
0
  6
Continuous
 62
   179
370
    18
100
AcDbCircle
 10
78.1879722102
 20
12.3499352608
 30
0.0
 40
0.7999999999953393
100
AcDbArc
 50
92.6995697565
 51
148.2554209065
  0
ARC
  5
8C
330
80
100
AcDbEntity
  8
0
  6
Continuous
 62
   179
370
    18
100
AcDbCircle
 10
78.930862229
 20
12.8855189761
 30
0.0
 40
0.3000000000000031
100
AcDbArc
 50
92.6995697565
 51
181.2730300201
  0
ARC
  5
8D
330
80
100
AcDbEntity
  8
0
  6
Continuous
 62
   179
370
    18
100
AcDbCircle
 10
82.327743407
 20
9.8083568568
 30
0.0
 40
1.000000000000034
100
AcDbArc
 50
1.9414863909
 51
93.1134387481
  0
ARC
  5
8E
330
80
100
AcDbEntity
  8
0
  6
Continuous
 62
   179
370
    18
100
AcDbCircle
 10
81.5287571045
 20
9.7648973508
 30
0.0
 40
0.3625000000000009
100
AcDbArc
 50
93.1134387481
 51
181.9414863909
  0
ARC
  5
8F
330
80
100
AcDbEntity
  8
0
  6
Continuous
 62
   179
370
    18
100
AcDbCircle
 10
82.327743407
 20
9.8083568568
 30
0.0
 40
0.3625000000000146
100
AcDbArc
 50
1.9414863909
 51
93.1134387481
  0
ARC
  5
90
330
80
100
AcDbEntity
  8
0
  6
Continuous
 62
   179
370
    18
100
AcDbCircle
 10
82.4035451983
 20
7.5722040138
 30
0.0
 40
1.000000000000008
100
AcDbArc
 50
274.398705355
 51
1.9414863909
  0
ARC
  5
91
330
80
100
AcDbEntity
  8
0
  6
Continuous
 62
   179
370
    18
100
AcDbCircle
 10
82.4035451983
 20
7.5722040138
 30
0.0
 40
0.3625000000000068
100
AcDbArc
 50
274.398705355
 51
1.9414863909
  0
ARC
  5
92
330
80
100
AcDbEntity
  8
0
  6
Continuous
 62
   179
370
    18
100
AcDbCircle
 10
81.6051675115
 20
7.5107903456
 30
0.0
 40
0.3625000000000111
100
AcDbArc
 50
181.9414863909
 51
274.398705355
  0
ARC
  5
93
330
80
100
AcDbEntity
  8
0
  6
Continuous
 62
   179
370
    18
100
AcDbCircle
 10
88.825822761
 20
8.0662148274
 30
0.0
 40
0.9999999999999997
100
AcDbArc
 50
274.398705355
 51
2.6541955134
  0
ARC
  5
94
330
80
100
AcDbEntity
  8
0
  6
Continuous
 62
   179
370
    18
100
AcDbCircle
 10
90.1578295581
 20
5.7814576687
 30
0.0
 40
0.3000000000000043
100
AcDbArc
 50
274.6062978507
 51
2.5147526475
  0
ARC
  5
95
330
80
100
AcDbEntity
  8
0
  6
Continuous
 62
   179
370
    18
100
AcDbCircle
 10
88.825822761
 20
8.0662148274
 30
0.0
 40
0.3625000000000083
100
AcDbArc
 50
274.398705355
 51
2.6541955134
  0
ARC
  5
96
330
80
100
AcDbEntity
  8
0
  6
Continuous
 62
   179
370
    18
100
AcDbCircle
 10
88.728529747
 20
10.16496413
 30
0.0
 40
1.000000000000001
100
AcDbArc
 50
2.6541955134
 51
93.1134387481
  0
ARC
  5
97
330
80
100
AcDbEntity
  8
0
  6
Continuous
 62
   179
370
    18
100
AcDbCircle
 10
88.728529747
 20
10.16496413
 30
0.0
 40
0.3625000000000085
100
AcDbArc
 50
2.6541955134
 51
93.1134387481
  0
ARC
  5
98
330
80
100
AcDbEntity
  8
0
  6
Continuous
 62
   179
370
    18
100
AcDbCircle
 10
89.8647121341
 20
12.455515937
 30
0.0
 40
0.2999999999999984
100
AcDbArc
 50
2.5147526475
 51
93.0418421566
  0
ARC
  5
99
330
80
100
AcDbEntity
  8
0
  6
Continuous
 62
   179
370
    18
100
AcDbCircle
 10
90.6583795404
 20
13.4384863935
 30
0.0
 40
0.2999999999999911
100
AcDbArc
 50
3.7249371334
 51
92.6995697565
  0
CIRCLE
  5
9A
330
80
100
AcDbEntity
  8
0
  6
Continuous
 62
   179
370
    18
100
AcDbCircle
 10
15.7233972286
 20
6.4054930194
 30
0.0
 40
1.579500000000014
  0
CIRCLE
  5
9B
330
80
100
AcDbEntity
  8
0
  6
Continuous
 62
   179
370
    18
100
AcDbCircle
 10
15.7233972286
 20
6.4054930194
 30
0.0
 40
2.281499999999994
  0
ARC
  5
9C
330
80
100
AcDbEntity
  8
0
  6
Continuous
 62
   179
370
    18
100
AcDbCircle
 10
89.7681336026
 20
2.3106616691
 30
0.0
 40
0.098384530246548
100
AcDbArc
 50
332.3802627259
 51
4.9765441602
  0
ARC
  5
9D
330
80
100
AcDbEntity
  8
0
  6
Continuous
 62
   179
370
    18
100
AcDbCircle
 10
89.6886560089
 20
2.3522464185
 30
0.0
 40
0.1880839130754018
100
AcDbArc
 50
303.690067526
 51
332.3802627258
  0
ARC
  5
9E
330
80
100
AcDbEntity
  8
0
  6
Continuous
 62
   179
370
    18
100
AcDbCircle
 10
89.4849700869
 20
2.6577753016
 30
0.0
 40
0.5552839311631531
100
AcDbArc
 50
287.108652213
 51
303.690067526
  0
ARC
  5
9F
330
80
100
AcDbEntity
  8
0
  6
Continuous
 62
   179
370
    18
100
AcDbCircle
 10
88.0513010646
 20
7.3154864882
 30
0.0
 40
5.428648309393203
100
AcDbArc
 50
285.2551187031
 51
287.108652213
  0
ARC
  5
A0
330
80
100
AcDbEntity
  8
0
  6
Continuous
 62
   179
370
    18
100
AcDbCircle
 10
89.1317168954
 20
3.3539617753
 30
0.0
 40
1.322436378825653
100
AcDbArc
 50
281.4991866428
 51
285.255118703
  0
ARC
  5
A1
330
80
100
AcDbEntity
  8
0
  6
Continuous
 62
   179
370
    18
100
AcDbCircle
 10
89.3198255509
 20
2.4293110075
 30
0.0
 40
0.3788454141584939
100
AcDbArc
 50
279.1917900003
 51
281.499186643
  0
ARC
  5
A2
330
80
100
AcDbEntity
  8
0
  6
Continuous
 62
   179
370
    18
100
AcDbCircle
 10
89.0487250788
 20
4.1046569124
 30
0.0
 40
2.07598399629105
100
AcDbArc
 50
277.7634675038
 51
279.1917900002
  0
ARC
  5
A3
330
80
100
AcDbEntity
  8
0
  6
Continuous
 62
   179
370
    18
100
AcDbCircle
 10
9.2588909915
 20
6.4054930194
 30
0.0
 40
1.579500000000074
100
AcDbArc
 50
31.0558004991
 51
330.0
  0
ARC
  5
A4
330
80
100
AcDbEntity
  8
0
  6
Continuous
 62
   179
370
    18
100
AcDbCircle
 10
9.2588909915
 20
6.4054930194
 30
0.0
 40
2.281500000000107
100
AcDbArc
 50
30.7309172659
 51
330.0
  0
ARC
  5
A5
330
80
100
AcDbEntity
  8
0
  6
Continuous
 62
   179
370
    18
100
AcDbCircle
 10
6.1288847544
 20
4.0685261312
 30
0.0
 40
4.914000000000307
100
AcDbArc
 50
172.3058370354
 51
179.7113029221
  0
ARC
  5
A6
330
80
100
AcDbEntity
  8
0
  6
Continuous
 62
   179
370
    18
100
AcDbCircle
 10
-0.5401152456
 20
4.0685261312
 30
0.0
 40
4.91400000000019
100
AcDbArc
 50
0.2886970779
 51
7.6941629646
  0
ARC
  5
A7
330
80
100
AcDbEntity
  8
0
  6
Continuous
 62
   179
370
    18
100
AcDbCircle
 10
-0.5401152456
 20
4.0685261312
 30
0.0
 40
5.616000000000127
100
AcDbArc
 50
0.2526096926
 51
53.5764263577
  0
ARC
  5
A8
330
80
100
AcDbEntity
  8
0
  6
Continuous
 62
   179
370
    18
100
AcDbCircle
 10
6.1288847544
 20
4.0685261312
 30
0.0
 40
5.61600000000074
100
AcDbArc
 50
126.4235736423
 51
179.7473903073
  0
ARC
  5
A9
330
80
100
AcDbEntity
  8
0
  6
Continuous
 62
   179
370
    18
100
AcDbCircle
 10
-0.5401152456
 20
4.0685261312
 30
0.0
 40
4.914000000000161
100
AcDbArc
 50
16.0658750272
 51
47.2678899574
  0
ARC
  5
AA
330
80
100
AcDbEntity
  8
0
  6
Continuous
 62
   179
370
    18
100
AcDbCircle
 10
6.1288847544
 20
4.0685261312
 30
0.0
 40
4.914000000000584
100
AcDbArc
 50
132.7321100426
 51
163.9341249728
  0
LINE
  5
AB
330
80
100
AcDbEntity
  8
0
  6
Continuous
 62
   179
370
    18
100
AcDbLine
 10
78.8017089389
 20
2.8885802402
 30
0.0
 11
90.7982178739
 21
3.8455002136
 31
0.0
  0
LINE
  5
AC
330
80
100
AcDbEntity
  8
0
  6
Continuous
 62
   179
370
    18
100
AcDbLine
 10
76.6545490427
 20
5.8693097374
 30
0.0
 11
78.0344191726
 21
3.5235305166
 31
0.0
  0
LINE
  5
AD
330
80
100
AcDbEntity
  8
0
  6
Continuous
 62
   179
370
    18
100
AcDbLine
 10
91.5327615373
 20
4.6257342197
 30
0.0
 11
90.9577457715
 21
13.4579763825
 31
0.0
  0
LINE
  5
AE
330
80
100
AcDbEntity
  8
0
  6
Continuous
 62
   179
370
    18
100
AcDbLine
 10
78.6309362756
 20
12.8788539549
 30
0.0
 11
78.8360757629
 21
3.6475770268
 31
0.0
  0
LINE
  5
AF
330
80
100
AcDbEntity
  8
0
  6
Continuous
 62
   179
370
    18
100
AcDbLine
 10
80.4094186633
 20
4.6950685544
 30
0.0
 11
90.1819221045
 21
5.4824266516
 31
0.0
  0
LINE
  5
B0
330
80
100
AcDbEntity
  8
0
  6
Continuous
 62
   179
370
    18
100
AcDbLine
 10
79.1595373973
 20
3.3551666867
 30
0.0
 11
91.2569309872
 21
4.3071688694
 31
0.0
  0
LINE
  5
B1
330
80
100
AcDbEntity
  8
0
  6
Continuous
 62
   179
370
    18
100
AcDbLine
 10
79.2585043218
 20
2.925017226
 30
0.0
 11
80.4858981444
 21
1.533240302
 31
0.0
  0
LINE
  5
B2
330
80
100
AcDbEntity
  8
0
  6
Continuous
 62
   179
370
    18
100
AcDbLine
 10
78.0344191726
 20
3.5235305166
 30
0.0
 11
78.3638740472
 21
3.1446574108
 31
0.0
  0
LINE
  5
B3
330
80
100
AcDbEntity
  8
0
  6
Continuous
 62
   179
370
    18
100
AcDbLine
 10
78.3638740472
 20
3.1446574108
 30
0.0
 11
78.4680611395
 21
3.0248422547
 31
0.0
  0
LINE
  5
B4
330
80
100
AcDbEntity
  8
0
  6
Continuous
 62
   179
370
    18
100
AcDbLine
 10
81.3414110113
 20
1.2002475785
 30
0.0
 11
89.3291569519
 21
2.0477010263
 31
0.0
  0
LINE
  5
B5
330
80
100
AcDbEntity
  8
0
  6
Continuous
 62
   179
370
    18
100
AcDbLine
 10
89.8661472522
 20
2.5197759309
 30
0.0
 11
89.8661472522
 21
2.3090867337
 31
0.0
  0
LINE
  5
B6
330
80
100
AcDbEntity
  8
0
  6
Continuous
 62
   179
370
    18
100
AcDbLine
 10
88.676842368
 20
3.6762854359
 30
0.0
 11
89.6713239345
 21
2.7875997807
 31
0.0
  0
LINE
  5
B7
330
80
100
AcDbEntity
  8
0
  6
Continuous
 62
   179
370
    18
100
AcDbLine
 10
89.6713239345
 20
2.7875997807
 30
0.0
 11
89.7459749087
 21
2.7242700694
 31
0.0
  0
LINE
  5
B8
330
80
100
AcDbEntity
  8
0
  6
Continuous
 62
   179
370
    18
100
AcDbLine
 10
90.7982178739
 20
3.8455002136
 30
0.0
 11
91.3961615969
 21
4.3514525945
 31
0.0
  0
LINE
  5
B9
330
80
100
AcDbEntity
  8
0
  6
Continuous
 62
   179
370
    18
100
AcDbLine
 10
90.6442498554
 20
13.7381534621
 30
0.0
 11
78.1502930503
 21
13.1490474438
 31
0.0
  0
LINE
  5
BA
330
80
100
AcDbEntity
  8
0
  6
Continuous
 62
   179
370
    18
100
AcDbLine
 10
80.1347709981
 20
12.2388892068
 30
0.0
 11
89.8487925667
 21
12.7550932515
 31
0.0
  0
LINE
  5
BB
330
80
100
AcDbEntity
  8
0
  6
Continuous
 62
   179
370
    18
100
AcDbLine
 10
76.4935641943
 20
11.7567556248
 30
0.0
 11
76.6545490427
 21
5.8693097374
 31
0.0
  0
LINE
  5
BC
330
80
100
AcDbEntity
  8
0
  6
Continuous
 62
   179
370
    18
100
AcDbLine
 10
79.8508616208
 20
11.929182536
 30
0.0
 11
80.0854971721
 21
4.9839702153
 31
0.0
  0
LINE
  5
BD
330
80
100
AcDbEntity
  8
0
  6
Continuous
 62
   179
370
    18
100
AcDbLine
 10
80.5293311574
 20
9.7310185051
 30
0.0
 11
80.6057415643
 21
7.4769115
 31
0.0
  0
LINE
  5
BE
330
80
100
AcDbEntity
  8
0
  6
Continuous
 62
   179
370
    18
100
AcDbLine
 10
77.507650604
 20
12.7708420346
 30
0.0
 11
76.4935641943
 21
11.7567556248
 31
0.0
  0
LINE
  5
BF
330
80
100
AcDbEntity
  8
0
  6
Continuous
 62
   179
370
    18
100
AcDbLine
 10
86.8848195129
 20
11.0661568594
 30
0.0
 11
88.6742167283
 21
11.1634880887
 31
0.0
  0
LINE
  5
C0
330
80
100
AcDbEntity
  8
0
  6
Continuous
 62
   179
370
    18
100
AcDbLine
 10
87.0766213517
 20
6.9287171941
 30
0.0
 11
88.90708891
 21
7.0695223909
 31
0.0
  0
LINE
  5
C1
330
80
100
AcDbEntity
  8
0
  6
Continuous
 62
   179
370
    18
100
AcDbLine
 10
87.6830038473
 20
7.6147347768
 30
0.0
 11
88.8536252418
 21
7.7047825764
 31
0.0
  0
LINE
  5
C2
330
80
100
AcDbEntity
  8
0
  6
Continuous
 62
   179
370
    18
100
AcDbLine
 10
87.5509212094
 20
10.4639459651
 30
0.0
 11
88.7088412777
 21
10.5269290651
 31
0.0
  0
LINE
  5
C3
330
80
100
AcDbEntity
  8
0
  6
Continuous
 62
   179
370
    18
100
AcDbLine
 10
87.0766218384
 20
6.9287066941
 30
0.0
 11
86.8848195129
 21
11.0661568594
 31
0.0
  0
LINE
  5
C4
330
80
100
AcDbEntity
  8
0
  6
Continuous
 62
   179
370
    18
100
AcDbLine
 10
83.7004598825
 20
6.6667911093
 30
0.0
 11
84.5054929504
 21
10.9267193262
 31
0.0
  0
LINE
  5
C5
330
80
100
AcDbEntity
  8
0
  6
Continuous
 62
   179
370
    18
100
AcDbLine
 10
85.3543248406
 20
10.9728900984
 30
0.0
 11
86.4940946704
 21
6.8816860929
 31
0.0
  0
LINE
  5
C6
330
80
100
AcDbEntity
  8
0
  6
Continuous
 62
   179
370
    18
100
AcDbLine
 10
84.9728575427
 20
9.9667192298
 30
0.0
 11
85.4540299774
 21
8.2395506903
 31
0.0
  0
LINE
  5
C7
330
80
100
AcDbEntity
  8
0
  6
Continuous
 62
   179
370
    18
100
AcDbLine
 10
84.6363094629
 20
8.1858350416
 30
0.0
 11
84.9728575427
 21
9.9667192298
 31
0.0
  0
LINE
  5
C8
330
80
100
AcDbEntity
  8
0
  6
Continuous
 62
   179
370
    18
100
AcDbLine
 10
87.6830038473
 20
7.6147347768
 30
0.0
 11
87.5509212094
 21
10.4639459651
 31
0.0
  0
LINE
  5
C9
330
80
100
AcDbEntity
  8
0
  6
Continuous
 62
   179
370
    18
100
AcDbLine
 10
84.6363094629
 20
8.1858350416
 30
0.0
 11
85.4540299774
 21
8.2395506903
 31
0.0
  0
LINE
  5
CA
330
80
100
AcDbEntity
  8
0
  6
Continuous
 62
   179
370
    18
100
AcDbLine
 10
84.5140586807
 20
7.5389304886
 30
0.0
 11
85.6288154243
 21
7.6121582976
 31
0.0
  0
LINE
  5
CB
330
80
100
AcDbEntity
  8
0
  6
Continuous
 62
   179
370
    18
100
AcDbLine
 10
84.3588137958
 20
6.717433718
 30
0.0
 11
84.5140586807
 21
7.5389304886
 31
0.0
  0
LINE
  5
CC
330
80
100
AcDbEntity
  8
0
  6
Continuous
 62
   179
370
    18
100
AcDbLine
 10
81.6818640104
 20
6.5137358601
 30
0.0
 11
82.4802416972
 21
6.5751495283
 31
0.0
  0
LINE
  5
CD
330
80
100
AcDbEntity
  8
0
  6
Continuous
 62
   179
370
    18
100
AcDbLine
 10
81.6329699923
 20
7.1493580946
 30
0.0
 11
82.4313476791
 21
7.2107717628
 31
0.0
  0
LINE
  5
CE
330
80
100
AcDbEntity
  8
0
  6
Continuous
 62
   179
370
    18
100
AcDbLine
 10
83.7004598825
 20
6.6667911093
 30
0.0
 11
84.3588137958
 21
6.717433718
 31
0.0
  0
LINE
  5
CF
330
80
100
AcDbEntity
  8
0
  6
Continuous
 62
   179
370
    18
100
AcDbLine
 10
82.7059483815
 20
9.3512024135
 30
0.0
 11
83.3423973297
 21
9.3930104243
 31
0.0
  0
LINE
  5
D0
330
80
100
AcDbEntity
  8
0
  6
Continuous
 62
   179
370
    18
100
AcDbLine
 10
82.7491656358
 20
8.0762934118
 30
0.0
 11
83.385614584
 21
8.1181014226
 31
0.0
  0
LINE
  5
D1
330
80
100
AcDbEntity
  8
0
  6
Continuous
 62
   179
370
    18
100
AcDbLine
 10
81.1664651987
 20
9.7526162692
 30
0.0
 11
81.2428756056
 21
7.4985092641
 31
0.0
  0
LINE
  5
D2
330
80
100
AcDbEntity
  8
0
  6
Continuous
 62
   179
370
    18
100
AcDbLine
 10
82.6900353128
 20
9.8206379383
 30
0.0
 11
82.7052632884
 21
9.3714126602
 31
0.0
  0
LINE
  5
D3
330
80
100
AcDbEntity
  8
0
  6
Continuous
 62
   179
370
    18
100
AcDbLine
 10
82.7491656358
 20
8.0762934118
 30
0.0
 11
82.7658371041
 21
7.5844850954
 31
0.0
  0
LINE
  5
D4
330
80
100
AcDbEntity
  8
0
  6
Continuous
 62
   179
370
    18
100
AcDbLine
 10
83.3271693541
 20
9.8422357024
 30
0.0
 11
83.3423973297
 21
9.3930104243
 31
0.0
  0
LINE
  5
D5
330
80
100
AcDbEntity
  8
0
  6
Continuous
 62
   179
370
    18
100
AcDbLine
 10
83.385614584
 20
8.1181014226
 30
0.0
 11
83.4029711454
 21
7.6060828595
 31
0.0
  0
LINE
  5
D6
330
80
100
AcDbEntity
  8
0
  6
Continuous
 62
   179
370
    18
100
AcDbLine
 10
85.6288154243
 20
7.6121582976
 30
0.0
 11
85.8462022593
 21
6.8318482152
 31
0.0
  0
LINE
  5
D7
330
80
100
AcDbEntity
  8
0
  6
Continuous
 62
   179
370
    18
100
AcDbLine
 10
85.8462022593
 20
6.8318482152
 30
0.0
 11
86.4940946704
 21
6.8816860929
 31
0.0
  0
LINE
  5
D8
330
80
100
AcDbEntity
  8
0
  6
Continuous
 62
   179
370
    18
100
AcDbLine
 10
84.5054929504
 20
10.9267193262
 30
0.0
 11
85.3543248406
 21
10.9728900984
 31
0.0
  0
LINE
  5
D9
330
80
100
AcDbEntity
  8
0
  6
Continuous
 62
   179
370
    18
100
AcDbLine
 10
81.4744440858
 20
10.7634213094
 30
0.0
 11
82.2734303883
 21
10.8068808154
 31
0.0
  0
LINE
  5
DA
330
80
100
AcDbEntity
  8
0
  6
Continuous
 62
   179
370
    18
100
AcDbLine
 10
81.5090686352
 20
10.1268622858
 30
0.0
 11
82.3080549377
 21
10.1703217918
 31
0.0
  0
LINE
  5
DB
330
80
100
AcDbEntity
  8
0
  6
Continuous
 62
   179
370
    18
100
AcDbLine
 10
90.4575406452
 20
5.7946206556
 30
0.0
 11
90.1644232213
 21
12.4686789239
 31
0.0
  0
LINE
  5
DC
330
80
100
AcDbEntity
  8
0
  6
Continuous
 62
   179
370
    18
100
AcDbLine
 10
89.8247499755
 20
8.1125227115
 30
0.0
 11
89.7274569615
 21
10.2112720142
 31
0.0
  0
LINE
  5
DD
330
80
100
AcDbEntity
  8
0
  6
Continuous
 62
   179
370
    18
100
AcDbLine
 10
89.1879338763
 20
8.0830014354
 30
0.0
 11
89.0906408622
 21
10.181750738
 31
0.0
  0
LINE
  5
DE
330
80
100
AcDbEntity
  8
0
  6
Continuous
 62
   179
370
    18
100
AcDbLine
 10
89.7459749087
 20
2.7242700694
 30
0.0
 11
89.7974962577
 21
2.6659765769
 31
0.0
  0
LINE
  5
DF
330
80
100
AcDbEntity
  8
0
  6
Continuous
 62
   179
370
    18
100
AcDbLine
 10
89.7974962577
 20
2.6659765769
 30
0.0
 11
89.8351851379
 21
2.60192886
 31
0.0
  0
LINE
  5
E0
330
80
100
AcDbEntity
  8
0
  6
Continuous
 62
   179
370
    18
100
AcDbLine
 10
89.8351851379
 20
2.60192886
 30
0.0
 11
89.8661472522
 21
2.5197759309
 31
0.0
  0
LINE
  5
E1
330
80
100
AcDbEntity
  8
0
  6
Continuous
 62
   179
370
    18
100
AcDbLine
 10
10.6119938288
 20
7.2203138351
 30
0.0
 11
11.2200151261
 21
7.5713550947
 31
0.0
  0
LINE
  5
E2
330
80
100
AcDbEntity
  8
0
  6
Continuous
 62
   179
370
    18
100
AcDbLine
 10
11.2347279503
 20
5.2647430194
 30
0.0
 11
10.6267781168
 21
5.6157430194
 31
0.0
  0
LINE
  5
E3
330
80
100
AcDbEntity
  8
0
  6
Continuous
 62
   179
370
    18
100
AcDbLine
 10
6.4645062371
 20
16.1712617198
 30
0.0
 11
6.4645062371
 21
2.9364593988
 31
0.0
  0
LINE
  5
E4
330
80
100
AcDbEntity
  8
0
  6
Continuous
 62
   179
370
    18
100
AcDbLine
 10
6.4645062371
 20
2.9364593988
 30
0.0
 11
12.0532757459
 21
2.9364593988
 31
0.0
  0
LINE
  5
E5
330
80
100
AcDbEntity
  8
0
  6
Continuous
 62
   179
370
    18
100
AcDbLine
 10
12.0532757459
 20
2.9364593988
 30
0.0
 11
12.0532757459
 21
16.1712617198
 31
0.0
  0
LINE
  5
E6
330
80
100
AcDbEntity
  8
0
  6
Continuous
 62
   179
370
    18
100
AcDbLine
 10
12.0532757459
 20
16.1712617198
 30
0.0
 11
6.4645062371
 21
16.1712617198
 31
0.0
  0
LINE
  5
E7
330
80
100
AcDbEntity
  8
0
  6
Continuous
 62
   179
370
    18
100
AcDbLine
 10
0.0
 20
16.1712617198
 30
0.0
 11
0.0
 21
2.9364593988
 31
0.0
  0
LINE
  5
E8
330
80
100
AcDbEntity
  8
0
  6
Continuous
 62
   179
370
    18
100
AcDbLine
 10
0.0
 20
2.9364593988
 30
0.0
 11
5.5887695089
 21
2.9364593988
 31
0.0
  0
LINE
  5
E9
330
80
100
AcDbEntity
  8
0
  6
Continuous
 62
   179
370
    18
100
AcDbLine
 10
5.5887695089
 20
2.9364593988
 30
0.0
 11
5.5887695089
 21
16.1712617198
 31
0.0
  0
LINE
  5
EA
330
80
100
AcDbEntity
  8
0
  6
Continuous
 62
   179
370
    18
100
AcDbLine
 10
5.5887695089
 20
16.1712617198
 30
0.0
 11
0.0
 21
16.1712617198
 31
0.0
  0
LINE
  5
EB
330
80
100
AcDbEntity
  8
0
  6
Continuous
 62
   179
370
    18
100
AcDbLine
 10
1.2591262606
 20
4.7264381407
 30
0.0
 11
4.3296432482
 21
4.7264381407
 31
0.0
  0
LINE
  5
EC
330
80
100
AcDbEntity
  8
0
  6
Continuous
 62
   179
370
    18
100
AcDbLine
 10
4.3738223747
 20
4.0932862697
 30
0.0
 11
5.0758301722
 21
4.0932862697
 31
0.0
  0
LINE
  5
ED
330
80
100
AcDbEntity
  8
0
  6
Continuous
 62
   179
370
    18
100
AcDbLine
 10
0.5129393366
 20
4.0932862697
 30
0.0
 11
1.2149471342
 21
4.0932862697
 31
0.0
  0
LINE
  5
EE
330
80
100
AcDbEntity
  8
0
  6
Continuous
 62
   179
370
    18
100
AcDbLine
 10
4.1819643097
 20
5.4284381407
 30
0.0
 11
1.4068051992
 21
5.4284381407
 31
0.0
  0
LINE
  5
EF
330
80
100
AcDbEntity
  8
0
  6
Continuous
 62
   179
370
    18
100
AcDbLine
 10
18.517781983
 20
16.1712617198
 30
0.0
 11
18.517781983
 21
2.9364593988
 31
0.0
  0
LINE
  5
F0
330
80
100
AcDbEntity
  8
0
  6
Continuous
 62
   179
370
    18
100
AcDbLine
 10
18.517781983
 20
2.9364593988
 30
0.0
 11
12.9290124742
 21
2.9364593988
 31
0.0
  0
LINE
  5
F1
330
80
100
AcDbEntity
  8
0
  6
Continuous
 62
   179
370
    18
100
AcDbLine
 10
12.9290124742
 20
2.9364593988
 30
0.0
 11
12.9290124742
 21
16.1712617198
 31
0.0
  0
LINE
  5
F2
330
80
100
AcDbEntity
  8
0
  6
Continuous
 62
   179
370
    18
100
AcDbLine
 10
12.9290124742
 20
16.1712617198
 30
0.0
 11
18.517781983
 21
16.1712617198
 31
0.0
  0
MTEXT
  5
F4
330
80
100
AcDbEntity
  8
0
  6
Continuous
 62
     7
370
     0
100
AcDbMText
 10
9.3686441161
 20
2.2554789353
 30
0.0
 40
2.0
 41
0.0
 71
     2
 72
     1
  1
www.aco.ch
  7
SLDTEXTSTYLE0
 73
     1
 44
1.0
  0
MTEXT
  5
F5
330
80
100
AcDbEntity
  8
0
  6
Continuous
 62
     7
370
     0
100
AcDbMText
 10
46.980584205
 20
16.6131199634
 30
0.0
 40
3.0
 41
0.0
 71
     2
 72
     1
  1
ACO Passavant AG
  7
SLDTEXTSTYLE0
 73
     1
 44
1.0
  0
INSERT
  5
FE
330
80
100
AcDbEntity
  8
0
  6
Continuous
 62
     7
370
     0
100
AcDbBlockReference
  2
SW_NOTE_0
 10
28.8863479825
 20
8.6365742194
 30
0.0
  0
ENDBLK
  5
82
330
80
100
AcDbEntity
  8
0
100
AcDbBlockEnd
  0
BLOCK
  5
F7
330
F6
100
AcDbEntity
  8
0
100
AcDbBlockBegin
  2
SW_NOTE_0
 70
     0
 10
0.0
 20
0.0
 30
0.0
  3
SW_NOTE_0
  1

  0
MTEXT
  5
F9
330
F6
100
AcDbEntity
  8
0
  6
Continuous
 62
     0
370
     0
100
AcDbMText
 10
0.0
 20
2.5781354795
 30
0.0
 40
2.0
 41
0.0
 71
     1
 72
     1
  1
Industrie Kleinzaun
  7
SLDTEXTSTYLE0
 73
     1
 44
1.0
  0
MTEXT
  5
FA
330
F6
100
AcDbEntity
  8
0
  6
Continuous
 62
     0
370
     0
100
AcDbMText
 10
0.0
 20
-0.4218645465
 30
0.0
 40
2.0
 41
0.0
 71
     1
 72
     1
  1
CH-8754 Netstal
  7
SLDTEXTSTYLE0
 73
     1
 44
1.0
  0
MTEXT
  5
FC
330
F6
100
AcDbEntity
  8
0
  6
Continuous
 62
     0
370
     0
100
AcDbMText
 10
0.0
 20
-3.4218645726
 30
0.0
 40
2.0
 41
0.0
 71
     1
 72
     1
  1
Tel. 055 / 645 53 00  -  Fax 055 / 645 53 10
  7
SLDTEXTSTYLE1
 73
     1
 44
1.0
  0
MTEXT
  5
FD
330
F6
100
AcDbEntity
  8
0
  6
Continuous
 62
     0
370
     0
100
AcDbMText
 10
0.0
 20
-6.4218645987
 30
0.0
 40
2.0
 41
0.0
 71
     1
 72
     1
  1
E-Mail: aco@aco.ch
  7
SLDTEXTSTYLE0
 73
     1
 44
1.0
  0
ENDBLK
  5
F8
330
F6
100
AcDbEntity
  8
0
100
AcDbBlockEnd
  0
BLOCK
  5
157
330
156
100
AcDbEntity
  8
0
100
AcDbBlockBegin
  2
SW_NOTE_1
 70
     0
 10
0.0
 20
0.0
 30
0.0
  3
SW_NOTE_1
  1

  0
MTEXT
  5
159
330
156
100
AcDbEntity
  8
SLD-0
 62
     0
100
AcDbMText
 10
0.0
 20
4.5117370892
 30
0.0
 40
3.5
 41
0.0
 71
     1
 72
     1
  1
- mit verzinketer Stahlzarge
  7
SLDTEXTSTYLE2
 73
     1
 44
1.0
  0
MTEXT
  5
15A
330
156
100
AcDbEntity
  8
SLD-0
 62
     0
100
AcDbMText
 10
0.0
 20
-0.0139574413
 30
0.0
 40
3.5
 41
0.0
 71
     1
 72
     1
  1
- Allgemeintoleranzen ISO 2768-m
  7
SLDTEXTSTYLE2
 73
     1
 44
1.0
  0
ENDBLK
  5
158
330
156
100
AcDbEntity
  8
0
100
AcDbBlockEnd
  0
BLOCK
  5
181
330
180
100
AcDbEntity
  8
0
100
AcDbBlockBegin
  2
SW_NOTE_2
 70
     0
 10
0.0
 20
0.0
 30
0.0
  3
SW_NOTE_2
  1

  0
MTEXT
  5
183
330
180
100
AcDbEntity
  8
0
  6
Continuous
 62
     0
370
     0
100
AcDbMText
 10
0.0
 20
1.9336016097
 30
0.0
 40
1.5
 41
0.0
 71
     1
 72
     1
  1
Diese Zeichnung darf weder kopiert
  7
SLDTEXTSTYLE0
 73
     1
 44
1.0
  0
MTEXT
  5
184
330
180
100
AcDbEntity
  8
0
  6
Continuous
 62
     0
370
     0
100
AcDbMText
 10
0.0
 20
-0.5663983345
 30
0.0
 40
1.5
 41
0.0
 71
     1
 72
     1
  1
noch dritten Personen, insbesondere
  7
SLDTEXTSTYLE0
 73
     1
 44
1.0
  0
MTEXT
  5
185
330
180
100
AcDbEntity
  8
0
  6
Continuous
 62
     0
370
     0
100
AcDbMText
 10
0.0
 20
-3.0663982786
 30
0.0
 40
1.5
 41
0.0
 71
     1
 72
     1
  1
zum Zweck anderweitiger Benutzung
  7
SLDTEXTSTYLE0
 73
     1
 44
1.0
  0
MTEXT
  5
186
330
180
100
AcDbEntity
  8
0
  6
Continuous
 62
     0
370
     0
100
AcDbMText
 10
0.0
 20
-5.5663982227
 30
0.0
 40
1.5
 41
0.0
 71
     1
 72
     1
  1
mitgeteilt werden und bleibt unser
  7
SLDTEXTSTYLE0
 73
     1
 44
1.0
  0
MTEXT
  5
187
330
180
100
AcDbEntity
  8
0
  6
Continuous
 62
     0
370
     0
100
AcDbMText
 10
0.0
 20
-8.0663981668
 30
0.0
 40
1.5
 41
0.0
 71
     1
 72
     1
  1
Eigentum.
  7
SLDTEXTSTYLE0
 73
     1
 44
1.0
  0
ENDBLK
  5
182
330
180
100
AcDbEntity
  8
0
100
AcDbBlockEnd
  0
BLOCK
  5
245
330
244
100
AcDbEntity
  8
0
100
AcDbBlockBegin
  2
_D
 70
     0
 10
0.0
 20
0.0
 30
0.0
  3
_D
  1

  0
SOLID
  5
247
330
244
100
AcDbEntity
  8
SLD-0
100
AcDbTrace
 10
55.5237186687
 20
246.0524781625
 30
0.0
 11
58.8257186687
 21
245.5444781625
 31
0.0
 12
58.8257186687
 22
246.5604781625
 32
0.0
 13
58.8257186687
 23
246.5604781625
 33
0.0
  0
SOLID
  5
248
330
244
100
AcDbEntity
  8
SLD-0
100
AcDbTrace
 10
190.5237186687
 20
246.0524781625
 30
0.0
 11
187.2217186687
 21
246.5604781625
 31
0.0
 12
187.2217186687
 22
245.5444781625
 32
0.0
 13
187.2217186687
 23
245.5444781625
 33
0.0
  0
LINE
  5
249
330
244
100
AcDbEntity
  8
SLD-0
100
AcDbLine
 10
55.5237186687
 20
225.3062488193
 30
0.0
 11
55.5237186687
 21
247.0524781625
 31
0.0
  0
LINE
  5
24A
330
244
100
AcDbEntity
  8
SLD-0
100
AcDbLine
 10
190.5237186687
 20
225.3062488193
 30
0.0
 11
190.5237186687
 21
247.0524781625
 31
0.0
  0
LINE
  5
24B
330
244
100
AcDbEntity
  8
SLD-0
100
AcDbLine
 10
55.5237186687
 20
246.0524781625
 30
0.0
 11
190.5237186687
 21
246.0524781625
 31
0.0
  0
MTEXT
  5
24C
330
244
100
AcDbEntity
  8
SLD-0
100
AcDbMText
 10
119.1445519948
 20
250.5642150771
 30
0.0
 40
3.5
 41
0.0
 71
     1
 72
     1
  1
135
  7
SLDTEXTSTYLE2
 73
     1
 44
1.0
  0
ENDBLK
  5
246
330
244
100
AcDbEntity
  8
0
100
AcDbBlockEnd
  0
BLOCK
  5
24F
330
24E
100
AcDbEntity
  8
0
100
AcDbBlockBegin
  2
_D_1
 70
     0
 10
0.0
 20
0.0
 30
0.0
  3
_D_1
  1

  0
SOLID
  5
251
330
24E
100
AcDbEntity
  8
SLD-0
100
AcDbTrace
 10
59.7737186687
 20
236.3804064213
 30
0.0
 11
63.0757186687
 21
235.8724064213
 31
0.0
 12
63.0757186687
 22
236.8884064213
 32
0.0
 13
63.0757186687
 23
236.8884064213
 33
0.0
  0
SOLID
  5
252
330
24E
100
AcDbEntity
  8
SLD-0
100
AcDbTrace
 10
186.2737186687
 20
236.3804064213
 30
0.0
 11
182.9717186687
 21
236.8884064213
 31
0.0
 12
182.9717186687
 22
235.8724064213
 32
0.0
 13
182.9717186687
 23
235.8724064213
 33
0.0
  0
LINE
  5
253
330
24E
100
AcDbEntity
  8
SLD-0
100
AcDbLine
 10
59.7737186687
 20
225.3804064213
 30
0.0
 11
59.7737186687
 21
237.3804064213
 31
0.0
  0
LINE
  5
254
330
24E
100
AcDbEntity
  8
SLD-0
100
AcDbLine
 10
186.2737186687
 20
225.3804064213
 30
0.0
 11
186.2737186687
 21
237.3804064213
 31
0.0
  0
LINE
  5
255
330
24E
100
AcDbEntity
  8
SLD-0
100
AcDbLine
 10
59.7737186687
 20
236.3804064213
 30
0.0
 11
186.2737186687
 21
236.3804064213
 31
0.0
  0
MTEXT
  5
256
330
24E
100
AcDbEntity
  8
SLD-0
100
AcDbMText
 10
119.1445519948
 20
240.8921433358
 30
0.0
 40
3.5
 41
0.0
 71
     1
 72
     1
  1
127
  7
SLDTEXTSTYLE2
 73
     1
 44
1.0
  0
ENDBLK
  5
250
330
24E
100
AcDbEntity
  8
0
100
AcDbBlockEnd
  0
BLOCK
  5
259
330
258
100
AcDbEntity
  8
0
100
AcDbBlockBegin
  2
_D_2
 70
     0
 10
0.0
 20
0.0
 30
0.0
  3
_D_2
  1

  0
SOLID
  5
25B
330
258
100
AcDbEntity
  8
SLD-0
100
AcDbTrace
 10
73.0237186687
 20
226.3452112657
 30
0.0
 11
76.3257186687
 21
225.8372112657
 31
0.0
 12
76.3257186687
 22
226.8532112657
 32
0.0
 13
76.3257186687
 23
226.8532112657
 33
0.0
  0
SOLID
  5
25C
330
258
100
AcDbEntity
  8
SLD-0
100
AcDbTrace
 10
173.0237186687
 20
226.3452112657
 30
0.0
 11
169.7217186687
 21
226.8532112657
 31
0.0
 12
169.7217186687
 22
225.8372112657
 32
0.0
 13
169.7217186687
 23
225.8372112657
 33
0.0
  0
LINE
  5
25D
330
258
100
AcDbEntity
  8
SLD-0
100
AcDbLine
 10
73.0237186687
 20
191.9932188251
 30
0.0
 11
73.0237186687
 21
227.3452112657
 31
0.0
  0
LINE
  5
25E
330
258
100
AcDbEntity
  8
SLD-0
100
AcDbLine
 10
173.0237186687
 20
191.9932188251
 30
0.0
 11
173.0237186687
 21
227.3452112657
 31
0.0
  0
LINE
  5
25F
330
258
100
AcDbEntity
  8
SLD-0
100
AcDbLine
 10
73.0237186687
 20
226.3452112657
 30
0.0
 11
173.0237186687
 21
226.3452112657
 31
0.0
  0
MTEXT
  5
260
330
258
100
AcDbEntity
  8
SLD-0
100
AcDbMText
 10
119.1445519948
 20
230.8569481803
 30
0.0
 40
3.5
 41
0.0
 71
     1
 72
     1
  1
100
  7
SLDTEXTSTYLE2
 73
     1
 44
1.0
  0
ENDBLK
  5
25A
330
258
100
AcDbEntity
  8
0
100
AcDbBlockEnd
  0
BLOCK
  5
264
330
263
100
AcDbEntity
  8
0
100
AcDbBlockBegin
  2
_D_3
 70
     0
 10
0.0
 20
0.0
 30
0.0
  3
_D_3
  1

  0
SOLID
  5
266
330
263
100
AcDbEntity
  8
SLD-0
100
AcDbTrace
 10
49.9136782974
 20
205.8804064213
 30
0.0
 11
50.4216782974
 21
209.1824064213
 31
0.0
 12
49.4056782974
 22
209.1824064213
 32
0.0
 13
49.4056782974
 23
209.1824064213
 33
0.0
  0
SOLID
  5
267
330
263
100
AcDbEntity
  8
SLD-0
100
AcDbTrace
 10
49.9136782974
 20
226.3804064213
 30
0.0
 11
49.4056782974
 21
223.0784064213
 31
0.0
 12
50.4216782974
 22
223.0784064213
 32
0.0
 13
50.4216782974
 23
223.0784064213
 33
0.0
  0
LINE
  5
268
330
263
100
AcDbEntity
  8
SLD-0
100
AcDbLine
 10
60.2737186687
 20
205.8804064213
 30
0.0
 11
48.9136782974
 21
205.8804064213
 31
0.0
  0
LINE
  5
269
330
263
100
AcDbEntity
  8
SLD-0
100
AcDbLine
 10
56.7737186687
 20
226.3804064213
 30
0.0
 11
48.9136782974
 21
226.3804064213
 31
0.0
  0
LINE
  5
26A
330
263
100
AcDbEntity
  8
SLD-0
100
AcDbLine
 10
49.9136782974
 20
205.8804064213
 30
0.0
 11
49.9136782974
 21
226.3804064213
 31
0.0
  0
MTEXT
  5
26B
330
263
100
AcDbEntity
  8
SLD-0
100
AcDbMText
 10
45.4019413828
 20
213.5442952277
 30
0.0
 40
3.5
 41
0.0
 71
     1
 72
     1
  1
21
  7
SLDTEXTSTYLE2
 11
6.123233995736766E-17
 21
1.0
 31
0.0
 73
     1
 44
1.0
  0
ENDBLK
  5
265
330
263
100
AcDbEntity
  8
0
100
AcDbBlockEnd
  0
BLOCK
  5
26E
330
26D
100
AcDbEntity
  8
0
100
AcDbBlockBegin
  2
_D_4
 70
     0
 10
0.0
 20
0.0
 30
0.0
  3
_D_4
  1

  0
ARC
  5
270
330
26D
100
AcDbEntity
  8
SLD-0
100
AcDbCircle
 10
36.7455936731
 20
199.3510451606
 30
0.0
 40
6.2120763399956
100
AcDbArc
 50
243.4349488229
 51
296.5650511771
  0
ARC
  5
271
330
26D
100
AcDbEntity
  8
SLD-0
100
AcDbCircle
 10
36.7455936731
 20
193.4107675655
 30
0.0
 40
6.2120763399956
100
AcDbArc
 50
63.4349488229
 51
116.5650511771
  0
SOLID
  5
272
330
26D
100
AcDbEntity
  8
SLD-0
100
AcDbTrace
 10
39.5237186687
 20
166.3814064213
 30
0.0
 11
40.0317186687
 21
169.6834064213
 31
0.0
 12
39.0157186687
 22
169.6834064213
 32
0.0
 13
39.0157186687
 23
169.6834064213
 33
0.0
  0
SOLID
  5
273
330
26D
100
AcDbEntity
  8
SLD-0
100
AcDbTrace
 10
39.5237186687
 20
226.3804064213
 30
0.0
 11
39.0157186687
 21
223.0784064213
 31
0.0
 12
40.0317186687
 22
223.0784064213
 32
0.0
 13
40.0317186687
 23
223.0784064213
 33
0.0
  0
LINE
  5
274
330
26D
100
AcDbEntity
  8
SLD-0
100
AcDbLine
 10
74.0237186687
 20
166.3814064213
 30
0.0
 11
38.5237186687
 21
166.3814064213
 31
0.0
  0
LINE
  5
275
330
26D
100
AcDbEntity
  8
SLD-0
100
AcDbLine
 10
56.5978762707
 20
226.3804064213
 30
0.0
 11
38.5237186687
 21
226.3804064213
 31
0.0
  0
LINE
  5
276
330
26D
100
AcDbEntity
  8
SLD-0
100
AcDbLine
 10
39.5237186687
 20
166.3814064213
 30
0.0
 11
39.5237186687
 21
226.3804064213
 31
0.0
  0
MTEXT
  5
277
330
26D
100
AcDbEntity
  8
SLD-0
100
AcDbMText
 10
35.0119817541
 20
193.7947951695
 30
0.0
 40
3.5
 41
0.0
 71
     1
 72
     1
  1
60
  7
SLDTEXTSTYLE2
 11
6.123233995736766E-17
 21
1.0
 31
0.0
 73
     1
 44
1.0
  0
ENDBLK
  5
26F
330
26D
100
AcDbEntity
  8
0
100
AcDbBlockEnd
  0
BLOCK
  5
27A
330
279
100
AcDbEntity
  8
0
100
AcDbBlockBegin
  2
_D_5
 70
     0
 10
0.0
 20
0.0
 30
0.0
  3
_D_5
  1

  0
ARC
  5
27C
330
279
100
AcDbEntity
  8
SLD-0
100
AcDbCircle
 10
27.7283737436
 20
189.3510451606
 30
0.0
 40
6.2120763399956
100
AcDbArc
 50
243.4349488229
 51
296.5650511771
  0
ARC
  5
27D
330
279
100
AcDbEntity
  8
SLD-0
100
AcDbCircle
 10
27.7283737436
 20
183.4107675655
 30
0.0
 40
6.2120763399956
100
AcDbArc
 50
63.4349488229
 51
116.5650511771
  0
SOLID
  5
27E
330
279
100
AcDbEntity
  8
SLD-0
100
AcDbTrace
 10
30.5064987392
 20
146.3814064213
 30
0.0
 11
31.0144987392
 21
149.6834064213
 31
0.0
 12
29.9984987392
 22
149.6834064213
 32
0.0
 13
29.9984987392
 23
149.6834064213
 33
0.0
  0
SOLID
  5
27F
330
279
100
AcDbEntity
  8
SLD-0
100
AcDbTrace
 10
30.5064987392
 20
226.3804064213
 30
0.0
 11
29.9984987392
 21
223.0784064213
 31
0.0
 12
31.0144987392
 22
223.0784064213
 32
0.0
 13
31.0144987392
 23
223.0784064213
 33
0.0
  0
LINE
  5
280
330
279
100
AcDbEntity
  8
SLD-0
100
AcDbLine
 10
54.5237186687
 20
146.3814064213
 30
0.0
 11
29.5064987392
 21
146.3814064213
 31
0.0
  0
LINE
  5
281
330
279
100
AcDbEntity
  8
SLD-0
100
AcDbLine
 10
56.5978762707
 20
226.3804064213
 30
0.0
 11
29.5064987392
 21
226.3804064213
 31
0.0
  0
LINE
  5
282
330
279
100
AcDbEntity
  8
SLD-0
100
AcDbLine
 10
30.5064987392
 20
146.3814064213
 30
0.0
 11
30.5064987392
 21
226.3804064213
 31
0.0
  0
MTEXT
  5
283
330
279
100
AcDbEntity
  8
SLD-0
100
AcDbMText
 10
25.9947618246
 20
183.7947951695
 30
0.0
 40
3.5
 41
0.0
 71
     1
 72
     1
  1
80
  7
SLDTEXTSTYLE2
 11
6.123233995736766E-17
 21
1.0
 31
0.0
 73
     1
 44
1.0
  0
ENDBLK
  5
27B
330
279
100
AcDbEntity
  8
0
100
AcDbBlockEnd
  0
BLOCK
  5
286
330
285
100
AcDbEntity
  8
0
100
AcDbBlockBegin
  2
_D_6
 70
     0
 10
0.0
 20
0.0
 30
0.0
  3
_D_6
  1

  0
SOLID
  5
288
330
285
100
AcDbEntity
  8
SLD-0
100
AcDbTrace
 10
39.5237186687
 20
166.3814064213
 30
0.0
 11
39.0157186687
 21
163.0794064213
 31
0.0
 12
40.0317186687
 22
163.0794064213
 32
0.0
 13
40.0317186687
 23
163.0794064213
 33
0.0
  0
SOLID
  5
289
330
285
100
AcDbEntity
  8
SLD-0
100
AcDbTrace
 10
39.5237186687
 20
146.3814064213
 30
0.0
 11
40.0317186687
 21
149.6834064213
 31
0.0
 12
39.0157186687
 22
149.6834064213
 32
0.0
 13
39.0157186687
 23
149.6834064213
 33
0.0
  0
LINE
  5
28A
330
285
100
AcDbEntity
  8
SLD-0
100
AcDbLine
 10
74.0237186687
 20
166.3814064213
 30
0.0
 11
38.5237186687
 21
166.3814064213
 31
0.0
  0
LINE
  5
28B
330
285
100
AcDbEntity
  8
SLD-0
100
AcDbLine
 10
54.5237186687
 20
146.3814064213
 30
0.0
 11
38.5237186687
 21
146.3814064213
 31
0.0
  0
LINE
  5
28C
330
285
100
AcDbEntity
  8
SLD-0
100
AcDbLine
 10
39.5237186687
 20
166.3814064213
 30
0.0
 11
39.5237186687
 21
146.3814064213
 31
0.0
  0
MTEXT
  5
28D
330
285
100
AcDbEntity
  8
SLD-0
100
AcDbMText
 10
35.0119817541
 20
153.7952952277
 30
0.0
 40
3.5
 41
0.0
 71
     1
 72
     1
  1
20
  7
SLDTEXTSTYLE2
 11
-7.044195017643634E-15
 21
1.0
 31
0.0
 73
     1
 44
1.0
  0
ENDBLK
  5
287
330
285
100
AcDbEntity
  8
0
100
AcDbBlockEnd
  0
BLOCK
  5
367
330
366
100
AcDbEntity
  8
0
100
AcDbBlockBegin
  2
_D_7
 70
     0
 10
0.0
 20
0.0
 30
0.0
  3
_D_7
  1

  0
SOLID
  5
369
330
366
100
AcDbEntity
  8
SLD-0
100
AcDbTrace
 10
197.8214596577
 20
204.1103169892
 30
0.0
 11
201.1234596577
 21
203.6023169892
 31
0.0
 12
201.1234596577
 22
204.6183169892
 32
0.0
 13
201.1234596577
 23
204.6183169892
 33
0.0
  0
SOLID
  5
36A
330
366
100
AcDbEntity
  8
SLD-0
100
AcDbTrace
 10
397.8214596577
 20
204.1103169892
 30
0.0
 11
394.5194596577
 21
204.6183169892
 31
0.0
 12
394.5194596577
 22
203.6023169892
 32
0.0
 13
394.5194596577
 23
203.6023169892
 33
0.0
  0
LINE
  5
36B
330
366
100
AcDbEntity
  8
SLD-0
100
AcDbLine
 10
197.8214596577
 20
195.3808064213
 30
0.0
 11
197.8214596577
 21
205.1103169892
 31
0.0
  0
LINE
  5
36C
330
366
100
AcDbEntity
  8
SLD-0
100
AcDbLine
 10
397.8214596577
 20
195.3808064213
 30
0.0
 11
397.8214596577
 21
205.1103169892
 31
0.0
  0
LINE
  5
36D
330
366
100
AcDbEntity
  8
SLD-0
100
AcDbLine
 10
197.8214596577
 20
204.1103169892
 30
0.0
 11
397.8214596577
 21
204.1103169892
 31
0.0
  0
MTEXT
  5
36E
330
366
100
AcDbEntity
  8
SLD-0
100
AcDbMText
 10
292.6492372707
 20
208.6220539038
 30
0.0
 40
3.5
 41
0.0
 71
     1
 72
     1
  1
1000
  7
SLDTEXTSTYLE2
 73
     1
 44
1.0
  0
ENDBLK
  5
368
330
366
100
AcDbEntity
  8
0
100
AcDbBlockEnd
  0
BLOCK
  5
372
330
371
100
AcDbEntity
  8
0
100
AcDbBlockBegin
  2
_D_8
 70
     0
 10
0.0
 20
0.0
 30
0.0
  3
_D_8
  1

  0
SOLID
  5
374
330
371
100
AcDbEntity
  8
SLD-0
100
AcDbTrace
 10
407.8214596577
 20
194.3808064213
 30
0.0
 11
408.3294596577
 21
197.6828064213
 31
0.0
 12
407.3134596577
 22
197.6828064213
 32
0.0
 13
407.3134596577
 23
197.6828064213
 33
0.0
  0
SOLID
  5
375
330
371
100
AcDbEntity
  8
SLD-0
100
AcDbTrace
 10
407.8214596577
 20
178.3810064213
 30
0.0
 11
407.3134596577
 21
175.0790064213
 31
0.0
 12
408.3294596577
 22
175.0790064213
 32
0.0
 13
408.3294596577
 23
175.0790064213
 33
0.0
  0
LINE
  5
376
330
371
100
AcDbEntity
  8
SLD-0
100
AcDbLine
 10
398.8214596577
 20
194.3808064213
 30
0.0
 11
408.8214596577
 21
194.3808064213
 31
0.0
  0
LINE
  5
377
330
371
100
AcDbEntity
  8
SLD-0
100
AcDbLine
 10
400.4214596577
 20
178.3810064213
 30
0.0
 11
408.8214596577
 21
178.3810064213
 31
0.0
  0
LINE
  5
378
330
371
100
AcDbEntity
  8
SLD-0
100
AcDbLine
 10
407.8214596577
 20
194.3808064213
 30
0.0
 11
407.8214596577
 21
200.7308064213
 31
0.0
  0
LINE
  5
379
330
371
100
AcDbEntity
  8
SLD-0
100
AcDbLine
 10
407.8214596577
 20
194.3808064213
 30
0.0
 11
407.8214596577
 21
178.3810064213
 31
0.0
  0
LINE
  5
37A
330
371
100
AcDbEntity
  8
SLD-0
100
AcDbLine
 10
407.8214596577
 20
178.3810064213
 30
0.0
 11
407.8214596577
 21
172.0310064213
 31
0.0
  0
MTEXT
  5
37B
330
371
100
AcDbEntity
  8
SLD-0
100
AcDbMText
 10
403.3097227432
 20
183.7947952277
 30
0.0
 40
3.5
 41
0.0
 71
     1
 72
     1
  1
80
  7
SLDTEXTSTYLE2
 11
-7.044195017643634E-15
 21
1.0
 31
0.0
 73
     1
 44
1.0
  0
ENDBLK
  5
373
330
371
100
AcDbEntity
  8
0
100
AcDbBlockEnd
  0
ENDSEC
  0
SECTION
  2
ENTITIES
  0
LINE
  5
FF
330
1F
100
AcDbEntity
  8
LINIEN-DÜNN
  6
CENTERX2
100
AcDbLine
 10
352.6174545849
 20
46.9080238789
 30
0.0
 11
352.6174545849
 21
39.4621586124
 31
0.0
  0
LINE
  5
100
330
1F
100
AcDbEntity
  8
LINIEN-DÜNN
100
AcDbLine
 10
357.7661698132
 20
46.3720107039
 30
0.0
 11
357.7661698132
 21
39.9353173413
 31
0.0
  0
LINE
  5
101
330
1F
100
AcDbEntity
  8
LINIEN-DÜNN
100
AcDbLine
 10
364.6059427486
 20
44.7376225767
 30
0.0
 11
364.6059427486
 21
41.5697054685
 31
0.0
  0
LINE
  5
102
330
1F
100
AcDbEntity
  8
LINIEN-DÜNN
100
AcDbLine
 10
364.6059427486
 20
44.7376225767
 30
0.0
 11
357.7661698132
 21
46.3720107039
 31
0.0
  0
LINE
  5
103
330
1F
100
AcDbEntity
  8
LINIEN-DÜNN
100
AcDbLine
 10
15.0
 20
198.5
 30
0.0
 11
20.0
 21
198.5
 31
0.0
  0
LINE
  5
104
330
1F
100
AcDbEntity
  8
LINIEN-DÜNN
100
AcDbLine
 10
12.0
 20
148.5
 30
0.0
 11
0.0
 21
148.5
 31
0.0
  0
LINE
  5
105
330
1F
100
AcDbEntity
  8
LINIEN-DÜNN
100
AcDbLine
 10
357.7661698132
 20
39.9353173413
 30
0.0
 11
364.6059427486
 21
41.5697054685
 31
0.0
  0
LINE
  5
106
330
1F
100
AcDbEntity
  8
LINIEN-DÜNN
  6
CENTERX2
100
AcDbLine
 10
348.6240467841
 20
43.1536640226
 30
0.0
 11
356.6108623857
 21
43.1536640226
 31
0.0
  0
LINE
  5
107
330
1F
100
AcDbEntity
  8
LINIEN-DÜNN
  6
CENTERX2
100
AcDbLine
 10
357.1289238876
 20
43.1536640226
 30
0.0
 11
365.6255362296
 21
43.1536640226
 31
0.0
  0
LINE
  5
108
330
1F
100
AcDbEntity
  8
LINIEN-DÜNN
100
AcDbLine
 10
0.0
 20
0.0
 30
0.0
 11
420.0
 21
0.0
 31
0.0
  0
LINE
  5
109
330
1F
100
AcDbEntity
  8
LINIEN-DÜNN
100
AcDbLine
 10
0.0
 20
0.0
 30
0.0
 11
0.0
 21
297.0
 31
0.0
  0
LINE
  5
10A
330
1F
100
AcDbEntity
  8
LINIEN-DÜNN
100
AcDbLine
 10
0.0
 20
297.0
 30
0.0
 11
420.0
 21
297.0
 31
0.0
  0
LINE
  5
10B
330
1F
100
AcDbEntity
  8
LINIEN-DÜNN
100
AcDbLine
 10
420.0
 20
0.0
 30
0.0
 11
420.0
 21
297.0
 31
0.0
  0
LINE
  5
10C
330
1F
100
AcDbEntity
  8
LINIEN-NORMAL
100
AcDbLine
 10
228.0
 20
35.0
 30
0.0
 11
410.0
 21
35.0
 31
0.0
  0
LINE
  5
10D
330
1F
100
AcDbEntity
  8
LINIEN-DÜNN
100
AcDbLine
 10
410.0
 20
198.5
 30
0.0
 11
415.0
 21
198.5
 31
0.0
  0
LINE
  5
10E
330
1F
100
AcDbEntity
  8
LINIEN-DÜNN
100
AcDbLine
 10
15.0
 20
148.5
 30
0.0
 11
20.0
 21
148.5
 31
0.0
  0
LINE
  5
10F
330
1F
100
AcDbEntity
  8
LINIEN-DÜNN
100
AcDbLine
 10
228.0
 20
40.0
 30
0.0
 11
296.6
 21
40.0
 31
0.0
  0
LINE
  5
110
330
1F
100
AcDbEntity
  8
LINIEN-DÜNN
100
AcDbLine
 10
15.0
 20
248.5
 30
0.0
 11
20.0
 21
248.5
 31
0.0
  0
LINE
  5
111
330
1F
100
AcDbEntity
  8
LINIEN-DICK
100
AcDbLine
 10
20.0
 20
287.0
 30
0.0
 11
20.0
 21
10.0
 31
0.0
  0
LINE
  5
112
330
1F
100
AcDbEntity
  8
LINIEN-DICK
100
AcDbLine
 10
410.0
 20
287.0
 30
0.0
 11
20.0
 21
287.0
 31
0.0
  0
LINE
  5
113
330
1F
100
AcDbEntity
  8
LINIEN-DICK
100
AcDbLine
 10
410.0
 20
5.0
 30
0.0
 11
410.0
 21
287.0
 31
0.0
  0
LINE
  5
114
330
1F
100
AcDbEntity
  8
LINIEN-DICK
100
AcDbLine
 10
20.0
 20
10.0
 30
0.0
 11
415.0
 21
10.0
 31
0.0
  0
LINE
  5
115
330
1F
100
AcDbEntity
  8
LINIEN-DÜNN
100
AcDbLine
 10
410.0
 20
148.5
 30
0.0
 11
415.0
 21
148.5
 31
0.0
  0
LINE
  5
116
330
1F
100
AcDbEntity
  8
LINIEN-DÜNN
100
AcDbLine
 10
228.0
 20
50.0
 30
0.0
 11
296.6
 21
50.0
 31
0.0
  0
LINE
  5
117
330
1F
100
AcDbEntity
  8
LINIEN-DÜNN
100
AcDbLine
 10
15.0
 20
98.5
 30
0.0
 11
20.0
 21
98.5
 31
0.0
  0
LINE
  5
118
330
1F
100
AcDbEntity
  8
LINIEN-DÜNN
100
AcDbLine
 10
296.6
 20
45.0
 30
0.0
 11
228.0
 21
45.0
 31
0.0
  0
LINE
  5
119
330
1F
100
AcDbEntity
  8
LINIEN-DÜNN
100
AcDbLine
 10
65.0
 20
292.0
 30
0.0
 11
65.0
 21
287.0
 31
0.0
  0
LINE
  5
11A
330
1F
100
AcDbEntity
  8
LINIEN-DÜNN
100
AcDbLine
 10
230.0
 20
292.0
 30
0.0
 11
230.0
 21
297.0
 31
0.0
  0
LINE
  5
11B
330
1F
100
AcDbEntity
  8
LINIEN-NORMAL
100
AcDbLine
 10
296.6
 20
55.0
 30
0.0
 11
296.6
 21
35.0
 31
0.0
  0
LINE
  5
11C
330
1F
100
AcDbEntity
  8
LINIEN-DÜNN
100
AcDbLine
 10
410.0
 20
98.5
 30
0.0
 11
415.0
 21
98.5
 31
0.0
  0
LINE
  5
11D
330
1F
100
AcDbEntity
  8
VORLAGE_BEMASSUNG
100
AcDbLine
 10
230.0
 20
5.0
 30
0.0
 11
230.0
 21
0.0
 31
0.0
  0
LINE
  5
11E
330
1F
100
AcDbEntity
  8
LINIEN-DÜNN
100
AcDbLine
 10
125.0
 20
292.0
 30
0.0
 11
125.0
 21
297.0
 31
0.0
  0
LINE
  5
11F
330
1F
100
AcDbEntity
  8
LINIEN-DÜNN
100
AcDbLine
 10
125.0
 20
5.0
 30
0.0
 11
125.0
 21
0.0
 31
0.0
  0
LINE
  5
120
330
1F
100
AcDbEntity
  8
LINIEN-NORMAL
100
AcDbLine
 10
410.0
 20
55.0
 30
0.0
 11
228.0
 21
55.0
 31
0.0
  0
LINE
  5
121
330
1F
100
AcDbEntity
  8
LINIEN-DÜNN
100
AcDbLine
 10
228.0
 20
55.0
 30
0.0
 11
410.0
 21
55.0
 31
0.0
  0
LINE
  5
122
330
1F
100
AcDbEntity
  8
LINIEN-DÜNN
100
AcDbLine
 10
410.0
 20
55.0
 30
0.0
 11
228.0
 21
55.0
 31
0.0
  0
LINE
  5
123
330
1F
100
AcDbEntity
  8
LINIEN-DÜNN
100
AcDbLine
 10
268.0
 20
76.5
 30
0.0
 11
268.0
 21
55.0
 31
0.0
  0
LINE
  5
124
330
1F
100
AcDbEntity
  8
LINIEN-DÜNN
100
AcDbLine
 10
271.6
 20
55.0
 30
0.0
 11
271.6
 21
40.0
 31
0.0
  0
LINE
  5
125
330
1F
100
AcDbEntity
  8
LINIEN-DÜNN
100
AcDbLine
 10
247.0
 20
55.0
 30
0.0
 11
247.0
 21
35.0
 31
0.0
  0
LINE
  5
126
330
1F
100
AcDbEntity
  8
LINIEN-DICK
100
AcDbLine
 10
228.0
 20
76.5
 30
0.0
 11
228.0
 21
10.0
 31
0.0
  0
LINE
  5
127
330
1F
100
AcDbEntity
  8
LINIEN-DÜNN
100
AcDbLine
 10
15.0
 20
292.0
 30
0.0
 11
415.0
 21
292.0
 31
0.0
  0
LINE
  5
128
330
1F
100
AcDbEntity
  8
LINIEN-DÜNN
100
AcDbLine
 10
228.0
 20
65.75
 30
0.0
 11
310.0
 21
65.75
 31
0.0
  0
LINE
  5
129
330
1F
100
AcDbEntity
  8
LINIEN-DICK
100
AcDbLine
 10
228.0
 20
76.5
 30
0.0
 11
410.0
 21
76.5
 31
0.0
  0
LINE
  5
12A
330
1F
100
AcDbEntity
  8
LINIEN-DÜNN
100
AcDbLine
 10
15.0
 20
48.5
 30
0.0
 11
20.0
 21
48.5
 31
0.0
  0
LINE
  5
12B
330
1F
100
AcDbEntity
  8
LINIEN-DÜNN
100
AcDbLine
 10
410.0
 20
48.5
 30
0.0
 11
415.0
 21
48.5
 31
0.0
  0
LINE
  5
12C
330
1F
100
AcDbEntity
  8
LINIEN-DÜNN
100
AcDbLine
 10
332.6610845472
 20
20.0
 30
0.0
 11
332.6610845472
 21
10.0
 31
0.0
  0
LINE
  5
12D
330
1F
100
AcDbEntity
  8
LINIEN-DÜNN
100
AcDbLine
 10
410.0
 20
248.5
 30
0.0
 11
415.0
 21
248.5
 31
0.0
  0
LINE
  5
12E
330
1F
100
AcDbEntity
  8
LINIEN-DÜNN
100
AcDbLine
 10
65.0
 20
10.0
 30
0.0
 11
65.0
 21
5.0
 31
0.0
  0
LINE
  5
12F
330
1F
100
AcDbEntity
  8
LINIEN-DÜNN
100
AcDbLine
 10
115.0
 20
10.0
 30
0.0
 11
115.0
 21
5.0
 31
0.0
  0
LINE
  5
130
330
1F
100
AcDbEntity
  8
LINIEN-DÜNN
100
AcDbLine
 10
115.0
 20
292.0
 30
0.0
 11
115.0
 21
287.0
 31
0.0
  0
LINE
  5
131
330
1F
100
AcDbEntity
  8
LINIEN-DÜNN
100
AcDbLine
 10
165.0
 20
10.0
 30
0.0
 11
165.0
 21
5.0
 31
0.0
  0
LINE
  5
132
330
1F
100
AcDbEntity
  8
LINIEN-DÜNN
100
AcDbLine
 10
165.0
 20
292.0
 30
0.0
 11
165.0
 21
287.0
 31
0.0
  0
LINE
  5
133
330
1F
100
AcDbEntity
  8
LINIEN-DÜNN
100
AcDbLine
 10
215.0
 20
10.0
 30
0.0
 11
215.0
 21
5.0
 31
0.0
  0
LINE
  5
134
330
1F
100
AcDbEntity
  8
LINIEN-DÜNN
100
AcDbLine
 10
215.0
 20
292.0
 30
0.0
 11
215.0
 21
287.0
 31
0.0
  0
LINE
  5
135
330
1F
100
AcDbEntity
  8
LINIEN-DÜNN
100
AcDbLine
 10
265.0
 20
10.0
 30
0.0
 11
265.0
 21
5.0
 31
0.0
  0
LINE
  5
136
330
1F
100
AcDbEntity
  8
LINIEN-DÜNN
100
AcDbLine
 10
265.0
 20
292.0
 30
0.0
 11
265.0
 21
287.0
 31
0.0
  0
LINE
  5
137
330
1F
100
AcDbEntity
  8
LINIEN-DÜNN
100
AcDbLine
 10
347.6610845472
 20
20.0
 30
0.0
 11
347.6610845472
 21
10.0
 31
0.0
  0
LINE
  5
138
330
1F
100
AcDbEntity
  8
LINIEN-DÜNN
100
AcDbLine
 10
362.6610845472
 20
20.0
 30
0.0
 11
362.6610845472
 21
10.0
 31
0.0
  0
LINE
  5
139
330
1F
100
AcDbEntity
  8
LINIEN-NORMAL
100
AcDbLine
 10
327.6610845472
 20
10.0
 30
0.0
 11
327.6610845472
 21
55.0
 31
0.0
  0
LINE
  5
13A
330
1F
100
AcDbEntity
  8
LINIEN-DÜNN
100
AcDbLine
 10
20.0
 20
292.0
 30
0.0
 11
20.0
 21
297.0
 31
0.0
  0
LINE
  5
13B
330
1F
100
AcDbEntity
  8
LINIEN-DÜNN
100
AcDbLine
 10
20.0
 20
5.0
 30
0.0
 11
20.0
 21
0.0
 31
0.0
  0
LINE
  5
13C
330
1F
100
AcDbEntity
  8
LINIEN-DÜNN
100
AcDbLine
 10
315.0
 20
10.0
 30
0.0
 11
315.0
 21
5.0
 31
0.0
  0
LINE
  5
13D
330
1F
100
AcDbEntity
  8
LINIEN-DÜNN
100
AcDbLine
 10
315.0
 20
292.0
 30
0.0
 11
315.0
 21
287.0
 31
0.0
  0
LINE
  5
13E
330
1F
100
AcDbEntity
  8
LINIEN-DÜNN
100
AcDbLine
 10
365.0
 20
10.0
 30
0.0
 11
365.0
 21
5.0
 31
0.0
  0
LINE
  5
13F
330
1F
100
AcDbEntity
  8
LINIEN-DÜNN
100
AcDbLine
 10
365.0
 20
292.0
 30
0.0
 11
365.0
 21
287.0
 31
0.0
  0
LINE
  5
140
330
1F
100
AcDbEntity
  8
LINIEN-DÜNN
100
AcDbLine
 10
15.0
 20
292.0
 30
0.0
 11
15.0
 21
5.0
 31
0.0
  0
LINE
  5
141
330
1F
100
AcDbEntity
  8
LINIEN-DÜNN
100
AcDbLine
 10
15.0
 20
5.0
 30
0.0
 11
415.0
 21
5.0
 31
0.0
  0
LINE
  5
142
330
1F
100
AcDbEntity
  8
LINIEN-DÜNN
100
AcDbLine
 10
415.0
 20
292.0
 30
0.0
 11
415.0
 21
5.0
 31
0.0
  0
LINE
  5
143
330
1F
100
AcDbEntity
  8
LINIEN-DÜNN
100
AcDbLine
 10
347.6610845472
 20
44.213444
 30
0.0
 11
327.6610845472
 21
44.213444
 31
0.0
  0
LINE
  5
144
330
1F
100
AcDbEntity
  8
LINIEN-DÜNN
100
AcDbLine
 10
347.6610845472
 20
35.0
 30
0.0
 11
347.6610845472
 21
55.0
 31
0.0
  0
LINE
  5
145
330
1F
100
AcDbEntity
  8
LINIEN-DÜNN
100
AcDbLine
 10
370.057188
 20
55.012032
 30
0.0
 11
370.057188
 21
35.0
 31
0.0
  0
LINE
  5
146
330
1F
100
AcDbEntity
  8
LINIEN-DÜNN
100
AcDbLine
 10
398.0
 20
35.0
 30
0.0
 11
398.0
 21
20.0
 31
0.0
  0
LINE
  5
147
330
1F
100
AcDbEntity
  8
LINIEN-DÜNN
100
AcDbLine
 10
410.0
 20
15.0
 30
0.0
 11
327.6610845472
 21
15.0
 31
0.0
  0
LINE
  5
148
330
1F
100
AcDbEntity
  8
LINIEN-DÜNN
100
AcDbLine
 10
327.6610845472
 20
20.0
 30
0.0
 11
410.0
 21
20.0
 31
0.0
  0
LINE
  5
149
330
1F
100
AcDbEntity
  8
LINIEN-DÜNN
100
AcDbLine
 10
341.485486
 20
20.0
 30
0.0
 11
341.485486
 21
27.564675
 31
0.0
  0
LINE
  5
14A
330
1F
100
AcDbEntity
  8
LINIEN-NORMAL
100
AcDbLine
 10
310.0
 20
76.5
 30
0.0
 11
310.0
 21
55.0
 31
0.0
  0
CIRCLE
  5
14B
330
1F
100
AcDbEntity
  8
LINIEN-DÜNN
100
AcDbCircle
 10
11.0
 20
108.5
 30
0.0
 40
2.750000000000001
  0
CIRCLE
  5
14C
330
1F
100
AcDbEntity
  8
LINIEN-DÜNN
100
AcDbCircle
 10
11.0
 20
188.5
 30
0.0
 40
2.750000000000001
  0
CIRCLE
  5
14D
330
1F
100
AcDbEntity
  8
LINIEN-DÜNN
100
AcDbCircle
 10
352.6174545849
 20
43.1536640226
 30
0.0
 40
3.218346681300138
  0
CIRCLE
  5
14E
330
1F
100
AcDbEntity
  8
LINIEN-DÜNN
100
AcDbCircle
 10
352.6174545849
 20
43.1536640226
 30
0.0
 40
1.583958554121555
  0
INSERT
  5
14F
330
1F
100
AcDbEntity
  8
0
  6
Continuous
 62
     7
100
AcDbBlockReference
  2
ACO-Logo
 10
314.3510726297
 20
57.2426704952
 30
0.0
  0
POINT
  5
150
330
1F
100
AcDbEntity
  8
0
  6
Continuous
 62
     7
370
     0
100
AcDbPoint
 10
314.3510726297
 20
57.2426704952
 30
0.0
  0
POINT
  5
151
330
1F
100
AcDbEntity
  8
VORLAGE_BEMASSUNG
100
AcDbPoint
 10
0.0
 20
0.0
 30
0.0
  0
POINT
  5
152
330
1F
100
AcDbEntity
  8
VORLAGE_BEMASSUNG
100
AcDbPoint
 10
410.0
 20
10.0
 30
0.0
  0
MTEXT
  5
154
330
1F
100
AcDbEntity
  8
SLD-0
100
AcDbMText
 10
110.0700131253
 20
275.579380765
 30
0.0
 40
3.5
 41
0.0
 71
     1
 72
     1
  1
Massstab 1:1
  7
SLDTEXTSTYLE2
 73
     1
 44
1.0
  0
MTEXT
  5
155
330
1F
100
AcDbEntity
  8
SLD-0
100
AcDbMText
 10
287.6582586247
 20
275.579380765
 30
0.0
 40
3.5
 41
0.0
 71
     1
 72
     1
  1
Massstab 1:5
  7
SLDTEXTSTYLE2
 73
     1
 44
1.0
  0
INSERT
  5
15B
330
1F
100
AcDbEntity
  8
SLD-0
100
AcDbBlockReference
  2
SW_NOTE_1
 10
228.1118736924
 20
86.555678872
 30
0.0
  0
MTEXT
  5
15C
330
1F
100
AcDbEntity
  8
VORLAGE_TEXT
100
AcDbMText
 10
17.7359443114
 20
124.8017866468
 30
0.0
 40
2.0
 41
0.0
 71
     2
 72
     1
  1
D
  7
SLDTEXTSTYLE0
 73
     1
 44
1.0
  0
MTEXT
  5
15D
330
1F
100
AcDbEntity
  8
VORLAGE_TEXT
100
AcDbMText
 10
17.6274822413
 20
174.7261854936
 30
0.0
 40
2.0
 41
0.0
 71
     2
 72
     1
  1
C
  7
SLDTEXTSTYLE0
 73
     1
 44
1.0
  0
MTEXT
  5
15E
330
1F
100
AcDbEntity
  8
VORLAGE_TEXT
100
AcDbMText
 10
17.5516905072
 20
224.4926420442
 30
0.0
 40
2.0
 41
0.0
 71
     2
 72
     1
  1
B
  7
SLDTEXTSTYLE0
 73
     1
 44
1.0
  0
MTEXT
  5
15F
330
1F
100
AcDbEntity
  8
VORLAGE_TEXT
100
AcDbMText
 10
290.0344258799
 20
290.5428789914
 30
0.0
 40
2.0
 41
0.0
 71
     2
 72
     1
  1
6
  7
SLDTEXTSTYLE0
 73
     1
 44
1.0
  0
MTEXT
  5
160
330
1F
100
AcDbEntity
  8
VORLAGE_TEXT
100
AcDbMText
 10
240.0417859812
 20
290.6369260235
 30
0.0
 40
2.0
 41
0.0
 71
     2
 72
     1
  1
5
  7
SLDTEXTSTYLE0
 73
     1
 44
1.0
  0
MTEXT
  5
161
330
1F
100
AcDbEntity
  8
VORLAGE_TEXT
100
AcDbMText
 10
190.0300404524
 20
290.6343268032
 30
0.0
 40
2.0
 41
0.0
 71
     2
 72
     1
  1
4
  7
SLDTEXTSTYLE0
 73
     1
 44
1.0
  0
MTEXT
  5
162
330
1F
100
AcDbEntity
  8
VORLAGE_TEXT
100
AcDbMText
 10
140.0165868337
 20
290.6378887952
 30
0.0
 40
2.0
 41
0.0
 71
     2
 72
     1
  1
3
  7
SLDTEXTSTYLE0
 73
     1
 44
1.0
  0
MTEXT
  5
163
330
1F
100
AcDbEntity
  8
VORLAGE_TEXT
100
AcDbMText
 10
90.033223
 20
290.5566702875
 30
0.0
 40
2.0
 41
0.0
 71
     2
 72
     1
  1
2
  7
SLDTEXTSTYLE0
 73
     1
 44
1.0
  0
MTEXT
  5
164
330
1F
100
AcDbEntity
  8
VORLAGE_TEXT
100
AcDbMText
 10
40.0509551097
 20
290.5530165805
 30
0.0
 40
2.0
 41
0.0
 71
     2
 72
     1
  1
1
  7
SLDTEXTSTYLE0
 73
     1
 44
1.0
  0
MTEXT
  5
165
330
1F
100
AcDbEntity
  8
VORLAGE_TEXT
100
AcDbMText
 10
17.5609786315
 20
271.2966048816
 30
0.0
 40
2.0
 41
0.0
 71
     2
 72
     1
  1
A
  7
SLDTEXTSTYLE0
 73
     1
 44
1.0
  0
MTEXT
  5
166
330
1F
100
AcDbEntity
  8
VORLAGE_TEXT
100
AcDbMText
 10
89.9333968896
 20
8.5904490253
 30
0.0
 40
2.0
 41
0.0
 71
     2
 72
     1
  1
2
  7
SLDTEXTSTYLE0
 73
     1
 44
1.0
  0
MTEXT
  5
167
330
1F
100
AcDbEntity
  8
VORLAGE_TEXT
100
AcDbMText
 10
39.9009486579
 20
8.6623118453
 30
0.0
 40
2.0
 41
0.0
 71
     2
 72
     1
  1
1
  7
SLDTEXTSTYLE0
 73
     1
 44
1.0
  0
MTEXT
  5
168
330
1F
100
AcDbEntity
  8
VORLAGE_TEXT
100
AcDbMText
 10
190.0227230239
 20
8.7073169286
 30
0.0
 40
2.0
 41
0.0
 71
     2
 72
     1
  1
4
  7
SLDTEXTSTYLE0
 73
     1
 44
1.0
  0
MTEXT
  5
169
330
1F
100
AcDbEntity
  8
VORLAGE_TEXT
100
AcDbMText
 10
140.0453427777
 20
8.5647154541
 30
0.0
 40
2.0
 41
0.0
 71
     2
 72
     1
  1
3
  7
SLDTEXTSTYLE0
 73
     1
 44
1.0
  0
MTEXT
  5
16A
330
1F
100
AcDbEntity
  8
VORLAGE_TEXT
100
AcDbMText
 10
239.8749782531
 20
8.5637526825
 30
0.0
 40
2.0
 41
0.0
 71
     2
 72
     1
  1
5
  7
SLDTEXTSTYLE0
 73
     1
 44
1.0
  0
MTEXT
  5
16B
330
1F
100
AcDbEntity
  8
VORLAGE_TEXT
100
AcDbMText
 10
412.6717254925
 20
224.51208263
 30
0.0
 40
2.0
 41
0.0
 71
     2
 72
     1
  1
B
  7
SLDTEXTSTYLE0
 73
     1
 44
1.0
  0
MTEXT
  5
16C
330
1F
100
AcDbEntity
  8
VORLAGE_TEXT
100
AcDbMText
 10
412.5951211154
 20
271.2798202564
 30
0.0
 40
2.0
 41
0.0
 71
     2
 72
     1
  1
A
  7
SLDTEXTSTYLE0
 73
     1
 44
1.0
  0
MTEXT
  5
16D
330
1F
100
AcDbEntity
  8
VORLAGE_TEXT
100
AcDbMText
 10
412.6491448679
 20
174.7279841048
 30
0.0
 40
2.0
 41
0.0
 71
     2
 72
     1
  1
C
  7
SLDTEXTSTYLE0
 73
     1
 44
1.0
  0
MTEXT
  5
16E
330
1F
100
AcDbEntity
  8
VORLAGE_TEXT
100
AcDbMText
 10
340.0216466634
 20
290.5954278102
 30
0.0
 40
2.0
 41
0.0
 71
     2
 72
     1
  1
7
  7
SLDTEXTSTYLE0
 73
     1
 44
1.0
  0
MTEXT
  5
16F
330
1F
100
AcDbEntity
  8
VORLAGE_TEXT
100
AcDbMText
 10
390.037657264
 20
290.6215496941
 30
0.0
 40
2.0
 41
0.0
 71
     2
 72
     1
  1
8
  7
SLDTEXTSTYLE0
 73
     1
 44
1.0
  0
MTEXT
  5
170
330
1F
100
AcDbEntity
  8
VORLAGE_TEXT
100
AcDbMText
 10
17.6897935208
 20
74.7267628143
 30
0.0
 40
2.0
 41
0.0
 71
     2
 72
     1
  1
E
  7
SLDTEXTSTYLE0
 73
     1
 44
1.0
  0
MTEXT
  5
171
330
1F
100
AcDbEntity
  8
VORLAGE_TEXT
100
AcDbMText
 10
17.5936930126
 20
27.773321616
 30
0.0
 40
2.0
 41
0.0
 71
     2
 72
     1
  1
F
  7
SLDTEXTSTYLE0
 73
     1
 44
1.0
  0
MTEXT
  5
172
330
1F
100
AcDbEntity
  8
VORLAGE_TEXT
100
AcDbMText
 10
339.8003474583
 20
8.7205095051
 30
0.0
 40
2.0
 41
0.0
 71
     2
 72
     1
  1
7
  7
SLDTEXTSTYLE0
 73
     1
 44
1.0
  0
MTEXT
  5
173
330
1F
100
AcDbEntity
  8
VORLAGE_TEXT
100
AcDbMText
 10
289.7886477179
 20
8.6884673623
 30
0.0
 40
2.0
 41
0.0
 71
     2
 72
     1
  1
6
  7
SLDTEXTSTYLE0
 73
     1
 44
1.0
  0
MTEXT
  5
174
330
1F
100
AcDbEntity
  8
VORLAGE_TEXT
100
AcDbMText
 10
412.5160699095
 20
74.5096307526
 30
0.0
 40
2.0
 41
0.0
 71
     2
 72
     1
  1
E
  7
SLDTEXTSTYLE0
 73
     1
 44
1.0
  0
MTEXT
  5
175
330
1F
100
AcDbEntity
  8
VORLAGE_TEXT
100
AcDbMText
 10
412.6234021365
 20
124.4517683275
 30
0.0
 40
2.0
 41
0.0
 71
     2
 72
     1
  1
D
  7
SLDTEXTSTYLE0
 73
     1
 44
1.0
  0
MTEXT
  5
176
330
1F
100
AcDbEntity
  8
TEXT-DEUTSCH
100
AcDbMText
 10
411.7952690469
 20
41.918601188
 30
0.0
 40
1.8
 41
0.0
 71
     3
 72
     1
  1
Plotdatum: 19.06.2018
  7
SLDTEXTSTYLE0
 11
-3.269436733918102E-15
 21
1.0
 31
0.0
 73
     1
 44
1.0
  0
MTEXT
  5
177
330
1F
100
AcDbEntity
  8
VORLAGE_TEXT
100
AcDbMText
 10
412.557933251
 20
8.2549718046
 30
0.0
 40
1.8
 41
0.0
 71
     2
 72
     1
  1
A3
  7
SLDTEXTSTYLE0
 73
     1
 44
1.0
  0
MTEXT
  5
178
330
1F
100
AcDbEntity
  8
VORLAGE_TEXT
100
AcDbMText
 10
390.594604279
 20
8.3847467643
 30
0.0
 40
1.8
 41
0.0
 71
     2
 72
     1
  1
CAD-System: SolidWorks
  7
SLDTEXTSTYLE0
 73
     1
 44
1.0
  0
MTEXT
  5
179
330
1F
100
AcDbEntity
  8
TEXT
100
AcDbMText
 10
403.9986368527
 20
28.4394692021
 30
0.0
 40
5.0
 41
0.0
 71
     2
 72
     1
  1
B
  7
SLDTEXTSTYLE0
 73
     1
 44
1.0
  0
MTEXT
  5
17A
330
1F
100
AcDbEntity
  8
TEXT
100
AcDbMText
 10
249.556836311
 20
38.5581729516
 30
0.0
 40
2.0
 41
0.0
 71
     1
 72
     1
  1
Freigegeben
  7
SLDTEXTSTYLE0
 73
     1
 44
1.0
  0
MTEXT
  5
17B
330
1F
100
AcDbEntity
  8
TEXT
100
AcDbMText
 10
284.096264263
 20
43.5473338598
 30
0.0
 40
2.0
 41
0.0
 71
     2
 72
     1
  1
dca
  7
SLDTEXTSTYLE0
 73
     1
 44
1.0
  0
MTEXT
  5
17C
330
1F
100
AcDbEntity
  8
TEXT
100
AcDbMText
 10
249.5284668163
 20
43.5603133928
 30
0.0
 40
2.0
 41
0.0
 71
     1
 72
     1
  1
19.06.2018
  7
SLDTEXTSTYLE0
 73
     1
 44
1.0
  0
MTEXT
  5
17D
330
1F
100
AcDbEntity
  8
TEXT
100
AcDbMText
 10
283.7559087006
 20
48.5138972561
 30
0.0
 40
2.0
 41
0.0
 71
     2
 72
     1
  1
halj
  7
SLDTEXTSTYLE0
 73
     1
 44
1.0
  0
MTEXT
  5
17E
330
1F
100
AcDbEntity
  8
TEXT
100
AcDbMText
 10
249.5284668163
 20
48.4989062069
 30
0.0
 40
2.0
 41
0.0
 71
     1
 72
     1
  1
14.08.17
  7
SLDTEXTSTYLE0
 73
     1
 44
1.0
  0
MTEXT
  5
17F
330
1F
100
AcDbEntity
  8
0
  6
Continuous
 62
     7
370
     0
100
AcDbMText
 10
370.655574235
 20
38.8723054925
 30
0.0
 40
1.5
 41
0.0
 71
     1
 72
     1
  1
Copyright reserved! © ACO Passavant AG
  7
SLDTEXTSTYLE0
 73
     1
 44
1.0
  0
INSERT
  5
188
330
1F
100
AcDbEntity
  8
0
  6
Continuous
 62
     7
370
     0
100
AcDbBlockReference
  2
SW_NOTE_2
 10
372.2203831445
 20
51.2202922854
 30
0.0
  0
MTEXT
  5
189
330
1F
100
AcDbEntity
  8
TEXT
100
AcDbMText
 10
340.2556976817
 20
13.606872109
 30
0.0
 40
2.0
 41
0.0
 71
     2
 72
     1
  1
24.04.2018
  7
SLDTEXTSTYLE0
 73
     1
 44
1.0
  0
MTEXT
  5
18A
330
1F
100
AcDbEntity
  8
TEXT
100
AcDbMText
 10
364.9468572407
 20
13.5417229519
 30
0.0
 40
2.0
 41
0.0
 71
     1
 72
     1
  1
anpassungen
  7
SLDTEXTSTYLE0
 73
     1
 44
1.0
  0
MTEXT
  5
18B
330
1F
100
AcDbEntity
  8
TEXT
100
AcDbMText
 10
354.24544421
 20
13.606872109
 30
0.0
 40
2.0
 41
0.0
 71
     2
 72
     1
  1
dca
  7
SLDTEXTSTYLE0
 73
     1
 44
1.0
  0
MTEXT
  5
18C
330
1F
100
AcDbEntity
  8
TEXT
100
AcDbMText
 10
330.227417144
 20
13.524501801
 30
0.0
 40
2.0
 41
0.0
 71
     2
 72
     1
  1
A
  7
SLDTEXTSTYLE0
 73
     1
 44
1.0
  0
MTEXT
  5
18D
330
1F
100
AcDbEntity
  8
TEXT
100
AcDbMText
 10
364.9468572407
 20
18.4594173137
 30
0.0
 40
2.0
 41
0.0
 71
     1
 72
     1
  1
Art.-Nr. angepasst
  7
SLDTEXTSTYLE0
 73
     1
 44
1.0
  0
MTEXT
  5
18E
330
1F
100
AcDbEntity
  8
TEXT
100
AcDbMText
 10
354.24544421
 20
18.5245664709
 30
0.0
 40
2.0
 41
0.0
 71
     2
 72
     1
  1
dca
  7
SLDTEXTSTYLE0
 73
     1
 44
1.0
  0
MTEXT
  5
18F
330
1F
100
AcDbEntity
  8
TEXT
100
AcDbMText
 10
340.3044309884
 20
18.5245664709
 30
0.0
 40
2.0
 41
0.0
 71
     2
 72
     1
  1
04.06.2018
  7
SLDTEXTSTYLE0
 73
     1
 44
1.0
  0
MTEXT
  5
190
330
1F
100
AcDbEntity
  8
TEXT
100
AcDbMText
 10
330.2494657985
 20
18.524501801
 30
0.0
 40
2.0
 41
0.0
 71
     2
 72
     1
  1
B
  7
SLDTEXTSTYLE0
 73
     1
 44
1.0
  0
MTEXT
  5
191
330
1F
100
AcDbEntity
  8
VORLAGE_TEXT
100
AcDbMText
 10
311.764909851
 20
46.3490312465
 30
0.0
 40
5.0
 41
0.0
 71
     2
 72
     1
  1
1:2
  7
SLDTEXTSTYLE0
 73
     1
 44
1.0
  0
MTEXT
  5
192
330
1F
100
AcDbEntity
  8
VORLAGE_TEXT
100
AcDbMText
 10
230.1851195342
 20
38.7793829468
 30
0.0
 40
2.0
 41
0.0
 71
     1
 72
     1
  1
Status:
  7
SLDTEXTSTYLE0
 73
     1
 44
1.0
  0
MTEXT
  5
193
330
1F
100
AcDbEntity
  8
TEXT
100
AcDbMText
 10
344.926838705
 20
28.2772828851
 30
0.0
 40
5.0
 41
0.0
 71
     1
 72
     1
  1
12323
  7
SLDTEXTSTYLE0
 73
     1
 44
1.0
  0
MTEXT
  5
194
330
1F
100
AcDbEntity
  8
TEXT
100
AcDbMText
 10
231.1132118803
 20
14.9211049657
 30
0.0
 40
2.5
 41
0.0
 71
     1
 72
     1
  1
Art. Nr.: 12323
  7
SLDTEXTSTYLE0
 73
     1
 44
1.0
  0
MTEXT
  5
195
330
1F
100
AcDbEntity
  8
TEXT
100
AcDbMText
 10
231.1475981734
 20
21.4529560996
 30
0.0
 40
2.5
 41
0.0
 71
     1
 72
     1
  1
Typ FL 8cm
  7
SLDTEXTSTYLE0
 73
     1
 44
1.0
  0
MTEXT
  5
196
330
1F
100
AcDbEntity
  8
TEXT
100
AcDbMText
 10
231.1159560181
 20
33.0904969858
 30
0.0
 40
2.5
 41
0.0
 71
     1
 72
     1
  1
Bauelemente
  7
SLDTEXTSTYLE0
 73
     1
 44
1.0
  0
MTEXT
  5
197
330
1F
100
AcDbEntity
  8
TEXT
100
AcDbMText
 10
231.1475981734
 20
28.0307932366
 30
0.0
 40
3.5
 41
0.0
 71
     1
 72
     1
  1
Flachrinne V100
  7
SLDTEXTSTYLE0
 73
     1
 44
1.0
  0
MTEXT
  5
198
330
1F
100
AcDbEntity
  8
VORLAGE_TEXT
100
AcDbMText
 10
348.2746465368
 20
53.819119072
 30
0.0
 40
2.0
 41
0.0
 71
     1
 72
     1
  1
Projektion: ISO-E
  7
SLDTEXTSTYLE0
 73
     1
 44
1.0
  0
MTEXT
  5
199
330
1F
100
AcDbEntity
  8
TEXT
100
AcDbMText
 10
337.7677091855
 20
49.3670227094
 30
0.0
 40
2.5
 41
0.0
 71
     2
 72
     1
  1
Millimeter
  7
SLDTEXTSTYLE0
 73
     1
 44
1.0
  0
MTEXT
  5
19A
330
1F
100
AcDbEntity
  8
VORLAGE_TEXT
100
AcDbMText
 10
337.6323777421
 20
53.855374072
 30
0.0
 40
2.0
 41
0.0
 71
     2
 72
     1
  1
Masseinheit:
  7
SLDTEXTSTYLE0
 73
     1
 44
1.0
  0
MTEXT
  5
19B
330
1F
100
AcDbEntity
  8
VORLAGE_TEXT
100
AcDbMText
 10
337.6114490186
 20
43.5452078816
 30
0.0
 40
2.0
 41
0.0
 71
     2
 72
     1
  1
Blatt / Anz.:
  7
SLDTEXTSTYLE0
 73
     1
 44
1.0
  0
MTEXT
  5
19C
330
1F
100
AcDbEntity
  8
VORLAGE_TEXT
100
AcDbMText
 10
329.2895578243
 20
28.4139191092
 30
0.0
 40
5.0
 41
0.0
 71
     1
 72
     1
  1
CH
  7
SLDTEXTSTYLE0
 73
     1
 44
1.0
  0
MTEXT
  5
19D
330
1F
100
AcDbEntity
  8
VORLAGE_TEXT
100
AcDbMText
 10
330.40704
 20
33.692638072
 30
0.0
 40
2.0
 41
0.0
 71
     1
 72
     1
  1
Zeichnung Nr.:
  7
SLDTEXTSTYLE0
 73
     1
 44
1.0
  0
MTEXT
  5
19E
330
1F
100
AcDbEntity
  8
VORLAGE_TEXT
100
AcDbMText
 10
269.897953
 20
75.161075072
 30
0.0
 40
2.0
 41
0.0
 71
     1
 72
     1
  1
Gewicht:
  7
SLDTEXTSTYLE0
 73
     1
 44
1.0
  0
MTEXT
  5
19F
330
1F
100
AcDbEntity
  8
VORLAGE_TEXT
100
AcDbMText
 10
230.0
 20
64.542328072
 30
0.0
 40
2.0
 41
0.0
 71
     1
 72
     1
  1
zul. Abweichung:
  7
SLDTEXTSTYLE0
 73
     1
 44
1.0
  0
MTEXT
  5
1A0
330
1F
100
AcDbEntity
  8
VORLAGE_TEXT
100
AcDbMText
 10
269.612607
 20
64.542328072
 30
0.0
 40
2.0
 41
0.0
 71
     1
 72
     1
  1
Oberfläche:
  7
SLDTEXTSTYLE0
 73
     1
 44
1.0
  0
MTEXT
  5
1A1
330
1F
100
AcDbEntity
  8
VORLAGE_TEXT
100
AcDbMText
 10
230.261411
 20
43.4433838912
 30
0.0
 40
2.0
 41
0.0
 71
     1
 72
     1
  1
Freigegeben:
  7
SLDTEXTSTYLE0
 73
     1
 44
1.0
  0
MTEXT
  5
1A2
330
1F
100
AcDbEntity
  8
VORLAGE_TEXT
100
AcDbMText
 10
230.0
 20
75.161075072
 30
0.0
 40
2.0
 41
0.0
 71
     1
 72
     1
  1
Werkstoff:
  7
SLDTEXTSTYLE0
 73
     1
 44
1.0
  0
MTEXT
  5
1A3
330
1F
100
AcDbEntity
  8
VORLAGE_TEXT
100
AcDbMText
 10
254.035545
 20
53.129475072
 30
0.0
 40
2.0
 41
0.0
 71
     1
 72
     1
  1
Datum:
  7
SLDTEXTSTYLE0
 73
     1
 44
1.0
  0
MTEXT
  5
1A4
330
1F
100
AcDbEntity
  8
VORLAGE_TEXT
100
AcDbMText
 10
279.934928
 20
53.136060072
 30
0.0
 40
2.0
 41
0.0
 71
     1
 72
     1
  1
Name:
  7
SLDTEXTSTYLE0
 73
     1
 44
1.0
  0
MTEXT
  5
1A5
330
1F
100
AcDbEntity
  8
VORLAGE_TEXT
100
AcDbMText
 10
312.162455406
 20
53.881591072
 30
0.0
 40
2.0
 41
0.0
 71
     2
 72
     1
  1
Massstab:
  7
SLDTEXTSTYLE0
 73
     1
 44
1.0
  0
MTEXT
  5
1A6
330
1F
100
AcDbEntity
  8
VORLAGE_TEXT
100
AcDbMText
 10
403.9552944035
 20
33.324874072
 30
0.0
 40
2.0
 41
0.0
 71
     2
 72
     1
  1
Index:
  7
SLDTEXTSTYLE0
 73
     1
 44
1.0
  0
MTEXT
  5
1A7
330
1F
100
AcDbEntity
  8
VORLAGE_TEXT
100
AcDbMText
 10
230.261411
 20
48.4499477886
 30
0.0
 40
2.0
 41
0.0
 71
     1
 72
     1
  1
Erstellt:
  7
SLDTEXTSTYLE0
 73
     1
 44
1.0
  0
MTEXT
  5
1A9
330
1F
100
AcDbEntity
  8
VORLAGE_TEXT
100
AcDbMText
 10
337.6348165843
 20
39.869706576
 30
0.0
 40
2.5
 41
0.0
 71
     2
 72
     1
  1
1 / 1
  7
SLDTEXTSTYLE3
 73
     1
 44
1.0
  0
MTEXT
  5
1AA
330
1F
100
AcDbEntity
  8
TEXT
100
AcDbMText
 10
269.612607
 20
60.8119428599
 30
0.0
 40
3.0
 41
0.0
 71
     1
 72
     1
  1
DIN ISO 1302
  7
SLDTEXTSTYLE0
 73
     1
 44
1.0
  0
MTEXT
  5
1AB
330
1F
100
AcDbEntity
  8
TEXT
100
AcDbMText
 10
230.0
 20
60.8119428599
 30
0.0
 40
3.0
 41
0.0
 71
     1
 72
     1
  1
Norm
  7
SLDTEXTSTYLE0
 73
     1
 44
1.0
  0
MTEXT
  5
1AC
330
1F
100
AcDbEntity
  8
TEXT
100
AcDbMText
 10
269.612607
 20
71.2121947186
 30
0.0
 40
3.0
 41
0.0
 71
     1
 72
     1
  1
11.5kg kg
  7
SLDTEXTSTYLE0
 73
     1
 44
1.0
  0
MTEXT
  5
1AD
330
1F
100
AcDbEntity
  8
TEXT
100
AcDbMText
 10
230.0
 20
71.2121947186
 30
0.0
 40
3.0
 41
0.0
 71
     1
 72
     1
  1
Polymerbeton
  7
SLDTEXTSTYLE0
 73
     1
 44
1.0
  0
ARC
  5
1AE
330
1F
100
AcDbEntity
  8
0
  6
Continuous
 62
     7
370
    25
100
AcDbCircle
 10
69.5237186687
 20
202.3804064213
 30
0.0
 40
1.500999999999522
100
AcDbArc
 50
359.9999932777
 51
90.0
  0
ARC
  5
1AF
330
1F
100
AcDbEntity
  8
0
  6
Continuous
 62
     7
370
    25
100
AcDbCircle
 10
69.5237186687
 20
202.3804064213
 30
0.0
 40
3.499999999999517
100
AcDbArc
 50
359.9999932777
 51
90.0
  0
LINE
  5
1B0
330
1F
100
AcDbEntity
  8
0
  6
Continuous
 62
     7
370
    25
100
AcDbLine
 10
72.5548075819
 20
192.7432188251
 30
0.0
 11
70.5992139097
 21
196.1304064244
 31
0.0
  0
LINE
  5
1B1
330
1F
100
AcDbEntity
  8
0
  6
Continuous
 62
     7
370
    25
100
AcDbLine
 10
70.8236227998
 20
191.7437188251
 30
0.0
 11
68.8680291275
 21
195.1309064244
 31
0.0
  0
ARC
  5
1B2
330
1F
100
AcDbEntity
  8
0
  6
Continuous
 62
     7
370
    25
100
AcDbCircle
 10
70.9747186687
 20
180.9294064213
 30
0.0
 40
2.048999999999964
100
AcDbArc
 50
180.0
 51
0.0
  0
ARC
  5
1B3
330
1F
100
AcDbEntity
  8
0
  6
Continuous
 62
     7
370
    25
100
AcDbCircle
 10
70.9747186687
 20
180.9294064213
 30
0.0
 40
0.0499999999999972
100
AcDbArc
 50
180.0
 51
0.0
  0
LINE
  5
1B4
330
1F
100
AcDbEntity
  8
0
  6
Continuous
 62
     7
370
    25
100
AcDbLine
 10
71.0247186687
 20
201.5769404789
 30
0.0
 11
71.0247186687
 21
202.3804062452
 31
0.0
  0
LINE
  5
1B5
330
1F
100
AcDbEntity
  8
0
  6
Continuous
 62
     7
370
    25
100
AcDbLine
 10
73.0237186687
 20
201.5769404789
 30
0.0
 11
73.0237186687
 21
202.3804060106
 31
0.0
  0
ARC
  5
1B6
330
1F
100
AcDbEntity
  8
0
  6
Continuous
 62
     7
370
    25
100
AcDbCircle
 10
69.5237186687
 20
201.5769408896
 30
0.0
 40
1.501000000000532
100
AcDbArc
 50
315.0
 51
359.9999843252
  0
ARC
  5
1B7
330
1F
100
AcDbEntity
  8
0
  6
Continuous
 62
     7
370
    25
100
AcDbCircle
 10
69.5237186687
 20
201.5769408896
 30
0.0
 40
3.500000000000621
100
AcDbArc
 50
315.0
 51
359.9999932777
  0
ARC
  5
1B8
330
1F
100
AcDbEntity
  8
0
  6
Continuous
 62
     7
370
    25
100
AcDbCircle
 10
69.5237186687
 20
190.9932188251
 30
0.0
 40
3.500000000000186
100
AcDbArc
 50
360.0
 51
30.0
  0
ARC
  5
1B9
330
1F
100
AcDbEntity
  8
0
  6
Continuous
 62
     7
370
    25
100
AcDbCircle
 10
69.5237186687
 20
190.9932188251
 30
0.0
 40
1.501000000000138
100
AcDbArc
 50
360.0
 51
30.0
  0
ARC
  5
1BA
330
1F
100
AcDbEntity
  8
0
  6
Continuous
 62
     7
370
    25
100
AcDbCircle
 10
71.8982520153
 20
196.8804064244
 30
0.0
 40
3.499000000000292
100
AcDbArc
 50
135.0
 51
210.0
  0
ARC
  5
1BB
330
1F
100
AcDbEntity
  8
0
  6
Continuous
 62
     7
370
    25
100
AcDbCircle
 10
71.8982520153
 20
196.8804064244
 30
0.0
 40
1.500000000000325
100
AcDbArc
 50
135.0
 51
210.0
  0
LINE
  5
1BC
330
1F
100
AcDbEntity
  8
0
  6
Continuous
 62
     7
370
    25
100
AcDbLine
 10
57.6227186687
 20
194.3062488193
 30
0.0
 11
59.6217186687
 21
194.3062488193
 31
0.0
  0
LINE
  5
1BD
330
1F
100
AcDbEntity
  8
0
  6
Continuous
 62
     7
370
    25
100
AcDbLine
 10
59.6217186687
 20
188.3552488193
 30
0.0
 11
59.6217186687
 21
194.3062488193
 31
0.0
  0
LINE
  5
1BE
330
1F
100
AcDbEntity
  8
0
  6
Continuous
 62
     7
370
    25
100
AcDbLine
 10
57.6227186687
 20
188.3552488193
 30
0.0
 11
57.6227186687
 21
194.3062488193
 31
0.0
  0
ARC
  5
1BF
330
1F
100
AcDbEntity
  8
0
  6
Continuous
 62
     7
370
    25
100
AcDbCircle
 10
57.5727186687
 20
188.3552488193
 30
0.0
 40
2.049000000000078
100
AcDbArc
 50
180.0
 51
0.0
  0
ARC
  5
1C0
330
1F
100
AcDbEntity
  8
0
  6
Continuous
 62
     7
370
    25
100
AcDbCircle
 10
57.5727186687
 20
188.3552488193
 30
0.0
 40
0.0499999999999972
100
AcDbArc
 50
180.0
 51
0.0
  0
ARC
  5
1C1
330
1F
100
AcDbEntity
  8
0
  6
Continuous
 62
     7
370
    25
100
AcDbCircle
 10
57.7737186687
 20
224.3804064213
 30
0.0
 40
0.0010000000001398
100
AcDbArc
 50
0.0
 51
90.0
  0
ARC
  5
1C2
330
1F
100
AcDbEntity
  8
0
  6
Continuous
 62
     7
370
    25
100
AcDbCircle
 10
57.7737186687
 20
224.3804064213
 30
0.0
 40
2.000000000000114
100
AcDbArc
 50
0.0
 51
90.0
  0
LINE
  5
1C3
330
1F
100
AcDbEntity
  8
0
  6
Continuous
 62
     7
370
    25
100
AcDbLine
 10
57.5227186687
 20
224.3062488193
 30
0.0
 11
57.5227186687
 21
188.3552488193
 31
0.0
  0
LINE
  5
1C4
330
1F
100
AcDbEntity
  8
0
  6
Continuous
 62
     7
370
    25
100
AcDbLine
 10
55.5237186687
 20
224.3062488193
 30
0.0
 11
55.5237186687
 21
188.3552488193
 31
0.0
  0
LINE
  5
1C5
330
1F
100
AcDbEntity
  8
0
  6
Continuous
 62
     7
370
    25
100
AcDbLine
 10
70.9247186687
 20
186.8804064213
 30
0.0
 11
68.9257186687
 21
186.8804064213
 31
0.0
  0
LINE
  5
1C6
330
1F
100
AcDbEntity
  8
0
  6
Continuous
 62
     7
370
    25
100
AcDbLine
 10
68.9257186687
 20
186.8804064213
 30
0.0
 11
68.9257186687
 21
180.9294064213
 31
0.0
  0
LINE
  5
1C7
330
1F
100
AcDbEntity
  8
0
  6
Continuous
 62
     7
370
    25
100
AcDbLine
 10
70.9247186687
 20
186.8804064213
 30
0.0
 11
70.9247186687
 21
180.9294064213
 31
0.0
  0
LINE
  5
1C8
330
1F
100
AcDbEntity
  8
0
  6
Continuous
 62
     7
370
    25
100
AcDbLine
 10
57.7737186687
 20
224.3814064213
 30
0.0
 11
57.5978762707
 21
224.3814064213
 31
0.0
  0
LINE
  5
1C9
330
1F
100
AcDbEntity
  8
0
  6
Continuous
 62
     7
370
    25
100
AcDbLine
 10
57.7737186687
 20
226.3804064213
 30
0.0
 11
57.5978762707
 21
226.3804064213
 31
0.0
  0
LINE
  5
1CA
330
1F
100
AcDbEntity
  8
0
  6
Continuous
 62
     7
370
    25
100
AcDbLine
 10
69.424085388
 20
199.3545730517
 30
0.0
 11
70.5850859472
 21
200.515573611
 31
0.0
  0
LINE
  5
1CB
330
1F
100
AcDbEntity
  8
0
  6
Continuous
 62
     7
370
    25
100
AcDbLine
 10
70.8375918436
 20
197.9410665962
 30
0.0
 11
71.9985924028
 21
199.1020671554
 31
0.0
  0
LINE
  5
1CC
330
1F
100
AcDbEntity
  8
0
  6
Continuous
 62
     7
370
    25
100
AcDbLine
 10
69.5237186687
 20
203.8814064213
 30
0.0
 11
61.2737186687
 21
203.8814064213
 31
0.0
  0
LINE
  5
1CD
330
1F
100
AcDbEntity
  8
0
  6
Continuous
 62
     7
370
    25
100
AcDbLine
 10
69.5237186687
 20
205.8804064213
 30
0.0
 11
61.2737186687
 21
205.8804064213
 31
0.0
  0
LINE
  5
1CE
330
1F
100
AcDbEntity
  8
0
  6
Continuous
 62
     7
370
    25
100
AcDbLine
 10
71.0247186687
 20
180.9294064213
 30
0.0
 11
71.0247186687
 21
190.9932188251
 31
0.0
  0
LINE
  5
1CF
330
1F
100
AcDbEntity
  8
0
  6
Continuous
 62
     7
370
    25
100
AcDbLine
 10
73.0237186687
 20
180.9294064213
 30
0.0
 11
73.0237186687
 21
190.9932188251
 31
0.0
  0
ARC
  5
1D0
330
1F
100
AcDbEntity
  8
0
  6
Continuous
 62
     7
370
    25
100
AcDbCircle
 10
57.5978762707
 20
224.3062488193
 30
0.0
 40
2.074157601986698
100
AcDbArc
 50
90.0
 51
180.0
  0
ARC
  5
1D1
330
1F
100
AcDbEntity
  8
0
  6
Continuous
 62
     7
370
    25
100
AcDbCircle
 10
57.5978762707
 20
224.3062488193
 30
0.0
 40
0.0751576019867315
100
AcDbArc
 50
90.0
 51
180.0
  0
LINE
  5
1D2
330
1F
100
AcDbEntity
  8
0
  6
Continuous
 62
     7
370
    25
100
AcDbLine
 10
59.7737186687
 20
207.3804064213
 30
0.0
 11
59.7737186687
 21
224.3804064213
 31
0.0
  0
LINE
  5
1D3
330
1F
100
AcDbEntity
  8
0
  6
Continuous
 62
     7
370
    25
100
AcDbLine
 10
57.7747186687
 20
207.3804064213
 30
0.0
 11
57.7747186687
 21
224.3804064213
 31
0.0
  0
ARC
  5
1D4
330
1F
100
AcDbEntity
  8
0
  6
Continuous
 62
     7
370
    25
100
AcDbCircle
 10
61.2737186687
 20
207.3804064213
 30
0.0
 40
3.499000000000052
100
AcDbArc
 50
180.0
 51
270.0
  0
ARC
  5
1D5
330
1F
100
AcDbEntity
  8
0
  6
Continuous
 62
     7
370
    25
100
AcDbCircle
 10
61.2737186687
 20
207.3804064213
 30
0.0
 40
1.500000000000057
100
AcDbArc
 50
180.0
 51
270.0
  0
LINE
  5
1D6
330
1F
100
AcDbEntity
  8
0
  6
Continuous
 62
     7
370
    25
100
AcDbLine
 10
177.1217186687
 20
180.9294064213
 30
0.0
 11
177.1217186687
 21
186.8804064213
 31
0.0
  0
LINE
  5
1D7
330
1F
100
AcDbEntity
  8
0
  6
Continuous
 62
     7
370
    25
100
AcDbLine
 10
175.1227186687
 20
180.9294064213
 30
0.0
 11
175.1227186687
 21
186.8804064213
 31
0.0
  0
LINE
  5
1D8
330
1F
100
AcDbEntity
  8
0
  6
Continuous
 62
     7
370
    25
100
AcDbLine
 10
175.1227186687
 20
186.8804064213
 30
0.0
 11
177.1217186687
 21
186.8804064213
 31
0.0
  0
ARC
  5
1D9
330
1F
100
AcDbEntity
  8
0
  6
Continuous
 62
     7
370
    25
100
AcDbCircle
 10
176.5237186687
 20
190.9932188251
 30
0.0
 40
1.501000000000138
100
AcDbArc
 50
150.0
 51
180.0
  0
ARC
  5
1DA
330
1F
100
AcDbEntity
  8
0
  6
Continuous
 62
     7
370
    25
100
AcDbCircle
 10
176.5237186687
 20
190.9932188251
 30
0.0
 40
3.500000000000186
100
AcDbArc
 50
150.0
 51
180.0
  0
LINE
  5
1DB
330
1F
100
AcDbEntity
  8
0
  6
Continuous
 62
     7
370
    25
100
AcDbLine
 10
176.6233519494
 20
199.3545730517
 30
0.0
 11
175.4623513901
 21
200.515573611
 31
0.0
  0
LINE
  5
1DC
330
1F
100
AcDbEntity
  8
0
  6
Continuous
 62
     7
370
    25
100
AcDbLine
 10
175.2098454938
 20
197.9410665962
 30
0.0
 11
174.0488449345
 21
199.1020671554
 31
0.0
  0
ARC
  5
1DD
330
1F
100
AcDbEntity
  8
0
  6
Continuous
 62
     7
370
    25
100
AcDbCircle
 10
174.149185322
 20
196.8804064244
 30
0.0
 40
3.499000000000282
100
AcDbArc
 50
330.0
 51
45.0
  0
ARC
  5
1DE
330
1F
100
AcDbEntity
  8
0
  6
Continuous
 62
     7
370
    25
100
AcDbCircle
 10
174.149185322
 20
196.8804064244
 30
0.0
 40
1.500000000000325
100
AcDbArc
 50
330.0
 51
45.0
  0
ARC
  5
1DF
330
1F
100
AcDbEntity
  8
0
  6
Continuous
 62
     7
370
    25
100
AcDbCircle
 10
175.0727186687
 20
180.9294064213
 30
0.0
 40
0.0500000000000114
100
AcDbArc
 50
180.0
 51
0.0
  0
ARC
  5
1E0
330
1F
100
AcDbEntity
  8
0
  6
Continuous
 62
     7
370
    25
100
AcDbCircle
 10
175.0727186687
 20
180.9294064213
 30
0.0
 40
2.048999999999978
100
AcDbArc
 50
180.0
 51
0.0
  0
LINE
  5
1E1
330
1F
100
AcDbEntity
  8
0
  6
Continuous
 62
     7
370
    25
100
AcDbLine
 10
188.2737186687
 20
224.3814064213
 30
0.0
 11
188.4495610667
 21
224.3814064213
 31
0.0
  0
LINE
  5
1E2
330
1F
100
AcDbEntity
  8
0
  6
Continuous
 62
     7
370
    25
100
AcDbLine
 10
188.2737186687
 20
226.3804064213
 30
0.0
 11
188.4495610667
 21
226.3804064213
 31
0.0
  0
LINE
  5
1E3
330
1F
100
AcDbEntity
  8
0
  6
Continuous
 62
     7
370
    25
100
AcDbLine
 10
173.4926297554
 20
192.7432188251
 30
0.0
 11
175.4482234277
 21
196.1304064244
 31
0.0
  0
LINE
  5
1E4
330
1F
100
AcDbEntity
  8
0
  6
Continuous
 62
     7
370
    25
100
AcDbLine
 10
175.2238145376
 20
191.7437188251
 30
0.0
 11
177.1794082099
 21
195.1309064244
 31
0.0
  0
LINE
  5
1E5
330
1F
100
AcDbEntity
  8
0
  6
Continuous
 62
     7
370
    25
100
AcDbLine
 10
173.0237186687
 20
180.9294064213
 30
0.0
 11
173.0237186687
 21
190.9932188251
 31
0.0
  0
LINE
  5
1E6
330
1F
100
AcDbEntity
  8
0
  6
Continuous
 62
     7
370
    25
100
AcDbLine
 10
175.0227186687
 20
180.9294064213
 30
0.0
 11
175.0227186687
 21
190.9932188251
 31
0.0
  0
LINE
  5
1E7
330
1F
100
AcDbEntity
  8
0
  6
Continuous
 62
     7
370
    25
100
AcDbLine
 10
186.4257186687
 20
194.3062488193
 30
0.0
 11
186.4257186687
 21
188.3552488193
 31
0.0
  0
LINE
  5
1E8
330
1F
100
AcDbEntity
  8
0
  6
Continuous
 62
     7
370
    25
100
AcDbLine
 10
188.4247186687
 20
194.3062488193
 30
0.0
 11
186.4257186687
 21
194.3062488193
 31
0.0
  0
LINE
  5
1E9
330
1F
100
AcDbEntity
  8
0
  6
Continuous
 62
     7
370
    25
100
AcDbLine
 10
188.4247186687
 20
194.3062488193
 30
0.0
 11
188.4247186687
 21
188.3552488193
 31
0.0
  0
ARC
  5
1EA
330
1F
100
AcDbEntity
  8
0
  6
Continuous
 62
     7
370
    25
100
AcDbCircle
 10
188.4747186687
 20
188.3552488193
 30
0.0
 40
0.0500000000000114
100
AcDbArc
 50
180.0
 51
0.0
  0
ARC
  5
1EB
330
1F
100
AcDbEntity
  8
0
  6
Continuous
 62
     7
370
    25
100
AcDbCircle
 10
188.4747186687
 20
188.3552488193
 30
0.0
 40
2.049000000000092
100
AcDbArc
 50
180.0
 51
0.0
  0
LINE
  5
1EC
330
1F
100
AcDbEntity
  8
0
  6
Continuous
 62
     7
370
    25
100
AcDbLine
 10
176.5237186687
 20
205.8804064213
 30
0.0
 11
184.7737186687
 21
205.8804064213
 31
0.0
  0
LINE
  5
1ED
330
1F
100
AcDbEntity
  8
0
  6
Continuous
 62
     7
370
    25
100
AcDbLine
 10
176.5237186687
 20
203.8814064213
 30
0.0
 11
184.7737186687
 21
203.8814064213
 31
0.0
  0
ARC
  5
1EE
330
1F
100
AcDbEntity
  8
0
  6
Continuous
 62
     7
370
    25
100
AcDbCircle
 10
176.5237186687
 20
202.3804064213
 30
0.0
 40
3.499999999999517
100
AcDbArc
 50
90.0
 51
180.0000067223
  0
ARC
  5
1EF
330
1F
100
AcDbEntity
  8
0
  6
Continuous
 62
     7
370
    25
100
AcDbCircle
 10
176.5237186687
 20
202.3804064213
 30
0.0
 40
1.500999999999522
100
AcDbArc
 50
90.0
 51
180.0000067223
  0
LINE
  5
1F0
330
1F
100
AcDbEntity
  8
0
  6
Continuous
 62
     7
370
    25
100
AcDbLine
 10
186.2737186687
 20
207.3804064213
 30
0.0
 11
186.2737186687
 21
224.3804064213
 31
0.0
  0
LINE
  5
1F1
330
1F
100
AcDbEntity
  8
0
  6
Continuous
 62
     7
370
    25
100
AcDbLine
 10
188.2727186687
 20
207.3804064213
 30
0.0
 11
188.2727186687
 21
224.3804064213
 31
0.0
  0
LINE
  5
1F2
330
1F
100
AcDbEntity
  8
0
  6
Continuous
 62
     7
370
    25
100
AcDbLine
 10
173.0237186687
 20
201.5769404789
 30
0.0
 11
173.0237186687
 21
202.3804060106
 31
0.0
  0
LINE
  5
1F3
330
1F
100
AcDbEntity
  8
0
  6
Continuous
 62
     7
370
    25
100
AcDbLine
 10
175.0227186687
 20
201.5769404789
 30
0.0
 11
175.0227186687
 21
202.3804062452
 31
0.0
  0
ARC
  5
1F4
330
1F
100
AcDbEntity
  8
0
  6
Continuous
 62
     7
370
    25
100
AcDbCircle
 10
188.4495610667
 20
224.3062488193
 30
0.0
 40
0.0751576019867173
100
AcDbArc
 50
0.0
 51
90.0
  0
ARC
  5
1F5
330
1F
100
AcDbEntity
  8
0
  6
Continuous
 62
     7
370
    25
100
AcDbCircle
 10
188.4495610667
 20
224.3062488193
 30
0.0
 40
2.074157601986684
100
AcDbArc
 50
0.0
 51
90.0
  0
LINE
  5
1F6
330
1F
100
AcDbEntity
  8
0
  6
Continuous
 62
     7
370
    25
100
AcDbLine
 10
190.5237186687
 20
224.3062488193
 30
0.0
 11
190.5237186687
 21
188.3552488193
 31
0.0
  0
LINE
  5
1F7
330
1F
100
AcDbEntity
  8
0
  6
Continuous
 62
     7
370
    25
100
AcDbLine
 10
188.5247186687
 20
224.3062488193
 30
0.0
 11
188.5247186687
 21
188.3552488193
 31
0.0
  0
ARC
  5
1F8
330
1F
100
AcDbEntity
  8
0
  6
Continuous
 62
     7
370
    25
100
AcDbCircle
 10
176.5237186687
 20
201.5769408896
 30
0.0
 40
3.500000000000611
100
AcDbArc
 50
180.0000067223
 51
225.0
  0
ARC
  5
1F9
330
1F
100
AcDbEntity
  8
0
  6
Continuous
 62
     7
370
    25
100
AcDbCircle
 10
176.5237186687
 20
201.5769408896
 30
0.0
 40
1.501000000000522
100
AcDbArc
 50
180.0000156748
 51
225.0
  0
ARC
  5
1FA
330
1F
100
AcDbEntity
  8
0
  6
Continuous
 62
     7
370
    25
100
AcDbCircle
 10
188.2737186687
 20
224.3804064213
 30
0.0
 40
0.0010000000001469
100
AcDbArc
 50
90.0
 51
180.0
  0
ARC
  5
1FB
330
1F
100
AcDbEntity
  8
0
  6
Continuous
 62
     7
370
    25
100
AcDbCircle
 10
188.2737186687
 20
224.3804064213
 30
0.0
 40
2.000000000000114
100
AcDbArc
 50
90.0
 51
180.0
  0
ARC
  5
1FC
330
1F
100
AcDbEntity
  8
0
  6
Continuous
 62
     7
370
    25
100
AcDbCircle
 10
184.7737186687
 20
207.3804064213
 30
0.0
 40
1.500000000000057
100
AcDbArc
 50
270.0
 51
0.0
  0
ARC
  5
1FD
330
1F
100
AcDbEntity
  8
0
  6
Continuous
 62
     7
370
    25
100
AcDbCircle
 10
184.7737186687
 20
207.3804064213
 30
0.0
 40
3.499000000000052
100
AcDbArc
 50
270.0
 51
0.0
  0
LINE
  5
1FE
330
1F
100
AcDbEntity
  8
0
  6
Continuous
 62
     7
370
    25
100
AcDbLine
 10
83.5237186687
 20
152.9707905756
 30
0.0
 11
83.5237186687
 21
146.3814064213
 31
0.0
  0
LINE
  5
1FF
330
1F
100
AcDbEntity
  8
0
  6
Continuous
 62
     7
370
    25
100
AcDbLine
 10
162.5237186687
 20
152.9707905756
 30
0.0
 11
83.5237186687
 21
152.9707905756
 31
0.0
  0
LINE
  5
200
330
1F
100
AcDbEntity
  8
0
  6
Continuous
 62
     7
370
    25
100
AcDbLine
 10
162.5237186687
 20
146.3814064213
 30
0.0
 11
162.5237186687
 21
152.9707905756
 31
0.0
  0
LINE
  5
201
330
1F
100
AcDbEntity
  8
0
  6
Continuous
 62
     7
370
    25
100
AcDbLine
 10
83.5237186687
 20
146.3814064213
 30
0.0
 11
162.5237186687
 21
146.3814064213
 31
0.0
  0
LINE
  5
202
330
1F
100
AcDbEntity
  8
0
  6
Continuous
 62
     7
370
    25
100
AcDbLine
 10
162.5237186687
 20
154.3814064213
 30
0.0
 11
83.5237186687
 21
154.3814064213
 31
0.0
  0
LINE
  5
203
330
1F
100
AcDbEntity
  8
0
  6
Continuous
 62
     7
370
    25
100
AcDbLine
 10
162.5237186687
 20
152.9707905756
 30
0.0
 11
162.5237186687
 21
154.3814064213
 31
0.0
  0
LINE
  5
204
330
1F
100
AcDbEntity
  8
0
  6
Continuous
 62
     7
370
    25
100
AcDbLine
 10
83.5237186687
 20
152.9707905756
 30
0.0
 11
83.5237186687
 21
154.3814064213
 31
0.0
  0
LINE
  5
205
330
1F
100
AcDbEntity
  8
0
  6
Continuous
 62
     7
370
    25
100
AcDbLine
 10
55.5237186687
 20
146.3814064213
 30
0.0
 11
55.5237186687
 21
187.8814064213
 31
0.0
  0
ARC
  5
206
330
1F
100
AcDbEntity
  8
0
  6
Continuous
 62
     7
370
    25
100
AcDbCircle
 10
71.5237186687
 20
202.3814064213
 30
0.0
 40
1.5
100
AcDbArc
 50
0.0
 51
90.0
  0
ARC
  5
207
330
1F
100
AcDbEntity
  8
0
  6
Continuous
 62
     7
370
    25
100
AcDbCircle
 10
71.5237186687
 20
201.2375084632
 30
0.0
 40
1.5
100
AcDbArc
 50
301.7914705229
 51
0.0
  0
ARC
  5
208
330
1F
100
AcDbEntity
  8
0
  6
Continuous
 62
     7
370
    25
100
AcDbCircle
 10
74.2237186687
 20
196.8814064213
 30
0.0
 40
3.625000000000069
100
AcDbArc
 50
121.7914705229
 51
238.2085294771
  0
ARC
  5
209
330
1F
100
AcDbEntity
  8
0
  6
Continuous
 62
     7
370
    25
100
AcDbCircle
 10
75.0237186687
 20
168.3814064213
 30
0.0
 40
2.0
100
AcDbArc
 50
180.0
 51
270.0
  0
ARC
  5
20A
330
1F
100
AcDbEntity
  8
0
  6
Continuous
 62
     7
370
    25
100
AcDbCircle
 10
171.0237186687
 20
168.3814064213
 30
0.0
 40
2.0
100
AcDbArc
 50
270.0
 51
0.0
  0
ARC
  5
20B
330
1F
100
AcDbEntity
  8
0
  6
Continuous
 62
     7
370
    25
100
AcDbCircle
 10
174.5237186687
 20
192.5253043793
 30
0.0
 40
1.500000000000057
100
AcDbArc
 50
121.7914705229
 51
180.0
  0
ARC
  5
20C
330
1F
100
AcDbEntity
  8
0
  6
Continuous
 62
     7
370
    25
100
AcDbCircle
 10
171.8237186687
 20
196.8814064213
 30
0.0
 40
3.625000000000099
100
AcDbArc
 50
301.7914705229
 51
58.2085294771
  0
ARC
  5
20D
330
1F
100
AcDbEntity
  8
0
  6
Continuous
 62
     7
370
    25
100
AcDbCircle
 10
174.5237186687
 20
201.2375084632
 30
0.0
 40
1.500000000000057
100
AcDbArc
 50
180.0
 51
238.2085294771
  0
ARC
  5
20E
330
1F
100
AcDbEntity
  8
0
  6
Continuous
 62
     7
370
    25
100
AcDbCircle
 10
174.5237186687
 20
202.3814064213
 30
0.0
 40
1.500000000000057
100
AcDbArc
 50
90.0
 51
180.0
  0
LINE
  5
20F
330
1F
100
AcDbEntity
  8
0
  6
Continuous
 62
     7
370
    25
100
AcDbLine
 10
57.5237186687
 20
203.8814064213
 30
0.0
 11
71.5237186687
 21
203.8814064213
 31
0.0
  0
LINE
  5
210
330
1F
100
AcDbEntity
  8
0
  6
Continuous
 62
     7
370
    25
100
AcDbLine
 10
57.5237186687
 20
203.8814064213
 30
0.0
 11
57.5237186687
 21
187.8814064213
 31
0.0
  0
LINE
  5
211
330
1F
100
AcDbEntity
  8
0
  6
Continuous
 62
     7
370
    25
100
AcDbLine
 10
55.5237186687
 20
187.8814064213
 30
0.0
 11
57.5237186687
 21
187.8814064213
 31
0.0
  0
LINE
  5
212
330
1F
100
AcDbEntity
  8
0
  6
Continuous
 62
     7
370
    25
100
AcDbLine
 10
190.5237186687
 20
187.8814064213
 30
0.0
 11
188.5237186687
 21
187.8814064213
 31
0.0
  0
LINE
  5
213
330
1F
100
AcDbEntity
  8
0
  6
Continuous
 62
     7
370
    25
100
AcDbLine
 10
188.5237186687
 20
203.8814064213
 30
0.0
 11
188.5237186687
 21
187.8814064213
 31
0.0
  0
LINE
  5
214
330
1F
100
AcDbEntity
  8
0
  6
Continuous
 62
     7
370
    25
100
AcDbLine
 10
174.5237186687
 20
203.8814064213
 30
0.0
 11
188.5237186687
 21
203.8814064213
 31
0.0
  0
LINE
  5
215
330
1F
100
AcDbEntity
  8
0
  6
Continuous
 62
     7
370
    25
100
AcDbLine
 10
173.0237186687
 20
202.3814064213
 30
0.0
 11
173.0237186687
 21
201.2375084632
 31
0.0
  0
LINE
  5
216
330
1F
100
AcDbEntity
  8
0
  6
Continuous
 62
     7
370
    25
100
AcDbLine
 10
73.0237186687
 20
202.3814064213
 30
0.0
 11
73.0237186687
 21
201.2375084632
 31
0.0
  0
LINE
  5
217
330
1F
100
AcDbEntity
  8
0
  6
Continuous
 62
     7
370
    25
100
AcDbLine
 10
173.0237186687
 20
192.5253043793
 30
0.0
 11
173.0237186687
 21
168.3814064213
 31
0.0
  0
LINE
  5
218
330
1F
100
AcDbEntity
  8
0
  6
Continuous
 62
     7
370
    25
100
AcDbLine
 10
73.0237186687
 20
192.5253043793
 30
0.0
 11
73.0237186687
 21
168.3814064213
 31
0.0
  0
LINE
  5
219
330
1F
100
AcDbEntity
  8
0
  6
Continuous
 62
     7
370
    25
100
AcDbLine
 10
190.5237186687
 20
146.3814064213
 30
0.0
 11
190.5237186687
 21
187.8814064213
 31
0.0
  0
LINE
  5
21A
330
1F
100
AcDbEntity
  8
0
  6
Continuous
 62
     7
370
    25
100
AcDbLine
 10
75.0237186687
 20
166.3814064213
 30
0.0
 11
171.0237186687
 21
166.3814064213
 31
0.0
  0
ARC
  5
21B
330
1F
100
AcDbEntity
  8
0
  6
Continuous
 62
     7
370
    25
100
AcDbCircle
 10
71.5237186687
 20
192.5253043793
 30
0.0
 40
1.500000000000029
100
AcDbArc
 50
0.0
 51
58.2085294771
  0
LINE
  5
21C
330
1F
100
AcDbEntity
  8
0
  6
Continuous
 62
     7
370
    25
100
AcDbLine
 10
55.5237186687
 20
146.3814064213
 30
0.0
 11
83.5237186687
 21
146.3814064213
 31
0.0
  0
LINE
  5
21D
330
1F
100
AcDbEntity
  8
0
  6
Continuous
 62
     7
370
    25
100
AcDbLine
 10
162.5237186687
 20
146.3814064213
 30
0.0
 11
190.5237186687
 21
146.3814064213
 31
0.0
  0
LINE
  5
21E
330
1F
100
AcDbEntity
  8
0
  6
Continuous
 62
     8
370
    18
100
AcDbLine
 10
69.5237186687
 20
203.8814064213
 30
0.0
 11
69.5237186687
 21
205.8804064213
 31
0.0
  0
LINE
  5
21F
330
1F
100
AcDbEntity
  8
0
  6
Continuous
 62
     8
370
    18
100
AcDbLine
 10
73.0237186687
 20
202.3804060106
 30
0.0
 11
71.0247186687
 21
202.3804062452
 31
0.0
  0
LINE
  5
220
330
1F
100
AcDbEntity
  8
0
  6
Continuous
 62
     8
370
    18
100
AcDbLine
 10
70.8236227998
 20
191.7437188251
 30
0.0
 11
72.5548075819
 21
192.7432188251
 31
0.0
  0
LINE
  5
221
330
1F
100
AcDbEntity
  8
0
  6
Continuous
 62
     8
370
    18
100
AcDbLine
 10
70.5992139097
 20
196.1304064244
 30
0.0
 11
68.8680291275
 21
195.1309064244
 31
0.0
  0
LINE
  5
222
330
1F
100
AcDbEntity
  8
0
  6
Continuous
 62
     8
370
    18
100
AcDbLine
 10
71.0247186687
 20
180.9294064213
 30
0.0
 11
73.0237186687
 21
180.9294064213
 31
0.0
  0
LINE
  5
223
330
1F
100
AcDbEntity
  8
0
  6
Continuous
 62
     8
370
    18
100
AcDbLine
 10
70.9247186687
 20
180.9294064213
 30
0.0
 11
68.9257186687
 21
180.9294064213
 31
0.0
  0
LINE
  5
224
330
1F
100
AcDbEntity
  8
0
  6
Continuous
 62
     8
370
    18
100
AcDbLine
 10
71.0247186687
 20
201.5769404789
 30
0.0
 11
73.0237186687
 21
201.5769404789
 31
0.0
  0
LINE
  5
225
330
1F
100
AcDbEntity
  8
0
  6
Continuous
 62
     8
370
    18
100
AcDbLine
 10
71.9985924028
 20
199.1020671554
 30
0.0
 11
70.5850859472
 21
200.515573611
 31
0.0
  0
LINE
  5
226
330
1F
100
AcDbEntity
  8
0
  6
Continuous
 62
     8
370
    18
100
AcDbLine
 10
73.0237186687
 20
190.9932188251
 30
0.0
 11
71.0247186687
 21
190.9932188251
 31
0.0
  0
LINE
  5
227
330
1F
100
AcDbEntity
  8
0
  6
Continuous
 62
     8
370
    18
100
AcDbLine
 10
69.424085388
 20
199.3545730517
 30
0.0
 11
70.8375918436
 21
197.9410665962
 31
0.0
  0
LINE
  5
228
330
1F
100
AcDbEntity
  8
0
  6
Continuous
 62
     8
370
    18
100
AcDbLine
 10
57.6227186687
 20
188.3552488193
 30
0.0
 11
59.6217186687
 21
188.3552488193
 31
0.0
  0
LINE
  5
229
330
1F
100
AcDbEntity
  8
0
  6
Continuous
 62
     8
370
    18
100
AcDbLine
 10
57.5227186687
 20
188.3552488193
 30
0.0
 11
55.5237186687
 21
188.3552488193
 31
0.0
  0
LINE
  5
22A
330
1F
100
AcDbEntity
  8
0
  6
Continuous
 62
     8
370
    18
100
AcDbLine
 10
57.7737186687
 20
224.3814064213
 30
0.0
 11
57.7737186687
 21
226.3804064213
 31
0.0
  0
LINE
  5
22B
330
1F
100
AcDbEntity
  8
0
  6
Continuous
 62
     8
370
    18
100
AcDbLine
 10
59.7737186687
 20
224.3804064213
 30
0.0
 11
57.7747186687
 21
224.3804064213
 31
0.0
  0
LINE
  5
22C
330
1F
100
AcDbEntity
  8
0
  6
Continuous
 62
     8
370
    18
100
AcDbLine
 10
57.5227186687
 20
224.3062488193
 30
0.0
 11
55.5237186687
 21
224.3062488193
 31
0.0
  0
LINE
  5
22D
330
1F
100
AcDbEntity
  8
0
  6
Continuous
 62
     8
370
    18
100
AcDbLine
 10
57.5978762707
 20
226.3804064213
 30
0.0
 11
57.5978762707
 21
224.3814064213
 31
0.0
  0
LINE
  5
22E
330
1F
100
AcDbEntity
  8
0
  6
Continuous
 62
     8
370
    18
100
AcDbLine
 10
61.2737186687
 20
205.8804064213
 30
0.0
 11
61.2737186687
 21
203.8814064213
 31
0.0
  0
LINE
  5
22F
330
1F
100
AcDbEntity
  8
0
  6
Continuous
 62
     8
370
    18
100
AcDbLine
 10
57.7747186687
 20
207.3804064213
 30
0.0
 11
59.7737186687
 21
207.3804064213
 31
0.0
  0
LINE
  5
230
330
1F
100
AcDbEntity
  8
0
  6
Continuous
 62
     8
370
    18
100
AcDbLine
 10
175.1227186687
 20
180.9294064213
 30
0.0
 11
177.1217186687
 21
180.9294064213
 31
0.0
  0
LINE
  5
231
330
1F
100
AcDbEntity
  8
0
  6
Continuous
 62
     8
370
    18
100
AcDbLine
 10
175.0227186687
 20
190.9932188251
 30
0.0
 11
173.0237186687
 21
190.9932188251
 31
0.0
  0
LINE
  5
232
330
1F
100
AcDbEntity
  8
0
  6
Continuous
 62
     8
370
    18
100
AcDbLine
 10
173.4926297554
 20
192.7432188251
 30
0.0
 11
175.2238145376
 21
191.7437188251
 31
0.0
  0
LINE
  5
233
330
1F
100
AcDbEntity
  8
0
  6
Continuous
 62
     8
370
    18
100
AcDbLine
 10
175.4623513901
 20
200.515573611
 30
0.0
 11
174.0488449345
 21
199.1020671554
 31
0.0
  0
LINE
  5
234
330
1F
100
AcDbEntity
  8
0
  6
Continuous
 62
     8
370
    18
100
AcDbLine
 10
175.2098454938
 20
197.9410665962
 30
0.0
 11
176.6233519494
 21
199.3545730517
 31
0.0
  0
LINE
  5
235
330
1F
100
AcDbEntity
  8
0
  6
Continuous
 62
     8
370
    18
100
AcDbLine
 10
177.1794082099
 20
195.1309064244
 30
0.0
 11
175.4482234277
 21
196.1304064244
 31
0.0
  0
LINE
  5
236
330
1F
100
AcDbEntity
  8
0
  6
Continuous
 62
     8
370
    18
100
AcDbLine
 10
175.0227186687
 20
180.9294064213
 30
0.0
 11
173.0237186687
 21
180.9294064213
 31
0.0
  0
LINE
  5
237
330
1F
100
AcDbEntity
  8
0
  6
Continuous
 62
     8
370
    18
100
AcDbLine
 10
188.4495610667
 20
224.3814064213
 30
0.0
 11
188.4495610667
 21
226.3804064213
 31
0.0
  0
LINE
  5
238
330
1F
100
AcDbEntity
  8
0
  6
Continuous
 62
     8
370
    18
100
AcDbLine
 10
188.2737186687
 20
226.3804064213
 30
0.0
 11
188.2737186687
 21
224.3814064213
 31
0.0
  0
LINE
  5
239
330
1F
100
AcDbEntity
  8
0
  6
Continuous
 62
     8
370
    18
100
AcDbLine
 10
188.4247186687
 20
188.3552488193
 30
0.0
 11
186.4257186687
 21
188.3552488193
 31
0.0
  0
LINE
  5
23A
330
1F
100
AcDbEntity
  8
0
  6
Continuous
 62
     8
370
    18
100
AcDbLine
 10
188.5247186687
 20
188.3552488193
 30
0.0
 11
190.5237186687
 21
188.3552488193
 31
0.0
  0
LINE
  5
23B
330
1F
100
AcDbEntity
  8
0
  6
Continuous
 62
     8
370
    18
100
AcDbLine
 10
184.7737186687
 20
203.8814064213
 30
0.0
 11
184.7737186687
 21
205.8804064213
 31
0.0
  0
LINE
  5
23C
330
1F
100
AcDbEntity
  8
0
  6
Continuous
 62
     8
370
    18
100
AcDbLine
 10
176.5237186687
 20
205.8804064213
 30
0.0
 11
176.5237186687
 21
203.8814064213
 31
0.0
  0
LINE
  5
23D
330
1F
100
AcDbEntity
  8
0
  6
Continuous
 62
     8
370
    18
100
AcDbLine
 10
175.0227186687
 20
202.3804062452
 30
0.0
 11
173.0237186687
 21
202.3804060106
 31
0.0
  0
LINE
  5
23E
330
1F
100
AcDbEntity
  8
0
  6
Continuous
 62
     8
370
    18
100
AcDbLine
 10
188.2727186687
 20
224.3804064213
 30
0.0
 11
186.2737186687
 21
224.3804064213
 31
0.0
  0
LINE
  5
23F
330
1F
100
AcDbEntity
  8
0
  6
Continuous
 62
     8
370
    18
100
AcDbLine
 10
186.2737186687
 20
207.3804064213
 30
0.0
 11
188.2727186687
 21
207.3804064213
 31
0.0
  0
LINE
  5
240
330
1F
100
AcDbEntity
  8
0
  6
Continuous
 62
     8
370
    18
100
AcDbLine
 10
173.0237186687
 20
201.5769404789
 30
0.0
 11
175.0227186687
 21
201.5769404789
 31
0.0
  0
LINE
  5
241
330
1F
100
AcDbEntity
  8
0
  6
Continuous
 62
     8
370
    18
100
AcDbLine
 10
190.5237186687
 20
224.3062488193
 30
0.0
 11
188.5247186687
 21
224.3062488193
 31
0.0
  0
DIMENSION
  5
242
330
1F
100
AcDbEntity
  8
SLD-0
100
AcDbDimension
  2
_D
 10
190.5237186687
 20
246.0524781625
 30
0.0
 11
123.0237186687
 21
246.0524781625
 31
0.0
 70
   160
  1
<>
 71
     2
 42
-1.0
  3
SLDDIMSTYLE0
100
AcDbAlignedDimension
 13
55.5237186687
 23
224.3062488193
 33
0.0
 14
190.5237186687
 24
224.3062488193
 34
0.0
100
AcDbRotatedDimension
  0
DIMENSION
  5
24D
330
1F
100
AcDbEntity
  8
SLD-0
100
AcDbDimension
  2
_D_1
 10
186.2737186687
 20
236.3804064213
 30
0.0
 11
123.0237186687
 21
236.3804064213
 31
0.0
 70
   160
  1
127
 71
     2
 42
-1.0
  3
SLDDIMSTYLE0
100
AcDbAlignedDimension
 13
59.7737186687
 23
224.3804064213
 33
0.0
 14
186.2737186687
 24
224.3804064213
 34
0.0
100
AcDbRotatedDimension
  0
DIMENSION
  5
257
330
1F
100
AcDbEntity
  8
SLD-0
100
AcDbDimension
  2
_D_2
 10
173.0237186687
 20
226.3452112657
 30
0.0
 11
123.0237186687
 21
226.3452112657
 31
0.0
 70
   160
  1
<>
 71
     2
 42
-1.0
  3
SLDDIMSTYLE0
100
AcDbAlignedDimension
 13
73.0237186687
 23
190.9932188251
 33
0.0
 14
173.0237186687
 24
190.9932188251
 34
0.0
100
AcDbRotatedDimension
  0
DIMENSION
  5
261
330
1F
100
AcDbEntity
  8
SLD-0
100
AcDbDimension
  2
_D_3
 10
49.9136782974
 20
226.3804064213
 30
0.0
 11
49.9136782974
 21
216.1304064213
 31
0.0
 70
   160
  1
<>
 71
     2
 42
-1.0
  3
SLDDIMSTYLE1
100
AcDbAlignedDimension
 13
61.2737186687
 23
205.8804064213
 33
0.0
 14
57.7737186687
 24
226.3804064213
 34
0.0
 50
90.0
100
AcDbRotatedDimension
  0
DIMENSION
  5
26C
330
1F
100
AcDbEntity
  8
SLD-0
100
AcDbDimension
  2
_D_4
 10
39.5237186687
 20
226.3804064213
 30
0.0
 11
39.5237186687
 21
196.3809064213
 31
0.0
 70
   160
  1
(<>)
 71
     2
 42
-1.0
  3
SLDDIMSTYLE0
100
AcDbAlignedDimension
 13
75.0237186687
 23
166.3814064213
 33
0.0
 14
57.5978762707
 24
226.3804064213
 34
0.0
 50
90.0
100
AcDbRotatedDimension
  0
DIMENSION
  5
278
330
1F
100
AcDbEntity
  8
SLD-0
100
AcDbDimension
  2
_D_5
 10
30.5064987392
 20
226.3804064213
 30
0.0
 11
30.5064987392
 21
186.3809064213
 31
0.0
 70
   160
  1
(<>)
 71
     2
 42
-1.0
  3
SLDDIMSTYLE0
100
AcDbAlignedDimension
 13
55.5237186687
 23
146.3814064213
 33
0.0
 14
57.5978762707
 24
226.3804064213
 34
0.0
 50
90.0
100
AcDbRotatedDimension
  0
DIMENSION
  5
284
330
1F
100
AcDbEntity
  8
SLD-0
100
AcDbDimension
  2
_D_6
 10
39.5237186687
 20
146.3814064213
 30
0.0
 11
39.5237186687
 21
156.3814064213
 31
0.0
 70
   160
  1
<>
 71
     2
 42
-1.0
  3
SLDDIMSTYLE0
100
AcDbAlignedDimension
 13
75.0237186687
 23
166.3814064213
 33
0.0
 14
55.5237186687
 24
146.3814064213
 34
0.0
 50
90.0
100
AcDbRotatedDimension
  0
LINE
  5
28E
330
1F
100
AcDbEntity
  8
0
  6
Continuous
 62
     7
370
    25
100
AcDbLine
 10
397.8214596577
 20
186.7757749009
 30
0.0
 11
397.8214596577
 21
186.6810064213
 31
0.0
  0
LINE
  5
28F
330
1F
100
AcDbEntity
  8
0
  6
Continuous
 62
     7
370
    25
100
AcDbLine
 10
197.8214596577
 20
186.6810064213
 30
0.0
 11
197.8214596577
 21
186.7757749009
 31
0.0
  0
LINE
  5
290
330
1F
100
AcDbEntity
  8
0
  6
Continuous
 62
     7
370
    25
100
AcDbLine
 10
397.8214596577
 20
194.3808064213
 30
0.0
 11
197.8214596577
 21
194.3808064213
 31
0.0
  0
LINE
  5
291
330
1F
100
AcDbEntity
  8
0
  6
Continuous
 62
     7
370
    25
100
AcDbLine
 10
397.8214596577
 20
194.3808064213
 30
0.0
 11
397.8214596577
 21
193.9659749009
 31
0.0
  0
LINE
  5
292
330
1F
100
AcDbEntity
  8
0
  6
Continuous
 62
     7
370
    25
100
AcDbLine
 10
197.8214596577
 20
194.3808064213
 30
0.0
 11
197.8214596577
 21
193.9659749009
 31
0.0
  0
LINE
  5
293
330
1F
100
AcDbEntity
  8
0
  6
Continuous
 62
     7
370
    25
100
AcDbLine
 10
397.8214596577
 20
193.9659749009
 30
0.0
 11
397.8214596577
 21
186.7757749009
 31
0.0
  0
LINE
  5
294
330
1F
100
AcDbEntity
  8
0
  6
Continuous
 62
     7
370
    25
100
AcDbLine
 10
197.8214596577
 20
193.9659749009
 30
0.0
 11
197.8214596577
 21
186.7757749009
 31
0.0
  0
LINE
  5
295
330
1F
100
AcDbEntity
  8
0
  6
Continuous
 62
     7
370
    25
100
AcDbLine
 10
282.4043330344
 20
183.8576297979
 30
0.0
 11
281.9915895279
 21
183.8576297979
 31
0.0
  0
SPLINE
  5
296
330
1F
100
AcDbEntity
  8
0
  6
Continuous
 62
     7
370
    25
100
AcDbSpline
210
0.0
220
0.0
230
1.0
 70
     8
 71
     3
 72
    11
 73
     7
 74
     0
 42
0.000000001
 43
0.00000001
 40
0.0
 40
0.0
 40
0.0
 40
0.0
 40
0.2490731672139873
 40
0.3746975734985133
 40
0.4999656583351985
 40
1.0
 40
1.0
 40
1.0
 40
1.0
 10
282.8487323850036
 20
183.5690746030898
 30
0.0
 10
282.8431650591453
 20
183.6202595902504
 30
0.0
 10
282.8347897551602
 20
183.6972606205227
 30
0.0
 10
282.7685591746283
 20
183.7767689054452
 30
0.0
 10
282.6378889639519
 20
183.856317630596
 30
0.0
 10
282.508111733142
 20
183.8570467469097
 30
0.0
 10
282.4043330343542
 20
183.857629797895
 30
0.0
  0
SPLINE
  5
297
330
1F
100
AcDbEntity
  8
0
  6
Continuous
 62
     7
370
    25
100
AcDbSpline
210
0.0
220
0.0
230
1.0
 70
     8
 71
     3
 72
    11
 73
     7
 74
     0
 42
0.000000001
 43
0.00000001
 40
0.0
 40
0.0
 40
0.0
 40
0.0
 40
0.2797326981239113
 40
0.5592718802498697
 40
0.7796589455822814
 40
1.0
 40
1.0
 40
1.0
 40
1.0
 10
282.6368817356529
 20
183.3121752524405
 30
0.0
 10
282.669532158837
 20
183.321908529789
 30
0.0
 10
282.7348104180022
 20
183.341368351112
 30
0.0
 10
282.8019594608991
 20
183.4112033268765
 30
0.0
 10
282.8426182271967
 20
183.4892118144311
 30
0.0
 10
282.8466944742514
 20
183.5424555263738
 30
0.0
 10
282.8487323850036
 20
183.5690746030898
 30
0.0
  0
SPLINE
  5
298
330
1F
100
AcDbEntity
  8
0
  6
Continuous
 62
     7
370
    25
100
AcDbSpline
210
0.0
220
0.0
230
1.0
 70
     8
 71
     3
 72
     9
 73
     5
 74
     0
 42
0.000000001
 43
0.00000001
 40
0.0
 40
0.0
 40
0.0
 40
0.0
 40
0.5598127168888546
 40
1.0
 40
1.0
 40
1.0
 40
1.0
 10
282.3878963460426
 20
183.2732142134794
 30
0.0
 10
282.4347393194036
 20
183.2781139813277
 30
0.0
 10
282.5184154702801
 20
183.28686649391
 30
0.0
 10
282.6006730118944
 20
183.3044397351316
 30
0.0
 10
282.6368817356529
 20
183.3121752524405
 30
0.0
  0
LINE
  5
299
330
1F
100
AcDbEntity
  8
0
  6
Continuous
 62
     7
370
    25
100
AcDbLine
 10
281.9915895279
 20
183.2732142135
 30
0.0
 11
282.387896346
 21
183.2732142135
 31
0.0
  0
LINE
  5
29A
330
1F
100
AcDbEntity
  8
0
  6
Continuous
 62
     7
370
    25
100
AcDbLine
 10
281.9915895279
 20
183.8576297979
 30
0.0
 11
281.9915895279
 21
183.2732142135
 31
0.0
  0
LINE
  5
29B
330
1F
100
AcDbEntity
  8
0
  6
Continuous
 62
     7
370
    25
100
AcDbLine
 10
267.6539271902
 20
181.4810064213
 30
0.0
 11
266.6786836837
 21
181.4810064213
 31
0.0
  0
LINE
  5
29C
330
1F
100
AcDbEntity
  8
0
  6
Continuous
 62
     7
370
    25
100
AcDbLine
 10
266.5356236188
 20
184.4810064213
 30
0.0
 11
267.6539271902
 21
181.4810064213
 31
0.0
  0
LINE
  5
29D
330
1F
100
AcDbEntity
  8
0
  6
Continuous
 62
     7
370
    25
100
AcDbLine
 10
265.4806317357
 20
184.4810064213
 30
0.0
 11
266.5356236188
 21
184.4810064213
 31
0.0
  0
LINE
  5
29E
330
1F
100
AcDbEntity
  8
0
  6
Continuous
 62
     7
370
    25
100
AcDbLine
 10
264.3811999175
 20
181.4810064213
 30
0.0
 11
265.4806317357
 21
184.4810064213
 31
0.0
  0
LINE
  5
29F
330
1F
100
AcDbEntity
  8
0
  6
Continuous
 62
     7
370
    25
100
AcDbLine
 10
265.3308752421
 20
181.4810064213
 30
0.0
 11
264.3811999175
 21
181.4810064213
 31
0.0
  0
LINE
  5
2A0
330
1F
100
AcDbEntity
  8
0
  6
Continuous
 62
     7
370
    25
100
AcDbLine
 10
265.4824580344
 20
181.9874999278
 30
0.0
 11
265.3308752421
 21
181.4810064213
 31
0.0
  0
LINE
  5
2A1
330
1F
100
AcDbEntity
  8
0
  6
Continuous
 62
     7
370
    25
100
AcDbLine
 10
266.5271008915
 20
181.9874999278
 30
0.0
 11
265.4824580344
 21
181.9874999278
 31
0.0
  0
LINE
  5
2A2
330
1F
100
AcDbEntity
  8
0
  6
Continuous
 62
     7
370
    25
100
AcDbLine
 10
266.6786836837
 20
181.4810064213
 30
0.0
 11
266.5271008915
 21
181.9874999278
 31
0.0
  0
SPLINE
  5
2A3
330
1F
100
AcDbEntity
  8
0
  6
Continuous
 62
     7
370
    25
100
AcDbSpline
210
0.0
220
0.0
230
1.0
 70
     8
 71
     3
 72
    12
 73
     8
 74
     0
 42
0.000000001
 43
0.00000001
 40
0.0
 40
0.0
 40
0.0
 40
0.0
 40
0.1871808398353073
 40
0.3738291064056676
 40
0.5602486079208596
 40
0.7796960763246168
 40
1.0
 40
1.0
 40
1.0
 40
1.0
 10
274.8928882291595
 20
183.003530771921
 30
0.0
 10
274.8866234716149
 20
182.8485375289341
 30
0.0
 10
274.8741117812261
 20
182.5389920349847
 30
0.0
 10
274.7176414182527
 20
182.0927107072422
 30
0.0
 10
274.3933987961859
 20
181.7119091510389
 30
0.0
 10
273.9146542543573
 20
181.4711698755851
 30
0.0
 10
273.5491903526091
 20
181.4517661435714
 30
0.0
 10
273.3661025148738
 20
181.4420453823106
 30
0.0
  0
SPLINE
  5
2A4
330
1F
100
AcDbEntity
  8
0
  6
Continuous
 62
     7
370
    25
100
AcDbSpline
210
0.0
220
0.0
230
1.0
 70
     8
 71
     3
 72
    12
 73
     8
 74
     0
 42
0.000000001
 43
0.00000001
 40
0.0
 40
0.0
 40
0.0
 40
0.0
 40
0.1871359280314021
 40
0.3738826533383282
 40
0.560337422019823
 40
0.7797698401762255
 40
1.0
 40
1.0
 40
1.0
 40
1.0
 10
273.3295765408478
 20
184.5199674602326
 30
0.0
 10
273.4838278355438
 20
184.5129010871697
 30
0.0
 10
273.7920096152186
 20
184.4987830375891
 30
0.0
 10
274.2353185065299
 20
184.3424025195417
 30
0.0
 10
274.6192464980613
 20
184.0254277572514
 30
0.0
 10
274.8606969475927
 20
183.5490867288433
 30
0.0
 10
274.8821448300004
 20
183.1856025976932
 30
0.0
 10
274.8928882291595
 20
183.003530771921
 30
0.0
  0
SPLINE
  5
2A5
330
1F
100
AcDbEntity
  8
0
  6
Continuous
 62
     7
370
    25
100
AcDbSpline
210
0.0
220
0.0
230
1.0
 70
     8
 71
     3
 72
    12
 73
     8
 74
     0
 42
0.000000001
 43
0.00000001
 40
0.0
 40
0.0
 40
0.0
 40
0.0
 40
0.1870767452626516
 40
0.3737553587746291
 40
0.5602080719426884
 40
0.7797263036176596
 40
0.9999999999999999
 40
0.9999999999999999
 40
0.9999999999999999
 40
0.9999999999999999
 10
271.7760051122763
 20
182.9791801225703
 30
0.0
 10
271.7838473583969
 20
183.133944674659
 30
0.0
 10
271.7995151609786
 20
183.4431444130353
 30
0.0
 10
271.9697681730305
 20
183.883974614493
 30
0.0
 10
272.3011988501682
 20
184.257104637483
 30
0.0
 10
272.7824891672947
 20
184.4887201415496
 30
0.0
 10
273.1470053637486
 20
184.5095397661769
 30
0.0
 10
273.3295765408478
 20
184.5199674602326
 30
0.0
  0
SPLINE
  5
2A6
330
1F
100
AcDbEntity
  8
0
  6
Continuous
 62
     7
370
    25
100
AcDbSpline
210
0.0
220
0.0
230
1.0
 70
     8
 71
     3
 72
    12
 73
     8
 74
     0
 42
0.000000001
 43
0.00000001
 40
0.0
 40
0.0
 40
0.0
 40
0.0
 40
0.1871987008947223
 40
0.3738816053985861
 40
0.5602815133849213
 40
0.779744333828425
 40
1.0
 40
1.0
 40
1.0
 40
1.0
 10
273.3661025148738
 20
181.4420453823105
 30
0.0
 10
273.2092894873533
 20
181.4483858656487
 30
0.0
 10
272.8960955057894
 20
181.4610493621267
 30
0.0
 10
272.4401747527552
 20
181.6100488609746
 30
0.0
 10
272.0569911211432
 20
181.942227619607
 30
0.0
 10
271.8074904845868
 20
182.4231652702395
 30
0.0
 10
271.786512844471
 20
182.7936191863059
 30
0.0
 10
271.7760051122764
 20
182.9791801225703
 30
0.0
  0
LINE
  5
2A7
330
1F
100
AcDbEntity
  8
0
  6
Continuous
 62
     7
370
    25
100
AcDbLine
 10
281.9915895279
 20
182.6887986291
 30
0.0
 11
281.9915895279
 21
181.4810064213
 31
0.0
  0
LINE
  5
2A8
330
1F
100
AcDbEntity
  8
0
  6
Continuous
 62
     7
370
    25
100
AcDbLine
 10
282.0737729694
 20
182.6887986291
 30
0.0
 11
281.9915895279
 21
182.6887986291
 31
0.0
  0
SPLINE
  5
2A9
330
1F
100
AcDbEntity
  8
0
  6
Continuous
 62
     7
370
    25
100
AcDbSpline
210
0.0
220
0.0
230
1.0
 70
     8
 71
     3
 72
     9
 73
     5
 74
     0
 42
0.000000001
 43
0.00000001
 40
0.0
 40
0.0
 40
0.0
 40
0.0
 40
0.5595454497438485
 40
1.0
 40
1.0
 40
1.0
 40
1.0
 10
282.3014515408478
 20
182.6200080446482
 30
0.0
 10
282.2616875548883
 20
182.6424182018208
 30
0.0
 10
282.190622754026
 20
182.6824688486141
 30
0.0
 10
282.1095026766267
 20
182.6868631423796
 30
0.0
 10
282.0737729694192
 20
182.6887986290638
 30
0.0
  0
SPLINE
  5
2AA
330
1F
100
AcDbEntity
  8
0
  6
Continuous
 62
     7
370
    25
100
AcDbSpline
210
0.0
220
0.0
230
1.0
 70
     8
 71
     3
 72
     9
 73
     5
 74
     0
 42
0.000000001
 43
0.00000001
 40
0.0
 40
0.0
 40
0.0
 40
0.0
 40
0.5606896493157523
 40
1.0
 40
1.0
 40
1.0
 40
1.0
 10
282.4694710213673
 20
182.3905031745184
 30
0.0
 10
282.4442235739305
 20
182.4380192400537
 30
0.0
 10
282.3991943006641
 20
182.5227649912789
 30
0.0
 10
282.3312848607231
 20
182.5903272465792
 30
0.0
 10
282.3014515408478
 20
182.6200080446482
 30
0.0
  0
LINE
  5
2AB
330
1F
100
AcDbEntity
  8
0
  6
Continuous
 62
     7
370
    25
100
AcDbLine
 10
282.9625716707
 20
181.4810064213
 30
0.0
 11
282.4694710214
 21
182.3905031745
 31
0.0
  0
LINE
  5
2AC
330
1F
100
AcDbEntity
  8
0
  6
Continuous
 62
     7
370
    25
100
AcDbLine
 10
284.0175635538
 20
181.4810064213
 30
0.0
 11
282.9625716707
 21
181.4810064213
 31
0.0
  0
LINE
  5
2AD
330
1F
100
AcDbEntity
  8
0
  6
Continuous
 62
     7
370
    25
100
AcDbLine
 10
283.5542924499
 20
182.3363229797
 30
0.0
 11
284.0175635538
 21
181.4810064213
 31
0.0
  0
SPLINE
  5
2AE
330
1F
100
AcDbEntity
  8
0
  6
Continuous
 62
     7
370
    25
100
AcDbSpline
210
0.0
220
0.0
230
1.0
 70
     8
 71
     3
 72
     9
 73
     5
 74
     0
 42
0.000000001
 43
0.00000001
 40
0.0
 40
0.0
 40
0.0
 40
0.0
 40
0.5597699036669515
 40
1.0
 40
1.0
 40
1.0
 40
1.0
 10
283.2785213460426
 20
182.685754797895
 30
0.0
 10
283.3367822631391
 20
182.6258302796886
 30
0.0
 10
283.4408623801922
 20
182.5187782252396
 30
0.0
 10
283.5196206772416
 20
182.3920934364749
 30
0.0
 10
283.5542924499387
 20
182.3363229797132
 30
0.0
  0
SPLINE
  5
2AF
330
1F
100
AcDbEntity
  8
0
  6
Continuous
 62
     7
370
    25
100
AcDbSpline
210
0.0
220
0.0
230
1.0
 70
     8
 71
     3
 72
     9
 73
     5
 74
     0
 42
0.000000001
 43
0.00000001
 40
0.0
 40
0.0
 40
0.0
 40
0.0
 40
0.5601696408921599
 40
1.0
 40
1.0
 40
1.0
 40
1.0
 10
283.0392762161724
 20
182.7983765511417
 30
0.0
 10
283.0862552264315
 20
182.7821347488571
 30
0.0
 10
283.1701209107342
 20
182.7531403137808
 30
0.0
 10
283.245407860077
 20
182.7063393031898
 30
0.0
 10
283.2785213460426
 20
182.685754797895
 30
0.0
  0
SPLINE
  5
2B0
330
1F
100
AcDbEntity
  8
0
  6
Continuous
 62
     7
370
    25
100
AcDbSpline
210
0.0
220
0.0
230
1.0
 70
     8
 71
     3
 72
     9
 73
     5
 74
     0
 42
0.000000001
 43
0.00000001
 40
0.0
 40
0.0
 40
0.0
 40
0.0
 40
0.5596449196502825
 40
1.0
 40
1.0
 40
1.0
 40
1.0
 10
283.3734888785101
 20
182.9176947329599
 30
0.0
 10
283.3133981715954
 20
182.8889408331362
 30
0.0
 10
283.2060252556539
 20
182.8375620055723
 30
0.0
 10
283.0902558584015
 20
182.8103565928479
 30
0.0
 10
283.0392762161724
 20
182.7983765511417
 30
0.0
  0
SPLINE
  5
2B1
330
1F
100
AcDbEntity
  8
0
  6
Continuous
 62
     7
370
    25
100
AcDbSpline
210
0.0
220
0.0
230
1.0
 70
     8
 71
     3
 72
    10
 73
     6
 74
     0
 42
0.000000001
 43
0.00000001
 40
0.0
 40
0.0
 40
0.0
 40
0.0
 40
0.2808224526156039
 40
0.5612097671940282
 40
1.0
 40
1.0
 40
1.0
 40
1.0
 10
283.7837973200685
 20
183.6445616160768
 30
0.0
 10
283.7786912276377
 20
183.5627720542297
 30
0.0
 10
283.7684869547327
 20
183.3993196645237
 30
0.0
 10
283.6460064144062
 20
183.1249376350095
 30
0.0
 10
283.4767543018364
 20
182.996225554623
 30
0.0
 10
283.3734888785101
 20
182.9176947329599
 30
0.0
  0
SPLINE
  5
2B2
330
1F
100
AcDbEntity
  8
0
  6
Continuous
 62
     7
370
    25
100
AcDbSpline
210
0.0
220
0.0
230
1.0
 70
     8
 71
     3
 72
    12
 73
     8
 74
     0
 42
0.000000001
 43
0.00000001
 40
0.0
 40
0.0
 40
0.0
 40
0.0
 40
0.1875852658663993
 40
0.3749963299722373
 40
0.5612881976150946
 40
0.7803241467922682
 40
1.0
 40
1.0
 40
1.0
 40
1.0
 10
282.6131398525361
 20
184.4810064212716
 30
0.0
 10
282.7158490193059
 20
184.4790515000518
 30
0.0
 10
282.9211719715927
 20
184.4751434730572
 30
0.0
 10
283.2282973288612
 20
184.436946247372
 30
0.0
 10
283.5306735291377
 20
184.2988685691527
 30
0.0
 10
283.7504889097293
 20
184.0089256406893
 30
0.0
 10
283.7726837255196
 20
183.7661343358947
 30
0.0
 10
283.7837973200685
 20
183.6445616160768
 30
0.0
  0
LINE
  5
2B3
330
1F
100
AcDbEntity
  8
0
  6
Continuous
 62
     7
370
    25
100
AcDbLine
 10
281.0565245928
 20
184.4810064213
 30
0.0
 11
282.6131398525
 21
184.4810064213
 31
0.0
  0
LINE
  5
2B4
330
1F
100
AcDbEntity
  8
0
  6
Continuous
 62
     7
370
    25
100
AcDbLine
 10
281.0565245928
 20
181.4810064213
 30
0.0
 11
281.0565245928
 21
184.4810064213
 31
0.0
  0
LINE
  5
2B5
330
1F
100
AcDbEntity
  8
0
  6
Continuous
 62
     7
370
    25
100
AcDbLine
 10
281.9915895279
 20
181.4810064213
 30
0.0
 11
281.0565245928
 21
181.4810064213
 31
0.0
  0
LINE
  5
2B6
330
1F
100
AcDbEntity
  8
0
  6
Continuous
 62
     7
370
    25
100
AcDbLine
 10
289.2305505668
 20
181.4810064213
 30
0.0
 11
288.2954856318
 21
181.4810064213
 31
0.0
  0
LINE
  5
2B7
330
1F
100
AcDbEntity
  8
0
  6
Continuous
 62
     7
370
    25
100
AcDbLine
 10
289.2305505668
 20
184.4810064213
 30
0.0
 11
289.2305505668
 21
181.4810064213
 31
0.0
  0
LINE
  5
2B8
330
1F
100
AcDbEntity
  8
0
  6
Continuous
 62
     7
370
    25
100
AcDbLine
 10
288.2954856318
 20
184.4810064213
 30
0.0
 11
289.2305505668
 21
184.4810064213
 31
0.0
  0
LINE
  5
2B9
330
1F
100
AcDbEntity
  8
0
  6
Continuous
 62
     7
370
    25
100
AcDbLine
 10
288.2954856318
 20
181.4810064213
 30
0.0
 11
288.2954856318
 21
184.4810064213
 31
0.0
  0
LINE
  5
2BA
330
1F
100
AcDbEntity
  8
0
  6
Continuous
 62
     7
370
    25
100
AcDbLine
 10
301.8122875798
 20
182.9810064213
 30
0.0
 11
303.2331479694
 21
182.4392044732
 31
0.0
  0
LINE
  5
2BB
330
1F
100
AcDbEntity
  8
0
  6
Continuous
 62
     7
370
    25
100
AcDbLine
 10
303.2331479694
 20
183.5185470057
 30
0.0
 11
301.8122875798
 21
182.9810064213
 31
0.0
  0
LINE
  5
2BC
330
1F
100
AcDbEntity
  8
0
  6
Continuous
 62
     7
370
    25
100
AcDbLine
 10
303.2331479694
 20
184.2472401875
 30
0.0
 11
303.2331479694
 21
183.5185470057
 31
0.0
  0
LINE
  5
2BD
330
1F
100
AcDbEntity
  8
0
  6
Continuous
 62
     7
370
    25
100
AcDbLine
 10
300.8954856318
 20
183.3213067459
 30
0.0
 11
303.2331479694
 21
184.2472401875
 31
0.0
  0
LINE
  5
2BE
330
1F
100
AcDbEntity
  8
0
  6
Continuous
 62
     7
370
    25
100
AcDbLine
 10
300.8954856318
 20
182.6474025252
 30
0.0
 11
300.8954856318
 21
183.3213067459
 31
0.0
  0
LINE
  5
2BF
330
1F
100
AcDbEntity
  8
0
  6
Continuous
 62
     7
370
    25
100
AcDbLine
 10
303.2331479694
 20
181.714772655
 30
0.0
 11
300.8954856318
 21
182.6474025252
 31
0.0
  0
LINE
  5
2C0
330
1F
100
AcDbEntity
  8
0
  6
Continuous
 62
     7
370
    25
100
AcDbLine
 10
303.2331479694
 20
182.4392044732
 30
0.0
 11
303.2331479694
 21
181.714772655
 31
0.0
  0
LINE
  5
2C1
330
1F
100
AcDbEntity
  8
0
  6
Continuous
 62
     7
370
    25
100
AcDbLine
 10
306.248732385
 20
182.1433440836
 30
0.0
 11
304.0279531642
 21
182.1433440836
 31
0.0
  0
LINE
  5
2C2
330
1F
100
AcDbEntity
  8
0
  6
Continuous
 62
     7
370
    25
100
AcDbLine
 10
306.248732385
 20
182.8056817459
 30
0.0
 11
306.248732385
 21
182.1433440836
 31
0.0
  0
LINE
  5
2C3
330
1F
100
AcDbEntity
  8
0
  6
Continuous
 62
     7
370
    25
100
AcDbLine
 10
304.0279531642
 20
182.8056817459
 30
0.0
 11
306.248732385
 21
182.8056817459
 31
0.0
  0
LINE
  5
2C4
330
1F
100
AcDbEntity
  8
0
  6
Continuous
 62
     7
370
    25
100
AcDbLine
 10
304.0279531642
 20
182.1433440836
 30
0.0
 11
304.0279531642
 21
182.8056817459
 31
0.0
  0
LINE
  5
2C5
330
1F
100
AcDbEntity
  8
0
  6
Continuous
 62
     7
370
    25
100
AcDbLine
 10
309.3422388785
 20
182.1433440836
 30
0.0
 11
307.1214596577
 21
182.1433440836
 31
0.0
  0
LINE
  5
2C6
330
1F
100
AcDbEntity
  8
0
  6
Continuous
 62
     7
370
    25
100
AcDbLine
 10
309.3422388785
 20
182.8056817459
 30
0.0
 11
309.3422388785
 21
182.1433440836
 31
0.0
  0
LINE
  5
2C7
330
1F
100
AcDbEntity
  8
0
  6
Continuous
 62
     7
370
    25
100
AcDbLine
 10
307.1214596577
 20
182.8056817459
 30
0.0
 11
309.3422388785
 21
182.8056817459
 31
0.0
  0
LINE
  5
2C8
330
1F
100
AcDbEntity
  8
0
  6
Continuous
 62
     7
370
    25
100
AcDbLine
 10
307.1214596577
 20
182.1433440836
 30
0.0
 11
307.1214596577
 21
182.8056817459
 31
0.0
  0
SPLINE
  5
2C9
330
1F
100
AcDbEntity
  8
0
  6
Continuous
 62
     7
370
    25
100
AcDbSpline
210
0.0
220
0.0
230
1.0
 70
     8
 71
     3
 72
    11
 73
     7
 74
     0
 42
0.000000001
 43
0.00000001
 40
0.0
 40
0.0
 40
0.0
 40
0.0
 40
0.2802556757913442
 40
0.5600694849458028
 40
0.7800353920221739
 40
1.0
 40
1.0
 40
1.0
 40
1.0
 10
322.5032778395491
 20
183.7407466810119
 30
0.0
 10
322.6228904584399
 20
183.7807055954339
 30
0.0
 10
322.8619271083348
 20
183.8605604228378
 30
0.0
 10
323.1698565350204
 20
184.035088037975
 30
0.0
 10
323.4061246529596
 20
184.2622213304883
 30
0.0
 10
323.5055255764938
 20
184.434052252788
 30
0.0
 10
323.5552258914972
 20
184.5199674602327
 30
0.0
  0
LINE
  5
2CA
330
1F
100
AcDbEntity
  8
0
  6
Continuous
 62
     7
370
    25
100
AcDbLine
 10
322.5032778395
 20
183.0394479797
 30
0.0
 11
322.5032778395
 21
183.740746681
 31
0.0
  0
SPLINE
  5
2CB
330
1F
100
AcDbEntity
  8
0
  6
Continuous
 62
     7
370
    25
100
AcDbSpline
210
0.0
220
0.0
230
1.0
 70
     8
 71
     3
 72
     9
 73
     5
 74
     0
 42
0.000000001
 43
0.00000001
 40
0.0
 40
0.0
 40
0.0
 40
0.0
 40
0.5596478271240333
 40
0.9999999999999999
 40
0.9999999999999999
 40
0.9999999999999999
 40
0.9999999999999999
 10
323.399381735653
 20
183.4868911615314
 30
0.0
 10
323.2438402025427
 20
183.3794322028774
 30
0.0
 10
322.9659126817486
 20
183.1874204529058
 30
0.0
 10
322.6447170388277
 20
183.0846869159422
 30
0.0
 10
322.5032778395491
 20
183.0394479797131
 30
0.0
  0
LINE
  5
2CC
330
1F
100
AcDbEntity
  8
0
  6
Continuous
 62
     7
370
    25
100
AcDbLine
 10
323.3993817357
 20
181.4810064213
 30
0.0
 11
323.3993817357
 21
183.4868911615
 31
0.0
  0
LINE
  5
2CD
330
1F
100
AcDbEntity
  8
0
  6
Continuous
 62
     7
370
    25
100
AcDbLine
 10
324.2565245928
 20
181.4810064213
 30
0.0
 11
323.3993817357
 21
181.4810064213
 31
0.0
  0
LINE
  5
2CE
330
1F
100
AcDbEntity
  8
0
  6
Continuous
 62
     7
370
    25
100
AcDbLine
 10
324.2565245928
 20
184.5199674602
 30
0.0
 11
324.2565245928
 21
181.4810064213
 31
0.0
  0
LINE
  5
2CF
330
1F
100
AcDbEntity
  8
0
  6
Continuous
 62
     7
370
    25
100
AcDbLine
 10
323.5552258915
 20
184.5199674602
 30
0.0
 11
324.2565245928
 21
184.5199674602
 31
0.0
  0
SPLINE
  5
2D0
330
1F
100
AcDbEntity
  8
0
  6
Continuous
 62
     7
370
    25
100
AcDbSpline
210
0.0
220
0.0
230
1.0
 70
     8
 71
     3
 72
    11
 73
     7
 74
     0
 42
0.000000001
 43
0.00000001
 40
0.0
 40
0.0
 40
0.0
 40
0.0
 40
0.2803107270246901
 40
0.5598885774967289
 40
0.7799214485275044
 40
1.0
 40
1.0
 40
1.0
 40
1.0
 10
329.8572956966919
 20
181.4420453823105
 30
0.0
 10
329.748033757848
 20
181.4457727659098
 30
0.0
 10
329.5297955471194
 20
181.4532177878086
 30
0.0
 10
329.2351752660552
 20
181.5449278679063
 30
0.0
 10
329.0014511847141
 20
181.7076051628674
 30
0.0
 10
328.8975048019853
 20
181.8446839431847
 30
0.0
 10
328.8455262161726
 20
181.9132304472456
 30
0.0
  0
SPLINE
  5
2D1
330
1F
100
AcDbEntity
  8
0
  6
Continuous
 62
     7
370
    25
100
AcDbSpline
210
0.0
220
0.0
230
1.0
 70
     8
 71
     3
 72
    13
 73
     9
 74
     0
 42
0.000000001
 43
0.00000001
 40
0.0
 40
0.0
 40
0.0
 40
0.0
 40
0.1871174103431619
 40
0.3740390809668503
 40
0.5601850337173793
 40
0.7063736238378155
 40
0.8530463346113663
 40
1.0
 40
1.0
 40
1.0
 40
1.0
 10
331.1058752421466
 20
183.003530771921
 30
0.0
 10
331.1020105298628
 20
182.8593829914809
 30
0.0
 10
331.0942851480924
 20
182.571238220664
 30
0.0
 10
331.0114382354601
 20
182.1468177840126
 30
0.0
 10
330.8326000728048
 20
181.775482238484
 30
0.0
 10
330.5266597942449
 20
181.5504723146949
 30
0.0
 10
330.1966410927686
 20
181.455585638181
 30
0.0
 10
329.9704829613958
 20
181.4465616791075
 30
0.0
 10
329.8572956966919
 20
181.4420453823105
 30
0.0
  0
SPLINE
  5
2D2
330
1F
100
AcDbEntity
  8
0
  6
Continuous
 62
     7
370
    25
100
AcDbSpline
210
0.0
220
0.0
230
1.0
 70
     8
 71
     3
 72
     9
 73
     5
 74
     0
 42
0.000000001
 43
0.00000001
 40
0.0
 40
0.0
 40
0.0
 40
0.0
 40
0.5599148219539377
 40
1.0
 40
1.0
 40
1.0
 40
1.0
 10
331.0206479694193
 20
183.6975242784145
 30
0.0
 10
331.0482881890914
 20
183.5693498710632
 30
0.0
 10
331.0976532328237
 20
183.340432181576
 30
0.0
 10
331.1033626238014
 20
183.1064867075227
 30
0.0
 10
331.1058752421466
 20
183.003530771921
 30
0.0
  0
SPLINE
  5
2D3
330
1F
100
AcDbEntity
  8
0
  6
Continuous
 62
     7
370
    25
100
AcDbSpline
210
0.0
220
0.0
230
1.0
 70
     8
 71
     3
 72
    11
 73
     7
 74
     0
 42
0.000000001
 43
0.00000001
 40
0.0
 40
0.0
 40
0.0
 40
0.0
 40
0.2804754734820694
 40
0.5595654935685358
 40
0.7796409827162585
 40
1.0
 40
1.0
 40
1.0
 40
1.0
 10
329.8798200473414
 20
184.5199674602326
 30
0.0
 10
330.0241352399933
 20
184.5139870270494
 30
0.0
 10
330.3120527573545
 20
184.5020557019878
 30
0.0
 10
330.679307087353
 20
184.3126067384895
 30
0.0
 10
330.919735063601
 20
184.0221992531411
 30
0.0
 10
330.9869959011721
 20
183.8057957063261
 30
0.0
 10
331.0206479694193
 20
183.6975242784145
 30
0.0
  0
SPLINE
  5
2D4
330
1F
100
AcDbEntity
  8
0
  6
Continuous
 62
     7
370
    25
100
AcDbSpline
210
0.0
220
0.0
230
1.0
 70
     8
 71
     3
 72
    13
 73
     9
 74
     0
 42
0.000000001
 43
0.00000001
 40
0.0
 40
0.0
 40
0.0
 40
0.0
 40
0.1871594996892772
 40
0.3740638197467887
 40
0.5598195326586866
 40
0.7062514219437482
 40
0.8530012592542185
 40
1.0
 40
1.0
 40
1.0
 40
1.0
 10
328.6123687486401
 20
182.9931817459469
 30
0.0
 10
328.6161963000278
 20
183.1361714215484
 30
0.0
 10
328.6238461841896
 20
183.4219558157609
 30
0.0
 10
328.7071432798195
 20
183.8435596564416
 30
0.0
 10
328.9038187474951
 20
184.2039612333854
 30
0.0
 10
329.2166075184012
 20
184.4107473018957
 30
0.0
 10
329.5427007863869
 20
184.5068070246019
 30
0.0
 10
329.7673834998516
 20
184.5155781709895
 30
0.0
 10
329.8798200473414
 20
184.5199674602326
 30
0.0
  0
SPLINE
  5
2D5
330
1F
100
AcDbEntity
  8
0
  6
Continuous
 62
     7
370
    25
100
AcDbSpline
210
0.0
220
0.0
230
1.0
 70
     8
 71
     3
 72
    10
 73
     6
 74
     0
 42
0.000000001
 43
0.00000001
 40
0.0
 40
0.0
 40
0.0
 40
0.0
 40
0.2795726797720486
 40
0.5597722494360149
 40
1.0
 40
1.0
 40
1.0
 40
1.0
 10
328.8455262161725
 20
181.9132304472456
 30
0.0
 10
328.7981648489074
 20
182.0063986115418
 30
0.0
 10
328.7033359152937
 20
182.192943852466
 30
0.0
 10
328.6299542124852
 20
182.5615084646924
 30
0.0
 10
328.6190387829905
 20
182.8294513127049
 30
0.0
 10
328.6123687486401
 20
182.9931817459469
 30
0.0
  0
LINE
  5
2D6
330
1F
100
AcDbEntity
  8
0
  6
Continuous
 62
     7
370
    25
100
AcDbLine
 10
336.1534596577
 20
186.0810064213
 30
0.0
 11
359.4874596577
 21
186.0810064213
 31
0.0
  0
LINE
  5
2D7
330
1F
100
AcDbEntity
  8
0
  6
Continuous
 62
     7
370
    25
100
AcDbLine
 10
336.1534596577
 20
178.9810064213
 30
0.0
 11
336.1534596577
 21
186.0810064213
 31
0.0
  0
LINE
  5
2D8
330
1F
100
AcDbEntity
  8
0
  6
Continuous
 62
     7
370
    25
100
AcDbLine
 10
359.4874596577
 20
178.9810064213
 30
0.0
 11
336.1534596577
 21
178.9810064213
 31
0.0
  0
LINE
  5
2D9
330
1F
100
AcDbEntity
  8
0
  6
Continuous
 62
     7
370
    25
100
AcDbLine
 10
359.4874596577
 20
186.0810064213
 30
0.0
 11
359.4874596577
 21
178.9810064213
 31
0.0
  0
LINE
  5
2DA
330
1F
100
AcDbEntity
  8
0
  6
Continuous
 62
     7
370
    25
100
AcDbLine
 10
202.8214596577
 20
178.9810064213
 30
0.0
 11
202.8214596577
 21
186.0810064213
 31
0.0
  0
LINE
  5
2DB
330
1F
100
AcDbEntity
  8
0
  6
Continuous
 62
     7
370
    25
100
AcDbLine
 10
226.1554596577
 20
178.9810064213
 30
0.0
 11
202.8214596577
 21
178.9810064213
 31
0.0
  0
LINE
  5
2DC
330
1F
100
AcDbEntity
  8
0
  6
Continuous
 62
     7
370
    25
100
AcDbLine
 10
226.1554596577
 20
186.0810064213
 30
0.0
 11
226.1554596577
 21
178.9810064213
 31
0.0
  0
LINE
  5
2DD
330
1F
100
AcDbEntity
  8
0
  6
Continuous
 62
     7
370
    25
100
AcDbLine
 10
202.8214596577
 20
186.0810064213
 30
0.0
 11
226.1554596577
 21
186.0810064213
 31
0.0
  0
LINE
  5
2DE
330
1F
100
AcDbEntity
  8
0
  6
Continuous
 62
     7
370
    25
100
AcDbLine
 10
236.1554596577
 20
178.9810064213
 30
0.0
 11
236.1554596577
 21
186.0810064213
 31
0.0
  0
LINE
  5
2DF
330
1F
100
AcDbEntity
  8
0
  6
Continuous
 62
     7
370
    25
100
AcDbLine
 10
259.4894596577
 20
178.9810064213
 30
0.0
 11
236.1554596577
 21
178.9810064213
 31
0.0
  0
LINE
  5
2E0
330
1F
100
AcDbEntity
  8
0
  6
Continuous
 62
     7
370
    25
100
AcDbLine
 10
259.4894596577
 20
186.0810064213
 30
0.0
 11
259.4894596577
 21
178.9810064213
 31
0.0
  0
LINE
  5
2E1
330
1F
100
AcDbEntity
  8
0
  6
Continuous
 62
     7
370
    25
100
AcDbLine
 10
236.1554596577
 20
186.0810064213
 30
0.0
 11
259.4894596577
 21
186.0810064213
 31
0.0
  0
LINE
  5
2E2
330
1F
100
AcDbEntity
  8
0
  6
Continuous
 62
     7
370
    25
100
AcDbLine
 10
369.4874596577
 20
186.0810064213
 30
0.0
 11
392.8214596577
 21
186.0810064213
 31
0.0
  0
LINE
  5
2E3
330
1F
100
AcDbEntity
  8
0
  6
Continuous
 62
     7
370
    25
100
AcDbLine
 10
369.4874596577
 20
178.9810064213
 30
0.0
 11
369.4874596577
 21
186.0810064213
 31
0.0
  0
LINE
  5
2E4
330
1F
100
AcDbEntity
  8
0
  6
Continuous
 62
     7
370
    25
100
AcDbLine
 10
392.8214596577
 20
178.9810064213
 30
0.0
 11
369.4874596577
 21
178.9810064213
 31
0.0
  0
LINE
  5
2E5
330
1F
100
AcDbEntity
  8
0
  6
Continuous
 62
     7
370
    25
100
AcDbLine
 10
392.8214596577
 20
186.0810064213
 30
0.0
 11
392.8214596577
 21
178.9810064213
 31
0.0
  0
SPLINE
  5
2E6
330
1F
100
AcDbEntity
  8
0
  6
Continuous
 62
     7
370
    25
100
AcDbSpline
210
0.0
220
0.0
230
1.0
 70
     8
 71
     3
 72
    11
 73
     7
 74
     0
 42
0.000000001
 43
0.00000001
 40
0.0
 40
0.0
 40
0.0
 40
0.0
 40
0.2803107270246911
 40
0.5598885774967308
 40
0.7799214485274916
 40
1.0
 40
1.0
 40
1.0
 40
1.0
 10
326.7248281642244
 20
181.4420453823105
 30
0.0
 10
326.6155662253805
 20
181.4457727659098
 30
0.0
 10
326.3973280146517
 20
181.4532177878085
 30
0.0
 10
326.1027077335877
 20
181.5449278679063
 30
0.0
 10
325.8689836522466
 20
181.7076051628674
 30
0.0
 10
325.7650372695178
 20
181.8446839431847
 30
0.0
 10
325.713058683705
 20
181.9132304472456
 30
0.0
  0
SPLINE
  5
2E7
330
1F
100
AcDbEntity
  8
0
  6
Continuous
 62
     7
370
    25
100
AcDbSpline
210
0.0
220
0.0
230
1.0
 70
     8
 71
     3
 72
    13
 73
     9
 74
     0
 42
0.000000001
 43
0.00000001
 40
0.0
 40
0.0
 40
0.0
 40
0.0
 40
0.1871174103431614
 40
0.3740390809668519
 40
0.5601850337173808
 40
0.7063736238378248
 40
0.8530463346113663
 40
1.0
 40
1.0
 40
1.0
 40
1.0
 10
327.973407709679
 20
183.003530771921
 30
0.0
 10
327.9695429973953
 20
182.859382991481
 30
0.0
 10
327.9618176156249
 20
182.5712382206641
 30
0.0
 10
327.8789707029924
 20
182.1468177840125
 30
0.0
 10
327.7001325403373
 20
181.775482238484
 30
0.0
 10
327.3941922617774
 20
181.5504723146949
 30
0.0
 10
327.064173560301
 20
181.455585638181
 30
0.0
 10
326.8380154289283
 20
181.4465616791076
 30
0.0
 10
326.7248281642244
 20
181.4420453823105
 30
0.0
  0
SPLINE
  5
2E8
330
1F
100
AcDbEntity
  8
0
  6
Continuous
 62
     7
370
    25
100
AcDbSpline
210
0.0
220
0.0
230
1.0
 70
     8
 71
     3
 72
     9
 73
     5
 74
     0
 42
0.000000001
 43
0.00000001
 40
0.0
 40
0.0
 40
0.0
 40
0.0
 40
0.5599148219539344
 40
1.0
 40
1.0
 40
1.0
 40
1.0
 10
327.8881804369517
 20
183.6975242784144
 30
0.0
 10
327.9158206566239
 20
183.5693498710632
 30
0.0
 10
327.965185700356
 20
183.340432181576
 30
0.0
 10
327.970895091334
 20
183.1064867075227
 30
0.0
 10
327.973407709679
 20
183.003530771921
 30
0.0
  0
SPLINE
  5
2E9
330
1F
100
AcDbEntity
  8
0
  6
Continuous
 62
     7
370
    25
100
AcDbSpline
210
0.0
220
0.0
230
1.0
 70
     8
 71
     3
 72
    11
 73
     7
 74
     0
 42
0.000000001
 43
0.00000001
 40
0.0
 40
0.0
 40
0.0
 40
0.0
 40
0.2804754734820832
 40
0.5595654935685364
 40
0.7796409827162587
 40
0.9999999999999999
 40
0.9999999999999999
 40
0.9999999999999999
 40
0.9999999999999999
 10
326.7473525148738
 20
184.5199674602326
 30
0.0
 10
326.8916677075258
 20
184.5139870270494
 30
0.0
 10
327.179585224887
 20
184.5020557019878
 30
0.0
 10
327.5468395548855
 20
184.3126067384895
 30
0.0
 10
327.7872675311335
 20
184.0221992531411
 30
0.0
 10
327.8545283687046
 20
183.8057957063261
 30
0.0
 10
327.8881804369517
 20
183.6975242784144
 30
0.0
  0
SPLINE
  5
2EA
330
1F
100
AcDbEntity
  8
0
  6
Continuous
 62
     7
370
    25
100
AcDbSpline
210
0.0
220
0.0
230
1.0
 70
     8
 71
     3
 72
    13
 73
     9
 74
     0
 42
0.000000001
 43
0.00000001
 40
0.0
 40
0.0
 40
0.0
 40
0.0
 40
0.1871594996892775
 40
0.3740638197467891
 40
0.5598195326586873
 40
0.7062514219437572
 40
0.8530012592542183
 40
1.0
 40
1.0
 40
1.0
 40
1.0
 10
325.4799012161725
 20
182.9931817459469
 30
0.0
 10
325.4837287675603
 20
183.1361714215484
 30
0.0
 10
325.491378651722
 20
183.421955815761
 30
0.0
 10
325.5746757473519
 20
183.8435596564416
 30
0.0
 10
325.7713512150276
 20
184.2039612333854
 30
0.0
 10
326.0841399859338
 20
184.4107473018957
 30
0.0
 10
326.4102332539194
 20
184.5068070246019
 30
0.0
 10
326.6349159673841
 20
184.5155781709895
 30
0.0
 10
326.7473525148738
 20
184.5199674602326
 30
0.0
  0
SPLINE
  5
2EB
330
1F
100
AcDbEntity
  8
0
  6
Continuous
 62
     7
370
    25
100
AcDbSpline
210
0.0
220
0.0
230
1.0
 70
     8
 71
     3
 72
    10
 73
     6
 74
     0
 42
0.000000001
 43
0.00000001
 40
0.0
 40
0.0
 40
0.0
 40
0.0
 40
0.2795726797720398
 40
0.5597722494360187
 40
1.0
 40
1.0
 40
1.0
 40
1.0
 10
325.713058683705
 20
181.9132304472456
 30
0.0
 10
325.6656973164399
 20
182.0063986115418
 30
0.0
 10
325.5708683828262
 20
182.192943852466
 30
0.0
 10
325.4974866800176
 20
182.5615084646923
 30
0.0
 10
325.486571250523
 20
182.8294513127049
 30
0.0
 10
325.4799012161725
 20
182.9931817459469
 30
0.0
  0
LINE
  5
2EC
330
1F
100
AcDbEntity
  8
0
  6
Continuous
 62
     7
370
    25
100
AcDbLine
 10
319.0137080344
 20
181.4810064213
 30
0.0
 11
318.0025473201
 21
181.4810064213
 31
0.0
  0
LINE
  5
2ED
330
1F
100
AcDbEntity
  8
0
  6
Continuous
 62
     7
370
    25
100
AcDbLine
 10
320.1344466707
 20
184.4810064213
 30
0.0
 11
319.0137080344
 21
181.4810064213
 31
0.0
  0
LINE
  5
2EE
330
1F
100
AcDbEntity
  8
0
  6
Continuous
 62
     7
370
    25
100
AcDbLine
 10
319.1890327097
 20
184.4810064213
 30
0.0
 11
320.1344466707
 21
184.4810064213
 31
0.0
  0
LINE
  5
2EF
330
1F
100
AcDbEntity
  8
0
  6
Continuous
 62
     7
370
    25
100
AcDbLine
 10
318.5175635538
 20
182.3223213563
 30
0.0
 11
319.1890327097
 21
184.4810064213
 31
0.0
  0
LINE
  5
2F0
330
1F
100
AcDbEntity
  8
0
  6
Continuous
 62
     7
370
    25
100
AcDbLine
 10
317.835745372
 20
184.4810064213
 30
0.0
 11
318.5175635538
 21
182.3223213563
 31
0.0
  0
LINE
  5
2F1
330
1F
100
AcDbEntity
  8
0
  6
Continuous
 62
     7
370
    25
100
AcDbLine
 10
316.861719398
 20
184.4810064213
 30
0.0
 11
317.835745372
 21
184.4810064213
 31
0.0
  0
LINE
  5
2F2
330
1F
100
AcDbEntity
  8
0
  6
Continuous
 62
     7
370
    25
100
AcDbLine
 10
318.0025473201
 20
181.4810064213
 30
0.0
 11
316.861719398
 21
184.4810064213
 31
0.0
  0
LINE
  5
2F3
330
1F
100
AcDbEntity
  8
0
  6
Continuous
 62
     7
370
    25
100
AcDbLine
 10
309.3422388785
 20
183.1563310966
 30
0.0
 11
307.1214596577
 21
183.1563310966
 31
0.0
  0
LINE
  5
2F4
330
1F
100
AcDbEntity
  8
0
  6
Continuous
 62
     7
370
    25
100
AcDbLine
 10
309.3422388785
 20
183.8186687589
 30
0.0
 11
309.3422388785
 21
183.1563310966
 31
0.0
  0
LINE
  5
2F5
330
1F
100
AcDbEntity
  8
0
  6
Continuous
 62
     7
370
    25
100
AcDbLine
 10
307.1214596577
 20
183.8186687589
 30
0.0
 11
309.3422388785
 21
183.8186687589
 31
0.0
  0
LINE
  5
2F6
330
1F
100
AcDbEntity
  8
0
  6
Continuous
 62
     7
370
    25
100
AcDbLine
 10
307.1214596577
 20
183.1563310966
 30
0.0
 11
307.1214596577
 21
183.8186687589
 31
0.0
  0
LINE
  5
2F7
330
1F
100
AcDbEntity
  8
0
  6
Continuous
 62
     7
370
    25
100
AcDbLine
 10
306.248732385
 20
183.1563310966
 30
0.0
 11
304.0279531642
 21
183.1563310966
 31
0.0
  0
LINE
  5
2F8
330
1F
100
AcDbEntity
  8
0
  6
Continuous
 62
     7
370
    25
100
AcDbLine
 10
306.248732385
 20
183.8186687589
 30
0.0
 11
306.248732385
 21
183.1563310966
 31
0.0
  0
LINE
  5
2F9
330
1F
100
AcDbEntity
  8
0
  6
Continuous
 62
     7
370
    25
100
AcDbLine
 10
304.0279531642
 20
183.8186687589
 30
0.0
 11
306.248732385
 21
183.8186687589
 31
0.0
  0
LINE
  5
2FA
330
1F
100
AcDbEntity
  8
0
  6
Continuous
 62
     7
370
    25
100
AcDbLine
 10
304.0279531642
 20
183.1563310966
 30
0.0
 11
304.0279531642
 21
183.8186687589
 31
0.0
  0
LINE
  5
2FB
330
1F
100
AcDbEntity
  8
0
  6
Continuous
 62
     7
370
    25
100
AcDbLine
 10
291.0773038136
 20
181.4810064213
 30
0.0
 11
290.2201609564
 21
181.4810064213
 31
0.0
  0
LINE
  5
2FC
330
1F
100
AcDbEntity
  8
0
  6
Continuous
 62
     7
370
    25
100
AcDbLine
 10
291.0773038136
 20
183.131371681
 30
0.0
 11
291.0773038136
 21
181.4810064213
 31
0.0
  0
LINE
  5
2FD
330
1F
100
AcDbEntity
  8
0
  6
Continuous
 62
     7
370
    25
100
AcDbLine
 10
292.2071739434
 20
181.4810064213
 30
0.0
 11
291.0773038136
 21
183.131371681
 31
0.0
  0
LINE
  5
2FE
330
1F
100
AcDbEntity
  8
0
  6
Continuous
 62
     7
370
    25
100
AcDbLine
 10
293.1032778395
 20
181.4810064213
 30
0.0
 11
292.2071739434
 21
181.4810064213
 31
0.0
  0
LINE
  5
2FF
330
1F
100
AcDbEntity
  8
0
  6
Continuous
 62
     7
370
    25
100
AcDbLine
 10
293.1032778395
 20
184.4810064213
 30
0.0
 11
293.1032778395
 21
181.4810064213
 31
0.0
  0
LINE
  5
300
330
1F
100
AcDbEntity
  8
0
  6
Continuous
 62
     7
370
    25
100
AcDbLine
 10
292.2071739434
 20
184.4810064213
 30
0.0
 11
293.1032778395
 21
184.4810064213
 31
0.0
  0
LINE
  5
301
330
1F
100
AcDbEntity
  8
0
  6
Continuous
 62
     7
370
    25
100
AcDbLine
 10
292.2071739434
 20
182.821509668
 30
0.0
 11
292.2071739434
 21
184.4810064213
 31
0.0
  0
LINE
  5
302
330
1F
100
AcDbEntity
  8
0
  6
Continuous
 62
     7
370
    25
100
AcDbLine
 10
291.0712161512
 20
184.4810064213
 30
0.0
 11
292.2071739434
 21
182.821509668
 31
0.0
  0
LINE
  5
303
330
1F
100
AcDbEntity
  8
0
  6
Continuous
 62
     7
370
    25
100
AcDbLine
 10
290.2201609564
 20
184.4810064213
 30
0.0
 11
291.0712161512
 21
184.4810064213
 31
0.0
  0
LINE
  5
304
330
1F
100
AcDbEntity
  8
0
  6
Continuous
 62
     7
370
    25
100
AcDbLine
 10
290.2201609564
 20
181.4810064213
 30
0.0
 11
290.2201609564
 21
184.4810064213
 31
0.0
  0
LINE
  5
305
330
1F
100
AcDbEntity
  8
0
  6
Continuous
 62
     7
370
    25
100
AcDbLine
 10
287.6175635538
 20
181.4810064213
 30
0.0
 11
286.6423200473
 21
181.4810064213
 31
0.0
  0
LINE
  5
306
330
1F
100
AcDbEntity
  8
0
  6
Continuous
 62
     7
370
    25
100
AcDbLine
 10
286.4992599824
 20
184.4810064213
 30
0.0
 11
287.6175635538
 21
181.4810064213
 31
0.0
  0
LINE
  5
307
330
1F
100
AcDbEntity
  8
0
  6
Continuous
 62
     7
370
    25
100
AcDbLine
 10
285.4442680993
 20
184.4810064213
 30
0.0
 11
286.4992599824
 21
184.4810064213
 31
0.0
  0
LINE
  5
308
330
1F
100
AcDbEntity
  8
0
  6
Continuous
 62
     7
370
    25
100
AcDbLine
 10
284.3448362811
 20
181.4810064213
 30
0.0
 11
285.4442680993
 21
184.4810064213
 31
0.0
  0
LINE
  5
309
330
1F
100
AcDbEntity
  8
0
  6
Continuous
 62
     7
370
    25
100
AcDbLine
 10
285.2945116058
 20
181.4810064213
 30
0.0
 11
284.3448362811
 21
181.4810064213
 31
0.0
  0
LINE
  5
30A
330
1F
100
AcDbEntity
  8
0
  6
Continuous
 62
     7
370
    25
100
AcDbLine
 10
285.446094398
 20
181.9874999278
 30
0.0
 11
285.2945116058
 21
181.4810064213
 31
0.0
  0
LINE
  5
30B
330
1F
100
AcDbEntity
  8
0
  6
Continuous
 62
     7
370
    25
100
AcDbLine
 10
286.4907372551
 20
181.9874999278
 30
0.0
 11
285.446094398
 21
181.9874999278
 31
0.0
  0
LINE
  5
30C
330
1F
100
AcDbEntity
  8
0
  6
Continuous
 62
     7
370
    25
100
AcDbLine
 10
286.6423200473
 20
181.4810064213
 30
0.0
 11
286.4907372551
 21
181.9874999278
 31
0.0
  0
LINE
  5
30D
330
1F
100
AcDbEntity
  8
0
  6
Continuous
 62
     7
370
    25
100
AcDbLine
 10
278.8365976447
 20
181.4810064213
 30
0.0
 11
277.4565245928
 21
181.4810064213
 31
0.0
  0
SPLINE
  5
30E
330
1F
100
AcDbEntity
  8
0
  6
Continuous
 62
     7
370
    25
100
AcDbSpline
210
0.0
220
0.0
230
1.0
 70
     8
 71
     3
 72
     9
 73
     5
 74
     0
 42
0.000000001
 43
0.00000001
 40
0.0
 40
0.0
 40
0.0
 40
0.0
 40
0.5600530855990129
 40
1.0
 40
1.0
 40
1.0
 40
1.0
 10
279.3899661512374
 20
181.5625810965963
 30
0.0
 10
279.2880005866989
 20
181.5377496446909
 30
0.0
 10
279.1059364803481
 20
181.49341196931
 30
0.0
 10
278.9188887267744
 20
181.4847966877921
 30
0.0
 10
278.8365976447439
 20
181.4810064212716
 30
0.0
  0
SPLINE
  5
30F
330
1F
100
AcDbEntity
  8
0
  6
Continuous
 62
     7
370
    25
100
AcDbSpline
210
0.0
220
0.0
230
1.0
 70
     8
 71
     3
 72
    11
 73
     7
 74
     0
 42
0.000000001
 43
0.00000001
 40
0.0
 40
0.0
 40
0.0
 40
0.0
 40
0.2808746777100742
 40
0.5603295785048668
 40
0.7804248279245463
 40
1.0
 40
1.0
 40
1.0
 40
1.0
 10
280.2227583590296
 20
182.9913554472456
 30
0.0
 10
280.2193480626071
 20
182.8238464969303
 30
0.0
 10
280.212544708269
 20
182.4896753274563
 30
0.0
 10
280.0429633220983
 20
182.0475529414083
 30
0.0
 10
279.7549242750629
 20
181.7154541485229
 30
0.0
 10
279.5115228876356
 20
181.6134985801712
 30
0.0
 10
279.3899661512374
 20
181.5625810965963
 30
0.0
  0
SPLINE
  5
310
330
1F
100
AcDbEntity
  8
0
  6
Continuous
 62
     7
370
    25
100
AcDbSpline
210
0.0
220
0.0
230
1.0
 70
     8
 71
     3
 72
    12
 73
     8
 74
     0
 42
0.000000001
 43
0.00000001
 40
0.0
 40
0.0
 40
0.0
 40
0.0
 40
0.1871288916578505
 40
0.3734679890400959
 40
0.5597708942708912
 40
0.7795228612054906
 40
1.0
 40
1.0
 40
1.0
 40
1.0
 10
278.8365976447439
 20
184.4810064212716
 30
0.0
 10
278.9817008477246
 20
184.4761613299517
 30
0.0
 10
279.2712948325998
 20
184.4664915964543
 30
0.0
 10
279.6853664712582
 20
184.3028196364135
 30
0.0
 10
280.0125516643916
 20
183.9652125695639
 30
0.0
 10
280.193793272532
 20
183.5027285965874
 30
0.0
 10
280.2130927331197
 20
183.1620002530996
 30
0.0
 10
280.2227583590296
 20
182.9913554472456
 30
0.0
  0
LINE
  5
311
330
1F
100
AcDbEntity
  8
0
  6
Continuous
 62
     7
370
    25
100
AcDbLine
 10
277.4565245928
 20
184.4810064213
 30
0.0
 11
278.8365976447
 21
184.4810064213
 31
0.0
  0
LINE
  5
312
330
1F
100
AcDbEntity
  8
0
  6
Continuous
 62
     7
370
    25
100
AcDbLine
 10
277.4565245928
 20
181.4810064213
 30
0.0
 11
277.4565245928
 21
184.4810064213
 31
0.0
  0
SPLINE
  5
313
330
1F
100
AcDbEntity
  8
0
  6
Continuous
 62
     7
370
    25
100
AcDbSpline
210
0.0
220
0.0
230
1.0
 70
     8
 71
     3
 72
    12
 73
     8
 74
     0
 42
0.000000001
 43
0.00000001
 40
0.0
 40
0.0
 40
0.0
 40
0.0
 40
0.2509627188358701
 40
0.5011774878576137
 40
0.6262419065927434
 40
0.7513775606905737
 40
0.9999999999999999
 40
0.9999999999999999
 40
0.9999999999999999
 40
0.9999999999999999
 10
269.1110700473412
 20
182.9931817459469
 30
0.0
 10
269.1137966493836
 20
182.8957013571473
 30
0.0
 10
269.1192417273151
 20
182.7010311025349
 30
0.0
 10
269.1697727157511
 20
182.4564246789811
 30
0.0
 10
269.2791585129895
 20
182.2919856318557
 30
0.0
 10
269.4371984246242
 20
182.1696813598328
 30
0.0
 10
269.5857271232362
 20
182.1538650390622
 30
0.0
 10
269.684527839549
 20
182.1433440836093
 30
0.0
  0
SPLINE
  5
314
330
1F
100
AcDbEntity
  8
0
  6
Continuous
 62
     7
370
    25
100
AcDbSpline
210
0.0
220
0.0
230
1.0
 70
     8
 71
     3
 72
     9
 73
     5
 74
     0
 42
0.000000001
 43
0.00000001
 40
0.0
 40
0.0
 40
0.0
 40
0.0
 40
0.5582410053773855
 40
1.0
 40
1.0
 40
1.0
 40
1.0
 10
269.2364758914972
 20
183.5709009017911
 30
0.0
 10
269.1923511723085
 20
183.4675735390577
 30
0.0
 10
269.1133087537765
 20
183.282478997922
 30
0.0
 10
269.1117559932641
 20
183.0818232343346
 30
0.0
 10
269.1110700473412
 20
182.9931817459469
 30
0.0
  0
SPLINE
  5
315
330
1F
100
AcDbEntity
  8
0
  6
Continuous
 62
     7
370
    25
100
AcDbSpline
210
0.0
220
0.0
230
1.0
 70
     8
 71
     3
 72
     9
 73
     5
 74
     0
 42
0.000000001
 43
0.00000001
 40
0.0
 40
0.0
 40
0.0
 40
0.0
 40
0.558977099322407
 40
1.0
 40
1.0
 40
1.0
 40
1.0
 10
269.7143573850036
 20
183.8186687589339
 30
0.0
 10
269.6065097151727
 20
183.8061419678747
 30
0.0
 10
269.4135721691414
 20
183.7837317634593
 30
0.0
 10
269.2906759420509
 20
183.6360374682693
 30
0.0
 10
269.2364758914972
 20
183.5709009017911
 30
0.0
  0
SPLINE
  5
316
330
1F
100
AcDbEntity
  8
0
  6
Continuous
 62
     7
370
    25
100
AcDbSpline
210
0.0
220
0.0
230
1.0
 70
     8
 71
     3
 72
     9
 73
     5
 74
     0
 42
0.000000001
 43
0.00000001
 40
0.0
 40
0.0
 40
0.0
 40
0.0
 40
0.558822529626901
 40
1.0
 40
1.0
 40
1.0
 40
1.0
 10
270.1520603070816
 20
183.5940340186742
 30
0.0
 10
270.0847953455698
 20
183.6658253930184
 30
0.0
 10
269.9644262517241
 20
183.7942943980031
 30
0.0
 10
269.7909091992713
 20
183.8112072081406
 30
0.0
 10
269.7143573850036
 20
183.8186687589339
 30
0.0
  0
SPLINE
  5
317
330
1F
100
AcDbEntity
  8
0
  6
Continuous
 62
     7
370
    25
100
AcDbSpline
210
0.0
220
0.0
230
1.0
 70
     8
 71
     3
 72
     9
 73
     5
 74
     0
 42
0.000000001
 43
0.00000001
 40
0.0
 40
0.0
 40
0.0
 40
0.0
 40
0.5602363698832974
 40
1.0
 40
1.0
 40
1.0
 40
1.0
 10
270.2409401772114
 20
183.3900973303625
 30
0.0
 10
270.2285888735314
 20
183.4300798803602
 30
0.0
 10
270.2065422797292
 20
183.5014471677177
 30
0.0
 10
270.1687013650762
 20
183.5657541477106
 30
0.0
 10
270.1520603070816
 20
183.5940340186742
 30
0.0
  0
LINE
  5
318
330
1F
100
AcDbEntity
  8
0
  6
Continuous
 62
     7
370
    25
100
AcDbLine
 10
271.0591219954
 20
183.5751622654
 30
0.0
 11
270.2409401772
 21
183.3900973304
 31
0.0
  0
SPLINE
  5
319
330
1F
100
AcDbEntity
  8
0
  6
Continuous
 62
     7
370
    25
100
AcDbSpline
210
0.0
220
0.0
230
1.0
 70
     8
 71
     3
 72
    11
 73
     7
 74
     0
 42
0.000000001
 43
0.00000001
 40
0.0
 40
0.0
 40
0.0
 40
0.0
 40
0.2805331559289115
 40
0.5594709749073712
 40
0.7794721527169883
 40
1.0
 40
1.0
 40
1.0
 40
1.0
 10
269.6887892031855
 20
184.5199674602327
 30
0.0
 10
269.8579880984847
 20
184.5123168077474
 30
0.0
 10
270.1954236882027
 20
184.4970590105347
 30
0.0
 10
270.6339765353519
 20
184.2873712270033
 30
0.0
 10
270.9161734705496
 20
183.9470628114526
 30
0.0
 10
271.011434524355
 20
183.6992278795154
 30
0.0
 10
271.0591219953932
 20
183.5751622654275
 30
0.0
  0
SPLINE
  5
31A
330
1F
100
AcDbEntity
  8
0
  6
Continuous
 62
     7
370
    25
100
AcDbSpline
210
0.0
220
0.0
230
1.0
 70
     8
 71
     3
 72
    12
 73
     8
 74
     0
 42
0.000000001
 43
0.00000001
 40
0.0
 40
0.0
 40
0.0
 40
0.0
 40
0.1871345876605816
 40
0.3738495955563345
 40
0.560250216447748
 40
0.7797137717986645
 40
1.0
 40
1.0
 40
1.0
 40
1.0
 10
268.1760051122764
 20
182.9883116160768
 30
0.0
 10
268.1830980816845
 20
183.1409605658192
 30
0.0
 10
268.1972681171531
 20
183.4459162067655
 30
0.0
 10
268.3545152696452
 20
183.8840245940216
 30
0.0
 10
268.6739479775222
 20
184.2598580161917
 30
0.0
 10
269.1491876308436
 20
184.4895887631198
 30
0.0
 10
269.5086978248576
 20
184.5098286064648
 30
0.0
 10
269.6887892031855
 20
184.5199674602326
 30
0.0
  0
SPLINE
  5
31B
330
1F
100
AcDbEntity
  8
0
  6
Continuous
 62
     7
370
    25
100
AcDbSpline
210
0.0
220
0.0
230
1.0
 70
     8
 71
     3
 72
    12
 73
     8
 74
     0
 42
0.000000001
 43
0.00000001
 40
0.0
 40
0.0
 40
0.0
 40
0.0
 40
0.187222836660586
 40
0.3737348794435164
 40
0.5601839898708915
 40
0.7796864789897738
 40
1.0
 40
1.0
 40
1.0
 40
1.0
 10
269.7374905018867
 20
181.4420453823105
 30
0.0
 10
269.5816074400703
 20
181.4477958887415
 30
0.0
 10
269.2704331284619
 20
181.4592750697326
 30
0.0
 10
268.814086535008
 20
181.6068711250003
 30
0.0
 10
268.4501279379846
 20
181.9571930429728
 30
0.0
 10
268.2054376709171
 20
182.4344204693036
 30
0.0
 10
268.1858280187221
 20
182.8034543978406
 30
0.0
 10
268.1760051122764
 20
182.9883116160768
 30
0.0
  0
SPLINE
  5
31C
330
1F
100
AcDbEntity
  8
0
  6
Continuous
 62
     7
370
    25
100
AcDbSpline
210
0.0
220
0.0
230
1.0
 70
     8
 71
     3
 72
    11
 73
     7
 74
     0
 42
0.000000001
 43
0.00000001
 40
0.0
 40
0.0
 40
0.0
 40
0.0
 40
0.2801357057900862
 40
0.5592083359447787
 40
0.7792493101251777
 40
1.0
 40
1.0
 40
1.0
 40
1.0
 10
271.0980830343543
 20
182.4818181095833
 30
0.0
 10
271.0452371825931
 20
182.3135305721588
 30
0.0
 10
270.9397460216516
 20
181.9775941248646
 30
0.0
 10
270.5802840520901
 20
181.6180797732268
 30
0.0
 10
270.1513010911604
 20
181.4571705049573
 30
0.0
 10
269.8755753463672
 20
181.4470924987029
 30
0.0
 10
269.7374905018868
 20
181.4420453823106
 30
0.0
  0
LINE
  5
31D
330
1F
100
AcDbEntity
  8
0
  6
Continuous
 62
     7
370
    25
100
AcDbLine
 10
270.2799012162
 20
182.727759668
 30
0.0
 11
271.0980830344
 21
182.4818181096
 31
0.0
  0
SPLINE
  5
31E
330
1F
100
AcDbEntity
  8
0
  6
Continuous
 62
     7
370
    25
100
AcDbSpline
210
0.0
220
0.0
230
1.0
 70
     8
 71
     3
 72
    10
 73
     6
 74
     0
 42
0.000000001
 43
0.00000001
 40
0.0
 40
0.0
 40
0.0
 40
0.0
 40
0.280574183286819
 40
0.5589842259654224
 40
1.0
 40
1.0
 40
1.0
 40
1.0
 10
269.684527839549
 20
182.1433440836093
 30
0.0
 10
269.7718468110454
 20
182.1493272988138
 30
0.0
 10
269.9458112404244
 20
182.1612475791501
 30
0.0
 10
270.1884365833926
 20
182.3799328890408
 30
0.0
 10
270.2451408748129
 20
182.5955711137825
 30
0.0
 10
270.2799012161724
 20
182.7277596680248
 30
0.0
  0
LINE
  5
31F
330
1F
100
AcDbEntity
  8
0
  6
Continuous
 62
     7
370
    25
100
AcDbLine
 10
197.8214596577
 20
186.6810064213
 30
0.0
 11
397.8214596577
 21
186.6810064213
 31
0.0
  0
LINE
  5
320
330
1F
100
AcDbEntity
  8
0
  6
Continuous
 62
     7
370
    25
100
AcDbLine
 10
397.8214596577
 20
178.3810064213
 30
0.0
 11
397.8214596577
 21
186.6810064213
 31
0.0
  0
LINE
  5
321
330
1F
100
AcDbEntity
  8
0
  6
Continuous
 62
     7
370
    25
100
AcDbLine
 10
197.8214596577
 20
178.3810064213
 30
0.0
 11
397.8214596577
 21
178.3810064213
 31
0.0
  0
LINE
  5
322
330
1F
100
AcDbEntity
  8
0
  6
Continuous
 62
     7
370
    25
100
AcDbLine
 10
197.8214596577
 20
178.3810064213
 30
0.0
 11
197.8214596577
 21
183.8365201006
 31
0.0
  0
LINE
  5
323
330
1F
100
AcDbEntity
  8
0
  6
Continuous
 62
     7
370
    25
100
AcDbLine
 10
199.8214596577
 20
183.8365201006
 30
0.0
 11
197.8214596577
 21
183.8365201006
 31
0.0
  0
LINE
  5
324
330
1F
100
AcDbEntity
  8
0
  6
Continuous
 62
     7
370
    25
100
AcDbLine
 10
199.8214596577
 20
183.8365201006
 30
0.0
 11
199.8214596577
 21
184.4013124027
 31
0.0
  0
LINE
  5
325
330
1F
100
AcDbEntity
  8
0
  6
Continuous
 62
     7
370
    25
100
AcDbLine
 10
199.8214596577
 20
184.4013124027
 30
0.0
 11
197.8214596577
 21
184.4013124027
 31
0.0
  0
LINE
  5
326
330
1F
100
AcDbEntity
  8
0
  6
Continuous
 62
     7
370
    25
100
AcDbLine
 10
197.8214596577
 20
184.4013124027
 30
0.0
 11
197.8214596577
 21
186.6810064213
 31
0.0
  0
LINE
  5
327
330
1F
100
AcDbEntity
  8
0
  6
Continuous
 62
     7
370
    25
100
AcDbLine
 10
197.8214596577
 20
184.4013124027
 30
0.0
 11
197.8214596577
 21
183.8365201006
 31
0.0
  0
LINE
  5
328
330
1F
100
AcDbEntity
  8
0
  6
Continuous
 62
     7
370
    25
100
AcDbLine
 10
225.7194596577
 20
185.6450064213
 30
0.0
 11
226.1554596577
 21
186.0810064213
 31
0.0
  0
LINE
  5
329
330
1F
100
AcDbEntity
  8
0
  6
Continuous
 62
     7
370
    25
100
AcDbLine
 10
203.2574596577
 20
185.6450064213
 30
0.0
 11
225.7194596577
 21
185.6450064213
 31
0.0
  0
LINE
  5
32A
330
1F
100
AcDbEntity
  8
0
  6
Continuous
 62
     7
370
    25
100
AcDbLine
 10
203.2574596577
 20
185.6450064213
 30
0.0
 11
202.8214596577
 21
186.0810064213
 31
0.0
  0
LINE
  5
32B
330
1F
100
AcDbEntity
  8
0
  6
Continuous
 62
     7
370
    25
100
AcDbLine
 10
203.2574596577
 20
179.4170064213
 30
0.0
 11
203.2574596577
 21
185.6450064213
 31
0.0
  0
LINE
  5
32C
330
1F
100
AcDbEntity
  8
0
  6
Continuous
 62
     7
370
    25
100
AcDbLine
 10
203.2574596577
 20
179.4170064213
 30
0.0
 11
202.8214596577
 21
178.9810064213
 31
0.0
  0
LINE
  5
32D
330
1F
100
AcDbEntity
  8
0
  6
Continuous
 62
     7
370
    25
100
AcDbLine
 10
225.7194596577
 20
179.4170064213
 30
0.0
 11
203.2574596577
 21
179.4170064213
 31
0.0
  0
LINE
  5
32E
330
1F
100
AcDbEntity
  8
0
  6
Continuous
 62
     7
370
    25
100
AcDbLine
 10
225.7194596577
 20
179.4170064213
 30
0.0
 11
226.1554596577
 21
178.9810064213
 31
0.0
  0
LINE
  5
32F
330
1F
100
AcDbEntity
  8
0
  6
Continuous
 62
     7
370
    25
100
AcDbLine
 10
225.7194596577
 20
185.6450064213
 30
0.0
 11
225.7194596577
 21
179.4170064213
 31
0.0
  0
LINE
  5
330
330
1F
100
AcDbEntity
  8
0
  6
Continuous
 62
     7
370
    25
100
AcDbLine
 10
236.5914596577
 20
185.6450064213
 30
0.0
 11
236.1554596577
 21
186.0810064213
 31
0.0
  0
LINE
  5
331
330
1F
100
AcDbEntity
  8
0
  6
Continuous
 62
     7
370
    25
100
AcDbLine
 10
236.5914596577
 20
179.4170064213
 30
0.0
 11
236.5914596577
 21
185.6450064213
 31
0.0
  0
LINE
  5
332
330
1F
100
AcDbEntity
  8
0
  6
Continuous
 62
     7
370
    25
100
AcDbLine
 10
236.5914596577
 20
179.4170064213
 30
0.0
 11
236.1554596577
 21
178.9810064213
 31
0.0
  0
LINE
  5
333
330
1F
100
AcDbEntity
  8
0
  6
Continuous
 62
     7
370
    25
100
AcDbLine
 10
259.0534596577
 20
185.6450064213
 30
0.0
 11
259.4894596577
 21
186.0810064213
 31
0.0
  0
LINE
  5
334
330
1F
100
AcDbEntity
  8
0
  6
Continuous
 62
     7
370
    25
100
AcDbLine
 10
236.5914596577
 20
185.6450064213
 30
0.0
 11
259.0534596577
 21
185.6450064213
 31
0.0
  0
LINE
  5
335
330
1F
100
AcDbEntity
  8
0
  6
Continuous
 62
     7
370
    25
100
AcDbLine
 10
259.0534596577
 20
179.4170064213
 30
0.0
 11
236.5914596577
 21
179.4170064213
 31
0.0
  0
LINE
  5
336
330
1F
100
AcDbEntity
  8
0
  6
Continuous
 62
     7
370
    25
100
AcDbLine
 10
259.0534596577
 20
179.4170064213
 30
0.0
 11
259.4894596577
 21
178.9810064213
 31
0.0
  0
LINE
  5
337
330
1F
100
AcDbEntity
  8
0
  6
Continuous
 62
     7
370
    25
100
AcDbLine
 10
259.0534596577
 20
185.6450064213
 30
0.0
 11
259.0534596577
 21
179.4170064213
 31
0.0
  0
LINE
  5
338
330
1F
100
AcDbEntity
  8
0
  6
Continuous
 62
     7
370
    25
100
AcDbLine
 10
265.9980830344
 20
183.7139609667
 30
0.0
 11
265.6803070603
 21
182.6498375901
 31
0.0
  0
LINE
  5
339
330
1F
100
AcDbEntity
  8
0
  6
Continuous
 62
     7
370
    25
100
AcDbLine
 10
266.3286430993
 20
182.6498375901
 30
0.0
 11
265.9980830344
 21
183.7139609667
 31
0.0
  0
LINE
  5
33A
330
1F
100
AcDbEntity
  8
0
  6
Continuous
 62
     7
370
    25
100
AcDbLine
 10
265.6803070603
 20
182.6498375901
 30
0.0
 11
266.3286430993
 21
182.6498375901
 31
0.0
  0
SPLINE
  5
33B
330
1F
100
AcDbEntity
  8
0
  6
Continuous
 62
     7
370
    25
100
AcDbSpline
210
0.0
220
0.0
230
1.0
 70
     8
 71
     3
 72
    11
 73
     7
 74
     0
 42
0.000000001
 43
0.00000001
 40
0.0
 40
0.0
 40
0.0
 40
0.0
 40
0.2812442903644871
 40
0.5602566171182833
 40
0.7797812630998592
 40
0.9999999999999999
 40
0.9999999999999999
 40
0.9999999999999999
 40
0.9999999999999999
 10
273.9578232940945
 20
183.0193586939988
 30
0.0
 10
273.953721796655
 20
183.1275781101057
 30
0.0
 10
273.94555135139
 20
183.3431581095998
 30
0.0
 10
273.8208464446225
 20
183.6299550412697
 30
0.0
 10
273.5829687502408
 20
183.7969940134036
 30
0.0
 10
273.4125069196684
 20
183.811436245218
 30
0.0
 10
273.3271414759128
 20
183.818668758934
 30
0.0
  0
SPLINE
  5
33C
330
1F
100
AcDbEntity
  8
0
  6
Continuous
 62
     7
370
    25
100
AcDbSpline
210
0.0
220
0.0
230
1.0
 70
     8
 71
     3
 72
    12
 73
     8
 74
     0
 42
0.000000001
 43
0.00000001
 40
0.0
 40
0.0
 40
0.0
 40
0.0
 40
0.2489364512809196
 40
0.3740610104865757
 40
0.4991087764774357
 40
0.7491228497802879
 40
1.0
 40
1.0
 40
1.0
 40
1.0
 10
273.3356642031854
 20
182.1433440836093
 30
0.0
 10
273.4394231912562
 20
182.153183870728
 30
0.0
 10
273.5953352391908
 20
182.1679694945034
 30
0.0
 10
273.7647438385019
 20
182.2906476843424
 30
0.0
 10
273.8887313064685
 20
182.4566457711081
 30
0.0
 10
273.9482849113533
 20
182.7130872548987
 30
0.0
 10
273.9546401829616
 20
182.9171510080694
 30
0.0
 10
273.9578232940945
 20
183.0193586939988
 30
0.0
  0
SPLINE
  5
33D
330
1F
100
AcDbEntity
  8
0
  6
Continuous
 62
     7
370
    25
100
AcDbSpline
210
0.0
220
0.0
230
1.0
 70
     8
 71
     3
 72
    12
 73
     8
 74
     0
 42
0.000000001
 43
0.00000001
 40
0.0
 40
0.0
 40
0.0
 40
0.0
 40
0.1865776882289569
 40
0.3728057319333183
 40
0.5590293167300588
 40
0.7792871014193078
 40
1.0
 40
1.0
 40
1.0
 40
1.0
 10
273.3271414759128
 20
183.818668758934
 30
0.0
 10
273.2532323132866
 20
183.8126625339721
 30
0.0
 10
273.1055524929876
 20
183.8006613396473
 30
0.0
 10
272.9116368197126
 20
183.679445305278
 30
0.0
 10
272.7767551950836
 20
183.4831051704781
 30
0.0
 10
272.7192573597031
 20
183.2390745289533
 30
0.0
 10
272.7138010285724
 20
183.0658711775263
 30
0.0
 10
272.7110700473413
 20
182.9791801225703
 30
0.0
  0
SPLINE
  5
33E
330
1F
100
AcDbEntity
  8
0
  6
Continuous
 62
     7
370
    25
100
AcDbSpline
210
0.0
220
0.0
230
1.0
 70
     8
 71
     3
 72
    11
 73
     7
 74
     0
 42
0.000000001
 43
0.00000001
 40
0.0
 40
0.0
 40
0.0
 40
0.0
 40
0.2813604798120211
 40
0.5605733404902414
 40
0.779932309379346
 40
1.0
 40
1.0
 40
1.0
 40
1.0
 10
272.7110700473413
 20
182.9791801225703
 30
0.0
 10
272.7149548656542
 20
182.8683963654492
 30
0.0
 10
272.7226948495364
 20
182.6476744614956
 30
0.0
 10
272.8340225994199
 20
182.3478610332876
 30
0.0
 10
273.0731260456795
 20
182.1668863801281
 30
0.0
 10
273.248057438987
 20
182.1511999489791
 30
0.0
 10
273.3356642031854
 20
182.1433440836093
 30
0.0
  0
SPLINE
  5
33F
330
1F
100
AcDbEntity
  8
0
  6
Continuous
 62
     7
370
    25
100
AcDbSpline
210
0.0
220
0.0
230
1.0
 70
     8
 71
     3
 72
    12
 73
     8
 74
     0
 42
0.000000001
 43
0.00000001
 40
0.0
 40
0.0
 40
0.0
 40
0.0
 40
0.1875319682627743
 40
0.3748620447849013
 40
0.5608920416161054
 40
0.7794509762682978
 40
1.0
 40
1.0
 40
1.0
 40
1.0
 10
279.2876934239647
 20
182.9718749277651
 30
0.0
 10
279.2857676364856
 20
183.0480461534376
 30
0.0
 10
279.281918134777
 20
183.2003066009436
 30
0.0
 10
279.2437730177482
 20
183.425208832657
 30
0.0
 10
279.1320639938572
 20
183.6493764019668
 30
0.0
 10
278.8888861482598
 20
183.7679816807055
 30
0.0
 10
278.7106276109885
 20
183.7757872482993
 30
0.0
 10
278.6210943979906
 20
183.7797077199729
 30
0.0
  0
SPLINE
  5
340
330
1F
100
AcDbEntity
  8
0
  6
Continuous
 62
     7
370
    25
100
AcDbSpline
210
0.0
220
0.0
230
1.0
 70
     8
 71
     3
 72
    12
 73
     8
 74
     0
 42
0.000000001
 43
0.00000001
 40
0.0
 40
0.0
 40
0.0
 40
0.0
 40
0.1874133212960407
 40
0.3733808410114607
 40
0.5590240519305439
 40
0.7790393159065313
 40
1.0
 40
1.0
 40
1.0
 40
1.0
 10
278.617441800588
 20
182.1823051225703
 30
0.0
 10
278.6934762090125
 20
182.1838118227629
 30
0.0
 10
278.8449584578036
 20
182.1868135996973
 30
0.0
 10
279.0768910803945
 20
182.2430607478736
 30
0.0
 10
279.2320556078375
 20
182.447867255687
 30
0.0
 10
279.2826926421548
 20
182.7019065345021
 30
0.0
 10
279.2860241158829
 20
182.8817569346513
 30
0.0
 10
279.2876934239646
 20
182.9718749277651
 30
0.0
  0
LINE
  5
341
330
1F
100
AcDbEntity
  8
0
  6
Continuous
 62
     7
370
    25
100
AcDbLine
 10
278.3915895279
 20
182.1823051226
 30
0.0
 11
278.6174418006
 21
182.1823051226
 31
0.0
  0
LINE
  5
342
330
1F
100
AcDbEntity
  8
0
  6
Continuous
 62
     7
370
    25
100
AcDbLine
 10
278.3915895279
 20
183.77970772
 30
0.0
 11
278.3915895279
 21
182.1823051226
 31
0.0
  0
LINE
  5
343
330
1F
100
AcDbEntity
  8
0
  6
Continuous
 62
     7
370
    25
100
AcDbLine
 10
278.621094398
 20
183.77970772
 30
0.0
 11
278.3915895279
 21
183.77970772
 31
0.0
  0
LINE
  5
344
330
1F
100
AcDbEntity
  8
0
  6
Continuous
 62
     7
370
    25
100
AcDbLine
 10
286.2922794629
 20
182.6498375901
 30
0.0
 11
285.961719398
 21
183.7139609667
 31
0.0
  0
LINE
  5
345
330
1F
100
AcDbEntity
  8
0
  6
Continuous
 62
     7
370
    25
100
AcDbLine
 10
285.961719398
 20
183.7139609667
 30
0.0
 11
285.643943424
 21
182.6498375901
 31
0.0
  0
LINE
  5
346
330
1F
100
AcDbEntity
  8
0
  6
Continuous
 62
     7
370
    25
100
AcDbLine
 10
285.643943424
 20
182.6498375901
 30
0.0
 11
286.2922794629
 21
182.6498375901
 31
0.0
  0
SPLINE
  5
347
330
1F
100
AcDbEntity
  8
0
  6
Continuous
 62
     7
370
    25
100
AcDbSpline
210
0.0
220
0.0
230
1.0
 70
     8
 71
     3
 72
    11
 73
     7
 74
     0
 42
0.000000001
 43
0.00000001
 40
0.0
 40
0.0
 40
0.0
 40
0.0
 40
0.5018862577432699
 40
0.7503493362982754
 40
0.8750598519788091
 40
1.0
 40
1.0
 40
1.0
 40
1.0
 10
327.1552258914972
 20
182.9621346680248
 30
0.0
 10
327.1545977849418
 20
183.1604204852928
 30
0.0
 10
327.1536587288716
 20
183.4568693899775
 30
0.0
 10
327.0350659167653
 20
183.7989400215517
 30
0.0
 10
326.8684761519578
 20
183.9218510565062
 30
0.0
 10
326.7686829823173
 20
183.9309821364131
 30
0.0
 10
326.7187405018868
 20
183.9355518758171
 30
0.0
  0
SPLINE
  5
348
330
1F
100
AcDbEntity
  8
0
  6
Continuous
 62
     7
370
    25
100
AcDbSpline
210
0.0
220
0.0
230
1.0
 70
     8
 71
     3
 72
    13
 73
     9
 74
     0
 42
0.000000001
 43
0.00000001
 40
0.0
 40
0.0
 40
0.0
 40
0.0
 40
0.1246586177868131
 40
0.2492332997837958
 40
0.3740937670272786
 40
0.4992288385196003
 40
0.7494816988300101
 40
1.0
 40
1.0
 40
1.0
 40
1.0
 10
326.7236106317569
 20
182.0264609667261
 30
0.0
 10
326.7718092259017
 20
182.0312840260117
 30
0.0
 10
326.8681739608625
 20
182.0409268970952
 30
0.0
 10
326.9899599306768
 20
182.1280585463638
 30
0.0
 10
327.0678324506112
 20
182.2509404490746
 30
0.0
 10
327.1272790409867
 20
182.4344432833423
 30
0.0
 10
327.1515202918823
 20
182.6745059940647
 30
0.0
 10
327.1539902552126
 20
182.8662245689879
 30
0.0
 10
327.1552258914972
 20
182.9621346680248
 30
0.0
  0
SPLINE
  5
349
330
1F
100
AcDbEntity
  8
0
  6
Continuous
 62
     7
370
    25
100
AcDbSpline
210
0.0
220
0.0
230
1.0
 70
     8
 71
     3
 72
    11
 73
     7
 74
     0
 42
0.000000001
 43
0.00000001
 40
0.0
 40
0.0
 40
0.0
 40
0.0
 40
0.5017456673382688
 40
0.7504237745458626
 40
0.8751718942706909
 40
1.0
 40
1.0
 40
1.0
 40
1.0
 10
326.2980830343544
 20
182.9840502524404
 30
0.0
 10
326.2992386484267
 20
182.7897226878801
 30
0.0
 10
326.3009670146699
 20
182.4990813650177
 30
0.0
 10
326.419567858661
 20
182.1686122036021
 30
0.0
 10
326.5770754036563
 20
182.0417270605019
 30
0.0
 10
326.674755120688
 20
182.0315507517772
 30
0.0
 10
326.7236106317569
 20
182.0264609667261
 30
0.0
  0
SPLINE
  5
34A
330
1F
100
AcDbEntity
  8
0
  6
Continuous
 62
     7
370
    25
100
AcDbSpline
210
0.0
220
0.0
230
1.0
 70
     8
 71
     3
 72
    11
 73
     7
 74
     0
 42
0.000000001
 43
0.00000001
 40
0.0
 40
0.0
 40
0.0
 40
0.0
 40
0.1249457297153795
 40
0.2496021511032324
 40
0.498187679178404
 40
1.0
 40
1.0
 40
1.0
 40
1.0
 10
326.7187405018868
 20
183.9355518758171
 30
0.0
 10
326.6700012606078
 20
183.9312807103944
 30
0.0
 10
326.5726356323941
 20
183.9227482693126
 30
0.0
 10
326.4096436833054
 20
183.8025651268094
 30
0.0
 10
326.3020838092909
 20
183.4653911617498
 30
0.0
 10
326.29968631007
 20
183.1769434301578
 30
0.0
 10
326.2980830343544
 20
182.9840502524404
 30
0.0
  0
SPLINE
  5
34B
330
1F
100
AcDbEntity
  8
0
  6
Continuous
 62
     7
370
    25
100
AcDbSpline
210
0.0
220
0.0
230
1.0
 70
     8
 71
     3
 72
    11
 73
     7
 74
     0
 42
0.000000001
 43
0.00000001
 40
0.0
 40
0.0
 40
0.0
 40
0.0
 40
0.5018862577432737
 40
0.7503493362982888
 40
0.8750598519788081
 40
1.0
 40
1.0
 40
1.0
 40
1.0
 10
330.2876934239648
 20
182.9621346680248
 30
0.0
 10
330.2870653174094
 20
183.1604204852928
 30
0.0
 10
330.2861262613392
 20
183.4568693899776
 30
0.0
 10
330.1675334492329
 20
183.7989400215516
 30
0.0
 10
330.0009436844254
 20
183.9218510565062
 30
0.0
 10
329.9011505147848
 20
183.930982136413
 30
0.0
 10
329.8512080343544
 20
183.9355518758171
 30
0.0
  0
SPLINE
  5
34C
330
1F
100
AcDbEntity
  8
0
  6
Continuous
 62
     7
370
    25
100
AcDbSpline
210
0.0
220
0.0
230
1.0
 70
     8
 71
     3
 72
    13
 73
     9
 74
     0
 42
0.000000001
 43
0.00000001
 40
0.0
 40
0.0
 40
0.0
 40
0.0
 40
0.1246586177868313
 40
0.2492332997837972
 40
0.3740937670272791
 40
0.4992288385196063
 40
0.7494816988300118
 40
0.9999999999999999
 40
0.9999999999999999
 40
0.9999999999999999
 40
0.9999999999999999
 10
329.8560781642245
 20
182.0264609667262
 30
0.0
 10
329.9042767583692
 20
182.0312840260117
 30
0.0
 10
330.0006414933301
 20
182.0409268970953
 30
0.0
 10
330.1224274631443
 20
182.1280585463637
 30
0.0
 10
330.2002999830788
 20
182.2509404490746
 30
0.0
 10
330.2597465734542
 20
182.4344432833423
 30
0.0
 10
330.2839878243498
 20
182.6745059940647
 30
0.0
 10
330.2864577876801
 20
182.8662245689878
 30
0.0
 10
330.2876934239648
 20
182.9621346680248
 30
0.0
  0
SPLINE
  5
34D
330
1F
100
AcDbEntity
  8
0
  6
Continuous
 62
     7
370
    25
100
AcDbSpline
210
0.0
220
0.0
230
1.0
 70
     8
 71
     3
 72
    11
 73
     7
 74
     0
 42
0.000000001
 43
0.00000001
 40
0.0
 40
0.0
 40
0.0
 40
0.0
 40
0.5017456673382688
 40
0.7504237745458626
 40
0.8751718942706909
 40
1.0
 40
1.0
 40
1.0
 40
1.0
 10
329.4305505668219
 20
182.9840502524404
 30
0.0
 10
329.4317061808943
 20
182.7897226878801
 30
0.0
 10
329.4334345471375
 20
182.4990813650177
 30
0.0
 10
329.5520353911285
 20
182.1686122036021
 30
0.0
 10
329.7095429361237
 20
182.0417270605019
 30
0.0
 10
329.8072226531555
 20
182.0315507517772
 30
0.0
 10
329.8560781642245
 20
182.0264609667261
 30
0.0
  0
SPLINE
  5
34E
330
1F
100
AcDbEntity
  8
0
  6
Continuous
 62
     7
370
    25
100
AcDbSpline
210
0.0
220
0.0
230
1.0
 70
     8
 71
     3
 72
    11
 73
     7
 74
     0
 42
0.000000001
 43
0.00000001
 40
0.0
 40
0.0
 40
0.0
 40
0.0
 40
0.1249457297153805
 40
0.2496021511032188
 40
0.4981876791784001
 40
1.0
 40
1.0
 40
1.0
 40
1.0
 10
329.8512080343544
 20
183.9355518758171
 30
0.0
 10
329.8024687930754
 20
183.9312807103944
 30
0.0
 10
329.7051031648616
 20
183.9227482693127
 30
0.0
 10
329.542111215773
 20
183.8025651268094
 30
0.0
 10
329.4345513417586
 20
183.4653911617499
 30
0.0
 10
329.4321538425376
 20
183.1769434301578
 30
0.0
 10
329.4305505668219
 20
182.9840502524404
 30
0.0
  0
LINE
  5
34F
330
1F
100
AcDbEntity
  8
0
  6
Continuous
 62
     7
370
    25
100
AcDbLine
 10
336.5894596577
 20
185.6450064213
 30
0.0
 11
336.1534596577
 21
186.0810064213
 31
0.0
  0
LINE
  5
350
330
1F
100
AcDbEntity
  8
0
  6
Continuous
 62
     7
370
    25
100
AcDbLine
 10
336.5894596577
 20
179.4170064213
 30
0.0
 11
336.5894596577
 21
185.6450064213
 31
0.0
  0
LINE
  5
351
330
1F
100
AcDbEntity
  8
0
  6
Continuous
 62
     7
370
    25
100
AcDbLine
 10
336.5894596577
 20
179.4170064213
 30
0.0
 11
336.1534596577
 21
178.9810064213
 31
0.0
  0
LINE
  5
352
330
1F
100
AcDbEntity
  8
0
  6
Continuous
 62
     7
370
    25
100
AcDbLine
 10
359.0514596577
 20
179.4170064213
 30
0.0
 11
336.5894596577
 21
179.4170064213
 31
0.0
  0
LINE
  5
353
330
1F
100
AcDbEntity
  8
0
  6
Continuous
 62
     7
370
    25
100
AcDbLine
 10
359.0514596577
 20
179.4170064213
 30
0.0
 11
359.4874596577
 21
178.9810064213
 31
0.0
  0
LINE
  5
354
330
1F
100
AcDbEntity
  8
0
  6
Continuous
 62
     7
370
    25
100
AcDbLine
 10
359.0514596577
 20
185.6450064213
 30
0.0
 11
359.4874596577
 21
186.0810064213
 31
0.0
  0
LINE
  5
355
330
1F
100
AcDbEntity
  8
0
  6
Continuous
 62
     7
370
    25
100
AcDbLine
 10
336.5894596577
 20
185.6450064213
 30
0.0
 11
359.0514596577
 21
185.6450064213
 31
0.0
  0
LINE
  5
356
330
1F
100
AcDbEntity
  8
0
  6
Continuous
 62
     7
370
    25
100
AcDbLine
 10
359.0514596577
 20
185.6450064213
 30
0.0
 11
359.0514596577
 21
179.4170064213
 31
0.0
  0
LINE
  5
357
330
1F
100
AcDbEntity
  8
0
  6
Continuous
 62
     7
370
    25
100
AcDbLine
 10
392.3854596577
 20
185.6450064213
 30
0.0
 11
392.8214596577
 21
186.0810064213
 31
0.0
  0
LINE
  5
358
330
1F
100
AcDbEntity
  8
0
  6
Continuous
 62
     7
370
    25
100
AcDbLine
 10
369.9234596577
 20
185.6450064213
 30
0.0
 11
392.3854596577
 21
185.6450064213
 31
0.0
  0
LINE
  5
359
330
1F
100
AcDbEntity
  8
0
  6
Continuous
 62
     7
370
    25
100
AcDbLine
 10
369.9234596577
 20
185.6450064213
 30
0.0
 11
369.4874596577
 21
186.0810064213
 31
0.0
  0
LINE
  5
35A
330
1F
100
AcDbEntity
  8
0
  6
Continuous
 62
     7
370
    25
100
AcDbLine
 10
369.9234596577
 20
179.4170064213
 30
0.0
 11
369.9234596577
 21
185.6450064213
 31
0.0
  0
LINE
  5
35B
330
1F
100
AcDbEntity
  8
0
  6
Continuous
 62
     7
370
    25
100
AcDbLine
 10
369.9234596577
 20
179.4170064213
 30
0.0
 11
369.4874596577
 21
178.9810064213
 31
0.0
  0
LINE
  5
35C
330
1F
100
AcDbEntity
  8
0
  6
Continuous
 62
     7
370
    25
100
AcDbLine
 10
392.3854596577
 20
179.4170064213
 30
0.0
 11
369.9234596577
 21
179.4170064213
 31
0.0
  0
LINE
  5
35D
330
1F
100
AcDbEntity
  8
0
  6
Continuous
 62
     7
370
    25
100
AcDbLine
 10
392.3854596577
 20
179.4170064213
 30
0.0
 11
392.8214596577
 21
178.9810064213
 31
0.0
  0
LINE
  5
35E
330
1F
100
AcDbEntity
  8
0
  6
Continuous
 62
     7
370
    25
100
AcDbLine
 10
392.3854596577
 20
185.6450064213
 30
0.0
 11
392.3854596577
 21
179.4170064213
 31
0.0
  0
LINE
  5
35F
330
1F
100
AcDbEntity
  8
0
  6
Continuous
 62
     7
370
    25
100
AcDbLine
 10
399.4214596577
 20
179.6988832521
 30
0.0
 11
397.8214596577
 21
179.9810064213
 31
0.0
  0
LINE
  5
360
330
1F
100
AcDbEntity
  8
0
  6
Continuous
 62
     7
370
    25
100
AcDbLine
 10
399.4214596577
 20
179.6988832521
 30
0.0
 11
399.4214596577
 21
178.3810064213
 31
0.0
  0
LINE
  5
361
330
1F
100
AcDbEntity
  8
0
  6
Continuous
 62
     7
370
    25
100
AcDbLine
 10
399.4214596577
 20
178.3810064213
 30
0.0
 11
397.8214596577
 21
178.3810064213
 31
0.0
  0
LINE
  5
362
330
1F
100
AcDbEntity
  8
0
  6
Continuous
 62
     8
370
    18
100
AcDbLine
 10
197.8214596577
 20
186.7757749009
 30
0.0
 11
397.8214596577
 21
186.7757749009
 31
0.0
  0
LINE
  5
363
330
1F
100
AcDbEntity
  8
0
  6
Continuous
 62
     8
370
    18
100
AcDbLine
 10
397.8214596577
 20
193.9659749009
 30
0.0
 11
197.8214596577
 21
193.9659749009
 31
0.0
  0
DIMENSION
  5
364
330
1F
100
AcDbEntity
  8
SLD-0
100
AcDbDimension
  2
_D_7
 10
397.8214596577
 20
204.1103169892
 30
0.0
 11
297.8214596577
 21
204.1103169892
 31
0.0
 70
   160
  1
<>
 71
     2
 42
-1.0
  3
SLDDIMSTYLE2
100
AcDbAlignedDimension
 13
197.8214596577
 23
194.3808064213
 33
0.0
 14
397.8214596577
 24
194.3808064213
 34
0.0
 50
0.0
100
AcDbRotatedDimension
  0
DIMENSION
  5
36F
330
1F
100
AcDbEntity
  8
SLD-0
100
AcDbDimension
  2
_D_8
 10
407.8214596577
 20
178.3810064213
 30
0.0
 11
407.8214596577
 21
186.3809064213
 31
0.0
 70
   160
  1
<>
 71
     2
 42
-1.0
  3
SLDDIMSTYLE3
100
AcDbAlignedDimension
 13
397.8214596577
 23
194.3808064213
 33
0.0
 14
399.4214596577
 24
178.3810064213
 34
0.0
 50
90.0
100
AcDbRotatedDimension
  0
LINE
  5
37C
330
1F
100
AcDbEntity
  8
0
  6
Continuous
 62
     7
370
    25
100
AcDbLine
 10
192.4916056653
 20
123.2309343286
 30
0.0
 11
51.070249428
 21
41.5901231463
 31
0.0
  0
LINE
  5
37D
330
1F
100
AcDbEntity
  8
0
  6
Continuous
 62
     7
370
    25
100
AcDbLine
 10
210.9793756823
 20
112.5617182736
 30
0.0
 11
69.5580194449
 21
30.9209070913
 31
0.0
  0
LINE
  5
37E
330
1F
100
AcDbEntity
  8
0
  6
Continuous
 62
     7
370
    25
100
AcDbLine
 10
69.6129000092
 20
27.4779306312
 30
0.0
 11
69.7934999519
 21
27.582188759
 31
0.0
  0
LINE
  5
37F
330
1F
100
AcDbEntity
  8
0
  6
Continuous
 62
     7
370
    25
100
AcDbLine
 10
69.475160479
 20
29.5452538973
 30
0.0
 11
67.7463306993
 21
28.5472217092
 31
0.0
  0
LINE
  5
380
330
1F
100
AcDbEntity
  8
0
  6
Continuous
 62
     7
370
    25
100
AcDbLine
 10
67.8361219219
 20
26.8543340144
 30
0.0
 11
67.6634717333
 21
26.7546651821
 31
0.0
  0
LINE
  5
381
330
1F
100
AcDbEntity
  8
0
  6
Continuous
 62
     7
370
    25
100
AcDbLine
 10
121.179441398
 20
51.4689953022
 30
0.0
 11
120.7551773292
 21
51.7139177357
 31
0.0
  0
LINE
  5
382
330
1F
100
AcDbEntity
  8
0
  6
Continuous
 62
     7
370
    25
100
AcDbLine
 10
120.189751722
 20
50.2642472132
 30
0.0
 11
120.6140157907
 21
50.0193247796
 31
0.0
  0
LINE
  5
383
330
1F
100
AcDbEntity
  8
0
  6
Continuous
 62
     7
370
    25
100
AcDbLine
 10
123.7756313107
 20
52.9573922411
 30
0.0
 11
123.351367242
 21
53.2023146747
 31
0.0
  0
LINE
  5
384
330
1F
100
AcDbEntity
  8
0
  6
Continuous
 62
     7
370
    25
100
AcDbLine
 10
122.7457054069
 20
51.7538690281
 30
0.0
 11
123.1699694756
 21
51.5089465946
 31
0.0
  0
LINE
  5
385
330
1F
100
AcDbEntity
  8
0
  6
Continuous
 62
     7
370
    25
100
AcDbLine
 10
127.560937135
 20
55.1199782361
 30
0.0
 11
127.1366730663
 21
55.3649006696
 31
0.0
  0
LINE
  5
386
330
1F
100
AcDbEntity
  8
0
  6
Continuous
 62
     7
370
    25
100
AcDbLine
 10
130.1475084334
 20
56.7273823609
 30
0.0
 11
129.7232443647
 21
56.9723047945
 31
0.0
  0
LINE
  5
387
330
1F
100
AcDbEntity
  8
0
  6
Continuous
 62
     7
370
    25
100
AcDbLine
 10
129.8387267475
 20
55.5877019679
 30
0.0
 11
129.4144626788
 21
55.8326244014
 31
0.0
  0
LINE
  5
388
330
1F
100
AcDbEntity
  8
0
  6
Continuous
 62
     7
370
    25
100
AcDbLine
 10
161.4010071607
 20
74.8271663707
 30
0.0
 11
160.976743092
 21
75.0720888042
 31
0.0
  0
LINE
  5
389
330
1F
100
AcDbEntity
  8
0
  6
Continuous
 62
     7
370
    25
100
AcDbLine
 10
160.6310946271
 20
73.4734232213
 30
0.0
 11
161.0553586959
 21
73.2285007877
 31
0.0
  0
LINE
  5
38A
330
1F
100
AcDbEntity
  8
0
  6
Continuous
 62
     7
370
    25
100
AcDbLine
 10
163.6159961947
 20
76.1058523225
 30
0.0
 11
163.191732126
 21
76.350774756
 31
0.0
  0
LINE
  5
38B
330
1F
100
AcDbEntity
  8
0
  6
Continuous
 62
     7
370
    25
100
AcDbLine
 10
162.8460836612
 20
74.7521091731
 30
0.0
 11
163.2703477299
 21
74.5071867395
 31
0.0
  0
ARC
  5
38C
330
1F
100
AcDbEntity
  8
0
  6
Continuous
 62
     7
370
    25
100
AcDbCircle
 10
50.9712724744
 20
41.0373874424
 30
0.0
 40
0.6147219230289477
100
AcDbArc
 50
2.6054784857
 51
57.39452166
  0
ARC
  5
38D
330
1F
100
AcDbEntity
  8
0
  6
Continuous
 62
     7
370
    25
100
AcDbCircle
 10
192.3926287117
 20
122.6781986247
 30
0.0
 40
0.6147219230287045
100
AcDbArc
 50
2.6054784856
 51
57.39452166
  0
ARC
  5
38E
330
1F
100
AcDbEntity
  8
0
  6
Continuous
 62
     7
370
    25
100
AcDbCircle
 10
51.3023505806
 20
41.2285177927
 30
0.0
 40
0.0003073609613901
100
AcDbArc
 50
2.6054784664
 51
57.3945216729
  0
LINE
  5
38F
330
1F
100
AcDbEntity
  8
0
  6
Continuous
 62
     7
370
    25
100
AcDbLine
 10
51.585358915
 20
38.2890930229
 30
0.0
 11
51.585358915
 21
41.0653317833
 31
0.0
  0
LINE
  5
390
330
1F
100
AcDbEntity
  8
0
  6
Continuous
 62
     7
370
    25
100
AcDbLine
 10
193.0067151523
 20
119.9299042052
 30
0.0
 11
193.0067151523
 21
122.7061429656
 31
0.0
  0
LINE
  5
391
330
1F
100
AcDbEntity
  8
0
  6
Continuous
 62
     7
370
    25
100
AcDbLine
 10
51.3026576239
 20
38.4522930045
 30
0.0
 11
51.3026576239
 21
41.2285317649
 31
0.0
  0
LINE
  5
392
330
1F
100
AcDbEntity
  8
0
  6
Continuous
 62
     7
370
    25
100
AcDbLine
 10
51.3025162025
 20
41.5552297304
 30
0.0
 11
51.2776483321
 21
41.5695856465
 31
0.0
  0
LINE
  5
393
330
1F
100
AcDbEntity
  8
0
  6
Continuous
 62
     7
370
    25
100
AcDbLine
 10
192.7238724398
 20
123.1960409127
 30
0.0
 11
192.6990045694
 21
123.2103968287
 31
0.0
  0
LINE
  5
394
330
1F
100
AcDbEntity
  8
0
  6
Continuous
 62
     7
370
    25
100
AcDbLine
 10
51.3025162025
 20
41.2287767138
 30
0.0
 11
51.2776483321
 21
41.2431326299
 31
0.0
  0
ARC
  5
395
330
1F
100
AcDbEntity
  8
0
  6
Continuous
 62
     7
370
    25
100
AcDbCircle
 10
51.1631413862
 20
41.4292026945
 30
0.0
 40
0.1811607403407477
100
AcDbArc
 50
50.7967147643
 51
189.2140369905
  0
ARC
  5
396
330
1F
100
AcDbEntity
  8
0
  6
Continuous
 62
     7
370
    25
100
AcDbCircle
 10
192.5774920977
 20
123.0407799653
 30
0.0
 40
0.2086508114942708
100
AcDbArc
 50
54.3824225248
 51
114.3071190461
  0
ARC
  5
397
330
1F
100
AcDbEntity
  8
0
  6
Continuous
 62
     7
370
    25
100
AcDbCircle
 10
51.2734991452
 20
41.2380458197
 30
0.0
 40
0.0065644032088474
100
AcDbArc
 50
50.7967147643
 51
189.2140369902
  0
LINE
  5
398
330
1F
100
AcDbEntity
  8
0
  6
Continuous
 62
     7
370
    25
100
AcDbLine
 10
51.2670194421
 20
41.2369947076
 30
0.0
 11
51.2670194421
 21
35.365902962
 31
0.0
  0
LINE
  5
399
330
1F
100
AcDbEntity
  8
0
  6
Continuous
 62
     7
370
    25
100
AcDbLine
 10
50.984318151
 20
41.4001946891
 30
0.0
 11
50.984318151
 21
35.5291029435
 31
0.0
  0
ARC
  5
39A
330
1F
100
AcDbEntity
  8
0
  6
Continuous
 62
     7
370
    25
100
AcDbCircle
 10
52.715618727
 20
36.533039222
 30
0.0
 40
0.4613487950492663
100
AcDbArc
 50
2.6054742764
 51
57.394521988
  0
ARC
  5
39B
330
1F
100
AcDbEntity
  8
0
  6
Continuous
 62
     7
370
    25
100
AcDbCircle
 10
52.3845406296
 20
36.341908879
 30
0.0
 40
1.07576334621792
100
AcDbArc
 50
2.6054742764
 51
57.3945219879
  0
ARC
  5
39C
330
1F
100
AcDbEntity
  8
0
  6
Continuous
 62
     7
370
    25
100
AcDbCircle
 10
193.8058968669
 20
117.9827200613
 30
0.0
 40
1.075763346217652
100
AcDbArc
 50
2.6054742764
 51
57.394521988
  0
LINE
  5
39D
330
1F
100
AcDbEntity
  8
0
  6
Continuous
 62
     7
370
    25
100
AcDbLine
 10
53.176490594
 20
36.4227988978
 30
0.0
 11
53.176490594
 21
36.5540114157
 31
0.0
  0
LINE
  5
39E
330
1F
100
AcDbEntity
  8
0
  6
Continuous
 62
     7
370
    25
100
AcDbLine
 10
53.4591918851
 20
36.2595989163
 30
0.0
 11
53.4591918851
 21
36.3908113958
 31
0.0
  0
LINE
  5
39F
330
1F
100
AcDbEntity
  8
0
  6
Continuous
 62
     7
370
    25
100
AcDbLine
 10
194.8805481224
 20
117.9004100986
 30
0.0
 11
194.8805481224
 21
118.0316225781
 31
0.0
  0
LINE
  5
3A0
330
1F
100
AcDbEntity
  8
0
  6
Continuous
 62
     7
370
    25
100
AcDbLine
 10
52.9642171383
 20
36.9216798537
 30
0.0
 11
51.7974909493
 21
37.595216546
 31
0.0
  0
LINE
  5
3A1
330
1F
100
AcDbEntity
  8
0
  6
Continuous
 62
     7
370
    25
100
AcDbLine
 10
52.9642171383
 20
37.2481328703
 30
0.0
 11
51.7974909493
 21
37.9216695626
 31
0.0
  0
LINE
  5
3A2
330
1F
100
AcDbEntity
  8
0
  6
Continuous
 62
     7
370
    25
100
AcDbLine
 10
194.3855733756
 20
118.8889440526
 30
0.0
 11
193.2188471866
 21
119.5624807448
 31
0.0
  0
ARC
  5
3A3
330
1F
100
AcDbEntity
  8
0
  6
Continuous
 62
     7
370
    25
100
AcDbCircle
 10
53.1087302122
 20
36.225110038
 30
0.0
 40
0.35215460658422
100
AcDbArc
 50
305.6980366814
 51
5.6203718064
  0
ARC
  5
3A4
330
1F
100
AcDbEntity
  8
0
  6
Continuous
 62
     7
370
    25
100
AcDbCircle
 10
194.5300864495
 20
117.8659212203
 30
0.0
 40
0.3521546065842994
100
AcDbArc
 50
305.6980366814
 51
5.6203718064
  0
ARC
  5
3A5
330
1F
100
AcDbEntity
  8
0
  6
Continuous
 62
     7
370
    25
100
AcDbCircle
 10
53.0261926185
 20
36.4080081229
 30
0.0
 40
0.1510239996537166
100
AcDbArc
 50
305.6980342211
 51
5.6203622745
  0
LINE
  5
3A6
330
1F
100
AcDbEntity
  8
0
  6
Continuous
 62
     7
370
    25
100
AcDbLine
 10
52.9501268646
 20
36.1905451566
 30
0.0
 11
53.1143171383
 21
36.285360997
 31
0.0
  0
LINE
  5
3A7
330
1F
100
AcDbEntity
  8
0
  6
Continuous
 62
     7
370
    25
100
AcDbLine
 10
53.1500268646
 20
35.8443082012
 30
0.0
 11
53.3142171383
 21
35.9391240416
 31
0.0
  0
LINE
  5
3A8
330
1F
100
AcDbEntity
  8
0
  6
Continuous
 62
     7
370
    25
100
AcDbLine
 10
194.5713831019
 20
117.4851193835
 30
0.0
 11
194.7355733756
 21
117.5799352239
 31
0.0
  0
ARC
  5
3A9
330
1F
100
AcDbEntity
  8
0
  6
Continuous
 62
     7
370
    25
100
AcDbCircle
 10
53.319392657
 20
35.8185001209
 30
0.0
 40
0.5241895974245113
100
AcDbArc
 50
134.7851937923
 51
211.2988233092
  0
ARC
  5
3AA
330
1F
100
AcDbEntity
  8
0
  6
Continuous
 62
     7
370
    25
100
AcDbCircle
 10
53.3083288619
 20
35.6848147592
 30
0.0
 40
0.2247168894360802
100
AcDbArc
 50
134.7851937923
 51
211.2988233092
  0
LINE
  5
3AB
330
1F
100
AcDbEntity
  8
0
  6
Continuous
 62
     7
370
    25
100
AcDbLine
 10
194.5546098316
 20
117.4729750134
 30
0.0
 11
194.5713831019
 21
117.4851193835
 31
0.0
  0
LINE
  5
3AC
330
1F
100
AcDbEntity
  8
0
  6
Continuous
 62
     7
370
    25
100
AcDbLine
 10
53.1480513435
 20
34.8333711692
 30
0.0
 11
52.8714886341
 21
35.5461828054
 31
0.0
  0
LINE
  5
3AD
330
1F
100
AcDbEntity
  8
0
  6
Continuous
 62
     7
370
    25
100
AcDbLine
 10
53.3928778433
 20
34.8552623475
 30
0.0
 11
53.1163151339
 21
35.5680739837
 31
0.0
  0
LINE
  5
3AE
330
1F
100
AcDbEntity
  8
0
  6
Continuous
 62
     7
370
    25
100
AcDbLine
 10
194.6826579198
 20
116.8351974075
 30
0.0
 11
194.5569976725
 21
117.1590736334
 31
0.0
  0
ARC
  5
3AF
330
1F
100
AcDbEntity
  8
0
  6
Continuous
 62
     7
370
    25
100
AcDbCircle
 10
52.0459237454
 20
38.3100512786
 30
0.0
 40
0.4610414422713526
100
AcDbArc
 50
182.6054784856
 51
237.39452166
  0
ARC
  5
3B0
330
1F
100
AcDbEntity
  8
0
  6
Continuous
 62
     7
370
    25
100
AcDbCircle
 10
193.4672799827
 20
119.9508624609
 30
0.0
 40
0.4610414422716155
100
AcDbArc
 50
182.6054784857
 51
237.39452166
  0
ARC
  5
3B1
330
1F
100
AcDbEntity
  8
0
  6
Continuous
 62
     7
370
    25
100
AcDbCircle
 10
52.3770018516
 20
38.5011816289
 30
0.0
 40
1.075456004338909
100
AcDbArc
 50
182.6054784857
 51
237.39452166
  0
ARC
  5
3B2
330
1F
100
AcDbEntity
  8
0
  6
Continuous
 62
     7
370
    25
100
AcDbCircle
 10
52.7857403834
 20
34.6868323522
 30
0.0
 40
0.3908233061503826
100
AcDbArc
 50
1.1081531092
 51
22.021162201
  0
ARC
  5
3B3
330
1F
100
AcDbEntity
  8
0
  6
Continuous
 62
     7
370
    25
100
AcDbCircle
 10
52.5480488225
 20
34.5135662388
 30
0.0
 40
0.9113135053460869
100
AcDbArc
 50
1.1081531092
 51
22.021162201
  0
LINE
  5
3B4
330
1F
100
AcDbEntity
  8
0
  6
Continuous
 62
     7
370
    25
100
AcDbLine
 10
53.4591918851
 20
32.8876880717
 30
0.0
 11
53.4591918851
 21
34.5311907819
 31
0.0
  0
LINE
  5
3B5
330
1F
100
AcDbEntity
  8
0
  6
Continuous
 62
     7
370
    25
100
AcDbLine
 10
53.176490594
 20
33.0508880533
 30
0.0
 11
53.176490594
 21
34.6943907634
 31
0.0
  0
LINE
  5
3B6
330
1F
100
AcDbEntity
  8
0
  6
Continuous
 62
     7
370
    25
100
AcDbLine
 10
194.8805481224
 20
114.528499254
 30
0.0
 11
194.8805481224
 21
116.1720019641
 31
0.0
  0
LINE
  5
3B7
330
1F
100
AcDbEntity
  8
0
  6
Continuous
 62
     7
370
    25
100
AcDbLine
 10
53.1623484584
 20
34.0308990087
 30
0.0
 11
52.8796471673
 21
34.1940989902
 31
0.0
  0
LINE
  5
3B8
330
1F
100
AcDbEntity
  8
0
  6
Continuous
 62
     7
370
    25
100
AcDbLine
 10
52.8796471673
 20
34.1940989902
 30
0.0
 11
52.8796471673
 21
33.2222521159
 31
0.0
  0
LINE
  5
3B9
330
1F
100
AcDbEntity
  8
0
  6
Continuous
 62
     7
370
    25
100
AcDbLine
 10
53.1623484584
 20
34.0308990087
 30
0.0
 11
53.1623484584
 21
33.0590521344
 31
0.0
  0
LWPOLYLINE
  5
3BA
330
1F
100
AcDbEntity
  8
0
  6
Continuous
 62
     7
370
    25
100
AcDbPolyline
 90
        9
 70
   128
 43
0.0
 10
52.8796471673
 20
33.2222521159
 10
52.9017047747
 20
33.0814656029
 10
52.9645195262
 20
32.9366453888
 10
53.0585284453
 20
32.8098390384
 10
53.1694195262
 20
32.7203516691
 10
53.2803106071
 20
32.6818069216
 10
53.3743195262
 20
32.7000728844
 10
53.4371342777
 20
32.7723687301
 10
53.4591918851
 20
32.8876880717
  0
LWPOLYLINE
  5
3BB
330
1F
100
AcDbEntity
  8
0
  6
Continuous
 62
     7
370
    25
100
AcDbPolyline
 90
        9
 70
   128
 43
0.0
 10
53.1623484584
 20
33.0590521344
 10
53.1628867114
 20
33.0556166411
 10
53.1644195262
 20
33.0520827169
 10
53.1667135457
 20
33.0489883697
 10
53.1694195262
 20
33.0468046857
 10
53.1721255067
 20
33.0458641111
 10
53.1744195262
 20
33.0463098398
 10
53.175952341
 20
33.0480740137
 10
53.176490594
 20
33.0508880533
  0
LINE
  5
3BC
330
1F
100
AcDbEntity
  8
0
  6
Continuous
 62
     7
370
    25
100
AcDbLine
 10
51.2811615777
 20
36.3295857552
 30
0.0
 11
51.5638628688
 21
36.1663857736
 31
0.0
  0
LINE
  5
3BD
330
1F
100
AcDbEntity
  8
0
  6
Continuous
 62
     7
370
    25
100
AcDbLine
 10
51.5638628688
 20
35.1945388993
 30
0.0
 11
51.5638628688
 21
36.1663857736
 31
0.0
  0
LINE
  5
3BE
330
1F
100
AcDbEntity
  8
0
  6
Continuous
 62
     7
370
    25
100
AcDbLine
 10
51.2811615777
 20
35.3577388808
 30
0.0
 11
51.2811615777
 21
36.3295857552
 31
0.0
  0
LWPOLYLINE
  5
3BF
330
1F
100
AcDbEntity
  8
0
  6
Continuous
 62
     7
370
    25
100
AcDbPolyline
 90
        9
 70
   128
 43
0.0
 10
50.984318151
 20
35.5291029435
 10
51.0063757584
 20
35.3883164305
 10
51.0691905099
 20
35.2434962164
 10
51.163199429
 20
35.116689866
 10
51.2740905099
 20
35.0272024967
 10
51.3849815908
 20
34.9886577492
 10
51.4789905099
 20
35.006923712
 10
51.5418052614
 20
35.0792195577
 10
51.5638628688
 20
35.1945388993
  0
LWPOLYLINE
  5
3C0
330
1F
100
AcDbEntity
  8
0
  6
Continuous
 62
     7
370
    25
100
AcDbPolyline
 90
        9
 70
   128
 43
0.0
 10
51.2670194421
 20
35.365902962
 10
51.2675576951
 20
35.3624674687
 10
51.2690905099
 20
35.3589335445
 10
51.2713845294
 20
35.3558391973
 10
51.2740905099
 20
35.3536555133
 10
51.2767964904
 20
35.3527149387
 10
51.2790905099
 20
35.3531606674
 10
51.2806233247
 20
35.3549248413
 10
51.2811615777
 20
35.3577388808
  0
ARC
  5
3C1
330
1F
100
AcDbEntity
  8
0
  6
Continuous
 62
     7
370
    25
100
AcDbCircle
 10
210.8607014508
 20
111.9905158782
 30
0.0
 40
0.6375150748790934
100
AcDbArc
 50
2.6054784857
 51
57.39452166
  0
ARC
  5
3C2
330
1F
100
AcDbEntity
  8
0
  6
Continuous
 62
     7
370
    25
100
AcDbCircle
 10
69.4393452135
 20
30.349704696
 30
0.0
 40
0.6375150748792038
100
AcDbArc
 50
2.6054784857
 51
57.39452166
  0
ARC
  5
3C3
330
1F
100
AcDbEntity
  8
0
  6
Continuous
 62
     7
370
    25
100
AcDbCircle
 10
69.7704233197
 20
30.5408350463
 30
0.0
 40
0.0231005128118722
100
AcDbArc
 50
2.6054784858
 51
57.3945216598
  0
LINE
  5
3C4
330
1F
100
AcDbEntity
  8
0
  6
Continuous
 62
     7
370
    25
100
AcDbLine
 10
70.076201243
 20
30.3786851795
 30
0.0
 11
70.076201243
 21
24.5075934339
 31
0.0
  0
LINE
  5
3C5
330
1F
100
AcDbEntity
  8
0
  6
Continuous
 62
     7
370
    25
100
AcDbLine
 10
69.7934999519
 20
30.5418851611
 30
0.0
 11
69.7934999519
 21
24.6707934155
 31
0.0
  0
LINE
  5
3C6
330
1F
100
AcDbEntity
  8
0
  6
Continuous
 62
     7
370
    25
100
AcDbLine
 10
211.4975574803
 20
112.0194963618
 30
0.0
 11
211.4975574803
 21
106.1484046162
 31
0.0
  0
LINE
  5
3C7
330
1F
100
AcDbEntity
  8
0
  6
Continuous
 62
     7
370
    25
100
AcDbLine
 10
69.7580031915
 20
30.5746508546
 30
0.0
 11
69.7828710619
 21
30.5602949385
 31
0.0
  0
LINE
  5
3C8
330
1F
100
AcDbEntity
  8
0
  6
Continuous
 62
     7
370
    25
100
AcDbLine
 10
69.7580031915
 20
30.9011038712
 30
0.0
 11
69.7828710619
 21
30.8867479551
 31
0.0
  0
LINE
  5
3C9
330
1F
100
AcDbEntity
  8
0
  6
Continuous
 62
     7
370
    25
100
AcDbLine
 10
211.1793594288
 20
112.5419150534
 30
0.0
 11
211.2042272992
 21
112.5275591374
 31
0.0
  0
ARC
  5
3CA
330
1F
100
AcDbEntity
  8
0
  6
Continuous
 62
     7
370
    25
100
AcDbCircle
 10
211.0621914068
 20
112.3783625218
 30
0.0
 40
0.2011908943608313
100
AcDbArc
 50
54.3824225248
 51
114.3071190461
  0
ARC
  5
3CB
330
1F
100
AcDbEntity
  8
0
  6
Continuous
 62
     7
370
    25
100
AcDbCircle
 10
69.647590226
 20
30.7657400475
 30
0.0
 40
0.1746836789713987
100
AcDbArc
 50
50.7967147643
 51
189.2140369905
  0
ARC
  5
3CC
330
1F
100
AcDbEntity
  8
0
  6
Continuous
 62
     7
370
    25
100
AcDbCircle
 10
69.757947985
 20
30.5745831726
 30
0.0
 40
0.000087341839504
100
AcDbArc
 50
50.7967147467
 51
189.2140369987
  0
LINE
  5
3CD
330
1F
100
AcDbEntity
  8
0
  6
Continuous
 62
     7
370
    25
100
AcDbLine
 10
69.7578617701
 20
27.7983304268
 30
0.0
 11
69.7578617701
 21
30.5745691872
 31
0.0
  0
LINE
  5
3CE
330
1F
100
AcDbEntity
  8
0
  6
Continuous
 62
     7
370
    25
100
AcDbLine
 10
69.475160479
 20
27.9615304084
 30
0.0
 11
69.475160479
 21
30.7377691688
 31
0.0
  0
ARC
  5
3CF
330
1F
100
AcDbEntity
  8
0
  6
Continuous
 62
     7
370
    25
100
AcDbCircle
 10
69.4561959278
 20
27.7493953744
 30
0.0
 40
0.3056090963604487
100
AcDbArc
 50
230.7967147643
 51
9.2140369905
  0
ARC
  5
3D0
330
1F
100
AcDbEntity
  8
0
  6
Continuous
 62
     7
370
    25
100
AcDbCircle
 10
69.3458381688
 20
27.9405522493
 30
0.0
 40
0.1310127592285282
100
AcDbArc
 50
230.7967147643
 51
9.2140369905
  0
LINE
  5
3D1
330
1F
100
AcDbEntity
  8
0
  6
Continuous
 62
     7
370
    25
100
AcDbLine
 10
68.0963022557
 20
28.5125660738
 30
0.0
 11
69.2630284446
 21
27.8390293816
 31
0.0
  0
LINE
  5
3D2
330
1F
100
AcDbEntity
  8
0
  6
Continuous
 62
     7
370
    25
100
AcDbLine
 10
68.0963022557
 20
28.1861130572
 30
0.0
 11
69.2630284446
 21
27.512576365
 31
0.0
  0
LINE
  5
3D3
330
1F
100
AcDbEntity
  8
0
  6
Continuous
 62
     7
370
    25
100
AcDbLine
 10
69.7793578163
 20
25.6508043709
 30
0.0
 11
69.4966565251
 21
25.8140043524
 31
0.0
  0
LINE
  5
3D4
330
1F
100
AcDbEntity
  8
0
  6
Continuous
 62
     7
370
    25
100
AcDbLine
 10
69.4966565251
 20
25.8140043524
 30
0.0
 11
69.4966565251
 21
24.8421574781
 31
0.0
  0
LINE
  5
3D5
330
1F
100
AcDbEntity
  8
0
  6
Continuous
 62
     7
370
    25
100
AcDbLine
 10
69.7793578163
 20
25.6508043709
 30
0.0
 11
69.7793578163
 21
24.6789574966
 31
0.0
  0
ARC
  5
3D6
330
1F
100
AcDbEntity
  8
0
  6
Continuous
 62
     7
370
    25
100
AcDbCircle
 10
68.0134373254
 20
28.0845225021
 30
0.0
 40
0.1311001051104422
100
AcDbArc
 50
50.7967163849
 51
189.2140470125
  0
ARC
  5
3D7
330
1F
100
AcDbEntity
  8
0
  6
Continuous
 62
     7
370
    25
100
AcDbCircle
 10
67.9030795668
 20
28.2756793697
 30
0.0
 40
0.3056964476259986
100
AcDbArc
 50
50.7967163849
 51
189.2140470125
  0
LINE
  5
3D8
330
1F
100
AcDbEntity
  8
0
  6
Continuous
 62
     7
370
    25
100
AcDbLine
 10
211.4975574803
 20
106.1484046162
 30
0.0
 11
211.4897026406
 21
106.0755567874
 31
0.0
  0
LWPOLYLINE
  5
3D9
330
1F
100
AcDbEntity
  8
0
  6
Continuous
 62
     7
370
    25
100
AcDbPolyline
 90
        9
 70
   128
 43
0.0
 10
69.4966565251
 20
24.8421574781
 10
69.5187141326
 20
24.7013709651
 10
69.5815288841
 20
24.556550751
 10
69.6755378032
 20
24.4297444006
 10
69.7864288841
 20
24.3402570313
 10
69.897319965
 20
24.3017122838
 10
69.9913288841
 20
24.3199782466
 10
70.0541436356
 20
24.3922740923
 10
70.076201243
 20
24.5075934339
  0
LWPOLYLINE
  5
3DA
330
1F
100
AcDbEntity
  8
0
  6
Continuous
 62
     7
370
    25
100
AcDbPolyline
 90
        9
 70
   128
 43
0.0
 10
69.7793578163
 20
24.6789574966
 10
69.7798960693
 20
24.6755220033
 10
69.7814288841
 20
24.6719880791
 10
69.7837229036
 20
24.6688937319
 10
69.7864288841
 20
24.6667100479
 10
69.7891348646
 20
24.6657694733
 10
69.7914288841
 20
24.666215202
 10
69.7929616989
 20
24.6679793759
 10
69.7934999519
 20
24.6707934155
  0
LINE
  5
3DB
330
1F
100
AcDbEntity
  8
0
  6
Continuous
 62
     7
370
    25
100
AcDbLine
 10
67.8840288
 20
27.9323178165
 30
0.0
 11
67.8840288
 21
28.0635303343
 31
0.0
  0
LINE
  5
3DC
330
1F
100
AcDbEntity
  8
0
  6
Continuous
 62
     7
370
    25
100
AcDbLine
 10
67.6013275089
 20
28.0955177981
 30
0.0
 11
67.6013275089
 21
28.2267302776
 31
0.0
  0
LINE
  5
3DD
330
1F
100
AcDbEntity
  8
0
  6
Continuous
 62
     7
370
    25
100
AcDbLine
 10
68.1103925294
 20
27.4387100764
 30
0.0
 11
67.9462022557
 21
27.7230959717
 31
0.0
  0
LINE
  5
3DE
330
1F
100
AcDbEntity
  8
0
  6
Continuous
 62
     7
370
    25
100
AcDbLine
 10
67.9104925294
 20
27.3232727483
 30
0.0
 11
67.7463022557
 21
27.6076586436
 31
0.0
  0
ARC
  5
3DF
330
1F
100
AcDbEntity
  8
0
  6
Continuous
 62
     7
370
    25
100
AcDbCircle
 10
68.3169067896
 20
27.9471052831
 30
0.0
 40
0.4331304919443043
100
AcDbArc
 50
181.9565099279
 51
211.1437265436
  0
ARC
  5
3E0
330
1F
100
AcDbEntity
  8
0
  6
Continuous
 62
     7
370
    25
100
AcDbCircle
 10
68.6107031655
 20
28.1299987834
 30
0.0
 40
1.009964432293825
100
AcDbArc
 50
181.9565034826
 51
211.1437272608
  0
ARC
  5
3E1
330
1F
100
AcDbEntity
  8
0
  6
Continuous
 62
     7
370
    25
100
AcDbCircle
 10
67.5095038405
 20
27.0026502241
 30
0.0
 40
0.7424388265620204
100
AcDbArc
 50
336.2431293929
 51
35.9680754417
  0
ARC
  5
3E2
330
1F
100
AcDbEntity
  8
0
  6
Continuous
 62
     7
370
    25
100
AcDbCircle
 10
67.6528952063
 20
27.1363365441
 30
0.0
 40
0.3182790053852607
100
AcDbArc
 50
336.2431293929
 51
35.9680754417
  0
LINE
  5
3E3
330
1F
100
AcDbEntity
  8
0
  6
Continuous
 62
     7
370
    25
100
AcDbLine
 10
67.9124680505
 20
26.3100548281
 30
0.0
 11
68.1890307599
 21
26.7035539568
 31
0.0
  0
LINE
  5
3E4
330
1F
100
AcDbEntity
  8
0
  6
Continuous
 62
     7
370
    25
100
AcDbLine
 10
67.6676415507
 20
26.6146166663
 30
0.0
 11
67.9442042601
 21
27.008115795
 31
0.0
  0
ARC
  5
3E5
330
1F
100
AcDbEntity
  8
0
  6
Continuous
 62
     7
370
    25
100
AcDbCircle
 10
68.0681190278
 20
26.2114691741
 30
0.0
 40
0.1842453741828938
100
AcDbArc
 50
147.6507958589
 51
182.3514761559
  0
ARC
  5
3E6
330
1F
100
AcDbEntity
  8
0
  6
Continuous
 62
     7
370
    25
100
AcDbCircle
 10
68.030585202
 20
26.3847367271
 30
0.0
 40
0.4296194601195458
100
AcDbArc
 50
147.6507958589
 51
182.3514761559
  0
LINE
  5
3E7
330
1F
100
AcDbEntity
  8
0
  6
Continuous
 62
     7
370
    25
100
AcDbLine
 10
67.8840288
 20
24.5604069719
 30
0.0
 11
67.8840288
 21
26.2039096821
 31
0.0
  0
LINE
  5
3E8
330
1F
100
AcDbEntity
  8
0
  6
Continuous
 62
     7
370
    25
100
AcDbLine
 10
67.6013275089
 20
24.7236069535
 30
0.0
 11
67.6013275089
 21
26.3671096636
 31
0.0
  0
LINE
  5
3E9
330
1F
100
AcDbEntity
  8
0
  6
Continuous
 62
     7
370
    25
100
AcDbLine
 10
67.8981709356
 20
25.5240897651
 30
0.0
 11
68.1808722267
 21
25.3608897836
 31
0.0
  0
LINE
  5
3EA
330
1F
100
AcDbEntity
  8
0
  6
Continuous
 62
     7
370
    25
100
AcDbLine
 10
68.1808722267
 20
24.3890429093
 30
0.0
 11
68.1808722267
 21
25.3608897836
 31
0.0
  0
LINE
  5
3EB
330
1F
100
AcDbEntity
  8
0
  6
Continuous
 62
     7
370
    25
100
AcDbLine
 10
67.8981709356
 20
24.5522428908
 30
0.0
 11
67.8981709356
 21
25.5240897651
 31
0.0
  0
LWPOLYLINE
  5
3EC
330
1F
100
AcDbEntity
  8
0
  6
Continuous
 62
     7
370
    25
100
AcDbPolyline
 90
        9
 70
   128
 43
0.0
 10
67.6013275089
 20
24.7236069535
 10
67.6233851163
 20
24.5828204405
 10
67.6861998678
 20
24.4380002263
 10
67.7802087869
 20
24.311193876
 10
67.8910998678
 20
24.2217065067
 10
68.0019909487
 20
24.1831617592
 10
68.0959998678
 20
24.2014277219
 10
68.1588146193
 20
24.2737235677
 10
68.1808722267
 20
24.3890429093
  0
LWPOLYLINE
  5
3ED
330
1F
100
AcDbEntity
  8
0
  6
Continuous
 62
     7
370
    25
100
AcDbPolyline
 90
        9
 70
   128
 43
0.0
 10
67.8840288
 20
24.5604069719
 10
67.884567053
 20
24.5569714787
 10
67.8860998678
 20
24.5534375545
 10
67.8883938873
 20
24.5503432072
 10
67.8910998678
 20
24.5481595232
 10
67.8938058483
 20
24.5472189486
 10
67.8960998678
 20
24.5476646774
 10
67.8976326826
 20
24.5494288512
 10
67.8981709356
 20
24.5522428908
  0
LINE
  5
3EE
330
1F
100
AcDbEntity
  8
0
  6
Continuous
 62
     7
370
    25
100
AcDbLine
 10
50.984318151
 20
28.6744318736
 30
0.0
 11
53.9822006089
 21
26.9437911684
 31
0.0
  0
LINE
  5
3EF
330
1F
100
AcDbEntity
  8
0
  6
Continuous
 62
     7
370
    25
100
AcDbLine
 10
50.984318151
 20
28.6744318736
 30
0.0
 11
50.984318151
 21
35.4517206122
 31
0.0
  0
LINE
  5
3F0
330
1F
100
AcDbEntity
  8
0
  6
Continuous
 62
     7
370
    25
100
AcDbLine
 10
50.984318151
 20
35.4517206122
 30
0.0
 11
51.2671608634
 21
35.2884389899
 31
0.0
  0
LINE
  5
3F1
330
1F
100
AcDbEntity
  8
0
  6
Continuous
 62
     7
370
    25
100
AcDbLine
 10
51.2671608634
 20
37.9013695879
 30
0.0
 11
51.2671608634
 21
35.2884389899
 31
0.0
  0
LINE
  5
3F2
330
1F
100
AcDbEntity
  8
0
  6
Continuous
 62
     7
370
    25
100
AcDbLine
 10
51.2671608634
 20
37.9013695879
 30
0.0
 11
53.2470598508
 21
36.7583982314
 31
0.0
  0
ARC
  5
3F3
330
1F
100
AcDbEntity
  8
0
  6
Continuous
 62
     7
370
    25
100
AcDbCircle
 10
52.9986270547
 20
36.3700165153
 30
0.0
 40
0.4610414422715875
100
AcDbArc
 50
2.6054784857
 51
57.39452166
  0
LINE
  5
3F4
330
1F
100
AcDbEntity
  8
0
  6
Continuous
 62
     7
370
    25
100
AcDbLine
 10
53.4591918851
 20
36.390974771
 30
0.0
 11
53.4591918851
 21
36.2041668975
 31
0.0
  0
ARC
  5
3F5
330
1F
100
AcDbEntity
  8
0
  6
Continuous
 62
     7
370
    25
100
AcDbCircle
 10
53.3273314715
 20
36.1835900709
 30
0.0
 40
0.1334562642684807
100
AcDbArc
 50
283.6461875582
 51
8.8694765958
  0
LWPOLYLINE
  5
3F6
330
1F
100
AcDbEntity
  8
0
  6
Continuous
 62
     7
370
    25
100
AcDbPolyline
 90
        9
 70
   128
 43
0.0
 10
53.3588172152
 20
36.0539011261
 10
53.2579972278
 20
36.0175981775
 10
53.1809746303
 20
35.9413364794
 10
53.1326912813
 20
35.8300090702
 10
53.1162450962
 20
35.6907588451
 10
53.1326912813
 20
35.5325202588
 10
53.1809746303
 20
35.3654460816
 10
53.2579972278
 20
35.2002559853
 10
53.3588172152
 20
35.0475487569
  0
ARC
  5
3F7
330
1F
100
AcDbEntity
  8
0
  6
Continuous
 62
     7
370
    25
100
AcDbCircle
 10
53.001588225
 20
34.7608229667
 30
0.0
 40
0.4580657487776924
100
AcDbArc
 50
2.573788686
 51
38.7518743221
  0
LINE
  5
3F8
330
1F
100
AcDbEntity
  8
0
  6
Continuous
 62
     7
370
    25
100
AcDbLine
 10
53.4591918851
 20
34.7813928583
 30
0.0
 11
53.4591918851
 21
30.8384972502
 31
0.0
  0
ARC
  5
3F9
330
1F
100
AcDbEntity
  8
0
  6
Continuous
 62
     7
370
    25
100
AcDbCircle
 10
54.0732783257
 20
30.8664415911
 30
0.0
 40
0.6147219230287821
100
AcDbArc
 50
182.6054784857
 51
237.39452166
  0
LINE
  5
3FA
330
1F
100
AcDbEntity
  8
0
  6
Continuous
 62
     7
370
    25
100
AcDbLine
 10
53.7420345976
 20
30.3485993031
 30
0.0
 11
67.3184847964
 21
22.5110814296
 31
0.0
  0
ARC
  5
3FB
330
1F
100
AcDbEntity
  8
0
  6
Continuous
 62
     7
370
    25
100
AcDbCircle
 10
67.4288977619
 20
22.6464452532
 30
0.0
 40
0.1746836789713755
100
AcDbArc
 50
230.7967147643
 51
9.2140369905
  0
LINE
  5
3FC
330
1F
100
AcDbEntity
  8
0
  6
Continuous
 62
     7
370
    25
100
AcDbLine
 10
67.6013275089
 20
26.6173117401
 30
0.0
 11
67.6013275089
 21
22.674416132
 31
0.0
  0
ARC
  5
3FD
330
1F
100
AcDbEntity
  8
0
  6
Continuous
 62
     7
370
    25
100
AcDbCircle
 10
67.7331879225
 20
26.6378885667
 30
0.0
 40
0.133456264268479
100
AcDbArc
 50
103.6461875582
 51
188.8694765958
  0
LWPOLYLINE
  5
3FE
330
1F
100
AcDbEntity
  8
0
  6
Continuous
 62
     7
370
    25
100
AcDbPolyline
 90
        9
 70
   128
 43
0.0
 10
67.7017021788
 20
26.7675775116
 10
67.8025221662
 20
26.8038804602
 10
67.8795447637
 20
26.8801421583
 10
67.9278281127
 20
26.9914695674
 10
67.9442742977
 20
27.1307197926
 10
67.9278281127
 20
27.2889583789
 10
67.8795447637
 20
27.4560325561
 10
67.8025221662
 20
27.6212226524
 10
67.7017021788
 20
27.7739298808
  0
ARC
  5
3FF
330
1F
100
AcDbEntity
  8
0
  6
Continuous
 62
     7
370
    25
100
AcDbCircle
 10
68.058931169
 20
28.0606556709
 30
0.0
 40
0.4580657487775072
100
AcDbArc
 50
182.573788686
 51
218.7518743221
  0
LINE
  5
400
330
1F
100
AcDbEntity
  8
0
  6
Continuous
 62
     7
370
    25
100
AcDbLine
 10
67.6013275089
 20
28.2268936528
 30
0.0
 11
67.6013275089
 21
28.0400857793
 31
0.0
  0
ARC
  5
401
330
1F
100
AcDbEntity
  8
0
  6
Continuous
 62
     7
370
    25
100
AcDbCircle
 10
67.7306498191
 20
28.2478718119
 30
0.0
 40
0.131012759228565
100
AcDbArc
 50
50.7967147643
 51
189.2140369904
  0
LINE
  5
402
330
1F
100
AcDbEntity
  8
0
  6
Continuous
 62
     7
370
    25
100
AcDbLine
 10
67.8134595432
 20
28.3493946796
 30
0.0
 11
69.7933585305
 21
27.206423323
 31
0.0
  0
LINE
  5
403
330
1F
100
AcDbEntity
  8
0
  6
Continuous
 62
     7
370
    25
100
AcDbLine
 10
69.7933585305
 20
27.206423323
 30
0.0
 11
69.7933585305
 21
24.593492725
 31
0.0
  0
LINE
  5
404
330
1F
100
AcDbEntity
  8
0
  6
Continuous
 62
     7
370
    25
100
AcDbLine
 10
70.076201243
 20
24.4302111026
 30
0.0
 11
69.7933585305
 21
24.593492725
 31
0.0
  0
LINE
  5
405
330
1F
100
AcDbEntity
  8
0
  6
Continuous
 62
     7
370
    25
100
AcDbLine
 10
70.076201243
 20
17.652922364
 30
0.0
 11
70.076201243
 21
24.4302111026
 31
0.0
  0
LINE
  5
406
330
1F
100
AcDbEntity
  8
0
  6
Continuous
 62
     7
370
    25
100
AcDbLine
 10
66.1164032684
 20
19.9388650771
 30
0.0
 11
70.076201243
 21
17.652922364
 31
0.0
  0
LINE
  5
407
330
1F
100
AcDbEntity
  8
0
  6
Continuous
 62
     7
370
    25
100
AcDbLine
 10
66.1164032684
 20
19.9388650771
 30
0.0
 11
66.1164032684
 21
21.2453303761
 31
0.0
  0
LINE
  5
408
330
1F
100
AcDbEntity
  8
0
  6
Continuous
 62
     7
370
    25
100
AcDbLine
 10
66.1164032684
 20
21.2453303761
 30
0.0
 11
54.9441161256
 21
27.6949544595
 31
0.0
  0
LINE
  5
409
330
1F
100
AcDbEntity
  8
0
  6
Continuous
 62
     7
370
    25
100
AcDbLine
 10
69.7934999519
 20
27.2065049638
 30
0.0
 11
69.7933585305
 21
27.206423323
 31
0.0
  0
LINE
  5
40A
330
1F
100
AcDbEntity
  8
0
  6
Continuous
 62
     7
370
    25
100
AcDbLine
 10
118.6644525434
 20
50.6832217439
 30
0.0
 11
119.4552125822
 21
48.6900953619
 31
0.0
  0
LINE
  5
40B
330
1F
100
AcDbEntity
  8
0
  6
Continuous
 62
     7
370
    25
100
AcDbLine
 10
117.9184606288
 20
50.2525697783
 30
0.0
 11
118.6644525434
 21
50.6832217439
 31
0.0
  0
LINE
  5
40C
330
1F
100
AcDbEntity
  8
0
  6
Continuous
 62
     7
370
    25
100
AcDbLine
 10
117.1410449347
 20
47.3541548153
 30
0.0
 11
117.9184606288
 21
50.2525697783
 31
0.0
  0
LINE
  5
40D
330
1F
100
AcDbEntity
  8
0
  6
Continuous
 62
     7
370
    25
100
AcDbLine
 10
117.8125667967
 20
47.7418161346
 30
0.0
 11
117.1410449347
 21
47.3541548153
 31
0.0
  0
LINE
  5
40E
330
1F
100
AcDbEntity
  8
0
  6
Continuous
 62
     7
370
    25
100
AcDbLine
 10
117.919752017
 20
48.2172654642
 30
0.0
 11
117.8125667967
 21
47.7418161346
 31
0.0
  0
LINE
  5
40F
330
1F
100
AcDbEntity
  8
0
  6
Continuous
 62
     7
370
    25
100
AcDbLine
 10
118.6584260652
 20
48.6436929154
 30
0.0
 11
117.919752017
 21
48.2172654642
 31
0.0
  0
LINE
  5
410
330
1F
100
AcDbEntity
  8
0
  6
Continuous
 62
     7
370
    25
100
AcDbLine
 10
118.7656112855
 20
48.291997007
 30
0.0
 11
118.6584260652
 21
48.6436929154
 31
0.0
  0
LINE
  5
411
330
1F
100
AcDbEntity
  8
0
  6
Continuous
 62
     7
370
    25
100
AcDbLine
 10
119.4552125822
 20
48.6900953619
 30
0.0
 11
118.7656112855
 21
48.291997007
 31
0.0
  0
SPLINE
  5
412
330
1F
100
AcDbEntity
  8
0
  6
Continuous
 62
     7
370
    25
100
AcDbSpline
210
0.0
220
0.0
230
1.0
 70
     8
 71
     3
 72
    13
 73
     9
 74
     0
 42
0.000000001
 43
0.00000001
 40
0.0
 40
0.0
 40
0.0
 40
0.0
 40
0.1871174103431632
 40
0.3740390809668501
 40
0.5601850337173709
 40
0.7063736238378239
 40
0.853046334611364
 40
0.9999999999999999
 40
0.9999999999999999
 40
0.9999999999999999
 40
0.9999999999999999
 10
162.1075262951802
 20
74.55595522979151
 30
0.0
 10
162.104793530917
 20
74.43667509289038
 30
0.0
 10
162.09933086108
 20
74.19823959561481
 30
0.0
 10
162.040749247357
 20
73.81786454193411
 30
0.0
 10
161.9142915698088
 20
73.44165145075863
 30
0.0
 10
161.6979591242009
 20
73.13303560233076
 30
0.0
 10
161.4646006624687
 20
72.9208417859838
 30
0.0
 10
161.3046827141544
 20
72.82115468861171
 30
0.0
 10
161.2246472317384
 20
72.77126344742881
 30
0.0
  0
SPLINE
  5
413
330
1F
100
AcDbEntity
  8
0
  6
Continuous
 62
     7
370
    25
100
AcDbSpline
210
0.0
220
0.0
230
1.0
 70
     8
 71
     3
 72
     9
 73
     5
 74
     0
 42
0.000000001
 43
0.00000001
 40
0.0
 40
0.0
 40
0.0
 40
0.0
 40
0.5599148219539377
 40
1.0
 40
1.0
 40
1.0
 40
1.0
 10
162.0472615126927
 20
75.08783913262562
 30
0.0
 10
162.0668060994563
 20
74.9944623477604
 30
0.0
 10
162.1017124566329
 20
74.82769272280333
 30
0.0
 10
162.1057496057098
 20
74.63899729203688
 30
0.0
 10
162.1075262951802
 20
74.55595522979151
 30
0.0
  0
SPLINE
  5
414
330
1F
100
AcDbEntity
  8
0
  6
Continuous
 62
     7
370
    25
100
AcDbSpline
210
0.0
220
0.0
230
1.0
 70
     8
 71
     3
 72
    11
 73
     7
 74
     0
 42
0.000000001
 43
0.00000001
 40
0.0
 40
0.0
 40
0.0
 40
0.0
 40
0.2804754734820507
 40
0.5595654935685468
 40
0.779640982716247
 40
1.0
 40
1.0
 40
1.0
 40
1.0
 10
161.2405743528244
 20
75.29370697114821
 30
0.0
 10
161.3426206041768
 20
75.3477337503515
 30
0.0
 10
161.5462090331254
 20
75.45552043485363
 30
0.0
 10
161.8058970602874
 20
75.45074233144419
 30
0.0
 10
161.9759053126793
 20
75.31175644263907
 30
0.0
 10
162.0234659070341
 20
75.16251026152831
 30
0.0
 10
162.0472615126927
 20
75.08783913262565
 30
0.0
  0
SPLINE
  5
415
330
1F
100
AcDbEntity
  8
0
  6
Continuous
 62
     7
370
    25
100
AcDbSpline
210
0.0
220
0.0
230
1.0
 70
     8
 71
     3
 72
    13
 73
     9
 74
     0
 42
0.000000001
 43
0.00000001
 40
0.0
 40
0.0
 40
0.0
 40
0.0
 40
0.1871594996892786
 40
0.3740638197467914
 40
0.559819532658694
 40
0.7062514219437618
 40
0.8530012592542173
 40
0.9999999999999999
 40
0.9999999999999999
 40
0.9999999999999999
 40
0.9999999999999999
 10
160.344350944689
 20
73.52964536362983
 30
0.0
 10
160.3470574322307
 20
73.6479646914374
 30
0.0
 10
160.3524667171967
 20
73.88444202645405
 30
0.0
 10
160.4113666583698
 20
74.26270098109941
 30
0.0
 10
160.5504372152562
 20
74.6372673009454
 30
0.0
 10
160.771612276243
 20
74.93379821014084
 30
0.0
 10
161.0021950373349
 20
75.1453474887061
 30
0.0
 10
161.1610697076412
 20
75.24422588262797
 30
0.0
 10
161.2405743528244
 20
75.29370697114821
 30
0.0
  0
SPLINE
  5
416
330
1F
100
AcDbEntity
  8
0
  6
Continuous
 62
     7
370
    25
100
AcDbSpline
210
0.0
220
0.0
230
1.0
 70
     8
 71
     3
 72
    10
 73
     6
 74
     0
 42
0.000000001
 43
0.00000001
 40
0.0
 40
0.0
 40
0.0
 40
0.0
 40
0.2795726797720483
 40
0.5597722494360381
 40
1.0
 40
1.0
 40
1.0
 40
1.0
 10
160.5092181710655
 20
72.74299687730395
 30
0.0
 10
160.4757286271061
 20
72.79973938360912
 30
0.0
 10
160.4086744450951
 20
72.91335163076785
 30
0.0
 10
160.3567857454242
 20
73.1843449697515
 30
0.0
 10
160.349067371209
 20
73.3986755178149
 30
0.0
 10
160.344350944689
 20
73.52964536362983
 30
0.0
  0
SPLINE
  5
417
330
1F
100
AcDbEntity
  8
0
  6
Continuous
 62
     7
370
    25
100
AcDbSpline
210
0.0
220
0.0
230
1.0
 70
     8
 71
     3
 72
    11
 73
     7
 74
     0
 42
0.000000001
 43
0.00000001
 40
0.0
 40
0.0
 40
0.0
 40
0.0
 40
0.2803107270247071
 40
0.5598885774967076
 40
0.7799214485274815
 40
0.9999999999999999
 40
0.9999999999999999
 40
0.9999999999999999
 40
0.9999999999999999
 10
161.2246472317384
 20
72.77126344742881
 30
0.0
 10
161.1473873738562
 20
72.72970584166625
 30
0.0
 10
160.993069655136
 20
72.6466992831177
 30
0.0
 10
160.7847416565205
 20
72.6013191126948
 30
0.0
 10
160.6194737736776
 20
72.63874464523005
 30
0.0
 10
160.5459725815702
 20
72.70824372877544
 30
0.0
 10
160.5092181710655
 20
72.74299687730395
 30
0.0
  0
LINE
  5
418
330
1F
100
AcDbEntity
  8
0
  6
Continuous
 62
     7
370
    25
100
AcDbLine
 10
147.307873197
 20
64.959973754
 30
0.0
 11
148.9608500881
 21
66.6757473529
 31
0.0
  0
LINE
  5
419
330
1F
100
AcDbEntity
  8
0
  6
Continuous
 62
     7
370
    25
100
AcDbLine
 10
148.9608500881
 20
66.6757473529
 30
0.0
 11
148.9608500881
 21
67.2260176525
 31
0.0
  0
LINE
  5
41A
330
1F
100
AcDbEntity
  8
0
  6
Continuous
 62
     7
370
    25
100
AcDbLine
 10
148.9608500881
 20
67.2260176525
 30
0.0
 11
147.307873197
 21
67.027836849
 31
0.0
  0
LINE
  5
41B
330
1F
100
AcDbEntity
  8
0
  6
Continuous
 62
     7
370
    25
100
AcDbLine
 10
147.307873197
 20
67.027836849
 30
0.0
 11
147.307873197
 21
66.4328291267
 31
0.0
  0
LINE
  5
41C
330
1F
100
AcDbEntity
  8
0
  6
Continuous
 62
     7
370
    25
100
AcDbLine
 10
147.307873197
 20
66.4328291267
 30
0.0
 11
148.3125732136
 21
66.5739062754
 31
0.0
  0
LINE
  5
41D
330
1F
100
AcDbEntity
  8
0
  6
Continuous
 62
     7
370
    25
100
AcDbLine
 10
148.3125732136
 20
66.5739062754
 30
0.0
 11
147.307873197
 21
65.551501899
 31
0.0
  0
LINE
  5
41E
330
1F
100
AcDbEntity
  8
0
  6
Continuous
 62
     7
370
    25
100
AcDbLine
 10
147.307873197
 20
65.551501899
 30
0.0
 11
147.307873197
 21
64.959973754
 31
0.0
  0
LINE
  5
41F
330
1F
100
AcDbEntity
  8
0
  6
Continuous
 62
     7
370
    25
100
AcDbLine
 10
129.6515833164
 20
55.5625465245
 30
0.0
 11
129.5934708475
 21
55.5289989103
 31
0.0
  0
SPLINE
  5
420
330
1F
100
AcDbEntity
  8
0
  6
Continuous
 62
     7
370
    25
100
AcDbSpline
210
0.0
220
0.0
230
1.0
 70
     8
 71
     3
 72
     9
 73
     5
 74
     0
 42
0.000000001
 43
0.00000001
 40
0.0
 40
0.0
 40
0.0
 40
0.0
 40
0.5595454497440249
 40
1.0
 40
1.0
 40
1.0
 40
1.0
 10
129.8125763781448
 20
55.59931552116513
 30
0.0
 10
129.7844589940258
 20
55.6013825087494
 30
0.0
 10
129.7342085914324
 20
55.60507655645404
 30
0.0
 10
129.676848034613
 20
55.57555113204284
 30
0.0
 10
129.6515833163567
 20
55.56254652451267
 30
0.0
  0
SPLINE
  5
421
330
1F
100
AcDbEntity
  8
0
  6
Continuous
 62
     7
370
    25
100
AcDbSpline
210
0.0
220
0.0
230
1.0
 70
     8
 71
     3
 72
     9
 73
     5
 74
     0
 42
0.000000001
 43
0.00000001
 40
0.0
 40
0.0
 40
0.0
 40
0.0
 40
0.5606896493157523
 40
1.0
 40
1.0
 40
1.0
 40
1.0
 10
129.9313840921915
 20
55.48050166159772
 30
0.0
 10
129.9135314509014
 20
55.50899435788256
 30
0.0
 10
129.8816909464227
 20
55.55981159040966
 30
0.0
 10
129.8336717209339
 20
55.58725802038685
 30
0.0
 10
129.8125763781448
 20
55.59931552116513
 30
0.0
  0
LINE
  5
422
330
1F
100
AcDbEntity
  8
0
  6
Continuous
 62
     7
370
    25
100
AcDbLine
 10
130.2800589052
 20
54.9391461293
 30
0.0
 11
129.9313840922
 21
55.4805016616
 31
0.0
  0
LINE
  5
423
330
1F
100
AcDbEntity
  8
0
  6
Continuous
 62
     7
370
    25
100
AcDbLine
 10
131.0260508198
 20
55.369798095
 30
0.0
 11
130.2800589052
 21
54.9391461293
 31
0.0
  0
LINE
  5
424
330
1F
100
AcDbEntity
  8
0
  6
Continuous
 62
     7
370
    25
100
AcDbLine
 10
130.6984686807
 20
55.8790898284
 30
0.0
 11
131.0260508198
 21
55.369798095
 31
0.0
  0
SPLINE
  5
425
330
1F
100
AcDbEntity
  8
0
  6
Continuous
 62
     7
370
    25
100
AcDbSpline
210
0.0
220
0.0
230
1.0
 70
     8
 71
     3
 72
     9
 73
     5
 74
     0
 42
0.000000001
 43
0.00000001
 40
0.0
 40
0.0
 40
0.0
 40
0.0
 40
0.5597699036669814
 40
1.0
 40
1.0
 40
1.0
 40
1.0
 10
130.5034690630906
 20
56.05184428582911
 30
0.0
 10
130.5446657526477
 20
56.02669581374096
 30
0.0
 10
130.6182615092027
 20
55.98176936820792
 30
0.0
 10
130.673952035121
 20
55.91047552422869
 30
0.0
 10
130.6984686807109
 20
55.87908982842576
 30
0.0
  0
SPLINE
  5
426
330
1F
100
AcDbEntity
  8
0
  6
Continuous
 62
     7
370
    25
100
AcDbSpline
210
0.0
220
0.0
230
1.0
 70
     8
 71
     3
 72
     9
 73
     5
 74
     0
 42
0.000000001
 43
0.00000001
 40
0.0
 40
0.0
 40
0.0
 40
0.0
 40
0.5601696408923503
 40
1.0
 40
1.0
 40
1.0
 40
1.0
 10
130.3342972093936
 20
56.04614371129121
 30
0.0
 10
130.3675163861212
 20
56.05205863939773
 30
0.0
 10
130.4268183802005
 20
56.0626178123245
 30
0.0
 10
130.4800542926157
 20
56.05513531521834
 30
0.0
 10
130.5034690630906
 20
56.05184428582911
 30
0.0
  0
SPLINE
  5
427
330
1F
100
AcDbEntity
  8
0
  6
Continuous
 62
     7
370
    25
100
AcDbSpline
210
0.0
220
0.0
230
1.0
 70
     8
 71
     3
 72
     9
 73
     5
 74
     0
 42
0.000000001
 43
0.00000001
 40
0.0
 40
0.0
 40
0.0
 40
0.0
 40
0.5596449196502573
 40
1.0
 40
1.0
 40
1.0
 40
1.0
 10
130.570621249291
 20
56.27999884064891
 30
0.0
 10
130.5281307029453
 20
56.23199083765682
 30
0.0
 10
130.4522065859673
 20
56.14620786830169
 30
0.0
 10
130.3703452601163
 20
56.07673600099924
 30
0.0
 10
130.3342972093936
 20
56.04614371129121
 30
0.0
  0
SPLINE
  5
428
330
1F
100
AcDbEntity
  8
0
  6
Continuous
 62
     7
370
    25
100
AcDbSpline
210
0.0
220
0.0
230
1.0
 70
     8
 71
     3
 72
    10
 73
     6
 74
     0
 42
0.000000001
 43
0.00000001
 40
0.0
 40
0.0
 40
0.0
 40
0.0
 40
0.2808224526156023
 40
0.5612097671939661
 40
1.0
 40
1.0
 40
1.0
 40
1.0
 10
130.860753130695
 20
57.04100488554086
 30
0.0
 10
130.8571425781118
 20
56.97213604266631
 30
0.0
 10
130.8499270675435
 20
56.83450507008366
 30
0.0
 10
130.7633202469154
 20
56.56046389160577
 30
0.0
 10
130.6436409303871
 20
56.38627582616494
 30
0.0
 10
130.570621249291
 20
56.27999884064892
 30
0.0
  0
SPLINE
  5
429
330
1F
100
AcDbEntity
  8
0
  6
Continuous
 62
     7
370
    25
100
AcDbSpline
210
0.0
220
0.0
230
1.0
 70
     8
 71
     3
 72
    12
 73
     8
 74
     0
 42
0.000000001
 43
0.00000001
 40
0.0
 40
0.0
 40
0.0
 40
0.0
 40
0.1875852658663999
 40
0.3749963299722626
 40
0.5612881976150835
 40
0.7803241467922655
 40
1.0
 40
1.0
 40
1.0
 40
1.0
 10
130.0329732969562
 20
57.24612907954256
 30
0.0
 10
130.1055996452691
 20
57.2864591050373
 30
0.0
 10
130.2507848971643
 20
57.36708170339735
 30
0.0
 10
130.4679553199633
 20
57.46126192623494
 30
0.0
 10
130.6817675816482
 20
57.47194705812224
 30
0.0
 10
130.8372005278736
 20
57.32492635382352
 30
0.0
 10
130.8528946326261
 20
57.13573735851355
 30
0.0
 10
130.860753130695
 20
57.04100488554086
 30
0.0
  0
LINE
  5
42A
330
1F
100
AcDbEntity
  8
0
  6
Continuous
 62
     7
370
    25
100
AcDbLine
 10
128.9322800911
 20
56.610712417
 30
0.0
 11
130.032973297
 21
57.2461290795
 31
0.0
  0
LINE
  5
42B
330
1F
100
AcDbEntity
  8
0
  6
Continuous
 62
     7
370
    25
100
AcDbLine
 10
128.9322800911
 20
54.1610899814
 30
0.0
 11
128.9322800911
 21
56.610712417
 31
0.0
  0
LINE
  5
42C
330
1F
100
AcDbEntity
  8
0
  6
Continuous
 62
     7
370
    25
100
AcDbLine
 10
129.5934708475
 20
54.5427872804
 30
0.0
 11
128.9322800911
 21
54.1610899814
 31
0.0
  0
LINE
  5
42D
330
1F
100
AcDbEntity
  8
0
  6
Continuous
 62
     7
370
    25
100
AcDbLine
 10
129.5934708475
 20
55.5289989103
 30
0.0
 11
129.5934708475
 21
54.5427872804
 31
0.0
  0
SPLINE
  5
42E
330
1F
100
AcDbEntity
  8
0
  6
Continuous
 62
     7
370
    25
100
AcDbSpline
210
0.0
220
0.0
230
1.0
 70
     8
 71
     3
 72
    12
 73
     8
 74
     0
 42
0.000000001
 43
0.00000001
 40
0.0
 40
0.0
 40
0.0
 40
0.0
 40
0.1871359280314031
 40
0.3738826533383048
 40
0.5603374220198155
 40
0.7797698401762232
 40
0.9999999999999999
 40
0.9999999999999999
 40
0.9999999999999999
 40
0.9999999999999999
 10
123.4685027256867
 20
53.48835416078672
 30
0.0
 10
123.5775748621731
 20
53.54555018291333
 30
0.0
 10
123.7954922884192
 20
53.65982327166781
 30
0.0
 10
124.1089590116257
 20
53.71309268395299
 30
0.0
 10
124.380437097925
 20
53.61099081752633
 30
0.0
 10
124.5511683481091
 20
53.3205999802557
 30
0.0
 10
124.5663342912017
 20
53.03255546528843
 30
0.0
 10
124.5739310216001
 20
52.88827188796182
 30
0.0
  0
SPLINE
  5
42F
330
1F
100
AcDbEntity
  8
0
  6
Continuous
 62
     7
370
    25
100
AcDbSpline
210
0.0
220
0.0
230
1.0
 70
     8
 71
     3
 72
    12
 73
     8
 74
     0
 42
0.000000001
 43
0.00000001
 40
0.0
 40
0.0
 40
0.0
 40
0.0
 40
0.1870767452626515
 40
0.3737553587746387
 40
0.5602080719426799
 40
0.7797263036176509
 40
0.9999999999999999
 40
0.9999999999999999
 40
0.9999999999999999
 40
0.9999999999999999
 10
122.3699618334862
 20
51.59606425885779
 30
0.0
 10
122.3755071388977
 20
51.72563706854529
 30
0.0
 10
122.3865859483495
 20
51.984506934515
 30
0.0
 10
122.5069730076889
 20
52.41396075516776
 30
0.0
 10
122.7413298869862
 20
52.85392799374002
 30
0.0
 10
123.0816535339458
 20
53.23951616499772
 30
0.0
 10
123.3394054083107
 20
53.40531322803198
 30
0.0
 10
123.4685027256867
 20
53.48835416078672
 30
0.0
  0
SPLINE
  5
430
330
1F
100
AcDbEntity
  8
0
  6
Continuous
 62
     7
370
    25
100
AcDbSpline
210
0.0
220
0.0
230
1.0
 70
     8
 71
     3
 72
    12
 73
     8
 74
     0
 42
0.000000001
 43
0.00000001
 40
0.0
 40
0.0
 40
0.0
 40
0.0
 40
0.1871987008947076
 40
0.3738816053985857
 40
0.5602815133849113
 40
0.7797443338284303
 40
1.0
 40
1.0
 40
1.0
 40
1.0
 10
123.4943304896099
 20
50.99001521910265
 30
0.0
 10
123.3834469344718
 20
50.93118076866173
 30
0.0
 10
123.1619853462812
 20
50.81367397679581
 30
0.0
 10
122.839600690127
 20
50.74922944799295
 30
0.0
 10
122.5686489457744
 20
50.86404984867495
 30
0.0
 10
122.3922253537551
 20
51.15490789659405
 30
0.0
 10
122.3773919221759
 20
51.44883548020643
 30
0.0
 10
122.3699618334862
 20
51.59606425885779
 30
0.0
  0
SPLINE
  5
431
330
1F
100
AcDbEntity
  8
0
  6
Continuous
 62
     7
370
    25
100
AcDbSpline
210
0.0
220
0.0
230
1.0
 70
     8
 71
     3
 72
    12
 73
     8
 74
     0
 42
0.000000001
 43
0.00000001
 40
0.0
 40
0.0
 40
0.0
 40
0.0
 40
0.1871808398352957
 40
0.373829106405658
 40
0.5602486079208409
 40
0.7796960763245941
 40
0.9999999999999999
 40
0.9999999999999999
 40
0.9999999999999999
 40
0.9999999999999999
 10
124.5739310216001
 20
52.88827188796182
 30
0.0
 10
124.5695011690578
 20
52.75915628005758
 30
0.0
 10
124.5606540679398
 20
52.50129242834954
 30
0.0
 10
124.4500128132266
 20
52.07301367386953
 30
0.0
 10
124.2207386564134
 20
51.62971650857297
 30
0.0
 10
123.8822151444305
 20
51.23771760142118
 30
0.0
 10
123.6237931412253
 20
51.07268981534635
 30
0.0
 10
123.4943304896099
 20
50.99001521910265
 30
0.0
  0
LINE
  5
432
330
1F
100
AcDbEntity
  8
0
  6
Continuous
 62
     7
370
    25
100
AcDbLine
 10
73.6117351489
 20
20.1838671307
 30
0.0
 11
90.1113647811
 21
29.7089005713
 31
0.0
  0
LINE
  5
433
330
1F
100
AcDbEntity
  8
0
  6
Continuous
 62
     7
370
    25
100
AcDbLine
 10
90.1113647811
 20
29.7089005713
 30
0.0
 11
90.1113647811
 21
35.5063403357
 31
0.0
  0
LINE
  5
434
330
1F
100
AcDbEntity
  8
0
  6
Continuous
 62
     7
370
    25
100
AcDbLine
 10
90.1113647811
 20
35.5063403357
 30
0.0
 11
73.6117351489
 21
25.9813068951
 31
0.0
  0
LINE
  5
435
330
1F
100
AcDbEntity
  8
0
  6
Continuous
 62
     7
370
    25
100
AcDbLine
 10
73.6117351489
 20
25.9813068951
 30
0.0
 11
73.6117351489
 21
20.1838671307
 31
0.0
  0
LINE
  5
436
330
1F
100
AcDbEntity
  8
0
  6
Continuous
 62
     7
370
    25
100
AcDbLine
 10
97.182432593
 20
33.7909411304
 30
0.0
 11
113.6820622252
 21
43.3159745711
 31
0.0
  0
LINE
  5
437
330
1F
100
AcDbEntity
  8
0
  6
Continuous
 62
     7
370
    25
100
AcDbLine
 10
113.6820622252
 20
43.3159745711
 30
0.0
 11
113.6820622252
 21
49.1134143354
 31
0.0
  0
LINE
  5
438
330
1F
100
AcDbEntity
  8
0
  6
Continuous
 62
     7
370
    25
100
AcDbLine
 10
113.6820622252
 20
49.1134143354
 30
0.0
 11
97.182432593
 21
39.5883808948
 31
0.0
  0
LINE
  5
439
330
1F
100
AcDbEntity
  8
0
  6
Continuous
 62
     7
370
    25
100
AcDbLine
 10
97.182432593
 20
39.5883808948
 30
0.0
 11
97.182432593
 21
33.7909411304
 31
0.0
  0
LINE
  5
43A
330
1F
100
AcDbEntity
  8
0
  6
Continuous
 62
     7
370
    25
100
AcDbLine
 10
167.8916964981
 20
80.4079700778
 30
0.0
 11
167.8916964981
 21
74.6105303134
 31
0.0
  0
LINE
  5
43B
330
1F
100
AcDbEntity
  8
0
  6
Continuous
 62
     7
370
    25
100
AcDbLine
 10
167.8916964981
 20
74.6105303134
 30
0.0
 11
184.3913261303
 21
84.1355637541
 31
0.0
  0
LINE
  5
43C
330
1F
100
AcDbEntity
  8
0
  6
Continuous
 62
     7
370
    25
100
AcDbLine
 10
184.3913261303
 20
84.1355637541
 30
0.0
 11
184.3913261303
 21
89.9330035185
 31
0.0
  0
LINE
  5
43D
330
1F
100
AcDbEntity
  8
0
  6
Continuous
 62
     7
370
    25
100
AcDbLine
 10
184.3913261303
 20
89.9330035185
 30
0.0
 11
167.8916964981
 21
80.4079700778
 31
0.0
  0
LINE
  5
43E
330
1F
100
AcDbEntity
  8
0
  6
Continuous
 62
     7
370
    25
100
AcDbLine
 10
191.4623939422
 20
94.0150440776
 30
0.0
 11
191.4623939422
 21
88.2176043132
 31
0.0
  0
LINE
  5
43F
330
1F
100
AcDbEntity
  8
0
  6
Continuous
 62
     7
370
    25
100
AcDbLine
 10
191.4623939422
 20
88.2176043132
 30
0.0
 11
207.9620235744
 21
97.7426377538
 31
0.0
  0
LINE
  5
440
330
1F
100
AcDbEntity
  8
0
  6
Continuous
 62
     7
370
    25
100
AcDbLine
 10
207.9620235744
 20
97.7426377538
 30
0.0
 11
207.9620235744
 21
103.5400775182
 31
0.0
  0
LINE
  5
441
330
1F
100
AcDbEntity
  8
0
  6
Continuous
 62
     7
370
    25
100
AcDbLine
 10
207.9620235744
 20
103.5400775182
 30
0.0
 11
191.4623939422
 21
94.0150440776
 31
0.0
  0
SPLINE
  5
442
330
1F
100
AcDbEntity
  8
0
  6
Continuous
 62
     7
370
    25
100
AcDbSpline
210
0.0
220
0.0
230
1.0
 70
     8
 71
     3
 72
     9
 73
     5
 74
     0
 42
0.000000001
 43
0.00000001
 40
0.0
 40
0.0
 40
0.0
 40
0.0
 40
0.5582410053773802
 40
0.9999999999999999
 40
0.9999999999999999
 40
0.9999999999999999
 40
0.9999999999999999
 10
120.5742435004518
 20
51.0425822963049
 30
0.0
 10
120.5430426122955
 20
50.94019939830974
 30
0.0
 10
120.4871511821502
 20
50.75679671558149
 30
0.0
 10
120.4860532146623
 20
50.59231925233318
 30
0.0
 10
120.4855681776487
 20
50.51965985353056
 30
0.0
  0
SPLINE
  5
443
330
1F
100
AcDbEntity
  8
0
  6
Continuous
 62
     7
370
    25
100
AcDbSpline
210
0.0
220
0.0
230
1.0
 70
     8
 71
     3
 72
     9
 73
     5
 74
     0
 42
0.000000001
 43
0.00000001
 40
0.0
 40
0.0
 40
0.0
 40
0.0
 40
0.558977099322374
 40
1.0
 40
1.0
 40
1.0
 40
1.0
 10
120.9121567451138
 20
51.43996802742986
 30
0.0
 10
120.8358969264411
 20
51.38571553504239
 30
0.0
 10
120.6994694792969
 20
51.28865879970705
 30
0.0
 10
120.612568723739
 20
51.11789364164716
 30
0.0
 10
120.5742435004518
 20
51.0425822963049
 30
0.0
  0
SPLINE
  5
444
330
1F
100
AcDbEntity
  8
0
  6
Continuous
 62
     7
370
    25
100
AcDbSpline
210
0.0
220
0.0
230
1.0
 70
     8
 71
     3
 72
     9
 73
     5
 74
     0
 42
0.000000001
 43
0.00000001
 40
0.0
 40
0.0
 40
0.0
 40
0.0
 40
0.558822529626901
 40
1.0
 40
1.0
 40
1.0
 40
1.0
 10
121.2216594494602
 20
51.43521670231689
 30
0.0
 10
121.174095939039
 20
51.46637945930046
 30
0.0
 10
121.0889821365354
 20
51.52214449261866
 30
0.0
 10
120.9662870520946
 20
51.46512412775856
 30
0.0
 10
120.9121567451138
 20
51.43996802742986
 30
0.0
  0
SPLINE
  5
445
330
1F
100
AcDbEntity
  8
0
  6
Continuous
 62
     7
370
    25
100
AcDbSpline
210
0.0
220
0.0
230
1.0
 70
     8
 71
     3
 72
     9
 73
     5
 74
     0
 42
0.000000001
 43
0.00000001
 40
0.0
 40
0.0
 40
0.0
 40
0.0
 40
0.560236369883312
 40
1.0
 40
1.0
 40
1.0
 40
1.0
 10
121.2845070083401
 20
51.30497519674545
 30
0.0
 10
121.2757733177514
 20
51.33258072832378
 30
0.0
 10
121.2601840217718
 20
51.3818555220757
 30
0.0
 10
121.2334264544144
 20
51.41891798088837
 30
0.0
 10
121.2216594494602
 20
51.43521670231689
 30
0.0
  0
LINE
  5
446
330
1F
100
AcDbEntity
  8
0
  6
Continuous
 62
     7
370
    25
100
AcDbLine
 10
121.8630489202
 20
51.7900734057
 30
0.0
 11
121.2845070083
 21
51.3049751967
 31
0.0
  0
SPLINE
  5
447
330
1F
100
AcDbEntity
  8
0
  6
Continuous
 62
     7
370
    25
100
AcDbSpline
210
0.0
220
0.0
230
1.0
 70
     8
 71
     3
 72
    11
 73
     7
 74
     0
 42
0.000000001
 43
0.00000001
 40
0.0
 40
0.0
 40
0.0
 40
0.0
 40
0.2805331559288937
 40
0.5594709749073601
 40
0.779472152716973
 40
0.9999999999999999
 40
0.9999999999999999
 40
0.9999999999999999
 40
0.9999999999999999
 10
120.8940773103675
 20
52.00217000284224
 30
0.0
 10
121.0137189966029
 20
52.06499060816735
 30
0.0
 10
121.2523219903061
 20
52.19027457037539
 30
0.0
 10
121.562425682434
 20
52.19807498830598
 30
0.0
 10
121.7619690489424
 20
52.03539321189414
 30
0.0
 10
121.8293287860712
 20
51.87191182389017
 30
0.0
 10
121.86304892022
 20
51.79007340572971
 30
0.0
  0
SPLINE
  5
448
330
1F
100
AcDbEntity
  8
0
  6
Continuous
 62
     7
370
    25
100
AcDbSpline
210
0.0
220
0.0
230
1.0
 70
     8
 71
     3
 72
    12
 73
     8
 74
     0
 42
0.000000001
 43
0.00000001
 40
0.0
 40
0.0
 40
0.0
 40
0.0
 40
0.1871345876605827
 40
0.3738495955563432
 40
0.56025021644774
 40
0.779713771798662
 40
0.9999999999999999
 40
0.9999999999999999
 40
0.9999999999999999
 40
0.9999999999999999
 10
119.8243774212146
 20
50.13398589469841
 30
0.0
 10
119.8293929079819
 20
50.26152537093544
 30
0.0
 10
119.8394126361514
 20
50.51631836353367
 30
0.0
 10
119.9506031640008
 20
50.93824066718532
 30
0.0
 10
120.1764761978734
 20
51.37551772180421
 30
0.0
 10
120.5125213794257
 20
51.75709700643158
 30
0.0
 10
120.7667334755187
 20
51.92037718388699
 30
0.0
 10
120.8940773103675
 20
52.00217000284224
 30
0.0
  0
SPLINE
  5
449
330
1F
100
AcDbEntity
  8
0
  6
Continuous
 62
     7
370
    25
100
AcDbSpline
210
0.0
220
0.0
230
1.0
 70
     8
 71
     3
 72
    12
 73
     8
 74
     0
 42
0.000000001
 43
0.00000001
 40
0.0
 40
0.0
 40
0.0
 40
0.0
 40
0.1872228366605861
 40
0.3737348794435082
 40
0.56018398987089
 40
0.7796864789897726
 40
1.0
 40
1.0
 40
1.0
 40
1.0
 10
120.9285143289318
 20
49.50880107807269
 30
0.0
 10
120.8182883588493
 20
49.44986450318122
 30
0.0
 10
120.5982548929799
 20
49.33221510685347
 30
0.0
 10
120.2755691221773
 20
49.26645077930367
 30
0.0
 10
120.0182115301509
 20
49.40393354713763
 30
0.0
 10
119.8451893830172
 20
49.69372565782898
 30
0.0
 10
119.8313232649734
 20
49.98705218188891
 30
0.0
 10
119.8243774212146
 20
50.13398589469841
 30
0.0
  0
SPLINE
  5
44A
330
1F
100
AcDbEntity
  8
0
  6
Continuous
 62
     7
370
    25
100
AcDbSpline
210
0.0
220
0.0
230
1.0
 70
     8
 71
     3
 72
    11
 73
     7
 74
     0
 42
0.000000001
 43
0.00000001
 40
0.0
 40
0.0
 40
0.0
 40
0.0
 40
0.2801357057900856
 40
0.5592083359447904
 40
0.7792493101251746
 40
0.9999999999999999
 40
0.9999999999999999
 40
0.9999999999999999
 40
0.9999999999999999
 10
121.8905985350714
 20
50.91321733517259
 30
0.0
 10
121.8532308749335
 20
50.75423180170674
 30
0.0
 10
121.7786373596765
 20
50.43686406253195
 30
0.0
 10
121.5244593634209
 20
49.99657208804025
 30
0.0
 10
121.221122602734
 20
49.69007051891914
 30
0.0
 10
121.026155058843
 20
49.56928904816615
 30
0.0
 10
120.9285143289318
 20
49.50880107807269
 30
0.0
  0
LINE
  5
44B
330
1F
100
AcDbEntity
  8
0
  6
Continuous
 62
     7
370
    25
100
AcDbLine
 10
121.3120566232
 20
50.7800535183
 30
0.0
 11
121.8905985351
 21
50.9132173352
 31
0.0
  0
SPLINE
  5
44C
330
1F
100
AcDbEntity
  8
0
  6
Continuous
 62
     7
370
    25
100
AcDbSpline
210
0.0
220
0.0
230
1.0
 70
     8
 71
     3
 72
    10
 73
     6
 74
     0
 42
0.000000001
 43
0.00000001
 40
0.0
 40
0.0
 40
0.0
 40
0.0
 40
0.280574183286829
 40
0.5589842259654224
 40
1.0
 40
1.0
 40
1.0
 40
1.0
 10
120.8910640712432
 20
50.05982051542747
 30
0.0
 10
120.9528079081144
 20
50.10035001315108
 30
0.0
 10
121.0758193358136
 20
50.18109639419163
 30
0.0
 10
121.2473813611141
 20
50.45870252374377
 30
0.0
 10
121.2874773500998
 20
50.65792685659333
 30
0.0
 10
121.3120566231915
 20
50.78005351832414
 30
0.0
  0
SPLINE
  5
44D
330
1F
100
AcDbEntity
  8
0
  6
Continuous
 62
     7
370
    25
100
AcDbSpline
210
0.0
220
0.0
230
1.0
 70
     8
 71
     3
 72
    12
 73
     8
 74
     0
 42
0.000000001
 43
0.00000001
 40
0.0
 40
0.0
 40
0.0
 40
0.0
 40
0.25096271883586
 40
0.5011774878575775
 40
0.6262419065927297
 40
0.751377560690526
 40
1.0
 40
1.0
 40
1.0
 40
1.0
 10
120.4855681776488
 20
50.51965985353058
 30
0.0
 10
120.4874961764425
 20
50.44117614772969
 30
0.0
 10
120.4913464279719
 20
50.28444264287492
 30
0.0
 10
120.5270772325551
 20
50.10533846962253
 30
0.0
 10
120.6044246715478
 20
50.01571900266896
 30
0.0
 10
120.7161757647629
 20
49.98036510601933
 30
0.0
 10
120.8212014147522
 20
50.02808045180888
 30
0.0
 10
120.8910640712431
 20
50.05982051542748
 30
0.0
  0
SPLINE
  5
44E
330
1F
100
AcDbEntity
  8
0
  6
Continuous
 62
     7
370
    25
100
AcDbSpline
210
0.0
220
0.0
230
1.0
 70
     8
 71
     3
 72
     9
 73
     5
 74
     0
 42
0.000000001
 43
0.00000001
 40
0.0
 40
0.0
 40
0.0
 40
0.0
 40
0.5600530855990077
 40
1.0
 40
1.0
 40
1.0
 40
1.0
 10
127.7538453158257
 20
53.54740311772731
 30
0.0
 10
127.681744773693
 20
53.48550446682029
 30
0.0
 10
127.5530060094817
 20
53.37498163871942
 30
0.0
 10
127.420743274524
 20
53.2915932580962
 30
0.0
 10
127.3625546923891
 20
53.25490679734413
 30
0.0
  0
SPLINE
  5
44F
330
1F
100
AcDbEntity
  8
0
  6
Continuous
 62
     7
370
    25
100
AcDbSpline
210
0.0
220
0.0
230
1.0
 70
     8
 71
     3
 72
    11
 73
     7
 74
     0
 42
0.000000001
 43
0.00000001
 40
0.0
 40
0.0
 40
0.0
 40
0.0
 40
0.2808746777100752
 40
0.5603295785048734
 40
0.7804248279245455
 40
1.0
 40
1.0
 40
1.0
 40
1.0
 10
128.3427183332749
 20
55.05400484296023
 30
0.0
 10
128.3403068895486
 20
54.91583485184
 30
0.0
 10
128.3354961915614
 20
54.6401932969743
 30
0.0
 10
128.2155840434371
 20
54.20995851527596
 30
0.0
 10
128.0119096800318
 20
53.82120759004627
 30
0.0
 10
127.8397989084317
 20
53.63859927392586
 30
0.0
 10
127.7538453158257
 20
53.54740311772731
 30
0.0
  0
SPLINE
  5
450
330
1F
100
AcDbEntity
  8
0
  6
Continuous
 62
     7
370
    25
100
AcDbSpline
210
0.0
220
0.0
230
1.0
 70
     8
 71
     3
 72
    12
 73
     8
 74
     0
 42
0.000000001
 43
0.00000001
 40
0.0
 40
0.0
 40
0.0
 40
0.0
 40
0.1871288916578591
 40
0.3734679890400824
 40
0.5597708942708904
 40
0.7795228612054926
 40
1.0
 40
1.0
 40
1.0
 40
1.0
 10
127.3625546923891
 20
55.70452923300138
 30
0.0
 10
127.4651581511886
 20
55.75980473418381
 30
0.0
 10
127.6699320216847
 20
55.87012244133675
 30
0.0
 10
127.9627248852772
 20
55.90550332854031
 30
0.0
 10
128.1940797540455
 20
55.76339170294768
 30
0.0
 10
128.3222369241948
 20
55.45973822371225
 30
0.0
 10
128.3358837036496
 20
55.18939774357694
 30
0.0
 10
128.3427183332749
 20
55.05400484296023
 30
0.0
  0
LINE
  5
451
330
1F
100
AcDbEntity
  8
0
  6
Continuous
 62
     7
370
    25
100
AcDbLine
 10
126.3866956788
 20
55.1411778157
 30
0.0
 11
127.3625546924
 21
55.704529233
 31
0.0
  0
LINE
  5
452
330
1F
100
AcDbEntity
  8
0
  6
Continuous
 62
     7
370
    25
100
AcDbLine
 10
126.3866956788
 20
52.6915553801
 30
0.0
 11
126.3866956788
 21
55.1411778157
 31
0.0
  0
LINE
  5
453
330
1F
100
AcDbEntity
  8
0
  6
Continuous
 62
     7
370
    25
100
AcDbLine
 10
127.3625546924
 20
53.2549067973
 30
0.0
 11
126.3866956788
 21
52.6915553801
 31
0.0
  0
LINE
  5
454
330
1F
100
AcDbEntity
  8
0
  6
Continuous
 62
     7
370
    25
100
AcDbLine
 10
132.7808751933
 20
58.8324590783
 30
0.0
 11
133.5716352321
 21
56.8393326963
 31
0.0
  0
LINE
  5
455
330
1F
100
AcDbEntity
  8
0
  6
Continuous
 62
     7
370
    25
100
AcDbLine
 10
132.0348832786
 20
58.4018071127
 30
0.0
 11
132.7808751933
 21
58.8324590783
 31
0.0
  0
LINE
  5
456
330
1F
100
AcDbEntity
  8
0
  6
Continuous
 62
     7
370
    25
100
AcDbLine
 10
131.2574675846
 20
55.5033921496
 30
0.0
 11
132.0348832786
 21
58.4018071127
 31
0.0
  0
LINE
  5
457
330
1F
100
AcDbEntity
  8
0
  6
Continuous
 62
     7
370
    25
100
AcDbLine
 10
131.9289894466
 20
55.891053469
 30
0.0
 11
131.2574675846
 21
55.5033921496
 31
0.0
  0
LINE
  5
458
330
1F
100
AcDbEntity
  8
0
  6
Continuous
 62
     7
370
    25
100
AcDbLine
 10
132.0361746668
 20
56.3665027986
 30
0.0
 11
131.9289894466
 21
55.891053469
 31
0.0
  0
LINE
  5
459
330
1F
100
AcDbEntity
  8
0
  6
Continuous
 62
     7
370
    25
100
AcDbLine
 10
132.774848715
 20
56.7929302498
 30
0.0
 11
132.0361746668
 21
56.3665027986
 31
0.0
  0
LINE
  5
45A
330
1F
100
AcDbEntity
  8
0
  6
Continuous
 62
     7
370
    25
100
AcDbLine
 10
132.8820339353
 20
56.4412343414
 30
0.0
 11
132.774848715
 21
56.7929302498
 31
0.0
  0
LINE
  5
45B
330
1F
100
AcDbEntity
  8
0
  6
Continuous
 62
     7
370
    25
100
AcDbLine
 10
133.5716352321
 20
56.8393326963
 30
0.0
 11
132.8820339353
 21
56.4412343414
 31
0.0
  0
LINE
  5
45C
330
1F
100
AcDbEntity
  8
0
  6
Continuous
 62
     7
370
    25
100
AcDbLine
 10
134.7121892869
 20
59.9473829727
 30
0.0
 11
134.7121892869
 21
57.4977605371
 31
0.0
  0
LINE
  5
45D
330
1F
100
AcDbEntity
  8
0
  6
Continuous
 62
     7
370
    25
100
AcDbLine
 10
134.0509985305
 20
59.5656856737
 30
0.0
 11
134.7121892869
 21
59.9473829727
 31
0.0
  0
LINE
  5
45E
330
1F
100
AcDbEntity
  8
0
  6
Continuous
 62
     7
370
    25
100
AcDbLine
 10
134.0509985305
 20
57.1160632381
 30
0.0
 11
134.0509985305
 21
59.5656856737
 31
0.0
  0
LINE
  5
45F
330
1F
100
AcDbEntity
  8
0
  6
Continuous
 62
     7
370
    25
100
AcDbLine
 10
134.7121892869
 20
57.4977605371
 30
0.0
 11
134.0509985305
 21
57.1160632381
 31
0.0
  0
LINE
  5
460
330
1F
100
AcDbEntity
  8
0
  6
Continuous
 62
     7
370
    25
100
AcDbLine
 10
136.0180410309
 20
59.5992032918
 30
0.0
 11
136.0180410309
 21
58.2516127027
 31
0.0
  0
LINE
  5
461
330
1F
100
AcDbEntity
  8
0
  6
Continuous
 62
     7
370
    25
100
AcDbLine
 10
136.8169798616
 20
58.7128302723
 30
0.0
 11
136.0180410309
 21
59.5992032918
 31
0.0
  0
LINE
  5
462
330
1F
100
AcDbEntity
  8
0
  6
Continuous
 62
     7
370
    25
100
AcDbLine
 10
137.4506210032
 20
59.0786235173
 30
0.0
 11
136.8169798616
 21
58.7128302723
 31
0.0
  0
LINE
  5
463
330
1F
100
AcDbEntity
  8
0
  6
Continuous
 62
     7
370
    25
100
AcDbLine
 10
137.4506210032
 20
61.5282459529
 30
0.0
 11
137.4506210032
 21
59.0786235173
 31
0.0
  0
LINE
  5
464
330
1F
100
AcDbEntity
  8
0
  6
Continuous
 62
     7
370
    25
100
AcDbLine
 10
136.8169798616
 20
61.162452708
 30
0.0
 11
137.4506210032
 21
61.5282459529
 31
0.0
  0
LINE
  5
465
330
1F
100
AcDbEntity
  8
0
  6
Continuous
 62
     7
370
    25
100
AcDbLine
 10
136.8169798616
 20
59.8074058818
 30
0.0
 11
136.8169798616
 21
61.162452708
 31
0.0
  0
LINE
  5
466
330
1F
100
AcDbEntity
  8
0
  6
Continuous
 62
     7
370
    25
100
AcDbLine
 10
136.0137364036
 20
60.6987501299
 30
0.0
 11
136.8169798616
 21
59.8074058818
 31
0.0
  0
LINE
  5
467
330
1F
100
AcDbEntity
  8
0
  6
Continuous
 62
     7
370
    25
100
AcDbLine
 10
135.4119495042
 20
60.3513459476
 30
0.0
 11
136.0137364036
 21
60.6987501299
 31
0.0
  0
LINE
  5
468
330
1F
100
AcDbEntity
  8
0
  6
Continuous
 62
     7
370
    25
100
AcDbLine
 10
135.4119495042
 20
57.9017235119
 30
0.0
 11
135.4119495042
 21
60.3513459476
 31
0.0
  0
LINE
  5
469
330
1F
100
AcDbEntity
  8
0
  6
Continuous
 62
     7
370
    25
100
AcDbLine
 10
136.0180410309
 20
58.2516127027
 30
0.0
 11
135.4119495042
 21
57.9017235119
 31
0.0
  0
LINE
  5
46A
330
1F
100
AcDbEntity
  8
0
  6
Continuous
 62
     7
370
    25
100
AcDbLine
 10
144.5584216348
 20
65.090666185
 30
0.0
 11
144.5584216348
 21
64.5498404524
 31
0.0
  0
LINE
  5
46B
330
1F
100
AcDbEntity
  8
0
  6
Continuous
 62
     7
370
    25
100
AcDbLine
 10
142.9880935883
 20
64.1841350998
 30
0.0
 11
144.5584216348
 21
65.090666185
 31
0.0
  0
LINE
  5
46C
330
1F
100
AcDbEntity
  8
0
  6
Continuous
 62
     7
370
    25
100
AcDbLine
 10
142.9880935883
 20
63.6433093672
 30
0.0
 11
142.9880935883
 21
64.1841350998
 31
0.0
  0
LINE
  5
46D
330
1F
100
AcDbEntity
  8
0
  6
Continuous
 62
     7
370
    25
100
AcDbLine
 10
144.5584216348
 20
64.5498404524
 30
0.0
 11
142.9880935883
 21
63.6433093672
 31
0.0
  0
LINE
  5
46E
330
1F
100
AcDbEntity
  8
0
  6
Continuous
 62
     7
370
    25
100
AcDbLine
 10
146.745861054
 20
65.5263028446
 30
0.0
 11
146.745861054
 21
64.9854771121
 31
0.0
  0
LINE
  5
46F
330
1F
100
AcDbEntity
  8
0
  6
Continuous
 62
     7
370
    25
100
AcDbLine
 10
145.1755330075
 20
64.6197717594
 30
0.0
 11
146.745861054
 21
65.5263028446
 31
0.0
  0
LINE
  5
470
330
1F
100
AcDbEntity
  8
0
  6
Continuous
 62
     7
370
    25
100
AcDbLine
 10
145.1755330075
 20
64.0789460268
 30
0.0
 11
145.1755330075
 21
64.6197717594
 31
0.0
  0
LINE
  5
471
330
1F
100
AcDbEntity
  8
0
  6
Continuous
 62
     7
370
    25
100
AcDbLine
 10
146.745861054
 20
64.9854771121
 30
0.0
 11
145.1755330075
 21
64.0789460268
 31
0.0
  0
LINE
  5
472
330
1F
100
AcDbEntity
  8
0
  6
Continuous
 62
     7
370
    25
100
AcDbLine
 10
146.745861054
 20
66.3534480826
 30
0.0
 11
146.745861054
 21
65.8126223501
 31
0.0
  0
LINE
  5
473
330
1F
100
AcDbEntity
  8
0
  6
Continuous
 62
     7
370
    25
100
AcDbLine
 10
145.1755330075
 20
65.4469169974
 30
0.0
 11
146.745861054
 21
66.3534480826
 31
0.0
  0
LINE
  5
474
330
1F
100
AcDbEntity
  8
0
  6
Continuous
 62
     7
370
    25
100
AcDbLine
 10
145.1755330075
 20
64.9060912649
 30
0.0
 11
145.1755330075
 21
65.4469169974
 31
0.0
  0
LINE
  5
475
330
1F
100
AcDbEntity
  8
0
  6
Continuous
 62
     7
370
    25
100
AcDbLine
 10
146.745861054
 20
65.8126223501
 30
0.0
 11
145.1755330075
 21
64.9060912649
 31
0.0
  0
LINE
  5
476
330
1F
100
AcDbEntity
  8
0
  6
Continuous
 62
     7
370
    25
100
AcDbLine
 10
144.5584216348
 20
64.263520947
 30
0.0
 11
144.5584216348
 21
63.7226952144
 31
0.0
  0
LINE
  5
477
330
1F
100
AcDbEntity
  8
0
  6
Continuous
 62
     7
370
    25
100
AcDbLine
 10
142.9880935883
 20
63.3569898618
 30
0.0
 11
144.5584216348
 21
64.263520947
 31
0.0
  0
LINE
  5
478
330
1F
100
AcDbEntity
  8
0
  6
Continuous
 62
     7
370
    25
100
AcDbLine
 10
142.9880935883
 20
62.8161641292
 30
0.0
 11
142.9880935883
 21
63.3569898618
 31
0.0
  0
LINE
  5
479
330
1F
100
AcDbEntity
  8
0
  6
Continuous
 62
     7
370
    25
100
AcDbLine
 10
144.5584216348
 20
63.7226952144
 30
0.0
 11
142.9880935883
 21
62.8161641292
 31
0.0
  0
LINE
  5
47A
330
1F
100
AcDbEntity
  8
0
  6
Continuous
 62
     7
370
    25
100
AcDbLine
 10
156.5645437871
 20
72.5624787058
 30
0.0
 11
155.7720618974
 21
69.6553662132
 31
0.0
  0
LINE
  5
47B
330
1F
100
AcDbEntity
  8
0
  6
Continuous
 62
     7
370
    25
100
AcDbLine
 10
155.8960351642
 20
72.1765568924
 30
0.0
 11
156.5645437871
 21
72.5624787058
 31
0.0
  0
LINE
  5
47C
330
1F
100
AcDbEntity
  8
0
  6
Continuous
 62
     7
370
    25
100
AcDbLine
 10
155.4212347707
 20
70.139806004
 30
0.0
 11
155.8960351642
 21
72.1765568924
 31
0.0
  0
LINE
  5
47D
330
1F
100
AcDbEntity
  8
0
  6
Continuous
 62
     7
370
    25
100
AcDbLine
 10
154.9391165108
 20
71.6241395124
 30
0.0
 11
155.4212347707
 21
70.139806004
 31
0.0
  0
LINE
  5
47E
330
1F
100
AcDbEntity
  8
0
  6
Continuous
 62
     7
370
    25
100
AcDbLine
 10
154.2503761396
 20
71.2265381592
 30
0.0
 11
154.9391165108
 21
71.6241395124
 31
0.0
  0
LINE
  5
47F
330
1F
100
AcDbEntity
  8
0
  6
Continuous
 62
     7
370
    25
100
AcDbLine
 10
155.0570632994
 20
69.2426063084
 30
0.0
 11
154.2503761396
 21
71.2265381592
 31
0.0
  0
LINE
  5
480
330
1F
100
AcDbEntity
  8
0
  6
Continuous
 62
     7
370
    25
100
AcDbLine
 10
155.7720618974
 20
69.6553662132
 30
0.0
 11
155.0570632994
 21
69.2426063084
 31
0.0
  0
LINE
  5
481
330
1F
100
AcDbEntity
  8
0
  6
Continuous
 62
     7
370
    25
100
AcDbLine
 10
158.23956037
 20
72.3523538965
 30
0.0
 11
158.23956037
 21
72.9249929074
 31
0.0
  0
SPLINE
  5
482
330
1F
100
AcDbEntity
  8
0
  6
Continuous
 62
     7
370
    25
100
AcDbSpline
210
0.0
220
0.0
230
1.0
 70
     8
 71
     3
 72
     9
 73
     5
 74
     0
 42
0.000000001
 43
0.00000001
 40
0.0
 40
0.0
 40
0.0
 40
0.0
 40
0.5596478271240177
 40
1.0
 40
1.0
 40
1.0
 40
1.0
 10
158.873201511623
 20
73.08350276031612
 30
0.0
 10
158.7632170388045
 20
72.93226545029414
 30
0.0
 10
158.5666926041727
 20
72.66202887884317
 30
0.0
 10
158.3395729869756
 20
72.4470293889817
 30
0.0
 10
158.2395603700402
 20
72.35235389645398
 30
0.0
  0
LINE
  5
483
330
1F
100
AcDbEntity
  8
0
  6
Continuous
 62
     7
370
    25
100
AcDbLine
 10
158.8732015116
 20
71.445616006
 30
0.0
 11
158.8732015116
 21
73.0835027603
 31
0.0
  0
LINE
  5
484
330
1F
100
AcDbEntity
  8
0
  6
Continuous
 62
     7
370
    25
100
AcDbLine
 10
159.4792930384
 20
71.7955051967
 30
0.0
 11
158.8732015116
 21
71.445616006
 31
0.0
  0
LINE
  5
485
330
1F
100
AcDbEntity
  8
0
  6
Continuous
 62
     7
370
    25
100
AcDbLine
 10
159.4792930384
 20
74.2769409108
 30
0.0
 11
159.4792930384
 21
71.7955051967
 31
0.0
  0
LINE
  5
486
330
1F
100
AcDbEntity
  8
0
  6
Continuous
 62
     7
370
    25
100
AcDbLine
 10
158.983399971
 20
73.9906679365
 30
0.0
 11
159.4792930384
 21
74.2769409108
 31
0.0
  0
SPLINE
  5
487
330
1F
100
AcDbEntity
  8
0
  6
Continuous
 62
     7
370
    25
100
AcDbSpline
210
0.0
220
0.0
230
1.0
 70
     8
 71
     3
 72
    11
 73
     7
 74
     0
 42
0.000000001
 43
0.00000001
 40
0.0
 40
0.0
 40
0.0
 40
0.0
 40
0.280255675791328
 40
0.5600694849457717
 40
0.7800353920222011
 40
1.0
 40
1.0
 40
1.0
 40
1.0
 10
158.2395603700402
 20
72.92499290738682
 30
0.0
 10
158.3241392639734
 20
73.0064473479804
 30
0.0
 10
158.4931637000662
 20
73.16922780358044
 30
0.0
 10
158.7109026858024
 20
73.43743476504852
 30
0.0
 10
158.8779694741754
 20
73.7193439721489
 30
0.0
 10
158.9482565412626
 20
73.9002267930986
 30
0.0
 10
158.9833999710287
 20
73.99066793650324
 30
0.0
  0
SPLINE
  5
488
330
1F
100
AcDbEntity
  8
0
  6
Continuous
 62
     7
370
    25
100
AcDbSpline
210
0.0
220
0.0
230
1.0
 70
     8
 71
     3
 72
    13
 73
     9
 74
     0
 42
0.000000001
 43
0.00000001
 40
0.0
 40
0.0
 40
0.0
 40
0.0
 40
0.1871174103431665
 40
0.3740390809668536
 40
0.5601850337173814
 40
0.7063736238378208
 40
0.8530463346113719
 40
1.0
 40
1.0
 40
1.0
 40
1.0
 10
164.3225153292346
 20
75.83464118155538
 30
0.0
 10
164.3197825649715
 20
75.71536104465427
 30
0.0
 10
164.3143198951344
 20
75.47692554737864
 30
0.0
 10
164.2557382814116
 20
75.09655049369799
 30
0.0
 10
164.1292806038632
 20
74.72033740252249
 30
0.0
 10
163.9129481582554
 20
74.41172155409461
 30
0.0
 10
163.6795896965231
 20
74.19952773774769
 30
0.0
 10
163.5196717482089
 20
74.09984064037562
 30
0.0
 10
163.439636265793
 20
74.04994939919268
 30
0.0
  0
SPLINE
  5
489
330
1F
100
AcDbEntity
  8
0
  6
Continuous
 62
     7
370
    25
100
AcDbSpline
210
0.0
220
0.0
230
1.0
 70
     8
 71
     3
 72
     9
 73
     5
 74
     0
 42
0.000000001
 43
0.00000001
 40
0.0
 40
0.0
 40
0.0
 40
0.0
 40
0.5599148219539377
 40
1.0
 40
1.0
 40
1.0
 40
1.0
 10
164.2622505467471
 20
76.3665250843895
 30
0.0
 10
164.2817951335108
 20
76.2731482995243
 30
0.0
 10
164.3167014906874
 20
76.10637867456722
 30
0.0
 10
164.3207386397643
 20
75.91768324380075
 30
0.0
 10
164.3225153292346
 20
75.83464118155538
 30
0.0
  0
SPLINE
  5
48A
330
1F
100
AcDbEntity
  8
0
  6
Continuous
 62
     7
370
    25
100
AcDbSpline
210
0.0
220
0.0
230
1.0
 70
     8
 71
     3
 72
    11
 73
     7
 74
     0
 42
0.000000001
 43
0.00000001
 40
0.0
 40
0.0
 40
0.0
 40
0.0
 40
0.2804754734820656
 40
0.5595654935685366
 40
0.7796409827162464
 40
0.9999999999999999
 40
0.9999999999999999
 40
0.9999999999999999
 40
0.9999999999999999
 10
163.4555633868789
 20
76.57239292291209
 30
0.0
 10
163.5576096382313
 20
76.62641970211534
 30
0.0
 10
163.7611980671799
 20
76.73420638661756
 30
0.0
 10
164.0208860943419
 20
76.72942828320801
 30
0.0
 10
164.1908943467338
 20
76.59044239440298
 30
0.0
 10
164.2384549410886
 20
76.44119621329217
 30
0.0
 10
164.2622505467471
 20
76.3665250843895
 30
0.0
  0
SPLINE
  5
48B
330
1F
100
AcDbEntity
  8
0
  6
Continuous
 62
     7
370
    25
100
AcDbSpline
210
0.0
220
0.0
230
1.0
 70
     8
 71
     3
 72
    13
 73
     9
 74
     0
 42
0.000000001
 43
0.00000001
 40
0.0
 40
0.0
 40
0.0
 40
0.0
 40
0.1871594996892784
 40
0.3740638197467889
 40
0.5598195326587012
 40
0.7062514219437529
 40
0.8530012592542175
 40
1.0
 40
1.0
 40
1.0
 40
1.0
 10
162.5593399787435
 20
74.8083313153937
 30
0.0
 10
162.5620464662851
 20
74.9266506432013
 30
0.0
 10
162.5674557512512
 20
75.16312797821794
 30
0.0
 10
162.6263556924243
 20
75.5413869328633
 30
0.0
 10
162.7654262493107
 20
75.91595325270927
 30
0.0
 10
162.9866013102975
 20
76.21248416190475
 30
0.0
 10
163.2171840713894
 20
76.42403344046997
 30
0.0
 10
163.3760587416957
 20
76.52291183439189
 30
0.0
 10
163.4555633868789
 20
76.57239292291209
 30
0.0
  0
SPLINE
  5
48C
330
1F
100
AcDbEntity
  8
0
  6
Continuous
 62
     7
370
    25
100
AcDbSpline
210
0.0
220
0.0
230
1.0
 70
     8
 71
     3
 72
    10
 73
     6
 74
     0
 42
0.000000001
 43
0.00000001
 40
0.0
 40
0.0
 40
0.0
 40
0.0
 40
0.2795726797720483
 40
0.5597722494360381
 40
1.0
 40
1.0
 40
1.0
 40
1.0
 10
162.72420720512
 20
74.02168282906783
 30
0.0
 10
162.6907176611606
 20
74.07842533537301
 30
0.0
 10
162.6236634791495
 20
74.19203758253174
 30
0.0
 10
162.5717747794788
 20
74.46303092151541
 30
0.0
 10
162.5640564052635
 20
74.67736146957877
 30
0.0
 10
162.5593399787435
 20
74.8083313153937
 30
0.0
  0
SPLINE
  5
48D
330
1F
100
AcDbEntity
  8
0
  6
Continuous
 62
     7
370
    25
100
AcDbSpline
210
0.0
220
0.0
230
1.0
 70
     8
 71
     3
 72
    11
 73
     7
 74
     0
 42
0.000000001
 43
0.00000001
 40
0.0
 40
0.0
 40
0.0
 40
0.0
 40
0.2803107270246867
 40
0.5598885774967222
 40
0.779921448527495
 40
1.0
 40
1.0
 40
1.0
 40
1.0
 10
163.439636265793
 20
74.04994939919268
 30
0.0
 10
163.3623764079107
 20
74.00839179343014
 30
0.0
 10
163.2080586891905
 20
73.92538523488157
 30
0.0
 10
162.999730690575
 20
73.88000506445863
 30
0.0
 10
162.8344628077321
 20
73.91743059699394
 30
0.0
 10
162.7609616156247
 20
73.98692968053933
 30
0.0
 10
162.72420720512
 20
74.02168282906783
 30
0.0
  0
LINE
  5
48E
330
1F
100
AcDbEntity
  8
0
  6
Continuous
 62
     7
370
    25
100
AcDbLine
 10
211.4975574803
 20
99.2937335463
 30
0.0
 11
211.4975574803
 21
103.7483831153
 31
0.0
  0
LINE
  5
48F
330
1F
100
AcDbEntity
  8
0
  6
Continuous
 62
     7
370
    25
100
AcDbLine
 10
211.4975574803
 20
99.2937335463
 30
0.0
 11
70.076201243
 21
17.652922364
 31
0.0
  0
LINE
  5
490
330
1F
100
AcDbEntity
  8
0
  6
Continuous
 62
     7
370
    25
100
AcDbLine
 10
211.4975574803
 20
106.0710222849
 30
0.0
 11
70.076201243
 21
24.4302111026
 31
0.0
  0
LINE
  5
491
330
1F
100
AcDbEntity
  8
0
  6
Continuous
 62
     7
370
    25
100
AcDbLine
 10
211.4975574803
 20
104.2095590801
 30
0.0
 11
211.4975574803
 21
106.0710222849
 31
0.0
  0
LINE
  5
492
330
1F
100
AcDbEntity
  8
0
  6
Continuous
 62
     7
370
    25
100
AcDbLine
 10
210.0833439179
 20
103.3931509683
 30
0.0
 11
211.4975574803
 21
104.2095590801
 31
0.0
  0
LINE
  5
493
330
1F
100
AcDbEntity
  8
0
  6
Continuous
 62
     7
370
    25
100
AcDbLine
 10
210.0833439179
 20
103.3931509683
 30
0.0
 11
210.0833439179
 21
102.9319750034
 31
0.0
  0
LINE
  5
494
330
1F
100
AcDbEntity
  8
0
  6
Continuous
 62
     7
370
    25
100
AcDbLine
 10
210.0833439179
 20
102.9319750034
 30
0.0
 11
211.4975574803
 21
103.7483831153
 31
0.0
  0
LINE
  5
495
330
1F
100
AcDbEntity
  8
0
  6
Continuous
 62
     7
370
    25
100
AcDbLine
 10
211.4975574803
 20
106.0710222849
 30
0.0
 11
211.4897026406
 21
106.0755567874
 31
0.0
  0
LINE
  5
496
330
1F
100
AcDbEntity
  8
0
  6
Continuous
 62
     7
370
    25
100
AcDbLine
 10
89.494767668
 20
35.1503285417
 30
0.0
 11
90.1113647811
 21
35.5063403357
 31
0.0
  0
LINE
  5
497
330
1F
100
AcDbEntity
  8
0
  6
Continuous
 62
     7
370
    25
100
AcDbLine
 10
89.494767668
 20
35.1503285417
 30
0.0
 11
73.6117351489
 21
25.9812490378
 31
0.0
  0
LINE
  5
498
330
1F
100
AcDbEntity
  8
0
  6
Continuous
 62
     7
370
    25
100
AcDbLine
 10
89.494767668
 20
30.0649123653
 30
0.0
 11
89.494767668
 21
35.1503285417
 31
0.0
  0
LINE
  5
499
330
1F
100
AcDbEntity
  8
0
  6
Continuous
 62
     7
370
    25
100
AcDbLine
 10
73.6117351489
 20
20.8958328614
 30
0.0
 11
89.494767668
 21
30.0649123653
 31
0.0
  0
LINE
  5
49A
330
1F
100
AcDbEntity
  8
0
  6
Continuous
 62
     7
370
    25
100
AcDbLine
 10
193.7491772725
 20
111.1730023735
 30
0.0
 11
201.1614829041
 21
106.8939694142
 31
0.0
  0
LINE
  5
49B
330
1F
100
AcDbEntity
  8
0
  6
Continuous
 62
     7
370
    25
100
AcDbLine
 10
64.9850324185
 20
19.2857385876
 30
0.0
 11
64.9850324185
 21
20.3618388051
 31
0.0
  0
LINE
  5
49C
330
1F
100
AcDbEntity
  8
0
  6
Continuous
 62
     7
370
    25
100
AcDbLine
 10
64.9850324185
 20
20.3618388051
 30
0.0
 11
66.1164032684
 21
21.2453303761
 31
0.0
  0
LINE
  5
49D
330
1F
100
AcDbEntity
  8
0
  6
Continuous
 62
     7
370
    25
100
AcDbLine
 10
64.9850324185
 20
19.2857385876
 30
0.0
 11
66.1164032684
 21
19.9388650771
 31
0.0
  0
LINE
  5
49E
330
1F
100
AcDbEntity
  8
0
  6
Continuous
 62
     7
370
    25
100
AcDbLine
 10
64.9850324185
 20
20.3618388051
 30
0.0
 11
53.8127452757
 21
26.8114628885
 31
0.0
  0
LINE
  5
49F
330
1F
100
AcDbEntity
  8
0
  6
Continuous
 62
     7
370
    25
100
AcDbLine
 10
53.8127452757
 20
26.8114628885
 30
0.0
 11
54.9441161256
 21
27.6949544595
 31
0.0
  0
LINE
  5
4A0
330
1F
100
AcDbEntity
  8
0
  6
Continuous
 62
     7
370
    25
100
AcDbLine
 10
53.8127452757
 20
26.8114628885
 30
0.0
 11
53.8127452757
 21
25.735362671
 31
0.0
  0
LINE
  5
4A1
330
1F
100
AcDbEntity
  8
0
  6
Continuous
 62
     7
370
    25
100
AcDbLine
 10
53.8127452757
 20
25.735362671
 30
0.0
 11
64.9850324185
 21
19.2857385876
 31
0.0
  0
LINE
  5
4A2
330
1F
100
AcDbEntity
  8
0
  6
Continuous
 62
     7
370
    25
100
AcDbLine
 10
89.494767668
 20
30.0649123653
 30
0.0
 11
90.1113647811
 21
29.7089005713
 31
0.0
  0
LINE
  5
4A3
330
1F
100
AcDbEntity
  8
0
  6
Continuous
 62
     7
370
    25
100
AcDbLine
 10
194.8805481224
 20
118.0317859533
 30
0.0
 11
194.8805481224
 21
117.8449780798
 31
0.0
  0
LINE
  5
4A4
330
1F
100
AcDbEntity
  8
0
  6
Continuous
 62
     7
370
    25
100
AcDbLine
 10
51.4303055785
 20
37.9955510272
 30
0.0
 11
51.2671608634
 21
37.9013695879
 31
0.0
  0
ARC
  5
4A5
330
1F
100
AcDbEntity
  8
0
  6
Continuous
 62
     7
370
    25
100
AcDbCircle
 10
194.6852381117
 20
117.8388602985
 30
0.0
 40
0.1954058022279538
100
AcDbArc
 50
334.4958125329
 51
1.7941142717
  0
ARC
  5
4A6
330
1F
100
AcDbEntity
  8
0
  6
Continuous
 62
     7
370
    25
100
AcDbCircle
 10
195.2210143836
 20
117.3210845445
 30
0.0
 40
0.6834952289136095
100
AcDbArc
 50
167.1601884174
 51
193.7114903611
  0
LINE
  5
4A7
330
1F
100
AcDbEntity
  8
0
  6
Continuous
 62
     7
370
    25
100
AcDbLine
 10
194.6826579198
 20
116.8351974075
 30
0.0
 11
194.7801734525
 21
116.6883599392
 31
0.0
  0
ARC
  5
4A8
330
1F
100
AcDbEntity
  8
0
  6
Continuous
 62
     7
370
    25
100
AcDbCircle
 10
194.4229444623
 20
116.401634149
 30
0.0
 40
0.4580657487776489
100
AcDbArc
 50
2.573788686
 51
38.7518743221
  0
LINE
  5
4A9
330
1F
100
AcDbEntity
  8
0
  6
Continuous
 62
     7
370
    25
100
AcDbLine
 10
194.8805481224
 20
116.4222040406
 30
0.0
 11
194.8805481224
 21
112.762166467
 31
0.0
  0
LINE
  5
4AA
330
1F
100
AcDbEntity
  8
0
  6
Continuous
 62
     7
370
    25
100
AcDbLine
 10
193.4663345601
 20
111.9457583552
 30
0.0
 11
194.8805481224
 21
112.762166467
 31
0.0
  0
LINE
  5
4AB
330
1F
100
AcDbEntity
  8
0
  6
Continuous
 62
     7
370
    25
100
AcDbLine
 10
193.4663345601
 20
111.9457583552
 30
0.0
 11
193.4663345601
 21
111.6629003206
 31
0.0
  0
LINE
  5
4AC
330
1F
100
AcDbEntity
  8
0
  6
Continuous
 62
     7
370
    25
100
AcDbLine
 10
50.9907265034
 20
35.4554200753
 30
0.0
 11
50.984318151
 21
35.4517206122
 31
0.0
  0
ARC
  5
4AD
330
1F
100
AcDbEntity
  8
0
  6
Continuous
 62
     7
370
    25
100
AcDbCircle
 10
194.0804210006
 20
111.6908446615
 30
0.0
 40
0.6147219230286891
100
AcDbArc
 50
182.6054784856
 51
237.39452166
  0
LINE
  5
4AE
330
1F
100
AcDbEntity
  8
0
  6
Continuous
 62
     7
370
    25
100
AcDbLine
 10
113.065465112
 20
48.7574025415
 30
0.0
 11
113.6820622252
 21
49.1134143354
 31
0.0
  0
LINE
  5
4AF
330
1F
100
AcDbEntity
  8
0
  6
Continuous
 62
     7
370
    25
100
AcDbLine
 10
113.065465112
 20
48.7574025415
 30
0.0
 11
97.182432593
 21
39.5883230376
 31
0.0
  0
LINE
  5
4B0
330
1F
100
AcDbEntity
  8
0
  6
Continuous
 62
     7
370
    25
100
AcDbLine
 10
113.065465112
 20
43.671986365
 30
0.0
 11
113.065465112
 21
48.7574025415
 31
0.0
  0
LINE
  5
4B1
330
1F
100
AcDbEntity
  8
0
  6
Continuous
 62
     7
370
    25
100
AcDbLine
 10
97.182432593
 20
34.5029068612
 30
0.0
 11
113.065465112
 21
43.671986365
 31
0.0
  0
LINE
  5
4B2
330
1F
100
AcDbEntity
  8
0
  6
Continuous
 62
     7
370
    25
100
AcDbLine
 10
113.065465112
 20
43.671986365
 30
0.0
 11
113.6820622252
 21
43.3159745711
 31
0.0
  0
LINE
  5
4B3
330
1F
100
AcDbEntity
  8
0
  6
Continuous
 62
     7
370
    25
100
AcDbLine
 10
118.2341619965
 20
48.888615349
 30
0.0
 11
117.4954879483
 21
48.4621878977
 31
0.0
  0
LINE
  5
4B4
330
1F
100
AcDbEntity
  8
0
  6
Continuous
 62
     7
370
    25
100
AcDbLine
 10
117.4954879483
 20
48.4621878977
 30
0.0
 11
117.388302728
 21
47.9867385681
 31
0.0
  0
LINE
  5
4B5
330
1F
100
AcDbEntity
  8
0
  6
Continuous
 62
     7
370
    25
100
AcDbLine
 10
117.388302728
 20
47.9867385681
 30
0.0
 11
117.2965028052
 21
47.9337436007
 31
0.0
  0
LINE
  5
4B6
330
1F
100
AcDbEntity
  8
0
  6
Continuous
 62
     7
370
    25
100
AcDbLine
 10
118.3983147804
 20
50.5295836836
 30
0.0
 11
119.0309485135
 21
48.9350177954
 31
0.0
  0
LINE
  5
4B7
330
1F
100
AcDbEntity
  8
0
  6
Continuous
 62
     7
370
    25
100
AcDbLine
 10
119.0309485135
 20
48.9350177954
 30
0.0
 11
118.5923652029
 21
48.6818290395
 31
0.0
  0
LINE
  5
4B8
330
1F
100
AcDbEntity
  8
0
  6
Continuous
 62
     7
370
    25
100
AcDbLine
 10
117.7938175798
 20
49.7878669418
 30
0.0
 11
117.6353883362
 21
49.0837764051
 31
0.0
  0
LINE
  5
4B9
330
1F
100
AcDbEntity
  8
0
  6
Continuous
 62
     7
370
    25
100
AcDbLine
 10
118.5180952145
 20
49.1035073723
 30
0.0
 11
118.284353951
 21
49.837471579
 31
0.0
  0
LINE
  5
4BA
330
1F
100
AcDbEntity
  8
0
  6
Continuous
 62
     7
370
    25
100
AcDbLine
 10
118.0596524049
 20
48.8388539716
 30
0.0
 11
118.5180952145
 21
49.1035073723
 31
0.0
  0
LINE
  5
4BB
330
1F
100
AcDbEntity
  8
0
  6
Continuous
 62
     7
370
    25
100
AcDbLine
 10
118.284353951
 20
49.837471579
 30
0.0
 11
118.0596524049
 21
48.8388539716
 31
0.0
  0
LINE
  5
4BC
330
1F
100
AcDbEntity
  8
0
  6
Continuous
 62
     7
370
    25
100
AcDbLine
 10
117.6353883362
 20
49.0837764051
 30
0.0
 11
118.0596524049
 21
48.8388539716
 31
0.0
  0
LINE
  5
4BD
330
1F
100
AcDbEntity
  8
0
  6
Continuous
 62
     7
370
    25
100
AcDbLine
 10
117.8711096156
 20
50.0760324559
 30
0.0
 11
118.284353951
 21
49.837471579
 31
0.0
  0
LINE
  5
4BE
330
1F
100
AcDbEntity
  8
0
  6
Continuous
 62
     7
370
    25
100
AcDbLine
 10
119.0309485135
 20
48.9350177954
 30
0.0
 11
119.4552125822
 21
48.6900953619
 31
0.0
  0
LINE
  5
4BF
330
1F
100
AcDbEntity
  8
0
  6
Continuous
 62
     7
370
    25
100
AcDbLine
 10
117.388302728
 20
47.9867385681
 30
0.0
 11
117.8125667967
 21
47.7418161346
 31
0.0
  0
LINE
  5
4C0
330
1F
100
AcDbEntity
  8
0
  6
Continuous
 62
     7
370
    25
100
AcDbLine
 10
117.4954879483
 20
48.4621878977
 30
0.0
 11
117.919752017
 21
48.2172654642
 31
0.0
  0
LINE
  5
4C1
330
1F
100
AcDbEntity
  8
0
  6
Continuous
 62
     7
370
    25
100
AcDbLine
 10
118.2341619965
 20
48.888615349
 30
0.0
 11
118.6584260652
 21
48.6436929154
 31
0.0
  0
SPLINE
  5
4C2
330
1F
100
AcDbEntity
  8
0
  6
Continuous
 62
     7
370
    25
100
AcDbSpline
210
0.0
220
0.0
230
1.0
 70
     8
 71
     3
 72
     9
 73
     5
 74
     0
 42
0.000000001
 43
0.00000001
 40
0.0
 40
0.0
 40
0.0
 40
0.0
 40
0.4115413036322713
 40
1.0
 40
1.0
 40
1.0
 40
1.0
 10
121.3591031606411
 20
50.7908822869365
 30
0.0
 10
121.350395293451
 20
50.75406796664387
 30
0.0
 10
121.329236136124
 20
50.66461322669993
 30
0.0
 10
121.2738118728568
 20
50.58162992914055
 30
0.0
 10
121.2411969831475
 20
50.53279768603848
 30
0.0
  0
SPLINE
  5
4C3
330
1F
100
AcDbEntity
  8
0
  6
Continuous
 62
     7
370
    25
100
AcDbSpline
210
0.0
220
0.0
230
1.0
 70
     8
 71
     3
 72
     9
 73
     5
 74
     0
 42
0.000000001
 43
0.00000001
 40
0.0
 40
0.0
 40
0.0
 40
0.0
 40
0.3319586134249851
 40
1.0
 40
1.0
 40
1.0
 40
1.0
 10
120.9300694843865
 20
50.09050441370187
 30
0.0
 10
120.8855078940298
 20
50.04211014102785
 30
0.0
 10
120.7512695023915
 20
49.89632608627857
 30
0.0
 10
120.6031801059534
 20
49.81083505721491
 30
0.0
 10
120.5042502602199
 20
49.75372351161951
 30
0.0
  0
SPLINE
  5
4C4
330
1F
100
AcDbEntity
  8
0
  6
Continuous
 62
     7
370
    25
100
AcDbSpline
210
0.0
220
0.0
230
1.0
 70
     8
 71
     3
 72
     9
 73
     5
 74
     0
 42
0.000000001
 43
0.00000001
 40
0.0
 40
0.0
 40
0.0
 40
0.0
 40
0.5946504274215545
 40
1.0
 40
1.0
 40
1.0
 40
1.0
 10
120.5042502602199
 20
49.75372351161951
 30
0.0
 10
120.3926355827052
 20
49.69039001602836
 30
0.0
 10
120.2049376136671
 20
49.58388459255499
 30
0.0
 10
120.0323916434574
 20
49.56703869043727
 30
0.0
 10
119.9624502081827
 20
49.56021021121416
 30
0.0
  0
LINE
  5
4C5
330
1F
100
AcDbEntity
  8
0
  6
Continuous
 62
     7
370
    25
100
AcDbLine
 10
121.3756744165
 20
52.1610588172
 30
0.0
 11
121.4387848515
 21
52.0349958393
 31
0.0
  0
LINE
  5
4C6
330
1F
100
AcDbEntity
  8
0
  6
Continuous
 62
     7
370
    25
100
AcDbLine
 10
121.4387848515
 20
52.0349958393
 30
0.0
 11
120.9332540117
 21
51.6111162552
 31
0.0
  0
SPLINE
  5
4C7
330
1F
100
AcDbEntity
  8
0
  6
Continuous
 62
     7
370
    25
100
AcDbSpline
210
0.0
220
0.0
230
1.0
 70
     8
 71
     3
 72
     9
 73
     5
 74
     0
 42
0.000000001
 43
0.00000001
 40
0.0
 40
0.0
 40
0.0
 40
0.0
 40
0.4618197863845742
 40
1.0
 40
1.0
 40
1.0
 40
1.0
 10
120.7475867909339
 20
51.69893263548587
 30
0.0
 10
120.7149043361034
 20
51.71866356580794
 30
0.0
 10
120.6441354868811
 20
51.761387872786
 30
0.0
 10
120.542559085692
 20
51.71165546098391
 30
0.0
 10
120.4878926764019
 20
51.68489046097665
 30
0.0
  0
SPLINE
  5
4C8
330
1F
100
AcDbEntity
  8
0
  6
Continuous
 62
     7
370
    25
100
AcDbSpline
210
0.0
220
0.0
230
1.0
 70
     8
 71
     3
 72
     9
 73
     5
 74
     0
 42
0.000000001
 43
0.00000001
 40
0.0
 40
0.0
 40
0.0
 40
0.0
 40
0.5582410053773802
 40
0.9999999999999999
 40
0.9999999999999999
 40
0.9999999999999999
 40
0.9999999999999999
 10
120.1499794317398
 20
51.28750472985172
 30
0.0
 10
120.1187785435835
 20
51.18512183185655
 30
0.0
 10
120.0628871134383
 20
51.00171914912829
 30
0.0
 10
120.0617891459504
 20
50.83724168588002
 30
0.0
 10
120.0613041089368
 20
50.76458228707738
 30
0.0
  0
SPLINE
  5
4C9
330
1F
100
AcDbEntity
  8
0
  6
Continuous
 62
     7
370
    25
100
AcDbSpline
210
0.0
220
0.0
230
1.0
 70
     8
 71
     3
 72
    11
 73
     7
 74
     0
 42
0.000000001
 43
0.00000001
 40
0.0
 40
0.0
 40
0.0
 40
0.0
 40
0.395060060624147
 40
0.788942714897703
 40
0.9858164062436584
 40
1.0
 40
1.0
 40
1.0
 40
1.0
 10
120.0613041089368
 20
50.76458228707739
 30
0.0
 10
120.0629078207203
 20
50.68545071784506
 30
0.0
 10
120.066110464709
 20
50.52742341696923
 30
0.0
 10
120.1058800955853
 20
50.35638804628527
 30
0.0
 10
120.1588329250495
 20
50.27468869415634
 30
0.0
 10
120.1884182860322
 20
50.26618610873528
 30
0.0
 10
120.1904064985742
 20
50.26561471307163
 30
0.0
  0
LINE
  5
4CA
330
1F
100
AcDbEntity
  8
0
  6
Continuous
 62
     7
370
    25
100
AcDbLine
 10
121.4387848515
 20
52.0349958393
 30
0.0
 11
121.8630489202
 21
51.7900734057
 31
0.0
  0
LINE
  5
4CB
330
1F
100
AcDbEntity
  8
0
  6
Continuous
 62
     7
370
    25
100
AcDbLine
 10
120.5042502602
 20
49.7537235116
 30
0.0
 11
120.9285143289
 21
49.5088010781
 31
0.0
  0
LINE
  5
4CC
330
1F
100
AcDbEntity
  8
0
  6
Continuous
 62
     7
370
    25
100
AcDbLine
 10
120.1499794317
 20
51.2875047299
 30
0.0
 11
120.5742435005
 21
51.0425822963
 31
0.0
  0
LINE
  5
4CD
330
1F
100
AcDbEntity
  8
0
  6
Continuous
 62
     7
370
    25
100
AcDbLine
 10
120.4878926764
 20
51.684890461
 30
0.0
 11
120.9121567451
 21
51.4399680274
 31
0.0
  0
LINE
  5
4CE
330
1F
100
AcDbEntity
  8
0
  6
Continuous
 62
     7
370
    25
100
AcDbLine
 10
120.0613041089
 20
50.7645822871
 30
0.0
 11
120.4855681776
 21
50.5196598535
 31
0.0
  0
SPLINE
  5
4CF
330
1F
100
AcDbEntity
  8
0
  6
Continuous
 62
     7
370
    25
100
AcDbSpline
210
0.0
220
0.0
230
1.0
 70
     8
 71
     3
 72
     9
 73
     5
 74
     0
 42
0.000000001
 43
0.00000001
 40
0.0
 40
0.0
 40
0.0
 40
0.0
 40
0.3091714853709509
 40
1.0
 40
1.0
 40
1.0
 40
1.0
 10
124.021810871268
 20
53.67595272988356
 30
0.0
 10
124.0510027162007
 20
53.63502453303987
 30
0.0
 10
124.1454223063443
 20
53.50264428848215
 30
0.0
 10
124.147932700809
 20
53.28414196031757
 30
0.0
 10
124.1496669528882
 20
53.13319432150863
 30
0.0
  0
SPLINE
  5
4D0
330
1F
100
AcDbEntity
  8
0
  6
Continuous
 62
     7
370
    25
100
AcDbSpline
210
0.0
220
0.0
230
1.0
 70
     8
 71
     3
 72
    10
 73
     6
 74
     0
 42
0.000000001
 43
0.00000001
 40
0.0
 40
0.0
 40
0.0
 40
0.0
 40
0.3583534763997629
 40
0.7156873533517701
 40
0.9999999999999999
 40
0.9999999999999999
 40
0.9999999999999999
 40
0.9999999999999999
 10
124.1496669528882
 20
53.13319432150863
 30
0.0
 10
124.1447271439477
 20
53.00435641727874
 30
0.0
 10
124.1348615809784
 20
52.74704718278752
 30
0.0
 10
124.0388107043384
 20
52.3438825701387
 30
0.0
 10
123.9004858829544
 20
52.10079515352798
 30
0.0
 10
123.8391943546466
 20
51.99308347078449
 30
0.0
  0
SPLINE
  5
4D1
330
1F
100
AcDbEntity
  8
0
  6
Continuous
 62
     7
370
    25
100
AcDbSpline
210
0.0
220
0.0
230
1.0
 70
     8
 71
     3
 72
     9
 73
     5
 74
     0
 42
0.000000001
 43
0.00000001
 40
0.0
 40
0.0
 40
0.0
 40
0.0
 40
0.1669564623892345
 40
0.9999999999999999
 40
0.9999999999999999
 40
0.9999999999999999
 40
0.9999999999999999
 10
123.522241644714
 20
51.59094896831806
 30
0.0
 10
123.4994666897708
 20
51.56348065844428
 30
0.0
 10
123.3630541507332
 20
51.39895686894451
 30
0.0
 10
123.2032173962734
 20
51.30947769786667
 30
0.0
 10
123.070066420898
 20
51.23493765264947
 30
0.0
  0
SPLINE
  5
4D2
330
1F
100
AcDbEntity
  8
0
  6
Continuous
 62
     7
370
    25
100
AcDbSpline
210
0.0
220
0.0
230
1.0
 70
     8
 71
     3
 72
     9
 73
     5
 74
     0
 42
0.000000001
 43
0.00000001
 40
0.0
 40
0.0
 40
0.0
 40
0.0
 40
0.5722604035198247
 40
1.0
 40
1.0
 40
1.0
 40
1.0
 10
123.070066420898
 20
51.23493765264947
 30
0.0
 10
122.9580518696401
 20
51.17245450124458
 30
0.0
 10
122.7623113456252
 20
51.0632679298506
 30
0.0
 10
122.5817780949894
 20
51.04453856156179
 30
0.0
 10
122.5045568752112
 20
51.03652726912762
 30
0.0
  0
SPLINE
  5
4D3
330
1F
100
AcDbEntity
  8
0
  6
Continuous
 62
     7
370
    25
100
AcDbSpline
210
0.0
220
0.0
230
1.0
 70
     8
 71
     3
 72
    10
 73
     6
 74
     0
 42
0.000000001
 43
0.00000001
 40
0.0
 40
0.0
 40
0.0
 40
0.0
 40
0.0769988969559591
 40
0.5380231462658746
 40
1.0
 40
1.0
 40
1.0
 40
1.0
 10
122.68470052992
 20
52.71318497980405
 30
0.0
 10
122.6785860485281
 20
52.70014485036815
 30
0.0
 10
122.6358616375782
 20
52.60902807150277
 30
0.0
 10
122.6156659822538
 20
52.43780896746632
 30
0.0
 10
122.6098163539712
 20
52.29444163862608
 30
0.0
 10
122.6068885212084
 20
52.22268399143859
 30
0.0
  0
SPLINE
  5
4D4
330
1F
100
AcDbEntity
  8
0
  6
Continuous
 62
     7
370
    25
100
AcDbSpline
210
0.0
220
0.0
230
1.0
 70
     8
 71
     3
 72
    10
 73
     6
 74
     0
 42
0.000000001
 43
0.00000001
 40
0.0
 40
0.0
 40
0.0
 40
0.0
 40
0.465843724008545
 40
0.9281316718266484
 40
0.9999999999999999
 40
0.9999999999999999
 40
0.9999999999999999
 40
0.9999999999999999
 10
122.6068885212084
 20
52.22268399143859
 30
0.0
 10
122.610981243283
 20
52.13646508519152
 30
0.0
 10
122.6191354477632
 20
51.96468537995138
 30
0.0
 10
122.6657187978616
 20
51.78193301133624
 30
0.0
 10
122.7399596058142
 20
51.76515063596784
 30
0.0
 10
122.7499483731274
 20
51.7628926427274
 30
0.0
  0
SPLINE
  5
4D5
330
1F
100
AcDbEntity
  8
0
  6
Continuous
 62
     7
370
    25
100
AcDbSpline
210
0.0
220
0.0
230
1.0
 70
     8
 71
     3
 72
     9
 73
     5
 74
     0
 42
0.000000001
 43
0.00000001
 40
0.0
 40
0.0
 40
0.0
 40
0.0
 40
0.4682526198042005
 40
1.0
 40
1.0
 40
1.0
 40
1.0
 10
123.3488838614003
 20
53.19675375404502
 30
0.0
 10
123.3076697238343
 20
53.2133183795567
 30
0.0
 10
123.2196528376004
 20
53.24869378336885
 30
0.0
 10
123.1040097270953
 20
53.19055743236055
 30
0.0
 10
123.0425168060466
 20
53.15964358001778
 30
0.0
  0
LINE
  5
4D6
330
1F
100
AcDbEntity
  8
0
  6
Continuous
 62
     7
370
    25
100
AcDbLine
 10
123.0700664209
 20
51.2349376526
 30
0.0
 11
123.4943304896
 21
50.9900152191
 31
0.0
  0
LINE
  5
4D7
330
1F
100
AcDbEntity
  8
0
  6
Continuous
 62
     7
370
    25
100
AcDbLine
 10
124.1496669529
 20
53.1331943215
 30
0.0
 11
124.5739310216
 21
52.888271888
 31
0.0
  0
LINE
  5
4D8
330
1F
100
AcDbEntity
  8
0
  6
Continuous
 62
     7
370
    25
100
AcDbLine
 10
122.6068885212
 20
52.2226839914
 30
0.0
 11
123.0311525899
 21
51.9777615579
 31
0.0
  0
LINE
  5
4D9
330
1F
100
AcDbEntity
  8
0
  6
Continuous
 62
     7
370
    25
100
AcDbLine
 10
123.042516806
 20
53.15964358
 30
0.0
 11
123.4667808748
 21
52.9147211465
 31
0.0
  0
SPLINE
  5
4DA
330
1F
100
AcDbEntity
  8
0
  6
Continuous
 62
     7
370
    25
100
AcDbSpline
210
0.0
220
0.0
230
1.0
 70
     8
 71
     3
 72
    12
 73
     8
 74
     0
 42
0.000000001
 43
0.00000001
 40
0.0
 40
0.0
 40
0.0
 40
0.0
 40
0.1865776882289761
 40
0.3728057319333058
 40
0.5590293167300687
 40
0.7792871014193035
 40
1.0
 40
1.0
 40
1.0
 40
1.0
 10
123.4667808747585
 20
52.91472114647097
 30
0.0
 10
123.4145192046737
 20
52.87964679871117
 30
0.0
 10
123.3100938022959
 20
52.80956383213141
 30
0.0
 10
123.1729747147448
 20
52.63142882867826
 30
0.0
 10
123.0775990033122
 20
52.41604986936154
 30
0.0
 10
123.0369418940111
 20
52.19331804159746
 30
0.0
 10
123.0330836852681
 20
52.04966313990396
 30
0.0
 10
123.0311525899203
 20
51.97776155789177
 30
0.0
  0
SPLINE
  5
4DB
330
1F
100
AcDbEntity
  8
0
  6
Continuous
 62
     7
370
    25
100
AcDbSpline
210
0.0
220
0.0
230
1.0
 70
     8
 71
     3
 72
    12
 73
     8
 74
     0
 42
0.000000001
 43
0.00000001
 40
0.0
 40
0.0
 40
0.0
 40
0.0
 40
0.2489364512809168
 40
0.374061010486601
 40
0.4991087764774159
 40
0.7491228497802703
 40
1.0
 40
1.0
 40
1.0
 40
1.0
 10
123.4728073530072
 20
51.55022918774928
 30
0.0
 10
123.5461760370811
 20
51.60061861527968
 30
0.0
 10
123.6564225034443
 20
51.67633561085379
 30
0.0
 10
123.7762124728086
 20
51.84566063693075
 30
0.0
 10
123.8638848521898
 20
52.031817036776
 30
0.0
 10
123.9059956100481
 20
52.26552199720976
 30
0.0
 10
123.9104894656986
 20
52.43474262754717
 30
0.0
 10
123.9127402651659
 20
52.51949873327183
 30
0.0
  0
SPLINE
  5
4DC
330
1F
100
AcDbEntity
  8
0
  6
Continuous
 62
     7
370
    25
100
AcDbSpline
210
0.0
220
0.0
230
1.0
 70
     8
 71
     3
 72
    11
 73
     7
 74
     0
 42
0.000000001
 43
0.00000001
 40
0.0
 40
0.0
 40
0.0
 40
0.0
 40
0.2813604798120298
 40
0.5605733404902479
 40
0.7799323093793755
 40
1.0
 40
1.0
 40
1.0
 40
1.0
 10
123.0311525899203
 20
51.97776155789177
 30
0.0
 10
123.0338995712931
 20
51.8888878975002
 30
0.0
 10
123.0393725663825
 20
51.71181894765841
 30
0.0
 10
123.1180931732593
 20
51.51245348661298
 30
0.0
 10
123.2871648415146
 20
51.462283292937
 30
0.0
 10
123.4108600159647
 20
51.52088238596534
 30
0.0
 10
123.4728073530072
 20
51.55022918774928
 30
0.0
  0
SPLINE
  5
4DD
330
1F
100
AcDbEntity
  8
0
  6
Continuous
 62
     7
370
    25
100
AcDbSpline
210
0.0
220
0.0
230
1.0
 70
     8
 71
     3
 72
    11
 73
     7
 74
     0
 42
0.000000001
 43
0.00000001
 40
0.0
 40
0.0
 40
0.0
 40
0.0
 40
0.2812442903644738
 40
0.560256617118274
 40
0.7797812630998371
 40
1.0
 40
1.0
 40
1.0
 40
1.0
 10
123.9127402651659
 20
52.51949873327183
 30
0.0
 10
123.9098400685135
 20
52.60619005527136
 30
0.0
 10
123.9040626912612
 20
52.77888471418885
 30
0.0
 10
123.8158830060386
 20
52.96216106488631
 30
0.0
 10
123.6476780752484
 20
53.00145256315169
 30
0.0
 10
123.5271433589172
 20
52.94366202422515
 30
0.0
 10
123.4667808747585
 20
52.91472114647097
 30
0.0
  0
SPLINE
  5
4DE
330
1F
100
AcDbEntity
  8
0
  6
Continuous
 62
     7
370
    25
100
AcDbSpline
210
0.0
220
0.0
230
1.0
 70
     8
 71
     3
 72
     9
 73
     5
 74
     0
 42
0.000000001
 43
0.00000001
 40
0.0
 40
0.0
 40
0.0
 40
0.0
 40
0.3591893441511694
 40
1.0
 40
1.0
 40
1.0
 40
1.0
 10
127.8012172328895
 20
55.86211419426503
 30
0.0
 10
127.8303864093485
 20
55.8079092754419
 30
0.0
 10
127.911594766261
 20
55.65700023622409
 30
0.0
 10
127.9157753207189
 20
55.4387709369197
 30
0.0
 10
127.918454264563
 20
55.29892727650704
 30
0.0
  0
SPLINE
  5
4DF
330
1F
100
AcDbEntity
  8
0
  6
Continuous
 62
     7
370
    25
100
AcDbSpline
210
0.0
220
0.0
230
1.0
 70
     8
 71
     3
 72
    11
 73
     7
 74
     0
 42
0.000000001
 43
0.00000001
 40
0.0
 40
0.0
 40
0.0
 40
0.0
 40
0.3532613585410661
 40
0.704737036984499
 40
0.9815549667897786
 40
1.0
 40
1.0
 40
1.0
 40
1.0
 10
127.918454264563
 20
55.29892727650704
 30
0.0
 10
127.916418138878
 20
55.16032291170178
 30
0.0
 10
127.9123561798002
 20
54.88381480515607
 30
0.0
 10
127.7872456428506
 20
54.45959636976107
 30
0.0
 10
127.6528838595813
 20
54.16856586893184
 30
0.0
 10
127.5646555989739
 20
54.06681549296984
 30
0.0
 10
127.5591439927082
 20
54.06045916217709
 30
0.0
  0
LINE
  5
4E0
330
1F
100
AcDbEntity
  8
0
  6
Continuous
 62
     7
370
    25
100
AcDbLine
 10
127.3853526251
 20
53.8574675713
 30
0.0
 11
127.3295812471
 21
53.7923255513
 31
0.0
  0
SPLINE
  5
4E1
330
1F
100
AcDbEntity
  8
0
  6
Continuous
 62
     7
370
    25
100
AcDbSpline
210
0.0
220
0.0
230
1.0
 70
     8
 71
     3
 72
     9
 73
     5
 74
     0
 42
0.000000001
 43
0.00000001
 40
0.0
 40
0.0
 40
0.0
 40
0.0
 40
0.5600530855990077
 40
1.0
 40
1.0
 40
1.0
 40
1.0
 10
127.3295812471138
 20
53.79232555127412
 30
0.0
 10
127.257480704981
 20
53.7304269003671
 30
0.0
 10
127.1287419407698
 20
53.61990407226623
 30
0.0
 10
126.996479205812
 20
53.53651569164299
 30
0.0
 10
126.9382906236771
 20
53.49982923089094
 30
0.0
  0
LINE
  5
4E2
330
1F
100
AcDbEntity
  8
0
  6
Continuous
 62
     7
370
    25
100
AcDbLine
 10
126.9382906237
 20
53.4998292309
 30
0.0
 11
126.3866956788
 21
53.1814002472
 31
0.0
  0
LINE
  5
4E3
330
1F
100
AcDbEntity
  8
0
  6
Continuous
 62
     7
370
    25
100
AcDbLine
 10
126.7859068165
 20
55.2888433562
 30
0.0
 11
126.6236223665
 21
55.1951585374
 31
0.0
  0
LINE
  5
4E4
330
1F
100
AcDbEntity
  8
0
  6
Continuous
 62
     7
370
    25
100
AcDbLine
 10
126.6236223665
 20
55.1951585374
 30
0.0
 11
126.6236223665
 21
53.8908141236
 31
0.0
  0
SPLINE
  5
4E5
330
1F
100
AcDbEntity
  8
0
  6
Continuous
 62
     7
370
    25
100
AcDbSpline
210
0.0
220
0.0
230
1.0
 70
     8
 71
     3
 72
     9
 73
     5
 74
     0
 42
0.000000001
 43
0.00000001
 40
0.0
 40
0.0
 40
0.0
 40
0.0
 40
0.4926591194411931
 40
1.0
 40
1.0
 40
1.0
 40
1.0
 10
127.1361297610102
 20
55.36344378415396
 30
0.0
 10
127.0840225688588
 20
55.37390764030089
 30
0.0
 10
126.9782553352988
 20
55.39514718653885
 30
0.0
 10
126.8506474920767
 20
55.32462310556864
 30
0.0
 10
126.7859068165302
 20
55.2888433562286
 30
0.0
  0
LINE
  5
4E6
330
1F
100
AcDbEntity
  8
0
  6
Continuous
 62
     7
370
    25
100
AcDbLine
 10
127.9184542646
 20
55.2989272765
 30
0.0
 11
128.3427183333
 21
55.054004843
 31
0.0
  0
LINE
  5
4E7
330
1F
100
AcDbEntity
  8
0
  6
Continuous
 62
     7
370
    25
100
AcDbLine
 10
126.6236223665
 20
55.1951585374
 30
0.0
 11
127.0478864353
 21
54.9502361038
 31
0.0
  0
LINE
  5
4E8
330
1F
100
AcDbEntity
  8
0
  6
Continuous
 62
     7
370
    25
100
AcDbLine
 10
127.2101708852
 20
55.0439209227
 30
0.0
 11
127.0478864353
 21
54.9502361038
 31
0.0
  0
SPLINE
  5
4E9
330
1F
100
AcDbEntity
  8
0
  6
Continuous
 62
     7
370
    25
100
AcDbSpline
210
0.0
220
0.0
230
1.0
 70
     8
 71
     3
 72
    12
 73
     8
 74
     0
 42
0.000000001
 43
0.00000001
 40
0.0
 40
0.0
 40
0.0
 40
0.0
 40
0.1874133212960402
 40
0.3733808410114837
 40
0.5590240519305327
 40
0.7790393159065296
 40
0.9999999999999999
 40
0.9999999999999999
 40
0.9999999999999999
 40
0.9999999999999999
 10
127.2075881088498
 20
53.7380855038159
 30
0.0
 10
127.2613525546502
 20
53.7703533399221
 30
0.0
 10
127.3684666799998
 20
53.8346400816523
 30
0.0
 10
127.5324678102123
 20
53.97524401093025
 30
0.0
 10
127.6421856997667
 20
54.20581567253546
 30
0.0
 10
127.6779914901118
 20
54.43391935429757
 30
0.0
 10
127.6803471977762
 20
54.58213446714144
 30
0.0
 10
127.6815275768407
 20
54.65640090473366
 30
0.0
  0
LINE
  5
4EA
330
1F
100
AcDbEntity
  8
0
  6
Continuous
 62
     7
370
    25
100
AcDbLine
 10
127.0478864353
 20
53.6458916901
 30
0.0
 11
127.2075881088
 21
53.7380855038
 31
0.0
  0
LINE
  5
4EB
330
1F
100
AcDbEntity
  8
0
  6
Continuous
 62
     7
370
    25
100
AcDbLine
 10
127.0478864353
 20
54.9502361038
 30
0.0
 11
127.0478864353
 21
53.6458916901
 31
0.0
  0
SPLINE
  5
4EC
330
1F
100
AcDbEntity
  8
0
  6
Continuous
 62
     7
370
    25
100
AcDbSpline
210
0.0
220
0.0
230
1.0
 70
     8
 71
     3
 72
    12
 73
     8
 74
     0
 42
0.000000001
 43
0.00000001
 40
0.0
 40
0.0
 40
0.0
 40
0.0
 40
0.187531968262773
 40
0.3748620447848987
 40
0.5608920416161105
 40
0.7794509762683174
 40
1.0
 40
1.0
 40
1.0
 40
1.0
 10
127.6815275768407
 20
54.65640090473364
 30
0.0
 10
127.6801658394551
 20
54.71781170492683
 30
0.0
 10
127.6774438306928
 20
54.84056719214082
 30
0.0
 10
127.6504711597726
 20
55.00863805153455
 30
0.0
 10
127.5714809514595
 20
55.14607994394305
 30
0.0
 10
127.3995282478032
 20
55.14365981165757
 30
0.0
 10
127.2734804272943
 20
55.07726751824293
 30
0.0
 10
127.2101708852421
 20
55.04392092268179
 30
0.0
  0
LINE
  5
4ED
330
1F
100
AcDbEntity
  8
0
  6
Continuous
 62
     7
370
    25
100
AcDbLine
 10
126.6236223665
 20
53.8908141236
 30
0.0
 11
127.0478864353
 21
53.6458916901
 31
0.0
  0
LINE
  5
4EE
330
1F
100
AcDbEntity
  8
0
  6
Continuous
 62
     7
370
    25
100
AcDbLine
 10
126.9382906237
 20
53.4998292309
 30
0.0
 11
127.3625546924
 21
53.2549067973
 31
0.0
  0
LINE
  5
4EF
330
1F
100
AcDbEntity
  8
0
  6
Continuous
 62
     7
370
    25
100
AcDbLine
 10
127.3295812471
 20
53.7923255513
 30
0.0
 11
127.7538453158
 21
53.5474031177
 31
0.0
  0
LINE
  5
4F0
330
1F
100
AcDbEntity
  8
0
  6
Continuous
 62
     7
370
    25
100
AcDbLine
 10
130.4114385413
 20
57.4259218918
 30
0.0
 11
130.436489062
 21
57.2859273191
 31
0.0
  0
SPLINE
  5
4F1
330
1F
100
AcDbEntity
  8
0
  6
Continuous
 62
     7
370
    25
100
AcDbSpline
210
0.0
220
0.0
230
1.0
 70
     8
 71
     3
 72
    10
 73
     6
 74
     0
 42
0.000000001
 43
0.00000001
 40
0.0
 40
0.0
 40
0.0
 40
0.0
 40
0.3163540135997864
 40
0.6322178325471575
 40
1.0
 40
1.0
 40
1.0
 40
1.0
 10
130.4364890619831
 20
57.28592731908768
 30
0.0
 10
130.4327353884927
 20
57.21711557182091
 30
0.0
 10
130.4252338578777
 20
57.07959870198344
 30
0.0
 10
130.3506142876044
 20
56.83543512205392
 30
0.0
 10
130.2507073841242
 20
56.68801889930578
 30
0.0
 10
130.1969603012241
 20
56.60871314896343
 30
0.0
  0
LINE
  5
4F2
330
1F
100
AcDbEntity
  8
0
  6
Continuous
 62
     7
370
    25
100
AcDbLine
 10
130.3183803018
 20
56.0553323465
 30
0.0
 11
130.6017867511
 21
55.6147205285
 31
0.0
  0
LINE
  5
4F3
330
1F
100
AcDbEntity
  8
0
  6
Continuous
 62
     7
370
    25
100
AcDbLine
 10
130.6017867511
 20
55.6147205285
 30
0.0
 11
130.0500735994
 21
55.2962233055
 31
0.0
  0
SPLINE
  5
4F4
330
1F
100
AcDbEntity
  8
0
  6
Continuous
 62
     7
370
    25
100
AcDbSpline
210
0.0
220
0.0
230
1.0
 70
     8
 71
     3
 72
     9
 73
     5
 74
     0
 42
0.000000001
 43
0.00000001
 40
0.0
 40
0.0
 40
0.0
 40
0.0
 40
0.5595454497440249
 40
1.0
 40
1.0
 40
1.0
 40
1.0
 10
129.3883123094328
 20
55.84423795471194
 30
0.0
 10
129.3601949253139
 20
55.84630494229621
 30
0.0
 10
129.3099445227204
 20
55.84999899000085
 30
0.0
 10
129.2525839659011
 20
55.82047356558963
 30
0.0
 10
129.2273192476448
 20
55.80746895805949
 30
0.0
  0
LINE
  5
4F5
330
1F
100
AcDbEntity
  8
0
  6
Continuous
 62
     7
370
    25
100
AcDbLine
 10
129.2273192476
 20
55.8074689581
 30
0.0
 11
129.1692067788
 21
55.7739213439
 31
0.0
  0
LINE
  5
4F6
330
1F
100
AcDbEntity
  8
0
  6
Continuous
 62
     7
370
    25
100
AcDbLine
 10
129.1692067788
 20
55.7739213439
 30
0.0
 11
129.1692067788
 21
54.7877097139
 31
0.0
  0
LINE
  5
4F7
330
1F
100
AcDbEntity
  8
0
  6
Continuous
 62
     7
370
    25
100
AcDbLine
 10
129.1692067788
 20
54.7877097139
 30
0.0
 11
128.9322800911
 21
54.6509348485
 31
0.0
  0
LINE
  5
4F8
330
1F
100
AcDbEntity
  8
0
  6
Continuous
 62
     7
370
    25
100
AcDbLine
 10
129.1692067788
 20
56.7283196954
 30
0.0
 11
129.1692067788
 21
56.2511205197
 31
0.0
  0
SPLINE
  5
4F9
330
1F
100
AcDbEntity
  8
0
  6
Continuous
 62
     7
370
    25
100
AcDbSpline
210
0.0
220
0.0
230
1.0
 70
     8
 71
     3
 72
    10
 73
     6
 74
     0
 42
0.000000001
 43
0.00000001
 40
0.0
 40
0.0
 40
0.0
 40
0.0
 40
0.0324075531792453
 40
0.2262472818907746
 40
1.0
 40
1.0
 40
1.0
 40
1.0
 10
129.722372811386
 20
56.9709783073812
 30
0.0
 10
129.7205341740785
 20
56.97262450338587
 30
0.0
 10
129.7076980709979
 20
56.9841171134406
 30
0.0
 10
129.622811512801
 20
56.98582606207936
 30
0.0
 10
129.5329332677435
 20
56.93635983099256
 30
0.0
 10
129.4610605111499
 20
56.89680326884307
 30
0.0
  0
LINE
  5
4FA
330
1F
100
AcDbEntity
  8
0
  6
Continuous
 62
     7
370
    25
100
AcDbLine
 10
129.4610605111
 20
56.8968032688
 30
0.0
 11
129.1692067788
 21
56.7283196954
 31
0.0
  0
LINE
  5
4FB
330
1F
100
AcDbEntity
  8
0
  6
Continuous
 62
     7
370
    25
100
AcDbLine
 10
130.436489062
 20
57.2859273191
 30
0.0
 11
130.8607531307
 21
57.0410048855
 31
0.0
  0
LINE
  5
4FC
330
1F
100
AcDbEntity
  8
0
  6
Continuous
 62
     7
370
    25
100
AcDbLine
 10
129.1692067788
 20
56.7283196954
 30
0.0
 11
129.5934708475
 21
56.4833972619
 31
0.0
  0
LINE
  5
4FD
330
1F
100
AcDbEntity
  8
0
  6
Continuous
 62
     7
370
    25
100
AcDbLine
 10
129.8853245799
 20
56.6518808353
 30
0.0
 11
129.5934708475
 21
56.4833972619
 31
0.0
  0
LINE
  5
4FE
330
1F
100
AcDbEntity
  8
0
  6
Continuous
 62
     7
370
    25
100
AcDbLine
 10
129.1692067788
 20
56.2511205197
 30
0.0
 11
129.5934708475
 21
56.0061980861
 31
0.0
  0
LINE
  5
4FF
330
1F
100
AcDbEntity
  8
0
  6
Continuous
 62
     7
370
    25
100
AcDbLine
 10
129.5934708475
 20
56.4833972619
 30
0.0
 11
129.5934708475
 21
56.0061980861
 31
0.0
  0
SPLINE
  5
500
330
1F
100
AcDbEntity
  8
0
  6
Continuous
 62
     7
370
    25
100
AcDbSpline
210
0.0
220
0.0
230
1.0
 70
     8
 71
     3
 72
    11
 73
     7
 74
     0
 42
0.000000001
 43
0.00000001
 40
0.0
 40
0.0
 40
0.0
 40
0.0
 40
0.2490731672139821
 40
0.37469757349851
 40
0.499965658335228
 40
1.0
 40
1.0
 40
1.0
 40
1.0
 10
130.1995623742609
 20
56.59766935963562
 30
0.0
 10
130.1956256803934
 20
56.63719138561218
 30
0.0
 10
130.189703446151
 20
56.69664703633054
 30
0.0
 10
130.142871353535
 20
56.73453320425439
 30
0.0
 10
130.0504735614666
 20
56.74614787488852
 30
0.0
 10
129.9587072015173
 20
56.69376763613369
 30
0.0
 10
129.8853245798618
 20
56.65188083529627
 30
0.0
  0
SPLINE
  5
501
330
1F
100
AcDbEntity
  8
0
  6
Continuous
 62
     7
370
    25
100
AcDbSpline
210
0.0
220
0.0
230
1.0
 70
     8
 71
     3
 72
    11
 73
     7
 74
     0
 42
0.000000001
 43
0.00000001
 40
0.0
 40
0.0
 40
0.0
 40
0.0
 40
0.2797326981239881
 40
0.5592718802498562
 40
0.7796589455822928
 40
1.0
 40
1.0
 40
1.0
 40
1.0
 10
130.0497613435062
 20
56.3014222609711
 30
0.0
 10
130.0728486791483
 20
56.32269791433055
 30
0.0
 10
130.119007378868
 20
56.36523450278689
 30
0.0
 10
130.1664889224506
 20
56.4496681222566
 30
0.0
 10
130.1952390118144
 20
56.52996230932953
 30
0.0
 10
130.1981213537485
 20
56.57510191368757
 30
0.0
 10
130.1995623742609
 20
56.59766935963562
 30
0.0
  0
SPLINE
  5
502
330
1F
100
AcDbEntity
  8
0
  6
Continuous
 62
     7
370
    25
100
AcDbSpline
210
0.0
220
0.0
230
1.0
 70
     8
 71
     3
 72
     9
 73
     5
 74
     0
 42
0.000000001
 43
0.00000001
 40
0.0
 40
0.0
 40
0.0
 40
0.0
 40
0.5598127168889799
 40
1.0
 40
1.0
 40
1.0
 40
1.0
 10
129.8737020860964
 20
56.1679721366843
 30
0.0
 10
129.9068250702109
 20
56.19109448881813
 30
0.0
 10
129.9659930439193
 20
56.23239821671896
 30
0.0
 10
130.0241579093984
 20
56.28032534748981
 30
0.0
 10
130.0497613435062
 20
56.3014222609711
 30
0.0
  0
LINE
  5
503
330
1F
100
AcDbEntity
  8
0
  6
Continuous
 62
     7
370
    25
100
AcDbLine
 10
129.5934708475
 20
56.0061980861
 30
0.0
 11
129.8737020861
 21
56.1679721367
 31
0.0
  0
LINE
  5
504
330
1F
100
AcDbEntity
  8
0
  6
Continuous
 62
     7
370
    25
100
AcDbLine
 10
129.1692067788
 20
54.7877097139
 30
0.0
 11
129.5934708475
 21
54.5427872804
 31
0.0
  0
LINE
  5
505
330
1F
100
AcDbEntity
  8
0
  6
Continuous
 62
     7
370
    25
100
AcDbLine
 10
129.1692067788
 20
55.7739213439
 30
0.0
 11
129.5934708475
 21
55.5289989103
 31
0.0
  0
LINE
  5
506
330
1F
100
AcDbEntity
  8
0
  6
Continuous
 62
     7
370
    25
100
AcDbLine
 10
129.2273192476
 20
55.8074689581
 30
0.0
 11
129.6515833164
 21
55.5625465245
 31
0.0
  0
LINE
  5
507
330
1F
100
AcDbEntity
  8
0
  6
Continuous
 62
     7
370
    25
100
AcDbLine
 10
129.3883123094
 20
55.8442379547
 30
0.0
 11
129.8125763781
 21
55.5993155212
 31
0.0
  0
LINE
  5
508
330
1F
100
AcDbEntity
  8
0
  6
Continuous
 62
     7
370
    25
100
AcDbLine
 10
130.1829555535
 20
56.5037934832
 30
0.0
 11
130.5706212493
 21
56.2799988406
 31
0.0
  0
LINE
  5
509
330
1F
100
AcDbEntity
  8
0
  6
Continuous
 62
     7
370
    25
100
AcDbLine
 10
129.9839258531
 20
56.24840879
 30
0.0
 11
130.3342972094
 21
56.0461437113
 31
0.0
  0
LINE
  5
50A
330
1F
100
AcDbEntity
  8
0
  6
Continuous
 62
     7
370
    25
100
AcDbLine
 10
132.3505846463
 20
57.0378526834
 30
0.0
 11
131.6119105981
 21
56.6114252321
 31
0.0
  0
LINE
  5
50B
330
1F
100
AcDbEntity
  8
0
  6
Continuous
 62
     7
370
    25
100
AcDbLine
 10
131.6119105981
 20
56.6114252321
 30
0.0
 11
131.5047253778
 21
56.1359759025
 31
0.0
  0
LINE
  5
50C
330
1F
100
AcDbEntity
  8
0
  6
Continuous
 62
     7
370
    25
100
AcDbLine
 10
131.5047253778
 20
56.1359759025
 30
0.0
 11
131.412925455
 21
56.0829809351
 31
0.0
  0
LINE
  5
50D
330
1F
100
AcDbEntity
  8
0
  6
Continuous
 62
     7
370
    25
100
AcDbLine
 10
132.5147374303
 20
58.678821018
 30
0.0
 11
133.1473711634
 21
57.0842551298
 31
0.0
  0
LINE
  5
50E
330
1F
100
AcDbEntity
  8
0
  6
Continuous
 62
     7
370
    25
100
AcDbLine
 10
133.1473711634
 20
57.0842551298
 30
0.0
 11
132.7087878528
 21
56.8310663739
 31
0.0
  0
LINE
  5
50F
330
1F
100
AcDbEntity
  8
0
  6
Continuous
 62
     7
370
    25
100
AcDbLine
 10
131.9102402297
 20
57.9371042761
 30
0.0
 11
131.751810986
 21
57.2330137395
 31
0.0
  0
LINE
  5
510
330
1F
100
AcDbEntity
  8
0
  6
Continuous
 62
     7
370
    25
100
AcDbLine
 10
130.6017867511
 20
55.6147205285
 30
0.0
 11
131.0260508198
 21
55.369798095
 31
0.0
  0
LINE
  5
511
330
1F
100
AcDbEntity
  8
0
  6
Continuous
 62
     7
370
    25
100
AcDbLine
 10
132.6345178644
 20
57.2527447067
 30
0.0
 11
132.4007766009
 21
57.9867089133
 31
0.0
  0
LINE
  5
512
330
1F
100
AcDbEntity
  8
0
  6
Continuous
 62
     7
370
    25
100
AcDbLine
 10
132.1760750548
 20
56.988091306
 30
0.0
 11
132.6345178644
 21
57.2527447067
 31
0.0
  0
LINE
  5
513
330
1F
100
AcDbEntity
  8
0
  6
Continuous
 62
     7
370
    25
100
AcDbLine
 10
132.4007766009
 20
57.9867089133
 30
0.0
 11
132.1760750548
 21
56.988091306
 31
0.0
  0
LINE
  5
514
330
1F
100
AcDbEntity
  8
0
  6
Continuous
 62
     7
370
    25
100
AcDbLine
 10
131.751810986
 20
57.2330137395
 30
0.0
 11
132.1760750548
 21
56.988091306
 31
0.0
  0
LINE
  5
515
330
1F
100
AcDbEntity
  8
0
  6
Continuous
 62
     7
370
    25
100
AcDbLine
 10
131.9875322655
 20
58.2252697902
 30
0.0
 11
132.4007766009
 21
57.9867089133
 31
0.0
  0
LINE
  5
516
330
1F
100
AcDbEntity
  8
0
  6
Continuous
 62
     7
370
    25
100
AcDbLine
 10
133.1473711634
 20
57.0842551298
 30
0.0
 11
133.5716352321
 21
56.8393326963
 31
0.0
  0
LINE
  5
517
330
1F
100
AcDbEntity
  8
0
  6
Continuous
 62
     7
370
    25
100
AcDbLine
 10
131.5047253778
 20
56.1359759025
 30
0.0
 11
131.9289894466
 21
55.891053469
 31
0.0
  0
LINE
  5
518
330
1F
100
AcDbEntity
  8
0
  6
Continuous
 62
     7
370
    25
100
AcDbLine
 10
131.6119105981
 20
56.6114252321
 30
0.0
 11
132.0361746668
 21
56.3665027986
 31
0.0
  0
LINE
  5
519
330
1F
100
AcDbEntity
  8
0
  6
Continuous
 62
     7
370
    25
100
AcDbLine
 10
132.3505846463
 20
57.0378526834
 30
0.0
 11
132.774848715
 21
56.7929302498
 31
0.0
  0
LINE
  5
51A
330
1F
100
AcDbEntity
  8
0
  6
Continuous
 62
     7
370
    25
100
AcDbLine
 10
134.2879252182
 20
59.7024605392
 30
0.0
 11
134.2879252182
 21
57.7426829706
 31
0.0
  0
LINE
  5
51B
330
1F
100
AcDbEntity
  8
0
  6
Continuous
 62
     7
370
    25
100
AcDbLine
 10
134.2879252182
 20
57.7426829706
 30
0.0
 11
134.0509985305
 21
57.6059081051
 31
0.0
  0
LINE
  5
51C
330
1F
100
AcDbEntity
  8
0
  6
Continuous
 62
     7
370
    25
100
AcDbLine
 10
134.2879252182
 20
57.7426829706
 30
0.0
 11
134.7121892869
 21
57.4977605371
 31
0.0
  0
LINE
  5
51D
330
1F
100
AcDbEntity
  8
0
  6
Continuous
 62
     7
370
    25
100
AcDbLine
 10
135.8798421415
 20
60.6214546177
 30
0.0
 11
136.3927157929
 21
60.0523283153
 31
0.0
  0
LINE
  5
51E
330
1F
100
AcDbEntity
  8
0
  6
Continuous
 62
     7
370
    25
100
AcDbLine
 10
137.0263569344
 20
61.2833235194
 30
0.0
 11
137.0263569344
 21
59.3235459508
 31
0.0
  0
LINE
  5
51F
330
1F
100
AcDbEntity
  8
0
  6
Continuous
 62
     7
370
    25
100
AcDbLine
 10
137.0263569344
 20
59.3235459508
 30
0.0
 11
136.5265681531
 21
59.0350240287
 31
0.0
  0
LINE
  5
520
330
1F
100
AcDbEntity
  8
0
  6
Continuous
 62
     7
370
    25
100
AcDbLine
 10
135.5937769622
 20
59.8441257253
 30
0.0
 11
135.5937769622
 21
58.4965351362
 31
0.0
  0
LINE
  5
521
330
1F
100
AcDbEntity
  8
0
  6
Continuous
 62
     7
370
    25
100
AcDbLine
 10
135.5937769622
 20
58.4965351362
 30
0.0
 11
135.4119495042
 21
58.391568379
 31
0.0
  0
LINE
  5
522
330
1F
100
AcDbEntity
  8
0
  6
Continuous
 62
     7
370
    25
100
AcDbLine
 10
136.3927157929
 20
60.0523283153
 30
0.0
 11
136.8169798616
 21
59.8074058818
 31
0.0
  0
LINE
  5
523
330
1F
100
AcDbEntity
  8
0
  6
Continuous
 62
     7
370
    25
100
AcDbLine
 10
135.5937769622
 20
58.4965351362
 30
0.0
 11
136.0180410309
 21
58.2516127027
 31
0.0
  0
LINE
  5
524
330
1F
100
AcDbEntity
  8
0
  6
Continuous
 62
     7
370
    25
100
AcDbLine
 10
135.5937769622
 20
59.8441257253
 30
0.0
 11
136.0180410309
 21
59.5992032918
 31
0.0
  0
LINE
  5
525
330
1F
100
AcDbEntity
  8
0
  6
Continuous
 62
     7
370
    25
100
AcDbLine
 10
137.0263569344
 20
59.3235459508
 30
0.0
 11
137.4506210032
 21
59.0786235173
 31
0.0
  0
LINE
  5
526
330
1F
100
AcDbEntity
  8
0
  6
Continuous
 62
     7
370
    25
100
AcDbLine
 10
144.1341575661
 20
64.8457437514
 30
0.0
 11
144.1341575661
 21
64.794762886
 31
0.0
  0
LINE
  5
527
330
1F
100
AcDbEntity
  8
0
  6
Continuous
 62
     7
370
    25
100
AcDbLine
 10
144.1341575661
 20
64.794762886
 30
0.0
 11
142.9880935883
 21
64.1331542343
 31
0.0
  0
LINE
  5
528
330
1F
100
AcDbEntity
  8
0
  6
Continuous
 62
     7
370
    25
100
AcDbLine
 10
144.1341575661
 20
64.794762886
 30
0.0
 11
144.5584216348
 21
64.5498404524
 31
0.0
  0
LINE
  5
529
330
1F
100
AcDbEntity
  8
0
  6
Continuous
 62
     7
370
    25
100
AcDbLine
 10
144.1341575661
 20
64.0185985134
 30
0.0
 11
144.1341575661
 21
63.967617648
 31
0.0
  0
LINE
  5
52A
330
1F
100
AcDbEntity
  8
0
  6
Continuous
 62
     7
370
    25
100
AcDbLine
 10
144.1341575661
 20
63.967617648
 30
0.0
 11
142.9880935883
 21
63.3060089963
 31
0.0
  0
LINE
  5
52B
330
1F
100
AcDbEntity
  8
0
  6
Continuous
 62
     7
370
    25
100
AcDbLine
 10
144.1341575661
 20
63.967617648
 30
0.0
 11
144.5584216348
 21
63.7226952144
 31
0.0
  0
LINE
  5
52C
330
1F
100
AcDbEntity
  8
0
  6
Continuous
 62
     7
370
    25
100
AcDbLine
 10
146.3215969853
 20
66.1085256491
 30
0.0
 11
146.3215969853
 21
66.0575447836
 31
0.0
  0
LINE
  5
52D
330
1F
100
AcDbEntity
  8
0
  6
Continuous
 62
     7
370
    25
100
AcDbLine
 10
146.3215969853
 20
66.0575447836
 30
0.0
 11
145.1755330075
 21
65.395936132
 31
0.0
  0
LINE
  5
52E
330
1F
100
AcDbEntity
  8
0
  6
Continuous
 62
     7
370
    25
100
AcDbLine
 10
146.3215969853
 20
66.0575447836
 30
0.0
 11
146.745861054
 21
65.8126223501
 31
0.0
  0
LINE
  5
52F
330
1F
100
AcDbEntity
  8
0
  6
Continuous
 62
     7
370
    25
100
AcDbLine
 10
146.3215969853
 20
65.2813804111
 30
0.0
 11
146.3215969853
 21
65.2303995456
 31
0.0
  0
LINE
  5
530
330
1F
100
AcDbEntity
  8
0
  6
Continuous
 62
     7
370
    25
100
AcDbLine
 10
146.3215969853
 20
65.2303995456
 30
0.0
 11
145.1755330075
 21
64.5687908939
 31
0.0
  0
LINE
  5
531
330
1F
100
AcDbEntity
  8
0
  6
Continuous
 62
     7
370
    25
100
AcDbLine
 10
146.3215969853
 20
65.2303995456
 30
0.0
 11
146.745861054
 21
64.9854771121
 31
0.0
  0
LINE
  5
532
330
1F
100
AcDbEntity
  8
0
  6
Continuous
 62
     7
370
    25
100
AcDbLine
 10
147.307873197
 20
66.7373255268
 30
0.0
 11
147.8883091449
 21
66.818828709
 31
0.0
  0
LINE
  5
533
330
1F
100
AcDbEntity
  8
0
  6
Continuous
 62
     7
370
    25
100
AcDbLine
 10
148.5365860194
 20
66.9206697865
 30
0.0
 11
148.5365860194
 21
67.1751512463
 31
0.0
  0
LINE
  5
534
330
1F
100
AcDbEntity
  8
0
  6
Continuous
 62
     7
370
    25
100
AcDbLine
 10
148.2418482619
 20
66.614734921
 30
0.0
 11
148.5365860194
 21
66.9206697865
 31
0.0
  0
LINE
  5
535
330
1F
100
AcDbEntity
  8
0
  6
Continuous
 62
     7
370
    25
100
AcDbLine
 10
147.8883091449
 20
66.818828709
 30
0.0
 11
148.3125732136
 21
66.5739062754
 31
0.0
  0
LINE
  5
536
330
1F
100
AcDbEntity
  8
0
  6
Continuous
 62
     7
370
    25
100
AcDbLine
 10
148.5365860194
 20
66.9206697865
 30
0.0
 11
148.9608500881
 21
66.6757473529
 31
0.0
  0
LINE
  5
537
330
1F
100
AcDbEntity
  8
0
  6
Continuous
 62
     7
370
    25
100
AcDbLine
 10
154.6488339801
 20
71.4565629744
 30
0.0
 11
154.996970702
 21
70.3847284376
 31
0.0
  0
LINE
  5
538
330
1F
100
AcDbEntity
  8
0
  6
Continuous
 62
     7
370
    25
100
AcDbLine
 10
155.9818090984
 20
72.2260731307
 30
0.0
 11
155.4693185513
 21
70.3460709613
 31
0.0
  0
LINE
  5
539
330
1F
100
AcDbEntity
  8
0
  6
Continuous
 62
     7
370
    25
100
AcDbLine
 10
155.4141978969
 20
70.1438683049
 30
0.0
 11
155.3477978287
 21
69.9002886467
 31
0.0
  0
LINE
  5
53A
330
1F
100
AcDbEntity
  8
0
  6
Continuous
 62
     7
370
    25
100
AcDbLine
 10
155.3477978287
 20
69.9002886467
 30
0.0
 11
154.8957520872
 21
69.6393281949
 31
0.0
  0
LINE
  5
53B
330
1F
100
AcDbEntity
  8
0
  6
Continuous
 62
     7
370
    25
100
AcDbLine
 10
154.996970702
 20
70.3847284376
 30
0.0
 11
155.4212347707
 21
70.139806004
 31
0.0
  0
LINE
  5
53C
330
1F
100
AcDbEntity
  8
0
  6
Continuous
 62
     7
370
    25
100
AcDbLine
 10
155.3477978287
 20
69.9002886467
 30
0.0
 11
155.7720618974
 21
69.6553662132
 31
0.0
  0
LINE
  5
53D
330
1F
100
AcDbEntity
  8
0
  6
Continuous
 62
     7
370
    25
100
AcDbLine
 10
159.0550289696
 20
74.0320184772
 30
0.0
 11
159.0550289696
 21
72.0404276303
 31
0.0
  0
LINE
  5
53E
330
1F
100
AcDbEntity
  8
0
  6
Continuous
 62
     7
370
    25
100
AcDbLine
 10
159.0550289696
 20
72.0404276303
 30
0.0
 11
158.8732015116
 21
71.935460873
 31
0.0
  0
LINE
  5
53F
330
1F
100
AcDbEntity
  8
0
  6
Continuous
 62
     7
370
    25
100
AcDbLine
 10
158.5599065681
 20
73.2643640815
 30
0.0
 11
158.8732015116
 21
73.0835027603
 31
0.0
  0
LINE
  5
540
330
1F
100
AcDbEntity
  8
0
  6
Continuous
 62
     7
370
    25
100
AcDbLine
 10
159.0550289696
 20
72.0404276303
 30
0.0
 11
159.4792930384
 21
71.7955051967
 31
0.0
  0
LINE
  5
541
330
1F
100
AcDbEntity
  8
0
  6
Continuous
 62
     7
370
    25
100
AcDbLine
 10
161.5843166791
 20
75.4268052983
 30
0.0
 11
161.622997444
 21
75.3327615662
 31
0.0
  0
SPLINE
  5
542
330
1F
100
AcDbEntity
  8
0
  6
Continuous
 62
     7
370
    25
100
AcDbSpline
210
0.0
220
0.0
230
1.0
 70
     8
 71
     3
 72
     9
 73
     5
 74
     0
 42
0.000000001
 43
0.00000001
 40
0.0
 40
0.0
 40
0.0
 40
0.0
 40
0.5599148219539377
 40
1.0
 40
1.0
 40
1.0
 40
1.0
 10
161.6229974439807
 20
75.33276156617244
 30
0.0
 10
161.6425420307444
 20
75.23938478130724
 30
0.0
 10
161.677448387921
 20
75.07261515635017
 30
0.0
 10
161.6814855369979
 20
74.8839197255837
 30
0.0
 10
161.6832622264682
 20
74.80087766333833
 30
0.0
  0
SPLINE
  5
543
330
1F
100
AcDbEntity
  8
0
  6
Continuous
 62
     7
370
    25
100
AcDbSpline
210
0.0
220
0.0
230
1.0
 70
     8
 71
     3
 72
    10
 73
     6
 74
     0
 42
0.000000001
 43
0.00000001
 40
0.0
 40
0.0
 40
0.0
 40
0.0
 40
0.3754040247182823
 40
0.7504153469170401
 40
1.0
 40
1.0
 40
1.0
 40
1.0
 10
161.6832622264682
 20
74.80087766333833
 30
0.0
 10
161.6797064098626
 20
74.68174882845082
 30
0.0
 10
161.6725984963188
 20
74.44361577692848
 30
0.0
 10
161.6314289522669
 20
74.10315085490163
 30
0.0
 10
161.5422574547624
 20
73.88370393317291
 30
0.0
 10
161.5066250809554
 20
73.79601431300674
 30
0.0
  0
SPLINE
  5
544
330
1F
100
AcDbEntity
  8
0
  6
Continuous
 62
     7
370
    25
100
AcDbSpline
210
0.0
220
0.0
230
1.0
 70
     8
 71
     3
 72
     9
 73
     5
 74
     0
 42
0.000000001
 43
0.00000001
 40
0.0
 40
0.0
 40
0.0
 40
0.0
 40
0.1798888021456958
 40
1.0
 40
1.0
 40
1.0
 40
1.0
 10
161.0897161849429
 20
73.22333904134163
 30
0.0
 10
161.0730283101047
 20
73.20732931776804
 30
0.0
 10
160.9802605856039
 20
73.11833142916892
 30
0.0
 10
160.881432875083
 20
73.06221093042484
 30
0.0
 10
160.8003831630265
 20
73.01618588097561
 30
0.0
  0
SPLINE
  5
545
330
1F
100
AcDbEntity
  8
0
  6
Continuous
 62
     7
370
    25
100
AcDbSpline
210
0.0
220
0.0
230
1.0
 70
     8
 71
     3
 72
     9
 73
     5
 74
     0
 42
0.000000001
 43
0.00000001
 40
0.0
 40
0.0
 40
0.0
 40
0.0
 40
0.630264087825461
 40
1.0
 40
1.0
 40
1.0
 40
1.0
 10
160.8003831630265
 20
73.01618588097561
 30
0.0
 10
160.7224027674334
 20
72.97172191690723
 30
0.0
 10
160.5986762262907
 20
72.90117376903194
 30
0.0
 10
160.4833972053278
 20
72.8843960594818
 30
0.0
 10
160.4407744113576
 20
72.8781927377371
 30
0.0
  0
LINE
  5
546
330
1F
100
AcDbEntity
  8
0
  6
Continuous
 62
     7
370
    25
100
AcDbLine
 10
160.5254635804
 20
74.5154152318
 30
0.0
 11
160.4986287879
 21
74.1010966967
 31
0.0
  0
SPLINE
  5
547
330
1F
100
AcDbEntity
  8
0
  6
Continuous
 62
     7
370
    25
100
AcDbSpline
210
0.0
220
0.0
230
1.0
 70
     8
 71
     3
 72
    10
 73
     6
 74
     0
 42
0.000000001
 43
0.00000001
 40
0.0
 40
0.0
 40
0.0
 40
0.0
 40
0.6480464471305369
 40
0.9692349981148222
 40
1.0
 40
1.0
 40
1.0
 40
1.0
 10
160.498628787857
 20
74.10109669670985
 30
0.0
 10
160.5020853054469
 20
73.9483226861583
 30
0.0
 10
160.5072549623975
 20
73.71982993153468
 30
0.0
 10
160.56724551851
 20
73.49471760955498
 30
0.0
 10
160.6278486693318
 20
73.47911255625311
 30
0.0
 10
160.6331461184812
 20
73.47774848565253
 30
0.0
  0
LINE
  5
548
330
1F
100
AcDbEntity
  8
0
  6
Continuous
 62
     7
370
    25
100
AcDbLine
 10
161.622997444
 20
75.3327615662
 30
0.0
 11
162.0472615127
 21
75.0878391326
 31
0.0
  0
SPLINE
  5
549
330
1F
100
AcDbEntity
  8
0
  6
Continuous
 62
     7
370
    25
100
AcDbSpline
210
0.0
220
0.0
230
1.0
 70
     8
 71
     3
 72
    13
 73
     9
 74
     0
 42
0.000000001
 43
0.00000001
 40
0.0
 40
0.0
 40
0.0
 40
0.0
 40
0.1246586177868177
 40
0.2492332997837796
 40
0.3740937670272848
 40
0.49922883851962
 40
0.7494816988300076
 40
1.0
 40
1.0
 40
1.0
 40
1.0
 10
161.2237863062743
 20
73.24796562151475
 30
0.0
 10
161.2578678590377
 20
73.27157870787859
 30
0.0
 10
161.3260080165958
 20
73.31878898131998
 30
0.0
 10
161.4121237017048
 20
73.43964905578589
 30
0.0
 10
161.4671878886185
 20
73.57177502287274
 30
0.0
 10
161.5092229757915
 20
73.74587891545036
 30
0.0
 10
161.5263641286842
 20
73.95179529310315
 30
0.0
 10
161.5281106565043
 20
74.10934958297376
 30
0.0
 10
161.5289843833002
 20
74.18816848485253
 30
0.0
  0
SPLINE
  5
54A
330
1F
100
AcDbEntity
  8
0
  6
Continuous
 62
     7
370
    25
100
AcDbSpline
210
0.0
220
0.0
230
1.0
 70
     8
 71
     3
 72
    11
 73
     7
 74
     0
 42
0.000000001
 43
0.00000001
 40
0.0
 40
0.0
 40
0.0
 40
0.0
 40
0.5017456673382839
 40
0.7504237745458755
 40
0.8751718942707067
 40
1.0
 40
1.0
 40
1.0
 40
1.0
 10
160.922892856569
 20
73.85617426316304
 30
0.0
 10
160.9237099991159
 20
73.69796960217657
 30
0.0
 10
160.9249321386069
 20
73.46135462654958
 30
0.0
 10
161.0087955996474
 20
73.23992641473573
 30
0.0
 10
161.1201702528016
 20
73.20061473567613
 30
0.0
 10
161.1892402430991
 20
73.23217862096065
 30
0.0
 10
161.2237863062743
 20
73.24796562151475
 30
0.0
  0
SPLINE
  5
54B
330
1F
100
AcDbEntity
  8
0
  6
Continuous
 62
     7
370
    25
100
AcDbSpline
210
0.0
220
0.0
230
1.0
 70
     8
 71
     3
 72
    11
 73
     7
 74
     0
 42
0.000000001
 43
0.00000001
 40
0.0
 40
0.0
 40
0.0
 40
0.0
 40
0.1249457297153797
 40
0.2496021511032172
 40
0.4981876791784046
 40
1.0
 40
1.0
 40
1.0
 40
1.0
 10
161.2203426044179
 20
74.80482825562174
 30
0.0
 10
161.1858787563996
 20
74.78144511876772
 30
0.0
 10
161.1170308604352
 20
74.73473298805624
 30
0.0
 10
161.0017781479558
 20
74.57006457260277
 30
0.0
 10
160.9257218316566
 20
74.25084189260035
 30
0.0
 10
160.9240265436996
 20
74.01433387875348
 30
0.0
 10
160.922892856569
 20
73.85617426316304
 30
0.0
  0
SPLINE
  5
54C
330
1F
100
AcDbEntity
  8
0
  6
Continuous
 62
     7
370
    25
100
AcDbSpline
210
0.0
220
0.0
230
1.0
 70
     8
 71
     3
 72
    11
 73
     7
 74
     0
 42
0.000000001
 43
0.00000001
 40
0.0
 40
0.0
 40
0.0
 40
0.0
 40
0.5018862577432708
 40
0.7503493362982604
 40
0.8750598519788091
 40
1.0
 40
1.0
 40
1.0
 40
1.0
 10
161.5289843833002
 20
74.18816848485253
 30
0.0
 10
161.5285402448956
 20
74.34982055142648
 30
0.0
 10
161.5278762319804
 20
74.59149985424378
 30
0.0
 10
161.4440184503402
 20
74.82240441856796
 30
0.0
 10
161.3262216979685
 20
74.8547636771716
 30
0.0
 10
161.2556572709996
 20
74.8214835999727
 30
0.0
 10
161.2203426044179
 20
74.80482825562174
 30
0.0
  0
LINE
  5
54D
330
1F
100
AcDbEntity
  8
0
  6
Continuous
 62
     7
370
    25
100
AcDbLine
 10
160.4986287879
 20
74.1010966967
 30
0.0
 11
160.9228928566
 21
73.8561742632
 31
0.0
  0
LINE
  5
54E
330
1F
100
AcDbEntity
  8
0
  6
Continuous
 62
     7
370
    25
100
AcDbLine
 10
160.8675245949
 20
75.0085057571
 30
0.0
 11
161.2203426044
 21
74.8048282556
 31
0.0
  0
LINE
  5
54F
330
1F
100
AcDbEntity
  8
0
  6
Continuous
 62
     7
370
    25
100
AcDbLine
 10
160.800383163
 20
73.016185881
 30
0.0
 11
161.2246472317
 21
72.7712634474
 31
0.0
  0
LINE
  5
550
330
1F
100
AcDbEntity
  8
0
  6
Continuous
 62
     7
370
    25
100
AcDbLine
 10
161.6832622265
 20
74.8008776633
 30
0.0
 11
162.1075262952
 21
74.5559552298
 31
0.0
  0
LINE
  5
551
330
1F
100
AcDbEntity
  8
0
  6
Continuous
 62
     7
370
    25
100
AcDbLine
 10
163.7993057131
 20
76.7054912501
 30
0.0
 11
163.837986478
 21
76.6114475179
 31
0.0
  0
SPLINE
  5
552
330
1F
100
AcDbEntity
  8
0
  6
Continuous
 62
     7
370
    25
100
AcDbSpline
210
0.0
220
0.0
230
1.0
 70
     8
 71
     3
 72
     9
 73
     5
 74
     0
 42
0.000000001
 43
0.00000001
 40
0.0
 40
0.0
 40
0.0
 40
0.0
 40
0.5599148219539377
 40
1.0
 40
1.0
 40
1.0
 40
1.0
 10
163.8379864780352
 20
76.61144751793631
 30
0.0
 10
163.8575310647988
 20
76.51807073307111
 30
0.0
 10
163.8924374219755
 20
76.35130110811404
 30
0.0
 10
163.8964745710524
 20
76.16260567734756
 30
0.0
 10
163.8982512605227
 20
76.0795636151022
 30
0.0
  0
SPLINE
  5
553
330
1F
100
AcDbEntity
  8
0
  6
Continuous
 62
     7
370
    25
100
AcDbSpline
210
0.0
220
0.0
230
1.0
 70
     8
 71
     3
 72
    10
 73
     6
 74
     0
 42
0.000000001
 43
0.00000001
 40
0.0
 40
0.0
 40
0.0
 40
0.0
 40
0.3754040247183077
 40
0.7504153469170847
 40
1.0
 40
1.0
 40
1.0
 40
1.0
 10
163.8982512605227
 20
76.07956361510223
 30
0.0
 10
163.8946954439171
 20
75.96043478021471
 30
0.0
 10
163.8875875303733
 20
75.72230172869234
 30
0.0
 10
163.8464179863214
 20
75.38183680666552
 30
0.0
 10
163.7572464888169
 20
75.16238988493687
 30
0.0
 10
163.72161411501
 20
75.0747002647707
 30
0.0
  0
SPLINE
  5
554
330
1F
100
AcDbEntity
  8
0
  6
Continuous
 62
     7
370
    25
100
AcDbSpline
210
0.0
220
0.0
230
1.0
 70
     8
 71
     3
 72
     9
 73
     5
 74
     0
 42
0.000000001
 43
0.00000001
 40
0.0
 40
0.0
 40
0.0
 40
0.0
 40
0.1798888021457055
 40
1.0
 40
1.0
 40
1.0
 40
1.0
 10
163.3047052189974
 20
74.50202499310551
 30
0.0
 10
163.2880173441591
 20
74.48601526953192
 30
0.0
 10
163.1952496196584
 20
74.39701738093281
 30
0.0
 10
163.0964219091375
 20
74.3408968821887
 30
0.0
 10
163.015372197081
 20
74.2948718327395
 30
0.0
  0
SPLINE
  5
555
330
1F
100
AcDbEntity
  8
0
  6
Continuous
 62
     7
370
    25
100
AcDbSpline
210
0.0
220
0.0
230
1.0
 70
     8
 71
     3
 72
     9
 73
     5
 74
     0
 42
0.000000001
 43
0.00000001
 40
0.0
 40
0.0
 40
0.0
 40
0.0
 40
0.6302640878253939
 40
1.0
 40
1.0
 40
1.0
 40
1.0
 10
163.015372197081
 20
74.2948718327395
 30
0.0
 10
162.9373918014879
 20
74.25040786867113
 30
0.0
 10
162.8136652603452
 20
74.17985972079585
 30
0.0
 10
162.6983862393824
 20
74.16308201124569
 30
0.0
 10
162.655763445412
 20
74.15687868950097
 30
0.0
  0
LINE
  5
556
330
1F
100
AcDbEntity
  8
0
  6
Continuous
 62
     7
370
    25
100
AcDbLine
 10
162.7404526144
 20
75.7941011835
 30
0.0
 11
162.7136178219
 21
75.3797826485
 31
0.0
  0
SPLINE
  5
557
330
1F
100
AcDbEntity
  8
0
  6
Continuous
 62
     7
370
    25
100
AcDbSpline
210
0.0
220
0.0
230
1.0
 70
     8
 71
     3
 72
    10
 73
     6
 74
     0
 42
0.000000001
 43
0.00000001
 40
0.0
 40
0.0
 40
0.0
 40
0.0
 40
0.6480464471301931
 40
0.9692349981143089
 40
1.0
 40
1.0
 40
1.0
 40
1.0
 10
162.7136178219115
 20
75.37978264847372
 30
0.0
 10
162.7170743395014
 20
75.22700863792222
 30
0.0
 10
162.7222439964519
 20
74.99851588329862
 30
0.0
 10
162.7822345525645
 20
74.77340356131864
 30
0.0
 10
162.8428377033864
 20
74.75779850801695
 30
0.0
 10
162.8481351525359
 20
74.75643443741632
 30
0.0
  0
LINE
  5
558
330
1F
100
AcDbEntity
  8
0
  6
Continuous
 62
     7
370
    25
100
AcDbLine
 10
163.837986478
 20
76.6114475179
 30
0.0
 11
164.2622505467
 21
76.3665250844
 31
0.0
  0
LINE
  5
559
330
1F
100
AcDbEntity
  8
0
  6
Continuous
 62
     7
370
    25
100
AcDbLine
 10
162.7136178219
 20
75.3797826485
 30
0.0
 11
163.1378818906
 21
75.1348602149
 31
0.0
  0
LINE
  5
55A
330
1F
100
AcDbEntity
  8
0
  6
Continuous
 62
     7
370
    25
100
AcDbLine
 10
163.082513629
 20
76.2871917089
 30
0.0
 11
163.4353316385
 21
76.0835142074
 31
0.0
  0
SPLINE
  5
55B
330
1F
100
AcDbEntity
  8
0
  6
Continuous
 62
     7
370
    25
100
AcDbSpline
210
0.0
220
0.0
230
1.0
 70
     8
 71
     3
 72
    11
 73
     7
 74
     0
 42
0.000000001
 43
0.00000001
 40
0.0
 40
0.0
 40
0.0
 40
0.0
 40
0.1249457297153602
 40
0.2496021511032284
 40
0.498187679178407
 40
1.0
 40
1.0
 40
1.0
 40
1.0
 10
163.4353316384724
 20
76.08351420738563
 30
0.0
 10
163.4008677904542
 20
76.0601310705316
 30
0.0
 10
163.3320198944897
 20
76.01341893982013
 30
0.0
 10
163.2167671820103
 20
75.84875052436664
 30
0.0
 10
163.1407108657111
 20
75.52952784436422
 30
0.0
 10
163.1390155777541
 20
75.29301983051735
 30
0.0
 10
163.1378818906234
 20
75.13486021492692
 30
0.0
  0
SPLINE
  5
55C
330
1F
100
AcDbEntity
  8
0
  6
Continuous
 62
     7
370
    25
100
AcDbSpline
210
0.0
220
0.0
230
1.0
 70
     8
 71
     3
 72
    13
 73
     9
 74
     0
 42
0.000000001
 43
0.00000001
 40
0.0
 40
0.0
 40
0.0
 40
0.0
 40
0.1246586177868368
 40
0.2492332997837828
 40
0.3740937670272881
 40
0.4992288385196171
 40
0.7494816988300075
 40
1.0
 40
1.0
 40
1.0
 40
1.0
 10
163.4387753403288
 20
74.52665157327863
 30
0.0
 10
163.4728568930922
 20
74.55026465964248
 30
0.0
 10
163.5409970506503
 20
74.59747493308387
 30
0.0
 10
163.6271127357593
 20
74.71833500754975
 30
0.0
 10
163.682176922673
 20
74.85046097463663
 30
0.0
 10
163.7242120098459
 20
75.02456486721424
 30
0.0
 10
163.7413531627387
 20
75.23048124486704
 30
0.0
 10
163.7430996905588
 20
75.38803553473764
 30
0.0
 10
163.7439734173547
 20
75.46685443661642
 30
0.0
  0
SPLINE
  5
55D
330
1F
100
AcDbEntity
  8
0
  6
Continuous
 62
     7
370
    25
100
AcDbSpline
210
0.0
220
0.0
230
1.0
 70
     8
 71
     3
 72
    11
 73
     7
 74
     0
 42
0.000000001
 43
0.00000001
 40
0.0
 40
0.0
 40
0.0
 40
0.0
 40
0.5017456673382771
 40
0.7504237745458663
 40
0.8751718942707266
 40
1.0
 40
1.0
 40
1.0
 40
1.0
 10
163.1378818906234
 20
75.13486021492692
 30
0.0
 10
163.1386990331704
 20
74.97665555394046
 30
0.0
 10
163.1399211726614
 20
74.74004057831343
 30
0.0
 10
163.2237846337019
 20
74.51861236649962
 30
0.0
 10
163.3351592868561
 20
74.47930068744002
 30
0.0
 10
163.4042292771536
 20
74.51086457272459
 30
0.0
 10
163.4387753403288
 20
74.52665157327863
 30
0.0
  0
SPLINE
  5
55E
330
1F
100
AcDbEntity
  8
0
  6
Continuous
 62
     7
370
    25
100
AcDbSpline
210
0.0
220
0.0
230
1.0
 70
     8
 71
     3
 72
    11
 73
     7
 74
     0
 42
0.000000001
 43
0.00000001
 40
0.0
 40
0.0
 40
0.0
 40
0.0
 40
0.5018862577432646
 40
0.7503493362982595
 40
0.8750598519787919
 40
1.0
 40
1.0
 40
1.0
 40
1.0
 10
163.7439734173547
 20
75.46685443661642
 30
0.0
 10
163.7435292789501
 20
75.62850650319034
 30
0.0
 10
163.7428652660349
 20
75.87018580600768
 30
0.0
 10
163.6590074843947
 20
76.10109037033183
 30
0.0
 10
163.541210732023
 20
76.13344962893554
 30
0.0
 10
163.4706463050541
 20
76.10016955173658
 30
0.0
 10
163.4353316384724
 20
76.08351420738563
 30
0.0
  0
LINE
  5
55F
330
1F
100
AcDbEntity
  8
0
  6
Continuous
 62
     7
370
    25
100
AcDbLine
 10
163.0153721971
 20
74.2948718327
 30
0.0
 11
163.4396362658
 21
74.0499493992
 31
0.0
  0
LINE
  5
560
330
1F
100
AcDbEntity
  8
0
  6
Continuous
 62
     7
370
    25
100
AcDbLine
 10
163.8982512605
 20
76.0795636151
 30
0.0
 11
164.3225153292
 21
75.8346411816
 31
0.0
  0
LINE
  5
561
330
1F
100
AcDbEntity
  8
0
  6
Continuous
 62
     7
370
    25
100
AcDbLine
 10
183.7747290171
 20
89.5769917245
 30
0.0
 11
184.3913261303
 21
89.9330035185
 31
0.0
  0
LINE
  5
562
330
1F
100
AcDbEntity
  8
0
  6
Continuous
 62
     7
370
    25
100
AcDbLine
 10
183.7747290171
 20
89.5769917245
 30
0.0
 11
167.8916964981
 21
80.4079122206
 31
0.0
  0
LINE
  5
563
330
1F
100
AcDbEntity
  8
0
  6
Continuous
 62
     7
370
    25
100
AcDbLine
 10
183.7747290171
 20
84.4915755481
 30
0.0
 11
183.7747290171
 21
89.5769917245
 31
0.0
  0
LINE
  5
564
330
1F
100
AcDbEntity
  8
0
  6
Continuous
 62
     7
370
    25
100
AcDbLine
 10
167.8916964981
 20
75.3224960442
 30
0.0
 11
183.7747290171
 21
84.4915755481
 31
0.0
  0
LINE
  5
565
330
1F
100
AcDbEntity
  8
0
  6
Continuous
 62
     7
370
    25
100
AcDbLine
 10
183.7747290171
 20
84.4915755481
 30
0.0
 11
184.3913261303
 21
84.1355637541
 31
0.0
  0
LINE
  5
566
330
1F
100
AcDbEntity
  8
0
  6
Continuous
 62
     7
370
    25
100
AcDbLine
 10
207.3454264612
 20
103.1840657242
 30
0.0
 11
207.9620235744
 21
103.5400775182
 31
0.0
  0
LINE
  5
567
330
1F
100
AcDbEntity
  8
0
  6
Continuous
 62
     7
370
    25
100
AcDbLine
 10
207.3454264612
 20
103.1840657242
 30
0.0
 11
191.4623939422
 21
94.0149862204
 31
0.0
  0
LINE
  5
568
330
1F
100
AcDbEntity
  8
0
  6
Continuous
 62
     7
370
    25
100
AcDbLine
 10
207.3454264612
 20
98.0986495478
 30
0.0
 11
207.3454264612
 21
103.1840657242
 31
0.0
  0
LINE
  5
569
330
1F
100
AcDbEntity
  8
0
  6
Continuous
 62
     7
370
    25
100
AcDbLine
 10
191.4623939422
 20
88.9295700439
 30
0.0
 11
207.3454264612
 21
98.0986495478
 31
0.0
  0
LINE
  5
56A
330
1F
100
AcDbEntity
  8
0
  6
Continuous
 62
     7
370
    25
100
AcDbLine
 10
207.3454264612
 20
98.0986495478
 30
0.0
 11
207.9620235744
 21
97.7426377538
 31
0.0
  0
LINE
  5
56B
330
1F
100
AcDbEntity
  8
0
  6
Continuous
 62
     7
370
    25
100
AcDbLine
 10
211.4975574803
 20
103.7483831153
 30
0.0
 11
210.8694885457
 21
103.8469826019
 31
0.0
  0
LINE
  5
56C
330
1F
100
AcDbEntity
  8
0
  6
Continuous
 62
     7
370
    25
100
AcDbLine
 10
202.1513634373
 20
107.4654152825
 30
0.0
 11
195.1633908349
 21
111.4994859982
 31
0.0
  0
ARC
  5
56D
330
1F
100
AcDbEntity
  8
0
  6
Continuous
 62
     7
370
    25
100
AcDbCircle
 10
196.0177823214
 20
112.8162908111
 30
0.0
 40
1.569700521593662
100
AcDbArc
 50
190.5855833776
 51
237.0230069782
  0
LINE
  5
56E
330
1F
100
AcDbEntity
  8
0
  6
Continuous
 62
     8
370
    18
100
AcDbLine
 10
51.585358915
 20
41.0653317833
 30
0.0
 11
193.0067151523
 21
122.7061429656
 31
0.0
  0
LINE
  5
56F
330
1F
100
AcDbEntity
  8
0
  6
Continuous
 62
     8
370
    18
100
AcDbLine
 10
51.3025162025
 20
41.5552297304
 30
0.0
 11
192.7238724398
 21
123.1960409127
 31
0.0
  0
LINE
  5
570
330
1F
100
AcDbEntity
  8
0
  6
Continuous
 62
     8
370
    18
100
AcDbLine
 10
51.3025162025
 20
41.2287767138
 30
0.0
 11
51.3025162025
 21
41.5552297304
 31
0.0
  0
LINE
  5
571
330
1F
100
AcDbEntity
  8
0
  6
Continuous
 62
     8
370
    18
100
AcDbLine
 10
51.585358915
 20
41.0653317833
 30
0.0
 11
51.3026576239
 21
41.2285317649
 31
0.0
  0
LINE
  5
572
330
1F
100
AcDbEntity
  8
0
  6
Continuous
 62
     8
370
    18
100
AcDbLine
 10
51.585358915
 20
38.2890930229
 30
0.0
 11
193.0067151523
 21
119.9299042052
 31
0.0
  0
LINE
  5
573
330
1F
100
AcDbEntity
  8
0
  6
Continuous
 62
     8
370
    18
100
AcDbLine
 10
51.3026576239
 20
38.4522930045
 30
0.0
 11
51.585358915
 21
38.2890930229
 31
0.0
  0
LINE
  5
574
330
1F
100
AcDbEntity
  8
0
  6
Continuous
 62
     8
370
    18
100
AcDbLine
 10
51.2776483321
 20
41.5695856465
 30
0.0
 11
192.6990045694
 21
123.2103968287
 31
0.0
  0
LINE
  5
575
330
1F
100
AcDbEntity
  8
0
  6
Continuous
 62
     8
370
    18
100
AcDbLine
 10
51.2776483321
 20
41.5695856465
 30
0.0
 11
51.2776483321
 21
41.2431326299
 31
0.0
  0
LINE
  5
576
330
1F
100
AcDbEntity
  8
0
  6
Continuous
 62
     8
370
    18
100
AcDbLine
 10
51.2670194421
 20
41.2369947076
 30
0.0
 11
50.984318151
 21
41.4001946891
 31
0.0
  0
LINE
  5
577
330
1F
100
AcDbEntity
  8
0
  6
Continuous
 62
     8
370
    18
100
AcDbLine
 10
51.2670194421
 20
41.2369947076
 30
0.0
 11
51.2776500597
 21
41.2431316325
 31
0.0
  0
LINE
  5
578
330
1F
100
AcDbEntity
  8
0
  6
Continuous
 62
     8
370
    18
100
AcDbLine
 10
51.2671608634
 20
35.3659846028
 30
0.0
 11
51.2670194421
 21
35.365902962
 31
0.0
  0
LINE
  5
579
330
1F
100
AcDbEntity
  8
0
  6
Continuous
 62
     8
370
    18
100
AcDbLine
 10
51.2670194421
 20
35.365902962
 30
0.0
 11
50.984318151
 21
35.5291029435
 31
0.0
  0
LINE
  5
57A
330
1F
100
AcDbEntity
  8
0
  6
Continuous
 62
     8
370
    18
100
AcDbLine
 10
52.9642171383
 20
36.9216798537
 30
0.0
 11
52.9642171383
 21
37.2481328703
 31
0.0
  0
LINE
  5
57B
330
1F
100
AcDbEntity
  8
0
  6
Continuous
 62
     8
370
    18
100
AcDbLine
 10
53.4591918851
 20
36.3908113958
 30
0.0
 11
53.176490594
 21
36.5540114157
 31
0.0
  0
LINE
  5
57C
330
1F
100
AcDbEntity
  8
0
  6
Continuous
 62
     8
370
    18
100
AcDbLine
 10
53.4591918851
 20
36.3908113958
 30
0.0
 11
194.8805481224
 21
118.0316225781
 31
0.0
  0
LINE
  5
57D
330
1F
100
AcDbEntity
  8
0
  6
Continuous
 62
     8
370
    18
100
AcDbLine
 10
52.9642171383
 20
37.2481328703
 30
0.0
 11
194.3855733756
 21
118.8889440526
 31
0.0
  0
LINE
  5
57E
330
1F
100
AcDbEntity
  8
0
  6
Continuous
 62
     8
370
    18
100
AcDbLine
 10
53.176490594
 20
36.4227988978
 30
0.0
 11
53.4591918851
 21
36.2595989163
 31
0.0
  0
LINE
  5
57F
330
1F
100
AcDbEntity
  8
0
  6
Continuous
 62
     8
370
    18
100
AcDbLine
 10
53.4591918851
 20
36.2595989163
 30
0.0
 11
194.8805481224
 21
117.9004100986
 31
0.0
  0
LINE
  5
580
330
1F
100
AcDbEntity
  8
0
  6
Continuous
 62
     8
370
    18
100
AcDbLine
 10
51.7974909493
 20
37.9216695626
 30
0.0
 11
51.7974909493
 21
37.595216546
 31
0.0
  0
LINE
  5
581
330
1F
100
AcDbEntity
  8
0
  6
Continuous
 62
     8
370
    18
100
AcDbLine
 10
51.7974909493
 20
37.9216695626
 30
0.0
 11
193.2188471866
 21
119.5624807448
 31
0.0
  0
LINE
  5
582
330
1F
100
AcDbEntity
  8
0
  6
Continuous
 62
     8
370
    18
100
AcDbLine
 10
53.3142171383
 20
35.9391240416
 30
0.0
 11
194.7355733756
 21
117.5799352239
 31
0.0
  0
LINE
  5
583
330
1F
100
AcDbEntity
  8
0
  6
Continuous
 62
     8
370
    18
100
AcDbLine
 10
53.3142171383
 20
35.9391240416
 30
0.0
 11
53.1143171383
 21
36.285360997
 31
0.0
  0
LINE
  5
584
330
1F
100
AcDbEntity
  8
0
  6
Continuous
 62
     8
370
    18
100
AcDbLine
 10
52.9501268646
 20
36.1905451566
 30
0.0
 11
53.1500268646
 21
35.8443082012
 31
0.0
  0
LINE
  5
585
330
1F
100
AcDbEntity
  8
0
  6
Continuous
 62
     8
370
    18
100
AcDbLine
 10
53.1500268646
 20
35.8443082012
 30
0.0
 11
194.5713831019
 21
117.4851193835
 31
0.0
  0
LINE
  5
586
330
1F
100
AcDbEntity
  8
0
  6
Continuous
 62
     8
370
    18
100
AcDbLine
 10
53.1163151339
 20
35.5680739837
 30
0.0
 11
52.8714886341
 21
35.5461828054
 31
0.0
  0
LINE
  5
587
330
1F
100
AcDbEntity
  8
0
  6
Continuous
 62
     8
370
    18
100
AcDbLine
 10
53.1480513435
 20
34.8333711692
 30
0.0
 11
53.3928778433
 21
34.8552623475
 31
0.0
  0
LINE
  5
588
330
1F
100
AcDbEntity
  8
0
  6
Continuous
 62
     8
370
    18
100
AcDbLine
 10
53.4591918851
 20
34.5311907819
 30
0.0
 11
53.176490594
 21
34.6943907634
 31
0.0
  0
LINE
  5
589
330
1F
100
AcDbEntity
  8
0
  6
Continuous
 62
     8
370
    18
100
AcDbLine
 10
53.4591918851
 20
34.5311907819
 30
0.0
 11
194.8805481224
 21
116.1720019641
 31
0.0
  0
LINE
  5
58A
330
1F
100
AcDbEntity
  8
0
  6
Continuous
 62
     8
370
    18
100
AcDbLine
 10
53.176490594
 20
33.0508880533
 30
0.0
 11
53.4591918851
 21
32.8876880717
 31
0.0
  0
LINE
  5
58B
330
1F
100
AcDbEntity
  8
0
  6
Continuous
 62
     8
370
    18
100
AcDbLine
 10
53.4591918851
 20
32.8876880717
 30
0.0
 11
194.8805481224
 21
114.528499254
 31
0.0
  0
LINE
  5
58C
330
1F
100
AcDbEntity
  8
0
  6
Continuous
 62
     8
370
    18
100
AcDbLine
 10
53.1623484584
 20
33.0590521344
 30
0.0
 11
52.8796471673
 21
33.2222521159
 31
0.0
  0
LINE
  5
58D
330
1F
100
AcDbEntity
  8
0
  6
Continuous
 62
     8
370
    18
100
AcDbLine
 10
51.2811615777
 20
35.3577388808
 30
0.0
 11
51.5638628688
 21
35.1945388993
 31
0.0
  0
LINE
  5
58E
330
1F
100
AcDbEntity
  8
0
  6
Continuous
 62
     8
370
    18
100
AcDbLine
 10
211.2042272992
 20
112.5275591374
 30
0.0
 11
69.7828710619
 21
30.8867479551
 31
0.0
  0
LINE
  5
58F
330
1F
100
AcDbEntity
  8
0
  6
Continuous
 62
     8
370
    18
100
AcDbLine
 10
211.4975574803
 20
112.0194963618
 30
0.0
 11
70.076201243
 21
30.3786851795
 31
0.0
  0
LINE
  5
590
330
1F
100
AcDbEntity
  8
0
  6
Continuous
 62
     8
370
    18
100
AcDbLine
 10
69.7828710619
 20
30.5602949385
 30
0.0
 11
69.7828710619
 21
30.8867479551
 31
0.0
  0
LINE
  5
591
330
1F
100
AcDbEntity
  8
0
  6
Continuous
 62
     8
370
    18
100
AcDbLine
 10
70.076201243
 20
30.3786851795
 30
0.0
 11
69.7934999519
 21
30.5418851611
 31
0.0
  0
LINE
  5
592
330
1F
100
AcDbEntity
  8
0
  6
Continuous
 62
     8
370
    18
100
AcDbLine
 10
69.7934999519
 20
24.6707934155
 30
0.0
 11
70.076201243
 21
24.5075934339
 31
0.0
  0
LINE
  5
593
330
1F
100
AcDbEntity
  8
0
  6
Continuous
 62
     8
370
    18
100
AcDbLine
 10
70.076201243
 20
24.5075934339
 30
0.0
 11
211.4975574803
 21
106.1484046162
 31
0.0
  0
LINE
  5
594
330
1F
100
AcDbEntity
  8
0
  6
Continuous
 62
     8
370
    18
100
AcDbLine
 10
69.7580031915
 20
30.9011038712
 30
0.0
 11
69.7580031915
 21
30.5746508546
 31
0.0
  0
LINE
  5
595
330
1F
100
AcDbEntity
  8
0
  6
Continuous
 62
     8
370
    18
100
AcDbLine
 10
211.1793594288
 20
112.5419150534
 30
0.0
 11
69.7580031915
 21
30.9011038712
 31
0.0
  0
LINE
  5
596
330
1F
100
AcDbEntity
  8
0
  6
Continuous
 62
     8
370
    18
100
AcDbLine
 10
69.7578617701
 20
30.5745691872
 30
0.0
 11
69.475160479
 21
30.7377691688
 31
0.0
  0
LINE
  5
597
330
1F
100
AcDbEntity
  8
0
  6
Continuous
 62
     8
370
    18
100
AcDbLine
 10
69.7580032145
 20
30.5746508413
 30
0.0
 11
69.7578617701
 21
30.5745691872
 31
0.0
  0
LINE
  5
598
330
1F
100
AcDbEntity
  8
0
  6
Continuous
 62
     8
370
    18
100
AcDbLine
 10
69.475160479
 20
27.9615304084
 30
0.0
 11
69.7578617701
 21
27.7983304268
 31
0.0
  0
LINE
  5
599
330
1F
100
AcDbEntity
  8
0
  6
Continuous
 62
     8
370
    18
100
AcDbLine
 10
69.7934999519
 20
27.8189039112
 30
0.0
 11
69.7578617701
 21
27.7983304268
 31
0.0
  0
LINE
  5
59A
330
1F
100
AcDbEntity
  8
0
  6
Continuous
 62
     8
370
    18
100
AcDbLine
 10
69.2630284446
 20
27.512576365
 30
0.0
 11
69.2630284446
 21
27.8390293816
 31
0.0
  0
LINE
  5
59B
330
1F
100
AcDbEntity
  8
0
  6
Continuous
 62
     8
370
    18
100
AcDbLine
 10
69.4751604762
 20
27.9614905967
 30
0.0
 11
69.2630284446
 21
27.8390293816
 31
0.0
  0
LINE
  5
59C
330
1F
100
AcDbEntity
  8
0
  6
Continuous
 62
     8
370
    18
100
AcDbLine
 10
69.475160479
 20
29.3085639828
 30
0.0
 11
68.0963022557
 21
28.5125660738
 31
0.0
  0
LINE
  5
59D
330
1F
100
AcDbEntity
  8
0
  6
Continuous
 62
     8
370
    18
100
AcDbLine
 10
68.0963022557
 20
28.5125660738
 30
0.0
 11
68.0963022557
 21
28.1861130572
 31
0.0
  0
LINE
  5
59E
330
1F
100
AcDbEntity
  8
0
  6
Continuous
 62
     8
370
    18
100
AcDbLine
 10
69.7793578163
 20
24.6789574966
 30
0.0
 11
69.4966565251
 21
24.8421574781
 31
0.0
  0
LINE
  5
59F
330
1F
100
AcDbEntity
  8
0
  6
Continuous
 62
     8
370
    18
100
AcDbLine
 10
67.8840288
 20
28.0635303343
 30
0.0
 11
67.6013275089
 21
28.2267302776
 31
0.0
  0
LINE
  5
5A0
330
1F
100
AcDbEntity
  8
0
  6
Continuous
 62
     8
370
    18
100
AcDbLine
 10
67.6013275089
 20
28.0955177981
 30
0.0
 11
67.8840288
 21
27.9323178165
 31
0.0
  0
LINE
  5
5A1
330
1F
100
AcDbEntity
  8
0
  6
Continuous
 62
     8
370
    18
100
AcDbLine
 10
67.9462022557
 20
27.7230959717
 30
0.0
 11
67.7463022557
 21
27.6076586436
 31
0.0
  0
LINE
  5
5A2
330
1F
100
AcDbEntity
  8
0
  6
Continuous
 62
     8
370
    18
100
AcDbLine
 10
67.9104925294
 20
27.3232727483
 30
0.0
 11
68.1103925294
 21
27.4387100764
 31
0.0
  0
LINE
  5
5A3
330
1F
100
AcDbEntity
  8
0
  6
Continuous
 62
     8
370
    18
100
AcDbLine
 10
68.1890307599
 20
26.7035539568
 30
0.0
 11
67.9442042601
 21
27.008115795
 31
0.0
  0
LINE
  5
5A4
330
1F
100
AcDbEntity
  8
0
  6
Continuous
 62
     8
370
    18
100
AcDbLine
 10
67.6676415507
 20
26.6146166663
 30
0.0
 11
67.9124680505
 21
26.3100548281
 31
0.0
  0
LINE
  5
5A5
330
1F
100
AcDbEntity
  8
0
  6
Continuous
 62
     8
370
    18
100
AcDbLine
 10
67.8840288
 20
26.2039096821
 30
0.0
 11
67.6013275089
 21
26.3671096636
 31
0.0
  0
LINE
  5
5A6
330
1F
100
AcDbEntity
  8
0
  6
Continuous
 62
     8
370
    18
100
AcDbLine
 10
67.8840288
 20
24.5604069719
 30
0.0
 11
67.6013275089
 21
24.7236069535
 31
0.0
  0
LINE
  5
5A7
330
1F
100
AcDbEntity
  8
0
  6
Continuous
 62
     8
370
    18
100
AcDbLine
 10
67.8981709356
 20
24.5522428908
 30
0.0
 11
68.1808722267
 21
24.3890429093
 31
0.0
  0
LINE
  5
5A8
330
1F
100
AcDbEntity
  8
0
  6
Continuous
 62
     8
370
    18
100
AcDbLine
 10
67.8252913124
 20
26.8389239998
 30
0.0
 11
67.7017021788
 21
26.7675775116
 31
0.0
  0
LINE
  5
5A9
330
1F
100
AcDbEntity
  8
0
  6
Continuous
 62
     8
370
    18
100
AcDbLine
 10
67.3184847964
 20
22.5110814296
 30
0.0
 11
67.6013275051
 21
22.6743630498
 31
0.0
  0
LINE
  5
5AA
330
1F
100
AcDbEntity
  8
0
  6
Continuous
 62
     8
370
    18
100
AcDbLine
 10
193.7491772725
 20
111.1730023735
 30
0.0
 11
53.7420345976
 21
30.3485993031
 31
0.0
  0
LINE
  5
5AB
330
1F
100
AcDbEntity
  8
0
  6
Continuous
 62
     8
370
    18
100
AcDbLine
 10
194.8805481224
 20
118.0317859533
 30
0.0
 11
53.4591918851
 21
36.390974771
 31
0.0
  0
LINE
  5
5AC
330
1F
100
AcDbEntity
  8
0
  6
Continuous
 62
     8
370
    18
100
AcDbLine
 10
53.4591918851
 20
36.2041668975
 30
0.0
 11
194.8805481224
 21
117.8449780798
 31
0.0
  0
LINE
  5
5AD
330
1F
100
AcDbEntity
  8
0
  6
Continuous
 62
     8
370
    18
100
AcDbLine
 10
53.3588172152
 20
35.0475487569
 30
0.0
 11
194.7801734525
 21
116.6883599392
 31
0.0
  0
LINE
  5
5AE
330
1F
100
AcDbEntity
  8
0
  6
Continuous
 62
     8
370
    18
100
AcDbLine
 10
194.8805481224
 20
116.4222040406
 30
0.0
 11
53.4591918851
 21
34.7813928583
 31
0.0
  0
LINE
  5
5AF
330
1F
100
AcDbEntity
  8
0
  6
Continuous
 62
     8
370
    18
100
AcDbLine
 10
53.4591918851
 20
30.8384972502
 30
0.0
 11
193.4663345601
 21
111.6629003206
 31
0.0
  0
LINE
  5
5B0
330
1F
100
AcDbEntity
  8
0
  6
Continuous
 62
     8
370
    18
100
AcDbLine
 10
126.7859068165
 20
55.2888433562
 30
0.0
 11
127.2101708852
 21
55.0439209227
 31
0.0
  0
LINE
  5
5B1
330
1F
100
AcDbEntity
  8
0
  6
Continuous
 62
     8
370
    18
100
AcDbLine
 10
129.4610605111
 20
56.8968032688
 30
0.0
 11
129.8853245799
 21
56.6518808353
 31
0.0
  0
LINE
  5
5B2
330
1F
100
AcDbEntity
  8
0
  6
Continuous
 62
     8
370
    18
100
AcDbLine
 10
130.3959007256
 20
56.053758591
 30
0.0
 11
130.6984686807
 21
55.8790898284
 31
0.0
  0
LINE
  5
5B3
330
1F
100
AcDbEntity
  8
0
  6
Continuous
 62
     8
370
    18
100
AcDbLine
 10
194.1735103017
 20
110.92804013
 30
0.0
 11
195.1633908349
 21
111.4994859982
 31
0.0
  0
ENDSEC
  0
SECTION
  2
OBJECTS
  0
DICTIONARY
  5
C
330
0
100
AcDbDictionary
281
     1
  3
ACAD_GROUP
350
D
  3
ACAD_LAYOUT
350
1A
  3
ACAD_MLINESTYLE
350
17
  3
ACAD_PLOTSETTINGS
350
19
  3
ACAD_PLOTSTYLENAME
350
E
  3
ACAD_SCALELIST
350
47
  0
DICTIONARY
  5
D
102
{ACAD_REACTORS
330
C
102
}
330
C
100
AcDbDictionary
281
     1
  0
DICTIONARY
  5
1A
102
{ACAD_REACTORS
330
C
102
}
330
C
100
AcDbDictionary
281
     1
  3
Layout1
350
1E
  3
Layout2
350
26
  3
Model
350
22
  0
DICTIONARY
  5
17
102
{ACAD_REACTORS
330
C
102
}
330
C
100
AcDbDictionary
281
     1
  3
Standard
350
18
  0
DICTIONARY
  5
19
102
{ACAD_REACTORS
330
C
102
}
330
C
100
AcDbDictionary
281
     1
  0
ACDBDICTIONARYWDFLT
  5
E
102
{ACAD_REACTORS
330
C
102
}
330
C
100
AcDbDictionary
281
     1
  3
Normal
350
F
100
AcDbDictionaryWithDefault
340
F
  0
DICTIONARY
  5
47
102
{ACAD_REACTORS
330
C
102
}
330
C
100
AcDbDictionary
281
     1
  3
A0
350
48
  3
A1
350
49
  3
A2
350
4A
  3
A3
350
4B
  3
A4
350
4C
  3
A5
350
4D
  3
A6
350
4E
  3
A7
350
4F
  3
A8
350
50
  3
A9
350
51
  3
B0
350
52
  3
B1
350
53
  3
B2
350
54
  3
B3
350
55
  3
B4
350
56
  3
B5
350
57
  3
B6
350
58
  3
B7
350
59
  3
B8
350
5A
  3
B9
350
5B
  3
C0
350
5C
  3
C1
350
5D
  3
C2
350
5E
  3
C3
350
5F
  3
C4
350
60
  3
C5
350
61
  3
C6
350
62
  3
C7
350
63
  3
C8
350
64
  3
C9
350
65
  3
D0
350
66
  3
D1
350
67
  3
D2
350
68
  0
LAYOUT
  5
1E
102
{ACAD_REACTORS
330
1A
102
}
330
1A
100
AcDbPlotSettings
  1

  2
none_device
  4

  6

 40
0.0
 41
0.0
 42
0.0
 43
0.0
 44
0.0
 45
0.0
 46
0.0
 47
0.0
 48
0.0
 49
0.0
140
0.0
141
0.0
142
1.0
143
1.0
 70
   688
 72
     1
 73
     0
 74
     5
  7

 75
    16
147
1.0
148
0.0
149
0.0
100
AcDbLayout
  1
Layout1
 70
     1
 71
     1
 10
0.0
 20
0.0
 11
420.0
 21
297.0
 12
0.0
 22
0.0
 32
0.0
 14
1.0000000000E+20
 24
1.0000000000E+20
 34
1.0000000000E+20
 15
-1.0000000000E+20
 25
-1.0000000000E+20
 35
-1.0000000000E+20
146
0.0
 13
0.0
 23
0.0
 33
0.0
 16
1.0
 26
0.0
 36
0.0
 17
0.0
 27
1.0
 37
0.0
 76
     0
330
1B
  0
LAYOUT
  5
26
102
{ACAD_REACTORS
330
1A
102
}
330
1A
100
AcDbPlotSettings
  1

  2
none_device
  4

  6

 40
0.0
 41
0.0
 42
0.0
 43
0.0
 44
0.0
 45
0.0
 46
0.0
 47
0.0
 48
0.0
 49
0.0
140
0.0
141
0.0
142
1.0
143
1.0
 70
   688
 72
     1
 73
     0
 74
     5
  7

 75
    16
147
1.0
148
0.0
149
0.0
100
AcDbLayout
  1
Layout2
 70
     1
 71
     2
 10
0.0
 20
0.0
 11
0.0
 21
0.0
 12
0.0
 22
0.0
 32
0.0
 14
0.0
 24
0.0
 34
0.0
 15
0.0
 25
0.0
 35
0.0
146
0.0
 13
0.0
 23
0.0
 33
0.0
 16
1.0
 26
0.0
 36
0.0
 17
0.0
 27
1.0
 37
0.0
 76
     0
330
23
  0
LAYOUT
  5
22
102
{ACAD_REACTORS
330
1A
102
}
330
1A
100
AcDbPlotSettings
  1

  2
none_device
  4
Letter_(8.50_x_11.00_Inches)
  6

 40
6.35
 41
6.35
 42
6.35000508
 43
6.35000508
 44
215.9
 45
279.4
 46
0.0
 47
0.0
 48
0.0
 49
0.0
140
0.0
141
0.0
142
1.0
143
1.0
 70
  1712
 72
     1
 73
     0
 74
     0
  7

 75
     0
147
1.0
148
0.0
149
0.0
100
AcDbLayout
  1
Model
 70
     1
 71
     0
 10
0.0
 20
0.0
 11
420.0
 21
297.0
 12
0.0
 22
0.0
 32
0.0
 14
0.0
 24
0.0
 34
0.0
 15
420.0
 25
297.0
 35
0.0
146
0.0
 13
0.0
 23
0.0
 33
0.0
 16
1.0
 26
0.0
 36
0.0
 17
0.0
 27
1.0
 37
0.0
 76
     0
330
1F
331
29
  0
MLINESTYLE
  5
18
102
{ACAD_REACTORS
330
17
102
}
330
17
100
AcDbMlineStyle
  2
Standard
 70
     0
  3

 62
   256
 51
90.0
 52
90.0
 71
     2
 49
0.5
 62
   256
  6
BYLAYER
 49
-0.5
 62
   256
  6
BYLAYER
  0
ACDBPLACEHOLDER
  5
F
102
{ACAD_REACTORS
330
E
102
}
330
E
  0
SCALE
  5
48
102
{ACAD_REACTORS
330
47
102
}
330
47
100
AcDbScale
 70
     0
300
1:1
140
1.0
141
1.0
290
     1
  0
SCALE
  5
49
102
{ACAD_REACTORS
330
47
102
}
330
47
100
AcDbScale
 70
     0
300
1:2
140
1.0
141
2.0
290
     0
  0
SCALE
  5
4A
102
{ACAD_REACTORS
330
47
102
}
330
47
100
AcDbScale
 70
     0
300
1:4
140
1.0
141
4.0
290
     0
  0
SCALE
  5
4B
102
{ACAD_REACTORS
330
47
102
}
330
47
100
AcDbScale
 70
     0
300
1:5
140
1.0
141
5.0
290
     0
  0
SCALE
  5
4C
102
{ACAD_REACTORS
330
47
102
}
330
47
100
AcDbScale
 70
     0
300
1:8
140
1.0
141
8.0
290
     0
  0
SCALE
  5
4D
102
{ACAD_REACTORS
330
47
102
}
330
47
100
AcDbScale
 70
     0
300
1:10
140
1.0
141
10.0
290
     0
  0
SCALE
  5
4E
102
{ACAD_REACTORS
330
47
102
}
330
47
100
AcDbScale
 70
     0
300
1:16
140
1.0
141
16.0
290
     0
  0
SCALE
  5
4F
102
{ACAD_REACTORS
330
47
102
}
330
47
100
AcDbScale
 70
     0
300
1:20
140
1.0
141
20.0
290
     0
  0
SCALE
  5
50
102
{ACAD_REACTORS
330
47
102
}
330
47
100
AcDbScale
 70
     0
300
1:30
140
1.0
141
30.0
290
     0
  0
SCALE
  5
51
102
{ACAD_REACTORS
330
47
102
}
330
47
100
AcDbScale
 70
     0
300
1:40
140
1.0
141
40.0
290
     0
  0
SCALE
  5
52
102
{ACAD_REACTORS
330
47
102
}
330
47
100
AcDbScale
 70
     0
300
1:50
140
1.0
141
50.0
290
     0
  0
SCALE
  5
53
102
{ACAD_REACTORS
330
47
102
}
330
47
100
AcDbScale
 70
     0
300
1:100
140
1.0
141
100.0
290
     0
  0
SCALE
  5
54
102
{ACAD_REACTORS
330
47
102
}
330
47
100
AcDbScale
 70
     0
300
2:1
140
2.0
141
1.0
290
     0
  0
SCALE
  5
55
102
{ACAD_REACTORS
330
47
102
}
330
47
100
AcDbScale
 70
     0
300
4:1
140
4.0
141
1.0
290
     0
  0
SCALE
  5
56
102
{ACAD_REACTORS
330
47
102
}
330
47
100
AcDbScale
 70
     0
300
8:1
140
8.0
141
1.0
290
     0
  0
SCALE
  5
57
102
{ACAD_REACTORS
330
47
102
}
330
47
100
AcDbScale
 70
     0
300
10:1
140
10.0
141
1.0
290
     0
  0
SCALE
  5
58
102
{ACAD_REACTORS
330
47
102
}
330
47
100
AcDbScale
 70
     0
300
100:1
140
100.0
141
1.0
290
     0
  0
SCALE
  5
59
102
{ACAD_REACTORS
330
47
102
}
330
47
100
AcDbScale
 70
     0
300
1/128" = 1'-0"
140
0.0078125
141
12.0
290
     0
  0
SCALE
  5
5A
102
{ACAD_REACTORS
330
47
102
}
330
47
100
AcDbScale
 70
     0
300
1/64" = 1'-0"
140
0.015625
141
12.0
290
     0
  0
SCALE
  5
5B
102
{ACAD_REACTORS
330
47
102
}
330
47
100
AcDbScale
 70
     0
300
1/32" = 1'-0"
140
0.03125
141
12.0
290
     0
  0
SCALE
  5
5C
102
{ACAD_REACTORS
330
47
102
}
330
47
100
AcDbScale
 70
     0
300
1/16" = 1'-0"
140
0.0625
141
12.0
290
     0
  0
SCALE
  5
5D
102
{ACAD_REACTORS
330
47
102
}
330
47
100
AcDbScale
 70
     0
300
3/32" = 1'-0"
140
0.09375
141
12.0
290
     0
  0
SCALE
  5
5E
102
{ACAD_REACTORS
330
47
102
}
330
47
100
AcDbScale
 70
     0
300
1/8" = 1'-0"
140
0.125
141
12.0
290
     0
  0
SCALE
  5
5F
102
{ACAD_REACTORS
330
47
102
}
330
47
100
AcDbScale
 70
     0
300
3/16" = 1'-0"
140
0.1875
141
12.0
290
     0
  0
SCALE
  5
60
102
{ACAD_REACTORS
330
47
102
}
330
47
100
AcDbScale
 70
     0
300
1/4" = 1'-0"
140
0.25
141
12.0
290
     0
  0
SCALE
  5
61
102
{ACAD_REACTORS
330
47
102
}
330
47
100
AcDbScale
 70
     0
300
3/8" = 1'-0"
140
0.375
141
12.0
290
     0
  0
SCALE
  5
62
102
{ACAD_REACTORS
330
47
102
}
330
47
100
AcDbScale
 70
     0
300
1/2" = 1'-0"
140
0.5
141
12.0
290
     0
  0
SCALE
  5
63
102
{ACAD_REACTORS
330
47
102
}
330
47
100
AcDbScale
 70
     0
300
3/4" = 1'-0"
140
0.75
141
12.0
290
     0
  0
SCALE
  5
64
102
{ACAD_REACTORS
330
47
102
}
330
47
100
AcDbScale
 70
     0
300
1" = 1'-0"
140
1.0
141
12.0
290
     0
  0
SCALE
  5
65
102
{ACAD_REACTORS
330
47
102
}
330
47
100
AcDbScale
 70
     0
300
1-1/2" = 1'-0"
140
1.5
141
12.0
290
     0
  0
SCALE
  5
66
102
{ACAD_REACTORS
330
47
102
}
330
47
100
AcDbScale
 70
     0
300
3" = 1'-0"
140
3.0
141
12.0
290
     0
  0
SCALE
  5
67
102
{ACAD_REACTORS
330
47
102
}
330
47
100
AcDbScale
 70
     0
300
6" = 1'-0"
140
6.0
141
12.0
290
     0
  0
SCALE
  5
68
102
{ACAD_REACTORS
330
47
102
}
330
47
100
AcDbScale
 70
     0
300
1'-0" = 1'-0"
140
12.0
141
12.0
290
     0
  0
ENDSEC
  0
EOF
