  0
SECTION
  2
HEADER
  9
$ACADVER
  1
AC1015
  9
$ACADMAINTVER
 70
     6
  9
$DWGCODEPAGE
  3
ANSI_1252
  9
$INSBASE
 10
0.0
 20
0.0
 30
0.0
  9
$EXTMIN
 10
0.0
 20
0.0
 30
0.0
  9
$EXTMAX
 10
420.0
 20
297.0
 30
0.0
  9
$LIMMIN
 10
0.0
 20
0.0
  9
$LIMMAX
 10
420.0
 20
297.0
  9
$ORTHOMODE
 70
     0
  9
$REGENMODE
 70
     1
  9
$FILLMODE
 70
     1
  9
$QTEXTMODE
 70
     0
  9
$MIRRTEXT
 70
     1
  9
$LTSCALE
 40
1.0
  9
$ATTMODE
 70
     1
  9
$TEXTSIZE
 40
3.5
  9
$TRACEWID
 40
1.0
  9
$TEXTSTYLE
  7
Standard
  9
$CLAYER
  8
0
  9
$CELTYPE
  6
ByLayer
  9
$CECOLOR
 62
   256
  9
$CELTSCALE
 40
1.0
  9
$DISPSILH
 70
     0
  9
$DIMSCALE
 40
1.0
  9
$DIMASZ
 40
3.302
  9
$DIMEXO
 40
1.0
  9
$DIMDLI
 40
3.75
  9
$DIMRND
 40
0.0
  9
$DIMDLE
 40
0.0
  9
$DIMEXE
 40
1.0
  9
$DIMTP
 40
0.0
  9
$DIMTM
 40
0.0
  9
$DIMTXT
 40
3.5
  9
$DIMCEN
 40
2.5
  9
$DIMTSZ
 40
0.0
  9
$DIMTOL
 70
     0
  9
$DIMLIM
 70
     0
  9
$DIMTIH
 70
     1
  9
$DIMTOH
 70
     1
  9
$DIMSE1
 70
     0
  9
$DIMSE2
 70
     0
  9
$DIMTAD
 70
     1
  9
$DIMZIN
 70
     0
  9
$DIMBLK
  1

  9
$DIMASO
 70
     1
  9
$DIMSHO
 70
     1
  9
$DIMPOST
  1

  9
$DIMAPOST
  1

  9
$DIMALT
 70
     0
  9
$DIMALTD
 70
     3
  9
$DIMALTF
 40
0.0393700787
  9
$DIMLFAC
 40
2.0
  9
$DIMTOFL
 70
     1
  9
$DIMTVP
 40
0.0
  9
$DIMTIX
 70
     0
  9
$DIMSOXD
 70
     0
  9
$DIMSAH
 70
     0
  9
$DIMBLK1
  1

  9
$DIMBLK2
  1

  9
$DIMSTYLE
  2
ISO-25
  9
$DIMCLRD
 70
     0
  9
$DIMCLRE
 70
     0
  9
$DIMCLRT
 70
     0
  9
$DIMTFAC
 40
1.0
  9
$DIMGAP
 40
1.524
  9
$DIMJUST
 70
     0
  9
$DIMSD1
 70
     0
  9
$DIMSD2
 70
     0
  9
$DIMTOLJ
 70
     0
  9
$DIMTZIN
 70
     0
  9
$DIMALTZ
 70
     0
  9
$DIMALTTZ
 70
     0
  9
$DIMUPT
 70
     0
  9
$DIMDEC
 70
     2
  9
$DIMTDEC
 70
     2
  9
$DIMALTU
 70
     2
  9
$DIMALTTD
 70
     3
  9
$DIMTXSTY
  7
Standard
  9
$DIMAUNIT
 70
     0
  9
$DIMADEC
 70
     2
  9
$DIMALTRND
 40
0.0
  9
$DIMAZIN
 70
     0
  9
$DIMDSEP
 70
    44
  9
$DIMATFIT
 70
     3
  9
$DIMFRAC
 70
     0
  9
$DIMLDRBLK
  1

  9
$DIMLUNIT
 70
     2
  9
$DIMLWD
 70
    -2
  9
$DIMLWE
 70
    -2
  9
$DIMTMOVE
 70
     0
  9
$LUNITS
 70
     2
  9
$LUPREC
 70
     2
  9
$SKETCHINC
 40
1.0
  9
$FILLETRAD
 40
10.0
  9
$AUNITS
 70
     0
  9
$AUPREC
 70
     2
  9
$MENU
  1
.
  9
$ELEVATION
 40
0.0
  9
$PELEVATION
 40
0.0
  9
$THICKNESS
 40
0.0
  9
$LIMCHECK
 70
     0
  9
$CHAMFERA
 40
0.0
  9
$CHAMFERB
 40
0.0
  9
$CHAMFERC
 40
0.0
  9
$CHAMFERD
 40
0.0
  9
$SKPOLY
 70
     0
  9
$TDCREATE
 40
2458289.981400336
  9
$TDUCREATE
 40
2458289.898067002
  9
$TDUPDATE
 40
2458289.98140956
  9
$TDUUPDATE
 40
2458289.898076227
  9
$TDINDWG
 40
0.0000000116
  9
$TDUSRTIMER
 40
0.0000000116
  9
$USRTIMER
 70
     1
  9
$ANGBASE
 50
0.0
  9
$ANGDIR
 70
     0
  9
$PDMODE
 70
     0
  9
$PDSIZE
 40
-1.0
  9
$PLINEWID
 40
0.0
  9
$SPLFRAME
 70
     0
  9
$SPLINETYPE
 70
     6
  9
$SPLINESEGS
 70
     8
  9
$HANDSEED
  5
5A8
  9
$SURFTAB1
 70
     6
  9
$SURFTAB2
 70
     6
  9
$SURFTYPE
 70
     6
  9
$SURFU
 70
     6
  9
$SURFV
 70
     6
  9
$UCSBASE
  2

  9
$UCSNAME
  2

  9
$UCSORG
 10
0.0
 20
0.0
 30
0.0
  9
$UCSXDIR
 10
1.0
 20
0.0
 30
0.0
  9
$UCSYDIR
 10
0.0
 20
1.0
 30
0.0
  9
$UCSORTHOREF
  2

  9
$UCSORTHOVIEW
 70
     0
  9
$UCSORGTOP
 10
0.0
 20
0.0
 30
0.0
  9
$UCSORGBOTTOM
 10
0.0
 20
0.0
 30
0.0
  9
$UCSORGLEFT
 10
0.0
 20
0.0
 30
0.0
  9
$UCSORGRIGHT
 10
0.0
 20
0.0
 30
0.0
  9
$UCSORGFRONT
 10
0.0
 20
0.0
 30
0.0
  9
$UCSORGBACK
 10
0.0
 20
0.0
 30
0.0
  9
$PUCSBASE
  2

  9
$PUCSNAME
  2

  9
$PUCSORG
 10
0.0
 20
0.0
 30
0.0
  9
$PUCSXDIR
 10
1.0
 20
0.0
 30
0.0
  9
$PUCSYDIR
 10
0.0
 20
1.0
 30
0.0
  9
$PUCSORTHOREF
  2

  9
$PUCSORTHOVIEW
 70
     0
  9
$PUCSORGTOP
 10
0.0
 20
0.0
 30
0.0
  9
$PUCSORGBOTTOM
 10
0.0
 20
0.0
 30
0.0
  9
$PUCSORGLEFT
 10
0.0
 20
0.0
 30
0.0
  9
$PUCSORGRIGHT
 10
0.0
 20
0.0
 30
0.0
  9
$PUCSORGFRONT
 10
0.0
 20
0.0
 30
0.0
  9
$PUCSORGBACK
 10
0.0
 20
0.0
 30
0.0
  9
$USERI1
 70
     0
  9
$USERI2
 70
     0
  9
$USERI3
 70
     0
  9
$USERI4
 70
     0
  9
$USERI5
 70
     0
  9
$USERR1
 40
0.0
  9
$USERR2
 40
0.0
  9
$USERR3
 40
0.0
  9
$USERR4
 40
0.0
  9
$USERR5
 40
0.0
  9
$WORLDVIEW
 70
     1
  9
$SHADEDGE
 70
     3
  9
$SHADEDIF
 70
    70
  9
$TILEMODE
 70
     1
  9
$MAXACTVP
 70
    64
  9
$PINSBASE
 10
0.0
 20
0.0
 30
0.0
  9
$PLIMCHECK
 70
     0
  9
$PEXTMIN
 10
1.0000000000E+20
 20
1.0000000000E+20
 30
1.0000000000E+20
  9
$PEXTMAX
 10
-1.0000000000E+20
 20
-1.0000000000E+20
 30
-1.0000000000E+20
  9
$PLIMMIN
 10
0.0
 20
0.0
  9
$PLIMMAX
 10
420.0
 20
297.0
  9
$UNITMODE
 70
     0
  9
$VISRETAIN
 70
     1
  9
$PLINEGEN
 70
     0
  9
$PSLTSCALE
 70
     1
  9
$TREEDEPTH
 70
  3020
  9
$CMLSTYLE
  2
Standard
  9
$CMLJUST
 70
     0
  9
$CMLSCALE
 40
20.0
  9
$PROXYGRAPHICS
 70
     1
  9
$MEASUREMENT
 70
     1
  9
$CELWEIGHT
370
    -1
  9
$ENDCAPS
280
     0
  9
$JOINSTYLE
280
     0
  9
$LWDISPLAY
290
     1
  9
$INSUNITS
 70
     4
  9
$HYPERLINKBASE
  1

  9
$STYLESHEET
  1

  9
$XEDIT
290
     1
  9
$CEPSNTYPE
380
     0
  9
$PSTYLEMODE
290
     1
  9
$FINGERPRINTGUID
  2
{30244B2F-97DB-48AD-B552-C4E84E54DAC4}
  9
$VERSIONGUID
  2
{FAEB1C32-E019-11D5-929B-00C0DF256EC4}
  9
$EXTNAMES
290
     1
  9
$PSVPSCALE
 40
0.0
  9
$OLESTARTUP
290
     0
  0
ENDSEC
  0
SECTION
  2
CLASSES
  0
CLASS
  1
ACDBDICTIONARYWDFLT
  2
AcDbDictionaryWithDefault
  3
ObjectDBX Classes
 90
        0
280
     0
281
     0
  0
CLASS
  1
VISUALSTYLE
  2
AcDbVisualStyle
  3
ObjectDBX Classes
 90
     4095
280
     0
281
     0
  0
CLASS
  1
MATERIAL
  2
AcDbMaterial
  3
ObjectDBX Classes
 90
     1153
280
     0
281
     0
  0
CLASS
  1
SCALE
  2
AcDbScale
  3
ObjectDBX Classes
 90
     1153
280
     0
281
     0
  0
CLASS
  1
TABLESTYLE
  2
AcDbTableStyle
  3
ObjectDBX Classes
 90
     4095
280
     0
281
     0
  0
CLASS
  1
MLEADERSTYLE
  2
AcDbMLeaderStyle
  3
ACDB_MLEADERSTYLE_CLASS
 90
     4095
280
     0
281
     0
  0
CLASS
  1
SUN
  2
AcDbSun
  3
SCENEOE
 90
     1153
280
     0
281
     0
  0
CLASS
  1
ACDBPLACEHOLDER
  2
AcDbPlaceHolder
  3
ObjectDBX Classes
 90
        0
280
     0
281
     0
  0
CLASS
  1
LAYOUT
  2
AcDbLayout
  3
ObjectDBX Classes
 90
        0
280
     0
281
     0
  0
ENDSEC
  0
SECTION
  2
TABLES
  0
TABLE
  2
VPORT
  5
8
330
0
100
AcDbSymbolTable
 70
     1
  0
VPORT
  5
29
330
8
100
AcDbSymbolTableRecord
100
AcDbViewportTableRecord
  2
*Active
 70
     0
 10
0.0
 20
0.0
 11
1.0
 21
1.0
 12
210.0
 22
148.5
 13
0.0
 23
0.0
 14
10.0
 24
10.0
 15
10.0
 25
10.0
 16
0.0
 26
0.0
 36
1.0
 17
0.0
 27
0.0
 37
0.0
 40
297.0
 41
1.4141414141
 42
50.0
 43
0.0
 44
0.0
 50
0.0
 51
0.0
 71
     0
 72
  2000
 73
     1
 74
     3
 75
     0
 76
     0
 77
     0
 78
     0
281
     0
 65
     1
110
0.0
120
0.0
130
0.0
111
1.0
121
0.0
131
0.0
112
0.0
122
1.0
132
0.0
 79
     0
146
0.0
  0
ENDTAB
  0
TABLE
  2
LTYPE
  5
5
330
0
100
AcDbSymbolTable
 70
     6
  0
LTYPE
  5
14
330
5
100
AcDbSymbolTableRecord
100
AcDbLinetypeTableRecord
  2
ByBlock
 70
     0
  3

 72
    65
 73
     0
 40
0.0
  0
LTYPE
  5
15
330
5
100
AcDbSymbolTableRecord
100
AcDbLinetypeTableRecord
  2
ByLayer
 70
     0
  3

 72
    65
 73
     0
 40
0.0
  0
LTYPE
  5
16
330
5
100
AcDbSymbolTableRecord
100
AcDbLinetypeTableRecord
  2
Continuous
 70
     0
  3
Solid line
 72
    65
 73
     0
 40
0.0
  0
LTYPE
  5
6E
330
5
100
AcDbSymbolTableRecord
100
AcDbLinetypeTableRecord
  2
HIDDEN
 70
     0
  3
Hidden __ __ __ __ __ __ __ __ __ __ __ __ __ __
 72
    65
 73
     2
 40
1.905
 49
1.27
 74
     0
 49
-0.635
 74
     0
  0
LTYPE
  5
6F
330
5
100
AcDbSymbolTableRecord
100
AcDbLinetypeTableRecord
  2
PHANTOM
 70
     0
  3
Phantom ______  __  __  ______  __  __  ______
 72
    65
 73
     6
 40
12.7
 49
6.35
 74
     0
 49
-1.27
 74
     0
 49
1.27
 74
     0
 49
-1.27
 74
     0
 49
1.27
 74
     0
 49
-1.27
 74
     0
  0
LTYPE
  5
70
330
5
100
AcDbSymbolTableRecord
100
AcDbLinetypeTableRecord
  2
CENTER
 70
     0
  3
Center ____ _ ____ _ ____ _ ____ _ ____ _ ____
 72
    65
 73
     4
 40
10.16
 49
6.35
 74
     0
 49
-1.27
 74
     0
 49
1.27
 74
     0
 49
-1.27
 74
     0
  0
LTYPE
  5
71
330
5
100
AcDbSymbolTableRecord
100
AcDbLinetypeTableRecord
  2
CENTERX2
 70
     0
  3
Center (2x) ________  __  ________  __  _____
 72
    65
 73
     4
 40
20.32
 49
12.7
 74
     0
 49
-2.54
 74
     0
 49
2.54
 74
     0
 49
-2.54
 74
     0
  0
LTYPE
  5
72
330
5
100
AcDbSymbolTableRecord
100
AcDbLinetypeTableRecord
  2
DOT2
 70
     0
  3
Dot (.5x) ........................................
 72
    65
 73
     2
 40
0.635
 49
0.0
 74
     0
 49
-0.635
 74
     0
  0
ENDTAB
  0
TABLE
  2
LAYER
  5
2
330
0
100
AcDbSymbolTable
 70
    14
  0
LAYER
  5
10
330
2
100
AcDbSymbolTableRecord
100
AcDbLayerTableRecord
  2
0
 70
     0
 62
     7
  6
Continuous
370
    -3
390
F
  0
LAYER
  5
73
330
2
100
AcDbSymbolTableRecord
100
AcDbLayerTableRecord
  2
SLD-0
 70
     0
 62
   179
  6
Continuous
370
    -3
390
F
  0
LAYER
  5
74
330
2
100
AcDbSymbolTableRecord
100
AcDbLayerTableRecord
  2
RAHMEN
 70
     0
 62
     9
  6
Continuous
370
    -3
390
F
  0
LAYER
  5
75
330
2
100
AcDbSymbolTableRecord
100
AcDbLayerTableRecord
  2
ASHADE
 70
     0
 62
   179
  6
Continuous
370
    -3
390
F
  0
LAYER
  5
76
330
2
100
AcDbSymbolTableRecord
100
AcDbLayerTableRecord
  2
SLD-DEFPOINTS
 70
     0
 62
   179
  6
Continuous
370
    -3
390
F
  0
LAYER
  5
77
330
2
100
AcDbSymbolTableRecord
100
AcDbLayerTableRecord
  2
KOPF
 70
     0
 62
     9
  6
Continuous
370
    -3
390
F
  0
LAYER
  5
78
330
2
100
AcDbSymbolTableRecord
100
AcDbLayerTableRecord
  2
VORLAGE_TEXT
 70
     0
 62
     7
  6
Continuous
370
    -3
390
F
  0
LAYER
  5
79
330
2
100
AcDbSymbolTableRecord
100
AcDbLayerTableRecord
  2
VORLAGE_BEMASSUNG
 70
     0
 62
    -5
  6
Continuous
290
     0
370
    -3
390
F
  0
LAYER
  5
7A
330
2
100
AcDbSymbolTableRecord
100
AcDbLayerTableRecord
  2
TEXT
 70
     0
 62
     7
  6
Continuous
370
    -3
390
F
  0
LAYER
  5
7B
330
2
100
AcDbSymbolTableRecord
100
AcDbLayerTableRecord
  2
LINIEN-DICK
 70
     0
 62
     7
  6
Continuous
370
    35
390
F
  0
LAYER
  5
7C
330
2
100
AcDbSymbolTableRecord
100
AcDbLayerTableRecord
  2
LINIEN-NORMAL
 70
     0
 62
     7
  6
Continuous
370
    25
390
F
  0
LAYER
  5
7D
330
2
100
AcDbSymbolTableRecord
100
AcDbLayerTableRecord
  2
LINIEN-DÜNN
 70
     0
 62
     7
  6
Continuous
370
    -3
390
F
  0
LAYER
  5
7E
330
2
100
AcDbSymbolTableRecord
100
AcDbLayerTableRecord
  2
TEXT-DEUTSCH
 70
     0
 62
     7
  6
Continuous
370
    -3
390
F
  0
LAYER
  5
7F
330
2
100
AcDbSymbolTableRecord
100
AcDbLayerTableRecord
  2
TEXT-ENGLISCH
 70
     0
 62
    -7
  6
Continuous
290
     0
370
    -3
390
F
  0
ENDTAB
  0
TABLE
  2
STYLE
  5
3
330
0
100
AcDbSymbolTable
 70
     5
  0
STYLE
  5
11
330
3
100
AcDbSymbolTableRecord
100
AcDbTextStyleTableRecord
  2
Standard
 70
     0
 40
0.0
 41
1.0
 50
0.0
 71
     0
 42
3.5
  3
txt
  4

  0
STYLE
  5
F3
330
3
100
AcDbSymbolTableRecord
100
AcDbTextStyleTableRecord
  2
SLDTEXTSTYLE0
 70
     0
 40
0.0
 41
0.605
 50
0.0
 71
     0
 42
3.5
  3
TXT
  4

  0
STYLE
  5
FB
330
3
100
AcDbSymbolTableRecord
100
AcDbTextStyleTableRecord
  2
SLDTEXTSTYLE1
 70
     0
 40
0.0
 41
0.5715909091
 50
0.0
 71
     0
 42
3.5
  3
TXT
  4

  0
STYLE
  5
153
330
3
100
AcDbSymbolTableRecord
100
AcDbTextStyleTableRecord
  2
SLDTEXTSTYLE2
 70
     0
 40
0.0
 41
0.75
 50
0.0
 71
     0
 42
3.5
  3
TXT
  4

  0
STYLE
  5
1A8
330
3
100
AcDbSymbolTableRecord
100
AcDbTextStyleTableRecord
  2
SLDTEXTSTYLE3
 70
     0
 40
0.0
 41
0.563
 50
0.0
 71
     0
 42
3.5
  3
TXT
  4

  0
ENDTAB
  0
TABLE
  2
VIEW
  5
6
330
0
100
AcDbSymbolTable
 70
     0
  0
ENDTAB
  0
TABLE
  2
UCS
  5
7
330
0
100
AcDbSymbolTable
 70
     0
  0
ENDTAB
  0
TABLE
  2
APPID
  5
9
330
0
100
AcDbSymbolTable
 70
     1
  0
APPID
  5
12
330
9
100
AcDbSymbolTableRecord
100
AcDbRegAppTableRecord
  2
ACAD
 70
     0
  0
ENDTAB
  0
TABLE
  2
DIMSTYLE
  5
A
330
0
100
AcDbSymbolTable
 70
     6
100
AcDbDimStyleTable
  0
DIMSTYLE
105
27
330
A
100
AcDbSymbolTableRecord
100
AcDbDimStyleTableRecord
  2
ISO-25
 70
     0
 41
2.5
 42
0.625
 43
3.75
 44
1.25
 73
     0
 74
     0
 77
     1
 78
     8
140
2.5
141
2.5
143
0.0393700787
147
0.625
171
     3
172
     1
178
     0
271
     2
272
     2
274
     3
278
    44
283
     0
284
     8
340
11
  0
DIMSTYLE
105
243
102
{ACAD_REACTORS
330
242
330
24D
330
257
330
26C
330
278
102
}
330
A
100
AcDbSymbolTableRecord
100
AcDbDimStyleTableRecord
  2
SLDDIMSTYLE0
 70
     0
 41
3.302
 44
0.0
 45
0.000000001
 73
     0
 74
     0
 77
     1
 78
    12
 79
     3
140
3.5
147
0.875
173
     1
178
     0
271
     2
272
     2
276
     2
284
    12
340
153
  0
DIMSTYLE
105
262
102
{ACAD_REACTORS
330
261
102
}
330
A
100
AcDbSymbolTableRecord
100
AcDbDimStyleTableRecord
  2
SLDDIMSTYLE1
 70
     0
 41
3.302
 44
0.0
 45
0.000000001
 73
     0
 74
     0
 77
     1
 78
    12
 79
     3
140
3.5
147
0.875
173
     1
178
     0
271
     0
272
     0
276
     2
284
    12
340
153
  0
DIMSTYLE
105
285
102
{ACAD_REACTORS
330
284
102
}
330
A
100
AcDbSymbolTableRecord
100
AcDbDimStyleTableRecord
  2
SLDDIMSTYLE2
 70
     0
 41
3.302
 44
0.0
 45
0.000000001
 73
     0
 74
     0
 77
     1
 78
    12
 79
     3
140
3.5
147
0.875
172
     1
173
     1
178
     0
271
     2
272
     2
276
     2
284
    12
289
     0
340
153
  0
DIMSTYLE
105
363
102
{ACAD_REACTORS
330
362
102
}
330
A
100
AcDbSymbolTableRecord
100
AcDbDimStyleTableRecord
  2
SLDDIMSTYLE3
 70
     0
 41
3.302
 44
0.0
 45
0.000000001
 73
     0
 74
     0
 77
     1
 78
    12
 79
     3
140
3.5
144
5.0
147
0.875
173
     1
178
     0
271
     2
272
     2
276
     2
284
    12
340
153
  0
DIMSTYLE
105
36E
102
{ACAD_REACTORS
330
36D
102
}
330
A
100
AcDbSymbolTableRecord
100
AcDbDimStyleTableRecord
  2
SLDDIMSTYLE4
 70
     0
 41
3.302
 44
0.0
 45
0.000000001
 73
     0
 74
     0
 77
     1
 78
    12
 79
     3
140
3.5
144
5.0
147
0.875
172
     1
173
     1
178
     0
271
     2
272
     2
276
     2
284
    12
289
     0
340
153
  0
ENDTAB
  0
TABLE
  2
BLOCK_RECORD
  5
1
330
0
100
AcDbSymbolTable
 70
    14
  0
BLOCK_RECORD
  5
1F
330
1
100
AcDbSymbolTableRecord
100
AcDbBlockTableRecord
  2
*Model_Space
340
22
  0
BLOCK_RECORD
  5
1B
330
1
100
AcDbSymbolTableRecord
100
AcDbBlockTableRecord
  2
*Paper_Space
340
1E
  0
BLOCK_RECORD
  5
23
330
1
100
AcDbSymbolTableRecord
100
AcDbBlockTableRecord
  2
*Paper_Space0
340
26
  0
BLOCK_RECORD
  5
80
330
1
100
AcDbSymbolTableRecord
100
AcDbBlockTableRecord
  2
ACO-Logo
340
0
102
{BLKREFS
331
14F
102
}
  0
BLOCK_RECORD
  5
F6
330
1
100
AcDbSymbolTableRecord
100
AcDbBlockTableRecord
  2
SW_NOTE_0
340
0
102
{BLKREFS
331
FE
102
}
  0
BLOCK_RECORD
  5
156
330
1
100
AcDbSymbolTableRecord
100
AcDbBlockTableRecord
  2
SW_NOTE_1
340
0
102
{BLKREFS
331
15B
102
}
  0
BLOCK_RECORD
  5
180
330
1
100
AcDbSymbolTableRecord
100
AcDbBlockTableRecord
  2
SW_NOTE_2
340
0
102
{BLKREFS
331
188
102
}
  0
BLOCK_RECORD
  5
244
330
1
100
AcDbSymbolTableRecord
100
AcDbBlockTableRecord
  2
_D
340
0
  0
BLOCK_RECORD
  5
24E
330
1
100
AcDbSymbolTableRecord
100
AcDbBlockTableRecord
  2
_D_1
340
0
  0
BLOCK_RECORD
  5
258
330
1
100
AcDbSymbolTableRecord
100
AcDbBlockTableRecord
  2
_D_2
340
0
  0
BLOCK_RECORD
  5
263
330
1
100
AcDbSymbolTableRecord
100
AcDbBlockTableRecord
  2
_D_3
340
0
  0
BLOCK_RECORD
  5
26D
330
1
100
AcDbSymbolTableRecord
100
AcDbBlockTableRecord
  2
_D_4
340
0
  0
BLOCK_RECORD
  5
279
330
1
100
AcDbSymbolTableRecord
100
AcDbBlockTableRecord
  2
_D_5
340
0
  0
BLOCK_RECORD
  5
286
330
1
100
AcDbSymbolTableRecord
100
AcDbBlockTableRecord
  2
_D_6
340
0
  0
BLOCK_RECORD
  5
364
330
1
100
AcDbSymbolTableRecord
100
AcDbBlockTableRecord
  2
_D_7
340
0
  0
BLOCK_RECORD
  5
36F
330
1
100
AcDbSymbolTableRecord
100
AcDbBlockTableRecord
  2
_D_8
340
0
  0
ENDTAB
  0
ENDSEC
  0
SECTION
  2
BLOCKS
  0
BLOCK
  5
20
330
1F
100
AcDbEntity
  8
0
100
AcDbBlockBegin
  2
*Model_Space
 70
     0
 10
0.0
 20
0.0
 30
0.0
  3
*Model_Space
  1

  0
ENDBLK
  5
21
330
1F
100
AcDbEntity
  8
0
100
AcDbBlockEnd
  0
BLOCK
  5
1C
330
1B
100
AcDbEntity
 67
     1
  8
0
100
AcDbBlockBegin
  2
*Paper_Space
 70
     0
 10
0.0
 20
0.0
 30
0.0
  3
*Paper_Space
  1

  0
ENDBLK
  5
1D
330
1B
100
AcDbEntity
 67
     1
  8
0
100
AcDbBlockEnd
  0
BLOCK
  5
24
330
23
100
AcDbEntity
  8
0
100
AcDbBlockBegin
  2
*Paper_Space0
 70
     0
 10
0.0
 20
0.0
 30
0.0
  3
*Paper_Space0
  1

  0
ENDBLK
  5
25
330
23
100
AcDbEntity
  8
0
100
AcDbBlockEnd
  0
BLOCK
  5
81
330
80
100
AcDbEntity
  8
0
100
AcDbBlockBegin
  2
ACO-Logo
 70
     0
 10
0.0
 20
0.0
 30
0.0
  3
ACO-Logo
  1

  0
ARC
  5
83
330
80
100
AcDbEntity
  8
0
  6
Continuous
 62
   179
370
    18
100
AcDbCircle
 10
80.3853261169
 20
4.9940995715
 30
0.0
 40
0.3000000000000441
100
AcDbArc
 50
181.9349323096
 51
274.6062978506
  0
ARC
  5
84
330
80
100
AcDbEntity
  8
0
  6
Continuous
 62
   179
370
    18
100
AcDbCircle
 10
81.2359083165
 20
2.1946665956
 30
0.0
 40
1.000000000000021
100
AcDbArc
 50
221.4087409628
 51
276.0561297228
  0
ARC
  5
85
330
80
100
AcDbEntity
  8
0
  6
Continuous
 62
   179
370
    18
100
AcDbCircle
 10
79.1360017163
 20
3.654242048
 30
0.0
 40
0.300000000000004
100
AcDbArc
 50
181.2730300201
 51
274.4996077095
  0
ARC
  5
86
330
80
100
AcDbEntity
  8
0
  6
Continuous
 62
   179
370
    18
100
AcDbCircle
 10
78.7699033484
 20
3.2873137407
 30
0.0
 40
0.4000000000000358
100
AcDbArc
 50
221.0090869016
 51
274.5606296317
  0
ARC
  5
87
330
80
100
AcDbEntity
  8
0
  6
Continuous
 62
   179
370
    18
100
AcDbCircle
 10
91.2333953062
 20
4.6062442307
 30
0.0
 40
0.3000000000000493
100
AcDbArc
 50
274.4996077095
 51
3.7249371334
  0
ARC
  5
88
330
80
100
AcDbEntity
  8
0
  6
Continuous
 62
   179
370
    18
100
AcDbCircle
 10
81.5287571045
 20
9.7648973508
 30
0.0
 40
1.00000000000002
100
AcDbArc
 50
93.1134387481
 51
181.9414863909
  0
ARC
  5
89
330
80
100
AcDbEntity
  8
0
  6
Continuous
 62
   179
370
    18
100
AcDbCircle
 10
81.6051675115
 20
7.5107903456
 30
0.0
 40
1.0
100
AcDbArc
 50
181.9414863909
 51
274.398705355
  0
ARC
  5
8A
330
80
100
AcDbEntity
  8
0
  6
Continuous
 62
   179
370
    18
100
AcDbCircle
 10
80.1506905656
 20
11.9393118923
 30
0.0
 40
0.300000000000045
100
AcDbArc
 50
93.0418421566
 51
181.9349323096
  0
ARC
  5
8B
330
80
100
AcDbEntity
  8
0
  6
Continuous
 62
   179
370
    18
100
AcDbCircle
 10
78.1879722102
 20
12.3499352608
 30
0.0
 40
0.7999999999953393
100
AcDbArc
 50
92.6995697565
 51
148.2554209065
  0
ARC
  5
8C
330
80
100
AcDbEntity
  8
0
  6
Continuous
 62
   179
370
    18
100
AcDbCircle
 10
78.930862229
 20
12.8855189761
 30
0.0
 40
0.3000000000000031
100
AcDbArc
 50
92.6995697565
 51
181.2730300201
  0
ARC
  5
8D
330
80
100
AcDbEntity
  8
0
  6
Continuous
 62
   179
370
    18
100
AcDbCircle
 10
82.327743407
 20
9.8083568568
 30
0.0
 40
1.000000000000034
100
AcDbArc
 50
1.9414863909
 51
93.1134387481
  0
ARC
  5
8E
330
80
100
AcDbEntity
  8
0
  6
Continuous
 62
   179
370
    18
100
AcDbCircle
 10
81.5287571045
 20
9.7648973508
 30
0.0
 40
0.3625000000000009
100
AcDbArc
 50
93.1134387481
 51
181.9414863909
  0
ARC
  5
8F
330
80
100
AcDbEntity
  8
0
  6
Continuous
 62
   179
370
    18
100
AcDbCircle
 10
82.327743407
 20
9.8083568568
 30
0.0
 40
0.3625000000000146
100
AcDbArc
 50
1.9414863909
 51
93.1134387481
  0
ARC
  5
90
330
80
100
AcDbEntity
  8
0
  6
Continuous
 62
   179
370
    18
100
AcDbCircle
 10
82.4035451983
 20
7.5722040138
 30
0.0
 40
1.000000000000008
100
AcDbArc
 50
274.398705355
 51
1.9414863909
  0
ARC
  5
91
330
80
100
AcDbEntity
  8
0
  6
Continuous
 62
   179
370
    18
100
AcDbCircle
 10
82.4035451983
 20
7.5722040138
 30
0.0
 40
0.3625000000000068
100
AcDbArc
 50
274.398705355
 51
1.9414863909
  0
ARC
  5
92
330
80
100
AcDbEntity
  8
0
  6
Continuous
 62
   179
370
    18
100
AcDbCircle
 10
81.6051675115
 20
7.5107903456
 30
0.0
 40
0.3625000000000111
100
AcDbArc
 50
181.9414863909
 51
274.398705355
  0
ARC
  5
93
330
80
100
AcDbEntity
  8
0
  6
Continuous
 62
   179
370
    18
100
AcDbCircle
 10
88.825822761
 20
8.0662148274
 30
0.0
 40
0.9999999999999997
100
AcDbArc
 50
274.398705355
 51
2.6541955134
  0
ARC
  5
94
330
80
100
AcDbEntity
  8
0
  6
Continuous
 62
   179
370
    18
100
AcDbCircle
 10
90.1578295581
 20
5.7814576687
 30
0.0
 40
0.3000000000000043
100
AcDbArc
 50
274.6062978507
 51
2.5147526475
  0
ARC
  5
95
330
80
100
AcDbEntity
  8
0
  6
Continuous
 62
   179
370
    18
100
AcDbCircle
 10
88.825822761
 20
8.0662148274
 30
0.0
 40
0.3625000000000083
100
AcDbArc
 50
274.398705355
 51
2.6541955134
  0
ARC
  5
96
330
80
100
AcDbEntity
  8
0
  6
Continuous
 62
   179
370
    18
100
AcDbCircle
 10
88.728529747
 20
10.16496413
 30
0.0
 40
1.000000000000001
100
AcDbArc
 50
2.6541955134
 51
93.1134387481
  0
ARC
  5
97
330
80
100
AcDbEntity
  8
0
  6
Continuous
 62
   179
370
    18
100
AcDbCircle
 10
88.728529747
 20
10.16496413
 30
0.0
 40
0.3625000000000085
100
AcDbArc
 50
2.6541955134
 51
93.1134387481
  0
ARC
  5
98
330
80
100
AcDbEntity
  8
0
  6
Continuous
 62
   179
370
    18
100
AcDbCircle
 10
89.8647121341
 20
12.455515937
 30
0.0
 40
0.2999999999999984
100
AcDbArc
 50
2.5147526475
 51
93.0418421566
  0
ARC
  5
99
330
80
100
AcDbEntity
  8
0
  6
Continuous
 62
   179
370
    18
100
AcDbCircle
 10
90.6583795404
 20
13.4384863935
 30
0.0
 40
0.2999999999999911
100
AcDbArc
 50
3.7249371334
 51
92.6995697565
  0
CIRCLE
  5
9A
330
80
100
AcDbEntity
  8
0
  6
Continuous
 62
   179
370
    18
100
AcDbCircle
 10
15.7233972286
 20
6.4054930194
 30
0.0
 40
1.579500000000014
  0
CIRCLE
  5
9B
330
80
100
AcDbEntity
  8
0
  6
Continuous
 62
   179
370
    18
100
AcDbCircle
 10
15.7233972286
 20
6.4054930194
 30
0.0
 40
2.281499999999994
  0
ARC
  5
9C
330
80
100
AcDbEntity
  8
0
  6
Continuous
 62
   179
370
    18
100
AcDbCircle
 10
89.7681336026
 20
2.3106616691
 30
0.0
 40
0.098384530246548
100
AcDbArc
 50
332.3802627259
 51
4.9765441602
  0
ARC
  5
9D
330
80
100
AcDbEntity
  8
0
  6
Continuous
 62
   179
370
    18
100
AcDbCircle
 10
89.6886560089
 20
2.3522464185
 30
0.0
 40
0.1880839130754018
100
AcDbArc
 50
303.690067526
 51
332.3802627258
  0
ARC
  5
9E
330
80
100
AcDbEntity
  8
0
  6
Continuous
 62
   179
370
    18
100
AcDbCircle
 10
89.4849700869
 20
2.6577753016
 30
0.0
 40
0.5552839311631531
100
AcDbArc
 50
287.108652213
 51
303.690067526
  0
ARC
  5
9F
330
80
100
AcDbEntity
  8
0
  6
Continuous
 62
   179
370
    18
100
AcDbCircle
 10
88.0513010646
 20
7.3154864882
 30
0.0
 40
5.428648309393203
100
AcDbArc
 50
285.2551187031
 51
287.108652213
  0
ARC
  5
A0
330
80
100
AcDbEntity
  8
0
  6
Continuous
 62
   179
370
    18
100
AcDbCircle
 10
89.1317168954
 20
3.3539617753
 30
0.0
 40
1.322436378825653
100
AcDbArc
 50
281.4991866428
 51
285.255118703
  0
ARC
  5
A1
330
80
100
AcDbEntity
  8
0
  6
Continuous
 62
   179
370
    18
100
AcDbCircle
 10
89.3198255509
 20
2.4293110075
 30
0.0
 40
0.3788454141584939
100
AcDbArc
 50
279.1917900003
 51
281.499186643
  0
ARC
  5
A2
330
80
100
AcDbEntity
  8
0
  6
Continuous
 62
   179
370
    18
100
AcDbCircle
 10
89.0487250788
 20
4.1046569124
 30
0.0
 40
2.07598399629105
100
AcDbArc
 50
277.7634675038
 51
279.1917900002
  0
ARC
  5
A3
330
80
100
AcDbEntity
  8
0
  6
Continuous
 62
   179
370
    18
100
AcDbCircle
 10
9.2588909915
 20
6.4054930194
 30
0.0
 40
1.579500000000074
100
AcDbArc
 50
31.0558004991
 51
330.0
  0
ARC
  5
A4
330
80
100
AcDbEntity
  8
0
  6
Continuous
 62
   179
370
    18
100
AcDbCircle
 10
9.2588909915
 20
6.4054930194
 30
0.0
 40
2.281500000000107
100
AcDbArc
 50
30.7309172659
 51
330.0
  0
ARC
  5
A5
330
80
100
AcDbEntity
  8
0
  6
Continuous
 62
   179
370
    18
100
AcDbCircle
 10
6.1288847544
 20
4.0685261312
 30
0.0
 40
4.914000000000307
100
AcDbArc
 50
172.3058370354
 51
179.7113029221
  0
ARC
  5
A6
330
80
100
AcDbEntity
  8
0
  6
Continuous
 62
   179
370
    18
100
AcDbCircle
 10
-0.5401152456
 20
4.0685261312
 30
0.0
 40
4.91400000000019
100
AcDbArc
 50
0.2886970779
 51
7.6941629646
  0
ARC
  5
A7
330
80
100
AcDbEntity
  8
0
  6
Continuous
 62
   179
370
    18
100
AcDbCircle
 10
-0.5401152456
 20
4.0685261312
 30
0.0
 40
5.616000000000127
100
AcDbArc
 50
0.2526096926
 51
53.5764263577
  0
ARC
  5
A8
330
80
100
AcDbEntity
  8
0
  6
Continuous
 62
   179
370
    18
100
AcDbCircle
 10
6.1288847544
 20
4.0685261312
 30
0.0
 40
5.61600000000074
100
AcDbArc
 50
126.4235736423
 51
179.7473903073
  0
ARC
  5
A9
330
80
100
AcDbEntity
  8
0
  6
Continuous
 62
   179
370
    18
100
AcDbCircle
 10
-0.5401152456
 20
4.0685261312
 30
0.0
 40
4.914000000000161
100
AcDbArc
 50
16.0658750272
 51
47.2678899574
  0
ARC
  5
AA
330
80
100
AcDbEntity
  8
0
  6
Continuous
 62
   179
370
    18
100
AcDbCircle
 10
6.1288847544
 20
4.0685261312
 30
0.0
 40
4.914000000000584
100
AcDbArc
 50
132.7321100426
 51
163.9341249728
  0
LINE
  5
AB
330
80
100
AcDbEntity
  8
0
  6
Continuous
 62
   179
370
    18
100
AcDbLine
 10
78.8017089389
 20
2.8885802402
 30
0.0
 11
90.7982178739
 21
3.8455002136
 31
0.0
  0
LINE
  5
AC
330
80
100
AcDbEntity
  8
0
  6
Continuous
 62
   179
370
    18
100
AcDbLine
 10
76.6545490427
 20
5.8693097374
 30
0.0
 11
78.0344191726
 21
3.5235305166
 31
0.0
  0
LINE
  5
AD
330
80
100
AcDbEntity
  8
0
  6
Continuous
 62
   179
370
    18
100
AcDbLine
 10
91.5327615373
 20
4.6257342197
 30
0.0
 11
90.9577457715
 21
13.4579763825
 31
0.0
  0
LINE
  5
AE
330
80
100
AcDbEntity
  8
0
  6
Continuous
 62
   179
370
    18
100
AcDbLine
 10
78.6309362756
 20
12.8788539549
 30
0.0
 11
78.8360757629
 21
3.6475770268
 31
0.0
  0
LINE
  5
AF
330
80
100
AcDbEntity
  8
0
  6
Continuous
 62
   179
370
    18
100
AcDbLine
 10
80.4094186633
 20
4.6950685544
 30
0.0
 11
90.1819221045
 21
5.4824266516
 31
0.0
  0
LINE
  5
B0
330
80
100
AcDbEntity
  8
0
  6
Continuous
 62
   179
370
    18
100
AcDbLine
 10
79.1595373973
 20
3.3551666867
 30
0.0
 11
91.2569309872
 21
4.3071688694
 31
0.0
  0
LINE
  5
B1
330
80
100
AcDbEntity
  8
0
  6
Continuous
 62
   179
370
    18
100
AcDbLine
 10
79.2585043218
 20
2.925017226
 30
0.0
 11
80.4858981444
 21
1.533240302
 31
0.0
  0
LINE
  5
B2
330
80
100
AcDbEntity
  8
0
  6
Continuous
 62
   179
370
    18
100
AcDbLine
 10
78.0344191726
 20
3.5235305166
 30
0.0
 11
78.3638740472
 21
3.1446574108
 31
0.0
  0
LINE
  5
B3
330
80
100
AcDbEntity
  8
0
  6
Continuous
 62
   179
370
    18
100
AcDbLine
 10
78.3638740472
 20
3.1446574108
 30
0.0
 11
78.4680611395
 21
3.0248422547
 31
0.0
  0
LINE
  5
B4
330
80
100
AcDbEntity
  8
0
  6
Continuous
 62
   179
370
    18
100
AcDbLine
 10
81.3414110113
 20
1.2002475785
 30
0.0
 11
89.3291569519
 21
2.0477010263
 31
0.0
  0
LINE
  5
B5
330
80
100
AcDbEntity
  8
0
  6
Continuous
 62
   179
370
    18
100
AcDbLine
 10
89.8661472522
 20
2.5197759309
 30
0.0
 11
89.8661472522
 21
2.3090867337
 31
0.0
  0
LINE
  5
B6
330
80
100
AcDbEntity
  8
0
  6
Continuous
 62
   179
370
    18
100
AcDbLine
 10
88.676842368
 20
3.6762854359
 30
0.0
 11
89.6713239345
 21
2.7875997807
 31
0.0
  0
LINE
  5
B7
330
80
100
AcDbEntity
  8
0
  6
Continuous
 62
   179
370
    18
100
AcDbLine
 10
89.6713239345
 20
2.7875997807
 30
0.0
 11
89.7459749087
 21
2.7242700694
 31
0.0
  0
LINE
  5
B8
330
80
100
AcDbEntity
  8
0
  6
Continuous
 62
   179
370
    18
100
AcDbLine
 10
90.7982178739
 20
3.8455002136
 30
0.0
 11
91.3961615969
 21
4.3514525945
 31
0.0
  0
LINE
  5
B9
330
80
100
AcDbEntity
  8
0
  6
Continuous
 62
   179
370
    18
100
AcDbLine
 10
90.6442498554
 20
13.7381534621
 30
0.0
 11
78.1502930503
 21
13.1490474438
 31
0.0
  0
LINE
  5
BA
330
80
100
AcDbEntity
  8
0
  6
Continuous
 62
   179
370
    18
100
AcDbLine
 10
80.1347709981
 20
12.2388892068
 30
0.0
 11
89.8487925667
 21
12.7550932515
 31
0.0
  0
LINE
  5
BB
330
80
100
AcDbEntity
  8
0
  6
Continuous
 62
   179
370
    18
100
AcDbLine
 10
76.4935641943
 20
11.7567556248
 30
0.0
 11
76.6545490427
 21
5.8693097374
 31
0.0
  0
LINE
  5
BC
330
80
100
AcDbEntity
  8
0
  6
Continuous
 62
   179
370
    18
100
AcDbLine
 10
79.8508616208
 20
11.929182536
 30
0.0
 11
80.0854971721
 21
4.9839702153
 31
0.0
  0
LINE
  5
BD
330
80
100
AcDbEntity
  8
0
  6
Continuous
 62
   179
370
    18
100
AcDbLine
 10
80.5293311574
 20
9.7310185051
 30
0.0
 11
80.6057415643
 21
7.4769115
 31
0.0
  0
LINE
  5
BE
330
80
100
AcDbEntity
  8
0
  6
Continuous
 62
   179
370
    18
100
AcDbLine
 10
77.507650604
 20
12.7708420346
 30
0.0
 11
76.4935641943
 21
11.7567556248
 31
0.0
  0
LINE
  5
BF
330
80
100
AcDbEntity
  8
0
  6
Continuous
 62
   179
370
    18
100
AcDbLine
 10
86.8848195129
 20
11.0661568594
 30
0.0
 11
88.6742167283
 21
11.1634880887
 31
0.0
  0
LINE
  5
C0
330
80
100
AcDbEntity
  8
0
  6
Continuous
 62
   179
370
    18
100
AcDbLine
 10
87.0766213517
 20
6.9287171941
 30
0.0
 11
88.90708891
 21
7.0695223909
 31
0.0
  0
LINE
  5
C1
330
80
100
AcDbEntity
  8
0
  6
Continuous
 62
   179
370
    18
100
AcDbLine
 10
87.6830038473
 20
7.6147347768
 30
0.0
 11
88.8536252418
 21
7.7047825764
 31
0.0
  0
LINE
  5
C2
330
80
100
AcDbEntity
  8
0
  6
Continuous
 62
   179
370
    18
100
AcDbLine
 10
87.5509212094
 20
10.4639459651
 30
0.0
 11
88.7088412777
 21
10.5269290651
 31
0.0
  0
LINE
  5
C3
330
80
100
AcDbEntity
  8
0
  6
Continuous
 62
   179
370
    18
100
AcDbLine
 10
87.0766218384
 20
6.9287066941
 30
0.0
 11
86.8848195129
 21
11.0661568594
 31
0.0
  0
LINE
  5
C4
330
80
100
AcDbEntity
  8
0
  6
Continuous
 62
   179
370
    18
100
AcDbLine
 10
83.7004598825
 20
6.6667911093
 30
0.0
 11
84.5054929504
 21
10.9267193262
 31
0.0
  0
LINE
  5
C5
330
80
100
AcDbEntity
  8
0
  6
Continuous
 62
   179
370
    18
100
AcDbLine
 10
85.3543248406
 20
10.9728900984
 30
0.0
 11
86.4940946704
 21
6.8816860929
 31
0.0
  0
LINE
  5
C6
330
80
100
AcDbEntity
  8
0
  6
Continuous
 62
   179
370
    18
100
AcDbLine
 10
84.9728575427
 20
9.9667192298
 30
0.0
 11
85.4540299774
 21
8.2395506903
 31
0.0
  0
LINE
  5
C7
330
80
100
AcDbEntity
  8
0
  6
Continuous
 62
   179
370
    18
100
AcDbLine
 10
84.6363094629
 20
8.1858350416
 30
0.0
 11
84.9728575427
 21
9.9667192298
 31
0.0
  0
LINE
  5
C8
330
80
100
AcDbEntity
  8
0
  6
Continuous
 62
   179
370
    18
100
AcDbLine
 10
87.6830038473
 20
7.6147347768
 30
0.0
 11
87.5509212094
 21
10.4639459651
 31
0.0
  0
LINE
  5
C9
330
80
100
AcDbEntity
  8
0
  6
Continuous
 62
   179
370
    18
100
AcDbLine
 10
84.6363094629
 20
8.1858350416
 30
0.0
 11
85.4540299774
 21
8.2395506903
 31
0.0
  0
LINE
  5
CA
330
80
100
AcDbEntity
  8
0
  6
Continuous
 62
   179
370
    18
100
AcDbLine
 10
84.5140586807
 20
7.5389304886
 30
0.0
 11
85.6288154243
 21
7.6121582976
 31
0.0
  0
LINE
  5
CB
330
80
100
AcDbEntity
  8
0
  6
Continuous
 62
   179
370
    18
100
AcDbLine
 10
84.3588137958
 20
6.717433718
 30
0.0
 11
84.5140586807
 21
7.5389304886
 31
0.0
  0
LINE
  5
CC
330
80
100
AcDbEntity
  8
0
  6
Continuous
 62
   179
370
    18
100
AcDbLine
 10
81.6818640104
 20
6.5137358601
 30
0.0
 11
82.4802416972
 21
6.5751495283
 31
0.0
  0
LINE
  5
CD
330
80
100
AcDbEntity
  8
0
  6
Continuous
 62
   179
370
    18
100
AcDbLine
 10
81.6329699923
 20
7.1493580946
 30
0.0
 11
82.4313476791
 21
7.2107717628
 31
0.0
  0
LINE
  5
CE
330
80
100
AcDbEntity
  8
0
  6
Continuous
 62
   179
370
    18
100
AcDbLine
 10
83.7004598825
 20
6.6667911093
 30
0.0
 11
84.3588137958
 21
6.717433718
 31
0.0
  0
LINE
  5
CF
330
80
100
AcDbEntity
  8
0
  6
Continuous
 62
   179
370
    18
100
AcDbLine
 10
82.7059483815
 20
9.3512024135
 30
0.0
 11
83.3423973297
 21
9.3930104243
 31
0.0
  0
LINE
  5
D0
330
80
100
AcDbEntity
  8
0
  6
Continuous
 62
   179
370
    18
100
AcDbLine
 10
82.7491656358
 20
8.0762934118
 30
0.0
 11
83.385614584
 21
8.1181014226
 31
0.0
  0
LINE
  5
D1
330
80
100
AcDbEntity
  8
0
  6
Continuous
 62
   179
370
    18
100
AcDbLine
 10
81.1664651987
 20
9.7526162692
 30
0.0
 11
81.2428756056
 21
7.4985092641
 31
0.0
  0
LINE
  5
D2
330
80
100
AcDbEntity
  8
0
  6
Continuous
 62
   179
370
    18
100
AcDbLine
 10
82.6900353128
 20
9.8206379383
 30
0.0
 11
82.7052632884
 21
9.3714126602
 31
0.0
  0
LINE
  5
D3
330
80
100
AcDbEntity
  8
0
  6
Continuous
 62
   179
370
    18
100
AcDbLine
 10
82.7491656358
 20
8.0762934118
 30
0.0
 11
82.7658371041
 21
7.5844850954
 31
0.0
  0
LINE
  5
D4
330
80
100
AcDbEntity
  8
0
  6
Continuous
 62
   179
370
    18
100
AcDbLine
 10
83.3271693541
 20
9.8422357024
 30
0.0
 11
83.3423973297
 21
9.3930104243
 31
0.0
  0
LINE
  5
D5
330
80
100
AcDbEntity
  8
0
  6
Continuous
 62
   179
370
    18
100
AcDbLine
 10
83.385614584
 20
8.1181014226
 30
0.0
 11
83.4029711454
 21
7.6060828595
 31
0.0
  0
LINE
  5
D6
330
80
100
AcDbEntity
  8
0
  6
Continuous
 62
   179
370
    18
100
AcDbLine
 10
85.6288154243
 20
7.6121582976
 30
0.0
 11
85.8462022593
 21
6.8318482152
 31
0.0
  0
LINE
  5
D7
330
80
100
AcDbEntity
  8
0
  6
Continuous
 62
   179
370
    18
100
AcDbLine
 10
85.8462022593
 20
6.8318482152
 30
0.0
 11
86.4940946704
 21
6.8816860929
 31
0.0
  0
LINE
  5
D8
330
80
100
AcDbEntity
  8
0
  6
Continuous
 62
   179
370
    18
100
AcDbLine
 10
84.5054929504
 20
10.9267193262
 30
0.0
 11
85.3543248406
 21
10.9728900984
 31
0.0
  0
LINE
  5
D9
330
80
100
AcDbEntity
  8
0
  6
Continuous
 62
   179
370
    18
100
AcDbLine
 10
81.4744440858
 20
10.7634213094
 30
0.0
 11
82.2734303883
 21
10.8068808154
 31
0.0
  0
LINE
  5
DA
330
80
100
AcDbEntity
  8
0
  6
Continuous
 62
   179
370
    18
100
AcDbLine
 10
81.5090686352
 20
10.1268622858
 30
0.0
 11
82.3080549377
 21
10.1703217918
 31
0.0
  0
LINE
  5
DB
330
80
100
AcDbEntity
  8
0
  6
Continuous
 62
   179
370
    18
100
AcDbLine
 10
90.4575406452
 20
5.7946206556
 30
0.0
 11
90.1644232213
 21
12.4686789239
 31
0.0
  0
LINE
  5
DC
330
80
100
AcDbEntity
  8
0
  6
Continuous
 62
   179
370
    18
100
AcDbLine
 10
89.8247499755
 20
8.1125227115
 30
0.0
 11
89.7274569615
 21
10.2112720142
 31
0.0
  0
LINE
  5
DD
330
80
100
AcDbEntity
  8
0
  6
Continuous
 62
   179
370
    18
100
AcDbLine
 10
89.1879338763
 20
8.0830014354
 30
0.0
 11
89.0906408622
 21
10.181750738
 31
0.0
  0
LINE
  5
DE
330
80
100
AcDbEntity
  8
0
  6
Continuous
 62
   179
370
    18
100
AcDbLine
 10
89.7459749087
 20
2.7242700694
 30
0.0
 11
89.7974962577
 21
2.6659765769
 31
0.0
  0
LINE
  5
DF
330
80
100
AcDbEntity
  8
0
  6
Continuous
 62
   179
370
    18
100
AcDbLine
 10
89.7974962577
 20
2.6659765769
 30
0.0
 11
89.8351851379
 21
2.60192886
 31
0.0
  0
LINE
  5
E0
330
80
100
AcDbEntity
  8
0
  6
Continuous
 62
   179
370
    18
100
AcDbLine
 10
89.8351851379
 20
2.60192886
 30
0.0
 11
89.8661472522
 21
2.5197759309
 31
0.0
  0
LINE
  5
E1
330
80
100
AcDbEntity
  8
0
  6
Continuous
 62
   179
370
    18
100
AcDbLine
 10
10.6119938288
 20
7.2203138351
 30
0.0
 11
11.2200151261
 21
7.5713550947
 31
0.0
  0
LINE
  5
E2
330
80
100
AcDbEntity
  8
0
  6
Continuous
 62
   179
370
    18
100
AcDbLine
 10
11.2347279503
 20
5.2647430194
 30
0.0
 11
10.6267781168
 21
5.6157430194
 31
0.0
  0
LINE
  5
E3
330
80
100
AcDbEntity
  8
0
  6
Continuous
 62
   179
370
    18
100
AcDbLine
 10
6.4645062371
 20
16.1712617198
 30
0.0
 11
6.4645062371
 21
2.9364593988
 31
0.0
  0
LINE
  5
E4
330
80
100
AcDbEntity
  8
0
  6
Continuous
 62
   179
370
    18
100
AcDbLine
 10
6.4645062371
 20
2.9364593988
 30
0.0
 11
12.0532757459
 21
2.9364593988
 31
0.0
  0
LINE
  5
E5
330
80
100
AcDbEntity
  8
0
  6
Continuous
 62
   179
370
    18
100
AcDbLine
 10
12.0532757459
 20
2.9364593988
 30
0.0
 11
12.0532757459
 21
16.1712617198
 31
0.0
  0
LINE
  5
E6
330
80
100
AcDbEntity
  8
0
  6
Continuous
 62
   179
370
    18
100
AcDbLine
 10
12.0532757459
 20
16.1712617198
 30
0.0
 11
6.4645062371
 21
16.1712617198
 31
0.0
  0
LINE
  5
E7
330
80
100
AcDbEntity
  8
0
  6
Continuous
 62
   179
370
    18
100
AcDbLine
 10
0.0
 20
16.1712617198
 30
0.0
 11
0.0
 21
2.9364593988
 31
0.0
  0
LINE
  5
E8
330
80
100
AcDbEntity
  8
0
  6
Continuous
 62
   179
370
    18
100
AcDbLine
 10
0.0
 20
2.9364593988
 30
0.0
 11
5.5887695089
 21
2.9364593988
 31
0.0
  0
LINE
  5
E9
330
80
100
AcDbEntity
  8
0
  6
Continuous
 62
   179
370
    18
100
AcDbLine
 10
5.5887695089
 20
2.9364593988
 30
0.0
 11
5.5887695089
 21
16.1712617198
 31
0.0
  0
LINE
  5
EA
330
80
100
AcDbEntity
  8
0
  6
Continuous
 62
   179
370
    18
100
AcDbLine
 10
5.5887695089
 20
16.1712617198
 30
0.0
 11
0.0
 21
16.1712617198
 31
0.0
  0
LINE
  5
EB
330
80
100
AcDbEntity
  8
0
  6
Continuous
 62
   179
370
    18
100
AcDbLine
 10
1.2591262606
 20
4.7264381407
 30
0.0
 11
4.3296432482
 21
4.7264381407
 31
0.0
  0
LINE
  5
EC
330
80
100
AcDbEntity
  8
0
  6
Continuous
 62
   179
370
    18
100
AcDbLine
 10
4.3738223747
 20
4.0932862697
 30
0.0
 11
5.0758301722
 21
4.0932862697
 31
0.0
  0
LINE
  5
ED
330
80
100
AcDbEntity
  8
0
  6
Continuous
 62
   179
370
    18
100
AcDbLine
 10
0.5129393366
 20
4.0932862697
 30
0.0
 11
1.2149471342
 21
4.0932862697
 31
0.0
  0
LINE
  5
EE
330
80
100
AcDbEntity
  8
0
  6
Continuous
 62
   179
370
    18
100
AcDbLine
 10
4.1819643097
 20
5.4284381407
 30
0.0
 11
1.4068051992
 21
5.4284381407
 31
0.0
  0
LINE
  5
EF
330
80
100
AcDbEntity
  8
0
  6
Continuous
 62
   179
370
    18
100
AcDbLine
 10
18.517781983
 20
16.1712617198
 30
0.0
 11
18.517781983
 21
2.9364593988
 31
0.0
  0
LINE
  5
F0
330
80
100
AcDbEntity
  8
0
  6
Continuous
 62
   179
370
    18
100
AcDbLine
 10
18.517781983
 20
2.9364593988
 30
0.0
 11
12.9290124742
 21
2.9364593988
 31
0.0
  0
LINE
  5
F1
330
80
100
AcDbEntity
  8
0
  6
Continuous
 62
   179
370
    18
100
AcDbLine
 10
12.9290124742
 20
2.9364593988
 30
0.0
 11
12.9290124742
 21
16.1712617198
 31
0.0
  0
LINE
  5
F2
330
80
100
AcDbEntity
  8
0
  6
Continuous
 62
   179
370
    18
100
AcDbLine
 10
12.9290124742
 20
16.1712617198
 30
0.0
 11
18.517781983
 21
16.1712617198
 31
0.0
  0
MTEXT
  5
F4
330
80
100
AcDbEntity
  8
0
  6
Continuous
 62
     7
370
     0
100
AcDbMText
 10
9.3686441161
 20
2.2554789353
 30
0.0
 40
2.0
 41
0.0
 71
     2
 72
     1
  1
www.aco.ch
  7
SLDTEXTSTYLE0
 73
     1
 44
1.0
  0
MTEXT
  5
F5
330
80
100
AcDbEntity
  8
0
  6
Continuous
 62
     7
370
     0
100
AcDbMText
 10
46.980584205
 20
16.6131199634
 30
0.0
 40
3.0
 41
0.0
 71
     2
 72
     1
  1
ACO Passavant AG
  7
SLDTEXTSTYLE0
 73
     1
 44
1.0
  0
INSERT
  5
FE
330
80
100
AcDbEntity
  8
0
  6
Continuous
 62
     7
370
     0
100
AcDbBlockReference
  2
SW_NOTE_0
 10
28.8863479825
 20
8.6365742194
 30
0.0
  0
ENDBLK
  5
82
330
80
100
AcDbEntity
  8
0
100
AcDbBlockEnd
  0
BLOCK
  5
F7
330
F6
100
AcDbEntity
  8
0
100
AcDbBlockBegin
  2
SW_NOTE_0
 70
     0
 10
0.0
 20
0.0
 30
0.0
  3
SW_NOTE_0
  1

  0
MTEXT
  5
F9
330
F6
100
AcDbEntity
  8
0
  6
Continuous
 62
     0
370
     0
100
AcDbMText
 10
0.0
 20
2.5781354795
 30
0.0
 40
2.0
 41
0.0
 71
     1
 72
     1
  1
Industrie Kleinzaun
  7
SLDTEXTSTYLE0
 73
     1
 44
1.0
  0
MTEXT
  5
FA
330
F6
100
AcDbEntity
  8
0
  6
Continuous
 62
     0
370
     0
100
AcDbMText
 10
0.0
 20
-0.4218645465
 30
0.0
 40
2.0
 41
0.0
 71
     1
 72
     1
  1
CH-8754 Netstal
  7
SLDTEXTSTYLE0
 73
     1
 44
1.0
  0
MTEXT
  5
FC
330
F6
100
AcDbEntity
  8
0
  6
Continuous
 62
     0
370
     0
100
AcDbMText
 10
0.0
 20
-3.4218645726
 30
0.0
 40
2.0
 41
0.0
 71
     1
 72
     1
  1
Tel. 055 / 645 53 00  -  Fax 055 / 645 53 10
  7
SLDTEXTSTYLE1
 73
     1
 44
1.0
  0
MTEXT
  5
FD
330
F6
100
AcDbEntity
  8
0
  6
Continuous
 62
     0
370
     0
100
AcDbMText
 10
0.0
 20
-6.4218645987
 30
0.0
 40
2.0
 41
0.0
 71
     1
 72
     1
  1
E-Mail: aco@aco.ch
  7
SLDTEXTSTYLE0
 73
     1
 44
1.0
  0
ENDBLK
  5
F8
330
F6
100
AcDbEntity
  8
0
100
AcDbBlockEnd
  0
BLOCK
  5
157
330
156
100
AcDbEntity
  8
0
100
AcDbBlockBegin
  2
SW_NOTE_1
 70
     0
 10
0.0
 20
0.0
 30
0.0
  3
SW_NOTE_1
  1

  0
MTEXT
  5
159
330
156
100
AcDbEntity
  8
SLD-0
 62
     0
100
AcDbMText
 10
0.0
 20
4.5117370892
 30
0.0
 40
3.5
 41
0.0
 71
     1
 72
     1
  1
- mit verzinketer Stahlzarge
  7
SLDTEXTSTYLE2
 73
     1
 44
1.0
  0
MTEXT
  5
15A
330
156
100
AcDbEntity
  8
SLD-0
 62
     0
100
AcDbMText
 10
0.0
 20
-0.0139574413
 30
0.0
 40
3.5
 41
0.0
 71
     1
 72
     1
  1
- Allgemeintoleranzen ISO 2768-m
  7
SLDTEXTSTYLE2
 73
     1
 44
1.0
  0
ENDBLK
  5
158
330
156
100
AcDbEntity
  8
0
100
AcDbBlockEnd
  0
BLOCK
  5
181
330
180
100
AcDbEntity
  8
0
100
AcDbBlockBegin
  2
SW_NOTE_2
 70
     0
 10
0.0
 20
0.0
 30
0.0
  3
SW_NOTE_2
  1

  0
MTEXT
  5
183
330
180
100
AcDbEntity
  8
0
  6
Continuous
 62
     0
370
     0
100
AcDbMText
 10
0.0
 20
1.9336016097
 30
0.0
 40
1.5
 41
0.0
 71
     1
 72
     1
  1
Diese Zeichnung darf weder kopiert
  7
SLDTEXTSTYLE0
 73
     1
 44
1.0
  0
MTEXT
  5
184
330
180
100
AcDbEntity
  8
0
  6
Continuous
 62
     0
370
     0
100
AcDbMText
 10
0.0
 20
-0.5663983345
 30
0.0
 40
1.5
 41
0.0
 71
     1
 72
     1
  1
noch dritten Personen, insbesondere
  7
SLDTEXTSTYLE0
 73
     1
 44
1.0
  0
MTEXT
  5
185
330
180
100
AcDbEntity
  8
0
  6
Continuous
 62
     0
370
     0
100
AcDbMText
 10
0.0
 20
-3.0663982786
 30
0.0
 40
1.5
 41
0.0
 71
     1
 72
     1
  1
zum Zweck anderweitiger Benutzung
  7
SLDTEXTSTYLE0
 73
     1
 44
1.0
  0
MTEXT
  5
186
330
180
100
AcDbEntity
  8
0
  6
Continuous
 62
     0
370
     0
100
AcDbMText
 10
0.0
 20
-5.5663982227
 30
0.0
 40
1.5
 41
0.0
 71
     1
 72
     1
  1
mitgeteilt werden und bleibt unser
  7
SLDTEXTSTYLE0
 73
     1
 44
1.0
  0
MTEXT
  5
187
330
180
100
AcDbEntity
  8
0
  6
Continuous
 62
     0
370
     0
100
AcDbMText
 10
0.0
 20
-8.0663981668
 30
0.0
 40
1.5
 41
0.0
 71
     1
 72
     1
  1
Eigentum.
  7
SLDTEXTSTYLE0
 73
     1
 44
1.0
  0
ENDBLK
  5
182
330
180
100
AcDbEntity
  8
0
100
AcDbBlockEnd
  0
BLOCK
  5
245
330
244
100
AcDbEntity
  8
0
100
AcDbBlockBegin
  2
_D
 70
     0
 10
0.0
 20
0.0
 30
0.0
  3
_D
  1

  0
SOLID
  5
247
330
244
100
AcDbEntity
  8
SLD-0
100
AcDbTrace
 10
55.2292913721
 20
227.6859548109
 30
0.0
 11
58.5312913721
 21
227.1779548109
 31
0.0
 12
58.5312913721
 22
228.1939548109
 32
0.0
 13
58.5312913721
 23
228.1939548109
 33
0.0
  0
SOLID
  5
248
330
244
100
AcDbEntity
  8
SLD-0
100
AcDbTrace
 10
190.2292913721
 20
227.6859548109
 30
0.0
 11
186.9272913721
 21
228.1939548109
 31
0.0
 12
186.9272913721
 22
227.1779548109
 32
0.0
 13
186.9272913721
 23
227.1779548109
 33
0.0
  0
LINE
  5
249
330
244
100
AcDbEntity
  8
SLD-0
100
AcDbLine
 10
55.2292913721
 20
206.9397254677
 30
0.0
 11
55.2292913721
 21
228.6859548109
 31
0.0
  0
LINE
  5
24A
330
244
100
AcDbEntity
  8
SLD-0
100
AcDbLine
 10
190.2292913721
 20
206.9397254677
 30
0.0
 11
190.2292913721
 21
228.6859548109
 31
0.0
  0
LINE
  5
24B
330
244
100
AcDbEntity
  8
SLD-0
100
AcDbLine
 10
55.2292913721
 20
227.6859548109
 30
0.0
 11
190.2292913721
 21
227.6859548109
 31
0.0
  0
MTEXT
  5
24C
330
244
100
AcDbEntity
  8
SLD-0
100
AcDbMText
 10
118.8501246982
 20
232.1976917255
 30
0.0
 40
3.5
 41
0.0
 71
     1
 72
     1
  1
135
  7
SLDTEXTSTYLE2
 73
     1
 44
1.0
  0
ENDBLK
  5
246
330
244
100
AcDbEntity
  8
0
100
AcDbBlockEnd
  0
BLOCK
  5
24F
330
24E
100
AcDbEntity
  8
0
100
AcDbBlockBegin
  2
_D_1
 70
     0
 10
0.0
 20
0.0
 30
0.0
  3
_D_1
  1

  0
SOLID
  5
251
330
24E
100
AcDbEntity
  8
SLD-0
100
AcDbTrace
 10
59.4792913721
 20
218.0138830697
 30
0.0
 11
62.7812913721
 21
217.5058830697
 31
0.0
 12
62.7812913721
 22
218.5218830697
 32
0.0
 13
62.7812913721
 23
218.5218830697
 33
0.0
  0
SOLID
  5
252
330
24E
100
AcDbEntity
  8
SLD-0
100
AcDbTrace
 10
185.9792913721
 20
218.0138830697
 30
0.0
 11
182.6772913721
 21
218.5218830697
 31
0.0
 12
182.6772913721
 22
217.5058830697
 32
0.0
 13
182.6772913721
 23
217.5058830697
 33
0.0
  0
LINE
  5
253
330
24E
100
AcDbEntity
  8
SLD-0
100
AcDbLine
 10
59.4792913721
 20
207.0138830697
 30
0.0
 11
59.4792913721
 21
219.0138830697
 31
0.0
  0
LINE
  5
254
330
24E
100
AcDbEntity
  8
SLD-0
100
AcDbLine
 10
185.9792913721
 20
207.0138830697
 30
0.0
 11
185.9792913721
 21
219.0138830697
 31
0.0
  0
LINE
  5
255
330
24E
100
AcDbEntity
  8
SLD-0
100
AcDbLine
 10
59.4792913721
 20
218.0138830697
 30
0.0
 11
185.9792913721
 21
218.0138830697
 31
0.0
  0
MTEXT
  5
256
330
24E
100
AcDbEntity
  8
SLD-0
100
AcDbMText
 10
118.8501246982
 20
222.5256199842
 30
0.0
 40
3.5
 41
0.0
 71
     1
 72
     1
  1
127
  7
SLDTEXTSTYLE2
 73
     1
 44
1.0
  0
ENDBLK
  5
250
330
24E
100
AcDbEntity
  8
0
100
AcDbBlockEnd
  0
BLOCK
  5
259
330
258
100
AcDbEntity
  8
0
100
AcDbBlockBegin
  2
_D_2
 70
     0
 10
0.0
 20
0.0
 30
0.0
  3
_D_2
  1

  0
SOLID
  5
25B
330
258
100
AcDbEntity
  8
SLD-0
100
AcDbTrace
 10
72.7292913721
 20
207.9786879141
 30
0.0
 11
76.0312913721
 21
207.4706879141
 31
0.0
 12
76.0312913721
 22
208.4866879141
 32
0.0
 13
76.0312913721
 23
208.4866879141
 33
0.0
  0
SOLID
  5
25C
330
258
100
AcDbEntity
  8
SLD-0
100
AcDbTrace
 10
172.7292913721
 20
207.9786879141
 30
0.0
 11
169.4272913721
 21
208.4866879141
 31
0.0
 12
169.4272913721
 22
207.4706879141
 32
0.0
 13
169.4272913721
 23
207.4706879141
 33
0.0
  0
LINE
  5
25D
330
258
100
AcDbEntity
  8
SLD-0
100
AcDbLine
 10
72.7292913721
 20
173.6266954735
 30
0.0
 11
72.7292913721
 21
208.9786879141
 31
0.0
  0
LINE
  5
25E
330
258
100
AcDbEntity
  8
SLD-0
100
AcDbLine
 10
172.7292913721
 20
173.6266954735
 30
0.0
 11
172.7292913721
 21
208.9786879141
 31
0.0
  0
LINE
  5
25F
330
258
100
AcDbEntity
  8
SLD-0
100
AcDbLine
 10
72.7292913721
 20
207.9786879141
 30
0.0
 11
172.7292913721
 21
207.9786879141
 31
0.0
  0
MTEXT
  5
260
330
258
100
AcDbEntity
  8
SLD-0
100
AcDbMText
 10
118.8501246982
 20
212.4904248287
 30
0.0
 40
3.5
 41
0.0
 71
     1
 72
     1
  1
100
  7
SLDTEXTSTYLE2
 73
     1
 44
1.0
  0
ENDBLK
  5
25A
330
258
100
AcDbEntity
  8
0
100
AcDbBlockEnd
  0
BLOCK
  5
264
330
263
100
AcDbEntity
  8
0
100
AcDbBlockBegin
  2
_D_3
 70
     0
 10
0.0
 20
0.0
 30
0.0
  3
_D_3
  1

  0
SOLID
  5
266
330
263
100
AcDbEntity
  8
SLD-0
100
AcDbTrace
 10
50.4236769134
 20
187.5138830697
 30
0.0
 11
50.9316769134
 21
190.8158830697
 31
0.0
 12
49.9156769134
 22
190.8158830697
 32
0.0
 13
49.9156769134
 23
190.8158830697
 33
0.0
  0
SOLID
  5
267
330
263
100
AcDbEntity
  8
SLD-0
100
AcDbTrace
 10
50.4236769134
 20
208.0138830697
 30
0.0
 11
49.9156769134
 21
204.7118830697
 31
0.0
 12
50.9316769134
 22
204.7118830697
 32
0.0
 13
50.9316769134
 23
204.7118830697
 33
0.0
  0
LINE
  5
268
330
263
100
AcDbEntity
  8
SLD-0
100
AcDbLine
 10
59.9792913721
 20
187.5138830697
 30
0.0
 11
49.4236769134
 21
187.5138830697
 31
0.0
  0
LINE
  5
269
330
263
100
AcDbEntity
  8
SLD-0
100
AcDbLine
 10
56.4792913721
 20
208.0138830697
 30
0.0
 11
49.4236769134
 21
208.0138830697
 31
0.0
  0
LINE
  5
26A
330
263
100
AcDbEntity
  8
SLD-0
100
AcDbLine
 10
50.4236769134
 20
187.5138830697
 30
0.0
 11
50.4236769134
 21
208.0138830697
 31
0.0
  0
MTEXT
  5
26B
330
263
100
AcDbEntity
  8
SLD-0
100
AcDbMText
 10
45.9119399988
 20
195.1777718761
 30
0.0
 40
3.5
 41
0.0
 71
     1
 72
     1
  1
21
  7
SLDTEXTSTYLE2
 11
6.123233995736766E-17
 21
1.0
 31
0.0
 73
     1
 44
1.0
  0
ENDBLK
  5
265
330
263
100
AcDbEntity
  8
0
100
AcDbBlockEnd
  0
BLOCK
  5
26E
330
26D
100
AcDbEntity
  8
0
100
AcDbBlockBegin
  2
_D_4
 70
     0
 10
0.0
 20
0.0
 30
0.0
  3
_D_4
  1

  0
ARC
  5
270
330
26D
100
AcDbEntity
  8
SLD-0
100
AcDbCircle
 10
36.4511663765
 20
185.984521809
 30
0.0
 40
6.2120763399956
100
AcDbArc
 50
243.4349488229
 51
296.5650511771
  0
ARC
  5
271
330
26D
100
AcDbEntity
  8
SLD-0
100
AcDbCircle
 10
36.4511663765
 20
180.0442442139
 30
0.0
 40
6.2120763399956
100
AcDbArc
 50
63.4349488229
 51
116.5650511771
  0
SOLID
  5
272
330
26D
100
AcDbEntity
  8
SLD-0
100
AcDbTrace
 10
39.2292913721
 20
158.0148830697
 30
0.0
 11
39.7372913721
 21
161.3168830697
 31
0.0
 12
38.7212913721
 22
161.3168830697
 32
0.0
 13
38.7212913721
 23
161.3168830697
 33
0.0
  0
SOLID
  5
273
330
26D
100
AcDbEntity
  8
SLD-0
100
AcDbTrace
 10
39.2292913721
 20
208.0138830697
 30
0.0
 11
38.7212913721
 21
204.7118830697
 31
0.0
 12
39.7372913721
 22
204.7118830697
 32
0.0
 13
39.7372913721
 23
204.7118830697
 33
0.0
  0
LINE
  5
274
330
26D
100
AcDbEntity
  8
SLD-0
100
AcDbLine
 10
73.7292913721
 20
158.0148830697
 30
0.0
 11
38.2292913721
 21
158.0148830697
 31
0.0
  0
LINE
  5
275
330
26D
100
AcDbEntity
  8
SLD-0
100
AcDbLine
 10
56.303448974
 20
208.0138830697
 30
0.0
 11
38.2292913721
 21
208.0138830697
 31
0.0
  0
LINE
  5
276
330
26D
100
AcDbEntity
  8
SLD-0
100
AcDbLine
 10
39.2292913721
 20
158.0148830697
 30
0.0
 11
39.2292913721
 21
208.0138830697
 31
0.0
  0
MTEXT
  5
277
330
26D
100
AcDbEntity
  8
SLD-0
100
AcDbMText
 10
34.7175544575
 20
180.4282718179
 30
0.0
 40
3.5
 41
0.0
 71
     1
 72
     1
  1
50
  7
SLDTEXTSTYLE2
 11
6.123233995736766E-17
 21
1.0
 31
0.0
 73
     1
 44
1.0
  0
ENDBLK
  5
26F
330
26D
100
AcDbEntity
  8
0
100
AcDbBlockEnd
  0
BLOCK
  5
27A
330
279
100
AcDbEntity
  8
0
100
AcDbBlockBegin
  2
_D_5
 70
     0
 10
0.0
 20
0.0
 30
0.0
  3
_D_5
  1

  0
ARC
  5
27C
330
279
100
AcDbEntity
  8
SLD-0
100
AcDbCircle
 10
24.969129239
 20
180.984521809
 30
0.0
 40
6.2120763399956
100
AcDbArc
 50
243.4349488229
 51
296.5650511771
  0
ARC
  5
27D
330
279
100
AcDbEntity
  8
SLD-0
100
AcDbCircle
 10
24.969129239
 20
175.0442442139
 30
0.0
 40
6.2120763399956
100
AcDbArc
 50
63.4349488229
 51
116.5650511771
  0
SOLID
  5
27E
330
279
100
AcDbEntity
  8
SLD-0
100
AcDbTrace
 10
27.7472542345
 20
148.0148830697
 30
0.0
 11
28.2552542345
 21
151.3168830697
 31
0.0
 12
27.2392542345
 22
151.3168830697
 32
0.0
 13
27.2392542345
 23
151.3168830697
 33
0.0
  0
SOLID
  5
27F
330
279
100
AcDbEntity
  8
SLD-0
100
AcDbTrace
 10
27.7472542345
 20
208.0138830697
 30
0.0
 11
27.2392542345
 21
204.7118830697
 31
0.0
 12
28.2552542345
 22
204.7118830697
 32
0.0
 13
28.2552542345
 23
204.7118830697
 33
0.0
  0
LINE
  5
280
330
279
100
AcDbEntity
  8
SLD-0
100
AcDbLine
 10
54.2292913721
 20
148.0148830697
 30
0.0
 11
26.7472542345
 21
148.0148830697
 31
0.0
  0
LINE
  5
281
330
279
100
AcDbEntity
  8
SLD-0
100
AcDbLine
 10
56.303448974
 20
208.0138830697
 30
0.0
 11
26.7472542345
 21
208.0138830697
 31
0.0
  0
LINE
  5
282
330
279
100
AcDbEntity
  8
SLD-0
100
AcDbLine
 10
27.7472542345
 20
148.0148830697
 30
0.0
 11
27.7472542345
 21
208.0138830697
 31
0.0
  0
MTEXT
  5
283
330
279
100
AcDbEntity
  8
SLD-0
100
AcDbMText
 10
23.2355173199
 20
175.4282718179
 30
0.0
 40
3.5
 41
0.0
 71
     1
 72
     1
  1
60
  7
SLDTEXTSTYLE2
 11
6.123233995736766E-17
 21
1.0
 31
0.0
 73
     1
 44
1.0
  0
ENDBLK
  5
27B
330
279
100
AcDbEntity
  8
0
100
AcDbBlockEnd
  0
BLOCK
  5
287
330
286
100
AcDbEntity
  8
0
100
AcDbBlockBegin
  2
_D_6
 70
     0
 10
0.0
 20
0.0
 30
0.0
  3
_D_6
  1

  0
SOLID
  5
289
330
286
100
AcDbEntity
  8
SLD-0
100
AcDbTrace
 10
39.2292913721
 20
158.0148830697
 30
0.0
 11
39.7372913721
 21
161.3168830697
 31
0.0
 12
38.7212913721
 22
161.3168830697
 32
0.0
 13
38.7212913721
 23
161.3168830697
 33
0.0
  0
SOLID
  5
28A
330
286
100
AcDbEntity
  8
SLD-0
100
AcDbTrace
 10
39.2292913721
 20
148.0148830697
 30
0.0
 11
38.7212913721
 21
144.7128830697
 31
0.0
 12
39.7372913721
 22
144.7128830697
 32
0.0
 13
39.7372913721
 23
144.7128830697
 33
0.0
  0
LINE
  5
28B
330
286
100
AcDbEntity
  8
SLD-0
100
AcDbLine
 10
73.7292913721
 20
158.0148830697
 30
0.0
 11
38.2292913721
 21
158.0148830697
 31
0.0
  0
LINE
  5
28C
330
286
100
AcDbEntity
  8
SLD-0
100
AcDbLine
 10
54.2292913721
 20
148.0148830697
 30
0.0
 11
38.2292913721
 21
148.0148830697
 31
0.0
  0
LINE
  5
28D
330
286
100
AcDbEntity
  8
SLD-0
100
AcDbLine
 10
39.2292913721
 20
158.0148830697
 30
0.0
 11
39.2292913721
 21
164.3648830697
 31
0.0
  0
LINE
  5
28E
330
286
100
AcDbEntity
  8
SLD-0
100
AcDbLine
 10
39.2292913721
 20
158.0148830697
 30
0.0
 11
39.2292913721
 21
148.0148830697
 31
0.0
  0
LINE
  5
28F
330
286
100
AcDbEntity
  8
SLD-0
100
AcDbLine
 10
39.2292913721
 20
148.0148830697
 30
0.0
 11
39.2292913721
 21
141.6648830697
 31
0.0
  0
MTEXT
  5
290
330
286
100
AcDbEntity
  8
SLD-0
100
AcDbMText
 10
34.7175544575
 20
150.4287718761
 30
0.0
 40
3.5
 41
0.0
 71
     1
 72
     1
  1
10
  7
SLDTEXTSTYLE2
 11
-7.044195017643634E-15
 21
1.0
 31
0.0
 73
     1
 44
1.0
  0
ENDBLK
  5
288
330
286
100
AcDbEntity
  8
0
100
AcDbBlockEnd
  0
BLOCK
  5
365
330
364
100
AcDbEntity
  8
0
100
AcDbBlockBegin
  2
_D_7
 70
     0
 10
0.0
 20
0.0
 30
0.0
  3
_D_7
  1

  0
SOLID
  5
367
330
364
100
AcDbEntity
  8
SLD-0
100
AcDbTrace
 10
198.5911115347
 20
192.1222085429
 30
0.0
 11
201.8931115347
 21
191.6142085429
 31
0.0
 12
201.8931115347
 22
192.6302085429
 32
0.0
 13
201.8931115347
 23
192.6302085429
 33
0.0
  0
SOLID
  5
368
330
364
100
AcDbEntity
  8
SLD-0
100
AcDbTrace
 10
398.5911115347
 20
192.1222085429
 30
0.0
 11
395.2891115347
 21
192.6302085429
 31
0.0
 12
395.2891115347
 22
191.6142085429
 32
0.0
 13
395.2891115347
 23
191.6142085429
 33
0.0
  0
LINE
  5
369
330
364
100
AcDbEntity
  8
SLD-0
100
AcDbLine
 10
198.5911115347
 20
185.0142830697
 30
0.0
 11
198.5911115347
 21
193.1222085429
 31
0.0
  0
LINE
  5
36A
330
364
100
AcDbEntity
  8
SLD-0
100
AcDbLine
 10
398.5911115347
 20
185.0142830697
 30
0.0
 11
398.5911115347
 21
193.1222085429
 31
0.0
  0
LINE
  5
36B
330
364
100
AcDbEntity
  8
SLD-0
100
AcDbLine
 10
198.5911115347
 20
192.1222085429
 30
0.0
 11
398.5911115347
 21
192.1222085429
 31
0.0
  0
MTEXT
  5
36C
330
364
100
AcDbEntity
  8
SLD-0
100
AcDbMText
 10
293.4188891477
 20
196.6339454575
 30
0.0
 40
3.5
 41
0.0
 71
     1
 72
     1
  1
1000
  7
SLDTEXTSTYLE2
 73
     1
 44
1.0
  0
ENDBLK
  5
366
330
364
100
AcDbEntity
  8
0
100
AcDbBlockEnd
  0
BLOCK
  5
370
330
36F
100
AcDbEntity
  8
0
100
AcDbBlockBegin
  2
_D_8
 70
     0
 10
0.0
 20
0.0
 30
0.0
  3
_D_8
  1

  0
SOLID
  5
372
330
36F
100
AcDbEntity
  8
SLD-0
100
AcDbTrace
 10
407.3338721486
 20
184.0142830697
 30
0.0
 11
407.8418721486
 21
187.3162830697
 31
0.0
 12
406.8258721486
 22
187.3162830697
 32
0.0
 13
406.8258721486
 23
187.3162830697
 33
0.0
  0
SOLID
  5
373
330
36F
100
AcDbEntity
  8
SLD-0
100
AcDbTrace
 10
407.3338721486
 20
172.0144830697
 30
0.0
 11
406.8258721486
 21
168.7124830697
 31
0.0
 12
407.8418721486
 22
168.7124830697
 32
0.0
 13
407.8418721486
 23
168.7124830697
 33
0.0
  0
LINE
  5
374
330
36F
100
AcDbEntity
  8
SLD-0
100
AcDbLine
 10
399.5911115347
 20
184.0142830697
 30
0.0
 11
408.3338721486
 21
184.0142830697
 31
0.0
  0
LINE
  5
375
330
36F
100
AcDbEntity
  8
SLD-0
100
AcDbLine
 10
401.1911115347
 20
172.0144830697
 30
0.0
 11
408.3338721486
 21
172.0144830697
 31
0.0
  0
LINE
  5
376
330
36F
100
AcDbEntity
  8
SLD-0
100
AcDbLine
 10
407.3338721486
 20
184.0142830697
 30
0.0
 11
407.3338721486
 21
190.3642830697
 31
0.0
  0
LINE
  5
377
330
36F
100
AcDbEntity
  8
SLD-0
100
AcDbLine
 10
407.3338721486
 20
184.0142830697
 30
0.0
 11
407.3338721486
 21
172.0144830697
 31
0.0
  0
LINE
  5
378
330
36F
100
AcDbEntity
  8
SLD-0
100
AcDbLine
 10
407.3338721486
 20
172.0144830697
 30
0.0
 11
407.3338721486
 21
165.6644830697
 31
0.0
  0
MTEXT
  5
379
330
36F
100
AcDbEntity
  8
SLD-0
100
AcDbMText
 10
402.822135234
 20
175.4282718761
 30
0.0
 40
3.5
 41
0.0
 71
     1
 72
     1
  1
60
  7
SLDTEXTSTYLE2
 11
-7.044195017643634E-15
 21
1.0
 31
0.0
 73
     1
 44
1.0
  0
ENDBLK
  5
371
330
36F
100
AcDbEntity
  8
0
100
AcDbBlockEnd
  0
ENDSEC
  0
SECTION
  2
ENTITIES
  0
LINE
  5
FF
330
1F
100
AcDbEntity
  8
LINIEN-DÜNN
  6
CENTERX2
100
AcDbLine
 10
352.6174545849
 20
46.9080238789
 30
0.0
 11
352.6174545849
 21
39.4621586124
 31
0.0
  0
LINE
  5
100
330
1F
100
AcDbEntity
  8
LINIEN-DÜNN
100
AcDbLine
 10
357.7661698132
 20
46.3720107039
 30
0.0
 11
357.7661698132
 21
39.9353173413
 31
0.0
  0
LINE
  5
101
330
1F
100
AcDbEntity
  8
LINIEN-DÜNN
100
AcDbLine
 10
364.6059427486
 20
44.7376225767
 30
0.0
 11
364.6059427486
 21
41.5697054685
 31
0.0
  0
LINE
  5
102
330
1F
100
AcDbEntity
  8
LINIEN-DÜNN
100
AcDbLine
 10
364.6059427486
 20
44.7376225767
 30
0.0
 11
357.7661698132
 21
46.3720107039
 31
0.0
  0
LINE
  5
103
330
1F
100
AcDbEntity
  8
LINIEN-DÜNN
100
AcDbLine
 10
15.0
 20
198.5
 30
0.0
 11
20.0
 21
198.5
 31
0.0
  0
LINE
  5
104
330
1F
100
AcDbEntity
  8
LINIEN-DÜNN
100
AcDbLine
 10
12.0
 20
148.5
 30
0.0
 11
0.0
 21
148.5
 31
0.0
  0
LINE
  5
105
330
1F
100
AcDbEntity
  8
LINIEN-DÜNN
100
AcDbLine
 10
357.7661698132
 20
39.9353173413
 30
0.0
 11
364.6059427486
 21
41.5697054685
 31
0.0
  0
LINE
  5
106
330
1F
100
AcDbEntity
  8
LINIEN-DÜNN
  6
CENTERX2
100
AcDbLine
 10
348.6240467841
 20
43.1536640226
 30
0.0
 11
356.6108623857
 21
43.1536640226
 31
0.0
  0
LINE
  5
107
330
1F
100
AcDbEntity
  8
LINIEN-DÜNN
  6
CENTERX2
100
AcDbLine
 10
357.1289238876
 20
43.1536640226
 30
0.0
 11
365.6255362296
 21
43.1536640226
 31
0.0
  0
LINE
  5
108
330
1F
100
AcDbEntity
  8
LINIEN-DÜNN
100
AcDbLine
 10
0.0
 20
0.0
 30
0.0
 11
420.0
 21
0.0
 31
0.0
  0
LINE
  5
109
330
1F
100
AcDbEntity
  8
LINIEN-DÜNN
100
AcDbLine
 10
0.0
 20
0.0
 30
0.0
 11
0.0
 21
297.0
 31
0.0
  0
LINE
  5
10A
330
1F
100
AcDbEntity
  8
LINIEN-DÜNN
100
AcDbLine
 10
0.0
 20
297.0
 30
0.0
 11
420.0
 21
297.0
 31
0.0
  0
LINE
  5
10B
330
1F
100
AcDbEntity
  8
LINIEN-DÜNN
100
AcDbLine
 10
420.0
 20
0.0
 30
0.0
 11
420.0
 21
297.0
 31
0.0
  0
LINE
  5
10C
330
1F
100
AcDbEntity
  8
LINIEN-NORMAL
100
AcDbLine
 10
228.0
 20
35.0
 30
0.0
 11
410.0
 21
35.0
 31
0.0
  0
LINE
  5
10D
330
1F
100
AcDbEntity
  8
LINIEN-DÜNN
100
AcDbLine
 10
410.0
 20
198.5
 30
0.0
 11
415.0
 21
198.5
 31
0.0
  0
LINE
  5
10E
330
1F
100
AcDbEntity
  8
LINIEN-DÜNN
100
AcDbLine
 10
15.0
 20
148.5
 30
0.0
 11
20.0
 21
148.5
 31
0.0
  0
LINE
  5
10F
330
1F
100
AcDbEntity
  8
LINIEN-DÜNN
100
AcDbLine
 10
228.0
 20
40.0
 30
0.0
 11
296.6
 21
40.0
 31
0.0
  0
LINE
  5
110
330
1F
100
AcDbEntity
  8
LINIEN-DÜNN
100
AcDbLine
 10
15.0
 20
248.5
 30
0.0
 11
20.0
 21
248.5
 31
0.0
  0
LINE
  5
111
330
1F
100
AcDbEntity
  8
LINIEN-DICK
100
AcDbLine
 10
20.0
 20
287.0
 30
0.0
 11
20.0
 21
10.0
 31
0.0
  0
LINE
  5
112
330
1F
100
AcDbEntity
  8
LINIEN-DICK
100
AcDbLine
 10
410.0
 20
287.0
 30
0.0
 11
20.0
 21
287.0
 31
0.0
  0
LINE
  5
113
330
1F
100
AcDbEntity
  8
LINIEN-DICK
100
AcDbLine
 10
410.0
 20
5.0
 30
0.0
 11
410.0
 21
287.0
 31
0.0
  0
LINE
  5
114
330
1F
100
AcDbEntity
  8
LINIEN-DICK
100
AcDbLine
 10
20.0
 20
10.0
 30
0.0
 11
415.0
 21
10.0
 31
0.0
  0
LINE
  5
115
330
1F
100
AcDbEntity
  8
LINIEN-DÜNN
100
AcDbLine
 10
410.0
 20
148.5
 30
0.0
 11
415.0
 21
148.5
 31
0.0
  0
LINE
  5
116
330
1F
100
AcDbEntity
  8
LINIEN-DÜNN
100
AcDbLine
 10
228.0
 20
50.0
 30
0.0
 11
296.6
 21
50.0
 31
0.0
  0
LINE
  5
117
330
1F
100
AcDbEntity
  8
LINIEN-DÜNN
100
AcDbLine
 10
15.0
 20
98.5
 30
0.0
 11
20.0
 21
98.5
 31
0.0
  0
LINE
  5
118
330
1F
100
AcDbEntity
  8
LINIEN-DÜNN
100
AcDbLine
 10
296.6
 20
45.0
 30
0.0
 11
228.0
 21
45.0
 31
0.0
  0
LINE
  5
119
330
1F
100
AcDbEntity
  8
LINIEN-DÜNN
100
AcDbLine
 10
65.0
 20
292.0
 30
0.0
 11
65.0
 21
287.0
 31
0.0
  0
LINE
  5
11A
330
1F
100
AcDbEntity
  8
LINIEN-DÜNN
100
AcDbLine
 10
230.0
 20
292.0
 30
0.0
 11
230.0
 21
297.0
 31
0.0
  0
LINE
  5
11B
330
1F
100
AcDbEntity
  8
LINIEN-NORMAL
100
AcDbLine
 10
296.6
 20
55.0
 30
0.0
 11
296.6
 21
35.0
 31
0.0
  0
LINE
  5
11C
330
1F
100
AcDbEntity
  8
LINIEN-DÜNN
100
AcDbLine
 10
410.0
 20
98.5
 30
0.0
 11
415.0
 21
98.5
 31
0.0
  0
LINE
  5
11D
330
1F
100
AcDbEntity
  8
VORLAGE_BEMASSUNG
100
AcDbLine
 10
230.0
 20
5.0
 30
0.0
 11
230.0
 21
0.0
 31
0.0
  0
LINE
  5
11E
330
1F
100
AcDbEntity
  8
LINIEN-DÜNN
100
AcDbLine
 10
125.0
 20
292.0
 30
0.0
 11
125.0
 21
297.0
 31
0.0
  0
LINE
  5
11F
330
1F
100
AcDbEntity
  8
LINIEN-DÜNN
100
AcDbLine
 10
125.0
 20
5.0
 30
0.0
 11
125.0
 21
0.0
 31
0.0
  0
LINE
  5
120
330
1F
100
AcDbEntity
  8
LINIEN-NORMAL
100
AcDbLine
 10
410.0
 20
55.0
 30
0.0
 11
228.0
 21
55.0
 31
0.0
  0
LINE
  5
121
330
1F
100
AcDbEntity
  8
LINIEN-DÜNN
100
AcDbLine
 10
228.0
 20
55.0
 30
0.0
 11
410.0
 21
55.0
 31
0.0
  0
LINE
  5
122
330
1F
100
AcDbEntity
  8
LINIEN-DÜNN
100
AcDbLine
 10
410.0
 20
55.0
 30
0.0
 11
228.0
 21
55.0
 31
0.0
  0
LINE
  5
123
330
1F
100
AcDbEntity
  8
LINIEN-DÜNN
100
AcDbLine
 10
268.0
 20
76.5
 30
0.0
 11
268.0
 21
55.0
 31
0.0
  0
LINE
  5
124
330
1F
100
AcDbEntity
  8
LINIEN-DÜNN
100
AcDbLine
 10
271.6
 20
55.0
 30
0.0
 11
271.6
 21
40.0
 31
0.0
  0
LINE
  5
125
330
1F
100
AcDbEntity
  8
LINIEN-DÜNN
100
AcDbLine
 10
247.0
 20
55.0
 30
0.0
 11
247.0
 21
35.0
 31
0.0
  0
LINE
  5
126
330
1F
100
AcDbEntity
  8
LINIEN-DICK
100
AcDbLine
 10
228.0
 20
76.5
 30
0.0
 11
228.0
 21
10.0
 31
0.0
  0
LINE
  5
127
330
1F
100
AcDbEntity
  8
LINIEN-DÜNN
100
AcDbLine
 10
15.0
 20
292.0
 30
0.0
 11
415.0
 21
292.0
 31
0.0
  0
LINE
  5
128
330
1F
100
AcDbEntity
  8
LINIEN-DÜNN
100
AcDbLine
 10
228.0
 20
65.75
 30
0.0
 11
310.0
 21
65.75
 31
0.0
  0
LINE
  5
129
330
1F
100
AcDbEntity
  8
LINIEN-DICK
100
AcDbLine
 10
228.0
 20
76.5
 30
0.0
 11
410.0
 21
76.5
 31
0.0
  0
LINE
  5
12A
330
1F
100
AcDbEntity
  8
LINIEN-DÜNN
100
AcDbLine
 10
15.0
 20
48.5
 30
0.0
 11
20.0
 21
48.5
 31
0.0
  0
LINE
  5
12B
330
1F
100
AcDbEntity
  8
LINIEN-DÜNN
100
AcDbLine
 10
410.0
 20
48.5
 30
0.0
 11
415.0
 21
48.5
 31
0.0
  0
LINE
  5
12C
330
1F
100
AcDbEntity
  8
LINIEN-DÜNN
100
AcDbLine
 10
332.6610845472
 20
20.0
 30
0.0
 11
332.6610845472
 21
10.0
 31
0.0
  0
LINE
  5
12D
330
1F
100
AcDbEntity
  8
LINIEN-DÜNN
100
AcDbLine
 10
410.0
 20
248.5
 30
0.0
 11
415.0
 21
248.5
 31
0.0
  0
LINE
  5
12E
330
1F
100
AcDbEntity
  8
LINIEN-DÜNN
100
AcDbLine
 10
65.0
 20
10.0
 30
0.0
 11
65.0
 21
5.0
 31
0.0
  0
LINE
  5
12F
330
1F
100
AcDbEntity
  8
LINIEN-DÜNN
100
AcDbLine
 10
115.0
 20
10.0
 30
0.0
 11
115.0
 21
5.0
 31
0.0
  0
LINE
  5
130
330
1F
100
AcDbEntity
  8
LINIEN-DÜNN
100
AcDbLine
 10
115.0
 20
292.0
 30
0.0
 11
115.0
 21
287.0
 31
0.0
  0
LINE
  5
131
330
1F
100
AcDbEntity
  8
LINIEN-DÜNN
100
AcDbLine
 10
165.0
 20
10.0
 30
0.0
 11
165.0
 21
5.0
 31
0.0
  0
LINE
  5
132
330
1F
100
AcDbEntity
  8
LINIEN-DÜNN
100
AcDbLine
 10
165.0
 20
292.0
 30
0.0
 11
165.0
 21
287.0
 31
0.0
  0
LINE
  5
133
330
1F
100
AcDbEntity
  8
LINIEN-DÜNN
100
AcDbLine
 10
215.0
 20
10.0
 30
0.0
 11
215.0
 21
5.0
 31
0.0
  0
LINE
  5
134
330
1F
100
AcDbEntity
  8
LINIEN-DÜNN
100
AcDbLine
 10
215.0
 20
292.0
 30
0.0
 11
215.0
 21
287.0
 31
0.0
  0
LINE
  5
135
330
1F
100
AcDbEntity
  8
LINIEN-DÜNN
100
AcDbLine
 10
265.0
 20
10.0
 30
0.0
 11
265.0
 21
5.0
 31
0.0
  0
LINE
  5
136
330
1F
100
AcDbEntity
  8
LINIEN-DÜNN
100
AcDbLine
 10
265.0
 20
292.0
 30
0.0
 11
265.0
 21
287.0
 31
0.0
  0
LINE
  5
137
330
1F
100
AcDbEntity
  8
LINIEN-DÜNN
100
AcDbLine
 10
347.6610845472
 20
20.0
 30
0.0
 11
347.6610845472
 21
10.0
 31
0.0
  0
LINE
  5
138
330
1F
100
AcDbEntity
  8
LINIEN-DÜNN
100
AcDbLine
 10
362.6610845472
 20
20.0
 30
0.0
 11
362.6610845472
 21
10.0
 31
0.0
  0
LINE
  5
139
330
1F
100
AcDbEntity
  8
LINIEN-NORMAL
100
AcDbLine
 10
327.6610845472
 20
10.0
 30
0.0
 11
327.6610845472
 21
55.0
 31
0.0
  0
LINE
  5
13A
330
1F
100
AcDbEntity
  8
LINIEN-DÜNN
100
AcDbLine
 10
20.0
 20
292.0
 30
0.0
 11
20.0
 21
297.0
 31
0.0
  0
LINE
  5
13B
330
1F
100
AcDbEntity
  8
LINIEN-DÜNN
100
AcDbLine
 10
20.0
 20
5.0
 30
0.0
 11
20.0
 21
0.0
 31
0.0
  0
LINE
  5
13C
330
1F
100
AcDbEntity
  8
LINIEN-DÜNN
100
AcDbLine
 10
315.0
 20
10.0
 30
0.0
 11
315.0
 21
5.0
 31
0.0
  0
LINE
  5
13D
330
1F
100
AcDbEntity
  8
LINIEN-DÜNN
100
AcDbLine
 10
315.0
 20
292.0
 30
0.0
 11
315.0
 21
287.0
 31
0.0
  0
LINE
  5
13E
330
1F
100
AcDbEntity
  8
LINIEN-DÜNN
100
AcDbLine
 10
365.0
 20
10.0
 30
0.0
 11
365.0
 21
5.0
 31
0.0
  0
LINE
  5
13F
330
1F
100
AcDbEntity
  8
LINIEN-DÜNN
100
AcDbLine
 10
365.0
 20
292.0
 30
0.0
 11
365.0
 21
287.0
 31
0.0
  0
LINE
  5
140
330
1F
100
AcDbEntity
  8
LINIEN-DÜNN
100
AcDbLine
 10
15.0
 20
292.0
 30
0.0
 11
15.0
 21
5.0
 31
0.0
  0
LINE
  5
141
330
1F
100
AcDbEntity
  8
LINIEN-DÜNN
100
AcDbLine
 10
15.0
 20
5.0
 30
0.0
 11
415.0
 21
5.0
 31
0.0
  0
LINE
  5
142
330
1F
100
AcDbEntity
  8
LINIEN-DÜNN
100
AcDbLine
 10
415.0
 20
292.0
 30
0.0
 11
415.0
 21
5.0
 31
0.0
  0
LINE
  5
143
330
1F
100
AcDbEntity
  8
LINIEN-DÜNN
100
AcDbLine
 10
347.6610845472
 20
44.213444
 30
0.0
 11
327.6610845472
 21
44.213444
 31
0.0
  0
LINE
  5
144
330
1F
100
AcDbEntity
  8
LINIEN-DÜNN
100
AcDbLine
 10
347.6610845472
 20
35.0
 30
0.0
 11
347.6610845472
 21
55.0
 31
0.0
  0
LINE
  5
145
330
1F
100
AcDbEntity
  8
LINIEN-DÜNN
100
AcDbLine
 10
370.057188
 20
55.012032
 30
0.0
 11
370.057188
 21
35.0
 31
0.0
  0
LINE
  5
146
330
1F
100
AcDbEntity
  8
LINIEN-DÜNN
100
AcDbLine
 10
398.0
 20
35.0
 30
0.0
 11
398.0
 21
20.0
 31
0.0
  0
LINE
  5
147
330
1F
100
AcDbEntity
  8
LINIEN-DÜNN
100
AcDbLine
 10
410.0
 20
15.0
 30
0.0
 11
327.6610845472
 21
15.0
 31
0.0
  0
LINE
  5
148
330
1F
100
AcDbEntity
  8
LINIEN-DÜNN
100
AcDbLine
 10
327.6610845472
 20
20.0
 30
0.0
 11
410.0
 21
20.0
 31
0.0
  0
LINE
  5
149
330
1F
100
AcDbEntity
  8
LINIEN-DÜNN
100
AcDbLine
 10
341.485486
 20
20.0
 30
0.0
 11
341.485486
 21
27.564675
 31
0.0
  0
LINE
  5
14A
330
1F
100
AcDbEntity
  8
LINIEN-NORMAL
100
AcDbLine
 10
310.0
 20
76.5
 30
0.0
 11
310.0
 21
55.0
 31
0.0
  0
CIRCLE
  5
14B
330
1F
100
AcDbEntity
  8
LINIEN-DÜNN
100
AcDbCircle
 10
11.0
 20
108.5
 30
0.0
 40
2.750000000000001
  0
CIRCLE
  5
14C
330
1F
100
AcDbEntity
  8
LINIEN-DÜNN
100
AcDbCircle
 10
11.0
 20
188.5
 30
0.0
 40
2.750000000000001
  0
CIRCLE
  5
14D
330
1F
100
AcDbEntity
  8
LINIEN-DÜNN
100
AcDbCircle
 10
352.6174545849
 20
43.1536640226
 30
0.0
 40
3.218346681300138
  0
CIRCLE
  5
14E
330
1F
100
AcDbEntity
  8
LINIEN-DÜNN
100
AcDbCircle
 10
352.6174545849
 20
43.1536640226
 30
0.0
 40
1.583958554121555
  0
INSERT
  5
14F
330
1F
100
AcDbEntity
  8
0
  6
Continuous
 62
     7
100
AcDbBlockReference
  2
ACO-Logo
 10
314.3510726297
 20
57.2426704952
 30
0.0
  0
POINT
  5
150
330
1F
100
AcDbEntity
  8
0
  6
Continuous
 62
     7
370
     0
100
AcDbPoint
 10
314.3510726297
 20
57.2426704952
 30
0.0
  0
POINT
  5
151
330
1F
100
AcDbEntity
  8
VORLAGE_BEMASSUNG
100
AcDbPoint
 10
0.0
 20
0.0
 30
0.0
  0
POINT
  5
152
330
1F
100
AcDbEntity
  8
VORLAGE_BEMASSUNG
100
AcDbPoint
 10
410.0
 20
10.0
 30
0.0
  0
MTEXT
  5
154
330
1F
100
AcDbEntity
  8
SLD-0
100
AcDbMText
 10
108.6900297937
 20
268.6016316548
 30
0.0
 40
3.5
 41
0.0
 71
     1
 72
     1
  1
Massstab 1:1
  7
SLDTEXTSTYLE2
 73
     1
 44
1.0
  0
MTEXT
  5
155
330
1F
100
AcDbEntity
  8
SLD-0
100
AcDbMText
 10
289.7934868459
 20
268.6016316548
 30
0.0
 40
3.5
 41
0.0
 71
     1
 72
     1
  1
Massstab 1:5
  7
SLDTEXTSTYLE2
 73
     1
 44
1.0
  0
INSERT
  5
15B
330
1F
100
AcDbEntity
  8
SLD-0
100
AcDbBlockReference
  2
SW_NOTE_1
 10
228.1118736924
 20
86.555678872
 30
0.0
  0
MTEXT
  5
15C
330
1F
100
AcDbEntity
  8
VORLAGE_TEXT
100
AcDbMText
 10
17.7359443114
 20
124.8017866468
 30
0.0
 40
2.0
 41
0.0
 71
     2
 72
     1
  1
D
  7
SLDTEXTSTYLE0
 73
     1
 44
1.0
  0
MTEXT
  5
15D
330
1F
100
AcDbEntity
  8
VORLAGE_TEXT
100
AcDbMText
 10
17.6274822413
 20
174.7261854936
 30
0.0
 40
2.0
 41
0.0
 71
     2
 72
     1
  1
C
  7
SLDTEXTSTYLE0
 73
     1
 44
1.0
  0
MTEXT
  5
15E
330
1F
100
AcDbEntity
  8
VORLAGE_TEXT
100
AcDbMText
 10
17.5516905072
 20
224.4926420442
 30
0.0
 40
2.0
 41
0.0
 71
     2
 72
     1
  1
B
  7
SLDTEXTSTYLE0
 73
     1
 44
1.0
  0
MTEXT
  5
15F
330
1F
100
AcDbEntity
  8
VORLAGE_TEXT
100
AcDbMText
 10
290.0344258799
 20
290.5428789914
 30
0.0
 40
2.0
 41
0.0
 71
     2
 72
     1
  1
6
  7
SLDTEXTSTYLE0
 73
     1
 44
1.0
  0
MTEXT
  5
160
330
1F
100
AcDbEntity
  8
VORLAGE_TEXT
100
AcDbMText
 10
240.0417859812
 20
290.6369260235
 30
0.0
 40
2.0
 41
0.0
 71
     2
 72
     1
  1
5
  7
SLDTEXTSTYLE0
 73
     1
 44
1.0
  0
MTEXT
  5
161
330
1F
100
AcDbEntity
  8
VORLAGE_TEXT
100
AcDbMText
 10
190.0300404524
 20
290.6343268032
 30
0.0
 40
2.0
 41
0.0
 71
     2
 72
     1
  1
4
  7
SLDTEXTSTYLE0
 73
     1
 44
1.0
  0
MTEXT
  5
162
330
1F
100
AcDbEntity
  8
VORLAGE_TEXT
100
AcDbMText
 10
140.0165868337
 20
290.6378887952
 30
0.0
 40
2.0
 41
0.0
 71
     2
 72
     1
  1
3
  7
SLDTEXTSTYLE0
 73
     1
 44
1.0
  0
MTEXT
  5
163
330
1F
100
AcDbEntity
  8
VORLAGE_TEXT
100
AcDbMText
 10
90.033223
 20
290.5566702875
 30
0.0
 40
2.0
 41
0.0
 71
     2
 72
     1
  1
2
  7
SLDTEXTSTYLE0
 73
     1
 44
1.0
  0
MTEXT
  5
164
330
1F
100
AcDbEntity
  8
VORLAGE_TEXT
100
AcDbMText
 10
40.0509551097
 20
290.5530165805
 30
0.0
 40
2.0
 41
0.0
 71
     2
 72
     1
  1
1
  7
SLDTEXTSTYLE0
 73
     1
 44
1.0
  0
MTEXT
  5
165
330
1F
100
AcDbEntity
  8
VORLAGE_TEXT
100
AcDbMText
 10
17.5609786315
 20
271.2966048816
 30
0.0
 40
2.0
 41
0.0
 71
     2
 72
     1
  1
A
  7
SLDTEXTSTYLE0
 73
     1
 44
1.0
  0
MTEXT
  5
166
330
1F
100
AcDbEntity
  8
VORLAGE_TEXT
100
AcDbMText
 10
89.9333968896
 20
8.5904490253
 30
0.0
 40
2.0
 41
0.0
 71
     2
 72
     1
  1
2
  7
SLDTEXTSTYLE0
 73
     1
 44
1.0
  0
MTEXT
  5
167
330
1F
100
AcDbEntity
  8
VORLAGE_TEXT
100
AcDbMText
 10
39.9009486579
 20
8.6623118453
 30
0.0
 40
2.0
 41
0.0
 71
     2
 72
     1
  1
1
  7
SLDTEXTSTYLE0
 73
     1
 44
1.0
  0
MTEXT
  5
168
330
1F
100
AcDbEntity
  8
VORLAGE_TEXT
100
AcDbMText
 10
190.0227230239
 20
8.7073169286
 30
0.0
 40
2.0
 41
0.0
 71
     2
 72
     1
  1
4
  7
SLDTEXTSTYLE0
 73
     1
 44
1.0
  0
MTEXT
  5
169
330
1F
100
AcDbEntity
  8
VORLAGE_TEXT
100
AcDbMText
 10
140.0453427777
 20
8.5647154541
 30
0.0
 40
2.0
 41
0.0
 71
     2
 72
     1
  1
3
  7
SLDTEXTSTYLE0
 73
     1
 44
1.0
  0
MTEXT
  5
16A
330
1F
100
AcDbEntity
  8
VORLAGE_TEXT
100
AcDbMText
 10
239.8749782531
 20
8.5637526825
 30
0.0
 40
2.0
 41
0.0
 71
     2
 72
     1
  1
5
  7
SLDTEXTSTYLE0
 73
     1
 44
1.0
  0
MTEXT
  5
16B
330
1F
100
AcDbEntity
  8
VORLAGE_TEXT
100
AcDbMText
 10
412.6717254925
 20
224.51208263
 30
0.0
 40
2.0
 41
0.0
 71
     2
 72
     1
  1
B
  7
SLDTEXTSTYLE0
 73
     1
 44
1.0
  0
MTEXT
  5
16C
330
1F
100
AcDbEntity
  8
VORLAGE_TEXT
100
AcDbMText
 10
412.5951211154
 20
271.2798202564
 30
0.0
 40
2.0
 41
0.0
 71
     2
 72
     1
  1
A
  7
SLDTEXTSTYLE0
 73
     1
 44
1.0
  0
MTEXT
  5
16D
330
1F
100
AcDbEntity
  8
VORLAGE_TEXT
100
AcDbMText
 10
412.6491448679
 20
174.7279841048
 30
0.0
 40
2.0
 41
0.0
 71
     2
 72
     1
  1
C
  7
SLDTEXTSTYLE0
 73
     1
 44
1.0
  0
MTEXT
  5
16E
330
1F
100
AcDbEntity
  8
VORLAGE_TEXT
100
AcDbMText
 10
340.0216466634
 20
290.5954278102
 30
0.0
 40
2.0
 41
0.0
 71
     2
 72
     1
  1
7
  7
SLDTEXTSTYLE0
 73
     1
 44
1.0
  0
MTEXT
  5
16F
330
1F
100
AcDbEntity
  8
VORLAGE_TEXT
100
AcDbMText
 10
390.037657264
 20
290.6215496941
 30
0.0
 40
2.0
 41
0.0
 71
     2
 72
     1
  1
8
  7
SLDTEXTSTYLE0
 73
     1
 44
1.0
  0
MTEXT
  5
170
330
1F
100
AcDbEntity
  8
VORLAGE_TEXT
100
AcDbMText
 10
17.6897935208
 20
74.7267628143
 30
0.0
 40
2.0
 41
0.0
 71
     2
 72
     1
  1
E
  7
SLDTEXTSTYLE0
 73
     1
 44
1.0
  0
MTEXT
  5
171
330
1F
100
AcDbEntity
  8
VORLAGE_TEXT
100
AcDbMText
 10
17.5936930126
 20
27.773321616
 30
0.0
 40
2.0
 41
0.0
 71
     2
 72
     1
  1
F
  7
SLDTEXTSTYLE0
 73
     1
 44
1.0
  0
MTEXT
  5
172
330
1F
100
AcDbEntity
  8
VORLAGE_TEXT
100
AcDbMText
 10
339.8003474583
 20
8.7205095051
 30
0.0
 40
2.0
 41
0.0
 71
     2
 72
     1
  1
7
  7
SLDTEXTSTYLE0
 73
     1
 44
1.0
  0
MTEXT
  5
173
330
1F
100
AcDbEntity
  8
VORLAGE_TEXT
100
AcDbMText
 10
289.7886477179
 20
8.6884673623
 30
0.0
 40
2.0
 41
0.0
 71
     2
 72
     1
  1
6
  7
SLDTEXTSTYLE0
 73
     1
 44
1.0
  0
MTEXT
  5
174
330
1F
100
AcDbEntity
  8
VORLAGE_TEXT
100
AcDbMText
 10
412.5160699095
 20
74.5096307526
 30
0.0
 40
2.0
 41
0.0
 71
     2
 72
     1
  1
E
  7
SLDTEXTSTYLE0
 73
     1
 44
1.0
  0
MTEXT
  5
175
330
1F
100
AcDbEntity
  8
VORLAGE_TEXT
100
AcDbMText
 10
412.6234021365
 20
124.4517683275
 30
0.0
 40
2.0
 41
0.0
 71
     2
 72
     1
  1
D
  7
SLDTEXTSTYLE0
 73
     1
 44
1.0
  0
MTEXT
  5
176
330
1F
100
AcDbEntity
  8
TEXT-DEUTSCH
100
AcDbMText
 10
411.7952690469
 20
41.918601188
 30
0.0
 40
1.8
 41
0.0
 71
     3
 72
     1
  1
Plotdatum: 19.06.2018
  7
SLDTEXTSTYLE0
 11
-3.269436733918102E-15
 21
1.0
 31
0.0
 73
     1
 44
1.0
  0
MTEXT
  5
177
330
1F
100
AcDbEntity
  8
VORLAGE_TEXT
100
AcDbMText
 10
412.557933251
 20
8.2549718046
 30
0.0
 40
1.8
 41
0.0
 71
     2
 72
     1
  1
A3
  7
SLDTEXTSTYLE0
 73
     1
 44
1.0
  0
MTEXT
  5
178
330
1F
100
AcDbEntity
  8
VORLAGE_TEXT
100
AcDbMText
 10
390.594604279
 20
8.3847467643
 30
0.0
 40
1.8
 41
0.0
 71
     2
 72
     1
  1
CAD-System: SolidWorks
  7
SLDTEXTSTYLE0
 73
     1
 44
1.0
  0
MTEXT
  5
179
330
1F
100
AcDbEntity
  8
TEXT
100
AcDbMText
 10
403.9986368527
 20
28.4394692021
 30
0.0
 40
5.0
 41
0.0
 71
     2
 72
     1
  1
B
  7
SLDTEXTSTYLE0
 73
     1
 44
1.0
  0
MTEXT
  5
17A
330
1F
100
AcDbEntity
  8
TEXT
100
AcDbMText
 10
249.556836311
 20
38.5581729516
 30
0.0
 40
2.0
 41
0.0
 71
     1
 72
     1
  1
Freigegeben
  7
SLDTEXTSTYLE0
 73
     1
 44
1.0
  0
MTEXT
  5
17B
330
1F
100
AcDbEntity
  8
TEXT
100
AcDbMText
 10
284.096264263
 20
43.5473338598
 30
0.0
 40
2.0
 41
0.0
 71
     2
 72
     1
  1
dca
  7
SLDTEXTSTYLE0
 73
     1
 44
1.0
  0
MTEXT
  5
17C
330
1F
100
AcDbEntity
  8
TEXT
100
AcDbMText
 10
249.5284668163
 20
43.5603133928
 30
0.0
 40
2.0
 41
0.0
 71
     1
 72
     1
  1
19.06.2018
  7
SLDTEXTSTYLE0
 73
     1
 44
1.0
  0
MTEXT
  5
17D
330
1F
100
AcDbEntity
  8
TEXT
100
AcDbMText
 10
283.7559087006
 20
48.5138972561
 30
0.0
 40
2.0
 41
0.0
 71
     2
 72
     1
  1
halj
  7
SLDTEXTSTYLE0
 73
     1
 44
1.0
  0
MTEXT
  5
17E
330
1F
100
AcDbEntity
  8
TEXT
100
AcDbMText
 10
249.5284668163
 20
48.4989062069
 30
0.0
 40
2.0
 41
0.0
 71
     1
 72
     1
  1
14.08.17
  7
SLDTEXTSTYLE0
 73
     1
 44
1.0
  0
MTEXT
  5
17F
330
1F
100
AcDbEntity
  8
0
  6
Continuous
 62
     7
370
     0
100
AcDbMText
 10
370.655574235
 20
38.8723054925
 30
0.0
 40
1.5
 41
0.0
 71
     1
 72
     1
  1
Copyright reserved! © ACO Passavant AG
  7
SLDTEXTSTYLE0
 73
     1
 44
1.0
  0
INSERT
  5
188
330
1F
100
AcDbEntity
  8
0
  6
Continuous
 62
     7
370
     0
100
AcDbBlockReference
  2
SW_NOTE_2
 10
372.2203831445
 20
51.2202922854
 30
0.0
  0
MTEXT
  5
189
330
1F
100
AcDbEntity
  8
TEXT
100
AcDbMText
 10
340.2556976817
 20
13.606872109
 30
0.0
 40
2.0
 41
0.0
 71
     2
 72
     1
  1
24.04.2018
  7
SLDTEXTSTYLE0
 73
     1
 44
1.0
  0
MTEXT
  5
18A
330
1F
100
AcDbEntity
  8
TEXT
100
AcDbMText
 10
364.9468572407
 20
13.5417229519
 30
0.0
 40
2.0
 41
0.0
 71
     1
 72
     1
  1
anpassung
  7
SLDTEXTSTYLE0
 73
     1
 44
1.0
  0
MTEXT
  5
18B
330
1F
100
AcDbEntity
  8
TEXT
100
AcDbMText
 10
354.24544421
 20
13.606872109
 30
0.0
 40
2.0
 41
0.0
 71
     2
 72
     1
  1
dca
  7
SLDTEXTSTYLE0
 73
     1
 44
1.0
  0
MTEXT
  5
18C
330
1F
100
AcDbEntity
  8
TEXT
100
AcDbMText
 10
330.227417144
 20
13.524501801
 30
0.0
 40
2.0
 41
0.0
 71
     2
 72
     1
  1
A
  7
SLDTEXTSTYLE0
 73
     1
 44
1.0
  0
MTEXT
  5
18D
330
1F
100
AcDbEntity
  8
TEXT
100
AcDbMText
 10
364.9468572407
 20
18.4594173137
 30
0.0
 40
2.0
 41
0.0
 71
     1
 72
     1
  1
Art.-Nr. angepasst
  7
SLDTEXTSTYLE0
 73
     1
 44
1.0
  0
MTEXT
  5
18E
330
1F
100
AcDbEntity
  8
TEXT
100
AcDbMText
 10
354.24544421
 20
18.5245664709
 30
0.0
 40
2.0
 41
0.0
 71
     2
 72
     1
  1
dca
  7
SLDTEXTSTYLE0
 73
     1
 44
1.0
  0
MTEXT
  5
18F
330
1F
100
AcDbEntity
  8
TEXT
100
AcDbMText
 10
340.3044309884
 20
18.5245664709
 30
0.0
 40
2.0
 41
0.0
 71
     2
 72
     1
  1
04.06.2018
  7
SLDTEXTSTYLE0
 73
     1
 44
1.0
  0
MTEXT
  5
190
330
1F
100
AcDbEntity
  8
TEXT
100
AcDbMText
 10
330.2494657985
 20
18.524501801
 30
0.0
 40
2.0
 41
0.0
 71
     2
 72
     1
  1
B
  7
SLDTEXTSTYLE0
 73
     1
 44
1.0
  0
MTEXT
  5
191
330
1F
100
AcDbEntity
  8
VORLAGE_TEXT
100
AcDbMText
 10
311.764909851
 20
46.3490312465
 30
0.0
 40
5.0
 41
0.0
 71
     2
 72
     1
  1
1:2
  7
SLDTEXTSTYLE0
 73
     1
 44
1.0
  0
MTEXT
  5
192
330
1F
100
AcDbEntity
  8
VORLAGE_TEXT
100
AcDbMText
 10
230.1851195342
 20
38.7793829468
 30
0.0
 40
2.0
 41
0.0
 71
     1
 72
     1
  1
Status:
  7
SLDTEXTSTYLE0
 73
     1
 44
1.0
  0
MTEXT
  5
193
330
1F
100
AcDbEntity
  8
TEXT
100
AcDbMText
 10
344.926838705
 20
28.2772828851
 30
0.0
 40
5.0
 41
0.0
 71
     1
 72
     1
  1
12325
  7
SLDTEXTSTYLE0
 73
     1
 44
1.0
  0
MTEXT
  5
194
330
1F
100
AcDbEntity
  8
TEXT
100
AcDbMText
 10
231.1132118803
 20
14.9211049657
 30
0.0
 40
2.5
 41
0.0
 71
     1
 72
     1
  1
Art. Nr.: 12325
  7
SLDTEXTSTYLE0
 73
     1
 44
1.0
  0
MTEXT
  5
195
330
1F
100
AcDbEntity
  8
TEXT
100
AcDbMText
 10
231.1475981734
 20
21.4529560996
 30
0.0
 40
2.5
 41
0.0
 71
     1
 72
     1
  1
Typ FL 6cm
  7
SLDTEXTSTYLE0
 73
     1
 44
1.0
  0
MTEXT
  5
196
330
1F
100
AcDbEntity
  8
TEXT
100
AcDbMText
 10
231.1159560181
 20
33.0904969858
 30
0.0
 40
2.5
 41
0.0
 71
     1
 72
     1
  1
Bauelemente
  7
SLDTEXTSTYLE0
 73
     1
 44
1.0
  0
MTEXT
  5
197
330
1F
100
AcDbEntity
  8
TEXT
100
AcDbMText
 10
231.1475981734
 20
28.0307932366
 30
0.0
 40
3.5
 41
0.0
 71
     1
 72
     1
  1
Flachrinne V100
  7
SLDTEXTSTYLE0
 73
     1
 44
1.0
  0
MTEXT
  5
198
330
1F
100
AcDbEntity
  8
VORLAGE_TEXT
100
AcDbMText
 10
348.2746465368
 20
53.819119072
 30
0.0
 40
2.0
 41
0.0
 71
     1
 72
     1
  1
Projektion: ISO-E
  7
SLDTEXTSTYLE0
 73
     1
 44
1.0
  0
MTEXT
  5
199
330
1F
100
AcDbEntity
  8
TEXT
100
AcDbMText
 10
337.7677091855
 20
49.3670227094
 30
0.0
 40
2.5
 41
0.0
 71
     2
 72
     1
  1
Millimeter
  7
SLDTEXTSTYLE0
 73
     1
 44
1.0
  0
MTEXT
  5
19A
330
1F
100
AcDbEntity
  8
VORLAGE_TEXT
100
AcDbMText
 10
337.6323777421
 20
53.855374072
 30
0.0
 40
2.0
 41
0.0
 71
     2
 72
     1
  1
Masseinheit:
  7
SLDTEXTSTYLE0
 73
     1
 44
1.0
  0
MTEXT
  5
19B
330
1F
100
AcDbEntity
  8
VORLAGE_TEXT
100
AcDbMText
 10
337.6114490186
 20
43.5452078816
 30
0.0
 40
2.0
 41
0.0
 71
     2
 72
     1
  1
Blatt / Anz.:
  7
SLDTEXTSTYLE0
 73
     1
 44
1.0
  0
MTEXT
  5
19C
330
1F
100
AcDbEntity
  8
VORLAGE_TEXT
100
AcDbMText
 10
329.2895578243
 20
28.4139191092
 30
0.0
 40
5.0
 41
0.0
 71
     1
 72
     1
  1
CH
  7
SLDTEXTSTYLE0
 73
     1
 44
1.0
  0
MTEXT
  5
19D
330
1F
100
AcDbEntity
  8
VORLAGE_TEXT
100
AcDbMText
 10
330.40704
 20
33.692638072
 30
0.0
 40
2.0
 41
0.0
 71
     1
 72
     1
  1
Zeichnung Nr.:
  7
SLDTEXTSTYLE0
 73
     1
 44
1.0
  0
MTEXT
  5
19E
330
1F
100
AcDbEntity
  8
VORLAGE_TEXT
100
AcDbMText
 10
269.897953
 20
75.161075072
 30
0.0
 40
2.0
 41
0.0
 71
     1
 72
     1
  1
Gewicht:
  7
SLDTEXTSTYLE0
 73
     1
 44
1.0
  0
MTEXT
  5
19F
330
1F
100
AcDbEntity
  8
VORLAGE_TEXT
100
AcDbMText
 10
230.0
 20
64.542328072
 30
0.0
 40
2.0
 41
0.0
 71
     1
 72
     1
  1
zul. Abweichung:
  7
SLDTEXTSTYLE0
 73
     1
 44
1.0
  0
MTEXT
  5
1A0
330
1F
100
AcDbEntity
  8
VORLAGE_TEXT
100
AcDbMText
 10
269.612607
 20
64.542328072
 30
0.0
 40
2.0
 41
0.0
 71
     1
 72
     1
  1
Oberfläche:
  7
SLDTEXTSTYLE0
 73
     1
 44
1.0
  0
MTEXT
  5
1A1
330
1F
100
AcDbEntity
  8
VORLAGE_TEXT
100
AcDbMText
 10
230.261411
 20
43.4433838912
 30
0.0
 40
2.0
 41
0.0
 71
     1
 72
     1
  1
Freigegeben:
  7
SLDTEXTSTYLE0
 73
     1
 44
1.0
  0
MTEXT
  5
1A2
330
1F
100
AcDbEntity
  8
VORLAGE_TEXT
100
AcDbMText
 10
230.0
 20
75.161075072
 30
0.0
 40
2.0
 41
0.0
 71
     1
 72
     1
  1
Werkstoff:
  7
SLDTEXTSTYLE0
 73
     1
 44
1.0
  0
MTEXT
  5
1A3
330
1F
100
AcDbEntity
  8
VORLAGE_TEXT
100
AcDbMText
 10
254.035545
 20
53.129475072
 30
0.0
 40
2.0
 41
0.0
 71
     1
 72
     1
  1
Datum:
  7
SLDTEXTSTYLE0
 73
     1
 44
1.0
  0
MTEXT
  5
1A4
330
1F
100
AcDbEntity
  8
VORLAGE_TEXT
100
AcDbMText
 10
279.934928
 20
53.136060072
 30
0.0
 40
2.0
 41
0.0
 71
     1
 72
     1
  1
Name:
  7
SLDTEXTSTYLE0
 73
     1
 44
1.0
  0
MTEXT
  5
1A5
330
1F
100
AcDbEntity
  8
VORLAGE_TEXT
100
AcDbMText
 10
312.162455406
 20
53.881591072
 30
0.0
 40
2.0
 41
0.0
 71
     2
 72
     1
  1
Massstab:
  7
SLDTEXTSTYLE0
 73
     1
 44
1.0
  0
MTEXT
  5
1A6
330
1F
100
AcDbEntity
  8
VORLAGE_TEXT
100
AcDbMText
 10
403.9552944035
 20
33.324874072
 30
0.0
 40
2.0
 41
0.0
 71
     2
 72
     1
  1
Index:
  7
SLDTEXTSTYLE0
 73
     1
 44
1.0
  0
MTEXT
  5
1A7
330
1F
100
AcDbEntity
  8
VORLAGE_TEXT
100
AcDbMText
 10
230.261411
 20
48.4499477886
 30
0.0
 40
2.0
 41
0.0
 71
     1
 72
     1
  1
Erstellt:
  7
SLDTEXTSTYLE0
 73
     1
 44
1.0
  0
MTEXT
  5
1A9
330
1F
100
AcDbEntity
  8
VORLAGE_TEXT
100
AcDbMText
 10
337.6348165843
 20
39.869706576
 30
0.0
 40
2.5
 41
0.0
 71
     2
 72
     1
  1
1 / 1
  7
SLDTEXTSTYLE3
 73
     1
 44
1.0
  0
MTEXT
  5
1AA
330
1F
100
AcDbEntity
  8
TEXT
100
AcDbMText
 10
269.612607
 20
60.8119428599
 30
0.0
 40
3.0
 41
0.0
 71
     1
 72
     1
  1
DIN ISO 1302
  7
SLDTEXTSTYLE0
 73
     1
 44
1.0
  0
MTEXT
  5
1AB
330
1F
100
AcDbEntity
  8
TEXT
100
AcDbMText
 10
230.0
 20
60.8119428599
 30
0.0
 40
3.0
 41
0.0
 71
     1
 72
     1
  1
Norm
  7
SLDTEXTSTYLE0
 73
     1
 44
1.0
  0
MTEXT
  5
1AC
330
1F
100
AcDbEntity
  8
TEXT
100
AcDbMText
 10
269.612607
 20
71.2121947186
 30
0.0
 40
3.0
 41
0.0
 71
     1
 72
     1
  1
8.2kg kg
  7
SLDTEXTSTYLE0
 73
     1
 44
1.0
  0
MTEXT
  5
1AD
330
1F
100
AcDbEntity
  8
TEXT
100
AcDbMText
 10
230.0
 20
71.2121947186
 30
0.0
 40
3.0
 41
0.0
 71
     1
 72
     1
  1
Polymerbeton
  7
SLDTEXTSTYLE0
 73
     1
 44
1.0
  0
LINE
  5
1AE
330
1F
100
AcDbEntity
  8
0
  6
Continuous
 62
     7
370
    25
100
AcDbLine
 10
174.929387241
 20
173.3771954735
 30
0.0
 11
176.8849809132
 21
176.7643830728
 31
0.0
  0
LINE
  5
1AF
330
1F
100
AcDbEntity
  8
0
  6
Continuous
 62
     7
370
    25
100
AcDbLine
 10
173.1982024588
 20
174.3766954735
 30
0.0
 11
175.1537961311
 21
177.7638830728
 31
0.0
  0
LINE
  5
1B0
330
1F
100
AcDbEntity
  8
0
  6
Continuous
 62
     7
370
    25
100
AcDbLine
 10
190.2292913721
 20
205.9397254677
 30
0.0
 11
190.2292913721
 21
169.9887254677
 31
0.0
  0
LINE
  5
1B1
330
1F
100
AcDbEntity
  8
0
  6
Continuous
 62
     7
370
    25
100
AcDbLine
 10
188.2302913721
 20
205.9397254677
 30
0.0
 11
188.2302913721
 21
169.9887254677
 31
0.0
  0
ARC
  5
1B2
330
1F
100
AcDbEntity
  8
0
  6
Continuous
 62
     7
370
    25
100
AcDbCircle
 10
176.2292913721
 20
172.6266954735
 30
0.0
 40
1.50100000000009
100
AcDbArc
 50
150.0
 51
180.0
  0
ARC
  5
1B3
330
1F
100
AcDbEntity
  8
0
  6
Continuous
 62
     7
370
    25
100
AcDbCircle
 10
176.2292913721
 20
172.6266954735
 30
0.0
 40
3.500000000000171
100
AcDbArc
 50
150.0
 51
180.0
  0
LINE
  5
1B4
330
1F
100
AcDbEntity
  8
0
  6
Continuous
 62
     7
370
    25
100
AcDbLine
 10
174.7282913721
 20
183.2104171273
 30
0.0
 11
174.7282913721
 21
184.0138828936
 31
0.0
  0
LINE
  5
1B5
330
1F
100
AcDbEntity
  8
0
  6
Continuous
 62
     7
370
    25
100
AcDbLine
 10
172.7292913721
 20
183.2104171273
 30
0.0
 11
172.7292913721
 21
184.013882659
 31
0.0
  0
ARC
  5
1B6
330
1F
100
AcDbEntity
  8
0
  6
Continuous
 62
     7
370
    25
100
AcDbCircle
 10
176.2292913721
 20
183.210417538
 30
0.0
 40
1.501000000000442
100
AcDbArc
 50
180.0000156748
 51
225.0
  0
ARC
  5
1B7
330
1F
100
AcDbEntity
  8
0
  6
Continuous
 62
     7
370
    25
100
AcDbCircle
 10
176.2292913721
 20
183.210417538
 30
0.0
 40
3.500000000000591
100
AcDbArc
 50
180.0000067223
 51
225.0
  0
LINE
  5
1B8
330
1F
100
AcDbEntity
  8
0
  6
Continuous
 62
     7
370
    25
100
AcDbLine
 10
176.3289246528
 20
180.9880497001
 30
0.0
 11
175.1679240935
 21
182.1490502594
 31
0.0
  0
LINE
  5
1B9
330
1F
100
AcDbEntity
  8
0
  6
Continuous
 62
     7
370
    25
100
AcDbLine
 10
174.9154181972
 20
179.5745432446
 30
0.0
 11
173.7544176379
 21
180.7355438038
 31
0.0
  0
ARC
  5
1BA
330
1F
100
AcDbEntity
  8
0
  6
Continuous
 62
     7
370
    25
100
AcDbCircle
 10
184.4792913721
 20
189.0138830697
 30
0.0
 40
3.499000000000024
100
AcDbArc
 50
270.0
 51
0.0
  0
ARC
  5
1BB
330
1F
100
AcDbEntity
  8
0
  6
Continuous
 62
     7
370
    25
100
AcDbCircle
 10
184.4792913721
 20
189.0138830697
 30
0.0
 40
1.500000000000057
100
AcDbArc
 50
270.0
 51
0.0
  0
LINE
  5
1BC
330
1F
100
AcDbEntity
  8
0
  6
Continuous
 62
     7
370
    25
100
AcDbLine
 10
187.9782913721
 20
189.0138830697
 30
0.0
 11
187.9782913721
 21
206.0138830697
 31
0.0
  0
LINE
  5
1BD
330
1F
100
AcDbEntity
  8
0
  6
Continuous
 62
     7
370
    25
100
AcDbLine
 10
185.9792913721
 20
189.0138830697
 30
0.0
 11
185.9792913721
 21
206.0138830697
 31
0.0
  0
ARC
  5
1BE
330
1F
100
AcDbEntity
  8
0
  6
Continuous
 62
     7
370
    25
100
AcDbCircle
 10
187.9792913721
 20
206.0138830697
 30
0.0
 40
0.0010000000000332
100
AcDbArc
 50
90.0
 51
180.0
  0
ARC
  5
1BF
330
1F
100
AcDbEntity
  8
0
  6
Continuous
 62
     7
370
    25
100
AcDbCircle
 10
187.9792913721
 20
206.0138830697
 30
0.0
 40
2.0
100
AcDbArc
 50
90.0
 51
180.0
  0
ARC
  5
1C0
330
1F
100
AcDbEntity
  8
0
  6
Continuous
 62
     7
370
    25
100
AcDbCircle
 10
173.8547580254
 20
178.5138830728
 30
0.0
 40
3.499000000000315
100
AcDbArc
 50
330.0
 51
45.0
  0
ARC
  5
1C1
330
1F
100
AcDbEntity
  8
0
  6
Continuous
 62
     7
370
    25
100
AcDbCircle
 10
173.8547580254
 20
178.5138830728
 30
0.0
 40
1.500000000000325
100
AcDbArc
 50
330.0
 51
45.0
  0
ARC
  5
1C2
330
1F
100
AcDbEntity
  8
0
  6
Continuous
 62
     7
370
    25
100
AcDbCircle
 10
188.1551337701
 20
205.9397254677
 30
0.0
 40
0.0751576019867457
100
AcDbArc
 50
0.0
 51
90.0
  0
ARC
  5
1C3
330
1F
100
AcDbEntity
  8
0
  6
Continuous
 62
     7
370
    25
100
AcDbCircle
 10
188.1551337701
 20
205.9397254677
 30
0.0
 40
2.074157601986713
100
AcDbArc
 50
0.0
 51
90.0
  0
ARC
  5
1C4
330
1F
100
AcDbEntity
  8
0
  6
Continuous
 62
     7
370
    25
100
AcDbCircle
 10
176.2292913721
 20
184.0138830697
 30
0.0
 40
1.500999999999522
100
AcDbArc
 50
90.0
 51
180.0000067223
  0
ARC
  5
1C5
330
1F
100
AcDbEntity
  8
0
  6
Continuous
 62
     7
370
    25
100
AcDbCircle
 10
176.2292913721
 20
184.0138830697
 30
0.0
 40
3.499999999999488
100
AcDbArc
 50
90.0
 51
180.0000067223
  0
LINE
  5
1C6
330
1F
100
AcDbEntity
  8
0
  6
Continuous
 62
     7
370
    25
100
AcDbLine
 10
176.2292913721
 20
185.5148830697
 30
0.0
 11
184.4792913721
 21
185.5148830697
 31
0.0
  0
LINE
  5
1C7
330
1F
100
AcDbEntity
  8
0
  6
Continuous
 62
     7
370
    25
100
AcDbLine
 10
176.2292913721
 20
187.5138830697
 30
0.0
 11
184.4792913721
 21
187.5138830697
 31
0.0
  0
LINE
  5
1C8
330
1F
100
AcDbEntity
  8
0
  6
Continuous
 62
     7
370
    25
100
AcDbLine
 10
174.8282913721
 20
168.5138830697
 30
0.0
 11
176.8272913721
 21
168.5138830697
 31
0.0
  0
LINE
  5
1C9
330
1F
100
AcDbEntity
  8
0
  6
Continuous
 62
     7
370
    25
100
AcDbLine
 10
176.8272913721
 20
162.5628830697
 30
0.0
 11
176.8272913721
 21
168.5138830697
 31
0.0
  0
LINE
  5
1CA
330
1F
100
AcDbEntity
  8
0
  6
Continuous
 62
     7
370
    25
100
AcDbLine
 10
174.8282913721
 20
162.5628830697
 30
0.0
 11
174.8282913721
 21
168.5138830697
 31
0.0
  0
LINE
  5
1CB
330
1F
100
AcDbEntity
  8
0
  6
Continuous
 62
     7
370
    25
100
AcDbLine
 10
187.9792913721
 20
208.0138830697
 30
0.0
 11
188.1551337701
 21
208.0138830697
 31
0.0
  0
LINE
  5
1CC
330
1F
100
AcDbEntity
  8
0
  6
Continuous
 62
     7
370
    25
100
AcDbLine
 10
187.9792913721
 20
206.0148830697
 30
0.0
 11
188.1551337701
 21
206.0148830697
 31
0.0
  0
LINE
  5
1CD
330
1F
100
AcDbEntity
  8
0
  6
Continuous
 62
     7
370
    25
100
AcDbLine
 10
174.7282913721
 20
162.5628830697
 30
0.0
 11
174.7282913721
 21
172.6266954735
 31
0.0
  0
LINE
  5
1CE
330
1F
100
AcDbEntity
  8
0
  6
Continuous
 62
     7
370
    25
100
AcDbLine
 10
172.7292913721
 20
162.5628830697
 30
0.0
 11
172.7292913721
 21
172.6266954735
 31
0.0
  0
LINE
  5
1CF
330
1F
100
AcDbEntity
  8
0
  6
Continuous
 62
     7
370
    25
100
AcDbLine
 10
186.1312913721
 20
175.9397254677
 30
0.0
 11
186.1312913721
 21
169.9887254677
 31
0.0
  0
LINE
  5
1D0
330
1F
100
AcDbEntity
  8
0
  6
Continuous
 62
     7
370
    25
100
AcDbLine
 10
188.1302913721
 20
175.9397254677
 30
0.0
 11
188.1302913721
 21
169.9887254677
 31
0.0
  0
LINE
  5
1D1
330
1F
100
AcDbEntity
  8
0
  6
Continuous
 62
     7
370
    25
100
AcDbLine
 10
188.1302913721
 20
175.9397254677
 30
0.0
 11
186.1312913721
 21
175.9397254677
 31
0.0
  0
ARC
  5
1D2
330
1F
100
AcDbEntity
  8
0
  6
Continuous
 62
     7
370
    25
100
AcDbCircle
 10
188.1802913721
 20
169.9887254677
 30
0.0
 40
2.048999999999978
100
AcDbArc
 50
180.0
 51
0.0
  0
ARC
  5
1D3
330
1F
100
AcDbEntity
  8
0
  6
Continuous
 62
     7
370
    25
100
AcDbCircle
 10
188.1802913721
 20
169.9887254677
 30
0.0
 40
0.0500000000000114
100
AcDbArc
 50
180.0
 51
0.0
  0
ARC
  5
1D4
330
1F
100
AcDbEntity
  8
0
  6
Continuous
 62
     7
370
    25
100
AcDbCircle
 10
174.7782913721
 20
162.5628830697
 30
0.0
 40
2.048999999999978
100
AcDbArc
 50
180.0
 51
0.0
  0
ARC
  5
1D5
330
1F
100
AcDbEntity
  8
0
  6
Continuous
 62
     7
370
    25
100
AcDbCircle
 10
174.7782913721
 20
162.5628830697
 30
0.0
 40
0.0500000000000114
100
AcDbArc
 50
180.0
 51
0.0
  0
LINE
  5
1D6
330
1F
100
AcDbEntity
  8
0
  6
Continuous
 62
     7
370
    25
100
AcDbLine
 10
68.6312913721
 20
168.5138830697
 30
0.0
 11
68.6312913721
 21
162.5628830697
 31
0.0
  0
LINE
  5
1D7
330
1F
100
AcDbEntity
  8
0
  6
Continuous
 62
     7
370
    25
100
AcDbLine
 10
70.6302913721
 20
168.5138830697
 30
0.0
 11
68.6312913721
 21
168.5138830697
 31
0.0
  0
LINE
  5
1D8
330
1F
100
AcDbEntity
  8
0
  6
Continuous
 62
     7
370
    25
100
AcDbLine
 10
70.6302913721
 20
168.5138830697
 30
0.0
 11
70.6302913721
 21
162.5628830697
 31
0.0
  0
ARC
  5
1D9
330
1F
100
AcDbEntity
  8
0
  6
Continuous
 62
     7
370
    25
100
AcDbCircle
 10
70.6802913721
 20
162.5628830697
 30
0.0
 40
2.048999999999978
100
AcDbArc
 50
180.0
 51
0.0
  0
ARC
  5
1DA
330
1F
100
AcDbEntity
  8
0
  6
Continuous
 62
     7
370
    25
100
AcDbCircle
 10
70.6802913721
 20
162.5628830697
 30
0.0
 40
0.0499999999999972
100
AcDbArc
 50
180.0
 51
0.0
  0
ARC
  5
1DB
330
1F
100
AcDbEntity
  8
0
  6
Continuous
 62
     7
370
    25
100
AcDbCircle
 10
69.2292913721
 20
172.6266954735
 30
0.0
 40
1.501000000000076
100
AcDbArc
 50
360.0
 51
30.0
  0
ARC
  5
1DC
330
1F
100
AcDbEntity
  8
0
  6
Continuous
 62
     7
370
    25
100
AcDbCircle
 10
69.2292913721
 20
172.6266954735
 30
0.0
 40
3.500000000000171
100
AcDbArc
 50
360.0
 51
30.0
  0
ARC
  5
1DD
330
1F
100
AcDbEntity
  8
0
  6
Continuous
 62
     7
370
    25
100
AcDbCircle
 10
71.6038247187
 20
178.5138830728
 30
0.0
 40
3.499000000000315
100
AcDbArc
 50
135.0
 51
210.0
  0
ARC
  5
1DE
330
1F
100
AcDbEntity
  8
0
  6
Continuous
 62
     7
370
    25
100
AcDbCircle
 10
71.6038247187
 20
178.5138830728
 30
0.0
 40
1.500000000000325
100
AcDbArc
 50
135.0
 51
210.0
  0
LINE
  5
1DF
330
1F
100
AcDbEntity
  8
0
  6
Continuous
 62
     7
370
    25
100
AcDbLine
 10
55.2292913721
 20
205.9397254677
 30
0.0
 11
55.2292913721
 21
169.9887254677
 31
0.0
  0
LINE
  5
1E0
330
1F
100
AcDbEntity
  8
0
  6
Continuous
 62
     7
370
    25
100
AcDbLine
 10
57.2282913721
 20
205.9397254677
 30
0.0
 11
57.2282913721
 21
169.9887254677
 31
0.0
  0
LINE
  5
1E1
330
1F
100
AcDbEntity
  8
0
  6
Continuous
 62
     7
370
    25
100
AcDbLine
 10
70.5291955031
 20
173.3771954735
 30
0.0
 11
68.5736018309
 21
176.7643830728
 31
0.0
  0
LINE
  5
1E2
330
1F
100
AcDbEntity
  8
0
  6
Continuous
 62
     7
370
    25
100
AcDbLine
 10
72.2603802853
 20
174.3766954735
 30
0.0
 11
70.304786613
 21
177.7638830728
 31
0.0
  0
LINE
  5
1E3
330
1F
100
AcDbEntity
  8
0
  6
Continuous
 62
     7
370
    25
100
AcDbLine
 10
72.7292913721
 20
162.5628830697
 30
0.0
 11
72.7292913721
 21
172.6266954735
 31
0.0
  0
LINE
  5
1E4
330
1F
100
AcDbEntity
  8
0
  6
Continuous
 62
     7
370
    25
100
AcDbLine
 10
70.7302913721
 20
162.5628830697
 30
0.0
 11
70.7302913721
 21
172.6266954735
 31
0.0
  0
LINE
  5
1E5
330
1F
100
AcDbEntity
  8
0
  6
Continuous
 62
     7
370
    25
100
AcDbLine
 10
69.2292913721
 20
185.5148830697
 30
0.0
 11
60.9792913721
 21
185.5148830697
 31
0.0
  0
LINE
  5
1E6
330
1F
100
AcDbEntity
  8
0
  6
Continuous
 62
     7
370
    25
100
AcDbLine
 10
69.2292913721
 20
187.5138830697
 30
0.0
 11
60.9792913721
 21
187.5138830697
 31
0.0
  0
ARC
  5
1E7
330
1F
100
AcDbEntity
  8
0
  6
Continuous
 62
     7
370
    25
100
AcDbCircle
 10
57.4792913721
 20
206.0138830697
 30
0.0
 40
0.0010000000001398
100
AcDbArc
 50
0.0
 51
90.0
  0
ARC
  5
1E8
330
1F
100
AcDbEntity
  8
0
  6
Continuous
 62
     7
370
    25
100
AcDbCircle
 10
57.4792913721
 20
206.0138830697
 30
0.0
 40
2.000000000000107
100
AcDbArc
 50
0.0
 51
90.0
  0
ARC
  5
1E9
330
1F
100
AcDbEntity
  8
0
  6
Continuous
 62
     7
370
    25
100
AcDbCircle
 10
57.2782913721
 20
169.9887254677
 30
0.0
 40
2.048999999999971
100
AcDbArc
 50
180.0
 51
0.0
  0
ARC
  5
1EA
330
1F
100
AcDbEntity
  8
0
  6
Continuous
 62
     7
370
    25
100
AcDbCircle
 10
57.2782913721
 20
169.9887254677
 30
0.0
 40
0.0499999999999972
100
AcDbArc
 50
180.0
 51
0.0
  0
LINE
  5
1EB
330
1F
100
AcDbEntity
  8
0
  6
Continuous
 62
     7
370
    25
100
AcDbLine
 10
72.7292913721
 20
183.2104171273
 30
0.0
 11
72.7292913721
 21
184.013882659
 31
0.0
  0
LINE
  5
1EC
330
1F
100
AcDbEntity
  8
0
  6
Continuous
 62
     7
370
    25
100
AcDbLine
 10
70.7302913721
 20
183.2104171273
 30
0.0
 11
70.7302913721
 21
184.0138828936
 31
0.0
  0
ARC
  5
1ED
330
1F
100
AcDbEntity
  8
0
  6
Continuous
 62
     7
370
    25
100
AcDbCircle
 10
60.9792913721
 20
189.0138830697
 30
0.0
 40
1.500000000000057
100
AcDbArc
 50
180.0
 51
270.0
  0
ARC
  5
1EE
330
1F
100
AcDbEntity
  8
0
  6
Continuous
 62
     7
370
    25
100
AcDbCircle
 10
60.9792913721
 20
189.0138830697
 30
0.0
 40
3.499000000000024
100
AcDbArc
 50
180.0
 51
270.0
  0
LINE
  5
1EF
330
1F
100
AcDbEntity
  8
0
  6
Continuous
 62
     7
370
    25
100
AcDbLine
 10
70.5431645469
 20
179.5745432446
 30
0.0
 11
71.7041651062
 21
180.7355438038
 31
0.0
  0
LINE
  5
1F0
330
1F
100
AcDbEntity
  8
0
  6
Continuous
 62
     7
370
    25
100
AcDbLine
 10
69.1296580913
 20
180.9880497001
 30
0.0
 11
70.2906586506
 21
182.1490502594
 31
0.0
  0
LINE
  5
1F1
330
1F
100
AcDbEntity
  8
0
  6
Continuous
 62
     7
370
    25
100
AcDbLine
 10
57.3282913721
 20
175.9397254677
 30
0.0
 11
59.3272913721
 21
175.9397254677
 31
0.0
  0
LINE
  5
1F2
330
1F
100
AcDbEntity
  8
0
  6
Continuous
 62
     7
370
    25
100
AcDbLine
 10
59.3272913721
 20
169.9887254677
 30
0.0
 11
59.3272913721
 21
175.9397254677
 31
0.0
  0
LINE
  5
1F3
330
1F
100
AcDbEntity
  8
0
  6
Continuous
 62
     7
370
    25
100
AcDbLine
 10
57.3282913721
 20
169.9887254677
 30
0.0
 11
57.3282913721
 21
175.9397254677
 31
0.0
  0
LINE
  5
1F4
330
1F
100
AcDbEntity
  8
0
  6
Continuous
 62
     7
370
    25
100
AcDbLine
 10
59.4792913721
 20
189.0138830697
 30
0.0
 11
59.4792913721
 21
206.0138830697
 31
0.0
  0
LINE
  5
1F5
330
1F
100
AcDbEntity
  8
0
  6
Continuous
 62
     7
370
    25
100
AcDbLine
 10
57.4802913721
 20
189.0138830697
 30
0.0
 11
57.4802913721
 21
206.0138830697
 31
0.0
  0
ARC
  5
1F6
330
1F
100
AcDbEntity
  8
0
  6
Continuous
 62
     7
370
    25
100
AcDbCircle
 10
69.2292913721
 20
183.210417538
 30
0.0
 40
3.500000000000591
100
AcDbArc
 50
315.0
 51
359.9999932777
  0
ARC
  5
1F7
330
1F
100
AcDbEntity
  8
0
  6
Continuous
 62
     7
370
    25
100
AcDbCircle
 10
69.2292913721
 20
183.210417538
 30
0.0
 40
1.501000000000512
100
AcDbArc
 50
315.0
 51
359.9999843252
  0
ARC
  5
1F8
330
1F
100
AcDbEntity
  8
0
  6
Continuous
 62
     7
370
    25
100
AcDbCircle
 10
69.2292913721
 20
184.0138830697
 30
0.0
 40
1.500999999999532
100
AcDbArc
 50
359.9999932777
 51
90.0
  0
ARC
  5
1F9
330
1F
100
AcDbEntity
  8
0
  6
Continuous
 62
     7
370
    25
100
AcDbCircle
 10
69.2292913721
 20
184.0138830697
 30
0.0
 40
3.499999999999527
100
AcDbArc
 50
359.9999932777
 51
90.0
  0
ARC
  5
1FA
330
1F
100
AcDbEntity
  8
0
  6
Continuous
 62
     7
370
    25
100
AcDbCircle
 10
57.303448974
 20
205.9397254677
 30
0.0
 40
0.075157601986632
100
AcDbArc
 50
90.0
 51
180.0
  0
ARC
  5
1FB
330
1F
100
AcDbEntity
  8
0
  6
Continuous
 62
     7
370
    25
100
AcDbCircle
 10
57.303448974
 20
205.9397254677
 30
0.0
 40
2.074157601986599
100
AcDbArc
 50
90.0
 51
180.0
  0
LINE
  5
1FC
330
1F
100
AcDbEntity
  8
0
  6
Continuous
 62
     7
370
    25
100
AcDbLine
 10
57.4792913721
 20
206.0148830697
 30
0.0
 11
57.303448974
 21
206.0148830697
 31
0.0
  0
LINE
  5
1FD
330
1F
100
AcDbEntity
  8
0
  6
Continuous
 62
     7
370
    25
100
AcDbLine
 10
57.4792913721
 20
208.0138830697
 30
0.0
 11
57.303448974
 21
208.0138830697
 31
0.0
  0
LINE
  5
1FE
330
1F
100
AcDbEntity
  8
0
  6
Continuous
 62
     7
370
    25
100
AcDbLine
 10
83.2292913721
 20
154.604267224
 30
0.0
 11
83.2292913721
 21
148.0148830697
 31
0.0
  0
LINE
  5
1FF
330
1F
100
AcDbEntity
  8
0
  6
Continuous
 62
     7
370
    25
100
AcDbLine
 10
162.2292913721
 20
154.604267224
 30
0.0
 11
83.2292913721
 21
154.604267224
 31
0.0
  0
LINE
  5
200
330
1F
100
AcDbEntity
  8
0
  6
Continuous
 62
     7
370
    25
100
AcDbLine
 10
162.2292913721
 20
148.0148830697
 30
0.0
 11
162.2292913721
 21
154.604267224
 31
0.0
  0
LINE
  5
201
330
1F
100
AcDbEntity
  8
0
  6
Continuous
 62
     7
370
    25
100
AcDbLine
 10
83.2292913721
 20
148.0148830697
 30
0.0
 11
162.2292913721
 21
148.0148830697
 31
0.0
  0
LINE
  5
202
330
1F
100
AcDbEntity
  8
0
  6
Continuous
 62
     7
370
    25
100
AcDbLine
 10
162.2292913721
 20
154.604267224
 30
0.0
 11
162.2292913721
 21
156.0148830697
 31
0.0
  0
LINE
  5
203
330
1F
100
AcDbEntity
  8
0
  6
Continuous
 62
     7
370
    25
100
AcDbLine
 10
162.2292913721
 20
156.0148830697
 30
0.0
 11
83.2292913721
 21
156.0148830697
 31
0.0
  0
LINE
  5
204
330
1F
100
AcDbEntity
  8
0
  6
Continuous
 62
     7
370
    25
100
AcDbLine
 10
83.2292913721
 20
154.604267224
 30
0.0
 11
83.2292913721
 21
156.0148830697
 31
0.0
  0
LINE
  5
205
330
1F
100
AcDbEntity
  8
0
  6
Continuous
 62
     7
370
    25
100
AcDbLine
 10
57.2292913721
 20
185.5148830697
 30
0.0
 11
71.2292913721
 21
185.5148830697
 31
0.0
  0
ARC
  5
206
330
1F
100
AcDbEntity
  8
0
  6
Continuous
 62
     7
370
    25
100
AcDbCircle
 10
71.2292913721
 20
184.0148830697
 30
0.0
 40
1.5
100
AcDbArc
 50
0.0
 51
90.0
  0
ARC
  5
207
330
1F
100
AcDbEntity
  8
0
  6
Continuous
 62
     7
370
    25
100
AcDbCircle
 10
71.2292913721
 20
182.8709851116
 30
0.0
 40
1.5
100
AcDbArc
 50
301.7914705229
 51
0.0
  0
ARC
  5
208
330
1F
100
AcDbEntity
  8
0
  6
Continuous
 62
     7
370
    25
100
AcDbCircle
 10
73.9292913721
 20
178.5148830697
 30
0.0
 40
3.625000000000069
100
AcDbArc
 50
121.7914705229
 51
238.2085294771
  0
ARC
  5
209
330
1F
100
AcDbEntity
  8
0
  6
Continuous
 62
     7
370
    25
100
AcDbCircle
 10
71.2292913721
 20
174.1587810277
 30
0.0
 40
1.500000000000036
100
AcDbArc
 50
0.0
 51
58.2085294771
  0
LINE
  5
20A
330
1F
100
AcDbEntity
  8
0
  6
Continuous
 62
     7
370
    25
100
AcDbLine
 10
72.7292913721
 20
174.1587810277
 30
0.0
 11
72.7292913721
 21
160.0148830697
 31
0.0
  0
ARC
  5
20B
330
1F
100
AcDbEntity
  8
0
  6
Continuous
 62
     7
370
    25
100
AcDbCircle
 10
74.7292913721
 20
160.0148830697
 30
0.0
 40
2.000000000000014
100
AcDbArc
 50
180.0
 51
270.0
  0
LINE
  5
20C
330
1F
100
AcDbEntity
  8
0
  6
Continuous
 62
     7
370
    25
100
AcDbLine
 10
74.7292913721
 20
158.0148830697
 30
0.0
 11
170.7292913721
 21
158.0148830697
 31
0.0
  0
ARC
  5
20D
330
1F
100
AcDbEntity
  8
0
  6
Continuous
 62
     7
370
    25
100
AcDbCircle
 10
170.7292913721
 20
160.0148830697
 30
0.0
 40
2.0
100
AcDbArc
 50
270.0
 51
0.0
  0
ARC
  5
20E
330
1F
100
AcDbEntity
  8
0
  6
Continuous
 62
     7
370
    25
100
AcDbCircle
 10
174.2292913721
 20
174.1587810277
 30
0.0
 40
1.500000000000021
100
AcDbArc
 50
121.7914705229
 51
180.0
  0
ARC
  5
20F
330
1F
100
AcDbEntity
  8
0
  6
Continuous
 62
     7
370
    25
100
AcDbCircle
 10
171.5292913721
 20
178.5148830697
 30
0.0
 40
3.625000000000099
100
AcDbArc
 50
301.7914705229
 51
58.2085294771
  0
ARC
  5
210
330
1F
100
AcDbEntity
  8
0
  6
Continuous
 62
     7
370
    25
100
AcDbCircle
 10
174.2292913721
 20
182.8709851116
 30
0.0
 40
1.499999999999943
100
AcDbArc
 50
180.0
 51
238.2085294771
  0
LINE
  5
211
330
1F
100
AcDbEntity
  8
0
  6
Continuous
 62
     7
370
    25
100
AcDbLine
 10
172.7292913721
 20
184.0148830697
 30
0.0
 11
172.7292913721
 21
182.8709851116
 31
0.0
  0
ARC
  5
212
330
1F
100
AcDbEntity
  8
0
  6
Continuous
 62
     7
370
    25
100
AcDbCircle
 10
174.2292913721
 20
184.0148830697
 30
0.0
 40
1.499999999999943
100
AcDbArc
 50
90.0
 51
180.0
  0
LINE
  5
213
330
1F
100
AcDbEntity
  8
0
  6
Continuous
 62
     7
370
    25
100
AcDbLine
 10
190.2292913721
 20
169.5148830697
 30
0.0
 11
188.2292913721
 21
169.5148830697
 31
0.0
  0
LINE
  5
214
330
1F
100
AcDbEntity
  8
0
  6
Continuous
 62
     7
370
    25
100
AcDbLine
 10
190.2292913721
 20
148.0148830697
 30
0.0
 11
190.2292913721
 21
169.5148830697
 31
0.0
  0
LINE
  5
215
330
1F
100
AcDbEntity
  8
0
  6
Continuous
 62
     7
370
    25
100
AcDbLine
 10
172.7292913721
 20
174.1587810277
 30
0.0
 11
172.7292913721
 21
160.0148830697
 31
0.0
  0
LINE
  5
216
330
1F
100
AcDbEntity
  8
0
  6
Continuous
 62
     7
370
    25
100
AcDbLine
 10
57.2292913721
 20
185.5148830697
 30
0.0
 11
57.2292913721
 21
169.5148830697
 31
0.0
  0
LINE
  5
217
330
1F
100
AcDbEntity
  8
0
  6
Continuous
 62
     7
370
    25
100
AcDbLine
 10
55.2292913721
 20
169.5148830697
 30
0.0
 11
57.2292913721
 21
169.5148830697
 31
0.0
  0
LINE
  5
218
330
1F
100
AcDbEntity
  8
0
  6
Continuous
 62
     7
370
    25
100
AcDbLine
 10
188.2292913721
 20
185.5148830697
 30
0.0
 11
188.2292913721
 21
169.5148830697
 31
0.0
  0
LINE
  5
219
330
1F
100
AcDbEntity
  8
0
  6
Continuous
 62
     7
370
    25
100
AcDbLine
 10
174.2292913721
 20
185.5148830697
 30
0.0
 11
188.2292913721
 21
185.5148830697
 31
0.0
  0
LINE
  5
21A
330
1F
100
AcDbEntity
  8
0
  6
Continuous
 62
     7
370
    25
100
AcDbLine
 10
72.7292913721
 20
184.0148830697
 30
0.0
 11
72.7292913721
 21
182.8709851116
 31
0.0
  0
LINE
  5
21B
330
1F
100
AcDbEntity
  8
0
  6
Continuous
 62
     7
370
    25
100
AcDbLine
 10
55.2292913721
 20
148.0148830697
 30
0.0
 11
55.2292913721
 21
169.5148830697
 31
0.0
  0
LINE
  5
21C
330
1F
100
AcDbEntity
  8
0
  6
Continuous
 62
     7
370
    25
100
AcDbLine
 10
55.2292913721
 20
148.0148830697
 30
0.0
 11
83.2292913721
 21
148.0148830697
 31
0.0
  0
LINE
  5
21D
330
1F
100
AcDbEntity
  8
0
  6
Continuous
 62
     7
370
    25
100
AcDbLine
 10
162.2292913721
 20
148.0148830697
 30
0.0
 11
190.2292913721
 21
148.0148830697
 31
0.0
  0
LINE
  5
21E
330
1F
100
AcDbEntity
  8
0
  6
Continuous
 62
     8
370
    18
100
AcDbLine
 10
176.8849809132
 20
176.7643830728
 30
0.0
 11
175.1537961311
 21
177.7638830728
 31
0.0
  0
LINE
  5
21F
330
1F
100
AcDbEntity
  8
0
  6
Continuous
 62
     8
370
    18
100
AcDbLine
 10
173.1982024588
 20
174.3766954735
 30
0.0
 11
174.929387241
 21
173.3771954735
 31
0.0
  0
LINE
  5
220
330
1F
100
AcDbEntity
  8
0
  6
Continuous
 62
     8
370
    18
100
AcDbLine
 10
190.2292913721
 20
205.9397254677
 30
0.0
 11
188.2302913721
 21
205.9397254677
 31
0.0
  0
LINE
  5
221
330
1F
100
AcDbEntity
  8
0
  6
Continuous
 62
     8
370
    18
100
AcDbLine
 10
188.2302913721
 20
169.9887254677
 30
0.0
 11
190.2292913721
 21
169.9887254677
 31
0.0
  0
LINE
  5
222
330
1F
100
AcDbEntity
  8
0
  6
Continuous
 62
     8
370
    18
100
AcDbLine
 10
174.7282913721
 20
172.6266954735
 30
0.0
 11
172.7292913721
 21
172.6266954735
 31
0.0
  0
LINE
  5
223
330
1F
100
AcDbEntity
  8
0
  6
Continuous
 62
     8
370
    18
100
AcDbLine
 10
174.7282913721
 20
184.0138828936
 30
0.0
 11
172.7292913721
 21
184.013882659
 31
0.0
  0
LINE
  5
224
330
1F
100
AcDbEntity
  8
0
  6
Continuous
 62
     8
370
    18
100
AcDbLine
 10
172.7292913721
 20
183.2104171273
 30
0.0
 11
174.7282913721
 21
183.2104171273
 31
0.0
  0
LINE
  5
225
330
1F
100
AcDbEntity
  8
0
  6
Continuous
 62
     8
370
    18
100
AcDbLine
 10
175.1679240935
 20
182.1490502594
 30
0.0
 11
173.7544176379
 21
180.7355438038
 31
0.0
  0
LINE
  5
226
330
1F
100
AcDbEntity
  8
0
  6
Continuous
 62
     8
370
    18
100
AcDbLine
 10
174.9154181972
 20
179.5745432446
 30
0.0
 11
176.3289246528
 21
180.9880497001
 31
0.0
  0
LINE
  5
227
330
1F
100
AcDbEntity
  8
0
  6
Continuous
 62
     8
370
    18
100
AcDbLine
 10
184.4792913721
 20
185.5148830697
 30
0.0
 11
184.4792913721
 21
187.5138830697
 31
0.0
  0
LINE
  5
228
330
1F
100
AcDbEntity
  8
0
  6
Continuous
 62
     8
370
    18
100
AcDbLine
 10
185.9792913721
 20
189.0138830697
 30
0.0
 11
187.9782913721
 21
189.0138830697
 31
0.0
  0
LINE
  5
229
330
1F
100
AcDbEntity
  8
0
  6
Continuous
 62
     8
370
    18
100
AcDbLine
 10
187.9782913721
 20
206.0138830697
 30
0.0
 11
185.9792913721
 21
206.0138830697
 31
0.0
  0
LINE
  5
22A
330
1F
100
AcDbEntity
  8
0
  6
Continuous
 62
     8
370
    18
100
AcDbLine
 10
187.9792913721
 20
208.0138830697
 30
0.0
 11
187.9792913721
 21
206.0148830697
 31
0.0
  0
LINE
  5
22B
330
1F
100
AcDbEntity
  8
0
  6
Continuous
 62
     8
370
    18
100
AcDbLine
 10
188.1551337701
 20
206.0148830697
 30
0.0
 11
188.1551337701
 21
208.0138830697
 31
0.0
  0
LINE
  5
22C
330
1F
100
AcDbEntity
  8
0
  6
Continuous
 62
     8
370
    18
100
AcDbLine
 10
176.2292913721
 20
187.5138830697
 30
0.0
 11
176.2292913721
 21
185.5148830697
 31
0.0
  0
LINE
  5
22D
330
1F
100
AcDbEntity
  8
0
  6
Continuous
 62
     8
370
    18
100
AcDbLine
 10
174.8282913721
 20
162.5628830697
 30
0.0
 11
176.8272913721
 21
162.5628830697
 31
0.0
  0
LINE
  5
22E
330
1F
100
AcDbEntity
  8
0
  6
Continuous
 62
     8
370
    18
100
AcDbLine
 10
174.7282913721
 20
162.5628830697
 30
0.0
 11
172.7292913721
 21
162.5628830697
 31
0.0
  0
LINE
  5
22F
330
1F
100
AcDbEntity
  8
0
  6
Continuous
 62
     8
370
    18
100
AcDbLine
 10
188.1302913721
 20
169.9887254677
 30
0.0
 11
186.1312913721
 21
169.9887254677
 31
0.0
  0
LINE
  5
230
330
1F
100
AcDbEntity
  8
0
  6
Continuous
 62
     8
370
    18
100
AcDbLine
 10
70.6302913721
 20
162.5628830697
 30
0.0
 11
68.6312913721
 21
162.5628830697
 31
0.0
  0
LINE
  5
231
330
1F
100
AcDbEntity
  8
0
  6
Continuous
 62
     8
370
    18
100
AcDbLine
 10
70.7302913721
 20
162.5628830697
 30
0.0
 11
72.7292913721
 21
162.5628830697
 31
0.0
  0
LINE
  5
232
330
1F
100
AcDbEntity
  8
0
  6
Continuous
 62
     8
370
    18
100
AcDbLine
 10
70.5291955031
 20
173.3771954735
 30
0.0
 11
72.2603802853
 21
174.3766954735
 31
0.0
  0
LINE
  5
233
330
1F
100
AcDbEntity
  8
0
  6
Continuous
 62
     8
370
    18
100
AcDbLine
 10
72.7292913721
 20
172.6266954735
 30
0.0
 11
70.7302913721
 21
172.6266954735
 31
0.0
  0
LINE
  5
234
330
1F
100
AcDbEntity
  8
0
  6
Continuous
 62
     8
370
    18
100
AcDbLine
 10
69.1296580913
 20
180.9880497001
 30
0.0
 11
70.5431645469
 21
179.5745432446
 31
0.0
  0
LINE
  5
235
330
1F
100
AcDbEntity
  8
0
  6
Continuous
 62
     8
370
    18
100
AcDbLine
 10
70.304786613
 20
177.7638830728
 30
0.0
 11
68.5736018309
 21
176.7643830728
 31
0.0
  0
LINE
  5
236
330
1F
100
AcDbEntity
  8
0
  6
Continuous
 62
     8
370
    18
100
AcDbLine
 10
57.2282913721
 20
205.9397254677
 30
0.0
 11
55.2292913721
 21
205.9397254677
 31
0.0
  0
LINE
  5
237
330
1F
100
AcDbEntity
  8
0
  6
Continuous
 62
     8
370
    18
100
AcDbLine
 10
57.2282913721
 20
169.9887254677
 30
0.0
 11
55.2292913721
 21
169.9887254677
 31
0.0
  0
LINE
  5
238
330
1F
100
AcDbEntity
  8
0
  6
Continuous
 62
     8
370
    18
100
AcDbLine
 10
69.2292913721
 20
185.5148830697
 30
0.0
 11
69.2292913721
 21
187.5138830697
 31
0.0
  0
LINE
  5
239
330
1F
100
AcDbEntity
  8
0
  6
Continuous
 62
     8
370
    18
100
AcDbLine
 10
60.9792913721
 20
187.5138830697
 30
0.0
 11
60.9792913721
 21
185.5148830697
 31
0.0
  0
LINE
  5
23A
330
1F
100
AcDbEntity
  8
0
  6
Continuous
 62
     8
370
    18
100
AcDbLine
 10
57.4792913721
 20
206.0148830697
 30
0.0
 11
57.4792913721
 21
208.0138830697
 31
0.0
  0
LINE
  5
23B
330
1F
100
AcDbEntity
  8
0
  6
Continuous
 62
     8
370
    18
100
AcDbLine
 10
59.4792913721
 20
206.0138830697
 30
0.0
 11
57.4802913721
 21
206.0138830697
 31
0.0
  0
LINE
  5
23C
330
1F
100
AcDbEntity
  8
0
  6
Continuous
 62
     8
370
    18
100
AcDbLine
 10
57.3282913721
 20
169.9887254677
 30
0.0
 11
59.3272913721
 21
169.9887254677
 31
0.0
  0
LINE
  5
23D
330
1F
100
AcDbEntity
  8
0
  6
Continuous
 62
     8
370
    18
100
AcDbLine
 10
70.7302913721
 20
183.2104171273
 30
0.0
 11
72.7292913721
 21
183.2104171273
 31
0.0
  0
LINE
  5
23E
330
1F
100
AcDbEntity
  8
0
  6
Continuous
 62
     8
370
    18
100
AcDbLine
 10
72.7292913721
 20
184.013882659
 30
0.0
 11
70.7302913721
 21
184.0138828936
 31
0.0
  0
LINE
  5
23F
330
1F
100
AcDbEntity
  8
0
  6
Continuous
 62
     8
370
    18
100
AcDbLine
 10
57.4802913721
 20
189.0138830697
 30
0.0
 11
59.4792913721
 21
189.0138830697
 31
0.0
  0
LINE
  5
240
330
1F
100
AcDbEntity
  8
0
  6
Continuous
 62
     8
370
    18
100
AcDbLine
 10
71.7041651062
 20
180.7355438038
 30
0.0
 11
70.2906586506
 21
182.1490502594
 31
0.0
  0
LINE
  5
241
330
1F
100
AcDbEntity
  8
0
  6
Continuous
 62
     8
370
    18
100
AcDbLine
 10
57.303448974
 20
208.0138830697
 30
0.0
 11
57.303448974
 21
206.0148830697
 31
0.0
  0
DIMENSION
  5
242
330
1F
100
AcDbEntity
  8
SLD-0
100
AcDbDimension
  2
_D
 10
190.2292913721
 20
227.6859548109
 30
0.0
 11
122.7292913721
 21
227.6859548109
 31
0.0
 70
   160
  1
<>
 71
     2
 42
-1.0
  3
SLDDIMSTYLE0
100
AcDbAlignedDimension
 13
55.2292913721
 23
205.9397254677
 33
0.0
 14
190.2292913721
 24
205.9397254677
 34
0.0
100
AcDbRotatedDimension
  0
DIMENSION
  5
24D
330
1F
100
AcDbEntity
  8
SLD-0
100
AcDbDimension
  2
_D_1
 10
185.9792913721
 20
218.0138830697
 30
0.0
 11
122.7292913721
 21
218.0138830697
 31
0.0
 70
   160
  1
127
 71
     2
 42
-1.0
  3
SLDDIMSTYLE0
100
AcDbAlignedDimension
 13
59.4792913721
 23
206.0138830697
 33
0.0
 14
185.9792913721
 24
206.0138830697
 34
0.0
100
AcDbRotatedDimension
  0
DIMENSION
  5
257
330
1F
100
AcDbEntity
  8
SLD-0
100
AcDbDimension
  2
_D_2
 10
172.7292913721
 20
207.9786879141
 30
0.0
 11
122.7292913721
 21
207.9786879141
 31
0.0
 70
   160
  1
<>
 71
     2
 42
-1.0
  3
SLDDIMSTYLE0
100
AcDbAlignedDimension
 13
72.7292913721
 23
172.6266954735
 33
0.0
 14
172.7292913721
 24
172.6266954735
 34
0.0
100
AcDbRotatedDimension
  0
DIMENSION
  5
261
330
1F
100
AcDbEntity
  8
SLD-0
100
AcDbDimension
  2
_D_3
 10
50.4236769134
 20
208.0138830697
 30
0.0
 11
50.4236769134
 21
197.7638830697
 31
0.0
 70
   160
  1
<>
 71
     2
 42
-1.0
  3
SLDDIMSTYLE1
100
AcDbAlignedDimension
 13
60.9792913721
 23
187.5138830697
 33
0.0
 14
57.4792913721
 24
208.0138830697
 34
0.0
 50
90.0
100
AcDbRotatedDimension
  0
DIMENSION
  5
26C
330
1F
100
AcDbEntity
  8
SLD-0
100
AcDbDimension
  2
_D_4
 10
39.2292913721
 20
208.0138830697
 30
0.0
 11
39.2292913721
 21
183.0143830697
 31
0.0
 70
   160
  1
(<>)
 71
     2
 42
-1.0
  3
SLDDIMSTYLE0
100
AcDbAlignedDimension
 13
74.7292913721
 23
158.0148830697
 33
0.0
 14
57.303448974
 24
208.0138830697
 34
0.0
 50
90.0
100
AcDbRotatedDimension
  0
DIMENSION
  5
278
330
1F
100
AcDbEntity
  8
SLD-0
100
AcDbDimension
  2
_D_5
 10
27.7472542345
 20
208.0138830697
 30
0.0
 11
27.7472542345
 21
178.0143830697
 31
0.0
 70
   160
  1
(<>)
 71
     2
 42
-1.0
  3
SLDDIMSTYLE0
100
AcDbAlignedDimension
 13
55.2292913721
 23
148.0148830697
 33
0.0
 14
57.303448974
 24
208.0138830697
 34
0.0
 50
90.0
100
AcDbRotatedDimension
  0
DIMENSION
  5
284
330
1F
100
AcDbEntity
  8
SLD-0
100
AcDbDimension
  2
_D_6
 10
39.2292913721
 20
148.0148830697
 30
0.0
 11
39.2292913721
 21
153.0148830697
 31
0.0
 70
   160
  1
<>
 71
     2
 42
-1.0
  3
SLDDIMSTYLE2
100
AcDbAlignedDimension
 13
74.7292913721
 23
158.0148830697
 33
0.0
 14
55.2292913721
 24
148.0148830697
 34
0.0
 50
90.0
100
AcDbRotatedDimension
  0
LINE
  5
291
330
1F
100
AcDbEntity
  8
0
  6
Continuous
 62
     7
370
    25
100
AcDbLine
 10
398.5911115347
 20
184.0142830697
 30
0.0
 11
198.5911115347
 21
184.0142830697
 31
0.0
  0
LINE
  5
292
330
1F
100
AcDbEntity
  8
0
  6
Continuous
 62
     7
370
    25
100
AcDbLine
 10
398.5911115347
 20
184.0142830697
 30
0.0
 11
398.5911115347
 21
183.5994515493
 31
0.0
  0
LINE
  5
293
330
1F
100
AcDbEntity
  8
0
  6
Continuous
 62
     7
370
    25
100
AcDbLine
 10
198.5911115347
 20
184.0142830697
 30
0.0
 11
198.5911115347
 21
183.5994515493
 31
0.0
  0
LINE
  5
294
330
1F
100
AcDbEntity
  8
0
  6
Continuous
 62
     7
370
    25
100
AcDbLine
 10
398.5911115347
 20
176.4092515493
 30
0.0
 11
398.5911115347
 21
176.3144830697
 31
0.0
  0
LINE
  5
295
330
1F
100
AcDbEntity
  8
0
  6
Continuous
 62
     7
370
    25
100
AcDbLine
 10
198.5911115347
 20
176.3144830697
 30
0.0
 11
198.5911115347
 21
176.4092515493
 31
0.0
  0
LINE
  5
296
330
1F
100
AcDbEntity
  8
0
  6
Continuous
 62
     7
370
    25
100
AcDbLine
 10
398.5911115347
 20
183.5994515493
 30
0.0
 11
398.5911115347
 21
176.4092515493
 31
0.0
  0
LINE
  5
297
330
1F
100
AcDbEntity
  8
0
  6
Continuous
 62
     7
370
    25
100
AcDbLine
 10
198.5911115347
 20
183.5994515493
 30
0.0
 11
198.5911115347
 21
176.4092515493
 31
0.0
  0
LINE
  5
298
330
1F
100
AcDbEntity
  8
0
  6
Continuous
 62
     7
370
    25
100
AcDbLine
 10
283.1739849114
 20
174.9911064463
 30
0.0
 11
282.7612414049
 21
174.9911064463
 31
0.0
  0
SPLINE
  5
299
330
1F
100
AcDbEntity
  8
0
  6
Continuous
 62
     7
370
    25
100
AcDbSpline
210
0.0
220
0.0
230
1.0
 70
     8
 71
     3
 72
    11
 73
     7
 74
     0
 42
0.000000001
 43
0.00000001
 40
0.0
 40
0.0
 40
0.0
 40
0.0
 40
0.249073167213935
 40
0.3746975734985367
 40
0.4999656583352335
 40
1.0
 40
1.0
 40
1.0
 40
1.0
 10
283.6183842620209
 20
174.7025512514891
 30
0.0
 10
283.6128169361626
 20
174.7537362386498
 30
0.0
 10
283.6044416321775
 20
174.830737268922
 30
0.0
 10
283.5382110516455
 20
174.9102455538446
 30
0.0
 10
283.407540840969
 20
174.9897942789952
 30
0.0
 10
283.2777636101592
 20
174.9905233953089
 30
0.0
 10
283.1739849113715
 20
174.9911064462943
 30
0.0
  0
SPLINE
  5
29A
330
1F
100
AcDbEntity
  8
0
  6
Continuous
 62
     7
370
    25
100
AcDbSpline
210
0.0
220
0.0
230
1.0
 70
     8
 71
     3
 72
    11
 73
     7
 74
     0
 42
0.000000001
 43
0.00000001
 40
0.0
 40
0.0
 40
0.0
 40
0.0
 40
0.2797326981239744
 40
0.5592718802498721
 40
0.7796589455822424
 40
0.9999999999999999
 40
0.9999999999999999
 40
0.9999999999999999
 40
0.9999999999999999
 10
283.4065336126702
 20
174.4456519008397
 30
0.0
 10
283.4391840358543
 20
174.4553851781883
 30
0.0
 10
283.5044622950194
 20
174.4748449995113
 30
0.0
 10
283.5716113379164
 20
174.5446799752757
 30
0.0
 10
283.612270104214
 20
174.6226884628304
 30
0.0
 10
283.6163463512686
 20
174.675932174773
 30
0.0
 10
283.6183842620209
 20
174.7025512514891
 30
0.0
  0
SPLINE
  5
29B
330
1F
100
AcDbEntity
  8
0
  6
Continuous
 62
     7
370
    25
100
AcDbSpline
210
0.0
220
0.0
230
1.0
 70
     8
 71
     3
 72
     9
 73
     5
 74
     0
 42
0.000000001
 43
0.00000001
 40
0.0
 40
0.0
 40
0.0
 40
0.0
 40
0.5598127168889414
 40
0.9999999999999999
 40
0.9999999999999999
 40
0.9999999999999999
 40
0.9999999999999999
 10
283.1575482230598
 20
174.4066908618787
 30
0.0
 10
283.2043911964208
 20
174.411590629727
 30
0.0
 10
283.2880673472973
 20
174.4203431423093
 30
0.0
 10
283.3703248889116
 20
174.4379163835309
 30
0.0
 10
283.4065336126702
 20
174.4456519008397
 30
0.0
  0
LINE
  5
29C
330
1F
100
AcDbEntity
  8
0
  6
Continuous
 62
     7
370
    25
100
AcDbLine
 10
282.7612414049
 20
174.4066908619
 30
0.0
 11
283.1575482231
 21
174.4066908619
 31
0.0
  0
LINE
  5
29D
330
1F
100
AcDbEntity
  8
0
  6
Continuous
 62
     7
370
    25
100
AcDbLine
 10
282.7612414049
 20
174.9911064463
 30
0.0
 11
282.7612414049
 21
174.4066908619
 31
0.0
  0
LINE
  5
29E
330
1F
100
AcDbEntity
  8
0
  6
Continuous
 62
     7
370
    25
100
AcDbLine
 10
268.4235790672
 20
172.6144830697
 30
0.0
 11
267.4483355607
 21
172.6144830697
 31
0.0
  0
LINE
  5
29F
330
1F
100
AcDbEntity
  8
0
  6
Continuous
 62
     7
370
    25
100
AcDbLine
 10
267.3052754958
 20
175.6144830697
 30
0.0
 11
268.4235790672
 21
172.6144830697
 31
0.0
  0
LINE
  5
2A0
330
1F
100
AcDbEntity
  8
0
  6
Continuous
 62
     7
370
    25
100
AcDbLine
 10
266.2502836127
 20
175.6144830697
 30
0.0
 11
267.3052754958
 21
175.6144830697
 31
0.0
  0
LINE
  5
2A1
330
1F
100
AcDbEntity
  8
0
  6
Continuous
 62
     7
370
    25
100
AcDbLine
 10
265.1508517945
 20
172.6144830697
 30
0.0
 11
266.2502836127
 21
175.6144830697
 31
0.0
  0
LINE
  5
2A2
330
1F
100
AcDbEntity
  8
0
  6
Continuous
 62
     7
370
    25
100
AcDbLine
 10
266.1005271192
 20
172.6144830697
 30
0.0
 11
265.1508517945
 21
172.6144830697
 31
0.0
  0
LINE
  5
2A3
330
1F
100
AcDbEntity
  8
0
  6
Continuous
 62
     7
370
    25
100
AcDbLine
 10
266.2521099114
 20
173.1209765762
 30
0.0
 11
266.1005271192
 21
172.6144830697
 31
0.0
  0
LINE
  5
2A4
330
1F
100
AcDbEntity
  8
0
  6
Continuous
 62
     7
370
    25
100
AcDbLine
 10
267.2967527685
 20
173.1209765762
 30
0.0
 11
266.2521099114
 21
173.1209765762
 31
0.0
  0
LINE
  5
2A5
330
1F
100
AcDbEntity
  8
0
  6
Continuous
 62
     7
370
    25
100
AcDbLine
 10
267.4483355607
 20
172.6144830697
 30
0.0
 11
267.2967527685
 21
173.1209765762
 31
0.0
  0
SPLINE
  5
2A6
330
1F
100
AcDbEntity
  8
0
  6
Continuous
 62
     7
370
    25
100
AcDbSpline
210
0.0
220
0.0
230
1.0
 70
     8
 71
     3
 72
    12
 73
     8
 74
     0
 42
0.000000001
 43
0.00000001
 40
0.0
 40
0.0
 40
0.0
 40
0.0
 40
0.1871808398352987
 40
0.3738291064056669
 40
0.5602486079208469
 40
0.7796960763245995
 40
0.9999999999999999
 40
0.9999999999999999
 40
0.9999999999999999
 40
0.9999999999999999
 10
275.6625401061767
 20
174.1370074203202
 30
0.0
 10
275.6562753486321
 20
173.9820141773334
 30
0.0
 10
275.6437636582434
 20
173.672468683384
 30
0.0
 10
275.4872932952699
 20
173.2261873556415
 30
0.0
 10
275.1630506732031
 20
172.8453857994382
 30
0.0
 10
274.6843061313746
 20
172.6046465239843
 30
0.0
 10
274.3188422296263
 20
172.5852427919707
 30
0.0
 10
274.135754391891
 20
172.5755220307099
 30
0.0
  0
SPLINE
  5
2A7
330
1F
100
AcDbEntity
  8
0
  6
Continuous
 62
     7
370
    25
100
AcDbSpline
210
0.0
220
0.0
230
1.0
 70
     8
 71
     3
 72
    12
 73
     8
 74
     0
 42
0.000000001
 43
0.00000001
 40
0.0
 40
0.0
 40
0.0
 40
0.0
 40
0.1871359280314117
 40
0.3738826533383177
 40
0.5603374220198192
 40
0.7797698401762133
 40
1.0
 40
1.0
 40
1.0
 40
1.0
 10
274.099228417865
 20
175.6534441086319
 30
0.0
 10
274.253479712561
 20
175.646377735569
 30
0.0
 10
274.5616614922358
 20
175.6322596859885
 30
0.0
 10
275.0049703835472
 20
175.4758791679409
 30
0.0
 10
275.3888983750785
 20
175.1589044056507
 30
0.0
 10
275.6303488246098
 20
174.6825633772426
 30
0.0
 10
275.6517967070176
 20
174.3190792460925
 30
0.0
 10
275.6625401061767
 20
174.1370074203202
 30
0.0
  0
SPLINE
  5
2A8
330
1F
100
AcDbEntity
  8
0
  6
Continuous
 62
     7
370
    25
100
AcDbSpline
210
0.0
220
0.0
230
1.0
 70
     8
 71
     3
 72
    12
 73
     8
 74
     0
 42
0.000000001
 43
0.00000001
 40
0.0
 40
0.0
 40
0.0
 40
0.0
 40
0.1870767452626608
 40
0.3737553587746367
 40
0.560208071942691
 40
0.7797263036176584
 40
0.9999999999999999
 40
0.9999999999999999
 40
0.9999999999999999
 40
0.9999999999999999
 10
272.5456569892936
 20
174.1126567709696
 30
0.0
 10
272.5534992354142
 20
174.2674213230583
 30
0.0
 10
272.5691670379958
 20
174.5766210614347
 30
0.0
 10
272.7394200500477
 20
175.0174512628923
 30
0.0
 10
273.0708507271854
 20
175.3905812858823
 30
0.0
 10
273.552141044312
 20
175.6221967899489
 30
0.0
 10
273.9166572407659
 20
175.6430164145762
 30
0.0
 10
274.099228417865
 20
175.6534441086319
 30
0.0
  0
SPLINE
  5
2A9
330
1F
100
AcDbEntity
  8
0
  6
Continuous
 62
     7
370
    25
100
AcDbSpline
210
0.0
220
0.0
230
1.0
 70
     8
 71
     3
 72
    12
 73
     8
 74
     0
 42
0.000000001
 43
0.00000001
 40
0.0
 40
0.0
 40
0.0
 40
0.0
 40
0.1871987008947067
 40
0.3738816053985726
 40
0.5602815133849175
 40
0.7797443338284314
 40
1.0
 40
1.0
 40
1.0
 40
1.0
 10
274.135754391891
 20
172.5755220307099
 30
0.0
 10
273.9789413643704
 20
172.581862514048
 30
0.0
 10
273.6657473828067
 20
172.594526010526
 30
0.0
 10
273.2098266297724
 20
172.7435255093739
 30
0.0
 10
272.8266429981604
 20
173.0757042680063
 30
0.0
 10
272.577142361604
 20
173.5566419186388
 30
0.0
 10
272.5561647214882
 20
173.9270958347051
 30
0.0
 10
272.5456569892935
 20
174.1126567709696
 30
0.0
  0
LINE
  5
2AA
330
1F
100
AcDbEntity
  8
0
  6
Continuous
 62
     7
370
    25
100
AcDbLine
 10
282.7612414049
 20
173.8222752775
 30
0.0
 11
282.7612414049
 21
172.6144830697
 31
0.0
  0
LINE
  5
2AB
330
1F
100
AcDbEntity
  8
0
  6
Continuous
 62
     7
370
    25
100
AcDbLine
 10
282.8434248464
 20
173.8222752775
 30
0.0
 11
282.7612414049
 21
173.8222752775
 31
0.0
  0
SPLINE
  5
2AC
330
1F
100
AcDbEntity
  8
0
  6
Continuous
 62
     7
370
    25
100
AcDbSpline
210
0.0
220
0.0
230
1.0
 70
     8
 71
     3
 72
     9
 73
     5
 74
     0
 42
0.000000001
 43
0.00000001
 40
0.0
 40
0.0
 40
0.0
 40
0.0
 40
0.5595454497439536
 40
1.0
 40
1.0
 40
1.0
 40
1.0
 10
283.071103417865
 20
173.7534846930475
 30
0.0
 10
283.0313394319055
 20
173.77589485022
 30
0.0
 10
282.9602746310431
 20
173.8159454970134
 30
0.0
 10
282.879154553644
 20
173.8203397907789
 30
0.0
 10
282.8434248464364
 20
173.8222752774631
 30
0.0
  0
SPLINE
  5
2AD
330
1F
100
AcDbEntity
  8
0
  6
Continuous
 62
     7
370
    25
100
AcDbSpline
210
0.0
220
0.0
230
1.0
 70
     8
 71
     3
 72
     9
 73
     5
 74
     0
 42
0.000000001
 43
0.00000001
 40
0.0
 40
0.0
 40
0.0
 40
0.0
 40
0.5606896493157371
 40
0.9999999999999999
 40
0.9999999999999999
 40
0.9999999999999999
 40
0.9999999999999999
 10
283.2391228983845
 20
173.5239798229177
 30
0.0
 10
283.2138754509478
 20
173.5714958884531
 30
0.0
 10
283.1688461776813
 20
173.6562416396782
 30
0.0
 10
283.1009367377403
 20
173.7238038949785
 30
0.0
 10
283.071103417865
 20
173.7534846930475
 30
0.0
  0
LINE
  5
2AE
330
1F
100
AcDbEntity
  8
0
  6
Continuous
 62
     7
370
    25
100
AcDbLine
 10
283.7322235477
 20
172.6144830697
 30
0.0
 11
283.2391228984
 21
173.5239798229
 31
0.0
  0
LINE
  5
2AF
330
1F
100
AcDbEntity
  8
0
  6
Continuous
 62
     7
370
    25
100
AcDbLine
 10
284.7872154309
 20
172.6144830697
 30
0.0
 11
283.7322235477
 21
172.6144830697
 31
0.0
  0
LINE
  5
2B0
330
1F
100
AcDbEntity
  8
0
  6
Continuous
 62
     7
370
    25
100
AcDbLine
 10
284.323944327
 20
173.4697996281
 30
0.0
 11
284.7872154309
 21
172.6144830697
 31
0.0
  0
SPLINE
  5
2B1
330
1F
100
AcDbEntity
  8
0
  6
Continuous
 62
     7
370
    25
100
AcDbSpline
210
0.0
220
0.0
230
1.0
 70
     8
 71
     3
 72
     9
 73
     5
 74
     0
 42
0.000000001
 43
0.00000001
 40
0.0
 40
0.0
 40
0.0
 40
0.0
 40
0.5597699036669119
 40
1.0
 40
1.0
 40
1.0
 40
1.0
 10
284.0481732230598
 20
173.8192314462943
 30
0.0
 10
284.1064341401563
 20
173.7593069280879
 30
0.0
 10
284.2105142572095
 20
173.6522548736389
 30
0.0
 10
284.2892725542588
 20
173.5255700848743
 30
0.0
 10
284.3239443269559
 20
173.4697996281125
 30
0.0
  0
SPLINE
  5
2B2
330
1F
100
AcDbEntity
  8
0
  6
Continuous
 62
     7
370
    25
100
AcDbSpline
210
0.0
220
0.0
230
1.0
 70
     8
 71
     3
 72
     9
 73
     5
 74
     0
 42
0.000000001
 43
0.00000001
 40
0.0
 40
0.0
 40
0.0
 40
0.0
 40
0.5601696408922349
 40
1.0
 40
1.0
 40
1.0
 40
1.0
 10
283.8089280931896
 20
173.931853199541
 30
0.0
 10
283.8559071034487
 20
173.9156113972564
 30
0.0
 10
283.9397727877515
 20
173.8866169621802
 30
0.0
 10
284.0150597370942
 20
173.8398159515891
 30
0.0
 10
284.0481732230598
 20
173.8192314462943
 30
0.0
  0
SPLINE
  5
2B3
330
1F
100
AcDbEntity
  8
0
  6
Continuous
 62
     7
370
    25
100
AcDbSpline
210
0.0
220
0.0
230
1.0
 70
     8
 71
     3
 72
     9
 73
     5
 74
     0
 42
0.000000001
 43
0.00000001
 40
0.0
 40
0.0
 40
0.0
 40
0.0
 40
0.5596449196502236
 40
1.0
 40
1.0
 40
1.0
 40
1.0
 10
284.1431407555273
 20
174.0511713813592
 30
0.0
 10
284.0830500486126
 20
174.0224174815355
 30
0.0
 10
283.9756771326712
 20
173.9710386539716
 30
0.0
 10
283.8599077354187
 20
173.9438332412472
 30
0.0
 10
283.8089280931896
 20
173.931853199541
 30
0.0
  0
SPLINE
  5
2B4
330
1F
100
AcDbEntity
  8
0
  6
Continuous
 62
     7
370
    25
100
AcDbSpline
210
0.0
220
0.0
230
1.0
 70
     8
 71
     3
 72
    10
 73
     6
 74
     0
 42
0.000000001
 43
0.00000001
 40
0.0
 40
0.0
 40
0.0
 40
0.0
 40
0.2808224526156198
 40
0.5612097671940106
 40
1.0
 40
1.0
 40
1.0
 40
1.0
 10
284.5534491970857
 20
174.7780382644761
 30
0.0
 10
284.548343104655
 20
174.696248702629
 30
0.0
 10
284.5381388317499
 20
174.532796312923
 30
0.0
 10
284.4156582914235
 20
174.2584142834088
 30
0.0
 10
284.2464061788536
 20
174.1297022030223
 30
0.0
 10
284.1431407555273
 20
174.0511713813592
 30
0.0
  0
SPLINE
  5
2B5
330
1F
100
AcDbEntity
  8
0
  6
Continuous
 62
     7
370
    25
100
AcDbSpline
210
0.0
220
0.0
230
1.0
 70
     8
 71
     3
 72
    12
 73
     8
 74
     0
 42
0.000000001
 43
0.00000001
 40
0.0
 40
0.0
 40
0.0
 40
0.0
 40
0.187585265866401
 40
0.3749963299722668
 40
0.5612881976150889
 40
0.7803241467922802
 40
1.0
 40
1.0
 40
1.0
 40
1.0
 10
283.3827917295533
 20
175.6144830696709
 30
0.0
 10
283.4855008963231
 20
175.6125281484511
 30
0.0
 10
283.6908238486099
 20
175.6086201214564
 30
0.0
 10
283.9979492058785
 20
175.5704228957714
 30
0.0
 10
284.300325406155
 20
175.4323452175519
 30
0.0
 10
284.5201407867465
 20
175.1424022890887
 30
0.0
 10
284.5423356025369
 20
174.899610984294
 30
0.0
 10
284.5534491970858
 20
174.7780382644761
 30
0.0
  0
LINE
  5
2B6
330
1F
100
AcDbEntity
  8
0
  6
Continuous
 62
     7
370
    25
100
AcDbLine
 10
281.8261764698
 20
175.6144830697
 30
0.0
 11
283.3827917296
 21
175.6144830697
 31
0.0
  0
LINE
  5
2B7
330
1F
100
AcDbEntity
  8
0
  6
Continuous
 62
     7
370
    25
100
AcDbLine
 10
281.8261764698
 20
172.6144830697
 30
0.0
 11
281.8261764698
 21
175.6144830697
 31
0.0
  0
LINE
  5
2B8
330
1F
100
AcDbEntity
  8
0
  6
Continuous
 62
     7
370
    25
100
AcDbLine
 10
282.7612414049
 20
172.6144830697
 30
0.0
 11
281.8261764698
 21
172.6144830697
 31
0.0
  0
LINE
  5
2B9
330
1F
100
AcDbEntity
  8
0
  6
Continuous
 62
     7
370
    25
100
AcDbLine
 10
290.0002024438
 20
172.6144830697
 30
0.0
 11
289.0651375088
 21
172.6144830697
 31
0.0
  0
LINE
  5
2BA
330
1F
100
AcDbEntity
  8
0
  6
Continuous
 62
     7
370
    25
100
AcDbLine
 10
290.0002024438
 20
175.6144830697
 30
0.0
 11
290.0002024438
 21
172.6144830697
 31
0.0
  0
LINE
  5
2BB
330
1F
100
AcDbEntity
  8
0
  6
Continuous
 62
     7
370
    25
100
AcDbLine
 10
289.0651375088
 20
175.6144830697
 30
0.0
 11
290.0002024438
 21
175.6144830697
 31
0.0
  0
LINE
  5
2BC
330
1F
100
AcDbEntity
  8
0
  6
Continuous
 62
     7
370
    25
100
AcDbLine
 10
289.0651375088
 20
172.6144830697
 30
0.0
 11
289.0651375088
 21
175.6144830697
 31
0.0
  0
LINE
  5
2BD
330
1F
100
AcDbEntity
  8
0
  6
Continuous
 62
     7
370
    25
100
AcDbLine
 10
302.5819394568
 20
174.1144830697
 30
0.0
 11
304.0027998464
 21
173.5726811216
 31
0.0
  0
LINE
  5
2BE
330
1F
100
AcDbEntity
  8
0
  6
Continuous
 62
     7
370
    25
100
AcDbLine
 10
304.0027998464
 20
174.6520236541
 30
0.0
 11
302.5819394568
 21
174.1144830697
 31
0.0
  0
LINE
  5
2BF
330
1F
100
AcDbEntity
  8
0
  6
Continuous
 62
     7
370
    25
100
AcDbLine
 10
304.0027998464
 20
175.3807168359
 30
0.0
 11
304.0027998464
 21
174.6520236541
 31
0.0
  0
LINE
  5
2C0
330
1F
100
AcDbEntity
  8
0
  6
Continuous
 62
     7
370
    25
100
AcDbLine
 10
301.6651375088
 20
174.4547833943
 30
0.0
 11
304.0027998464
 21
175.3807168359
 31
0.0
  0
LINE
  5
2C1
330
1F
100
AcDbEntity
  8
0
  6
Continuous
 62
     7
370
    25
100
AcDbLine
 10
301.6651375088
 20
173.7808791736
 30
0.0
 11
301.6651375088
 21
174.4547833943
 31
0.0
  0
LINE
  5
2C2
330
1F
100
AcDbEntity
  8
0
  6
Continuous
 62
     7
370
    25
100
AcDbLine
 10
304.0027998464
 20
172.8482493034
 30
0.0
 11
301.6651375088
 21
173.7808791736
 31
0.0
  0
LINE
  5
2C3
330
1F
100
AcDbEntity
  8
0
  6
Continuous
 62
     7
370
    25
100
AcDbLine
 10
304.0027998464
 20
173.5726811216
 30
0.0
 11
304.0027998464
 21
172.8482493034
 31
0.0
  0
LINE
  5
2C4
330
1F
100
AcDbEntity
  8
0
  6
Continuous
 62
     7
370
    25
100
AcDbLine
 10
307.018384262
 20
173.276820732
 30
0.0
 11
304.7976050412
 21
173.276820732
 31
0.0
  0
LINE
  5
2C5
330
1F
100
AcDbEntity
  8
0
  6
Continuous
 62
     7
370
    25
100
AcDbLine
 10
307.018384262
 20
173.9391583943
 30
0.0
 11
307.018384262
 21
173.276820732
 31
0.0
  0
LINE
  5
2C6
330
1F
100
AcDbEntity
  8
0
  6
Continuous
 62
     7
370
    25
100
AcDbLine
 10
304.7976050412
 20
173.9391583943
 30
0.0
 11
307.018384262
 21
173.9391583943
 31
0.0
  0
LINE
  5
2C7
330
1F
100
AcDbEntity
  8
0
  6
Continuous
 62
     7
370
    25
100
AcDbLine
 10
304.7976050412
 20
173.276820732
 30
0.0
 11
304.7976050412
 21
173.9391583943
 31
0.0
  0
LINE
  5
2C8
330
1F
100
AcDbEntity
  8
0
  6
Continuous
 62
     7
370
    25
100
AcDbLine
 10
310.1118907555
 20
173.276820732
 30
0.0
 11
307.8911115347
 21
173.276820732
 31
0.0
  0
LINE
  5
2C9
330
1F
100
AcDbEntity
  8
0
  6
Continuous
 62
     7
370
    25
100
AcDbLine
 10
310.1118907555
 20
173.9391583943
 30
0.0
 11
310.1118907555
 21
173.276820732
 31
0.0
  0
LINE
  5
2CA
330
1F
100
AcDbEntity
  8
0
  6
Continuous
 62
     7
370
    25
100
AcDbLine
 10
307.8911115347
 20
173.9391583943
 30
0.0
 11
310.1118907555
 21
173.9391583943
 31
0.0
  0
LINE
  5
2CB
330
1F
100
AcDbEntity
  8
0
  6
Continuous
 62
     7
370
    25
100
AcDbLine
 10
307.8911115347
 20
173.276820732
 30
0.0
 11
307.8911115347
 21
173.9391583943
 31
0.0
  0
SPLINE
  5
2CC
330
1F
100
AcDbEntity
  8
0
  6
Continuous
 62
     7
370
    25
100
AcDbSpline
210
0.0
220
0.0
230
1.0
 70
     8
 71
     3
 72
    11
 73
     7
 74
     0
 42
0.000000001
 43
0.00000001
 40
0.0
 40
0.0
 40
0.0
 40
0.0
 40
0.2802556757913416
 40
0.5600694849457776
 40
0.7800353920221936
 40
1.0
 40
1.0
 40
1.0
 40
1.0
 10
323.2729297165664
 20
174.8742233294111
 30
0.0
 10
323.3925423354572
 20
174.9141822438331
 30
0.0
 10
323.6315789853521
 20
174.9940370712371
 30
0.0
 10
323.9395084120375
 20
175.1685646863744
 30
0.0
 10
324.1757765299768
 20
175.3956979788875
 30
0.0
 10
324.275177453511
 20
175.5675289011873
 30
0.0
 10
324.3248777685145
 20
175.653444108632
 30
0.0
  0
LINE
  5
2CD
330
1F
100
AcDbEntity
  8
0
  6
Continuous
 62
     7
370
    25
100
AcDbLine
 10
323.2729297166
 20
174.1729246281
 30
0.0
 11
323.2729297166
 21
174.8742233294
 31
0.0
  0
SPLINE
  5
2CE
330
1F
100
AcDbEntity
  8
0
  6
Continuous
 62
     7
370
    25
100
AcDbSpline
210
0.0
220
0.0
230
1.0
 70
     8
 71
     3
 72
     9
 73
     5
 74
     0
 42
0.000000001
 43
0.00000001
 40
0.0
 40
0.0
 40
0.0
 40
0.0
 40
0.5596478271240084
 40
1.0
 40
1.0
 40
1.0
 40
1.0
 10
324.1690336126703
 20
174.6203678099306
 30
0.0
 10
324.0134920795599
 20
174.5129088512767
 30
0.0
 10
323.7355645587658
 20
174.320897101305
 30
0.0
 10
323.4143689158449
 20
174.2181635643416
 30
0.0
 10
323.2729297165664
 20
174.1729246281125
 30
0.0
  0
LINE
  5
2CF
330
1F
100
AcDbEntity
  8
0
  6
Continuous
 62
     7
370
    25
100
AcDbLine
 10
324.1690336127
 20
172.6144830697
 30
0.0
 11
324.1690336127
 21
174.6203678099
 31
0.0
  0
LINE
  5
2D0
330
1F
100
AcDbEntity
  8
0
  6
Continuous
 62
     7
370
    25
100
AcDbLine
 10
325.0261764698
 20
172.6144830697
 30
0.0
 11
324.1690336127
 21
172.6144830697
 31
0.0
  0
LINE
  5
2D1
330
1F
100
AcDbEntity
  8
0
  6
Continuous
 62
     7
370
    25
100
AcDbLine
 10
325.0261764698
 20
175.6534441086
 30
0.0
 11
325.0261764698
 21
172.6144830697
 31
0.0
  0
LINE
  5
2D2
330
1F
100
AcDbEntity
  8
0
  6
Continuous
 62
     7
370
    25
100
AcDbLine
 10
324.3248777685
 20
175.6534441086
 30
0.0
 11
325.0261764698
 21
175.6534441086
 31
0.0
  0
SPLINE
  5
2D3
330
1F
100
AcDbEntity
  8
0
  6
Continuous
 62
     7
370
    25
100
AcDbSpline
210
0.0
220
0.0
230
1.0
 70
     8
 71
     3
 72
    11
 73
     7
 74
     0
 42
0.000000001
 43
0.00000001
 40
0.0
 40
0.0
 40
0.0
 40
0.0
 40
0.2803107270246632
 40
0.5598885774967317
 40
0.7799214485274975
 40
1.0
 40
1.0
 40
1.0
 40
1.0
 10
330.6269475737092
 20
172.5755220307099
 30
0.0
 10
330.5176856348652
 20
172.5792494143091
 30
0.0
 10
330.2994474241365
 20
172.5866944362078
 30
0.0
 10
330.0048271430724
 20
172.6784045163056
 30
0.0
 10
329.7711030617314
 20
172.8410818112667
 30
0.0
 10
329.6671566790025
 20
172.9781605915841
 30
0.0
 10
329.6151780931897
 20
173.0467070956449
 30
0.0
  0
SPLINE
  5
2D4
330
1F
100
AcDbEntity
  8
0
  6
Continuous
 62
     7
370
    25
100
AcDbSpline
210
0.0
220
0.0
230
1.0
 70
     8
 71
     3
 72
    13
 73
     9
 74
     0
 42
0.000000001
 43
0.00000001
 40
0.0
 40
0.0
 40
0.0
 40
0.0
 40
0.1871174103431534
 40
0.3740390809668428
 40
0.5601850337173813
 40
0.7063736238378047
 40
0.8530463346113655
 40
1.0
 40
1.0
 40
1.0
 40
1.0
 10
331.8755271191638
 20
174.1370074203202
 30
0.0
 10
331.8716624068801
 20
173.9928596398803
 30
0.0
 10
331.8639370251097
 20
173.7047148690634
 30
0.0
 10
331.7810901124773
 20
173.2802944324119
 30
0.0
 10
331.6022519498221
 20
172.9089588868833
 30
0.0
 10
331.2963116712622
 20
172.6839489630942
 30
0.0
 10
330.9662929697859
 20
172.5890622865804
 30
0.0
 10
330.740134838413
 20
172.5800383275069
 30
0.0
 10
330.6269475737092
 20
172.5755220307099
 30
0.0
  0
SPLINE
  5
2D5
330
1F
100
AcDbEntity
  8
0
  6
Continuous
 62
     7
370
    25
100
AcDbSpline
210
0.0
220
0.0
230
1.0
 70
     8
 71
     3
 72
     9
 73
     5
 74
     0
 42
0.000000001
 43
0.00000001
 40
0.0
 40
0.0
 40
0.0
 40
0.0
 40
0.559914821953941
 40
1.0
 40
1.0
 40
1.0
 40
1.0
 10
331.7902998464365
 20
174.8310009268137
 30
0.0
 10
331.8179400661086
 20
174.7028265194624
 30
0.0
 10
331.8673051098409
 20
174.4739088299753
 30
0.0
 10
331.8730145008187
 20
174.239963355922
 30
0.0
 10
331.8755271191638
 20
174.1370074203202
 30
0.0
  0
SPLINE
  5
2D6
330
1F
100
AcDbEntity
  8
0
  6
Continuous
 62
     7
370
    25
100
AcDbSpline
210
0.0
220
0.0
230
1.0
 70
     8
 71
     3
 72
    11
 73
     7
 74
     0
 42
0.000000001
 43
0.00000001
 40
0.0
 40
0.0
 40
0.0
 40
0.0
 40
0.2804754734820656
 40
0.5595654935685351
 40
0.7796409827162528
 40
0.9999999999999999
 40
0.9999999999999999
 40
0.9999999999999999
 40
0.9999999999999999
 10
330.6494719243586
 20
175.6534441086319
 30
0.0
 10
330.7937871170105
 20
175.6474636754487
 30
0.0
 10
331.0817046343718
 20
175.6355323503871
 30
0.0
 10
331.4489589643701
 20
175.4460833868887
 30
0.0
 10
331.6893869406182
 20
175.1556759015404
 30
0.0
 10
331.7566477781893
 20
174.9392723547254
 30
0.0
 10
331.7902998464365
 20
174.8310009268137
 30
0.0
  0
SPLINE
  5
2D7
330
1F
100
AcDbEntity
  8
0
  6
Continuous
 62
     7
370
    25
100
AcDbSpline
210
0.0
220
0.0
230
1.0
 70
     8
 71
     3
 72
    13
 73
     9
 74
     0
 42
0.000000001
 43
0.00000001
 40
0.0
 40
0.0
 40
0.0
 40
0.0
 40
0.1871594996892871
 40
0.3740638197467866
 40
0.5598195326586926
 40
0.7062514219437643
 40
0.8530012592542187
 40
0.9999999999999999
 40
0.9999999999999999
 40
0.9999999999999999
 40
0.9999999999999999
 10
329.3820206256573
 20
174.1266583943462
 30
0.0
 10
329.3858481770451
 20
174.2696480699477
 30
0.0
 10
329.3934980612068
 20
174.5554324641602
 30
0.0
 10
329.4767951568367
 20
174.9770363048409
 30
0.0
 10
329.6734706245123
 20
175.3374378817847
 30
0.0
 10
329.9862593954186
 20
175.544223950295
 30
0.0
 10
330.3123526634041
 20
175.6402836730012
 30
0.0
 10
330.5370353768689
 20
175.6490548193887
 30
0.0
 10
330.6494719243586
 20
175.6534441086319
 30
0.0
  0
SPLINE
  5
2D8
330
1F
100
AcDbEntity
  8
0
  6
Continuous
 62
     7
370
    25
100
AcDbSpline
210
0.0
220
0.0
230
1.0
 70
     8
 71
     3
 72
    10
 73
     6
 74
     0
 42
0.000000001
 43
0.00000001
 40
0.0
 40
0.0
 40
0.0
 40
0.0
 40
0.2795726797720474
 40
0.559772249436025
 40
1.0
 40
1.0
 40
1.0
 40
1.0
 10
329.6151780931897
 20
173.0467070956449
 30
0.0
 10
329.5678167259247
 20
173.1398752599411
 30
0.0
 10
329.4729877923108
 20
173.3264205008652
 30
0.0
 10
329.3996060895025
 20
173.6949851130917
 30
0.0
 10
329.3886906600077
 20
173.9629279611043
 30
0.0
 10
329.3820206256573
 20
174.1266583943462
 30
0.0
  0
LINE
  5
2D9
330
1F
100
AcDbEntity
  8
0
  6
Continuous
 62
     7
370
    25
100
AcDbLine
 10
336.9231115347
 20
175.7144830697
 30
0.0
 11
360.2571115347
 21
175.7144830697
 31
0.0
  0
LINE
  5
2DA
330
1F
100
AcDbEntity
  8
0
  6
Continuous
 62
     7
370
    25
100
AcDbLine
 10
336.9231115347
 20
172.6144830697
 30
0.0
 11
336.9231115347
 21
175.7144830697
 31
0.0
  0
LINE
  5
2DB
330
1F
100
AcDbEntity
  8
0
  6
Continuous
 62
     7
370
    25
100
AcDbLine
 10
360.2571115347
 20
172.6144830697
 30
0.0
 11
336.9231115347
 21
172.6144830697
 31
0.0
  0
LINE
  5
2DC
330
1F
100
AcDbEntity
  8
0
  6
Continuous
 62
     7
370
    25
100
AcDbLine
 10
360.2571115347
 20
175.7144830697
 30
0.0
 11
360.2571115347
 21
172.6144830697
 31
0.0
  0
LINE
  5
2DD
330
1F
100
AcDbEntity
  8
0
  6
Continuous
 62
     7
370
    25
100
AcDbLine
 10
203.5911115347
 20
172.6144830697
 30
0.0
 11
203.5911115347
 21
175.7144830697
 31
0.0
  0
LINE
  5
2DE
330
1F
100
AcDbEntity
  8
0
  6
Continuous
 62
     7
370
    25
100
AcDbLine
 10
226.9251115347
 20
172.6144830697
 30
0.0
 11
203.5911115347
 21
172.6144830697
 31
0.0
  0
LINE
  5
2DF
330
1F
100
AcDbEntity
  8
0
  6
Continuous
 62
     7
370
    25
100
AcDbLine
 10
226.9251115347
 20
175.7144830697
 30
0.0
 11
226.9251115347
 21
172.6144830697
 31
0.0
  0
LINE
  5
2E0
330
1F
100
AcDbEntity
  8
0
  6
Continuous
 62
     7
370
    25
100
AcDbLine
 10
203.5911115347
 20
175.7144830697
 30
0.0
 11
226.9251115347
 21
175.7144830697
 31
0.0
  0
LINE
  5
2E1
330
1F
100
AcDbEntity
  8
0
  6
Continuous
 62
     7
370
    25
100
AcDbLine
 10
198.5911115347
 20
172.0144830697
 30
0.0
 11
398.5911115347
 21
172.0144830697
 31
0.0
  0
LINE
  5
2E2
330
1F
100
AcDbEntity
  8
0
  6
Continuous
 62
     7
370
    25
100
AcDbLine
 10
198.5911115347
 20
172.0144830697
 30
0.0
 11
198.5911115347
 21
176.3144830697
 31
0.0
  0
LINE
  5
2E3
330
1F
100
AcDbEntity
  8
0
  6
Continuous
 62
     7
370
    25
100
AcDbLine
 10
198.5911115347
 20
176.3144830697
 30
0.0
 11
398.5911115347
 21
176.3144830697
 31
0.0
  0
LINE
  5
2E4
330
1F
100
AcDbEntity
  8
0
  6
Continuous
 62
     7
370
    25
100
AcDbLine
 10
398.5911115347
 20
172.0144830697
 30
0.0
 11
398.5911115347
 21
176.3144830697
 31
0.0
  0
LINE
  5
2E5
330
1F
100
AcDbEntity
  8
0
  6
Continuous
 62
     7
370
    25
100
AcDbLine
 10
236.9251115347
 20
172.6144830697
 30
0.0
 11
236.9251115347
 21
175.7144830697
 31
0.0
  0
LINE
  5
2E6
330
1F
100
AcDbEntity
  8
0
  6
Continuous
 62
     7
370
    25
100
AcDbLine
 10
260.2591115347
 20
172.6144830697
 30
0.0
 11
236.9251115347
 21
172.6144830697
 31
0.0
  0
LINE
  5
2E7
330
1F
100
AcDbEntity
  8
0
  6
Continuous
 62
     7
370
    25
100
AcDbLine
 10
260.2591115347
 20
175.7144830697
 30
0.0
 11
260.2591115347
 21
172.6144830697
 31
0.0
  0
LINE
  5
2E8
330
1F
100
AcDbEntity
  8
0
  6
Continuous
 62
     7
370
    25
100
AcDbLine
 10
236.9251115347
 20
175.7144830697
 30
0.0
 11
260.2591115347
 21
175.7144830697
 31
0.0
  0
LINE
  5
2E9
330
1F
100
AcDbEntity
  8
0
  6
Continuous
 62
     7
370
    25
100
AcDbLine
 10
370.2571115347
 20
175.7144830697
 30
0.0
 11
393.5911115347
 21
175.7144830697
 31
0.0
  0
LINE
  5
2EA
330
1F
100
AcDbEntity
  8
0
  6
Continuous
 62
     7
370
    25
100
AcDbLine
 10
370.2571115347
 20
172.6144830697
 30
0.0
 11
370.2571115347
 21
175.7144830697
 31
0.0
  0
LINE
  5
2EB
330
1F
100
AcDbEntity
  8
0
  6
Continuous
 62
     7
370
    25
100
AcDbLine
 10
393.5911115347
 20
172.6144830697
 30
0.0
 11
370.2571115347
 21
172.6144830697
 31
0.0
  0
LINE
  5
2EC
330
1F
100
AcDbEntity
  8
0
  6
Continuous
 62
     7
370
    25
100
AcDbLine
 10
393.5911115347
 20
175.7144830697
 30
0.0
 11
393.5911115347
 21
172.6144830697
 31
0.0
  0
SPLINE
  5
2ED
330
1F
100
AcDbEntity
  8
0
  6
Continuous
 62
     7
370
    25
100
AcDbSpline
210
0.0
220
0.0
230
1.0
 70
     8
 71
     3
 72
    11
 73
     7
 74
     0
 42
0.000000001
 43
0.00000001
 40
0.0
 40
0.0
 40
0.0
 40
0.0
 40
0.2803107270246639
 40
0.559888577496715
 40
0.7799214485274969
 40
1.0
 40
1.0
 40
1.0
 40
1.0
 10
327.4944800412417
 20
172.5755220307099
 30
0.0
 10
327.3852181023977
 20
172.5792494143091
 30
0.0
 10
327.1669798916689
 20
172.5866944362078
 30
0.0
 10
326.8723596106049
 20
172.6784045163056
 30
0.0
 10
326.6386355292638
 20
172.8410818112667
 30
0.0
 10
326.534689146535
 20
172.978160591584
 30
0.0
 10
326.4827105607222
 20
173.0467070956449
 30
0.0
  0
SPLINE
  5
2EE
330
1F
100
AcDbEntity
  8
0
  6
Continuous
 62
     7
370
    25
100
AcDbSpline
210
0.0
220
0.0
230
1.0
 70
     8
 71
     3
 72
    13
 73
     9
 74
     0
 42
0.000000001
 43
0.00000001
 40
0.0
 40
0.0
 40
0.0
 40
0.0
 40
0.1871174103431528
 40
0.3740390809668416
 40
0.5601850337173749
 40
0.7063736238378057
 40
0.853046334611366
 40
1.0
 40
1.0
 40
1.0
 40
1.0
 10
328.7430595866962
 20
174.1370074203203
 30
0.0
 10
328.7391948744125
 20
173.9928596398803
 30
0.0
 10
328.7314694926421
 20
173.7047148690634
 30
0.0
 10
328.6486225800097
 20
173.2802944324118
 30
0.0
 10
328.4697844173545
 20
172.9089588868832
 30
0.0
 10
328.1638441387946
 20
172.6839489630942
 30
0.0
 10
327.8338254373183
 20
172.5890622865804
 30
0.0
 10
327.6076673059454
 20
172.5800383275068
 30
0.0
 10
327.4944800412417
 20
172.5755220307099
 30
0.0
  0
SPLINE
  5
2EF
330
1F
100
AcDbEntity
  8
0
  6
Continuous
 62
     7
370
    25
100
AcDbSpline
210
0.0
220
0.0
230
1.0
 70
     8
 71
     3
 72
     9
 73
     5
 74
     0
 42
0.000000001
 43
0.00000001
 40
0.0
 40
0.0
 40
0.0
 40
0.0
 40
0.559914821953941
 40
1.0
 40
1.0
 40
1.0
 40
1.0
 10
328.6578323139689
 20
174.8310009268137
 30
0.0
 10
328.6854725336411
 20
174.7028265194624
 30
0.0
 10
328.7348375773733
 20
174.4739088299753
 30
0.0
 10
328.7405469683513
 20
174.239963355922
 30
0.0
 10
328.7430595866962
 20
174.1370074203202
 30
0.0
  0
SPLINE
  5
2F0
330
1F
100
AcDbEntity
  8
0
  6
Continuous
 62
     7
370
    25
100
AcDbSpline
210
0.0
220
0.0
230
1.0
 70
     8
 71
     3
 72
    11
 73
     7
 74
     0
 42
0.000000001
 43
0.00000001
 40
0.0
 40
0.0
 40
0.0
 40
0.0
 40
0.2804754734820528
 40
0.5595654935685367
 40
0.7796409827162465
 40
1.0
 40
1.0
 40
1.0
 40
1.0
 10
327.517004391891
 20
175.6534441086319
 30
0.0
 10
327.6613195845429
 20
175.6474636754487
 30
0.0
 10
327.9492371019042
 20
175.6355323503871
 30
0.0
 10
328.3164914319027
 20
175.4460833868888
 30
0.0
 10
328.5569194081506
 20
175.1556759015404
 30
0.0
 10
328.6241802457218
 20
174.9392723547254
 30
0.0
 10
328.657832313969
 20
174.8310009268138
 30
0.0
  0
SPLINE
  5
2F1
330
1F
100
AcDbEntity
  8
0
  6
Continuous
 62
     7
370
    25
100
AcDbSpline
210
0.0
220
0.0
230
1.0
 70
     8
 71
     3
 72
    13
 73
     9
 74
     0
 42
0.000000001
 43
0.00000001
 40
0.0
 40
0.0
 40
0.0
 40
0.0
 40
0.1871594996892858
 40
0.3740638197467867
 40
0.5598195326586919
 40
0.7062514219437471
 40
0.8530012592542193
 40
0.9999999999999999
 40
0.9999999999999999
 40
0.9999999999999999
 40
0.9999999999999999
 10
326.2495530931898
 20
174.1266583943462
 30
0.0
 10
326.2533806445775
 20
174.2696480699477
 30
0.0
 10
326.2610305287392
 20
174.5554324641602
 30
0.0
 10
326.3443276243693
 20
174.977036304841
 30
0.0
 10
326.5410030920448
 20
175.3374378817847
 30
0.0
 10
326.8537918629509
 20
175.544223950295
 30
0.0
 10
327.1798851309366
 20
175.6402836730012
 30
0.0
 10
327.4045678444013
 20
175.6490548193887
 30
0.0
 10
327.5170043918911
 20
175.653444108632
 30
0.0
  0
SPLINE
  5
2F2
330
1F
100
AcDbEntity
  8
0
  6
Continuous
 62
     7
370
    25
100
AcDbSpline
210
0.0
220
0.0
230
1.0
 70
     8
 71
     3
 72
    10
 73
     6
 74
     0
 42
0.000000001
 43
0.00000001
 40
0.0
 40
0.0
 40
0.0
 40
0.0
 40
0.2795726797720403
 40
0.5597722494360234
 40
1.0
 40
1.0
 40
1.0
 40
1.0
 10
326.4827105607222
 20
173.0467070956449
 30
0.0
 10
326.4353491934571
 20
173.1398752599411
 30
0.0
 10
326.3405202598433
 20
173.3264205008653
 30
0.0
 10
326.2671385570349
 20
173.6949851130916
 30
0.0
 10
326.2562231275402
 20
173.9629279611042
 30
0.0
 10
326.2495530931898
 20
174.1266583943462
 30
0.0
  0
LINE
  5
2F3
330
1F
100
AcDbEntity
  8
0
  6
Continuous
 62
     7
370
    25
100
AcDbLine
 10
319.7833599114
 20
172.6144830697
 30
0.0
 11
318.7721991971
 21
172.6144830697
 31
0.0
  0
LINE
  5
2F4
330
1F
100
AcDbEntity
  8
0
  6
Continuous
 62
     7
370
    25
100
AcDbLine
 10
320.9040985477
 20
175.6144830697
 30
0.0
 11
319.7833599114
 21
172.6144830697
 31
0.0
  0
LINE
  5
2F5
330
1F
100
AcDbEntity
  8
0
  6
Continuous
 62
     7
370
    25
100
AcDbLine
 10
319.9586845867
 20
175.6144830697
 30
0.0
 11
320.9040985477
 21
175.6144830697
 31
0.0
  0
LINE
  5
2F6
330
1F
100
AcDbEntity
  8
0
  6
Continuous
 62
     7
370
    25
100
AcDbLine
 10
319.2872154309
 20
173.4557980047
 30
0.0
 11
319.9586845867
 21
175.6144830697
 31
0.0
  0
LINE
  5
2F7
330
1F
100
AcDbEntity
  8
0
  6
Continuous
 62
     7
370
    25
100
AcDbLine
 10
318.605397249
 20
175.6144830697
 30
0.0
 11
319.2872154309
 21
173.4557980047
 31
0.0
  0
LINE
  5
2F8
330
1F
100
AcDbEntity
  8
0
  6
Continuous
 62
     7
370
    25
100
AcDbLine
 10
317.631371275
 20
175.6144830697
 30
0.0
 11
318.605397249
 21
175.6144830697
 31
0.0
  0
LINE
  5
2F9
330
1F
100
AcDbEntity
  8
0
  6
Continuous
 62
     7
370
    25
100
AcDbLine
 10
318.7721991971
 20
172.6144830697
 30
0.0
 11
317.631371275
 21
175.6144830697
 31
0.0
  0
LINE
  5
2FA
330
1F
100
AcDbEntity
  8
0
  6
Continuous
 62
     7
370
    25
100
AcDbLine
 10
310.1118907555
 20
174.289807745
 30
0.0
 11
307.8911115347
 21
174.289807745
 31
0.0
  0
LINE
  5
2FB
330
1F
100
AcDbEntity
  8
0
  6
Continuous
 62
     7
370
    25
100
AcDbLine
 10
310.1118907555
 20
174.9521454073
 30
0.0
 11
310.1118907555
 21
174.289807745
 31
0.0
  0
LINE
  5
2FC
330
1F
100
AcDbEntity
  8
0
  6
Continuous
 62
     7
370
    25
100
AcDbLine
 10
307.8911115347
 20
174.9521454073
 30
0.0
 11
310.1118907555
 21
174.9521454073
 31
0.0
  0
LINE
  5
2FD
330
1F
100
AcDbEntity
  8
0
  6
Continuous
 62
     7
370
    25
100
AcDbLine
 10
307.8911115347
 20
174.289807745
 30
0.0
 11
307.8911115347
 21
174.9521454073
 31
0.0
  0
LINE
  5
2FE
330
1F
100
AcDbEntity
  8
0
  6
Continuous
 62
     7
370
    25
100
AcDbLine
 10
307.018384262
 20
174.289807745
 30
0.0
 11
304.7976050412
 21
174.289807745
 31
0.0
  0
LINE
  5
2FF
330
1F
100
AcDbEntity
  8
0
  6
Continuous
 62
     7
370
    25
100
AcDbLine
 10
307.018384262
 20
174.9521454073
 30
0.0
 11
307.018384262
 21
174.289807745
 31
0.0
  0
LINE
  5
300
330
1F
100
AcDbEntity
  8
0
  6
Continuous
 62
     7
370
    25
100
AcDbLine
 10
304.7976050412
 20
174.9521454073
 30
0.0
 11
307.018384262
 21
174.9521454073
 31
0.0
  0
LINE
  5
301
330
1F
100
AcDbEntity
  8
0
  6
Continuous
 62
     7
370
    25
100
AcDbLine
 10
304.7976050412
 20
174.289807745
 30
0.0
 11
304.7976050412
 21
174.9521454073
 31
0.0
  0
LINE
  5
302
330
1F
100
AcDbEntity
  8
0
  6
Continuous
 62
     7
370
    25
100
AcDbLine
 10
291.8469556906
 20
172.6144830697
 30
0.0
 11
290.9898128334
 21
172.6144830697
 31
0.0
  0
LINE
  5
303
330
1F
100
AcDbEntity
  8
0
  6
Continuous
 62
     7
370
    25
100
AcDbLine
 10
291.8469556906
 20
174.2648483294
 30
0.0
 11
291.8469556906
 21
172.6144830697
 31
0.0
  0
LINE
  5
304
330
1F
100
AcDbEntity
  8
0
  6
Continuous
 62
     7
370
    25
100
AcDbLine
 10
292.9768258205
 20
172.6144830697
 30
0.0
 11
291.8469556906
 21
174.2648483294
 31
0.0
  0
LINE
  5
305
330
1F
100
AcDbEntity
  8
0
  6
Continuous
 62
     7
370
    25
100
AcDbLine
 10
293.8729297166
 20
172.6144830697
 30
0.0
 11
292.9768258205
 21
172.6144830697
 31
0.0
  0
LINE
  5
306
330
1F
100
AcDbEntity
  8
0
  6
Continuous
 62
     7
370
    25
100
AcDbLine
 10
293.8729297166
 20
175.6144830697
 30
0.0
 11
293.8729297166
 21
172.6144830697
 31
0.0
  0
LINE
  5
307
330
1F
100
AcDbEntity
  8
0
  6
Continuous
 62
     7
370
    25
100
AcDbLine
 10
292.9768258205
 20
175.6144830697
 30
0.0
 11
293.8729297166
 21
175.6144830697
 31
0.0
  0
LINE
  5
308
330
1F
100
AcDbEntity
  8
0
  6
Continuous
 62
     7
370
    25
100
AcDbLine
 10
292.9768258205
 20
173.9549863164
 30
0.0
 11
292.9768258205
 21
175.6144830697
 31
0.0
  0
LINE
  5
309
330
1F
100
AcDbEntity
  8
0
  6
Continuous
 62
     7
370
    25
100
AcDbLine
 10
291.8408680283
 20
175.6144830697
 30
0.0
 11
292.9768258205
 21
173.9549863164
 31
0.0
  0
LINE
  5
30A
330
1F
100
AcDbEntity
  8
0
  6
Continuous
 62
     7
370
    25
100
AcDbLine
 10
290.9898128334
 20
175.6144830697
 30
0.0
 11
291.8408680283
 21
175.6144830697
 31
0.0
  0
LINE
  5
30B
330
1F
100
AcDbEntity
  8
0
  6
Continuous
 62
     7
370
    25
100
AcDbLine
 10
290.9898128334
 20
172.6144830697
 30
0.0
 11
290.9898128334
 21
175.6144830697
 31
0.0
  0
LINE
  5
30C
330
1F
100
AcDbEntity
  8
0
  6
Continuous
 62
     7
370
    25
100
AcDbLine
 10
288.3872154309
 20
172.6144830697
 30
0.0
 11
287.4119719244
 21
172.6144830697
 31
0.0
  0
LINE
  5
30D
330
1F
100
AcDbEntity
  8
0
  6
Continuous
 62
     7
370
    25
100
AcDbLine
 10
287.2689118594
 20
175.6144830697
 30
0.0
 11
288.3872154309
 21
172.6144830697
 31
0.0
  0
LINE
  5
30E
330
1F
100
AcDbEntity
  8
0
  6
Continuous
 62
     7
370
    25
100
AcDbLine
 10
286.2139199763
 20
175.6144830697
 30
0.0
 11
287.2689118594
 21
175.6144830697
 31
0.0
  0
LINE
  5
30F
330
1F
100
AcDbEntity
  8
0
  6
Continuous
 62
     7
370
    25
100
AcDbLine
 10
285.1144881581
 20
172.6144830697
 30
0.0
 11
286.2139199763
 21
175.6144830697
 31
0.0
  0
LINE
  5
310
330
1F
100
AcDbEntity
  8
0
  6
Continuous
 62
     7
370
    25
100
AcDbLine
 10
286.0641634828
 20
172.6144830697
 30
0.0
 11
285.1144881581
 21
172.6144830697
 31
0.0
  0
LINE
  5
311
330
1F
100
AcDbEntity
  8
0
  6
Continuous
 62
     7
370
    25
100
AcDbLine
 10
286.215746275
 20
173.1209765762
 30
0.0
 11
286.0641634828
 21
172.6144830697
 31
0.0
  0
LINE
  5
312
330
1F
100
AcDbEntity
  8
0
  6
Continuous
 62
     7
370
    25
100
AcDbLine
 10
287.2603891322
 20
173.1209765762
 30
0.0
 11
286.215746275
 21
173.1209765762
 31
0.0
  0
LINE
  5
313
330
1F
100
AcDbEntity
  8
0
  6
Continuous
 62
     7
370
    25
100
AcDbLine
 10
287.4119719244
 20
172.6144830697
 30
0.0
 11
287.2603891322
 21
173.1209765762
 31
0.0
  0
LINE
  5
314
330
1F
100
AcDbEntity
  8
0
  6
Continuous
 62
     7
370
    25
100
AcDbLine
 10
279.6062495218
 20
172.6144830697
 30
0.0
 11
278.2261764698
 21
172.6144830697
 31
0.0
  0
SPLINE
  5
315
330
1F
100
AcDbEntity
  8
0
  6
Continuous
 62
     7
370
    25
100
AcDbSpline
210
0.0
220
0.0
230
1.0
 70
     8
 71
     3
 72
     9
 73
     5
 74
     0
 42
0.000000001
 43
0.00000001
 40
0.0
 40
0.0
 40
0.0
 40
0.0
 40
0.5600530855990129
 40
1.0
 40
1.0
 40
1.0
 40
1.0
 10
280.1596180282546
 20
172.6960577449956
 30
0.0
 10
280.0576524637161
 20
172.6712262930902
 30
0.0
 10
279.8755883573654
 20
172.6268886177093
 30
0.0
 10
279.6885406037916
 20
172.6182733361914
 30
0.0
 10
279.6062495217611
 20
172.6144830696709
 30
0.0
  0
SPLINE
  5
316
330
1F
100
AcDbEntity
  8
0
  6
Continuous
 62
     7
370
    25
100
AcDbSpline
210
0.0
220
0.0
230
1.0
 70
     8
 71
     3
 72
    11
 73
     7
 74
     0
 42
0.000000001
 43
0.00000001
 40
0.0
 40
0.0
 40
0.0
 40
0.0
 40
0.2808746777100806
 40
0.5603295785048715
 40
0.7804248279245478
 40
1.0
 40
1.0
 40
1.0
 40
1.0
 10
280.9924102360468
 20
174.1248320956449
 30
0.0
 10
280.9889999396243
 20
173.9573231453295
 30
0.0
 10
280.9821965852862
 20
173.6231519758555
 30
0.0
 10
280.8126151991155
 20
173.1810295898077
 30
0.0
 10
280.5245761520801
 20
172.8489307969222
 30
0.0
 10
280.2811747646528
 20
172.7469752285705
 30
0.0
 10
280.1596180282546
 20
172.6960577449956
 30
0.0
  0
SPLINE
  5
317
330
1F
100
AcDbEntity
  8
0
  6
Continuous
 62
     7
370
    25
100
AcDbSpline
210
0.0
220
0.0
230
1.0
 70
     8
 71
     3
 72
    12
 73
     8
 74
     0
 42
0.000000001
 43
0.00000001
 40
0.0
 40
0.0
 40
0.0
 40
0.0
 40
0.1871288916578498
 40
0.3734679890400947
 40
0.5597708942708826
 40
0.7795228612054902
 40
0.9999999999999999
 40
0.9999999999999999
 40
0.9999999999999999
 40
0.9999999999999999
 10
279.6062495217611
 20
175.6144830696709
 30
0.0
 10
279.7513527247418
 20
175.6096379783509
 30
0.0
 10
280.0409467096171
 20
175.5999682448536
 30
0.0
 10
280.4550183482755
 20
175.4362962848128
 30
0.0
 10
280.7822035414087
 20
175.0986892179631
 30
0.0
 10
280.9634451495492
 20
174.6362052449867
 30
0.0
 10
280.9827446101369
 20
174.2954769014989
 30
0.0
 10
280.9924102360468
 20
174.1248320956449
 30
0.0
  0
LINE
  5
318
330
1F
100
AcDbEntity
  8
0
  6
Continuous
 62
     7
370
    25
100
AcDbLine
 10
278.2261764698
 20
175.6144830697
 30
0.0
 11
279.6062495218
 21
175.6144830697
 31
0.0
  0
LINE
  5
319
330
1F
100
AcDbEntity
  8
0
  6
Continuous
 62
     7
370
    25
100
AcDbLine
 10
278.2261764698
 20
172.6144830697
 30
0.0
 11
278.2261764698
 21
175.6144830697
 31
0.0
  0
SPLINE
  5
31A
330
1F
100
AcDbEntity
  8
0
  6
Continuous
 62
     7
370
    25
100
AcDbSpline
210
0.0
220
0.0
230
1.0
 70
     8
 71
     3
 72
    12
 73
     8
 74
     0
 42
0.000000001
 43
0.00000001
 40
0.0
 40
0.0
 40
0.0
 40
0.0
 40
0.2509627188358711
 40
0.5011774878575985
 40
0.6262419065927292
 40
0.7513775606905304
 40
0.9999999999999999
 40
0.9999999999999999
 40
0.9999999999999999
 40
0.9999999999999999
 10
269.8807219243585
 20
174.1266583943462
 30
0.0
 10
269.8834485264009
 20
174.0291780055466
 30
0.0
 10
269.8888936043324
 20
173.8345077509342
 30
0.0
 10
269.9394245927683
 20
173.5899013273803
 30
0.0
 10
270.0488103900067
 20
173.4254622802551
 30
0.0
 10
270.2068503016414
 20
173.3031580082321
 30
0.0
 10
270.3553790002534
 20
173.2873416874615
 30
0.0
 10
270.4541797165663
 20
173.2768207320086
 30
0.0
  0
SPLINE
  5
31B
330
1F
100
AcDbEntity
  8
0
  6
Continuous
 62
     7
370
    25
100
AcDbSpline
210
0.0
220
0.0
230
1.0
 70
     8
 71
     3
 72
     9
 73
     5
 74
     0
 42
0.000000001
 43
0.00000001
 40
0.0
 40
0.0
 40
0.0
 40
0.0
 40
0.5582410053773662
 40
1.0
 40
1.0
 40
1.0
 40
1.0
 10
270.0061277685144
 20
174.7043775501904
 30
0.0
 10
269.9620030493256
 20
174.6010501874569
 30
0.0
 10
269.8829606307937
 20
174.4159556463214
 30
0.0
 10
269.8814078702814
 20
174.2152998827339
 30
0.0
 10
269.8807219243585
 20
174.1266583943462
 30
0.0
  0
SPLINE
  5
31C
330
1F
100
AcDbEntity
  8
0
  6
Continuous
 62
     7
370
    25
100
AcDbSpline
210
0.0
220
0.0
230
1.0
 70
     8
 71
     3
 72
     9
 73
     5
 74
     0
 42
0.000000001
 43
0.00000001
 40
0.0
 40
0.0
 40
0.0
 40
0.0
 40
0.5589770993224027
 40
1.0
 40
1.0
 40
1.0
 40
1.0
 10
270.4840092620208
 20
174.9521454073332
 30
0.0
 10
270.3761615921899
 20
174.9396186162739
 30
0.0
 10
270.1832240461586
 20
174.9172084118586
 30
0.0
 10
270.0603278190682
 20
174.7695141166686
 30
0.0
 10
270.0061277685144
 20
174.7043775501904
 30
0.0
  0
SPLINE
  5
31D
330
1F
100
AcDbEntity
  8
0
  6
Continuous
 62
     7
370
    25
100
AcDbSpline
210
0.0
220
0.0
230
1.0
 70
     8
 71
     3
 72
     9
 73
     5
 74
     0
 42
0.000000001
 43
0.00000001
 40
0.0
 40
0.0
 40
0.0
 40
0.0
 40
0.558822529626996
 40
1.0
 40
1.0
 40
1.0
 40
1.0
 10
270.9217121840988
 20
174.7275106670735
 30
0.0
 10
270.8544472225869
 20
174.7993020414177
 30
0.0
 10
270.7340781287413
 20
174.9277710464024
 30
0.0
 10
270.5605610762885
 20
174.9446838565399
 30
0.0
 10
270.4840092620209
 20
174.9521454073333
 30
0.0
  0
SPLINE
  5
31E
330
1F
100
AcDbEntity
  8
0
  6
Continuous
 62
     7
370
    25
100
AcDbSpline
210
0.0
220
0.0
230
1.0
 70
     8
 71
     3
 72
     9
 73
     5
 74
     0
 42
0.000000001
 43
0.00000001
 40
0.0
 40
0.0
 40
0.0
 40
0.0
 40
0.5602363698833875
 40
1.0
 40
1.0
 40
1.0
 40
1.0
 10
271.0105920542286
 20
174.5235739787618
 30
0.0
 10
270.9982407505486
 20
174.5635565287594
 30
0.0
 10
270.9761941567464
 20
174.634923816117
 30
0.0
 10
270.9383532420935
 20
174.6992307961099
 30
0.0
 10
270.9217121840988
 20
174.7275106670735
 30
0.0
  0
LINE
  5
31F
330
1F
100
AcDbEntity
  8
0
  6
Continuous
 62
     7
370
    25
100
AcDbLine
 10
271.8287738724
 20
174.7086389138
 30
0.0
 11
271.0105920542
 21
174.5235739788
 31
0.0
  0
SPLINE
  5
320
330
1F
100
AcDbEntity
  8
0
  6
Continuous
 62
     7
370
    25
100
AcDbSpline
210
0.0
220
0.0
230
1.0
 70
     8
 71
     3
 72
    11
 73
     7
 74
     0
 42
0.000000001
 43
0.00000001
 40
0.0
 40
0.0
 40
0.0
 40
0.0
 40
0.2805331559288904
 40
0.5594709749073811
 40
0.7794721527169756
 40
1.0
 40
1.0
 40
1.0
 40
1.0
 10
270.4584410802026
 20
175.6534441086319
 30
0.0
 10
270.6276399755019
 20
175.6457934561467
 30
0.0
 10
270.9650755652198
 20
175.630535658934
 30
0.0
 10
271.4036284123691
 20
175.4208478754026
 30
0.0
 10
271.6858253475667
 20
175.0805394598519
 30
0.0
 10
271.7810864013721
 20
174.8327045279146
 30
0.0
 10
271.8287738724105
 20
174.7086389138267
 30
0.0
  0
SPLINE
  5
321
330
1F
100
AcDbEntity
  8
0
  6
Continuous
 62
     7
370
    25
100
AcDbSpline
210
0.0
220
0.0
230
1.0
 70
     8
 71
     3
 72
    12
 73
     8
 74
     0
 42
0.000000001
 43
0.00000001
 40
0.0
 40
0.0
 40
0.0
 40
0.0
 40
0.1871345876605845
 40
0.3738495955563405
 40
0.5602502164477452
 40
0.779713771798652
 40
1.0
 40
1.0
 40
1.0
 40
1.0
 10
268.9456569892936
 20
174.1217882644761
 30
0.0
 10
268.9527499587017
 20
174.2744372142185
 30
0.0
 10
268.9669199941703
 20
174.5793928551649
 30
0.0
 10
269.1241671466624
 20
175.0175012424208
 30
0.0
 10
269.4435998545394
 20
175.393334664591
 30
0.0
 10
269.9188395078609
 20
175.6230654115191
 30
0.0
 10
270.2783497018748
 20
175.6433052548641
 30
0.0
 10
270.4584410802026
 20
175.6534441086319
 30
0.0
  0
SPLINE
  5
322
330
1F
100
AcDbEntity
  8
0
  6
Continuous
 62
     7
370
    25
100
AcDbSpline
210
0.0
220
0.0
230
1.0
 70
     8
 71
     3
 72
    12
 73
     8
 74
     0
 42
0.000000001
 43
0.00000001
 40
0.0
 40
0.0
 40
0.0
 40
0.0
 40
0.1872228366605843
 40
0.3737348794435213
 40
0.5601839898708947
 40
0.7796864789897671
 40
1.0
 40
1.0
 40
1.0
 40
1.0
 10
270.5071423789039
 20
172.5755220307099
 30
0.0
 10
270.3512593170875
 20
172.5812725371408
 30
0.0
 10
270.0400850054791
 20
172.5927517181318
 30
0.0
 10
269.5837384120251
 20
172.7403477733996
 30
0.0
 10
269.2197798150019
 20
173.0906696913721
 30
0.0
 10
268.9750895479344
 20
173.5678971177029
 30
0.0
 10
268.9554798957394
 20
173.9369310462399
 30
0.0
 10
268.9456569892936
 20
174.1217882644761
 30
0.0
  0
SPLINE
  5
323
330
1F
100
AcDbEntity
  8
0
  6
Continuous
 62
     7
370
    25
100
AcDbSpline
210
0.0
220
0.0
230
1.0
 70
     8
 71
     3
 72
    11
 73
     7
 74
     0
 42
0.000000001
 43
0.00000001
 40
0.0
 40
0.0
 40
0.0
 40
0.0
 40
0.2801357057900963
 40
0.5592083359447796
 40
0.7792493101251667
 40
1.0
 40
1.0
 40
1.0
 40
1.0
 10
271.8677349113715
 20
173.6152947579826
 30
0.0
 10
271.8148890596103
 20
173.4470072205581
 30
0.0
 10
271.7093978986688
 20
173.1110707732638
 30
0.0
 10
271.3499359291073
 20
172.7515564216262
 30
0.0
 10
270.9209529681776
 20
172.5906471533566
 30
0.0
 10
270.6452272233844
 20
172.5805691471022
 30
0.0
 10
270.507142378904
 20
172.5755220307099
 30
0.0
  0
LINE
  5
324
330
1F
100
AcDbEntity
  8
0
  6
Continuous
 62
     7
370
    25
100
AcDbLine
 10
271.0495530932
 20
173.8612363164
 30
0.0
 11
271.8677349114
 21
173.615294758
 31
0.0
  0
SPLINE
  5
325
330
1F
100
AcDbEntity
  8
0
  6
Continuous
 62
     7
370
    25
100
AcDbSpline
210
0.0
220
0.0
230
1.0
 70
     8
 71
     3
 72
    10
 73
     6
 74
     0
 42
0.000000001
 43
0.00000001
 40
0.0
 40
0.0
 40
0.0
 40
0.0
 40
0.2805741832868147
 40
0.5589842259654312
 40
1.0
 40
1.0
 40
1.0
 40
1.0
 10
270.4541797165663
 20
173.2768207320085
 30
0.0
 10
270.5414986880626
 20
173.2828039472132
 30
0.0
 10
270.7154631174416
 20
173.2947242275494
 30
0.0
 10
270.9580884604098
 20
173.5134095374401
 30
0.0
 10
271.0147927518301
 20
173.7290477621818
 30
0.0
 10
271.0495530931897
 20
173.8612363164241
 30
0.0
  0
LINE
  5
326
330
1F
100
AcDbEntity
  8
0
  6
Continuous
 62
     7
370
    25
100
AcDbLine
 10
204.0271115347
 20
173.0504830697
 30
0.0
 11
203.5911115347
 21
172.6144830697
 31
0.0
  0
LINE
  5
327
330
1F
100
AcDbEntity
  8
0
  6
Continuous
 62
     7
370
    25
100
AcDbLine
 10
226.4891115347
 20
173.0504830697
 30
0.0
 11
204.0271115347
 21
173.0504830697
 31
0.0
  0
LINE
  5
328
330
1F
100
AcDbEntity
  8
0
  6
Continuous
 62
     7
370
    25
100
AcDbLine
 10
226.4891115347
 20
173.0504830697
 30
0.0
 11
226.9251115347
 21
172.6144830697
 31
0.0
  0
LINE
  5
329
330
1F
100
AcDbEntity
  8
0
  6
Continuous
 62
     7
370
    25
100
AcDbLine
 10
204.0271115347
 20
175.2784830697
 30
0.0
 11
203.5911115347
 21
175.7144830697
 31
0.0
  0
LINE
  5
32A
330
1F
100
AcDbEntity
  8
0
  6
Continuous
 62
     7
370
    25
100
AcDbLine
 10
204.0271115347
 20
173.0504830697
 30
0.0
 11
204.0271115347
 21
175.2784830697
 31
0.0
  0
LINE
  5
32B
330
1F
100
AcDbEntity
  8
0
  6
Continuous
 62
     7
370
    25
100
AcDbLine
 10
226.4891115347
 20
175.2784830697
 30
0.0
 11
226.9251115347
 21
175.7144830697
 31
0.0
  0
LINE
  5
32C
330
1F
100
AcDbEntity
  8
0
  6
Continuous
 62
     7
370
    25
100
AcDbLine
 10
204.0271115347
 20
175.2784830697
 30
0.0
 11
226.4891115347
 21
175.2784830697
 31
0.0
  0
LINE
  5
32D
330
1F
100
AcDbEntity
  8
0
  6
Continuous
 62
     7
370
    25
100
AcDbLine
 10
226.4891115347
 20
175.2784830697
 30
0.0
 11
226.4891115347
 21
173.0504830697
 31
0.0
  0
LINE
  5
32E
330
1F
100
AcDbEntity
  8
0
  6
Continuous
 62
     7
370
    25
100
AcDbLine
 10
259.8231115347
 20
175.2784830697
 30
0.0
 11
260.2591115347
 21
175.7144830697
 31
0.0
  0
LINE
  5
32F
330
1F
100
AcDbEntity
  8
0
  6
Continuous
 62
     7
370
    25
100
AcDbLine
 10
237.3611115347
 20
175.2784830697
 30
0.0
 11
259.8231115347
 21
175.2784830697
 31
0.0
  0
LINE
  5
330
330
1F
100
AcDbEntity
  8
0
  6
Continuous
 62
     7
370
    25
100
AcDbLine
 10
237.3611115347
 20
175.2784830697
 30
0.0
 11
236.9251115347
 21
175.7144830697
 31
0.0
  0
LINE
  5
331
330
1F
100
AcDbEntity
  8
0
  6
Continuous
 62
     7
370
    25
100
AcDbLine
 10
237.3611115347
 20
173.0504830697
 30
0.0
 11
237.3611115347
 21
175.2784830697
 31
0.0
  0
LINE
  5
332
330
1F
100
AcDbEntity
  8
0
  6
Continuous
 62
     7
370
    25
100
AcDbLine
 10
237.3611115347
 20
173.0504830697
 30
0.0
 11
236.9251115347
 21
172.6144830697
 31
0.0
  0
LINE
  5
333
330
1F
100
AcDbEntity
  8
0
  6
Continuous
 62
     7
370
    25
100
AcDbLine
 10
259.8231115347
 20
173.0504830697
 30
0.0
 11
237.3611115347
 21
173.0504830697
 31
0.0
  0
LINE
  5
334
330
1F
100
AcDbEntity
  8
0
  6
Continuous
 62
     7
370
    25
100
AcDbLine
 10
259.8231115347
 20
173.0504830697
 30
0.0
 11
260.2591115347
 21
172.6144830697
 31
0.0
  0
LINE
  5
335
330
1F
100
AcDbEntity
  8
0
  6
Continuous
 62
     7
370
    25
100
AcDbLine
 10
259.8231115347
 20
175.2784830697
 30
0.0
 11
259.8231115347
 21
173.0504830697
 31
0.0
  0
LINE
  5
336
330
1F
100
AcDbEntity
  8
0
  6
Continuous
 62
     7
370
    25
100
AcDbLine
 10
266.4499589373
 20
173.7833142385
 30
0.0
 11
267.0982949763
 21
173.7833142385
 31
0.0
  0
LINE
  5
337
330
1F
100
AcDbEntity
  8
0
  6
Continuous
 62
     7
370
    25
100
AcDbLine
 10
266.7677349114
 20
174.8474376151
 30
0.0
 11
266.4499589373
 21
173.7833142385
 31
0.0
  0
LINE
  5
338
330
1F
100
AcDbEntity
  8
0
  6
Continuous
 62
     7
370
    25
100
AcDbLine
 10
267.0982949763
 20
173.7833142385
 30
0.0
 11
266.7677349114
 21
174.8474376151
 31
0.0
  0
SPLINE
  5
339
330
1F
100
AcDbEntity
  8
0
  6
Continuous
 62
     7
370
    25
100
AcDbSpline
210
0.0
220
0.0
230
1.0
 70
     8
 71
     3
 72
    11
 73
     7
 74
     0
 42
0.000000001
 43
0.00000001
 40
0.0
 40
0.0
 40
0.0
 40
0.0
 40
0.2812442903644888
 40
0.5602566171182713
 40
0.7797812630998183
 40
0.9999999999999999
 40
0.9999999999999999
 40
0.9999999999999999
 40
0.9999999999999999
 10
274.7274751711117
 20
174.1528353423982
 30
0.0
 10
274.7233736736723
 20
174.261054758505
 30
0.0
 10
274.7152032284072
 20
174.4766347579991
 30
0.0
 10
274.5904983216397
 20
174.763431689669
 30
0.0
 10
274.352620627258
 20
174.9304706618029
 30
0.0
 10
274.1821587966857
 20
174.9449128936173
 30
0.0
 10
274.09679335293
 20
174.9521454073332
 30
0.0
  0
SPLINE
  5
33A
330
1F
100
AcDbEntity
  8
0
  6
Continuous
 62
     7
370
    25
100
AcDbSpline
210
0.0
220
0.0
230
1.0
 70
     8
 71
     3
 72
    12
 73
     8
 74
     0
 42
0.000000001
 43
0.00000001
 40
0.0
 40
0.0
 40
0.0
 40
0.0
 40
0.2489364512809003
 40
0.3740610104865851
 40
0.4991087764774116
 40
0.7491228497802724
 40
0.9999999999999999
 40
0.9999999999999999
 40
0.9999999999999999
 40
0.9999999999999999
 10
274.1053160802027
 20
173.2768207320086
 30
0.0
 10
274.2090750682734
 20
173.2866605191273
 30
0.0
 10
274.3649871162081
 20
173.3014461429026
 30
0.0
 10
274.5343957155191
 20
173.4241243327417
 30
0.0
 10
274.6583831834856
 20
173.5901224195074
 30
0.0
 10
274.7179367883705
 20
173.8465639032979
 30
0.0
 10
274.7242920599788
 20
174.0506276564687
 30
0.0
 10
274.7274751711117
 20
174.1528353423982
 30
0.0
  0
SPLINE
  5
33B
330
1F
100
AcDbEntity
  8
0
  6
Continuous
 62
     7
370
    25
100
AcDbSpline
210
0.0
220
0.0
230
1.0
 70
     8
 71
     3
 72
    11
 73
     7
 74
     0
 42
0.000000001
 43
0.00000001
 40
0.0
 40
0.0
 40
0.0
 40
0.0
 40
0.2813604798120212
 40
0.5605733404902341
 40
0.7799323093793425
 40
1.0
 40
1.0
 40
1.0
 40
1.0
 10
273.4807219243585
 20
174.1126567709696
 30
0.0
 10
273.4846067426714
 20
174.0018730138485
 30
0.0
 10
273.4923467265536
 20
173.7811511098949
 30
0.0
 10
273.603674476437
 20
173.4813376816868
 30
0.0
 10
273.8427779226967
 20
173.3003630285274
 30
0.0
 10
274.0177093160041
 20
173.2846765973784
 30
0.0
 10
274.1053160802027
 20
173.2768207320085
 30
0.0
  0
SPLINE
  5
33C
330
1F
100
AcDbEntity
  8
0
  6
Continuous
 62
     7
370
    25
100
AcDbSpline
210
0.0
220
0.0
230
1.0
 70
     8
 71
     3
 72
    12
 73
     8
 74
     0
 42
0.000000001
 43
0.00000001
 40
0.0
 40
0.0
 40
0.0
 40
0.0
 40
0.1865776882289718
 40
0.3728057319333101
 40
0.5590293167300454
 40
0.7792871014192887
 40
1.0
 40
1.0
 40
1.0
 40
1.0
 10
274.09679335293
 20
174.9521454073332
 30
0.0
 10
274.0228841903037
 20
174.9461391823713
 30
0.0
 10
273.8752043700048
 20
174.9341379880467
 30
0.0
 10
273.6812886967298
 20
174.8129219536773
 30
0.0
 10
273.5464070721009
 20
174.6165818188774
 30
0.0
 10
273.4889092367204
 20
174.3725511773526
 30
0.0
 10
273.4834529055896
 20
174.1993478259256
 30
0.0
 10
273.4807219243585
 20
174.1126567709696
 30
0.0
  0
SPLINE
  5
33D
330
1F
100
AcDbEntity
  8
0
  6
Continuous
 62
     7
370
    25
100
AcDbSpline
210
0.0
220
0.0
230
1.0
 70
     8
 71
     3
 72
    12
 73
     8
 74
     0
 42
0.000000001
 43
0.00000001
 40
0.0
 40
0.0
 40
0.0
 40
0.0
 40
0.1875319682627568
 40
0.3748620447848988
 40
0.5608920416161216
 40
0.779450976268299
 40
1.0
 40
1.0
 40
1.0
 40
1.0
 10
280.0573453009819
 20
174.1053515761644
 30
0.0
 10
280.0554195135028
 20
174.1815228018369
 30
0.0
 10
280.0515700117942
 20
174.3337832493429
 30
0.0
 10
280.0134248947654
 20
174.5586854810563
 30
0.0
 10
279.9017158708745
 20
174.7828530503661
 30
0.0
 10
279.658538025277
 20
174.9014583291048
 30
0.0
 10
279.4802794880057
 20
174.9092638966986
 30
0.0
 10
279.3907462750079
 20
174.9131843683722
 30
0.0
  0
LINE
  5
33E
330
1F
100
AcDbEntity
  8
0
  6
Continuous
 62
     7
370
    25
100
AcDbLine
 10
279.1612414049
 20
173.315781771
 30
0.0
 11
279.3870936776
 21
173.315781771
 31
0.0
  0
LINE
  5
33F
330
1F
100
AcDbEntity
  8
0
  6
Continuous
 62
     7
370
    25
100
AcDbLine
 10
279.1612414049
 20
174.9131843684
 30
0.0
 11
279.1612414049
 21
173.315781771
 31
0.0
  0
LINE
  5
340
330
1F
100
AcDbEntity
  8
0
  6
Continuous
 62
     7
370
    25
100
AcDbLine
 10
279.390746275
 20
174.9131843684
 30
0.0
 11
279.1612414049
 21
174.9131843684
 31
0.0
  0
SPLINE
  5
341
330
1F
100
AcDbEntity
  8
0
  6
Continuous
 62
     7
370
    25
100
AcDbSpline
210
0.0
220
0.0
230
1.0
 70
     8
 71
     3
 72
    12
 73
     8
 74
     0
 42
0.000000001
 43
0.00000001
 40
0.0
 40
0.0
 40
0.0
 40
0.0
 40
0.1874133212960724
 40
0.373380841011483
 40
0.5590240519305257
 40
0.7790393159065179
 40
0.9999999999999999
 40
0.9999999999999999
 40
0.9999999999999999
 40
0.9999999999999999
 10
279.3870936776053
 20
173.3157817709696
 30
0.0
 10
279.4631280860297
 20
173.3172884711622
 30
0.0
 10
279.6146103348208
 20
173.3202902480966
 30
0.0
 10
279.8465429574118
 20
173.3765373962729
 30
0.0
 10
280.0017074848548
 20
173.5813439040863
 30
0.0
 10
280.052344519172
 20
173.8353831829013
 30
0.0
 10
280.0556759929001
 20
174.0152335830506
 30
0.0
 10
280.0573453009819
 20
174.1053515761644
 30
0.0
  0
LINE
  5
342
330
1F
100
AcDbEntity
  8
0
  6
Continuous
 62
     7
370
    25
100
AcDbLine
 10
287.0619313399
 20
173.7833142385
 30
0.0
 11
286.731371275
 21
174.8474376151
 31
0.0
  0
LINE
  5
343
330
1F
100
AcDbEntity
  8
0
  6
Continuous
 62
     7
370
    25
100
AcDbLine
 10
286.413595301
 20
173.7833142385
 30
0.0
 11
287.0619313399
 21
173.7833142385
 31
0.0
  0
LINE
  5
344
330
1F
100
AcDbEntity
  8
0
  6
Continuous
 62
     7
370
    25
100
AcDbLine
 10
286.731371275
 20
174.8474376151
 30
0.0
 11
286.413595301
 21
173.7833142385
 31
0.0
  0
SPLINE
  5
345
330
1F
100
AcDbEntity
  8
0
  6
Continuous
 62
     7
370
    25
100
AcDbSpline
210
0.0
220
0.0
230
1.0
 70
     8
 71
     3
 72
    11
 73
     7
 74
     0
 42
0.000000001
 43
0.00000001
 40
0.0
 40
0.0
 40
0.0
 40
0.0
 40
0.5018862577432552
 40
0.750349336298255
 40
0.875059851978831
 40
1.0
 40
1.0
 40
1.0
 40
1.0
 10
327.9248777685144
 20
174.0956113164241
 30
0.0
 10
327.924249661959
 20
174.293897133692
 30
0.0
 10
327.9233106058887
 20
174.5903460383767
 30
0.0
 10
327.8047177937828
 20
174.9324166699511
 30
0.0
 10
327.6381280289749
 20
175.0553277049054
 30
0.0
 10
327.5383348593345
 20
175.0644587848123
 30
0.0
 10
327.4883923789041
 20
175.0690285242163
 30
0.0
  0
SPLINE
  5
346
330
1F
100
AcDbEntity
  8
0
  6
Continuous
 62
     7
370
    25
100
AcDbSpline
210
0.0
220
0.0
230
1.0
 70
     8
 71
     3
 72
    13
 73
     9
 74
     0
 42
0.000000001
 43
0.00000001
 40
0.0
 40
0.0
 40
0.0
 40
0.0
 40
0.1246586177868546
 40
0.2492332997837945
 40
0.374093767027288
 40
0.4992288385196216
 40
0.7494816988300098
 40
1.0
 40
1.0
 40
1.0
 40
1.0
 10
327.4932625087742
 20
173.1599376151255
 30
0.0
 10
327.5414611029189
 20
173.164760674411
 30
0.0
 10
327.6378258378797
 20
173.1744035454945
 30
0.0
 10
327.7596118076941
 20
173.261535194763
 30
0.0
 10
327.8374843276284
 20
173.3844170974739
 30
0.0
 10
327.8969309180038
 20
173.5679199317416
 30
0.0
 10
327.9211721688996
 20
173.8079826424641
 30
0.0
 10
327.9236421322298
 20
173.9997012173872
 30
0.0
 10
327.9248777685144
 20
174.0956113164241
 30
0.0
  0
SPLINE
  5
347
330
1F
100
AcDbEntity
  8
0
  6
Continuous
 62
     7
370
    25
100
AcDbSpline
210
0.0
220
0.0
230
1.0
 70
     8
 71
     3
 72
    11
 73
     7
 74
     0
 42
0.000000001
 43
0.00000001
 40
0.0
 40
0.0
 40
0.0
 40
0.0
 40
0.5017456673382852
 40
0.7504237745458602
 40
0.8751718942706878
 40
1.0
 40
1.0
 40
1.0
 40
1.0
 10
327.0677349113716
 20
174.1175269008397
 30
0.0
 10
327.0688905254439
 20
173.9231993362794
 30
0.0
 10
327.0706188916871
 20
173.632558013417
 30
0.0
 10
327.1892197356781
 20
173.3020888520014
 30
0.0
 10
327.3467272806735
 20
173.1752037089013
 30
0.0
 10
327.4444069977052
 20
173.1650274001766
 30
0.0
 10
327.4932625087742
 20
173.1599376151255
 30
0.0
  0
SPLINE
  5
348
330
1F
100
AcDbEntity
  8
0
  6
Continuous
 62
     7
370
    25
100
AcDbSpline
210
0.0
220
0.0
230
1.0
 70
     8
 71
     3
 72
    11
 73
     7
 74
     0
 42
0.000000001
 43
0.00000001
 40
0.0
 40
0.0
 40
0.0
 40
0.0
 40
0.1249457297153829
 40
0.2496021511032404
 40
0.4981876791784041
 40
0.9999999999999999
 40
0.9999999999999999
 40
0.9999999999999999
 40
0.9999999999999999
 10
327.4883923789041
 20
175.0690285242164
 30
0.0
 10
327.4396531376251
 20
175.0647573587937
 30
0.0
 10
327.3422875094113
 20
175.056224917712
 30
0.0
 10
327.1792955603226
 20
174.9360417752088
 30
0.0
 10
327.0717356863083
 20
174.5988678101492
 30
0.0
 10
327.0693381870873
 20
174.3104200785571
 30
0.0
 10
327.0677349113716
 20
174.1175269008397
 30
0.0
  0
SPLINE
  5
349
330
1F
100
AcDbEntity
  8
0
  6
Continuous
 62
     7
370
    25
100
AcDbSpline
210
0.0
220
0.0
230
1.0
 70
     8
 71
     3
 72
    11
 73
     7
 74
     0
 42
0.000000001
 43
0.00000001
 40
0.0
 40
0.0
 40
0.0
 40
0.0
 40
0.501886257743259
 40
0.7503493362982685
 40
0.87505985197883
 40
1.0
 40
1.0
 40
1.0
 40
1.0
 10
331.057345300982
 20
174.0956113164241
 30
0.0
 10
331.0567171944266
 20
174.293897133692
 30
0.0
 10
331.0557781383563
 20
174.5903460383768
 30
0.0
 10
330.9371853262502
 20
174.932416669951
 30
0.0
 10
330.7705955614426
 20
175.0553277049055
 30
0.0
 10
330.6708023918021
 20
175.0644587848123
 30
0.0
 10
330.6208599113716
 20
175.0690285242164
 30
0.0
  0
SPLINE
  5
34A
330
1F
100
AcDbEntity
  8
0
  6
Continuous
 62
     7
370
    25
100
AcDbSpline
210
0.0
220
0.0
230
1.0
 70
     8
 71
     3
 72
    13
 73
     9
 74
     0
 42
0.000000001
 43
0.00000001
 40
0.0
 40
0.0
 40
0.0
 40
0.0
 40
0.1246586177868352
 40
0.2492332997838065
 40
0.3740937670272781
 40
0.4992288385196239
 40
0.7494816988300111
 40
1.0
 40
1.0
 40
1.0
 40
1.0
 10
330.6257300412417
 20
173.1599376151254
 30
0.0
 10
330.6739286353864
 20
173.1647606744109
 30
0.0
 10
330.7702933703474
 20
173.1744035454946
 30
0.0
 10
330.8920793401616
 20
173.261535194763
 30
0.0
 10
330.9699518600959
 20
173.3844170974739
 30
0.0
 10
331.0293984504715
 20
173.5679199317416
 30
0.0
 10
331.0536397013671
 20
173.807982642464
 30
0.0
 10
331.0561096646973
 20
173.9997012173871
 30
0.0
 10
331.057345300982
 20
174.0956113164241
 30
0.0
  0
SPLINE
  5
34B
330
1F
100
AcDbEntity
  8
0
  6
Continuous
 62
     7
370
    25
100
AcDbSpline
210
0.0
220
0.0
230
1.0
 70
     8
 71
     3
 72
    11
 73
     7
 74
     0
 42
0.000000001
 43
0.00000001
 40
0.0
 40
0.0
 40
0.0
 40
0.0
 40
0.50174566733829
 40
0.7504237745458586
 40
0.875171894270687
 40
1.0
 40
1.0
 40
1.0
 40
1.0
 10
330.2002024438391
 20
174.1175269008397
 30
0.0
 10
330.2013580579115
 20
173.9231993362794
 30
0.0
 10
330.2030864241547
 20
173.632558013417
 30
0.0
 10
330.3216872681458
 20
173.3020888520014
 30
0.0
 10
330.479194813141
 20
173.1752037089012
 30
0.0
 10
330.5768745301727
 20
173.1650274001765
 30
0.0
 10
330.6257300412417
 20
173.1599376151254
 30
0.0
  0
SPLINE
  5
34C
330
1F
100
AcDbEntity
  8
0
  6
Continuous
 62
     7
370
    25
100
AcDbSpline
210
0.0
220
0.0
230
1.0
 70
     8
 71
     3
 72
    11
 73
     7
 74
     0
 42
0.000000001
 43
0.00000001
 40
0.0
 40
0.0
 40
0.0
 40
0.0
 40
0.1249457297153839
 40
0.2496021511032267
 40
0.4981876791784002
 40
1.0
 40
1.0
 40
1.0
 40
1.0
 10
330.6208599113716
 20
175.0690285242164
 30
0.0
 10
330.5721206700926
 20
175.0647573587937
 30
0.0
 10
330.4747550418788
 20
175.056224917712
 30
0.0
 10
330.3117630927902
 20
174.9360417752087
 30
0.0
 10
330.2042032187758
 20
174.5988678101492
 30
0.0
 10
330.2018057195548
 20
174.3104200785571
 30
0.0
 10
330.2002024438391
 20
174.1175269008397
 30
0.0
  0
LINE
  5
34D
330
1F
100
AcDbEntity
  8
0
  6
Continuous
 62
     7
370
    25
100
AcDbLine
 10
359.8211115347
 20
175.2784830697
 30
0.0
 11
360.2571115347
 21
175.7144830697
 31
0.0
  0
LINE
  5
34E
330
1F
100
AcDbEntity
  8
0
  6
Continuous
 62
     7
370
    25
100
AcDbLine
 10
337.3591115347
 20
175.2784830697
 30
0.0
 11
359.8211115347
 21
175.2784830697
 31
0.0
  0
LINE
  5
34F
330
1F
100
AcDbEntity
  8
0
  6
Continuous
 62
     7
370
    25
100
AcDbLine
 10
337.3591115347
 20
175.2784830697
 30
0.0
 11
336.9231115347
 21
175.7144830697
 31
0.0
  0
LINE
  5
350
330
1F
100
AcDbEntity
  8
0
  6
Continuous
 62
     7
370
    25
100
AcDbLine
 10
337.3591115347
 20
173.0504830697
 30
0.0
 11
336.9231115347
 21
172.6144830697
 31
0.0
  0
LINE
  5
351
330
1F
100
AcDbEntity
  8
0
  6
Continuous
 62
     7
370
    25
100
AcDbLine
 10
359.8211115347
 20
173.0504830697
 30
0.0
 11
337.3591115347
 21
173.0504830697
 31
0.0
  0
LINE
  5
352
330
1F
100
AcDbEntity
  8
0
  6
Continuous
 62
     7
370
    25
100
AcDbLine
 10
359.8211115347
 20
173.0504830697
 30
0.0
 11
360.2571115347
 21
172.6144830697
 31
0.0
  0
LINE
  5
353
330
1F
100
AcDbEntity
  8
0
  6
Continuous
 62
     7
370
    25
100
AcDbLine
 10
337.3591115347
 20
173.0504830697
 30
0.0
 11
337.3591115347
 21
175.2784830697
 31
0.0
  0
LINE
  5
354
330
1F
100
AcDbEntity
  8
0
  6
Continuous
 62
     7
370
    25
100
AcDbLine
 10
359.8211115347
 20
175.2784830697
 30
0.0
 11
359.8211115347
 21
173.0504830697
 31
0.0
  0
LINE
  5
355
330
1F
100
AcDbEntity
  8
0
  6
Continuous
 62
     7
370
    25
100
AcDbLine
 10
370.6931115347
 20
175.2784830697
 30
0.0
 11
370.2571115347
 21
175.7144830697
 31
0.0
  0
LINE
  5
356
330
1F
100
AcDbEntity
  8
0
  6
Continuous
 62
     7
370
    25
100
AcDbLine
 10
370.6931115347
 20
173.0504830697
 30
0.0
 11
370.6931115347
 21
175.2784830697
 31
0.0
  0
LINE
  5
357
330
1F
100
AcDbEntity
  8
0
  6
Continuous
 62
     7
370
    25
100
AcDbLine
 10
370.6931115347
 20
173.0504830697
 30
0.0
 11
370.2571115347
 21
172.6144830697
 31
0.0
  0
LINE
  5
358
330
1F
100
AcDbEntity
  8
0
  6
Continuous
 62
     7
370
    25
100
AcDbLine
 10
393.1551115347
 20
175.2784830697
 30
0.0
 11
393.5911115347
 21
175.7144830697
 31
0.0
  0
LINE
  5
359
330
1F
100
AcDbEntity
  8
0
  6
Continuous
 62
     7
370
    25
100
AcDbLine
 10
370.6931115347
 20
175.2784830697
 30
0.0
 11
393.1551115347
 21
175.2784830697
 31
0.0
  0
LINE
  5
35A
330
1F
100
AcDbEntity
  8
0
  6
Continuous
 62
     7
370
    25
100
AcDbLine
 10
393.1551115347
 20
173.0504830697
 30
0.0
 11
370.6931115347
 21
173.0504830697
 31
0.0
  0
LINE
  5
35B
330
1F
100
AcDbEntity
  8
0
  6
Continuous
 62
     7
370
    25
100
AcDbLine
 10
393.1551115347
 20
173.0504830697
 30
0.0
 11
393.5911115347
 21
172.6144830697
 31
0.0
  0
LINE
  5
35C
330
1F
100
AcDbEntity
  8
0
  6
Continuous
 62
     7
370
    25
100
AcDbLine
 10
393.1551115347
 20
175.2784830697
 30
0.0
 11
393.1551115347
 21
173.0504830697
 31
0.0
  0
LINE
  5
35D
330
1F
100
AcDbEntity
  8
0
  6
Continuous
 62
     7
370
    25
100
AcDbLine
 10
400.1911115347
 20
173.3323599005
 30
0.0
 11
398.5911115347
 21
173.6144830697
 31
0.0
  0
LINE
  5
35E
330
1F
100
AcDbEntity
  8
0
  6
Continuous
 62
     7
370
    25
100
AcDbLine
 10
400.1911115347
 20
173.3323599005
 30
0.0
 11
400.1911115347
 21
172.0144830697
 31
0.0
  0
LINE
  5
35F
330
1F
100
AcDbEntity
  8
0
  6
Continuous
 62
     7
370
    25
100
AcDbLine
 10
400.1911115347
 20
172.0144830697
 30
0.0
 11
398.5911115347
 21
172.0144830697
 31
0.0
  0
LINE
  5
360
330
1F
100
AcDbEntity
  8
0
  6
Continuous
 62
     8
370
    18
100
AcDbLine
 10
398.5911115347
 20
183.5994515493
 30
0.0
 11
198.5911115347
 21
183.5994515493
 31
0.0
  0
LINE
  5
361
330
1F
100
AcDbEntity
  8
0
  6
Continuous
 62
     8
370
    18
100
AcDbLine
 10
198.5911115347
 20
176.4092515493
 30
0.0
 11
398.5911115347
 21
176.4092515493
 31
0.0
  0
DIMENSION
  5
362
330
1F
100
AcDbEntity
  8
SLD-0
100
AcDbDimension
  2
_D_7
 10
398.5911115347
 20
192.1222085429
 30
0.0
 11
298.5911115347
 21
192.1222085429
 31
0.0
 70
   160
  1
<>
 71
     2
 42
-1.0
  3
SLDDIMSTYLE3
100
AcDbAlignedDimension
 13
198.5911115347
 23
184.0142830697
 33
0.0
 14
398.5911115347
 24
184.0142830697
 34
0.0
 50
0.0
100
AcDbRotatedDimension
  0
DIMENSION
  5
36D
330
1F
100
AcDbEntity
  8
SLD-0
100
AcDbDimension
  2
_D_8
 10
407.3338721486
 20
172.0144830697
 30
0.0
 11
407.3338721486
 21
178.0143830697
 31
0.0
 70
   160
  1
<>
 71
     2
 42
-1.0
  3
SLDDIMSTYLE4
100
AcDbAlignedDimension
 13
398.5911115347
 23
184.0142830697
 33
0.0
 14
400.1911115347
 24
172.0144830697
 34
0.0
 50
90.0
100
AcDbRotatedDimension
  0
LINE
  5
37A
330
1F
100
AcDbEntity
  8
0
  6
Continuous
 62
     7
370
    25
100
AcDbLine
 10
206.2437563458
 20
104.8739489797
 30
0.0
 11
64.8224001085
 21
23.2331377974
 31
0.0
  0
LINE
  5
37B
330
1F
100
AcDbEntity
  8
0
  6
Continuous
 62
     7
370
    25
100
AcDbLine
 10
64.8772806728
 20
19.7901613373
 30
0.0
 11
65.0578806155
 21
19.894419465
 31
0.0
  0
LINE
  5
37C
330
1F
100
AcDbEntity
  8
0
  6
Continuous
 62
     7
370
    25
100
AcDbLine
 10
64.7395411426
 20
21.8574846033
 30
0.0
 11
63.0107113629
 21
20.8594524152
 31
0.0
  0
LINE
  5
37D
330
1F
100
AcDbEntity
  8
0
  6
Continuous
 62
     7
370
    25
100
AcDbLine
 10
187.7559863289
 20
115.5431650346
 30
0.0
 11
46.3346300916
 21
33.9023538523
 31
0.0
  0
LINE
  5
37E
330
1F
100
AcDbEntity
  8
0
  6
Continuous
 62
     7
370
    25
100
AcDbLine
 10
63.1005025855
 20
19.1665647205
 30
0.0
 11
62.9278523969
 21
19.0668958881
 31
0.0
  0
LINE
  5
37F
330
1F
100
AcDbEntity
  8
0
  6
Continuous
 62
     7
370
    25
100
AcDbLine
 10
116.4438220615
 20
45.0060372261
 30
0.0
 11
116.0195579928
 21
45.2509596596
 31
0.0
  0
LINE
  5
380
330
1F
100
AcDbEntity
  8
0
  6
Continuous
 62
     7
370
    25
100
AcDbLine
 10
115.4541323856
 20
43.801289137
 30
0.0
 11
115.8783964543
 21
43.5563667035
 31
0.0
  0
LINE
  5
381
330
1F
100
AcDbEntity
  8
0
  6
Continuous
 62
     7
370
    25
100
AcDbLine
 10
119.0400119743
 20
46.494434165
 30
0.0
 11
118.6157479056
 21
46.7393565985
 31
0.0
  0
LINE
  5
382
330
1F
100
AcDbEntity
  8
0
  6
Continuous
 62
     7
370
    25
100
AcDbLine
 10
118.0100860705
 20
45.290910952
 30
0.0
 11
118.4343501392
 21
45.0459885185
 31
0.0
  0
LINE
  5
383
330
1F
100
AcDbEntity
  8
0
  6
Continuous
 62
     7
370
    25
100
AcDbLine
 10
122.8253177986
 20
48.6570201599
 30
0.0
 11
122.4010537299
 21
48.9019425935
 31
0.0
  0
LINE
  5
384
330
1F
100
AcDbEntity
  8
0
  6
Continuous
 62
     7
370
    25
100
AcDbLine
 10
125.411889097
 20
50.2644242848
 30
0.0
 11
124.9876250283
 21
50.5093467183
 31
0.0
  0
LINE
  5
385
330
1F
100
AcDbEntity
  8
0
  6
Continuous
 62
     7
370
    25
100
AcDbLine
 10
125.1031074111
 20
49.1247438918
 30
0.0
 11
124.6788433424
 21
49.3696663253
 31
0.0
  0
LINE
  5
386
330
1F
100
AcDbEntity
  8
0
  6
Continuous
 62
     7
370
    25
100
AcDbLine
 10
156.6653878243
 20
68.3642082946
 30
0.0
 11
156.2411237556
 21
68.6091307281
 31
0.0
  0
LINE
  5
387
330
1F
100
AcDbEntity
  8
0
  6
Continuous
 62
     7
370
    25
100
AcDbLine
 10
155.8954752907
 20
67.0104651452
 30
0.0
 11
156.3197393595
 21
66.7655427116
 31
0.0
  0
LINE
  5
388
330
1F
100
AcDbEntity
  8
0
  6
Continuous
 62
     7
370
    25
100
AcDbLine
 10
158.8803768583
 20
69.6428942463
 30
0.0
 11
158.4561127896
 21
69.8878166799
 31
0.0
  0
LINE
  5
389
330
1F
100
AcDbEntity
  8
0
  6
Continuous
 62
     7
370
    25
100
AcDbLine
 10
158.1104643248
 20
68.2891510969
 30
0.0
 11
158.5347283935
 21
68.0442286634
 31
0.0
  0
ARC
  5
38A
330
1F
100
AcDbEntity
  8
0
  6
Continuous
 62
     7
370
    25
100
AcDbCircle
 10
206.1250821144
 20
104.3027465843
 30
0.0
 40
0.6375150748789761
100
AcDbArc
 50
2.6054784857
 51
57.39452166
  0
ARC
  5
38B
330
1F
100
AcDbEntity
  8
0
  6
Continuous
 62
     7
370
    25
100
AcDbCircle
 10
64.7037258771
 20
22.661935402
 30
0.0
 40
0.6375150748792958
100
AcDbArc
 50
2.6054784857
 51
57.39452166
  0
ARC
  5
38C
330
1F
100
AcDbEntity
  8
0
  6
Continuous
 62
     7
370
    25
100
AcDbCircle
 10
65.0348039833
 20
22.8530657523
 30
0.0
 40
0.0231005128117897
100
AcDbArc
 50
2.6054784858
 51
57.3945216599
  0
LINE
  5
38D
330
1F
100
AcDbEntity
  8
0
  6
Continuous
 62
     7
370
    25
100
AcDbLine
 10
206.7619381439
 20
104.3317270678
 30
0.0
 11
206.7619381439
 21
98.4606353222
 31
0.0
  0
LINE
  5
38E
330
1F
100
AcDbEntity
  8
0
  6
Continuous
 62
     7
370
    25
100
AcDbLine
 10
65.3405819066
 20
22.6909158856
 30
0.0
 11
65.3405819066
 21
16.8198241399
 31
0.0
  0
LINE
  5
38F
330
1F
100
AcDbEntity
  8
0
  6
Continuous
 62
     7
370
    25
100
AcDbLine
 10
65.0578806155
 20
22.8541158671
 30
0.0
 11
65.0578806155
 21
16.9830241215
 31
0.0
  0
LINE
  5
390
330
1F
100
AcDbEntity
  8
0
  6
Continuous
 62
     7
370
    25
100
AcDbLine
 10
206.4437400924
 20
104.8541457595
 30
0.0
 11
206.4686079628
 21
104.8397898434
 31
0.0
  0
LINE
  5
391
330
1F
100
AcDbEntity
  8
0
  6
Continuous
 62
     7
370
    25
100
AcDbLine
 10
65.0223838551
 20
23.2133345772
 30
0.0
 11
65.0472517255
 21
23.1989786612
 31
0.0
  0
LINE
  5
392
330
1F
100
AcDbEntity
  8
0
  6
Continuous
 62
     7
370
    25
100
AcDbLine
 10
65.0223838551
 20
22.8868815606
 30
0.0
 11
65.0472517255
 21
22.8725256446
 31
0.0
  0
ARC
  5
393
330
1F
100
AcDbEntity
  8
0
  6
Continuous
 62
     7
370
    25
100
AcDbCircle
 10
65.0223286486
 20
22.8868138787
 30
0.0
 40
0.0000873418394797
100
AcDbArc
 50
50.7967147552
 51
189.214037001
  0
ARC
  5
394
330
1F
100
AcDbEntity
  8
0
  6
Continuous
 62
     7
370
    25
100
AcDbCircle
 10
64.9119708896
 20
23.0779707536
 30
0.0
 40
0.1746836789713856
100
AcDbArc
 50
50.7967147643
 51
189.2140369905
  0
ARC
  5
395
330
1F
100
AcDbEntity
  8
0
  6
Continuous
 62
     7
370
    25
100
AcDbCircle
 10
206.3265720704
 20
104.6905932278
 30
0.0
 40
0.2011908943606488
100
AcDbArc
 50
54.3824225248
 51
114.3071190461
  0
LINE
  5
396
330
1F
100
AcDbEntity
  8
0
  6
Continuous
 62
     7
370
    25
100
AcDbLine
 10
65.0222424337
 20
20.1105611328
 30
0.0
 11
65.0222424337
 21
22.8867998932
 31
0.0
  0
LINE
  5
397
330
1F
100
AcDbEntity
  8
0
  6
Continuous
 62
     7
370
    25
100
AcDbLine
 10
64.7395411426
 20
20.2737611144
 30
0.0
 11
64.7395411426
 21
23.0499998748
 31
0.0
  0
ARC
  5
398
330
1F
100
AcDbEntity
  8
0
  6
Continuous
 62
     7
370
    25
100
AcDbCircle
 10
64.7205765914
 20
20.0616260804
 30
0.0
 40
0.3056090963604392
100
AcDbArc
 50
230.7967147643
 51
9.2140369905
  0
ARC
  5
399
330
1F
100
AcDbEntity
  8
0
  6
Continuous
 62
     7
370
    25
100
AcDbCircle
 10
64.6102188324
 20
20.2527829553
 30
0.0
 40
0.1310127592285726
100
AcDbArc
 50
230.7967147643
 51
9.2140369905
  0
LINE
  5
39A
330
1F
100
AcDbEntity
  8
0
  6
Continuous
 62
     7
370
    25
100
AcDbLine
 10
63.3606829193
 20
20.8247967798
 30
0.0
 11
64.5274091082
 21
20.1512600876
 31
0.0
  0
LINE
  5
39B
330
1F
100
AcDbEntity
  8
0
  6
Continuous
 62
     7
370
    25
100
AcDbLine
 10
63.3606829193
 20
20.4983437633
 30
0.0
 11
64.5274091082
 21
19.824807071
 31
0.0
  0
LINE
  5
39C
330
1F
100
AcDbEntity
  8
0
  6
Continuous
 62
     7
370
    25
100
AcDbLine
 10
64.7610371887
 20
18.1262350585
 30
0.0
 11
64.7610371887
 21
17.1543881842
 31
0.0
  0
LINE
  5
39D
330
1F
100
AcDbEntity
  8
0
  6
Continuous
 62
     7
370
    25
100
AcDbLine
 10
65.0437384799
 20
17.9630350769
 30
0.0
 11
64.7610371887
 21
18.1262350585
 31
0.0
  0
LINE
  5
39E
330
1F
100
AcDbEntity
  8
0
  6
Continuous
 62
     7
370
    25
100
AcDbLine
 10
65.0437384799
 20
17.9630350769
 30
0.0
 11
65.0437384799
 21
16.9911882026
 31
0.0
  0
ARC
  5
39F
330
1F
100
AcDbEntity
  8
0
  6
Continuous
 62
     7
370
    25
100
AcDbCircle
 10
63.1674602304
 20
20.5879100757
 30
0.0
 40
0.3056964476259956
100
AcDbArc
 50
50.7967163849
 51
189.2140470125
  0
ARC
  5
3A0
330
1F
100
AcDbEntity
  8
0
  6
Continuous
 62
     7
370
    25
100
AcDbCircle
 10
63.277817989
 20
20.3967532081
 30
0.0
 40
0.1311001051104523
100
AcDbArc
 50
50.7967163849
 51
189.2140470125
  0
LINE
  5
3A1
330
1F
100
AcDbEntity
  8
0
  6
Continuous
 62
     7
370
    25
100
AcDbLine
 10
206.7619381439
 20
98.4606353222
 30
0.0
 11
206.7540833042
 21
98.3877874934
 31
0.0
  0
LWPOLYLINE
  5
3A2
330
1F
100
AcDbEntity
  8
0
  6
Continuous
 62
     7
370
    25
100
AcDbPolyline
 90
        9
 70
   128
 43
0.0
 10
64.7610371887
 20
17.1543881842
 10
64.7830947962
 20
17.0136016711
 10
64.8459095477
 20
16.868781457
 10
64.9399184667
 20
16.7419751067
 10
65.0508095477
 20
16.6524877373
 10
65.1617006286
 20
16.6139429899
 10
65.2557095477
 20
16.6322089526
 10
65.3185242992
 20
16.7045047984
 10
65.3405819066
 20
16.8198241399
  0
LWPOLYLINE
  5
3A3
330
1F
100
AcDbEntity
  8
0
  6
Continuous
 62
     7
370
    25
100
AcDbPolyline
 90
        9
 70
   128
 43
0.0
 10
65.0437384799
 20
16.9911882026
 10
65.0442767328
 20
16.9877527094
 10
65.0458095477
 20
16.9842187852
 10
65.0481035672
 20
16.9811244379
 10
65.0508095477
 20
16.9789407539
 10
65.0535155282
 20
16.9780001793
 10
65.0558095477
 20
16.978445908
 10
65.0573423625
 20
16.9802100819
 10
65.0578806155
 20
16.9830241215
  0
LINE
  5
3A4
330
1F
100
AcDbEntity
  8
0
  6
Continuous
 62
     7
370
    25
100
AcDbLine
 10
63.1484094636
 20
20.2445485225
 30
0.0
 11
63.1484094636
 21
20.3757610404
 31
0.0
  0
LINE
  5
3A5
330
1F
100
AcDbEntity
  8
0
  6
Continuous
 62
     7
370
    25
100
AcDbLine
 10
62.8657081724
 20
20.4077485041
 30
0.0
 11
62.8657081724
 21
20.5389609836
 31
0.0
  0
LINE
  5
3A6
330
1F
100
AcDbEntity
  8
0
  6
Continuous
 62
     7
370
    25
100
AcDbLine
 10
63.374773193
 20
19.7509407824
 30
0.0
 11
63.2105829193
 21
20.0353266777
 31
0.0
  0
LINE
  5
3A7
330
1F
100
AcDbEntity
  8
0
  6
Continuous
 62
     7
370
    25
100
AcDbLine
 10
63.174873193
 20
19.6355034543
 30
0.0
 11
63.0106829193
 21
19.9198893496
 31
0.0
  0
ARC
  5
3A8
330
1F
100
AcDbEntity
  8
0
  6
Continuous
 62
     7
370
    25
100
AcDbCircle
 10
63.5812874532
 20
20.2593359892
 30
0.0
 40
0.4331304919440813
100
AcDbArc
 50
181.9565099279
 51
211.1437265436
  0
ARC
  5
3A9
330
1F
100
AcDbEntity
  8
0
  6
Continuous
 62
     7
370
    25
100
AcDbCircle
 10
63.8750838291
 20
20.4422294894
 30
0.0
 40
1.009964432293123
100
AcDbArc
 50
181.9565034826
 51
211.1437272608
  0
ARC
  5
3AA
330
1F
100
AcDbEntity
  8
0
  6
Continuous
 62
     7
370
    25
100
AcDbCircle
 10
62.7738845041
 20
19.3148809301
 30
0.0
 40
0.7424388265620178
100
AcDbArc
 50
336.2431293929
 51
35.9680754417
  0
ARC
  5
3AB
330
1F
100
AcDbEntity
  8
0
  6
Continuous
 62
     7
370
    25
100
AcDbCircle
 10
62.9172758699
 20
19.4485672501
 30
0.0
 40
0.3182790053852386
100
AcDbArc
 50
336.2431293929
 51
35.9680754417
  0
LINE
  5
3AC
330
1F
100
AcDbEntity
  8
0
  6
Continuous
 62
     7
370
    25
100
AcDbLine
 10
63.1768487141
 20
18.6222855341
 30
0.0
 11
63.4534114235
 21
19.0157846629
 31
0.0
  0
LINE
  5
3AD
330
1F
100
AcDbEntity
  8
0
  6
Continuous
 62
     7
370
    25
100
AcDbLine
 10
62.9320222143
 20
18.9268473723
 30
0.0
 11
63.2085849237
 21
19.3203465011
 31
0.0
  0
ARC
  5
3AE
330
1F
100
AcDbEntity
  8
0
  6
Continuous
 62
     7
370
    25
100
AcDbCircle
 10
63.3324996914
 20
18.5236998802
 30
0.0
 40
0.1842453741827598
100
AcDbArc
 50
147.6507958589
 51
182.3514761559
  0
ARC
  5
3AF
330
1F
100
AcDbEntity
  8
0
  6
Continuous
 62
     7
370
    25
100
AcDbCircle
 10
63.2949658656
 20
18.6969674331
 30
0.0
 40
0.4296194601197019
100
AcDbArc
 50
147.6507958589
 51
182.3514761559
  0
LINE
  5
3B0
330
1F
100
AcDbEntity
  8
0
  6
Continuous
 62
     7
370
    25
100
AcDbLine
 10
63.1484094636
 20
16.872637678
 30
0.0
 11
63.1484094636
 21
18.5161403881
 31
0.0
  0
LINE
  5
3B1
330
1F
100
AcDbEntity
  8
0
  6
Continuous
 62
     7
370
    25
100
AcDbLine
 10
62.8657081724
 20
17.0358376595
 30
0.0
 11
62.8657081724
 21
18.6793403697
 31
0.0
  0
LINE
  5
3B2
330
1F
100
AcDbEntity
  8
0
  6
Continuous
 62
     7
370
    25
100
AcDbLine
 10
63.1625515992
 20
17.8363204711
 30
0.0
 11
63.4452528903
 21
17.6731204896
 31
0.0
  0
LINE
  5
3B3
330
1F
100
AcDbEntity
  8
0
  6
Continuous
 62
     7
370
    25
100
AcDbLine
 10
63.4452528903
 20
16.7012736153
 30
0.0
 11
63.4452528903
 21
17.6731204896
 31
0.0
  0
LINE
  5
3B4
330
1F
100
AcDbEntity
  8
0
  6
Continuous
 62
     7
370
    25
100
AcDbLine
 10
63.1625515992
 20
16.8644735968
 30
0.0
 11
63.1625515992
 21
17.8363204711
 31
0.0
  0
LWPOLYLINE
  5
3B5
330
1F
100
AcDbEntity
  8
0
  6
Continuous
 62
     7
370
    25
100
AcDbPolyline
 90
        9
 70
   128
 43
0.0
 10
62.8657081724
 20
17.0358376595
 10
62.8877657799
 20
16.8950511465
 10
62.9505805314
 20
16.7502309324
 10
63.0445894505
 20
16.623424582
 10
63.1554805314
 20
16.5339372127
 10
63.2663716123
 20
16.4953924652
 10
63.3603805314
 20
16.513658428
 10
63.4231952829
 20
16.5859542737
 10
63.4452528903
 20
16.7012736153
  0
LWPOLYLINE
  5
3B6
330
1F
100
AcDbEntity
  8
0
  6
Continuous
 62
     7
370
    25
100
AcDbPolyline
 90
        9
 70
   128
 43
0.0
 10
63.1484094636
 20
16.872637678
 10
63.1489477166
 20
16.8692021847
 10
63.1504805314
 20
16.8656682605
 10
63.1527745509
 20
16.8625739133
 10
63.1554805314
 20
16.8603902293
 10
63.1581865119
 20
16.8594496547
 10
63.1604805314
 20
16.8598953834
 10
63.1620133462
 20
16.8616595573
 10
63.1625515992
 20
16.8644735968
  0
ARC
  5
3B7
330
1F
100
AcDbEntity
  8
0
  6
Continuous
 62
     7
370
    25
100
AcDbCircle
 10
46.235653138
 20
33.3496181485
 30
0.0
 40
0.6147219230289898
100
AcDbArc
 50
2.6054784857
 51
57.39452166
  0
ARC
  5
3B8
330
1F
100
AcDbEntity
  8
0
  6
Continuous
 62
     7
370
    25
100
AcDbCircle
 10
187.6570093753
 20
114.9904293307
 30
0.0
 40
0.6147219230287796
100
AcDbArc
 50
2.6054784857
 51
57.39452166
  0
ARC
  5
3B9
330
1F
100
AcDbEntity
  8
0
  6
Continuous
 62
     7
370
    25
100
AcDbCircle
 10
46.5667312442
 20
33.5407484987
 30
0.0
 40
0.000307360961413
100
AcDbArc
 50
2.6054784729
 51
57.394521674
  0
LINE
  5
3BA
330
1F
100
AcDbEntity
  8
0
  6
Continuous
 62
     7
370
    25
100
AcDbLine
 10
46.8497395786
 20
30.6013237289
 30
0.0
 11
46.8497395786
 21
33.3775624894
 31
0.0
  0
LINE
  5
3BB
330
1F
100
AcDbEntity
  8
0
  6
Continuous
 62
     7
370
    25
100
AcDbLine
 10
188.2710958159
 20
112.2421349112
 30
0.0
 11
188.2710958159
 21
115.0183736716
 31
0.0
  0
LINE
  5
3BC
330
1F
100
AcDbEntity
  8
0
  6
Continuous
 62
     7
370
    25
100
AcDbLine
 10
46.5670382875
 20
30.7645237105
 30
0.0
 11
46.5670382875
 21
33.5407624709
 31
0.0
  0
LINE
  5
3BD
330
1F
100
AcDbEntity
  8
0
  6
Continuous
 62
     7
370
    25
100
AcDbLine
 10
46.5668968661
 20
33.8674604365
 30
0.0
 11
46.5420289957
 21
33.8818163525
 31
0.0
  0
LINE
  5
3BE
330
1F
100
AcDbEntity
  8
0
  6
Continuous
 62
     7
370
    25
100
AcDbLine
 10
187.9882531034
 20
115.5082716187
 30
0.0
 11
187.963385233
 21
115.5226275348
 31
0.0
  0
LINE
  5
3BF
330
1F
100
AcDbEntity
  8
0
  6
Continuous
 62
     7
370
    25
100
AcDbLine
 10
46.5668968661
 20
33.5410074199
 30
0.0
 11
46.5420289957
 21
33.5553633359
 31
0.0
  0
ARC
  5
3C0
330
1F
100
AcDbEntity
  8
0
  6
Continuous
 62
     7
370
    25
100
AcDbCircle
 10
46.5378798088
 20
33.5502765257
 30
0.0
 40
0.006564403208847
100
AcDbArc
 50
50.7967147643
 51
189.2140369905
  0
ARC
  5
3C1
330
1F
100
AcDbEntity
  8
0
  6
Continuous
 62
     7
370
    25
100
AcDbCircle
 10
46.4275220498
 20
33.7414334006
 30
0.0
 40
0.1811607403407622
100
AcDbArc
 50
50.7967147643
 51
189.2140369905
  0
ARC
  5
3C2
330
1F
100
AcDbEntity
  8
0
  6
Continuous
 62
     7
370
    25
100
AcDbCircle
 10
187.8418727613
 20
115.3530106713
 30
0.0
 40
0.2086508114945398
100
AcDbArc
 50
54.3824225248
 51
114.3071190461
  0
LINE
  5
3C3
330
1F
100
AcDbEntity
  8
0
  6
Continuous
 62
     7
370
    25
100
AcDbLine
 10
46.2486988146
 20
33.7124253952
 30
0.0
 11
46.2486988146
 21
27.8413336496
 31
0.0
  0
LINE
  5
3C4
330
1F
100
AcDbEntity
  8
0
  6
Continuous
 62
     7
370
    25
100
AcDbLine
 10
46.5314001057
 20
33.5492254136
 30
0.0
 11
46.5314001057
 21
27.678133668
 31
0.0
  0
ARC
  5
3C5
330
1F
100
AcDbEntity
  8
0
  6
Continuous
 62
     7
370
    25
100
AcDbCircle
 10
47.9799993906
 20
28.8452699281
 30
0.0
 40
0.4613487950491525
100
AcDbArc
 50
2.6054742763
 51
57.394521988
  0
ARC
  5
3C6
330
1F
100
AcDbEntity
  8
0
  6
Continuous
 62
     7
370
    25
100
AcDbCircle
 10
47.6489212932
 20
28.6541395851
 30
0.0
 40
1.075763346217745
100
AcDbArc
 50
2.6054742764
 51
57.394521988
  0
ARC
  5
3C7
330
1F
100
AcDbEntity
  8
0
  6
Continuous
 62
     7
370
    25
100
AcDbCircle
 10
189.0702775305
 20
110.2949507673
 30
0.0
 40
1.07576334621763
100
AcDbArc
 50
2.6054742764
 51
57.394521988
  0
LINE
  5
3C8
330
1F
100
AcDbEntity
  8
0
  6
Continuous
 62
     7
370
    25
100
AcDbLine
 10
48.4408712576
 20
28.7350296039
 30
0.0
 11
48.4408712576
 21
28.8662421217
 31
0.0
  0
LINE
  5
3C9
330
1F
100
AcDbEntity
  8
0
  6
Continuous
 62
     7
370
    25
100
AcDbLine
 10
48.7235725487
 20
28.5718296223
 30
0.0
 11
48.7235725487
 21
28.7030421018
 31
0.0
  0
LINE
  5
3CA
330
1F
100
AcDbEntity
  8
0
  6
Continuous
 62
     7
370
    25
100
AcDbLine
 10
190.144928786
 20
110.2126408046
 30
0.0
 11
190.144928786
 21
110.3438532841
 31
0.0
  0
LINE
  5
3CB
330
1F
100
AcDbEntity
  8
0
  6
Continuous
 62
     7
370
    25
100
AcDbLine
 10
48.2285978019
 20
29.2339105598
 30
0.0
 11
47.0618716129
 21
29.907447252
 31
0.0
  0
LINE
  5
3CC
330
1F
100
AcDbEntity
  8
0
  6
Continuous
 62
     7
370
    25
100
AcDbLine
 10
48.2285978019
 20
29.5603635763
 30
0.0
 11
47.0618716129
 21
30.2339002686
 31
0.0
  0
LINE
  5
3CD
330
1F
100
AcDbEntity
  8
0
  6
Continuous
 62
     7
370
    25
100
AcDbLine
 10
189.6499540392
 20
111.2011747586
 30
0.0
 11
188.4832278502
 21
111.8747114509
 31
0.0
  0
ARC
  5
3CE
330
1F
100
AcDbEntity
  8
0
  6
Continuous
 62
     7
370
    25
100
AcDbCircle
 10
48.3731108758
 20
28.537340744
 30
0.0
 40
0.352154606584215
100
AcDbArc
 50
305.6980366814
 51
5.6203718064
  0
ARC
  5
3CF
330
1F
100
AcDbEntity
  8
0
  6
Continuous
 62
     7
370
    25
100
AcDbCircle
 10
189.7944671131
 20
110.1781519263
 30
0.0
 40
0.3521546065840714
100
AcDbArc
 50
305.6980366814
 51
5.6203718064
  0
ARC
  5
3D0
330
1F
100
AcDbEntity
  8
0
  6
Continuous
 62
     7
370
    25
100
AcDbCircle
 10
48.2905732821
 20
28.7202388289
 30
0.0
 40
0.1510239996537026
100
AcDbArc
 50
305.698034221
 51
5.6203622745
  0
LINE
  5
3D1
330
1F
100
AcDbEntity
  8
0
  6
Continuous
 62
     7
370
    25
100
AcDbLine
 10
48.2145075282
 20
28.5027758627
 30
0.0
 11
48.3786978019
 21
28.5975917031
 31
0.0
  0
LINE
  5
3D2
330
1F
100
AcDbEntity
  8
0
  6
Continuous
 62
     7
370
    25
100
AcDbLine
 10
48.4144075282
 20
28.1565389072
 30
0.0
 11
48.5785978019
 21
28.2513547476
 31
0.0
  0
LINE
  5
3D3
330
1F
100
AcDbEntity
  8
0
  6
Continuous
 62
     7
370
    25
100
AcDbLine
 10
189.8357637655
 20
109.7973500895
 30
0.0
 11
189.9999540392
 21
109.8921659299
 31
0.0
  0
ARC
  5
3D4
330
1F
100
AcDbEntity
  8
0
  6
Continuous
 62
     7
370
    25
100
AcDbCircle
 10
48.5837733206
 20
28.1307308269
 30
0.0
 40
0.5241895974244111
100
AcDbArc
 50
134.7851937923
 51
211.2988233092
  0
ARC
  5
3D5
330
1F
100
AcDbEntity
  8
0
  6
Continuous
 62
     7
370
    25
100
AcDbCircle
 10
48.5727095255
 20
27.9970454652
 30
0.0
 40
0.2247168894361509
100
AcDbArc
 50
134.7851937923
 51
211.2988233092
  0
LINE
  5
3D6
330
1F
100
AcDbEntity
  8
0
  6
Continuous
 62
     7
370
    25
100
AcDbLine
 10
189.8189905242
 20
109.7852057453
 30
0.0
 11
189.8357637655
 21
109.7973500895
 31
0.0
  0
LINE
  5
3D7
330
1F
100
AcDbEntity
  8
0
  6
Continuous
 62
     7
370
    25
100
AcDbLine
 10
48.4124320071
 20
27.1456018752
 30
0.0
 11
48.1358692977
 21
27.8584135114
 31
0.0
  0
LINE
  5
3D8
330
1F
100
AcDbEntity
  8
0
  6
Continuous
 62
     7
370
    25
100
AcDbLine
 10
48.6572585069
 20
27.1674930536
 30
0.0
 11
48.3806957975
 21
27.8803046898
 31
0.0
  0
LINE
  5
3D9
330
1F
100
AcDbEntity
  8
0
  6
Continuous
 62
     7
370
    25
100
AcDbLine
 10
189.9470385834
 20
109.1474281135
 30
0.0
 11
189.8213783361
 21
109.4713043394
 31
0.0
  0
ARC
  5
3DA
330
1F
100
AcDbEntity
  8
0
  6
Continuous
 62
     7
370
    25
100
AcDbCircle
 10
47.310304409
 20
30.6222819846
 30
0.0
 40
0.4610414422713757
100
AcDbArc
 50
182.6054784856
 51
237.39452166
  0
ARC
  5
3DB
330
1F
100
AcDbEntity
  8
0
  6
Continuous
 62
     7
370
    25
100
AcDbCircle
 10
188.7316606463
 20
112.2630931669
 30
0.0
 40
0.4610414422715305
100
AcDbArc
 50
182.6054784856
 51
237.39452166
  0
ARC
  5
3DC
330
1F
100
AcDbEntity
  8
0
  6
Continuous
 62
     7
370
    25
100
AcDbCircle
 10
47.6413825152
 20
30.8134123349
 30
0.0
 40
1.075456004338735
100
AcDbArc
 50
182.6054784856
 51
237.39452166
  0
ARC
  5
3DD
330
1F
100
AcDbEntity
  8
0
  6
Continuous
 62
     7
370
    25
100
AcDbCircle
 10
48.050121047
 20
26.9990630583
 30
0.0
 40
0.3908233061500601
100
AcDbArc
 50
1.1081531092
 51
22.021162201
  0
ARC
  5
3DE
330
1F
100
AcDbEntity
  8
0
  6
Continuous
 62
     7
370
    25
100
AcDbCircle
 10
47.8124294861
 20
26.8257969448
 30
0.0
 40
0.9113135053458803
100
AcDbArc
 50
1.1081531092
 51
22.021162201
  0
LINE
  5
3DF
330
1F
100
AcDbEntity
  8
0
  6
Continuous
 62
     7
370
    25
100
AcDbLine
 10
48.7235725487
 20
25.1999187777
 30
0.0
 11
48.7235725487
 21
26.8434214879
 31
0.0
  0
LINE
  5
3E0
330
1F
100
AcDbEntity
  8
0
  6
Continuous
 62
     7
370
    25
100
AcDbLine
 10
48.4408712576
 20
25.3631187593
 30
0.0
 11
48.4408712576
 21
27.0066214695
 31
0.0
  0
LINE
  5
3E1
330
1F
100
AcDbEntity
  8
0
  6
Continuous
 62
     7
370
    25
100
AcDbLine
 10
190.144928786
 20
106.84072996
 30
0.0
 11
190.144928786
 21
108.4842326702
 31
0.0
  0
LINE
  5
3E2
330
1F
100
AcDbEntity
  8
0
  6
Continuous
 62
     7
370
    25
100
AcDbLine
 10
48.426729122
 20
26.3431297147
 30
0.0
 11
48.426729122
 21
25.3712828404
 31
0.0
  0
LINE
  5
3E3
330
1F
100
AcDbEntity
  8
0
  6
Continuous
 62
     7
370
    25
100
AcDbLine
 10
48.1440278309
 20
26.5063296963
 30
0.0
 11
48.1440278309
 21
25.534482822
 31
0.0
  0
LINE
  5
3E4
330
1F
100
AcDbEntity
  8
0
  6
Continuous
 62
     7
370
    25
100
AcDbLine
 10
48.426729122
 20
26.3431297147
 30
0.0
 11
48.1440278309
 21
26.5063296963
 31
0.0
  0
LWPOLYLINE
  5
3E5
330
1F
100
AcDbEntity
  8
0
  6
Continuous
 62
     7
370
    25
100
AcDbPolyline
 90
        9
 70
   128
 43
0.0
 10
48.1440278309
 20
25.534482822
 10
48.1660854383
 20
25.3936963089
 10
48.2289001898
 20
25.2488760948
 10
48.3229091089
 20
25.1220697445
 10
48.4338001898
 20
25.0325823751
 10
48.5446912707
 20
24.9940376277
 10
48.6387001898
 20
25.0123035904
 10
48.7015149413
 20
25.0845994362
 10
48.7235725487
 20
25.1999187777
  0
LWPOLYLINE
  5
3E6
330
1F
100
AcDbEntity
  8
0
  6
Continuous
 62
     7
370
    25
100
AcDbPolyline
 90
        9
 70
   128
 43
0.0
 10
48.426729122
 20
25.3712828404
 10
48.427267375
 20
25.3678473472
 10
48.4288001898
 20
25.364313423
 10
48.4310942093
 20
25.3612190757
 10
48.4338001898
 20
25.3590353917
 10
48.4365061703
 20
25.3580948171
 10
48.4388001898
 20
25.3585405458
 10
48.4403330046
 20
25.3603047197
 10
48.4408712576
 20
25.3631187593
  0
LINE
  5
3E7
330
1F
100
AcDbEntity
  8
0
  6
Continuous
 62
     7
370
    25
100
AcDbLine
 10
46.5455422413
 20
28.6418164612
 30
0.0
 11
46.8282435324
 21
28.4786164796
 31
0.0
  0
LINE
  5
3E8
330
1F
100
AcDbEntity
  8
0
  6
Continuous
 62
     7
370
    25
100
AcDbLine
 10
46.8282435324
 20
27.5067696053
 30
0.0
 11
46.8282435324
 21
28.4786164796
 31
0.0
  0
LINE
  5
3E9
330
1F
100
AcDbEntity
  8
0
  6
Continuous
 62
     7
370
    25
100
AcDbLine
 10
46.5455422413
 20
27.6699695869
 30
0.0
 11
46.5455422413
 21
28.6418164612
 31
0.0
  0
LWPOLYLINE
  5
3EA
330
1F
100
AcDbEntity
  8
0
  6
Continuous
 62
     7
370
    25
100
AcDbPolyline
 90
        9
 70
   128
 43
0.0
 10
46.2486988146
 20
27.8413336496
 10
46.270756422
 20
27.7005471365
 10
46.3335711735
 20
27.5557269224
 10
46.4275800926
 20
27.428920572
 10
46.5384711735
 20
27.3394332027
 10
46.6493622544
 20
27.3008884553
 10
46.7433711735
 20
27.319154418
 10
46.806185925
 20
27.3914502638
 10
46.8282435324
 20
27.5067696053
  0
LWPOLYLINE
  5
3EB
330
1F
100
AcDbEntity
  8
0
  6
Continuous
 62
     7
370
    25
100
AcDbPolyline
 90
        9
 70
   128
 43
0.0
 10
46.5314001057
 20
27.678133668
 10
46.5319383587
 20
27.6746981748
 10
46.5334711735
 20
27.6711642505
 10
46.535765193
 20
27.6680699033
 10
46.5384711735
 20
27.6658862193
 10
46.541177154
 20
27.6649456447
 10
46.5434711735
 20
27.6653913734
 10
46.5450039883
 20
27.6671555473
 10
46.5455422413
 20
27.6699695869
  0
LINE
  5
3EC
330
1F
100
AcDbEntity
  8
0
  6
Continuous
 62
     7
370
    25
100
AcDbLine
 10
46.2486988146
 20
24.2528258272
 30
0.0
 11
49.2465812725
 21
22.5221851219
 31
0.0
  0
LINE
  5
3ED
330
1F
100
AcDbEntity
  8
0
  6
Continuous
 62
     7
370
    25
100
AcDbLine
 10
46.2486988146
 20
24.2528258272
 30
0.0
 11
46.2486988146
 21
27.7639513183
 31
0.0
  0
LINE
  5
3EE
330
1F
100
AcDbEntity
  8
0
  6
Continuous
 62
     7
370
    25
100
AcDbLine
 10
46.2486988146
 20
27.7639513183
 30
0.0
 11
46.531541527
 21
27.6006696959
 31
0.0
  0
LINE
  5
3EF
330
1F
100
AcDbEntity
  8
0
  6
Continuous
 62
     7
370
    25
100
AcDbLine
 10
46.531541527
 20
30.2136002939
 30
0.0
 11
46.531541527
 21
27.6006696959
 31
0.0
  0
LINE
  5
3F0
330
1F
100
AcDbEntity
  8
0
  6
Continuous
 62
     7
370
    25
100
AcDbLine
 10
46.531541527
 20
30.2136002939
 30
0.0
 11
48.5114405144
 21
29.0706289374
 31
0.0
  0
ARC
  5
3F1
330
1F
100
AcDbEntity
  8
0
  6
Continuous
 62
     7
370
    25
100
AcDbCircle
 10
48.2630077183
 20
28.6822472214
 30
0.0
 40
0.4610414422716055
100
AcDbArc
 50
2.6054784857
 51
57.39452166
  0
LINE
  5
3F2
330
1F
100
AcDbEntity
  8
0
  6
Continuous
 62
     7
370
    25
100
AcDbLine
 10
48.7235725487
 20
28.7032054771
 30
0.0
 11
48.7235725487
 21
28.5163976036
 31
0.0
  0
ARC
  5
3F3
330
1F
100
AcDbEntity
  8
0
  6
Continuous
 62
     7
370
    25
100
AcDbCircle
 10
48.5917121351
 20
28.495820777
 30
0.0
 40
0.1334562642684731
100
AcDbArc
 50
283.6461875582
 51
8.8694765958
  0
LWPOLYLINE
  5
3F4
330
1F
100
AcDbEntity
  8
0
  6
Continuous
 62
     7
370
    25
100
AcDbPolyline
 90
        9
 70
   128
 43
0.0
 10
48.6231978788
 20
28.3661318321
 10
48.5223778914
 20
28.3298288835
 10
48.4453552938
 20
28.2535671854
 10
48.3970719449
 20
28.1422397763
 10
48.3806257598
 20
28.0029895511
 10
48.3970719449
 20
27.8447509648
 10
48.4453552938
 20
27.6776767876
 10
48.5223778914
 20
27.5124866913
 10
48.6231978788
 20
27.3597794629
  0
ARC
  5
3F5
330
1F
100
AcDbEntity
  8
0
  6
Continuous
 62
     7
370
    25
100
AcDbCircle
 10
48.2659688886
 20
27.0730536727
 30
0.0
 40
0.4580657487775345
100
AcDbArc
 50
2.573788686
 51
38.7518743221
  0
LINE
  5
3F6
330
1F
100
AcDbEntity
  8
0
  6
Continuous
 62
     7
370
    25
100
AcDbLine
 10
48.7235725487
 20
27.0936235644
 30
0.0
 11
48.7235725487
 21
24.78380958
 31
0.0
  0
ARC
  5
3F7
330
1F
100
AcDbEntity
  8
0
  6
Continuous
 62
     7
370
    25
100
AcDbCircle
 10
49.3376589893
 20
24.8117539209
 30
0.0
 40
0.6147219230288954
100
AcDbArc
 50
182.6054784857
 51
237.39452166
  0
LINE
  5
3F8
330
1F
100
AcDbEntity
  8
0
  6
Continuous
 62
     7
370
    25
100
AcDbLine
 10
49.0064152612
 20
24.2939116329
 30
0.0
 11
62.58286546
 21
16.4563937594
 31
0.0
  0
ARC
  5
3F9
330
1F
100
AcDbEntity
  8
0
  6
Continuous
 62
     7
370
    25
100
AcDbCircle
 10
62.6932784255
 20
16.591757583
 30
0.0
 40
0.174683678971406
100
AcDbArc
 50
230.7967147643
 51
9.2140369905
  0
LINE
  5
3FA
330
1F
100
AcDbEntity
  8
0
  6
Continuous
 62
     7
370
    25
100
AcDbLine
 10
62.8657081724
 20
18.9295424462
 30
0.0
 11
62.8657081724
 21
16.6197284618
 31
0.0
  0
ARC
  5
3FB
330
1F
100
AcDbEntity
  8
0
  6
Continuous
 62
     7
370
    25
100
AcDbCircle
 10
62.9975685861
 20
18.9501192728
 30
0.0
 40
0.1334562642684074
100
AcDbArc
 50
103.6461875582
 51
188.8694765958
  0
LWPOLYLINE
  5
3FC
330
1F
100
AcDbEntity
  8
0
  6
Continuous
 62
     7
370
    25
100
AcDbPolyline
 90
        9
 70
   128
 43
0.0
 10
62.9660828424
 20
19.0798082176
 10
63.0669028298
 20
19.1161111662
 10
63.1439254273
 20
19.1923728643
 10
63.1922087763
 20
19.3037002735
 10
63.2086549613
 20
19.4429504986
 10
63.1922087763
 20
19.6011890849
 10
63.1439254273
 20
19.7682632621
 10
63.0669028298
 20
19.9334533584
 10
62.9660828424
 20
20.0861605868
  0
ARC
  5
3FD
330
1F
100
AcDbEntity
  8
0
  6
Continuous
 62
     7
370
    25
100
AcDbCircle
 10
63.3233118326
 20
20.372886377
 30
0.0
 40
0.4580657487777366
100
AcDbArc
 50
182.573788686
 51
218.7518743221
  0
LINE
  5
3FE
330
1F
100
AcDbEntity
  8
0
  6
Continuous
 62
     7
370
    25
100
AcDbLine
 10
62.8657081724
 20
20.5391243588
 30
0.0
 11
62.8657081724
 21
20.3523164854
 31
0.0
  0
ARC
  5
3FF
330
1F
100
AcDbEntity
  8
0
  6
Continuous
 62
     7
370
    25
100
AcDbCircle
 10
62.9950304827
 20
20.5601025179
 30
0.0
 40
0.1310127592285378
100
AcDbArc
 50
50.7967147643
 51
189.2140369905
  0
LINE
  5
400
330
1F
100
AcDbEntity
  8
0
  6
Continuous
 62
     7
370
    25
100
AcDbLine
 10
63.0778402068
 20
20.6616253856
 30
0.0
 11
65.0577391941
 21
19.5186540291
 31
0.0
  0
LINE
  5
401
330
1F
100
AcDbEntity
  8
0
  6
Continuous
 62
     7
370
    25
100
AcDbLine
 10
65.0577391941
 20
19.5186540291
 30
0.0
 11
65.0577391941
 21
16.905723431
 31
0.0
  0
LINE
  5
402
330
1F
100
AcDbEntity
  8
0
  6
Continuous
 62
     7
370
    25
100
AcDbLine
 10
65.3405819066
 20
16.7424418087
 30
0.0
 11
65.0577391941
 21
16.905723431
 31
0.0
  0
LINE
  5
403
330
1F
100
AcDbEntity
  8
0
  6
Continuous
 62
     7
370
    25
100
AcDbLine
 10
65.3405819066
 20
13.2313163176
 30
0.0
 11
65.3405819066
 21
16.7424418087
 31
0.0
  0
LINE
  5
404
330
1F
100
AcDbEntity
  8
0
  6
Continuous
 62
     7
370
    25
100
AcDbLine
 10
61.380783932
 20
15.5172590307
 30
0.0
 11
65.3405819066
 21
13.2313163176
 31
0.0
  0
LINE
  5
405
330
1F
100
AcDbEntity
  8
0
  6
Continuous
 62
     7
370
    25
100
AcDbLine
 10
61.380783932
 20
15.5172590307
 30
0.0
 11
61.380783932
 21
16.8237243297
 31
0.0
  0
LINE
  5
406
330
1F
100
AcDbEntity
  8
0
  6
Continuous
 62
     7
370
    25
100
AcDbLine
 10
61.380783932
 20
16.8237243297
 30
0.0
 11
50.2084967892
 21
23.2733484131
 31
0.0
  0
LINE
  5
407
330
1F
100
AcDbEntity
  8
0
  6
Continuous
 62
     7
370
    25
100
AcDbLine
 10
65.0578806155
 20
19.5187356699
 30
0.0
 11
65.0577391941
 21
19.5186540291
 31
0.0
  0
LINE
  5
408
330
1F
100
AcDbEntity
  8
0
  6
Continuous
 62
     7
370
    25
100
AcDbLine
 10
113.928833207
 20
44.2202636678
 30
0.0
 11
114.7195932458
 21
42.2271372857
 31
0.0
  0
LINE
  5
409
330
1F
100
AcDbEntity
  8
0
  6
Continuous
 62
     7
370
    25
100
AcDbLine
 10
113.1828412924
 20
43.7896117022
 30
0.0
 11
113.928833207
 21
44.2202636678
 31
0.0
  0
LINE
  5
40A
330
1F
100
AcDbEntity
  8
0
  6
Continuous
 62
     7
370
    25
100
AcDbLine
 10
112.4054255983
 20
40.8911967391
 30
0.0
 11
113.1828412924
 21
43.7896117022
 31
0.0
  0
LINE
  5
40B
330
1F
100
AcDbEntity
  8
0
  6
Continuous
 62
     7
370
    25
100
AcDbLine
 10
113.0769474603
 20
41.2788580585
 30
0.0
 11
112.4054255983
 21
40.8911967391
 31
0.0
  0
LINE
  5
40C
330
1F
100
AcDbEntity
  8
0
  6
Continuous
 62
     7
370
    25
100
AcDbLine
 10
113.1841326806
 20
41.754307388
 30
0.0
 11
113.0769474603
 21
41.2788580585
 31
0.0
  0
LINE
  5
40D
330
1F
100
AcDbEntity
  8
0
  6
Continuous
 62
     7
370
    25
100
AcDbLine
 10
113.9228067288
 20
42.1807348393
 30
0.0
 11
113.1841326806
 21
41.754307388
 31
0.0
  0
LINE
  5
40E
330
1F
100
AcDbEntity
  8
0
  6
Continuous
 62
     7
370
    25
100
AcDbLine
 10
114.029991949
 20
41.8290389309
 30
0.0
 11
113.9228067288
 21
42.1807348393
 31
0.0
  0
LINE
  5
40F
330
1F
100
AcDbEntity
  8
0
  6
Continuous
 62
     7
370
    25
100
AcDbLine
 10
114.7195932458
 20
42.2271372857
 30
0.0
 11
114.029991949
 21
41.8290389309
 31
0.0
  0
SPLINE
  5
410
330
1F
100
AcDbEntity
  8
0
  6
Continuous
 62
     7
370
    25
100
AcDbSpline
210
0.0
220
0.0
230
1.0
 70
     8
 71
     3
 72
    13
 73
     9
 74
     0
 42
0.000000001
 43
0.00000001
 40
0.0
 40
0.0
 40
0.0
 40
0.0
 40
0.1871174103431637
 40
0.3740390809668491
 40
0.5601850337173796
 40
0.7063736238378118
 40
0.8530463346113645
 40
1.0
 40
1.0
 40
1.0
 40
1.0
 10
157.3719069587699
 20
68.0929971536555
 30
0.0
 10
157.3691741945068
 20
67.97371701675438
 30
0.0
 10
157.3637115246697
 20
67.73528151947879
 30
0.0
 10
157.3051299109468
 20
67.35490646579808
 30
0.0
 10
157.1786722333985
 20
66.97869337462265
 30
0.0
 10
156.9623397877907
 20
66.67007752619475
 30
0.0
 10
156.7289813260584
 20
66.45788370984776
 30
0.0
 10
156.5690633777442
 20
66.35819661247574
 30
0.0
 10
156.4890278953282
 20
66.30830537129282
 30
0.0
  0
SPLINE
  5
411
330
1F
100
AcDbEntity
  8
0
  6
Continuous
 62
     7
370
    25
100
AcDbSpline
210
0.0
220
0.0
230
1.0
 70
     8
 71
     3
 72
     9
 73
     5
 74
     0
 42
0.000000001
 43
0.00000001
 40
0.0
 40
0.0
 40
0.0
 40
0.0
 40
0.559914821953931
 40
1.0
 40
1.0
 40
1.0
 40
1.0
 10
157.3116421762824
 20
68.62488105648961
 30
0.0
 10
157.331186763046
 20
68.53150427162441
 30
0.0
 10
157.3660931202226
 20
68.36473464666727
 30
0.0
 10
157.3701302692996
 20
68.17603921590083
 30
0.0
 10
157.3719069587699
 20
68.0929971536555
 30
0.0
  0
SPLINE
  5
412
330
1F
100
AcDbEntity
  8
0
  6
Continuous
 62
     7
370
    25
100
AcDbSpline
210
0.0
220
0.0
230
1.0
 70
     8
 71
     3
 72
    11
 73
     7
 74
     0
 42
0.000000001
 43
0.00000001
 40
0.0
 40
0.0
 40
0.0
 40
0.0
 40
0.2804754734820645
 40
0.5595654935685389
 40
0.7796409827162486
 40
1.0
 40
1.0
 40
1.0
 40
1.0
 10
156.5049550164142
 20
68.83074889501222
 30
0.0
 10
156.6070012677665
 20
68.88477567421549
 30
0.0
 10
156.8105896967151
 20
68.99256235871765
 30
0.0
 10
157.0702777238772
 20
68.98778425530818
 30
0.0
 10
157.2402859762691
 20
68.84879836650308
 30
0.0
 10
157.2878465706239
 20
68.69955218539228
 30
0.0
 10
157.3116421762824
 20
68.62488105648961
 30
0.0
  0
SPLINE
  5
413
330
1F
100
AcDbEntity
  8
0
  6
Continuous
 62
     7
370
    25
100
AcDbSpline
210
0.0
220
0.0
230
1.0
 70
     8
 71
     3
 72
    13
 73
     9
 74
     0
 42
0.000000001
 43
0.00000001
 40
0.0
 40
0.0
 40
0.0
 40
0.0
 40
0.1871594996892867
 40
0.3740638197467911
 40
0.5598195326586978
 40
0.7062514219437541
 40
0.8530012592542182
 40
1.0
 40
1.0
 40
1.0
 40
1.0
 10
155.6087316082788
 20
67.06668728749379
 30
0.0
 10
155.6114380958204
 20
67.18500661530138
 30
0.0
 10
155.6168473807864
 20
67.42148395031805
 30
0.0
 10
155.6757473219596
 20
67.79974290496342
 30
0.0
 10
155.814817878846
 20
68.17430922480939
 30
0.0
 10
156.0359929398327
 20
68.47084013400489
 30
0.0
 10
156.2665757009247
 20
68.68238941257007
 30
0.0
 10
156.425450371231
 20
68.781267806492
 30
0.0
 10
156.5049550164142
 20
68.83074889501222
 30
0.0
  0
SPLINE
  5
414
330
1F
100
AcDbEntity
  8
0
  6
Continuous
 62
     7
370
    25
100
AcDbSpline
210
0.0
220
0.0
230
1.0
 70
     8
 71
     3
 72
    10
 73
     6
 74
     0
 42
0.000000001
 43
0.00000001
 40
0.0
 40
0.0
 40
0.0
 40
0.0
 40
0.2795726797720529
 40
0.5597722494360323
 40
1.0
 40
1.0
 40
1.0
 40
1.0
 10
155.7735988346553
 20
66.28003880116796
 30
0.0
 10
155.7401092906959
 20
66.33678130747313
 30
0.0
 10
155.6730551086848
 20
66.45039355463182
 30
0.0
 10
155.621166409014
 20
66.72138689361553
 30
0.0
 10
155.6134480347987
 20
66.93571744167892
 30
0.0
 10
155.6087316082788
 20
67.06668728749379
 30
0.0
  0
SPLINE
  5
415
330
1F
100
AcDbEntity
  8
0
  6
Continuous
 62
     7
370
    25
100
AcDbSpline
210
0.0
220
0.0
230
1.0
 70
     8
 71
     3
 72
    11
 73
     7
 74
     0
 42
0.000000001
 43
0.00000001
 40
0.0
 40
0.0
 40
0.0
 40
0.0
 40
0.280310727024666
 40
0.559888577496707
 40
0.7799214485274685
 40
1.0
 40
1.0
 40
1.0
 40
1.0
 10
156.4890278953282
 20
66.30830537129282
 30
0.0
 10
156.411768037446
 20
66.26674776553027
 30
0.0
 10
156.2574503187257
 20
66.18374120698168
 30
0.0
 10
156.0491223201103
 20
66.1383610365588
 30
0.0
 10
155.8838544372674
 20
66.17578656909403
 30
0.0
 10
155.81035324516
 20
66.24528565263947
 30
0.0
 10
155.7735988346553
 20
66.28003880116796
 30
0.0
  0
LINE
  5
416
330
1F
100
AcDbEntity
  8
0
  6
Continuous
 62
     7
370
    25
100
AcDbLine
 10
142.5722538606
 20
58.4970156779
 30
0.0
 11
144.2252307517
 21
60.2127892768
 31
0.0
  0
LINE
  5
417
330
1F
100
AcDbEntity
  8
0
  6
Continuous
 62
     7
370
    25
100
AcDbLine
 10
144.2252307517
 20
60.2127892768
 30
0.0
 11
144.2252307517
 21
60.7630595764
 31
0.0
  0
LINE
  5
418
330
1F
100
AcDbEntity
  8
0
  6
Continuous
 62
     7
370
    25
100
AcDbLine
 10
144.2252307517
 20
60.7630595764
 30
0.0
 11
142.5722538606
 21
60.5648787729
 31
0.0
  0
LINE
  5
419
330
1F
100
AcDbEntity
  8
0
  6
Continuous
 62
     7
370
    25
100
AcDbLine
 10
142.5722538606
 20
60.5648787729
 30
0.0
 11
142.5722538606
 21
59.9698710506
 31
0.0
  0
LINE
  5
41A
330
1F
100
AcDbEntity
  8
0
  6
Continuous
 62
     7
370
    25
100
AcDbLine
 10
142.5722538606
 20
59.9698710506
 30
0.0
 11
143.5769538772
 21
60.1109481993
 31
0.0
  0
LINE
  5
41B
330
1F
100
AcDbEntity
  8
0
  6
Continuous
 62
     7
370
    25
100
AcDbLine
 10
143.5769538772
 20
60.1109481993
 30
0.0
 11
142.5722538606
 21
59.0885438228
 31
0.0
  0
LINE
  5
41C
330
1F
100
AcDbEntity
  8
0
  6
Continuous
 62
     7
370
    25
100
AcDbLine
 10
142.5722538606
 20
59.0885438228
 30
0.0
 11
142.5722538606
 21
58.4970156779
 31
0.0
  0
LINE
  5
41D
330
1F
100
AcDbEntity
  8
0
  6
Continuous
 62
     7
370
    25
100
AcDbLine
 10
124.9159639799
 20
49.0995884484
 30
0.0
 11
124.8578515111
 21
49.0660408342
 31
0.0
  0
SPLINE
  5
41E
330
1F
100
AcDbEntity
  8
0
  6
Continuous
 62
     7
370
    25
100
AcDbSpline
210
0.0
220
0.0
230
1.0
 70
     8
 71
     3
 72
     9
 73
     5
 74
     0
 42
0.000000001
 43
0.00000001
 40
0.0
 40
0.0
 40
0.0
 40
0.0
 40
0.5595454497438422
 40
0.9999999999999999
 40
0.9999999999999999
 40
0.9999999999999999
 40
0.9999999999999999
 10
125.0769570417345
 20
49.13635744502912
 30
0.0
 10
125.0488396576156
 20
49.13842443261338
 30
0.0
 10
124.9985892550221
 20
49.14211848031803
 30
0.0
 10
124.9412286982028
 20
49.11259305590684
 30
0.0
 10
124.9159639799465
 20
49.09958844837669
 30
0.0
  0
SPLINE
  5
41F
330
1F
100
AcDbEntity
  8
0
  6
Continuous
 62
     7
370
    25
100
AcDbSpline
210
0.0
220
0.0
230
1.0
 70
     8
 71
     3
 72
     9
 73
     5
 74
     0
 42
0.000000001
 43
0.00000001
 40
0.0
 40
0.0
 40
0.0
 40
0.0
 40
0.5606896493157703
 40
1.0
 40
1.0
 40
1.0
 40
1.0
 10
125.1957647557813
 20
49.01754358546172
 30
0.0
 10
125.1779121144911
 20
49.04603628174656
 30
0.0
 10
125.1460716100125
 20
49.09685351427365
 30
0.0
 10
125.0980523845236
 20
49.12429994425079
 30
0.0
 10
125.0769570417345
 20
49.13635744502912
 30
0.0
  0
LINE
  5
420
330
1F
100
AcDbEntity
  8
0
  6
Continuous
 62
     7
370
    25
100
AcDbLine
 10
125.5444395687
 20
48.4761880532
 30
0.0
 11
125.1957647558
 21
49.0175435855
 31
0.0
  0
LINE
  5
421
330
1F
100
AcDbEntity
  8
0
  6
Continuous
 62
     7
370
    25
100
AcDbLine
 10
126.2904314834
 20
48.9068400188
 30
0.0
 11
125.5444395687
 21
48.4761880532
 31
0.0
  0
LINE
  5
422
330
1F
100
AcDbEntity
  8
0
  6
Continuous
 62
     7
370
    25
100
AcDbLine
 10
125.9628493443
 20
49.4161317523
 30
0.0
 11
126.2904314834
 21
48.9068400188
 31
0.0
  0
SPLINE
  5
423
330
1F
100
AcDbEntity
  8
0
  6
Continuous
 62
     7
370
    25
100
AcDbSpline
210
0.0
220
0.0
230
1.0
 70
     8
 71
     3
 72
     9
 73
     5
 74
     0
 42
0.000000001
 43
0.00000001
 40
0.0
 40
0.0
 40
0.0
 40
0.0
 40
0.559769903666966
 40
1.0
 40
1.0
 40
1.0
 40
1.0
 10
125.7678497266804
 20
49.5888862096931
 30
0.0
 10
125.8090464162375
 20
49.56373773760496
 30
0.0
 10
125.8826421727925
 20
49.5188112920719
 30
0.0
 10
125.9383326987108
 20
49.44751744809268
 30
0.0
 10
125.9628493443006
 20
49.41613175228976
 30
0.0
  0
SPLINE
  5
424
330
1F
100
AcDbEntity
  8
0
  6
Continuous
 62
     7
370
    25
100
AcDbSpline
210
0.0
220
0.0
230
1.0
 70
     8
 71
     3
 72
     9
 73
     5
 74
     0
 42
0.000000001
 43
0.00000001
 40
0.0
 40
0.0
 40
0.0
 40
0.0
 40
0.5601696408921636
 40
0.9999999999999999
 40
0.9999999999999999
 40
0.9999999999999999
 40
0.9999999999999999
 10
125.5986778729834
 20
49.5831856351552
 30
0.0
 10
125.631897049711
 20
49.58910056326172
 30
0.0
 10
125.6911990437903
 20
49.59965973618849
 30
0.0
 10
125.7444349562054
 20
49.59217723908233
 30
0.0
 10
125.7678497266804
 20
49.5888862096931
 30
0.0
  0
SPLINE
  5
425
330
1F
100
AcDbEntity
  8
0
  6
Continuous
 62
     7
370
    25
100
AcDbSpline
210
0.0
220
0.0
230
1.0
 70
     8
 71
     3
 72
     9
 73
     5
 74
     0
 42
0.000000001
 43
0.00000001
 40
0.0
 40
0.0
 40
0.0
 40
0.0
 40
0.5596449196501982
 40
0.9999999999999999
 40
0.9999999999999999
 40
0.9999999999999999
 40
0.9999999999999999
 10
125.8350019128807
 20
49.8170407645129
 30
0.0
 10
125.7925113665351
 20
49.76903276152081
 30
0.0
 10
125.7165872495571
 20
49.68324979216569
 30
0.0
 10
125.6347259237061
 20
49.61377792486324
 30
0.0
 10
125.5986778729834
 20
49.58318563515519
 30
0.0
  0
SPLINE
  5
426
330
1F
100
AcDbEntity
  8
0
  6
Continuous
 62
     7
370
    25
100
AcDbSpline
210
0.0
220
0.0
230
1.0
 70
     8
 71
     3
 72
    10
 73
     6
 74
     0
 42
0.000000001
 43
0.00000001
 40
0.0
 40
0.0
 40
0.0
 40
0.0
 40
0.2808224526155951
 40
0.5612097671940096
 40
1.0
 40
1.0
 40
1.0
 40
1.0
 10
126.1251337942848
 20
50.57804680940485
 30
0.0
 10
126.1215232417016
 20
50.50917796653032
 30
0.0
 10
126.1143077311334
 20
50.37154699394769
 30
0.0
 10
126.0277009105051
 20
50.09750581546975
 30
0.0
 10
125.9080215939769
 20
49.9233177500289
 30
0.0
 10
125.8350019128807
 20
49.8170407645129
 30
0.0
  0
SPLINE
  5
427
330
1F
100
AcDbEntity
  8
0
  6
Continuous
 62
     7
370
    25
100
AcDbSpline
210
0.0
220
0.0
230
1.0
 70
     8
 71
     3
 72
    12
 73
     8
 74
     0
 42
0.000000001
 43
0.00000001
 40
0.0
 40
0.0
 40
0.0
 40
0.0
 40
0.1875852658664024
 40
0.3749963299722431
 40
0.561288197615091
 40
0.7803241467922758
 40
1.0
 40
1.0
 40
1.0
 40
1.0
 10
125.2973539605459
 20
50.78317100340657
 30
0.0
 10
125.3699803088589
 20
50.82350102890128
 30
0.0
 10
125.5151655607541
 20
50.90412362726133
 30
0.0
 10
125.732335983553
 20
50.99830385009892
 30
0.0
 10
125.946148245238
 20
51.00898898198621
 30
0.0
 10
126.1015811914633
 20
50.8619682776875
 30
0.0
 10
126.1172752962159
 20
50.67277928237754
 30
0.0
 10
126.1251337942848
 20
50.57804680940485
 30
0.0
  0
LINE
  5
428
330
1F
100
AcDbEntity
  8
0
  6
Continuous
 62
     7
370
    25
100
AcDbLine
 10
124.1966607547
 20
50.1477543409
 30
0.0
 11
125.2973539605
 21
50.7831710034
 31
0.0
  0
LINE
  5
429
330
1F
100
AcDbEntity
  8
0
  6
Continuous
 62
     7
370
    25
100
AcDbLine
 10
124.1966607547
 20
47.6981319052
 30
0.0
 11
124.1966607547
 21
50.1477543409
 31
0.0
  0
LINE
  5
42A
330
1F
100
AcDbEntity
  8
0
  6
Continuous
 62
     7
370
    25
100
AcDbLine
 10
124.8578515111
 20
48.0798292043
 30
0.0
 11
124.1966607547
 21
47.6981319052
 31
0.0
  0
LINE
  5
42B
330
1F
100
AcDbEntity
  8
0
  6
Continuous
 62
     7
370
    25
100
AcDbLine
 10
124.8578515111
 20
49.0660408342
 30
0.0
 11
124.8578515111
 21
48.0798292043
 31
0.0
  0
SPLINE
  5
42C
330
1F
100
AcDbEntity
  8
0
  6
Continuous
 62
     7
370
    25
100
AcDbSpline
210
0.0
220
0.0
230
1.0
 70
     8
 71
     3
 72
    12
 73
     8
 74
     0
 42
0.000000001
 43
0.00000001
 40
0.0
 40
0.0
 40
0.0
 40
0.0
 40
0.1871359280313936
 40
0.3738826533383163
 40
0.5603374220198177
 40
0.7797698401762158
 40
1.0
 40
1.0
 40
1.0
 40
1.0
 10
118.7328833892765
 20
47.02539608465074
 30
0.0
 10
118.8419555257628
 20
47.0825921067773
 30
0.0
 10
119.059872952009
 20
47.19686519553175
 30
0.0
 10
119.3733396752155
 20
47.25013460781705
 30
0.0
 10
119.6448177615147
 20
47.1480327413903
 30
0.0
 10
119.8155490116989
 20
46.85764190411975
 30
0.0
 10
119.8307149547915
 20
46.56959738915245
 30
0.0
 10
119.8383116851899
 20
46.42531381182581
 30
0.0
  0
SPLINE
  5
42D
330
1F
100
AcDbEntity
  8
0
  6
Continuous
 62
     7
370
    25
100
AcDbSpline
210
0.0
220
0.0
230
1.0
 70
     8
 71
     3
 72
    12
 73
     8
 74
     0
 42
0.000000001
 43
0.00000001
 40
0.0
 40
0.0
 40
0.0
 40
0.0
 40
0.1870767452626577
 40
0.3737553587746272
 40
0.5602080719426784
 40
0.7797263036176543
 40
1.0
 40
1.0
 40
1.0
 40
1.0
 10
117.6343424970759
 20
45.13310618272177
 30
0.0
 10
117.6398878024875
 20
45.26267899240931
 30
0.0
 10
117.6509666119393
 20
45.52154885837901
 30
0.0
 10
117.7713536712786
 20
45.95100267903174
 30
0.0
 10
118.005710550576
 20
46.39096991760404
 30
0.0
 10
118.3460341975356
 20
46.77655808886176
 30
0.0
 10
118.6037860719005
 20
46.942355151896
 30
0.0
 10
118.7328833892765
 20
47.02539608465074
 30
0.0
  0
SPLINE
  5
42E
330
1F
100
AcDbEntity
  8
0
  6
Continuous
 62
     7
370
    25
100
AcDbSpline
210
0.0
220
0.0
230
1.0
 70
     8
 71
     3
 72
    12
 73
     8
 74
     0
 42
0.000000001
 43
0.00000001
 40
0.0
 40
0.0
 40
0.0
 40
0.0
 40
0.1871987008947086
 40
0.3738816053985682
 40
0.5602815133849276
 40
0.7797443338284279
 40
1.0
 40
1.0
 40
1.0
 40
1.0
 10
118.7587111531997
 20
44.52705714296666
 30
0.0
 10
118.6478275980615
 20
44.46822269252571
 30
0.0
 10
118.426366009871
 20
44.35071590065982
 30
0.0
 10
118.1039813537167
 20
44.28627137185698
 30
0.0
 10
117.8330296093642
 20
44.40109177253887
 30
0.0
 10
117.6566060173448
 20
44.69194982045806
 30
0.0
 10
117.6417725857657
 20
44.98587740407045
 30
0.0
 10
117.6343424970759
 20
45.13310618272177
 30
0.0
  0
SPLINE
  5
42F
330
1F
100
AcDbEntity
  8
0
  6
Continuous
 62
     7
370
    25
100
AcDbSpline
210
0.0
220
0.0
230
1.0
 70
     8
 71
     3
 72
    12
 73
     8
 74
     0
 42
0.000000001
 43
0.00000001
 40
0.0
 40
0.0
 40
0.0
 40
0.0
 40
0.1871808398352959
 40
0.3738291064056621
 40
0.5602486079208516
 40
0.7796960763246019
 40
1.0
 40
1.0
 40
1.0
 40
1.0
 10
119.8383116851899
 20
46.42531381182581
 30
0.0
 10
119.8338818326476
 20
46.29619820392156
 30
0.0
 10
119.8250347315296
 20
46.03833435221355
 30
0.0
 10
119.7143934768164
 20
45.61005559773351
 30
0.0
 10
119.4851193200032
 20
45.16675843243695
 30
0.0
 10
119.1465958080202
 20
44.77475952528521
 30
0.0
 10
118.8881738048151
 20
44.60973173921039
 30
0.0
 10
118.7587111531997
 20
44.52705714296666
 30
0.0
  0
LINE
  5
430
330
1F
100
AcDbEntity
  8
0
  6
Continuous
 62
     7
370
    25
100
AcDbLine
 10
68.8761158125
 20
15.7622610842
 30
0.0
 11
85.3757454447
 21
25.2872945249
 31
0.0
  0
LINE
  5
431
330
1F
100
AcDbEntity
  8
0
  6
Continuous
 62
     7
370
    25
100
AcDbLine
 10
85.3757454447
 20
25.2872945249
 30
0.0
 11
85.3757454447
 21
27.8185710417
 31
0.0
  0
LINE
  5
432
330
1F
100
AcDbEntity
  8
0
  6
Continuous
 62
     7
370
    25
100
AcDbLine
 10
85.3757454447
 20
27.8185710417
 30
0.0
 11
68.8761158125
 21
18.2935376011
 31
0.0
  0
LINE
  5
433
330
1F
100
AcDbEntity
  8
0
  6
Continuous
 62
     7
370
    25
100
AcDbLine
 10
68.8761158125
 20
18.2935376011
 30
0.0
 11
68.8761158125
 21
15.7622610842
 31
0.0
  0
LINE
  5
434
330
1F
100
AcDbEntity
  8
0
  6
Continuous
 62
     7
370
    25
100
AcDbLine
 10
92.4468132566
 20
29.369335084
 30
0.0
 11
108.9464428888
 21
38.8943685246
 31
0.0
  0
LINE
  5
435
330
1F
100
AcDbEntity
  8
0
  6
Continuous
 62
     7
370
    25
100
AcDbLine
 10
108.9464428888
 20
38.8943685246
 30
0.0
 11
108.9464428888
 21
41.4256450415
 31
0.0
  0
LINE
  5
436
330
1F
100
AcDbEntity
  8
0
  6
Continuous
 62
     7
370
    25
100
AcDbLine
 10
108.9464428888
 20
41.4256450415
 30
0.0
 11
92.4468132566
 21
31.9006116008
 31
0.0
  0
LINE
  5
437
330
1F
100
AcDbEntity
  8
0
  6
Continuous
 62
     7
370
    25
100
AcDbLine
 10
92.4468132566
 20
31.9006116008
 30
0.0
 11
92.4468132566
 21
29.369335084
 31
0.0
  0
LINE
  5
438
330
1F
100
AcDbEntity
  8
0
  6
Continuous
 62
     7
370
    25
100
AcDbLine
 10
163.1560771617
 20
72.7202007839
 30
0.0
 11
163.1560771617
 21
70.188924267
 31
0.0
  0
LINE
  5
439
330
1F
100
AcDbEntity
  8
0
  6
Continuous
 62
     7
370
    25
100
AcDbLine
 10
163.1560771617
 20
70.188924267
 30
0.0
 11
179.6557067939
 21
79.7139577077
 31
0.0
  0
LINE
  5
43A
330
1F
100
AcDbEntity
  8
0
  6
Continuous
 62
     7
370
    25
100
AcDbLine
 10
179.6557067939
 20
79.7139577077
 30
0.0
 11
179.6557067939
 21
82.2452342245
 31
0.0
  0
LINE
  5
43B
330
1F
100
AcDbEntity
  8
0
  6
Continuous
 62
     7
370
    25
100
AcDbLine
 10
179.6557067939
 20
82.2452342245
 30
0.0
 11
163.1560771617
 21
72.7202007839
 31
0.0
  0
LINE
  5
43C
330
1F
100
AcDbEntity
  8
0
  6
Continuous
 62
     7
370
    25
100
AcDbLine
 10
186.7267746058
 20
86.3272747836
 30
0.0
 11
186.7267746058
 21
83.7959982668
 31
0.0
  0
LINE
  5
43D
330
1F
100
AcDbEntity
  8
0
  6
Continuous
 62
     7
370
    25
100
AcDbLine
 10
186.7267746058
 20
83.7959982668
 30
0.0
 11
203.226404238
 21
93.3210317074
 31
0.0
  0
LINE
  5
43E
330
1F
100
AcDbEntity
  8
0
  6
Continuous
 62
     7
370
    25
100
AcDbLine
 10
203.226404238
 20
93.3210317074
 30
0.0
 11
203.226404238
 21
95.8523082243
 31
0.0
  0
LINE
  5
43F
330
1F
100
AcDbEntity
  8
0
  6
Continuous
 62
     7
370
    25
100
AcDbLine
 10
203.226404238
 20
95.8523082243
 30
0.0
 11
186.7267746058
 21
86.3272747836
 31
0.0
  0
LINE
  5
440
330
1F
100
AcDbEntity
  8
0
  6
Continuous
 62
     7
370
    25
100
AcDbLine
 10
206.7619381439
 20
98.3832529909
 30
0.0
 11
65.3405819066
 21
16.7424418087
 31
0.0
  0
LINE
  5
441
330
1F
100
AcDbEntity
  8
0
  6
Continuous
 62
     7
370
    25
100
AcDbLine
 10
206.7619381439
 20
94.8721274998
 30
0.0
 11
206.7619381439
 21
98.3832529909
 31
0.0
  0
LINE
  5
442
330
1F
100
AcDbEntity
  8
0
  6
Continuous
 62
     7
370
    25
100
AcDbLine
 10
206.7619381439
 20
94.8721274998
 30
0.0
 11
65.3405819066
 21
13.2313163176
 31
0.0
  0
SPLINE
  5
443
330
1F
100
AcDbEntity
  8
0
  6
Continuous
 62
     7
370
    25
100
AcDbSpline
210
0.0
220
0.0
230
1.0
 70
     8
 71
     3
 72
     9
 73
     5
 74
     0
 42
0.000000001
 43
0.00000001
 40
0.0
 40
0.0
 40
0.0
 40
0.0
 40
0.5582410053773958
 40
1.0
 40
1.0
 40
1.0
 40
1.0
 10
115.8386241640415
 20
44.5796242201689
 30
0.0
 10
115.8074232758853
 20
44.47724132217376
 30
0.0
 10
115.7515318457399
 20
44.29383863944548
 30
0.0
 10
115.7504338782521
 20
44.12936117619719
 30
0.0
 10
115.7499488412385
 20
44.05670177739454
 30
0.0
  0
SPLINE
  5
444
330
1F
100
AcDbEntity
  8
0
  6
Continuous
 62
     7
370
    25
100
AcDbSpline
210
0.0
220
0.0
230
1.0
 70
     8
 71
     3
 72
     9
 73
     5
 74
     0
 42
0.000000001
 43
0.00000001
 40
0.0
 40
0.0
 40
0.0
 40
0.0
 40
0.5589770993223697
 40
1.0
 40
1.0
 40
1.0
 40
1.0
 10
116.1765374087036
 20
44.97700995129384
 30
0.0
 10
116.1002775900309
 20
44.92275745890638
 30
0.0
 10
115.9638501428867
 20
44.82570072357102
 30
0.0
 10
115.8769493873288
 20
44.65493556551116
 30
0.0
 10
115.8386241640415
 20
44.5796242201689
 30
0.0
  0
SPLINE
  5
445
330
1F
100
AcDbEntity
  8
0
  6
Continuous
 62
     7
370
    25
100
AcDbSpline
210
0.0
220
0.0
230
1.0
 70
     8
 71
     3
 72
     9
 73
     5
 74
     0
 42
0.000000001
 43
0.00000001
 40
0.0
 40
0.0
 40
0.0
 40
0.0
 40
0.5588225296269399
 40
1.0
 40
1.0
 40
1.0
 40
1.0
 10
116.48604011305
 20
44.97225862618088
 30
0.0
 10
116.4384766026288
 20
45.00342138316446
 30
0.0
 10
116.3533628001252
 20
45.0591864164826
 30
0.0
 10
116.2306677156843
 20
45.00216605162257
 30
0.0
 10
116.1765374087036
 20
44.97700995129384
 30
0.0
  0
SPLINE
  5
446
330
1F
100
AcDbEntity
  8
0
  6
Continuous
 62
     7
370
    25
100
AcDbSpline
210
0.0
220
0.0
230
1.0
 70
     8
 71
     3
 72
     9
 73
     5
 74
     0
 42
0.000000001
 43
0.00000001
 40
0.0
 40
0.0
 40
0.0
 40
0.0
 40
0.560236369883312
 40
1.0
 40
1.0
 40
1.0
 40
1.0
 10
116.5488876719298
 20
44.84201712060945
 30
0.0
 10
116.5401539813412
 20
44.86962265218777
 30
0.0
 10
116.5245646853616
 20
44.91889744593969
 30
0.0
 10
116.4978071180042
 20
44.95595990475236
 30
0.0
 10
116.48604011305
 20
44.97225862618088
 30
0.0
  0
LINE
  5
447
330
1F
100
AcDbEntity
  8
0
  6
Continuous
 62
     7
370
    25
100
AcDbLine
 10
117.1274295838
 20
45.3271153296
 30
0.0
 11
116.5488876719
 21
44.8420171206
 31
0.0
  0
SPLINE
  5
448
330
1F
100
AcDbEntity
  8
0
  6
Continuous
 62
     7
370
    25
100
AcDbSpline
210
0.0
220
0.0
230
1.0
 70
     8
 71
     3
 72
    11
 73
     7
 74
     0
 42
0.000000001
 43
0.00000001
 40
0.0
 40
0.0
 40
0.0
 40
0.0
 40
0.2805331559288904
 40
0.5594709749073701
 40
0.7794721527169806
 40
1.0
 40
1.0
 40
1.0
 40
1.0
 10
116.1584579739573
 20
45.53921192670625
 30
0.0
 10
116.2780996601927
 20
45.60203253203134
 30
0.0
 10
116.5167026538959
 20
45.72731649423942
 30
0.0
 10
116.8268063460238
 20
45.73511691216999
 30
0.0
 10
117.0263497125321
 20
45.57243513575815
 30
0.0
 10
117.0937094496609
 20
45.40895374775418
 30
0.0
 10
117.1274295838097
 20
45.32711532959369
 30
0.0
  0
SPLINE
  5
449
330
1F
100
AcDbEntity
  8
0
  6
Continuous
 62
     7
370
    25
100
AcDbSpline
210
0.0
220
0.0
230
1.0
 70
     8
 71
     3
 72
    12
 73
     8
 74
     0
 42
0.000000001
 43
0.00000001
 40
0.0
 40
0.0
 40
0.0
 40
0.0
 40
0.1871345876605755
 40
0.3738495955563408
 40
0.5602502164477522
 40
0.77971377179866
 40
1.0
 40
1.0
 40
1.0
 40
1.0
 10
115.0887580848043
 20
43.67102781856242
 30
0.0
 10
115.0937735715716
 20
43.79856729479943
 30
0.0
 10
115.1037932997411
 20
44.05336028739765
 30
0.0
 10
115.2149838275905
 20
44.47528259104931
 30
0.0
 10
115.4408568614632
 20
44.91255964566823
 30
0.0
 10
115.7769020430155
 20
45.29413893029559
 30
0.0
 10
116.0311141391085
 20
45.45741910775103
 30
0.0
 10
116.1584579739573
 20
45.53921192670625
 30
0.0
  0
SPLINE
  5
44A
330
1F
100
AcDbEntity
  8
0
  6
Continuous
 62
     7
370
    25
100
AcDbSpline
210
0.0
220
0.0
230
1.0
 70
     8
 71
     3
 72
    12
 73
     8
 74
     0
 42
0.000000001
 43
0.00000001
 40
0.0
 40
0.0
 40
0.0
 40
0.0
 40
0.1872228366605848
 40
0.3737348794435224
 40
0.5601839898708963
 40
0.7796864789897654
 40
1.0
 40
1.0
 40
1.0
 40
1.0
 10
116.1928949925216
 20
43.04584300193671
 30
0.0
 10
116.0826690224391
 20
42.98690642704524
 30
0.0
 10
115.8626355565697
 20
42.86925703071748
 30
0.0
 10
115.539949785767
 20
42.8034927031677
 30
0.0
 10
115.2825921937407
 20
42.94097547100163
 30
0.0
 10
115.109570046607
 20
43.23076758169297
 30
0.0
 10
115.0957039285632
 20
43.52409410575291
 30
0.0
 10
115.0887580848043
 20
43.67102781856242
 30
0.0
  0
SPLINE
  5
44B
330
1F
100
AcDbEntity
  8
0
  6
Continuous
 62
     7
370
    25
100
AcDbSpline
210
0.0
220
0.0
230
1.0
 70
     8
 71
     3
 72
    11
 73
     7
 74
     0
 42
0.000000001
 43
0.00000001
 40
0.0
 40
0.0
 40
0.0
 40
0.0
 40
0.2801357057900938
 40
0.5592083359447874
 40
0.7792493101251652
 40
1.0
 40
1.0
 40
1.0
 40
1.0
 10
117.1549791986612
 20
44.45025925903658
 30
0.0
 10
117.1176115385233
 20
44.29127372557075
 30
0.0
 10
117.0430180232663
 20
43.97390598639596
 30
0.0
 10
116.7888400270107
 20
43.53361401190426
 30
0.0
 10
116.4855032663238
 20
43.22711244278313
 30
0.0
 10
116.2905357224328
 20
43.10633097203018
 30
0.0
 10
116.1928949925216
 20
43.0458430019367
 30
0.0
  0
LINE
  5
44C
330
1F
100
AcDbEntity
  8
0
  6
Continuous
 62
     7
370
    25
100
AcDbLine
 10
116.5764372868
 20
44.3170954422
 30
0.0
 11
117.1549791987
 21
44.450259259
 31
0.0
  0
SPLINE
  5
44D
330
1F
100
AcDbEntity
  8
0
  6
Continuous
 62
     7
370
    25
100
AcDbSpline
210
0.0
220
0.0
230
1.0
 70
     8
 71
     3
 72
    10
 73
     6
 74
     0
 42
0.000000001
 43
0.00000001
 40
0.0
 40
0.0
 40
0.0
 40
0.0
 40
0.2805741832868003
 40
0.5589842259654075
 40
1.0
 40
1.0
 40
1.0
 40
1.0
 10
116.1554447348329
 20
43.59686243929146
 30
0.0
 10
116.2171885717042
 20
43.6373919370151
 30
0.0
 10
116.3401999994033
 20
43.71813831805563
 30
0.0
 10
116.5117620247039
 20
43.99574444760776
 30
0.0
 10
116.5518580136895
 20
44.19496878045729
 30
0.0
 10
116.5764372867812
 20
44.31709544218815
 30
0.0
  0
SPLINE
  5
44E
330
1F
100
AcDbEntity
  8
0
  6
Continuous
 62
     7
370
    25
100
AcDbSpline
210
0.0
220
0.0
230
1.0
 70
     8
 71
     3
 72
    12
 73
     8
 74
     0
 42
0.000000001
 43
0.00000001
 40
0.0
 40
0.0
 40
0.0
 40
0.0
 40
0.2509627188358634
 40
0.501177487857589
 40
0.6262419065927322
 40
0.7513775606905184
 40
1.0
 40
1.0
 40
1.0
 40
1.0
 10
115.7499488412385
 20
44.05670177739454
 30
0.0
 10
115.7518768400323
 20
43.97821807159369
 30
0.0
 10
115.7557270915617
 20
43.82148456673891
 30
0.0
 10
115.7914578961448
 20
43.64238039348654
 30
0.0
 10
115.8688053351376
 20
43.55276092653293
 30
0.0
 10
115.9805564283526
 20
43.51740702988334
 30
0.0
 10
116.085582078342
 20
43.5651223756729
 30
0.0
 10
116.1554447348329
 20
43.59686243929146
 30
0.0
  0
SPLINE
  5
44F
330
1F
100
AcDbEntity
  8
0
  6
Continuous
 62
     7
370
    25
100
AcDbSpline
210
0.0
220
0.0
230
1.0
 70
     8
 71
     3
 72
     9
 73
     5
 74
     0
 42
0.000000001
 43
0.00000001
 40
0.0
 40
0.0
 40
0.0
 40
0.0
 40
0.5600530855990129
 40
1.0
 40
1.0
 40
1.0
 40
1.0
 10
123.0182259794155
 20
47.08444504159132
 30
0.0
 10
122.9461254372828
 20
47.02254639068432
 30
0.0
 10
122.8173866730715
 20
46.91202356258341
 30
0.0
 10
122.6851239381137
 20
46.82863518196019
 30
0.0
 10
122.6269353559788
 20
46.79194872120813
 30
0.0
  0
SPLINE
  5
450
330
1F
100
AcDbEntity
  8
0
  6
Continuous
 62
     7
370
    25
100
AcDbSpline
210
0.0
220
0.0
230
1.0
 70
     8
 71
     3
 72
    11
 73
     7
 74
     0
 42
0.000000001
 43
0.00000001
 40
0.0
 40
0.0
 40
0.0
 40
0.0
 40
0.2808746777100775
 40
0.5603295785048663
 40
0.7804248279245494
 40
1.0
 40
1.0
 40
1.0
 40
1.0
 10
123.6070989968647
 20
48.59104676682421
 30
0.0
 10
123.6046875531384
 20
48.45287677570401
 30
0.0
 10
123.5998768551512
 20
48.17723522083831
 30
0.0
 10
123.4799647070269
 20
47.74700043913994
 30
0.0
 10
123.2762903436216
 20
47.35824951391024
 30
0.0
 10
123.1041795720215
 20
47.17564119778986
 30
0.0
 10
123.0182259794155
 20
47.08444504159132
 30
0.0
  0
SPLINE
  5
451
330
1F
100
AcDbEntity
  8
0
  6
Continuous
 62
     7
370
    25
100
AcDbSpline
210
0.0
220
0.0
230
1.0
 70
     8
 71
     3
 72
    12
 73
     8
 74
     0
 42
0.000000001
 43
0.00000001
 40
0.0
 40
0.0
 40
0.0
 40
0.0
 40
0.1871288916578591
 40
0.3734679890400859
 40
0.5597708942708871
 40
0.7795228612054905
 40
0.9999999999999999
 40
0.9999999999999999
 40
0.9999999999999999
 40
0.9999999999999999
 10
122.6269353559788
 20
49.24157115686538
 30
0.0
 10
122.7295388147784
 20
49.29684665804776
 30
0.0
 10
122.9343126852745
 20
49.40716436520077
 30
0.0
 10
123.2271055488669
 20
49.44254525240431
 30
0.0
 10
123.4584604176353
 20
49.3004336268117
 30
0.0
 10
123.5866175877846
 20
48.99678014757617
 30
0.0
 10
123.6002643672393
 20
48.72643966744091
 30
0.0
 10
123.6070989968647
 20
48.59104676682421
 30
0.0
  0
LINE
  5
452
330
1F
100
AcDbEntity
  8
0
  6
Continuous
 62
     7
370
    25
100
AcDbLine
 10
121.6510763424
 20
48.6782197396
 30
0.0
 11
122.626935356
 21
49.2415711569
 31
0.0
  0
LINE
  5
453
330
1F
100
AcDbEntity
  8
0
  6
Continuous
 62
     7
370
    25
100
AcDbLine
 10
121.6510763424
 20
46.2285973039
 30
0.0
 11
121.6510763424
 21
48.6782197396
 31
0.0
  0
LINE
  5
454
330
1F
100
AcDbEntity
  8
0
  6
Continuous
 62
     7
370
    25
100
AcDbLine
 10
122.626935356
 20
46.7919487212
 30
0.0
 11
121.6510763424
 21
46.2285973039
 31
0.0
  0
LINE
  5
455
330
1F
100
AcDbEntity
  8
0
  6
Continuous
 62
     7
370
    25
100
AcDbLine
 10
128.0452558569
 20
52.3695010022
 30
0.0
 11
128.8360158957
 21
50.3763746201
 31
0.0
  0
LINE
  5
456
330
1F
100
AcDbEntity
  8
0
  6
Continuous
 62
     7
370
    25
100
AcDbLine
 10
127.2992639422
 20
51.9388490365
 30
0.0
 11
128.0452558569
 21
52.3695010022
 31
0.0
  0
LINE
  5
457
330
1F
100
AcDbEntity
  8
0
  6
Continuous
 62
     7
370
    25
100
AcDbLine
 10
126.5218482481
 20
49.0404340735
 30
0.0
 11
127.2992639422
 21
51.9388490365
 31
0.0
  0
LINE
  5
458
330
1F
100
AcDbEntity
  8
0
  6
Continuous
 62
     7
370
    25
100
AcDbLine
 10
127.1933701101
 20
49.4280953928
 30
0.0
 11
126.5218482481
 21
49.0404340735
 31
0.0
  0
LINE
  5
459
330
1F
100
AcDbEntity
  8
0
  6
Continuous
 62
     7
370
    25
100
AcDbLine
 10
127.3005553304
 20
49.9035447224
 30
0.0
 11
127.1933701101
 21
49.4280953928
 31
0.0
  0
LINE
  5
45A
330
1F
100
AcDbEntity
  8
0
  6
Continuous
 62
     7
370
    25
100
AcDbLine
 10
128.0392293786
 20
50.3299721737
 30
0.0
 11
127.3005553304
 21
49.9035447224
 31
0.0
  0
LINE
  5
45B
330
1F
100
AcDbEntity
  8
0
  6
Continuous
 62
     7
370
    25
100
AcDbLine
 10
128.1464145989
 20
49.9782762653
 30
0.0
 11
128.0392293786
 21
50.3299721737
 31
0.0
  0
LINE
  5
45C
330
1F
100
AcDbEntity
  8
0
  6
Continuous
 62
     7
370
    25
100
AcDbLine
 10
128.8360158957
 20
50.3763746201
 30
0.0
 11
128.1464145989
 21
49.9782762653
 31
0.0
  0
LINE
  5
45D
330
1F
100
AcDbEntity
  8
0
  6
Continuous
 62
     7
370
    25
100
AcDbLine
 10
129.9765699505
 20
53.4844248966
 30
0.0
 11
129.9765699505
 21
51.034802461
 31
0.0
  0
LINE
  5
45E
330
1F
100
AcDbEntity
  8
0
  6
Continuous
 62
     7
370
    25
100
AcDbLine
 10
129.3153791941
 20
53.1027275976
 30
0.0
 11
129.9765699505
 21
53.4844248966
 31
0.0
  0
LINE
  5
45F
330
1F
100
AcDbEntity
  8
0
  6
Continuous
 62
     7
370
    25
100
AcDbLine
 10
129.3153791941
 20
50.6531051619
 30
0.0
 11
129.3153791941
 21
53.1027275976
 31
0.0
  0
LINE
  5
460
330
1F
100
AcDbEntity
  8
0
  6
Continuous
 62
     7
370
    25
100
AcDbLine
 10
129.9765699505
 20
51.034802461
 30
0.0
 11
129.3153791941
 21
50.6531051619
 31
0.0
  0
LINE
  5
461
330
1F
100
AcDbEntity
  8
0
  6
Continuous
 62
     7
370
    25
100
AcDbLine
 10
131.2824216945
 20
53.1362452156
 30
0.0
 11
131.2824216945
 21
51.7886546265
 31
0.0
  0
LINE
  5
462
330
1F
100
AcDbEntity
  8
0
  6
Continuous
 62
     7
370
    25
100
AcDbLine
 10
132.0813605252
 20
52.2498721962
 30
0.0
 11
131.2824216945
 21
53.1362452156
 31
0.0
  0
LINE
  5
463
330
1F
100
AcDbEntity
  8
0
  6
Continuous
 62
     7
370
    25
100
AcDbLine
 10
132.7150016667
 20
52.6156654411
 30
0.0
 11
132.0813605252
 21
52.2498721962
 31
0.0
  0
LINE
  5
464
330
1F
100
AcDbEntity
  8
0
  6
Continuous
 62
     7
370
    25
100
AcDbLine
 10
132.7150016667
 20
55.0652878768
 30
0.0
 11
132.7150016667
 21
52.6156654411
 31
0.0
  0
LINE
  5
465
330
1F
100
AcDbEntity
  8
0
  6
Continuous
 62
     7
370
    25
100
AcDbLine
 10
132.0813605252
 20
54.6994946319
 30
0.0
 11
132.7150016667
 21
55.0652878768
 31
0.0
  0
LINE
  5
466
330
1F
100
AcDbEntity
  8
0
  6
Continuous
 62
     7
370
    25
100
AcDbLine
 10
132.0813605252
 20
53.3444478056
 30
0.0
 11
132.0813605252
 21
54.6994946319
 31
0.0
  0
LINE
  5
467
330
1F
100
AcDbEntity
  8
0
  6
Continuous
 62
     7
370
    25
100
AcDbLine
 10
131.2781170672
 20
54.2357920537
 30
0.0
 11
132.0813605252
 21
53.3444478056
 31
0.0
  0
LINE
  5
468
330
1F
100
AcDbEntity
  8
0
  6
Continuous
 62
     7
370
    25
100
AcDbLine
 10
130.6763301677
 20
53.8883878714
 30
0.0
 11
131.2781170672
 21
54.2357920537
 31
0.0
  0
LINE
  5
469
330
1F
100
AcDbEntity
  8
0
  6
Continuous
 62
     7
370
    25
100
AcDbLine
 10
130.6763301677
 20
51.4387654358
 30
0.0
 11
130.6763301677
 21
53.8883878714
 31
0.0
  0
LINE
  5
46A
330
1F
100
AcDbEntity
  8
0
  6
Continuous
 62
     7
370
    25
100
AcDbLine
 10
131.2824216945
 20
51.7886546265
 30
0.0
 11
130.6763301677
 21
51.4387654358
 31
0.0
  0
LINE
  5
46B
330
1F
100
AcDbEntity
  8
0
  6
Continuous
 62
     7
370
    25
100
AcDbLine
 10
139.8228022984
 20
58.6277081088
 30
0.0
 11
139.8228022984
 21
58.0868823763
 31
0.0
  0
LINE
  5
46C
330
1F
100
AcDbEntity
  8
0
  6
Continuous
 62
     7
370
    25
100
AcDbLine
 10
138.2524742519
 20
57.7211770236
 30
0.0
 11
139.8228022984
 21
58.6277081088
 31
0.0
  0
LINE
  5
46D
330
1F
100
AcDbEntity
  8
0
  6
Continuous
 62
     7
370
    25
100
AcDbLine
 10
138.2524742519
 20
57.1803512911
 30
0.0
 11
138.2524742519
 21
57.7211770236
 31
0.0
  0
LINE
  5
46E
330
1F
100
AcDbEntity
  8
0
  6
Continuous
 62
     7
370
    25
100
AcDbLine
 10
139.8228022984
 20
58.0868823763
 30
0.0
 11
138.2524742519
 21
57.1803512911
 31
0.0
  0
LINE
  5
46F
330
1F
100
AcDbEntity
  8
0
  6
Continuous
 62
     7
370
    25
100
AcDbLine
 10
142.0102417176
 20
59.0633447685
 30
0.0
 11
142.0102417176
 21
58.5225190359
 31
0.0
  0
LINE
  5
470
330
1F
100
AcDbEntity
  8
0
  6
Continuous
 62
     7
370
    25
100
AcDbLine
 10
140.4399136711
 20
58.1568136833
 30
0.0
 11
142.0102417176
 21
59.0633447685
 31
0.0
  0
LINE
  5
471
330
1F
100
AcDbEntity
  8
0
  6
Continuous
 62
     7
370
    25
100
AcDbLine
 10
140.4399136711
 20
57.6159879507
 30
0.0
 11
140.4399136711
 21
58.1568136833
 31
0.0
  0
LINE
  5
472
330
1F
100
AcDbEntity
  8
0
  6
Continuous
 62
     7
370
    25
100
AcDbLine
 10
142.0102417176
 20
58.5225190359
 30
0.0
 11
140.4399136711
 21
57.6159879507
 31
0.0
  0
LINE
  5
473
330
1F
100
AcDbEntity
  8
0
  6
Continuous
 62
     7
370
    25
100
AcDbLine
 10
142.0102417176
 20
59.8904900065
 30
0.0
 11
142.0102417176
 21
59.3496642739
 31
0.0
  0
LINE
  5
474
330
1F
100
AcDbEntity
  8
0
  6
Continuous
 62
     7
370
    25
100
AcDbLine
 10
140.4399136711
 20
58.9839589213
 30
0.0
 11
142.0102417176
 21
59.8904900065
 31
0.0
  0
LINE
  5
475
330
1F
100
AcDbEntity
  8
0
  6
Continuous
 62
     7
370
    25
100
AcDbLine
 10
140.4399136711
 20
58.4431331887
 30
0.0
 11
140.4399136711
 21
58.9839589213
 31
0.0
  0
LINE
  5
476
330
1F
100
AcDbEntity
  8
0
  6
Continuous
 62
     7
370
    25
100
AcDbLine
 10
142.0102417176
 20
59.3496642739
 30
0.0
 11
140.4399136711
 21
58.4431331887
 31
0.0
  0
LINE
  5
477
330
1F
100
AcDbEntity
  8
0
  6
Continuous
 62
     7
370
    25
100
AcDbLine
 10
139.8228022984
 20
57.8005628708
 30
0.0
 11
139.8228022984
 21
57.2597371383
 31
0.0
  0
LINE
  5
478
330
1F
100
AcDbEntity
  8
0
  6
Continuous
 62
     7
370
    25
100
AcDbLine
 10
138.2524742519
 20
56.8940317856
 30
0.0
 11
139.8228022984
 21
57.8005628708
 31
0.0
  0
LINE
  5
479
330
1F
100
AcDbEntity
  8
0
  6
Continuous
 62
     7
370
    25
100
AcDbLine
 10
138.2524742519
 20
56.3532060531
 30
0.0
 11
138.2524742519
 21
56.8940317856
 31
0.0
  0
LINE
  5
47A
330
1F
100
AcDbEntity
  8
0
  6
Continuous
 62
     7
370
    25
100
AcDbLine
 10
139.8228022984
 20
57.2597371383
 30
0.0
 11
138.2524742519
 21
56.3532060531
 31
0.0
  0
LINE
  5
47B
330
1F
100
AcDbEntity
  8
0
  6
Continuous
 62
     7
370
    25
100
AcDbLine
 10
151.8289244507
 20
66.0995206297
 30
0.0
 11
151.036442561
 21
63.192408137
 31
0.0
  0
LINE
  5
47C
330
1F
100
AcDbEntity
  8
0
  6
Continuous
 62
     7
370
    25
100
AcDbLine
 10
151.1604158278
 20
65.7135988163
 30
0.0
 11
151.8289244507
 21
66.0995206297
 31
0.0
  0
LINE
  5
47D
330
1F
100
AcDbEntity
  8
0
  6
Continuous
 62
     7
370
    25
100
AcDbLine
 10
150.6856154343
 20
63.6768479279
 30
0.0
 11
151.1604158278
 21
65.7135988163
 31
0.0
  0
LINE
  5
47E
330
1F
100
AcDbEntity
  8
0
  6
Continuous
 62
     7
370
    25
100
AcDbLine
 10
150.2034971744
 20
65.1611814362
 30
0.0
 11
150.6856154343
 21
63.6768479279
 31
0.0
  0
LINE
  5
47F
330
1F
100
AcDbEntity
  8
0
  6
Continuous
 62
     7
370
    25
100
AcDbLine
 10
149.5147568031
 20
64.7635800831
 30
0.0
 11
150.2034971744
 21
65.1611814362
 31
0.0
  0
LINE
  5
480
330
1F
100
AcDbEntity
  8
0
  6
Continuous
 62
     7
370
    25
100
AcDbLine
 10
150.321443963
 20
62.7796482323
 30
0.0
 11
149.5147568031
 21
64.7635800831
 31
0.0
  0
LINE
  5
481
330
1F
100
AcDbEntity
  8
0
  6
Continuous
 62
     7
370
    25
100
AcDbLine
 10
151.036442561
 20
63.192408137
 30
0.0
 11
150.321443963
 21
62.7796482323
 31
0.0
  0
LINE
  5
482
330
1F
100
AcDbEntity
  8
0
  6
Continuous
 62
     7
370
    25
100
AcDbLine
 10
153.5039410336
 20
65.8893958203
 30
0.0
 11
153.5039410336
 21
66.4620348313
 31
0.0
  0
SPLINE
  5
483
330
1F
100
AcDbEntity
  8
0
  6
Continuous
 62
     7
370
    25
100
AcDbSpline
210
0.0
220
0.0
230
1.0
 70
     8
 71
     3
 72
     9
 73
     5
 74
     0
 42
0.000000001
 43
0.00000001
 40
0.0
 40
0.0
 40
0.0
 40
0.0
 40
0.5596478271239886
 40
1.0
 40
1.0
 40
1.0
 40
1.0
 10
154.1375821752127
 20
66.62054468418009
 30
0.0
 10
154.0275977023943
 20
66.4693073741581
 30
0.0
 10
153.8310732677624
 20
66.19907080270717
 30
0.0
 10
153.6039536505654
 20
65.98407131284569
 30
0.0
 10
153.50394103363
 20
65.88939582031797
 30
0.0
  0
LINE
  5
484
330
1F
100
AcDbEntity
  8
0
  6
Continuous
 62
     7
370
    25
100
AcDbLine
 10
154.1375821752
 20
64.9826579298
 30
0.0
 11
154.1375821752
 21
66.6205446842
 31
0.0
  0
LINE
  5
485
330
1F
100
AcDbEntity
  8
0
  6
Continuous
 62
     7
370
    25
100
AcDbLine
 10
154.7436737019
 20
65.3325471206
 30
0.0
 11
154.1375821752
 21
64.9826579298
 31
0.0
  0
LINE
  5
486
330
1F
100
AcDbEntity
  8
0
  6
Continuous
 62
     7
370
    25
100
AcDbLine
 10
154.7436737019
 20
67.8139828346
 30
0.0
 11
154.7436737019
 21
65.3325471206
 31
0.0
  0
LINE
  5
487
330
1F
100
AcDbEntity
  8
0
  6
Continuous
 62
     7
370
    25
100
AcDbLine
 10
154.2477806346
 20
67.5277098604
 30
0.0
 11
154.7436737019
 21
67.8139828346
 31
0.0
  0
SPLINE
  5
488
330
1F
100
AcDbEntity
  8
0
  6
Continuous
 62
     7
370
    25
100
AcDbSpline
210
0.0
220
0.0
230
1.0
 70
     8
 71
     3
 72
    11
 73
     7
 74
     0
 42
0.000000001
 43
0.00000001
 40
0.0
 40
0.0
 40
0.0
 40
0.0
 40
0.2802556757913265
 40
0.5600694849457629
 40
0.7800353920221795
 40
1.0
 40
1.0
 40
1.0
 40
1.0
 10
153.50394103363
 20
66.46203483125082
 30
0.0
 10
153.5885199275632
 20
66.54348927184445
 30
0.0
 10
153.757544363656
 20
66.70626972744444
 30
0.0
 10
153.9752833493921
 20
66.97447668891257
 30
0.0
 10
154.1423501377652
 20
67.25638589601292
 30
0.0
 10
154.2126372048524
 20
67.43726871696258
 30
0.0
 10
154.2477806346184
 20
67.52770986036727
 30
0.0
  0
SPLINE
  5
489
330
1F
100
AcDbEntity
  8
0
  6
Continuous
 62
     7
370
    25
100
AcDbSpline
210
0.0
220
0.0
230
1.0
 70
     8
 71
     3
 72
    13
 73
     9
 74
     0
 42
0.000000001
 43
0.00000001
 40
0.0
 40
0.0
 40
0.0
 40
0.0
 40
0.1871174103431646
 40
0.3740390809668508
 40
0.5601850337173868
 40
0.7063736238378198
 40
0.8530463346113637
 40
1.0
 40
1.0
 40
1.0
 40
1.0
 10
159.5868959928244
 20
69.37168310541938
 30
0.0
 10
159.5841632285613
 20
69.25240296851828
 30
0.0
 10
159.5787005587242
 20
69.01396747124268
 30
0.0
 10
159.5201189450013
 20
68.63359241756197
 30
0.0
 10
159.393661267453
 20
68.25737932638651
 30
0.0
 10
159.1773288218452
 20
67.94876347795865
 30
0.0
 10
158.9439703601129
 20
67.73656966161167
 30
0.0
 10
158.7840524117987
 20
67.63688256423961
 30
0.0
 10
158.7040169293827
 20
67.5869913230567
 30
0.0
  0
SPLINE
  5
48A
330
1F
100
AcDbEntity
  8
0
  6
Continuous
 62
     7
370
    25
100
AcDbSpline
210
0.0
220
0.0
230
1.0
 70
     8
 71
     3
 72
     9
 73
     5
 74
     0
 42
0.000000001
 43
0.00000001
 40
0.0
 40
0.0
 40
0.0
 40
0.0
 40
0.5599148219539377
 40
1.0
 40
1.0
 40
1.0
 40
1.0
 10
159.5266312103369
 20
69.90356700825349
 30
0.0
 10
159.5461757971005
 20
69.81019022338833
 30
0.0
 10
159.5810821542772
 20
69.64342059843122
 30
0.0
 10
159.5851193033541
 20
69.45472516766472
 30
0.0
 10
159.5868959928244
 20
69.37168310541938
 30
0.0
  0
SPLINE
  5
48B
330
1F
100
AcDbEntity
  8
0
  6
Continuous
 62
     7
370
    25
100
AcDbSpline
210
0.0
220
0.0
230
1.0
 70
     8
 71
     3
 72
    11
 73
     7
 74
     0
 42
0.000000001
 43
0.00000001
 40
0.0
 40
0.0
 40
0.0
 40
0.0
 40
0.2804754734820645
 40
0.5595654935685389
 40
0.7796409827162486
 40
1.0
 40
1.0
 40
1.0
 40
1.0
 10
158.7199440504687
 20
70.10943484677611
 30
0.0
 10
158.821990301821
 20
70.16346162597937
 30
0.0
 10
159.0255787307696
 20
70.27124831048151
 30
0.0
 10
159.2852667579317
 20
70.26647020707206
 30
0.0
 10
159.4552750103236
 20
70.12748431826695
 30
0.0
 10
159.5028356046784
 20
69.97823813715615
 30
0.0
 10
159.5266312103369
 20
69.90356700825349
 30
0.0
  0
SPLINE
  5
48C
330
1F
100
AcDbEntity
  8
0
  6
Continuous
 62
     7
370
    25
100
AcDbSpline
210
0.0
220
0.0
230
1.0
 70
     8
 71
     3
 72
    13
 73
     9
 74
     0
 42
0.000000001
 43
0.00000001
 40
0.0
 40
0.0
 40
0.0
 40
0.0
 40
0.1871594996892859
 40
0.3740638197467921
 40
0.5598195326586984
 40
0.7062514219437547
 40
0.8530012592542184
 40
1.0
 40
1.0
 40
1.0
 40
1.0
 10
157.8237206423333
 20
68.34537323925767
 30
0.0
 10
157.8264271298749
 20
68.46369256706524
 30
0.0
 10
157.8318364148409
 20
68.7001699020819
 30
0.0
 10
157.8907363560141
 20
69.07842885672729
 30
0.0
 10
158.0298069129005
 20
69.45299517657325
 30
0.0
 10
158.2509819738873
 20
69.74952608576878
 30
0.0
 10
158.4815647349792
 20
69.96107536433395
 30
0.0
 10
158.6404394052855
 20
70.05995375825589
 30
0.0
 10
158.7199440504687
 20
70.10943484677611
 30
0.0
  0
SPLINE
  5
48D
330
1F
100
AcDbEntity
  8
0
  6
Continuous
 62
     7
370
    25
100
AcDbSpline
210
0.0
220
0.0
230
1.0
 70
     8
 71
     3
 72
    10
 73
     6
 74
     0
 42
0.000000001
 43
0.00000001
 40
0.0
 40
0.0
 40
0.0
 40
0.0
 40
0.2795726797720546
 40
0.5597722494360269
 40
1.0
 40
1.0
 40
1.0
 40
1.0
 10
157.9885878687098
 20
67.55872475293184
 30
0.0
 10
157.9550983247504
 20
67.61546725923701
 30
0.0
 10
157.8880441427393
 20
67.72907950639572
 30
0.0
 10
157.8361554430685
 20
68.00007284537942
 30
0.0
 10
157.8284370688532
 20
68.21440339344284
 30
0.0
 10
157.8237206423333
 20
68.3453732392577
 30
0.0
  0
SPLINE
  5
48E
330
1F
100
AcDbEntity
  8
0
  6
Continuous
 62
     7
370
    25
100
AcDbSpline
210
0.0
220
0.0
230
1.0
 70
     8
 71
     3
 72
    11
 73
     7
 74
     0
 42
0.000000001
 43
0.00000001
 40
0.0
 40
0.0
 40
0.0
 40
0.0
 40
0.2803107270246636
 40
0.5598885774967384
 40
0.7799214485274826
 40
1.0
 40
1.0
 40
1.0
 40
1.0
 10
158.7040169293827
 20
67.5869913230567
 30
0.0
 10
158.6267570715005
 20
67.54543371729415
 30
0.0
 10
158.4724393527802
 20
67.46242715874558
 30
0.0
 10
158.2641113541647
 20
67.41704698832267
 30
0.0
 10
158.0988434713218
 20
67.45447252085792
 30
0.0
 10
158.0253422792145
 20
67.52397160440336
 30
0.0
 10
157.9885878687098
 20
67.55872475293184
 30
0.0
  0
LINE
  5
48F
330
1F
100
AcDbEntity
  8
0
  6
Continuous
 62
     7
370
    25
100
AcDbLine
 10
206.7619381439
 20
98.3832529909
 30
0.0
 11
206.7540833042
 21
98.3877874934
 31
0.0
  0
LINE
  5
490
330
1F
100
AcDbEntity
  8
0
  6
Continuous
 62
     7
370
    25
100
AcDbLine
 10
84.7591483315
 20
27.4625592477
 30
0.0
 11
85.3757454447
 21
27.8185710417
 31
0.0
  0
LINE
  5
491
330
1F
100
AcDbEntity
  8
0
  6
Continuous
 62
     7
370
    25
100
AcDbLine
 10
84.7591483315
 20
27.4625592477
 30
0.0
 11
68.8761158125
 21
18.2934797439
 31
0.0
  0
LINE
  5
492
330
1F
100
AcDbEntity
  8
0
  6
Continuous
 62
     7
370
    25
100
AcDbLine
 10
190.4277714985
 20
105.9347228152
 30
0.0
 11
199.2545205606
 21
100.839149044
 31
0.0
  0
LINE
  5
493
330
1F
100
AcDbEntity
  8
0
  6
Continuous
 62
     7
370
    25
100
AcDbLine
 10
60.2494130821
 20
14.8641325412
 30
0.0
 11
60.2494130821
 21
15.9402327586
 31
0.0
  0
LINE
  5
494
330
1F
100
AcDbEntity
  8
0
  6
Continuous
 62
     7
370
    25
100
AcDbLine
 10
60.2494130821
 20
15.9402327586
 30
0.0
 11
61.380783932
 21
16.8237243297
 31
0.0
  0
LINE
  5
495
330
1F
100
AcDbEntity
  8
0
  6
Continuous
 62
     7
370
    25
100
AcDbLine
 10
60.2494130821
 20
14.8641325412
 30
0.0
 11
61.380783932
 21
15.5172590307
 31
0.0
  0
LINE
  5
496
330
1F
100
AcDbEntity
  8
0
  6
Continuous
 62
     7
370
    25
100
AcDbLine
 10
60.2494130821
 20
15.9402327586
 30
0.0
 11
49.0771259393
 21
22.389856842
 31
0.0
  0
LINE
  5
497
330
1F
100
AcDbEntity
  8
0
  6
Continuous
 62
     7
370
    25
100
AcDbLine
 10
49.0771259393
 20
22.389856842
 30
0.0
 11
50.2084967892
 21
23.2733484131
 31
0.0
  0
LINE
  5
498
330
1F
100
AcDbEntity
  8
0
  6
Continuous
 62
     7
370
    25
100
AcDbLine
 10
84.7591483315
 20
25.6433063189
 30
0.0
 11
84.7591483315
 21
27.4625592477
 31
0.0
  0
LINE
  5
499
330
1F
100
AcDbEntity
  8
0
  6
Continuous
 62
     7
370
    25
100
AcDbLine
 10
68.8761158125
 20
16.474226815
 30
0.0
 11
84.7591483315
 21
25.6433063189
 31
0.0
  0
LINE
  5
49A
330
1F
100
AcDbEntity
  8
0
  6
Continuous
 62
     7
370
    25
100
AcDbLine
 10
49.0771259393
 20
22.389856842
 30
0.0
 11
49.0771259393
 21
21.3137566246
 31
0.0
  0
LINE
  5
49B
330
1F
100
AcDbEntity
  8
0
  6
Continuous
 62
     7
370
    25
100
AcDbLine
 10
49.0771259393
 20
21.3137566246
 30
0.0
 11
60.2494130821
 21
14.8641325412
 31
0.0
  0
LINE
  5
49C
330
1F
100
AcDbEntity
  8
0
  6
Continuous
 62
     7
370
    25
100
AcDbLine
 10
84.7591483315
 20
25.6433063189
 30
0.0
 11
85.3757454447
 21
25.2872945249
 31
0.0
  0
LINE
  5
49D
330
1F
100
AcDbEntity
  8
0
  6
Continuous
 62
     7
370
    25
100
AcDbLine
 10
190.144928786
 20
110.3440166593
 30
0.0
 11
190.144928786
 21
110.1572087859
 31
0.0
  0
LINE
  5
49E
330
1F
100
AcDbEntity
  8
0
  6
Continuous
 62
     7
370
    25
100
AcDbLine
 10
46.6946862421
 20
30.3077817332
 30
0.0
 11
46.531541527
 21
30.2136002939
 31
0.0
  0
ARC
  5
49F
330
1F
100
AcDbEntity
  8
0
  6
Continuous
 62
     7
370
    25
100
AcDbCircle
 10
189.9496186154
 20
110.1510910231
 30
0.0
 40
0.1954059614567155
100
AcDbArc
 50
334.4959090501
 51
1.7941073477
  0
ARC
  5
4A0
330
1F
100
AcDbEntity
  8
0
  6
Continuous
 62
     7
370
    25
100
AcDbCircle
 10
190.4853949685
 20
109.6333152416
 30
0.0
 40
0.6834951503760014
100
AcDbArc
 50
167.1601767018
 51
193.7114911972
  0
LINE
  5
4A1
330
1F
100
AcDbEntity
  8
0
  6
Continuous
 62
     7
370
    25
100
AcDbLine
 10
189.9470385834
 20
109.1474281135
 30
0.0
 11
190.0445541161
 21
109.0005906452
 31
0.0
  0
ARC
  5
4A2
330
1F
100
AcDbEntity
  8
0
  6
Continuous
 62
     7
370
    25
100
AcDbCircle
 10
189.6873251259
 20
108.713864855
 30
0.0
 40
0.4580657487780147
100
AcDbArc
 50
2.573788686
 51
38.7518743221
  0
LINE
  5
4A3
330
1F
100
AcDbEntity
  8
0
  6
Continuous
 62
     7
370
    25
100
AcDbLine
 10
190.144928786
 20
108.7344347467
 30
0.0
 11
190.144928786
 21
106.4246207623
 31
0.0
  0
ARC
  5
4A4
330
1F
100
AcDbEntity
  8
0
  6
Continuous
 62
     7
370
    25
100
AcDbCircle
 10
190.7590152266
 20
106.4525651032
 30
0.0
 40
0.6147219230288227
100
AcDbArc
 50
182.6054784857
 51
237.39452166
  0
LINE
  5
4A5
330
1F
100
AcDbEntity
  8
0
  6
Continuous
 62
     7
370
    25
100
AcDbLine
 10
46.255107167
 20
27.7676507814
 30
0.0
 11
46.2486988146
 21
27.7639513183
 31
0.0
  0
LINE
  5
4A6
330
1F
100
AcDbEntity
  8
0
  6
Continuous
 62
     7
370
    25
100
AcDbLine
 10
108.3298457756
 20
41.0696332475
 30
0.0
 11
108.9464428888
 21
41.4256450415
 31
0.0
  0
LINE
  5
4A7
330
1F
100
AcDbEntity
  8
0
  6
Continuous
 62
     7
370
    25
100
AcDbLine
 10
108.3298457756
 20
41.0696332475
 30
0.0
 11
92.4468132566
 21
31.9005537436
 31
0.0
  0
LINE
  5
4A8
330
1F
100
AcDbEntity
  8
0
  6
Continuous
 62
     7
370
    25
100
AcDbLine
 10
108.3298457756
 20
39.2503803186
 30
0.0
 11
108.3298457756
 21
41.0696332475
 31
0.0
  0
LINE
  5
4A9
330
1F
100
AcDbEntity
  8
0
  6
Continuous
 62
     7
370
    25
100
AcDbLine
 10
92.4468132566
 20
30.0813008147
 30
0.0
 11
108.3298457756
 21
39.2503803186
 31
0.0
  0
LINE
  5
4AA
330
1F
100
AcDbEntity
  8
0
  6
Continuous
 62
     7
370
    25
100
AcDbLine
 10
108.3298457756
 20
39.2503803186
 30
0.0
 11
108.9464428888
 21
38.8943685246
 31
0.0
  0
LINE
  5
4AB
330
1F
100
AcDbEntity
  8
0
  6
Continuous
 62
     7
370
    25
100
AcDbLine
 10
113.4985426601
 20
42.4256572729
 30
0.0
 11
112.7598686118
 21
41.9992298216
 31
0.0
  0
LINE
  5
4AC
330
1F
100
AcDbEntity
  8
0
  6
Continuous
 62
     7
370
    25
100
AcDbLine
 10
112.7598686118
 20
41.9992298216
 30
0.0
 11
112.6526833916
 21
41.523780492
 31
0.0
  0
LINE
  5
4AD
330
1F
100
AcDbEntity
  8
0
  6
Continuous
 62
     7
370
    25
100
AcDbLine
 10
112.6526833916
 20
41.523780492
 30
0.0
 11
112.5608834688
 21
41.4707855246
 31
0.0
  0
LINE
  5
4AE
330
1F
100
AcDbEntity
  8
0
  6
Continuous
 62
     7
370
    25
100
AcDbLine
 10
113.662695444
 20
44.0666256075
 30
0.0
 11
114.2953291771
 21
42.4720597193
 31
0.0
  0
LINE
  5
4AF
330
1F
100
AcDbEntity
  8
0
  6
Continuous
 62
     7
370
    25
100
AcDbLine
 10
114.2953291771
 20
42.4720597193
 30
0.0
 11
113.8567458665
 21
42.2188709634
 31
0.0
  0
LINE
  5
4B0
330
1F
100
AcDbEntity
  8
0
  6
Continuous
 62
     7
370
    25
100
AcDbLine
 10
113.0581982434
 20
43.3249088656
 30
0.0
 11
112.8997689998
 21
42.620818329
 31
0.0
  0
LINE
  5
4B1
330
1F
100
AcDbEntity
  8
0
  6
Continuous
 62
     7
370
    25
100
AcDbLine
 10
112.8997689998
 20
42.620818329
 30
0.0
 11
113.3240330685
 21
42.3758958955
 31
0.0
  0
LINE
  5
4B2
330
1F
100
AcDbEntity
  8
0
  6
Continuous
 62
     7
370
    25
100
AcDbLine
 10
113.1354902792
 20
43.6130743797
 30
0.0
 11
113.5487346146
 21
43.3745135028
 31
0.0
  0
LINE
  5
4B3
330
1F
100
AcDbEntity
  8
0
  6
Continuous
 62
     7
370
    25
100
AcDbLine
 10
113.5487346146
 20
43.3745135028
 30
0.0
 11
113.3240330685
 21
42.3758958955
 31
0.0
  0
LINE
  5
4B4
330
1F
100
AcDbEntity
  8
0
  6
Continuous
 62
     7
370
    25
100
AcDbLine
 10
113.7824758781
 20
42.6405492962
 30
0.0
 11
113.5487346146
 21
43.3745135028
 31
0.0
  0
LINE
  5
4B5
330
1F
100
AcDbEntity
  8
0
  6
Continuous
 62
     7
370
    25
100
AcDbLine
 10
113.3240330685
 20
42.3758958955
 30
0.0
 11
113.7824758781
 21
42.6405492962
 31
0.0
  0
LINE
  5
4B6
330
1F
100
AcDbEntity
  8
0
  6
Continuous
 62
     7
370
    25
100
AcDbLine
 10
114.2953291771
 20
42.4720597193
 30
0.0
 11
114.7195932458
 21
42.2271372857
 31
0.0
  0
LINE
  5
4B7
330
1F
100
AcDbEntity
  8
0
  6
Continuous
 62
     7
370
    25
100
AcDbLine
 10
112.6526833916
 20
41.523780492
 30
0.0
 11
113.0769474603
 21
41.2788580585
 31
0.0
  0
LINE
  5
4B8
330
1F
100
AcDbEntity
  8
0
  6
Continuous
 62
     7
370
    25
100
AcDbLine
 10
112.7598686118
 20
41.9992298216
 30
0.0
 11
113.1841326806
 21
41.754307388
 31
0.0
  0
LINE
  5
4B9
330
1F
100
AcDbEntity
  8
0
  6
Continuous
 62
     7
370
    25
100
AcDbLine
 10
113.4985426601
 20
42.4256572729
 30
0.0
 11
113.9228067288
 21
42.1807348393
 31
0.0
  0
SPLINE
  5
4BA
330
1F
100
AcDbEntity
  8
0
  6
Continuous
 62
     7
370
    25
100
AcDbSpline
210
0.0
220
0.0
230
1.0
 70
     8
 71
     3
 72
     9
 73
     5
 74
     0
 42
0.000000001
 43
0.00000001
 40
0.0
 40
0.0
 40
0.0
 40
0.0
 40
0.4115413036322905
 40
1.0
 40
1.0
 40
1.0
 40
1.0
 10
116.6234838242309
 20
44.32792421080051
 30
0.0
 10
116.6147759570407
 20
44.29110989050788
 30
0.0
 10
116.5936167997137
 20
44.20165515056392
 30
0.0
 10
116.5381925364466
 20
44.11867185300453
 30
0.0
 10
116.5055776467373
 20
44.06983960990246
 30
0.0
  0
SPLINE
  5
4BB
330
1F
100
AcDbEntity
  8
0
  6
Continuous
 62
     7
370
    25
100
AcDbSpline
210
0.0
220
0.0
230
1.0
 70
     8
 71
     3
 72
     9
 73
     5
 74
     0
 42
0.000000001
 43
0.00000001
 40
0.0
 40
0.0
 40
0.0
 40
0.0
 40
0.3319586134249421
 40
1.0
 40
1.0
 40
1.0
 40
1.0
 10
116.1944501479763
 20
43.62754633756587
 30
0.0
 10
116.1498885576196
 20
43.57915206489183
 30
0.0
 10
116.0156501659812
 20
43.43336801014259
 30
0.0
 10
115.8675607695432
 20
43.34787698107893
 30
0.0
 10
115.7686309238097
 20
43.29076543548352
 30
0.0
  0
SPLINE
  5
4BC
330
1F
100
AcDbEntity
  8
0
  6
Continuous
 62
     7
370
    25
100
AcDbSpline
210
0.0
220
0.0
230
1.0
 70
     8
 71
     3
 72
     9
 73
     5
 74
     0
 42
0.000000001
 43
0.00000001
 40
0.0
 40
0.0
 40
0.0
 40
0.0
 40
0.5946504274215545
 40
1.0
 40
1.0
 40
1.0
 40
1.0
 10
115.7686309238097
 20
43.29076543548352
 30
0.0
 10
115.657016246295
 20
43.22743193989236
 30
0.0
 10
115.4693182772569
 20
43.12092651641898
 30
0.0
 10
115.2967723070472
 20
43.10408061430127
 30
0.0
 10
115.2268308717725
 20
43.09725213507817
 30
0.0
  0
LINE
  5
4BD
330
1F
100
AcDbEntity
  8
0
  6
Continuous
 62
     7
370
    25
100
AcDbLine
 10
116.6400550801
 20
45.6981007411
 30
0.0
 11
116.7031655151
 21
45.5720377631
 31
0.0
  0
LINE
  5
4BE
330
1F
100
AcDbEntity
  8
0
  6
Continuous
 62
     7
370
    25
100
AcDbLine
 10
116.7031655151
 20
45.5720377631
 30
0.0
 11
116.1976346753
 21
45.148158179
 31
0.0
  0
SPLINE
  5
4BF
330
1F
100
AcDbEntity
  8
0
  6
Continuous
 62
     7
370
    25
100
AcDbSpline
210
0.0
220
0.0
230
1.0
 70
     8
 71
     3
 72
     9
 73
     5
 74
     0
 42
0.000000001
 43
0.00000001
 40
0.0
 40
0.0
 40
0.0
 40
0.0
 40
0.4618197863841493
 40
1.0
 40
1.0
 40
1.0
 40
1.0
 10
116.0119674545234
 20
45.23597455934992
 30
0.0
 10
115.979284999693
 20
45.25570548967195
 30
0.0
 10
115.9085161504707
 20
45.29842979664998
 30
0.0
 10
115.8069397492818
 20
45.24869738484792
 30
0.0
 10
115.7522733399916
 20
45.22193238484065
 30
0.0
  0
SPLINE
  5
4C0
330
1F
100
AcDbEntity
  8
0
  6
Continuous
 62
     7
370
    25
100
AcDbSpline
210
0.0
220
0.0
230
1.0
 70
     8
 71
     3
 72
     9
 73
     5
 74
     0
 42
0.000000001
 43
0.00000001
 40
0.0
 40
0.0
 40
0.0
 40
0.0
 40
0.5582410053773958
 40
1.0
 40
1.0
 40
1.0
 40
1.0
 10
115.4143600953296
 20
44.82454665371571
 30
0.0
 10
115.3831592071733
 20
44.72216375572058
 30
0.0
 10
115.327267777028
 20
44.5387610729923
 30
0.0
 10
115.3261698095402
 20
44.37428360974399
 30
0.0
 10
115.3256847725266
 20
44.30162421094136
 30
0.0
  0
SPLINE
  5
4C1
330
1F
100
AcDbEntity
  8
0
  6
Continuous
 62
     7
370
    25
100
AcDbSpline
210
0.0
220
0.0
230
1.0
 70
     8
 71
     3
 72
    11
 73
     7
 74
     0
 42
0.000000001
 43
0.00000001
 40
0.0
 40
0.0
 40
0.0
 40
0.0
 40
0.3950600606240988
 40
0.7889427148976141
 40
0.9858164062435288
 40
1.0
 40
1.0
 40
1.0
 40
1.0
 10
115.3256847725266
 20
44.30162421094136
 30
0.0
 10
115.32728848431
 20
44.22249264170903
 30
0.0
 10
115.3304911282988
 20
44.06446534083323
 30
0.0
 10
115.3702607591752
 20
43.89342997014928
 30
0.0
 10
115.4232135886392
 20
43.81173061802031
 30
0.0
 10
115.452798949622
 20
43.80322803259927
 30
0.0
 10
115.454787162164
 20
43.80265663693562
 30
0.0
  0
LINE
  5
4C2
330
1F
100
AcDbEntity
  8
0
  6
Continuous
 62
     7
370
    25
100
AcDbLine
 10
116.7031655151
 20
45.5720377631
 30
0.0
 11
117.1274295838
 21
45.3271153296
 31
0.0
  0
LINE
  5
4C3
330
1F
100
AcDbEntity
  8
0
  6
Continuous
 62
     7
370
    25
100
AcDbLine
 10
115.7686309238
 20
43.2907654355
 30
0.0
 11
116.1928949925
 21
43.0458430019
 31
0.0
  0
LINE
  5
4C4
330
1F
100
AcDbEntity
  8
0
  6
Continuous
 62
     7
370
    25
100
AcDbLine
 10
115.4143600953
 20
44.8245466537
 30
0.0
 11
115.838624164
 21
44.5796242202
 31
0.0
  0
LINE
  5
4C5
330
1F
100
AcDbEntity
  8
0
  6
Continuous
 62
     7
370
    25
100
AcDbLine
 10
115.75227334
 20
45.2219323848
 30
0.0
 11
116.1765374087
 21
44.9770099513
 31
0.0
  0
LINE
  5
4C6
330
1F
100
AcDbEntity
  8
0
  6
Continuous
 62
     7
370
    25
100
AcDbLine
 10
115.3256847725
 20
44.3016242109
 30
0.0
 11
115.7499488412
 21
44.0567017774
 31
0.0
  0
SPLINE
  5
4C7
330
1F
100
AcDbEntity
  8
0
  6
Continuous
 62
     7
370
    25
100
AcDbSpline
210
0.0
220
0.0
230
1.0
 70
     8
 71
     3
 72
     9
 73
     5
 74
     0
 42
0.000000001
 43
0.00000001
 40
0.0
 40
0.0
 40
0.0
 40
0.0
 40
0.3091714853709422
 40
1.0
 40
1.0
 40
1.0
 40
1.0
 10
119.2861915348577
 20
47.21299465374755
 30
0.0
 10
119.3153833797905
 20
47.17206645690387
 30
0.0
 10
119.4098029699341
 20
47.03968621234615
 30
0.0
 10
119.4123133643987
 20
46.82118388418156
 30
0.0
 10
119.4140476164779
 20
46.67023624537263
 30
0.0
  0
SPLINE
  5
4C8
330
1F
100
AcDbEntity
  8
0
  6
Continuous
 62
     7
370
    25
100
AcDbSpline
210
0.0
220
0.0
230
1.0
 70
     8
 71
     3
 72
    10
 73
     6
 74
     0
 42
0.000000001
 43
0.00000001
 40
0.0
 40
0.0
 40
0.0
 40
0.0
 40
0.3583534763997818
 40
0.7156873533518154
 40
1.0
 40
1.0
 40
1.0
 40
1.0
 10
119.4140476164779
 20
46.67023624537263
 30
0.0
 10
119.4091078075374
 20
46.54139834114272
 30
0.0
 10
119.3992422445682
 20
46.28408910665152
 30
0.0
 10
119.3031913679282
 20
45.88092449400272
 30
0.0
 10
119.1648665465442
 20
45.63783707739199
 30
0.0
 10
119.1035750182364
 20
45.53012539464856
 30
0.0
  0
SPLINE
  5
4C9
330
1F
100
AcDbEntity
  8
0
  6
Continuous
 62
     7
370
    25
100
AcDbSpline
210
0.0
220
0.0
230
1.0
 70
     8
 71
     3
 72
     9
 73
     5
 74
     0
 42
0.000000001
 43
0.00000001
 40
0.0
 40
0.0
 40
0.0
 40
0.0
 40
0.1669564623890888
 40
1.0
 40
1.0
 40
1.0
 40
1.0
 10
118.7866223083036
 20
45.12799089218198
 30
0.0
 10
118.7638473533604
 20
45.10052258230824
 30
0.0
 10
118.627434814323
 20
44.93599879280843
 30
0.0
 10
118.4675980598632
 20
44.84651962173065
 30
0.0
 10
118.3344470844877
 20
44.77197957651348
 30
0.0
  0
SPLINE
  5
4CA
330
1F
100
AcDbEntity
  8
0
  6
Continuous
 62
     7
370
    25
100
AcDbSpline
210
0.0
220
0.0
230
1.0
 70
     8
 71
     3
 72
     9
 73
     5
 74
     0
 42
0.000000001
 43
0.00000001
 40
0.0
 40
0.0
 40
0.0
 40
0.0
 40
0.5722604035197956
 40
1.0
 40
1.0
 40
1.0
 40
1.0
 10
118.3344470844877
 20
44.77197957651348
 30
0.0
 10
118.2224325332298
 20
44.70949642510862
 30
0.0
 10
118.026692009215
 20
44.60030985371461
 30
0.0
 10
117.8461587585792
 20
44.58158048542577
 30
0.0
 10
117.768937538801
 20
44.57356919299161
 30
0.0
  0
SPLINE
  5
4CB
330
1F
100
AcDbEntity
  8
0
  6
Continuous
 62
     7
370
    25
100
AcDbSpline
210
0.0
220
0.0
230
1.0
 70
     8
 71
     3
 72
    10
 73
     6
 74
     0
 42
0.000000001
 43
0.00000001
 40
0.0
 40
0.0
 40
0.0
 40
0.0
 40
0.0769988969566349
 40
0.5380231462661793
 40
1.0
 40
1.0
 40
1.0
 40
1.0
 10
117.9490811935099
 20
46.25022690366841
 30
0.0
 10
117.942966712118
 20
46.23718677423239
 30
0.0
 10
117.900242301168
 20
46.1460699953669
 30
0.0
 10
117.8800466458436
 20
45.97485089133036
 30
0.0
 10
117.8741970175609
 20
45.83148356249008
 30
0.0
 10
117.8712691847982
 20
45.75972591530258
 30
0.0
  0
SPLINE
  5
4CC
330
1F
100
AcDbEntity
  8
0
  6
Continuous
 62
     7
370
    25
100
AcDbSpline
210
0.0
220
0.0
230
1.0
 70
     8
 71
     3
 72
    10
 73
     6
 74
     0
 42
0.000000001
 43
0.00000001
 40
0.0
 40
0.0
 40
0.0
 40
0.0
 40
0.4658437240083391
 40
0.9281316718262382
 40
1.0
 40
1.0
 40
1.0
 40
1.0
 10
117.8712691847982
 20
45.75972591530258
 30
0.0
 10
117.8753619068728
 20
45.67350700905549
 30
0.0
 10
117.883516111353
 20
45.50172730381531
 30
0.0
 10
117.9300994614513
 20
45.31897493520032
 30
0.0
 10
118.004340269404
 20
45.30219255983175
 30
0.0
 10
118.0143290367174
 20
45.29993456659135
 30
0.0
  0
SPLINE
  5
4CD
330
1F
100
AcDbEntity
  8
0
  6
Continuous
 62
     7
370
    25
100
AcDbSpline
210
0.0
220
0.0
230
1.0
 70
     8
 71
     3
 72
     9
 73
     5
 74
     0
 42
0.000000001
 43
0.00000001
 40
0.0
 40
0.0
 40
0.0
 40
0.0
 40
0.4682526198040891
 40
1.0
 40
1.0
 40
1.0
 40
1.0
 10
118.6132645249899
 20
46.73379567790904
 30
0.0
 10
118.5720503874239
 20
46.75036030342068
 30
0.0
 10
118.4840335011901
 20
46.7857357072328
 30
0.0
 10
118.3683903906851
 20
46.72759935622459
 30
0.0
 10
118.3068974696363
 20
46.69668550388177
 30
0.0
  0
LINE
  5
4CE
330
1F
100
AcDbEntity
  8
0
  6
Continuous
 62
     7
370
    25
100
AcDbLine
 10
118.3344470845
 20
44.7719795765
 30
0.0
 11
118.7587111532
 21
44.527057143
 31
0.0
  0
LINE
  5
4CF
330
1F
100
AcDbEntity
  8
0
  6
Continuous
 62
     7
370
    25
100
AcDbLine
 10
119.4140476165
 20
46.6702362454
 30
0.0
 11
119.8383116852
 21
46.4253138118
 31
0.0
  0
SPLINE
  5
4D0
330
1F
100
AcDbEntity
  8
0
  6
Continuous
 62
     7
370
    25
100
AcDbSpline
210
0.0
220
0.0
230
1.0
 70
     8
 71
     3
 72
    12
 73
     8
 74
     0
 42
0.000000001
 43
0.00000001
 40
0.0
 40
0.0
 40
0.0
 40
0.0
 40
0.2489364512809172
 40
0.3740610104865721
 40
0.49910877647742
 40
0.7491228497802699
 40
1.0
 40
1.0
 40
1.0
 40
1.0
 10
118.737188016597
 20
45.08727111161326
 30
0.0
 10
118.8105567006709
 20
45.13766053914368
 30
0.0
 10
118.9208031670341
 20
45.21337753471777
 30
0.0
 10
119.0405931363983
 20
45.38270256079477
 30
0.0
 10
119.1282655157796
 20
45.56885896063997
 30
0.0
 10
119.1703762736378
 20
45.80256392107379
 30
0.0
 10
119.1748701292884
 20
45.97178455141115
 30
0.0
 10
119.1771209287557
 20
46.0565406571358
 30
0.0
  0
SPLINE
  5
4D1
330
1F
100
AcDbEntity
  8
0
  6
Continuous
 62
     7
370
    25
100
AcDbSpline
210
0.0
220
0.0
230
1.0
 70
     8
 71
     3
 72
    11
 73
     7
 74
     0
 42
0.000000001
 43
0.00000001
 40
0.0
 40
0.0
 40
0.0
 40
0.0
 40
0.2813604798120288
 40
0.5605733404902459
 40
0.7799323093793576
 40
1.0
 40
1.0
 40
1.0
 40
1.0
 10
118.2955332535101
 20
45.51480348175577
 30
0.0
 10
118.2982802348829
 20
45.4259298213642
 30
0.0
 10
118.3037532299723
 20
45.24886087152242
 30
0.0
 10
118.382473836849
 20
45.04949541047693
 30
0.0
 10
118.5515455051044
 20
44.99932521680101
 30
0.0
 10
118.6752406795544
 20
45.05792430982935
 30
0.0
 10
118.737188016597
 20
45.08727111161326
 30
0.0
  0
SPLINE
  5
4D2
330
1F
100
AcDbEntity
  8
0
  6
Continuous
 62
     7
370
    25
100
AcDbSpline
210
0.0
220
0.0
230
1.0
 70
     8
 71
     3
 72
    12
 73
     8
 74
     0
 42
0.000000001
 43
0.00000001
 40
0.0
 40
0.0
 40
0.0
 40
0.0
 40
0.1865776882289909
 40
0.3728057319333136
 40
0.5590293167300648
 40
0.7792871014192856
 40
1.0
 40
1.0
 40
1.0
 40
1.0
 10
118.7311615383483
 20
46.45176307033496
 30
0.0
 10
118.6788998682635
 20
46.41668872257517
 30
0.0
 10
118.5744744658857
 20
46.34660575599548
 30
0.0
 10
118.4373553783346
 20
46.16847075254228
 30
0.0
 10
118.3419796669019
 20
45.95309179322552
 30
0.0
 10
118.3013225576009
 20
45.73035996546146
 30
0.0
 10
118.2974643488579
 20
45.58670506376794
 30
0.0
 10
118.2955332535101
 20
45.51480348175577
 30
0.0
  0
SPLINE
  5
4D3
330
1F
100
AcDbEntity
  8
0
  6
Continuous
 62
     7
370
    25
100
AcDbSpline
210
0.0
220
0.0
230
1.0
 70
     8
 71
     3
 72
    11
 73
     7
 74
     0
 42
0.000000001
 43
0.00000001
 40
0.0
 40
0.0
 40
0.0
 40
0.0
 40
0.2812442903644941
 40
0.5602566171182851
 40
0.7797812630998792
 40
1.0
 40
1.0
 40
1.0
 40
1.0
 10
119.1771209287557
 20
46.0565406571358
 30
0.0
 10
119.1742207321032
 20
46.14323197913535
 30
0.0
 10
119.1684433548509
 20
46.31592663805284
 30
0.0
 10
119.0802636696284
 20
46.49920298875033
 30
0.0
 10
118.9120587388381
 20
46.53849448701565
 30
0.0
 10
118.7915240225069
 20
46.48070394808913
 30
0.0
 10
118.7311615383483
 20
46.45176307033496
 30
0.0
  0
LINE
  5
4D4
330
1F
100
AcDbEntity
  8
0
  6
Continuous
 62
     7
370
    25
100
AcDbLine
 10
117.8712691848
 20
45.7597259153
 30
0.0
 11
118.2955332535
 21
45.5148034818
 31
0.0
  0
LINE
  5
4D5
330
1F
100
AcDbEntity
  8
0
  6
Continuous
 62
     7
370
    25
100
AcDbLine
 10
118.3068974696
 20
46.6966855039
 30
0.0
 11
118.7311615383
 21
46.4517630703
 31
0.0
  0
SPLINE
  5
4D6
330
1F
100
AcDbEntity
  8
0
  6
Continuous
 62
     7
370
    25
100
AcDbSpline
210
0.0
220
0.0
230
1.0
 70
     8
 71
     3
 72
     9
 73
     5
 74
     0
 42
0.000000001
 43
0.00000001
 40
0.0
 40
0.0
 40
0.0
 40
0.0
 40
0.3591893441511769
 40
1.0
 40
1.0
 40
1.0
 40
1.0
 10
123.0655978964792
 20
49.39915611812903
 30
0.0
 10
123.0947670729382
 20
49.34495119930586
 30
0.0
 10
123.1759754298508
 20
49.19404216008802
 30
0.0
 10
123.1801559843087
 20
48.97581286078368
 30
0.0
 10
123.1828349281527
 20
48.83596920037103
 30
0.0
  0
SPLINE
  5
4D7
330
1F
100
AcDbEntity
  8
0
  6
Continuous
 62
     7
370
    25
100
AcDbSpline
210
0.0
220
0.0
230
1.0
 70
     8
 71
     3
 72
    11
 73
     7
 74
     0
 42
0.000000001
 43
0.00000001
 40
0.0
 40
0.0
 40
0.0
 40
0.0
 40
0.3532613585410573
 40
0.7047370369844669
 40
0.9815549667897512
 40
1.0
 40
1.0
 40
1.0
 40
1.0
 10
123.1828349281527
 20
48.83596920037103
 30
0.0
 10
123.1807988024678
 20
48.69736483556576
 30
0.0
 10
123.17673684339
 20
48.42085672902002
 30
0.0
 10
123.0516263064403
 20
47.99663829362512
 30
0.0
 10
122.9172645231711
 20
47.70560779279576
 30
0.0
 10
122.8290362625636
 20
47.6038574168338
 30
0.0
 10
122.8235246562979
 20
47.59750108604106
 30
0.0
  0
LINE
  5
4D8
330
1F
100
AcDbEntity
  8
0
  6
Continuous
 62
     7
370
    25
100
AcDbLine
 10
122.6497332887
 20
47.3945094952
 30
0.0
 11
122.5939619107
 21
47.3293674751
 31
0.0
  0
SPLINE
  5
4D9
330
1F
100
AcDbEntity
  8
0
  6
Continuous
 62
     7
370
    25
100
AcDbSpline
210
0.0
220
0.0
230
1.0
 70
     8
 71
     3
 72
     9
 73
     5
 74
     0
 42
0.000000001
 43
0.00000001
 40
0.0
 40
0.0
 40
0.0
 40
0.0
 40
0.5600530855990129
 40
1.0
 40
1.0
 40
1.0
 40
1.0
 10
122.5939619107035
 20
47.32936747513813
 30
0.0
 10
122.5218613685708
 20
47.26746882423112
 30
0.0
 10
122.3931226043596
 20
47.15694599613025
 30
0.0
 10
122.2608598694018
 20
47.07355761550701
 30
0.0
 10
122.2026712872669
 20
47.03687115475494
 30
0.0
  0
LINE
  5
4DA
330
1F
100
AcDbEntity
  8
0
  6
Continuous
 62
     7
370
    25
100
AcDbLine
 10
122.2026712873
 20
47.0368711548
 30
0.0
 11
121.6510763424
 21
46.718442171
 31
0.0
  0
LINE
  5
4DB
330
1F
100
AcDbEntity
  8
0
  6
Continuous
 62
     7
370
    25
100
AcDbLine
 10
122.0502874801
 20
48.8258852801
 30
0.0
 11
121.8880030301
 21
48.7322004613
 31
0.0
  0
LINE
  5
4DC
330
1F
100
AcDbEntity
  8
0
  6
Continuous
 62
     7
370
    25
100
AcDbLine
 10
121.8880030301
 20
48.7322004613
 30
0.0
 11
121.8880030301
 21
47.4278560475
 31
0.0
  0
SPLINE
  5
4DD
330
1F
100
AcDbEntity
  8
0
  6
Continuous
 62
     7
370
    25
100
AcDbSpline
210
0.0
220
0.0
230
1.0
 70
     8
 71
     3
 72
     9
 73
     5
 74
     0
 42
0.000000001
 43
0.00000001
 40
0.0
 40
0.0
 40
0.0
 40
0.0
 40
0.4926591194411479
 40
1.0
 40
1.0
 40
1.0
 40
1.0
 10
122.4005104245999
 20
48.90048570801796
 30
0.0
 10
122.3484032324485
 20
48.91094956416489
 30
0.0
 10
122.2426359988885
 20
48.93218911040287
 30
0.0
 10
122.1150281556665
 20
48.86166502943264
 30
0.0
 10
122.05028748012
 20
48.82588528009257
 30
0.0
  0
LINE
  5
4DE
330
1F
100
AcDbEntity
  8
0
  6
Continuous
 62
     7
370
    25
100
AcDbLine
 10
123.1828349282
 20
48.8359692004
 30
0.0
 11
123.6070989969
 21
48.5910467668
 31
0.0
  0
LINE
  5
4DF
330
1F
100
AcDbEntity
  8
0
  6
Continuous
 62
     7
370
    25
100
AcDbLine
 10
121.8880030301
 20
47.4278560475
 30
0.0
 11
122.3122670988
 21
47.1829336139
 31
0.0
  0
LINE
  5
4E0
330
1F
100
AcDbEntity
  8
0
  6
Continuous
 62
     7
370
    25
100
AcDbLine
 10
121.8880030301
 20
48.7322004613
 30
0.0
 11
122.3122670988
 21
48.4872780277
 31
0.0
  0
LINE
  5
4E1
330
1F
100
AcDbEntity
  8
0
  6
Continuous
 62
     7
370
    25
100
AcDbLine
 10
122.3122670988
 20
48.4872780277
 30
0.0
 11
122.3122670988
 21
47.1829336139
 31
0.0
  0
SPLINE
  5
4E2
330
1F
100
AcDbEntity
  8
0
  6
Continuous
 62
     7
370
    25
100
AcDbSpline
210
0.0
220
0.0
230
1.0
 70
     8
 71
     3
 72
    12
 73
     8
 74
     0
 42
0.000000001
 43
0.00000001
 40
0.0
 40
0.0
 40
0.0
 40
0.0
 40
0.1874133212960397
 40
0.3733808410114882
 40
0.5590240519305113
 40
0.7790393159065121
 40
1.0
 40
1.0
 40
1.0
 40
1.0
 10
122.4719687724396
 20
47.27512742767987
 30
0.0
 10
122.52573321824
 20
47.30739526378609
 30
0.0
 10
122.6328473435896
 20
47.37168200551628
 30
0.0
 10
122.7968484738021
 20
47.51228593479424
 30
0.0
 10
122.9065663633565
 20
47.74285759639943
 30
0.0
 10
122.9423721537015
 20
47.97096127816158
 30
0.0
 10
122.9447278613659
 20
48.11917639100542
 30
0.0
 10
122.9459082404305
 20
48.19344282859765
 30
0.0
  0
LINE
  5
4E3
330
1F
100
AcDbEntity
  8
0
  6
Continuous
 62
     7
370
    25
100
AcDbLine
 10
122.3122670988
 20
47.1829336139
 30
0.0
 11
122.4719687724
 21
47.2751274277
 31
0.0
  0
LINE
  5
4E4
330
1F
100
AcDbEntity
  8
0
  6
Continuous
 62
     7
370
    25
100
AcDbLine
 10
122.4745515488
 20
48.5809628465
 30
0.0
 11
122.3122670988
 21
48.4872780277
 31
0.0
  0
SPLINE
  5
4E5
330
1F
100
AcDbEntity
  8
0
  6
Continuous
 62
     7
370
    25
100
AcDbSpline
210
0.0
220
0.0
230
1.0
 70
     8
 71
     3
 72
    12
 73
     8
 74
     0
 42
0.000000001
 43
0.00000001
 40
0.0
 40
0.0
 40
0.0
 40
0.0
 40
0.1875319682627566
 40
0.3748620447849019
 40
0.5608920416161244
 40
0.7794509762683174
 40
1.0
 40
1.0
 40
1.0
 40
1.0
 10
122.9459082404305
 20
48.19344282859765
 30
0.0
 10
122.9445465030449
 20
48.25485362879083
 30
0.0
 10
122.9418244942826
 20
48.37760911600478
 30
0.0
 10
122.9148518233624
 20
48.54567997539859
 30
0.0
 10
122.8358616150493
 20
48.68312186780705
 30
0.0
 10
122.663908911393
 20
48.68070173552162
 30
0.0
 10
122.5378610908841
 20
48.61430944210692
 30
0.0
 10
122.4745515488319
 20
48.58096284654575
 30
0.0
  0
LINE
  5
4E6
330
1F
100
AcDbEntity
  8
0
  6
Continuous
 62
     7
370
    25
100
AcDbLine
 10
122.2026712873
 20
47.0368711548
 30
0.0
 11
122.626935356
 21
46.7919487212
 31
0.0
  0
LINE
  5
4E7
330
1F
100
AcDbEntity
  8
0
  6
Continuous
 62
     7
370
    25
100
AcDbLine
 10
122.5939619107
 20
47.3293674751
 30
0.0
 11
123.0182259794
 21
47.0844450416
 31
0.0
  0
LINE
  5
4E8
330
1F
100
AcDbEntity
  8
0
  6
Continuous
 62
     7
370
    25
100
AcDbLine
 10
125.6758192049
 20
50.9629638157
 30
0.0
 11
125.7008697256
 21
50.822969243
 31
0.0
  0
SPLINE
  5
4E9
330
1F
100
AcDbEntity
  8
0
  6
Continuous
 62
     7
370
    25
100
AcDbSpline
210
0.0
220
0.0
230
1.0
 70
     8
 71
     3
 72
    10
 73
     6
 74
     0
 42
0.000000001
 43
0.00000001
 40
0.0
 40
0.0
 40
0.0
 40
0.0
 40
0.3163540135997777
 40
0.6322178325472052
 40
1.0
 40
1.0
 40
1.0
 40
1.0
 10
125.7008697255729
 20
50.82296924295166
 30
0.0
 10
125.6971160520825
 20
50.75415749568492
 30
0.0
 10
125.6896145214675
 20
50.61664062584746
 30
0.0
 10
125.6149949511941
 20
50.3724770459179
 30
0.0
 10
125.515088047714
 20
50.22506082316977
 30
0.0
 10
125.4613409648138
 20
50.14575507282743
 30
0.0
  0
LINE
  5
4EA
330
1F
100
AcDbEntity
  8
0
  6
Continuous
 62
     7
370
    25
100
AcDbLine
 10
125.5827609654
 20
49.5923742703
 30
0.0
 11
125.8661674147
 21
49.1517624524
 31
0.0
  0
LINE
  5
4EB
330
1F
100
AcDbEntity
  8
0
  6
Continuous
 62
     7
370
    25
100
AcDbLine
 10
125.8661674147
 20
49.1517624524
 30
0.0
 11
125.314454263
 21
48.8332652293
 31
0.0
  0
SPLINE
  5
4EC
330
1F
100
AcDbEntity
  8
0
  6
Continuous
 62
     7
370
    25
100
AcDbSpline
210
0.0
220
0.0
230
1.0
 70
     8
 71
     3
 72
     9
 73
     5
 74
     0
 42
0.000000001
 43
0.00000001
 40
0.0
 40
0.0
 40
0.0
 40
0.0
 40
0.5595454497438422
 40
0.9999999999999999
 40
0.9999999999999999
 40
0.9999999999999999
 40
0.9999999999999999
 10
124.6526929730226
 20
49.38127987857593
 30
0.0
 10
124.6245755889037
 20
49.38334686616022
 30
0.0
 10
124.5743251863102
 20
49.38704091386485
 30
0.0
 10
124.5169646294909
 20
49.35751548945363
 30
0.0
 10
124.4916999112346
 20
49.34451088192349
 30
0.0
  0
LINE
  5
4ED
330
1F
100
AcDbEntity
  8
0
  6
Continuous
 62
     7
370
    25
100
AcDbLine
 10
124.4916999112
 20
49.3445108819
 30
0.0
 11
124.4335874424
 21
49.3109632678
 31
0.0
  0
LINE
  5
4EE
330
1F
100
AcDbEntity
  8
0
  6
Continuous
 62
     7
370
    25
100
AcDbLine
 10
124.4335874424
 20
49.3109632678
 30
0.0
 11
124.4335874424
 21
48.3247516378
 31
0.0
  0
LINE
  5
4EF
330
1F
100
AcDbEntity
  8
0
  6
Continuous
 62
     7
370
    25
100
AcDbLine
 10
124.4335874424
 20
48.3247516378
 30
0.0
 11
124.1966607547
 21
48.1879767723
 31
0.0
  0
LINE
  5
4F0
330
1F
100
AcDbEntity
  8
0
  6
Continuous
 62
     7
370
    25
100
AcDbLine
 10
124.4335874424
 20
50.2653616193
 30
0.0
 11
124.4335874424
 21
49.7881624435
 31
0.0
  0
SPLINE
  5
4F1
330
1F
100
AcDbEntity
  8
0
  6
Continuous
 62
     7
370
    25
100
AcDbSpline
210
0.0
220
0.0
230
1.0
 70
     8
 71
     3
 72
    10
 73
     6
 74
     0
 42
0.000000001
 43
0.00000001
 40
0.0
 40
0.0
 40
0.0
 40
0.0
 40
0.0324075531790472
 40
0.2262472818905681
 40
1.0
 40
1.0
 40
1.0
 40
1.0
 10
124.9867534749757
 20
50.50802023124525
 30
0.0
 10
124.9849148376683
 20
50.50966642724992
 30
0.0
 10
124.9720787345876
 20
50.52115903730459
 30
0.0
 10
124.8871921763908
 20
50.52286798594343
 30
0.0
 10
124.7973139313332
 20
50.47340175485658
 30
0.0
 10
124.7254411747397
 20
50.43384519270708
 30
0.0
  0
LINE
  5
4F2
330
1F
100
AcDbEntity
  8
0
  6
Continuous
 62
     7
370
    25
100
AcDbLine
 10
124.7254411747
 20
50.4338451927
 30
0.0
 11
124.4335874424
 21
50.2653616193
 31
0.0
  0
LINE
  5
4F3
330
1F
100
AcDbEntity
  8
0
  6
Continuous
 62
     7
370
    25
100
AcDbLine
 10
125.7008697256
 20
50.822969243
 30
0.0
 11
126.1251337943
 21
50.5780468094
 31
0.0
  0
LINE
  5
4F4
330
1F
100
AcDbEntity
  8
0
  6
Continuous
 62
     7
370
    25
100
AcDbLine
 10
124.4335874424
 20
49.7881624435
 30
0.0
 11
124.8578515111
 21
49.54324001
 31
0.0
  0
LINE
  5
4F5
330
1F
100
AcDbEntity
  8
0
  6
Continuous
 62
     7
370
    25
100
AcDbLine
 10
124.4335874424
 20
50.2653616193
 30
0.0
 11
124.8578515111
 21
50.0204391858
 31
0.0
  0
LINE
  5
4F6
330
1F
100
AcDbEntity
  8
0
  6
Continuous
 62
     7
370
    25
100
AcDbLine
 10
124.8578515111
 20
50.0204391858
 30
0.0
 11
124.8578515111
 21
49.54324001
 31
0.0
  0
SPLINE
  5
4F7
330
1F
100
AcDbEntity
  8
0
  6
Continuous
 62
     7
370
    25
100
AcDbSpline
210
0.0
220
0.0
230
1.0
 70
     8
 71
     3
 72
    11
 73
     7
 74
     0
 42
0.000000001
 43
0.00000001
 40
0.0
 40
0.0
 40
0.0
 40
0.0
 40
0.2490731672139358
 40
0.3746975734985146
 40
0.4999656583352006
 40
1.0
 40
1.0
 40
1.0
 40
1.0
 10
125.4639430378506
 20
50.13471128349961
 30
0.0
 10
125.4600063439832
 20
50.17423330947624
 30
0.0
 10
125.4540841097408
 20
50.23368896019456
 30
0.0
 10
125.4072520171248
 20
50.27157512811839
 30
0.0
 10
125.3148542250564
 20
50.28318979875255
 30
0.0
 10
125.2230878651071
 20
50.23080955999767
 30
0.0
 10
125.1497052434516
 20
50.18892275916026
 30
0.0
  0
SPLINE
  5
4F8
330
1F
100
AcDbEntity
  8
0
  6
Continuous
 62
     7
370
    25
100
AcDbSpline
210
0.0
220
0.0
230
1.0
 70
     8
 71
     3
 72
    11
 73
     7
 74
     0
 42
0.000000001
 43
0.00000001
 40
0.0
 40
0.0
 40
0.0
 40
0.0
 40
0.2797326981240385
 40
0.5592718802498986
 40
0.7796589455822196
 40
1.0
 40
1.0
 40
1.0
 40
1.0
 10
125.314142007096
 20
49.83846418483507
 30
0.0
 10
125.3372293427381
 20
49.85973983819451
 30
0.0
 10
125.3833880424578
 20
49.90227642665084
 30
0.0
 10
125.4308695860404
 20
49.98671004612063
 30
0.0
 10
125.4596196754041
 20
50.06700423319354
 30
0.0
 10
125.4625020173382
 20
50.11214383755157
 30
0.0
 10
125.4639430378506
 20
50.13471128349963
 30
0.0
  0
SPLINE
  5
4F9
330
1F
100
AcDbEntity
  8
0
  6
Continuous
 62
     7
370
    25
100
AcDbSpline
210
0.0
220
0.0
230
1.0
 70
     8
 71
     3
 72
     9
 73
     5
 74
     0
 42
0.000000001
 43
0.00000001
 40
0.0
 40
0.0
 40
0.0
 40
0.0
 40
0.5598127168890668
 40
1.0
 40
1.0
 40
1.0
 40
1.0
 10
125.1380827496861
 20
49.70501406054829
 30
0.0
 10
125.1712057338006
 20
49.72813641268213
 30
0.0
 10
125.230373707509
 20
49.76944014058295
 30
0.0
 10
125.2885385729882
 20
49.81736727135378
 30
0.0
 10
125.314142007096
 20
49.83846418483507
 30
0.0
  0
LINE
  5
4FA
330
1F
100
AcDbEntity
  8
0
  6
Continuous
 62
     7
370
    25
100
AcDbLine
 10
124.8578515111
 20
49.54324001
 30
0.0
 11
125.1380827497
 21
49.7050140605
 31
0.0
  0
LINE
  5
4FB
330
1F
100
AcDbEntity
  8
0
  6
Continuous
 62
     7
370
    25
100
AcDbLine
 10
125.1497052435
 20
50.1889227592
 30
0.0
 11
124.8578515111
 21
50.0204391858
 31
0.0
  0
LINE
  5
4FC
330
1F
100
AcDbEntity
  8
0
  6
Continuous
 62
     7
370
    25
100
AcDbLine
 10
124.4335874424
 20
49.3109632678
 30
0.0
 11
124.8578515111
 21
49.0660408342
 31
0.0
  0
LINE
  5
4FD
330
1F
100
AcDbEntity
  8
0
  6
Continuous
 62
     7
370
    25
100
AcDbLine
 10
124.4916999112
 20
49.3445108819
 30
0.0
 11
124.9159639799
 21
49.0995884484
 31
0.0
  0
LINE
  5
4FE
330
1F
100
AcDbEntity
  8
0
  6
Continuous
 62
     7
370
    25
100
AcDbLine
 10
124.4335874424
 20
48.3247516378
 30
0.0
 11
124.8578515111
 21
48.0798292043
 31
0.0
  0
LINE
  5
4FF
330
1F
100
AcDbEntity
  8
0
  6
Continuous
 62
     7
370
    25
100
AcDbLine
 10
124.652692973
 20
49.3812798786
 30
0.0
 11
125.0769570417
 21
49.136357445
 31
0.0
  0
LINE
  5
500
330
1F
100
AcDbEntity
  8
0
  6
Continuous
 62
     7
370
    25
100
AcDbLine
 10
125.4473362171
 20
50.0408354071
 30
0.0
 11
125.8350019129
 21
49.8170407645
 31
0.0
  0
LINE
  5
501
330
1F
100
AcDbEntity
  8
0
  6
Continuous
 62
     7
370
    25
100
AcDbLine
 10
125.2483065167
 20
49.7854507138
 30
0.0
 11
125.598677873
 21
49.5831856352
 31
0.0
  0
LINE
  5
502
330
1F
100
AcDbEntity
  8
0
  6
Continuous
 62
     7
370
    25
100
AcDbLine
 10
127.6149653099
 20
50.5748946072
 30
0.0
 11
126.8762912617
 21
50.148467156
 31
0.0
  0
LINE
  5
503
330
1F
100
AcDbEntity
  8
0
  6
Continuous
 62
     7
370
    25
100
AcDbLine
 10
126.8762912617
 20
50.148467156
 30
0.0
 11
126.7691060414
 21
49.6730178264
 31
0.0
  0
LINE
  5
504
330
1F
100
AcDbEntity
  8
0
  6
Continuous
 62
     7
370
    25
100
AcDbLine
 10
126.7691060414
 20
49.6730178264
 30
0.0
 11
126.6773061186
 21
49.620022859
 31
0.0
  0
LINE
  5
505
330
1F
100
AcDbEntity
  8
0
  6
Continuous
 62
     7
370
    25
100
AcDbLine
 10
127.7791180939
 20
52.2158629419
 30
0.0
 11
128.411751827
 21
50.6212970537
 31
0.0
  0
LINE
  5
506
330
1F
100
AcDbEntity
  8
0
  6
Continuous
 62
     7
370
    25
100
AcDbLine
 10
128.411751827
 20
50.6212970537
 30
0.0
 11
127.9731685164
 21
50.3681082977
 31
0.0
  0
LINE
  5
507
330
1F
100
AcDbEntity
  8
0
  6
Continuous
 62
     7
370
    25
100
AcDbLine
 10
127.1746208933
 20
51.4741462
 30
0.0
 11
127.0161916496
 21
50.7700556634
 31
0.0
  0
LINE
  5
508
330
1F
100
AcDbEntity
  8
0
  6
Continuous
 62
     7
370
    25
100
AcDbLine
 10
125.8661674147
 20
49.1517624524
 30
0.0
 11
126.2904314834
 21
48.9068400188
 31
0.0
  0
LINE
  5
509
330
1F
100
AcDbEntity
  8
0
  6
Continuous
 62
     7
370
    25
100
AcDbLine
 10
127.898898528
 20
50.7897866305
 30
0.0
 11
127.6651572645
 21
51.5237508372
 31
0.0
  0
LINE
  5
50A
330
1F
100
AcDbEntity
  8
0
  6
Continuous
 62
     7
370
    25
100
AcDbLine
 10
127.4404557183
 20
50.5251332298
 30
0.0
 11
127.898898528
 21
50.7897866305
 31
0.0
  0
LINE
  5
50B
330
1F
100
AcDbEntity
  8
0
  6
Continuous
 62
     7
370
    25
100
AcDbLine
 10
127.6651572645
 20
51.5237508372
 30
0.0
 11
127.4404557183
 21
50.5251332298
 31
0.0
  0
LINE
  5
50C
330
1F
100
AcDbEntity
  8
0
  6
Continuous
 62
     7
370
    25
100
AcDbLine
 10
127.0161916496
 20
50.7700556634
 30
0.0
 11
127.4404557183
 21
50.5251332298
 31
0.0
  0
LINE
  5
50D
330
1F
100
AcDbEntity
  8
0
  6
Continuous
 62
     7
370
    25
100
AcDbLine
 10
127.2519129291
 20
51.7623117141
 30
0.0
 11
127.6651572645
 21
51.5237508372
 31
0.0
  0
LINE
  5
50E
330
1F
100
AcDbEntity
  8
0
  6
Continuous
 62
     7
370
    25
100
AcDbLine
 10
128.411751827
 20
50.6212970537
 30
0.0
 11
128.8360158957
 21
50.3763746201
 31
0.0
  0
LINE
  5
50F
330
1F
100
AcDbEntity
  8
0
  6
Continuous
 62
     7
370
    25
100
AcDbLine
 10
126.7691060414
 20
49.6730178264
 30
0.0
 11
127.1933701101
 21
49.4280953928
 31
0.0
  0
LINE
  5
510
330
1F
100
AcDbEntity
  8
0
  6
Continuous
 62
     7
370
    25
100
AcDbLine
 10
126.8762912617
 20
50.148467156
 30
0.0
 11
127.3005553304
 21
49.9035447224
 31
0.0
  0
LINE
  5
511
330
1F
100
AcDbEntity
  8
0
  6
Continuous
 62
     7
370
    25
100
AcDbLine
 10
127.6149653099
 20
50.5748946072
 30
0.0
 11
128.0392293786
 21
50.3299721737
 31
0.0
  0
LINE
  5
512
330
1F
100
AcDbEntity
  8
0
  6
Continuous
 62
     7
370
    25
100
AcDbLine
 10
129.5523058818
 20
53.2395024631
 30
0.0
 11
129.5523058818
 21
51.2797248945
 31
0.0
  0
LINE
  5
513
330
1F
100
AcDbEntity
  8
0
  6
Continuous
 62
     7
370
    25
100
AcDbLine
 10
129.5523058818
 20
51.2797248945
 30
0.0
 11
129.3153791941
 21
51.142950029
 31
0.0
  0
LINE
  5
514
330
1F
100
AcDbEntity
  8
0
  6
Continuous
 62
     7
370
    25
100
AcDbLine
 10
129.5523058818
 20
51.2797248945
 30
0.0
 11
129.9765699505
 21
51.034802461
 31
0.0
  0
LINE
  5
515
330
1F
100
AcDbEntity
  8
0
  6
Continuous
 62
     7
370
    25
100
AcDbLine
 10
131.1442228051
 20
54.1584965415
 30
0.0
 11
131.6570964565
 21
53.5893702392
 31
0.0
  0
LINE
  5
516
330
1F
100
AcDbEntity
  8
0
  6
Continuous
 62
     7
370
    25
100
AcDbLine
 10
132.290737598
 20
54.8203654432
 30
0.0
 11
132.290737598
 21
52.8605878747
 31
0.0
  0
LINE
  5
517
330
1F
100
AcDbEntity
  8
0
  6
Continuous
 62
     7
370
    25
100
AcDbLine
 10
132.290737598
 20
52.8605878747
 30
0.0
 11
131.7909488167
 21
52.5720659525
 31
0.0
  0
LINE
  5
518
330
1F
100
AcDbEntity
  8
0
  6
Continuous
 62
     7
370
    25
100
AcDbLine
 10
130.8581576258
 20
53.3811676492
 30
0.0
 11
130.8581576258
 21
52.0335770601
 31
0.0
  0
LINE
  5
519
330
1F
100
AcDbEntity
  8
0
  6
Continuous
 62
     7
370
    25
100
AcDbLine
 10
130.8581576258
 20
52.0335770601
 30
0.0
 11
130.6763301677
 21
51.9286103029
 31
0.0
  0
LINE
  5
51A
330
1F
100
AcDbEntity
  8
0
  6
Continuous
 62
     7
370
    25
100
AcDbLine
 10
131.6570964565
 20
53.5893702392
 30
0.0
 11
132.0813605252
 21
53.3444478056
 31
0.0
  0
LINE
  5
51B
330
1F
100
AcDbEntity
  8
0
  6
Continuous
 62
     7
370
    25
100
AcDbLine
 10
130.8581576258
 20
52.0335770601
 30
0.0
 11
131.2824216945
 21
51.7886546265
 31
0.0
  0
LINE
  5
51C
330
1F
100
AcDbEntity
  8
0
  6
Continuous
 62
     7
370
    25
100
AcDbLine
 10
130.8581576258
 20
53.3811676492
 30
0.0
 11
131.2824216945
 21
53.1362452156
 31
0.0
  0
LINE
  5
51D
330
1F
100
AcDbEntity
  8
0
  6
Continuous
 62
     7
370
    25
100
AcDbLine
 10
132.290737598
 20
52.8605878747
 30
0.0
 11
132.7150016667
 21
52.6156654411
 31
0.0
  0
LINE
  5
51E
330
1F
100
AcDbEntity
  8
0
  6
Continuous
 62
     7
370
    25
100
AcDbLine
 10
139.3985382297
 20
58.3827856753
 30
0.0
 11
139.3985382297
 21
58.3318048098
 31
0.0
  0
LINE
  5
51F
330
1F
100
AcDbEntity
  8
0
  6
Continuous
 62
     7
370
    25
100
AcDbLine
 10
139.3985382297
 20
58.3318048098
 30
0.0
 11
138.2524742519
 21
57.6701961582
 31
0.0
  0
LINE
  5
520
330
1F
100
AcDbEntity
  8
0
  6
Continuous
 62
     7
370
    25
100
AcDbLine
 10
139.3985382297
 20
58.3318048098
 30
0.0
 11
139.8228022984
 21
58.0868823763
 31
0.0
  0
LINE
  5
521
330
1F
100
AcDbEntity
  8
0
  6
Continuous
 62
     7
370
    25
100
AcDbLine
 10
139.3985382297
 20
57.5556404373
 30
0.0
 11
139.3985382297
 21
57.5046595718
 31
0.0
  0
LINE
  5
522
330
1F
100
AcDbEntity
  8
0
  6
Continuous
 62
     7
370
    25
100
AcDbLine
 10
139.3985382297
 20
57.5046595718
 30
0.0
 11
138.2524742519
 21
56.8430509202
 31
0.0
  0
LINE
  5
523
330
1F
100
AcDbEntity
  8
0
  6
Continuous
 62
     7
370
    25
100
AcDbLine
 10
139.3985382297
 20
57.5046595718
 30
0.0
 11
139.8228022984
 21
57.2597371383
 31
0.0
  0
LINE
  5
524
330
1F
100
AcDbEntity
  8
0
  6
Continuous
 62
     7
370
    25
100
AcDbLine
 10
141.5859776489
 20
59.6455675729
 30
0.0
 11
141.5859776489
 21
59.5945867075
 31
0.0
  0
LINE
  5
525
330
1F
100
AcDbEntity
  8
0
  6
Continuous
 62
     7
370
    25
100
AcDbLine
 10
141.5859776489
 20
59.5945867075
 30
0.0
 11
140.4399136711
 21
58.9329780558
 31
0.0
  0
LINE
  5
526
330
1F
100
AcDbEntity
  8
0
  6
Continuous
 62
     7
370
    25
100
AcDbLine
 10
141.5859776489
 20
59.5945867075
 30
0.0
 11
142.0102417176
 21
59.3496642739
 31
0.0
  0
LINE
  5
527
330
1F
100
AcDbEntity
  8
0
  6
Continuous
 62
     7
370
    25
100
AcDbLine
 10
141.5859776489
 20
58.8184223349
 30
0.0
 11
141.5859776489
 21
58.7674414695
 31
0.0
  0
LINE
  5
528
330
1F
100
AcDbEntity
  8
0
  6
Continuous
 62
     7
370
    25
100
AcDbLine
 10
141.5859776489
 20
58.7674414695
 30
0.0
 11
140.4399136711
 21
58.1058328178
 31
0.0
  0
LINE
  5
529
330
1F
100
AcDbEntity
  8
0
  6
Continuous
 62
     7
370
    25
100
AcDbLine
 10
141.5859776489
 20
58.7674414695
 30
0.0
 11
142.0102417176
 21
58.5225190359
 31
0.0
  0
LINE
  5
52A
330
1F
100
AcDbEntity
  8
0
  6
Continuous
 62
     7
370
    25
100
AcDbLine
 10
142.5722538606
 20
60.2743674506
 30
0.0
 11
143.1526898085
 21
60.3558706328
 31
0.0
  0
LINE
  5
52B
330
1F
100
AcDbEntity
  8
0
  6
Continuous
 62
     7
370
    25
100
AcDbLine
 10
143.800966683
 20
60.4577117103
 30
0.0
 11
143.800966683
 21
60.7121931701
 31
0.0
  0
LINE
  5
52C
330
1F
100
AcDbEntity
  8
0
  6
Continuous
 62
     7
370
    25
100
AcDbLine
 10
143.5062289255
 20
60.1517768448
 30
0.0
 11
143.800966683
 21
60.4577117103
 31
0.0
  0
LINE
  5
52D
330
1F
100
AcDbEntity
  8
0
  6
Continuous
 62
     7
370
    25
100
AcDbLine
 10
143.1526898085
 20
60.3558706328
 30
0.0
 11
143.5769538772
 21
60.1109481993
 31
0.0
  0
LINE
  5
52E
330
1F
100
AcDbEntity
  8
0
  6
Continuous
 62
     7
370
    25
100
AcDbLine
 10
143.800966683
 20
60.4577117103
 30
0.0
 11
144.2252307517
 21
60.2127892768
 31
0.0
  0
LINE
  5
52F
330
1F
100
AcDbEntity
  8
0
  6
Continuous
 62
     7
370
    25
100
AcDbLine
 10
149.9132146437
 20
64.9936048982
 30
0.0
 11
150.2613513656
 21
63.9217703615
 31
0.0
  0
LINE
  5
530
330
1F
100
AcDbEntity
  8
0
  6
Continuous
 62
     7
370
    25
100
AcDbLine
 10
151.246189762
 20
65.7631150545
 30
0.0
 11
150.7336992149
 21
63.8831128852
 31
0.0
  0
LINE
  5
531
330
1F
100
AcDbEntity
  8
0
  6
Continuous
 62
     7
370
    25
100
AcDbLine
 10
150.6785785604
 20
63.6809102287
 30
0.0
 11
150.6121784922
 21
63.4373305706
 31
0.0
  0
LINE
  5
532
330
1F
100
AcDbEntity
  8
0
  6
Continuous
 62
     7
370
    25
100
AcDbLine
 10
150.6121784922
 20
63.4373305706
 30
0.0
 11
150.1601327508
 21
63.1763701187
 31
0.0
  0
LINE
  5
533
330
1F
100
AcDbEntity
  8
0
  6
Continuous
 62
     7
370
    25
100
AcDbLine
 10
150.2613513656
 20
63.9217703615
 30
0.0
 11
150.6856154343
 21
63.6768479279
 31
0.0
  0
LINE
  5
534
330
1F
100
AcDbEntity
  8
0
  6
Continuous
 62
     7
370
    25
100
AcDbLine
 10
150.6121784922
 20
63.4373305706
 30
0.0
 11
151.036442561
 21
63.192408137
 31
0.0
  0
LINE
  5
535
330
1F
100
AcDbEntity
  8
0
  6
Continuous
 62
     7
370
    25
100
AcDbLine
 10
154.3194096332
 20
67.5690604011
 30
0.0
 11
154.3194096332
 21
65.5774695541
 31
0.0
  0
LINE
  5
536
330
1F
100
AcDbEntity
  8
0
  6
Continuous
 62
     7
370
    25
100
AcDbLine
 10
154.3194096332
 20
65.5774695541
 30
0.0
 11
154.1375821752
 21
65.4725027969
 31
0.0
  0
LINE
  5
537
330
1F
100
AcDbEntity
  8
0
  6
Continuous
 62
     7
370
    25
100
AcDbLine
 10
153.8242872317
 20
66.8014060053
 30
0.0
 11
154.1375821752
 21
66.6205446842
 31
0.0
  0
LINE
  5
538
330
1F
100
AcDbEntity
  8
0
  6
Continuous
 62
     7
370
    25
100
AcDbLine
 10
154.3194096332
 20
65.5774695541
 30
0.0
 11
154.7436737019
 21
65.3325471206
 31
0.0
  0
LINE
  5
539
330
1F
100
AcDbEntity
  8
0
  6
Continuous
 62
     7
370
    25
100
AcDbLine
 10
156.8486973426
 20
68.9638472222
 30
0.0
 11
156.8873781076
 21
68.86980349
 31
0.0
  0
SPLINE
  5
53A
330
1F
100
AcDbEntity
  8
0
  6
Continuous
 62
     7
370
    25
100
AcDbSpline
210
0.0
220
0.0
230
1.0
 70
     8
 71
     3
 72
     9
 73
     5
 74
     0
 42
0.000000001
 43
0.00000001
 40
0.0
 40
0.0
 40
0.0
 40
0.0
 40
0.559914821953931
 40
1.0
 40
1.0
 40
1.0
 40
1.0
 10
156.8873781075705
 20
68.86980349003642
 30
0.0
 10
156.9069226943341
 20
68.77642670517123
 30
0.0
 10
156.9418290515107
 20
68.60965708021409
 30
0.0
 10
156.9458662005877
 20
68.42096164944765
 30
0.0
 10
156.947642890058
 20
68.33791958720232
 30
0.0
  0
SPLINE
  5
53B
330
1F
100
AcDbEntity
  8
0
  6
Continuous
 62
     7
370
    25
100
AcDbSpline
210
0.0
220
0.0
230
1.0
 70
     8
 71
     3
 72
    10
 73
     6
 74
     0
 42
0.000000001
 43
0.00000001
 40
0.0
 40
0.0
 40
0.0
 40
0.0
 40
0.3754040247182868
 40
0.750415346917045
 40
1.0
 40
1.0
 40
1.0
 40
1.0
 10
156.947642890058
 20
68.33791958720232
 30
0.0
 10
156.9440870734524
 20
68.21879075231483
 30
0.0
 10
156.9369791599085
 20
67.98065770079253
 30
0.0
 10
156.8958096158567
 20
67.64019277876561
 30
0.0
 10
156.8066381183522
 20
67.42074585703692
 30
0.0
 10
156.7710057445452
 20
67.33305623687076
 30
0.0
  0
SPLINE
  5
53C
330
1F
100
AcDbEntity
  8
0
  6
Continuous
 62
     7
370
    25
100
AcDbSpline
210
0.0
220
0.0
230
1.0
 70
     8
 71
     3
 72
     9
 73
     5
 74
     0
 42
0.000000001
 43
0.00000001
 40
0.0
 40
0.0
 40
0.0
 40
0.0
 40
0.1798888021457096
 40
1.0
 40
1.0
 40
1.0
 40
1.0
 10
156.3540968485326
 20
66.76038096520566
 30
0.0
 10
156.3374089736944
 20
66.74437124163204
 30
0.0
 10
156.2446412491937
 20
66.6553733530329
 30
0.0
 10
156.1458135386728
 20
66.59925285428884
 30
0.0
 10
156.0647638266163
 20
66.55322780483964
 30
0.0
  0
SPLINE
  5
53D
330
1F
100
AcDbEntity
  8
0
  6
Continuous
 62
     7
370
    25
100
AcDbSpline
210
0.0
220
0.0
230
1.0
 70
     8
 71
     3
 72
     9
 73
     5
 74
     0
 42
0.000000001
 43
0.00000001
 40
0.0
 40
0.0
 40
0.0
 40
0.0
 40
0.6302640878253429
 40
1.0
 40
1.0
 40
1.0
 40
1.0
 10
156.0647638266163
 20
66.55322780483964
 30
0.0
 10
155.9867834310232
 20
66.50876384077124
 30
0.0
 10
155.8630568898805
 20
66.43821569289592
 30
0.0
 10
155.7477778689176
 20
66.42143798334581
 30
0.0
 10
155.7051550749473
 20
66.41523466160109
 30
0.0
  0
LINE
  5
53E
330
1F
100
AcDbEntity
  8
0
  6
Continuous
 62
     7
370
    25
100
AcDbLine
 10
155.789844244
 20
68.0524571556
 30
0.0
 11
155.7630094514
 21
67.6381386206
 31
0.0
  0
SPLINE
  5
53F
330
1F
100
AcDbEntity
  8
0
  6
Continuous
 62
     7
370
    25
100
AcDbSpline
210
0.0
220
0.0
230
1.0
 70
     8
 71
     3
 72
    10
 73
     6
 74
     0
 42
0.000000001
 43
0.00000001
 40
0.0
 40
0.0
 40
0.0
 40
0.0
 40
0.6480464471305094
 40
0.9692349981147698
 40
1.0
 40
1.0
 40
1.0
 40
1.0
 10
155.7630094514468
 20
67.63813862057384
 30
0.0
 10
155.7664659690366
 20
67.48536461002234
 30
0.0
 10
155.7716356259871
 20
67.25687185539876
 30
0.0
 10
155.8316261820998
 20
67.03175953341876
 30
0.0
 10
155.8922293329215
 20
67.01615448011712
 30
0.0
 10
155.8975267820709
 20
67.01479040951652
 30
0.0
  0
LINE
  5
540
330
1F
100
AcDbEntity
  8
0
  6
Continuous
 62
     7
370
    25
100
AcDbLine
 10
156.8873781076
 20
68.86980349
 30
0.0
 11
157.3116421763
 21
68.6248810565
 31
0.0
  0
SPLINE
  5
541
330
1F
100
AcDbEntity
  8
0
  6
Continuous
 62
     7
370
    25
100
AcDbSpline
210
0.0
220
0.0
230
1.0
 70
     8
 71
     3
 72
    13
 73
     9
 74
     0
 42
0.000000001
 43
0.00000001
 40
0.0
 40
0.0
 40
0.0
 40
0.0
 40
0.1246586177868363
 40
0.2492332997838087
 40
0.3740937670272868
 40
0.4992288385196216
 40
0.7494816988300086
 40
1.0
 40
1.0
 40
1.0
 40
1.0
 10
156.4881669698641
 20
66.78500754537873
 30
0.0
 10
156.5222485226275
 20
66.80862063174258
 30
0.0
 10
156.5903886801856
 20
66.85583090518399
 30
0.0
 10
156.6765043652946
 20
66.97669097964985
 30
0.0
 10
156.7315685522083
 20
67.10881694673675
 30
0.0
 10
156.7736036393812
 20
67.28292083931437
 30
0.0
 10
156.7907447922739
 20
67.48883721696716
 30
0.0
 10
156.792491320094
 20
67.64639150683779
 30
0.0
 10
156.79336504689
 20
67.72521040871652
 30
0.0
  0
SPLINE
  5
542
330
1F
100
AcDbEntity
  8
0
  6
Continuous
 62
     7
370
    25
100
AcDbSpline
210
0.0
220
0.0
230
1.0
 70
     8
 71
     3
 72
    11
 73
     7
 74
     0
 42
0.000000001
 43
0.00000001
 40
0.0
 40
0.0
 40
0.0
 40
0.0
 40
0.5017456673382782
 40
0.7504237745458585
 40
0.8751718942707116
 40
1.0
 40
1.0
 40
1.0
 40
1.0
 10
156.1872735201587
 20
67.39321618702702
 30
0.0
 10
156.1880906627057
 20
67.23501152604054
 30
0.0
 10
156.1893128021966
 20
66.99839655041346
 30
0.0
 10
156.2731762632372
 20
66.77696833859977
 30
0.0
 10
156.3845509163914
 20
66.73765665954011
 30
0.0
 10
156.4536209066889
 20
66.76922054482468
 30
0.0
 10
156.4881669698641
 20
66.78500754537873
 30
0.0
  0
SPLINE
  5
543
330
1F
100
AcDbEntity
  8
0
  6
Continuous
 62
     7
370
    25
100
AcDbSpline
210
0.0
220
0.0
230
1.0
 70
     8
 71
     3
 72
    11
 73
     7
 74
     0
 42
0.000000001
 43
0.00000001
 40
0.0
 40
0.0
 40
0.0
 40
0.0
 40
0.1249457297153986
 40
0.249602151103225
 40
0.4981876791784047
 40
1.0
 40
1.0
 40
1.0
 40
1.0
 10
156.4847232680077
 20
68.34187017948572
 30
0.0
 10
156.4502594199894
 20
68.3184870426317
 30
0.0
 10
156.381411524025
 20
68.27177491192023
 30
0.0
 10
156.2661588115456
 20
68.10710649646678
 30
0.0
 10
156.1901024952464
 20
67.78788381646436
 30
0.0
 10
156.1884072072893
 20
67.55137580261746
 30
0.0
 10
156.1872735201587
 20
67.39321618702702
 30
0.0
  0
SPLINE
  5
544
330
1F
100
AcDbEntity
  8
0
  6
Continuous
 62
     7
370
    25
100
AcDbSpline
210
0.0
220
0.0
230
1.0
 70
     8
 71
     3
 72
    11
 73
     7
 74
     0
 42
0.000000001
 43
0.00000001
 40
0.0
 40
0.0
 40
0.0
 40
0.0
 40
0.5018862577432661
 40
0.7503493362982697
 40
0.8750598519788132
 40
0.9999999999999999
 40
0.9999999999999999
 40
0.9999999999999999
 40
0.9999999999999999
 10
156.79336504689
 20
67.72521040871652
 30
0.0
 10
156.7929209084854
 20
67.88686247529046
 30
0.0
 10
156.7922568955703
 20
68.12854177810783
 30
0.0
 10
156.7083991139299
 20
68.35944634243191
 30
0.0
 10
156.5906023615582
 20
68.39180560103566
 30
0.0
 10
156.5200379345893
 20
68.35852552383669
 30
0.0
 10
156.4847232680077
 20
68.34187017948572
 30
0.0
  0
LINE
  5
545
330
1F
100
AcDbEntity
  8
0
  6
Continuous
 62
     7
370
    25
100
AcDbLine
 10
155.7630094514
 20
67.6381386206
 30
0.0
 11
156.1872735202
 21
67.393216187
 31
0.0
  0
LINE
  5
546
330
1F
100
AcDbEntity
  8
0
  6
Continuous
 62
     7
370
    25
100
AcDbLine
 10
156.1319052585
 20
68.545547681
 30
0.0
 11
156.484723268
 21
68.3418701795
 31
0.0
  0
LINE
  5
547
330
1F
100
AcDbEntity
  8
0
  6
Continuous
 62
     7
370
    25
100
AcDbLine
 10
156.0647638266
 20
66.5532278048
 30
0.0
 11
156.4890278953
 21
66.3083053713
 31
0.0
  0
LINE
  5
548
330
1F
100
AcDbEntity
  8
0
  6
Continuous
 62
     7
370
    25
100
AcDbLine
 10
156.9476428901
 20
68.3379195872
 30
0.0
 11
157.3719069588
 21
68.0929971537
 31
0.0
  0
LINE
  5
549
330
1F
100
AcDbEntity
  8
0
  6
Continuous
 62
     7
370
    25
100
AcDbLine
 10
159.0636863767
 20
70.242533174
 30
0.0
 11
159.1023671416
 21
70.1484894418
 31
0.0
  0
SPLINE
  5
54A
330
1F
100
AcDbEntity
  8
0
  6
Continuous
 62
     7
370
    25
100
AcDbSpline
210
0.0
220
0.0
230
1.0
 70
     8
 71
     3
 72
     9
 73
     5
 74
     0
 42
0.000000001
 43
0.00000001
 40
0.0
 40
0.0
 40
0.0
 40
0.0
 40
0.5599148219539377
 40
1.0
 40
1.0
 40
1.0
 40
1.0
 10
159.102367141625
 20
70.14848944180031
 30
0.0
 10
159.1219117283886
 20
70.05511265693515
 30
0.0
 10
159.1568180855652
 20
69.88834303197804
 30
0.0
 10
159.1608552346422
 20
69.69964760121154
 30
0.0
 10
159.1626319241125
 20
69.6166055389662
 30
0.0
  0
SPLINE
  5
54B
330
1F
100
AcDbEntity
  8
0
  6
Continuous
 62
     7
370
    25
100
AcDbSpline
210
0.0
220
0.0
230
1.0
 70
     8
 71
     3
 72
    10
 73
     6
 74
     0
 42
0.000000001
 43
0.00000001
 40
0.0
 40
0.0
 40
0.0
 40
0.0
 40
0.375404024718303
 40
0.7504153469170773
 40
0.9999999999999999
 40
0.9999999999999999
 40
0.9999999999999999
 40
0.9999999999999999
 10
159.1626319241125
 20
69.6166055389662
 30
0.0
 10
159.1590761075068
 20
69.49747670407871
 30
0.0
 10
159.1519681939631
 20
69.25934365255638
 30
0.0
 10
159.1107986499112
 20
68.91887873052953
 30
0.0
 10
159.0216271524067
 20
68.69943180880084
 30
0.0
 10
158.9859947785997
 20
68.61174218863468
 30
0.0
  0
SPLINE
  5
54C
330
1F
100
AcDbEntity
  8
0
  6
Continuous
 62
     7
370
    25
100
AcDbSpline
210
0.0
220
0.0
230
1.0
 70
     8
 71
     3
 72
     9
 73
     5
 74
     0
 42
0.000000001
 43
0.00000001
 40
0.0
 40
0.0
 40
0.0
 40
0.0
 40
0.1798888021457096
 40
1.0
 40
1.0
 40
1.0
 40
1.0
 10
158.5690858825871
 20
68.03906691696953
 30
0.0
 10
158.5523980077489
 20
68.02305719339593
 30
0.0
 10
158.4596302832482
 20
67.93405930479678
 30
0.0
 10
158.3608025727272
 20
67.87793880605271
 30
0.0
 10
158.2797528606708
 20
67.83191375660351
 30
0.0
  0
SPLINE
  5
54D
330
1F
100
AcDbEntity
  8
0
  6
Continuous
 62
     7
370
    25
100
AcDbSpline
210
0.0
220
0.0
230
1.0
 70
     8
 71
     3
 72
     9
 73
     5
 74
     0
 42
0.000000001
 43
0.00000001
 40
0.0
 40
0.0
 40
0.0
 40
0.0
 40
0.630264087825377
 40
1.0
 40
1.0
 40
1.0
 40
1.0
 10
158.2797528606708
 20
67.83191375660351
 30
0.0
 10
158.2017724650777
 20
67.78744979253513
 30
0.0
 10
158.078045923935
 20
67.71690164465983
 30
0.0
 10
157.9627669029721
 20
67.70012393510966
 30
0.0
 10
157.9201441090018
 20
67.69392061336498
 30
0.0
  0
LINE
  5
54E
330
1F
100
AcDbEntity
  8
0
  6
Continuous
 62
     7
370
    25
100
AcDbLine
 10
158.004833278
 20
69.3311431074
 30
0.0
 11
157.9779984855
 21
68.9168245723
 31
0.0
  0
SPLINE
  5
54F
330
1F
100
AcDbEntity
  8
0
  6
Continuous
 62
     7
370
    25
100
AcDbSpline
210
0.0
220
0.0
230
1.0
 70
     8
 71
     3
 72
    10
 73
     6
 74
     0
 42
0.000000001
 43
0.00000001
 40
0.0
 40
0.0
 40
0.0
 40
0.0
 40
0.648046447130663
 40
0.9692349981150099
 40
1.0
 40
1.0
 40
1.0
 40
1.0
 10
157.9779984855012
 20
68.91682457233772
 30
0.0
 10
157.9814550030911
 20
68.76405056178618
 30
0.0
 10
157.9866246600417
 20
68.53555780716255
 30
0.0
 10
158.0466152161542
 20
68.31044548518281
 30
0.0
 10
158.107218366976
 20
68.29484043188101
 30
0.0
 10
158.1125158161254
 20
68.29347636128045
 30
0.0
  0
LINE
  5
550
330
1F
100
AcDbEntity
  8
0
  6
Continuous
 62
     7
370
    25
100
AcDbLine
 10
159.1023671416
 20
70.1484894418
 30
0.0
 11
159.5266312103
 21
69.9035670083
 31
0.0
  0
LINE
  5
551
330
1F
100
AcDbEntity
  8
0
  6
Continuous
 62
     7
370
    25
100
AcDbLine
 10
157.9779984855
 20
68.9168245723
 30
0.0
 11
158.4022625542
 21
68.6719021388
 31
0.0
  0
LINE
  5
552
330
1F
100
AcDbEntity
  8
0
  6
Continuous
 62
     7
370
    25
100
AcDbLine
 10
158.3468942926
 20
69.8242336327
 30
0.0
 11
158.6997123021
 21
69.6205561312
 31
0.0
  0
SPLINE
  5
553
330
1F
100
AcDbEntity
  8
0
  6
Continuous
 62
     7
370
    25
100
AcDbSpline
210
0.0
220
0.0
230
1.0
 70
     8
 71
     3
 72
    11
 73
     7
 74
     0
 42
0.000000001
 43
0.00000001
 40
0.0
 40
0.0
 40
0.0
 40
0.0
 40
0.1249457297153626
 40
0.2496021511032065
 40
0.4981876791783975
 40
1.0
 40
1.0
 40
1.0
 40
1.0
 10
158.6997123020622
 20
69.62055613124961
 30
0.0
 10
158.6652484540439
 20
69.59717299439559
 30
0.0
 10
158.5964005580795
 20
69.55046086368414
 30
0.0
 10
158.4811478456
 20
69.38579244823066
 30
0.0
 10
158.4050915293009
 20
69.06656976822826
 30
0.0
 10
158.4033962413439
 20
68.83006175438138
 30
0.0
 10
158.4022625542132
 20
68.67190213879091
 30
0.0
  0
SPLINE
  5
554
330
1F
100
AcDbEntity
  8
0
  6
Continuous
 62
     7
370
    25
100
AcDbSpline
210
0.0
220
0.0
230
1.0
 70
     8
 71
     3
 72
    13
 73
     9
 74
     0
 42
0.000000001
 43
0.00000001
 40
0.0
 40
0.0
 40
0.0
 40
0.0
 40
0.1246586177868357
 40
0.2492332997838076
 40
0.3740937670272958
 40
0.4992288385196238
 40
0.7494816988300095
 40
1.0
 40
1.0
 40
1.0
 40
1.0
 10
158.7031560039186
 20
68.06369349714262
 30
0.0
 10
158.7372375566819
 20
68.08730658350646
 30
0.0
 10
158.8053777142401
 20
68.13451685694787
 30
0.0
 10
158.8914933993491
 20
68.25537693141372
 30
0.0
 10
158.9465575862627
 20
68.38750289850064
 30
0.0
 10
158.9885926734357
 20
68.56160679107822
 30
0.0
 10
159.0057338263284
 20
68.76752316873103
 30
0.0
 10
159.0074803541485
 20
68.92507745860165
 30
0.0
 10
159.0083540809445
 20
69.00389636048041
 30
0.0
  0
SPLINE
  5
555
330
1F
100
AcDbEntity
  8
0
  6
Continuous
 62
     7
370
    25
100
AcDbSpline
210
0.0
220
0.0
230
1.0
 70
     8
 71
     3
 72
    11
 73
     7
 74
     0
 42
0.000000001
 43
0.00000001
 40
0.0
 40
0.0
 40
0.0
 40
0.0
 40
0.5017456673382835
 40
0.7504237745458746
 40
0.8751718942707291
 40
1.0
 40
1.0
 40
1.0
 40
1.0
 10
158.4022625542132
 20
68.67190213879091
 30
0.0
 10
158.4030796967602
 20
68.51369747780443
 30
0.0
 10
158.4043018362511
 20
68.27708250217736
 30
0.0
 10
158.4881652972917
 20
68.05565429036363
 30
0.0
 10
158.5995399504458
 20
68.01634261130401
 30
0.0
 10
158.6686099407434
 20
68.04790649658855
 30
0.0
 10
158.7031560039186
 20
68.06369349714261
 30
0.0
  0
SPLINE
  5
556
330
1F
100
AcDbEntity
  8
0
  6
Continuous
 62
     7
370
    25
100
AcDbSpline
210
0.0
220
0.0
230
1.0
 70
     8
 71
     3
 72
    11
 73
     7
 74
     0
 42
0.000000001
 43
0.00000001
 40
0.0
 40
0.0
 40
0.0
 40
0.0
 40
0.5018862577432615
 40
0.7503493362982714
 40
0.8750598519788141
 40
1.0
 40
1.0
 40
1.0
 40
1.0
 10
159.0083540809445
 20
69.00389636048041
 30
0.0
 10
159.0079099425399
 20
69.16554842705435
 30
0.0
 10
159.0072459296247
 20
69.40722772987172
 30
0.0
 10
158.9233881479845
 20
69.63813229419583
 30
0.0
 10
158.8055913956127
 20
69.6704915527995
 30
0.0
 10
158.7350269686438
 20
69.63721147560055
 30
0.0
 10
158.6997123020622
 20
69.62055613124961
 30
0.0
  0
LINE
  5
557
330
1F
100
AcDbEntity
  8
0
  6
Continuous
 62
     7
370
    25
100
AcDbLine
 10
158.2797528607
 20
67.8319137566
 30
0.0
 11
158.7040169294
 21
67.5869913231
 31
0.0
  0
LINE
  5
558
330
1F
100
AcDbEntity
  8
0
  6
Continuous
 62
     7
370
    25
100
AcDbLine
 10
159.1626319241
 20
69.616605539
 30
0.0
 11
159.5868959928
 21
69.3716831054
 31
0.0
  0
LINE
  5
559
330
1F
100
AcDbEntity
  8
0
  6
Continuous
 62
     7
370
    25
100
AcDbLine
 10
179.0391096807
 20
81.8892224305
 30
0.0
 11
179.6557067939
 21
82.2452342245
 31
0.0
  0
LINE
  5
55A
330
1F
100
AcDbEntity
  8
0
  6
Continuous
 62
     7
370
    25
100
AcDbLine
 10
179.0391096807
 20
81.8892224305
 30
0.0
 11
163.1560771617
 21
72.7201429266
 31
0.0
  0
LINE
  5
55B
330
1F
100
AcDbEntity
  8
0
  6
Continuous
 62
     7
370
    25
100
AcDbLine
 10
179.0391096807
 20
80.0699695016
 30
0.0
 11
179.0391096807
 21
81.8892224305
 31
0.0
  0
LINE
  5
55C
330
1F
100
AcDbEntity
  8
0
  6
Continuous
 62
     7
370
    25
100
AcDbLine
 10
163.1560771617
 20
70.9008899978
 30
0.0
 11
179.0391096807
 21
80.0699695016
 31
0.0
  0
LINE
  5
55D
330
1F
100
AcDbEntity
  8
0
  6
Continuous
 62
     7
370
    25
100
AcDbLine
 10
179.0391096807
 20
80.0699695016
 30
0.0
 11
179.6557067939
 21
79.7139577077
 31
0.0
  0
LINE
  5
55E
330
1F
100
AcDbEntity
  8
0
  6
Continuous
 62
     7
370
    25
100
AcDbLine
 10
202.6098071248
 20
95.4962964303
 30
0.0
 11
203.226404238
 21
95.8523082243
 31
0.0
  0
LINE
  5
55F
330
1F
100
AcDbEntity
  8
0
  6
Continuous
 62
     7
370
    25
100
AcDbLine
 10
202.6098071248
 20
95.4962964303
 30
0.0
 11
186.7267746058
 21
86.3272169264
 31
0.0
  0
LINE
  5
560
330
1F
100
AcDbEntity
  8
0
  6
Continuous
 62
     7
370
    25
100
AcDbLine
 10
202.6098071248
 20
93.6770435014
 30
0.0
 11
202.6098071248
 21
95.4962964303
 31
0.0
  0
LINE
  5
561
330
1F
100
AcDbEntity
  8
0
  6
Continuous
 62
     7
370
    25
100
AcDbLine
 10
186.7267746058
 20
84.5079639975
 30
0.0
 11
202.6098071248
 21
93.6770435014
 31
0.0
  0
LINE
  5
562
330
1F
100
AcDbEntity
  8
0
  6
Continuous
 62
     7
370
    25
100
AcDbLine
 10
202.6098071248
 20
93.6770435014
 30
0.0
 11
203.226404238
 21
93.3210317074
 31
0.0
  0
LINE
  5
563
330
1F
100
AcDbEntity
  8
0
  6
Continuous
 62
     8
370
    18
100
AcDbLine
 10
206.4686079628
 20
104.8397898434
 30
0.0
 11
65.0472517255
 21
23.1989786612
 31
0.0
  0
LINE
  5
564
330
1F
100
AcDbEntity
  8
0
  6
Continuous
 62
     8
370
    18
100
AcDbLine
 10
206.7619381439
 20
104.3317270678
 30
0.0
 11
65.3405819066
 21
22.6909158856
 31
0.0
  0
LINE
  5
565
330
1F
100
AcDbEntity
  8
0
  6
Continuous
 62
     8
370
    18
100
AcDbLine
 10
65.0472517255
 20
22.8725256446
 30
0.0
 11
65.0472517255
 21
23.1989786612
 31
0.0
  0
LINE
  5
566
330
1F
100
AcDbEntity
  8
0
  6
Continuous
 62
     8
370
    18
100
AcDbLine
 10
65.3405819066
 20
22.6909158856
 30
0.0
 11
65.0578806155
 21
22.8541158671
 31
0.0
  0
LINE
  5
567
330
1F
100
AcDbEntity
  8
0
  6
Continuous
 62
     8
370
    18
100
AcDbLine
 10
65.3405819066
 20
16.8198241399
 30
0.0
 11
206.7619381439
 21
98.4606353222
 31
0.0
  0
LINE
  5
568
330
1F
100
AcDbEntity
  8
0
  6
Continuous
 62
     8
370
    18
100
AcDbLine
 10
65.0578806155
 20
16.9830241215
 30
0.0
 11
65.3405819066
 21
16.8198241399
 31
0.0
  0
LINE
  5
569
330
1F
100
AcDbEntity
  8
0
  6
Continuous
 62
     8
370
    18
100
AcDbLine
 10
206.4437400924
 20
104.8541457595
 30
0.0
 11
65.0223838551
 21
23.2133345772
 31
0.0
  0
LINE
  5
56A
330
1F
100
AcDbEntity
  8
0
  6
Continuous
 62
     8
370
    18
100
AcDbLine
 10
65.0223838551
 20
23.2133345772
 30
0.0
 11
65.0223838551
 21
22.8868815606
 31
0.0
  0
LINE
  5
56B
330
1F
100
AcDbEntity
  8
0
  6
Continuous
 62
     8
370
    18
100
AcDbLine
 10
65.0222424337
 20
22.8867998932
 30
0.0
 11
64.7395411426
 21
23.0499998748
 31
0.0
  0
LINE
  5
56C
330
1F
100
AcDbEntity
  8
0
  6
Continuous
 62
     8
370
    18
100
AcDbLine
 10
65.022383878
 20
22.8868815473
 30
0.0
 11
65.0222424337
 21
22.8867998932
 31
0.0
  0
LINE
  5
56D
330
1F
100
AcDbEntity
  8
0
  6
Continuous
 62
     8
370
    18
100
AcDbLine
 10
65.0578806155
 20
20.1311346173
 30
0.0
 11
65.0222424337
 21
20.1105611328
 31
0.0
  0
LINE
  5
56E
330
1F
100
AcDbEntity
  8
0
  6
Continuous
 62
     8
370
    18
100
AcDbLine
 10
64.7395411426
 20
20.2737611144
 30
0.0
 11
65.0222424337
 21
20.1105611328
 31
0.0
  0
LINE
  5
56F
330
1F
100
AcDbEntity
  8
0
  6
Continuous
 62
     8
370
    18
100
AcDbLine
 10
64.5274091082
 20
19.824807071
 30
0.0
 11
64.5274091082
 21
20.1512600876
 31
0.0
  0
LINE
  5
570
330
1F
100
AcDbEntity
  8
0
  6
Continuous
 62
     8
370
    18
100
AcDbLine
 10
64.7395411398
 20
20.2737213027
 30
0.0
 11
64.5274091082
 21
20.1512600876
 31
0.0
  0
LINE
  5
571
330
1F
100
AcDbEntity
  8
0
  6
Continuous
 62
     8
370
    18
100
AcDbLine
 10
64.7395411426
 20
21.6207946889
 30
0.0
 11
63.3606829193
 21
20.8247967798
 31
0.0
  0
LINE
  5
572
330
1F
100
AcDbEntity
  8
0
  6
Continuous
 62
     8
370
    18
100
AcDbLine
 10
63.3606829193
 20
20.8247967798
 30
0.0
 11
63.3606829193
 21
20.4983437633
 31
0.0
  0
LINE
  5
573
330
1F
100
AcDbEntity
  8
0
  6
Continuous
 62
     8
370
    18
100
AcDbLine
 10
65.0437384799
 20
16.9911882026
 30
0.0
 11
64.7610371887
 21
17.1543881842
 31
0.0
  0
LINE
  5
574
330
1F
100
AcDbEntity
  8
0
  6
Continuous
 62
     8
370
    18
100
AcDbLine
 10
63.1484094636
 20
20.3757610404
 30
0.0
 11
62.8657081724
 21
20.5389609836
 31
0.0
  0
LINE
  5
575
330
1F
100
AcDbEntity
  8
0
  6
Continuous
 62
     8
370
    18
100
AcDbLine
 10
62.8657081724
 20
20.4077485041
 30
0.0
 11
63.1484094636
 21
20.2445485225
 31
0.0
  0
LINE
  5
576
330
1F
100
AcDbEntity
  8
0
  6
Continuous
 62
     8
370
    18
100
AcDbLine
 10
63.2105829193
 20
20.0353266777
 30
0.0
 11
63.0106829193
 21
19.9198893496
 31
0.0
  0
LINE
  5
577
330
1F
100
AcDbEntity
  8
0
  6
Continuous
 62
     8
370
    18
100
AcDbLine
 10
63.174873193
 20
19.6355034543
 30
0.0
 11
63.374773193
 21
19.7509407824
 31
0.0
  0
LINE
  5
578
330
1F
100
AcDbEntity
  8
0
  6
Continuous
 62
     8
370
    18
100
AcDbLine
 10
63.4534114235
 20
19.0157846629
 30
0.0
 11
63.2085849237
 21
19.3203465011
 31
0.0
  0
LINE
  5
579
330
1F
100
AcDbEntity
  8
0
  6
Continuous
 62
     8
370
    18
100
AcDbLine
 10
62.9320222143
 20
18.9268473723
 30
0.0
 11
63.1768487141
 21
18.6222855341
 31
0.0
  0
LINE
  5
57A
330
1F
100
AcDbEntity
  8
0
  6
Continuous
 62
     8
370
    18
100
AcDbLine
 10
63.1484094636
 20
18.5161403881
 30
0.0
 11
62.8657081724
 21
18.6793403697
 31
0.0
  0
LINE
  5
57B
330
1F
100
AcDbEntity
  8
0
  6
Continuous
 62
     8
370
    18
100
AcDbLine
 10
63.1484094636
 20
16.872637678
 30
0.0
 11
62.8657081724
 21
17.0358376595
 31
0.0
  0
LINE
  5
57C
330
1F
100
AcDbEntity
  8
0
  6
Continuous
 62
     8
370
    18
100
AcDbLine
 10
63.1625515992
 20
16.8644735968
 30
0.0
 11
63.4452528903
 21
16.7012736153
 31
0.0
  0
LINE
  5
57D
330
1F
100
AcDbEntity
  8
0
  6
Continuous
 62
     8
370
    18
100
AcDbLine
 10
46.8497395786
 20
33.3775624894
 30
0.0
 11
188.2710958159
 21
115.0183736716
 31
0.0
  0
LINE
  5
57E
330
1F
100
AcDbEntity
  8
0
  6
Continuous
 62
     8
370
    18
100
AcDbLine
 10
46.5668968661
 20
33.8674604365
 30
0.0
 11
187.9882531034
 21
115.5082716187
 31
0.0
  0
LINE
  5
57F
330
1F
100
AcDbEntity
  8
0
  6
Continuous
 62
     8
370
    18
100
AcDbLine
 10
46.5668968661
 20
33.5410074199
 30
0.0
 11
46.5668968661
 21
33.8674604365
 31
0.0
  0
LINE
  5
580
330
1F
100
AcDbEntity
  8
0
  6
Continuous
 62
     8
370
    18
100
AcDbLine
 10
46.8497395786
 20
33.3775624894
 30
0.0
 11
46.5670382875
 21
33.5407624709
 31
0.0
  0
LINE
  5
581
330
1F
100
AcDbEntity
  8
0
  6
Continuous
 62
     8
370
    18
100
AcDbLine
 10
46.8497395786
 20
30.6013237289
 30
0.0
 11
188.2710958159
 21
112.2421349112
 31
0.0
  0
LINE
  5
582
330
1F
100
AcDbEntity
  8
0
  6
Continuous
 62
     8
370
    18
100
AcDbLine
 10
46.5670382875
 20
30.7645237105
 30
0.0
 11
46.8497395786
 21
30.6013237289
 31
0.0
  0
LINE
  5
583
330
1F
100
AcDbEntity
  8
0
  6
Continuous
 62
     8
370
    18
100
AcDbLine
 10
46.5420289957
 20
33.8818163525
 30
0.0
 11
187.963385233
 21
115.5226275348
 31
0.0
  0
LINE
  5
584
330
1F
100
AcDbEntity
  8
0
  6
Continuous
 62
     8
370
    18
100
AcDbLine
 10
46.5420289957
 20
33.8818163525
 30
0.0
 11
46.5420289957
 21
33.5553633359
 31
0.0
  0
LINE
  5
585
330
1F
100
AcDbEntity
  8
0
  6
Continuous
 62
     8
370
    18
100
AcDbLine
 10
46.5314001057
 20
33.5492254136
 30
0.0
 11
46.2486988146
 21
33.7124253952
 31
0.0
  0
LINE
  5
586
330
1F
100
AcDbEntity
  8
0
  6
Continuous
 62
     8
370
    18
100
AcDbLine
 10
46.5314001057
 20
33.5492254136
 30
0.0
 11
46.5420307233
 21
33.5553623386
 31
0.0
  0
LINE
  5
587
330
1F
100
AcDbEntity
  8
0
  6
Continuous
 62
     8
370
    18
100
AcDbLine
 10
46.5314001057
 20
27.678133668
 30
0.0
 11
46.2486988146
 21
27.8413336496
 31
0.0
  0
LINE
  5
588
330
1F
100
AcDbEntity
  8
0
  6
Continuous
 62
     8
370
    18
100
AcDbLine
 10
46.531541527
 20
27.6782153088
 30
0.0
 11
46.5314001057
 21
27.678133668
 31
0.0
  0
LINE
  5
589
330
1F
100
AcDbEntity
  8
0
  6
Continuous
 62
     8
370
    18
100
AcDbLine
 10
48.2285978019
 20
29.2339105598
 30
0.0
 11
48.2285978019
 21
29.5603635763
 31
0.0
  0
LINE
  5
58A
330
1F
100
AcDbEntity
  8
0
  6
Continuous
 62
     8
370
    18
100
AcDbLine
 10
48.7235725487
 20
28.7030421018
 30
0.0
 11
48.4408712576
 21
28.8662421217
 31
0.0
  0
LINE
  5
58B
330
1F
100
AcDbEntity
  8
0
  6
Continuous
 62
     8
370
    18
100
AcDbLine
 10
48.7235725487
 20
28.7030421018
 30
0.0
 11
190.144928786
 21
110.3438532841
 31
0.0
  0
LINE
  5
58C
330
1F
100
AcDbEntity
  8
0
  6
Continuous
 62
     8
370
    18
100
AcDbLine
 10
48.2285978019
 20
29.5603635763
 30
0.0
 11
189.6499540392
 21
111.2011747586
 31
0.0
  0
LINE
  5
58D
330
1F
100
AcDbEntity
  8
0
  6
Continuous
 62
     8
370
    18
100
AcDbLine
 10
48.4408712576
 20
28.7350296039
 30
0.0
 11
48.7235725487
 21
28.5718296223
 31
0.0
  0
LINE
  5
58E
330
1F
100
AcDbEntity
  8
0
  6
Continuous
 62
     8
370
    18
100
AcDbLine
 10
48.7235725487
 20
28.5718296223
 30
0.0
 11
190.144928786
 21
110.2126408046
 31
0.0
  0
LINE
  5
58F
330
1F
100
AcDbEntity
  8
0
  6
Continuous
 62
     8
370
    18
100
AcDbLine
 10
47.0618716129
 20
30.2339002686
 30
0.0
 11
47.0618716129
 21
29.907447252
 31
0.0
  0
LINE
  5
590
330
1F
100
AcDbEntity
  8
0
  6
Continuous
 62
     8
370
    18
100
AcDbLine
 10
47.0618716129
 20
30.2339002686
 30
0.0
 11
188.4832278502
 21
111.8747114509
 31
0.0
  0
LINE
  5
591
330
1F
100
AcDbEntity
  8
0
  6
Continuous
 62
     8
370
    18
100
AcDbLine
 10
48.5785978019
 20
28.2513547476
 30
0.0
 11
189.9999540392
 21
109.8921659299
 31
0.0
  0
LINE
  5
592
330
1F
100
AcDbEntity
  8
0
  6
Continuous
 62
     8
370
    18
100
AcDbLine
 10
48.5785978019
 20
28.2513547476
 30
0.0
 11
48.3786978019
 21
28.5975917031
 31
0.0
  0
LINE
  5
593
330
1F
100
AcDbEntity
  8
0
  6
Continuous
 62
     8
370
    18
100
AcDbLine
 10
48.2145075282
 20
28.5027758627
 30
0.0
 11
48.4144075282
 21
28.1565389072
 31
0.0
  0
LINE
  5
594
330
1F
100
AcDbEntity
  8
0
  6
Continuous
 62
     8
370
    18
100
AcDbLine
 10
48.4144075282
 20
28.1565389072
 30
0.0
 11
189.8357637655
 21
109.7973500895
 31
0.0
  0
LINE
  5
595
330
1F
100
AcDbEntity
  8
0
  6
Continuous
 62
     8
370
    18
100
AcDbLine
 10
48.3806957975
 20
27.8803046898
 30
0.0
 11
48.1358692977
 21
27.8584135114
 31
0.0
  0
LINE
  5
596
330
1F
100
AcDbEntity
  8
0
  6
Continuous
 62
     8
370
    18
100
AcDbLine
 10
48.4124320071
 20
27.1456018752
 30
0.0
 11
48.6572585069
 21
27.1674930536
 31
0.0
  0
LINE
  5
597
330
1F
100
AcDbEntity
  8
0
  6
Continuous
 62
     8
370
    18
100
AcDbLine
 10
48.7235725487
 20
26.8434214879
 30
0.0
 11
48.4408712576
 21
27.0066214695
 31
0.0
  0
LINE
  5
598
330
1F
100
AcDbEntity
  8
0
  6
Continuous
 62
     8
370
    18
100
AcDbLine
 10
48.7235725487
 20
26.8434214879
 30
0.0
 11
190.144928786
 21
108.4842326702
 31
0.0
  0
LINE
  5
599
330
1F
100
AcDbEntity
  8
0
  6
Continuous
 62
     8
370
    18
100
AcDbLine
 10
48.4408712576
 20
25.3631187593
 30
0.0
 11
48.7235725487
 21
25.1999187777
 31
0.0
  0
LINE
  5
59A
330
1F
100
AcDbEntity
  8
0
  6
Continuous
 62
     8
370
    18
100
AcDbLine
 10
48.7235725487
 20
25.1999187777
 30
0.0
 11
190.144928786
 21
106.84072996
 31
0.0
  0
LINE
  5
59B
330
1F
100
AcDbEntity
  8
0
  6
Continuous
 62
     8
370
    18
100
AcDbLine
 10
48.426729122
 20
25.3712828404
 30
0.0
 11
48.1440278309
 21
25.534482822
 31
0.0
  0
LINE
  5
59C
330
1F
100
AcDbEntity
  8
0
  6
Continuous
 62
     8
370
    18
100
AcDbLine
 10
46.5455422413
 20
27.6699695869
 30
0.0
 11
46.8282435324
 21
27.5067696053
 31
0.0
  0
LINE
  5
59D
330
1F
100
AcDbEntity
  8
0
  6
Continuous
 62
     8
370
    18
100
AcDbLine
 10
63.089671976
 20
19.1511547058
 30
0.0
 11
62.9660828424
 21
19.0798082176
 31
0.0
  0
LINE
  5
59E
330
1F
100
AcDbEntity
  8
0
  6
Continuous
 62
     8
370
    18
100
AcDbLine
 10
62.58286546
 20
16.4563937594
 30
0.0
 11
62.8657081687
 21
16.6196753796
 31
0.0
  0
LINE
  5
59F
330
1F
100
AcDbEntity
  8
0
  6
Continuous
 62
     8
370
    18
100
AcDbLine
 10
190.4277714985
 20
105.9347228152
 30
0.0
 11
49.0064152612
 21
24.2939116329
 31
0.0
  0
LINE
  5
5A0
330
1F
100
AcDbEntity
  8
0
  6
Continuous
 62
     8
370
    18
100
AcDbLine
 10
190.144928786
 20
110.3440166593
 30
0.0
 11
48.7235725487
 21
28.7032054771
 31
0.0
  0
LINE
  5
5A1
330
1F
100
AcDbEntity
  8
0
  6
Continuous
 62
     8
370
    18
100
AcDbLine
 10
48.7235725487
 20
28.5163976036
 30
0.0
 11
190.144928786
 21
110.1572087859
 31
0.0
  0
LINE
  5
5A2
330
1F
100
AcDbEntity
  8
0
  6
Continuous
 62
     8
370
    18
100
AcDbLine
 10
48.6231978788
 20
27.3597794629
 30
0.0
 11
190.0445541161
 21
109.0005906452
 31
0.0
  0
LINE
  5
5A3
330
1F
100
AcDbEntity
  8
0
  6
Continuous
 62
     8
370
    18
100
AcDbLine
 10
190.144928786
 20
108.7344347467
 30
0.0
 11
48.7235725487
 21
27.0936235644
 31
0.0
  0
LINE
  5
5A4
330
1F
100
AcDbEntity
  8
0
  6
Continuous
 62
     8
370
    18
100
AcDbLine
 10
48.7235725487
 20
24.78380958
 30
0.0
 11
190.144928786
 21
106.4246207623
 31
0.0
  0
LINE
  5
5A5
330
1F
100
AcDbEntity
  8
0
  6
Continuous
 62
     8
370
    18
100
AcDbLine
 10
122.0502874801
 20
48.8258852801
 30
0.0
 11
122.4745515488
 21
48.5809628465
 31
0.0
  0
LINE
  5
5A6
330
1F
100
AcDbEntity
  8
0
  6
Continuous
 62
     8
370
    18
100
AcDbLine
 10
124.7254411747
 20
50.4338451927
 30
0.0
 11
125.1497052435
 21
50.1889227592
 31
0.0
  0
LINE
  5
5A7
330
1F
100
AcDbEntity
  8
0
  6
Continuous
 62
     8
370
    18
100
AcDbLine
 10
125.6602813892
 20
49.5908005148
 30
0.0
 11
125.9628493443
 21
49.4161317523
 31
0.0
  0
ENDSEC
  0
SECTION
  2
OBJECTS
  0
DICTIONARY
  5
C
330
0
100
AcDbDictionary
281
     1
  3
ACAD_GROUP
350
D
  3
ACAD_LAYOUT
350
1A
  3
ACAD_MLINESTYLE
350
17
  3
ACAD_PLOTSETTINGS
350
19
  3
ACAD_PLOTSTYLENAME
350
E
  3
ACAD_SCALELIST
350
47
  0
DICTIONARY
  5
D
102
{ACAD_REACTORS
330
C
102
}
330
C
100
AcDbDictionary
281
     1
  0
DICTIONARY
  5
1A
102
{ACAD_REACTORS
330
C
102
}
330
C
100
AcDbDictionary
281
     1
  3
Layout1
350
1E
  3
Layout2
350
26
  3
Model
350
22
  0
DICTIONARY
  5
17
102
{ACAD_REACTORS
330
C
102
}
330
C
100
AcDbDictionary
281
     1
  3
Standard
350
18
  0
DICTIONARY
  5
19
102
{ACAD_REACTORS
330
C
102
}
330
C
100
AcDbDictionary
281
     1
  0
ACDBDICTIONARYWDFLT
  5
E
102
{ACAD_REACTORS
330
C
102
}
330
C
100
AcDbDictionary
281
     1
  3
Normal
350
F
100
AcDbDictionaryWithDefault
340
F
  0
DICTIONARY
  5
47
102
{ACAD_REACTORS
330
C
102
}
330
C
100
AcDbDictionary
281
     1
  3
A0
350
48
  3
A1
350
49
  3
A2
350
4A
  3
A3
350
4B
  3
A4
350
4C
  3
A5
350
4D
  3
A6
350
4E
  3
A7
350
4F
  3
A8
350
50
  3
A9
350
51
  3
B0
350
52
  3
B1
350
53
  3
B2
350
54
  3
B3
350
55
  3
B4
350
56
  3
B5
350
57
  3
B6
350
58
  3
B7
350
59
  3
B8
350
5A
  3
B9
350
5B
  3
C0
350
5C
  3
C1
350
5D
  3
C2
350
5E
  3
C3
350
5F
  3
C4
350
60
  3
C5
350
61
  3
C6
350
62
  3
C7
350
63
  3
C8
350
64
  3
C9
350
65
  3
D0
350
66
  3
D1
350
67
  3
D2
350
68
  0
LAYOUT
  5
1E
102
{ACAD_REACTORS
330
1A
102
}
330
1A
100
AcDbPlotSettings
  1

  2
none_device
  4

  6

 40
0.0
 41
0.0
 42
0.0
 43
0.0
 44
0.0
 45
0.0
 46
0.0
 47
0.0
 48
0.0
 49
0.0
140
0.0
141
0.0
142
1.0
143
1.0
 70
   688
 72
     1
 73
     0
 74
     5
  7

 75
    16
147
1.0
148
0.0
149
0.0
100
AcDbLayout
  1
Layout1
 70
     1
 71
     1
 10
0.0
 20
0.0
 11
420.0
 21
297.0
 12
0.0
 22
0.0
 32
0.0
 14
1.0000000000E+20
 24
1.0000000000E+20
 34
1.0000000000E+20
 15
-1.0000000000E+20
 25
-1.0000000000E+20
 35
-1.0000000000E+20
146
0.0
 13
0.0
 23
0.0
 33
0.0
 16
1.0
 26
0.0
 36
0.0
 17
0.0
 27
1.0
 37
0.0
 76
     0
330
1B
  0
LAYOUT
  5
26
102
{ACAD_REACTORS
330
1A
102
}
330
1A
100
AcDbPlotSettings
  1

  2
none_device
  4

  6

 40
0.0
 41
0.0
 42
0.0
 43
0.0
 44
0.0
 45
0.0
 46
0.0
 47
0.0
 48
0.0
 49
0.0
140
0.0
141
0.0
142
1.0
143
1.0
 70
   688
 72
     1
 73
     0
 74
     5
  7

 75
    16
147
1.0
148
0.0
149
0.0
100
AcDbLayout
  1
Layout2
 70
     1
 71
     2
 10
0.0
 20
0.0
 11
0.0
 21
0.0
 12
0.0
 22
0.0
 32
0.0
 14
0.0
 24
0.0
 34
0.0
 15
0.0
 25
0.0
 35
0.0
146
0.0
 13
0.0
 23
0.0
 33
0.0
 16
1.0
 26
0.0
 36
0.0
 17
0.0
 27
1.0
 37
0.0
 76
     0
330
23
  0
LAYOUT
  5
22
102
{ACAD_REACTORS
330
1A
102
}
330
1A
100
AcDbPlotSettings
  1

  2
none_device
  4
Letter_(8.50_x_11.00_Inches)
  6

 40
6.35
 41
6.35
 42
6.35000508
 43
6.35000508
 44
215.9
 45
279.4
 46
0.0
 47
0.0
 48
0.0
 49
0.0
140
0.0
141
0.0
142
1.0
143
1.0
 70
  1712
 72
     1
 73
     0
 74
     0
  7

 75
     0
147
1.0
148
0.0
149
0.0
100
AcDbLayout
  1
Model
 70
     1
 71
     0
 10
0.0
 20
0.0
 11
420.0
 21
297.0
 12
0.0
 22
0.0
 32
0.0
 14
0.0
 24
0.0
 34
0.0
 15
420.0
 25
297.0
 35
0.0
146
0.0
 13
0.0
 23
0.0
 33
0.0
 16
1.0
 26
0.0
 36
0.0
 17
0.0
 27
1.0
 37
0.0
 76
     0
330
1F
331
29
  0
MLINESTYLE
  5
18
102
{ACAD_REACTORS
330
17
102
}
330
17
100
AcDbMlineStyle
  2
Standard
 70
     0
  3

 62
   256
 51
90.0
 52
90.0
 71
     2
 49
0.5
 62
   256
  6
BYLAYER
 49
-0.5
 62
   256
  6
BYLAYER
  0
ACDBPLACEHOLDER
  5
F
102
{ACAD_REACTORS
330
E
102
}
330
E
  0
SCALE
  5
48
102
{ACAD_REACTORS
330
47
102
}
330
47
100
AcDbScale
 70
     0
300
1:1
140
1.0
141
1.0
290
     1
  0
SCALE
  5
49
102
{ACAD_REACTORS
330
47
102
}
330
47
100
AcDbScale
 70
     0
300
1:2
140
1.0
141
2.0
290
     0
  0
SCALE
  5
4A
102
{ACAD_REACTORS
330
47
102
}
330
47
100
AcDbScale
 70
     0
300
1:4
140
1.0
141
4.0
290
     0
  0
SCALE
  5
4B
102
{ACAD_REACTORS
330
47
102
}
330
47
100
AcDbScale
 70
     0
300
1:5
140
1.0
141
5.0
290
     0
  0
SCALE
  5
4C
102
{ACAD_REACTORS
330
47
102
}
330
47
100
AcDbScale
 70
     0
300
1:8
140
1.0
141
8.0
290
     0
  0
SCALE
  5
4D
102
{ACAD_REACTORS
330
47
102
}
330
47
100
AcDbScale
 70
     0
300
1:10
140
1.0
141
10.0
290
     0
  0
SCALE
  5
4E
102
{ACAD_REACTORS
330
47
102
}
330
47
100
AcDbScale
 70
     0
300
1:16
140
1.0
141
16.0
290
     0
  0
SCALE
  5
4F
102
{ACAD_REACTORS
330
47
102
}
330
47
100
AcDbScale
 70
     0
300
1:20
140
1.0
141
20.0
290
     0
  0
SCALE
  5
50
102
{ACAD_REACTORS
330
47
102
}
330
47
100
AcDbScale
 70
     0
300
1:30
140
1.0
141
30.0
290
     0
  0
SCALE
  5
51
102
{ACAD_REACTORS
330
47
102
}
330
47
100
AcDbScale
 70
     0
300
1:40
140
1.0
141
40.0
290
     0
  0
SCALE
  5
52
102
{ACAD_REACTORS
330
47
102
}
330
47
100
AcDbScale
 70
     0
300
1:50
140
1.0
141
50.0
290
     0
  0
SCALE
  5
53
102
{ACAD_REACTORS
330
47
102
}
330
47
100
AcDbScale
 70
     0
300
1:100
140
1.0
141
100.0
290
     0
  0
SCALE
  5
54
102
{ACAD_REACTORS
330
47
102
}
330
47
100
AcDbScale
 70
     0
300
2:1
140
2.0
141
1.0
290
     0
  0
SCALE
  5
55
102
{ACAD_REACTORS
330
47
102
}
330
47
100
AcDbScale
 70
     0
300
4:1
140
4.0
141
1.0
290
     0
  0
SCALE
  5
56
102
{ACAD_REACTORS
330
47
102
}
330
47
100
AcDbScale
 70
     0
300
8:1
140
8.0
141
1.0
290
     0
  0
SCALE
  5
57
102
{ACAD_REACTORS
330
47
102
}
330
47
100
AcDbScale
 70
     0
300
10:1
140
10.0
141
1.0
290
     0
  0
SCALE
  5
58
102
{ACAD_REACTORS
330
47
102
}
330
47
100
AcDbScale
 70
     0
300
100:1
140
100.0
141
1.0
290
     0
  0
SCALE
  5
59
102
{ACAD_REACTORS
330
47
102
}
330
47
100
AcDbScale
 70
     0
300
1/128" = 1'-0"
140
0.0078125
141
12.0
290
     0
  0
SCALE
  5
5A
102
{ACAD_REACTORS
330
47
102
}
330
47
100
AcDbScale
 70
     0
300
1/64" = 1'-0"
140
0.015625
141
12.0
290
     0
  0
SCALE
  5
5B
102
{ACAD_REACTORS
330
47
102
}
330
47
100
AcDbScale
 70
     0
300
1/32" = 1'-0"
140
0.03125
141
12.0
290
     0
  0
SCALE
  5
5C
102
{ACAD_REACTORS
330
47
102
}
330
47
100
AcDbScale
 70
     0
300
1/16" = 1'-0"
140
0.0625
141
12.0
290
     0
  0
SCALE
  5
5D
102
{ACAD_REACTORS
330
47
102
}
330
47
100
AcDbScale
 70
     0
300
3/32" = 1'-0"
140
0.09375
141
12.0
290
     0
  0
SCALE
  5
5E
102
{ACAD_REACTORS
330
47
102
}
330
47
100
AcDbScale
 70
     0
300
1/8" = 1'-0"
140
0.125
141
12.0
290
     0
  0
SCALE
  5
5F
102
{ACAD_REACTORS
330
47
102
}
330
47
100
AcDbScale
 70
     0
300
3/16" = 1'-0"
140
0.1875
141
12.0
290
     0
  0
SCALE
  5
60
102
{ACAD_REACTORS
330
47
102
}
330
47
100
AcDbScale
 70
     0
300
1/4" = 1'-0"
140
0.25
141
12.0
290
     0
  0
SCALE
  5
61
102
{ACAD_REACTORS
330
47
102
}
330
47
100
AcDbScale
 70
     0
300
3/8" = 1'-0"
140
0.375
141
12.0
290
     0
  0
SCALE
  5
62
102
{ACAD_REACTORS
330
47
102
}
330
47
100
AcDbScale
 70
     0
300
1/2" = 1'-0"
140
0.5
141
12.0
290
     0
  0
SCALE
  5
63
102
{ACAD_REACTORS
330
47
102
}
330
47
100
AcDbScale
 70
     0
300
3/4" = 1'-0"
140
0.75
141
12.0
290
     0
  0
SCALE
  5
64
102
{ACAD_REACTORS
330
47
102
}
330
47
100
AcDbScale
 70
     0
300
1" = 1'-0"
140
1.0
141
12.0
290
     0
  0
SCALE
  5
65
102
{ACAD_REACTORS
330
47
102
}
330
47
100
AcDbScale
 70
     0
300
1-1/2" = 1'-0"
140
1.5
141
12.0
290
     0
  0
SCALE
  5
66
102
{ACAD_REACTORS
330
47
102
}
330
47
100
AcDbScale
 70
     0
300
3" = 1'-0"
140
3.0
141
12.0
290
     0
  0
SCALE
  5
67
102
{ACAD_REACTORS
330
47
102
}
330
47
100
AcDbScale
 70
     0
300
6" = 1'-0"
140
6.0
141
12.0
290
     0
  0
SCALE
  5
68
102
{ACAD_REACTORS
330
47
102
}
330
47
100
AcDbScale
 70
     0
300
1'-0" = 1'-0"
140
12.0
141
12.0
290
     0
  0
ENDSEC
  0
EOF
