  0
SECTION
  2
HEADER
  9
$ACADVER
  1
AC1015
  9
$ACADMAINTVER
 70
     6
  9
$DWGCODEPAGE
  3
ANSI_1252
  9
$INSBASE
 10
0.0
 20
0.0
 30
0.0
  9
$EXTMIN
 10
0.0
 20
0.0
 30
0.0
  9
$EXTMAX
 10
420.0
 20
297.0
 30
0.0
  9
$LIMMIN
 10
0.0
 20
0.0
  9
$LIMMAX
 10
420.0
 20
297.0
  9
$ORTHOMODE
 70
     0
  9
$REGENMODE
 70
     1
  9
$FILLMODE
 70
     1
  9
$QTEXTMODE
 70
     0
  9
$MIRRTEXT
 70
     1
  9
$LTSCALE
 40
1.0
  9
$ATTMODE
 70
     1
  9
$TEXTSIZE
 40
3.5
  9
$TRACEWID
 40
1.0
  9
$TEXTSTYLE
  7
Standard
  9
$CLAYER
  8
0
  9
$CELTYPE
  6
ByLayer
  9
$CECOLOR
 62
   256
  9
$CELTSCALE
 40
1.0
  9
$DISPSILH
 70
     0
  9
$DIMSCALE
 40
1.0
  9
$DIMASZ
 40
3.5
  9
$DIMEXO
 40
0.1
  9
$DIMDLI
 40
3.75
  9
$DIMRND
 40
0.0
  9
$DIMDLE
 40
0.0
  9
$DIMEXE
 40
1.0
  9
$DIMTP
 40
0.0
  9
$DIMTM
 40
0.0
  9
$DIMTXT
 40
3.5
  9
$DIMCEN
 40
2.5
  9
$DIMTSZ
 40
0.0
  9
$DIMTOL
 70
     0
  9
$DIMLIM
 70
     0
  9
$DIMTIH
 70
     1
  9
$DIMTOH
 70
     1
  9
$DIMSE1
 70
     0
  9
$DIMSE2
 70
     0
  9
$DIMTAD
 70
     1
  9
$DIMZIN
 70
     0
  9
$DIMBLK
  1

  9
$DIMASO
 70
     1
  9
$DIMSHO
 70
     1
  9
$DIMPOST
  1

  9
$DIMAPOST
  1

  9
$DIMALT
 70
     0
  9
$DIMALTD
 70
     3
  9
$DIMALTF
 40
0.0393700787
  9
$DIMLFAC
 40
1.0
  9
$DIMTOFL
 70
     1
  9
$DIMTVP
 40
0.0
  9
$DIMTIX
 70
     0
  9
$DIMSOXD
 70
     0
  9
$DIMSAH
 70
     0
  9
$DIMBLK1
  1

  9
$DIMBLK2
  1

  9
$DIMSTYLE
  2
ISO-25
  9
$DIMCLRD
 70
     0
  9
$DIMCLRE
 70
     0
  9
$DIMCLRT
 70
     0
  9
$DIMTFAC
 40
1.0
  9
$DIMGAP
 40
2.0
  9
$DIMJUST
 70
     0
  9
$DIMSD1
 70
     0
  9
$DIMSD2
 70
     0
  9
$DIMTOLJ
 70
     0
  9
$DIMTZIN
 70
     0
  9
$DIMALTZ
 70
     0
  9
$DIMALTTZ
 70
     0
  9
$DIMUPT
 70
     0
  9
$DIMDEC
 70
     2
  9
$DIMTDEC
 70
     3
  9
$DIMALTU
 70
     2
  9
$DIMALTTD
 70
     3
  9
$DIMTXSTY
  7
Standard
  9
$DIMAUNIT
 70
     0
  9
$DIMADEC
 70
     2
  9
$DIMALTRND
 40
0.0
  9
$DIMAZIN
 70
     0
  9
$DIMDSEP
 70
    44
  9
$DIMATFIT
 70
     3
  9
$DIMFRAC
 70
     0
  9
$DIMLDRBLK
  1

  9
$DIMLUNIT
 70
     2
  9
$DIMLWD
 70
    -2
  9
$DIMLWE
 70
    -2
  9
$DIMTMOVE
 70
     0
  9
$LUNITS
 70
     2
  9
$LUPREC
 70
     2
  9
$SKETCHINC
 40
1.0
  9
$FILLETRAD
 40
10.0
  9
$AUNITS
 70
     0
  9
$AUPREC
 70
     2
  9
$MENU
  1
.
  9
$ELEVATION
 40
0.0
  9
$PELEVATION
 40
0.0
  9
$THICKNESS
 40
0.0
  9
$LIMCHECK
 70
     0
  9
$CHAMFERA
 40
0.0
  9
$CHAMFERB
 40
0.0
  9
$CHAMFERC
 40
0.0
  9
$CHAMFERD
 40
0.0
  9
$SKPOLY
 70
     0
  9
$TDCREATE
 40
2460569.818466979
  9
$TDUCREATE
 40
2460569.735133646
  9
$TDUPDATE
 40
2460569.818471528
  9
$TDUUPDATE
 40
2460569.735138195
  9
$TDINDWG
 40
0.0000000116
  9
$TDUSRTIMER
 40
0.0000000116
  9
$USRTIMER
 70
     1
  9
$ANGBASE
 50
0.0
  9
$ANGDIR
 70
     0
  9
$PDMODE
 70
     0
  9
$PDSIZE
 40
-1.0
  9
$PLINEWID
 40
0.0
  9
$SPLFRAME
 70
     0
  9
$SPLINETYPE
 70
     6
  9
$SPLINESEGS
 70
     8
  9
$HANDSEED
  5
37A
  9
$SURFTAB1
 70
     6
  9
$SURFTAB2
 70
     6
  9
$SURFTYPE
 70
     6
  9
$SURFU
 70
     6
  9
$SURFV
 70
     6
  9
$UCSBASE
  2

  9
$UCSNAME
  2

  9
$UCSORG
 10
0.0
 20
0.0
 30
0.0
  9
$UCSXDIR
 10
1.0
 20
0.0
 30
0.0
  9
$UCSYDIR
 10
0.0
 20
1.0
 30
0.0
  9
$UCSORTHOREF
  2

  9
$UCSORTHOVIEW
 70
     0
  9
$UCSORGTOP
 10
0.0
 20
0.0
 30
0.0
  9
$UCSORGBOTTOM
 10
0.0
 20
0.0
 30
0.0
  9
$UCSORGLEFT
 10
0.0
 20
0.0
 30
0.0
  9
$UCSORGRIGHT
 10
0.0
 20
0.0
 30
0.0
  9
$UCSORGFRONT
 10
0.0
 20
0.0
 30
0.0
  9
$UCSORGBACK
 10
0.0
 20
0.0
 30
0.0
  9
$PUCSBASE
  2

  9
$PUCSNAME
  2

  9
$PUCSORG
 10
0.0
 20
0.0
 30
0.0
  9
$PUCSXDIR
 10
1.0
 20
0.0
 30
0.0
  9
$PUCSYDIR
 10
0.0
 20
1.0
 30
0.0
  9
$PUCSORTHOREF
  2

  9
$PUCSORTHOVIEW
 70
     0
  9
$PUCSORGTOP
 10
0.0
 20
0.0
 30
0.0
  9
$PUCSORGBOTTOM
 10
0.0
 20
0.0
 30
0.0
  9
$PUCSORGLEFT
 10
0.0
 20
0.0
 30
0.0
  9
$PUCSORGRIGHT
 10
0.0
 20
0.0
 30
0.0
  9
$PUCSORGFRONT
 10
0.0
 20
0.0
 30
0.0
  9
$PUCSORGBACK
 10
0.0
 20
0.0
 30
0.0
  9
$USERI1
 70
     0
  9
$USERI2
 70
     0
  9
$USERI3
 70
     0
  9
$USERI4
 70
     0
  9
$USERI5
 70
     0
  9
$USERR1
 40
0.0
  9
$USERR2
 40
0.0
  9
$USERR3
 40
0.0
  9
$USERR4
 40
0.0
  9
$USERR5
 40
0.0
  9
$WORLDVIEW
 70
     1
  9
$SHADEDGE
 70
     3
  9
$SHADEDIF
 70
    70
  9
$TILEMODE
 70
     1
  9
$MAXACTVP
 70
    64
  9
$PINSBASE
 10
0.0
 20
0.0
 30
0.0
  9
$PLIMCHECK
 70
     0
  9
$PEXTMIN
 10
1.0000000000E+20
 20
1.0000000000E+20
 30
1.0000000000E+20
  9
$PEXTMAX
 10
-1.0000000000E+20
 20
-1.0000000000E+20
 30
-1.0000000000E+20
  9
$PLIMMIN
 10
0.0
 20
0.0
  9
$PLIMMAX
 10
420.0
 20
297.0
  9
$UNITMODE
 70
     0
  9
$VISRETAIN
 70
     1
  9
$PLINEGEN
 70
     0
  9
$PSLTSCALE
 70
     1
  9
$TREEDEPTH
 70
  3020
  9
$CMLSTYLE
  2
Standard
  9
$CMLJUST
 70
     0
  9
$CMLSCALE
 40
20.0
  9
$PROXYGRAPHICS
 70
     1
  9
$MEASUREMENT
 70
     1
  9
$CELWEIGHT
370
    -1
  9
$ENDCAPS
280
     0
  9
$JOINSTYLE
280
     0
  9
$LWDISPLAY
290
     1
  9
$INSUNITS
 70
     4
  9
$HYPERLINKBASE
  1

  9
$STYLESHEET
  1

  9
$XEDIT
290
     1
  9
$CEPSNTYPE
380
     0
  9
$PSTYLEMODE
290
     1
  9
$FINGERPRINTGUID
  2
{bfe07416-c53d-4663-945c-f7795e6cbb22}
  9
$VERSIONGUID
  2
{FAEB1C32-E019-11D5-929B-00C0DF256EC4}
  9
$EXTNAMES
290
     1
  9
$PSVPSCALE
 40
0.0
  9
$OLESTARTUP
290
     0
  0
ENDSEC
  0
SECTION
  2
CLASSES
  0
CLASS
  1
ACDBDICTIONARYWDFLT
  2
AcDbDictionaryWithDefault
  3
ObjectDBX Classes
 90
        0
280
     0
281
     0
  0
CLASS
  1
VISUALSTYLE
  2
AcDbVisualStyle
  3
ObjectDBX Classes
 90
     4095
280
     0
281
     0
  0
CLASS
  1
MATERIAL
  2
AcDbMaterial
  3
ObjectDBX Classes
 90
     1153
280
     0
281
     0
  0
CLASS
  1
SCALE
  2
AcDbScale
  3
ObjectDBX Classes
 90
     1153
280
     0
281
     0
  0
CLASS
  1
TABLESTYLE
  2
AcDbTableStyle
  3
ObjectDBX Classes
 90
     4095
280
     0
281
     0
  0
CLASS
  1
MLEADERSTYLE
  2
AcDbMLeaderStyle
  3
ACDB_MLEADERSTYLE_CLASS
 90
     4095
280
     0
281
     0
  0
CLASS
  1
SUN
  2
AcDbSun
  3
SCENEOE
 90
     1153
280
     0
281
     0
  0
CLASS
  1
ACDBPLACEHOLDER
  2
AcDbPlaceHolder
  3
ObjectDBX Classes
 90
        0
280
     0
281
     0
  0
CLASS
  1
LAYOUT
  2
AcDbLayout
  3
ObjectDBX Classes
 90
        0
280
     0
281
     0
  0
ENDSEC
  0
SECTION
  2
TABLES
  0
TABLE
  2
VPORT
  5
8
330
0
100
AcDbSymbolTable
 70
     1
  0
VPORT
  5
29
330
8
100
AcDbSymbolTableRecord
100
AcDbViewportTableRecord
  2
*Active
 70
     0
 10
0.0
 20
0.0
 11
1.0
 21
1.0
 12
210.0
 22
148.5
 13
0.0
 23
0.0
 14
10.0
 24
10.0
 15
10.0
 25
10.0
 16
0.0
 26
0.0
 36
1.0
 17
0.0
 27
0.0
 37
0.0
 40
297.0
 41
1.4141414141
 42
50.0
 43
0.0
 44
0.0
 50
0.0
 51
0.0
 71
     0
 72
  2000
 73
     1
 74
     3
 75
     0
 76
     0
 77
     0
 78
     0
281
     0
 65
     1
110
0.0
120
0.0
130
0.0
111
1.0
121
0.0
131
0.0
112
0.0
122
1.0
132
0.0
 79
     0
146
0.0
  0
ENDTAB
  0
TABLE
  2
LTYPE
  5
5
330
0
100
AcDbSymbolTable
 70
     6
  0
LTYPE
  5
14
330
5
100
AcDbSymbolTableRecord
100
AcDbLinetypeTableRecord
  2
ByBlock
 70
     0
  3

 72
    65
 73
     0
 40
0.0
  0
LTYPE
  5
15
330
5
100
AcDbSymbolTableRecord
100
AcDbLinetypeTableRecord
  2
ByLayer
 70
     0
  3

 72
    65
 73
     0
 40
0.0
  0
LTYPE
  5
16
330
5
100
AcDbSymbolTableRecord
100
AcDbLinetypeTableRecord
  2
Continuous
 70
     0
  3
Solid line
 72
    65
 73
     0
 40
0.0
  0
LTYPE
  5
6E
330
5
100
AcDbSymbolTableRecord
100
AcDbLinetypeTableRecord
  2
HIDDEN
 70
     0
  3
Hidden __ __ __ __ __ __ __ __ __ __ __ __ __ __
 72
    65
 73
     2
 40
1.905
 49
1.27
 74
     0
 49
-0.635
 74
     0
  0
LTYPE
  5
6F
330
5
100
AcDbSymbolTableRecord
100
AcDbLinetypeTableRecord
  2
PHANTOM
 70
     0
  3
Phantom ______  __  __  ______  __  __  ______
 72
    65
 73
     6
 40
12.7
 49
6.35
 74
     0
 49
-1.27
 74
     0
 49
1.27
 74
     0
 49
-1.27
 74
     0
 49
1.27
 74
     0
 49
-1.27
 74
     0
  0
LTYPE
  5
70
330
5
100
AcDbSymbolTableRecord
100
AcDbLinetypeTableRecord
  2
CENTER
 70
     0
  3
Center ____ _ ____ _ ____ _ ____ _ ____ _ ____
 72
    65
 73
     4
 40
10.16
 49
6.35
 74
     0
 49
-1.27
 74
     0
 49
1.27
 74
     0
 49
-1.27
 74
     0
  0
LTYPE
  5
71
330
5
100
AcDbSymbolTableRecord
100
AcDbLinetypeTableRecord
  2
CENTERX2
 70
     0
  3
Center (2x) ________  __  ________  __  _____
 72
    65
 73
     4
 40
20.32
 49
12.7
 74
     0
 49
-2.54
 74
     0
 49
2.54
 74
     0
 49
-2.54
 74
     0
  0
LTYPE
  5
72
330
5
100
AcDbSymbolTableRecord
100
AcDbLinetypeTableRecord
  2
DOT2
 70
     0
  3
Dot (.5x) ........................................
 72
    65
 73
     2
 40
0.635
 49
0.0
 74
     0
 49
-0.635
 74
     0
  0
ENDTAB
  0
TABLE
  2
LAYER
  5
2
330
0
100
AcDbSymbolTable
 70
     1
  0
LAYER
  5
10
330
2
100
AcDbSymbolTableRecord
100
AcDbLayerTableRecord
  2
0
 70
     0
 62
     7
  6
Continuous
370
    -3
390
F
  0
ENDTAB
  0
TABLE
  2
STYLE
  5
3
330
0
100
AcDbSymbolTable
 70
     3
  0
STYLE
  5
11
330
3
100
AcDbSymbolTableRecord
100
AcDbTextStyleTableRecord
  2
Standard
 70
     0
 40
0.0
 41
1.0
 50
0.0
 71
     0
 42
3.5
  3
txt
  4

  0
STYLE
  5
E9
330
3
100
AcDbSymbolTableRecord
100
AcDbTextStyleTableRecord
  2
SLDTEXTSTYLE0
 70
     0
 40
0.0
 41
0.605
 50
0.0
 71
     0
 42
3.5
  3
TXT
  4

  0
STYLE
  5
198
330
3
100
AcDbSymbolTableRecord
100
AcDbTextStyleTableRecord
  2
SLDTEXTSTYLE1
 70
     0
 40
0.0
 41
0.563
 50
0.0
 71
     0
 42
3.5
  3
TXT
  4

  0
ENDTAB
  0
TABLE
  2
VIEW
  5
6
330
0
100
AcDbSymbolTable
 70
     0
  0
ENDTAB
  0
TABLE
  2
UCS
  5
7
330
0
100
AcDbSymbolTable
 70
     0
  0
ENDTAB
  0
TABLE
  2
APPID
  5
9
330
0
100
AcDbSymbolTable
 70
     1
  0
APPID
  5
12
330
9
100
AcDbSymbolTableRecord
100
AcDbRegAppTableRecord
  2
ACAD
 70
     0
  0
ENDTAB
  0
TABLE
  2
DIMSTYLE
  5
A
330
0
100
AcDbSymbolTable
 70
     3
100
AcDbDimStyleTable
  0
DIMSTYLE
105
27
330
A
100
AcDbSymbolTableRecord
100
AcDbDimStyleTableRecord
  2
ISO-25
 70
     0
 41
2.5
 42
0.625
 43
3.75
 44
1.25
 73
     0
 74
     0
 77
     1
 78
     8
140
2.5
141
2.5
143
0.0393700787
147
0.625
171
     3
172
     1
178
     0
271
     2
272
     2
274
     3
278
    44
283
     0
284
     8
340
11
  0
DIMSTYLE
105
2D0
102
{ACAD_REACTORS
330
2CF
330
362
102
}
330
A
100
AcDbSymbolTableRecord
100
AcDbDimStyleTableRecord
  2
SLDDIMSTYLE0
 70
     0
 41
3.5
 44
0.0
 45
0.000000001
 73
     0
 74
     0
 77
     1
 78
    12
 79
     3
140
3.5
147
0.875
172
     1
173
     1
178
     0
271
     2
272
     3
276
     2
284
    12
289
     0
340
E9
  0
DIMSTYLE
105
2DE
102
{ACAD_REACTORS
330
2DD
330
2E8
330
34C
330
357
330
36E
102
}
330
A
100
AcDbSymbolTableRecord
100
AcDbDimStyleTableRecord
  2
SLDDIMSTYLE1
 70
     0
 41
3.5
 44
0.0
 45
0.000000001
 73
     0
 74
     0
 77
     1
 78
    12
 79
     3
140
3.5
147
0.875
173
     1
178
     0
271
     2
272
     3
276
     2
284
    12
340
E9
  0
ENDTAB
  0
TABLE
  2
BLOCK_RECORD
  5
1
330
0
100
AcDbSymbolTable
 70
    13
  0
BLOCK_RECORD
  5
1F
330
1
100
AcDbSymbolTableRecord
100
AcDbBlockTableRecord
  2
*Model_Space
340
22
  0
BLOCK_RECORD
  5
1B
330
1
100
AcDbSymbolTableRecord
100
AcDbBlockTableRecord
  2
*Paper_Space
340
1E
  0
BLOCK_RECORD
  5
23
330
1
100
AcDbSymbolTableRecord
100
AcDbBlockTableRecord
  2
*Paper_Space0
340
26
  0
BLOCK_RECORD
  5
73
330
1
100
AcDbSymbolTableRecord
100
AcDbBlockTableRecord
  2
ACO-Logo
340
0
102
{BLKREFS
331
149
102
}
  0
BLOCK_RECORD
  5
E6
330
1
100
AcDbSymbolTableRecord
100
AcDbBlockTableRecord
  2
SW_NOTE_0
340
0
102
{BLKREFS
331
EB
102
}
  0
BLOCK_RECORD
  5
EC
330
1
100
AcDbSymbolTableRecord
100
AcDbBlockTableRecord
  2
SW_NOTE_0_1
340
0
102
{BLKREFS
331
F0
102
}
  0
BLOCK_RECORD
  5
F1
330
1
100
AcDbSymbolTableRecord
100
AcDbBlockTableRecord
  2
SW_NOTE_0_2
340
0
102
{BLKREFS
331
F8
102
}
  0
BLOCK_RECORD
  5
170
330
1
100
AcDbSymbolTableRecord
100
AcDbBlockTableRecord
  2
SW_NOTE_0_3
340
0
102
{BLKREFS
331
178
102
}
  0
BLOCK_RECORD
  5
2D1
330
1
100
AcDbSymbolTableRecord
100
AcDbBlockTableRecord
  2
_D
340
0
  0
BLOCK_RECORD
  5
2DF
330
1
100
AcDbSymbolTableRecord
100
AcDbBlockTableRecord
  2
_D_1
340
0
  0
BLOCK_RECORD
  5
2E9
330
1
100
AcDbSymbolTableRecord
100
AcDbBlockTableRecord
  2
_D_2
340
0
  0
BLOCK_RECORD
  5
34D
330
1
100
AcDbSymbolTableRecord
100
AcDbBlockTableRecord
  2
_D_3
340
0
  0
BLOCK_RECORD
  5
358
330
1
100
AcDbSymbolTableRecord
100
AcDbBlockTableRecord
  2
_D_4
340
0
  0
BLOCK_RECORD
  5
363
330
1
100
AcDbSymbolTableRecord
100
AcDbBlockTableRecord
  2
_D_5
340
0
  0
BLOCK_RECORD
  5
36F
330
1
100
AcDbSymbolTableRecord
100
AcDbBlockTableRecord
  2
_D_6
340
0
  0
ENDTAB
  0
ENDSEC
  0
SECTION
  2
BLOCKS
  0
BLOCK
  5
20
330
1F
100
AcDbEntity
  8
0
100
AcDbBlockBegin
  2
*Model_Space
 70
     0
 10
0.0
 20
0.0
 30
0.0
  3
*Model_Space
  1

  0
ENDBLK
  5
21
330
1F
100
AcDbEntity
  8
0
100
AcDbBlockEnd
  0
BLOCK
  5
1C
330
1B
100
AcDbEntity
 67
     1
  8
0
100
AcDbBlockBegin
  2
*Paper_Space
 70
     0
 10
0.0
 20
0.0
 30
0.0
  3
*Paper_Space
  1

  0
ENDBLK
  5
1D
330
1B
100
AcDbEntity
 67
     1
  8
0
100
AcDbBlockEnd
  0
BLOCK
  5
24
330
23
100
AcDbEntity
  8
0
100
AcDbBlockBegin
  2
*Paper_Space0
 70
     0
 10
0.0
 20
0.0
 30
0.0
  3
*Paper_Space0
  1

  0
ENDBLK
  5
25
330
23
100
AcDbEntity
  8
0
100
AcDbBlockEnd
  0
BLOCK
  5
74
330
73
100
AcDbEntity
  8
0
100
AcDbBlockBegin
  2
ACO-Logo
 70
     0
 10
0.0
 20
0.0
 30
0.0
  3
ACO-Logo
  1

  0
ARC
  5
76
330
73
100
AcDbEntity
  8
0
  6
Continuous
 62
   179
370
    18
100
AcDbCircle
 10
80.3853261169
 20
4.9940995715
 30
0.0
 40
0.3000000000000441
100
AcDbArc
 50
181.9349323096
 51
274.6062978506
  0
ARC
  5
77
330
73
100
AcDbEntity
  8
0
  6
Continuous
 62
   179
370
    18
100
AcDbCircle
 10
81.2359083165
 20
2.1946665956
 30
0.0
 40
1.000000000000021
100
AcDbArc
 50
221.4087409628
 51
276.0561297228
  0
ARC
  5
78
330
73
100
AcDbEntity
  8
0
  6
Continuous
 62
   179
370
    18
100
AcDbCircle
 10
79.1360017163
 20
3.654242048
 30
0.0
 40
0.300000000000004
100
AcDbArc
 50
181.2730300201
 51
274.4996077095
  0
ARC
  5
79
330
73
100
AcDbEntity
  8
0
  6
Continuous
 62
   179
370
    18
100
AcDbCircle
 10
78.7699033484
 20
3.2873137407
 30
0.0
 40
0.4000000000000358
100
AcDbArc
 50
221.0090869016
 51
274.5606296317
  0
ARC
  5
7A
330
73
100
AcDbEntity
  8
0
  6
Continuous
 62
   179
370
    18
100
AcDbCircle
 10
91.2333953062
 20
4.6062442307
 30
0.0
 40
0.3000000000000493
100
AcDbArc
 50
274.4996077095
 51
3.7249371334
  0
ARC
  5
7B
330
73
100
AcDbEntity
  8
0
  6
Continuous
 62
   179
370
    18
100
AcDbCircle
 10
81.5287571045
 20
9.7648973508
 30
0.0
 40
1.00000000000002
100
AcDbArc
 50
93.1134387481
 51
181.9414863909
  0
ARC
  5
7C
330
73
100
AcDbEntity
  8
0
  6
Continuous
 62
   179
370
    18
100
AcDbCircle
 10
81.6051675115
 20
7.5107903456
 30
0.0
 40
1.0
100
AcDbArc
 50
181.9414863909
 51
274.398705355
  0
ARC
  5
7D
330
73
100
AcDbEntity
  8
0
  6
Continuous
 62
   179
370
    18
100
AcDbCircle
 10
80.1506905656
 20
11.9393118923
 30
0.0
 40
0.300000000000045
100
AcDbArc
 50
93.0418421566
 51
181.9349323096
  0
ARC
  5
7E
330
73
100
AcDbEntity
  8
0
  6
Continuous
 62
   179
370
    18
100
AcDbCircle
 10
78.1879722102
 20
12.3499352608
 30
0.0
 40
0.7999999999953393
100
AcDbArc
 50
92.6995697565
 51
148.2554209065
  0
ARC
  5
7F
330
73
100
AcDbEntity
  8
0
  6
Continuous
 62
   179
370
    18
100
AcDbCircle
 10
78.930862229
 20
12.8855189761
 30
0.0
 40
0.3000000000000031
100
AcDbArc
 50
92.6995697565
 51
181.2730300201
  0
ARC
  5
80
330
73
100
AcDbEntity
  8
0
  6
Continuous
 62
   179
370
    18
100
AcDbCircle
 10
82.327743407
 20
9.8083568568
 30
0.0
 40
1.000000000000034
100
AcDbArc
 50
1.9414863909
 51
93.1134387481
  0
ARC
  5
81
330
73
100
AcDbEntity
  8
0
  6
Continuous
 62
   179
370
    18
100
AcDbCircle
 10
81.5287571045
 20
9.7648973508
 30
0.0
 40
0.3625000000000009
100
AcDbArc
 50
93.1134387481
 51
181.9414863909
  0
ARC
  5
82
330
73
100
AcDbEntity
  8
0
  6
Continuous
 62
   179
370
    18
100
AcDbCircle
 10
82.327743407
 20
9.8083568568
 30
0.0
 40
0.3625000000000146
100
AcDbArc
 50
1.9414863909
 51
93.1134387481
  0
ARC
  5
83
330
73
100
AcDbEntity
  8
0
  6
Continuous
 62
   179
370
    18
100
AcDbCircle
 10
82.4035451983
 20
7.5722040138
 30
0.0
 40
1.000000000000008
100
AcDbArc
 50
274.398705355
 51
1.9414863909
  0
ARC
  5
84
330
73
100
AcDbEntity
  8
0
  6
Continuous
 62
   179
370
    18
100
AcDbCircle
 10
82.4035451983
 20
7.5722040138
 30
0.0
 40
0.3625000000000068
100
AcDbArc
 50
274.398705355
 51
1.9414863909
  0
ARC
  5
85
330
73
100
AcDbEntity
  8
0
  6
Continuous
 62
   179
370
    18
100
AcDbCircle
 10
81.6051675115
 20
7.5107903456
 30
0.0
 40
0.3625000000000111
100
AcDbArc
 50
181.9414863909
 51
274.398705355
  0
ARC
  5
86
330
73
100
AcDbEntity
  8
0
  6
Continuous
 62
   179
370
    18
100
AcDbCircle
 10
88.825822761
 20
8.0662148274
 30
0.0
 40
0.9999999999999997
100
AcDbArc
 50
274.398705355
 51
2.6541955134
  0
ARC
  5
87
330
73
100
AcDbEntity
  8
0
  6
Continuous
 62
   179
370
    18
100
AcDbCircle
 10
90.1578295581
 20
5.7814576687
 30
0.0
 40
0.3000000000000043
100
AcDbArc
 50
274.6062978507
 51
2.5147526475
  0
ARC
  5
88
330
73
100
AcDbEntity
  8
0
  6
Continuous
 62
   179
370
    18
100
AcDbCircle
 10
88.825822761
 20
8.0662148274
 30
0.0
 40
0.3625000000000083
100
AcDbArc
 50
274.398705355
 51
2.6541955134
  0
ARC
  5
89
330
73
100
AcDbEntity
  8
0
  6
Continuous
 62
   179
370
    18
100
AcDbCircle
 10
88.728529747
 20
10.16496413
 30
0.0
 40
1.000000000000001
100
AcDbArc
 50
2.6541955134
 51
93.1134387481
  0
ARC
  5
8A
330
73
100
AcDbEntity
  8
0
  6
Continuous
 62
   179
370
    18
100
AcDbCircle
 10
88.728529747
 20
10.16496413
 30
0.0
 40
0.3625000000000085
100
AcDbArc
 50
2.6541955134
 51
93.1134387481
  0
ARC
  5
8B
330
73
100
AcDbEntity
  8
0
  6
Continuous
 62
   179
370
    18
100
AcDbCircle
 10
89.8647121341
 20
12.455515937
 30
0.0
 40
0.2999999999999984
100
AcDbArc
 50
2.5147526475
 51
93.0418421566
  0
ARC
  5
8C
330
73
100
AcDbEntity
  8
0
  6
Continuous
 62
   179
370
    18
100
AcDbCircle
 10
90.6583795404
 20
13.4384863935
 30
0.0
 40
0.2999999999999911
100
AcDbArc
 50
3.7249371334
 51
92.6995697565
  0
CIRCLE
  5
8D
330
73
100
AcDbEntity
  8
0
  6
Continuous
 62
   179
370
    18
100
AcDbCircle
 10
15.7233972286
 20
6.4054930194
 30
0.0
 40
1.579500000000014
  0
CIRCLE
  5
8E
330
73
100
AcDbEntity
  8
0
  6
Continuous
 62
   179
370
    18
100
AcDbCircle
 10
15.7233972286
 20
6.4054930194
 30
0.0
 40
2.281499999999994
  0
ARC
  5
8F
330
73
100
AcDbEntity
  8
0
  6
Continuous
 62
   179
370
    18
100
AcDbCircle
 10
89.7681336026
 20
2.3106616691
 30
0.0
 40
0.098384530246548
100
AcDbArc
 50
332.3802627259
 51
4.9765441602
  0
ARC
  5
90
330
73
100
AcDbEntity
  8
0
  6
Continuous
 62
   179
370
    18
100
AcDbCircle
 10
89.6886560089
 20
2.3522464185
 30
0.0
 40
0.1880839130754018
100
AcDbArc
 50
303.690067526
 51
332.3802627258
  0
ARC
  5
91
330
73
100
AcDbEntity
  8
0
  6
Continuous
 62
   179
370
    18
100
AcDbCircle
 10
89.4849700869
 20
2.6577753016
 30
0.0
 40
0.5552839311631531
100
AcDbArc
 50
287.108652213
 51
303.690067526
  0
ARC
  5
92
330
73
100
AcDbEntity
  8
0
  6
Continuous
 62
   179
370
    18
100
AcDbCircle
 10
88.0513010646
 20
7.3154864882
 30
0.0
 40
5.428648309393203
100
AcDbArc
 50
285.2551187031
 51
287.108652213
  0
ARC
  5
93
330
73
100
AcDbEntity
  8
0
  6
Continuous
 62
   179
370
    18
100
AcDbCircle
 10
89.1317168954
 20
3.3539617753
 30
0.0
 40
1.322436378825653
100
AcDbArc
 50
281.4991866428
 51
285.255118703
  0
ARC
  5
94
330
73
100
AcDbEntity
  8
0
  6
Continuous
 62
   179
370
    18
100
AcDbCircle
 10
89.3198255509
 20
2.4293110075
 30
0.0
 40
0.3788454141584939
100
AcDbArc
 50
279.1917900003
 51
281.499186643
  0
ARC
  5
95
330
73
100
AcDbEntity
  8
0
  6
Continuous
 62
   179
370
    18
100
AcDbCircle
 10
89.0487250788
 20
4.1046569124
 30
0.0
 40
2.07598399629105
100
AcDbArc
 50
277.7634675038
 51
279.1917900002
  0
ARC
  5
96
330
73
100
AcDbEntity
  8
0
  6
Continuous
 62
   179
370
    18
100
AcDbCircle
 10
9.2588909915
 20
6.4054930194
 30
0.0
 40
1.579500000000074
100
AcDbArc
 50
31.0558004991
 51
330.0
  0
ARC
  5
97
330
73
100
AcDbEntity
  8
0
  6
Continuous
 62
   179
370
    18
100
AcDbCircle
 10
9.2588909915
 20
6.4054930194
 30
0.0
 40
2.281500000000107
100
AcDbArc
 50
30.7309172659
 51
330.0
  0
ARC
  5
98
330
73
100
AcDbEntity
  8
0
  6
Continuous
 62
   179
370
    18
100
AcDbCircle
 10
6.1288847544
 20
4.0685261312
 30
0.0
 40
4.914000000000307
100
AcDbArc
 50
172.3058370354
 51
179.7113029221
  0
ARC
  5
99
330
73
100
AcDbEntity
  8
0
  6
Continuous
 62
   179
370
    18
100
AcDbCircle
 10
-0.5401152456
 20
4.0685261312
 30
0.0
 40
4.91400000000019
100
AcDbArc
 50
0.2886970779
 51
7.6941629646
  0
ARC
  5
9A
330
73
100
AcDbEntity
  8
0
  6
Continuous
 62
   179
370
    18
100
AcDbCircle
 10
-0.5401152456
 20
4.0685261312
 30
0.0
 40
5.616000000000127
100
AcDbArc
 50
0.2526096926
 51
53.5764263577
  0
ARC
  5
9B
330
73
100
AcDbEntity
  8
0
  6
Continuous
 62
   179
370
    18
100
AcDbCircle
 10
6.1288847544
 20
4.0685261312
 30
0.0
 40
5.61600000000074
100
AcDbArc
 50
126.4235736423
 51
179.7473903073
  0
ARC
  5
9C
330
73
100
AcDbEntity
  8
0
  6
Continuous
 62
   179
370
    18
100
AcDbCircle
 10
-0.5401152456
 20
4.0685261312
 30
0.0
 40
4.914000000000161
100
AcDbArc
 50
16.0658750272
 51
47.2678899574
  0
ARC
  5
9D
330
73
100
AcDbEntity
  8
0
  6
Continuous
 62
   179
370
    18
100
AcDbCircle
 10
6.1288847544
 20
4.0685261312
 30
0.0
 40
4.914000000000584
100
AcDbArc
 50
132.7321100426
 51
163.9341249728
  0
LINE
  5
9E
330
73
100
AcDbEntity
  8
0
  6
Continuous
 62
   179
370
    18
100
AcDbLine
 10
78.8017089389
 20
2.8885802402
 30
0.0
 11
90.7982178739
 21
3.8455002136
 31
0.0
  0
LINE
  5
9F
330
73
100
AcDbEntity
  8
0
  6
Continuous
 62
   179
370
    18
100
AcDbLine
 10
76.6545490427
 20
5.8693097374
 30
0.0
 11
78.0344191726
 21
3.5235305166
 31
0.0
  0
LINE
  5
A0
330
73
100
AcDbEntity
  8
0
  6
Continuous
 62
   179
370
    18
100
AcDbLine
 10
91.5327615373
 20
4.6257342197
 30
0.0
 11
90.9577457715
 21
13.4579763825
 31
0.0
  0
LINE
  5
A1
330
73
100
AcDbEntity
  8
0
  6
Continuous
 62
   179
370
    18
100
AcDbLine
 10
78.6309362756
 20
12.8788539549
 30
0.0
 11
78.8360757629
 21
3.6475770268
 31
0.0
  0
LINE
  5
A2
330
73
100
AcDbEntity
  8
0
  6
Continuous
 62
   179
370
    18
100
AcDbLine
 10
80.4094186633
 20
4.6950685544
 30
0.0
 11
90.1819221045
 21
5.4824266516
 31
0.0
  0
LINE
  5
A3
330
73
100
AcDbEntity
  8
0
  6
Continuous
 62
   179
370
    18
100
AcDbLine
 10
79.1595373973
 20
3.3551666867
 30
0.0
 11
91.2569309872
 21
4.3071688694
 31
0.0
  0
LINE
  5
A4
330
73
100
AcDbEntity
  8
0
  6
Continuous
 62
   179
370
    18
100
AcDbLine
 10
79.2585043218
 20
2.925017226
 30
0.0
 11
80.4858981444
 21
1.533240302
 31
0.0
  0
LINE
  5
A5
330
73
100
AcDbEntity
  8
0
  6
Continuous
 62
   179
370
    18
100
AcDbLine
 10
78.0344191726
 20
3.5235305166
 30
0.0
 11
78.3638740472
 21
3.1446574108
 31
0.0
  0
LINE
  5
A6
330
73
100
AcDbEntity
  8
0
  6
Continuous
 62
   179
370
    18
100
AcDbLine
 10
78.3638740472
 20
3.1446574108
 30
0.0
 11
78.4680611395
 21
3.0248422547
 31
0.0
  0
LINE
  5
A7
330
73
100
AcDbEntity
  8
0
  6
Continuous
 62
   179
370
    18
100
AcDbLine
 10
81.3414110113
 20
1.2002475785
 30
0.0
 11
89.3291569519
 21
2.0477010263
 31
0.0
  0
LINE
  5
A8
330
73
100
AcDbEntity
  8
0
  6
Continuous
 62
   179
370
    18
100
AcDbLine
 10
89.8661472522
 20
2.5197759309
 30
0.0
 11
89.8661472522
 21
2.3090867337
 31
0.0
  0
LINE
  5
A9
330
73
100
AcDbEntity
  8
0
  6
Continuous
 62
   179
370
    18
100
AcDbLine
 10
88.676842368
 20
3.6762854359
 30
0.0
 11
89.6713239345
 21
2.7875997807
 31
0.0
  0
LINE
  5
AA
330
73
100
AcDbEntity
  8
0
  6
Continuous
 62
   179
370
    18
100
AcDbLine
 10
89.6713239345
 20
2.7875997807
 30
0.0
 11
89.7459749087
 21
2.7242700694
 31
0.0
  0
LINE
  5
AB
330
73
100
AcDbEntity
  8
0
  6
Continuous
 62
   179
370
    18
100
AcDbLine
 10
90.7982178739
 20
3.8455002136
 30
0.0
 11
91.3961615969
 21
4.3514525945
 31
0.0
  0
LINE
  5
AC
330
73
100
AcDbEntity
  8
0
  6
Continuous
 62
   179
370
    18
100
AcDbLine
 10
90.6442498554
 20
13.7381534621
 30
0.0
 11
78.1502930503
 21
13.1490474438
 31
0.0
  0
LINE
  5
AD
330
73
100
AcDbEntity
  8
0
  6
Continuous
 62
   179
370
    18
100
AcDbLine
 10
80.1347709981
 20
12.2388892068
 30
0.0
 11
89.8487925667
 21
12.7550932515
 31
0.0
  0
LINE
  5
AE
330
73
100
AcDbEntity
  8
0
  6
Continuous
 62
   179
370
    18
100
AcDbLine
 10
76.4935641943
 20
11.7567556248
 30
0.0
 11
76.6545490427
 21
5.8693097374
 31
0.0
  0
LINE
  5
AF
330
73
100
AcDbEntity
  8
0
  6
Continuous
 62
   179
370
    18
100
AcDbLine
 10
79.8508616208
 20
11.929182536
 30
0.0
 11
80.0854971721
 21
4.9839702153
 31
0.0
  0
LINE
  5
B0
330
73
100
AcDbEntity
  8
0
  6
Continuous
 62
   179
370
    18
100
AcDbLine
 10
80.5293311574
 20
9.7310185051
 30
0.0
 11
80.6057415643
 21
7.4769115
 31
0.0
  0
LINE
  5
B1
330
73
100
AcDbEntity
  8
0
  6
Continuous
 62
   179
370
    18
100
AcDbLine
 10
77.507650604
 20
12.7708420346
 30
0.0
 11
76.4935641943
 21
11.7567556248
 31
0.0
  0
LINE
  5
B2
330
73
100
AcDbEntity
  8
0
  6
Continuous
 62
   179
370
    18
100
AcDbLine
 10
86.8848195129
 20
11.0661568594
 30
0.0
 11
88.6742167283
 21
11.1634880887
 31
0.0
  0
LINE
  5
B3
330
73
100
AcDbEntity
  8
0
  6
Continuous
 62
   179
370
    18
100
AcDbLine
 10
87.0766213517
 20
6.9287171941
 30
0.0
 11
88.90708891
 21
7.0695223909
 31
0.0
  0
LINE
  5
B4
330
73
100
AcDbEntity
  8
0
  6
Continuous
 62
   179
370
    18
100
AcDbLine
 10
87.6830038473
 20
7.6147347768
 30
0.0
 11
88.8536252418
 21
7.7047825764
 31
0.0
  0
LINE
  5
B5
330
73
100
AcDbEntity
  8
0
  6
Continuous
 62
   179
370
    18
100
AcDbLine
 10
87.5509212094
 20
10.4639459651
 30
0.0
 11
88.7088412777
 21
10.5269290651
 31
0.0
  0
LINE
  5
B6
330
73
100
AcDbEntity
  8
0
  6
Continuous
 62
   179
370
    18
100
AcDbLine
 10
87.0766218384
 20
6.9287066941
 30
0.0
 11
86.8848195129
 21
11.0661568594
 31
0.0
  0
LINE
  5
B7
330
73
100
AcDbEntity
  8
0
  6
Continuous
 62
   179
370
    18
100
AcDbLine
 10
83.7004598825
 20
6.6667911093
 30
0.0
 11
84.5054929504
 21
10.9267193262
 31
0.0
  0
LINE
  5
B8
330
73
100
AcDbEntity
  8
0
  6
Continuous
 62
   179
370
    18
100
AcDbLine
 10
85.3543248406
 20
10.9728900984
 30
0.0
 11
86.4940946704
 21
6.8816860929
 31
0.0
  0
LINE
  5
B9
330
73
100
AcDbEntity
  8
0
  6
Continuous
 62
   179
370
    18
100
AcDbLine
 10
84.9728575427
 20
9.9667192298
 30
0.0
 11
85.4540299774
 21
8.2395506903
 31
0.0
  0
LINE
  5
BA
330
73
100
AcDbEntity
  8
0
  6
Continuous
 62
   179
370
    18
100
AcDbLine
 10
84.6363094629
 20
8.1858350416
 30
0.0
 11
84.9728575427
 21
9.9667192298
 31
0.0
  0
LINE
  5
BB
330
73
100
AcDbEntity
  8
0
  6
Continuous
 62
   179
370
    18
100
AcDbLine
 10
87.6830038473
 20
7.6147347768
 30
0.0
 11
87.5509212094
 21
10.4639459651
 31
0.0
  0
LINE
  5
BC
330
73
100
AcDbEntity
  8
0
  6
Continuous
 62
   179
370
    18
100
AcDbLine
 10
84.6363094629
 20
8.1858350416
 30
0.0
 11
85.4540299774
 21
8.2395506903
 31
0.0
  0
LINE
  5
BD
330
73
100
AcDbEntity
  8
0
  6
Continuous
 62
   179
370
    18
100
AcDbLine
 10
84.5140586807
 20
7.5389304886
 30
0.0
 11
85.6288154243
 21
7.6121582976
 31
0.0
  0
LINE
  5
BE
330
73
100
AcDbEntity
  8
0
  6
Continuous
 62
   179
370
    18
100
AcDbLine
 10
84.3588137958
 20
6.717433718
 30
0.0
 11
84.5140586807
 21
7.5389304886
 31
0.0
  0
LINE
  5
BF
330
73
100
AcDbEntity
  8
0
  6
Continuous
 62
   179
370
    18
100
AcDbLine
 10
81.6818640104
 20
6.5137358601
 30
0.0
 11
82.4802416972
 21
6.5751495283
 31
0.0
  0
LINE
  5
C0
330
73
100
AcDbEntity
  8
0
  6
Continuous
 62
   179
370
    18
100
AcDbLine
 10
81.6329699923
 20
7.1493580946
 30
0.0
 11
82.4313476791
 21
7.2107717628
 31
0.0
  0
LINE
  5
C1
330
73
100
AcDbEntity
  8
0
  6
Continuous
 62
   179
370
    18
100
AcDbLine
 10
83.7004598825
 20
6.6667911093
 30
0.0
 11
84.3588137958
 21
6.717433718
 31
0.0
  0
LINE
  5
C2
330
73
100
AcDbEntity
  8
0
  6
Continuous
 62
   179
370
    18
100
AcDbLine
 10
82.7059483815
 20
9.3512024135
 30
0.0
 11
83.3423973297
 21
9.3930104243
 31
0.0
  0
LINE
  5
C3
330
73
100
AcDbEntity
  8
0
  6
Continuous
 62
   179
370
    18
100
AcDbLine
 10
82.7491656358
 20
8.0762934118
 30
0.0
 11
83.385614584
 21
8.1181014226
 31
0.0
  0
LINE
  5
C4
330
73
100
AcDbEntity
  8
0
  6
Continuous
 62
   179
370
    18
100
AcDbLine
 10
81.1664651987
 20
9.7526162692
 30
0.0
 11
81.2428756056
 21
7.4985092641
 31
0.0
  0
LINE
  5
C5
330
73
100
AcDbEntity
  8
0
  6
Continuous
 62
   179
370
    18
100
AcDbLine
 10
82.6900353128
 20
9.8206379383
 30
0.0
 11
82.7052632884
 21
9.3714126602
 31
0.0
  0
LINE
  5
C6
330
73
100
AcDbEntity
  8
0
  6
Continuous
 62
   179
370
    18
100
AcDbLine
 10
82.7491656358
 20
8.0762934118
 30
0.0
 11
82.7658371041
 21
7.5844850954
 31
0.0
  0
LINE
  5
C7
330
73
100
AcDbEntity
  8
0
  6
Continuous
 62
   179
370
    18
100
AcDbLine
 10
83.3271693541
 20
9.8422357024
 30
0.0
 11
83.3423973297
 21
9.3930104243
 31
0.0
  0
LINE
  5
C8
330
73
100
AcDbEntity
  8
0
  6
Continuous
 62
   179
370
    18
100
AcDbLine
 10
83.385614584
 20
8.1181014226
 30
0.0
 11
83.4029711454
 21
7.6060828595
 31
0.0
  0
LINE
  5
C9
330
73
100
AcDbEntity
  8
0
  6
Continuous
 62
   179
370
    18
100
AcDbLine
 10
85.6288154243
 20
7.6121582976
 30
0.0
 11
85.8462022593
 21
6.8318482152
 31
0.0
  0
LINE
  5
CA
330
73
100
AcDbEntity
  8
0
  6
Continuous
 62
   179
370
    18
100
AcDbLine
 10
85.8462022593
 20
6.8318482152
 30
0.0
 11
86.4940946704
 21
6.8816860929
 31
0.0
  0
LINE
  5
CB
330
73
100
AcDbEntity
  8
0
  6
Continuous
 62
   179
370
    18
100
AcDbLine
 10
84.5054929504
 20
10.9267193262
 30
0.0
 11
85.3543248406
 21
10.9728900984
 31
0.0
  0
LINE
  5
CC
330
73
100
AcDbEntity
  8
0
  6
Continuous
 62
   179
370
    18
100
AcDbLine
 10
81.4744440858
 20
10.7634213094
 30
0.0
 11
82.2734303883
 21
10.8068808154
 31
0.0
  0
LINE
  5
CD
330
73
100
AcDbEntity
  8
0
  6
Continuous
 62
   179
370
    18
100
AcDbLine
 10
81.5090686352
 20
10.1268622858
 30
0.0
 11
82.3080549377
 21
10.1703217918
 31
0.0
  0
LINE
  5
CE
330
73
100
AcDbEntity
  8
0
  6
Continuous
 62
   179
370
    18
100
AcDbLine
 10
90.4575406452
 20
5.7946206556
 30
0.0
 11
90.1644232213
 21
12.4686789239
 31
0.0
  0
LINE
  5
CF
330
73
100
AcDbEntity
  8
0
  6
Continuous
 62
   179
370
    18
100
AcDbLine
 10
89.8247499755
 20
8.1125227115
 30
0.0
 11
89.7274569615
 21
10.2112720142
 31
0.0
  0
LINE
  5
D0
330
73
100
AcDbEntity
  8
0
  6
Continuous
 62
   179
370
    18
100
AcDbLine
 10
89.1879338763
 20
8.0830014354
 30
0.0
 11
89.0906408622
 21
10.181750738
 31
0.0
  0
LINE
  5
D1
330
73
100
AcDbEntity
  8
0
  6
Continuous
 62
   179
370
    18
100
AcDbLine
 10
89.7459749087
 20
2.7242700694
 30
0.0
 11
89.7974962577
 21
2.6659765769
 31
0.0
  0
LINE
  5
D2
330
73
100
AcDbEntity
  8
0
  6
Continuous
 62
   179
370
    18
100
AcDbLine
 10
89.7974962577
 20
2.6659765769
 30
0.0
 11
89.8351851379
 21
2.60192886
 31
0.0
  0
LINE
  5
D3
330
73
100
AcDbEntity
  8
0
  6
Continuous
 62
   179
370
    18
100
AcDbLine
 10
89.8351851379
 20
2.60192886
 30
0.0
 11
89.8661472522
 21
2.5197759309
 31
0.0
  0
LINE
  5
D4
330
73
100
AcDbEntity
  8
0
  6
Continuous
 62
   179
370
    18
100
AcDbLine
 10
10.6119938288
 20
7.2203138351
 30
0.0
 11
11.2200151261
 21
7.5713550947
 31
0.0
  0
LINE
  5
D5
330
73
100
AcDbEntity
  8
0
  6
Continuous
 62
   179
370
    18
100
AcDbLine
 10
11.2347279503
 20
5.2647430194
 30
0.0
 11
10.6267781168
 21
5.6157430194
 31
0.0
  0
LINE
  5
D6
330
73
100
AcDbEntity
  8
0
  6
Continuous
 62
   179
370
    18
100
AcDbLine
 10
6.4645062371
 20
16.1712617198
 30
0.0
 11
6.4645062371
 21
2.9364593988
 31
0.0
  0
LINE
  5
D7
330
73
100
AcDbEntity
  8
0
  6
Continuous
 62
   179
370
    18
100
AcDbLine
 10
6.4645062371
 20
2.9364593988
 30
0.0
 11
12.0532757459
 21
2.9364593988
 31
0.0
  0
LINE
  5
D8
330
73
100
AcDbEntity
  8
0
  6
Continuous
 62
   179
370
    18
100
AcDbLine
 10
12.0532757459
 20
2.9364593988
 30
0.0
 11
12.0532757459
 21
16.1712617198
 31
0.0
  0
LINE
  5
D9
330
73
100
AcDbEntity
  8
0
  6
Continuous
 62
   179
370
    18
100
AcDbLine
 10
12.0532757459
 20
16.1712617198
 30
0.0
 11
6.4645062371
 21
16.1712617198
 31
0.0
  0
LINE
  5
DA
330
73
100
AcDbEntity
  8
0
  6
Continuous
 62
   179
370
    18
100
AcDbLine
 10
0.0
 20
16.1712617198
 30
0.0
 11
0.0
 21
2.9364593988
 31
0.0
  0
LINE
  5
DB
330
73
100
AcDbEntity
  8
0
  6
Continuous
 62
   179
370
    18
100
AcDbLine
 10
0.0
 20
2.9364593988
 30
0.0
 11
5.5887695089
 21
2.9364593988
 31
0.0
  0
LINE
  5
DC
330
73
100
AcDbEntity
  8
0
  6
Continuous
 62
   179
370
    18
100
AcDbLine
 10
5.5887695089
 20
2.9364593988
 30
0.0
 11
5.5887695089
 21
16.1712617198
 31
0.0
  0
LINE
  5
DD
330
73
100
AcDbEntity
  8
0
  6
Continuous
 62
   179
370
    18
100
AcDbLine
 10
5.5887695089
 20
16.1712617198
 30
0.0
 11
0.0
 21
16.1712617198
 31
0.0
  0
LINE
  5
DE
330
73
100
AcDbEntity
  8
0
  6
Continuous
 62
   179
370
    18
100
AcDbLine
 10
1.2591262606
 20
4.7264381407
 30
0.0
 11
4.3296432482
 21
4.7264381407
 31
0.0
  0
LINE
  5
DF
330
73
100
AcDbEntity
  8
0
  6
Continuous
 62
   179
370
    18
100
AcDbLine
 10
4.3738223747
 20
4.0932862697
 30
0.0
 11
5.0758301722
 21
4.0932862697
 31
0.0
  0
LINE
  5
E0
330
73
100
AcDbEntity
  8
0
  6
Continuous
 62
   179
370
    18
100
AcDbLine
 10
0.5129393366
 20
4.0932862697
 30
0.0
 11
1.2149471342
 21
4.0932862697
 31
0.0
  0
LINE
  5
E1
330
73
100
AcDbEntity
  8
0
  6
Continuous
 62
   179
370
    18
100
AcDbLine
 10
4.1819643097
 20
5.4284381407
 30
0.0
 11
1.4068051992
 21
5.4284381407
 31
0.0
  0
LINE
  5
E2
330
73
100
AcDbEntity
  8
0
  6
Continuous
 62
   179
370
    18
100
AcDbLine
 10
18.517781983
 20
16.1712617198
 30
0.0
 11
18.517781983
 21
2.9364593988
 31
0.0
  0
LINE
  5
E3
330
73
100
AcDbEntity
  8
0
  6
Continuous
 62
   179
370
    18
100
AcDbLine
 10
18.517781983
 20
2.9364593988
 30
0.0
 11
12.9290124742
 21
2.9364593988
 31
0.0
  0
LINE
  5
E4
330
73
100
AcDbEntity
  8
0
  6
Continuous
 62
   179
370
    18
100
AcDbLine
 10
12.9290124742
 20
2.9364593988
 30
0.0
 11
12.9290124742
 21
16.1712617198
 31
0.0
  0
LINE
  5
E5
330
73
100
AcDbEntity
  8
0
  6
Continuous
 62
   179
370
    18
100
AcDbLine
 10
12.9290124742
 20
16.1712617198
 30
0.0
 11
18.517781983
 21
16.1712617198
 31
0.0
  0
INSERT
  5
EB
330
73
100
AcDbEntity
  8
0
  6
Continuous
 62
     7
370
     0
100
AcDbBlockReference
  2
SW_NOTE_0
 10
1.8998941161
 20
-0.3226565443
 30
0.0
  0
INSERT
  5
F0
330
73
100
AcDbEntity
  8
0
  6
Continuous
 62
     7
370
     0
100
AcDbBlockReference
  2
SW_NOTE_0_1
 10
29.1164837035
 20
12.7459167441
 30
0.0
  0
INSERT
  5
F8
330
73
100
AcDbEntity
  8
0
  6
Continuous
 62
     7
370
     0
100
AcDbBlockReference
  2
SW_NOTE_0_2
 10
28.8863479825
 20
8.6365742194
 30
0.0
  0
ENDBLK
  5
75
330
73
100
AcDbEntity
  8
0
100
AcDbBlockEnd
  0
BLOCK
  5
E7
330
E6
100
AcDbEntity
  8
0
100
AcDbBlockBegin
  2
SW_NOTE_0
 70
     0
 10
0.0
 20
0.0
 30
0.0
  3
SW_NOTE_0
  1

  0
MTEXT
  5
EA
330
E6
100
AcDbEntity
  8
0
  6
Continuous
 62
     0
370
     0
100
AcDbMText
 10
7.46875
 20
2.5781354795
 30
0.0
 40
2.0
 41
0.0
 71
     2
 72
     1
  1
www.aco.ch
  7
SLDTEXTSTYLE0
 73
     1
 44
1.0
  0
ENDBLK
  5
E8
330
E6
100
AcDbEntity
  8
0
100
AcDbBlockEnd
  0
BLOCK
  5
ED
330
EC
100
AcDbEntity
  8
0
100
AcDbBlockBegin
  2
SW_NOTE_0_1
 70
     0
 10
0.0
 20
0.0
 30
0.0
  3
SW_NOTE_0_1
  1

  0
MTEXT
  5
EF
330
EC
100
AcDbEntity
  8
0
  6
Continuous
 62
     0
370
     0
100
AcDbMText
 10
0.0
 20
3.8672032193
 30
0.0
 40
3.0
 41
0.0
 71
     1
 72
     1
  1
ACO AG
  7
SLDTEXTSTYLE0
 73
     1
 44
1.0
  0
ENDBLK
  5
EE
330
EC
100
AcDbEntity
  8
0
100
AcDbBlockEnd
  0
BLOCK
  5
F2
330
F1
100
AcDbEntity
  8
0
100
AcDbBlockBegin
  2
SW_NOTE_0_2
 70
     0
 10
0.0
 20
0.0
 30
0.0
  3
SW_NOTE_0_2
  1

  0
MTEXT
  5
F4
330
F1
100
AcDbEntity
  8
0
  6
Continuous
 62
     0
370
     0
100
AcDbMText
 10
0.0
 20
2.5781354795
 30
0.0
 40
2.0
 41
0.0
 71
     1
 72
     1
  1
Industrie Kleinzaun
  7
SLDTEXTSTYLE0
 73
     1
 44
1.0
  0
MTEXT
  5
F5
330
F1
100
AcDbEntity
  8
0
  6
Continuous
 62
     0
370
     0
100
AcDbMText
 10
0.0
 20
-0.4218645465
 30
0.0
 40
2.0
 41
0.0
 71
     1
 72
     1
  1
CH-8754 Netstal
  7
SLDTEXTSTYLE0
 73
     1
 44
1.0
  0
MTEXT
  5
F6
330
F1
100
AcDbEntity
  8
0
  6
Continuous
 62
     0
370
     0
100
AcDbMText
 10
0.0
 20
-3.4218645726
 30
0.0
 40
2.0
 41
0.0
 71
     1
 72
     1
  1
Tel. 055 / 645 53 00
  7
SLDTEXTSTYLE0
 73
     1
 44
1.0
  0
MTEXT
  5
F7
330
F1
100
AcDbEntity
  8
0
  6
Continuous
 62
     0
370
     0
100
AcDbMText
 10
0.0
 20
-6.4218645987
 30
0.0
 40
2.0
 41
0.0
 71
     1
 72
     1
  1
E-Mail: aco@aco.ch
  7
SLDTEXTSTYLE0
 73
     1
 44
1.0
  0
ENDBLK
  5
F3
330
F1
100
AcDbEntity
  8
0
100
AcDbBlockEnd
  0
BLOCK
  5
171
330
170
100
AcDbEntity
  8
0
100
AcDbBlockBegin
  2
SW_NOTE_0_3
 70
     0
 10
0.0
 20
0.0
 30
0.0
  3
SW_NOTE_0_3
  1

  0
MTEXT
  5
173
330
170
100
AcDbEntity
  8
0
  6
Continuous
 62
     0
370
     0
100
AcDbMText
 10
0.0
 20
1.9336016097
 30
0.0
 40
1.5
 41
0.0
 71
     1
 72
     1
  1
Diese Zeichnung darf weder kopiert
  7
SLDTEXTSTYLE0
 73
     1
 44
1.0
  0
MTEXT
  5
174
330
170
100
AcDbEntity
  8
0
  6
Continuous
 62
     0
370
     0
100
AcDbMText
 10
0.0
 20
-0.5663983345
 30
0.0
 40
1.5
 41
0.0
 71
     1
 72
     1
  1
noch dritten Personen, insbesondere
  7
SLDTEXTSTYLE0
 73
     1
 44
1.0
  0
MTEXT
  5
175
330
170
100
AcDbEntity
  8
0
  6
Continuous
 62
     0
370
     0
100
AcDbMText
 10
0.0
 20
-3.0663982786
 30
0.0
 40
1.5
 41
0.0
 71
     1
 72
     1
  1
zum Zweck anderweitiger Benutzung
  7
SLDTEXTSTYLE0
 73
     1
 44
1.0
  0
MTEXT
  5
176
330
170
100
AcDbEntity
  8
0
  6
Continuous
 62
     0
370
     0
100
AcDbMText
 10
0.0
 20
-5.5663982227
 30
0.0
 40
1.5
 41
0.0
 71
     1
 72
     1
  1
mitgeteilt werden und bleibt unser
  7
SLDTEXTSTYLE0
 73
     1
 44
1.0
  0
MTEXT
  5
177
330
170
100
AcDbEntity
  8
0
  6
Continuous
 62
     0
370
     0
100
AcDbMText
 10
0.0
 20
-8.0663981668
 30
0.0
 40
1.5
 41
0.0
 71
     1
 72
     1
  1
Eigentum.
  7
SLDTEXTSTYLE0
 73
     1
 44
1.0
  0
ENDBLK
  5
172
330
170
100
AcDbEntity
  8
0
100
AcDbBlockEnd
  0
BLOCK
  5
2D2
330
2D1
100
AcDbEntity
  8
0
100
AcDbBlockBegin
  2
_D
 70
     0
 10
0.0
 20
0.0
 30
0.0
  3
_D
  1

  0
SOLID
  5
2D4
330
2D1
100
AcDbEntity
  8
0
  6
Continuous
 62
     7
370
    18
100
AcDbTrace
 10
82.1581201832
 20
82.0374664841
 30
0.0
 11
78.6581201832
 21
82.5759280226
 31
0.0
 12
78.6581201832
 22
81.4990049457
 32
0.0
 13
78.6581201832
 23
81.4990049457
 33
0.0
  0
SOLID
  5
2D5
330
2D1
100
AcDbEntity
  8
0
  6
Continuous
 62
     7
370
    18
100
AcDbTrace
 10
88.1581201832
 20
82.0374664841
 30
0.0
 11
91.6581201832
 21
81.4990049457
 31
0.0
 12
91.6581201832
 22
82.5759280226
 32
0.0
 13
91.6581201832
 23
82.5759280226
 33
0.0
  0
LINE
  5
2D6
330
2D1
100
AcDbEntity
  8
0
  6
Continuous
 62
     7
370
     0
100
AcDbLine
 10
82.1581201832
 20
98.259624569
 30
0.0
 11
82.1581201832
 21
81.0374664841
 31
0.0
  0
LINE
  5
2D7
330
2D1
100
AcDbEntity
  8
0
  6
Continuous
 62
     7
370
     0
100
AcDbLine
 10
88.1581201832
 20
98.259624569
 30
0.0
 11
88.1581201832
 21
81.0374664841
 31
0.0
  0
LINE
  5
2D8
330
2D1
100
AcDbEntity
  8
0
  6
Continuous
 62
     7
370
     0
100
AcDbLine
 10
82.1581201832
 20
82.0374664841
 30
0.0
 11
71.9781135139
 21
82.0374664841
 31
0.0
  0
LINE
  5
2D9
330
2D1
100
AcDbEntity
  8
0
  6
Continuous
 62
     7
370
     0
100
AcDbLine
 10
82.1581201832
 20
82.0374664841
 30
0.0
 11
88.1581201832
 21
82.0374664841
 31
0.0
  0
LINE
  5
2DA
330
2D1
100
AcDbEntity
  8
0
  6
Continuous
 62
     7
370
     0
100
AcDbLine
 10
88.1581201832
 20
82.0374664841
 30
0.0
 11
94.888889414
 21
82.0374664841
 31
0.0
  0
MTEXT
  5
2DB
330
2D1
100
AcDbEntity
  8
0
  6
Continuous
 62
     7
370
    18
100
AcDbMText
 10
71.9781135139
 20
86.5492038062
 30
0.0
 40
3.5
 41
0.0
 71
     1
 72
     1
  1
M
  7
SLDTEXTSTYLE0
 73
     1
 44
1.0
  0
MTEXT
  5
2DC
330
2D1
100
AcDbEntity
  8
0
  6
Continuous
 62
     7
370
    18
100
AcDbMText
 10
75.983669043
 20
86.5492038062
 30
0.0
 40
3.5
 41
0.0
 71
     1
 72
     1
  1
6
  7
SLDTEXTSTYLE0
 73
     1
 44
1.0
  0
ENDBLK
  5
2D3
330
2D1
100
AcDbEntity
  8
0
100
AcDbBlockEnd
  0
BLOCK
  5
2E0
330
2DF
100
AcDbEntity
  8
0
100
AcDbBlockBegin
  2
_D_1
 70
     0
 10
0.0
 20
0.0
 30
0.0
  3
_D_1
  1

  0
SOLID
  5
2E2
330
2DF
100
AcDbEntity
  8
0
  6
Continuous
 62
     7
370
    18
100
AcDbTrace
 10
68.6581201832
 20
164.246174569
 30
0.0
 11
68.1196586447
 21
160.746174569
 31
0.0
 12
69.1965817216
 22
160.746174569
 32
0.0
 13
69.1965817216
 23
160.746174569
 33
0.0
  0
SOLID
  5
2E3
330
2DF
100
AcDbEntity
  8
0
  6
Continuous
 62
     7
370
    18
100
AcDbTrace
 10
68.6581201832
 20
46.246174569
 30
0.0
 11
69.1965817216
 21
49.746174569
 31
0.0
 12
68.1196586447
 22
49.746174569
 32
0.0
 13
68.1196586447
 23
49.746174569
 33
0.0
  0
LINE
  5
2E4
330
2DF
100
AcDbEntity
  8
0
  6
Continuous
 62
     7
370
     0
100
AcDbLine
 10
133.5581201832
 20
164.246174569
 30
0.0
 11
67.6581201832
 21
164.246174569
 31
0.0
  0
LINE
  5
2E5
330
2DF
100
AcDbEntity
  8
0
  6
Continuous
 62
     7
370
     0
100
AcDbLine
 10
133.5581201832
 20
46.246174569
 30
0.0
 11
67.6581201832
 21
46.246174569
 31
0.0
  0
LINE
  5
2E6
330
2DF
100
AcDbEntity
  8
0
  6
Continuous
 62
     7
370
     0
100
AcDbLine
 10
68.6581201832
 20
164.246174569
 30
0.0
 11
68.6581201832
 21
46.246174569
 31
0.0
  0
MTEXT
  5
2E7
330
2DF
100
AcDbEntity
  8
0
  6
Continuous
 62
     7
370
    18
100
AcDbMText
 10
64.1463828612
 20
101.2357580016
 30
0.0
 40
3.5
 41
0.0
 71
     1
 72
     1
  1
118
  7
SLDTEXTSTYLE0
 11
-6.156016597943509E-15
 21
1.0
 31
0.0
 73
     1
 44
1.0
  0
ENDBLK
  5
2E1
330
2DF
100
AcDbEntity
  8
0
100
AcDbBlockEnd
  0
BLOCK
  5
2EA
330
2E9
100
AcDbEntity
  8
0
100
AcDbBlockBegin
  2
_D_2
 70
     0
 10
0.0
 20
0.0
 30
0.0
  3
_D_2
  1

  0
SOLID
  5
2EC
330
2E9
100
AcDbEntity
  8
0
  6
Continuous
 62
     7
370
    18
100
AcDbTrace
 10
128.6581201832
 20
36.246174569
 30
0.0
 11
132.1581201832
 21
35.7077130305
 31
0.0
 12
132.1581201832
 22
36.7846361074
 32
0.0
 13
132.1581201832
 23
36.7846361074
 33
0.0
  0
SOLID
  5
2ED
330
2E9
100
AcDbEntity
  8
0
  6
Continuous
 62
     7
370
    18
100
AcDbTrace
 10
148.6581201832
 20
36.246174569
 30
0.0
 11
145.1581201832
 21
36.7846361074
 31
0.0
 12
145.1581201832
 22
35.7077130305
 32
0.0
 13
145.1581201832
 23
35.7077130305
 33
0.0
  0
LINE
  5
2EE
330
2E9
100
AcDbEntity
  8
0
  6
Continuous
 62
     7
370
     0
100
AcDbLine
 10
128.6581201832
 20
51.146174569
 30
0.0
 11
128.6581201832
 21
35.246174569
 31
0.0
  0
LINE
  5
2EF
330
2E9
100
AcDbEntity
  8
0
  6
Continuous
 62
     7
370
     0
100
AcDbLine
 10
148.6581201832
 20
51.146174569
 30
0.0
 11
148.6581201832
 21
35.246174569
 31
0.0
  0
LINE
  5
2F0
330
2E9
100
AcDbEntity
  8
0
  6
Continuous
 62
     7
370
     0
100
AcDbLine
 10
128.6581201832
 20
36.246174569
 30
0.0
 11
148.6581201832
 21
36.246174569
 31
0.0
  0
MTEXT
  5
2F1
330
2E9
100
AcDbEntity
  8
0
  6
Continuous
 62
     7
370
    18
100
AcDbMText
 10
135.9845091383
 20
40.757911891
 30
0.0
 40
3.5
 41
0.0
 71
     1
 72
     1
  1
20
  7
SLDTEXTSTYLE0
 73
     1
 44
1.0
  0
ENDBLK
  5
2EB
330
2E9
100
AcDbEntity
  8
0
100
AcDbBlockEnd
  0
BLOCK
  5
34E
330
34D
100
AcDbEntity
  8
0
100
AcDbBlockBegin
  2
_D_3
 70
     0
 10
0.0
 20
0.0
 30
0.0
  3
_D_3
  1

  0
SOLID
  5
350
330
34D
100
AcDbEntity
  8
0
  6
Continuous
 62
     7
370
    18
100
AcDbTrace
 10
101.1581201832
 20
182.7021894522
 30
0.0
 11
104.6581201832
 21
182.1637279138
 31
0.0
 12
104.6581201832
 22
183.2406509907
 32
0.0
 13
104.6581201832
 23
183.2406509907
 33
0.0
  0
SOLID
  5
351
330
34D
100
AcDbEntity
  8
0
  6
Continuous
 62
     7
370
    18
100
AcDbTrace
 10
176.1581201832
 20
182.7021894522
 30
0.0
 11
172.6581201832
 21
183.2406509907
 31
0.0
 12
172.6581201832
 22
182.1637279138
 32
0.0
 13
172.6581201832
 23
182.1637279138
 33
0.0
  0
LINE
  5
352
330
34D
100
AcDbEntity
  8
0
  6
Continuous
 62
     7
370
     0
100
AcDbLine
 10
101.1581201832
 20
211.8356318116
 30
0.0
 11
101.1581201832
 21
181.7021894522
 31
0.0
  0
LINE
  5
353
330
34D
100
AcDbEntity
  8
0
  6
Continuous
 62
     7
370
     0
100
AcDbLine
 10
176.1581201832
 20
211.8356318116
 30
0.0
 11
176.1581201832
 21
181.7021894522
 31
0.0
  0
LINE
  5
354
330
34D
100
AcDbEntity
  8
0
  6
Continuous
 62
     7
370
     0
100
AcDbLine
 10
101.1581201832
 20
182.7021894522
 30
0.0
 11
176.1581201832
 21
182.7021894522
 31
0.0
  0
MTEXT
  5
355
330
34D
100
AcDbEntity
  8
0
  6
Continuous
 62
     7
370
    18
100
AcDbMText
 10
133.4330335985
 20
187.2139265414
 30
0.0
 40
3.5
 41
0.0
 71
     1
 72
     1
  1
%%c
  7
SLDTEXTSTYLE0
 73
     1
 44
1.0
  0
MTEXT
  5
356
330
34D
100
AcDbEntity
  8
0
  6
Continuous
 62
     7
370
    18
100
AcDbMText
 10
138.5359851438
 20
187.2236488506
 30
0.0
 40
3.5
 41
0.0
 71
     1
 72
     1
  1
75
  7
SLDTEXTSTYLE0
 73
     1
 44
1.0
  0
ENDBLK
  5
34F
330
34D
100
AcDbEntity
  8
0
100
AcDbBlockEnd
  0
BLOCK
  5
359
330
358
100
AcDbEntity
  8
0
100
AcDbBlockBegin
  2
_D_4
 70
     0
 10
0.0
 20
0.0
 30
0.0
  3
_D_4
  1

  0
SOLID
  5
35B
330
358
100
AcDbEntity
  8
0
  6
Continuous
 62
     7
370
    18
100
AcDbTrace
 10
96.1581201832
 20
268.7058062374
 30
0.0
 11
99.6581201832
 21
268.167344699
 31
0.0
 12
99.6581201832
 22
269.2442677759
 32
0.0
 13
99.6581201832
 23
269.2442677759
 33
0.0
  0
SOLID
  5
35C
330
358
100
AcDbEntity
  8
0
  6
Continuous
 62
     7
370
    18
100
AcDbTrace
 10
181.1581201832
 20
268.7058062374
 30
0.0
 11
177.6581201832
 21
269.2442677759
 31
0.0
 12
177.6581201832
 22
268.167344699
 32
0.0
 13
177.6581201832
 23
268.167344699
 33
0.0
  0
LINE
  5
35D
330
358
100
AcDbEntity
  8
0
  6
Continuous
 62
     7
370
     0
100
AcDbLine
 10
96.1581201832
 20
250.8021894522
 30
0.0
 11
96.1581201832
 21
269.7058062374
 31
0.0
  0
LINE
  5
35E
330
358
100
AcDbEntity
  8
0
  6
Continuous
 62
     7
370
     0
100
AcDbLine
 10
181.1581201832
 20
250.8021894522
 30
0.0
 11
181.1581201832
 21
269.7058062374
 31
0.0
  0
LINE
  5
35F
330
358
100
AcDbEntity
  8
0
  6
Continuous
 62
     7
370
     0
100
AcDbLine
 10
96.1581201832
 20
268.7058062374
 30
0.0
 11
181.1581201832
 21
268.7058062374
 31
0.0
  0
MTEXT
  5
360
330
358
100
AcDbEntity
  8
0
  6
Continuous
 62
     7
370
    18
100
AcDbMText
 10
133.4330335985
 20
273.2175433266
 30
0.0
 40
3.5
 41
0.0
 71
     1
 72
     1
  1
%%c
  7
SLDTEXTSTYLE0
 73
     1
 44
1.0
  0
MTEXT
  5
361
330
358
100
AcDbEntity
  8
0
  6
Continuous
 62
     7
370
    18
100
AcDbMText
 10
138.5359851438
 20
273.2272656358
 30
0.0
 40
3.5
 41
0.0
 71
     1
 72
     1
  1
85
  7
SLDTEXTSTYLE0
 73
     1
 44
1.0
  0
ENDBLK
  5
35A
330
358
100
AcDbEntity
  8
0
100
AcDbBlockEnd
  0
BLOCK
  5
364
330
363
100
AcDbEntity
  8
0
100
AcDbBlockBegin
  2
_D_5
 70
     0
 10
0.0
 20
0.0
 30
0.0
  3
_D_5
  1

  0
SOLID
  5
366
330
363
100
AcDbEntity
  8
0
  6
Continuous
 62
     7
370
    18
100
AcDbTrace
 10
208.6581201832
 20
250.7021894522
 30
0.0
 11
209.1965817216
 21
254.2021894522
 31
0.0
 12
208.1196586447
 22
254.2021894522
 32
0.0
 13
208.1196586447
 23
254.2021894522
 33
0.0
  0
SOLID
  5
367
330
363
100
AcDbEntity
  8
0
  6
Continuous
 62
     7
370
    18
100
AcDbTrace
 10
208.6581201832
 20
247.7021894522
 30
0.0
 11
208.1196586447
 21
244.2021894522
 31
0.0
 12
209.1965817216
 22
244.2021894522
 32
0.0
 13
209.1965817216
 23
244.2021894522
 33
0.0
  0
LINE
  5
368
330
363
100
AcDbEntity
  8
0
  6
Continuous
 62
     7
370
     0
100
AcDbLine
 10
181.2581201832
 20
250.7021894522
 30
0.0
 11
209.6581201832
 21
250.7021894522
 31
0.0
  0
LINE
  5
369
330
363
100
AcDbEntity
  8
0
  6
Continuous
 62
     7
370
     0
100
AcDbLine
 10
181.2581201832
 20
247.7021894522
 30
0.0
 11
209.6581201832
 21
247.7021894522
 31
0.0
  0
LINE
  5
36A
330
363
100
AcDbEntity
  8
0
  6
Continuous
 62
     7
370
     0
100
AcDbLine
 10
208.6581201832
 20
250.7021894522
 30
0.0
 11
208.6581201832
 21
258.2396123489
 31
0.0
  0
LINE
  5
36B
330
363
100
AcDbEntity
  8
0
  6
Continuous
 62
     7
370
     0
100
AcDbLine
 10
208.6581201832
 20
250.7021894522
 30
0.0
 11
208.6581201832
 21
247.7021894522
 31
0.0
  0
LINE
  5
36C
330
363
100
AcDbEntity
  8
0
  6
Continuous
 62
     7
370
     0
100
AcDbLine
 10
208.6581201832
 20
247.7021894522
 30
0.0
 11
208.6581201832
 21
240.9714202214
 31
0.0
  0
MTEXT
  5
36D
330
363
100
AcDbEntity
  8
0
  6
Continuous
 62
     7
370
    18
100
AcDbMText
 10
204.1463828612
 20
255.566001304
 30
0.0
 40
3.5
 41
0.0
 71
     1
 72
     1
  1
3
  7
SLDTEXTSTYLE0
 11
-7.044195017643634E-15
 21
1.0
 31
0.0
 73
     1
 44
1.0
  0
ENDBLK
  5
365
330
363
100
AcDbEntity
  8
0
100
AcDbBlockEnd
  0
BLOCK
  5
370
330
36F
100
AcDbEntity
  8
0
100
AcDbBlockBegin
  2
_D_6
 70
     0
 10
0.0
 20
0.0
 30
0.0
  3
_D_6
  1

  0
SOLID
  5
372
330
36F
100
AcDbEntity
  8
0
  6
Continuous
 62
     7
370
    18
100
AcDbTrace
 10
208.6581201832
 20
247.7021894522
 30
0.0
 11
208.1196586447
 21
244.2021894522
 31
0.0
 12
209.1965817216
 22
244.2021894522
 32
0.0
 13
209.1965817216
 23
244.2021894522
 33
0.0
  0
SOLID
  5
373
330
36F
100
AcDbEntity
  8
0
  6
Continuous
 62
     7
370
    18
100
AcDbTrace
 10
208.6581201832
 20
205.7021894522
 30
0.0
 11
209.1965817216
 21
209.2021894522
 31
0.0
 12
208.1196586447
 22
209.2021894522
 32
0.0
 13
208.1196586447
 23
209.2021894522
 33
0.0
  0
LINE
  5
374
330
36F
100
AcDbEntity
  8
0
  6
Continuous
 62
     7
370
     0
100
AcDbLine
 10
181.2581201832
 20
247.7021894522
 30
0.0
 11
209.6581201832
 21
247.7021894522
 31
0.0
  0
LINE
  5
375
330
36F
100
AcDbEntity
  8
0
  6
Continuous
 62
     7
370
     0
100
AcDbLine
 10
174.8381201832
 20
205.7021894522
 30
0.0
 11
209.6581201832
 21
205.7021894522
 31
0.0
  0
LINE
  5
376
330
36F
100
AcDbEntity
  8
0
  6
Continuous
 62
     7
370
     0
100
AcDbLine
 10
208.6581201832
 20
247.7021894522
 30
0.0
 11
208.6581201832
 21
205.7021894522
 31
0.0
  0
MTEXT
  5
377
330
36F
100
AcDbEntity
  8
0
  6
Continuous
 62
     7
370
    18
100
AcDbMText
 10
204.1463828612
 20
224.0285784073
 30
0.0
 40
3.5
 41
0.0
 71
     1
 72
     1
  1
42
  7
SLDTEXTSTYLE0
 11
-7.044195017643634E-15
 21
1.0
 31
0.0
 73
     1
 44
1.0
  0
ENDBLK
  5
371
330
36F
100
AcDbEntity
  8
0
100
AcDbBlockEnd
  0
ENDSEC
  0
SECTION
  2
ENTITIES
  0
LINE
  5
F9
330
1F
100
AcDbEntity
  8
0
  6
CENTERX2
 62
     7
370
    18
100
AcDbLine
 10
352.6174545849
 20
46.9080238789
 30
0.0
 11
352.6174545849
 21
39.4621586124
 31
0.0
  0
LINE
  5
FA
330
1F
100
AcDbEntity
  8
0
  6
Continuous
 62
     7
370
    18
100
AcDbLine
 10
357.7661698132
 20
46.3720107039
 30
0.0
 11
357.7661698132
 21
39.9353173413
 31
0.0
  0
LINE
  5
FB
330
1F
100
AcDbEntity
  8
0
  6
Continuous
 62
     7
370
    18
100
AcDbLine
 10
364.6059427486
 20
44.7376225767
 30
0.0
 11
364.6059427486
 21
41.5697054685
 31
0.0
  0
LINE
  5
FC
330
1F
100
AcDbEntity
  8
0
  6
Continuous
 62
     7
370
    18
100
AcDbLine
 10
364.6059427486
 20
44.7376225767
 30
0.0
 11
357.7661698132
 21
46.3720107039
 31
0.0
  0
LINE
  5
FD
330
1F
100
AcDbEntity
  8
0
  6
Continuous
 62
     7
370
    18
100
AcDbLine
 10
15.0
 20
198.5
 30
0.0
 11
20.0
 21
198.5
 31
0.0
  0
LINE
  5
FE
330
1F
100
AcDbEntity
  8
0
  6
Continuous
 62
     7
370
    18
100
AcDbLine
 10
12.0
 20
148.5
 30
0.0
 11
0.0
 21
148.5
 31
0.0
  0
LINE
  5
FF
330
1F
100
AcDbEntity
  8
0
  6
Continuous
 62
     7
370
    18
100
AcDbLine
 10
357.7661698132
 20
39.9353173413
 30
0.0
 11
364.6059427486
 21
41.5697054685
 31
0.0
  0
LINE
  5
100
330
1F
100
AcDbEntity
  8
0
  6
CENTERX2
 62
     7
370
    18
100
AcDbLine
 10
348.6240467841
 20
43.1536640226
 30
0.0
 11
356.6108623857
 21
43.1536640226
 31
0.0
  0
LINE
  5
101
330
1F
100
AcDbEntity
  8
0
  6
CENTERX2
 62
     7
370
    18
100
AcDbLine
 10
357.1289238876
 20
43.1536640226
 30
0.0
 11
365.6255362296
 21
43.1536640226
 31
0.0
  0
LINE
  5
102
330
1F
100
AcDbEntity
  8
0
  6
Continuous
 62
     7
370
    18
100
AcDbLine
 10
0.0
 20
0.0
 30
0.0
 11
420.0
 21
0.0
 31
0.0
  0
LINE
  5
103
330
1F
100
AcDbEntity
  8
0
  6
Continuous
 62
     7
370
    18
100
AcDbLine
 10
0.0
 20
0.0
 30
0.0
 11
0.0
 21
297.0
 31
0.0
  0
LINE
  5
104
330
1F
100
AcDbEntity
  8
0
  6
Continuous
 62
     7
370
    18
100
AcDbLine
 10
0.0
 20
297.0
 30
0.0
 11
420.0
 21
297.0
 31
0.0
  0
LINE
  5
105
330
1F
100
AcDbEntity
  8
0
  6
Continuous
 62
     7
370
    18
100
AcDbLine
 10
420.0
 20
0.0
 30
0.0
 11
420.0
 21
297.0
 31
0.0
  0
LINE
  5
106
330
1F
100
AcDbEntity
  8
0
  6
Continuous
 62
     7
370
    25
100
AcDbLine
 10
228.0
 20
35.0
 30
0.0
 11
410.0
 21
35.0
 31
0.0
  0
LINE
  5
107
330
1F
100
AcDbEntity
  8
0
  6
Continuous
 62
     7
370
    18
100
AcDbLine
 10
410.0
 20
198.5
 30
0.0
 11
415.0
 21
198.5
 31
0.0
  0
LINE
  5
108
330
1F
100
AcDbEntity
  8
0
  6
Continuous
 62
     7
370
    18
100
AcDbLine
 10
15.0
 20
148.5
 30
0.0
 11
20.0
 21
148.5
 31
0.0
  0
LINE
  5
109
330
1F
100
AcDbEntity
  8
0
  6
Continuous
 62
     7
370
    18
100
AcDbLine
 10
228.0
 20
40.0
 30
0.0
 11
296.6
 21
40.0
 31
0.0
  0
LINE
  5
10A
330
1F
100
AcDbEntity
  8
0
  6
Continuous
 62
     7
370
    18
100
AcDbLine
 10
15.0
 20
248.5
 30
0.0
 11
20.0
 21
248.5
 31
0.0
  0
LINE
  5
10B
330
1F
100
AcDbEntity
  8
0
  6
Continuous
 62
     7
370
    35
100
AcDbLine
 10
20.0
 20
287.0
 30
0.0
 11
20.0
 21
10.0
 31
0.0
  0
LINE
  5
10C
330
1F
100
AcDbEntity
  8
0
  6
Continuous
 62
     7
370
    35
100
AcDbLine
 10
410.0
 20
287.0
 30
0.0
 11
20.0
 21
287.0
 31
0.0
  0
LINE
  5
10D
330
1F
100
AcDbEntity
  8
0
  6
Continuous
 62
     7
370
    35
100
AcDbLine
 10
410.0
 20
5.0
 30
0.0
 11
410.0
 21
287.0
 31
0.0
  0
LINE
  5
10E
330
1F
100
AcDbEntity
  8
0
  6
Continuous
 62
     7
370
    35
100
AcDbLine
 10
20.0
 20
10.0
 30
0.0
 11
415.0
 21
10.0
 31
0.0
  0
LINE
  5
10F
330
1F
100
AcDbEntity
  8
0
  6
Continuous
 62
     7
370
    18
100
AcDbLine
 10
410.0
 20
148.5
 30
0.0
 11
415.0
 21
148.5
 31
0.0
  0
LINE
  5
110
330
1F
100
AcDbEntity
  8
0
  6
Continuous
 62
     7
370
    18
100
AcDbLine
 10
228.0
 20
50.0
 30
0.0
 11
296.6
 21
50.0
 31
0.0
  0
LINE
  5
111
330
1F
100
AcDbEntity
  8
0
  6
Continuous
 62
     7
370
    18
100
AcDbLine
 10
15.0
 20
98.5
 30
0.0
 11
20.0
 21
98.5
 31
0.0
  0
LINE
  5
112
330
1F
100
AcDbEntity
  8
0
  6
Continuous
 62
     7
370
    18
100
AcDbLine
 10
296.6
 20
45.0
 30
0.0
 11
228.0
 21
45.0
 31
0.0
  0
LINE
  5
113
330
1F
100
AcDbEntity
  8
0
  6
Continuous
 62
     7
370
    18
100
AcDbLine
 10
65.0
 20
292.0
 30
0.0
 11
65.0
 21
287.0
 31
0.0
  0
LINE
  5
114
330
1F
100
AcDbEntity
  8
0
  6
Continuous
 62
     7
370
    18
100
AcDbLine
 10
230.0
 20
292.0
 30
0.0
 11
230.0
 21
297.0
 31
0.0
  0
LINE
  5
115
330
1F
100
AcDbEntity
  8
0
  6
Continuous
 62
     7
370
    25
100
AcDbLine
 10
296.6
 20
55.0
 30
0.0
 11
296.6
 21
35.0
 31
0.0
  0
LINE
  5
116
330
1F
100
AcDbEntity
  8
0
  6
Continuous
 62
     7
370
    18
100
AcDbLine
 10
410.0
 20
98.5
 30
0.0
 11
415.0
 21
98.5
 31
0.0
  0
LINE
  5
117
330
1F
100
AcDbEntity
  8
0
100
AcDbLine
 10
230.0
 20
5.0
 30
0.0
 11
230.0
 21
0.0
 31
0.0
  0
LINE
  5
118
330
1F
100
AcDbEntity
  8
0
  6
Continuous
 62
     7
370
    18
100
AcDbLine
 10
125.0
 20
292.0
 30
0.0
 11
125.0
 21
297.0
 31
0.0
  0
LINE
  5
119
330
1F
100
AcDbEntity
  8
0
  6
Continuous
 62
     7
370
    18
100
AcDbLine
 10
125.0
 20
5.0
 30
0.0
 11
125.0
 21
0.0
 31
0.0
  0
LINE
  5
11A
330
1F
100
AcDbEntity
  8
0
  6
Continuous
 62
     7
370
    25
100
AcDbLine
 10
410.0
 20
55.0
 30
0.0
 11
228.0
 21
55.0
 31
0.0
  0
LINE
  5
11B
330
1F
100
AcDbEntity
  8
0
  6
Continuous
 62
     7
370
    18
100
AcDbLine
 10
228.0
 20
55.0
 30
0.0
 11
410.0
 21
55.0
 31
0.0
  0
LINE
  5
11C
330
1F
100
AcDbEntity
  8
0
  6
Continuous
 62
     7
370
    18
100
AcDbLine
 10
410.0
 20
55.0
 30
0.0
 11
228.0
 21
55.0
 31
0.0
  0
LINE
  5
11D
330
1F
100
AcDbEntity
  8
0
  6
Continuous
 62
     7
370
    18
100
AcDbLine
 10
268.0
 20
76.5
 30
0.0
 11
268.0
 21
55.0
 31
0.0
  0
LINE
  5
11E
330
1F
100
AcDbEntity
  8
0
  6
Continuous
 62
     7
370
    18
100
AcDbLine
 10
271.6
 20
55.0
 30
0.0
 11
271.6
 21
40.0
 31
0.0
  0
LINE
  5
11F
330
1F
100
AcDbEntity
  8
0
  6
Continuous
 62
     7
370
    18
100
AcDbLine
 10
247.0
 20
55.0
 30
0.0
 11
247.0
 21
35.0
 31
0.0
  0
LINE
  5
120
330
1F
100
AcDbEntity
  8
0
  6
Continuous
 62
     7
370
    35
100
AcDbLine
 10
228.0
 20
76.5
 30
0.0
 11
228.0
 21
10.0
 31
0.0
  0
LINE
  5
121
330
1F
100
AcDbEntity
  8
0
  6
Continuous
 62
     7
370
    18
100
AcDbLine
 10
15.0
 20
292.0
 30
0.0
 11
415.0
 21
292.0
 31
0.0
  0
LINE
  5
122
330
1F
100
AcDbEntity
  8
0
  6
Continuous
 62
     7
370
    18
100
AcDbLine
 10
228.0
 20
65.75
 30
0.0
 11
310.0
 21
65.75
 31
0.0
  0
LINE
  5
123
330
1F
100
AcDbEntity
  8
0
  6
Continuous
 62
     7
370
    35
100
AcDbLine
 10
228.0
 20
76.5
 30
0.0
 11
410.0
 21
76.5
 31
0.0
  0
LINE
  5
124
330
1F
100
AcDbEntity
  8
0
  6
Continuous
 62
     7
370
    18
100
AcDbLine
 10
15.0
 20
48.5
 30
0.0
 11
20.0
 21
48.5
 31
0.0
  0
LINE
  5
125
330
1F
100
AcDbEntity
  8
0
  6
Continuous
 62
     7
370
    18
100
AcDbLine
 10
410.0
 20
48.5
 30
0.0
 11
415.0
 21
48.5
 31
0.0
  0
LINE
  5
126
330
1F
100
AcDbEntity
  8
0
  6
Continuous
 62
     7
370
    18
100
AcDbLine
 10
332.6610845472
 20
20.0
 30
0.0
 11
332.6610845472
 21
10.0
 31
0.0
  0
LINE
  5
127
330
1F
100
AcDbEntity
  8
0
  6
Continuous
 62
     7
370
    18
100
AcDbLine
 10
410.0
 20
248.5
 30
0.0
 11
415.0
 21
248.5
 31
0.0
  0
LINE
  5
128
330
1F
100
AcDbEntity
  8
0
  6
Continuous
 62
     7
370
    18
100
AcDbLine
 10
65.0
 20
10.0
 30
0.0
 11
65.0
 21
5.0
 31
0.0
  0
LINE
  5
129
330
1F
100
AcDbEntity
  8
0
  6
Continuous
 62
     7
370
    18
100
AcDbLine
 10
115.0
 20
10.0
 30
0.0
 11
115.0
 21
5.0
 31
0.0
  0
LINE
  5
12A
330
1F
100
AcDbEntity
  8
0
  6
Continuous
 62
     7
370
    18
100
AcDbLine
 10
115.0
 20
292.0
 30
0.0
 11
115.0
 21
287.0
 31
0.0
  0
LINE
  5
12B
330
1F
100
AcDbEntity
  8
0
  6
Continuous
 62
     7
370
    18
100
AcDbLine
 10
165.0
 20
10.0
 30
0.0
 11
165.0
 21
5.0
 31
0.0
  0
LINE
  5
12C
330
1F
100
AcDbEntity
  8
0
  6
Continuous
 62
     7
370
    18
100
AcDbLine
 10
165.0
 20
292.0
 30
0.0
 11
165.0
 21
287.0
 31
0.0
  0
LINE
  5
12D
330
1F
100
AcDbEntity
  8
0
  6
Continuous
 62
     7
370
    18
100
AcDbLine
 10
215.0
 20
10.0
 30
0.0
 11
215.0
 21
5.0
 31
0.0
  0
LINE
  5
12E
330
1F
100
AcDbEntity
  8
0
  6
Continuous
 62
     7
370
    18
100
AcDbLine
 10
215.0
 20
292.0
 30
0.0
 11
215.0
 21
287.0
 31
0.0
  0
LINE
  5
12F
330
1F
100
AcDbEntity
  8
0
  6
Continuous
 62
     7
370
    18
100
AcDbLine
 10
265.0
 20
10.0
 30
0.0
 11
265.0
 21
5.0
 31
0.0
  0
LINE
  5
130
330
1F
100
AcDbEntity
  8
0
  6
Continuous
 62
     7
370
    18
100
AcDbLine
 10
265.0
 20
292.0
 30
0.0
 11
265.0
 21
287.0
 31
0.0
  0
LINE
  5
131
330
1F
100
AcDbEntity
  8
0
  6
Continuous
 62
     7
370
    18
100
AcDbLine
 10
347.6610845472
 20
20.0
 30
0.0
 11
347.6610845472
 21
10.0
 31
0.0
  0
LINE
  5
132
330
1F
100
AcDbEntity
  8
0
  6
Continuous
 62
     7
370
    18
100
AcDbLine
 10
362.6610845472
 20
20.0
 30
0.0
 11
362.6610845472
 21
10.0
 31
0.0
  0
LINE
  5
133
330
1F
100
AcDbEntity
  8
0
  6
Continuous
 62
     7
370
    25
100
AcDbLine
 10
327.6610845472
 20
10.0
 30
0.0
 11
327.6610845472
 21
55.0
 31
0.0
  0
LINE
  5
134
330
1F
100
AcDbEntity
  8
0
  6
Continuous
 62
     7
370
    18
100
AcDbLine
 10
20.0
 20
292.0
 30
0.0
 11
20.0
 21
297.0
 31
0.0
  0
LINE
  5
135
330
1F
100
AcDbEntity
  8
0
  6
Continuous
 62
     7
370
    18
100
AcDbLine
 10
20.0
 20
5.0
 30
0.0
 11
20.0
 21
0.0
 31
0.0
  0
LINE
  5
136
330
1F
100
AcDbEntity
  8
0
  6
Continuous
 62
     7
370
    18
100
AcDbLine
 10
315.0
 20
10.0
 30
0.0
 11
315.0
 21
5.0
 31
0.0
  0
LINE
  5
137
330
1F
100
AcDbEntity
  8
0
  6
Continuous
 62
     7
370
    18
100
AcDbLine
 10
315.0
 20
292.0
 30
0.0
 11
315.0
 21
287.0
 31
0.0
  0
LINE
  5
138
330
1F
100
AcDbEntity
  8
0
  6
Continuous
 62
     7
370
    18
100
AcDbLine
 10
365.0
 20
10.0
 30
0.0
 11
365.0
 21
5.0
 31
0.0
  0
LINE
  5
139
330
1F
100
AcDbEntity
  8
0
  6
Continuous
 62
     7
370
    18
100
AcDbLine
 10
365.0
 20
292.0
 30
0.0
 11
365.0
 21
287.0
 31
0.0
  0
LINE
  5
13A
330
1F
100
AcDbEntity
  8
0
  6
Continuous
 62
     7
370
    18
100
AcDbLine
 10
15.0
 20
292.0
 30
0.0
 11
15.0
 21
5.0
 31
0.0
  0
LINE
  5
13B
330
1F
100
AcDbEntity
  8
0
  6
Continuous
 62
     7
370
    18
100
AcDbLine
 10
15.0
 20
5.0
 30
0.0
 11
415.0
 21
5.0
 31
0.0
  0
LINE
  5
13C
330
1F
100
AcDbEntity
  8
0
  6
Continuous
 62
     7
370
    18
100
AcDbLine
 10
415.0
 20
292.0
 30
0.0
 11
415.0
 21
5.0
 31
0.0
  0
LINE
  5
13D
330
1F
100
AcDbEntity
  8
0
  6
Continuous
 62
     7
370
    18
100
AcDbLine
 10
347.6610845472
 20
44.213444
 30
0.0
 11
327.6610845472
 21
44.213444
 31
0.0
  0
LINE
  5
13E
330
1F
100
AcDbEntity
  8
0
  6
Continuous
 62
     7
370
    18
100
AcDbLine
 10
347.6610845472
 20
35.0
 30
0.0
 11
347.6610845472
 21
55.0
 31
0.0
  0
LINE
  5
13F
330
1F
100
AcDbEntity
  8
0
  6
Continuous
 62
     7
370
    18
100
AcDbLine
 10
370.057188
 20
55.012032
 30
0.0
 11
370.057188
 21
35.0
 31
0.0
  0
LINE
  5
140
330
1F
100
AcDbEntity
  8
0
  6
Continuous
 62
     7
370
    18
100
AcDbLine
 10
398.0
 20
35.0
 30
0.0
 11
398.0
 21
20.0
 31
0.0
  0
LINE
  5
141
330
1F
100
AcDbEntity
  8
0
  6
Continuous
 62
     7
370
    18
100
AcDbLine
 10
410.0
 20
15.0
 30
0.0
 11
327.6610845472
 21
15.0
 31
0.0
  0
LINE
  5
142
330
1F
100
AcDbEntity
  8
0
  6
Continuous
 62
     7
370
    18
100
AcDbLine
 10
327.6610845472
 20
20.0
 30
0.0
 11
410.0
 21
20.0
 31
0.0
  0
LINE
  5
143
330
1F
100
AcDbEntity
  8
0
  6
Continuous
 62
     7
370
    18
100
AcDbLine
 10
341.485486
 20
20.0
 30
0.0
 11
341.485486
 21
27.564675
 31
0.0
  0
LINE
  5
144
330
1F
100
AcDbEntity
  8
0
  6
Continuous
 62
     7
370
    25
100
AcDbLine
 10
310.0
 20
76.5
 30
0.0
 11
310.0
 21
55.0
 31
0.0
  0
CIRCLE
  5
145
330
1F
100
AcDbEntity
  8
0
  6
Continuous
 62
     7
370
    18
100
AcDbCircle
 10
11.0
 20
108.5
 30
0.0
 40
2.750000000000001
  0
CIRCLE
  5
146
330
1F
100
AcDbEntity
  8
0
  6
Continuous
 62
     7
370
    18
100
AcDbCircle
 10
11.0
 20
188.5
 30
0.0
 40
2.750000000000001
  0
CIRCLE
  5
147
330
1F
100
AcDbEntity
  8
0
  6
Continuous
 62
     7
370
    18
100
AcDbCircle
 10
352.6174545849
 20
43.1536640226
 30
0.0
 40
3.218346681300138
  0
CIRCLE
  5
148
330
1F
100
AcDbEntity
  8
0
  6
Continuous
 62
     7
370
    18
100
AcDbCircle
 10
352.6174545849
 20
43.1536640226
 30
0.0
 40
1.583958554121555
  0
INSERT
  5
149
330
1F
100
AcDbEntity
  8
0
  6
Continuous
 62
     7
100
AcDbBlockReference
  2
ACO-Logo
 10
314.3510726297
 20
57.6366106772
 30
0.0
  0
POINT
  5
14A
330
1F
100
AcDbEntity
  8
0
100
AcDbPoint
 10
0.0
 20
0.0
 30
0.0
  0
POINT
  5
14B
330
1F
100
AcDbEntity
  8
0
100
AcDbPoint
 10
410.0
 20
10.0
 30
0.0
  0
MTEXT
  5
14C
330
1F
100
AcDbEntity
  8
0
  6
Continuous
 62
     7
370
    18
100
AcDbMText
 10
17.7359443114
 20
124.8017866468
 30
0.0
 40
2.0
 41
0.0
 71
     2
 72
     1
  1
D
  7
SLDTEXTSTYLE0
 73
     1
 44
1.0
  0
MTEXT
  5
14D
330
1F
100
AcDbEntity
  8
0
  6
Continuous
 62
     7
370
    18
100
AcDbMText
 10
17.6274822413
 20
174.7261854936
 30
0.0
 40
2.0
 41
0.0
 71
     2
 72
     1
  1
C
  7
SLDTEXTSTYLE0
 73
     1
 44
1.0
  0
MTEXT
  5
14E
330
1F
100
AcDbEntity
  8
0
  6
Continuous
 62
     7
370
    18
100
AcDbMText
 10
17.5516905072
 20
224.4926420442
 30
0.0
 40
2.0
 41
0.0
 71
     2
 72
     1
  1
B
  7
SLDTEXTSTYLE0
 73
     1
 44
1.0
  0
MTEXT
  5
14F
330
1F
100
AcDbEntity
  8
0
  6
Continuous
 62
     7
370
    18
100
AcDbMText
 10
290.0344258799
 20
290.5428789914
 30
0.0
 40
2.0
 41
0.0
 71
     2
 72
     1
  1
6
  7
SLDTEXTSTYLE0
 73
     1
 44
1.0
  0
MTEXT
  5
150
330
1F
100
AcDbEntity
  8
0
  6
Continuous
 62
     7
370
    18
100
AcDbMText
 10
240.0417859812
 20
290.6369260235
 30
0.0
 40
2.0
 41
0.0
 71
     2
 72
     1
  1
5
  7
SLDTEXTSTYLE0
 73
     1
 44
1.0
  0
MTEXT
  5
151
330
1F
100
AcDbEntity
  8
0
  6
Continuous
 62
     7
370
    18
100
AcDbMText
 10
190.0300404524
 20
290.6343268032
 30
0.0
 40
2.0
 41
0.0
 71
     2
 72
     1
  1
4
  7
SLDTEXTSTYLE0
 73
     1
 44
1.0
  0
MTEXT
  5
152
330
1F
100
AcDbEntity
  8
0
  6
Continuous
 62
     7
370
    18
100
AcDbMText
 10
140.0165868337
 20
290.6378887952
 30
0.0
 40
2.0
 41
0.0
 71
     2
 72
     1
  1
3
  7
SLDTEXTSTYLE0
 73
     1
 44
1.0
  0
MTEXT
  5
153
330
1F
100
AcDbEntity
  8
0
  6
Continuous
 62
     7
370
    18
100
AcDbMText
 10
90.033223
 20
290.5566702875
 30
0.0
 40
2.0
 41
0.0
 71
     2
 72
     1
  1
2
  7
SLDTEXTSTYLE0
 73
     1
 44
1.0
  0
MTEXT
  5
154
330
1F
100
AcDbEntity
  8
0
  6
Continuous
 62
     7
370
    18
100
AcDbMText
 10
40.0509551097
 20
290.5530165805
 30
0.0
 40
2.0
 41
0.0
 71
     2
 72
     1
  1
1
  7
SLDTEXTSTYLE0
 73
     1
 44
1.0
  0
MTEXT
  5
155
330
1F
100
AcDbEntity
  8
0
  6
Continuous
 62
     7
370
    18
100
AcDbMText
 10
17.5609786315
 20
271.2966048816
 30
0.0
 40
2.0
 41
0.0
 71
     2
 72
     1
  1
A
  7
SLDTEXTSTYLE0
 73
     1
 44
1.0
  0
MTEXT
  5
156
330
1F
100
AcDbEntity
  8
0
  6
Continuous
 62
     7
370
    18
100
AcDbMText
 10
89.9333968896
 20
8.5904490253
 30
0.0
 40
2.0
 41
0.0
 71
     2
 72
     1
  1
2
  7
SLDTEXTSTYLE0
 73
     1
 44
1.0
  0
MTEXT
  5
157
330
1F
100
AcDbEntity
  8
0
  6
Continuous
 62
     7
370
    18
100
AcDbMText
 10
39.9009486579
 20
8.6623118453
 30
0.0
 40
2.0
 41
0.0
 71
     2
 72
     1
  1
1
  7
SLDTEXTSTYLE0
 73
     1
 44
1.0
  0
MTEXT
  5
158
330
1F
100
AcDbEntity
  8
0
  6
Continuous
 62
     7
370
    18
100
AcDbMText
 10
190.0227230239
 20
8.7073169286
 30
0.0
 40
2.0
 41
0.0
 71
     2
 72
     1
  1
4
  7
SLDTEXTSTYLE0
 73
     1
 44
1.0
  0
MTEXT
  5
159
330
1F
100
AcDbEntity
  8
0
  6
Continuous
 62
     7
370
    18
100
AcDbMText
 10
140.0453427777
 20
8.5647154541
 30
0.0
 40
2.0
 41
0.0
 71
     2
 72
     1
  1
3
  7
SLDTEXTSTYLE0
 73
     1
 44
1.0
  0
MTEXT
  5
15A
330
1F
100
AcDbEntity
  8
0
  6
Continuous
 62
     7
370
    18
100
AcDbMText
 10
239.8749782531
 20
8.5637526825
 30
0.0
 40
2.0
 41
0.0
 71
     2
 72
     1
  1
5
  7
SLDTEXTSTYLE0
 73
     1
 44
1.0
  0
MTEXT
  5
15B
330
1F
100
AcDbEntity
  8
0
  6
Continuous
 62
     7
370
    18
100
AcDbMText
 10
412.6717254925
 20
224.51208263
 30
0.0
 40
2.0
 41
0.0
 71
     2
 72
     1
  1
B
  7
SLDTEXTSTYLE0
 73
     1
 44
1.0
  0
MTEXT
  5
15C
330
1F
100
AcDbEntity
  8
0
  6
Continuous
 62
     7
370
    18
100
AcDbMText
 10
412.5951211154
 20
271.2798202564
 30
0.0
 40
2.0
 41
0.0
 71
     2
 72
     1
  1
A
  7
SLDTEXTSTYLE0
 73
     1
 44
1.0
  0
MTEXT
  5
15D
330
1F
100
AcDbEntity
  8
0
  6
Continuous
 62
     7
370
    18
100
AcDbMText
 10
412.6491448679
 20
174.7279841048
 30
0.0
 40
2.0
 41
0.0
 71
     2
 72
     1
  1
C
  7
SLDTEXTSTYLE0
 73
     1
 44
1.0
  0
MTEXT
  5
15E
330
1F
100
AcDbEntity
  8
0
  6
Continuous
 62
     7
370
    18
100
AcDbMText
 10
340.0216466634
 20
290.5954278102
 30
0.0
 40
2.0
 41
0.0
 71
     2
 72
     1
  1
7
  7
SLDTEXTSTYLE0
 73
     1
 44
1.0
  0
MTEXT
  5
15F
330
1F
100
AcDbEntity
  8
0
  6
Continuous
 62
     7
370
    18
100
AcDbMText
 10
390.037657264
 20
290.6215496941
 30
0.0
 40
2.0
 41
0.0
 71
     2
 72
     1
  1
8
  7
SLDTEXTSTYLE0
 73
     1
 44
1.0
  0
MTEXT
  5
160
330
1F
100
AcDbEntity
  8
0
  6
Continuous
 62
     7
370
    18
100
AcDbMText
 10
17.6897935208
 20
74.7267628143
 30
0.0
 40
2.0
 41
0.0
 71
     2
 72
     1
  1
E
  7
SLDTEXTSTYLE0
 73
     1
 44
1.0
  0
MTEXT
  5
161
330
1F
100
AcDbEntity
  8
0
  6
Continuous
 62
     7
370
    18
100
AcDbMText
 10
17.5936930126
 20
27.773321616
 30
0.0
 40
2.0
 41
0.0
 71
     2
 72
     1
  1
F
  7
SLDTEXTSTYLE0
 73
     1
 44
1.0
  0
MTEXT
  5
162
330
1F
100
AcDbEntity
  8
0
  6
Continuous
 62
     7
370
    18
100
AcDbMText
 10
339.8003474583
 20
8.7205095051
 30
0.0
 40
2.0
 41
0.0
 71
     2
 72
     1
  1
7
  7
SLDTEXTSTYLE0
 73
     1
 44
1.0
  0
MTEXT
  5
163
330
1F
100
AcDbEntity
  8
0
  6
Continuous
 62
     7
370
    18
100
AcDbMText
 10
289.7886477179
 20
8.6884673623
 30
0.0
 40
2.0
 41
0.0
 71
     2
 72
     1
  1
6
  7
SLDTEXTSTYLE0
 73
     1
 44
1.0
  0
MTEXT
  5
164
330
1F
100
AcDbEntity
  8
0
  6
Continuous
 62
     7
370
    18
100
AcDbMText
 10
412.5160699095
 20
74.5096307526
 30
0.0
 40
2.0
 41
0.0
 71
     2
 72
     1
  1
E
  7
SLDTEXTSTYLE0
 73
     1
 44
1.0
  0
MTEXT
  5
165
330
1F
100
AcDbEntity
  8
0
  6
Continuous
 62
     7
370
    18
100
AcDbMText
 10
412.6234021365
 20
124.4517683275
 30
0.0
 40
2.0
 41
0.0
 71
     2
 72
     1
  1
D
  7
SLDTEXTSTYLE0
 73
     1
 44
1.0
  0
MTEXT
  5
166
330
1F
100
AcDbEntity
  8
0
  6
Continuous
 62
     7
370
    18
100
AcDbMText
 10
411.7952690469
 20
41.8457885264
 30
0.0
 40
1.8
 41
0.0
 71
     3
 72
     1
  1
Plotdatum: 15.09.2024
  7
SLDTEXTSTYLE0
 11
-3.269436733918102E-15
 21
1.0
 31
0.0
 73
     1
 44
1.0
  0
MTEXT
  5
167
330
1F
100
AcDbEntity
  8
0
  6
Continuous
 62
     7
370
    18
100
AcDbMText
 10
412.557933251
 20
8.2549718046
 30
0.0
 40
1.8
 41
0.0
 71
     2
 72
     1
  1
A3
  7
SLDTEXTSTYLE0
 73
     1
 44
1.0
  0
MTEXT
  5
168
330
1F
100
AcDbEntity
  8
0
  6
Continuous
 62
     7
370
    18
100
AcDbMText
 10
390.594604279
 20
8.3847467643
 30
0.0
 40
1.8
 41
0.0
 71
     2
 72
     1
  1
CAD-System: SolidWorks
  7
SLDTEXTSTYLE0
 73
     1
 44
1.0
  0
MTEXT
  5
169
330
1F
100
AcDbEntity
  8
0
  6
Continuous
 62
     7
370
    18
100
AcDbMText
 10
403.9986368527
 20
28.4394692021
 30
0.0
 40
5.0
 41
0.0
 71
     2
 72
     1
  1
B
  7
SLDTEXTSTYLE0
 73
     1
 44
1.0
  0
MTEXT
  5
16A
330
1F
100
AcDbEntity
  8
0
  6
Continuous
 62
     7
370
    18
100
AcDbMText
 10
249.556836311
 20
38.5581729516
 30
0.0
 40
2.0
 41
0.0
 71
     1
 72
     1
  1
Freigegeben
  7
SLDTEXTSTYLE0
 73
     1
 44
1.0
  0
MTEXT
  5
16B
330
1F
100
AcDbEntity
  8
0
  6
Continuous
 62
     7
370
    18
100
AcDbMText
 10
284.1045975735
 20
43.5473338598
 30
0.0
 40
2.0
 41
0.0
 71
     2
 72
     1
  1
Hans
  7
SLDTEXTSTYLE0
 73
     1
 44
1.0
  0
MTEXT
  5
16C
330
1F
100
AcDbEntity
  8
0
  6
Continuous
 62
     7
370
    18
100
AcDbMText
 10
249.5284668163
 20
43.5603133928
 30
0.0
 40
2.0
 41
0.0
 71
     1
 72
     1
  1
15.09.2024
  7
SLDTEXTSTYLE0
 73
     1
 44
1.0
  0
MTEXT
  5
16D
330
1F
100
AcDbEntity
  8
0
  6
Continuous
 62
     7
370
    18
100
AcDbMText
 10
284.1309088133
 20
48.5138972561
 30
0.0
 40
2.0
 41
0.0
 71
     2
 72
     1
  1
AB
  7
SLDTEXTSTYLE0
 73
     1
 44
1.0
  0
MTEXT
  5
16E
330
1F
100
AcDbEntity
  8
0
  6
Continuous
 62
     7
370
    18
100
AcDbMText
 10
249.5284668163
 20
48.4989062069
 30
0.0
 40
2.0
 41
0.0
 71
     1
 72
     1
  1
22.02.2021
  7
SLDTEXTSTYLE0
 73
     1
 44
1.0
  0
MTEXT
  5
16F
330
1F
100
AcDbEntity
  8
0
  6
Continuous
 62
     7
370
     0
100
AcDbMText
 10
372.2007348103
 20
38.8723054925
 30
0.0
 40
1.5
 41
0.0
 71
     1
 72
     1
  1
Copyright reserved! © ACO AG
  7
SLDTEXTSTYLE0
 73
     1
 44
1.0
  0
INSERT
  5
178
330
1F
100
AcDbEntity
  8
0
  6
Continuous
 62
     7
370
     0
100
AcDbBlockReference
  2
SW_NOTE_0_3
 10
372.2203831445
 20
51.2202922854
 30
0.0
  0
MTEXT
  5
179
330
1F
100
AcDbEntity
  8
0
  6
Continuous
 62
     7
370
    18
100
AcDbMText
 10
340.2640306904
 20
13.606872109
 30
0.0
 40
2.0
 41
0.0
 71
     2
 72
     1
  1
21.09.2023
  7
SLDTEXTSTYLE0
 73
     1
 44
1.0
  0
MTEXT
  5
17A
330
1F
100
AcDbEntity
  8
0
  6
Continuous
 62
     7
370
    18
100
AcDbMText
 10
364.9468572407
 20
13.5417229519
 30
0.0
 40
2.0
 41
0.0
 71
     1
 72
     1
  1
Material
  7
SLDTEXTSTYLE0
 73
     1
 44
1.0
  0
MTEXT
  5
17B
330
1F
100
AcDbEntity
  8
0
  6
Continuous
 62
     7
370
    18
100
AcDbMText
 10
354.2412775789
 20
13.606872109
 30
0.0
 40
2.0
 41
0.0
 71
     2
 72
     1
  1
nae
  7
SLDTEXTSTYLE0
 73
     1
 44
1.0
  0
MTEXT
  5
17C
330
1F
100
AcDbEntity
  8
0
  6
Continuous
 62
     7
370
    18
100
AcDbMText
 10
330.227417144
 20
13.524501801
 30
0.0
 40
2.0
 41
0.0
 71
     2
 72
     1
  1
A
  7
SLDTEXTSTYLE0
 73
     1
 44
1.0
  0
MTEXT
  5
17D
330
1F
100
AcDbEntity
  8
0
  6
Continuous
 62
     7
370
    18
100
AcDbMText
 10
364.9468572407
 20
18.4594173137
 30
0.0
 40
2.0
 41
0.0
 71
     1
 72
     1
  1
SAP-Nr.
  7
SLDTEXTSTYLE0
 73
     1
 44
1.0
  0
MTEXT
  5
17E
330
1F
100
AcDbEntity
  8
0
  6
Continuous
 62
     7
370
    18
100
AcDbMText
 10
354.2897149303
 20
18.5245664709
 30
0.0
 40
2.0
 41
0.0
 71
     2
 72
     1
  1
Hans
  7
SLDTEXTSTYLE0
 73
     1
 44
1.0
  0
MTEXT
  5
17F
330
1F
100
AcDbEntity
  8
0
  6
Continuous
 62
     7
370
    18
100
AcDbMText
 10
340.3028682291
 20
18.5245664709
 30
0.0
 40
2.0
 41
0.0
 71
     2
 72
     1
  1
12.09.2024
  7
SLDTEXTSTYLE0
 73
     1
 44
1.0
  0
MTEXT
  5
180
330
1F
100
AcDbEntity
  8
0
  6
Continuous
 62
     7
370
    18
100
AcDbMText
 10
330.2494657985
 20
18.524501801
 30
0.0
 40
2.0
 41
0.0
 71
     2
 72
     1
  1
B
  7
SLDTEXTSTYLE0
 73
     1
 44
1.0
  0
MTEXT
  5
181
330
1F
100
AcDbEntity
  8
0
  6
Continuous
 62
     7
370
    18
100
AcDbMText
 10
311.764909851
 20
46.3490312465
 30
0.0
 40
5.0
 41
0.0
 71
     2
 72
     1
  1
1:1
  7
SLDTEXTSTYLE0
 73
     1
 44
1.0
  0
MTEXT
  5
182
330
1F
100
AcDbEntity
  8
0
  6
Continuous
 62
     7
370
    18
100
AcDbMText
 10
230.1851195342
 20
38.7793829468
 30
0.0
 40
2.0
 41
0.0
 71
     1
 72
     1
  1
Status:
  7
SLDTEXTSTYLE0
 73
     1
 44
1.0
  0
MTEXT
  5
183
330
1F
100
AcDbEntity
  8
0
  6
Continuous
 62
     7
370
    18
100
AcDbMText
 10
344.926838705
 20
28.2772828851
 30
0.0
 40
5.0
 41
0.0
 71
     1
 72
     1
  1
419139
  7
SLDTEXTSTYLE0
 73
     1
 44
1.0
  0
MTEXT
  5
184
330
1F
100
AcDbEntity
  8
0
  6
Continuous
 62
     7
370
    18
100
AcDbMText
 10
231.1132118803
 20
14.9211049657
 30
0.0
 40
2.5
 41
0.0
 71
     1
 72
     1
  1
Art. Nr.: 2016836
  7
SLDTEXTSTYLE0
 73
     1
 44
1.0
  0
MTEXT
  5
185
330
1F
100
AcDbEntity
  8
0
  6
Continuous
 62
     7
370
    18
100
AcDbMText
 10
231.1475981734
 20
21.4529560996
 30
0.0
 40
2.5
 41
0.0
 71
     1
 72
     1
  1
Pipe Verschlusskappe mit Schelle (für erhöhte Rohrdrücke)
  7
SLDTEXTSTYLE0
 73
     1
 44
1.0
  0
MTEXT
  5
186
330
1F
100
AcDbEntity
  8
0
  6
Continuous
 62
     7
370
    18
100
AcDbMText
 10
231.1159560181
 20
33.0904969858
 30
0.0
 40
2.5
 41
0.0
 71
     1
 72
     1
  1
Haustechnik
  7
SLDTEXTSTYLE0
 73
     1
 44
1.0
  0
MTEXT
  5
187
330
1F
100
AcDbEntity
  8
0
  6
Continuous
 62
     7
370
    18
100
AcDbMText
 10
231.1475981734
 20
28.0307932366
 30
0.0
 40
3.5
 41
0.0
 71
     1
 72
     1
  1
Pipe Verschlusskappe mit Schelle DN70
  7
SLDTEXTSTYLE0
 73
     1
 44
1.0
  0
MTEXT
  5
188
330
1F
100
AcDbEntity
  8
0
  6
Continuous
 62
     7
370
    18
100
AcDbMText
 10
348.2746465368
 20
53.819119072
 30
0.0
 40
2.0
 41
0.0
 71
     1
 72
     1
  1
Projektion: ISO-E
  7
SLDTEXTSTYLE0
 73
     1
 44
1.0
  0
MTEXT
  5
189
330
1F
100
AcDbEntity
  8
0
  6
Continuous
 62
     7
370
    18
100
AcDbMText
 10
337.7677091855
 20
49.3670227094
 30
0.0
 40
2.5
 41
0.0
 71
     2
 72
     1
  1
Millimeter
  7
SLDTEXTSTYLE0
 73
     1
 44
1.0
  0
MTEXT
  5
18A
330
1F
100
AcDbEntity
  8
0
  6
Continuous
 62
     7
370
    18
100
AcDbMText
 10
337.6323777421
 20
53.855374072
 30
0.0
 40
2.0
 41
0.0
 71
     2
 72
     1
  1
Masseinheit:
  7
SLDTEXTSTYLE0
 73
     1
 44
1.0
  0
MTEXT
  5
18B
330
1F
100
AcDbEntity
  8
0
  6
Continuous
 62
     7
370
    18
100
AcDbMText
 10
337.6114490186
 20
43.5452078816
 30
0.0
 40
2.0
 41
0.0
 71
     2
 72
     1
  1
Blatt / Anz.:
  7
SLDTEXTSTYLE0
 73
     1
 44
1.0
  0
MTEXT
  5
18C
330
1F
100
AcDbEntity
  8
0
  6
Continuous
 62
     7
370
    18
100
AcDbMText
 10
329.2895578243
 20
28.4139191092
 30
0.0
 40
5.0
 41
0.0
 71
     1
 72
     1
  1
CH
  7
SLDTEXTSTYLE0
 73
     1
 44
1.0
  0
MTEXT
  5
18D
330
1F
100
AcDbEntity
  8
0
  6
Continuous
 62
     7
370
    18
100
AcDbMText
 10
330.40704
 20
33.692638072
 30
0.0
 40
2.0
 41
0.0
 71
     1
 72
     1
  1
Zeichnung Nr.:
  7
SLDTEXTSTYLE0
 73
     1
 44
1.0
  0
MTEXT
  5
18E
330
1F
100
AcDbEntity
  8
0
  6
Continuous
 62
     7
370
    18
100
AcDbMText
 10
269.897953
 20
75.161075072
 30
0.0
 40
2.0
 41
0.0
 71
     1
 72
     1
  1
Gewicht:
  7
SLDTEXTSTYLE0
 73
     1
 44
1.0
  0
MTEXT
  5
18F
330
1F
100
AcDbEntity
  8
0
  6
Continuous
 62
     7
370
    18
100
AcDbMText
 10
230.0
 20
64.542328072
 30
0.0
 40
2.0
 41
0.0
 71
     1
 72
     1
  1
zul. Abweichung:
  7
SLDTEXTSTYLE0
 73
     1
 44
1.0
  0
MTEXT
  5
190
330
1F
100
AcDbEntity
  8
0
  6
Continuous
 62
     7
370
    18
100
AcDbMText
 10
269.612607
 20
64.542328072
 30
0.0
 40
2.0
 41
0.0
 71
     1
 72
     1
  1
Oberfläche:
  7
SLDTEXTSTYLE0
 73
     1
 44
1.0
  0
MTEXT
  5
191
330
1F
100
AcDbEntity
  8
0
  6
Continuous
 62
     7
370
    18
100
AcDbMText
 10
230.261411
 20
43.4433838912
 30
0.0
 40
2.0
 41
0.0
 71
     1
 72
     1
  1
Freigegeben:
  7
SLDTEXTSTYLE0
 73
     1
 44
1.0
  0
MTEXT
  5
192
330
1F
100
AcDbEntity
  8
0
  6
Continuous
 62
     7
370
    18
100
AcDbMText
 10
230.0
 20
75.161075072
 30
0.0
 40
2.0
 41
0.0
 71
     1
 72
     1
  1
Werkstoff:
  7
SLDTEXTSTYLE0
 73
     1
 44
1.0
  0
MTEXT
  5
193
330
1F
100
AcDbEntity
  8
0
  6
Continuous
 62
     7
370
    18
100
AcDbMText
 10
254.035545
 20
53.129475072
 30
0.0
 40
2.0
 41
0.0
 71
     1
 72
     1
  1
Datum:
  7
SLDTEXTSTYLE0
 73
     1
 44
1.0
  0
MTEXT
  5
194
330
1F
100
AcDbEntity
  8
0
  6
Continuous
 62
     7
370
    18
100
AcDbMText
 10
279.934928
 20
53.136060072
 30
0.0
 40
2.0
 41
0.0
 71
     1
 72
     1
  1
Name:
  7
SLDTEXTSTYLE0
 73
     1
 44
1.0
  0
MTEXT
  5
195
330
1F
100
AcDbEntity
  8
0
  6
Continuous
 62
     7
370
    18
100
AcDbMText
 10
312.162455406
 20
53.881591072
 30
0.0
 40
2.0
 41
0.0
 71
     2
 72
     1
  1
Massstab:
  7
SLDTEXTSTYLE0
 73
     1
 44
1.0
  0
MTEXT
  5
196
330
1F
100
AcDbEntity
  8
0
  6
Continuous
 62
     7
370
    18
100
AcDbMText
 10
403.9552944035
 20
33.324874072
 30
0.0
 40
2.0
 41
0.0
 71
     2
 72
     1
  1
Index:
  7
SLDTEXTSTYLE0
 73
     1
 44
1.0
  0
MTEXT
  5
197
330
1F
100
AcDbEntity
  8
0
  6
Continuous
 62
     7
370
    18
100
AcDbMText
 10
230.261411
 20
48.4499477886
 30
0.0
 40
2.0
 41
0.0
 71
     1
 72
     1
  1
Erstellt:
  7
SLDTEXTSTYLE0
 73
     1
 44
1.0
  0
MTEXT
  5
199
330
1F
100
AcDbEntity
  8
0
  6
Continuous
 62
     7
370
    18
100
AcDbMText
 10
337.6348165843
 20
39.869706576
 30
0.0
 40
2.5
 41
0.0
 71
     2
 72
     1
  1
1 / 1
  7
SLDTEXTSTYLE1
 73
     1
 44
1.0
  0
MTEXT
  5
19A
330
1F
100
AcDbEntity
  8
0
  6
Continuous
 62
     7
370
    18
100
AcDbMText
 10
269.612607
 20
60.8119428599
 30
0.0
 40
3.0
 41
0.0
 71
     1
 72
     1
  1
DIN ISO 1302
  7
SLDTEXTSTYLE0
 73
     1
 44
1.0
  0
MTEXT
  5
19B
330
1F
100
AcDbEntity
  8
0
  6
Continuous
 62
     7
370
    18
100
AcDbMText
 10
230.0
 20
60.8119428599
 30
0.0
 40
3.0
 41
0.0
 71
     1
 72
     1
  1
Norm
  7
SLDTEXTSTYLE0
 73
     1
 44
1.0
  0
MTEXT
  5
19C
330
1F
100
AcDbEntity
  8
0
  6
Continuous
 62
     7
370
    18
100
AcDbMText
 10
269.612607
 20
71.2121947186
 30
0.0
 40
3.0
 41
0.0
 71
     1
 72
     1
  1
0.41 kg
  7
SLDTEXTSTYLE0
 73
     1
 44
1.0
  0
MTEXT
  5
19D
330
1F
100
AcDbEntity
  8
0
  6
Continuous
 62
     7
370
    18
100
AcDbMText
 10
230.0
 20
71.2121947186
 30
0.0
 40
3.0
 41
0.0
 71
     1
 72
     1
  1
1.4404
  7
SLDTEXTSTYLE0
 73
     1
 44
1.0
  0
SPLINE
  5
19E
330
1F
100
AcDbEntity
  8
0
  6
Continuous
 62
     7
370
    25
100
AcDbSpline
210
0.0
220
0.0
230
1.0
 70
     8
 71
     3
 72
    19
 73
    15
 74
     0
 42
0.00000001
 43
0.00000001
 40
0.0
 40
0.0
 40
0.0
 40
0.0
 40
0.0481601957878029
 40
0.1514385163421249
 40
0.2460579520936594
 40
0.3420024746683877
 40
0.4376609078664311
 40
0.531661386272057
 40
0.6227940536449946
 40
0.7091164916949539
 40
0.7917810094622043
 40
0.8518413873031053
 40
0.9161125851200346
 40
1.0
 40
1.0
 40
1.0
 40
1.0
 10
299.5747842809714
 20
235.9854101897809
 30
0.0
 10
299.575208627396
 20
236.0712103897457
 30
0.0
 10
299.5765429739848
 20
236.3410069462582
 30
0.0
 10
299.4352882531024
 20
236.7677552099365
 30
0.0
 10
299.1732538554513
 20
237.2400480033674
 30
0.0
 10
298.8141775289723
 20
237.6560484273136
 30
0.0
 10
298.3717808380675
 20
238.0232556062213
 30
0.0
 10
297.862810655971
 20
238.3352417051915
 30
0.0
 10
297.3105628249579
 20
238.5881194132897
 30
0.0
 10
296.7349279654924
 20
238.783094153639
 30
0.0
 10
296.1969195469715
 20
238.9134629782206
 30
0.0
 10
295.6935521601606
 20
238.9976942053519
 30
0.0
 10
295.1761833045385
 20
239.0555220411798
 30
0.0
 10
294.8025720908842
 20
239.0636999125417
 30
0.0
 10
294.591033400604
 20
239.0683302237688
 30
0.0
  0
SPLINE
  5
19F
330
1F
100
AcDbEntity
  8
0
  6
Continuous
 62
     7
370
    25
100
AcDbSpline
210
0.0
220
0.0
230
1.0
 70
     8
 71
     3
 72
    20
 73
    16
 74
     0
 42
0.00000001
 43
0.00000001
 40
0.0
 40
0.0
 40
0.0
 40
0.0
 40
0.1065536623207738
 40
0.1498487107230766
 40
0.221192706939296
 40
0.2944453167598129
 40
0.3722552061919372
 40
0.4526310530491113
 40
0.5349173402804307
 40
0.6186822796964274
 40
0.7035665282923302
 40
0.7894304340585395
 40
0.876472417381974
 40
0.9657214126940913
 40
1.0
 40
1.0
 40
1.0
 40
1.0
 10
294.591033400604
 20
239.0683302237688
 30
0.0
 10
294.3195532537624
 20
239.0609854407474
 30
0.0
 10
293.9377648749767
 20
239.0506563141616
 30
0.0
 10
293.3855586858053
 20
238.9822752343291
 30
0.0
 10
292.9256492637937
 20
238.9011716358992
 30
0.0
 10
292.4020178666108
 20
238.7681395509963
 30
0.0
 10
291.8862125854152
 20
238.5917929119047
 30
0.0
 10
291.3891830635433
 20
238.3687835054345
 30
0.0
 10
290.92794967829
 20
238.1003721288589
 30
0.0
 10
290.5150215470462
 20
237.7874842910657
 30
0.0
 10
290.1623884209235
 20
237.4311565097707
 30
0.0
 10
289.8787473767967
 20
237.0323736069562
 30
0.0
 10
289.6855073416847
 20
236.5923349142661
 30
0.0
 10
289.5886829793715
 20
236.2182362539102
 30
0.0
 10
289.6017533454129
 20
235.9964507896266
 30
0.0
 10
289.6053803384616
 20
235.9349058922077
 30
0.0
  0
LINE
  5
1A0
330
1F
100
AcDbEntity
  8
0
  6
Continuous
 62
     7
370
    25
100
AcDbLine
 10
299.5910334006
 20
231.5189439064
 30
0.0
 11
299.5910334006
 21
235.9282642906
 31
0.0
  0
LINE
  5
1A1
330
1F
100
AcDbEntity
  8
0
  6
Continuous
 62
     7
370
    25
100
AcDbLine
 10
289.5910334006
 20
235.9282642906
 30
0.0
 11
289.5910334006
 21
231.5189439064
 31
0.0
  0
LINE
  5
1A2
330
1F
100
AcDbEntity
  8
0
  6
Continuous
 62
     7
370
    25
100
AcDbLine
 10
291.5910334006
 20
223.4536443007
 30
0.0
 11
291.5910334006
 21
220.6651429917
 31
0.0
  0
SPLINE
  5
1A3
330
1F
100
AcDbEntity
  8
0
  6
Continuous
 62
     7
370
    25
100
AcDbSpline
210
0.0
220
0.0
230
1.0
 70
     8
 71
     3
 72
    19
 73
    15
 74
     0
 42
0.00000001
 43
0.00000001
 40
0.0
 40
0.0
 40
0.0
 40
0.0
 40
0.048160195787806
 40
0.1514385163421296
 40
0.2460579520936676
 40
0.3420024746683965
 40
0.4376609078664397
 40
0.5316613862720657
 40
0.6227940536450034
 40
0.709116491694962
 40
0.7917810094622129
 40
0.8518413873031196
 40
0.9161125851200592
 40
1.0
 40
1.0
 40
1.0
 40
1.0
 10
369.5783556184393
 20
195.5732086545569
 30
0.0
 10
369.578779964864
 20
195.6590088545216
 30
0.0
 10
369.5801143114527
 20
195.9288054110341
 30
0.0
 10
369.4388595905704
 20
196.3555536747124
 30
0.0
 10
369.1768251929192
 20
196.8278464681434
 30
0.0
 10
368.8177488664401
 20
197.2438468920896
 30
0.0
 10
368.3753521755353
 20
197.6110540709973
 30
0.0
 10
367.8663819934389
 20
197.9230401699674
 30
0.0
 10
367.3141341624258
 20
198.1759178780656
 30
0.0
 10
366.7384993029603
 20
198.3708926184149
 30
0.0
 10
366.2004908844394
 20
198.5012614429965
 30
0.0
 10
365.6971234976284
 20
198.5854926701278
 30
0.0
 10
365.1797546420063
 20
198.6433205059557
 30
0.0
 10
364.8061434283521
 20
198.6514983773176
 30
0.0
 10
364.594604738072
 20
198.6561286885448
 30
0.0
  0
SPLINE
  5
1A4
330
1F
100
AcDbEntity
  8
0
  6
Continuous
 62
     7
370
    25
100
AcDbSpline
210
0.0
220
0.0
230
1.0
 70
     8
 71
     3
 72
    20
 73
    16
 74
     0
 42
0.00000001
 43
0.00000001
 40
0.0
 40
0.0
 40
0.0
 40
0.0
 40
0.106553662320773
 40
0.1498487107230758
 40
0.2211927069392952
 40
0.2944453167598121
 40
0.3722552061919379
 40
0.4526310530491117
 40
0.5349173402804307
 40
0.6186822796964249
 40
0.7035665282923262
 40
0.7894304340585361
 40
0.8764724173819692
 40
0.9657214126940846
 40
1.0
 40
1.0
 40
1.0
 40
1.0
 10
364.594604738072
 20
198.6561286885448
 30
0.0
 10
364.3231245912303
 20
198.6487839055234
 30
0.0
 10
363.9413362124447
 20
198.6384547789376
 30
0.0
 10
363.3891300232732
 20
198.5700736991051
 30
0.0
 10
362.9292206012616
 20
198.4889701006751
 30
0.0
 10
362.4055892040788
 20
198.3559380157722
 30
0.0
 10
361.8897839228832
 20
198.1795913766806
 30
0.0
 10
361.3927544010112
 20
197.9565819702104
 30
0.0
 10
360.9315210157579
 20
197.6881705936349
 30
0.0
 10
360.5185928845141
 20
197.3752827558417
 30
0.0
 10
360.1659597583915
 20
197.0189549745467
 30
0.0
 10
359.8823187142647
 20
196.6201720717321
 30
0.0
 10
359.6890786791527
 20
196.1801333790421
 30
0.0
 10
359.5922543168394
 20
195.8060347186861
 30
0.0
 10
359.6053246828809
 20
195.5842492544025
 30
0.0
 10
359.6089516759295
 20
195.5227043569836
 30
0.0
  0
LINE
  5
1A5
330
1F
100
AcDbEntity
  8
0
  6
Continuous
 62
     7
370
    25
100
AcDbLine
 10
369.5946047381
 20
191.1067423712
 30
0.0
 11
369.5946047381
 21
195.5160627554
 31
0.0
  0
LINE
  5
1A6
330
1F
100
AcDbEntity
  8
0
  6
Continuous
 62
     7
370
    25
100
AcDbLine
 10
359.5946047381
 20
195.5160627554
 30
0.0
 11
359.5946047381
 21
191.1067423712
 31
0.0
  0
LINE
  5
1A7
330
1F
100
AcDbEntity
  8
0
  6
Continuous
 62
     7
370
    25
100
AcDbLine
 10
367.5946047381
 20
142.6152006191
 30
0.0
 11
367.5946047381
 21
148.6672089479
 31
0.0
  0
LINE
  5
1A8
330
1F
100
AcDbEntity
  8
0
  6
Continuous
 62
     7
370
    25
100
AcDbLine
 10
367.5946047381
 20
162.0557889308
 30
0.0
 11
367.5946047381
 21
183.4547956771
 31
0.0
  0
LINE
  5
1A9
330
1F
100
AcDbEntity
  8
0
  6
Continuous
 62
     7
370
    25
100
AcDbLine
 10
361.5946047381
 20
183.1467482354
 30
0.0
 11
361.5946047381
 21
162.6270599179
 31
0.0
  0
LINE
  5
1AA
330
1F
100
AcDbEntity
  8
0
  6
Continuous
 62
     7
370
    25
100
AcDbLine
 10
361.5946047381
 20
148.59841734
 30
0.0
 11
361.5946047381
 21
142.6152006191
 31
0.0
  0
LINE
  5
1AB
330
1F
100
AcDbEntity
  8
0
  6
Continuous
 62
     7
370
    25
100
AcDbLine
 10
362.4729397043
 20
141.3907874691
 30
0.0
 11
362.9067848427
 21
141.1402525903
 31
0.0
  0
LINE
  5
1AC
330
1F
100
AcDbEntity
  8
0
  6
Continuous
 62
     7
370
    25
100
AcDbLine
 10
366.2824246335
 20
141.1402525903
 30
0.0
 11
366.7162697718
 21
141.3907874691
 31
0.0
  0
LINE
  5
1AD
330
1F
100
AcDbEntity
  8
0
  6
Continuous
 62
     7
370
    25
100
AcDbLine
 10
296.6324772542
 20
152.3682934734
 30
0.0
 11
297.0661814085
 21
152.6187469506
 31
0.0
  0
LINE
  5
1AE
330
1F
100
AcDbEntity
  8
0
  6
Continuous
 62
     7
370
    25
100
AcDbLine
 10
298.7534528234
 20
155.5415034541
 30
0.0
 11
298.7534528235
 21
156.0423290103
 31
0.0
  0
LINE
  5
1AF
330
1F
100
AcDbEntity
  8
0
  6
Continuous
 62
     7
370
    25
100
AcDbLine
 10
298.1320105788
 20
157.4158634299
 30
0.0
 11
297.4681342354
 21
157.7991110853
 31
0.0
  0
LINE
  5
1B0
330
1F
100
AcDbEntity
  8
0
  6
Continuous
 62
     7
370
    25
100
AcDbLine
 10
288.1044170068
 20
156.2766544142
 30
0.0
 11
288.9341791511
 21
155.7976429243
 31
0.0
  0
LINE
  5
1B1
330
1F
100
AcDbEntity
  8
0
  6
Continuous
 62
     7
370
    25
100
AcDbLine
 10
294.4683780375
 20
152.602817911
 30
0.0
 11
295.1322543809
 21
152.2195702556
 31
0.0
  0
LINE
  5
1B2
330
1F
100
AcDbEntity
  8
0
  6
Continuous
 62
     7
370
    25
100
AcDbLine
 10
282.2624523105
 20
157.3398103256
 30
0.0
 11
283.9844316828
 21
156.3457327935
 31
0.0
  0
SPLINE
  5
1B3
330
1F
100
AcDbEntity
  8
0
  6
Continuous
 62
     7
370
    25
100
AcDbSpline
210
0.0
220
0.0
230
1.0
 70
     8
 71
     3
 72
    18
 73
    14
 74
     0
 42
0.00000001
 43
0.00000001
 40
0.0
 40
0.0
 40
0.0
 40
0.0
 40
0.0211516245501061
 40
0.1303037511595444
 40
0.2409832860213259
 40
0.3513327883129002
 40
0.4597703920873879
 40
0.564899663982
 40
0.6644785904438831
 40
0.7598298187287932
 40
0.8291069481439851
 40
0.9032515459099211
 40
1.0
 40
1.0
 40
1.0
 40
1.0
 10
286.5345767680373
 20
166.2464244601473
 30
0.0
 10
286.5028055263835
 20
166.2548851349119
 30
0.0
 10
286.30708004172
 20
166.3070067890459
 30
0.0
 10
285.9142745110382
 20
166.2864839639066
 30
0.0
 10
285.3776975981721
 20
166.1935225368768
 30
0.0
 10
284.8375696262758
 20
165.9912919324902
 30
0.0
 10
284.3130928135257
 20
165.7071767768425
 30
0.0
 10
283.8178918995839
 20
165.355144166236
 30
0.0
 10
283.3612429734795
 20
164.9541426334142
 30
0.0
 10
282.9793600816171
 20
164.5533865738778
 30
0.0
 10
282.6547572374221
 20
164.1595757438096
 30
0.0
 10
282.3460404718801
 20
163.7404594875387
 30
0.0
 10
282.152187760617
 20
163.4210149846807
 30
0.0
 10
282.0424410510101
 20
163.2401664277415
 30
0.0
  0
SPLINE
  5
1B4
330
1F
100
AcDbEntity
  8
0
  6
Continuous
 62
     7
370
    25
100
AcDbSpline
210
0.0
220
0.0
230
1.0
 70
     8
 71
     3
 72
    20
 73
    16
 74
     0
 42
0.00000001
 43
0.00000001
 40
0.0
 40
0.0
 40
0.0
 40
0.0
 40
0.1062796946568664
 40
0.1494636542613723
 40
0.2206246754978469
 40
0.2936896780068949
 40
0.3713005253489676
 40
0.4514710402744902
 40
0.5335473837957181
 40
0.6170988692171624
 40
0.7017670061384408
 40
0.787412844149152
 40
0.8742346244056406
 40
0.9632587616668934
 40
1.0
 40
1.0
 40
1.0
 40
1.0
 10
282.0424410510101
 20
163.2401664277415
 30
0.0
 10
281.9130735965661
 20
163.0013780899961
 30
0.0
 10
281.7311410783542
 20
162.6655643894612
 30
0.0
 10
281.5142895980652
 20
162.153130754039
 30
0.0
 10
281.3546024646583
 20
161.714267250787
 30
0.0
 10
281.2080364917613
 20
161.1942490418937
 30
0.0
 10
281.1029020975421
 20
160.6593477521856
 30
0.0
 10
281.0475747732215
 20
160.1173731592741
 30
0.0
 10
281.049471480989
 20
159.5836957499946
 30
0.0
 10
281.1140489807424
 20
159.0696205624787
 30
0.0
 10
281.2463878512635
 20
158.5860268005271
 30
0.0
 10
281.4500415538924
 20
158.1410365064573
 30
0.0
 10
281.7344467721873
 20
157.7534288264288
 30
0.0
 10
282.013860948583
 20
157.4799421048446
 30
0.0
 10
282.2167878938706
 20
157.3785960571492
 30
0.0
 10
282.2760711999936
 20
157.3489887087443
 30
0.0
  0
LINE
  5
1B5
330
1F
100
AcDbEntity
  8
0
  6
Continuous
 62
     7
370
    25
100
AcDbLine
 10
372.2929028412
 20
196.0461274559
 30
0.0
 11
372.7266069955
 21
196.2965809332
 31
0.0
  0
LINE
  5
1B6
330
1F
100
AcDbEntity
  8
0
  6
Continuous
 62
     7
370
    25
100
AcDbLine
 10
374.4138784104
 20
199.2193374366
 30
0.0
 11
374.4138784104
 21
199.7201629928
 31
0.0
  0
LINE
  5
1B7
330
1F
100
AcDbEntity
  8
0
  6
Continuous
 62
     7
370
    25
100
AcDbLine
 10
373.7924361658
 20
201.0936974124
 30
0.0
 11
373.1285598223
 21
201.4769450678
 31
0.0
  0
LINE
  5
1B8
330
1F
100
AcDbEntity
  8
0
  6
Continuous
 62
     7
370
    25
100
AcDbLine
 10
370.1288036244
 20
196.2806518935
 30
0.0
 11
370.7926799678
 21
195.8974042381
 31
0.0
  0
LINE
  5
1B9
330
1F
100
AcDbEntity
  8
0
  6
Continuous
 62
     7
370
    25
100
AcDbLine
 10
370.3428190693
 20
171.3023433564
 30
0.0
 11
370.3428190693
 21
185.036157185
 31
0.0
  0
LINE
  5
1BA
330
1F
100
AcDbEntity
  8
0
  6
Continuous
 62
     7
370
    25
100
AcDbLine
 10
289.9699162255
 20
147.583069889
 30
0.0
 11
291.3841297878
 21
146.7666617772
 31
0.0
  0
LINE
  5
1BB
330
1F
100
AcDbEntity
  8
0
  6
Continuous
 62
     7
370
    25
100
AcDbLine
 10
374.1654693815
 20
208.4950046701
 30
0.0
 11
372.7512558192
 21
209.3114127819
 31
0.0
  0
LINE
  5
1BC
330
1F
100
AcDbEntity
  8
0
  6
Continuous
 62
     7
370
    25
100
AcDbLine
 10
289.3460586538
 20
199.3475025889
 30
0.0
 11
289.3460586538
 21
195.4686206166
 31
0.0
  0
LINE
  5
1BD
330
1F
100
AcDbEntity
  8
0
  6
Continuous
 62
     7
370
    25
100
AcDbLine
 10
369.8395794849
 20
154.4849334031
 30
0.0
 11
369.8395794849
 21
163.4668823339
 31
0.0
  0
LINE
  5
1BE
330
1F
100
AcDbEntity
  8
0
  6
Continuous
 62
     7
370
    25
100
AcDbLine
 10
285.0201687571
 20
150.4404982804
 30
0.0
 11
286.4343823195
 21
149.6240901686
 31
0.0
  0
LINE
  5
1BF
330
1F
100
AcDbEntity
  8
0
  6
Continuous
 62
     7
370
    25
100
AcDbLine
 10
299.1192715278
 20
168.0001347752
 30
0.0
 11
299.1192715278
 21
173.0386569333
 31
0.0
  0
LINE
  5
1C0
330
1F
100
AcDbEntity
  8
0
  6
Continuous
 62
     7
370
    25
100
AcDbLine
 10
288.8428190693
 20
187.6331595941
 30
0.0
 11
288.8428190693
 21
171.3023433564
 31
0.0
  0
LINE
  5
1C1
330
1F
100
AcDbEntity
  8
0
  6
Continuous
 62
     7
370
    25
100
AcDbLine
 10
376.3121191593
 20
189.6777627754
 30
0.0
 11
376.3121191593
 21
191.3108443991
 31
0.0
  0
LINE
  5
1C2
330
1F
100
AcDbEntity
  8
0
  6
Continuous
 62
     7
370
    25
100
AcDbLine
 10
282.8735189793
 20
231.3148418785
 30
0.0
 11
282.8735189793
 21
229.6817602547
 31
0.0
  0
LINE
  5
1C3
330
1F
100
AcDbEntity
  8
0
  6
Continuous
 62
     7
370
    25
100
AcDbLine
 10
372.0928190693
 20
207.2301390794
 30
0.0
 11
372.0928190693
 21
209.679761515
 31
0.0
  0
LINE
  5
1C4
330
1F
100
AcDbEntity
  8
0
  6
Continuous
 62
     7
370
    25
100
AcDbLine
 10
287.0928190693
 20
209.679761515
 30
0.0
 11
287.0928190693
 21
207.2301390794
 31
0.0
  0
LINE
  5
1C5
330
1F
100
AcDbEntity
  8
0
  6
Continuous
 62
     7
370
    25
100
AcDbLine
 10
292.0928190693
 20
195.6843848377
 30
0.0
 11
292.0928190693
 21
181.9972081363
 31
0.0
  0
SPLINE
  5
1C6
330
1F
100
AcDbEntity
  8
0
  6
Continuous
 62
     7
370
    25
100
AcDbSpline
210
0.0
220
0.0
230
1.0
 70
     8
 71
     3
 72
    10
 73
     6
 74
     0
 42
0.00000001
 43
0.00000001
 40
0.0
 40
0.0
 40
0.0
 40
0.0
 40
0.4719141871220766
 40
0.9540625482208956
 40
1.0
 40
1.0
 40
1.0
 40
1.0
 10
289.0142580775079
 20
195.3980040281749
 30
0.0
 10
289.1438463822801
 20
195.2203905476693
 30
0.0
 10
289.4058333105068
 20
194.8613117692946
 30
0.0
 10
289.6916358250718
 20
194.342824976899
 30
0.0
 10
289.8404710012863
 20
193.9727927655775
 30
0.0
 10
289.8534179666538
 20
193.9406041771894
 30
0.0
  0
LINE
  5
1C7
330
1F
100
AcDbEntity
  8
0
  6
Continuous
 62
     7
370
    25
100
AcDbLine
 10
289.3460586538
 20
195.6786734779
 30
0.0
 11
289.0142580775
 21
195.3980040282
 31
0.0
  0
LINE
  5
1C8
330
1F
100
AcDbEntity
  8
0
  6
Continuous
 62
     7
370
    25
100
AcDbLine
 10
289.0142580775
 20
195.3980040282
 30
0.0
 11
289.0142580337
 21
192.6103208693
 31
0.0
  0
SPLINE
  5
1C9
330
1F
100
AcDbEntity
  8
0
  6
Continuous
 62
     7
370
    25
100
AcDbSpline
210
0.0
220
0.0
230
1.0
 70
     8
 71
     3
 72
     9
 73
     5
 74
     0
 42
0.00000001
 43
0.00000001
 40
0.0
 40
0.0
 40
0.0
 40
0.0
 40
0.1782451688465042
 40
1.0
 40
1.0
 40
1.0
 40
1.0
 10
289.4374839430444
 20
191.4202994405894
 30
0.0
 10
289.4118425026695
 20
191.4826005514939
 30
0.0
 10
289.2679876058387
 20
191.8321253734436
 30
0.0
 10
289.1287100434759
 20
192.2592934437909
 30
0.0
 10
289.014258033733
 20
192.6103208693133
 30
0.0
  0
SPLINE
  5
1CA
330
1F
100
AcDbEntity
  8
0
  6
Continuous
 62
     7
370
    25
100
AcDbSpline
210
0.0
220
0.0
230
1.0
 70
     8
 71
     3
 72
     9
 73
     5
 74
     0
 42
0.00000001
 43
0.00000001
 40
0.0
 40
0.0
 40
0.0
 40
0.0
 40
0.9826204220584259
 40
1.0
 40
1.0
 40
1.0
 40
1.0
 10
370.1713800611769
 20
153.2605291088963
 30
0.0
 10
370.0423719014217
 20
153.6625704678392
 30
0.0
 10
369.9110819782131
 20
154.0717227202427
 30
0.0
 10
369.7752815746299
 20
154.3921064289038
 30
0.0
 10
369.7729214209313
 20
154.3976745625397
 30
0.0
  0
SPLINE
  5
1CB
330
1F
100
AcDbEntity
  8
0
  6
Continuous
 62
     7
370
    25
100
AcDbSpline
210
0.0
220
0.0
230
1.0
 70
     8
 71
     3
 72
     9
 73
     5
 74
     0
 42
0.00000001
 43
0.00000001
 40
0.0
 40
0.0
 40
0.0
 40
0.0
 40
0.5720444803057358
 40
1.0
 40
1.0
 40
1.0
 40
1.0
 10
366.0888971436611
 20
150.9037619209706
 30
0.0
 10
366.4430112321219
 20
151.2190406658232
 30
0.0
 10
367.0620436686756
 20
151.7701844242318
 30
0.0
 10
367.702243381222
 20
152.1643747390357
 30
0.0
 10
367.976220381913
 20
152.3330706600661
 30
0.0
  0
SPLINE
  5
1CC
330
1F
100
AcDbEntity
  8
0
  6
Continuous
 62
     7
370
    25
100
AcDbSpline
210
0.0
220
0.0
230
1.0
 70
     8
 71
     3
 72
     9
 73
     5
 74
     0
 42
0.00000001
 43
0.00000001
 40
0.0
 40
0.0
 40
0.0
 40
0.0
 40
0.4334179581093969
 40
0.9999999999999999
 40
0.9999999999999999
 40
0.9999999999999999
 40
0.9999999999999999
 10
368.4850949471729
 20
152.6257735278471
 30
0.0
 10
368.732822092148
 20
152.7485725504963
 30
0.0
 10
369.3043884989847
 20
153.0318995801026
 30
0.0
 10
369.8578172623745
 20
153.1778412050416
 30
0.0
 10
370.1713800611769
 20
153.2605291088963
 30
0.0
  0
SPLINE
  5
1CD
330
1F
100
AcDbEntity
  8
0
  6
Continuous
 62
     7
370
    25
100
AcDbSpline
210
0.0
220
0.0
230
1.0
 70
     8
 71
     3
 72
    11
 73
     7
 74
     0
 42
0.00000001
 43
0.00000001
 40
0.0
 40
0.0
 40
0.0
 40
0.0
 40
0.2646136058968776
 40
0.534965758663929
 40
0.7653524168365881
 40
1.0
 40
1.0
 40
1.0
 40
1.0
 10
360.5121218205682
 20
151.7663986129897
 30
0.0
 10
360.9961627531171
 20
151.7968514494242
 30
0.0
 10
361.9747417790434
 20
151.85841753818
 30
0.0
 10
363.4246056447403
 20
151.7120320893676
 30
0.0
 10
364.8105422600335
 20
151.3833055133947
 30
0.0
 10
365.6601838723353
 20
151.0645832272326
 30
0.0
 10
366.0888971436611
 20
150.9037619209706
 30
0.0
  0
SPLINE
  5
1CE
330
1F
100
AcDbEntity
  8
0
  6
Continuous
 62
     7
370
    25
100
AcDbSpline
210
0.0
220
0.0
230
1.0
 70
     8
 71
     3
 72
    10
 73
     6
 74
     0
 42
0.00000001
 43
0.00000001
 40
0.0
 40
0.0
 40
0.0
 40
0.0
 40
0.0262037579428351
 40
0.5086406243877587
 40
0.9999999999999999
 40
0.9999999999999999
 40
0.9999999999999999
 40
0.9999999999999999
 10
359.7992051226683
 20
153.6610629836239
 30
0.0
 10
359.8055138073024
 20
153.6488670393914
 30
0.0
 10
359.9279715592924
 20
153.4121318084021
 30
0.0
 10
360.1697816156312
 20
152.7726510794485
 30
0.0
 10
360.3973134907798
 20
152.1038587282599
 30
0.0
 10
360.5121218205682
 20
151.7663986129897
 30
0.0
  0
LINE
  5
1CF
330
1F
100
AcDbEntity
  8
0
  6
Continuous
 62
     7
370
    25
100
AcDbLine
 10
360.5121218206
 20
151.766398613
 30
0.0
 11
360.5121218814
 21
148.9787154011
 31
0.0
  0
LINE
  5
1D0
330
1F
100
AcDbEntity
  8
0
  6
Continuous
 62
     7
370
    25
100
AcDbLine
 10
366.0888971437
 20
150.903761921
 30
0.0
 11
366.0888971681
 21
148.1160787428
 31
0.0
  0
SPLINE
  5
1D1
330
1F
100
AcDbEntity
  8
0
  6
Continuous
 62
     7
370
    25
100
AcDbSpline
210
0.0
220
0.0
230
1.0
 70
     8
 71
     3
 72
    11
 73
     7
 74
     0
 42
0.00000001
 43
0.00000001
 40
0.0
 40
0.0
 40
0.0
 40
0.0
 40
0.2646136271579148
 40
0.5349657778985711
 40
0.7653524265971685
 40
0.9999999999999999
 40
0.9999999999999999
 40
0.9999999999999999
 40
0.9999999999999999
 10
366.0888971681383
 20
148.1160787428134
 30
0.0
 10
365.6048562003676
 20
148.0856258906699
 30
0.0
 10
364.6262771466755
 20
148.0240597728888
 30
0.0
 10
363.1764132681558
 20
148.1704452558413
 30
0.0
 10
361.7904767038945
 20
148.4991718297603
 30
0.0
 10
360.9408351321889
 20
148.8178941019648
 30
0.0
 10
360.5121218814479
 20
148.9787154011464
 30
0.0
  0
LINE
  5
1D2
330
1F
100
AcDbEntity
  8
0
  6
Continuous
 62
     7
370
    25
100
AcDbLine
 10
370.1713800612
 20
153.2605291089
 30
0.0
 11
370.1713800835
 21
150.4728459802
 31
0.0
  0
SPLINE
  5
1D3
330
1F
100
AcDbEntity
  8
0
  6
Continuous
 62
     7
370
    25
100
AcDbSpline
210
0.0
220
0.0
230
1.0
 70
     8
 71
     3
 72
    11
 73
     7
 74
     0
 42
0.00000001
 43
0.00000001
 40
0.0
 40
0.0
 40
0.0
 40
0.0
 40
0.2646136038331188
 40
0.5349657546287635
 40
0.7653524212189491
 40
1.0
 40
1.0
 40
1.0
 40
1.0
 10
370.171380083458
 20
150.4728459802062
 30
0.0
 10
369.8170375348158
 20
150.1629622389192
 30
0.0
 10
369.1006679824363
 20
149.5364744578553
 30
0.0
 10
368.0392939392166
 20
148.8458713170218
 30
0.0
 10
367.0247179050115
 20
148.374513711362
 30
0.0
 10
366.4027370629311
 20
148.2027483368331
 30
0.0
 10
366.0888971681383
 20
148.1160787428134
 30
0.0
  0
LINE
  5
1D4
330
1F
100
AcDbEntity
  8
0
  6
Continuous
 62
     7
370
    25
100
AcDbLine
 10
359.0178293927
 20
152.1981192682
 30
0.0
 11
359.0178293677
 21
154.1121416055
 31
0.0
  0
SPLINE
  5
1D5
330
1F
100
AcDbEntity
  8
0
  6
Continuous
 62
     7
370
    25
100
AcDbSpline
210
0.0
220
0.0
230
1.0
 70
     8
 71
     3
 72
    11
 73
     7
 74
     0
 42
0.00000001
 43
0.00000001
 40
0.0
 40
0.0
 40
0.0
 40
0.0
 40
0.2646136077286442
 40
0.5349657625039546
 40
0.7653524186206946
 40
1.0
 40
1.0
 40
1.0
 40
1.0
 10
360.5121218814479
 20
148.9787154011464
 30
0.0
 10
360.3824234847438
 20
149.1528201583511
 30
0.0
 10
360.1202139850738
 20
149.5048053982376
 30
0.0
 10
359.731724147172
 20
150.2639090361952
 30
0.0
 10
359.3603635479566
 20
151.1783378782739
 30
0.0
 10
359.1327027664182
 20
151.8561220485944
 30
0.0
 10
359.0178293926843
 20
152.1981192682384
 30
0.0
  0
LINE
  5
1D6
330
1F
100
AcDbEntity
  8
0
  6
Continuous
 62
     7
370
    25
100
AcDbLine
 10
299.5903979259
 20
235.9742822819
 30
0.0
 11
299.5910334006
 21
235.9282642906
 31
0.0
  0
LWPOLYLINE
  5
1D7
330
1F
100
AcDbEntity
  8
0
  6
Continuous
 62
     7
370
    25
100
AcDbPolyline
 90
       15
 70
   128
 43
0.0
 10
298.1265673065
 20
229.4779236269
 10
297.4589155824
 20
229.1545118589
 10
296.7041247093
 20
228.9029421623
 10
295.8851286261
 20
228.7308583549
 10
295.0268121143
 20
228.6434891161
 10
294.1552546869
 20
228.6434891161
 10
293.2969381751
 20
228.7308583549
 10
292.4779420919
 20
228.9029421623
 10
291.7231512188
 20
229.1545118589
 10
291.0554994947
 20
229.4779236269
 10
290.4952731792
 20
229.8633507632
 10
290.0594944654
 20
230.2990822594
 10
289.7614042692
 20
230.7718786345
 10
289.6100599101
 20
231.2673742098
 10
289.5910334006
 20
231.5189439064
  0
ARC
  5
1D8
330
1F
100
AcDbEntity
  8
0
  6
Continuous
 62
     7
370
    25
100
AcDbCircle
 10
297.0917017547
 20
231.7663564859
 30
0.0
 40
2.511547662484437
100
AcDbArc
 50
294.333235592
 51
354.3466234504
  0
LINE
  5
1D9
330
1F
100
AcDbEntity
  8
0
  6
Continuous
 62
     7
370
    25
100
AcDbLine
 10
291.8026457215
 20
236.8495071136
 30
0.0
 11
293.8438871738
 21
238.0278907214
 31
0.0
  0
LINE
  5
1DA
330
1F
100
AcDbEntity
  8
0
  6
Continuous
 62
     7
370
    25
100
AcDbLine
 10
292.5497919483
 20
235.2398051699
 30
0.0
 11
291.8026457215
 21
236.8495071136
 31
0.0
  0
LINE
  5
1DB
330
1F
100
AcDbEntity
  8
0
  6
Continuous
 62
     7
370
    25
100
AcDbLine
 10
295.3381796274
 20
234.808486834
 30
0.0
 11
292.5497919483
 21
235.2398051699
 31
0.0
  0
LINE
  5
1DC
330
1F
100
AcDbEntity
  8
0
  6
Continuous
 62
     7
370
    25
100
AcDbLine
 10
297.3794210797
 20
235.9868704419
 30
0.0
 11
295.3381796274
 21
234.808486834
 31
0.0
  0
LINE
  5
1DD
330
1F
100
AcDbEntity
  8
0
  6
Continuous
 62
     7
370
    25
100
AcDbLine
 10
296.6322748529
 20
237.5965723855
 30
0.0
 11
297.3794210797
 21
235.9868704419
 31
0.0
  0
LINE
  5
1DE
330
1F
100
AcDbEntity
  8
0
  6
Continuous
 62
     7
370
    25
100
AcDbLine
 10
293.8438871738
 20
238.0278907214
 30
0.0
 11
296.6322748529
 21
237.5965723855
 31
0.0
  0
SPLINE
  5
1DF
330
1F
100
AcDbEntity
  8
0
  6
Continuous
 62
     7
370
    25
100
AcDbSpline
210
0.0
220
0.0
230
1.0
 70
     8
 71
     3
 72
     9
 73
     5
 74
     0
 42
0.00000001
 43
0.00000001
 40
0.0
 40
0.0
 40
0.0
 40
0.0
 40
0.9806944182760954
 40
1.0
 40
1.0
 40
1.0
 40
1.0
 10
293.8438871737962
 20
235.5782682857374
 30
0.0
 10
293.6676548313254
 20
235.4145138399089
 30
0.0
 10
293.4879532451977
 20
235.247535785607
 30
0.0
 10
293.3020781558307
 20
235.1263336476697
 30
0.0
 10
293.2984897291024
 20
235.1239937698907
 30
0.0
  0
SPLINE
  5
1E0
330
1F
100
AcDbEntity
  8
0
  6
Continuous
 62
     7
370
    25
100
AcDbSpline
210
0.0
220
0.0
230
1.0
 70
     8
 71
     3
 72
    10
 73
     6
 74
     0
 42
0.00000001
 43
0.00000001
 40
0.0
 40
0.0
 40
0.0
 40
0.0
 40
0.361890676706047
 40
0.6780219722598739
 40
1.0
 40
1.0
 40
1.0
 40
1.0
 10
295.8832729440634
 20
235.1231625076774
 30
0.0
 10
295.635326067574
 20
235.1397160295205
 30
0.0
 10
295.1707840358666
 20
235.1707299578984
 30
0.0
 10
294.4828268706185
 20
235.3396726258775
 30
0.0
 10
294.0581640760032
 20
235.4982520664775
 30
0.0
 10
293.8438871737962
 20
235.5782682857374
 30
0.0
  0
LINE
  5
1E1
330
1F
100
AcDbEntity
  8
0
  6
Continuous
 62
     7
370
    25
100
AcDbLine
 10
296.6322748529
 20
235.555552106
 30
0.0
 11
296.6322748529
 21
237.5965723855
 31
0.0
  0
LINE
  5
1E2
330
1F
100
AcDbEntity
  8
0
  6
Continuous
 62
     7
370
    25
100
AcDbLine
 10
293.8438871738
 20
235.5782682857
 30
0.0
 11
293.8438871738
 21
238.0278907214
 31
0.0
  0
LINE
  5
1E3
330
1F
100
AcDbEntity
  8
0
  6
Continuous
 62
     7
370
    25
100
AcDbLine
 10
369.5939692633
 20
195.5620807467
 30
0.0
 11
369.5946047381
 21
195.5160627554
 31
0.0
  0
LWPOLYLINE
  5
1E4
330
1F
100
AcDbEntity
  8
0
  6
Continuous
 62
     7
370
    25
100
AcDbPolyline
 90
       15
 70
   128
 43
0.0
 10
368.130138644
 20
189.0657220916
 10
367.4624869198
 20
188.7423103237
 10
366.7076960468
 20
188.4907406271
 10
365.8886999636
 20
188.3186568197
 10
365.0303834518
 20
188.2312875809
 10
364.1588260243
 20
188.2312875809
 10
363.3005095126
 20
188.3186568197
 10
362.4815134294
 20
188.4907406271
 10
361.7267225563
 20
188.7423103237
 10
361.0590708321
 20
189.0657220916
 10
360.4988445166
 20
189.4511492279
 10
360.0630658029
 20
189.8868807242
 10
359.7649756066
 20
190.3596770992
 10
359.6136312476
 20
190.8551726746
 10
359.5946047381
 20
191.1067423712
  0
ARC
  5
1E5
330
1F
100
AcDbEntity
  8
0
  6
Continuous
 62
     7
370
    25
100
AcDbCircle
 10
367.0952730921
 20
191.3541549507
 30
0.0
 40
2.511547662484811
100
AcDbArc
 50
294.333235592
 51
354.3466234504
  0
LINE
  5
1E6
330
1F
100
AcDbEntity
  8
0
  6
Continuous
 62
     7
370
    25
100
AcDbLine
 10
361.8062170589
 20
196.4373055784
 30
0.0
 11
363.8474585113
 21
197.6156891862
 31
0.0
  0
LINE
  5
1E7
330
1F
100
AcDbEntity
  8
0
  6
Continuous
 62
     7
370
    25
100
AcDbLine
 10
362.5533632858
 20
194.8276036347
 30
0.0
 11
361.8062170589
 21
196.4373055784
 31
0.0
  0
LINE
  5
1E8
330
1F
100
AcDbEntity
  8
0
  6
Continuous
 62
     7
370
    25
100
AcDbLine
 10
365.3417509649
 20
194.3962852988
 30
0.0
 11
362.5533632858
 21
194.8276036347
 31
0.0
  0
LINE
  5
1E9
330
1F
100
AcDbEntity
  8
0
  6
Continuous
 62
     7
370
    25
100
AcDbLine
 10
367.3829924172
 20
195.5746689066
 30
0.0
 11
365.3417509649
 21
194.3962852988
 31
0.0
  0
LINE
  5
1EA
330
1F
100
AcDbEntity
  8
0
  6
Continuous
 62
     7
370
    25
100
AcDbLine
 10
366.6358461904
 20
197.1843708503
 30
0.0
 11
367.3829924172
 21
195.5746689066
 31
0.0
  0
LINE
  5
1EB
330
1F
100
AcDbEntity
  8
0
  6
Continuous
 62
     7
370
    25
100
AcDbLine
 10
363.8474585113
 20
197.6156891862
 30
0.0
 11
366.6358461904
 21
197.1843708503
 31
0.0
  0
SPLINE
  5
1EC
330
1F
100
AcDbEntity
  8
0
  6
Continuous
 62
     7
370
    25
100
AcDbSpline
210
0.0
220
0.0
230
1.0
 70
     8
 71
     3
 72
     9
 73
     5
 74
     0
 42
0.00000001
 43
0.00000001
 40
0.0
 40
0.0
 40
0.0
 40
0.0
 40
0.9806944182760963
 40
1.0
 40
1.0
 40
1.0
 40
1.0
 10
363.8474585112641
 20
195.1660667505134
 30
0.0
 10
363.6712261687933
 20
195.0023123046848
 30
0.0
 10
363.4915245826656
 20
194.8353342503829
 30
0.0
 10
363.3056494932986
 20
194.7141321124456
 30
0.0
 10
363.3020610665704
 20
194.7117922346666
 30
0.0
  0
SPLINE
  5
1ED
330
1F
100
AcDbEntity
  8
0
  6
Continuous
 62
     7
370
    25
100
AcDbSpline
210
0.0
220
0.0
230
1.0
 70
     8
 71
     3
 72
    10
 73
     6
 74
     0
 42
0.00000001
 43
0.00000001
 40
0.0
 40
0.0
 40
0.0
 40
0.0
 40
0.3618906767060494
 40
0.678021972259875
 40
1.0
 40
1.0
 40
1.0
 40
1.0
 10
365.8868442815313
 20
194.7109609724533
 30
0.0
 10
365.6388974050419
 20
194.7275144942965
 30
0.0
 10
365.1743553733345
 20
194.7585284226743
 30
0.0
 10
364.4863982080864
 20
194.9274710906535
 30
0.0
 10
364.0617354134711
 20
195.0860505312534
 30
0.0
 10
363.8474585112641
 20
195.1660667505134
 30
0.0
  0
LINE
  5
1EE
330
1F
100
AcDbEntity
  8
0
  6
Continuous
 62
     7
370
    25
100
AcDbLine
 10
366.6358461904
 20
195.1433505708
 30
0.0
 11
366.6358461904
 21
197.1843708503
 31
0.0
  0
ARC
  5
1EF
330
1F
100
AcDbEntity
  8
0
  6
Continuous
 62
     7
370
    25
100
AcDbCircle
 10
366.125693034
 20
142.741629529
 30
0.0
 40
1.474342519060126
100
AcDbArc
 50
293.5991707576
 51
355.0806882848
  0
LWPOLYLINE
  5
1F0
330
1F
100
AcDbEntity
  8
0
  6
Continuous
 62
     7
370
    25
100
AcDbPolyline
 90
       12
 70
   128
 43
0.0
 10
361.5946047381
 20
142.6152006191
 10
361.6134681084
 20
142.4212934704
 10
361.7629547471
 20
142.043202487
 10
362.0544321404
 20
141.6937938785
 10
362.4732843945
 20
141.3905884514
 10
362.9985085085
 20
141.1487901919
 10
363.6037675522
 20
140.9805238744
 10
364.2587113098
 20
140.8942270747
 10
364.9304981664
 20
140.8942270747
 10
365.5854419239
 20
140.9805238744
 10
366.1907009676
 20
141.1487901919
 10
366.7159250816
 20
141.3905884514
  0
LINE
  5
1F1
330
1F
100
AcDbEntity
  8
0
  6
Continuous
 62
     7
370
    25
100
AcDbLine
 10
363.8474585113
 20
195.1660667505
 30
0.0
 11
363.8474585113
 21
197.6156891862
 31
0.0
  0
ARC
  5
1F2
330
1F
100
AcDbEntity
  8
0
  6
Continuous
 62
     7
370
    25
100
AcDbCircle
 10
364.5946183156
 20
144.3526364638
 30
0.0
 40
3.62880035034595
100
AcDbArc
 50
242.2819070693
 51
297.7127179997
  0
LWPOLYLINE
  5
1F3
330
1F
100
AcDbEntity
  8
0
  6
Continuous
 62
     7
370
    25
100
AcDbPolyline
 90
        8
 70
   128
 43
0.0
 10
296.6321324798
 20
157.2673392784
 10
297.1041706639
 20
157.4784239729
 10
297.5525388824
 20
157.5560897017
 10
297.9547540805
 20
157.4964419809
 10
298.2906475088
 20
157.3024717963
 10
298.5433760682
 20
156.983905623
 10
298.7002668935
 20
156.5567176989
 10
298.7534528234
 20
156.0423290105
  0
LWPOLYLINE
  5
1F4
330
1F
100
AcDbEntity
  8
0
  6
Continuous
 62
     7
370
    25
100
AcDbPolyline
 90
       17
 70
   128
 43
0.0
 10
296.6324772542
 20
152.3682934734
 10
296.6321324798
 20
152.3680944071
 10
296.1600942958
 20
152.1570097126
 10
295.7117260773
 20
152.0793439838
 10
295.3095108792
 20
152.1389917046
 10
294.9736174508
 20
152.3329618892
 10
294.7208888914
 20
152.6515280626
 10
294.5639980662
 20
153.0787159866
 10
294.5108121363
 20
153.593104675
 10
294.5639980662
 20
154.1689005311
 10
294.7208888914
 20
154.7772307462
 10
294.9736174508
 20
155.3875911032
 10
295.3095108792
 20
155.9693755853
 10
295.7117260773
 20
156.4934110891
 10
296.1600942958
 20
156.9334202863
 10
296.6321324798
 20
157.2673392784
 10
296.6321324798
 20
157.2673392784
  0
LWPOLYLINE
  5
1F5
330
1F
100
AcDbEntity
  8
0
  6
Continuous
 62
     7
370
    25
100
AcDbPolyline
 90
       26
 70
   128
 43
0.0
 10
297.0659071348
 20
156.5160195393
 10
297.4855826817
 20
156.6970705955
 10
297.8788884705
 20
156.7443005879
 10
298.2211116521
 20
156.6547418822
 10
298.4907490853
 20
156.4340217815
 10
298.6708584585
 20
156.0960089412
 10
298.7501228375
 20
155.6619419514
 10
298.7235617498
 20
155.1590948374
 10
298.5928441261
 20
154.6190633327
 10
298.3661834357
 20
154.0757796028
 10
298.0578216031
 20
153.5633801625
 10
297.6871341365
 20
153.1140609532
 10
297.2774126927
 20
152.7560543532
 10
296.8544015768
 20
152.511855234
 10
296.444680133
 20
152.3968075241
 10
296.0739926664
 20
152.4181400944
 10
295.7656308338
 20
152.5745125411
 10
295.5389701434
 20
152.8560994082
 10
295.4082525198
 20
153.2452075571
 10
295.381691432
 20
153.717387892
 10
295.460955811
 20
154.2429715858
 10
295.6410651843
 20
154.7889342821
 10
295.9107026175
 20
155.3209711367
 10
296.252925799
 20
155.8056523173
 10
296.6462315879
 20
156.2125235229
 10
297.0659071348
 20
156.5160195393
  0
LWPOLYLINE
  5
1F6
330
1F
100
AcDbEntity
  8
0
  6
Continuous
 62
     7
370
    25
100
AcDbPolyline
 90
       23
 70
   128
 43
0.0
 10
372.2925580668
 20
196.0459283896
 10
371.8205198827
 20
195.8348436951
 10
371.3721516643
 20
195.7571779663
 10
370.9699364661
 20
195.8168256871
 10
370.6340430378
 20
196.0107958717
 10
370.3813144784
 20
196.3293620451
 10
370.2244236532
 20
196.7565499691
 10
370.1712377232
 20
197.2709386575
 10
370.2244236532
 20
197.8467345136
 10
370.3813144784
 20
198.4550647287
 10
370.6340430378
 20
199.0654250858
 10
370.9699364661
 20
199.6472095678
 10
371.3721516643
 20
200.1712450716
 10
371.8205198827
 20
200.6112542688
 10
372.2925580668
 20
200.9451732609
 10
372.7645962509
 20
201.1562579554
 10
373.2129644693
 20
201.2339236842
 10
373.6151796675
 20
201.1742759634
 10
373.9510730958
 20
200.9803057789
 10
374.2038016552
 20
200.6617396055
 10
374.3606924804
 20
200.2345516814
 10
374.4138784104
 20
199.720162993
 10
374.4138784104
 20
199.7201629928
  0
LWPOLYLINE
  5
1F7
330
1F
100
AcDbEntity
  8
0
  6
Continuous
 62
     7
370
    25
100
AcDbPolyline
 90
       26
 70
   128
 43
0.0
 10
372.7263327217
 20
196.2964225725
 10
372.3066571748
 20
196.1153715163
 10
371.913351386
 20
196.068141524
 10
371.5711282044
 20
196.1577002296
 10
371.3014907712
 20
196.3784203304
 10
371.121381398
 20
196.7164331706
 10
371.042117019
 20
197.1505001604
 10
371.0686781067
 20
197.6533472744
 10
371.1993957303
 20
198.1933787792
 10
371.4260564208
 20
198.7366625091
 10
371.7344182533
 20
199.2490619493
 10
372.1051057199
 20
199.6983811586
 10
372.5148271638
 20
200.0563877586
 10
372.9378382797
 20
200.3005868779
 10
373.3475597235
 20
200.4156345877
 10
373.7182471901
 20
200.3943020174
 10
374.0266090226
 20
200.2379295707
 10
374.2532697131
 20
199.9563427037
 10
374.3839873367
 20
199.5672345547
 10
374.4105484245
 20
199.0950542198
 10
374.3312840455
 20
198.569470526
 10
374.1511746722
 20
198.0235078298
 10
373.881537239
 20
197.4914709752
 10
373.5393140574
 20
197.0067897945
 10
373.1460082686
 20
196.5999185889
 10
372.7263327217
 20
196.2964225725
  0
LINE
  5
1F8
330
1F
100
AcDbEntity
  8
0
  6
Continuous
 62
     7
370
    25
100
AcDbLine
 10
292.469713057
 20
164.1614263792
 30
0.0
 11
301.4832325585
 21
169.3648204301
 31
0.0
  0
ARC
  5
1F9
330
1F
100
AcDbEntity
  8
0
  6
Continuous
 62
     7
370
    25
100
AcDbCircle
 10
304.3308177367
 20
163.8019653148
 30
0.0
 40
6.249327834284461
100
AcDbArc
 50
67.9476698074
 51
117.1075773378
  0
LWPOLYLINE
  5
1FA
330
1F
100
AcDbEntity
  8
0
  6
Continuous
 62
     7
370
    25
100
AcDbPolyline
 90
       28
 70
   128
 43
0.0
 10
306.6771482808
 20
169.594100617
 10
308.6461928785
 20
168.8132140556
 10
310.6948478675
 20
168.1038551576
 10
312.8153270666
 20
167.4687199343
 10
314.9995713174
 20
166.9102223001
 10
317.2392791142
 20
166.4304848982
 10
319.5259381545
 20
166.0313310335
 10
321.8508576919
 20
165.7142777422
 10
324.2052015656
 20
165.4805300269
 10
326.580021784
 20
165.3309762765
 10
328.9662925323
 20
165.2661848893
 10
331.3549444767
 20
165.2864021136
 10
333.736899233
 20
165.3915511112
 10
336.1031038709
 20
165.5812322495
 10
338.4445653204
 20
165.8547246207
 10
340.752384551
 20
166.2109887811
 10
343.017790394
 20
166.6486707023
 10
345.2321728784
 20
167.1661069168
 10
347.3871159541
 20
167.7613308409
 10
349.4744294782
 20
168.432080248
 10
351.4861803428
 20
169.1758058673
 10
353.4147226256
 20
169.9896810725
 10
355.2527266496
 20
170.8706126245
 10
356.9932068403
 20
171.8152524275
 10
358.6295482751
 20
172.8200102548
 10
360.1555318245
 20
173.8810673926
 10
361.5653577885
 20
174.9943911547
 10
361.5946047381
 20
175.0190834012
  0
LINE
  5
1FB
330
1F
100
AcDbEntity
  8
0
  6
Continuous
 62
     7
370
    25
100
AcDbLine
 10
367.5946047381
 20
183.2584465735
 30
0.0
 11
367.6748836404
 21
183.4976331223
 31
0.0
  0
ARC
  5
1FC
330
1F
100
AcDbEntity
  8
0
  6
Continuous
 62
     7
370
    25
100
AcDbCircle
 10
354.2363237815
 20
188.2855198179
 30
0.0
 40
16.18877773529157
100
AcDbArc
 50
325.6043974557
 51
347.833779362
  0
LWPOLYLINE
  5
1FD
330
1F
100
AcDbEntity
  8
0
  6
Continuous
 62
     7
370
    25
100
AcDbPolyline
 90
       27
 70
   128
 43
0.0
 10
361.5946047381
 20
173.0693883276
 10
360.8942046752
 20
172.5706427832
 10
359.2636116601
 20
171.508256471
 10
357.5249970553
 20
170.5045756236
 10
355.6846905843
 20
169.5632543126
 10
353.7493921973
 20
168.687719579
 10
351.7261476787
 20
167.8811589566
 10
349.6223229959
 20
167.1465088671
 10
347.4455774819
 20
166.4864439297
 10
345.2038359508
 20
165.9033672237
 10
342.9052598456
 20
165.3994015392
 10
340.5582175253
 20
164.9763816496
 10
338.1712537985
 20
164.6358476311
 10
335.7530588145
 20
164.3790392558
 10
333.3124364252
 20
164.2068914785
 10
330.8582721334
 20
164.1200310327
 10
328.3995007435
 20
164.1187741487
 10
325.9450738329
 20
164.2031254023
 10
323.503927162
 20
164.3727776983
 10
321.0849481424
 20
164.6271133887
 10
318.6969434805
 20
164.9652065209
 10
316.3486071152
 20
165.3858262091
 10
314.0484885663
 20
165.8874411154
 10
311.8049618084
 20
166.4682250251
 10
309.6261947838
 20
167.1260634951
 10
307.5201196663
 20
167.858561552
 10
305.494403982
 20
168.6630524117
  0
ARC
  5
1FE
330
1F
100
AcDbEntity
  8
0
  6
Continuous
 62
     7
370
    25
100
AcDbCircle
 10
304.32123871
 20
165.7669847606
 30
0.0
 40
3.124663917142365
100
AcDbArc
 50
67.9476698074
 51
117.1075773378
  0
LINE
  5
1FF
330
1F
100
AcDbEntity
  8
0
  6
Continuous
 62
     7
370
    25
100
AcDbLine
 10
302.8974461209
 20
168.5484123182
 30
0.0
 11
293.8839266194
 21
163.3450182674
 31
0.0
  0
LWPOLYLINE
  5
200
330
1F
100
AcDbEntity
  8
0
  6
Continuous
 62
     7
370
    25
100
AcDbPolyline
 90
       25
 70
   128
 43
0.0
 10
305.494403982
 20
152.332236174
 10
307.5201196663
 20
151.5277453143
 10
309.6261947838
 20
150.7952472573
 10
311.8049618084
 20
150.1374087874
 10
314.0484885663
 20
149.5566248777
 10
316.3486071152
 20
149.0550099714
 10
318.6969434805
 20
148.6343902832
 10
321.0849481424
 20
148.296297151
 10
323.503927162
 20
148.0419614606
 10
325.9450738329
 20
147.8723091645
 10
328.3995007435
 20
147.787957911
 10
330.8582721334
 20
147.789214795
 10
333.3124364252
 20
147.8760752408
 10
335.7530588145
 20
148.048223018
 10
338.1712537985
 20
148.3050313933
 10
340.5582175253
 20
148.6455654119
 10
342.9052598456
 20
149.0685853015
 10
345.2038359508
 20
149.5725509859
 10
347.4455774819
 20
150.155627692
 10
349.6223229959
 20
150.8156926294
 10
351.7261476787
 20
151.5503427189
 10
353.7493921973
 20
152.3569033413
 10
355.6846905843
 20
153.2324380749
 10
357.5249970553
 20
154.1737593859
 10
358.2306218143
 20
154.5665868529
  0
ARC
  5
201
330
1F
100
AcDbEntity
  8
0
  6
Continuous
 62
     7
370
    25
100
AcDbCircle
 10
356.1376909344
 20
171.3582124942
 30
0.0
 40
14.20523800192375
100
AcDbArc
 50
338.2561886092
 51
359.7746553735
  0
ARC
  5
202
330
1F
100
AcDbEntity
  8
0
  6
Continuous
 62
     7
370
    25
100
AcDbCircle
 10
292.5145808964
 20
148.7249802268
 30
0.0
 40
2.191316898286181
100
AcDbArc
 50
171.3146750033
 51
308.674573242
  0
LINE
  5
203
330
1F
100
AcDbEntity
  8
0
  6
Continuous
 62
     7
370
    25
100
AcDbLine
 10
290.3483927135
 20
157.2212939284
 30
0.0
 11
290.3483927135
 21
149.0558858095
 31
0.0
  0
ARC
  5
204
330
1F
100
AcDbEntity
  8
0
  6
Continuous
 62
     7
370
    25
100
AcDbCircle
 10
297.9920076068
 20
156.8907336979
 30
0.0
 40
7.650759354637175
100
AcDbArc
 50
122.4763035594
 51
177.523696295
  0
LINE
  5
205
330
1F
100
AcDbEntity
  8
0
  6
Continuous
 62
     7
370
    25
100
AcDbLine
 10
302.8974461209
 20
152.2175960805
 30
0.0
 11
293.8839266194
 21
147.0142020297
 31
0.0
  0
ARC
  5
206
330
1F
100
AcDbEntity
  8
0
  6
Continuous
 62
     7
370
    25
100
AcDbCircle
 10
296.5778176506
 20
157.7071281807
 30
0.0
 40
7.650783527670411
100
AcDbArc
 50
122.4763978922
 51
177.5236019622
  0
LWPOLYLINE
  5
207
330
1F
100
AcDbEntity
  8
0
  6
Continuous
 62
     7
370
    25
100
AcDbPolyline
 90
       35
 70
   128
 43
0.0
 10
296.3588003536
 20
158.6091147335
 10
295.7806094947
 20
158.2134631978
 10
295.222108232
 20
157.7075469855
 10
294.7023156563
 20
157.1085944663
 10
294.2389326801
 20
156.43700225
 10
293.8477392551
 20
155.715640604
 10
293.5420570041
 20
154.969074634
 10
293.3322955696
 20
154.2227277486
 10
293.2255981256
 20
153.502015896
 10
293.2255981256
 20
152.8314820538
 10
293.3322955696
 20
152.2339604478
 10
293.5420570041
 20
151.7297989597
 10
293.8477392551
 20
151.3361662042
 10
294.2389326801
 20
151.0664668728
 10
294.7023156563
 20
150.9298852528
 10
295.222108232
 20
150.9310724673
 10
295.7806094947
 20
151.0699880872
 10
296.3588003536
 20
151.3419015077
 10
296.9369912125
 20
151.7375530433
 10
297.4954924751
 20
152.2434692557
 10
298.0152850509
 20
152.8424217748
 10
298.478668027
 20
153.5140139911
 10
298.869861452
 20
154.2353756371
 10
299.175543703
 20
154.9819416071
 10
299.3853051376
 20
155.7282884925
 10
299.4920025816
 20
156.4490003452
 10
299.4920025816
 20
157.1195341874
 10
299.3853051376
 20
157.7170557934
 10
299.175543703
 20
158.2212172815
 10
298.869861452
 20
158.6148500369
 10
298.478668027
 20
158.8845493683
 10
298.0152850509
 20
159.0211309884
 10
297.4954924751
 20
159.0199437739
 10
296.9369912125
 20
158.881028154
 10
296.3588003536
 20
158.6091147335
  0
LINE
  5
208
330
1F
100
AcDbEntity
  8
0
  6
Continuous
 62
     7
370
    25
100
AcDbLine
 10
288.9341791511
 20
149.8722939214
 30
0.0
 11
288.9341791511
 21
158.0377020402
 31
0.0
  0
LWPOLYLINE
  5
209
330
1F
100
AcDbEntity
  8
0
  6
Continuous
 62
     7
370
    25
100
AcDbPolyline
 90
       19
 70
   128
 43
0.0
 10
295.281365852
 20
152.149119873
 10
295.1286608973
 20
152.170254004
 10
294.7673957137
 20
152.3160522862
 10
294.4805428423
 20
152.5862037673
 10
294.2815152045
 20
152.9680764645
 10
294.1796191117
 20
153.4438144348
 10
294.1796191117
 20
153.9911726996
 10
294.2815152045
 20
154.5845573946
 10
294.4805428423
 20
155.196222511
 10
294.7673957137
 20
155.7975672678
 10
295.1286608973
 20
156.3604734526
 10
295.5474460348
 20
156.8586201977
 10
296.0041691984
 20
157.2687147151
 10
296.4774745207
 20
157.5715814407
 10
296.9452307708
 20
157.7530586633
 10
297.3855661864
 20
157.8046607095
 10
297.7778911728
 20
157.723974725
 10
298.1038610497
 20
157.5147734968
 10
298.2675869475
 20
157.3219670205
  0
ARC
  5
20A
330
1F
100
AcDbEntity
  8
0
  6
Continuous
 62
     7
370
    25
100
AcDbCircle
 10
291.4340678352
 20
149.6244275794
 30
0.0
 40
2.512146722643063
100
AcDbArc
 50
174.337576136
 51
234.3502434707
  0
ARC
  5
20B
330
1F
100
AcDbEntity
  8
0
  6
Continuous
 62
     7
370
    25
100
AcDbCircle
 10
304.32123871
 20
149.4361685229
 30
0.0
 40
3.124663917142133
100
AcDbArc
 50
67.9476698074
 51
117.1075773378
  0
ARC
  5
20C
330
1F
100
AcDbEntity
  8
0
  6
Continuous
 62
     7
370
    25
100
AcDbCircle
 10
373.0954297637
 20
206.5757702247
 30
0.0
 40
2.138033622683737
100
AcDbArc
 50
350.0347218613
 51
117.9655482515
  0
LINE
  5
20D
330
1F
100
AcDbEntity
  8
0
  6
Continuous
 62
     7
370
    25
100
AcDbLine
 10
375.2012064559
 20
198.0403725189
 30
0.0
 11
375.2012064559
 21
206.2057806378
 31
0.0
  0
ARC
  5
20E
330
1F
100
AcDbEntity
  8
0
  6
Continuous
 62
     7
370
    25
100
AcDbCircle
 10
367.6703605437
 20
198.3630343996
 30
0.0
 40
7.537755026660482
100
AcDbArc
 50
324.2804182355
 51
357.5466416151
  0
LWPOLYLINE
  5
20F
330
1F
100
AcDbEntity
  8
0
  6
Continuous
 62
     7
370
    25
100
AcDbPolyline
 90
       12
 70
   128
 43
0.0
 10
375.1658511168
 20
200.4698501519
 10
375.1122738436
 20
201.1065941135
 10
374.9533665338
 20
201.6597955202
 10
374.6945405851
 20
202.1106157616
 10
374.344610005
 20
202.4437026952
 10
373.9154912595
 20
202.6477134448
 10
373.4217974729
 20
202.7157006691
 10
372.8803407949
 20
202.6453491447
 10
372.3095598834
 20
202.4390546084
 10
371.7288919977
 20
202.1038421731
 10
371.1581110862
 20
201.6511270964
 10
370.8588809019
 20
201.3610181048
  0
LWPOLYLINE
  5
210
330
1F
100
AcDbEntity
  8
0
  6
Continuous
 62
     7
370
    25
100
AcDbPolyline
 90
        3
 70
   128
 43
0.0
 10
369.0386130952
 20
198.0973209668
 10
368.9261780375
 20
197.5354370188
 10
368.878608447
 20
197.0647299369
  0
ARC
  5
211
330
1F
100
AcDbEntity
  8
0
  6
Continuous
 62
     7
370
    25
100
AcDbCircle
 10
368.3875999891
 20
200.7517377876
 30
0.0
 40
6.784110036637856
100
AcDbArc
 50
302.0606292626
 51
357.6186083673
  0
LWPOLYLINE
  5
212
330
1F
100
AcDbEntity
  8
0
  6
Continuous
 62
     7
370
    25
100
AcDbPolyline
 90
       19
 70
   128
 43
0.0
 10
370.9417914428
 20
195.8269538552
 10
370.7890864843
 20
195.8480879866
 10
370.4278213006
 20
195.9938862687
 10
370.1409684292
 20
196.2640377498
 10
369.9419407915
 20
196.645910447
 10
369.8400446986
 20
197.1216484174
 10
369.8400446986
 20
197.6690066821
 10
369.9419407915
 20
198.2623913771
 10
370.1409684292
 20
198.8740564935
 10
370.4278213006
 20
199.4754012504
 10
370.7890864843
 20
200.0383074351
 10
371.2078716217
 20
200.5364541803
 10
371.6645947853
 20
200.9465486976
 10
372.1379001076
 20
201.2494154233
 10
372.6056563578
 20
201.4308926458
 10
373.0459917734
 20
201.482494692
 10
373.4383167598
 20
201.4018087075
 10
373.7642866367
 20
201.1926074793
 10
373.9280125364
 20
200.9998010002
  0
LWPOLYLINE
  5
213
330
1F
100
AcDbEntity
  8
0
  6
Continuous
 62
     7
370
    25
100
AcDbPolyline
 90
        3
 70
   128
 43
0.0
 10
372.7512558192
 20
209.3114127819
 10
372.5240563759
 20
209.4206437745
 10
372.0928190693
 20
209.5294425422
  0
LINE
  5
214
330
1F
100
AcDbEntity
  8
0
  6
Continuous
 62
     7
370
    25
100
AcDbLine
 10
290.502692248
 20
194.2788541411
 30
0.0
 11
289.8534179667
 21
194.6536722055
 31
0.0
  0
LINE
  5
215
330
1F
100
AcDbEntity
  8
0
  6
Continuous
 62
     7
370
    25
100
AcDbLine
 10
291.1180176753
 20
195.383710078
 30
0.0
 11
289.8534179667
 21
194.6536722055
 31
0.0
  0
LINE
  5
216
330
1F
100
AcDbEntity
  8
0
  6
Continuous
 62
     7
370
    25
100
AcDbLine
 10
289.8534179667
 20
192.839721918
 30
0.0
 11
289.8534179667
 21
194.6536722055
 31
0.0
  0
ARC
  5
217
330
1F
100
AcDbEntity
  8
0
  6
Continuous
 62
     7
370
    25
100
AcDbCircle
 10
291.2551424552
 20
195.5332006612
 30
0.0
 40
1.9101757885262
100
AcDbArc
 50
181.9374495608
 51
222.7924298145
  0
LINE
  5
218
330
1F
100
AcDbEntity
  8
0
  6
Continuous
 62
     7
370
    25
100
AcDbLine
 10
368.4483366955
 20
173.7740347456
 30
0.0
 11
367.5946047381
 21
173.2811857772
 31
0.0
  0
LINE
  5
219
330
1F
100
AcDbEntity
  8
0
  6
Continuous
 62
     7
370
    25
100
AcDbLine
 10
368.4483366955
 20
173.7740347456
 30
0.0
 11
369.332220172
 21
173.2637796757
 31
0.0
  0
LINE
  5
21A
330
1F
100
AcDbEntity
  8
0
  6
Continuous
 62
     7
370
    25
100
AcDbLine
 10
367.5946047381
 20
172.2606756374
 30
0.0
 11
369.332220172
 21
173.2637796757
 31
0.0
  0
LINE
  5
21B
330
1F
100
AcDbEntity
  8
0
  6
Continuous
 62
     7
370
    25
100
AcDbLine
 10
368.4483366955
 20
165.4058515995
 30
0.0
 11
367.5946047381
 21
165.8987005679
 31
0.0
  0
LWPOLYLINE
  5
21C
330
1F
100
AcDbEntity
  8
0
  6
Continuous
 62
     7
370
    25
100
AcDbPolyline
 90
       19
 70
   128
 43
0.0
 10
368.4483366955
 20
165.4058515995
 10
368.9805516953
 20
165.0396958199
 10
369.3945414733
 20
164.6257508986
 10
369.6777271598
 20
164.1765943422
 10
369.8215043008
 20
163.7058735457
 10
369.8215043008
 20
163.2278911221
 10
369.6777271598
 20
162.7571703255
 10
369.3945414733
 20
162.3080137692
 10
368.9805516953
 20
161.8940688478
 10
368.4483366955
 20
161.5279130683
 10
367.8140675576
 20
161.2206718888
 10
367.0970162282
 20
160.981680677
 10
366.3189699491
 20
160.8182010599
 10
365.503569263
 20
160.7352002831
 10
364.6755897069
 20
160.7352002831
 10
363.8601890207
 20
160.8182010599
 10
363.0821427416
 20
160.981680677
 10
362.3650914122
 20
161.2206718888
 10
361.7308222743
 20
161.5279130683
  0
LINE
  5
21D
330
1F
100
AcDbEntity
  8
0
  6
Continuous
 62
     7
370
    25
100
AcDbLine
 10
361.7308222743
 20
161.5279130683
 30
0.0
 11
356.781074806
 21
164.3853414597
 31
0.0
  0
ARC
  5
21E
330
1F
100
AcDbEntity
  8
0
  6
Continuous
 62
     7
370
    25
100
AcDbCircle
 10
355.3668612436
 20
161.6559192898
 30
0.0
 40
3.074043815823391
100
AcDbArc
 50
62.6096722366
 51
117.3903277634
  0
LINE
  5
21F
330
1F
100
AcDbEntity
  8
0
  6
Continuous
 62
     7
370
    25
100
AcDbLine
 10
348.1190167364
 20
161.0176579984
 30
0.0
 11
353.9526476812
 21
164.3853414597
 31
0.0
  0
LINE
  5
220
330
1F
100
AcDbEntity
  8
0
  6
Continuous
 62
     7
370
    25
100
AcDbLine
 10
348.1190167364
 20
161.0176579984
 30
0.0
 11
347.2351332599
 21
161.5279130683
 31
0.0
  0
LINE
  5
221
330
1F
100
AcDbEntity
  8
0
  6
Continuous
 62
     7
370
    25
100
AcDbLine
 10
352.1601858932
 20
164.3710854349
 30
0.0
 11
347.2351332599
 21
161.5279130683
 31
0.0
  0
ARC
  5
222
330
1F
100
AcDbEntity
  8
0
  6
Continuous
 62
     7
370
    25
100
AcDbCircle
 10
355.3754580712
 20
160.467063592
 30
0.0
 40
4.985350057515248
100
AcDbArc
 50
62.6615601246
 51
98.6718284296
  0
LINE
  5
223
330
1F
100
AcDbEntity
  8
0
  6
Continuous
 62
     7
370
    25
100
AcDbLine
 10
362.6147057507
 20
162.0381681382
 30
0.0
 11
357.6649582824
 21
164.8955965296
 31
0.0
  0
LWPOLYLINE
  5
224
330
1F
100
AcDbEntity
  8
0
  6
Continuous
 62
     7
370
    25
100
AcDbPolyline
 90
       16
 70
   128
 43
0.0
 10
367.5644532191
 20
164.8955965296
 10
368.0249264727
 20
164.5673293124
 10
368.3571109776
 20
164.1909672817
 10
368.546488677
 20
163.7829592643
 10
368.5847828565
 20
163.3611371683
 10
368.4703198769
 20
162.9439366435
 10
368.2081023196
 20
162.5495913547
 10
367.80959035
 20
162.1953360834
 10
367.2922008536
 20
161.8966534847
 10
366.678546234
 20
161.6665974216
 10
365.9954461428
 20
161.5152224478
 10
365.2727553318
 20
161.4491443762
 10
364.5420588573
 20
161.4712511355
 10
363.8352916615
 20
161.5805765543
 10
363.1833428623
 20
161.7723425871
 10
362.6147057507
 20
162.0381681382
  0
LWPOLYLINE
  5
225
330
1F
100
AcDbEntity
  8
0
  6
Continuous
 62
     7
370
    25
100
AcDbPolyline
 90
       15
 70
   128
 43
0.0
 10
361.7308222743
 20
152.5459641376
 10
362.3650914122
 20
152.238722958
 10
363.0821427416
 20
151.9997317462
 10
363.8601890207
 20
151.8362521292
 10
364.6755897069
 20
151.7532513524
 10
365.503569263
 20
151.7532513524
 10
366.3189699491
 20
151.8362521292
 10
367.0970162282
 20
151.9997317462
 10
367.8140675576
 20
152.238722958
 10
368.4483366955
 20
152.5459641376
 10
368.9805516953
 20
152.9121199171
 10
369.3945414733
 20
153.3260648385
 10
369.6777271598
 20
153.7752213948
 10
369.8215043008
 20
154.2459421913
 10
369.8395794849
 20
154.4849334031
  0
LINE
  5
226
330
1F
100
AcDbEntity
  8
0
  6
Continuous
 62
     7
370
    25
100
AcDbLine
 10
348.1190167364
 20
161.0176579984
 30
0.0
 11
348.1190167364
 21
152.0357090677
 31
0.0
  0
LINE
  5
227
330
1F
100
AcDbEntity
  8
0
  6
Continuous
 62
     7
370
    25
100
AcDbLine
 10
353.9526476812
 20
155.4033925289
 30
0.0
 11
348.1190167364
 21
152.0357090677
 31
0.0
  0
LINE
  5
228
330
1F
100
AcDbEntity
  8
0
  6
Continuous
 62
     7
370
    25
100
AcDbLine
 10
347.2351332599
 20
152.5459641376
 30
0.0
 11
347.2351332599
 21
161.5279130683
 31
0.0
  0
LINE
  5
229
330
1F
100
AcDbEntity
  8
0
  6
Continuous
 62
     7
370
    25
100
AcDbLine
 10
347.2351332599
 20
152.5459641376
 30
0.0
 11
348.1190167364
 21
152.0357090677
 31
0.0
  0
LINE
  5
22A
330
1F
100
AcDbEntity
  8
0
  6
Continuous
 62
     7
370
    25
100
AcDbLine
 10
356.781074806
 20
155.4033925289
 30
0.0
 11
361.7308222743
 21
152.5459641376
 31
0.0
  0
ARC
  5
22B
330
1F
100
AcDbEntity
  8
0
  6
Continuous
 62
     7
370
    25
100
AcDbCircle
 10
355.3668612436
 20
152.673970359
 30
0.0
 40
3.074043815823618
100
AcDbArc
 50
62.6096722366
 51
117.3903277634
  0
LINE
  5
22C
330
1F
100
AcDbEntity
  8
0
  6
Continuous
 62
     7
370
    25
100
AcDbLine
 10
369.332220172
 20
164.6999694274
 30
0.0
 11
369.332220172
 21
173.2637796757
 31
0.0
  0
ARC
  5
22D
330
1F
100
AcDbEntity
  8
0
  6
Continuous
 62
     7
370
    25
100
AcDbCircle
 10
293.0422601384
 20
159.7481620893
 30
0.0
 40
7.650759354637042
100
AcDbArc
 50
122.4763035594
 51
177.523696295
  0
ARC
  5
22E
330
1F
100
AcDbEntity
  8
0
  6
Continuous
 62
     7
370
    25
100
AcDbCircle
 10
291.6280465761
 20
160.5645702011
 30
0.0
 40
7.650759354637013
100
AcDbArc
 50
122.4763035594
 51
177.523696295
  0
ARC
  5
22F
330
1F
100
AcDbEntity
  8
0
  6
Continuous
 62
     7
370
    25
100
AcDbCircle
 10
287.5648334281
 20
151.5824086182
 30
0.0
 40
2.191316898286131
100
AcDbArc
 50
171.3146750033
 51
308.674573242
  0
LINE
  5
230
330
1F
100
AcDbEntity
  8
0
  6
Continuous
 62
     7
370
    25
100
AcDbLine
 10
285.3986452452
 20
160.0787223198
 30
0.0
 11
285.3986452452
 21
151.9133142009
 31
0.0
  0
LINE
  5
231
330
1F
100
AcDbEntity
  8
0
  6
Continuous
 62
     7
370
    25
100
AcDbLine
 10
297.9476986526
 20
171.4058407096
 30
0.0
 11
288.9341791511
 21
166.2024466588
 31
0.0
  0
LWPOLYLINE
  5
232
330
1F
100
AcDbEntity
  8
0
  6
Continuous
 62
     7
370
    25
100
AcDbPolyline
 90
       14
 70
   128
 43
0.0
 10
288.8855054411
 20
155.8257416591
 10
288.7646998667
 20
155.8440905072
 10
288.403434683
 20
155.9898887894
 10
288.1165818116
 20
156.2600402705
 10
287.9175541739
 20
156.6419129677
 10
287.815658081
 20
157.1176509381
 10
287.815658081
 20
157.6650092028
 10
287.9175541739
 20
158.2583938978
 10
288.1165818116
 20
158.8700590142
 10
288.403434683
 20
159.4714037711
 10
288.7646998667
 20
160.0343099558
 10
289.1834850041
 20
160.5324567009
 10
289.6402081677
 20
160.9425512183
 10
289.6771479527
 20
160.9704963203
  0
LINE
  5
233
330
1F
100
AcDbEntity
  8
0
  6
Continuous
 62
     7
370
    25
100
AcDbLine
 10
283.9844316828
 20
152.7297223127
 30
0.0
 11
283.9844316828
 21
160.8951304316
 31
0.0
  0
LWPOLYLINE
  5
234
330
1F
100
AcDbEntity
  8
0
  6
Continuous
 62
     7
370
    25
100
AcDbPolyline
 90
       16
 70
   128
 43
0.0
 10
292.0928190693
 20
193.2691110519
 10
291.8673755556
 20
192.7431639353
 10
291.3936215411
 20
191.3914670123
 10
291.0650485707
 20
190.0254861505
 10
290.8829054289
 20
188.6504129389
 10
290.8478843746
 20
187.271473523
 10
290.9601185099
 20
185.8939087423
 10
291.2191812742
 20
184.5229542118
 10
291.6240880657
 20
183.1638204235
 10
292.1732999831
 20
181.821672943
 10
292.8647296748
 20
180.5016127772
 10
293.6957492718
 20
179.2086569875
 10
294.6632003755
 20
177.9477196213
 10
295.7634060615
 20
176.7235930359
 10
296.9921848543
 20
175.5409296845
 10
298.3448666194
 20
174.4042244337
  0
LWPOLYLINE
  5
235
330
1F
100
AcDbEntity
  8
0
  6
Continuous
 62
     7
370
    25
100
AcDbPolyline
 90
        9
 70
   128
 43
0.0
 10
298.3448666194
 20
174.4042244337
 10
298.7114544476
 20
174.0544572652
 10
298.9654548668
 20
173.6728525399
 10
299.0989069102
 20
173.271370642
 10
299.1076278787
 20
172.8625949526
 10
298.9913444369
 20
172.4593374571
 10
298.7537011797
 20
172.0742371881
 10
298.4021464021
 20
171.7193640881
 10
297.9476986526
 20
171.4058407096
  0
LWPOLYLINE
  5
236
330
1F
100
AcDbEntity
  8
0
  6
Continuous
 62
     7
370
    25
100
AcDbPolyline
 90
        9
 70
   128
 43
0.0
 10
296.5334850902
 20
172.2222488214
 10
296.760708965
 20
172.3790105107
 10
296.9364863537
 20
172.5564470607
 10
297.0553079824
 20
172.7489971952
 10
297.1134497033
 20
172.9506259429
 10
297.109089219
 20
173.1550137876
 10
297.0423631973
 20
173.3557547366
 10
296.9153629877
 20
173.5465570992
 10
296.7320690736
 20
173.7214406835
  0
LWPOLYLINE
  5
237
330
1F
100
AcDbEntity
  8
0
  6
Continuous
 62
     7
370
    25
100
AcDbPolyline
 90
       18
 70
   128
 43
0.0
 10
296.7320690736
 20
173.7214406835
 10
295.3384990343
 20
174.8908614562
 10
294.0696376994
 20
176.1066727423
 10
292.9301045754
 20
177.364448173
 10
291.9240483273
 20
178.6596086021
 10
291.0551316749
 20
179.9874387767
 10
290.3265180575
 20
181.3431045043
 10
289.7408601176
 20
182.721670252
 10
289.300290043
 20
184.1181171158
 10
289.0064118042
 20
185.5273610923
 10
288.8602953153
 20
186.944271588
 10
288.8624725382
 20
188.3636900982
 10
289.0129355465
 20
189.7804489873
 10
289.3111365538
 20
191.1893903025
 10
289.7559899084
 20
192.5853845522
 10
290.3458760457
 20
193.9633493809
 10
291.0786473844
 20
195.3182680721
 10
291.6361591946
 20
196.1928875952
  0
LINE
  5
238
330
1F
100
AcDbEntity
  8
0
  6
Continuous
 62
     7
370
    25
100
AcDbLine
 10
287.5199655887
 20
167.0188547706
 30
0.0
 11
296.5334850902
 21
172.2222488214
 31
0.0
  0
ARC
  5
239
330
1F
100
AcDbEntity
  8
0
  6
Continuous
 62
     7
370
    25
100
AcDbCircle
 10
286.4843203668
 20
152.4818559707
 30
0.0
 40
2.512146722643243
100
AcDbArc
 50
174.337576136
 51
234.3502434707
  0
ARC
  5
23A
330
1F
100
AcDbEntity
  8
0
  6
Continuous
 62
     7
370
    25
100
AcDbCircle
 10
302.6430600267
 20
171.3128615726
 30
0.0
 40
13.80024496571311
100
AcDbArc
 50
180.0436694753
 51
193.8320373314
  0
LINE
  5
23B
330
1F
100
AcDbEntity
  8
0
  6
Continuous
 62
     7
370
    25
100
AcDbLine
 10
284.3379850734
 20
233.355862158
 30
0.0
 11
289.6653539028
 21
236.4312867209
 31
0.0
  0
LINE
  5
23C
330
1F
100
AcDbEntity
  8
0
  6
Continuous
 62
     7
370
    25
100
AcDbLine
 10
299.3104665769
 20
236.958554244
 30
0.0
 11
365.8263791132
 21
198.5597352786
 31
0.0
  0
LINE
  5
23D
330
1F
100
AcDbEntity
  8
0
  6
Continuous
 62
     7
370
    25
100
AcDbLine
 10
369.3140379143
 20
196.5463527088
 30
0.0
 11
374.8476530653
 21
193.3518646787
 31
0.0
  0
ARC
  5
23E
330
1F
100
AcDbEntity
  8
0
  6
Continuous
 62
     7
370
    25
100
AcDbCircle
 10
374.0513773686
 20
191.3108443991
 30
0.0
 40
2.190848868964162
100
AcDbArc
 50
291.3125518932
 51
68.6874481068
  0
LINE
  5
23F
330
1F
100
AcDbEntity
  8
0
  6
Continuous
 62
     7
370
    25
100
AcDbLine
 10
374.8476530653
 20
189.2698241196
 30
0.0
 11
367.7765852534
 21
185.1877835605
 31
0.0
  0
ARC
  5
240
330
1F
100
AcDbEntity
  8
0
  6
Continuous
 62
     7
370
    25
100
AcDbCircle
 10
364.2410513475
 20
191.9738523694
 30
0.0
 40
7.651844867747994
100
AcDbArc
 50
242.4805390039
 51
297.5194609961
  0
LINE
  5
241
330
1F
100
AcDbEntity
  8
0
  6
Continuous
 62
     7
370
    25
100
AcDbLine
 10
360.7055174415
 20
185.1877835605
 30
0.0
 11
284.3379850734
 21
229.2738215989
 31
0.0
  0
ARC
  5
242
330
1F
100
AcDbEntity
  8
0
  6
Continuous
 62
     7
370
    25
100
AcDbCircle
 10
285.1342607701
 20
231.3148418785
 30
0.0
 40
2.190848868964198
100
AcDbArc
 50
111.3125518932
 51
248.6874481068
  0
ARC
  5
243
330
1F
100
AcDbEntity
  8
0
  6
Continuous
 62
     7
370
    25
100
AcDbCircle
 10
364.2410513475
 20
190.3407707457
 30
0.0
 40
7.651844867747969
100
AcDbArc
 50
242.4805390039
 51
297.5194609961
  0
LINE
  5
244
330
1F
100
AcDbEntity
  8
0
  6
Continuous
 62
     7
370
    25
100
AcDbLine
 10
360.7055174415
 20
183.5547019367
 30
0.0
 11
284.3379850734
 21
227.6407399751
 31
0.0
  0
LINE
  5
245
330
1F
100
AcDbEntity
  8
0
  6
Continuous
 62
     7
370
    25
100
AcDbLine
 10
374.8476530653
 20
187.6367424958
 30
0.0
 11
367.7765852534
 21
183.5547019367
 31
0.0
  0
ARC
  5
246
330
1F
100
AcDbEntity
  8
0
  6
Continuous
 62
     7
370
    25
100
AcDbCircle
 10
373.8127875134
 20
189.9251753549
 30
0.0
 40
2.511547662484663
100
AcDbArc
 50
294.333235592
 51
354.3466234504
  0
ARC
  5
247
330
1F
100
AcDbEntity
  8
0
  6
Continuous
 62
     7
370
    25
100
AcDbCircle
 10
285.3124002164
 20
229.8857986576
 30
0.0
 40
2.447401348072267
100
AcDbArc
 50
184.7822660226
 51
246.537874935
  0
ARC
  5
248
330
1F
100
AcDbEntity
  8
0
  6
Continuous
 62
     7
370
    25
100
AcDbCircle
 10
355.8759059961
 20
207.5469941833
 30
0.0
 40
16.2200082238288
100
AcDbArc
 50
321.522465036
 51
358.8806654858
  0
LWPOLYLINE
  5
249
330
1F
100
AcDbEntity
  8
0
  6
Continuous
 62
     7
370
    25
100
AcDbPolyline
 90
       40
 70
   128
 43
0.0
 10
287.0928190693
 20
207.2301390794
 10
287.0939639737
 20
207.0500516299
 10
287.1855230135
 20
205.6105161198
 10
287.423268788
 20
204.1765637855
 10
287.8063817382
 20
202.7531377578
 10
288.3335411945
 20
201.3451448812
 10
289.0029299289
 20
199.9574387987
 10
289.8122404199
 20
198.5948032207
 10
290.7586828064
 20
197.2619354343
 10
291.8389945056
 20
195.9634301109
 10
293.0494514592
 20
194.7037634673
 10
294.3858809713
 20
193.4872778355
 10
295.8436760926
 20
192.3181666933
 10
297.4178115013
 20
191.2004602092
 10
299.1028608264
 20
190.1380113489
 10
300.893015354
 20
189.1344825936
 10
302.7821040504
 20
188.193333315
 10
304.7636148357
 20
187.3178078496
 10
306.8307170316
 20
186.510924315
 10
308.9762849087
 20
185.7754642059
 10
311.19292225
 20
185.1139628057
 10
313.4729878474
 20
184.5287004467
 10
315.8086218424
 20
184.0216946495
 10
318.1917728208
 20
183.5946931682
 10
320.6142255675
 20
183.2491679653
 10
323.0676293859
 20
182.9863101377
 10
325.543526885
 20
182.8070258109
 10
328.0333831332
 20
182.7119330151
 10
330.52861508
 20
182.7013595548
 10
333.0206211441
 20
182.7753418789
 10
335.5008108644
 20
182.9336249551
 10
337.9606345131
 20
183.1756631488
 10
340.3916125684
 20
183.5006221042
 10
342.7853649454
 20
183.9073816204
 10
345.1336398838
 20
184.3945395131
 10
347.4283423934
 20
184.9604164483
 10
349.6615621593
 20
185.6030617307
 10
351.8256008103
 20
186.3202600291
 10
353.9129984568
 20
187.1095390123
 10
354.3221747129
 20
187.2764419694
  0
LWPOLYLINE
  5
24A
330
1F
100
AcDbEntity
  8
0
  6
Continuous
 62
     7
370
    25
100
AcDbPolyline
 90
       47
 70
   128
 43
0.0
 10
351.7300548713
 20
188.7361261888
 10
349.6615621593
 20
188.0526841664
 10
347.4283423934
 20
187.4100388839
 10
345.1336398838
 20
186.8441619488
 10
342.7853649454
 20
186.357004056
 10
340.3916125684
 20
185.9502445398
 10
337.9606345131
 20
185.6252855845
 10
335.5008108644
 20
185.3832473908
 10
333.0206211441
 20
185.2249643146
 10
330.52861508
 20
185.1509819905
 10
328.0333831332
 20
185.1615554508
 10
325.543526885
 20
185.2566482466
 10
323.0676293859
 20
185.4359325734
 10
320.6142255675
 20
185.6987904009
 10
318.1917728208
 20
186.0443156038
 10
315.8086218424
 20
186.4713170852
 10
313.4729878474
 20
186.9783228823
 10
311.19292225
 20
187.5635852413
 10
308.9762849087
 20
188.2250866415
 10
306.8307170316
 20
188.9605467506
 10
304.7636148357
 20
189.7674302853
 10
302.7821040504
 20
190.6429557507
 10
300.893015354
 20
191.5841050293
 10
299.1028608264
 20
192.5876337845
 10
297.4178115013
 20
193.6500826449
 10
295.8436760926
 20
194.767789129
 10
294.3858809713
 20
195.9369002711
 10
293.0494514592
 20
197.153385903
 10
291.8389945056
 20
198.4130525465
 10
290.7586828064
 20
199.7115578699
 10
289.8122404199
 20
201.0444256563
 10
289.0029299289
 20
202.4070612343
 10
288.3335411945
 20
203.7947673168
 10
287.8063817382
 20
205.2027601935
 10
287.423268788
 20
206.6261862211
 10
287.1855230135
 20
208.0601385554
 10
287.0939639737
 20
209.4996740656
 10
287.1489072914
 20
210.9398303745
 10
287.3501635659
 20
212.375642965
 10
287.6970390249
 20
213.8021622936
 10
288.1883379169
 20
215.2144708528
 10
288.8223666329
 20
216.6077001223
 10
289.5969395445
 20
217.9770473522
 10
290.5093865384
 20
219.317792119
 10
291.5565622208
 20
220.6253125976
 10
292.7348567602
 20
221.8951014942
 10
293.3134476436
 20
222.4593157231
  0
LWPOLYLINE
  5
24B
330
1F
100
AcDbEntity
  8
0
  6
Continuous
 62
     7
370
    25
100
AcDbPolyline
 90
       45
 70
   128
 43
0.0
 10
309.2491593393
 20
231.221069038
 10
310.6325140889
 20
231.6376252074
 10
312.8974514005
 20
232.2421468613
 10
315.2199411031
 20
232.7688912988
 10
317.5919770936
 20
233.2160427228
 10
320.0053824725
 20
233.5820597096
 10
322.4518377315
 20
233.8656805229
 10
324.9229094324
 20
234.065927463
 10
327.4100792793
 20
234.1821102372
 10
329.9047734825
 20
234.2138283395
 10
332.3983923142
 20
234.1609724308
 10
334.8823397537
 20
234.0237247166
 10
337.3480531196
 20
233.8025583181
 10
339.7870325871
 20
233.4982356417
 10
342.1908704888
 20
233.1118057507
 10
344.5512802974
 20
232.644600749
 10
346.8601251914
 20
232.0982311891
 10
349.109446104
 20
231.4745805199
 10
351.2914891602
 20
230.7757985946
 10
353.3987324054
 20
230.0042942592
 10
355.4239117357
 20
229.1627270489
 10
357.3600459383
 20
228.2539980203
 10
359.2004607577
 20
227.2812397507
 10
360.9388119026
 20
226.2478055392
 10
362.5691069164
 20
225.1572578477
 10
364.0857258347
 20
224.01335602
 10
365.4834405578
 20
222.8200433226
 10
366.7574328734
 20
221.5814333517
 10
367.9033110662
 20
220.3017958525
 10
368.9171250565
 20
218.9855420004
 10
369.7953800177
 20
217.6372091951
 10
370.5350484229
 20
216.2614454192
 10
371.1335804818
 20
214.8629932155
 10
371.5889129305
 20
213.4466733383
 10
371.8994761437
 20
212.0173681357
 10
372.0641995456
 20
210.5800047188
 10
372.0825153006
 20
209.139537977
 10
371.9543602705
 20
207.7009334978
 10
371.6801762321
 20
206.2691504486
 10
371.2609083548
 20
204.8491244824
 10
370.6980019416
 20
203.4457507227
 10
369.9933974477
 20
202.0638668896
 10
369.1495237907
 20
200.7082366231
 10
368.1692899778
 20
199.3835330614
 10
367.1688477915
 20
198.2166812808
  0
SPLINE
  5
24C
330
1F
100
AcDbEntity
  8
0
  6
Continuous
 62
     8
370
    18
100
AcDbSpline
210
0.0
220
0.0
230
1.0
 70
    11
 71
     3
 72
    39
 73
    35
 74
     0
 42
0.00000001
 43
0.00000001
 40
0.0
 40
0.0
 40
0.0
 40
0.0
 40
0.0300075501254781
 40
0.0600056242632401
 40
0.0921616993864475
 40
0.1250001725600226
 40
0.1578386457335979
 40
0.1899947208568054
 40
0.2200070561708036
 40
0.2500001772008382
 40
0.280012508217413
 40
0.3100056241767921
 40
0.3421616992999995
 40
0.3750001724735746
 40
0.4078386456471498
 40
0.4399947207703572
 40
0.4700070560844201
 40
0.5000001771143903
 40
0.5300125081309977
 40
0.560005624090343
 40
0.5921616992135504
 40
0.6250001723871257
 40
0.6578386455607007
 40
0.6899947206839082
 40
0.7200070559979374
 40
0.7500001770279399
 40
0.7800125080445143
 40
0.8100056240038941
 40
0.8421616991271014
 40
0.8750001723006764
 40
0.9078386454742514
 40
0.939994720597459
 40
0.9700021008990214
 40
1.0
 40
1.0
 40
1.0
 40
1.0
 10
297.7023032378247
 20
234.622090931714
 30
0.0
 10
297.4963425523723
 20
234.5152067346779
 30
0.0
 10
297.08448622113
 20
234.3014720932225
 30
0.0
 10
296.3299365885968
 20
234.0686665046549
 30
0.0
 10
295.4932196332324
 20
233.9136502486212
 30
0.0
 10
294.5909265321778
 20
233.8601189318848
 30
0.0
 10
293.6892702001328
 20
233.9138628325298
 30
0.0
 10
292.8505982059264
 20
234.0678830163709
 30
0.0
 10
292.102310082835
 20
234.3043160356866
 30
0.0
 10
291.4616107755646
 20
234.6117561133198
 30
0.0
 10
290.9292023248428
 20
234.9815664182051
 30
0.0
 10
290.5196825370664
 20
235.413558345821
 30
0.0
 10
290.2529716801633
 20
235.8975959171614
 30
0.0
 10
290.1597390964963
 20
236.4181887396329
 30
0.0
 10
290.2529717184117
 20
236.9387817890677
 30
0.0
 10
290.5197363569259
 20
237.4229166462203
 30
0.0
 10
290.9293034526527
 20
237.8548992030634
 30
0.0
 10
291.4618607110853
 20
238.2247657276236
 30
0.0
 10
292.1024609694387
 20
238.5321189356042
 30
0.0
 10
292.8507738515415
 20
238.7685295814917
 30
0.0
 10
293.6892424163725
 20
238.9224985088316
 30
0.0
 10
294.5910333289712
 20
238.9763205281052
 30
0.0
 10
295.4928246683891
 20
238.9224984755524
 30
0.0
 10
296.3314616587415
 20
238.7684985544424
 30
0.0
 10
297.0797586386304
 20
238.5320604081769
 30
0.0
 10
297.7204550702114
 20
238.2246219952077
 30
0.0
 10
298.2528663778254
 20
237.8548100365143
 30
0.0
 10
298.6623774131824
 20
237.4228231755567
 30
0.0
 10
298.9291228596874
 20
236.9387655807499
 30
0.0
 10
299.0222220197726
 20
236.4182499954408
 30
0.0
 10
298.929485691549
 20
235.8973696480933
 30
0.0
 10
298.660960491466
 20
235.414287260645
 30
0.0
 10
298.2575746164293
 20
234.9787317170538
 30
0.0
 10
297.887374199384
 20
234.7409586702962
 30
0.0
 10
297.7023032378247
 20
234.622090931714
 30
0.0
  0
LWPOLYLINE
  5
24D
330
1F
100
AcDbEntity
  8
0
  6
Continuous
 62
     8
370
    18
100
AcDbPolyline
 90
       15
 70
   128
 43
0.0
 10
298.1265673065
 20
233.887244011
 10
297.4589155824
 20
233.5638322431
 10
296.7041247093
 20
233.3122625465
 10
295.8851286261
 20
233.1401787391
 10
295.0268121143
 20
233.0528095003
 10
294.1552546869
 20
233.0528095003
 10
293.2969381751
 20
233.1401787391
 10
292.4779420919
 20
233.3122625465
 10
291.7231512188
 20
233.5638322431
 10
291.0554994947
 20
233.887244011
 10
290.4952731792
 20
234.2726711474
 10
290.0594944654
 20
234.7084026436
 10
289.7614042692
 20
235.1811990186
 10
289.6100599101
 20
235.676694594
 10
289.5910395735
 20
235.9327998965
  0
ARC
  5
24E
330
1F
100
AcDbEntity
  8
0
  6
Continuous
 62
     8
370
    18
100
AcDbCircle
 10
297.0917017547
 20
236.1756768701
 30
0.0
 40
2.511547662485415
100
AcDbArc
 50
294.333235592
 51
354.3466234504
  0
SPLINE
  5
24F
330
1F
100
AcDbEntity
  8
0
  6
Continuous
 62
     8
370
    18
100
AcDbSpline
210
0.0
220
0.0
230
1.0
 70
    11
 71
     3
 72
    39
 73
    35
 74
     0
 42
0.00000001
 43
0.00000001
 40
0.0
 40
0.0
 40
0.0
 40
0.0
 40
0.0300075501254781
 40
0.0600056242632401
 40
0.0921616993864475
 40
0.1250001725600227
 40
0.1578386457335979
 40
0.1899947208568051
 40
0.2200070561708034
 40
0.2500001772008382
 40
0.280012508217413
 40
0.3100056241767921
 40
0.3421616992999995
 40
0.3750001724735746
 40
0.4078386456471498
 40
0.4399947207703572
 40
0.47000705608442
 40
0.5000001771143902
 40
0.5300125081309975
 40
0.5600056240903429
 40
0.5921616992135503
 40
0.6250001723871255
 40
0.6578386455607007
 40
0.689994720683908
 40
0.7200070559979372
 40
0.75000017702794
 40
0.7800125080445144
 40
0.8100056240038939
 40
0.8421616991271014
 40
0.8750001723006764
 40
0.9078386454742513
 40
0.939994720597459
 40
0.9700021008990214
 40
1.0
 40
1.0
 40
1.0
 40
1.0
 10
367.7058745752926
 20
194.2098893964899
 30
0.0
 10
367.4999138898403
 20
194.1030051994538
 30
0.0
 10
367.088057558598
 20
193.8892705579984
 30
0.0
 10
366.3335079260647
 20
193.6564649694308
 30
0.0
 10
365.4967909707004
 20
193.5014487133971
 30
0.0
 10
364.5944978696457
 20
193.4479173966608
 30
0.0
 10
363.6928415376007
 20
193.5016612973057
 30
0.0
 10
362.8541695433943
 20
193.6556814811468
 30
0.0
 10
362.1058814203029
 20
193.8921145004625
 30
0.0
 10
361.4651821130325
 20
194.1995545780957
 30
0.0
 10
360.9327736623107
 20
194.569364882981
 30
0.0
 10
360.5232538745343
 20
195.0013568105969
 30
0.0
 10
360.2565430176312
 20
195.4853943819373
 30
0.0
 10
360.1633104339642
 20
196.0059872044088
 30
0.0
 10
360.2565430558797
 20
196.5265802538436
 30
0.0
 10
360.5233076943938
 20
197.0107151109962
 30
0.0
 10
360.9328747901206
 20
197.4426976678393
 30
0.0
 10
361.4654320485532
 20
197.8125641923995
 30
0.0
 10
362.1060323069066
 20
198.1199174003801
 30
0.0
 10
362.8543451890095
 20
198.3563280462677
 30
0.0
 10
363.6928137538404
 20
198.5102969736075
 30
0.0
 10
364.5946046664391
 20
198.5641189928812
 30
0.0
 10
365.496396005857
 20
198.5102969403283
 30
0.0
 10
366.3350329962094
 20
198.3562970192183
 30
0.0
 10
367.0833299760984
 20
198.1198588729528
 30
0.0
 10
367.7240264076793
 20
197.8124204599837
 30
0.0
 10
368.2564377152933
 20
197.4426085012902
 30
0.0
 10
368.6659487506503
 20
197.0106216403327
 30
0.0
 10
368.9326941971554
 20
196.5265640455258
 30
0.0
 10
369.0257933572405
 20
196.0060484602167
 30
0.0
 10
368.9330570290169
 20
195.4851681128692
 30
0.0
 10
368.6645318289339
 20
195.002085725421
 30
0.0
 10
368.2611459538973
 20
194.5665301818297
 30
0.0
 10
367.8909455368519
 20
194.3287571350721
 30
0.0
 10
367.7058745752926
 20
194.2098893964899
 30
0.0
  0
LWPOLYLINE
  5
250
330
1F
100
AcDbEntity
  8
0
  6
Continuous
 62
     8
370
    18
100
AcDbPolyline
 90
       15
 70
   128
 43
0.0
 10
368.130138644
 20
193.4750424758
 10
367.4624869198
 20
193.1516307079
 10
366.7076960468
 20
192.9000610112
 10
365.8886999636
 20
192.7279772039
 10
365.0303834518
 20
192.6406079651
 10
364.1588260243
 20
192.6406079651
 10
363.3005095126
 20
192.7279772039
 10
362.4815134294
 20
192.9000610112
 10
361.7267225563
 20
193.1516307079
 10
361.0590708321
 20
193.4750424758
 10
360.4988445166
 20
193.8604696121
 10
360.0630658029
 20
194.2962011083
 10
359.7649756066
 20
194.7689974834
 10
359.6136312476
 20
195.2644930587
 10
359.5946109109
 20
195.5205983613
  0
ARC
  5
251
330
1F
100
AcDbEntity
  8
0
  6
Continuous
 62
     8
370
    18
100
AcDbCircle
 10
367.0952730921
 20
195.7634753349
 30
0.0
 40
2.511547662485709
100
AcDbArc
 50
294.333235592
 51
354.3466234504
  0
LWPOLYLINE
  5
252
330
1F
100
AcDbEntity
  8
0
  6
Continuous
 62
     8
370
    18
100
AcDbPolyline
 90
       15
 70
   128
 43
0.0
 10
284.7622491421
 20
165.7527586969
 10
284.1483101223
 20
165.3363137964
 10
283.5530253289
 20
164.8084714665
 10
282.9944821891
 20
164.1852699293
 10
282.4896517538
 20
163.4856448483
 10
282.05387304
 20
162.7308539775
 10
281.7003869636
 20
161.9438312555
 10
281.4399340202
 20
161.1484899695
 10
281.2804279405
 20
160.368996162
 10
281.2267152362
 20
159.629034358
 10
281.2804279405
 20
158.9510879223
 10
281.4399340202
 20
158.3557559144
 10
281.7003869636
 20
157.8611271961
 10
282.05387304
 20
157.4822308107
 10
282.2624523105
 20
157.3398103256
  0
ARC
  5
253
330
1F
100
AcDbEntity
  8
0
  6
Continuous
 62
     8
370
    18
100
AcDbCircle
 10
286.4162384176
 20
163.1325889609
 30
0.0
 40
3.098543201130245
100
AcDbArc
 50
88.9644623378
 51
122.262280777
  0
LINE
  5
254
330
1F
100
AcDbEntity
  8
0
  6
Continuous
 62
     8
370
    18
100
AcDbLine
 10
293.8839266194
 20
163.3450182674
 30
0.0
 11
292.469713057
 21
164.1614263792
 31
0.0
  0
LINE
  5
255
330
1F
100
AcDbEntity
  8
0
  6
Continuous
 62
     8
370
    18
100
AcDbLine
 10
305.494403982
 20
168.6630524117
 30
0.0
 11
305.494403982
 21
152.332236174
 31
0.0
  0
LINE
  5
256
330
1F
100
AcDbEntity
  8
0
  6
Continuous
 62
     8
370
    18
100
AcDbLine
 10
302.8974461209
 20
152.2175960805
 30
0.0
 11
302.8974461209
 21
168.5484123182
 31
0.0
  0
SPLINE
  5
257
330
1F
100
AcDbEntity
  8
0
  6
Continuous
 62
     8
370
    18
100
AcDbSpline
210
0.0
220
0.0
230
1.0
 70
     8
 71
     3
 72
     9
 73
     5
 74
     0
 42
0.00000001
 43
0.00000001
 40
0.0
 40
0.0
 40
0.0
 40
0.0
 40
0.9263172361623057
 40
1.0
 40
1.0
 40
1.0
 40
1.0
 10
299.5054255298501
 20
158.4248323930228
 30
0.0
 10
299.5038431927004
 20
158.0993077419996
 30
0.0
 10
299.5021349904907
 20
157.7478896334779
 30
0.0
 10
299.4172225722151
 20
157.3664920698103
 30
0.0
 10
299.4109659905524
 20
157.3383896431983
 30
0.0
  0
LWPOLYLINE
  5
258
330
1F
100
AcDbEntity
  8
0
  6
Continuous
 62
     8
370
    18
100
AcDbPolyline
 90
       28
 70
   128
 43
0.0
 10
295.8064039563
 20
151.1212656555
 10
295.7744909296
 20
151.0922468768
 10
294.9445867912
 20
150.5252279957
 10
294.1146826528
 20
150.1340599542
 10
293.2657661803
 20
149.9258486152
 10
292.4488513498
 20
149.9429644164
 10
291.7195867912
 20
150.2060523944
 10
291.1271852396
 20
150.7061940534
 10
290.703972289
 20
151.4052215117
 10
290.459889575
 20
152.2446129694
 10
290.3837480525
 20
153.1590000718
 10
290.459889575
 20
154.1612983047
 10
290.703972289
 20
155.2825016654
 10
291.1271852396
 20
156.4701603957
 10
291.7195867912
 20
157.6542743275
 10
292.4488513498
 20
158.7593532425
 10
293.2657661803
 20
159.7196588307
 10
294.1146826528
 20
160.4915855879
 10
294.9445867912
 20
161.0586044691
 10
295.7744909296
 20
161.4497725106
 10
296.6234074021
 20
161.6579838496
 10
297.4403222326
 20
161.6408680484
 10
298.1695867912
 20
161.3777800704
 10
298.7619883428
 20
160.8776384114
 10
299.1852012934
 20
160.1786109531
 10
299.4292840074
 20
159.3392194954
 10
299.5054255299
 20
158.424832393
 10
299.5054255299
 20
158.424832393
  0
LINE
  5
259
330
1F
100
AcDbEntity
  8
0
  6
Continuous
 62
     8
370
    18
100
AcDbLine
 10
288.9341791511
 20
158.0377020402
 30
0.0
 11
290.3483927135
 21
157.2212939284
 31
0.0
  0
LINE
  5
25A
330
1F
100
AcDbEntity
  8
0
  6
Continuous
 62
     8
370
    18
100
AcDbLine
 10
290.3483927135
 20
149.0558858095
 30
0.0
 11
288.9341791511
 21
149.8722939214
 31
0.0
  0
SPLINE
  5
25B
330
1F
100
AcDbEntity
  8
0
  6
Continuous
 62
     8
370
    18
100
AcDbSpline
210
0.0
220
0.0
230
1.0
 70
     8
 71
     3
 72
     9
 73
     5
 74
     0
 42
0.00000001
 43
0.00000001
 40
0.0
 40
0.0
 40
0.0
 40
0.0
 40
0.925632670207401
 40
1.0
 40
1.0
 40
1.0
 40
1.0
 10
375.1658511168108
 20
202.1026663755377
 30
0.0
 10
375.1642511923632
 20
201.7771353876047
 30
0.0
 10
375.1625227265268
 20
201.4254505363559
 30
0.0
 10
375.0775285096596
 20
201.0437640581914
 30
0.0
 10
375.0712077167034
 20
201.0153790539924
 30
0.0
  0
SPLINE
  5
25C
330
1F
100
AcDbEntity
  8
0
  6
Continuous
 62
     8
370
    18
100
AcDbSpline
210
0.0
220
0.0
230
1.0
 70
     8
 71
     3
 72
    14
 73
    10
 74
     0
 42
0.00000001
 43
0.00000001
 40
0.0
 40
0.0
 40
0.0
 40
0.0
 40
0.0617278392419391
 40
0.2205321328353913
 40
0.3827064813849625
 40
0.5448808299345308
 40
0.7036851235279841
 40
0.8561508167425612
 40
1.0
 40
1.0
 40
1.0
 40
1.0
 10
371.9401374439153
 20
205.2515205991628
 30
0.0
 10
372.0556486193615
 20
205.2832963325037
 30
0.0
 10
372.4683299346369
 20
205.3968199926891
 30
0.0
 10
373.1216262195073
 20
205.3495115973386
 30
0.0
 10
373.8533750169918
 20
205.0977627577407
 30
0.0
 10
374.4459189534834
 20
204.5948734268439
 30
0.0
 10
374.8668620050242
 20
203.8946962423649
 30
0.0
 10
375.1205669595007
 20
203.0594047283495
 30
0.0
 10
375.15105188707
 20
202.4153362257923
 30
0.0
 10
375.1658511168108
 20
202.1026663755377
 30
0.0
  0
LINE
  5
25D
330
1F
100
AcDbEntity
  8
0
  6
Continuous
 62
     8
370
    18
100
AcDbLine
 10
290.7373014431
 20
195.1639272754
 30
0.0
 11
290.7373014431
 21
197.2897416868
 31
0.0
  0
LINE
  5
25E
330
1F
100
AcDbEntity
  8
0
  6
Continuous
 62
     8
370
    18
100
AcDbLine
 10
361.7308222743
 20
161.5279130683
 30
0.0
 11
361.7308222743
 21
152.5459641376
 31
0.0
  0
LINE
  5
25F
330
1F
100
AcDbEntity
  8
0
  6
Continuous
 62
     8
370
    18
100
AcDbLine
 10
353.9526476812
 20
155.4033925289
 30
0.0
 11
353.9526476812
 21
164.3853414597
 31
0.0
  0
LINE
  5
260
330
1F
100
AcDbEntity
  8
0
  6
Continuous
 62
     8
370
    18
100
AcDbLine
 10
356.781074806
 20
164.3853414597
 30
0.0
 11
356.781074806
 21
155.4033925289
 31
0.0
  0
LINE
  5
261
330
1F
100
AcDbEntity
  8
0
  6
Continuous
 62
     8
370
    18
100
AcDbLine
 10
288.9341791511
 20
166.2024466588
 30
0.0
 11
287.5199655887
 21
167.0188547706
 31
0.0
  0
LINE
  5
262
330
1F
100
AcDbEntity
  8
0
  6
Continuous
 62
     8
370
    18
100
AcDbLine
 10
283.9844316828
 20
160.8951304316
 30
0.0
 11
285.3986452452
 21
160.0787223198
 31
0.0
  0
LINE
  5
263
330
1F
100
AcDbEntity
  8
0
  6
Continuous
 62
     8
370
    18
100
AcDbLine
 10
297.9476986526
 20
167.3238001505
 30
0.0
 11
297.9476986526
 21
171.4058407096
 31
0.0
  0
LINE
  5
264
330
1F
100
AcDbEntity
  8
0
  6
Continuous
 62
     8
370
    18
100
AcDbLine
 10
285.3986452452
 20
151.9133142009
 30
0.0
 11
283.9844316828
 21
152.7297223127
 31
0.0
  0
LINE
  5
265
330
1F
100
AcDbEntity
  8
0
  6
Continuous
 62
     8
370
    18
100
AcDbLine
 10
296.7320690736
 20
172.355873183
 30
0.0
 11
296.7320690736
 21
173.7214406835
 31
0.0
  0
LINE
  5
266
330
1F
100
AcDbEntity
  8
0
  6
Continuous
 62
     8
370
    18
100
AcDbLine
 10
367.7765852534
 20
185.1877835605
 30
0.0
 11
367.7765852534
 21
183.5547019367
 31
0.0
  0
LINE
  5
267
330
1F
100
AcDbEntity
  8
0
  6
Continuous
 62
     8
370
    18
100
AcDbLine
 10
360.7055174415
 20
183.5547019367
 30
0.0
 11
360.7055174415
 21
185.1877835605
 31
0.0
  0
LINE
  5
268
330
1F
100
AcDbEntity
  8
0
  6
Continuous
 62
     8
370
    18
100
AcDbLine
 10
284.3379850734
 20
227.6407399751
 30
0.0
 11
284.3379850734
 21
229.2738215989
 31
0.0
  0
LINE
  5
269
330
1F
100
AcDbEntity
  8
0
  6
Continuous
 62
     8
370
    18
100
AcDbLine
 10
374.8476530653
 20
187.6367424958
 30
0.0
 11
374.8476530653
 21
189.2698241196
 31
0.0
  0
ARC
  5
26A
330
1F
100
AcDbEntity
  8
0
  6
Continuous
 62
     7
370
    25
100
AcDbCircle
 10
89.5581201832
 20
115.146174569
 30
0.0
 40
0.6000000000000085
100
AcDbArc
 50
0.0
 51
90.0
  0
ARC
  5
26B
330
1F
100
AcDbEntity
  8
0
  6
Continuous
 62
     7
370
    25
100
AcDbCircle
 10
80.7581201832
 20
115.146174569
 30
0.0
 40
0.6000000000000085
100
AcDbArc
 50
90.0
 51
180.0
  0
LINE
  5
26C
330
1F
100
AcDbEntity
  8
0
  6
Continuous
 62
     7
370
    25
100
AcDbLine
 10
90.1581201832
 20
109.746174569
 30
0.0
 11
90.1581201832
 21
115.146174569
 31
0.0
  0
LINE
  5
26D
330
1F
100
AcDbEntity
  8
0
  6
Continuous
 62
     7
370
    25
100
AcDbLine
 10
80.1581201832
 20
115.146174569
 30
0.0
 11
80.1581201832
 21
109.746174569
 31
0.0
  0
LINE
  5
26E
330
1F
100
AcDbEntity
  8
0
  6
Continuous
 62
     7
370
    25
100
AcDbLine
 10
88.1581201832
 20
98.359624569
 30
0.0
 11
88.1581201832
 21
98.746174569
 31
0.0
  0
LINE
  5
26F
330
1F
100
AcDbEntity
  8
0
  6
Continuous
 62
     7
370
    25
100
AcDbLine
 10
88.1581201832
 20
102.746174569
 30
0.0
 11
88.1581201832
 21
107.746174569
 31
0.0
  0
LINE
  5
270
330
1F
100
AcDbEntity
  8
0
  6
Continuous
 62
     7
370
    25
100
AcDbLine
 10
82.1581201832
 20
107.746174569
 30
0.0
 11
82.1581201832
 21
102.746174569
 31
0.0
  0
LINE
  5
271
330
1F
100
AcDbEntity
  8
0
  6
Continuous
 62
     7
370
    25
100
AcDbLine
 10
82.1581201832
 20
98.746174569
 30
0.0
 11
82.1581201832
 21
98.359624569
 31
0.0
  0
LINE
  5
272
330
1F
100
AcDbEntity
  8
0
  6
Continuous
 62
     7
370
    25
100
AcDbLine
 10
82.1581201831
 20
98.359624569
 30
0.0
 11
82.7715701831
 21
97.746174569
 31
0.0
  0
LINE
  5
273
330
1F
100
AcDbEntity
  8
0
  6
Continuous
 62
     7
370
    25
100
AcDbLine
 10
87.5446701832
 20
97.746174569
 30
0.0
 11
88.1581201833
 21
98.359624569
 31
0.0
  0
ARC
  5
274
330
1F
100
AcDbEntity
  8
0
  6
Continuous
 62
     7
370
    25
100
AcDbCircle
 10
196.5581201832
 20
115.146174569
 30
0.0
 40
0.6000000000000085
100
AcDbArc
 50
0.0
 51
90.0
  0
ARC
  5
275
330
1F
100
AcDbEntity
  8
0
  6
Continuous
 62
     7
370
    25
100
AcDbCircle
 10
187.7581201832
 20
115.146174569
 30
0.0
 40
0.6000000000000227
100
AcDbArc
 50
90.0
 51
180.0
  0
LINE
  5
276
330
1F
100
AcDbEntity
  8
0
  6
Continuous
 62
     7
370
    25
100
AcDbLine
 10
197.1581201832
 20
109.746174569
 30
0.0
 11
197.1581201832
 21
115.146174569
 31
0.0
  0
LINE
  5
277
330
1F
100
AcDbEntity
  8
0
  6
Continuous
 62
     7
370
    25
100
AcDbLine
 10
187.1581201832
 20
115.146174569
 30
0.0
 11
187.1581201832
 21
109.746174569
 31
0.0
  0
LINE
  5
278
330
1F
100
AcDbEntity
  8
0
  6
Continuous
 62
     7
370
    25
100
AcDbLine
 10
195.1581201832
 20
98.359624569
 30
0.0
 11
195.1581201832
 21
98.746174569
 31
0.0
  0
LINE
  5
279
330
1F
100
AcDbEntity
  8
0
  6
Continuous
 62
     7
370
    25
100
AcDbLine
 10
195.1581201832
 20
102.746174569
 30
0.0
 11
195.1581201832
 21
107.746174569
 31
0.0
  0
LINE
  5
27A
330
1F
100
AcDbEntity
  8
0
  6
Continuous
 62
     7
370
    25
100
AcDbLine
 10
189.1581201832
 20
107.746174569
 30
0.0
 11
189.1581201832
 21
102.746174569
 31
0.0
  0
LINE
  5
27B
330
1F
100
AcDbEntity
  8
0
  6
Continuous
 62
     7
370
    25
100
AcDbLine
 10
189.1581201832
 20
98.746174569
 30
0.0
 11
189.1581201832
 21
98.359624569
 31
0.0
  0
LINE
  5
27C
330
1F
100
AcDbEntity
  8
0
  6
Continuous
 62
     7
370
    25
100
AcDbLine
 10
189.1581201831
 20
98.359624569
 30
0.0
 11
189.7715701831
 21
97.746174569
 31
0.0
  0
LINE
  5
27D
330
1F
100
AcDbEntity
  8
0
  6
Continuous
 62
     7
370
    25
100
AcDbLine
 10
194.5446701832
 20
97.746174569
 30
0.0
 11
195.1581201833
 21
98.359624569
 31
0.0
  0
ARC
  5
27E
330
1F
100
AcDbEntity
  8
0
  6
Continuous
 62
     7
370
    25
100
AcDbCircle
 10
185.7081201832
 20
98.746174569
 30
0.0
 40
2.000000000000014
100
AcDbArc
 50
0.0
 51
90.0
  0
ARC
  5
27F
330
1F
100
AcDbEntity
  8
0
  6
Continuous
 62
     7
370
    25
100
AcDbCircle
 10
198.6081201832
 20
98.746174569
 30
0.0
 40
2.000000000000014
100
AcDbArc
 50
90.0
 51
180.0
  0
ARC
  5
280
330
1F
100
AcDbEntity
  8
0
  6
Continuous
 62
     7
370
    25
100
AcDbCircle
 10
78.7081201832
 20
98.746174569
 30
0.0
 40
2.000000000000014
100
AcDbArc
 50
0.0
 51
90.0
  0
ARC
  5
281
330
1F
100
AcDbEntity
  8
0
  6
Continuous
 62
     7
370
    25
100
AcDbCircle
 10
91.6081201832
 20
98.746174569
 30
0.0
 40
2.000000000000014
100
AcDbArc
 50
90.0
 51
180.0
  0
LINE
  5
282
330
1F
100
AcDbEntity
  8
0
  6
Continuous
 62
     7
370
    25
100
AcDbLine
 10
137.2147445102
 20
157.246174569
 30
0.0
 11
140.1014958562
 21
157.246174569
 31
0.0
  0
LINE
  5
283
330
1F
100
AcDbEntity
  8
0
  6
Continuous
 62
     7
370
    25
100
AcDbLine
 10
135.7713688372
 20
154.746174569
 30
0.0
 11
137.2147445102
 21
157.246174569
 31
0.0
  0
LINE
  5
284
330
1F
100
AcDbEntity
  8
0
  6
Continuous
 62
     7
370
    25
100
AcDbLine
 10
137.2147445102
 20
152.246174569
 30
0.0
 11
135.7713688372
 21
154.746174569
 31
0.0
  0
LINE
  5
285
330
1F
100
AcDbEntity
  8
0
  6
Continuous
 62
     7
370
    25
100
AcDbLine
 10
140.1014958562
 20
152.246174569
 30
0.0
 11
137.2147445102
 21
152.246174569
 31
0.0
  0
LINE
  5
286
330
1F
100
AcDbEntity
  8
0
  6
Continuous
 62
     7
370
    25
100
AcDbLine
 10
141.5448715291
 20
154.746174569
 30
0.0
 11
140.1014958562
 21
152.246174569
 31
0.0
  0
LINE
  5
287
330
1F
100
AcDbEntity
  8
0
  6
Continuous
 62
     7
370
    25
100
AcDbLine
 10
140.1014958562
 20
157.246174569
 30
0.0
 11
141.5448715291
 21
154.746174569
 31
0.0
  0
CIRCLE
  5
288
330
1F
100
AcDbEntity
  8
0
  6
Continuous
 62
     7
370
    25
100
AcDbCircle
 10
138.6581201832
 20
154.746174569
 30
0.0
 40
4.999999999999829
  0
LINE
  5
289
330
1F
100
AcDbEntity
  8
0
  6
Continuous
 62
     7
370
    25
100
AcDbLine
 10
137.2147445102
 20
58.246174569
 30
0.0
 11
140.1014958562
 21
58.246174569
 31
0.0
  0
LINE
  5
28A
330
1F
100
AcDbEntity
  8
0
  6
Continuous
 62
     7
370
    25
100
AcDbLine
 10
135.7713688372
 20
55.746174569
 30
0.0
 11
137.2147445102
 21
58.246174569
 31
0.0
  0
LINE
  5
28B
330
1F
100
AcDbEntity
  8
0
  6
Continuous
 62
     7
370
    25
100
AcDbLine
 10
137.2147445102
 20
53.246174569
 30
0.0
 11
135.7713688372
 21
55.746174569
 31
0.0
  0
LINE
  5
28C
330
1F
100
AcDbEntity
  8
0
  6
Continuous
 62
     7
370
    25
100
AcDbLine
 10
140.1014958562
 20
53.246174569
 30
0.0
 11
137.2147445102
 21
53.246174569
 31
0.0
  0
LINE
  5
28D
330
1F
100
AcDbEntity
  8
0
  6
Continuous
 62
     7
370
    25
100
AcDbLine
 10
141.5448715291
 20
55.746174569
 30
0.0
 11
140.1014958562
 21
53.246174569
 31
0.0
  0
LINE
  5
28E
330
1F
100
AcDbEntity
  8
0
  6
Continuous
 62
     7
370
    25
100
AcDbLine
 10
140.1014958562
 20
58.246174569
 30
0.0
 11
141.5448715291
 21
55.746174569
 31
0.0
  0
CIRCLE
  5
28F
330
1F
100
AcDbEntity
  8
0
  6
Continuous
 62
     7
370
    25
100
AcDbCircle
 10
138.6581201832
 20
55.746174569
 30
0.0
 40
4.999999999999837
  0
SPLINE
  5
290
330
1F
100
AcDbEntity
  8
0
  6
Continuous
 62
     7
370
    25
100
AcDbSpline
210
0.0
220
0.0
230
1.0
 70
    24
 71
     3
 72
    16
 73
    12
 74
     0
 42
0.00000001
 43
0.00000001
 40
0.0
 40
0.0
 40
0.0
 40
0.0
 40
0.1200102962785881
 40
0.2399826948918022
 40
0.3044048863179572
 40
0.3687507841373797
 40
0.5000828948367837
 40
0.6314150055361878
 40
0.760017976673645
 40
0.880047410532264
 40
1.0
 40
1.0
 40
1.0
 40
1.0
 10
85.15812018318591
 20
115.7461745689655
 30
0.0
 10
84.88158590280042
 20
115.7461745689655
 30
0.0
 10
84.32860466790024
 20
115.7461745689655
 30
0.0
 10
83.65217939458411
 20
115.7461745689655
 30
0.0
 10
83.13055995148846
 20
115.7461745689655
 30
0.0
 10
82.61310715944647
 20
115.7461745689655
 30
0.0
 10
82.02475130739731
 20
115.7461745689655
 30
0.0
 10
81.45246005302567
 20
115.7461745689655
 30
0.0
 10
81.05057328579602
 20
115.7461745689655
 30
0.0
 10
80.80227780591278
 20
115.7461745689655
 30
0.0
 10
80.77283624827815
 20
115.7461745689655
 30
0.0
 10
80.7581201831859
 20
115.7461745689655
 30
0.0
  0
SPLINE
  5
291
330
1F
100
AcDbEntity
  8
0
  6
Continuous
 62
     7
370
    25
100
AcDbSpline
210
0.0
220
0.0
230
1.0
 70
    24
 71
     3
 72
    16
 73
    12
 74
     0
 42
0.00000001
 43
0.00000001
 40
0.0
 40
0.0
 40
0.0
 40
0.0
 40
0.1200295867153063
 40
0.2399823258384509
 40
0.3044046085303925
 40
0.368750597507482
 40
0.5000828942627438
 40
0.631415191018006
 40
0.7600183443449985
 40
0.8800281314560512
 40
1.0
 40
1.0
 40
1.0
 40
1.0
 10
89.5581201831859
 20
115.7461745689655
 30
0.0
 10
89.54346472224766
 20
115.7461745689655
 30
0.0
 10
89.51416318336514
 20
115.7461745689655
 30
0.0
 10
89.30806022147888
 20
115.7461745689655
 30
0.0
 10
89.07185818339231
 20
115.7461745689655
 30
0.0
 10
88.76926509209291
 20
115.7461745689655
 30
0.0
 10
88.2915512240979
 20
115.7461745689655
 30
0.0
 10
87.58792100460849
 20
115.7461745689655
 30
0.0
 10
86.8063388454092
 20
115.7461745689655
 30
0.0
 10
85.9875971392417
 20
115.7461745689655
 30
0.0
 10
85.43458337535388
 20
115.7461745689655
 30
0.0
 10
85.1581201831859
 20
115.7461745689655
 30
0.0
  0
LINE
  5
292
330
1F
100
AcDbEntity
  8
0
  6
Continuous
 62
     7
370
    25
100
AcDbLine
 10
85.1581201832
 20
98.359624569
 30
0.0
 11
88.1581201832
 21
98.359624569
 31
0.0
  0
LINE
  5
293
330
1F
100
AcDbEntity
  8
0
  6
Continuous
 62
     7
370
    25
100
AcDbLine
 10
82.1581201832
 20
98.359624569
 30
0.0
 11
85.1581201832
 21
98.359624569
 31
0.0
  0
LINE
  5
294
330
1F
100
AcDbEntity
  8
0
  6
Continuous
 62
     7
370
    25
100
AcDbLine
 10
85.1581201832
 20
97.746174569
 30
0.0
 11
87.5446701832
 21
97.746174569
 31
0.0
  0
LINE
  5
295
330
1F
100
AcDbEntity
  8
0
  6
Continuous
 62
     7
370
    25
100
AcDbLine
 10
82.7715701831
 20
97.746174569
 30
0.0
 11
85.1581201832
 21
97.746174569
 31
0.0
  0
LINE
  5
296
330
1F
100
AcDbEntity
  8
0
  6
Continuous
 62
     7
370
    25
100
AcDbLine
 10
196.5581201832
 20
115.746174569
 30
0.0
 11
187.7581201832
 21
115.746174569
 31
0.0
  0
LINE
  5
297
330
1F
100
AcDbEntity
  8
0
  6
Continuous
 62
     7
370
    25
100
AcDbLine
 10
189.1581201832
 20
98.359624569
 30
0.0
 11
195.1581201832
 21
98.359624569
 31
0.0
  0
LINE
  5
298
330
1F
100
AcDbEntity
  8
0
  6
Continuous
 62
     7
370
    25
100
AcDbLine
 10
189.7715701831
 20
97.746174569
 30
0.0
 11
194.5446701832
 21
97.746174569
 31
0.0
  0
LINE
  5
299
330
1F
100
AcDbEntity
  8
0
  6
Continuous
 62
     7
370
    25
100
AcDbLine
 10
198.6581201832
 20
102.746174569
 30
0.0
 11
193.6581201832
 21
102.746174569
 31
0.0
  0
LINE
  5
29A
330
1F
100
AcDbEntity
  8
0
  6
Continuous
 62
     7
370
    25
100
AcDbLine
 10
198.6581201832
 20
100.746174569
 30
0.0
 11
198.6581201832
 21
102.746174569
 31
0.0
  0
LINE
  5
29B
330
1F
100
AcDbEntity
  8
0
  6
Continuous
 62
     7
370
    25
100
AcDbLine
 10
198.6581201832
 20
100.746174569
 30
0.0
 11
193.6581201832
 21
100.746174569
 31
0.0
  0
LINE
  5
29C
330
1F
100
AcDbEntity
  8
0
  6
Continuous
 62
     7
370
    25
100
AcDbLine
 10
78.6581201832
 20
100.746174569
 30
0.0
 11
83.6581201832
 21
100.746174569
 31
0.0
  0
LINE
  5
29D
330
1F
100
AcDbEntity
  8
0
  6
Continuous
 62
     7
370
    25
100
AcDbLine
 10
78.6581201832
 20
102.746174569
 30
0.0
 11
78.6581201832
 21
100.746174569
 31
0.0
  0
LINE
  5
29E
330
1F
100
AcDbEntity
  8
0
  6
Continuous
 62
     7
370
    25
100
AcDbLine
 10
83.6581201832
 20
102.746174569
 30
0.0
 11
78.6581201832
 21
102.746174569
 31
0.0
  0
LINE
  5
29F
330
1F
100
AcDbEntity
  8
0
  6
Continuous
 62
     7
370
    25
100
AcDbLine
 10
181.0845270544
 20
102.746174569
 30
0.0
 11
193.6581201832
 21
102.746174569
 31
0.0
  0
LINE
  5
2A0
330
1F
100
AcDbEntity
  8
0
  6
Continuous
 62
     7
370
    25
100
AcDbLine
 10
193.6581201832
 20
100.746174569
 30
0.0
 11
180.9192134014
 21
100.746174569
 31
0.0
  0
LINE
  5
2A1
330
1F
100
AcDbEntity
  8
0
  6
Continuous
 62
     7
370
    25
100
AcDbLine
 10
96.397026965
 20
100.746174569
 30
0.0
 11
83.6581201832
 21
100.746174569
 31
0.0
  0
LINE
  5
2A2
330
1F
100
AcDbEntity
  8
0
  6
Continuous
 62
     7
370
    25
100
AcDbLine
 10
83.6581201832
 20
102.746174569
 30
0.0
 11
96.231713312
 21
102.746174569
 31
0.0
  0
LINE
  5
2A3
330
1F
100
AcDbEntity
  8
0
  6
Continuous
 62
     7
370
    25
100
AcDbLine
 10
196.6081201832
 20
98.746174569
 30
0.0
 11
187.7081201832
 21
98.746174569
 31
0.0
  0
LINE
  5
2A4
330
1F
100
AcDbEntity
  8
0
  6
Continuous
 62
     7
370
    25
100
AcDbLine
 10
85.1581201832
 20
98.746174569
 30
0.0
 11
80.7081201832
 21
98.746174569
 31
0.0
  0
LINE
  5
2A5
330
1F
100
AcDbEntity
  8
0
  6
Continuous
 62
     7
370
    25
100
AcDbLine
 10
89.6081201832
 20
98.746174569
 30
0.0
 11
85.1581201832
 21
98.746174569
 31
0.0
  0
LINE
  5
2A6
330
1F
100
AcDbEntity
  8
0
  6
Continuous
 62
     7
370
    25
100
AcDbLine
 10
123.6581201832
 20
145.196174569
 30
0.0
 11
124.1582063903
 21
145.196174569
 31
0.0
  0
LINE
  5
2A7
330
1F
100
AcDbEntity
  8
0
  6
Continuous
 62
     7
370
    25
100
AcDbLine
 10
123.6581201832
 20
145.196174569
 30
0.0
 11
123.6581201832
 21
146.446174569
 31
0.0
  0
LINE
  5
2A8
330
1F
100
AcDbEntity
  8
0
  6
Continuous
 62
     7
370
    25
100
AcDbLine
 10
128.2269169928
 20
146.446174569
 30
0.0
 11
123.6581201832
 21
146.446174569
 31
0.0
  0
LINE
  5
2A9
330
1F
100
AcDbEntity
  8
0
  6
Continuous
 62
     7
370
    25
100
AcDbLine
 10
153.6581201832
 20
146.446174569
 30
0.0
 11
149.0893233736
 21
146.446174569
 31
0.0
  0
LINE
  5
2AA
330
1F
100
AcDbEntity
  8
0
  6
Continuous
 62
     7
370
    25
100
AcDbLine
 10
153.6581201832
 20
146.446174569
 30
0.0
 11
153.6581201832
 21
145.196174569
 31
0.0
  0
LINE
  5
2AB
330
1F
100
AcDbEntity
  8
0
  6
Continuous
 62
     7
370
    25
100
AcDbLine
 10
153.158033976
 20
145.196174569
 30
0.0
 11
153.6581201832
 21
145.196174569
 31
0.0
  0
LINE
  5
2AC
330
1F
100
AcDbEntity
  8
0
  6
Continuous
 62
     7
370
    25
100
AcDbLine
 10
153.6581201832
 20
65.296174569
 30
0.0
 11
153.158033976
 21
65.296174569
 31
0.0
  0
LINE
  5
2AD
330
1F
100
AcDbEntity
  8
0
  6
Continuous
 62
     7
370
    25
100
AcDbLine
 10
149.0893233736
 20
64.046174569
 30
0.0
 11
153.6581201832
 21
64.046174569
 31
0.0
  0
LINE
  5
2AE
330
1F
100
AcDbEntity
  8
0
  6
Continuous
 62
     7
370
    25
100
AcDbLine
 10
123.6581201832
 20
64.046174569
 30
0.0
 11
128.2269169928
 21
64.046174569
 31
0.0
  0
LINE
  5
2AF
330
1F
100
AcDbEntity
  8
0
  6
Continuous
 62
     7
370
    25
100
AcDbLine
 10
123.6581201832
 20
64.046174569
 30
0.0
 11
123.6581201832
 21
65.296174569
 31
0.0
  0
LINE
  5
2B0
330
1F
100
AcDbEntity
  8
0
  6
Continuous
 62
     7
370
    25
100
AcDbLine
 10
124.1582063903
 20
65.296174569
 30
0.0
 11
123.6581201832
 21
65.296174569
 31
0.0
  0
LINE
  5
2B1
330
1F
100
AcDbEntity
  8
0
  6
Continuous
 62
     7
370
    25
100
AcDbLine
 10
153.6581201832
 20
65.296174569
 30
0.0
 11
153.6581201832
 21
64.046174569
 31
0.0
  0
LINE
  5
2B2
330
1F
100
AcDbEntity
  8
0
  6
Continuous
 62
     7
370
    25
100
AcDbLine
 10
193.6581201832
 20
107.746174569
 30
0.0
 11
181.0845270544
 21
107.746174569
 31
0.0
  0
LINE
  5
2B3
330
1F
100
AcDbEntity
  8
0
  6
Continuous
 62
     7
370
    25
100
AcDbLine
 10
96.231713312
 20
107.746174569
 30
0.0
 11
83.6581201832
 21
107.746174569
 31
0.0
  0
LINE
  5
2B4
330
1F
100
AcDbEntity
  8
0
  6
Continuous
 62
     7
370
    25
100
AcDbLine
 10
83.6581201832
 20
109.746174569
 30
0.0
 11
96.397026965
 21
109.746174569
 31
0.0
  0
LINE
  5
2B5
330
1F
100
AcDbEntity
  8
0
  6
Continuous
 62
     7
370
    25
100
AcDbLine
 10
180.9192134014
 20
109.746174569
 30
0.0
 11
193.6581201832
 21
109.746174569
 31
0.0
  0
LINE
  5
2B6
330
1F
100
AcDbEntity
  8
0
  6
Continuous
 62
     7
370
    25
100
AcDbLine
 10
78.6581201832
 20
107.746174569
 30
0.0
 11
83.6581201832
 21
107.746174569
 31
0.0
  0
LINE
  5
2B7
330
1F
100
AcDbEntity
  8
0
  6
Continuous
 62
     7
370
    25
100
AcDbLine
 10
78.6581201832
 20
109.746174569
 30
0.0
 11
78.6581201832
 21
107.746174569
 31
0.0
  0
LINE
  5
2B8
330
1F
100
AcDbEntity
  8
0
  6
Continuous
 62
     7
370
    25
100
AcDbLine
 10
78.6581201832
 20
109.746174569
 30
0.0
 11
83.6581201832
 21
109.746174569
 31
0.0
  0
LINE
  5
2B9
330
1F
100
AcDbEntity
  8
0
  6
Continuous
 62
     7
370
    25
100
AcDbLine
 10
198.6581201832
 20
107.746174569
 30
0.0
 11
198.6581201832
 21
109.746174569
 31
0.0
  0
LINE
  5
2BA
330
1F
100
AcDbEntity
  8
0
  6
Continuous
 62
     7
370
    25
100
AcDbLine
 10
193.6581201832
 20
107.746174569
 30
0.0
 11
198.6581201832
 21
107.746174569
 31
0.0
  0
LINE
  5
2BB
330
1F
100
AcDbEntity
  8
0
  6
Continuous
 62
     7
370
    25
100
AcDbLine
 10
198.6581201832
 20
109.746174569
 30
0.0
 11
193.6581201832
 21
109.746174569
 31
0.0
  0
LINE
  5
2BC
330
1F
100
AcDbEntity
  8
0
  6
Continuous
 62
     7
370
    25
100
AcDbLine
 10
148.6581201832
 20
159.246174569
 30
0.0
 11
148.6581201832
 21
51.246174569
 31
0.0
  0
ARC
  5
2BD
330
1F
100
AcDbEntity
  8
0
  6
Continuous
 62
     7
370
    25
100
AcDbCircle
 10
143.6581201832
 20
51.246174569
 30
0.0
 40
5.000000000000028
100
AcDbArc
 50
270.0
 51
0.0
  0
LINE
  5
2BE
330
1F
100
AcDbEntity
  8
0
  6
Continuous
 62
     7
370
    25
100
AcDbLine
 10
143.6581201832
 20
46.246174569
 30
0.0
 11
133.6581201832
 21
46.246174569
 31
0.0
  0
ARC
  5
2BF
330
1F
100
AcDbEntity
  8
0
  6
Continuous
 62
     7
370
    25
100
AcDbCircle
 10
133.6581201832
 20
51.246174569
 30
0.0
 40
5.0
100
AcDbArc
 50
180.0
 51
270.0
  0
LINE
  5
2C0
330
1F
100
AcDbEntity
  8
0
  6
Continuous
 62
     7
370
    25
100
AcDbLine
 10
128.6581201832
 20
51.246174569
 30
0.0
 11
128.6581201832
 21
159.246174569
 31
0.0
  0
ARC
  5
2C1
330
1F
100
AcDbEntity
  8
0
  6
Continuous
 62
     7
370
    25
100
AcDbCircle
 10
143.6581201832
 20
159.246174569
 30
0.0
 40
5.000000000000028
100
AcDbArc
 50
0.0
 51
90.0
  0
LINE
  5
2C2
330
1F
100
AcDbEntity
  8
0
  6
Continuous
 62
     7
370
    25
100
AcDbLine
 10
133.6581201832
 20
164.246174569
 30
0.0
 11
143.6581201832
 21
164.246174569
 31
0.0
  0
ARC
  5
2C3
330
1F
100
AcDbEntity
  8
0
  6
Continuous
 62
     7
370
    25
100
AcDbCircle
 10
133.6581201832
 20
159.246174569
 30
0.0
 40
5.0
100
AcDbArc
 50
90.0
 51
180.0
  0
ARC
  5
2C4
330
1F
100
AcDbEntity
  8
0
  6
Continuous
 62
     7
370
    25
100
AcDbCircle
 10
138.6581201832
 20
105.246174569
 30
0.0
 40
42.50000000000001
100
AcDbArc
 50
103.6089606308
 51
256.3910393692
  0
ARC
  5
2C5
330
1F
100
AcDbEntity
  8
0
  6
Continuous
 62
     7
370
    25
100
AcDbCircle
 10
138.6581201832
 20
105.246174569
 30
0.0
 40
42.50000000000003
100
AcDbArc
 50
283.6089606308
 51
76.3910393692
  0
SPLINE
  5
2C6
330
1F
100
AcDbEntity
  8
0
  6
Continuous
 62
     8
370
    18
100
AcDbSpline
210
0.0
220
0.0
230
1.0
 70
    11
 71
     3
 72
    43
 73
    39
 74
     0
 42
0.00000001
 43
0.00000001
 40
0.0
 40
0.0
 40
0.0
 40
0.0
 40
0.0300025953320607
 40
0.0599957162410635
 40
0.0761012755113837
 40
0.0921877613665035
 40
0.125020812309672
 40
0.1578538632528406
 40
0.1900046288219963
 40
0.2200120085524554
 40
0.2500001771715791
 40
0.2800075526053242
 40
0.3099957161546298
 40
0.326101275424968
 40
0.34218776128007
 40
0.3750208122232385
 40
0.407853863166407
 40
0.4400046287355627
 40
0.4700120084660863
 40
0.5000001770851457
 40
0.5300075525189234
 40
0.5599957160681952
 40
0.5761012753384881
 40
0.5921877611936349
 40
0.6250208121368036
 40
0.657853863079972
 40
0.6900046286491276
 40
0.7200120083796175
 40
0.7500001769987092
 40
0.7800075524324539
 40
0.8099957159817602
 40
0.8261012752520847
 40
0.8421877611072001
 40
0.8750208120503685
 40
0.9078538629935369
 40
0.9400046285626928
 40
0.9700070540988788
 40
1.0
 40
1.0
 40
1.0
 40
1.0
 10
138.6581201831859
 20
150.3461745689654
 30
0.0
 10
138.381585715448
 20
150.3608116691523
 30
0.0
 10
137.8286041059021
 20
150.3900812473234
 30
0.0
 10
137.1521812082233
 20
150.5962210443613
 30
0.0
 10
136.6305565454622
 20
150.8324355496315
 30
0.0
 10
136.1131257952092
 20
151.1350302262946
 30
0.0
 10
135.5245973754017
 20
151.6127436465358
 30
0.0
 10
134.9530168383494
 20
152.3163726243176
 30
0.0
 10
134.5486036099487
 20
153.0980008240342
 30
0.0
 10
134.3090873194979
 20
153.9167303764402
 30
0.0
 10
134.2326489897741
 20
154.7463697591664
 30
0.0
 10
134.3090377864803
 20
155.5757230902525
 30
0.0
 10
134.507247818916
 20
156.2521571110131
 30
0.0
 10
134.7445610985645
 20
156.7737378260613
 30
0.0
 10
135.0468696590089
 20
157.2911691815549
 30
0.0
 10
135.5247255640648
 20
157.8796972999547
 30
0.0
 10
136.228308713694
 20
158.4512779339503
 30
0.0
 10
137.0099487806427
 20
158.8556911372479
 30
0.0
 10
137.8286753817983
 20
159.0952074339411
 30
0.0
 10
138.6583155368417
 20
159.1716457620325
 30
0.0
 10
139.4876686598222
 20
159.0952569657612
 30
0.0
 10
140.1641027312144
 20
158.8970469332343
 30
0.0
 10
140.6856834391336
 20
158.6597336535676
 30
0.0
 10
141.2031147964528
 20
158.3574250932595
 30
0.0
 10
141.7916429139416
 20
157.8795691871107
 30
0.0
 10
142.3632235482392
 20
157.175986041988
 30
0.0
 10
142.7676367514267
 20
156.3943459590182
 30
0.0
 10
143.0071530482576
 20
155.5756194135355
 30
0.0
 10
143.0835913759065
 20
154.745979053845
 30
0.0
 10
143.0072025812727
 20
153.9166266953061
 30
0.0
 10
142.8089925435842
 20
153.2401902121751
 30
0.0
 10
142.5716792750371
 20
152.7186147005546
 30
0.0
 10
142.2693706678298
 20
152.2011614267096
 30
0.0
 10
141.7915151288295
 20
151.6128048828734
 30
0.0
 10
141.0879304716211
 20
151.0405176289225
 30
0.0
 10
140.3063365293876
 20
150.6386372803989
 30
0.0
 10
139.4875977012648
 20
150.3903816035504
 30
0.0
 10
138.9345835626752
 20
150.3609086948605
 30
0.0
 10
138.6581201831859
 20
150.3461745689654
 30
0.0
  0
SPLINE
  5
2C7
330
1F
100
AcDbEntity
  8
0
  6
Continuous
 62
     8
370
    18
100
AcDbSpline
210
0.0
220
0.0
230
1.0
 70
    11
 71
     3
 72
    43
 73
    39
 74
     0
 42
0.00000001
 43
0.00000001
 40
0.0
 40
0.0
 40
0.0
 40
0.0
 40
0.0300025953320607
 40
0.0599957162410634
 40
0.0761012755113836
 40
0.0921877613665035
 40
0.125020812309672
 40
0.1578538632528406
 40
0.1900046288219961
 40
0.2200120085524551
 40
0.2500001771715791
 40
0.2800075526053243
 40
0.3099957161546297
 40
0.3261012754249678
 40
0.34218776128007
 40
0.3750208122232384
 40
0.407853863166407
 40
0.4400046287355627
 40
0.4700120084660862
 40
0.5000001770851455
 40
0.5300075525189233
 40
0.5599957160681951
 40
0.576101275338488
 40
0.5921877611936348
 40
0.6250208121368033
 40
0.657853863079972
 40
0.6900046286491275
 40
0.7200120083796174
 40
0.7500001769987094
 40
0.780007552432454
 40
0.80999571598176
 40
0.8261012752520844
 40
0.8421877611072002
 40
0.8750208120503685
 40
0.9078538629935369
 40
0.9400046285626928
 40
0.9700070540988788
 40
1.0
 40
1.0
 40
1.0
 40
1.0
 10
138.6581201831859
 20
51.34617456896555
 30
0.0
 10
138.381585715448
 20
51.3608116691525
 30
0.0
 10
137.8286041059021
 20
51.39008124732364
 30
0.0
 10
137.1521812082233
 20
51.59622104436148
 30
0.0
 10
136.6305565454622
 20
51.83243554963172
 30
0.0
 10
136.1131257952092
 20
52.13503022629487
 30
0.0
 10
135.5245973754017
 20
52.61274364653602
 30
0.0
 10
134.9530168383494
 20
53.31637262431781
 30
0.0
 10
134.5486036099487
 20
54.09800082403441
 30
0.0
 10
134.3090873194979
 20
54.91673037644037
 30
0.0
 10
134.2326489897741
 20
55.74636975916662
 30
0.0
 10
134.3090377864803
 20
56.57572309025272
 30
0.0
 10
134.507247818916
 20
57.25215711101335
 30
0.0
 10
134.7445610985645
 20
57.77373782606146
 30
0.0
 10
135.0468696590089
 20
58.29116918155517
 30
0.0
 10
135.5247255640648
 20
58.87969729995491
 30
0.0
 10
136.228308713694
 20
59.45127793395051
 30
0.0
 10
137.0099487806427
 20
59.85569113724813
 30
0.0
 10
137.8286753817983
 20
60.0952074339413
 30
0.0
 10
138.6583155368417
 20
60.17164576203264
 30
0.0
 10
139.4876686598222
 20
60.09525696576134
 30
0.0
 10
140.1641027312144
 20
59.89704693323449
 30
0.0
 10
140.6856834391336
 20
59.65973365356777
 30
0.0
 10
141.2031147964528
 20
59.35742509325964
 30
0.0
 10
141.7916429139416
 20
58.87956918711093
 30
0.0
 10
142.3632235482392
 20
58.17598604198817
 30
0.0
 10
142.7676367514267
 20
57.39434595901842
 30
0.0
 10
143.0071530482576
 20
56.57561941353575
 30
0.0
 10
143.0835913759065
 20
55.7459790538452
 30
0.0
 10
143.0072025812727
 20
54.91662669530629
 30
0.0
 10
142.8089925435842
 20
54.24019021217534
 30
0.0
 10
142.5716792750371
 20
53.71861470055484
 30
0.0
 10
142.2693706678298
 20
53.20116142670985
 30
0.0
 10
141.7915151288295
 20
52.61280488287358
 30
0.0
 10
141.0879304716211
 20
52.04051762892271
 30
0.0
 10
140.3063365293876
 20
51.63863728039909
 30
0.0
 10
139.4875977012648
 20
51.39038160355063
 30
0.0
 10
138.9345835626752
 20
51.36090869486071
 30
0.0
 10
138.6581201831859
 20
51.34617456896555
 30
0.0
  0
LINE
  5
2C8
330
1F
100
AcDbEntity
  8
0
  6
Continuous
 62
     8
370
    18
100
AcDbLine
 10
85.1581201832
 20
115.146174569
 30
0.0
 11
80.1581201832
 21
115.146174569
 31
0.0
  0
LINE
  5
2C9
330
1F
100
AcDbEntity
  8
0
  6
Continuous
 62
     8
370
    18
100
AcDbLine
 10
90.1581201832
 20
115.146174569
 30
0.0
 11
85.1581201832
 21
115.146174569
 31
0.0
  0
LINE
  5
2CA
330
1F
100
AcDbEntity
  8
0
  6
Continuous
 62
     8
370
    18
100
AcDbLine
 10
197.1581201832
 20
115.146174569
 30
0.0
 11
187.1581201832
 21
115.146174569
 31
0.0
  0
LINE
  5
2CB
330
1F
100
AcDbEntity
  8
0
  6
Continuous
 62
     8
370
    18
100
AcDbLine
 10
193.6581201832
 20
102.746174569
 30
0.0
 11
193.6581201832
 21
100.746174569
 31
0.0
  0
LINE
  5
2CC
330
1F
100
AcDbEntity
  8
0
  6
Continuous
 62
     8
370
    18
100
AcDbLine
 10
83.6581201832
 20
100.746174569
 30
0.0
 11
83.6581201832
 21
102.746174569
 31
0.0
  0
LINE
  5
2CD
330
1F
100
AcDbEntity
  8
0
  6
Continuous
 62
     8
370
    18
100
AcDbLine
 10
193.6581201832
 20
109.746174569
 30
0.0
 11
193.6581201832
 21
107.746174569
 31
0.0
  0
LINE
  5
2CE
330
1F
100
AcDbEntity
  8
0
  6
Continuous
 62
     8
370
    18
100
AcDbLine
 10
83.6581201832
 20
107.746174569
 30
0.0
 11
83.6581201832
 21
109.746174569
 31
0.0
  0
DIMENSION
  5
2CF
330
1F
100
AcDbEntity
  8
0
  6
Continuous
 62
     7
370
    18
100
AcDbDimension
  2
_D
 10
88.1581201832
 20
82.0374664841
 30
0.0
 11
75.3176968009
 21
82.0374664841
 31
0.0
 70
   160
  1
M<>
 71
     2
 42
-1.0
  3
SLDDIMSTYLE0
100
AcDbAlignedDimension
 13
82.1581201832
 23
98.359624569
 33
0.0
 14
88.1581201832
 24
98.359624569
 34
0.0
100
AcDbRotatedDimension
  0
DIMENSION
  5
2DD
330
1F
100
AcDbEntity
  8
0
  6
Continuous
 62
     7
370
    18
100
AcDbDimension
  2
_D_1
 10
68.6581201832
 20
46.246174569
 30
0.0
 11
68.6581201832
 21
105.246174569
 31
0.0
 70
   160
  1
<>
 71
     2
 42
-1.0
  3
SLDDIMSTYLE1
100
AcDbAlignedDimension
 13
133.6581201832
 23
164.246174569
 33
0.0
 14
133.6581201832
 24
46.246174569
 34
0.0
 50
90.0
100
AcDbRotatedDimension
  0
DIMENSION
  5
2E8
330
1F
100
AcDbEntity
  8
0
  6
Continuous
 62
     7
370
    18
100
AcDbDimension
  2
_D_2
 10
148.6581201832
 20
36.246174569
 30
0.0
 11
138.6581201832
 21
36.246174569
 31
0.0
 70
   160
  1
<>
 71
     2
 42
-1.0
  3
SLDDIMSTYLE1
100
AcDbAlignedDimension
 13
128.6581201832
 23
51.246174569
 33
0.0
 14
148.6581201832
 24
51.246174569
 34
0.0
100
AcDbRotatedDimension
  0
LINE
  5
2F2
330
1F
100
AcDbEntity
  8
0
  6
CENTER
 62
     7
370
    18
100
AcDbLine
 10
204.6384122661
 20
105.246174569
 30
0.0
 11
72.9079278177
 21
105.246174569
 31
0.0
  0
LINE
  5
2F3
330
1F
100
AcDbEntity
  8
0
  6
Continuous
 62
     7
370
    18
100
AcDbLine
 10
202.6384122661
 20
97.646174569
 30
0.0
 11
202.6384122661
 21
105.246174569
 31
0.0
  0
SOLID
  5
2F4
330
1F
100
AcDbEntity
  8
0
  6
Continuous
 62
     7
370
    18
100
AcDbTrace
 10
202.6384122661
 20
105.246174569
 30
0.0
 11
201.8384122661
 21
100.246174569
 31
0.0
 12
203.4384122661
 22
100.246174569
 32
0.0
 13
203.4384122661
 23
100.246174569
 33
0.0
  0
LINE
  5
2F5
330
1F
100
AcDbEntity
  8
0
  6
Continuous
 62
     7
370
    18
100
AcDbLine
 10
74.9079278177
 20
97.646174569
 30
0.0
 11
74.9079278177
 21
105.246174569
 31
0.0
  0
SOLID
  5
2F6
330
1F
100
AcDbEntity
  8
0
  6
Continuous
 62
     7
370
    18
100
AcDbTrace
 10
74.9079278177
 20
105.246174569
 30
0.0
 11
74.1079278177
 21
100.246174569
 31
0.0
 12
75.7079278177
 22
100.246174569
 32
0.0
 13
75.7079278177
 23
100.246174569
 33
0.0
  0
MTEXT
  5
2F7
330
1F
100
AcDbEntity
  8
0
  6
Continuous
 62
     7
100
AcDbMText
 10
200.5834340105
 20
96.3016882188
 30
0.0
 40
5.0
 41
0.0
 71
     1
 72
     1
  1
A
  7
SLDTEXTSTYLE0
 73
     1
 44
1.0
  0
MTEXT
  5
2F8
330
1F
100
AcDbEntity
  8
0
  6
Continuous
 62
     7
100
AcDbMText
 10
72.7146580621
 20
96.3016882188
 30
0.0
 40
5.0
 41
0.0
 71
     1
 72
     1
  1
A
  7
SLDTEXTSTYLE0
 73
     1
 44
1.0
  0
LINE
  5
2F9
330
1F
100
AcDbEntity
  8
0
  6
Continuous
 62
     7
370
    25
100
AcDbLine
 10
133.3920947794
 20
203.7021894522
 30
0.0
 11
134.2581201832
 21
203.2021894522
 31
0.0
  0
LINE
  5
2FA
330
1F
100
AcDbEntity
  8
0
  6
Continuous
 62
     7
370
    25
100
AcDbLine
 10
143.0581201832
 20
203.2021894522
 30
0.0
 11
143.9241455869
 21
203.7021894522
 31
0.0
  0
ARC
  5
2FB
330
1F
100
AcDbEntity
  8
0
  6
Continuous
 62
     7
370
    25
100
AcDbCircle
 10
143.0581201832
 20
258.1021894522
 30
0.0
 40
0.5999999999999659
100
AcDbArc
 50
0.0
 51
90.0
  0
ARC
  5
2FC
330
1F
100
AcDbEntity
  8
0
  6
Continuous
 62
     7
370
    25
100
AcDbCircle
 10
134.2581201832
 20
258.1021894522
 30
0.0
 40
0.5999999999999943
100
AcDbArc
 50
90.0
 51
180.0
  0
LINE
  5
2FD
330
1F
100
AcDbEntity
  8
0
  6
Continuous
 62
     7
370
    25
100
AcDbLine
 10
143.6581201832
 20
252.7021894522
 30
0.0
 11
143.6581201832
 21
258.1021894522
 31
0.0
  0
LINE
  5
2FE
330
1F
100
AcDbEntity
  8
0
  6
Continuous
 62
     7
370
    25
100
AcDbLine
 10
133.6581201832
 20
258.1021894522
 30
0.0
 11
133.6581201832
 21
252.7021894522
 31
0.0
  0
LINE
  5
2FF
330
1F
100
AcDbEntity
  8
0
  6
Continuous
 62
     7
370
    25
100
AcDbLine
 10
141.6581201832
 20
193.3156394522
 30
0.0
 11
141.6581201832
 21
203.2021894522
 31
0.0
  0
LINE
  5
300
330
1F
100
AcDbEntity
  8
0
  6
Continuous
 62
     7
370
    25
100
AcDbLine
 10
135.6581201832
 20
203.2021894522
 30
0.0
 11
135.6581201832
 21
193.3156394522
 31
0.0
  0
LINE
  5
301
330
1F
100
AcDbEntity
  8
0
  6
Continuous
 62
     7
370
    25
100
AcDbLine
 10
135.6581201832
 20
193.3156394522
 30
0.0
 11
136.2715701832
 21
192.7021894522
 31
0.0
  0
LINE
  5
302
330
1F
100
AcDbEntity
  8
0
  6
Continuous
 62
     7
370
    25
100
AcDbLine
 10
141.0446701832
 20
192.7021894522
 30
0.0
 11
141.6581201832
 21
193.3156394522
 31
0.0
  0
SPLINE
  5
303
330
1F
100
AcDbEntity
  8
0
  6
Continuous
 62
     7
370
    25
100
AcDbSpline
210
0.0
220
0.0
230
1.0
 70
     8
 71
     3
 72
    11
 73
     7
 74
     0
 42
0.00000001
 43
0.00000001
 40
0.0
 40
0.0
 40
0.0
 40
0.0
 40
0.0657857999226886
 40
0.5566022602494413
 40
0.9748625221456475
 40
0.9999999999999999
 40
0.9999999999999999
 40
0.9999999999999999
 40
0.9999999999999999
 10
140.2397743247242
 20
203.7021894522144
 30
0.0
 10
140.1708444773769
 20
203.6861073791803
 30
0.0
 10
139.5876409763595
 20
203.5500397443602
 30
0.0
 10
138.5301000986725
 20
203.532101680796
 30
0.0
 10
137.5214037883477
 20
203.5863622101558
 30
0.0
 10
137.0572635563416
 20
203.6959751813916
 30
0.0
 10
137.0309501276581
 20
203.7021894522144
 30
0.0
  0
SPLINE
  5
304
330
1F
100
AcDbEntity
  8
0
  6
Continuous
 62
     7
370
    25
100
AcDbSpline
210
0.0
220
0.0
230
1.0
 70
     8
 71
     3
 72
    11
 73
     7
 74
     0
 42
0.00000001
 43
0.00000001
 40
0.0
 40
0.0
 40
0.0
 40
0.0
 40
0.0657857999162761
 40
0.5566022602423949
 40
0.9748625221421495
 40
1.0
 40
1.0
 40
1.0
 40
1.0
 10
143.7790742677743
 20
203.7021894522144
 30
0.0
 10
143.7446093459218
 20
203.6861073791817
 30
0.0
 10
143.4530076107962
 20
203.5500397443615
 30
0.0
 10
142.924237155238
 20
203.5321016807959
 30
0.0
 10
142.4198890047415
 20
203.5863622101533
 30
0.0
 10
142.187818888692
 20
203.6959751813908
 30
0.0
 10
142.174662174346
 20
203.7021894522144
 30
0.0
  0
SPLINE
  5
305
330
1F
100
AcDbEntity
  8
0
  6
Continuous
 62
     7
370
    25
100
AcDbSpline
210
0.0
220
0.0
230
1.0
 70
     8
 71
     3
 72
    11
 73
     7
 74
     0
 42
0.00000001
 43
0.00000001
 40
0.0
 40
0.0
 40
0.0
 40
0.0
 40
0.0657857999230329
 40
0.5566022602495625
 40
0.9748625221469088
 40
1.0
 40
1.0
 40
1.0
 40
1.0
 10
135.1188202401383
 20
203.7021894522144
 30
0.0
 10
135.0843553146464
 20
203.6861073791802
 30
0.0
 10
134.7927535487555
 20
203.5500397443599
 30
0.0
 10
134.2639831266308
 20
203.5321016807961
 30
0.0
 10
133.7596349667981
 20
203.5863622101559
 30
0.0
 10
133.5275648508378
 20
203.6959751813919
 30
0.0
 10
133.5144081364992
 20
203.7021894522144
 30
0.0
  0
LINE
  5
306
330
1F
100
AcDbEntity
  8
0
  6
Continuous
 62
     7
370
    25
100
AcDbLine
 10
143.0581201832
 20
203.2021894522
 30
0.0
 11
134.2581201832
 21
203.2021894522
 31
0.0
  0
SPLINE
  5
307
330
1F
100
AcDbEntity
  8
0
  6
Continuous
 62
     7
370
    25
100
AcDbSpline
210
0.0
220
0.0
230
1.0
 70
    24
 71
     3
 72
    16
 73
    12
 74
     0
 42
0.00000001
 43
0.00000001
 40
0.0
 40
0.0
 40
0.0
 40
0.0
 40
0.1200102962785879
 40
0.2399826948918018
 40
0.3044048863179573
 40
0.3687507841373791
 40
0.5000828948367834
 40
0.6314150055361881
 40
0.7600179766736452
 40
0.8800474105322639
 40
1.0
 40
1.0
 40
1.0
 40
1.0
 10
138.6581201831858
 20
258.7021894522143
 30
0.0
 10
138.3815859028004
 20
258.7021894522143
 30
0.0
 10
137.8286046679002
 20
258.7021894522143
 30
0.0
 10
137.1521793945841
 20
258.7021894522143
 30
0.0
 10
136.6305599514884
 20
258.7021894522143
 30
0.0
 10
136.1131071594464
 20
258.7021894522143
 30
0.0
 10
135.5247513073973
 20
258.7021894522143
 30
0.0
 10
134.9524600530256
 20
258.7021894522143
 30
0.0
 10
134.550573285796
 20
258.7021894522143
 30
0.0
 10
134.3022778059127
 20
258.7021894522143
 30
0.0
 10
134.2728362482781
 20
258.7021894522143
 30
0.0
 10
134.2581201831859
 20
258.7021894522143
 30
0.0
  0
SPLINE
  5
308
330
1F
100
AcDbEntity
  8
0
  6
Continuous
 62
     7
370
    25
100
AcDbSpline
210
0.0
220
0.0
230
1.0
 70
    24
 71
     3
 72
    16
 73
    12
 74
     0
 42
0.00000001
 43
0.00000001
 40
0.0
 40
0.0
 40
0.0
 40
0.0
 40
0.1200295867153063
 40
0.2399823258384512
 40
0.3044046085303926
 40
0.3687505975074823
 40
0.500082894262744
 40
0.6314151910180058
 40
0.760018344344998
 40
0.8800281314560514
 40
0.9999999999999999
 40
0.9999999999999999
 40
0.9999999999999999
 40
0.9999999999999999
 10
143.0581201831858
 20
258.7021894522143
 30
0.0
 10
143.0434647222476
 20
258.7021894522143
 30
0.0
 10
143.0141631833651
 20
258.7021894522143
 30
0.0
 10
142.8080602214788
 20
258.7021894522143
 30
0.0
 10
142.5718581833922
 20
258.7021894522143
 30
0.0
 10
142.2692650920929
 20
258.7021894522143
 30
0.0
 10
141.7915512240978
 20
258.7021894522143
 30
0.0
 10
141.0879210046084
 20
258.7021894522143
 30
0.0
 10
140.3063388454091
 20
258.7021894522143
 30
0.0
 10
139.4875971392416
 20
258.7021894522143
 30
0.0
 10
138.9345833753538
 20
258.7021894522143
 30
0.0
 10
138.6581201831858
 20
258.7021894522143
 30
0.0
  0
LINE
  5
309
330
1F
100
AcDbEntity
  8
0
  6
Continuous
 62
     7
370
    25
100
AcDbLine
 10
138.6581201832
 20
193.3156394522
 30
0.0
 11
141.6581201832
 21
193.3156394522
 31
0.0
  0
LINE
  5
30A
330
1F
100
AcDbEntity
  8
0
  6
Continuous
 62
     7
370
    25
100
AcDbLine
 10
135.6581201832
 20
193.3156394522
 30
0.0
 11
138.6581201832
 21
193.3156394522
 31
0.0
  0
LINE
  5
30B
330
1F
100
AcDbEntity
  8
0
  6
Continuous
 62
     7
370
    25
100
AcDbLine
 10
138.6581201832
 20
192.7021894522
 30
0.0
 11
141.0446701832
 21
192.7021894522
 31
0.0
  0
LINE
  5
30C
330
1F
100
AcDbEntity
  8
0
  6
Continuous
 62
     7
370
    25
100
AcDbLine
 10
136.2715701832
 20
192.7021894522
 30
0.0
 11
138.6581201832
 21
192.7021894522
 31
0.0
  0
LINE
  5
30D
330
1F
100
AcDbEntity
  8
0
  6
Continuous
 62
     7
370
    25
100
AcDbLine
 10
193.6581201832
 20
203.7021894522
 30
0.0
 11
180.9110786595
 21
203.7021894522
 31
0.0
  0
LINE
  5
30E
330
1F
100
AcDbEntity
  8
0
  6
Continuous
 62
     7
370
    25
100
AcDbLine
 10
193.6581201832
 20
223.7021894522
 30
0.0
 11
180.9110786595
 21
223.7021894522
 31
0.0
  0
ARC
  5
30F
330
1F
100
AcDbEntity
  8
0
  6
Continuous
 62
     7
370
    25
100
AcDbCircle
 10
193.6581201832
 20
218.7021894522
 30
0.0
 40
5.000000000000028
100
AcDbArc
 50
0.0
 51
90.0
  0
LINE
  5
310
330
1F
100
AcDbEntity
  8
0
  6
Continuous
 62
     7
370
    25
100
AcDbLine
 10
198.6581201832
 20
208.7021894522
 30
0.0
 11
198.6581201832
 21
218.7021894522
 31
0.0
  0
ARC
  5
311
330
1F
100
AcDbEntity
  8
0
  6
Continuous
 62
     7
370
    25
100
AcDbCircle
 10
193.6581201832
 20
208.7021894522
 30
0.0
 40
5.0
100
AcDbArc
 50
270.0
 51
0.0
  0
CIRCLE
  5
312
330
1F
100
AcDbEntity
  8
0
  6
Continuous
 62
     7
370
    25
100
AcDbCircle
 10
192.1581201832
 20
213.7021894522
 30
0.0
 40
3.099999999999994
  0
LINE
  5
313
330
1F
100
AcDbEntity
  8
0
  6
Continuous
 62
     7
370
    25
100
AcDbLine
 10
180.9110786595
 20
223.7021894522
 30
0.0
 11
176.9575854687
 21
223.7021894522
 31
0.0
  0
LINE
  5
314
330
1F
100
AcDbEntity
  8
0
  6
Continuous
 62
     7
370
    25
100
AcDbLine
 10
180.9110786595
 20
203.7021894522
 30
0.0
 11
176.9575854687
 21
203.7021894522
 31
0.0
  0
LINE
  5
315
330
1F
100
AcDbEntity
  8
0
  6
Continuous
 62
     7
370
    25
100
AcDbLine
 10
100.3586548977
 20
223.7021894522
 30
0.0
 11
96.4051617069
 21
223.7021894522
 31
0.0
  0
LINE
  5
316
330
1F
100
AcDbEntity
  8
0
  6
Continuous
 62
     7
370
    25
100
AcDbLine
 10
100.3586548977
 20
203.7021894522
 30
0.0
 11
96.4051617069
 21
203.7021894522
 31
0.0
  0
CIRCLE
  5
317
330
1F
100
AcDbEntity
  8
0
  6
Continuous
 62
     7
370
    25
100
AcDbCircle
 10
85.1581201832
 20
213.7021894522
 30
0.0
 40
3.099999999999994
  0
LINE
  5
318
330
1F
100
AcDbEntity
  8
0
  6
Continuous
 62
     7
370
    25
100
AcDbLine
 10
96.4051617069
 20
223.7021894522
 30
0.0
 11
83.6581201832
 21
223.7021894522
 31
0.0
  0
ARC
  5
319
330
1F
100
AcDbEntity
  8
0
  6
Continuous
 62
     7
370
    25
100
AcDbCircle
 10
83.6581201832
 20
208.7021894522
 30
0.0
 40
5.0
100
AcDbArc
 50
180.0
 51
270.0
  0
LINE
  5
31A
330
1F
100
AcDbEntity
  8
0
  6
Continuous
 62
     7
370
    25
100
AcDbLine
 10
78.6581201832
 20
218.7021894522
 30
0.0
 11
78.6581201832
 21
208.7021894522
 31
0.0
  0
ARC
  5
31B
330
1F
100
AcDbEntity
  8
0
  6
Continuous
 62
     7
370
    25
100
AcDbCircle
 10
83.6581201832
 20
218.7021894522
 30
0.0
 40
5.000000000000028
100
AcDbArc
 50
90.0
 51
180.0
  0
LINE
  5
31C
330
1F
100
AcDbEntity
  8
0
  6
Continuous
 62
     7
370
    25
100
AcDbLine
 10
96.4051617069
 20
203.7021894522
 30
0.0
 11
83.6581201832
 21
203.7021894522
 31
0.0
  0
LINE
  5
31D
330
1F
100
AcDbEntity
  8
0
  6
Continuous
 62
     7
370
    25
100
AcDbLine
 10
176.9575854687
 20
223.7021894522
 30
0.0
 11
176.1581201832
 21
223.7021894522
 31
0.0
  0
LINE
  5
31E
330
1F
100
AcDbEntity
  8
0
  6
Continuous
 62
     7
370
    25
100
AcDbLine
 10
101.1581201832
 20
223.7021894522
 30
0.0
 11
100.3586548977
 21
223.7021894522
 31
0.0
  0
LINE
  5
31F
330
1F
100
AcDbEntity
  8
0
  6
Continuous
 62
     7
370
    25
100
AcDbLine
 10
176.9575854687
 20
203.7021894522
 30
0.0
 11
100.3586548977
 21
203.7021894522
 31
0.0
  0
CIRCLE
  5
320
330
1F
100
AcDbEntity
  8
0
  6
Continuous
 62
     7
370
    25
100
AcDbCircle
 10
192.1581201832
 20
213.7021894522
 30
0.0
 40
3.0
  0
CIRCLE
  5
321
330
1F
100
AcDbEntity
  8
0
  6
Continuous
 62
     7
370
    25
100
AcDbCircle
 10
85.1581201832
 20
213.7021894522
 30
0.0
 40
3.0
  0
LINE
  5
322
330
1F
100
AcDbEntity
  8
0
  6
Continuous
 62
     7
370
    25
100
AcDbLine
 10
148.6581201832
 20
252.7021894522
 30
0.0
 11
148.6581201832
 21
250.7021894522
 31
0.0
  0
LINE
  5
323
330
1F
100
AcDbEntity
  8
0
  6
Continuous
 62
     7
370
    25
100
AcDbLine
 10
148.6581201832
 20
250.7021894522
 30
0.0
 11
128.6581201832
 21
250.7021894522
 31
0.0
  0
LINE
  5
324
330
1F
100
AcDbEntity
  8
0
  6
Continuous
 62
     7
370
    25
100
AcDbLine
 10
128.6581201832
 20
250.7021894522
 30
0.0
 11
128.6581201832
 21
252.7021894522
 31
0.0
  0
LINE
  5
325
330
1F
100
AcDbEntity
  8
0
  6
Continuous
 62
     7
370
    25
100
AcDbLine
 10
128.6581201832
 20
252.7021894522
 30
0.0
 11
148.6581201832
 21
252.7021894522
 31
0.0
  0
LINE
  5
326
330
1F
100
AcDbEntity
  8
0
  6
Continuous
 62
     7
370
    25
100
AcDbLine
 10
181.1581201832
 20
250.7021894522
 30
0.0
 11
181.1581201832
 21
247.7021894522
 31
0.0
  0
LINE
  5
327
330
1F
100
AcDbEntity
  8
0
  6
Continuous
 62
     7
370
    25
100
AcDbLine
 10
96.1581201832
 20
247.7021894522
 30
0.0
 11
181.1581201832
 21
247.7021894522
 31
0.0
  0
LINE
  5
328
330
1F
100
AcDbEntity
  8
0
  6
Continuous
 62
     7
370
    25
100
AcDbLine
 10
96.1581201832
 20
247.7021894522
 30
0.0
 11
96.1581201832
 21
250.7021894522
 31
0.0
  0
LINE
  5
329
330
1F
100
AcDbEntity
  8
0
  6
Continuous
 62
     7
370
    25
100
AcDbLine
 10
96.1581201832
 20
250.7021894522
 30
0.0
 11
181.1581201832
 21
250.7021894522
 31
0.0
  0
LINE
  5
32A
330
1F
100
AcDbEntity
  8
0
  6
Continuous
 62
     7
370
    25
100
AcDbLine
 10
102.5781201832
 20
205.7021894522
 30
0.0
 11
101.2118830618
 21
211.4750223595
 31
0.0
  0
ARC
  5
32B
330
1F
100
AcDbEntity
  8
0
  6
Continuous
 62
     7
370
    25
100
AcDbCircle
 10
103.1581201832
 20
211.9356318116
 30
0.0
 40
2.0
100
AcDbArc
 50
180.0
 51
193.3150129001
  0
LINE
  5
32C
330
1F
100
AcDbEntity
  8
0
  6
Continuous
 62
     7
370
    25
100
AcDbLine
 10
101.1581201832
 20
211.9356318116
 30
0.0
 11
101.1581201832
 21
247.7021894522
 31
0.0
  0
LINE
  5
32D
330
1F
100
AcDbEntity
  8
0
  6
Continuous
 62
     7
370
    25
100
AcDbLine
 10
101.1581201832
 20
247.7021894522
 30
0.0
 11
102.1581201832
 21
247.7021894522
 31
0.0
  0
LINE
  5
32E
330
1F
100
AcDbEntity
  8
0
  6
Continuous
 62
     7
370
    25
100
AcDbLine
 10
102.1581201832
 20
211.9356318116
 30
0.0
 11
102.1581201832
 21
247.7021894522
 31
0.0
  0
ARC
  5
32F
330
1F
100
AcDbEntity
  8
0
  6
Continuous
 62
     7
370
    25
100
AcDbCircle
 10
103.1581201832
 20
211.9356318116
 30
0.0
 40
1.0
100
AcDbArc
 50
180.0
 51
193.3150129001
  0
LINE
  5
330
330
1F
100
AcDbEntity
  8
0
  6
Continuous
 62
     7
370
    25
100
AcDbLine
 10
103.6057441957
 20
205.7021894522
 30
0.0
 11
102.1850016225
 21
211.7053270855
 31
0.0
  0
LINE
  5
331
330
1F
100
AcDbEntity
  8
0
  6
Continuous
 62
     7
370
    25
100
AcDbLine
 10
103.6057441957
 20
205.7021894522
 30
0.0
 11
102.5781201832
 21
205.7021894522
 31
0.0
  0
LINE
  5
332
330
1F
100
AcDbEntity
  8
0
  6
Continuous
 62
     7
370
    25
100
AcDbLine
 10
176.1043573046
 20
211.4750223595
 30
0.0
 11
174.7381201832
 21
205.7021894522
 31
0.0
  0
LINE
  5
333
330
1F
100
AcDbEntity
  8
0
  6
Continuous
 62
     7
370
    25
100
AcDbLine
 10
175.1581201832
 20
247.7021894522
 30
0.0
 11
175.1581201832
 21
211.9356318116
 31
0.0
  0
LINE
  5
334
330
1F
100
AcDbEntity
  8
0
  6
Continuous
 62
     7
370
    25
100
AcDbLine
 10
175.1581201832
 20
247.7021894522
 30
0.0
 11
176.1581201832
 21
247.7021894522
 31
0.0
  0
LINE
  5
335
330
1F
100
AcDbEntity
  8
0
  6
Continuous
 62
     7
370
    25
100
AcDbLine
 10
176.1581201832
 20
247.7021894522
 30
0.0
 11
176.1581201832
 21
211.9356318116
 31
0.0
  0
ARC
  5
336
330
1F
100
AcDbEntity
  8
0
  6
Continuous
 62
     7
370
    25
100
AcDbCircle
 10
174.1581201832
 20
211.9356318116
 30
0.0
 40
2.000000000000024
100
AcDbArc
 50
346.6849870999
 51
0.0
  0
LINE
  5
337
330
1F
100
AcDbEntity
  8
0
  6
Continuous
 62
     7
370
    25
100
AcDbLine
 10
175.1312387439
 20
211.7053270855
 30
0.0
 11
173.7104961707
 21
205.7021894522
 31
0.0
  0
ARC
  5
338
330
1F
100
AcDbEntity
  8
0
  6
Continuous
 62
     7
370
    25
100
AcDbCircle
 10
174.1581201832
 20
211.9356318116
 30
0.0
 40
1.000000000000009
100
AcDbArc
 50
346.6849870999
 51
0.0
  0
LINE
  5
339
330
1F
100
AcDbEntity
  8
0
  6
Continuous
 62
     7
370
    25
100
AcDbLine
 10
174.7381201832
 20
205.7021894522
 30
0.0
 11
173.7104961707
 21
205.7021894522
 31
0.0
  0
LINE
  5
33A
330
1F
100
AcDbEntity
  8
0
  6
Continuous
 62
     7
370
    25
100
AcDbLine
 10
173.7104961707
 20
205.7021894522
 30
0.0
 11
103.6057441957
 21
205.7021894522
 31
0.0
  0
LINE
  5
33B
330
1F
100
AcDbEntity
  8
0
  6
Continuous
 62
     8
370
    18
100
AcDbLine
 10
138.6581201832
 20
258.1021894522
 30
0.0
 11
133.6581201832
 21
258.1021894522
 31
0.0
  0
LINE
  5
33C
330
1F
100
AcDbEntity
  8
0
  6
Continuous
 62
     8
370
    18
100
AcDbLine
 10
143.6581201832
 20
258.1021894522
 30
0.0
 11
138.6581201832
 21
258.1021894522
 31
0.0
  0
LINE
  5
33D
330
1F
100
AcDbEntity
  8
0
  6
Continuous
 62
     8
370
    18
100
AcDbLine
 10
180.9110786595
 20
203.7021894522
 30
0.0
 11
180.9110786595
 21
223.7021894522
 31
0.0
  0
LINE
  5
33E
330
1F
100
AcDbEntity
  8
0
  6
Continuous
 62
     8
370
    18
100
AcDbLine
 10
176.9575854687
 20
223.7021894522
 30
0.0
 11
176.9575854687
 21
203.7021894522
 31
0.0
  0
LINE
  5
33F
330
1F
100
AcDbEntity
  8
0
  6
Continuous
 62
     8
370
    18
100
AcDbLine
 10
96.4051617069
 20
203.7021894522
 30
0.0
 11
96.4051617069
 21
223.7021894522
 31
0.0
  0
LINE
  5
340
330
1F
100
AcDbEntity
  8
0
  6
Continuous
 62
     8
370
    18
100
AcDbLine
 10
100.3586548977
 20
203.7021894522
 30
0.0
 11
100.3586548977
 21
223.7021894522
 31
0.0
  0
SPLINE
  5
341
330
1F
100
AcDbEntity
  8
0
  6
Continuous
 62
     8
370
    18
100
AcDbSpline
210
0.0
220
0.0
230
1.0
 70
     8
 71
     3
 72
     9
 73
     5
 74
     0
 42
0.00000001
 43
0.00000001
 40
0.0
 40
0.0
 40
0.0
 40
0.0
 40
0.69623059687226
 40
1.0
 40
1.0
 40
1.0
 40
1.0
 10
192.1581201831858
 20
210.6021894522143
 30
0.0
 10
191.9621159590739
 20
210.6077077237711
 30
0.0
 10
191.6805939676641
 20
210.6156336488619
 30
0.0
 10
191.4139678255212
 20
210.7016622328548
 30
0.0
 10
191.3329749614641
 20
210.7277950844662
 30
0.0
  0
SPLINE
  5
342
330
1F
100
AcDbEntity
  8
0
  6
Continuous
 62
     8
370
    18
100
AcDbSpline
210
0.0
220
0.0
230
1.0
 70
     8
 71
     3
 72
     9
 73
     5
 74
     0
 42
0.00000001
 43
0.00000001
 40
0.0
 40
0.0
 40
0.0
 40
0.0
 40
0.6702541672394573
 40
1.0
 40
1.0
 40
1.0
 40
1.0
 10
195.2581201831858
 20
213.7021894522144
 30
0.0
 10
195.2521508092309
 20
213.5063173247676
 30
0.0
 10
195.243244674444
 20
213.2140817266609
 30
0.0
 10
195.1531895885258
 20
212.9373211237405
 30
0.0
 10
195.1234942992254
 20
212.8460604682552
 30
0.0
  0
SPLINE
  5
343
330
1F
100
AcDbEntity
  8
0
  6
Continuous
 62
     8
370
    18
100
AcDbSpline
210
0.0
220
0.0
230
1.0
 70
     8
 71
     3
 72
    10
 73
     6
 74
     0
 42
0.00000001
 43
0.00000001
 40
0.0
 40
0.0
 40
0.0
 40
0.0
 40
0.078817790210905
 40
0.7680834524947653
 40
1.0
 40
1.0
 40
1.0
 40
1.0
 10
85.09170611969992
 20
216.7959700232571
 30
0.0
 10
85.1138259087279
 20
216.7982032534662
 30
0.0
 10
85.32938439976928
 20
216.8199661976516
 30
0.0
 10
85.61679170008262
 20
216.7889206093342
 30
0.0
 10
85.86489054682445
 20
216.7121913972574
 30
0.0
 10
85.92735183555209
 20
216.6928740746164
 30
0.0
  0
LINE
  5
344
330
1F
100
AcDbEntity
  8
0
  6
Continuous
 62
     8
370
    18
100
AcDbLine
 10
175.1581201832
 20
211.9356318116
 30
0.0
 11
102.1581201832
 21
211.9356318116
 31
0.0
  0
LINE
  5
345
330
1F
100
AcDbEntity
  8
0
  6
Continuous
 62
     8
370
    18
100
AcDbLine
 10
175.1312387439
 20
211.7053270855
 30
0.0
 11
102.1850016225
 21
211.7053270855
 31
0.0
  0
HATCH
  5
346
330
1F
100
AcDbEntity
  8
0
  6
Continuous
 62
     7
370
    18
100
AcDbHatch
 10
0.0
 20
0.0
 30
0.0
210
0.0
220
0.0
230
1.0
  2
ANSI31
 70
     0
 71
     0
 91
        1
 92
        0
 93
        8
 72
     2
 10
174.1581201831858
 20
211.9356318115522
 40
1.0
 50
0.0
 51
13.31501290007074
 73
     0
 72
     1
 10
175.1312387438802
 20
211.7053270855212
 11
173.7104961706617
 21
205.7021894522149
 72
     1
 10
173.7104961706617
 20
205.7021894522149
 11
174.7381201831836
 21
205.7021894522149
 72
     1
 10
174.7381201831836
 20
205.7021894522149
 11
176.1043573045745
 21
211.4750223594902
 72
     2
 10
174.1581201831858
 20
211.9356318115522
 40
2.0
 50
346.6849870999308
 51
360.0000000000008
 73
     1
 72
     1
 10
176.1581201831858
 20
211.9356318115522
 11
176.1581201831858
 21
247.7021894522143
 72
     1
 10
176.1581201831858
 20
247.7021894522143
 11
175.1581201831858
 21
247.7021894522143
 72
     1
 10
175.1581201831858
 20
247.7021894522143
 11
175.1581201831858
 21
211.9356318115522
 97
        0
 75
     0
 76
     1
 52
0.0
 41
0.5
 77
     0
 78
     1
 53
45.0
 43
0.0
 44
0.0
 45
-1.122532015133644
 46
1.122532015133644
 79
     0
 98
        1
 10
0.0
 20
0.0
  0
HATCH
  5
347
330
1F
100
AcDbEntity
  8
0
  6
Continuous
 62
     7
370
    18
100
AcDbHatch
 10
0.0
 20
0.0
 30
0.0
210
0.0
220
0.0
230
1.0
  2
ANSI31
 70
     0
 71
     0
 91
        1
 92
        0
 93
        8
 72
     1
 10
102.5781201831881
 20
205.7021894522149
 11
103.6057441957099
 21
205.7021894522149
 72
     1
 10
103.6057441957099
 20
205.7021894522149
 11
102.1850016224915
 21
211.7053270855212
 72
     2
 10
103.1581201831858
 20
211.9356318115522
 40
1.0
 50
166.6849870999291
 51
180.0
 73
     0
 72
     1
 10
102.1581201831858
 20
211.9356318115522
 11
102.1581201831858
 21
247.7021894522143
 72
     1
 10
102.1581201831858
 20
247.7021894522143
 11
101.1581201831858
 21
247.7021894522143
 72
     1
 10
101.1581201831858
 20
247.7021894522143
 11
101.1581201831858
 21
211.9356318115522
 72
     2
 10
103.1581201831858
 20
211.9356318115522
 40
2.0
 50
180.0
 51
193.3150129000709
 73
     1
 72
     1
 10
101.2118830617972
 20
211.4750223594902
 11
102.5781201831881
 21
205.7021894522149
 97
        0
 75
     0
 76
     1
 52
0.0
 41
0.5
 77
     0
 78
     1
 53
45.0
 43
0.0
 44
0.0
 45
-1.122532015133644
 46
1.122532015133644
 79
     0
 98
        1
 10
0.0
 20
0.0
  0
HATCH
  5
348
330
1F
100
AcDbEntity
  8
0
  6
Continuous
 62
     7
370
    18
100
AcDbHatch
 10
0.0
 20
0.0
 30
0.0
210
0.0
220
0.0
230
1.0
  2
ANSI31
 70
     0
 71
     0
 91
        1
 92
        0
 93
        4
 72
     1
 10
181.1581201831859
 20
250.7021894522143
 11
96.15812018318584
 21
250.7021894522143
 72
     1
 10
96.15812018318584
 20
250.7021894522143
 11
96.15812018318584
 21
247.7021894522143
 72
     1
 10
96.15812018318584
 20
247.7021894522143
 11
181.1581201831859
 21
247.7021894522143
 72
     1
 10
181.1581201831859
 20
247.7021894522143
 11
181.1581201831859
 21
250.7021894522143
 97
        0
 75
     0
 76
     1
 52
90.0
 41
1.0
 77
     0
 78
     1
 53
135.0000000000002
 43
0.0
 44
0.0
 45
-2.245064030267281
 46
-2.245064030267296
 79
     0
 98
        1
 10
0.0
 20
0.0
  0
HATCH
  5
349
330
1F
100
AcDbEntity
  8
0
  6
Continuous
 62
     7
370
    18
100
AcDbHatch
 10
0.0
 20
0.0
 30
0.0
210
0.0
220
0.0
230
1.0
  2
ANSI31
 70
     0
 71
     0
 91
        1
 92
        0
 93
        4
 72
     1
 10
148.6581201831859
 20
252.7021894522144
 11
128.6581201831858
 21
252.7021894522144
 72
     1
 10
128.6581201831858
 20
252.7021894522144
 11
128.6581201831859
 21
250.7021894522143
 72
     1
 10
128.6581201831859
 20
250.7021894522143
 11
148.6581201831859
 21
250.7021894522143
 72
     1
 10
148.6581201831859
 20
250.7021894522143
 11
148.6581201831859
 21
252.7021894522144
 97
        0
 75
     0
 76
     1
 52
0.0
 41
0.5
 77
     0
 78
     1
 53
45.0
 43
0.0
 44
0.0
 45
-1.122532015133644
 46
1.122532015133644
 79
     0
 98
        1
 10
0.0
 20
0.0
  0
HATCH
  5
34A
330
1F
100
AcDbEntity
  8
0
  6
Continuous
 62
     7
370
    18
100
AcDbHatch
 10
0.0
 20
0.0
 30
0.0
210
0.0
220
0.0
230
1.0
  2
ANSI31
 70
     0
 71
     0
 91
        1
 92
        0
 93
        1
 72
     2
 10
85.15812018318586
 20
213.7021894522143
 40
3.0
 50
0.0
 51
360.0
 73
     1
 97
        0
 75
     0
 76
     1
 52
90.0
 41
0.5
 77
     0
 78
     1
 53
135.0000000000002
 43
0.0
 44
0.0
 45
-1.12253201513364
 46
-1.122532015133648
 79
     0
 98
        1
 10
0.0
 20
0.0
  0
HATCH
  5
34B
330
1F
100
AcDbEntity
  8
0
  6
Continuous
 62
     7
370
    18
100
AcDbHatch
 10
0.0
 20
0.0
 30
0.0
210
0.0
220
0.0
230
1.0
  2
ANSI31
 70
     0
 71
     0
 91
        1
 92
        0
 93
        1
 72
     2
 10
192.1581201831858
 20
213.7021894522143
 40
3.0
 50
0.0
 51
360.0
 73
     1
 97
        0
 75
     0
 76
     1
 52
90.0
 41
0.5
 77
     0
 78
     1
 53
135.0000000000002
 43
0.0
 44
0.0
 45
-1.12253201513364
 46
-1.122532015133648
 79
     0
 98
        1
 10
0.0
 20
0.0
  0
DIMENSION
  5
34C
330
1F
100
AcDbEntity
  8
0
  6
Continuous
 62
     7
370
    18
100
AcDbDimension
  2
_D_3
 10
176.1581201832
 20
182.7021894522
 30
0.0
 11
138.6581201832
 21
182.7021894522
 31
0.0
 70
   160
  1
%%c<>
 71
     2
 42
-1.0
  3
SLDDIMSTYLE1
100
AcDbAlignedDimension
 13
101.1581201832
 23
211.9356318116
 33
0.0
 14
176.1581201832
 24
211.9356318116
 34
0.0
100
AcDbRotatedDimension
  0
DIMENSION
  5
357
330
1F
100
AcDbEntity
  8
0
  6
Continuous
 62
     7
370
    18
100
AcDbDimension
  2
_D_4
 10
181.1581201832
 20
268.7058062374
 30
0.0
 11
138.6581201832
 21
268.7058062374
 31
0.0
 70
   160
  1
%%c<>
 71
     2
 42
-1.0
  3
SLDDIMSTYLE1
100
AcDbAlignedDimension
 13
96.1581201832
 23
250.7021894522
 33
0.0
 14
181.1581201832
 24
250.7021894522
 34
0.0
100
AcDbRotatedDimension
  0
DIMENSION
  5
362
330
1F
100
AcDbEntity
  8
0
  6
Continuous
 62
     7
370
    18
100
AcDbDimension
  2
_D_5
 10
208.6581201832
 20
247.7021894522
 30
0.0
 11
208.6581201832
 21
256.9028068265
 31
0.0
 70
   160
  1
<>
 71
     2
 42
-1.0
  3
SLDDIMSTYLE0
100
AcDbAlignedDimension
 13
181.1581201832
 23
250.7021894522
 33
0.0
 14
181.1581201832
 24
247.7021894522
 34
0.0
 50
90.0
100
AcDbRotatedDimension
  0
DIMENSION
  5
36E
330
1F
100
AcDbEntity
  8
0
  6
Continuous
 62
     7
370
    18
100
AcDbDimension
  2
_D_6
 10
208.6581201832
 20
205.7021894522
 30
0.0
 11
208.6581201832
 21
226.7021894522
 31
0.0
 70
   160
  1
<>
 71
     2
 42
-1.0
  3
SLDDIMSTYLE1
100
AcDbAlignedDimension
 13
181.1581201832
 23
247.7021894522
 33
0.0
 14
174.7381201832
 24
205.7021894522
 34
0.0
 50
90.0
100
AcDbRotatedDimension
  0
MTEXT
  5
378
330
1F
100
AcDbEntity
  8
0
  6
Continuous
 62
     7
370
     0
100
AcDbMText
 10
138.6355512942
 20
281.543173387
 30
0.0
 40
5.0
 41
0.0
 71
     2
 72
     1
  1
A-A
  7
SLDTEXTSTYLE0
 73
     1
 44
1.0
  0
ENDSEC
  0
SECTION
  2
OBJECTS
  0
DICTIONARY
  5
C
330
0
100
AcDbDictionary
281
     1
  3
ACAD_GROUP
350
D
  3
ACAD_LAYOUT
350
1A
  3
ACAD_MLINESTYLE
350
17
  3
ACAD_PLOTSETTINGS
350
19
  3
ACAD_PLOTSTYLENAME
350
E
  3
ACAD_SCALELIST
350
47
  3
DWGPROPS
350
379
  0
DICTIONARY
  5
D
102
{ACAD_REACTORS
330
C
102
}
330
C
100
AcDbDictionary
281
     1
  0
DICTIONARY
  5
1A
102
{ACAD_REACTORS
330
C
102
}
330
C
100
AcDbDictionary
281
     1
  3
Layout1
350
1E
  3
Layout2
350
26
  3
Model
350
22
  0
DICTIONARY
  5
17
102
{ACAD_REACTORS
330
C
102
}
330
C
100
AcDbDictionary
281
     1
  3
Standard
350
18
  0
DICTIONARY
  5
19
102
{ACAD_REACTORS
330
C
102
}
330
C
100
AcDbDictionary
281
     1
  0
ACDBDICTIONARYWDFLT
  5
E
102
{ACAD_REACTORS
330
C
102
}
330
C
100
AcDbDictionary
281
     1
  3
Normal
350
F
100
AcDbDictionaryWithDefault
340
F
  0
DICTIONARY
  5
47
102
{ACAD_REACTORS
330
C
102
}
330
C
100
AcDbDictionary
281
     1
  3
A0
350
48
  3
A1
350
49
  3
A2
350
4A
  3
A3
350
4B
  3
A4
350
4C
  3
A5
350
4D
  3
A6
350
4E
  3
A7
350
4F
  3
A8
350
50
  3
A9
350
51
  3
B0
350
52
  3
B1
350
53
  3
B2
350
54
  3
B3
350
55
  3
B4
350
56
  3
B5
350
57
  3
B6
350
58
  3
B7
350
59
  3
B8
350
5A
  3
B9
350
5B
  3
C0
350
5C
  3
C1
350
5D
  3
C2
350
5E
  3
C3
350
5F
  3
C4
350
60
  3
C5
350
61
  3
C6
350
62
  3
C7
350
63
  3
C8
350
64
  3
C9
350
65
  3
D0
350
66
  3
D1
350
67
  3
D2
350
68
  0
XRECORD
  5
379
102
{ACAD_REACTORS
330
C
102
}
330
C
100
AcDbXrecord
280
     1
  1
DWGPROPS COOKIE
  2

  3

  4

  6

  7

  8
ch-ntl-rs-wscad
  9

300
=
301
=
302
=
303
=
304
=
305
=
306
=
307
=
308
=
309
=
 40
0.0
 41
2460569.735133646
 42
2460569.735138195
  1

 90
        0
  0
LAYOUT
  5
1E
102
{ACAD_REACTORS
330
1A
102
}
330
1A
100
AcDbPlotSettings
  1

  2
none_device
  4

  6

 40
0.0
 41
0.0
 42
0.0
 43
0.0
 44
0.0
 45
0.0
 46
0.0
 47
0.0
 48
0.0
 49
0.0
140
0.0
141
0.0
142
1.0
143
1.0
 70
   688
 72
     1
 73
     0
 74
     5
  7

 75
    16
147
1.0
148
0.0
149
0.0
100
AcDbLayout
  1
Layout1
 70
     1
 71
     1
 10
0.0
 20
0.0
 11
420.0
 21
297.0
 12
0.0
 22
0.0
 32
0.0
 14
1.0000000000E+20
 24
1.0000000000E+20
 34
1.0000000000E+20
 15
-1.0000000000E+20
 25
-1.0000000000E+20
 35
-1.0000000000E+20
146
0.0
 13
0.0
 23
0.0
 33
0.0
 16
1.0
 26
0.0
 36
0.0
 17
0.0
 27
1.0
 37
0.0
 76
     0
330
1B
  0
LAYOUT
  5
26
102
{ACAD_REACTORS
330
1A
102
}
330
1A
100
AcDbPlotSettings
  1

  2
none_device
  4

  6

 40
0.0
 41
0.0
 42
0.0
 43
0.0
 44
0.0
 45
0.0
 46
0.0
 47
0.0
 48
0.0
 49
0.0
140
0.0
141
0.0
142
1.0
143
1.0
 70
   688
 72
     1
 73
     0
 74
     5
  7

 75
    16
147
1.0
148
0.0
149
0.0
100
AcDbLayout
  1
Layout2
 70
     1
 71
     2
 10
0.0
 20
0.0
 11
0.0
 21
0.0
 12
0.0
 22
0.0
 32
0.0
 14
0.0
 24
0.0
 34
0.0
 15
0.0
 25
0.0
 35
0.0
146
0.0
 13
0.0
 23
0.0
 33
0.0
 16
1.0
 26
0.0
 36
0.0
 17
0.0
 27
1.0
 37
0.0
 76
     0
330
23
  0
LAYOUT
  5
22
102
{ACAD_REACTORS
330
1A
102
}
330
1A
100
AcDbPlotSettings
  1

  2
none_device
  4
Letter_(8.50_x_11.00_Inches)
  6

 40
6.35
 41
6.35
 42
6.35000508
 43
6.35000508
 44
215.9
 45
279.4
 46
0.0
 47
0.0
 48
0.0
 49
0.0
140
0.0
141
0.0
142
1.0
143
1.0
 70
  1712
 72
     1
 73
     0
 74
     0
  7

 75
     0
147
1.0
148
0.0
149
0.0
100
AcDbLayout
  1
Model
 70
     1
 71
     0
 10
0.0
 20
0.0
 11
420.0
 21
297.0
 12
0.0
 22
0.0
 32
0.0
 14
0.0
 24
0.0
 34
0.0
 15
420.0
 25
297.0
 35
0.0
146
0.0
 13
0.0
 23
0.0
 33
0.0
 16
1.0
 26
0.0
 36
0.0
 17
0.0
 27
1.0
 37
0.0
 76
     0
330
1F
331
29
  0
MLINESTYLE
  5
18
102
{ACAD_REACTORS
330
17
102
}
330
17
100
AcDbMlineStyle
  2
Standard
 70
     0
  3

 62
   256
 51
90.0
 52
90.0
 71
     2
 49
0.5
 62
   256
  6
BYLAYER
 49
-0.5
 62
   256
  6
BYLAYER
  0
ACDBPLACEHOLDER
  5
F
102
{ACAD_REACTORS
330
E
102
}
330
E
  0
SCALE
  5
48
102
{ACAD_REACTORS
330
47
102
}
330
47
100
AcDbScale
 70
     0
300
1:1
140
1.0
141
1.0
290
     1
  0
SCALE
  5
49
102
{ACAD_REACTORS
330
47
102
}
330
47
100
AcDbScale
 70
     0
300
1:2
140
1.0
141
2.0
290
     0
  0
SCALE
  5
4A
102
{ACAD_REACTORS
330
47
102
}
330
47
100
AcDbScale
 70
     0
300
1:4
140
1.0
141
4.0
290
     0
  0
SCALE
  5
4B
102
{ACAD_REACTORS
330
47
102
}
330
47
100
AcDbScale
 70
     0
300
1:5
140
1.0
141
5.0
290
     0
  0
SCALE
  5
4C
102
{ACAD_REACTORS
330
47
102
}
330
47
100
AcDbScale
 70
     0
300
1:8
140
1.0
141
8.0
290
     0
  0
SCALE
  5
4D
102
{ACAD_REACTORS
330
47
102
}
330
47
100
AcDbScale
 70
     0
300
1:10
140
1.0
141
10.0
290
     0
  0
SCALE
  5
4E
102
{ACAD_REACTORS
330
47
102
}
330
47
100
AcDbScale
 70
     0
300
1:16
140
1.0
141
16.0
290
     0
  0
SCALE
  5
4F
102
{ACAD_REACTORS
330
47
102
}
330
47
100
AcDbScale
 70
     0
300
1:20
140
1.0
141
20.0
290
     0
  0
SCALE
  5
50
102
{ACAD_REACTORS
330
47
102
}
330
47
100
AcDbScale
 70
     0
300
1:30
140
1.0
141
30.0
290
     0
  0
SCALE
  5
51
102
{ACAD_REACTORS
330
47
102
}
330
47
100
AcDbScale
 70
     0
300
1:40
140
1.0
141
40.0
290
     0
  0
SCALE
  5
52
102
{ACAD_REACTORS
330
47
102
}
330
47
100
AcDbScale
 70
     0
300
1:50
140
1.0
141
50.0
290
     0
  0
SCALE
  5
53
102
{ACAD_REACTORS
330
47
102
}
330
47
100
AcDbScale
 70
     0
300
1:100
140
1.0
141
100.0
290
     0
  0
SCALE
  5
54
102
{ACAD_REACTORS
330
47
102
}
330
47
100
AcDbScale
 70
     0
300
2:1
140
2.0
141
1.0
290
     0
  0
SCALE
  5
55
102
{ACAD_REACTORS
330
47
102
}
330
47
100
AcDbScale
 70
     0
300
4:1
140
4.0
141
1.0
290
     0
  0
SCALE
  5
56
102
{ACAD_REACTORS
330
47
102
}
330
47
100
AcDbScale
 70
     0
300
8:1
140
8.0
141
1.0
290
     0
  0
SCALE
  5
57
102
{ACAD_REACTORS
330
47
102
}
330
47
100
AcDbScale
 70
     0
300
10:1
140
10.0
141
1.0
290
     0
  0
SCALE
  5
58
102
{ACAD_REACTORS
330
47
102
}
330
47
100
AcDbScale
 70
     0
300
100:1
140
100.0
141
1.0
290
     0
  0
SCALE
  5
59
102
{ACAD_REACTORS
330
47
102
}
330
47
100
AcDbScale
 70
     0
300
1/128" = 1'-0"
140
0.0078125
141
12.0
290
     0
  0
SCALE
  5
5A
102
{ACAD_REACTORS
330
47
102
}
330
47
100
AcDbScale
 70
     0
300
1/64" = 1'-0"
140
0.015625
141
12.0
290
     0
  0
SCALE
  5
5B
102
{ACAD_REACTORS
330
47
102
}
330
47
100
AcDbScale
 70
     0
300
1/32" = 1'-0"
140
0.03125
141
12.0
290
     0
  0
SCALE
  5
5C
102
{ACAD_REACTORS
330
47
102
}
330
47
100
AcDbScale
 70
     0
300
1/16" = 1'-0"
140
0.0625
141
12.0
290
     0
  0
SCALE
  5
5D
102
{ACAD_REACTORS
330
47
102
}
330
47
100
AcDbScale
 70
     0
300
3/32" = 1'-0"
140
0.09375
141
12.0
290
     0
  0
SCALE
  5
5E
102
{ACAD_REACTORS
330
47
102
}
330
47
100
AcDbScale
 70
     0
300
1/8" = 1'-0"
140
0.125
141
12.0
290
     0
  0
SCALE
  5
5F
102
{ACAD_REACTORS
330
47
102
}
330
47
100
AcDbScale
 70
     0
300
3/16" = 1'-0"
140
0.1875
141
12.0
290
     0
  0
SCALE
  5
60
102
{ACAD_REACTORS
330
47
102
}
330
47
100
AcDbScale
 70
     0
300
1/4" = 1'-0"
140
0.25
141
12.0
290
     0
  0
SCALE
  5
61
102
{ACAD_REACTORS
330
47
102
}
330
47
100
AcDbScale
 70
     0
300
3/8" = 1'-0"
140
0.375
141
12.0
290
     0
  0
SCALE
  5
62
102
{ACAD_REACTORS
330
47
102
}
330
47
100
AcDbScale
 70
     0
300
1/2" = 1'-0"
140
0.5
141
12.0
290
     0
  0
SCALE
  5
63
102
{ACAD_REACTORS
330
47
102
}
330
47
100
AcDbScale
 70
     0
300
3/4" = 1'-0"
140
0.75
141
12.0
290
     0
  0
SCALE
  5
64
102
{ACAD_REACTORS
330
47
102
}
330
47
100
AcDbScale
 70
     0
300
1" = 1'-0"
140
1.0
141
12.0
290
     0
  0
SCALE
  5
65
102
{ACAD_REACTORS
330
47
102
}
330
47
100
AcDbScale
 70
     0
300
1-1/2" = 1'-0"
140
1.5
141
12.0
290
     0
  0
SCALE
  5
66
102
{ACAD_REACTORS
330
47
102
}
330
47
100
AcDbScale
 70
     0
300
3" = 1'-0"
140
3.0
141
12.0
290
     0
  0
SCALE
  5
67
102
{ACAD_REACTORS
330
47
102
}
330
47
100
AcDbScale
 70
     0
300
6" = 1'-0"
140
6.0
141
12.0
290
     0
  0
SCALE
  5
68
102
{ACAD_REACTORS
330
47
102
}
330
47
100
AcDbScale
 70
     0
300
1'-0" = 1'-0"
140
12.0
141
12.0
290
     0
  0
ENDSEC
  0
EOF
