  0
SECTION
  2
HEADER
  9
$ACADVER
  1
AC1015
  9
$ACADMAINTVER
 70
     6
  9
$DWGCODEPAGE
  3
ANSI_1252
  9
$INSBASE
 10
0.0
 20
0.0
 30
0.0
  9
$EXTMIN
 10
0.0
 20
0.0
 30
0.0
  9
$EXTMAX
 10
420.0
 20
297.0
 30
0.0
  9
$LIMMIN
 10
0.0
 20
0.0
  9
$LIMMAX
 10
420.0
 20
297.0
  9
$ORTHOMODE
 70
     0
  9
$REGENMODE
 70
     1
  9
$FILLMODE
 70
     1
  9
$QTEXTMODE
 70
     0
  9
$MIRRTEXT
 70
     1
  9
$LTSCALE
 40
1.0
  9
$ATTMODE
 70
     1
  9
$TEXTSIZE
 40
3.5
  9
$TRACEWID
 40
1.0
  9
$TEXTSTYLE
  7
Standard
  9
$CLAYER
  8
0
  9
$CELTYPE
  6
ByLayer
  9
$CECOLOR
 62
   256
  9
$CELTSCALE
 40
1.0
  9
$DISPSILH
 70
     0
  9
$DIMSCALE
 40
1.0
  9
$DIMASZ
 40
2.2
  9
$DIMEXO
 40
0.3
  9
$DIMDLI
 40
3.75
  9
$DIMRND
 40
0.0
  9
$DIMDLE
 40
0.0
  9
$DIMEXE
 40
1.0
  9
$DIMTP
 40
0.0
  9
$DIMTM
 40
0.0
  9
$DIMTXT
 40
3.5277777778
  9
$DIMCEN
 40
2.5
  9
$DIMTSZ
 40
0.0
  9
$DIMTOL
 70
     0
  9
$DIMLIM
 70
     0
  9
$DIMTIH
 70
     1
  9
$DIMTOH
 70
     1
  9
$DIMSE1
 70
     0
  9
$DIMSE2
 70
     0
  9
$DIMTAD
 70
     1
  9
$DIMZIN
 70
     0
  9
$DIMBLK
  1

  9
$DIMASO
 70
     1
  9
$DIMSHO
 70
     1
  9
$DIMPOST
  1

  9
$DIMAPOST
  1

  9
$DIMALT
 70
     0
  9
$DIMALTD
 70
     3
  9
$DIMALTF
 40
0.0393700787
  9
$DIMLFAC
 40
1.0
  9
$DIMTOFL
 70
     1
  9
$DIMTVP
 40
0.0
  9
$DIMTIX
 70
     0
  9
$DIMSOXD
 70
     0
  9
$DIMSAH
 70
     0
  9
$DIMBLK1
  1

  9
$DIMBLK2
  1

  9
$DIMSTYLE
  2
ISO-25
  9
$DIMCLRD
 70
     0
  9
$DIMCLRE
 70
     0
  9
$DIMCLRT
 70
     0
  9
$DIMTFAC
 40
1.0
  9
$DIMGAP
 40
1.524
  9
$DIMJUST
 70
     0
  9
$DIMSD1
 70
     0
  9
$DIMSD2
 70
     0
  9
$DIMTOLJ
 70
     0
  9
$DIMTZIN
 70
     0
  9
$DIMALTZ
 70
     0
  9
$DIMALTTZ
 70
     0
  9
$DIMUPT
 70
     0
  9
$DIMDEC
 70
     2
  9
$DIMTDEC
 70
     2
  9
$DIMALTU
 70
     2
  9
$DIMALTTD
 70
     3
  9
$DIMTXSTY
  7
Standard
  9
$DIMAUNIT
 70
     0
  9
$DIMADEC
 70
     2
  9
$DIMALTRND
 40
0.0
  9
$DIMAZIN
 70
     0
  9
$DIMDSEP
 70
    44
  9
$DIMATFIT
 70
     3
  9
$DIMFRAC
 70
     0
  9
$DIMLDRBLK
  1

  9
$DIMLUNIT
 70
     2
  9
$DIMLWD
 70
    -2
  9
$DIMLWE
 70
    -2
  9
$DIMTMOVE
 70
     0
  9
$LUNITS
 70
     2
  9
$LUPREC
 70
     3
  9
$SKETCHINC
 40
1.0
  9
$FILLETRAD
 40
10.0
  9
$AUNITS
 70
     0
  9
$AUPREC
 70
     2
  9
$MENU
  1
.
  9
$ELEVATION
 40
0.0
  9
$PELEVATION
 40
0.0
  9
$THICKNESS
 40
0.0
  9
$LIMCHECK
 70
     0
  9
$CHAMFERA
 40
0.0
  9
$CHAMFERB
 40
0.0
  9
$CHAMFERC
 40
0.0
  9
$CHAMFERD
 40
0.0
  9
$SKPOLY
 70
     0
  9
$TDCREATE
 40
2460222.602313565
  9
$TDUCREATE
 40
2460222.518980232
  9
$TDUPDATE
 40
2460222.602318623
  9
$TDUUPDATE
 40
2460222.518985289
  9
$TDINDWG
 40
0.0000000116
  9
$TDUSRTIMER
 40
0.0000000116
  9
$USRTIMER
 70
     1
  9
$ANGBASE
 50
0.0
  9
$ANGDIR
 70
     0
  9
$PDMODE
 70
     0
  9
$PDSIZE
 40
-1.0
  9
$PLINEWID
 40
0.0
  9
$SPLFRAME
 70
     0
  9
$SPLINETYPE
 70
     6
  9
$SPLINESEGS
 70
     8
  9
$HANDSEED
  5
36D
  9
$SURFTAB1
 70
     6
  9
$SURFTAB2
 70
     6
  9
$SURFTYPE
 70
     6
  9
$SURFU
 70
     6
  9
$SURFV
 70
     6
  9
$UCSBASE
  2

  9
$UCSNAME
  2

  9
$UCSORG
 10
0.0
 20
0.0
 30
0.0
  9
$UCSXDIR
 10
1.0
 20
0.0
 30
0.0
  9
$UCSYDIR
 10
0.0
 20
1.0
 30
0.0
  9
$UCSORTHOREF
  2

  9
$UCSORTHOVIEW
 70
     0
  9
$UCSORGTOP
 10
0.0
 20
0.0
 30
0.0
  9
$UCSORGBOTTOM
 10
0.0
 20
0.0
 30
0.0
  9
$UCSORGLEFT
 10
0.0
 20
0.0
 30
0.0
  9
$UCSORGRIGHT
 10
0.0
 20
0.0
 30
0.0
  9
$UCSORGFRONT
 10
0.0
 20
0.0
 30
0.0
  9
$UCSORGBACK
 10
0.0
 20
0.0
 30
0.0
  9
$PUCSBASE
  2

  9
$PUCSNAME
  2

  9
$PUCSORG
 10
0.0
 20
0.0
 30
0.0
  9
$PUCSXDIR
 10
1.0
 20
0.0
 30
0.0
  9
$PUCSYDIR
 10
0.0
 20
1.0
 30
0.0
  9
$PUCSORTHOREF
  2

  9
$PUCSORTHOVIEW
 70
     0
  9
$PUCSORGTOP
 10
0.0
 20
0.0
 30
0.0
  9
$PUCSORGBOTTOM
 10
0.0
 20
0.0
 30
0.0
  9
$PUCSORGLEFT
 10
0.0
 20
0.0
 30
0.0
  9
$PUCSORGRIGHT
 10
0.0
 20
0.0
 30
0.0
  9
$PUCSORGFRONT
 10
0.0
 20
0.0
 30
0.0
  9
$PUCSORGBACK
 10
0.0
 20
0.0
 30
0.0
  9
$USERI1
 70
     0
  9
$USERI2
 70
     0
  9
$USERI3
 70
     0
  9
$USERI4
 70
     0
  9
$USERI5
 70
     0
  9
$USERR1
 40
0.0
  9
$USERR2
 40
0.0
  9
$USERR3
 40
0.0
  9
$USERR4
 40
0.0
  9
$USERR5
 40
0.0
  9
$WORLDVIEW
 70
     1
  9
$SHADEDGE
 70
     3
  9
$SHADEDIF
 70
    70
  9
$TILEMODE
 70
     1
  9
$MAXACTVP
 70
    64
  9
$PINSBASE
 10
0.0
 20
0.0
 30
0.0
  9
$PLIMCHECK
 70
     0
  9
$PEXTMIN
 10
1.0000000000E+20
 20
1.0000000000E+20
 30
1.0000000000E+20
  9
$PEXTMAX
 10
-1.0000000000E+20
 20
-1.0000000000E+20
 30
-1.0000000000E+20
  9
$PLIMMIN
 10
0.0
 20
0.0
  9
$PLIMMAX
 10
420.0
 20
297.0
  9
$UNITMODE
 70
     0
  9
$VISRETAIN
 70
     1
  9
$PLINEGEN
 70
     0
  9
$PSLTSCALE
 70
     1
  9
$TREEDEPTH
 70
  3020
  9
$CMLSTYLE
  2
Standard
  9
$CMLJUST
 70
     0
  9
$CMLSCALE
 40
20.0
  9
$PROXYGRAPHICS
 70
     1
  9
$MEASUREMENT
 70
     1
  9
$CELWEIGHT
370
    -1
  9
$ENDCAPS
280
     0
  9
$JOINSTYLE
280
     0
  9
$LWDISPLAY
290
     1
  9
$INSUNITS
 70
     4
  9
$HYPERLINKBASE
  1

  9
$STYLESHEET
  1

  9
$XEDIT
290
     1
  9
$CEPSNTYPE
380
     0
  9
$PSTYLEMODE
290
     1
  9
$FINGERPRINTGUID
  2
{ca66fd78-4da9-4737-addd-a42253ca9d73}
  9
$VERSIONGUID
  2
{FAEB1C32-E019-11D5-929B-00C0DF256EC4}
  9
$EXTNAMES
290
     1
  9
$PSVPSCALE
 40
0.0
  9
$OLESTARTUP
290
     0
  0
ENDSEC
  0
SECTION
  2
CLASSES
  0
CLASS
  1
ACDBDICTIONARYWDFLT
  2
AcDbDictionaryWithDefault
  3
ObjectDBX Classes
 90
        0
280
     0
281
     0
  0
CLASS
  1
VISUALSTYLE
  2
AcDbVisualStyle
  3
ObjectDBX Classes
 90
     4095
280
     0
281
     0
  0
CLASS
  1
MATERIAL
  2
AcDbMaterial
  3
ObjectDBX Classes
 90
     1153
280
     0
281
     0
  0
CLASS
  1
SCALE
  2
AcDbScale
  3
ObjectDBX Classes
 90
     1153
280
     0
281
     0
  0
CLASS
  1
TABLESTYLE
  2
AcDbTableStyle
  3
ObjectDBX Classes
 90
     4095
280
     0
281
     0
  0
CLASS
  1
MLEADERSTYLE
  2
AcDbMLeaderStyle
  3
ACDB_MLEADERSTYLE_CLASS
 90
     4095
280
     0
281
     0
  0
CLASS
  1
SUN
  2
AcDbSun
  3
SCENEOE
 90
     1153
280
     0
281
     0
  0
CLASS
  1
ACDBPLACEHOLDER
  2
AcDbPlaceHolder
  3
ObjectDBX Classes
 90
        0
280
     0
281
     0
  0
CLASS
  1
LAYOUT
  2
AcDbLayout
  3
ObjectDBX Classes
 90
        0
280
     0
281
     0
  0
ENDSEC
  0
SECTION
  2
TABLES
  0
TABLE
  2
VPORT
  5
8
330
0
100
AcDbSymbolTable
 70
     1
  0
VPORT
  5
29
330
8
100
AcDbSymbolTableRecord
100
AcDbViewportTableRecord
  2
*Active
 70
     0
 10
0.0
 20
0.0
 11
1.0
 21
1.0
 12
210.0
 22
148.5
 13
0.0
 23
0.0
 14
10.0
 24
10.0
 15
10.0
 25
10.0
 16
0.0
 26
0.0
 36
1.0
 17
0.0
 27
0.0
 37
0.0
 40
297.0
 41
1.4141414141
 42
50.0
 43
0.0
 44
0.0
 50
0.0
 51
0.0
 71
     0
 72
  2000
 73
     1
 74
     3
 75
     0
 76
     0
 77
     0
 78
     0
281
     0
 65
     1
110
0.0
120
0.0
130
0.0
111
1.0
121
0.0
131
0.0
112
0.0
122
1.0
132
0.0
 79
     0
146
0.0
  0
ENDTAB
  0
TABLE
  2
LTYPE
  5
5
330
0
100
AcDbSymbolTable
 70
     6
  0
LTYPE
  5
14
330
5
100
AcDbSymbolTableRecord
100
AcDbLinetypeTableRecord
  2
ByBlock
 70
     0
  3

 72
    65
 73
     0
 40
0.0
  0
LTYPE
  5
15
330
5
100
AcDbSymbolTableRecord
100
AcDbLinetypeTableRecord
  2
ByLayer
 70
     0
  3

 72
    65
 73
     0
 40
0.0
  0
LTYPE
  5
16
330
5
100
AcDbSymbolTableRecord
100
AcDbLinetypeTableRecord
  2
Continuous
 70
     0
  3
Solid line
 72
    65
 73
     0
 40
0.0
  0
LTYPE
  5
6E
330
5
100
AcDbSymbolTableRecord
100
AcDbLinetypeTableRecord
  2
HIDDEN
 70
     0
  3
Hidden __ __ __ __ __ __ __ __ __ __ __ __ __ __
 72
    65
 73
     2
 40
1.905
 49
1.27
 74
     0
 49
-0.635
 74
     0
  0
LTYPE
  5
6F
330
5
100
AcDbSymbolTableRecord
100
AcDbLinetypeTableRecord
  2
PHANTOM
 70
     0
  3
Phantom ______  __  __  ______  __  __  ______
 72
    65
 73
     6
 40
12.7
 49
6.35
 74
     0
 49
-1.27
 74
     0
 49
1.27
 74
     0
 49
-1.27
 74
     0
 49
1.27
 74
     0
 49
-1.27
 74
     0
  0
LTYPE
  5
70
330
5
100
AcDbSymbolTableRecord
100
AcDbLinetypeTableRecord
  2
CENTER
 70
     0
  3
Center ____ _ ____ _ ____ _ ____ _ ____ _ ____
 72
    65
 73
     4
 40
10.16
 49
6.35
 74
     0
 49
-1.27
 74
     0
 49
1.27
 74
     0
 49
-1.27
 74
     0
  0
LTYPE
  5
71
330
5
100
AcDbSymbolTableRecord
100
AcDbLinetypeTableRecord
  2
CENTERX2
 70
     0
  3
Center (2x) ________  __  ________  __  _____
 72
    65
 73
     4
 40
20.32
 49
12.7
 74
     0
 49
-2.54
 74
     0
 49
2.54
 74
     0
 49
-2.54
 74
     0
  0
LTYPE
  5
72
330
5
100
AcDbSymbolTableRecord
100
AcDbLinetypeTableRecord
  2
DOT2
 70
     0
  3
Dot (.5x) ........................................
 72
    65
 73
     2
 40
0.635
 49
0.0
 74
     0
 49
-0.635
 74
     0
  0
ENDTAB
  0
TABLE
  2
LAYER
  5
2
330
0
100
AcDbSymbolTable
 70
    10
  0
LAYER
  5
10
330
2
100
AcDbSymbolTableRecord
100
AcDbLayerTableRecord
  2
0
 70
     0
 62
     7
  6
Continuous
370
    -3
390
F
  0
LAYER
  5
73
330
2
100
AcDbSymbolTableRecord
100
AcDbLayerTableRecord
  2
FORMAT
 70
     0
 62
     7
  6
Continuous
370
    -3
390
F
  0
LAYER
  5
74
330
2
100
AcDbSymbolTableRecord
100
AcDbLayerTableRecord
  2
VORLAGE_TEXT
 70
     0
 62
     7
  6
Continuous
370
    -3
390
F
  0
LAYER
  5
75
330
2
100
AcDbSymbolTableRecord
100
AcDbLayerTableRecord
  2
VORLAGE_BEMASSUNG
 70
     0
 62
    -5
  6
Continuous
290
     0
370
    -3
390
F
  0
LAYER
  5
76
330
2
100
AcDbSymbolTableRecord
100
AcDbLayerTableRecord
  2
TEXT
 70
     0
 62
     7
  6
Continuous
370
    -3
390
F
  0
LAYER
  5
77
330
2
100
AcDbSymbolTableRecord
100
AcDbLayerTableRecord
  2
LINIEN-DICK
 70
     0
 62
     7
  6
Continuous
370
    35
390
F
  0
LAYER
  5
78
330
2
100
AcDbSymbolTableRecord
100
AcDbLayerTableRecord
  2
LINIEN-NORMAL
 70
     0
 62
     7
  6
Continuous
370
    25
390
F
  0
LAYER
  5
79
330
2
100
AcDbSymbolTableRecord
100
AcDbLayerTableRecord
  2
LINIEN-DÜNN
 70
     0
 62
     7
  6
Continuous
370
    -3
390
F
  0
LAYER
  5
7A
330
2
100
AcDbSymbolTableRecord
100
AcDbLayerTableRecord
  2
TEXT-DEUTSCH
 70
     0
 62
     7
  6
Continuous
370
    -3
390
F
  0
LAYER
  5
7B
330
2
100
AcDbSymbolTableRecord
100
AcDbLayerTableRecord
  2
TEXT-ENGLISCH
 70
     0
 62
    -7
  6
Continuous
290
     0
370
    -3
390
F
  0
ENDTAB
  0
TABLE
  2
STYLE
  5
3
330
0
100
AcDbSymbolTable
 70
     4
  0
STYLE
  5
11
330
3
100
AcDbSymbolTableRecord
100
AcDbTextStyleTableRecord
  2
Standard
 70
     0
 40
0.0
 41
1.0
 50
0.0
 71
     0
 42
3.5
  3
txt
  4

  0
STYLE
  5
F2
330
3
100
AcDbSymbolTableRecord
100
AcDbTextStyleTableRecord
  2
SLDTEXTSTYLE0
 70
     0
 40
0.0
 41
0.605
 50
0.0
 71
     0
 42
3.5
  3
TXT
  4

  0
STYLE
  5
19C
330
3
100
AcDbSymbolTableRecord
100
AcDbTextStyleTableRecord
  2
SLDTEXTSTYLE1
 70
     0
 40
0.0
 41
0.563
 50
0.0
 71
     0
 42
3.5
  3
TXT
  4

  0
STYLE
  5
36A
330
3
100
AcDbSymbolTableRecord
100
AcDbTextStyleTableRecord
  2
SLDTEXTSTYLE2
 70
     0
 40
0.0
 41
0.75
 50
0.0
 71
     0
 42
3.5
  3
TXT
  4

  0
ENDTAB
  0
TABLE
  2
VIEW
  5
6
330
0
100
AcDbSymbolTable
 70
     0
  0
ENDTAB
  0
TABLE
  2
UCS
  5
7
330
0
100
AcDbSymbolTable
 70
     0
  0
ENDTAB
  0
TABLE
  2
APPID
  5
9
330
0
100
AcDbSymbolTable
 70
     1
  0
APPID
  5
12
330
9
100
AcDbSymbolTableRecord
100
AcDbRegAppTableRecord
  2
ACAD
 70
     0
  0
ENDTAB
  0
TABLE
  2
DIMSTYLE
  5
A
330
0
100
AcDbSymbolTable
 70
     4
100
AcDbDimStyleTable
  0
DIMSTYLE
105
27
330
A
100
AcDbSymbolTableRecord
100
AcDbDimStyleTableRecord
  2
ISO-25
 70
     0
 41
2.5
 42
0.625
 43
3.75
 44
1.25
 73
     0
 74
     0
 77
     1
 78
     8
140
2.5
141
2.5
143
0.0393700787
147
0.625
171
     3
172
     1
178
     0
271
     2
272
     2
274
     3
278
    44
283
     0
284
     8
340
11
  0
DIMSTYLE
105
33F
102
{ACAD_REACTORS
330
33E
330
355
102
}
330
A
100
AcDbSymbolTableRecord
100
AcDbDimStyleTableRecord
  2
SLDDIMSTYLE0
 70
     0
 41
2.2
 44
0.0
 45
0.000000001
 73
     0
 74
     0
 77
     1
 78
    12
 79
     3
140
2.5683186849
147
0.6420796712
173
     1
178
     0
271
     2
272
     2
276
     2
284
    12
340
F2
  0
DIMSTYLE
105
34B
102
{ACAD_REACTORS
330
34A
102
}
330
A
100
AcDbSymbolTableRecord
100
AcDbDimStyleTableRecord
  2
SLDDIMSTYLE1
 70
     0
 41
2.2
 44
0.0
 45
0.000000001
 73
     0
 74
     0
 77
     1
 78
    12
 79
     3
140
2.5683186849
147
0.6420796712
173
     1
178
     0
271
     1
272
     1
276
     2
284
    12
340
F2
  0
DIMSTYLE
105
360
102
{ACAD_REACTORS
330
35F
102
}
330
A
100
AcDbSymbolTableRecord
100
AcDbDimStyleTableRecord
  2
SLDDIMSTYLE2
 70
     0
 41
2.2
 44
0.0
 45
0.000000001
 73
     0
 74
     0
 77
     1
 78
    12
 79
     3
140
2.5683186849
147
0.6420796712
172
     1
173
     1
178
     0
271
     1
272
     1
276
     2
284
    12
289
     0
340
F2
  0
ENDTAB
  0
TABLE
  2
BLOCK_RECORD
  5
1
330
0
100
AcDbSymbolTable
 70
    10
  0
BLOCK_RECORD
  5
1F
330
1
100
AcDbSymbolTableRecord
100
AcDbBlockTableRecord
  2
*Model_Space
340
22
  0
BLOCK_RECORD
  5
1B
330
1
100
AcDbSymbolTableRecord
100
AcDbBlockTableRecord
  2
*Paper_Space
340
1E
  0
BLOCK_RECORD
  5
23
330
1
100
AcDbSymbolTableRecord
100
AcDbBlockTableRecord
  2
*Paper_Space0
340
26
  0
BLOCK_RECORD
  5
7C
330
1
100
AcDbSymbolTableRecord
100
AcDbBlockTableRecord
  2
ACO-Logo
340
0
102
{BLKREFS
331
152
102
}
  0
BLOCK_RECORD
  5
EF
330
1
100
AcDbSymbolTableRecord
100
AcDbBlockTableRecord
  2
SW_NOTE_0
340
0
102
{BLKREFS
331
F4
102
}
  0
BLOCK_RECORD
  5
F5
330
1
100
AcDbSymbolTableRecord
100
AcDbBlockTableRecord
  2
SW_NOTE_0_1
340
0
102
{BLKREFS
331
F9
102
}
  0
BLOCK_RECORD
  5
FA
330
1
100
AcDbSymbolTableRecord
100
AcDbBlockTableRecord
  2
SW_NOTE_0_2
340
0
102
{BLKREFS
331
101
102
}
  0
BLOCK_RECORD
  5
17A
330
1
100
AcDbSymbolTableRecord
100
AcDbBlockTableRecord
  2
SW_NOTE_0_3
340
0
102
{BLKREFS
331
182
102
}
  0
BLOCK_RECORD
  5
340
330
1
100
AcDbSymbolTableRecord
100
AcDbBlockTableRecord
  2
_D
340
0
  0
BLOCK_RECORD
  5
34C
330
1
100
AcDbSymbolTableRecord
100
AcDbBlockTableRecord
  2
_D_1
340
0
  0
BLOCK_RECORD
  5
356
330
1
100
AcDbSymbolTableRecord
100
AcDbBlockTableRecord
  2
_D_2
340
0
  0
BLOCK_RECORD
  5
361
330
1
100
AcDbSymbolTableRecord
100
AcDbBlockTableRecord
  2
_D_3
340
0
  0
ENDTAB
  0
ENDSEC
  0
SECTION
  2
BLOCKS
  0
BLOCK
  5
20
330
1F
100
AcDbEntity
  8
0
100
AcDbBlockBegin
  2
*Model_Space
 70
     0
 10
0.0
 20
0.0
 30
0.0
  3
*Model_Space
  1

  0
ENDBLK
  5
21
330
1F
100
AcDbEntity
  8
0
100
AcDbBlockEnd
  0
BLOCK
  5
1C
330
1B
100
AcDbEntity
 67
     1
  8
0
100
AcDbBlockBegin
  2
*Paper_Space
 70
     0
 10
0.0
 20
0.0
 30
0.0
  3
*Paper_Space
  1

  0
ENDBLK
  5
1D
330
1B
100
AcDbEntity
 67
     1
  8
0
100
AcDbBlockEnd
  0
BLOCK
  5
24
330
23
100
AcDbEntity
  8
0
100
AcDbBlockBegin
  2
*Paper_Space0
 70
     0
 10
0.0
 20
0.0
 30
0.0
  3
*Paper_Space0
  1

  0
ENDBLK
  5
25
330
23
100
AcDbEntity
  8
0
100
AcDbBlockEnd
  0
BLOCK
  5
7D
330
7C
100
AcDbEntity
  8
0
100
AcDbBlockBegin
  2
ACO-Logo
 70
     0
 10
0.0
 20
0.0
 30
0.0
  3
ACO-Logo
  1

  0
ARC
  5
7F
330
7C
100
AcDbEntity
  8
0
  6
Continuous
 62
   179
370
    18
100
AcDbCircle
 10
80.3853261169
 20
4.9940995715
 30
0.0
 40
0.3000000000000441
100
AcDbArc
 50
181.9349323096
 51
274.6062978506
  0
ARC
  5
80
330
7C
100
AcDbEntity
  8
0
  6
Continuous
 62
   179
370
    18
100
AcDbCircle
 10
81.2359083165
 20
2.1946665956
 30
0.0
 40
1.000000000000021
100
AcDbArc
 50
221.4087409628
 51
276.0561297228
  0
ARC
  5
81
330
7C
100
AcDbEntity
  8
0
  6
Continuous
 62
   179
370
    18
100
AcDbCircle
 10
79.1360017163
 20
3.654242048
 30
0.0
 40
0.300000000000004
100
AcDbArc
 50
181.2730300201
 51
274.4996077095
  0
ARC
  5
82
330
7C
100
AcDbEntity
  8
0
  6
Continuous
 62
   179
370
    18
100
AcDbCircle
 10
78.7699033484
 20
3.2873137407
 30
0.0
 40
0.4000000000000358
100
AcDbArc
 50
221.0090869016
 51
274.5606296317
  0
ARC
  5
83
330
7C
100
AcDbEntity
  8
0
  6
Continuous
 62
   179
370
    18
100
AcDbCircle
 10
91.2333953062
 20
4.6062442307
 30
0.0
 40
0.3000000000000493
100
AcDbArc
 50
274.4996077095
 51
3.7249371334
  0
ARC
  5
84
330
7C
100
AcDbEntity
  8
0
  6
Continuous
 62
   179
370
    18
100
AcDbCircle
 10
81.5287571045
 20
9.7648973508
 30
0.0
 40
1.00000000000002
100
AcDbArc
 50
93.1134387481
 51
181.9414863909
  0
ARC
  5
85
330
7C
100
AcDbEntity
  8
0
  6
Continuous
 62
   179
370
    18
100
AcDbCircle
 10
81.6051675115
 20
7.5107903456
 30
0.0
 40
1.0
100
AcDbArc
 50
181.9414863909
 51
274.398705355
  0
ARC
  5
86
330
7C
100
AcDbEntity
  8
0
  6
Continuous
 62
   179
370
    18
100
AcDbCircle
 10
80.1506905656
 20
11.9393118923
 30
0.0
 40
0.300000000000045
100
AcDbArc
 50
93.0418421566
 51
181.9349323096
  0
ARC
  5
87
330
7C
100
AcDbEntity
  8
0
  6
Continuous
 62
   179
370
    18
100
AcDbCircle
 10
78.1879722102
 20
12.3499352608
 30
0.0
 40
0.7999999999953393
100
AcDbArc
 50
92.6995697565
 51
148.2554209065
  0
ARC
  5
88
330
7C
100
AcDbEntity
  8
0
  6
Continuous
 62
   179
370
    18
100
AcDbCircle
 10
78.930862229
 20
12.8855189761
 30
0.0
 40
0.3000000000000031
100
AcDbArc
 50
92.6995697565
 51
181.2730300201
  0
ARC
  5
89
330
7C
100
AcDbEntity
  8
0
  6
Continuous
 62
   179
370
    18
100
AcDbCircle
 10
82.327743407
 20
9.8083568568
 30
0.0
 40
1.000000000000034
100
AcDbArc
 50
1.9414863909
 51
93.1134387481
  0
ARC
  5
8A
330
7C
100
AcDbEntity
  8
0
  6
Continuous
 62
   179
370
    18
100
AcDbCircle
 10
81.5287571045
 20
9.7648973508
 30
0.0
 40
0.3625000000000009
100
AcDbArc
 50
93.1134387481
 51
181.9414863909
  0
ARC
  5
8B
330
7C
100
AcDbEntity
  8
0
  6
Continuous
 62
   179
370
    18
100
AcDbCircle
 10
82.327743407
 20
9.8083568568
 30
0.0
 40
0.3625000000000146
100
AcDbArc
 50
1.9414863909
 51
93.1134387481
  0
ARC
  5
8C
330
7C
100
AcDbEntity
  8
0
  6
Continuous
 62
   179
370
    18
100
AcDbCircle
 10
82.4035451983
 20
7.5722040138
 30
0.0
 40
1.000000000000008
100
AcDbArc
 50
274.398705355
 51
1.9414863909
  0
ARC
  5
8D
330
7C
100
AcDbEntity
  8
0
  6
Continuous
 62
   179
370
    18
100
AcDbCircle
 10
82.4035451983
 20
7.5722040138
 30
0.0
 40
0.3625000000000068
100
AcDbArc
 50
274.398705355
 51
1.9414863909
  0
ARC
  5
8E
330
7C
100
AcDbEntity
  8
0
  6
Continuous
 62
   179
370
    18
100
AcDbCircle
 10
81.6051675115
 20
7.5107903456
 30
0.0
 40
0.3625000000000111
100
AcDbArc
 50
181.9414863909
 51
274.398705355
  0
ARC
  5
8F
330
7C
100
AcDbEntity
  8
0
  6
Continuous
 62
   179
370
    18
100
AcDbCircle
 10
88.825822761
 20
8.0662148274
 30
0.0
 40
0.9999999999999997
100
AcDbArc
 50
274.398705355
 51
2.6541955134
  0
ARC
  5
90
330
7C
100
AcDbEntity
  8
0
  6
Continuous
 62
   179
370
    18
100
AcDbCircle
 10
90.1578295581
 20
5.7814576687
 30
0.0
 40
0.3000000000000043
100
AcDbArc
 50
274.6062978507
 51
2.5147526475
  0
ARC
  5
91
330
7C
100
AcDbEntity
  8
0
  6
Continuous
 62
   179
370
    18
100
AcDbCircle
 10
88.825822761
 20
8.0662148274
 30
0.0
 40
0.3625000000000083
100
AcDbArc
 50
274.398705355
 51
2.6541955134
  0
ARC
  5
92
330
7C
100
AcDbEntity
  8
0
  6
Continuous
 62
   179
370
    18
100
AcDbCircle
 10
88.728529747
 20
10.16496413
 30
0.0
 40
1.000000000000001
100
AcDbArc
 50
2.6541955134
 51
93.1134387481
  0
ARC
  5
93
330
7C
100
AcDbEntity
  8
0
  6
Continuous
 62
   179
370
    18
100
AcDbCircle
 10
88.728529747
 20
10.16496413
 30
0.0
 40
0.3625000000000085
100
AcDbArc
 50
2.6541955134
 51
93.1134387481
  0
ARC
  5
94
330
7C
100
AcDbEntity
  8
0
  6
Continuous
 62
   179
370
    18
100
AcDbCircle
 10
89.8647121341
 20
12.455515937
 30
0.0
 40
0.2999999999999984
100
AcDbArc
 50
2.5147526475
 51
93.0418421566
  0
ARC
  5
95
330
7C
100
AcDbEntity
  8
0
  6
Continuous
 62
   179
370
    18
100
AcDbCircle
 10
90.6583795404
 20
13.4384863935
 30
0.0
 40
0.2999999999999911
100
AcDbArc
 50
3.7249371334
 51
92.6995697565
  0
CIRCLE
  5
96
330
7C
100
AcDbEntity
  8
0
  6
Continuous
 62
   179
370
    18
100
AcDbCircle
 10
15.7233972286
 20
6.4054930194
 30
0.0
 40
1.579500000000014
  0
CIRCLE
  5
97
330
7C
100
AcDbEntity
  8
0
  6
Continuous
 62
   179
370
    18
100
AcDbCircle
 10
15.7233972286
 20
6.4054930194
 30
0.0
 40
2.281499999999994
  0
ARC
  5
98
330
7C
100
AcDbEntity
  8
0
  6
Continuous
 62
   179
370
    18
100
AcDbCircle
 10
89.7681336026
 20
2.3106616691
 30
0.0
 40
0.098384530246548
100
AcDbArc
 50
332.3802627259
 51
4.9765441602
  0
ARC
  5
99
330
7C
100
AcDbEntity
  8
0
  6
Continuous
 62
   179
370
    18
100
AcDbCircle
 10
89.6886560089
 20
2.3522464185
 30
0.0
 40
0.1880839130754018
100
AcDbArc
 50
303.690067526
 51
332.3802627258
  0
ARC
  5
9A
330
7C
100
AcDbEntity
  8
0
  6
Continuous
 62
   179
370
    18
100
AcDbCircle
 10
89.4849700869
 20
2.6577753016
 30
0.0
 40
0.5552839311631531
100
AcDbArc
 50
287.108652213
 51
303.690067526
  0
ARC
  5
9B
330
7C
100
AcDbEntity
  8
0
  6
Continuous
 62
   179
370
    18
100
AcDbCircle
 10
88.0513010646
 20
7.3154864882
 30
0.0
 40
5.428648309393203
100
AcDbArc
 50
285.2551187031
 51
287.108652213
  0
ARC
  5
9C
330
7C
100
AcDbEntity
  8
0
  6
Continuous
 62
   179
370
    18
100
AcDbCircle
 10
89.1317168954
 20
3.3539617753
 30
0.0
 40
1.322436378825653
100
AcDbArc
 50
281.4991866428
 51
285.255118703
  0
ARC
  5
9D
330
7C
100
AcDbEntity
  8
0
  6
Continuous
 62
   179
370
    18
100
AcDbCircle
 10
89.3198255509
 20
2.4293110075
 30
0.0
 40
0.3788454141584939
100
AcDbArc
 50
279.1917900003
 51
281.499186643
  0
ARC
  5
9E
330
7C
100
AcDbEntity
  8
0
  6
Continuous
 62
   179
370
    18
100
AcDbCircle
 10
89.0487250788
 20
4.1046569124
 30
0.0
 40
2.07598399629105
100
AcDbArc
 50
277.7634675038
 51
279.1917900002
  0
ARC
  5
9F
330
7C
100
AcDbEntity
  8
0
  6
Continuous
 62
   179
370
    18
100
AcDbCircle
 10
9.2588909915
 20
6.4054930194
 30
0.0
 40
1.579500000000074
100
AcDbArc
 50
31.0558004991
 51
330.0
  0
ARC
  5
A0
330
7C
100
AcDbEntity
  8
0
  6
Continuous
 62
   179
370
    18
100
AcDbCircle
 10
9.2588909915
 20
6.4054930194
 30
0.0
 40
2.281500000000107
100
AcDbArc
 50
30.7309172659
 51
330.0
  0
ARC
  5
A1
330
7C
100
AcDbEntity
  8
0
  6
Continuous
 62
   179
370
    18
100
AcDbCircle
 10
6.1288847544
 20
4.0685261312
 30
0.0
 40
4.914000000000307
100
AcDbArc
 50
172.3058370354
 51
179.7113029221
  0
ARC
  5
A2
330
7C
100
AcDbEntity
  8
0
  6
Continuous
 62
   179
370
    18
100
AcDbCircle
 10
-0.5401152456
 20
4.0685261312
 30
0.0
 40
4.91400000000019
100
AcDbArc
 50
0.2886970779
 51
7.6941629646
  0
ARC
  5
A3
330
7C
100
AcDbEntity
  8
0
  6
Continuous
 62
   179
370
    18
100
AcDbCircle
 10
-0.5401152456
 20
4.0685261312
 30
0.0
 40
5.616000000000127
100
AcDbArc
 50
0.2526096926
 51
53.5764263577
  0
ARC
  5
A4
330
7C
100
AcDbEntity
  8
0
  6
Continuous
 62
   179
370
    18
100
AcDbCircle
 10
6.1288847544
 20
4.0685261312
 30
0.0
 40
5.61600000000074
100
AcDbArc
 50
126.4235736423
 51
179.7473903073
  0
ARC
  5
A5
330
7C
100
AcDbEntity
  8
0
  6
Continuous
 62
   179
370
    18
100
AcDbCircle
 10
-0.5401152456
 20
4.0685261312
 30
0.0
 40
4.914000000000161
100
AcDbArc
 50
16.0658750272
 51
47.2678899574
  0
ARC
  5
A6
330
7C
100
AcDbEntity
  8
0
  6
Continuous
 62
   179
370
    18
100
AcDbCircle
 10
6.1288847544
 20
4.0685261312
 30
0.0
 40
4.914000000000584
100
AcDbArc
 50
132.7321100426
 51
163.9341249728
  0
LINE
  5
A7
330
7C
100
AcDbEntity
  8
0
  6
Continuous
 62
   179
370
    18
100
AcDbLine
 10
78.8017089389
 20
2.8885802402
 30
0.0
 11
90.7982178739
 21
3.8455002136
 31
0.0
  0
LINE
  5
A8
330
7C
100
AcDbEntity
  8
0
  6
Continuous
 62
   179
370
    18
100
AcDbLine
 10
76.6545490427
 20
5.8693097374
 30
0.0
 11
78.0344191726
 21
3.5235305166
 31
0.0
  0
LINE
  5
A9
330
7C
100
AcDbEntity
  8
0
  6
Continuous
 62
   179
370
    18
100
AcDbLine
 10
91.5327615373
 20
4.6257342197
 30
0.0
 11
90.9577457715
 21
13.4579763825
 31
0.0
  0
LINE
  5
AA
330
7C
100
AcDbEntity
  8
0
  6
Continuous
 62
   179
370
    18
100
AcDbLine
 10
78.6309362756
 20
12.8788539549
 30
0.0
 11
78.8360757629
 21
3.6475770268
 31
0.0
  0
LINE
  5
AB
330
7C
100
AcDbEntity
  8
0
  6
Continuous
 62
   179
370
    18
100
AcDbLine
 10
80.4094186633
 20
4.6950685544
 30
0.0
 11
90.1819221045
 21
5.4824266516
 31
0.0
  0
LINE
  5
AC
330
7C
100
AcDbEntity
  8
0
  6
Continuous
 62
   179
370
    18
100
AcDbLine
 10
79.1595373973
 20
3.3551666867
 30
0.0
 11
91.2569309872
 21
4.3071688694
 31
0.0
  0
LINE
  5
AD
330
7C
100
AcDbEntity
  8
0
  6
Continuous
 62
   179
370
    18
100
AcDbLine
 10
79.2585043218
 20
2.925017226
 30
0.0
 11
80.4858981444
 21
1.533240302
 31
0.0
  0
LINE
  5
AE
330
7C
100
AcDbEntity
  8
0
  6
Continuous
 62
   179
370
    18
100
AcDbLine
 10
78.0344191726
 20
3.5235305166
 30
0.0
 11
78.3638740472
 21
3.1446574108
 31
0.0
  0
LINE
  5
AF
330
7C
100
AcDbEntity
  8
0
  6
Continuous
 62
   179
370
    18
100
AcDbLine
 10
78.3638740472
 20
3.1446574108
 30
0.0
 11
78.4680611395
 21
3.0248422547
 31
0.0
  0
LINE
  5
B0
330
7C
100
AcDbEntity
  8
0
  6
Continuous
 62
   179
370
    18
100
AcDbLine
 10
81.3414110113
 20
1.2002475785
 30
0.0
 11
89.3291569519
 21
2.0477010263
 31
0.0
  0
LINE
  5
B1
330
7C
100
AcDbEntity
  8
0
  6
Continuous
 62
   179
370
    18
100
AcDbLine
 10
89.8661472522
 20
2.5197759309
 30
0.0
 11
89.8661472522
 21
2.3090867337
 31
0.0
  0
LINE
  5
B2
330
7C
100
AcDbEntity
  8
0
  6
Continuous
 62
   179
370
    18
100
AcDbLine
 10
88.676842368
 20
3.6762854359
 30
0.0
 11
89.6713239345
 21
2.7875997807
 31
0.0
  0
LINE
  5
B3
330
7C
100
AcDbEntity
  8
0
  6
Continuous
 62
   179
370
    18
100
AcDbLine
 10
89.6713239345
 20
2.7875997807
 30
0.0
 11
89.7459749087
 21
2.7242700694
 31
0.0
  0
LINE
  5
B4
330
7C
100
AcDbEntity
  8
0
  6
Continuous
 62
   179
370
    18
100
AcDbLine
 10
90.7982178739
 20
3.8455002136
 30
0.0
 11
91.3961615969
 21
4.3514525945
 31
0.0
  0
LINE
  5
B5
330
7C
100
AcDbEntity
  8
0
  6
Continuous
 62
   179
370
    18
100
AcDbLine
 10
90.6442498554
 20
13.7381534621
 30
0.0
 11
78.1502930503
 21
13.1490474438
 31
0.0
  0
LINE
  5
B6
330
7C
100
AcDbEntity
  8
0
  6
Continuous
 62
   179
370
    18
100
AcDbLine
 10
80.1347709981
 20
12.2388892068
 30
0.0
 11
89.8487925667
 21
12.7550932515
 31
0.0
  0
LINE
  5
B7
330
7C
100
AcDbEntity
  8
0
  6
Continuous
 62
   179
370
    18
100
AcDbLine
 10
76.4935641943
 20
11.7567556248
 30
0.0
 11
76.6545490427
 21
5.8693097374
 31
0.0
  0
LINE
  5
B8
330
7C
100
AcDbEntity
  8
0
  6
Continuous
 62
   179
370
    18
100
AcDbLine
 10
79.8508616208
 20
11.929182536
 30
0.0
 11
80.0854971721
 21
4.9839702153
 31
0.0
  0
LINE
  5
B9
330
7C
100
AcDbEntity
  8
0
  6
Continuous
 62
   179
370
    18
100
AcDbLine
 10
80.5293311574
 20
9.7310185051
 30
0.0
 11
80.6057415643
 21
7.4769115
 31
0.0
  0
LINE
  5
BA
330
7C
100
AcDbEntity
  8
0
  6
Continuous
 62
   179
370
    18
100
AcDbLine
 10
77.507650604
 20
12.7708420346
 30
0.0
 11
76.4935641943
 21
11.7567556248
 31
0.0
  0
LINE
  5
BB
330
7C
100
AcDbEntity
  8
0
  6
Continuous
 62
   179
370
    18
100
AcDbLine
 10
86.8848195129
 20
11.0661568594
 30
0.0
 11
88.6742167283
 21
11.1634880887
 31
0.0
  0
LINE
  5
BC
330
7C
100
AcDbEntity
  8
0
  6
Continuous
 62
   179
370
    18
100
AcDbLine
 10
87.0766213517
 20
6.9287171941
 30
0.0
 11
88.90708891
 21
7.0695223909
 31
0.0
  0
LINE
  5
BD
330
7C
100
AcDbEntity
  8
0
  6
Continuous
 62
   179
370
    18
100
AcDbLine
 10
87.6830038473
 20
7.6147347768
 30
0.0
 11
88.8536252418
 21
7.7047825764
 31
0.0
  0
LINE
  5
BE
330
7C
100
AcDbEntity
  8
0
  6
Continuous
 62
   179
370
    18
100
AcDbLine
 10
87.5509212094
 20
10.4639459651
 30
0.0
 11
88.7088412777
 21
10.5269290651
 31
0.0
  0
LINE
  5
BF
330
7C
100
AcDbEntity
  8
0
  6
Continuous
 62
   179
370
    18
100
AcDbLine
 10
87.0766218384
 20
6.9287066941
 30
0.0
 11
86.8848195129
 21
11.0661568594
 31
0.0
  0
LINE
  5
C0
330
7C
100
AcDbEntity
  8
0
  6
Continuous
 62
   179
370
    18
100
AcDbLine
 10
83.7004598825
 20
6.6667911093
 30
0.0
 11
84.5054929504
 21
10.9267193262
 31
0.0
  0
LINE
  5
C1
330
7C
100
AcDbEntity
  8
0
  6
Continuous
 62
   179
370
    18
100
AcDbLine
 10
85.3543248406
 20
10.9728900984
 30
0.0
 11
86.4940946704
 21
6.8816860929
 31
0.0
  0
LINE
  5
C2
330
7C
100
AcDbEntity
  8
0
  6
Continuous
 62
   179
370
    18
100
AcDbLine
 10
84.9728575427
 20
9.9667192298
 30
0.0
 11
85.4540299774
 21
8.2395506903
 31
0.0
  0
LINE
  5
C3
330
7C
100
AcDbEntity
  8
0
  6
Continuous
 62
   179
370
    18
100
AcDbLine
 10
84.6363094629
 20
8.1858350416
 30
0.0
 11
84.9728575427
 21
9.9667192298
 31
0.0
  0
LINE
  5
C4
330
7C
100
AcDbEntity
  8
0
  6
Continuous
 62
   179
370
    18
100
AcDbLine
 10
87.6830038473
 20
7.6147347768
 30
0.0
 11
87.5509212094
 21
10.4639459651
 31
0.0
  0
LINE
  5
C5
330
7C
100
AcDbEntity
  8
0
  6
Continuous
 62
   179
370
    18
100
AcDbLine
 10
84.6363094629
 20
8.1858350416
 30
0.0
 11
85.4540299774
 21
8.2395506903
 31
0.0
  0
LINE
  5
C6
330
7C
100
AcDbEntity
  8
0
  6
Continuous
 62
   179
370
    18
100
AcDbLine
 10
84.5140586807
 20
7.5389304886
 30
0.0
 11
85.6288154243
 21
7.6121582976
 31
0.0
  0
LINE
  5
C7
330
7C
100
AcDbEntity
  8
0
  6
Continuous
 62
   179
370
    18
100
AcDbLine
 10
84.3588137958
 20
6.717433718
 30
0.0
 11
84.5140586807
 21
7.5389304886
 31
0.0
  0
LINE
  5
C8
330
7C
100
AcDbEntity
  8
0
  6
Continuous
 62
   179
370
    18
100
AcDbLine
 10
81.6818640104
 20
6.5137358601
 30
0.0
 11
82.4802416972
 21
6.5751495283
 31
0.0
  0
LINE
  5
C9
330
7C
100
AcDbEntity
  8
0
  6
Continuous
 62
   179
370
    18
100
AcDbLine
 10
81.6329699923
 20
7.1493580946
 30
0.0
 11
82.4313476791
 21
7.2107717628
 31
0.0
  0
LINE
  5
CA
330
7C
100
AcDbEntity
  8
0
  6
Continuous
 62
   179
370
    18
100
AcDbLine
 10
83.7004598825
 20
6.6667911093
 30
0.0
 11
84.3588137958
 21
6.717433718
 31
0.0
  0
LINE
  5
CB
330
7C
100
AcDbEntity
  8
0
  6
Continuous
 62
   179
370
    18
100
AcDbLine
 10
82.7059483815
 20
9.3512024135
 30
0.0
 11
83.3423973297
 21
9.3930104243
 31
0.0
  0
LINE
  5
CC
330
7C
100
AcDbEntity
  8
0
  6
Continuous
 62
   179
370
    18
100
AcDbLine
 10
82.7491656358
 20
8.0762934118
 30
0.0
 11
83.385614584
 21
8.1181014226
 31
0.0
  0
LINE
  5
CD
330
7C
100
AcDbEntity
  8
0
  6
Continuous
 62
   179
370
    18
100
AcDbLine
 10
81.1664651987
 20
9.7526162692
 30
0.0
 11
81.2428756056
 21
7.4985092641
 31
0.0
  0
LINE
  5
CE
330
7C
100
AcDbEntity
  8
0
  6
Continuous
 62
   179
370
    18
100
AcDbLine
 10
82.6900353128
 20
9.8206379383
 30
0.0
 11
82.7052632884
 21
9.3714126602
 31
0.0
  0
LINE
  5
CF
330
7C
100
AcDbEntity
  8
0
  6
Continuous
 62
   179
370
    18
100
AcDbLine
 10
82.7491656358
 20
8.0762934118
 30
0.0
 11
82.7658371041
 21
7.5844850954
 31
0.0
  0
LINE
  5
D0
330
7C
100
AcDbEntity
  8
0
  6
Continuous
 62
   179
370
    18
100
AcDbLine
 10
83.3271693541
 20
9.8422357024
 30
0.0
 11
83.3423973297
 21
9.3930104243
 31
0.0
  0
LINE
  5
D1
330
7C
100
AcDbEntity
  8
0
  6
Continuous
 62
   179
370
    18
100
AcDbLine
 10
83.385614584
 20
8.1181014226
 30
0.0
 11
83.4029711454
 21
7.6060828595
 31
0.0
  0
LINE
  5
D2
330
7C
100
AcDbEntity
  8
0
  6
Continuous
 62
   179
370
    18
100
AcDbLine
 10
85.6288154243
 20
7.6121582976
 30
0.0
 11
85.8462022593
 21
6.8318482152
 31
0.0
  0
LINE
  5
D3
330
7C
100
AcDbEntity
  8
0
  6
Continuous
 62
   179
370
    18
100
AcDbLine
 10
85.8462022593
 20
6.8318482152
 30
0.0
 11
86.4940946704
 21
6.8816860929
 31
0.0
  0
LINE
  5
D4
330
7C
100
AcDbEntity
  8
0
  6
Continuous
 62
   179
370
    18
100
AcDbLine
 10
84.5054929504
 20
10.9267193262
 30
0.0
 11
85.3543248406
 21
10.9728900984
 31
0.0
  0
LINE
  5
D5
330
7C
100
AcDbEntity
  8
0
  6
Continuous
 62
   179
370
    18
100
AcDbLine
 10
81.4744440858
 20
10.7634213094
 30
0.0
 11
82.2734303883
 21
10.8068808154
 31
0.0
  0
LINE
  5
D6
330
7C
100
AcDbEntity
  8
0
  6
Continuous
 62
   179
370
    18
100
AcDbLine
 10
81.5090686352
 20
10.1268622858
 30
0.0
 11
82.3080549377
 21
10.1703217918
 31
0.0
  0
LINE
  5
D7
330
7C
100
AcDbEntity
  8
0
  6
Continuous
 62
   179
370
    18
100
AcDbLine
 10
90.4575406452
 20
5.7946206556
 30
0.0
 11
90.1644232213
 21
12.4686789239
 31
0.0
  0
LINE
  5
D8
330
7C
100
AcDbEntity
  8
0
  6
Continuous
 62
   179
370
    18
100
AcDbLine
 10
89.8247499755
 20
8.1125227115
 30
0.0
 11
89.7274569615
 21
10.2112720142
 31
0.0
  0
LINE
  5
D9
330
7C
100
AcDbEntity
  8
0
  6
Continuous
 62
   179
370
    18
100
AcDbLine
 10
89.1879338763
 20
8.0830014354
 30
0.0
 11
89.0906408622
 21
10.181750738
 31
0.0
  0
LINE
  5
DA
330
7C
100
AcDbEntity
  8
0
  6
Continuous
 62
   179
370
    18
100
AcDbLine
 10
89.7459749087
 20
2.7242700694
 30
0.0
 11
89.7974962577
 21
2.6659765769
 31
0.0
  0
LINE
  5
DB
330
7C
100
AcDbEntity
  8
0
  6
Continuous
 62
   179
370
    18
100
AcDbLine
 10
89.7974962577
 20
2.6659765769
 30
0.0
 11
89.8351851379
 21
2.60192886
 31
0.0
  0
LINE
  5
DC
330
7C
100
AcDbEntity
  8
0
  6
Continuous
 62
   179
370
    18
100
AcDbLine
 10
89.8351851379
 20
2.60192886
 30
0.0
 11
89.8661472522
 21
2.5197759309
 31
0.0
  0
LINE
  5
DD
330
7C
100
AcDbEntity
  8
0
  6
Continuous
 62
   179
370
    18
100
AcDbLine
 10
10.6119938288
 20
7.2203138351
 30
0.0
 11
11.2200151261
 21
7.5713550947
 31
0.0
  0
LINE
  5
DE
330
7C
100
AcDbEntity
  8
0
  6
Continuous
 62
   179
370
    18
100
AcDbLine
 10
11.2347279503
 20
5.2647430194
 30
0.0
 11
10.6267781168
 21
5.6157430194
 31
0.0
  0
LINE
  5
DF
330
7C
100
AcDbEntity
  8
0
  6
Continuous
 62
   179
370
    18
100
AcDbLine
 10
6.4645062371
 20
16.1712617198
 30
0.0
 11
6.4645062371
 21
2.9364593988
 31
0.0
  0
LINE
  5
E0
330
7C
100
AcDbEntity
  8
0
  6
Continuous
 62
   179
370
    18
100
AcDbLine
 10
6.4645062371
 20
2.9364593988
 30
0.0
 11
12.0532757459
 21
2.9364593988
 31
0.0
  0
LINE
  5
E1
330
7C
100
AcDbEntity
  8
0
  6
Continuous
 62
   179
370
    18
100
AcDbLine
 10
12.0532757459
 20
2.9364593988
 30
0.0
 11
12.0532757459
 21
16.1712617198
 31
0.0
  0
LINE
  5
E2
330
7C
100
AcDbEntity
  8
0
  6
Continuous
 62
   179
370
    18
100
AcDbLine
 10
12.0532757459
 20
16.1712617198
 30
0.0
 11
6.4645062371
 21
16.1712617198
 31
0.0
  0
LINE
  5
E3
330
7C
100
AcDbEntity
  8
0
  6
Continuous
 62
   179
370
    18
100
AcDbLine
 10
0.0
 20
16.1712617198
 30
0.0
 11
0.0
 21
2.9364593988
 31
0.0
  0
LINE
  5
E4
330
7C
100
AcDbEntity
  8
0
  6
Continuous
 62
   179
370
    18
100
AcDbLine
 10
0.0
 20
2.9364593988
 30
0.0
 11
5.5887695089
 21
2.9364593988
 31
0.0
  0
LINE
  5
E5
330
7C
100
AcDbEntity
  8
0
  6
Continuous
 62
   179
370
    18
100
AcDbLine
 10
5.5887695089
 20
2.9364593988
 30
0.0
 11
5.5887695089
 21
16.1712617198
 31
0.0
  0
LINE
  5
E6
330
7C
100
AcDbEntity
  8
0
  6
Continuous
 62
   179
370
    18
100
AcDbLine
 10
5.5887695089
 20
16.1712617198
 30
0.0
 11
0.0
 21
16.1712617198
 31
0.0
  0
LINE
  5
E7
330
7C
100
AcDbEntity
  8
0
  6
Continuous
 62
   179
370
    18
100
AcDbLine
 10
1.2591262606
 20
4.7264381407
 30
0.0
 11
4.3296432482
 21
4.7264381407
 31
0.0
  0
LINE
  5
E8
330
7C
100
AcDbEntity
  8
0
  6
Continuous
 62
   179
370
    18
100
AcDbLine
 10
4.3738223747
 20
4.0932862697
 30
0.0
 11
5.0758301722
 21
4.0932862697
 31
0.0
  0
LINE
  5
E9
330
7C
100
AcDbEntity
  8
0
  6
Continuous
 62
   179
370
    18
100
AcDbLine
 10
0.5129393366
 20
4.0932862697
 30
0.0
 11
1.2149471342
 21
4.0932862697
 31
0.0
  0
LINE
  5
EA
330
7C
100
AcDbEntity
  8
0
  6
Continuous
 62
   179
370
    18
100
AcDbLine
 10
4.1819643097
 20
5.4284381407
 30
0.0
 11
1.4068051992
 21
5.4284381407
 31
0.0
  0
LINE
  5
EB
330
7C
100
AcDbEntity
  8
0
  6
Continuous
 62
   179
370
    18
100
AcDbLine
 10
18.517781983
 20
16.1712617198
 30
0.0
 11
18.517781983
 21
2.9364593988
 31
0.0
  0
LINE
  5
EC
330
7C
100
AcDbEntity
  8
0
  6
Continuous
 62
   179
370
    18
100
AcDbLine
 10
18.517781983
 20
2.9364593988
 30
0.0
 11
12.9290124742
 21
2.9364593988
 31
0.0
  0
LINE
  5
ED
330
7C
100
AcDbEntity
  8
0
  6
Continuous
 62
   179
370
    18
100
AcDbLine
 10
12.9290124742
 20
2.9364593988
 30
0.0
 11
12.9290124742
 21
16.1712617198
 31
0.0
  0
LINE
  5
EE
330
7C
100
AcDbEntity
  8
0
  6
Continuous
 62
   179
370
    18
100
AcDbLine
 10
12.9290124742
 20
16.1712617198
 30
0.0
 11
18.517781983
 21
16.1712617198
 31
0.0
  0
INSERT
  5
F4
330
7C
100
AcDbEntity
  8
0
  6
Continuous
 62
     7
370
     0
100
AcDbBlockReference
  2
SW_NOTE_0
 10
1.8998941161
 20
-0.3226565443
 30
0.0
  0
INSERT
  5
F9
330
7C
100
AcDbEntity
  8
0
  6
Continuous
 62
     7
370
     0
100
AcDbBlockReference
  2
SW_NOTE_0_1
 10
28.8863479825
 20
12.079185406
 30
0.0
  0
INSERT
  5
101
330
7C
100
AcDbEntity
  8
0
  6
Continuous
 62
     7
370
     0
100
AcDbBlockReference
  2
SW_NOTE_0_2
 10
28.8863479825
 20
8.6365742194
 30
0.0
  0
ENDBLK
  5
7E
330
7C
100
AcDbEntity
  8
0
100
AcDbBlockEnd
  0
BLOCK
  5
F0
330
EF
100
AcDbEntity
  8
0
100
AcDbBlockBegin
  2
SW_NOTE_0
 70
     0
 10
0.0
 20
0.0
 30
0.0
  3
SW_NOTE_0
  1

  0
MTEXT
  5
F3
330
EF
100
AcDbEntity
  8
0
  6
Continuous
 62
     0
370
     0
100
AcDbMText
 10
7.46875
 20
2.5781354795
 30
0.0
 40
2.0
 41
0.0
 71
     2
 72
     1
  1
www.aco.ch
  7
SLDTEXTSTYLE0
 73
     1
 44
1.0
  0
ENDBLK
  5
F1
330
EF
100
AcDbEntity
  8
0
100
AcDbBlockEnd
  0
BLOCK
  5
F6
330
F5
100
AcDbEntity
  8
0
100
AcDbBlockBegin
  2
SW_NOTE_0_1
 70
     0
 10
0.0
 20
0.0
 30
0.0
  3
SW_NOTE_0_1
  1

  0
MTEXT
  5
F8
330
F5
100
AcDbEntity
  8
0
  6
Continuous
 62
     0
370
     0
100
AcDbMText
 10
0.0
 20
3.8672032193
 30
0.0
 40
3.0
 41
0.0
 71
     1
 72
     1
  1
ACO AG
  7
SLDTEXTSTYLE0
 73
     1
 44
1.0
  0
ENDBLK
  5
F7
330
F5
100
AcDbEntity
  8
0
100
AcDbBlockEnd
  0
BLOCK
  5
FB
330
FA
100
AcDbEntity
  8
0
100
AcDbBlockBegin
  2
SW_NOTE_0_2
 70
     0
 10
0.0
 20
0.0
 30
0.0
  3
SW_NOTE_0_2
  1

  0
MTEXT
  5
FD
330
FA
100
AcDbEntity
  8
0
  6
Continuous
 62
     0
370
     0
100
AcDbMText
 10
0.0
 20
2.5781354795
 30
0.0
 40
2.0
 41
0.0
 71
     1
 72
     1
  1
Industrie Kleinzaun
  7
SLDTEXTSTYLE0
 73
     1
 44
1.0
  0
MTEXT
  5
FE
330
FA
100
AcDbEntity
  8
0
  6
Continuous
 62
     0
370
     0
100
AcDbMText
 10
0.0
 20
-0.4218645465
 30
0.0
 40
2.0
 41
0.0
 71
     1
 72
     1
  1
CH-8754 Netstal
  7
SLDTEXTSTYLE0
 73
     1
 44
1.0
  0
MTEXT
  5
FF
330
FA
100
AcDbEntity
  8
0
  6
Continuous
 62
     0
370
     0
100
AcDbMText
 10
0.0
 20
-3.4218645726
 30
0.0
 40
2.0
 41
0.0
 71
     1
 72
     1
  1
Tel. 055 / 645 53 00
  7
SLDTEXTSTYLE0
 73
     1
 44
1.0
  0
MTEXT
  5
100
330
FA
100
AcDbEntity
  8
0
  6
Continuous
 62
     0
370
     0
100
AcDbMText
 10
0.0
 20
-6.4218645987
 30
0.0
 40
2.0
 41
0.0
 71
     1
 72
     1
  1
E-Mail: aco@aco.ch
  7
SLDTEXTSTYLE0
 73
     1
 44
1.0
  0
ENDBLK
  5
FC
330
FA
100
AcDbEntity
  8
0
100
AcDbBlockEnd
  0
BLOCK
  5
17B
330
17A
100
AcDbEntity
  8
0
100
AcDbBlockBegin
  2
SW_NOTE_0_3
 70
     0
 10
0.0
 20
0.0
 30
0.0
  3
SW_NOTE_0_3
  1

  0
MTEXT
  5
17D
330
17A
100
AcDbEntity
  8
0
  6
Continuous
 62
     0
370
     0
100
AcDbMText
 10
0.0
 20
1.9336016097
 30
0.0
 40
1.5
 41
0.0
 71
     1
 72
     1
  1
Diese Zeichnung darf weder kopiert
  7
SLDTEXTSTYLE0
 73
     1
 44
1.0
  0
MTEXT
  5
17E
330
17A
100
AcDbEntity
  8
0
  6
Continuous
 62
     0
370
     0
100
AcDbMText
 10
0.0
 20
-0.5663983345
 30
0.0
 40
1.5
 41
0.0
 71
     1
 72
     1
  1
noch dritten Personen, insbesondere
  7
SLDTEXTSTYLE0
 73
     1
 44
1.0
  0
MTEXT
  5
17F
330
17A
100
AcDbEntity
  8
0
  6
Continuous
 62
     0
370
     0
100
AcDbMText
 10
0.0
 20
-3.0663982786
 30
0.0
 40
1.5
 41
0.0
 71
     1
 72
     1
  1
zum Zweck anderweitiger Benutzung
  7
SLDTEXTSTYLE0
 73
     1
 44
1.0
  0
MTEXT
  5
180
330
17A
100
AcDbEntity
  8
0
  6
Continuous
 62
     0
370
     0
100
AcDbMText
 10
0.0
 20
-5.5663982227
 30
0.0
 40
1.5
 41
0.0
 71
     1
 72
     1
  1
mitgeteilt werden und bleibt unser
  7
SLDTEXTSTYLE0
 73
     1
 44
1.0
  0
MTEXT
  5
181
330
17A
100
AcDbEntity
  8
0
  6
Continuous
 62
     0
370
     0
100
AcDbMText
 10
0.0
 20
-8.0663981668
 30
0.0
 40
1.5
 41
0.0
 71
     1
 72
     1
  1
Eigentum.
  7
SLDTEXTSTYLE0
 73
     1
 44
1.0
  0
ENDBLK
  5
17C
330
17A
100
AcDbEntity
  8
0
100
AcDbBlockEnd
  0
BLOCK
  5
341
330
340
100
AcDbEntity
  8
0
100
AcDbBlockBegin
  2
_D
 70
     0
 10
0.0
 20
0.0
 30
0.0
  3
_D
  1

  0
SOLID
  5
343
330
340
100
AcDbEntity
  8
0
  6
Continuous
 62
     7
370
    18
100
AcDbTrace
 10
82.3023445193
 20
261.7015763547
 30
0.0
 11
84.5023445193
 21
261.3765763547
 31
0.0
 12
84.5023445193
 22
262.0265763547
 32
0.0
 13
84.5023445193
 23
262.0265763547
 33
0.0
  0
SOLID
  5
344
330
340
100
AcDbEntity
  8
0
  6
Continuous
 62
     7
370
    18
100
AcDbTrace
 10
192.3023445193
 20
261.7015763547
 30
0.0
 11
190.1023445193
 21
262.0265763547
 31
0.0
 12
190.1023445193
 22
261.3765763547
 32
0.0
 13
190.1023445193
 23
261.3765763547
 33
0.0
  0
LINE
  5
345
330
340
100
AcDbEntity
  8
0
  6
Continuous
 62
     7
370
     0
100
AcDbLine
 10
82.3023445193
 20
255.0015763547
 30
0.0
 11
82.3023445193
 21
262.7015763547
 31
0.0
  0
LINE
  5
346
330
340
100
AcDbEntity
  8
0
  6
Continuous
 62
     7
370
     0
100
AcDbLine
 10
192.3023445193
 20
255.0015763547
 30
0.0
 11
192.3023445193
 21
262.7015763547
 31
0.0
  0
LINE
  5
347
330
340
100
AcDbEntity
  8
0
  6
Continuous
 62
     7
370
     0
100
AcDbLine
 10
82.3023445193
 20
261.7015763547
 30
0.0
 11
192.3023445193
 21
261.7015763547
 31
0.0
  0
MTEXT
  5
348
330
340
100
AcDbEntity
  8
0
  6
Continuous
 62
     7
370
    18
100
AcDbMText
 10
132.4890100804
 20
265.1122346913
 30
0.0
 40
2.6458333333
 41
0.0
 71
     1
 72
     1
  1
%%c
  7
SLDTEXTSTYLE0
 73
     1
 44
1.0
  0
MTEXT
  5
349
330
340
100
AcDbEntity
  8
0
  6
Continuous
 62
     7
370
    18
100
AcDbMText
 10
136.2360490893
 20
265.1122346913
 30
0.0
 40
2.6458333333
 41
0.0
 71
     1
 72
     1
  1
110
  7
SLDTEXTSTYLE0
 73
     1
 44
1.0
  0
ENDBLK
  5
342
330
340
100
AcDbEntity
  8
0
100
AcDbBlockEnd
  0
BLOCK
  5
34D
330
34C
100
AcDbEntity
  8
0
100
AcDbBlockBegin
  2
_D_1
 70
     0
 10
0.0
 20
0.0
 30
0.0
  3
_D_1
  1

  0
SOLID
  5
34F
330
34C
100
AcDbEntity
  8
0
  6
Continuous
 62
     7
370
    18
100
AcDbTrace
 10
212.4916484465
 20
158.2015763547
 30
0.0
 11
212.8166484465
 21
160.4015763547
 31
0.0
 12
212.1666484465
 22
160.4015763547
 32
0.0
 13
212.1666484465
 23
160.4015763547
 33
0.0
  0
SOLID
  5
350
330
34C
100
AcDbEntity
  8
0
  6
Continuous
 62
     7
370
    18
100
AcDbTrace
 10
212.4916484465
 20
254.7015763547
 30
0.0
 11
212.1666484465
 21
252.5015763547
 31
0.0
 12
212.8166484465
 22
252.5015763547
 32
0.0
 13
212.8166484465
 23
252.5015763547
 33
0.0
  0
LINE
  5
351
330
34C
100
AcDbEntity
  8
0
  6
Continuous
 62
     7
370
     0
100
AcDbLine
 10
191.5305477496
 20
158.2015763547
 30
0.0
 11
213.4916484465
 21
158.2015763547
 31
0.0
  0
LINE
  5
352
330
34C
100
AcDbEntity
  8
0
  6
Continuous
 62
     7
370
     0
100
AcDbLine
 10
192.6023445193
 20
254.7015763547
 30
0.0
 11
213.4916484465
 21
254.7015763547
 31
0.0
  0
LINE
  5
353
330
34C
100
AcDbEntity
  8
0
  6
Continuous
 62
     7
370
     0
100
AcDbLine
 10
212.4916484465
 20
158.2015763547
 30
0.0
 11
212.4916484465
 21
254.7015763547
 31
0.0
  0
MTEXT
  5
354
330
34C
100
AcDbEntity
  8
0
  6
Continuous
 62
     7
370
    18
100
AcDbMText
 10
209.080989877
 20
203.021792148
 30
0.0
 40
2.6458333333
 41
0.0
 71
     1
 72
     1
  1
96.5
  7
SLDTEXTSTYLE0
 11
6.123233995736766E-17
 21
1.0
 31
0.0
 73
     1
 44
1.0
  0
ENDBLK
  5
34E
330
34C
100
AcDbEntity
  8
0
100
AcDbBlockEnd
  0
BLOCK
  5
357
330
356
100
AcDbEntity
  8
0
100
AcDbBlockBegin
  2
_D_2
 70
     0
 10
0.0
 20
0.0
 30
0.0
  3
_D_2
  1

  0
SOLID
  5
359
330
356
100
AcDbEntity
  8
0
  6
Continuous
 62
     7
370
    18
100
AcDbTrace
 10
201.9806872934
 20
254.7015763547
 30
0.0
 11
201.6556872934
 21
252.5015763547
 31
0.0
 12
202.3056872934
 22
252.5015763547
 32
0.0
 13
202.3056872934
 23
252.5015763547
 33
0.0
  0
SOLID
  5
35A
330
356
100
AcDbEntity
  8
0
  6
Continuous
 62
     7
370
    18
100
AcDbTrace
 10
201.9806872934
 20
244.7015763547
 30
0.0
 11
202.3056872934
 21
246.9015763547
 31
0.0
 12
201.6556872934
 22
246.9015763547
 32
0.0
 13
201.6556872934
 23
246.9015763547
 33
0.0
  0
LINE
  5
35B
330
356
100
AcDbEntity
  8
0
  6
Continuous
 62
     7
370
     0
100
AcDbLine
 10
192.6023445193
 20
254.7015763547
 30
0.0
 11
202.9806872934
 21
254.7015763547
 31
0.0
  0
LINE
  5
35C
330
356
100
AcDbEntity
  8
0
  6
Continuous
 62
     7
370
     0
100
AcDbLine
 10
191.0023445193
 20
244.7015763547
 30
0.0
 11
202.9806872934
 21
244.7015763547
 31
0.0
  0
LINE
  5
35D
330
356
100
AcDbEntity
  8
0
  6
Continuous
 62
     7
370
     0
100
AcDbLine
 10
201.9806872934
 20
254.7015763547
 30
0.0
 11
201.9806872934
 21
244.7015763547
 31
0.0
  0
MTEXT
  5
35E
330
356
100
AcDbEntity
  8
0
  6
Continuous
 62
     7
370
    18
100
AcDbMText
 10
198.570028724
 20
247.7416997317
 30
0.0
 40
2.6458333333
 41
0.0
 71
     1
 72
     1
  1
10
  7
SLDTEXTSTYLE0
 11
-7.044195017643634E-15
 21
1.0
 31
0.0
 73
     1
 44
1.0
  0
ENDBLK
  5
358
330
356
100
AcDbEntity
  8
0
100
AcDbBlockEnd
  0
BLOCK
  5
362
330
361
100
AcDbEntity
  8
0
100
AcDbBlockBegin
  2
_D_3
 70
     0
 10
0.0
 20
0.0
 30
0.0
  3
_D_3
  1

  0
SOLID
  5
364
330
361
100
AcDbEntity
  8
0
  6
Continuous
 62
     7
370
    18
100
AcDbTrace
 10
190.8023445193
 20
231.8233141274
 30
0.0
 11
188.6023445193
 21
232.1483141274
 31
0.0
 12
188.6023445193
 22
231.4983141274
 32
0.0
 13
188.6023445193
 23
231.4983141274
 33
0.0
  0
SOLID
  5
365
330
361
100
AcDbEntity
  8
0
  6
Continuous
 62
     7
370
    18
100
AcDbTrace
 10
192.3023445193
 20
231.8233141274
 30
0.0
 11
194.5023445193
 21
231.4983141274
 31
0.0
 12
194.5023445193
 22
232.1483141274
 32
0.0
 13
194.5023445193
 23
232.1483141274
 33
0.0
  0
LINE
  5
366
330
361
100
AcDbEntity
  8
0
  6
Continuous
 62
     7
370
     0
100
AcDbLine
 10
190.8023445193
 20
231.8233141274
 30
0.0
 11
186.4023445193
 21
231.8233141274
 31
0.0
  0
LINE
  5
367
330
361
100
AcDbEntity
  8
0
  6
Continuous
 62
     7
370
     0
100
AcDbLine
 10
190.8023445193
 20
231.8233141274
 30
0.0
 11
192.3023445193
 21
231.8233141274
 31
0.0
  0
LINE
  5
368
330
361
100
AcDbEntity
  8
0
  6
Continuous
 62
     7
370
     0
100
AcDbLine
 10
192.3023445193
 20
231.8233141274
 30
0.0
 11
199.7528299087
 21
231.8233141274
 31
0.0
  0
MTEXT
  5
369
330
361
100
AcDbEntity
  8
0
  6
Continuous
 62
     7
370
    18
100
AcDbMText
 10
194.8531381183
 20
235.2339726969
 30
0.0
 40
2.6458333333
 41
0.0
 71
     1
 72
     1
  1
1.5
  7
SLDTEXTSTYLE0
 73
     1
 44
1.0
  0
ENDBLK
  5
363
330
361
100
AcDbEntity
  8
0
100
AcDbBlockEnd
  0
ENDSEC
  0
SECTION
  2
ENTITIES
  0
LINE
  5
102
330
1F
100
AcDbEntity
  8
LINIEN-DÜNN
  6
CENTERX2
100
AcDbLine
 10
352.6174545849
 20
46.9080238789
 30
0.0
 11
352.6174545849
 21
39.4621586124
 31
0.0
  0
LINE
  5
103
330
1F
100
AcDbEntity
  8
LINIEN-DÜNN
100
AcDbLine
 10
357.7661698132
 20
46.3720107039
 30
0.0
 11
357.7661698132
 21
39.9353173413
 31
0.0
  0
LINE
  5
104
330
1F
100
AcDbEntity
  8
LINIEN-DÜNN
100
AcDbLine
 10
364.6059427486
 20
44.7376225767
 30
0.0
 11
364.6059427486
 21
41.5697054685
 31
0.0
  0
LINE
  5
105
330
1F
100
AcDbEntity
  8
LINIEN-DÜNN
100
AcDbLine
 10
364.6059427486
 20
44.7376225767
 30
0.0
 11
357.7661698132
 21
46.3720107039
 31
0.0
  0
LINE
  5
106
330
1F
100
AcDbEntity
  8
LINIEN-DÜNN
100
AcDbLine
 10
15.0
 20
198.5
 30
0.0
 11
20.0
 21
198.5
 31
0.0
  0
LINE
  5
107
330
1F
100
AcDbEntity
  8
LINIEN-DÜNN
100
AcDbLine
 10
12.0
 20
148.5
 30
0.0
 11
0.0
 21
148.5
 31
0.0
  0
LINE
  5
108
330
1F
100
AcDbEntity
  8
LINIEN-DÜNN
100
AcDbLine
 10
357.7661698132
 20
39.9353173413
 30
0.0
 11
364.6059427486
 21
41.5697054685
 31
0.0
  0
LINE
  5
109
330
1F
100
AcDbEntity
  8
LINIEN-DÜNN
  6
CENTERX2
100
AcDbLine
 10
348.6240467841
 20
43.1536640226
 30
0.0
 11
356.6108623857
 21
43.1536640226
 31
0.0
  0
LINE
  5
10A
330
1F
100
AcDbEntity
  8
LINIEN-DÜNN
  6
CENTERX2
100
AcDbLine
 10
357.1289238876
 20
43.1536640226
 30
0.0
 11
365.6255362296
 21
43.1536640226
 31
0.0
  0
LINE
  5
10B
330
1F
100
AcDbEntity
  8
LINIEN-DÜNN
100
AcDbLine
 10
0.0
 20
0.0
 30
0.0
 11
420.0
 21
0.0
 31
0.0
  0
LINE
  5
10C
330
1F
100
AcDbEntity
  8
LINIEN-DÜNN
100
AcDbLine
 10
0.0
 20
0.0
 30
0.0
 11
0.0
 21
297.0
 31
0.0
  0
LINE
  5
10D
330
1F
100
AcDbEntity
  8
LINIEN-DÜNN
100
AcDbLine
 10
0.0
 20
297.0
 30
0.0
 11
420.0
 21
297.0
 31
0.0
  0
LINE
  5
10E
330
1F
100
AcDbEntity
  8
LINIEN-DÜNN
100
AcDbLine
 10
420.0
 20
0.0
 30
0.0
 11
420.0
 21
297.0
 31
0.0
  0
LINE
  5
10F
330
1F
100
AcDbEntity
  8
LINIEN-NORMAL
100
AcDbLine
 10
228.0
 20
35.0
 30
0.0
 11
410.0
 21
35.0
 31
0.0
  0
LINE
  5
110
330
1F
100
AcDbEntity
  8
LINIEN-DÜNN
100
AcDbLine
 10
410.0
 20
198.5
 30
0.0
 11
415.0
 21
198.5
 31
0.0
  0
LINE
  5
111
330
1F
100
AcDbEntity
  8
LINIEN-DÜNN
100
AcDbLine
 10
15.0
 20
148.5
 30
0.0
 11
20.0
 21
148.5
 31
0.0
  0
LINE
  5
112
330
1F
100
AcDbEntity
  8
LINIEN-DÜNN
100
AcDbLine
 10
228.0
 20
40.0
 30
0.0
 11
296.6
 21
40.0
 31
0.0
  0
LINE
  5
113
330
1F
100
AcDbEntity
  8
LINIEN-DÜNN
100
AcDbLine
 10
15.0
 20
248.5
 30
0.0
 11
20.0
 21
248.5
 31
0.0
  0
LINE
  5
114
330
1F
100
AcDbEntity
  8
LINIEN-DICK
100
AcDbLine
 10
20.0
 20
287.0
 30
0.0
 11
20.0
 21
10.0
 31
0.0
  0
LINE
  5
115
330
1F
100
AcDbEntity
  8
LINIEN-DICK
100
AcDbLine
 10
410.0
 20
287.0
 30
0.0
 11
20.0
 21
287.0
 31
0.0
  0
LINE
  5
116
330
1F
100
AcDbEntity
  8
LINIEN-DICK
100
AcDbLine
 10
410.0
 20
5.0
 30
0.0
 11
410.0
 21
287.0
 31
0.0
  0
LINE
  5
117
330
1F
100
AcDbEntity
  8
LINIEN-DICK
100
AcDbLine
 10
20.0
 20
10.0
 30
0.0
 11
415.0
 21
10.0
 31
0.0
  0
LINE
  5
118
330
1F
100
AcDbEntity
  8
LINIEN-DÜNN
100
AcDbLine
 10
410.0
 20
148.5
 30
0.0
 11
415.0
 21
148.5
 31
0.0
  0
LINE
  5
119
330
1F
100
AcDbEntity
  8
LINIEN-DÜNN
100
AcDbLine
 10
228.0
 20
50.0
 30
0.0
 11
296.6
 21
50.0
 31
0.0
  0
LINE
  5
11A
330
1F
100
AcDbEntity
  8
LINIEN-DÜNN
100
AcDbLine
 10
15.0
 20
98.5
 30
0.0
 11
20.0
 21
98.5
 31
0.0
  0
LINE
  5
11B
330
1F
100
AcDbEntity
  8
LINIEN-DÜNN
100
AcDbLine
 10
296.6
 20
45.0
 30
0.0
 11
228.0
 21
45.0
 31
0.0
  0
LINE
  5
11C
330
1F
100
AcDbEntity
  8
LINIEN-DÜNN
100
AcDbLine
 10
65.0
 20
292.0
 30
0.0
 11
65.0
 21
287.0
 31
0.0
  0
LINE
  5
11D
330
1F
100
AcDbEntity
  8
LINIEN-DÜNN
100
AcDbLine
 10
230.0
 20
292.0
 30
0.0
 11
230.0
 21
297.0
 31
0.0
  0
LINE
  5
11E
330
1F
100
AcDbEntity
  8
LINIEN-NORMAL
100
AcDbLine
 10
296.6
 20
55.0
 30
0.0
 11
296.6
 21
35.0
 31
0.0
  0
LINE
  5
11F
330
1F
100
AcDbEntity
  8
LINIEN-DÜNN
100
AcDbLine
 10
410.0
 20
98.5
 30
0.0
 11
415.0
 21
98.5
 31
0.0
  0
LINE
  5
120
330
1F
100
AcDbEntity
  8
VORLAGE_BEMASSUNG
100
AcDbLine
 10
230.0
 20
5.0
 30
0.0
 11
230.0
 21
0.0
 31
0.0
  0
LINE
  5
121
330
1F
100
AcDbEntity
  8
LINIEN-DÜNN
100
AcDbLine
 10
125.0
 20
292.0
 30
0.0
 11
125.0
 21
297.0
 31
0.0
  0
LINE
  5
122
330
1F
100
AcDbEntity
  8
LINIEN-DÜNN
100
AcDbLine
 10
125.0
 20
5.0
 30
0.0
 11
125.0
 21
0.0
 31
0.0
  0
LINE
  5
123
330
1F
100
AcDbEntity
  8
LINIEN-NORMAL
100
AcDbLine
 10
410.0
 20
55.0
 30
0.0
 11
228.0
 21
55.0
 31
0.0
  0
LINE
  5
124
330
1F
100
AcDbEntity
  8
LINIEN-DÜNN
100
AcDbLine
 10
228.0
 20
55.0
 30
0.0
 11
410.0
 21
55.0
 31
0.0
  0
LINE
  5
125
330
1F
100
AcDbEntity
  8
LINIEN-DÜNN
100
AcDbLine
 10
410.0
 20
55.0
 30
0.0
 11
228.0
 21
55.0
 31
0.0
  0
LINE
  5
126
330
1F
100
AcDbEntity
  8
LINIEN-DÜNN
100
AcDbLine
 10
268.0
 20
76.5
 30
0.0
 11
268.0
 21
55.0
 31
0.0
  0
LINE
  5
127
330
1F
100
AcDbEntity
  8
LINIEN-DÜNN
100
AcDbLine
 10
271.6
 20
55.0
 30
0.0
 11
271.6
 21
40.0
 31
0.0
  0
LINE
  5
128
330
1F
100
AcDbEntity
  8
LINIEN-DÜNN
100
AcDbLine
 10
247.0
 20
55.0
 30
0.0
 11
247.0
 21
35.0
 31
0.0
  0
LINE
  5
129
330
1F
100
AcDbEntity
  8
LINIEN-DICK
100
AcDbLine
 10
228.0
 20
76.5
 30
0.0
 11
228.0
 21
10.0
 31
0.0
  0
LINE
  5
12A
330
1F
100
AcDbEntity
  8
LINIEN-DÜNN
100
AcDbLine
 10
15.0
 20
292.0
 30
0.0
 11
415.0
 21
292.0
 31
0.0
  0
LINE
  5
12B
330
1F
100
AcDbEntity
  8
LINIEN-DÜNN
100
AcDbLine
 10
228.0
 20
65.75
 30
0.0
 11
310.0
 21
65.75
 31
0.0
  0
LINE
  5
12C
330
1F
100
AcDbEntity
  8
LINIEN-DICK
100
AcDbLine
 10
228.0
 20
76.5
 30
0.0
 11
410.0
 21
76.5
 31
0.0
  0
LINE
  5
12D
330
1F
100
AcDbEntity
  8
LINIEN-DÜNN
100
AcDbLine
 10
15.0
 20
48.5
 30
0.0
 11
20.0
 21
48.5
 31
0.0
  0
LINE
  5
12E
330
1F
100
AcDbEntity
  8
LINIEN-DÜNN
100
AcDbLine
 10
410.0
 20
48.5
 30
0.0
 11
415.0
 21
48.5
 31
0.0
  0
LINE
  5
12F
330
1F
100
AcDbEntity
  8
LINIEN-DÜNN
100
AcDbLine
 10
332.6610845472
 20
20.0
 30
0.0
 11
332.6610845472
 21
10.0
 31
0.0
  0
LINE
  5
130
330
1F
100
AcDbEntity
  8
LINIEN-DÜNN
100
AcDbLine
 10
410.0
 20
248.5
 30
0.0
 11
415.0
 21
248.5
 31
0.0
  0
LINE
  5
131
330
1F
100
AcDbEntity
  8
LINIEN-DÜNN
100
AcDbLine
 10
65.0
 20
10.0
 30
0.0
 11
65.0
 21
5.0
 31
0.0
  0
LINE
  5
132
330
1F
100
AcDbEntity
  8
LINIEN-DÜNN
100
AcDbLine
 10
115.0
 20
10.0
 30
0.0
 11
115.0
 21
5.0
 31
0.0
  0
LINE
  5
133
330
1F
100
AcDbEntity
  8
LINIEN-DÜNN
100
AcDbLine
 10
115.0
 20
292.0
 30
0.0
 11
115.0
 21
287.0
 31
0.0
  0
LINE
  5
134
330
1F
100
AcDbEntity
  8
LINIEN-DÜNN
100
AcDbLine
 10
165.0
 20
10.0
 30
0.0
 11
165.0
 21
5.0
 31
0.0
  0
LINE
  5
135
330
1F
100
AcDbEntity
  8
LINIEN-DÜNN
100
AcDbLine
 10
165.0
 20
292.0
 30
0.0
 11
165.0
 21
287.0
 31
0.0
  0
LINE
  5
136
330
1F
100
AcDbEntity
  8
LINIEN-DÜNN
100
AcDbLine
 10
215.0
 20
10.0
 30
0.0
 11
215.0
 21
5.0
 31
0.0
  0
LINE
  5
137
330
1F
100
AcDbEntity
  8
LINIEN-DÜNN
100
AcDbLine
 10
215.0
 20
292.0
 30
0.0
 11
215.0
 21
287.0
 31
0.0
  0
LINE
  5
138
330
1F
100
AcDbEntity
  8
LINIEN-DÜNN
100
AcDbLine
 10
265.0
 20
10.0
 30
0.0
 11
265.0
 21
5.0
 31
0.0
  0
LINE
  5
139
330
1F
100
AcDbEntity
  8
LINIEN-DÜNN
100
AcDbLine
 10
265.0
 20
292.0
 30
0.0
 11
265.0
 21
287.0
 31
0.0
  0
LINE
  5
13A
330
1F
100
AcDbEntity
  8
LINIEN-DÜNN
100
AcDbLine
 10
347.6610845472
 20
20.0
 30
0.0
 11
347.6610845472
 21
10.0
 31
0.0
  0
LINE
  5
13B
330
1F
100
AcDbEntity
  8
LINIEN-DÜNN
100
AcDbLine
 10
362.6610845472
 20
20.0
 30
0.0
 11
362.6610845472
 21
10.0
 31
0.0
  0
LINE
  5
13C
330
1F
100
AcDbEntity
  8
LINIEN-NORMAL
100
AcDbLine
 10
327.6610845472
 20
10.0
 30
0.0
 11
327.6610845472
 21
55.0
 31
0.0
  0
LINE
  5
13D
330
1F
100
AcDbEntity
  8
LINIEN-DÜNN
100
AcDbLine
 10
20.0
 20
292.0
 30
0.0
 11
20.0
 21
297.0
 31
0.0
  0
LINE
  5
13E
330
1F
100
AcDbEntity
  8
LINIEN-DÜNN
100
AcDbLine
 10
20.0
 20
5.0
 30
0.0
 11
20.0
 21
0.0
 31
0.0
  0
LINE
  5
13F
330
1F
100
AcDbEntity
  8
LINIEN-DÜNN
100
AcDbLine
 10
315.0
 20
10.0
 30
0.0
 11
315.0
 21
5.0
 31
0.0
  0
LINE
  5
140
330
1F
100
AcDbEntity
  8
LINIEN-DÜNN
100
AcDbLine
 10
315.0
 20
292.0
 30
0.0
 11
315.0
 21
287.0
 31
0.0
  0
LINE
  5
141
330
1F
100
AcDbEntity
  8
LINIEN-DÜNN
100
AcDbLine
 10
365.0
 20
10.0
 30
0.0
 11
365.0
 21
5.0
 31
0.0
  0
LINE
  5
142
330
1F
100
AcDbEntity
  8
LINIEN-DÜNN
100
AcDbLine
 10
365.0
 20
292.0
 30
0.0
 11
365.0
 21
287.0
 31
0.0
  0
LINE
  5
143
330
1F
100
AcDbEntity
  8
LINIEN-DÜNN
100
AcDbLine
 10
15.0
 20
292.0
 30
0.0
 11
15.0
 21
5.0
 31
0.0
  0
LINE
  5
144
330
1F
100
AcDbEntity
  8
LINIEN-DÜNN
100
AcDbLine
 10
15.0
 20
5.0
 30
0.0
 11
415.0
 21
5.0
 31
0.0
  0
LINE
  5
145
330
1F
100
AcDbEntity
  8
LINIEN-DÜNN
100
AcDbLine
 10
415.0
 20
292.0
 30
0.0
 11
415.0
 21
5.0
 31
0.0
  0
LINE
  5
146
330
1F
100
AcDbEntity
  8
LINIEN-DÜNN
100
AcDbLine
 10
347.6610845472
 20
44.213444
 30
0.0
 11
327.6610845472
 21
44.213444
 31
0.0
  0
LINE
  5
147
330
1F
100
AcDbEntity
  8
LINIEN-DÜNN
100
AcDbLine
 10
347.6610845472
 20
35.0
 30
0.0
 11
347.6610845472
 21
55.0
 31
0.0
  0
LINE
  5
148
330
1F
100
AcDbEntity
  8
LINIEN-DÜNN
100
AcDbLine
 10
370.057188
 20
55.012032
 30
0.0
 11
370.057188
 21
35.0
 31
0.0
  0
LINE
  5
149
330
1F
100
AcDbEntity
  8
LINIEN-DÜNN
100
AcDbLine
 10
398.0
 20
35.0
 30
0.0
 11
398.0
 21
20.0
 31
0.0
  0
LINE
  5
14A
330
1F
100
AcDbEntity
  8
LINIEN-DÜNN
100
AcDbLine
 10
410.0
 20
15.0
 30
0.0
 11
327.6610845472
 21
15.0
 31
0.0
  0
LINE
  5
14B
330
1F
100
AcDbEntity
  8
LINIEN-DÜNN
100
AcDbLine
 10
327.6610845472
 20
20.0
 30
0.0
 11
410.0
 21
20.0
 31
0.0
  0
LINE
  5
14C
330
1F
100
AcDbEntity
  8
LINIEN-DÜNN
100
AcDbLine
 10
341.485486
 20
20.0
 30
0.0
 11
341.485486
 21
27.564675
 31
0.0
  0
LINE
  5
14D
330
1F
100
AcDbEntity
  8
LINIEN-NORMAL
100
AcDbLine
 10
310.0
 20
76.5
 30
0.0
 11
310.0
 21
55.0
 31
0.0
  0
CIRCLE
  5
14E
330
1F
100
AcDbEntity
  8
LINIEN-DÜNN
100
AcDbCircle
 10
11.0
 20
108.5
 30
0.0
 40
2.750000000000001
  0
CIRCLE
  5
14F
330
1F
100
AcDbEntity
  8
LINIEN-DÜNN
100
AcDbCircle
 10
11.0
 20
188.5
 30
0.0
 40
2.750000000000001
  0
CIRCLE
  5
150
330
1F
100
AcDbEntity
  8
LINIEN-DÜNN
100
AcDbCircle
 10
352.6174545849
 20
43.1536640226
 30
0.0
 40
3.218346681300138
  0
CIRCLE
  5
151
330
1F
100
AcDbEntity
  8
LINIEN-DÜNN
100
AcDbCircle
 10
352.6174545849
 20
43.1536640226
 30
0.0
 40
1.583958554121555
  0
INSERT
  5
152
330
1F
100
AcDbEntity
  8
0
  6
Continuous
 62
     7
100
AcDbBlockReference
  2
ACO-Logo
 10
314.3510726297
 20
57.6366106772
 30
0.0
  0
POINT
  5
153
330
1F
100
AcDbEntity
  8
0
  6
Continuous
 62
     7
370
     0
100
AcDbPoint
 10
314.3510726297
 20
57.2426704952
 30
0.0
  0
POINT
  5
154
330
1F
100
AcDbEntity
  8
VORLAGE_BEMASSUNG
100
AcDbPoint
 10
0.0
 20
0.0
 30
0.0
  0
POINT
  5
155
330
1F
100
AcDbEntity
  8
VORLAGE_BEMASSUNG
100
AcDbPoint
 10
410.0
 20
10.0
 30
0.0
  0
MTEXT
  5
156
330
1F
100
AcDbEntity
  8
VORLAGE_TEXT
100
AcDbMText
 10
17.7359443114
 20
124.8017866468
 30
0.0
 40
2.0
 41
0.0
 71
     2
 72
     1
  1
D
  7
SLDTEXTSTYLE0
 73
     1
 44
1.0
  0
MTEXT
  5
157
330
1F
100
AcDbEntity
  8
VORLAGE_TEXT
100
AcDbMText
 10
17.6274822413
 20
174.7261854936
 30
0.0
 40
2.0
 41
0.0
 71
     2
 72
     1
  1
C
  7
SLDTEXTSTYLE0
 73
     1
 44
1.0
  0
MTEXT
  5
158
330
1F
100
AcDbEntity
  8
VORLAGE_TEXT
100
AcDbMText
 10
17.5516905072
 20
224.4926420442
 30
0.0
 40
2.0
 41
0.0
 71
     2
 72
     1
  1
B
  7
SLDTEXTSTYLE0
 73
     1
 44
1.0
  0
MTEXT
  5
159
330
1F
100
AcDbEntity
  8
VORLAGE_TEXT
100
AcDbMText
 10
290.0344258799
 20
290.5428789914
 30
0.0
 40
2.0
 41
0.0
 71
     2
 72
     1
  1
6
  7
SLDTEXTSTYLE0
 73
     1
 44
1.0
  0
MTEXT
  5
15A
330
1F
100
AcDbEntity
  8
VORLAGE_TEXT
100
AcDbMText
 10
240.0417859812
 20
290.6369260235
 30
0.0
 40
2.0
 41
0.0
 71
     2
 72
     1
  1
5
  7
SLDTEXTSTYLE0
 73
     1
 44
1.0
  0
MTEXT
  5
15B
330
1F
100
AcDbEntity
  8
VORLAGE_TEXT
100
AcDbMText
 10
190.0300404524
 20
290.6343268032
 30
0.0
 40
2.0
 41
0.0
 71
     2
 72
     1
  1
4
  7
SLDTEXTSTYLE0
 73
     1
 44
1.0
  0
MTEXT
  5
15C
330
1F
100
AcDbEntity
  8
VORLAGE_TEXT
100
AcDbMText
 10
140.0165868337
 20
290.6378887952
 30
0.0
 40
2.0
 41
0.0
 71
     2
 72
     1
  1
3
  7
SLDTEXTSTYLE0
 73
     1
 44
1.0
  0
MTEXT
  5
15D
330
1F
100
AcDbEntity
  8
VORLAGE_TEXT
100
AcDbMText
 10
90.033223
 20
290.5566702875
 30
0.0
 40
2.0
 41
0.0
 71
     2
 72
     1
  1
2
  7
SLDTEXTSTYLE0
 73
     1
 44
1.0
  0
MTEXT
  5
15E
330
1F
100
AcDbEntity
  8
VORLAGE_TEXT
100
AcDbMText
 10
40.0509551097
 20
290.5530165805
 30
0.0
 40
2.0
 41
0.0
 71
     2
 72
     1
  1
1
  7
SLDTEXTSTYLE0
 73
     1
 44
1.0
  0
MTEXT
  5
15F
330
1F
100
AcDbEntity
  8
VORLAGE_TEXT
100
AcDbMText
 10
17.5609786315
 20
271.2966048816
 30
0.0
 40
2.0
 41
0.0
 71
     2
 72
     1
  1
A
  7
SLDTEXTSTYLE0
 73
     1
 44
1.0
  0
MTEXT
  5
160
330
1F
100
AcDbEntity
  8
VORLAGE_TEXT
100
AcDbMText
 10
89.9333968896
 20
8.5904490253
 30
0.0
 40
2.0
 41
0.0
 71
     2
 72
     1
  1
2
  7
SLDTEXTSTYLE0
 73
     1
 44
1.0
  0
MTEXT
  5
161
330
1F
100
AcDbEntity
  8
VORLAGE_TEXT
100
AcDbMText
 10
39.9009486579
 20
8.6623118453
 30
0.0
 40
2.0
 41
0.0
 71
     2
 72
     1
  1
1
  7
SLDTEXTSTYLE0
 73
     1
 44
1.0
  0
MTEXT
  5
162
330
1F
100
AcDbEntity
  8
VORLAGE_TEXT
100
AcDbMText
 10
190.0227230239
 20
8.7073169286
 30
0.0
 40
2.0
 41
0.0
 71
     2
 72
     1
  1
4
  7
SLDTEXTSTYLE0
 73
     1
 44
1.0
  0
MTEXT
  5
163
330
1F
100
AcDbEntity
  8
VORLAGE_TEXT
100
AcDbMText
 10
140.0453427777
 20
8.5647154541
 30
0.0
 40
2.0
 41
0.0
 71
     2
 72
     1
  1
3
  7
SLDTEXTSTYLE0
 73
     1
 44
1.0
  0
MTEXT
  5
164
330
1F
100
AcDbEntity
  8
VORLAGE_TEXT
100
AcDbMText
 10
239.8749782531
 20
8.5637526825
 30
0.0
 40
2.0
 41
0.0
 71
     2
 72
     1
  1
5
  7
SLDTEXTSTYLE0
 73
     1
 44
1.0
  0
MTEXT
  5
165
330
1F
100
AcDbEntity
  8
VORLAGE_TEXT
100
AcDbMText
 10
412.6717254925
 20
224.51208263
 30
0.0
 40
2.0
 41
0.0
 71
     2
 72
     1
  1
B
  7
SLDTEXTSTYLE0
 73
     1
 44
1.0
  0
MTEXT
  5
166
330
1F
100
AcDbEntity
  8
VORLAGE_TEXT
100
AcDbMText
 10
412.5951211154
 20
271.2798202564
 30
0.0
 40
2.0
 41
0.0
 71
     2
 72
     1
  1
A
  7
SLDTEXTSTYLE0
 73
     1
 44
1.0
  0
MTEXT
  5
167
330
1F
100
AcDbEntity
  8
VORLAGE_TEXT
100
AcDbMText
 10
412.6491448679
 20
174.7279841048
 30
0.0
 40
2.0
 41
0.0
 71
     2
 72
     1
  1
C
  7
SLDTEXTSTYLE0
 73
     1
 44
1.0
  0
MTEXT
  5
168
330
1F
100
AcDbEntity
  8
VORLAGE_TEXT
100
AcDbMText
 10
340.0216466634
 20
290.5954278102
 30
0.0
 40
2.0
 41
0.0
 71
     2
 72
     1
  1
7
  7
SLDTEXTSTYLE0
 73
     1
 44
1.0
  0
MTEXT
  5
169
330
1F
100
AcDbEntity
  8
VORLAGE_TEXT
100
AcDbMText
 10
390.037657264
 20
290.6215496941
 30
0.0
 40
2.0
 41
0.0
 71
     2
 72
     1
  1
8
  7
SLDTEXTSTYLE0
 73
     1
 44
1.0
  0
MTEXT
  5
16A
330
1F
100
AcDbEntity
  8
VORLAGE_TEXT
100
AcDbMText
 10
17.6897935208
 20
74.7267628143
 30
0.0
 40
2.0
 41
0.0
 71
     2
 72
     1
  1
E
  7
SLDTEXTSTYLE0
 73
     1
 44
1.0
  0
MTEXT
  5
16B
330
1F
100
AcDbEntity
  8
VORLAGE_TEXT
100
AcDbMText
 10
17.5936930126
 20
27.773321616
 30
0.0
 40
2.0
 41
0.0
 71
     2
 72
     1
  1
F
  7
SLDTEXTSTYLE0
 73
     1
 44
1.0
  0
MTEXT
  5
16C
330
1F
100
AcDbEntity
  8
VORLAGE_TEXT
100
AcDbMText
 10
339.8003474583
 20
8.7205095051
 30
0.0
 40
2.0
 41
0.0
 71
     2
 72
     1
  1
7
  7
SLDTEXTSTYLE0
 73
     1
 44
1.0
  0
MTEXT
  5
16D
330
1F
100
AcDbEntity
  8
VORLAGE_TEXT
100
AcDbMText
 10
289.7886477179
 20
8.6884673623
 30
0.0
 40
2.0
 41
0.0
 71
     2
 72
     1
  1
6
  7
SLDTEXTSTYLE0
 73
     1
 44
1.0
  0
MTEXT
  5
16E
330
1F
100
AcDbEntity
  8
VORLAGE_TEXT
100
AcDbMText
 10
412.5160699095
 20
74.5096307526
 30
0.0
 40
2.0
 41
0.0
 71
     2
 72
     1
  1
E
  7
SLDTEXTSTYLE0
 73
     1
 44
1.0
  0
MTEXT
  5
16F
330
1F
100
AcDbEntity
  8
VORLAGE_TEXT
100
AcDbMText
 10
412.6234021365
 20
124.4517683275
 30
0.0
 40
2.0
 41
0.0
 71
     2
 72
     1
  1
D
  7
SLDTEXTSTYLE0
 73
     1
 44
1.0
  0
MTEXT
  5
170
330
1F
100
AcDbEntity
  8
TEXT-DEUTSCH
100
AcDbMText
 10
411.7952690469
 20
41.8489121823
 30
0.0
 40
1.8
 41
0.0
 71
     3
 72
     1
  1
Plotdatum: 04.10.2023
  7
SLDTEXTSTYLE0
 11
-3.269436733918102E-15
 21
1.0
 31
0.0
 73
     1
 44
1.0
  0
MTEXT
  5
171
330
1F
100
AcDbEntity
  8
VORLAGE_TEXT
100
AcDbMText
 10
412.557933251
 20
8.2549718046
 30
0.0
 40
1.8
 41
0.0
 71
     2
 72
     1
  1
A3
  7
SLDTEXTSTYLE0
 73
     1
 44
1.0
  0
MTEXT
  5
172
330
1F
100
AcDbEntity
  8
VORLAGE_TEXT
100
AcDbMText
 10
390.594604279
 20
8.3847467643
 30
0.0
 40
1.8
 41
0.0
 71
     2
 72
     1
  1
CAD-System: SolidWorks
  7
SLDTEXTSTYLE0
 73
     1
 44
1.0
  0
MTEXT
  5
173
330
1F
100
AcDbEntity
  8
TEXT
100
AcDbMText
 10
404.0541923444
 20
28.4394692021
 30
0.0
 40
5.0
 41
0.0
 71
     2
 72
     1
  1
-
  7
SLDTEXTSTYLE0
 73
     1
 44
1.0
  0
MTEXT
  5
174
330
1F
100
AcDbEntity
  8
TEXT
100
AcDbMText
 10
249.556836311
 20
38.5581729516
 30
0.0
 40
2.0
 41
0.0
 71
     1
 72
     1
  1
Freigegeben
  7
SLDTEXTSTYLE0
 73
     1
 44
1.0
  0
MTEXT
  5
175
330
1F
100
AcDbEntity
  8
TEXT
100
AcDbMText
 10
284.1136255556
 20
43.5473338598
 30
0.0
 40
2.0
 41
0.0
 71
     2
 72
     1
  1
bae
  7
SLDTEXTSTYLE0
 73
     1
 44
1.0
  0
MTEXT
  5
176
330
1F
100
AcDbEntity
  8
TEXT
100
AcDbMText
 10
249.5284668163
 20
43.5603133928
 30
0.0
 40
2.0
 41
0.0
 71
     1
 72
     1
  1
04.10.2023
  7
SLDTEXTSTYLE0
 73
     1
 44
1.0
  0
MTEXT
  5
177
330
1F
100
AcDbEntity
  8
TEXT
100
AcDbMText
 10
284.1413255212
 20
48.5138972561
 30
0.0
 40
2.0
 41
0.0
 71
     2
 72
     1
  1
bae
  7
SLDTEXTSTYLE0
 73
     1
 44
1.0
  0
MTEXT
  5
178
330
1F
100
AcDbEntity
  8
TEXT
100
AcDbMText
 10
249.5284668163
 20
48.4989062069
 30
0.0
 40
2.0
 41
0.0
 71
     1
 72
     1
  1
04.10.2023
  7
SLDTEXTSTYLE0
 73
     1
 44
1.0
  0
MTEXT
  5
179
330
1F
100
AcDbEntity
  8
0
  6
Continuous
 62
     7
370
     0
100
AcDbMText
 10
372.1784386186
 20
38.8723054925
 30
0.0
 40
1.5
 41
0.0
 71
     1
 72
     1
  1
Copyright reserved! © ACO AG
  7
SLDTEXTSTYLE0
 73
     1
 44
1.0
  0
INSERT
  5
182
330
1F
100
AcDbEntity
  8
0
  6
Continuous
 62
     7
370
     0
100
AcDbBlockReference
  2
SW_NOTE_0_3
 10
372.2203831445
 20
51.2202922854
 30
0.0
  0
MTEXT
  5
183
330
1F
100
AcDbEntity
  8
TEXT
100
AcDbMText
 10
364.9468572407
 20
18.4594173137
 30
0.0
 40
2.0
 41
0.0
 71
     1
 72
     1
  1
Erstausgabe
  7
SLDTEXTSTYLE0
 73
     1
 44
1.0
  0
MTEXT
  5
184
330
1F
100
AcDbEntity
  8
TEXT
100
AcDbMText
 10
330.2607505021
 20
18.524501801
 30
0.0
 40
2.0
 41
0.0
 71
     2
 72
     1
  1
-
  7
SLDTEXTSTYLE0
 73
     1
 44
1.0
  0
MTEXT
  5
185
330
1F
100
AcDbEntity
  8
VORLAGE_TEXT
100
AcDbMText
 10
311.764909851
 20
46.3490312465
 30
0.0
 40
5.0
 41
0.0
 71
     2
 72
     1
  1
1:1
  7
SLDTEXTSTYLE0
 73
     1
 44
1.0
  0
MTEXT
  5
186
330
1F
100
AcDbEntity
  8
VORLAGE_TEXT
100
AcDbMText
 10
230.1851195342
 20
38.7793829468
 30
0.0
 40
2.0
 41
0.0
 71
     1
 72
     1
  1
Status:
  7
SLDTEXTSTYLE0
 73
     1
 44
1.0
  0
MTEXT
  5
187
330
1F
100
AcDbEntity
  8
TEXT
100
AcDbMText
 10
344.926838705
 20
28.2772828851
 30
0.0
 40
5.0
 41
0.0
 71
     1
 72
     1
  1
201790
  7
SLDTEXTSTYLE0
 73
     1
 44
1.0
  0
MTEXT
  5
188
330
1F
100
AcDbEntity
  8
TEXT
100
AcDbMText
 10
231.1132118803
 20
14.9211049657
 30
0.0
 40
2.5
 41
0.0
 71
     1
 72
     1
  1
Art. Nr.: 2090473
  7
SLDTEXTSTYLE0
 73
     1
 44
1.0
  0
MTEXT
  5
189
330
1F
100
AcDbEntity
  8
TEXT
100
AcDbMText
 10
231.1475981734
 20
21.4529560996
 30
0.0
 40
2.5
 41
0.0
 71
     1
 72
     1
  1
zu Kastenrinne
  7
SLDTEXTSTYLE0
 73
     1
 44
1.0
  0
MTEXT
  5
18A
330
1F
100
AcDbEntity
  8
TEXT
100
AcDbMText
 10
231.1159560181
 20
33.0904969858
 30
0.0
 40
2.5
 41
0.0
 71
     1
 72
     1
  1
ACO-Standard
  7
SLDTEXTSTYLE0
 73
     1
 44
1.0
  0
MTEXT
  5
18B
330
1F
100
AcDbEntity
  8
TEXT
100
AcDbMText
 10
231.1475981734
 20
28.0307932366
 30
0.0
 40
3.5
 41
0.0
 71
     1
 72
     1
  1
Ablauf DN100 mit GV
  7
SLDTEXTSTYLE0
 73
     1
 44
1.0
  0
MTEXT
  5
18C
330
1F
100
AcDbEntity
  8
VORLAGE_TEXT
100
AcDbMText
 10
348.2746465368
 20
53.819119072
 30
0.0
 40
2.0
 41
0.0
 71
     1
 72
     1
  1
Projektion: ISO-E
  7
SLDTEXTSTYLE0
 73
     1
 44
1.0
  0
MTEXT
  5
18D
330
1F
100
AcDbEntity
  8
TEXT
100
AcDbMText
 10
337.7677091855
 20
49.3670227094
 30
0.0
 40
2.5
 41
0.0
 71
     2
 72
     1
  1
Millimeter
  7
SLDTEXTSTYLE0
 73
     1
 44
1.0
  0
MTEXT
  5
18E
330
1F
100
AcDbEntity
  8
VORLAGE_TEXT
100
AcDbMText
 10
337.6323777421
 20
53.855374072
 30
0.0
 40
2.0
 41
0.0
 71
     2
 72
     1
  1
Masseinheit:
  7
SLDTEXTSTYLE0
 73
     1
 44
1.0
  0
MTEXT
  5
18F
330
1F
100
AcDbEntity
  8
VORLAGE_TEXT
100
AcDbMText
 10
337.6114490186
 20
43.5452078816
 30
0.0
 40
2.0
 41
0.0
 71
     2
 72
     1
  1
Blatt / Anz.:
  7
SLDTEXTSTYLE0
 73
     1
 44
1.0
  0
MTEXT
  5
190
330
1F
100
AcDbEntity
  8
VORLAGE_TEXT
100
AcDbMText
 10
329.2895578243
 20
28.4139191092
 30
0.0
 40
5.0
 41
0.0
 71
     1
 72
     1
  1
CH
  7
SLDTEXTSTYLE0
 73
     1
 44
1.0
  0
MTEXT
  5
191
330
1F
100
AcDbEntity
  8
VORLAGE_TEXT
100
AcDbMText
 10
330.40704
 20
33.692638072
 30
0.0
 40
2.0
 41
0.0
 71
     1
 72
     1
  1
Zeichnung Nr.:
  7
SLDTEXTSTYLE0
 73
     1
 44
1.0
  0
MTEXT
  5
192
330
1F
100
AcDbEntity
  8
VORLAGE_TEXT
100
AcDbMText
 10
269.897953
 20
75.161075072
 30
0.0
 40
2.0
 41
0.0
 71
     1
 72
     1
  1
Gewicht:
  7
SLDTEXTSTYLE0
 73
     1
 44
1.0
  0
MTEXT
  5
193
330
1F
100
AcDbEntity
  8
VORLAGE_TEXT
100
AcDbMText
 10
230.0
 20
64.542328072
 30
0.0
 40
2.0
 41
0.0
 71
     1
 72
     1
  1
zul. Abweichung:
  7
SLDTEXTSTYLE0
 73
     1
 44
1.0
  0
MTEXT
  5
194
330
1F
100
AcDbEntity
  8
VORLAGE_TEXT
100
AcDbMText
 10
269.612607
 20
64.542328072
 30
0.0
 40
2.0
 41
0.0
 71
     1
 72
     1
  1
Oberfläche:
  7
SLDTEXTSTYLE0
 73
     1
 44
1.0
  0
MTEXT
  5
195
330
1F
100
AcDbEntity
  8
VORLAGE_TEXT
100
AcDbMText
 10
230.261411
 20
43.4433838912
 30
0.0
 40
2.0
 41
0.0
 71
     1
 72
     1
  1
Freigegeben:
  7
SLDTEXTSTYLE0
 73
     1
 44
1.0
  0
MTEXT
  5
196
330
1F
100
AcDbEntity
  8
VORLAGE_TEXT
100
AcDbMText
 10
230.0
 20
75.161075072
 30
0.0
 40
2.0
 41
0.0
 71
     1
 72
     1
  1
Werkstoff:
  7
SLDTEXTSTYLE0
 73
     1
 44
1.0
  0
MTEXT
  5
197
330
1F
100
AcDbEntity
  8
VORLAGE_TEXT
100
AcDbMText
 10
254.035545
 20
53.129475072
 30
0.0
 40
2.0
 41
0.0
 71
     1
 72
     1
  1
Datum:
  7
SLDTEXTSTYLE0
 73
     1
 44
1.0
  0
MTEXT
  5
198
330
1F
100
AcDbEntity
  8
VORLAGE_TEXT
100
AcDbMText
 10
279.934928
 20
53.136060072
 30
0.0
 40
2.0
 41
0.0
 71
     1
 72
     1
  1
Name:
  7
SLDTEXTSTYLE0
 73
     1
 44
1.0
  0
MTEXT
  5
199
330
1F
100
AcDbEntity
  8
VORLAGE_TEXT
100
AcDbMText
 10
312.162455406
 20
53.881591072
 30
0.0
 40
2.0
 41
0.0
 71
     2
 72
     1
  1
Massstab:
  7
SLDTEXTSTYLE0
 73
     1
 44
1.0
  0
MTEXT
  5
19A
330
1F
100
AcDbEntity
  8
VORLAGE_TEXT
100
AcDbMText
 10
403.9552944035
 20
33.324874072
 30
0.0
 40
2.0
 41
0.0
 71
     2
 72
     1
  1
Index:
  7
SLDTEXTSTYLE0
 73
     1
 44
1.0
  0
MTEXT
  5
19B
330
1F
100
AcDbEntity
  8
VORLAGE_TEXT
100
AcDbMText
 10
230.261411
 20
48.4499477886
 30
0.0
 40
2.0
 41
0.0
 71
     1
 72
     1
  1
Erstellt:
  7
SLDTEXTSTYLE0
 73
     1
 44
1.0
  0
MTEXT
  5
19D
330
1F
100
AcDbEntity
  8
VORLAGE_TEXT
100
AcDbMText
 10
337.6348165843
 20
39.869706576
 30
0.0
 40
2.5
 41
0.0
 71
     2
 72
     1
  1
1 / 1
  7
SLDTEXTSTYLE1
 73
     1
 44
1.0
  0
MTEXT
  5
19E
330
1F
100
AcDbEntity
  8
TEXT
100
AcDbMText
 10
269.612607
 20
60.8119428599
 30
0.0
 40
3.0
 41
0.0
 71
     1
 72
     1
  1
DIN ISO 1302
  7
SLDTEXTSTYLE0
 73
     1
 44
1.0
  0
MTEXT
  5
19F
330
1F
100
AcDbEntity
  8
TEXT
100
AcDbMText
 10
230.0
 20
60.8119428599
 30
0.0
 40
3.0
 41
0.0
 71
     1
 72
     1
  1
Norm
  7
SLDTEXTSTYLE0
 73
     1
 44
1.0
  0
MTEXT
  5
1A0
330
1F
100
AcDbEntity
  8
TEXT
100
AcDbMText
 10
269.612607
 20
71.2121947186
 30
0.0
 40
3.0
 41
0.0
 71
     1
 72
     1
  1
804.340
  7
SLDTEXTSTYLE0
 73
     1
 44
1.0
  0
LINE
  5
1A1
330
1F
100
AcDbEntity
  8
0
  6
Continuous
 62
     7
370
    25
100
AcDbLine
 10
139.8023445193
 20
45.2648175601
 30
0.0
 11
139.8023445193
 21
125.2433305842
 31
0.0
  0
LINE
  5
1A2
330
1F
100
AcDbEntity
  8
0
  6
Continuous
 62
     7
370
    25
100
AcDbLine
 10
134.8023445193
 20
125.2433305842
 30
0.0
 11
134.8023445193
 21
45.2648175601
 31
0.0
  0
CIRCLE
  5
1A3
330
1F
100
AcDbEntity
  8
0
  6
Continuous
 62
     7
370
    25
100
AcDbCircle
 10
137.3023445193
 20
81.5648175601
 30
0.0
 40
52.34661478305749
  0
CIRCLE
  5
1A4
330
1F
100
AcDbEntity
  8
0
  6
Continuous
 62
     7
370
    25
100
AcDbCircle
 10
137.3023445193
 20
81.5648175601
 30
0.0
 40
53.19597047432301
  0
CIRCLE
  5
1A5
330
1F
100
AcDbEntity
  8
0
  6
Continuous
 62
     7
370
    25
100
AcDbCircle
 10
137.3023445193
 20
81.5648175601
 30
0.0
 40
49.75000000000014
  0
CIRCLE
  5
1A6
330
1F
100
AcDbEntity
  8
0
  6
Continuous
 62
     7
370
    25
100
AcDbCircle
 10
137.3023445193
 20
81.5648175601
 30
0.0
 40
46.00000000000013
  0
LINE
  5
1A7
330
1F
100
AcDbEntity
  8
0
  6
Continuous
 62
     7
370
    25
100
AcDbLine
 10
134.8023445193
 20
45.2648175601
 30
0.0
 11
139.8023445193
 21
45.2648175601
 31
0.0
  0
LINE
  5
1A8
330
1F
100
AcDbEntity
  8
0
  6
Continuous
 62
     7
370
    25
100
AcDbLine
 10
139.393396886
 20
125.2648175601
 30
0.0
 11
135.2112921527
 21
125.2648175601
 31
0.0
  0
ARC
  5
1A9
330
1F
100
AcDbEntity
  8
0
  6
Continuous
 62
     7
370
    25
100
AcDbCircle
 10
137.3019333295
 20
81.5650925417
 30
0.0
 40
29.99965022215032
100
AcDbArc
 50
101.2268614545
 51
191.2281975308
  0
ARC
  5
1AA
330
1F
100
AcDbEntity
  8
0
  6
Continuous
 62
     7
370
    25
100
AcDbCircle
 10
137.3023445193
 20
81.5648175601
 30
0.0
 40
20.76185773912501
100
AcDbArc
 50
101.2275294926
 51
191.2275294926
  0
ARC
  5
1AB
330
1F
100
AcDbEntity
  8
0
  6
Continuous
 62
     7
370
    25
100
AcDbCircle
 10
133.5239079732
 20
120.381352919
 30
0.0
 40
4.750000000000004
100
AcDbArc
 50
95.5597071084
 51
122.5993414365
  0
LWPOLYLINE
  5
1AC
330
1F
100
AcDbEntity
  8
0
  6
Continuous
 62
     7
370
    25
100
AcDbPolyline
 90
        3
 70
   128
 43
0.0
 10
129.7058542882
 20
124.3497806809
 10
130.3960143007
 20
124.2173385016
 10
130.9647927399
 20
124.3830312198
  0
ARC
  5
1AD
330
1F
100
AcDbEntity
  8
0
  6
Continuous
 62
     7
370
    25
100
AcDbCircle
 10
141.0807810655
 20
120.381352919
 30
0.0
 40
4.75000000000001
100
AcDbArc
 50
57.4006585635
 51
84.4402928909
  0
LWPOLYLINE
  5
1AE
330
1F
100
AcDbEntity
  8
0
  6
Continuous
 62
     7
370
    25
100
AcDbPolyline
 90
        3
 70
   128
 43
0.0
 10
143.6398962988
 20
124.3830312198
 10
144.208674738
 20
124.2173385016
 10
144.8988347505
 20
124.3497806809
  0
ARC
  5
1AF
330
1F
100
AcDbEntity
  8
0
  6
Continuous
 62
     7
370
    25
100
AcDbCircle
 10
137.3023445193
 20
81.5648175601
 30
0.0
 40
43.45411065798012
100
AcDbArc
 50
100.0679726183
 51
79.9320273817
  0
ARC
  5
1B0
330
1F
100
AcDbEntity
  8
0
  6
Continuous
 62
     7
370
    25
100
AcDbCircle
 10
137.3023445193
 20
81.5648175601
 30
0.0
 40
43.75000000000002
100
AcDbArc
 50
84.4402928916
 51
95.5597071084
  0
ARC
  5
1B1
330
1F
100
AcDbEntity
  8
0
  6
Continuous
 62
     7
370
    25
100
AcDbCircle
 10
133.8579788812
 20
118.1744274177
 30
0.0
 40
7.441446536821469
100
AcDbArc
 50
123.9157174175
 51
152.1492931712
  0
LWPOLYLINE
  5
1B2
330
1F
100
AcDbEntity
  8
0
  6
Continuous
 62
     7
370
    25
100
AcDbPolyline
 90
        6
 70
   128
 43
0.0
 10
127.2784909012
 20
121.6508428821
 10
126.1979634529
 20
119.6250454583
 10
125.1557176067
 20
117.6646633602
 10
124.0704671152
 20
115.6184942405
 10
122.945102038
 20
113.4921724863
 10
121.8565032084
 20
111.4334430535
  0
ARC
  5
1B3
330
1F
100
AcDbEntity
  8
0
  6
Continuous
 62
     7
370
    25
100
AcDbCircle
 10
119.5468121201
 20
112.6430210153
 30
0.0
 40
2.607249847851945
100
AcDbArc
 50
299.9515311475
 51
332.3590903882
  0
ARC
  5
1B4
330
1F
100
AcDbEntity
  8
0
  6
Continuous
 62
     7
370
    25
100
AcDbCircle
 10
155.0579980736
 20
112.6431373804
 30
0.0
 40
2.607411161298703
100
AcDbArc
 50
207.6419397032
 51
240.0474387611
  0
LWPOLYLINE
  5
1B5
330
1F
100
AcDbEntity
  8
0
  6
Continuous
 62
     7
370
    25
100
AcDbPolyline
 90
        6
 70
   128
 43
0.0
 10
152.7481858303
 20
111.4334430535
 10
151.6572615219
 20
113.4958629111
 10
150.5324152965
 20
115.6208944599
 10
149.4478639597
 20
117.6673922219
 10
148.4048351525
 20
119.6291256822
 10
147.3261981349
 20
121.6508428871
  0
ARC
  5
1B6
330
1F
100
AcDbEntity
  8
0
  6
Continuous
 62
     7
370
    25
100
AcDbCircle
 10
140.7662940385
 20
118.1920407158
 30
0.0
 40
7.415905488463076
100
AcDbArc
 50
27.8010736554
 51
56.1339157985
  0
ARC
  5
1B7
330
1F
100
AcDbEntity
  8
0
  6
Continuous
 62
     7
370
    25
100
AcDbCircle
 10
133.5239079732
 20
120.381352919
 30
0.0
 40
4.750000000000099
100
AcDbArc
 50
122.5993414365
 51
150.0
  0
ARC
  5
1B8
330
1F
100
AcDbEntity
  8
0
  6
Continuous
 62
     7
370
    25
100
AcDbCircle
 10
127.3594424126
 20
124.1029108282
 30
0.0
 40
2.453402326690754
100
AcDbArc
 50
268.109165952
 51
326.7116214336
  0
ARC
  5
1B9
330
1F
100
AcDbEntity
  8
0
  6
Continuous
 62
     7
370
    25
100
AcDbCircle
 10
147.2270935037
 20
124.0679054486
 30
0.0
 40
2.419091951651136
100
AcDbArc
 50
212.8312979448
 51
272.3479146696
  0
ARC
  5
1BA
330
1F
100
AcDbEntity
  8
0
  6
Continuous
 62
     7
370
    25
100
AcDbCircle
 10
141.0807810655
 20
120.381352919
 30
0.0
 40
4.750000000000247
100
AcDbArc
 50
30.0
 51
57.4006585635
  0
ARC
  5
1BB
330
1F
100
AcDbEntity
  8
0
  6
Continuous
 62
     7
370
    25
100
AcDbCircle
 10
121.7374458295
 20
113.4011276552
 30
0.0
 40
1.971283173773627
100
AcDbArc
 50
273.4625361414
 51
326.3401853989
  0
LINE
  5
1BC
330
1F
100
AcDbEntity
  8
0
  6
Continuous
 62
     7
370
    25
100
AcDbLine
 10
123.3782297129
 20
112.308522695
 30
0.0
 11
129.4102873052
 21
122.756352919
 31
0.0
  0
ARC
  5
1BD
330
1F
100
AcDbEntity
  8
0
  6
Continuous
 62
     7
370
    25
100
AcDbCircle
 10
152.8291284641
 20
113.3348477246
 30
0.0
 40
1.903126751796361
100
AcDbArc
 50
212.634883118
 51
267.5623953417
  0
LINE
  5
1BE
330
1F
100
AcDbEntity
  8
0
  6
Continuous
 62
     7
370
    25
100
AcDbLine
 10
145.1944017335
 20
122.756352919
 30
0.0
 11
151.2264593258
 21
112.308522695
 31
0.0
  0
LINE
  5
1BF
330
1F
100
AcDbEntity
  8
0
  6
Continuous
 62
     7
370
    25
100
AcDbLine
 10
153.7561625489
 20
110.3839744313
 30
0.0
 11
153.5402761795
 21
110.00584559
 31
0.0
  0
ARC
  5
1C0
330
1F
100
AcDbEntity
  8
0
  6
Continuous
 62
     7
370
    25
100
AcDbCircle
 10
156.6391180994
 20
115.433522695
 30
0.0
 40
6.249999999999412
100
AcDbArc
 50
210.0
 51
240.2765125913
  0
LINE
  5
1C1
330
1F
100
AcDbEntity
  8
0
  6
Continuous
 62
     7
370
    25
100
AcDbLine
 10
121.0644128592
 20
110.00584559
 30
0.0
 11
120.8485264898
 21
110.3839744313
 31
0.0
  0
ARC
  5
1C2
330
1F
100
AcDbEntity
  8
0
  6
Continuous
 62
     7
370
    25
100
AcDbCircle
 10
117.9655709393
 20
115.433522695
 30
0.0
 40
6.249999999999882
100
AcDbArc
 50
299.7234874087
 51
330.0
  0
ARC
  5
1C3
330
1F
100
AcDbEntity
  8
0
  6
Continuous
 62
     7
370
    25
100
AcDbCircle
 10
137.3023445193
 20
81.5648175601
 30
0.0
 40
32.75000000000001
100
AcDbArc
 50
274.37798254
 51
60.2765125913
  0
ARC
  5
1C4
330
1F
100
AcDbEntity
  8
0
  6
Continuous
 62
     7
370
    25
100
AcDbCircle
 10
137.3023445193
 20
81.5648175601
 30
0.0
 40
32.75000000000001
100
AcDbArc
 50
119.7234874087
 51
265.62201746
  0
ARC
  5
1C5
330
1F
100
AcDbEntity
  8
0
  6
Continuous
 62
     7
370
    25
100
AcDbCircle
 10
148.6288697414
 20
110.2296907099
 30
0.0
 40
3.327012784901931
100
AcDbArc
 50
38.6700327354
 51
104.4806175528
  0
LINE
  5
1C6
330
1F
100
AcDbEntity
  8
0
  6
Continuous
 62
     7
370
    25
100
AcDbLine
 10
146.9335005246
 20
113.8612430157
 30
0.0
 11
147.796941952
 21
113.4510119022
 31
0.0
  0
LWPOLYLINE
  5
1C7
330
1F
100
AcDbEntity
  8
0
  6
Continuous
 62
     7
370
    25
100
AcDbPolyline
 90
        4
 70
   128
 43
0.0
 10
140.6322426708
 20
123.4105333345
 10
142.8322262886
 20
120.0385464815
 10
144.9319243403
 20
116.8600170619
 10
146.9335005245
 20
113.8612430158
  0
ARC
  5
1C8
330
1F
100
AcDbEntity
  8
0
  6
Continuous
 62
     7
370
    25
100
AcDbCircle
 10
142.6227275437
 20
119.0350411494
 30
0.0
 40
4.806970136330535
100
AcDbArc
 50
70.077554653
 51
114.4615852699
  0
LWPOLYLINE
  5
1C9
330
1F
100
AcDbEntity
  8
0
  6
Continuous
 62
     7
370
    25
100
AcDbPolyline
 90
        3
 70
   128
 43
0.0
 10
130.3439966241
 20
123.5543367774
 10
129.7661612116
 20
123.1840676985
 10
129.4102873052
 20
122.756352919
  0
ARC
  5
1CA
330
1F
100
AcDbEntity
  8
0
  6
Continuous
 62
     7
370
    25
100
AcDbCircle
 10
131.981961495
 20
119.0350411493
 30
0.0
 40
4.806970136364992
100
AcDbArc
 50
65.5384147303
 51
109.9224453468
  0
LWPOLYLINE
  5
1CB
330
1F
100
AcDbEntity
  8
0
  6
Continuous
 62
     7
370
    25
100
AcDbPolyline
 90
        4
 70
   128
 43
0.0
 10
127.6711885142
 20
113.8612430157
 10
129.6727646983
 20
116.8600170618
 10
131.7724627501
 20
120.0385464815
 10
133.9724463679
 20
123.4105333345
  0
LINE
  5
1CC
330
1F
100
AcDbEntity
  8
0
  6
Continuous
 62
     7
370
    25
100
AcDbLine
 10
126.8077470867
 20
113.4510119022
 30
0.0
 11
127.6711885141
 21
113.8612430156
 31
0.0
  0
ARC
  5
1CD
330
1F
100
AcDbEntity
  8
0
  6
Continuous
 62
     7
370
    25
100
AcDbCircle
 10
125.9758192973
 20
110.2296907099
 30
0.0
 40
3.327012784892756
100
AcDbArc
 50
75.5193824472
 51
141.3299672646
  0
ARC
  5
1CE
330
1F
100
AcDbEntity
  8
0
  6
Continuous
 62
     7
370
    25
100
AcDbCircle
 10
133.627982207
 20
120.9574785809
 30
0.0
 40
4.18667335737714
100
AcDbArc
 50
96.0817801898
 51
141.664315023
  0
ARC
  5
1CF
330
1F
100
AcDbEntity
  8
0
  6
Continuous
 62
     7
370
    25
100
AcDbCircle
 10
130.5199031909
 20
122.8561199528
 30
0.0
 40
3.496774025743933
100
AcDbArc
 50
9.1227407309
 51
40.3599755111
  0
ARC
  5
1D0
330
1F
100
AcDbEntity
  8
0
  6
Continuous
 62
     7
370
    25
100
AcDbCircle
 10
143.1912093223
 20
123.2679009636
 30
0.0
 40
2.562938609646817
100
AcDbArc
 50
133.7075502564
 51
176.8097335017
  0
ARC
  5
1D1
330
1F
100
AcDbEntity
  8
0
  6
Continuous
 62
     7
370
    25
100
AcDbCircle
 10
167.4396941125
 20
39.204848324
 30
0.0
 40
84.63715451968542
100
AcDbArc
 50
118.6901192003
 51
123.2251544585
  0
ARC
  5
1D2
330
1F
100
AcDbEntity
  8
0
  6
Continuous
 62
     7
370
    25
100
AcDbCircle
 10
106.4820645556
 20
38.0663554277
 30
0.0
 40
85.96374541663678
100
AcDbArc
 50
56.8098556895
 51
61.2748706517
  0
ARC
  5
1D3
330
1F
100
AcDbEntity
  8
0
  6
Continuous
 62
     7
370
    25
100
AcDbCircle
 10
125.3148871722
 20
112.9161003187
 30
0.0
 40
1.585799838099671
100
AcDbArc
 50
348.8346042311
 51
19.7132780148
  0
ARC
  5
1D4
330
1F
100
AcDbEntity
  8
0
  6
Continuous
 62
     7
370
    25
100
AcDbCircle
 10
137.3023445193
 20
81.5648175601
 30
0.0
 40
32.74999999999769
100
AcDbArc
 50
108.5737084116
 51
119.7234874087
  0
ARC
  5
1D5
330
1F
100
AcDbEntity
  8
0
  6
Continuous
 62
     7
370
    25
100
AcDbCircle
 10
148.8246394469
 20
112.9508633059
 30
0.0
 40
1.142939525779067
100
AcDbArc
 50
154.0492453392
 51
197.4028724145
  0
ARC
  5
1D6
330
1F
100
AcDbEntity
  8
0
  6
Continuous
 62
     7
370
    25
100
AcDbCircle
 10
137.3023445193
 20
81.5648175601
 30
0.0
 40
32.74999999999864
100
AcDbArc
 50
60.2765125913
 51
71.4262915885
  0
LINE
  5
1D7
330
1F
100
AcDbEntity
  8
0
  6
Continuous
 62
     7
370
    25
100
AcDbLine
 10
127.6711885141
 20
113.8612430158
 30
0.0
 11
127.9432184328
 21
112.9490374627
 31
0.0
  0
LINE
  5
1D8
330
1F
100
AcDbEntity
  8
0
  6
Continuous
 62
     7
370
    25
100
AcDbLine
 10
146.6614706058
 20
112.9490374628
 30
0.0
 11
146.9335005245
 21
113.8612430158
 31
0.0
  0
ARC
  5
1D9
330
1F
100
AcDbEntity
  8
0
  6
Continuous
 62
     7
370
    25
100
AcDbCircle
 10
137.3023445193
 20
81.5648175601
 30
0.0
 40
32.75
100
AcDbArc
 50
94.37798254
 51
106.6051701957
  0
ARC
  5
1DA
330
1F
100
AcDbEntity
  8
0
  6
Continuous
 62
     7
370
    25
100
AcDbCircle
 10
137.3023445193
 20
81.5648175601
 30
0.0
 40
32.75
100
AcDbArc
 50
73.3948298044
 51
85.62201746
  0
LINE
  5
1DB
330
1F
100
AcDbEntity
  8
0
  6
Continuous
 62
     7
370
    25
100
AcDbLine
 10
147.7340175945
 20
112.6090230879
 30
0.0
 11
146.6614706058
 21
112.9490374628
 31
0.0
  0
LINE
  5
1DC
330
1F
100
AcDbEntity
  8
0
  6
Continuous
 62
     7
370
    25
100
AcDbLine
 10
127.9432184328
 20
112.9490374627
 30
0.0
 11
126.8706714442
 21
112.6090230879
 31
0.0
  0
CIRCLE
  5
1DD
330
1F
100
AcDbEntity
  8
0
  6
Continuous
 62
     7
370
    25
100
AcDbCircle
 10
137.3023445193
 20
81.5648175601
 30
0.0
 40
53.49999999999997
  0
CIRCLE
  5
1DE
330
1F
100
AcDbEntity
  8
0
  6
Continuous
 62
     7
370
    25
100
AcDbCircle
 10
137.3023445193
 20
81.5648175601
 30
0.0
 40
54.99999999999997
  0
ARC
  5
1DF
330
1F
100
AcDbEntity
  8
0
  6
Continuous
 62
     8
370
    25
100
AcDbCircle
 10
137.3022489921
 20
81.56463446
 30
0.0
 40
29.99987065079208
100
AcDbArc
 50
191.2272220112
 51
265.2199705754
  0
ARC
  5
1E0
330
1F
100
AcDbEntity
  8
0
  6
Continuous
 62
     8
370
    25
100
AcDbCircle
 10
137.3204521497
 20
81.5763910465
 30
0.0
 40
29.98602709446856
100
AcDbArc
 50
274.7477053678
 51
85.2522946322
  0
LWPOLYLINE
  5
1E1
330
1F
100
AcDbEntity
  8
0
  6
Continuous
 62
     8
370
    25
100
AcDbPolyline
 90
        3
 70
   128
 43
0.0
 10
134.8023445193
 20
111.4372436324
 10
134.1513919125
 20
111.398958234
 10
131.4611747674
 20
110.9906690504
  0
ARC
  5
1E2
330
1F
100
AcDbEntity
  8
0
  6
Continuous
 62
     8
370
    25
100
AcDbCircle
 10
137.3023445193
 20
81.5648175601
 30
0.0
 40
10.57375804457689
100
AcDbArc
 50
103.6761900584
 51
191.2275294926
  0
ARC
  5
1E3
330
1F
100
AcDbEntity
  8
0
  6
Continuous
 62
     8
370
    25
100
AcDbCircle
 10
137.3023445193
 20
81.5648175601
 30
0.0
 40
10.5737580445769
100
AcDbArc
 50
283.6761900584
 51
76.3238099416
  0
ARC
  5
1E4
330
1F
100
AcDbEntity
  8
0
  6
Continuous
 62
     8
370
    25
100
AcDbCircle
 10
137.3023445193
 20
81.5648175601
 30
0.0
 40
10.5737580445769
100
AcDbArc
 50
191.2275294926
 51
256.3238099416
  0
ARC
  5
1E5
330
1F
100
AcDbEntity
  8
0
  6
Continuous
 62
     8
370
    25
100
AcDbCircle
 10
137.3023445193
 20
81.5648175601
 30
0.0
 40
10.81364471217325
100
AcDbArc
 50
103.3671066262
 51
256.6328933738
  0
ARC
  5
1E6
330
1F
100
AcDbEntity
  8
0
  6
Continuous
 62
     8
370
    25
100
AcDbCircle
 10
137.3023445193
 20
81.5648175601
 30
0.0
 40
10.81364471217325
100
AcDbArc
 50
283.3671066262
 51
76.6328933738
  0
LINE
  5
1E7
330
1F
100
AcDbEntity
  8
0
  6
Continuous
 62
     8
370
    25
100
AcDbLine
 10
133.2598933387
 20
101.9293289766
 30
0.0
 11
134.8023445193
 21
102.1634164094
 31
0.0
  0
ARC
  5
1E8
330
1F
100
AcDbEntity
  8
0
  6
Continuous
 62
     8
370
    25
100
AcDbCircle
 10
137.3276778029
 20
81.5585553817
 30
0.0
 40
20.74110496945864
100
AcDbArc
 50
276.8524089499
 51
83.1475910501
  0
ARC
  5
1E9
330
1F
100
AcDbEntity
  8
0
  6
Continuous
 62
     8
370
    25
100
AcDbCircle
 10
137.2446823483
 20
81.5318294542
 30
0.0
 40
20.69888693685278
100
AcDbArc
 50
191.1690414098
 51
263.2236737778
  0
LINE
  5
1EA
330
1F
100
AcDbEntity
  8
0
  6
Continuous
 62
     8
370
    25
100
AcDbLine
 10
130.9647927399
 20
124.3830312198
 30
0.0
 11
129.3706222506
 21
126.8758292664
 31
0.0
  0
LINE
  5
1EB
330
1F
100
AcDbEntity
  8
0
  6
Continuous
 62
     8
370
    25
100
AcDbLine
 10
133.0637137785
 20
125.1090078665
 30
0.0
 11
132.8457270546
 21
127.348423368
 31
0.0
  0
LINE
  5
1EC
330
1F
100
AcDbEntity
  8
0
  6
Continuous
 62
     8
370
    25
100
AcDbLine
 10
129.7058542882
 20
124.3497806809
 30
0.0
 11
129.2607911348
 21
126.8564660084
 31
0.0
  0
LINE
  5
1ED
330
1F
100
AcDbEntity
  8
0
  6
Continuous
 62
     8
370
    25
100
AcDbLine
 10
141.7589619841
 20
127.348423368
 30
0.0
 11
141.5409752602
 21
125.1090078665
 31
0.0
  0
LINE
  5
1EE
330
1F
100
AcDbEntity
  8
0
  6
Continuous
 62
     8
370
    25
100
AcDbLine
 10
145.2340667881
 20
126.8758292664
 30
0.0
 11
143.6398962988
 21
124.3830312198
 31
0.0
  0
LINE
  5
1EF
330
1F
100
AcDbEntity
  8
0
  6
Continuous
 62
     8
370
    25
100
AcDbLine
 10
145.3438979039
 20
126.8564660084
 30
0.0
 11
144.8988347505
 21
124.3497806809
 31
0.0
  0
ARC
  5
1F0
330
1F
100
AcDbEntity
  8
0
  6
Continuous
 62
     8
370
    25
100
AcDbCircle
 10
137.3023445193
 20
81.5648175601
 30
0.0
 40
33.18541743770059
100
AcDbArc
 50
119.7234874087
 51
265.6795697088
  0
ARC
  5
1F1
330
1F
100
AcDbEntity
  8
0
  6
Continuous
 62
     8
370
    25
100
AcDbCircle
 10
137.3023445193
 20
81.5648175601
 30
0.0
 40
33.18541743770059
100
AcDbArc
 50
274.3204302912
 51
60.2765125913
  0
LWPOLYLINE
  5
1F2
330
1F
100
AcDbEntity
  8
0
  6
Continuous
 62
     8
370
    25
100
AcDbPolyline
 90
        3
 70
   128
 43
0.0
 10
145.1069037527
 20
122.8615142666
 10
144.8385278271
 20
123.1840676986
 10
144.2606924146
 20
123.5543367774
  0
ARC
  5
1F3
330
1F
100
AcDbEntity
  8
0
  6
Continuous
 62
     8
370
    25
100
AcDbCircle
 10
141.1379961261
 20
121.1702564083
 30
0.0
 40
3.928749332325644
100
AcDbArc
 50
37.3605950974
 51
79.9366238949
  0
LINE
  5
1F4
330
1F
100
AcDbEntity
  8
0
  6
Continuous
 62
     8
370
    25
100
AcDbLine
 10
133.9724463679
 20
123.4105333345
 30
0.0
 11
134.8023445193
 21
123.4683036964
 31
0.0
  0
LINE
  5
1F5
330
1F
100
AcDbEntity
  8
0
  6
Continuous
 62
     8
370
    25
100
AcDbLine
 10
139.8023445193
 20
123.4683036964
 30
0.0
 11
140.6322426708
 21
123.4105333345
 31
0.0
  0
ARC
  5
1F6
330
1F
100
AcDbEntity
  8
0
  6
Continuous
 62
     8
370
    25
100
AcDbCircle
 10
137.3023445193
 20
81.5648175601
 30
0.0
 40
33.70190296125624
100
AcDbArc
 50
73.3948298044
 51
85.7459036904
  0
ARC
  5
1F7
330
1F
100
AcDbEntity
  8
0
  6
Continuous
 62
     8
370
    25
100
AcDbCircle
 10
137.3023445193
 20
81.5648175601
 30
0.0
 40
33.70190296125624
100
AcDbArc
 50
94.2540963096
 51
106.6051701957
  0
LINE
  5
1F8
330
1F
100
AcDbEntity
  8
0
  6
Continuous
 62
     7
370
    18
100
AcDbLine
 10
198.6418226601
 20
81.5648175601
 30
0.0
 11
76.769408867
 21
81.5648175601
 31
0.0
  0
LINE
  5
1F9
330
1F
100
AcDbEntity
  8
0
  6
Continuous
 62
     7
370
    18
100
AcDbLine
 10
196.6418226601
 20
75.5648175601
 30
0.0
 11
196.6418226601
 21
81.5648175601
 31
0.0
  0
SOLID
  5
1FA
330
1F
100
AcDbEntity
  8
0
  6
Continuous
 62
     7
370
    18
100
AcDbTrace
 10
196.6418226601
 20
81.5648175601
 30
0.0
 11
195.6418226601
 21
77.5648175601
 31
0.0
 12
197.6418226601
 22
77.5648175601
 32
0.0
 13
197.6418226601
 23
77.5648175601
 33
0.0
  0
LINE
  5
1FB
330
1F
100
AcDbEntity
  8
0
  6
Continuous
 62
     7
370
    18
100
AcDbLine
 10
78.769408867
 20
75.5648175601
 30
0.0
 11
78.769408867
 21
81.5648175601
 31
0.0
  0
SOLID
  5
1FC
330
1F
100
AcDbEntity
  8
0
  6
Continuous
 62
     7
370
    18
100
AcDbTrace
 10
78.769408867
 20
81.5648175601
 30
0.0
 11
77.769408867
 21
77.5648175601
 31
0.0
 12
79.769408867
 22
77.5648175601
 32
0.0
 13
79.769408867
 23
77.5648175601
 33
0.0
  0
MTEXT
  5
1FD
330
1F
100
AcDbEntity
  8
0
  6
Continuous
 62
     7
100
AcDbMText
 10
194.961220097
 20
74.1969920574
 30
0.0
 40
4.1093098958
 41
0.0
 71
     1
 72
     1
  1
A
  7
SLDTEXTSTYLE0
 73
     1
 44
1.0
  0
MTEXT
  5
1FE
330
1F
100
AcDbEntity
  8
0
  6
Continuous
 62
     7
100
AcDbMText
 10
76.6850138377
 20
74.6690811834
 30
0.0
 40
4.1093098958
 41
0.0
 71
     1
 72
     1
  1
A
  7
SLDTEXTSTYLE0
 73
     1
 44
1.0
  0
LINE
  5
1FF
330
1F
100
AcDbEntity
  8
0
  6
Continuous
 62
     7
370
    25
100
AcDbLine
 10
301.4515552571
 20
198.1469804381
 30
0.0
 11
351.1957858546
 21
226.8637135092
 31
0.0
  0
LINE
  5
200
330
1F
100
AcDbEntity
  8
0
  6
Continuous
 62
     7
370
    25
100
AcDbLine
 10
348.695989023
 20
231.1939578211
 30
0.0
 11
294.8379505432
 21
200.1023740097
 31
0.0
  0
LWPOLYLINE
  5
201
330
1F
100
AcDbEntity
  8
0
  6
Continuous
 62
     7
370
    25
100
AcDbPolyline
 90
        4
 70
   128
 43
0.0
 10
353.6880668274
 20
228.4617871523
 10
352.6169400416
 20
222.0912858592
 10
351.5818837883
 20
216.245169207
 10
350.580804375
 20
210.9441280081
  0
LWPOLYLINE
  5
202
330
1F
100
AcDbEntity
  8
0
  6
Continuous
 62
     7
370
    25
100
AcDbPolyline
 90
        3
 70
   128
 43
0.0
 10
350.5808150442
 20
210.9441967908
 10
350.4662627123
 20
210.2161103446
 10
350.4176888401
 20
209.4260659896
  0
LINE
  5
203
330
1F
100
AcDbEntity
  8
0
  6
Continuous
 62
     7
370
    25
100
AcDbLine
 10
353.9169760071
 20
230.9918766373
 30
0.0
 11
353.6880657102
 21
228.4617842029
 31
0.0
  0
LINE
  5
204
330
1F
100
AcDbEntity
  8
0
  6
Continuous
 62
     7
370
    25
100
AcDbLine
 10
350.4172758965
 20
209.4287964536
 30
0.0
 11
350.4172758965
 21
203.2618773882
 31
0.0
  0
LINE
  5
205
330
1F
100
AcDbEntity
  8
0
  6
Continuous
 62
     7
370
    25
100
AcDbLine
 10
374.0453211009
 20
151.2901296669
 30
0.0
 11
374.0453211009
 21
225.7451583937
 31
0.0
  0
LINE
  5
206
330
1F
100
AcDbEntity
  8
0
  6
Continuous
 62
     7
370
    25
100
AcDbLine
 10
264.0453211009
 20
225.7451583937
 30
0.0
 11
264.0453211009
 21
151.2901296669
 31
0.0
  0
ARC
  5
207
330
1F
100
AcDbEntity
  8
0
  6
Continuous
 62
     7
370
    25
100
AcDbCircle
 10
351.5996937837
 20
150.86501537
 30
0.0
 40
22.44124915157812
100
AcDbArc
 50
339.8291447004
 51
1.21429424
  0
ARC
  5
208
330
1F
100
AcDbEntity
  8
0
  6
Continuous
 62
     7
370
    25
100
AcDbCircle
 10
286.9305732019
 20
150.8444428099
 30
0.0
 40
22.86811380359749
100
AcDbArc
 50
178.9618212497
 51
199.8214579649
  0
LINE
  5
209
330
1F
100
AcDbEntity
  8
0
  6
Continuous
 62
     7
370
    25
100
AcDbLine
 10
265.3757942047
 20
143.1992206726
 30
0.0
 11
266.0936118074
 21
141.0513724884
 31
0.0
  0
LINE
  5
20A
330
1F
100
AcDbEntity
  8
0
  6
Continuous
 62
     7
370
    25
100
AcDbLine
 10
371.9970303944
 20
141.0513724884
 30
0.0
 11
372.7148479972
 21
143.1992206726
 31
0.0
  0
LINE
  5
20B
330
1F
100
AcDbEntity
  8
0
  6
Continuous
 62
     7
370
    25
100
AcDbLine
 10
277.6641089145
 20
244.8209904835
 30
0.0
 11
277.8511740288
 21
244.9517742189
 31
0.0
  0
LWPOLYLINE
  5
20C
330
1F
100
AcDbEntity
  8
0
  6
Continuous
 62
     7
370
    25
100
AcDbPolyline
 90
       16
 70
   128
 43
0.0
 10
287.791643577
 20
250.3718227726
 10
285.0978456728
 20
249.1647868651
 10
282.5435452269
 20
247.8605955721
 10
280.1392384076
 20
246.4646080953
 10
277.8948050274
 20
244.9825608467
 10
275.8194679445
 20
243.4205438763
 10
273.9217551642
 20
241.7849758469
 10
272.2094647953
 20
240.0825776584
 10
270.6896330062
 20
238.32034483
 10
269.3685051117
 20
236.5055187546
 10
268.2515099098
 20
234.6455569416
 10
267.3432373733
 20
232.7481023732
 10
266.6474197889
 20
230.8209520972
 10
266.1669164203
 20
228.8720251874
 10
265.903701759
 20
226.9093302026
 10
265.881326021
 20
226.5860953391
  0
LWPOLYLINE
  5
20D
330
1F
100
AcDbEntity
  8
0
  6
Continuous
 62
     7
370
    25
100
AcDbPolyline
 90
       34
 70
   128
 43
0.0
 10
372.042999441
 20
228.1705636837
 10
371.6665235382
 20
230.023604378
 10
371.0587407159
 20
231.9606521182
 10
370.2372235956
 20
233.8712399527
 10
369.2053479673
 20
235.7475168663
 10
367.9673540293
 20
237.5817728349
 10
366.5283289643
 20
239.366470507
 10
364.8941860349
 20
241.0942761772
 10
363.071640285
 20
242.7580899214
 10
361.0681809458
 20
244.351074772
 10
358.8920406617
 20
245.8666848126
 10
356.5521616599
 20
247.2986920764
 10
354.058159005
 20
248.6412121384
 10
351.4202810889
 20
249.8887282956
 10
348.6493675178
 20
251.0361142367
 10
345.7568045699
 20
252.0786551066
 10
342.7544784069
 20
253.0120668814
 10
339.6547262309
 20
253.8325139717
 10
336.4702855885
 20
254.5366249846
 10
333.2142420294
 20
255.1215065768
 10
329.899975335
 20
255.5847553445
 10
326.541104538
 20
255.924467699
 10
323.1514319591
 20
256.1392476894
 10
319.7448864898
 20
256.2282127388
 10
316.3354663563
 20
256.1909972706
 10
312.9371815973
 20
256.0277542111
 10
309.5639964936
 20
255.7391543611
 10
306.2297721865
 20
255.3263836393
 10
302.9482097188
 20
254.7911382092
 10
299.7327937346
 20
254.1356175089
 10
296.5967370678
 20
253.3625152138
 10
293.5529264481
 20
252.4750081669
 10
290.6138695461
 20
251.476743325
 10
287.791643577
 20
250.3718227726
  0
LWPOLYLINE
  5
20E
330
1F
100
AcDbEntity
  8
0
  6
Continuous
 62
     7
370
    25
100
AcDbPolyline
 90
       33
 70
   128
 43
0.0
 10
349.7999854732
 20
201.1245600517
 10
346.9935713829
 20
200.0266114613
 10
344.0699326182
 20
199.0358347804
 10
341.0413319361
 20
198.1563856707
 10
337.9204723404
 20
197.3919528473
 10
334.7204438008
 20
196.7457426073
 10
331.4546683492
 20
196.2204653809
 10
328.1368437826
 20
195.8183243633
 10
324.7808862104
 20
195.5410062738
 10
321.4008716848
 20
195.3896742808
 10
318.0109771615
 20
195.3649631233
 10
314.6254210361
 20
195.4669764483
 10
311.2584035077
 20
195.6952863767
 10
307.9240470177
 20
196.0489352972
 10
304.6363370162
 20
196.5264398834
 10
301.4090633014
 20
197.125797315
 10
298.2557621809
 20
197.8444936787
 10
295.1896596953
 20
198.6795145123
 10
292.2236161441
 20
199.627357448
 10
289.3700721448
 20
200.6840469033
 10
286.6409964524
 20
201.8451507553
 10
284.0478357588
 20
203.1057989311
 10
281.6014666813
 20
204.4607038339
 10
279.3121501419
 20
205.9041825219
 10
277.1894883297
 20
207.4301805437
 10
275.2423844262
 20
209.0322973334
 10
273.4790052616
 20
210.7038130562
 10
271.9067470611
 20
212.4377167945
 10
270.5322044219
 20
214.2267359533
 10
269.3611426535
 20
216.0633667646
 10
268.3984735961
 20
217.9399057604
 10
267.6482350181
 20
219.8484820841
 10
267.2127631845
 20
221.3534939057
  0
LWPOLYLINE
  5
20F
330
1F
100
AcDbEntity
  8
0
  6
Continuous
 62
     7
370
    25
100
AcDbPolyline
 90
       14
 70
   128
 43
0.0
 10
371.0519874418
 20
222.139756336
 10
370.676635936
 20
220.5995234602
 10
370.0101185191
 20
218.6806194758
 10
369.1298370302
 20
216.7906460084
 10
368.039483676
 20
214.9375302638
 10
366.7436317773
 20
213.1290448533
 10
365.2477165872
 20
211.3727751931
 10
363.558012494
 20
209.6760876887
 10
361.6816067038
 20
208.046098837
 10
359.6263695147
 20
206.4896453778
 10
357.4009213056
 20
205.0132556178
 10
355.0145963798
 20
203.6231220486
 10
352.4774038132
 20
202.3250753736
 10
349.7999854732
 20
201.1245600517
  0
LWPOLYLINE
  5
210
330
1F
100
AcDbEntity
  8
0
  6
Continuous
 62
     7
370
    25
100
AcDbPolyline
 90
       65
 70
   128
 43
0.0
 10
362.6648645933
 20
208.8716147284
 10
363.1771195511
 20
209.4250187212
 10
364.5984813186
 20
211.1377788565
 10
365.8206507069
 20
212.9010238764
 10
366.8382834802
 20
214.7070435589
 10
367.6469297894
 20
216.5479406396
 10
368.2430536299
 20
218.4156653438
 10
368.6240483038
 20
220.3020505867
 10
368.7882478183
 20
222.1988476855
 10
368.7349341707
 20
224.0977624292
 10
368.4643404881
 20
225.9904913468
 10
367.9776500078
 20
227.8687580163
 10
367.2769909033
 20
229.7243492553
 10
366.3654269788
 20
231.5491510357
 10
365.2469442713
 20
233.3351839634
 10
363.9264336211
 20
235.074638171
 10
362.4096692853
 20
236.7599074677
 10
360.7032836884
 20
238.3836225997
 10
358.8147384204
 20
239.938683474
 10
356.7522916093
 20
241.4182902048
 10
354.5249618103
 20
242.8159728486
 10
352.1424885698
 20
244.1256196946
 10
349.6152898371
 20
245.3415039905
 10
346.9544164093
 20
246.4583089837
 10
344.1715036088
 20
247.4711511699
 10
341.2787204053
 20
248.3756016481
 10
338.2887162036
 20
249.1677054865
 10
335.2145655314
 20
249.8439990164
 10
332.0697108673
 20
250.4015249784
 10
328.8679038607
 20
250.8378454533
 10
325.6231451989
 20
251.1510525227
 10
322.349623386
 20
251.3397766116
 10
319.0616526999
 20
251.4031924779
 10
315.7736105999
 20
251.3410228199
 10
312.4998748575
 20
251.1535394897
 10
309.2547606861
 20
250.8415623044
 10
306.0524581443
 20
250.4064554606
 10
302.9069700863
 20
249.85012157
 10
299.8320509311
 20
249.1749933391
 10
296.8411465178
 20
248.3840229318
 10
293.9473353104
 20
247.4806690606
 10
291.1632712089
 20
246.468881862
 10
288.5011282174
 20
245.353085624
 10
285.9725472098
 20
244.1381594397
 10
283.5885850275
 20
242.8294158722
 10
281.3596661305
 20
241.432577724
 10
279.295537014
 20
239.953753013
 10
277.4052235895
 20
238.3994082635
 10
275.6969917166
 20
236.7763402294
 10
274.1783110586
 20
235.0916461743
 10
272.8558224198
 20
233.3526928367
 10
271.7353087063
 20
231.5670842171
 10
270.8216696396
 20
229.7426283277
 10
270.1189003308
 20
227.8873030498
 10
269.6300738113
 20
226.0092212488
 10
269.3573275951
 20
224.1165952985
 10
269.301854332
 20
222.2177011708
 10
269.4638965925
 20
220.3208422465
 10
269.842745807
 20
218.434313007
 10
270.4367453643
 20
216.5663627646
 10
271.2432978555
 20
214.7251595906
 10
272.2588764316
 20
212.9187545979
 10
273.4790402261
 20
211.1550467359
 10
274.898453773
 20
209.4417482504
 10
275.4257776086
 20
208.8716147284
  0
LWPOLYLINE
  5
211
330
1F
100
AcDbEntity
  8
0
  6
Continuous
 62
     7
370
    25
100
AcDbPolyline
 90
       92
 70
   128
 43
0.0
 10
346.0712246286
 20
201.1943713546
 10
343.4387266588
 20
200.1691925594
 10
340.6899830028
 20
199.2513029306
 10
337.8380926759
 20
198.4450766302
 10
334.8966462343
 20
197.7543556937
 10
331.8796610098
 20
197.182431721
 10
328.8015143109
 20
196.7320301902
 10
325.6768749084
 20
196.4052974697
 10
322.520633132
 20
196.2037905897
 10
319.3478299112
 20
196.1284698223
 10
316.1735850981
 20
196.1796941053
 10
313.0130254148
 20
196.3572193315
 10
309.8812123676
 20
196.6601995125
 10
306.7930704718
 20
197.0871908098
 10
303.7633161299
 20
197.6361584152
 10
300.806387501
 20
198.3044862483
 10
297.9363756968
 20
199.0889894224
 10
295.1669576303
 20
199.9859294228
 10
292.5113308399
 20
200.9910319219
 10
289.9821505967
 20
202.0995071484
 10
287.5914695961
 20
203.3060727133
 10
285.3506805221
 20
204.6049787821
 10
283.2704617548
 20
205.9900354758
 10
281.3607264841
 20
207.4546423686
 10
279.6305754682
 20
208.9918199416
 10
278.0882536646
 20
210.5942428437
 10
276.7411109391
 20
212.2542748001
 10
275.5955670403
 20
213.9640050024
 10
274.6570810064
 20
215.7152858076
 10
273.9301251509
 20
217.4997715652
 10
273.4181637495
 20
219.3089583879
 10
273.1236365313
 20
221.1342246766
 10
273.0479470528
 20
222.9668722062
 10
273.1914560086
 20
224.7981675766
 10
273.5534795134
 20
226.6193838315
 10
274.1322923602
 20
228.421842046
 10
274.9251362422
 20
230.1969526858
 10
275.9282328973
 20
231.9362565404
 10
277.1368021131
 20
233.6314650348
 10
278.5450845069
 20
235.2744997287
 10
280.1463689718
 20
236.8575308134
 10
281.9330246581
 20
238.3730144248
 10
283.8965373377
 20
239.8137285935
 10
286.0275499787
 20
241.1728076604
 10
288.3159073353
 20
242.4437749947
 10
290.7507043425
 20
243.6205738583
 10
293.320338084
 20
244.6975962687
 10
296.0125630846
 20
245.6697097237
 10
298.8145496662
 20
246.53228166
 10
301.7129450867
 20
247.2812015294
 10
304.693937172
 20
247.9129003877
 10
307.7433201374
 20
248.4243679023
 10
310.8465622843
 20
248.8131666974
 10
313.9888752506
 20
249.0774439697
 10
317.1552844841
 20
249.2159403177
 10
320.3307006027
 20
249.2279957433
 10
323.4999913027
 20
249.1135527968
 10
326.6480534706
 20
248.8731568509
 10
329.7598851564
 20
248.5079535019
 10
332.8206570651
 20
248.0196831101
 10
335.8157832247
 20
247.4106725061
 10
338.7309904951
 20
246.6838239029
 10
341.5523865859
 20
245.842601065
 10
344.2665262601
 20
244.8910128025
 10
346.8604754061
 20
243.8335938666
 10
349.3218726748
 20
242.6753833402
 10
351.6389883874
 20
241.4219006238
 10
353.8007804323
 20
240.0791191336
 10
355.7969468859
 20
238.6534378346
 10
357.6179751061
 20
237.1516507477
 10
359.255187064
 20
235.5809145721
 10
360.7007806992
 20
233.9487145811
 10
361.9478670996
 20
232.2628289509
 10
362.9905033306
 20
230.5312916943
 10
363.8237207557
 20
228.7623543749
 10
364.4435487145
 20
226.9644467845
 10
364.8470334445
 20
225.1461367716
 10
365.0322521572
 20
223.3160894114
 10
364.9983222011
 20
221.4830257131
 10
364.7454052678
 20
219.6556810599
 10
364.2747066218
 20
217.8427635812
 10
363.5884693564
 20
216.0529126545
 10
362.6899637048
 20
214.2946577344
 10
361.5834714555
 20
212.5763777065
 10
360.274265548
 20
210.9062609575
 10
358.7685849446
 20
209.2922663543
 10
357.0736048991
 20
207.7420853162
 10
355.1974027634
 20
206.2631051619
 10
353.148919495
 20
204.8623739051
 10
350.9379170495
 20
203.5465666684
 10
348.5749318605
 20
202.3219538723
 10
346.0712246286
 20
201.1943713546
  0
LWPOLYLINE
  5
212
330
1F
100
AcDbEntity
  8
0
  6
Continuous
 62
     7
370
    25
100
AcDbPolyline
 90
       46
 70
   128
 43
0.0
 10
365.0159237595
 20
221.7339016553
 10
364.8470334445
 20
223.2476793839
 10
364.4435487145
 20
225.0659893968
 10
363.8237207557
 20
226.8638969872
 10
362.9905033306
 20
228.6328343067
 10
361.9478670996
 20
230.3643715633
 10
360.7007806992
 20
232.0502571935
 10
359.255187064
 20
233.6824571845
 10
357.6179751061
 20
235.25319336
 10
355.7969468859
 20
236.754980447
 10
353.8007804323
 20
238.1806617459
 10
351.6389883874
 20
239.5234432362
 10
349.3218726748
 20
240.7769259525
 10
346.8604754061
 20
241.935136479
 10
344.2665262601
 20
242.9925554148
 10
341.5523865859
 20
243.9441436774
 10
338.7309904951
 20
244.7853665153
 10
335.8157832247
 20
245.5122151185
 10
332.8206570651
 20
246.1212257225
 10
329.7598851564
 20
246.6094961143
 10
326.6480534706
 20
246.9746994633
 10
323.4999913027
 20
247.2150954091
 10
320.3307006027
 20
247.3295383556
 10
317.1552844841
 20
247.3174829301
 10
313.9888752506
 20
247.1789865821
 10
310.8465622843
 20
246.9147093097
 10
307.7433201374
 20
246.5259105146
 10
304.693937172
 20
246.0144430001
 10
301.7129450867
 20
245.3827441418
 10
298.8145496662
 20
244.6338242724
 10
296.0125630846
 20
243.7712523361
 10
293.320338084
 20
242.7991388811
 10
290.7507043425
 20
241.7221164707
 10
288.3159073353
 20
240.5453176071
 10
286.0275499787
 20
239.2743502727
 10
283.8965373377
 20
237.9152712059
 10
281.9330246581
 20
236.4745570372
 10
280.1463689718
 20
234.9590734257
 10
278.5450845069
 20
233.3760423411
 10
277.1368021131
 20
231.7330076472
 10
275.9282328973
 20
230.0377991528
 10
274.9251362422
 20
228.2984952981
 10
274.1322923602
 20
226.5233846583
 10
273.5534795134
 20
224.7209264439
 10
273.1914560086
 20
222.899710189
 10
273.0747184424
 20
221.7339016553
  0
LWPOLYLINE
  5
213
330
1F
100
AcDbEntity
  8
0
  6
Continuous
 62
     7
370
    25
100
AcDbPolyline
 90
        9
 70
   128
 43
0.0
 10
351.7136543917
 20
228.0083255254
 10
351.635117466
 20
228.6553630011
 10
351.4064850393
 20
229.335585162
 10
351.048072106
 20
229.9885512839
 10
350.5917252282
 20
230.5562424615
 10
350.0779928286
 20
230.9882168423
 10
349.5525222854
 20
231.2460916069
 10
349.0620039623
 20
231.3069534508
 10
348.695989023
 20
231.1939578211
  0
ARC
  5
214
330
1F
100
AcDbEntity
  8
0
  6
Continuous
 62
     7
370
    25
100
AcDbCircle
 10
350.4959523485
 20
227.8698046409
 30
0.0
 40
1.225555507322131
100
AcDbArc
 50
304.8223408751
 51
6.4898395183
  0
LINE
  5
215
330
1F
100
AcDbEntity
  8
0
  6
Continuous
 62
     7
370
    25
100
AcDbLine
 10
353.8989670438
 20
230.7928277416
 30
0.0
 11
353.9023416043
 21
230.9910915079
 31
0.0
  0
LWPOLYLINE
  5
216
330
1F
100
AcDbEntity
  8
0
  6
Continuous
 62
     7
370
    25
100
AcDbPolyline
 90
      100
 70
   128
 43
0.0
 10
357.9361940662
 20
248.1963814688
 10
360.3245057589
 20
246.7272353246
 10
362.5466007443
 20
245.1736017622
 10
364.59353143
 20
243.5417367154
 10
366.4570555488
 20
241.8382111289
 10
368.1296693465
 20
240.069884499
 10
369.6046377979
 20
238.2438772529
 10
370.8760217256
 20
236.3675420773
 10
371.9387017151
 20
234.4484343117
 10
372.7883987293
 20
232.4942815258
 10
373.4216913382
 20
230.512952403
 10
373.836029496
 20
228.5124250566
 10
374.029744809
 20
226.500754904
 10
374.0020572543
 20
224.4860422309
 10
373.7530783196
 20
222.4763995742
 10
373.2838105554
 20
220.4799190556
 10
372.5961435373
 20
218.5046397975
 10
371.6928462577
 20
216.5585155522
 10
370.5775559759
 20
214.6493826754
 10
369.2547635722
 20
212.7849285711
 10
367.7297954649
 20
210.9726607381
 10
366.0087921621
 20
209.2198765393
 10
364.0986835368
 20
207.5336338181
 10
362.0071609223
 20
205.9207224786
 10
359.742646142
 20
204.3876371457
 10
357.3142575976
 20
202.9405510129
 10
354.7317735527
 20
201.5852909852
 10
352.005592759
 20
200.3273142165
 10
349.1466925846
 20
199.1716861352
 10
346.1665848112
 20
198.1230600478
 10
343.0772692812
 20
197.1856584014
 10
339.8911855778
 20
196.3632557815
 10
336.6211629356
 20
195.6591637133
 10
333.2803685816
 20
195.076217327
 10
329.8822547155
 20
194.616763942
 10
326.4405043426
 20
194.2826536149
 10
322.9689761769
 20
194.07523169
 10
319.481648837
 20
193.9953333822
 10
315.9925645593
 20
194.0432804139
 10
312.5157726548
 20
194.2188797192
 10
309.0652729373
 20
194.5214242217
 10
305.6549593513
 20
194.9496956815
 10
302.2985640261
 20
195.5019696006
 10
299.0096019809
 20
196.1760221668
 10
295.8013167052
 20
196.9691392084
 10
292.6866268313
 20
197.8781271229
 10
289.6780741161
 20
198.8993257368
 10
286.7877729396
 20
200.0286230438
 10
284.0273615244
 20
201.2614717621
 10
281.407955073
 20
202.5929076451
 10
278.9401010108
 20
204.0175694705
 10
276.6337365149
 20
205.5297206278
 10
274.4981485013
 20
207.1232722181
 10
272.5419362291
 20
208.7918075716
 10
270.7729766747
 20
210.5286080852
 10
269.1983928139
 20
212.3266802763
 10
267.8245249401
 20
214.1787839429
 10
266.6569051344
 20
216.0774613171
 10
265.7002349897
 20
218.0150670952
 10
264.9583666789
 20
219.9837992228
 10
264.4342874439
 20
221.9757303102
 10
264.1301075668
 20
223.9828395542
 10
264.0470518726
 20
225.9970450341
 10
264.1854547974
 20
228.0102362555
 10
264.5447590412
 20
230.0143068077
 10
265.1235178129
 20
232.0011870061
 10
265.919400655
 20
233.9628763852
 10
266.9292028283
 20
235.8914759144
 10
268.1488582159
 20
237.779219804
 10
269.5734556958
 20
239.6185067756
 10
271.197258917
 20
241.4019306699
 10
273.0137293969
 20
243.1223102681
 10
275.0155528501
 20
244.7727182089
 10
277.1946686399
 20
246.346508882
 10
279.5423022363
 20
247.8373451878
 10
282.0490005473
 20
249.2392240546
 10
284.7046699836
 20
250.5465006112
 10
287.4986171016
 20
251.753910916
 10
290.4195916624
 20
252.8565931542
 10
293.4558319324
 20
253.8501072133
 10
296.5951120436
 20
254.730452563
 10
299.824791223
 20
255.4940843633
 10
303.1318646924
 20
256.1379277384
 10
306.5030160343
 20
256.6593901583
 10
309.9246708119
 20
257.0563718778
 10
313.3830512292
 20
257.3272743918
 10
316.8642316088
 20
257.4710068713
 10
320.354194466
 20
257.4869905565
 10
323.838886952
 20
257.3751610866
 10
327.3042774403
 20
257.1359687595
 10
330.7364120263
 20
256.7703767182
 10
334.1214707155
 20
256.2798570729
 10
337.4458230712
 20
255.6663849731
 10
340.6960830998
 20
254.9324306543
 10
343.8591631514
 20
254.0809494916
 10
346.9223266189
 20
253.1153700991
 10
349.8732392242
 20
252.0395805242
 10
352.7000186837
 20
250.8579125918
 10
355.3912825543
 20
249.5751244617
 10
357.9361940662
 20
248.1963814688
  0
LWPOLYLINE
  5
217
330
1F
100
AcDbEntity
  8
0
  6
Continuous
 62
     7
370
    25
100
AcDbPolyline
 90
       99
 70
   128
 43
0.0
 10
356.8755338944
 20
247.5840753849
 10
359.2215977205
 20
246.139980772
 10
361.4025686083
 20
244.6120794592
 10
363.4094844804
 20
243.0066499208
 10
365.2340984891
 20
241.3302892112
 10
366.868912904
 20
239.589885856
 10
368.3072099221
 20
237.792591546
 10
369.5430792724
 20
235.9457917491
 10
370.5714425026
 20
234.0570753616
 10
371.3880738477
 20
232.1342035244
 10
371.9896175943
 20
230.1850777303
 10
372.37360187
 20
228.2177073553
 10
372.5384488012
 20
226.2401767463
 10
372.4834809964
 20
224.2606120007
 10
372.2089243302
 20
222.2871475746
 10
371.7159070147
 20
220.3278928567
 10
371.006454964
 20
218.3908988449
 10
370.0834834685
 20
216.4841250631
 10
368.9507852162
 20
214.6154068538
 10
367.6130147072
 20
212.7924231808
 10
366.0756691274
 20
211.0226650752
 10
364.3450657596
 20
209.3134048526
 10
362.4283160243
 20
207.6716662298
 10
360.3332962571
 20
206.1041954632
 10
358.0686153438
 20
204.6174336262
 10
355.643579344
 20
203.2174901421
 10
353.0681532508
 20
201.9101176791
 10
350.3529200424
 20
200.700688511
 10
347.5090371945
 20
199.5941724416
 10
344.5481908317
 20
198.5951163829
 10
341.4825477068
 20
197.7076256704
 10
338.3247052051
 20
196.935347194
 10
335.0876395786
 20
196.2814544114
 10
331.7846526245
 20
195.7486343085
 10
328.4293170245
 20
195.3390763573
 10
325.0354205724
 20
195.0544635192
 10
321.6169095168
 20
194.8959653295
 10
318.1878312527
 20
194.8642330913
 10
314.7622765983
 20
194.959397199
 10
311.3543218926
 20
195.181066603
 10
307.9779711522
 20
195.5283304162
 10
304.6470985268
 20
195.999761657
 10
301.3753912863
 20
196.5934231134
 10
298.1762935776
 20
197.3068753031
 10
295.0629511794
 20
198.1371864979
 10
292.0481574834
 20
199.0809447712
 10
289.1443009236
 20
200.1342720178
 10
286.3633140695
 20
201.2928398899
 10
283.7166245925
 20
202.5518875838
 10
281.2151083074
 20
203.9062414024
 10
278.8690444813
 20
205.3503360154
 10
276.6880735936
 20
206.8782373281
 10
274.6811577215
 20
208.4836668665
 10
272.8565437128
 20
210.1600275761
 10
271.2217292978
 20
211.9004309313
 10
269.7834322797
 20
213.6977252413
 10
268.5475629294
 20
215.5445250383
 10
267.5191996992
 20
217.4332414258
 10
266.7025683541
 20
219.3561132629
 10
266.1010246076
 20
221.305239057
 10
265.7170403318
 20
223.272609432
 10
265.5521934006
 20
225.2501400411
 10
265.6071612054
 20
227.2297047867
 10
265.8817178716
 20
229.2031692128
 10
266.3747351871
 20
231.1624239306
 10
267.0841872379
 20
233.0994179424
 10
268.0071587333
 20
235.0061917242
 10
269.1398569856
 20
236.8749099336
 10
270.4776274946
 20
238.6978936065
 10
272.0149730744
 20
240.4676517122
 10
273.7455764422
 20
242.1769119348
 10
275.6623261776
 20
243.8186505575
 10
277.7573459447
 20
245.3861213242
 10
280.022026858
 20
246.8728831612
 10
282.4470628578
 20
248.2728266452
 10
285.022488951
 20
249.5801991082
 10
287.7377221594
 20
250.7896282764
 10
290.5816050073
 20
251.8961443458
 10
293.5424513701
 20
252.8952004045
 10
296.608094495
 20
253.7826911169
 10
299.7659369968
 20
254.5549695934
 10
303.0030026232
 20
255.2088623759
 10
306.3059895774
 20
255.7416824788
 10
309.6613251773
 20
256.1512404301
 10
313.0552216294
 20
256.4358532681
 10
316.4737326851
 20
256.5943514578
 10
319.9028109491
 20
256.6260836961
 10
323.3283656035
 20
256.5309195883
 10
326.7363203093
 20
256.3092501843
 10
330.1126710496
 20
255.9619863711
 10
333.443543675
 20
255.4905551303
 10
336.7152509155
 20
254.8968936739
 10
339.9143486242
 20
254.1834414843
 10
343.0276910224
 20
253.3531302894
 10
346.0424847184
 20
252.4093720161
 10
348.9463412782
 20
251.3560447696
 10
351.7273281323
 20
250.1974768974
 10
354.3740176093
 20
248.9384292035
 10
356.8755338944
 20
247.5840753849
  0
LINE
  5
218
330
1F
100
AcDbEntity
  8
0
  6
Continuous
 62
     7
370
    25
100
AcDbLine
 10
265.4039589675
 20
143.1155539384
 30
0.0
 11
265.3757942047
 21
143.1992206726
 31
0.0
  0
LWPOLYLINE
  5
219
330
1F
100
AcDbEntity
  8
0
  6
Continuous
 62
     7
370
    25
100
AcDbPolyline
 90
       45
 70
   128
 43
0.0
 10
371.9970303944
 20
141.0513724884
 10
371.4223414195
 20
139.535848485
 10
370.4919826459
 20
137.6138132697
 10
369.3502185049
 20
135.7301382159
 10
368.00174075
 20
133.8925637486
 10
366.4520905657
 20
132.1086408554
 10
364.7076357969
 20
130.385700058
 10
362.7755447825
 20
128.7308212898
 10
360.6637568989
 20
127.1508048027
 10
358.3809499354
 20
125.6521432232
 10
355.9365044357
 20
124.2409948734
 10
353.3404651504
 20
122.9231584643
 10
350.603499762
 20
121.7040492686
 10
347.7368550483
 20
120.5886768673
 10
344.7523106672
 20
119.581624565
 10
341.6621307519
 20
118.6870305556
 10
338.4790135144
 20
117.9085709177
 10
335.2160390663
 20
117.2494445089
 10
331.8866156695
 20
116.7123598211
 10
328.5044246389
 20
116.2995238505
 10
325.0833641228
 20
116.0126330286
 10
321.6374919928
 20
115.8528662513
 10
318.1809680766
 20
115.8208800346
 10
314.7279959723
 20
115.9168058167
 10
311.2927646831
 20
116.140249418
 10
307.8893903111
 20
116.4902926608
 10
304.5318580517
 20
116.9654971424
 10
301.2339647251
 20
117.5639101456
 10
298.0092620823
 20
118.283072663
 10
294.8710011183
 20
119.1200295015
 10
291.8320776205
 20
120.071341426
 10
288.9049791773
 20
121.1330992918
 10
286.1017338642
 20
122.300940108
 10
283.4338608174
 20
123.5700649662
 10
280.9123228996
 20
124.9352587601
 10
278.5474816509
 20
126.3909116156
 10
276.3490547112
 20
127.9310419429
 10
274.3260758884
 20
129.5493210161
 10
272.4868580365
 20
131.2390989794
 10
270.8389588961
 20
132.9934321727
 10
269.3891500382
 20
134.8051116646
 10
268.1433890384
 20
136.6666928754
 10
267.1067949959
 20
138.5705261686
 10
266.2836274979
 20
140.5087882849
 10
266.0936118074
 20
141.0513724884
  0
LWPOLYLINE
  5
21A
330
1F
100
AcDbEntity
  8
0
  6
PHANTOM
 62
     8
370
    18
100
AcDbPolyline
 90
       16
 70
   128
 43
0.0
 10
265.881326021
 20
226.5860953391
 10
265.8588574103
 20
224.9409322774
 10
266.0325676494
 20
222.9749199812
 10
266.4241186636
 20
221.0193720801
 10
267.0319014859
 20
219.0823243399
 10
267.8534186062
 20
217.1717365054
 10
268.8852942345
 20
215.2954595918
 10
270.1232881725
 20
213.4612036232
 10
271.5623132375
 20
211.6765059511
 10
273.1964561669
 20
209.9487002809
 10
275.0190019169
 20
208.2848865367
 10
277.022461256
 20
206.691901686
 10
279.1986015401
 20
205.1762916455
 10
281.5384805419
 20
203.7442843817
 10
284.0324831969
 20
202.4017643197
 10
285.9978815494
 20
201.4569813629
  0
LWPOLYLINE
  5
21B
330
1F
100
AcDbEntity
  8
0
  6
PHANTOM
 62
     8
370
    18
100
AcDbPolyline
 90
       18
 70
   128
 43
0.0
 10
352.0927606524
 20
201.4569813629
 10
352.992796529
 20
201.878189593
 10
355.547096975
 20
203.182380886
 10
357.9514037942
 20
204.5783683628
 10
360.1958371744
 20
206.0604156114
 10
362.2711742573
 20
207.6224325818
 10
364.1688870376
 20
209.2580006112
 10
365.8811774065
 20
210.9603987997
 10
367.4010091956
 20
212.7226316281
 10
368.7221370901
 20
214.5374577035
 10
369.839132292
 20
216.3974195165
 10
370.7474048285
 20
218.2948740849
 10
371.4432224129
 20
220.2220243609
 10
371.9237257815
 20
222.1709512707
 10
372.1869404429
 20
224.1336462555
 10
372.2317847915
 20
226.1020441807
 10
372.0580745524
 20
228.0680564769
 10
372.042999441
 20
228.1705636837
  0
LWPOLYLINE
  5
21C
330
1F
100
AcDbEntity
  8
0
  6
PHANTOM
 62
     8
370
    18
100
AcDbPolyline
 90
       55
 70
   128
 43
0.0
 10
267.2127631845
 20
221.3534939057
 10
267.1135736808
 20
221.7810905033
 10
266.7967321399
 20
223.7296249866
 10
266.6990393386
 20
225.6859127033
 10
266.8209050348
 20
227.6417483029
 10
267.1618180811
 20
229.588928331
 10
267.72034857
 20
231.5192856381
 10
268.4941538303
 20
233.4247236346
 10
269.4799882539
 20
235.2972502515
 10
270.6737169086
 20
237.1290114614
 10
272.0703328817
 20
238.9123242211
 10
273.6639782803
 20
240.6397086973
 10
275.4479688018
 20
242.3039196391
 10
277.4148217701
 20
243.8979767674
 10
279.5562875201
 20
245.4151940528
 10
281.8633840004
 20
246.8492077586
 10
284.3264344465
 20
248.194003133
 10
286.9351079689
 20
249.4439396368
 10
289.6784628843
 20
250.593774602
 10
292.5449926088
 20
251.6386852211
 10
295.5226739204
 20
252.5742887759
 10
298.599017389
 20
253.3966610199
 10
301.761119761
 20
254.1023526381
 10
304.9957180801
 20
254.6884037147
 10
308.2892453169
 20
255.1523561477
 10
311.6278872735
 20
255.4922639594
 10
314.9976405253
 20
255.7067014583
 10
318.3843711561
 20
255.794769219
 10
321.7738740406
 20
255.7560978548
 10
325.1519324259
 20
255.5908495668
 10
328.5043775611
 20
255.2997174636
 10
331.8171481263
 20
254.8839226546
 10
335.0763492104
 20
254.3452091277
 10
338.2683105914
 20
253.6858364346
 10
341.379644074
 20
252.9085702135
 10
344.3972996444
 20
252.0166705891
 10
347.3086202063
 20
251.0138784984
 10
350.1013946696
 20
249.9043999998
 10
352.7639091676
 20
248.6928886319
 10
355.2849961892
 20
247.3844258942
 10
357.6540814192
 20
245.9844999343
 10
359.8612280911
 20
244.498982528
 10
361.8971786644
 20
242.9341044518
 10
363.7533936551
 20
241.2964293481
 10
365.4220874524
 20
239.5928261953
 10
366.8962609744
 20
237.8304404971
 10
368.1697310253
 20
236.0166643117
 10
369.237156229
 20
234.1591052467
 10
370.0940594333
 20
232.2655545503
 10
370.7368464884
 20
230.3439544323
 10
371.1628213219
 20
228.4023647513
 10
371.3701972473
 20
226.4489292092
 10
371.358104458
 20
224.4918411936
 10
371.1265936754
 20
222.5393094116
 10
371.0519874418
 20
222.139756336
  0
LWPOLYLINE
  5
21D
330
1F
100
AcDbEntity
  8
0
  6
PHANTOM
 62
     8
370
    18
100
AcDbPolyline
 90
       20
 70
   128
 43
0.0
 10
345.5389707963
 20
242.3968798114
 10
342.1402503088
 20
243.6440758164
 10
338.5664511308
 20
244.7155180239
 10
334.6426347606
 20
245.64606779
 10
330.587944615
 20
246.3647220987
 10
324.8316239034
 20
246.9997599271
 10
318.9215172408
 20
247.2093650077
 10
312.9652313408
 20
246.9776084577
 10
307.109617682
 20
246.305445816
 10
301.4982397374
 20
245.2141203972
 10
296.227744615
 20
243.7353428263
 10
291.4896030942
 20
241.9558609692
 10
287.2633856389
 20
239.9109013658
 10
283.5838104816
 20
237.6558243359
 10
281.1334114291
 20
235.8107249297
 10
278.9710530018
 20
233.8496528408
 10
277.0210346696
 20
231.6748716462
 10
275.4251702823
 20
229.4062369309
 10
273.8242785238
 20
226.1517237549
 10
272.9440009995
 20
222.7714439785
  0
ARC
  5
21E
330
1F
100
AcDbEntity
  8
0
  6
PHANTOM
 62
     8
370
    18
100
AcDbCircle
 10
343.6957011413
 20
218.3185869347
 30
0.0
 40
21.94955942117425
100
AcDbArc
 50
15.0327497898
 51
52.7623437571
  0
ARC
  5
21F
330
1F
100
AcDbEntity
  8
0
  6
PHANTOM
 62
     8
370
    18
100
AcDbCircle
 10
349.4344482007
 20
238.2178618973
 30
0.0
 40
5.713049530205822
100
AcDbArc
 50
132.9888523945
 51
164.5696090741
  0
LWPOLYLINE
  5
220
330
1F
100
AcDbEntity
  8
0
  6
PHANTOM
 62
     8
370
    18
100
AcDbPolyline
 90
       15
 70
   128
 43
0.0
 10
354.6703884121
 20
233.5360822128
 10
356.3561743203
 20
232.0308857192
 10
357.8514758589
 20
230.4600403432
 10
359.1486590138
 20
228.8315657751
 10
360.2411012319
 20
227.1537759217
 10
361.1232252306
 20
225.4352364607
 10
361.7905274722
 20
223.68472111
 10
362.2396011559
 20
221.9111668353
 10
362.4681536105
 20
220.1236282237
 10
362.4750179994
 20
218.3312312569
 10
362.2601592775
 20
216.5431267203
 10
361.8246743705
 20
214.7684434847
 10
361.1707865742
 20
213.016241901
 10
360.3018342043
 20
211.2954675435
 10
359.5713972259
 20
210.1194987042
  0
LWPOLYLINE
  5
221
330
1F
100
AcDbEntity
  8
0
  6
PHANTOM
 62
     8
370
    18
100
AcDbPolyline
 90
       37
 70
   128
 43
0.0
 10
278.5192449759
 20
210.1194987042
 10
277.8089627553
 20
211.2603724146
 10
276.935617942
 20
212.9804055426
 10
276.2772572305
 20
214.7320488535
 10
275.8372417721
 20
216.506359623
 10
275.6178179927
 20
218.2942794019
 10
275.6201061239
 20
220.0866802624
 10
275.8440944842
 20
221.8744113995
 10
276.2886395382
 20
223.6483458484
 10
276.9514717347
 20
225.3994270812
 10
277.8292070941
 20
227.1187152432
 10
278.917364484
 20
228.797432794
 10
280.2103884976
 20
230.4270093198
 10
281.7016778153
 20
231.9991252879
 10
283.3836189069
 20
233.5057545212
 10
285.2476249013
 20
234.9392051742
 10
287.2841794252
 20
236.2921590025
 10
289.4828851874
 20
237.5577087246
 10
291.8325170606
 20
238.7293932867
 10
294.321079389
 20
239.8012308475
 10
296.9358672308
 20
240.7677493182
 10
299.6635312204
 20
241.6240142992
 10
302.490145722
 20
242.3656542718
 10
305.4012799243
 20
242.988882916
 10
308.3820715147
 20
243.4905184416
 10
311.4173025564
 20
243.8679998315
 10
314.491477181
 20
244.1193999171
 10
317.5889007001
 20
244.2434352171
 10
320.6937597318
 20
244.2394724897
 10
323.7902029336
 20
244.1075319661
 10
326.8624219286
 20
243.8482872467
 10
329.8947320126
 20
243.4630618624
 10
332.8716522294
 20
242.9538225174
 10
335.7779844071
 20
242.3231690487
 10
338.5988907489
 20
241.574321153
 10
341.3199695856
 20
240.711101949
 10
343.9273289007
 20
239.7379184589
  0
ARC
  5
222
330
1F
100
AcDbEntity
  8
0
  6
PHANTOM
 62
     8
370
    18
100
AcDbCircle
 10
358.8032791214
 20
231.6192767485
 30
0.0
 40
4.555757763870394
100
AcDbArc
 50
113.6207646338
 51
155.118463382
  0
LWPOLYLINE
  5
223
330
1F
100
AcDbEntity
  8
0
  6
PHANTOM
 62
     8
370
    18
100
AcDbPolyline
 90
        3
 70
   128
 43
0.0
 10
343.9273289007
 20
239.7379184589
 10
341.9847637195
 20
238.4236898973
 10
340.3024865699
 20
236.6092311062
  0
ARC
  5
224
330
1F
100
AcDbEntity
  8
0
  6
PHANTOM
 62
     8
370
    18
100
AcDbCircle
 10
212.0780268835
 20
335.8676705024
 30
0.0
 40
162.1534762292763
100
AcDbArc
 50
316.2663101393
 51
322.2565781164
  0
ARC
  5
225
330
1F
100
AcDbEntity
  8
0
  6
PHANTOM
 62
     8
370
    18
100
AcDbCircle
 10
327.9245373839
 20
224.7948971205
 30
0.0
 40
1.670704270455293
100
AcDbArc
 50
265.3445142304
 51
322.150612669
  0
LWPOLYLINE
  5
226
330
1F
100
AcDbEntity
  8
0
  6
PHANTOM
 62
     8
370
    18
100
AcDbPolyline
 90
       24
 70
   128
 43
0.0
 10
327.7889360475
 20
223.1297049283
 10
325.1386484209
 20
223.4809162019
 10
322.4474490159
 20
223.7056869711
 10
319.733407066
 20
223.8025080816
 10
317.0147451738
 20
223.7707294576
 10
314.3097169612
 20
223.610564467
 10
311.6364845108
 20
223.3230884886
 10
309.0129964226
 20
222.9102316915
 10
306.4568673031
 20
222.3747660764
 10
303.9852594976
 20
221.7202868628
 10
301.614767859
 20
220.9511883509
 10
299.361308327
 20
220.0726344168
 10
297.2400110645
 20
219.0905238416
 10
295.2651188719
 20
218.0114507057
 10
293.4498915574
 20
216.8426601148
 10
291.8065169083
 20
215.5919995552
 10
290.3460288599
 20
214.2678662036
 10
289.0782334115
 20
212.8791505478
 10
288.0116427871
 20
211.435176693
 10
287.1534182823
 20
209.9456397593
 10
286.5093221826
 20
208.4205407857
 10
286.0836790737
 20
206.8701195817
 10
285.8793468059
 20
205.3047859753
 10
285.8657259395
 20
204.2902467859
  0
ARC
  5
227
330
1F
100
AcDbEntity
  8
0
  6
PHANTOM
 62
     8
370
    18
100
AcDbCircle
 10
340.585335772
 20
204.6074095899
 30
0.0
 40
11.64390081691793
100
AcDbArc
 50
358.4391538352
 51
25.9174406617
  0
ARC
  5
228
330
1F
100
AcDbEntity
  8
0
  6
PHANTOM
 62
     8
370
    18
100
AcDbCircle
 10
353.3799009061
 20
210.3819018049
 30
0.0
 40
2.420758160981713
100
AcDbArc
 50
161.2591475926
 51
196.4431073792
  0
LWPOLYLINE
  5
229
330
1F
100
AcDbEntity
  8
0
  6
PHANTOM
 62
     8
370
    18
100
AcDbPolyline
 90
        5
 70
   128
 43
0.0
 10
351.0874878641
 20
211.1596630271
 10
351.9492962948
 20
215.2518409572
 10
352.8433398758
 20
219.7226593546
 10
353.6475061744
 20
223.9221115951
 10
354.4783563056
 20
228.4256757096
  0
LWPOLYLINE
  5
22A
330
1F
100
AcDbEntity
  8
0
  6
PHANTOM
 62
     8
370
    18
100
AcDbPolyline
 90
        3
 70
   128
 43
0.0
 10
354.4783563056
 20
228.4256757096
 10
354.7929546753
 20
231.029678672
 10
354.6703884121
 20
233.5360822128
  0
ARC
  5
22B
330
1F
100
AcDbEntity
  8
0
  6
PHANTOM
 62
     8
370
    18
100
AcDbCircle
 10
340.0823078789
 20
203.2147510322
 30
0.0
 40
11.71841067701532
100
AcDbArc
 50
3.9514629168
 51
25.7381046645
  0
LWPOLYLINE
  5
22C
330
1F
100
AcDbEntity
  8
0
  6
PHANTOM
 62
     8
370
    18
100
AcDbPolyline
 90
       23
 70
   128
 43
0.0
 10
286.3177808247
 20
204.0222828889
 10
286.5161604111
 20
205.5140992358
 10
286.9362187648
 20
207.0441777568
 10
287.5718638431
 20
208.5492662939
 10
288.418827802
 20
210.0192593917
 10
289.4714239616
 20
211.444287232
 10
290.7225849878
 20
212.8147819023
 10
292.1639103432
 20
214.1215416363
 10
293.7857226907
 20
215.3557925962
 10
295.5771328685
 20
216.5092477824
 10
297.526113002
 20
217.5741626737
 10
299.6195772615
 20
218.5433872253
 10
301.8434697232
 20
219.4104138763
 10
304.1828587427
 20
220.1694212419
 10
306.6220372096
 20
220.8153131999
 10
309.1446280079
 20
221.3437531066
 10
311.7336939749
 20
221.7511929144
 10
314.3718516209
 20
222.0348969935
 10
317.041387845
 20
222.1929604999
 10
319.7243788647
 20
222.2243221647
 10
322.4028105592
 20
222.1287714194
 10
325.05869942
 20
221.9069498104
 10
327.6742132954
 20
221.5603466908
  0
LWPOLYLINE
  5
22D
330
1F
100
AcDbEntity
  8
0
  6
PHANTOM
 62
     8
370
    18
100
AcDbPolyline
 90
        3
 70
   128
 43
0.0
 10
351.0581486577
 20
209.6966744186
 10
350.7449445594
 20
209.0072545633
 10
350.6381164742
 20
208.3035675642
  0
LWPOLYLINE
  5
22E
330
1F
100
AcDbEntity
  8
0
  6
PHANTOM
 62
     8
370
    18
100
AcDbPolyline
 90
        3
 70
   128
 43
0.0
 10
327.6742132954
 20
221.5603466908
 10
327.703391088
 20
222.3088602497
 10
327.7889360475
 20
223.1297049283
  0
ARC
  5
22F
330
1F
100
AcDbEntity
  8
0
  6
PHANTOM
 62
     8
370
    18
100
AcDbCircle
 10
337.3497587038
 20
210.4902491785
 30
0.0
 40
11.85206327856933
100
AcDbArc
 50
215.2779831966
 51
251.6606990224
  0
LINE
  5
230
330
1F
100
AcDbEntity
  8
0
  6
PHANTOM
 62
     8
370
    18
100
AcDbLine
 10
334.6194142946
 20
198.8931608577
 30
0.0
 11
333.6205825756
 21
199.2401536516
 31
0.0
  0
LWPOLYLINE
  5
231
330
1F
100
AcDbEntity
  8
0
  6
PHANTOM
 62
     8
370
    18
100
AcDbPolyline
 90
        3
 70
   128
 43
0.0
 10
334.6194142946
 20
198.8931608577
 10
336.6641121706
 20
198.1986835455
 10
336.7391217676
 20
198.1709650917
  0
LINE
  5
232
330
1F
100
AcDbEntity
  8
0
  6
PHANTOM
 62
     8
370
    18
100
AcDbLine
 10
350.6381164742
 20
203.3815497483
 30
0.0
 11
350.6381164742
 21
208.3035675642
 31
0.0
  0
LINE
  5
233
330
1F
100
AcDbEntity
  8
0
  6
PHANTOM
 62
     8
370
    18
100
AcDbLine
 10
327.6742132954
 20
221.5603466908
 30
0.0
 11
327.6742132954
 21
219.0583450074
 31
0.0
  0
LINE
  5
234
330
1F
100
AcDbEntity
  8
0
  6
PHANTOM
 62
     8
370
    18
100
AcDbLine
 10
327.6742132954
 20
213.2849987019
 30
0.0
 11
327.6742132954
 21
203.6451615231
 31
0.0
  0
LWPOLYLINE
  5
235
330
1F
100
AcDbEntity
  8
0
  6
PHANTOM
 62
     8
370
    18
100
AcDbPolyline
 90
        4
 70
   128
 43
0.0
 10
354.4783567911
 20
228.4256783856
 10
354.0218261273
 20
228.4695746889
 10
353.7550946997
 20
228.4780999756
 10
353.7526622543
 20
228.4202802591
  0
LWPOLYLINE
  5
236
330
1F
100
AcDbEntity
  8
0
  6
PHANTOM
 62
     8
370
    18
100
AcDbPolyline
 90
        3
 70
   128
 43
0.0
 10
350.6302394822
 20
210.8111701978
 10
350.6729944632
 20
211.0553210967
 10
351.0874878641
 20
211.1596630271
  0
LWPOLYLINE
  5
237
330
1F
100
AcDbEntity
  8
0
  6
PHANTOM
 62
     8
370
    18
100
AcDbPolyline
 90
        3
 70
   128
 43
0.0
 10
350.6381164742
 20
208.3035675642
 10
350.4185963905
 20
209.51634164
 10
350.4260385774
 20
209.5618728031
  0
LWPOLYLINE
  5
238
330
1F
100
AcDbEntity
  8
0
  6
PHANTOM
 62
     8
370
    18
100
AcDbPolyline
 90
        3
 70
   128
 43
0.0
 10
353.9023416043
 20
230.9910915079
 10
353.9095039909
 20
231.411899419
 10
353.8036961773
 20
232.7366801805
  0
LWPOLYLINE
  5
239
330
1F
100
AcDbEntity
  8
0
  6
PHANTOM
 62
     8
370
    18
100
AcDbPolyline
 90
        3
 70
   128
 43
0.0
 10
353.8036961773
 20
232.7366801805
 10
354.0887208241
 20
233.1362078506
 10
354.6703884121
 20
233.5360822128
  0
ARC
  5
23A
330
1F
100
AcDbEntity
  8
0
  6
PHANTOM
 62
     8
370
    18
100
AcDbCircle
 10
357.2188383403
 20
232.366676933
 30
0.0
 40
3.435127129622976
100
AcDbArc
 50
94.0224541536
 51
173.8165804362
  0
ARC
  5
23B
330
1F
100
AcDbEntity
  8
0
  6
PHANTOM
 62
     8
370
    18
100
AcDbCircle
 10
351.4251185482
 20
231.7193985155
 30
0.0
 40
2.586985412323851
100
AcDbArc
 50
23.1556628441
 51
57.0320509539
  0
ARC
  5
23C
330
1F
100
AcDbEntity
  8
0
  6
PHANTOM
 62
     8
370
    18
100
AcDbCircle
 10
357.4941290256
 20
233.6001421438
 30
0.0
 40
4.670243297762029
100
AcDbArc
 50
124.4125329461
 51
176.4439357777
  0
LINE
  5
23D
330
1F
100
AcDbEntity
  8
0
  6
PHANTOM
 62
     8
370
    18
100
AcDbLine
 10
352.8328778877
 20
223.3755711059
 30
0.0
 11
352.8328778877
 21
233.8898148732
 31
0.0
  0
ARC
  5
23E
330
1F
100
AcDbEntity
  8
0
  6
PHANTOM
 62
     8
370
    18
100
AcDbCircle
 10
329.3098971907
 20
200.0644321578
 30
0.0
 40
41.20057204353513
100
AcDbArc
 50
55.1843243313
 51
64.8210522014
  0
ARC
  5
23F
330
1F
100
AcDbEntity
  8
0
  6
PHANTOM
 62
     8
370
    18
100
AcDbCircle
 10
352.4519157354
 20
237.1244511527
 30
0.0
 40
5.617907193616944
100
AcDbArc
 50
134.0729148246
 51
177.696330024
  0
ARC
  5
240
330
1F
100
AcDbEntity
  8
0
  6
PHANTOM
 62
     8
370
    18
100
AcDbCircle
 10
328.4290287672
 20
174.9338063253
 30
0.0
 40
43.09060489382991
100
AcDbArc
 50
58.6651453999
 51
64.5705849507
  0
LWPOLYLINE
  5
241
330
1F
100
AcDbEntity
  8
0
  6
PHANTOM
 62
     8
370
    18
100
AcDbPolyline
 90
        3
 70
   128
 43
0.0
 10
346.9320845095
 20
213.8495763718
 10
346.8620772313
 20
214.0958877535
 10
346.838548808
 20
214.3502416439
  0
LINE
  5
242
330
1F
100
AcDbEntity
  8
0
  6
PHANTOM
 62
     8
370
    18
100
AcDbLine
 10
346.838548808
 20
237.3502673931
 30
0.0
 11
346.838548808
 21
230.1216804091
 31
0.0
  0
LINE
  5
243
330
1F
100
AcDbEntity
  8
0
  6
PHANTOM
 62
     8
370
    18
100
AcDbLine
 10
346.838548808
 20
224.3483341036
 30
0.0
 11
346.838548808
 21
214.3502416438
 31
0.0
  0
LWPOLYLINE
  5
244
330
1F
100
AcDbEntity
  8
0
  6
PHANTOM
 62
     8
370
    18
100
AcDbPolyline
 90
        3
 70
   128
 43
0.0
 10
329.2437695999
 20
223.7697731673
 10
330.1947932001
 20
222.8019090824
 10
330.9385674789
 20
222.1789304757
  0
ARC
  5
245
330
1F
100
AcDbEntity
  8
0
  6
PHANTOM
 62
     8
370
    18
100
AcDbCircle
 10
347.1757506076
 20
243.247831648
 30
0.0
 40
9.555769280426517
100
AcDbArc
 50
224.0050296294
 51
241.3325483629
  0
ARC
  5
246
330
1F
100
AcDbEntity
  8
0
  6
PHANTOM
 62
     8
370
    18
100
AcDbCircle
 10
230.3720140134
 20
326.2628152058
 30
0.0
 40
144.7310842094604
100
AcDbArc
 50
314.0153532115
 51
320.8382472813
  0
LINE
  5
247
330
1F
100
AcDbEntity
  8
0
  6
PHANTOM
 62
     8
370
    18
100
AcDbLine
 10
342.591607907
 20
234.8634197877
 30
0.0
 11
342.591607907
 21
227.669973613
 31
0.0
  0
LINE
  5
248
330
1F
100
AcDbEntity
  8
0
  6
PHANTOM
 62
     8
370
    18
100
AcDbLine
 10
342.5916079071
 20
221.8966273075
 30
0.0
 11
342.5916079071
 21
214.8812218564
 31
0.0
  0
ARC
  5
249
330
1F
100
AcDbEntity
  8
0
  6
PHANTOM
 62
     8
370
    18
100
AcDbCircle
 10
219.8080041644
 20
356.3929257183
 30
0.0
 40
187.3536113287529
100
AcDbArc
 50
306.3815337278
 51
310.9467668667
  0
LINE
  5
24A
330
1F
100
AcDbEntity
  8
0
  6
PHANTOM
 62
     8
370
    18
100
AcDbLine
 10
330.938567479
 20
205.5573411392
 30
0.0
 11
330.9385674789
 21
215.1694702599
 31
0.0
  0
LINE
  5
24B
330
1F
100
AcDbEntity
  8
0
  6
PHANTOM
 62
     8
370
    18
100
AcDbLine
 10
330.9385674789
 20
220.9428165654
 30
0.0
 11
330.9385674789
 21
222.1789304757
 31
0.0
  0
ARC
  5
24C
330
1F
100
AcDbEntity
  8
0
  6
PHANTOM
 62
     8
370
    18
100
AcDbCircle
 10
344.0683208792
 20
231.3166611056
 30
0.0
 40
6.639169195796222
100
AcDbArc
 50
65.3385817754
 51
83.3162760507
  0
ARC
  5
24D
330
1F
100
AcDbEntity
  8
0
  6
PHANTOM
 62
     8
370
    18
100
AcDbCircle
 10
359.68871534
 20
237.898189391
 30
0.0
 40
14.84767611959206
100
AcDbArc
 50
162.3627499277
 51
179.951688537
  0
LWPOLYLINE
  5
24E
330
1F
100
AcDbEntity
  8
0
  6
PHANTOM
 62
     8
370
    18
100
AcDbPolyline
 90
        3
 70
   128
 43
0.0
 10
343.9273289007
 20
239.7379184589
 10
344.3216949626
 20
238.7745918641
 10
344.8410444986
 20
237.9107088623
  0
ARC
  5
24F
330
1F
100
AcDbEntity
  8
0
  6
PHANTOM
 62
     8
370
    18
100
AcDbCircle
 10
351.3697516327
 20
230.737487015
 30
0.0
 40
9.699439597882565
100
AcDbArc
 50
132.306892082
 51
154.8253783429
  0
ARC
  5
250
330
1F
100
AcDbEntity
  8
0
  6
PHANTOM
 62
     8
370
    18
100
AcDbCircle
 10
343.819625965
 20
207.4536317313
 30
0.0
 40
7.528421044176748
100
AcDbArc
 50
66.3590757583
 51
99.3879001061
  0
ARC
  5
251
330
1F
100
AcDbEntity
  8
0
  6
PHANTOM
 62
     8
370
    18
100
AcDbCircle
 10
322.9888626
 20
162.1452171774
 30
0.0
 40
40.93198901920412
100
AcDbArc
 50
64.7726375439
 51
72.8303212968
  0
ARC
  5
252
330
1F
100
AcDbEntity
  8
0
  6
PHANTOM
 62
     8
370
    18
100
AcDbCircle
 10
253.9233149086
 20
325.5784741727
 30
0.0
 40
148.4652539932032
100
AcDbArc
 50
303.1329934659
 51
308.4679583936
  0
ARC
  5
253
330
1F
100
AcDbEntity
  8
0
  6
PHANTOM
 62
     8
370
    18
100
AcDbCircle
 10
328.7126203008
 20
173.4393735739
 30
0.0
 40
39.9654118938355
100
AcDbArc
 50
57.106035782
 51
63.9237101156
  0
LWPOLYLINE
  5
254
330
1F
100
AcDbEntity
  8
0
  6
PHANTOM
 62
     8
370
    18
100
AcDbPolyline
 90
        3
 70
   128
 43
0.0
 10
330.9385674789
 20
222.1789304757
 10
329.4494725857
 20
221.6215901311
 10
327.6742132954
 20
221.5603466908
  0
ARC
  5
255
330
1F
100
AcDbEntity
  8
0
  6
PHANTOM
 62
     8
370
    18
100
AcDbCircle
 10
327.6181147028
 20
207.48337064
 30
0.0
 40
3.838619058585524
100
AcDbArc
 50
270.8373654619
 51
329.8841120273
  0
LWPOLYLINE
  5
256
330
1F
100
AcDbEntity
  8
0
  6
PHANTOM
 62
     8
370
    18
100
AcDbPolyline
 90
        3
 70
   128
 43
0.0
 10
343.8160998956
 20
213.2887799001
 10
343.1456887805
 20
214.1510808766
 10
342.5916079071
 20
214.8812218564
  0
ARC
  5
257
330
1F
100
AcDbEntity
  8
0
  6
PHANTOM
 62
     8
370
    18
100
AcDbCircle
 10
327.0855271259
 20
200.1135739128
 30
0.0
 40
21.29549525161595
100
AcDbArc
 50
25.6645613013
 51
38.2201782579
  0
LINE
  5
258
330
1F
100
AcDbEntity
  8
0
  6
PHANTOM
 62
     8
370
    18
100
AcDbLine
 10
334.171464336
 20
201.3618254896
 30
0.0
 11
335.0720868267
 21
201.2530606023
 31
0.0
  0
ARC
  5
259
330
1F
100
AcDbEntity
  8
0
  6
PHANTOM
 62
     8
370
    18
100
AcDbCircle
 10
303.8209378768
 20
181.3182499682
 30
0.0
 40
36.37168371183937
100
AcDbArc
 50
33.4408879974
 51
41.7919346589
  0
ARC
  5
25A
330
1F
100
AcDbEntity
  8
0
  6
PHANTOM
 62
     8
370
    18
100
AcDbCircle
 10
341.8717356081
 20
198.7253965105
 30
0.0
 40
7.25426145870927
100
AcDbArc
 50
159.6081625609
 51
178.6748415233
  0
ARC
  5
25B
330
1F
100
AcDbEntity
  8
0
  6
PHANTOM
 62
     8
370
    18
100
AcDbCircle
 10
336.4252577395
 20
213.0639376808
 30
0.0
 40
10.53615854698103
100
AcDbArc
 50
339.28266198
 51
4.2762833447
  0
ARC
  5
25C
330
1F
100
AcDbEntity
  8
0
  6
PHANTOM
 62
     8
370
    18
100
AcDbCircle
 10
347.2584337245
 20
203.0991065744
 30
0.0
 40
10.75542210581821
100
AcDbArc
 50
91.7387790919
 51
108.6662916068
  0
ARC
  5
25D
330
1F
100
AcDbEntity
  8
0
  6
PHANTOM
 62
     8
370
    18
100
AcDbCircle
 10
336.3379582057
 20
217.9122592664
 30
0.0
 40
16.69163125302516
100
AcDbArc
 50
238.7316369779
 51
262.542241252
  0
LWPOLYLINE
  5
25E
330
1F
100
AcDbEntity
  8
0
  6
PHANTOM
 62
     8
370
    18
100
AcDbPolyline
 90
        3
 70
   128
 43
0.0
 10
334.171464336
 20
201.3618254896
 10
333.7828314102
 20
200.128910892
 10
333.6205825756
 20
199.2401536516
  0
LWPOLYLINE
  5
25F
330
1F
100
AcDbEntity
  8
0
  6
PHANTOM
 62
     8
370
    18
100
AcDbPolyline
 90
       51
 70
   128
 43
0.0
 10
374.0453211009
 20
151.2901296669
 10
374.0020572543
 20
150.0310135041
 10
373.7530783196
 20
148.0213708475
 10
373.2838105554
 20
146.0248903288
 10
372.5961435373
 20
144.0496110707
 10
371.6928462577
 20
142.1034868255
 10
370.5775559759
 20
140.1943539486
 10
369.2547635722
 20
138.3298998443
 10
367.7297954648
 20
136.5176320114
 10
366.0087921621
 20
134.7648478126
 10
364.0986835368
 20
133.0786050913
 10
362.0071609223
 20
131.4656937519
 10
359.742646142
 20
129.932608419
 10
357.3142575976
 20
128.4855222861
 10
354.7317735527
 20
127.1302622584
 10
352.005592759
 20
125.8722854897
 10
349.1466925846
 20
124.7166574085
 10
346.1665848112
 20
123.668031321
 10
343.0772692812
 20
122.7306296746
 10
339.8911855778
 20
121.9082270547
 10
336.6211629356
 20
121.2041349865
 10
333.2803685816
 20
120.6211886003
 10
329.8822547155
 20
120.1617352152
 10
326.4405043426
 20
119.8276248881
 10
322.9689761769
 20
119.6202029632
 10
319.481648837
 20
119.5403046554
 10
315.9925645593
 20
119.5882516871
 10
312.5157726548
 20
119.7638509924
 10
309.0652729373
 20
120.0663954949
 10
305.6549593513
 20
120.4946669547
 10
302.2985640261
 20
121.0469408738
 10
299.0096019809
 20
121.72099344
 10
295.8013167052
 20
122.5141104816
 10
292.6866268313
 20
123.4230983961
 10
289.6780741161
 20
124.44429701
 10
286.7877729396
 20
125.573594317
 10
284.0273615244
 20
126.8064430353
 10
281.407955073
 20
128.1378789184
 10
278.9401010108
 20
129.5625407437
 10
276.6337365149
 20
131.0746919011
 10
274.4981485013
 20
132.6682434914
 10
272.5419362291
 20
134.3367788448
 10
270.7729766747
 20
136.0735793584
 10
269.1983928139
 20
137.8716515496
 10
267.8245249401
 20
139.7237552161
 10
266.6569051344
 20
141.6224325903
 10
265.7002349897
 20
143.5600383685
 10
264.9583666789
 20
145.528770496
 10
264.4342874439
 20
147.5207015835
 10
264.1301075668
 20
149.5278108274
 10
264.0453211009
 20
151.2901296669
  0
LWPOLYLINE
  5
260
330
1F
100
AcDbEntity
  8
0
  6
PHANTOM
 62
     8
370
    18
100
AcDbPolyline
 90
       45
 70
   128
 43
0.0
 10
372.6947040822
 20
143.1392582698
 10
372.2643798962
 20
141.9811051546
 10
371.3666788181
 20
140.0470377413
 10
370.258298099
 20
138.1497325235
 10
368.9437007968
 20
136.2968292798
 10
367.4281803309
 20
134.4957889976
 10
365.7178391674
 20
132.7538638303
 10
363.8195642463
 20
131.0780678958
 10
361.7409992509
 20
129.475149033
 10
359.4905138287
 20
127.9515616302
 10
357.0771698903
 20
126.5134406363
 10
354.5106851199
 20
125.1665768569
 10
351.8013938459
 20
123.9163936371
 10
348.9602054281
 20
122.7679250235
 10
345.9985603293
 20
121.7257954938
 10
342.9283840491
 20
120.7942013358
 10
339.7620391038
 20
119.9768937505
 10
336.5122752469
 20
119.2771637469
 10
333.1921781305
 20
118.6978288909
 10
329.815116614
 20
118.2412219594
 10
326.394688932
 20
117.9091815474
 10
322.9446679397
 20
117.7030446644
 10
319.4789456539
 20
117.623641351
 10
316.0114773151
 20
117.6712913362
 10
312.5562251944
 20
117.8458027504
 10
309.1271023727
 20
118.1464728977
 10
305.7379167172
 20
118.5720910855
 10
302.4023152824
 20
119.1209434996
 10
299.133729358
 20
119.790820105
 10
295.9453203858
 20
120.5790235451
 10
292.8499269636
 20
121.4823800029
 10
289.860013148
 20
122.4972519806
 10
286.9876182668
 20
123.6195529471
 10
284.2443084403
 20
124.8447637925
 10
281.641130009
 20
126.167951025
 10
279.1885650537
 20
127.5837866369
 10
276.8964891877
 20
129.0865695576
 10
274.7741317918
 20
130.6702486109
 10
272.8300388499
 20
132.3284468801
 10
271.0720385382
 20
134.054487386
 10
269.5072097036
 20
135.8414199727
 10
268.1418533594
 20
137.6820492934
 10
266.9814673137
 20
139.5689637835
 10
266.0307240316
 20
141.4945655042
 10
265.4039589675
 20
143.1155539384
  0
LINE
  5
261
330
1F
100
AcDbEntity
  8
0
  6
Continuous
 62
     7
370
    25
100
AcDbLine
 10
190.0523445193
 20
254.7015763547
 30
0.0
 11
84.5523445193
 21
254.7015763547
 31
0.0
  0
ARC
  5
262
330
1F
100
AcDbEntity
  8
0
  6
Continuous
 62
     7
370
    25
100
AcDbCircle
 10
84.3023445193
 20
253.2015763547
 30
0.0
 40
0.999999999999982
100
AcDbArc
 50
122.9533294624
 51
243.4225014848
  0
ARC
  5
263
330
1F
100
AcDbEntity
  8
0
  6
Continuous
 62
     7
370
    25
100
AcDbCircle
 10
190.3023445193
 20
253.2015763547
 30
0.0
 40
1.000000000000158
100
AcDbArc
 50
296.5774985152
 51
57.0466705376
  0
ARC
  5
264
330
1F
100
AcDbEntity
  8
0
  6
Continuous
 62
     7
370
    25
100
AcDbCircle
 10
191.3902559423
 20
254.8798042104
 30
0.0
 40
0.9999999999999596
100
AcDbArc
 50
206.8818319097
 51
237.0466705376
  0
ARC
  5
265
330
1F
100
AcDbEntity
  8
0
  6
Continuous
 62
     7
370
    25
100
AcDbCircle
 10
83.2144330964
 20
254.8798042104
 30
0.0
 40
1.00000000000001
100
AcDbArc
 50
302.9533294624
 51
333.1181680903
  0
ARC
  5
266
330
1F
100
AcDbEntity
  8
0
  6
Continuous
 62
     7
370
    25
100
AcDbCircle
 10
191.1971603125
 20
251.4129163265
 30
0.0
 40
1.000000000000041
100
AcDbArc
 50
116.5774985152
 51
172.4784170159
  0
ARC
  5
267
330
1F
100
AcDbEntity
  8
0
  6
Continuous
 62
     7
370
    25
100
AcDbCircle
 10
83.4075287262
 20
251.4129163265
 30
0.0
 40
1.000000000000076
100
AcDbArc
 50
7.5215829841
 51
63.4225014848
  0
ARC
  5
268
330
1F
100
AcDbEntity
  8
0
  6
Continuous
 62
     7
370
    25
100
AcDbCircle
 10
190.0523445193
 20
254.2015763547
 30
0.0
 40
0.5000000000000752
100
AcDbArc
 50
26.8818319097
 51
143.7815835926
  0
LINE
  5
269
330
1F
100
AcDbEntity
  8
0
  6
Continuous
 62
     7
370
    25
100
AcDbLine
 10
84.9557297363
 20
254.4970088626
 30
0.0
 11
189.6489593024
 21
254.4970088626
 31
0.0
  0
ARC
  5
26A
330
1F
100
AcDbEntity
  8
0
  6
Continuous
 62
     7
370
    25
100
AcDbCircle
 10
84.5523445193
 20
254.2015763547
 30
0.0
 40
0.5000000000000491
100
AcDbArc
 50
36.2184164074
 51
153.1181680903
  0
LINE
  5
26B
330
1F
100
AcDbEntity
  8
0
  6
Continuous
 62
     7
370
    25
100
AcDbLine
 10
189.3597206729
 20
245.1361265275
 30
0.0
 11
190.20576469
 21
251.543815981
 31
0.0
  0
LINE
  5
26C
330
1F
100
AcDbEntity
  8
0
  6
Continuous
 62
     7
370
    25
100
AcDbLine
 10
84.3989243487
 20
251.543815981
 30
0.0
 11
85.2449683658
 21
245.1361265275
 31
0.0
  0
LINE
  5
26D
330
1F
100
AcDbEntity
  8
0
  6
Continuous
 62
     7
370
    25
100
AcDbLine
 10
187.0523445193
 20
250.9515763547
 30
0.0
 11
189.6489593024
 21
254.4970088626
 31
0.0
  0
LINE
  5
26E
330
1F
100
AcDbEntity
  8
0
  6
Continuous
 62
     7
370
    25
100
AcDbLine
 10
84.9557297363
 20
254.4970088626
 30
0.0
 11
87.5523445193
 21
250.9515763547
 31
0.0
  0
ARC
  5
26F
330
1F
100
AcDbEntity
  8
0
  6
Continuous
 62
     7
370
    25
100
AcDbCircle
 10
188.8640228616
 20
245.2015763547
 30
0.0
 40
0.4999999999996874
100
AcDbArc
 50
270.0
 51
352.4784170159
  0
ARC
  5
270
330
1F
100
AcDbEntity
  8
0
  6
Continuous
 62
     7
370
    25
100
AcDbCircle
 10
85.7406661771
 20
245.2015763547
 30
0.0
 40
0.4999999999996874
100
AcDbArc
 50
187.5215829841
 51
270.0
  0
LINE
  5
271
330
1F
100
AcDbEntity
  8
0
  6
Continuous
 62
     7
370
    25
100
AcDbLine
 10
188.3023445193
 20
247.0265763547
 30
0.0
 11
188.3023445193
 21
248.6265763547
 31
0.0
  0
LINE
  5
272
330
1F
100
AcDbEntity
  8
0
  6
Continuous
 62
     7
370
    25
100
AcDbLine
 10
86.3023445193
 20
248.6265763547
 30
0.0
 11
86.3023445193
 21
247.0265763547
 31
0.0
  0
LINE
  5
273
330
1F
100
AcDbEntity
  8
0
  6
Continuous
 62
     7
370
    25
100
AcDbLine
 10
183.3023445193
 20
244.7015763547
 30
0.0
 11
183.3023445193
 21
247.0265763547
 31
0.0
  0
LINE
  5
274
330
1F
100
AcDbEntity
  8
0
  6
Continuous
 62
     7
370
    25
100
AcDbLine
 10
91.3023445193
 20
247.0265763547
 30
0.0
 11
91.3023445193
 21
244.7015763547
 31
0.0
  0
LINE
  5
275
330
1F
100
AcDbEntity
  8
0
  6
Continuous
 62
     7
370
    25
100
AcDbLine
 10
183.3023445193
 20
244.7015763547
 30
0.0
 11
181.0739978254
 21
244.7015763547
 31
0.0
  0
LINE
  5
276
330
1F
100
AcDbEntity
  8
0
  6
Continuous
 62
     7
370
    25
100
AcDbLine
 10
93.5306912133
 20
244.7015763547
 30
0.0
 11
91.3023445193
 21
244.7015763547
 31
0.0
  0
LINE
  5
277
330
1F
100
AcDbEntity
  8
0
  6
Continuous
 62
     7
370
    25
100
AcDbLine
 10
183.3023445193
 20
248.6265763547
 30
0.0
 11
183.3023445193
 21
250.9515763547
 31
0.0
  0
LINE
  5
278
330
1F
100
AcDbEntity
  8
0
  6
Continuous
 62
     7
370
    25
100
AcDbLine
 10
91.3023445193
 20
250.9515763547
 30
0.0
 11
91.3023445193
 21
248.6265763547
 31
0.0
  0
LINE
  5
279
330
1F
100
AcDbEntity
  8
0
  6
Continuous
 62
     7
370
    25
100
AcDbLine
 10
91.3023445193
 20
250.9515763547
 30
0.0
 11
183.3023445193
 21
250.9515763547
 31
0.0
  0
LINE
  5
27A
330
1F
100
AcDbEntity
  8
0
  6
Continuous
 62
     7
370
    25
100
AcDbLine
 10
183.3023445193
 20
248.6265763547
 30
0.0
 11
91.3023445193
 21
248.6265763547
 31
0.0
  0
LINE
  5
27B
330
1F
100
AcDbEntity
  8
0
  6
Continuous
 62
     7
370
    25
100
AcDbLine
 10
91.3023445193
 20
250.9515763547
 30
0.0
 11
87.5523445193
 21
250.9515763547
 31
0.0
  0
LINE
  5
27C
330
1F
100
AcDbEntity
  8
0
  6
Continuous
 62
     7
370
    25
100
AcDbLine
 10
91.3023445193
 20
247.0265763547
 30
0.0
 11
86.3023445193
 21
247.0265763547
 31
0.0
  0
LINE
  5
27D
330
1F
100
AcDbEntity
  8
0
  6
Continuous
 62
     7
370
    25
100
AcDbLine
 10
86.3023445193
 20
248.6265763547
 30
0.0
 11
91.3023445193
 21
248.6265763547
 31
0.0
  0
LINE
  5
27E
330
1F
100
AcDbEntity
  8
0
  6
Continuous
 62
     7
370
    25
100
AcDbLine
 10
85.7405516942
 20
244.7015763547
 30
0.0
 11
91.3023445193
 21
244.7015763547
 31
0.0
  0
LINE
  5
27F
330
1F
100
AcDbEntity
  8
0
  6
Continuous
 62
     7
370
    25
100
AcDbLine
 10
187.0523445193
 20
250.9515763547
 30
0.0
 11
183.3023445193
 21
250.9515763547
 31
0.0
  0
LINE
  5
280
330
1F
100
AcDbEntity
  8
0
  6
Continuous
 62
     7
370
    25
100
AcDbLine
 10
188.3023445193
 20
247.0265763547
 30
0.0
 11
183.3023445193
 21
247.0265763547
 31
0.0
  0
LINE
  5
281
330
1F
100
AcDbEntity
  8
0
  6
Continuous
 62
     7
370
    25
100
AcDbLine
 10
183.3023445193
 20
248.6265763547
 30
0.0
 11
188.3023445193
 21
248.6265763547
 31
0.0
  0
LINE
  5
282
330
1F
100
AcDbEntity
  8
0
  6
Continuous
 62
     7
370
    25
100
AcDbLine
 10
183.3023445193
 20
244.7015763547
 30
0.0
 11
188.864083595
 21
244.7015763547
 31
0.0
  0
CIRCLE
  5
283
330
1F
100
AcDbEntity
  8
0
  6
Continuous
 62
     7
370
    25
100
AcDbCircle
 10
137.3023445193
 20
236.8765763547
 30
0.0
 40
2.5
  0
ARC
  5
284
330
1F
100
AcDbEntity
  8
0
  6
Continuous
 62
     7
370
    25
100
AcDbCircle
 10
167.3023445193
 20
179.2765763547
 30
0.0
 40
16.0
100
AcDbArc
 50
270.0
 51
0.0
  0
ARC
  5
285
330
1F
100
AcDbEntity
  8
0
  6
Continuous
 62
     7
370
    25
100
AcDbCircle
 10
107.3023445193
 20
179.2765763547
 30
0.0
 40
16.00000000000001
100
AcDbArc
 50
180.0
 51
270.0
  0
ARC
  5
286
330
1F
100
AcDbEntity
  8
0
  6
Continuous
 62
     7
370
    25
100
AcDbCircle
 10
107.3023445193
 20
179.2765763547
 30
0.0
 40
15.00000000000001
100
AcDbArc
 50
180.0
 51
270.0
  0
LINE
  5
287
330
1F
100
AcDbEntity
  8
0
  6
Continuous
 62
     7
370
    25
100
AcDbLine
 10
116.5404669202
 20
164.2765763547
 30
0.0
 11
107.3023294392
 21
164.2765763547
 31
0.0
  0
ARC
  5
288
330
1F
100
AcDbEntity
  8
0
  6
Continuous
 62
     7
370
    25
100
AcDbCircle
 10
116.5404867802
 20
179.2765763547
 30
0.0
 40
15.00000000000021
100
AcDbArc
 50
270.0
 51
311.5454692449
  0
LINE
  5
289
330
1F
100
AcDbEntity
  8
0
  6
Continuous
 62
     7
370
    25
100
AcDbLine
 10
126.7285864748
 20
168.2623591563
 30
0.0
 11
126.4886998072
 21
168.0501317897
 31
0.0
  0
ARC
  5
28A
330
1F
100
AcDbEntity
  8
0
  6
Continuous
 62
     7
370
    25
100
AcDbCircle
 10
137.3276912407
 20
156.2765763547
 30
0.0
 40
16.00000035020051
100
AcDbArc
 50
90.0907662977
 51
131.486536107
  0
ARC
  5
28B
330
1F
100
AcDbEntity
  8
0
  6
Continuous
 62
     7
370
    25
100
AcDbCircle
 10
137.276997798
 20
156.2765763547
 30
0.0
 40
16.00000035020051
100
AcDbArc
 50
48.513463893
 51
89.9092337023
  0
LINE
  5
28C
330
1F
100
AcDbEntity
  8
0
  6
Continuous
 62
     7
370
    25
100
AcDbLine
 10
148.1159892315
 20
168.0501317897
 30
0.0
 11
147.8761025639
 21
168.2623591563
 31
0.0
  0
ARC
  5
28D
330
1F
100
AcDbEntity
  8
0
  6
Continuous
 62
     7
370
    25
100
AcDbCircle
 10
158.0642022585
 20
179.2765763547
 30
0.0
 40
15.00000000000022
100
AcDbArc
 50
228.4545307551
 51
270.0
  0
LINE
  5
28E
330
1F
100
AcDbEntity
  8
0
  6
Continuous
 62
     7
370
    25
100
AcDbLine
 10
167.3023502953
 20
164.2765763547
 30
0.0
 11
158.0642149747
 21
164.2765763547
 31
0.0
  0
ARC
  5
28F
330
1F
100
AcDbEntity
  8
0
  6
Continuous
 62
     7
370
    25
100
AcDbCircle
 10
167.3023445193
 20
179.2765763547
 30
0.0
 40
15.0
100
AcDbArc
 50
270.0
 51
0.0
  0
LINE
  5
290
330
1F
100
AcDbEntity
  8
0
  6
Continuous
 62
     7
370
    25
100
AcDbLine
 10
182.3023445193
 20
179.2765763547
 30
0.0
 11
182.3023445193
 21
228.2765763547
 31
0.0
  0
LINE
  5
291
330
1F
100
AcDbEntity
  8
0
  6
Continuous
 62
     7
370
    25
100
AcDbLine
 10
183.3023445193
 20
228.2765763547
 30
0.0
 11
182.3023445193
 21
228.2765763547
 31
0.0
  0
LINE
  5
292
330
1F
100
AcDbEntity
  8
0
  6
Continuous
 62
     7
370
    25
100
AcDbLine
 10
183.3023445193
 20
179.2765763547
 30
0.0
 11
183.3023445193
 21
228.2765763547
 31
0.0
  0
LINE
  5
293
330
1F
100
AcDbEntity
  8
0
  6
Continuous
 62
     7
370
    25
100
AcDbLine
 10
158.0642046685
 20
163.2765763547
 30
0.0
 11
167.3023606016
 21
163.2765763547
 31
0.0
  0
ARC
  5
294
330
1F
100
AcDbEntity
  8
0
  6
Continuous
 62
     7
370
    25
100
AcDbCircle
 10
158.0642022585
 20
179.2765763547
 30
0.0
 40
16.0
100
AcDbArc
 50
228.5
 51
270.0
  0
LINE
  5
295
330
1F
100
AcDbEntity
  8
0
  6
Continuous
 62
     7
370
    25
100
AcDbLine
 10
147.462281487
 20
167.2932848221
 30
0.0
 11
147.2162985213
 21
167.5109121665
 31
0.0
  0
ARC
  5
296
330
1F
100
AcDbEntity
  8
0
  6
Continuous
 62
     7
370
    25
100
AcDbCircle
 10
137.276997798
 20
156.2765763547
 30
0.0
 40
15.00000000000004
100
AcDbArc
 50
48.5
 51
89.9031826102
  0
ARC
  5
297
330
1F
100
AcDbEntity
  8
0
  6
Continuous
 62
     7
370
    25
100
AcDbCircle
 10
137.3276912407
 20
156.2765763547
 30
0.0
 40
15.00000000000005
100
AcDbArc
 50
90.0968173898
 51
131.5
  0
LINE
  5
298
330
1F
100
AcDbEntity
  8
0
  6
Continuous
 62
     7
370
    25
100
AcDbLine
 10
127.3883905174
 20
167.5109121665
 30
0.0
 11
127.1424075517
 21
167.2932848221
 31
0.0
  0
ARC
  5
299
330
1F
100
AcDbEntity
  8
0
  6
Continuous
 62
     7
370
    25
100
AcDbCircle
 10
116.5404867802
 20
179.2765763547
 30
0.0
 40
16.00000000000001
100
AcDbArc
 50
270.0
 51
311.5
  0
LINE
  5
29A
330
1F
100
AcDbEntity
  8
0
  6
Continuous
 62
     7
370
    25
100
AcDbLine
 10
107.3023183003
 20
163.2765763547
 30
0.0
 11
116.5404780592
 21
163.2765763547
 31
0.0
  0
LINE
  5
29B
330
1F
100
AcDbEntity
  8
0
  6
Continuous
 62
     7
370
    25
100
AcDbLine
 10
91.3023445193
 20
228.2765763547
 30
0.0
 11
91.3023445193
 21
179.2765763547
 31
0.0
  0
LINE
  5
29C
330
1F
100
AcDbEntity
  8
0
  6
Continuous
 62
     7
370
    25
100
AcDbLine
 10
92.3023445193
 20
228.2765763547
 30
0.0
 11
91.3023445193
 21
228.2765763547
 31
0.0
  0
LINE
  5
29D
330
1F
100
AcDbEntity
  8
0
  6
Continuous
 62
     7
370
    25
100
AcDbLine
 10
92.3023445193
 20
228.2765763547
 30
0.0
 11
92.3023445193
 21
179.2765763547
 31
0.0
  0
LINE
  5
29E
330
1F
100
AcDbEntity
  8
0
  6
Continuous
 62
     7
370
    25
100
AcDbLine
 10
92.3023445193
 20
228.2765763547
 30
0.0
 11
103.0136693848
 21
228.2765763547
 31
0.0
  0
LINE
  5
29F
330
1F
100
AcDbEntity
  8
0
  6
Continuous
 62
     7
370
    25
100
AcDbLine
 10
171.5910196539
 20
228.2765763547
 30
0.0
 11
182.3023445193
 21
228.2765763547
 31
0.0
  0
LINE
  5
2A0
330
1F
100
AcDbEntity
  8
0
  6
Continuous
 62
     7
370
    25
100
AcDbLine
 10
147.462281487
 20
167.2932848221
 30
0.0
 11
127.1424075517
 21
167.2932848221
 31
0.0
  0
LINE
  5
2A1
330
1F
100
AcDbEntity
  8
0
  6
Continuous
 62
     7
370
    25
100
AcDbLine
 10
133.2598933387
 20
163.2765763547
 30
0.0
 11
116.5404780592
 21
163.2765763547
 31
0.0
  0
LINE
  5
2A2
330
1F
100
AcDbEntity
  8
0
  6
Continuous
 62
     7
370
    25
100
AcDbLine
 10
157.9477237387
 20
163.2765763547
 30
0.0
 11
133.2598933387
 21
163.2765763547
 31
0.0
  0
LINE
  5
2A3
330
1F
100
AcDbEntity
  8
0
  6
Continuous
 62
     7
370
    25
100
AcDbLine
 10
127.3883905174
 20
167.5109121665
 30
0.0
 11
147.2162985213
 21
167.5109121665
 31
0.0
  0
LINE
  5
2A4
330
1F
100
AcDbEntity
  8
0
  6
Continuous
 62
     7
370
    25
100
AcDbLine
 10
129.2138191593
 20
248.2765763547
 30
0.0
 11
91.0333182201
 21
248.2765763547
 31
0.0
  0
ARC
  5
2A5
330
1F
100
AcDbEntity
  8
0
  6
Continuous
 62
     7
370
    25
100
AcDbCircle
 10
127.513444172
 20
246.8747265023
 30
0.0
 40
2.203737304247378
100
AcDbArc
 50
354.1882761361
 51
39.5033880448
  0
LINE
  5
2A6
330
1F
100
AcDbEntity
  8
0
  6
Continuous
 62
     7
370
    25
100
AcDbLine
 10
93.8482338614
 20
246.6515763547
 30
0.0
 11
129.7058542882
 21
246.6515763547
 31
0.0
  0
ARC
  5
2A7
330
1F
100
AcDbEntity
  8
0
  6
Continuous
 62
     7
370
    25
100
AcDbCircle
 10
91.0336512991
 20
245.0265763547
 30
0.0
 40
3.250000000000036
100
AcDbArc
 50
30.0
 51
90.0
  0
ARC
  5
2A8
330
1F
100
AcDbEntity
  8
0
  6
Continuous
 62
     7
370
    25
100
AcDbCircle
 10
91.0336512991
 20
245.0265763547
 30
0.0
 40
2.0
100
AcDbArc
 50
30.0
 51
90.0
  0
LINE
  5
2A9
330
1F
100
AcDbEntity
  8
0
  6
Continuous
 62
     7
370
    25
100
AcDbLine
 10
120.8485264898
 20
228.8656779698
 30
0.0
 11
104.1169270816
 21
228.8656779698
 31
0.0
  0
LWPOLYLINE
  5
2AA
330
1F
100
AcDbEntity
  8
0
  6
Continuous
 62
     7
370
    25
100
AcDbPolyline
 90
        3
 70
   128
 43
0.0
 10
121.0644128592
 20
227.2406779698
 10
121.0095058107
 20
228.0818398664
 10
120.8485264898
 20
228.8656779698
  0
LINE
  5
2AB
330
1F
100
AcDbEntity
  8
0
  6
Continuous
 62
     7
370
    25
100
AcDbLine
 10
104.5523445193
 20
227.2406779698
 30
0.0
 11
121.0644128592
 21
227.2406779698
 31
0.0
  0
ARC
  5
2AC
330
1F
100
AcDbEntity
  8
0
  6
Continuous
 62
     7
370
    25
100
AcDbCircle
 10
101.3023445193
 20
227.2406779698
 30
0.0
 40
3.250000000000014
100
AcDbArc
 50
0.0
 51
30.0
  0
ARC
  5
2AD
330
1F
100
AcDbEntity
  8
0
  6
Continuous
 62
     7
370
    25
100
AcDbCircle
 10
101.3023445193
 20
227.2406779698
 30
0.0
 40
2.000000000000014
100
AcDbArc
 50
0.0
 51
30.0
  0
LINE
  5
2AE
330
1F
100
AcDbEntity
  8
0
  6
Continuous
 62
     7
370
    25
100
AcDbLine
 10
183.5713708186
 20
247.0265763547
 30
0.0
 11
188.3023445193
 21
247.0265763547
 31
0.0
  0
ARC
  5
2AF
330
1F
100
AcDbEntity
  8
0
  6
Continuous
 62
     7
370
    25
100
AcDbCircle
 10
183.5710377396
 20
245.0265763547
 30
0.0
 40
2.000000000000002
100
AcDbArc
 50
90.0
 51
150.0
  0
LINE
  5
2B0
330
1F
100
AcDbEntity
  8
0
  6
Continuous
 62
     7
370
    25
100
AcDbLine
 10
171.5702937118
 20
228.2406779698
 30
0.0
 11
181.8389869321
 21
246.0265763547
 31
0.0
  0
ARC
  5
2B1
330
1F
100
AcDbEntity
  8
0
  6
Continuous
 62
     7
370
    25
100
AcDbCircle
 10
173.3023445193
 20
227.2406779698
 30
0.0
 40
2.000000000000028
100
AcDbArc
 50
150.0
 51
180.0
  0
LINE
  5
2B2
330
1F
100
AcDbEntity
  8
0
  6
Continuous
 62
     7
370
    25
100
AcDbLine
 10
171.3023445193
 20
178.2765763547
 30
0.0
 11
171.3023445193
 21
227.2406779698
 31
0.0
  0
LINE
  5
2B3
330
1F
100
AcDbEntity
  8
0
  6
Continuous
 62
     7
370
    25
100
AcDbLine
 10
170.0523445193
 20
178.2765763547
 30
0.0
 11
171.3023445193
 21
178.2765763547
 31
0.0
  0
LINE
  5
2B4
330
1F
100
AcDbEntity
  8
0
  6
Continuous
 62
     7
370
    25
100
AcDbLine
 10
170.0523445193
 20
178.2765763547
 30
0.0
 11
170.0523445193
 21
227.2406779698
 31
0.0
  0
ARC
  5
2B5
330
1F
100
AcDbEntity
  8
0
  6
Continuous
 62
     7
370
    25
100
AcDbCircle
 10
173.3023445193
 20
227.2406779698
 30
0.0
 40
3.250000000000028
100
AcDbArc
 50
150.0
 51
180.0
  0
LINE
  5
2B6
330
1F
100
AcDbEntity
  8
0
  6
Continuous
 62
     7
370
    25
100
AcDbLine
 10
170.487761957
 20
228.8656779698
 30
0.0
 11
180.7564551773
 21
246.6515763547
 31
0.0
  0
ARC
  5
2B7
330
1F
100
AcDbEntity
  8
0
  6
Continuous
 62
     7
370
    25
100
AcDbCircle
 10
183.5710377396
 20
245.0265763547
 30
0.0
 40
3.250000000000024
100
AcDbArc
 50
90.0
 51
150.0
  0
LINE
  5
2B8
330
1F
100
AcDbEntity
  8
0
  6
Continuous
 62
     7
370
    25
100
AcDbLine
 10
188.3023445193
 20
248.2765763547
 30
0.0
 11
183.5713708928
 21
248.2765763547
 31
0.0
  0
LINE
  5
2B9
330
1F
100
AcDbEntity
  8
0
  6
Continuous
 62
     7
370
    25
100
AcDbLine
 10
188.3023445193
 20
247.0265763547
 30
0.0
 11
188.3023445193
 21
248.2765763547
 31
0.0
  0
LINE
  5
2BA
330
1F
100
AcDbEntity
  8
0
  6
Continuous
 62
     7
370
    25
100
AcDbLine
 10
93.8482338614
 20
246.6515763547
 30
0.0
 11
104.1169270816
 21
228.8656779698
 31
0.0
  0
LINE
  5
2BB
330
1F
100
AcDbEntity
  8
0
  6
Continuous
 62
     7
370
    25
100
AcDbLine
 10
104.5523445193
 20
227.2406779698
 30
0.0
 11
104.5523445193
 21
178.2765763547
 31
0.0
  0
LINE
  5
2BC
330
1F
100
AcDbEntity
  8
0
  6
Continuous
 62
     7
370
    25
100
AcDbLine
 10
103.3023445193
 20
178.2765763547
 30
0.0
 11
104.5523445193
 21
178.2765763547
 31
0.0
  0
LINE
  5
2BD
330
1F
100
AcDbEntity
  8
0
  6
Continuous
 62
     7
370
    25
100
AcDbLine
 10
103.3023445193
 20
227.2406779698
 30
0.0
 11
103.3023445193
 21
178.2765763547
 31
0.0
  0
LINE
  5
2BE
330
1F
100
AcDbEntity
  8
0
  6
Continuous
 62
     7
370
    25
100
AcDbLine
 10
92.7657021066
 20
246.0265763547
 30
0.0
 11
103.0343953269
 21
228.2406779698
 31
0.0
  0
LINE
  5
2BF
330
1F
100
AcDbEntity
  8
0
  6
Continuous
 62
     7
370
    25
100
AcDbLine
 10
86.3023445193
 20
247.0265763547
 30
0.0
 11
91.0333181459
 21
247.0265763547
 31
0.0
  0
LINE
  5
2C0
330
1F
100
AcDbEntity
  8
0
  6
Continuous
 62
     7
370
    25
100
AcDbLine
 10
86.3023445193
 20
248.2765763547
 30
0.0
 11
86.3023445193
 21
247.0265763547
 31
0.0
  0
LINE
  5
2C1
330
1F
100
AcDbEntity
  8
0
  6
Continuous
 62
     7
370
    25
100
AcDbLine
 10
91.0333182201
 20
248.2765763547
 30
0.0
 11
86.3023445193
 21
248.2765763547
 31
0.0
  0
LINE
  5
2C2
330
1F
100
AcDbEntity
  8
0
  6
Continuous
 62
     7
370
    25
100
AcDbLine
 10
153.5402761795
 20
227.2406779698
 30
0.0
 11
170.0523445193
 21
227.2406779698
 31
0.0
  0
LWPOLYLINE
  5
2C3
330
1F
100
AcDbEntity
  8
0
  6
Continuous
 62
     7
370
    25
100
AcDbPolyline
 90
        3
 70
   128
 43
0.0
 10
153.7561625489
 20
228.8656779698
 10
153.595183228
 20
228.0818398664
 10
153.5402761795
 20
227.2406779698
  0
LINE
  5
2C4
330
1F
100
AcDbEntity
  8
0
  6
Continuous
 62
     7
370
    25
100
AcDbLine
 10
170.487761957
 20
228.8656779698
 30
0.0
 11
153.7561625489
 21
228.8656779698
 31
0.0
  0
LINE
  5
2C5
330
1F
100
AcDbEntity
  8
0
  6
Continuous
 62
     7
370
    25
100
AcDbLine
 10
144.8988347505
 20
246.6515763547
 30
0.0
 11
180.7564551773
 21
246.6515763547
 31
0.0
  0
ARC
  5
2C6
330
1F
100
AcDbEntity
  8
0
  6
Continuous
 62
     7
370
    25
100
AcDbCircle
 10
147.0912448667
 20
246.8747265023
 30
0.0
 40
2.203737304247429
100
AcDbArc
 50
140.4966119552
 51
185.8117238639
  0
LINE
  5
2C7
330
1F
100
AcDbEntity
  8
0
  6
Continuous
 62
     7
370
    25
100
AcDbLine
 10
183.5713708928
 20
248.2765763547
 30
0.0
 11
145.3908698794
 21
248.2765763547
 31
0.0
  0
ARC
  5
2C8
330
1F
100
AcDbEntity
  8
0
  6
Continuous
 62
     7
370
    25
100
AcDbCircle
 10
153.8063200663
 20
229.9791815693
 30
0.0
 40
1.114632694041419
100
AcDbArc
 50
198.3206883424
 51
267.4208680293
  0
ARC
  5
2C9
330
1F
100
AcDbEntity
  8
0
  6
Continuous
 62
     7
370
    25
100
AcDbCircle
 10
305.624147146
 20
299.5921308737
 30
0.0
 40
168.1247315700845
100
AcDbArc
 50
199.6863813663
 51
204.5910877194
  0
ARC
  5
2CA
330
1F
100
AcDbEntity
  8
0
  6
Continuous
 62
     7
370
    25
100
AcDbCircle
 10
139.2947103208
 20
240.3258620747
 30
0.0
 40
8.451087017419423
100
AcDbArc
 50
18.1305993113
 51
48.4613831988
  0
ARC
  5
2CB
330
1F
100
AcDbEntity
  8
0
  6
Continuous
 62
     7
370
    25
100
AcDbCircle
 10
135.5953720254
 20
240.1384222935
 30
0.0
 40
8.781093041392019
100
AcDbArc
 50
132.1214540116
 51
161.2865635236
  0
ARC
  5
2CC
330
1F
100
AcDbEntity
  8
0
  6
Continuous
 62
     7
370
    25
100
AcDbCircle
 10
-28.4459996426
 20
298.5451305619
 30
0.0
 40
165.3490282990755
100
AcDbArc
 50
335.3677189937
 51
340.3548119185
  0
ARC
  5
2CD
330
1F
100
AcDbEntity
  8
0
  6
Continuous
 62
     7
370
    25
100
AcDbCircle
 10
120.7984080163
 20
229.9791299987
 30
0.0
 40
1.114579419314473
100
AcDbArc
 50
272.5772462161
 51
341.6811974122
  0
LINE
  5
2CE
330
1F
100
AcDbEntity
  8
0
  6
Continuous
 62
     7
370
    25
100
AcDbLine
 10
121.0644128592
 20
227.2406779698
 30
0.0
 11
121.0644128592
 21
205.30033536
 31
0.0
  0
ARC
  5
2CF
330
1F
100
AcDbEntity
  8
0
  6
Continuous
 62
     7
370
    25
100
AcDbCircle
 10
127.2318075356
 20
208.3999196915
 30
0.0
 40
6.902476376162418
100
AcDbArc
 50
206.6830030156
 51
267.0009277194
  0
LINE
  5
2D0
330
1F
100
AcDbEntity
  8
0
  6
Continuous
 62
     7
370
    25
100
AcDbLine
 10
127.9432184328
 20
201.4481492299
 30
0.0
 11
126.8706714442
 21
201.506897071
 31
0.0
  0
LINE
  5
2D1
330
1F
100
AcDbEntity
  8
0
  6
Continuous
 62
     7
370
    25
100
AcDbLine
 10
127.9432184328
 20
201.4481492299
 30
0.0
 11
146.6614706058
 21
201.4481492299
 31
0.0
  0
LINE
  5
2D2
330
1F
100
AcDbEntity
  8
0
  6
Continuous
 62
     7
370
    25
100
AcDbLine
 10
147.7340175945
 20
201.506897071
 30
0.0
 11
146.6614706058
 21
201.4481492299
 31
0.0
  0
ARC
  5
2D3
330
1F
100
AcDbEntity
  8
0
  6
Continuous
 62
     7
370
    25
100
AcDbCircle
 10
147.2902631496
 20
208.5263758211
 30
0.0
 40
7.03349130451499
100
AcDbArc
 50
273.6172867479
 51
332.6987825169
  0
LINE
  5
2D4
330
1F
100
AcDbEntity
  8
0
  6
Continuous
 62
     7
370
    25
100
AcDbLine
 10
153.5402761795
 20
205.30033536
 30
0.0
 11
153.5402761795
 21
227.2406779698
 31
0.0
  0
LINE
  5
2D5
330
1F
100
AcDbEntity
  8
0
  6
Continuous
 62
     7
370
    25
100
AcDbLine
 10
170.0523445193
 20
178.2765763547
 30
0.0
 11
104.5523445193
 21
178.2765763547
 31
0.0
  0
ARC
  5
2D6
330
1F
100
AcDbEntity
  8
0
  6
Continuous
 62
     7
370
    25
100
AcDbCircle
 10
126.2524632916
 20
212.5519483365
 30
0.0
 40
8.916375836090625
100
AcDbArc
 50
234.4187811801
 51
273.5705111551
  0
ARC
  5
2D7
330
1F
100
AcDbEntity
  8
0
  6
Continuous
 62
     7
370
    25
100
AcDbCircle
 10
120.4598289698
 20
208.2103329979
 30
0.0
 40
2.972138612470925
100
AcDbArc
 50
281.7368546793
 51
349.088113043
  0
ARC
  5
2D8
330
1F
100
AcDbEntity
  8
0
  6
Continuous
 62
     7
370
    25
100
AcDbCircle
 10
130.5575386106
 20
210.341551092
 30
0.0
 40
7.668067421169024
100
AcDbArc
 50
200.5672434694
 51
240.7242115969
  0
ARC
  5
2D9
330
1F
100
AcDbEntity
  8
0
  6
Continuous
 62
     7
370
    25
100
AcDbCircle
 10
148.3449932774
 20
212.5771620638
 30
0.0
 40
8.941094525296279
100
AcDbArc
 50
266.4858078271
 51
305.5248998376
  0
ARC
  5
2DA
330
1F
100
AcDbEntity
  8
0
  6
Continuous
 62
     7
370
    25
100
AcDbCircle
 10
144.0471504281
 20
210.341551092
 30
0.0
 40
7.668067421166599
100
AcDbArc
 50
299.275788403
 51
339.4327565306
  0
LWPOLYLINE
  5
2DB
330
1F
100
AcDbEntity
  8
0
  6
Continuous
 62
     7
370
    25
100
AcDbPolyline
 90
        8
 70
   128
 43
0.0
 10
151.2264593258
 20
207.6477096477
 10
151.5168522544
 20
206.9736100839
 10
151.833232538
 20
206.4182772694
 10
152.1695621791
 20
205.9817112041
 10
152.4786463972
 20
205.6928269192
 10
152.8055838895
 20
205.4823693468
 10
153.1679452748
 20
205.3458438567
 10
153.5402761795
 20
205.30033536
  0
ARC
  5
2DC
330
1F
100
AcDbEntity
  8
0
  6
Continuous
 62
     7
370
    25
100
AcDbCircle
 10
121.2378843585
 20
230.6040144761
 30
0.0
 40
3.367807122726206
100
AcDbArc
 50
267.0474600539
 51
309.4593684316
  0
LINE
  5
2DD
330
1F
100
AcDbEntity
  8
0
  6
Continuous
 62
     7
370
    25
100
AcDbLine
 10
123.3782297129
 20
207.6477096477
 30
0.0
 11
123.3782297129
 21
228.0038132186
 31
0.0
  0
LINE
  5
2DE
330
1F
100
AcDbEntity
  8
0
  6
Continuous
 62
     7
370
    25
100
AcDbLine
 10
151.2264593258
 20
228.0038132186
 30
0.0
 11
151.2264593258
 21
207.6477096477
 31
0.0
  0
ARC
  5
2DF
330
1F
100
AcDbEntity
  8
0
  6
Continuous
 62
     7
370
    25
100
AcDbCircle
 10
153.3824811598
 20
230.6515453731
 30
0.0
 40
3.414515443027922
100
AcDbArc
 50
230.8444179921
 51
272.6487535224
  0
ARC
  5
2E0
330
1F
100
AcDbEntity
  8
0
  6
Continuous
 62
     7
370
    25
100
AcDbCircle
 10
119.0291475215
 20
202.3508824416
 30
0.0
 40
7.886812330423102
100
AcDbArc
 50
353.8568878672
 51
9.5021951998
  0
ARC
  5
2E1
330
1F
100
AcDbEntity
  8
0
  6
Continuous
 62
     7
370
    25
100
AcDbCircle
 10
154.8137869138
 20
226.1694789454
 30
0.0
 40
4.029106780644771
100
AcDbArc
 50
120.8418232797
 51
152.917646966
  0
ARC
  5
2E2
330
1F
100
AcDbEntity
  8
0
  6
Continuous
 62
     7
370
    25
100
AcDbCircle
 10
155.9273292824
 20
202.3405673458
 30
0.0
 40
8.235615492581243
100
AcDbArc
 50
170.8310606166
 51
185.8098563161
  0
ARC
  5
2E3
330
1F
100
AcDbEntity
  8
0
  6
Continuous
 62
     7
370
    25
100
AcDbCircle
 10
119.6864875171
 20
226.0717001909
 30
0.0
 40
4.166775874988245
100
AcDbArc
 50
27.625795607
 51
58.6147341474
  0
ARC
  5
2E4
330
1F
100
AcDbEntity
  8
0
  6
Continuous
 62
     7
370
    25
100
AcDbCircle
 10
125.6383043547
 20
238.5931640759
 30
0.0
 40
4.66068653283428
100
AcDbArc
 50
35.9705343982
 51
69.3952233353
  0
ARC
  5
2E5
330
1F
100
AcDbEntity
  8
0
  6
Continuous
 62
     7
370
    25
100
AcDbCircle
 10
-2.3439475154
 20
292.937121336
 30
0.0
 40
141.5005312714607
100
AcDbArc
 50
332.6844366652
 51
338.6103697744
  0
ARC
  5
2E6
330
1F
100
AcDbEntity
  8
0
  6
Continuous
 62
     7
370
    25
100
AcDbCircle
 10
148.8964307193
 20
238.684934879
 30
0.0
 40
4.55028910812805
100
AcDbArc
 50
110.1869423798
 51
144.4472998867
  0
ARC
  5
2E7
330
1F
100
AcDbEntity
  8
0
  6
Continuous
 62
     7
370
    25
100
AcDbCircle
 10
273.3163688142
 20
291.2930737536
 30
0.0
 40
137.5190041338423
100
AcDbArc
 50
201.3037648445
 51
207.401428716
  0
LWPOLYLINE
  5
2E8
330
1F
100
AcDbEntity
  8
0
  6
Continuous
 62
     7
370
    25
100
AcDbPolyline
 90
        3
 70
   128
 43
0.0
 10
145.1944017334
 20
216.8589386632
 10
144.8385278271
 20
215.9288360836
 10
144.2606924146
 20
214.9765608932
  0
ARC
  5
2E9
330
1F
100
AcDbEntity
  8
0
  6
Continuous
 62
     7
370
    25
100
AcDbCircle
 10
249.7590880245
 20
278.7533915636
 30
0.0
 40
121.510069208306
100
AcDbArc
 50
210.6223510015
 51
215.8159512062
  0
LINE
  5
2EA
330
1F
100
AcDbEntity
  8
0
  6
Continuous
 62
     7
370
    25
100
AcDbLine
 10
146.9335005246
 20
203.7462462688
 30
0.0
 11
147.796941952
 21
203.6528799607
 31
0.0
  0
ARC
  5
2EB
330
1F
100
AcDbEntity
  8
0
  6
Continuous
 62
     7
370
    25
100
AcDbCircle
 10
215.203331349
 20
262.2624552257
 30
0.0
 40
89.91616379432234
100
AcDbArc
 50
213.9689805362
 51
220.600912972
  0
ARC
  5
2EC
330
1F
100
AcDbEntity
  8
0
  6
Continuous
 62
     7
370
    25
100
AcDbCircle
 10
136.6329637375
 20
220.6397427315
 30
0.0
 40
9.50020385590777
100
AcDbArc
 50
294.8956972952
 51
323.4080829451
  0
LWPOLYLINE
  5
2ED
330
1F
100
AcDbEntity
  8
0
  6
Continuous
 62
     7
370
    25
100
AcDbPolyline
 90
        3
 70
   128
 43
0.0
 10
130.3439966241
 20
214.9765608932
 10
129.7661612116
 20
215.9288360837
 10
129.4102873052
 20
216.8589386635
  0
ARC
  5
2EE
330
1F
100
AcDbEntity
  8
0
  6
Continuous
 62
     7
370
    25
100
AcDbCircle
 10
137.9717253012
 20
220.6397427316
 30
0.0
 40
9.500203856028905
100
AcDbArc
 50
216.5919170551
 51
245.1043027047
  0
ARC
  5
2EF
330
1F
100
AcDbEntity
  8
0
  6
Continuous
 62
     7
370
    25
100
AcDbCircle
 10
59.4013576928
 20
262.2624552234
 30
0.0
 40
89.91616379043184
100
AcDbArc
 50
319.3990870277
 51
326.0310194638
  0
LINE
  5
2F0
330
1F
100
AcDbEntity
  8
0
  6
Continuous
 62
     7
370
    25
100
AcDbLine
 10
126.8077470867
 20
203.6528799607
 30
0.0
 11
127.6711885141
 21
203.7462462688
 31
0.0
  0
ARC
  5
2F1
330
1F
100
AcDbEntity
  8
0
  6
Continuous
 62
     7
370
    25
100
AcDbCircle
 10
25.9750201799
 20
278.0137810873
 30
0.0
 40
120.1614299064705
100
AcDbArc
 50
324.1548831365
 51
329.4068146583
  0
LINE
  5
2F2
330
1F
100
AcDbEntity
  8
0
  6
Continuous
 62
     7
370
    25
100
AcDbLine
 10
145.1944017334
 20
216.8589386632
 30
0.0
 11
145.1944017335
 21
241.3307074232
 31
0.0
  0
LINE
  5
2F3
330
1F
100
AcDbEntity
  8
0
  6
Continuous
 62
     7
370
    25
100
AcDbLine
 10
129.4102873052
 20
241.3307074232
 30
0.0
 11
129.4102873052
 21
216.8589386635
 31
0.0
  0
ARC
  5
2F4
330
1F
100
AcDbEntity
  8
0
  6
Continuous
 62
     7
370
    25
100
AcDbCircle
 10
155.415096853
 20
201.5771154561
 30
0.0
 40
8.754576218373842
100
AcDbArc
 50
165.6543446546
 51
180.8440714385
  0
ARC
  5
2F5
330
1F
100
AcDbEntity
  8
0
  6
Continuous
 62
     7
370
    25
100
AcDbCircle
 10
119.1895921857
 20
201.5771154561
 30
0.0
 40
8.75457621829873
100
AcDbArc
 50
359.1559285615
 51
14.3456553455
  0
LINE
  5
2F6
330
1F
100
AcDbEntity
  8
0
  6
Continuous
 62
     7
370
    25
100
AcDbLine
 10
146.9335005245
 20
203.7462462689
 30
0.0
 11
127.6711885141
 21
203.7462462689
 31
0.0
  0
LINE
  5
2F7
330
1F
100
AcDbEntity
  8
0
  6
Continuous
 62
     7
370
    25
100
AcDbLine
 10
133.9724463679
 20
212.0223393338
 30
0.0
 11
140.6322426708
 21
212.0223393338
 31
0.0
  0
LWPOLYLINE
  5
2F8
330
1F
100
AcDbEntity
  8
0
  6
Continuous
 62
     7
370
    25
100
AcDbPolyline
 90
        3
 70
   128
 43
0.0
 10
129.7058542882
 20
246.6515763547
 10
130.3960143007
 20
245.8830452113
 10
130.9647927399
 20
245.0265763547
  0
ARC
  5
2F9
330
1F
100
AcDbEntity
  8
0
  6
Continuous
 62
     7
370
    25
100
AcDbCircle
 10
139.3699466101
 20
239.3164646287
 30
0.0
 40
10.16129851469494
100
AcDbArc
 50
145.8094435353
 51
168.5667073924
  0
ARC
  5
2FA
330
1F
100
AcDbEntity
  8
0
  6
Continuous
 62
     7
370
    25
100
AcDbCircle
 10
135.234747173
 20
239.3164666242
 30
0.0
 40
10.16129346883822
100
AcDbArc
 50
11.4332868817
 51
34.1905621905
  0
LWPOLYLINE
  5
2FB
330
1F
100
AcDbEntity
  8
0
  6
Continuous
 62
     7
370
    25
100
AcDbPolyline
 90
        3
 70
   128
 43
0.0
 10
143.6398962988
 20
245.0265763547
 10
144.208674738
 20
245.8830452113
 10
144.8988347505
 20
246.6515763547
  0
LINE
  5
2FC
330
1F
100
AcDbEntity
  8
0
  6
Continuous
 62
     7
370
    25
100
AcDbLine
 10
130.9647927399
 20
245.0265763547
 30
0.0
 11
133.0637137785
 21
245.0265763547
 31
0.0
  0
LINE
  5
2FD
330
1F
100
AcDbEntity
  8
0
  6
Continuous
 62
     7
370
    25
100
AcDbLine
 10
133.0637137785
 20
245.0265763547
 30
0.0
 11
133.0637137785
 21
216.8589386635
 31
0.0
  0
LINE
  5
2FE
330
1F
100
AcDbEntity
  8
0
  6
Continuous
 62
     7
370
    25
100
AcDbLine
 10
133.0637137785
 20
216.8589386635
 30
0.0
 11
129.4102873052
 21
216.8589386635
 31
0.0
  0
LINE
  5
2FF
330
1F
100
AcDbEntity
  8
0
  6
Continuous
 62
     7
370
    25
100
AcDbLine
 10
141.5409752603
 20
245.0265763547
 30
0.0
 11
143.6398962988
 21
245.0265763547
 31
0.0
  0
LINE
  5
300
330
1F
100
AcDbEntity
  8
0
  6
Continuous
 62
     7
370
    25
100
AcDbLine
 10
145.1944017335
 20
216.8589386632
 30
0.0
 11
141.5409752603
 21
216.8589386632
 31
0.0
  0
LINE
  5
301
330
1F
100
AcDbEntity
  8
0
  6
Continuous
 62
     7
370
    25
100
AcDbLine
 10
141.5409752603
 20
216.8589386632
 30
0.0
 11
141.5409752603
 21
245.0265763547
 31
0.0
  0
LWPOLYLINE
  5
302
330
1F
100
AcDbEntity
  8
0
  6
Continuous
 62
     7
370
    25
100
AcDbPolyline
 90
        3
 70
   128
 43
0.0
 10
133.1844130791
 20
216.30033536
 10
133.0940460837
 20
216.5611298873
 10
133.0637137784
 20
216.8589386635
  0
ARC
  5
303
330
1F
100
AcDbEntity
  8
0
  6
Continuous
 62
     7
370
    25
100
AcDbCircle
 10
167.8409789591
 20
138.2286888433
 30
0.0
 40
85.41814531129056
100
AcDbArc
 50
113.9367793512
 51
116.0389124714
  0
LWPOLYLINE
  5
304
330
1F
100
AcDbEntity
  8
0
  6
Continuous
 62
     7
370
    25
100
AcDbPolyline
 90
        3
 70
   128
 43
0.0
 10
141.5409752603
 20
216.8589386634
 10
141.510642955
 20
216.5611298873
 10
141.4202759596
 20
216.30033536
  0
ARC
  5
305
330
1F
100
AcDbEntity
  8
0
  6
Continuous
 62
     7
370
    25
100
AcDbCircle
 10
106.7637100796
 20
138.2286888433
 30
0.0
 40
85.41814531126951
100
AcDbArc
 50
63.9610875286
 51
66.0632206488
  0
ARC
  5
306
330
1F
100
AcDbEntity
  8
0
  6
Continuous
 62
     7
370
    25
100
AcDbCircle
 10
159.2766797043
 20
218.8951137052
 30
0.0
 40
26.22096970560136
100
AcDbArc
 50
185.6791786131
 51
195.1952899379
  0
LINE
  5
307
330
1F
100
AcDbEntity
  8
0
  6
Continuous
 62
     7
370
    25
100
AcDbLine
 10
133.1844130791
 20
216.30033536
 30
0.0
 11
141.4202759596
 21
216.30033536
 31
0.0
  0
ARC
  5
308
330
1F
100
AcDbEntity
  8
0
  6
Continuous
 62
     7
370
    25
100
AcDbCircle
 10
114.5580929433
 20
219.0369370594
 30
0.0
 40
27.00121969950119
100
AcDbArc
 50
344.9425061246
 51
354.1830253245
  0
LWPOLYLINE
  5
309
330
1F
100
AcDbEntity
  8
0
  6
Continuous
 62
     7
370
    25
100
AcDbPolyline
 90
        9
 70
   128
 43
0.0
 10
130.9647927399
 20
245.0265763547
 10
130.9311482736
 20
245.6606199012
 10
130.8315078124
 20
246.2702975099
 10
130.6697004835
 20
246.832179612
 10
130.4519444518
 20
247.3246733935
 10
130.1866079595
 20
247.7288525947
 10
129.8838877391
 20
248.0291848353
 10
129.555417159
 20
248.214128516
 10
129.2138191593
 20
248.2765763547
  0
LWPOLYLINE
  5
30A
330
1F
100
AcDbEntity
  8
0
  6
Continuous
 62
     7
370
    25
100
AcDbPolyline
 90
        9
 70
   128
 43
0.0
 10
145.3908698794
 20
248.2765763547
 10
145.0492718797
 20
248.214128516
 10
144.7208012996
 20
248.0291848353
 10
144.4180810792
 20
247.7288525947
 10
144.1527445869
 20
247.3246733935
 10
143.9349885552
 20
246.832179612
 10
143.7731812263
 20
246.2702975099
 10
143.6735407651
 20
245.6606199012
 10
143.6398962988
 20
245.0265763547
  0
ARC
  5
30B
330
1F
100
AcDbEntity
  8
0
  6
Continuous
 62
     7
370
    25
100
AcDbCircle
 10
124.4411562675
 20
245.831449975
 30
0.0
 40
8.660041545768363
100
AcDbArc
 50
354.6671719228
 51
16.4002595462
  0
LINE
  5
30C
330
1F
100
AcDbEntity
  8
0
  6
Continuous
 62
     7
370
    25
100
AcDbLine
 10
129.2138191593
 20
248.2765763547
 30
0.0
 11
132.7488440663
 21
248.2765763547
 31
0.0
  0
ARC
  5
30D
330
1F
100
AcDbEntity
  8
0
  6
Continuous
 62
     7
370
    25
100
AcDbCircle
 10
150.1635327712
 20
245.831449975
 30
0.0
 40
8.660041545767049
100
AcDbArc
 50
163.5997404538
 51
185.3328280772
  0
LINE
  5
30E
330
1F
100
AcDbEntity
  8
0
  6
Continuous
 62
     7
370
    25
100
AcDbLine
 10
141.8558449724
 20
248.2765763547
 30
0.0
 11
145.3908698794
 21
248.2765763547
 31
0.0
  0
LINE
  5
30F
330
1F
100
AcDbEntity
  8
0
  6
Continuous
 62
     7
370
    25
100
AcDbLine
 10
133.0637137784
 20
245.0265763547
 30
0.0
 11
141.5409752602
 21
245.0265763547
 31
0.0
  0
LINE
  5
310
330
1F
100
AcDbEntity
  8
0
  6
Continuous
 62
     7
370
    25
100
AcDbLine
 10
132.7488440663
 20
248.2765763547
 30
0.0
 11
141.8558449724
 21
248.2765763547
 31
0.0
  0
LINE
  5
311
330
1F
100
AcDbEntity
  8
0
  6
Continuous
 62
     7
370
    25
100
AcDbLine
 10
83.9023445193
 20
242.7015763547
 30
0.0
 11
83.9023445193
 21
244.7015763547
 31
0.0
  0
LINE
  5
312
330
1F
100
AcDbEntity
  8
0
  6
Continuous
 62
     7
370
    25
100
AcDbLine
 10
190.7023445193
 20
244.7015763547
 30
0.0
 11
190.7023445193
 21
242.7015763547
 31
0.0
  0
LINE
  5
313
330
1F
100
AcDbEntity
  8
0
  6
Continuous
 62
     7
370
    25
100
AcDbLine
 10
87.9023445193
 20
244.7015763547
 30
0.0
 11
87.9023445193
 21
242.7015763547
 31
0.0
  0
LINE
  5
314
330
1F
100
AcDbEntity
  8
0
  6
Continuous
 62
     7
370
    25
100
AcDbLine
 10
186.7023445193
 20
242.7015763547
 30
0.0
 11
186.7023445193
 21
244.7015763547
 31
0.0
  0
LINE
  5
315
330
1F
100
AcDbEntity
  8
0
  6
Continuous
 62
     7
370
    25
100
AcDbLine
 10
87.9023445193
 20
242.7015763547
 30
0.0
 11
94.6853917517
 21
242.7015763547
 31
0.0
  0
LINE
  5
316
330
1F
100
AcDbEntity
  8
0
  6
Continuous
 62
     7
370
    25
100
AcDbLine
 10
179.919297287
 20
242.7015763547
 30
0.0
 11
186.7023445193
 21
242.7015763547
 31
0.0
  0
LINE
  5
317
330
1F
100
AcDbEntity
  8
0
  6
Continuous
 62
     7
370
    25
100
AcDbLine
 10
83.9023445193
 20
244.7015763547
 30
0.0
 11
87.9023445193
 21
244.7015763547
 31
0.0
  0
LINE
  5
318
330
1F
100
AcDbEntity
  8
0
  6
Continuous
 62
     7
370
    25
100
AcDbLine
 10
87.9023445193
 20
242.7015763547
 30
0.0
 11
83.9023445193
 21
242.7015763547
 31
0.0
  0
LINE
  5
319
330
1F
100
AcDbEntity
  8
0
  6
Continuous
 62
     7
370
    25
100
AcDbLine
 10
186.7023445193
 20
244.7015763547
 30
0.0
 11
190.7023445193
 21
244.7015763547
 31
0.0
  0
LINE
  5
31A
330
1F
100
AcDbEntity
  8
0
  6
Continuous
 62
     7
370
    25
100
AcDbLine
 10
190.7023445193
 20
242.7015763547
 30
0.0
 11
186.7023445193
 21
242.7015763547
 31
0.0
  0
LINE
  5
31B
330
1F
100
AcDbEntity
  8
0
  6
Continuous
 62
     7
370
    25
100
AcDbLine
 10
83.3741412891
 20
158.2015763547
 30
0.0
 11
191.2305477496
 21
158.2015763547
 31
0.0
  0
LINE
  5
31C
330
1F
100
AcDbEntity
  8
0
  6
Continuous
 62
     7
370
    25
100
AcDbLine
 10
83.3741412891
 20
158.2015763547
 30
0.0
 11
84.8230300285
 21
158.5898049223
 31
0.0
  0
LINE
  5
31D
330
1F
100
AcDbEntity
  8
0
  6
Continuous
 62
     7
370
    25
100
AcDbLine
 10
84.8230300285
 20
158.5898049223
 30
0.0
 11
189.7816590102
 21
158.5898049223
 31
0.0
  0
LINE
  5
31E
330
1F
100
AcDbEntity
  8
0
  6
Continuous
 62
     7
370
    25
100
AcDbLine
 10
189.7816590102
 20
158.5898049223
 30
0.0
 11
191.2305477496
 21
158.2015763547
 31
0.0
  0
LINE
  5
31F
330
1F
100
AcDbEntity
  8
0
  6
Continuous
 62
     7
370
    25
100
AcDbLine
 10
190.5127140428
 20
161.3181394472
 30
0.0
 11
189.7816590102
 21
158.5898049223
 31
0.0
  0
ARC
  5
320
330
1F
100
AcDbEntity
  8
0
  6
Continuous
 62
     7
370
    25
100
AcDbCircle
 10
182.3023445193
 20
163.5181013306
 30
0.0
 40
8.499999999999972
100
AcDbArc
 50
345.0
 51
0.0
  0
LINE
  5
321
330
1F
100
AcDbEntity
  8
0
  6
Continuous
 62
     7
370
    25
100
AcDbLine
 10
190.8023445193
 20
254.7015763547
 30
0.0
 11
190.8023445193
 21
163.5181013306
 31
0.0
  0
LINE
  5
322
330
1F
100
AcDbEntity
  8
0
  6
Continuous
 62
     7
370
    25
100
AcDbLine
 10
192.3023445193
 20
254.7015763547
 30
0.0
 11
190.8023445193
 21
254.7015763547
 31
0.0
  0
LINE
  5
323
330
1F
100
AcDbEntity
  8
0
  6
Continuous
 62
     7
370
    25
100
AcDbLine
 10
192.3023445193
 20
254.7015763547
 30
0.0
 11
192.3023445193
 21
163.5181013306
 31
0.0
  0
ARC
  5
324
330
1F
100
AcDbEntity
  8
0
  6
Continuous
 62
     7
370
    25
100
AcDbCircle
 10
182.3023445193
 20
163.5181013306
 30
0.0
 40
9.999999999999986
100
AcDbArc
 50
345.0
 51
0.0
  0
LINE
  5
325
330
1F
100
AcDbEntity
  8
0
  6
Continuous
 62
     7
370
    25
100
AcDbLine
 10
191.9616027822
 20
160.9299108795
 30
0.0
 11
191.2305477496
 21
158.2015763547
 31
0.0
  0
ARC
  5
326
330
1F
100
AcDbEntity
  8
0
  6
Continuous
 62
     7
370
    25
100
AcDbCircle
 10
92.3023445193
 20
163.5181013306
 30
0.0
 40
9.99999999999996
100
AcDbArc
 50
180.0
 51
195.0
  0
LINE
  5
327
330
1F
100
AcDbEntity
  8
0
  6
Continuous
 62
     7
370
    25
100
AcDbLine
 10
82.3023445193
 20
163.5181013306
 30
0.0
 11
82.3023445193
 21
254.7015763547
 31
0.0
  0
LINE
  5
328
330
1F
100
AcDbEntity
  8
0
  6
Continuous
 62
     7
370
    25
100
AcDbLine
 10
83.8023445193
 20
254.7015763547
 30
0.0
 11
82.3023445193
 21
254.7015763547
 31
0.0
  0
LINE
  5
329
330
1F
100
AcDbEntity
  8
0
  6
Continuous
 62
     7
370
    25
100
AcDbLine
 10
83.8023445193
 20
163.5181013306
 30
0.0
 11
83.8023445193
 21
254.7015763547
 31
0.0
  0
ARC
  5
32A
330
1F
100
AcDbEntity
  8
0
  6
Continuous
 62
     7
370
    25
100
AcDbCircle
 10
92.3023445193
 20
163.5181013306
 30
0.0
 40
8.499999999999986
100
AcDbArc
 50
180.0
 51
195.0
  0
LINE
  5
32B
330
1F
100
AcDbEntity
  8
0
  6
Continuous
 62
     7
370
    25
100
AcDbLine
 10
84.8230300285
 20
158.5898049223
 30
0.0
 11
84.0919749959
 21
161.3181394472
 31
0.0
  0
LINE
  5
32C
330
1F
100
AcDbEntity
  8
0
  6
Continuous
 62
     7
370
    25
100
AcDbLine
 10
83.3741412891
 20
158.2015763547
 30
0.0
 11
82.6430862565
 21
160.9299108795
 31
0.0
  0
LINE
  5
32D
330
1F
100
AcDbEntity
  8
0
  6
Continuous
 62
     7
370
    25
100
AcDbLine
 10
83.8023445193
 20
254.7015763547
 30
0.0
 11
84.5523445193
 21
254.7015763547
 31
0.0
  0
LINE
  5
32E
330
1F
100
AcDbEntity
  8
0
  6
Continuous
 62
     7
370
    25
100
AcDbLine
 10
190.0523445193
 20
254.7015763547
 30
0.0
 11
190.8023445193
 21
254.7015763547
 31
0.0
  0
LINE
  5
32F
330
1F
100
AcDbEntity
  8
0
  6
Continuous
 62
     7
370
    25
100
AcDbLine
 10
84.0919749959
 20
161.3181394472
 30
0.0
 11
190.5127140428
 21
161.3181394472
 31
0.0
  0
LINE
  5
330
330
1F
100
AcDbEntity
  8
0
  6
Continuous
 62
     8
370
    25
100
AcDbLine
 10
182.3023445193
 20
179.2765763547
 30
0.0
 11
171.3023445193
 21
179.2765763547
 31
0.0
  0
LINE
  5
331
330
1F
100
AcDbEntity
  8
0
  6
Continuous
 62
     8
370
    25
100
AcDbLine
 10
103.3023445193
 20
179.2765763547
 30
0.0
 11
92.3023445193
 21
179.2765763547
 31
0.0
  0
LINE
  5
332
330
1F
100
AcDbEntity
  8
0
  6
Continuous
 62
     8
370
    25
100
AcDbLine
 10
83.8023445193
 20
163.5181013306
 30
0.0
 11
104.5327841004
 21
163.5181013306
 31
0.0
  0
LINE
  5
333
330
1F
100
AcDbEntity
  8
0
  6
Continuous
 62
     8
370
    25
100
AcDbLine
 10
170.0719049383
 20
163.5181013306
 30
0.0
 11
190.8023445193
 21
163.5181013306
 31
0.0
  0
HATCH
  5
334
330
1F
100
AcDbEntity
  8
0
  6
Continuous
 62
     7
370
    18
100
AcDbHatch
 10
0.0
 20
0.0
 30
0.0
210
0.0
220
0.0
230
1.0
  2
ANSI31
 70
     0
 71
     0
 91
        1
 92
        0
 93
        8
 72
     1
 10
82.64308625645714
 20
160.9299108795284
 11
83.37414128907231
 21
158.2015763546797
 72
     1
 10
83.37414128907231
 20
158.2015763546797
 11
84.82303002850588
 21
158.5898049223335
 72
     1
 10
84.82303002850588
 20
158.5898049223335
 11
84.09197499589075
 21
161.3181394471822
 72
     2
 10
92.30234451934778
 20
163.5181013305537
 40
8.499999999999968
 50
164.9999999999997
 51
179.9999999999998
 73
     0
 72
     1
 10
83.8023445193478
 20
163.5181013305536
 11
83.80234451934778
 21
254.7015763546797
 72
     1
 10
83.80234451934778
 20
254.7015763546797
 11
82.30234451934781
 21
254.7015763546797
 72
     1
 10
82.30234451934781
 20
254.7015763546797
 11
82.30234451934781
 21
163.5181013305536
 72
     2
 10
92.30234451934778
 20
163.5181013305537
 40
9.999999999999968
 50
180.0000000000012
 51
195.0000000000011
 73
     1
 97
        0
 75
     0
 76
     1
 52
0.0
 41
1.0
 77
     0
 78
     1
 53
45.0
 43
0.0
 44
0.0
 45
-2.245064030267288
 46
2.245064030267288
 79
     0
 98
        1
 10
0.0
 20
0.0
  0
HATCH
  5
335
330
1F
100
AcDbEntity
  8
0
  6
Continuous
 62
     7
370
    18
100
AcDbHatch
 10
0.0
 20
0.0
 30
0.0
210
0.0
220
0.0
230
1.0
  2
ANSI31
 70
     0
 71
     0
 91
        1
 92
        0
 93
        8
 72
     1
 10
191.2305477496232
 20
158.2015763546797
 11
191.9616027822384
 21
160.9299108795284
 72
     2
 10
182.3023445193478
 20
163.5181013305537
 40
9.999999999999968
 50
345.0000000000005
 51
360.0000000000005
 73
     1
 72
     1
 10
192.3023445193477
 20
163.5181013305536
 11
192.3023445193477
 21
254.7015763546797
 72
     1
 10
192.3023445193477
 20
254.7015763546797
 11
190.8023445193478
 21
254.7015763546797
 72
     1
 10
190.8023445193478
 20
254.7015763546797
 11
190.8023445193477
 21
163.5181013305536
 72
     2
 10
182.3023445193478
 20
163.5181013305537
 40
8.499999999999968
 50
0.0000000000001916
 51
15.00000000000031
 73
     0
 72
     1
 10
190.5127140428048
 20
161.3181394471822
 11
189.7816590101897
 21
158.5898049223335
 72
     1
 10
189.7816590101897
 20
158.5898049223335
 11
191.2305477496232
 21
158.2015763546797
 97
        0
 75
     0
 76
     1
 52
0.0
 41
1.0
 77
     0
 78
     1
 53
45.0
 43
0.0
 44
0.0
 45
-2.245064030267288
 46
2.245064030267288
 79
     0
 98
        1
 10
0.0
 20
0.0
  0
HATCH
  5
336
330
1F
100
AcDbEntity
  8
0
  6
Continuous
 62
     7
370
    18
100
AcDbHatch
 10
0.0
 20
0.0
 30
0.0
210
0.0
220
0.0
230
1.0
  2
ANSI31
 70
     0
 71
     0
 91
        1
 92
        0
 93
        4
 72
     1
 10
190.7023445193479
 20
242.7015763546797
 11
190.7023445193479
 21
244.7015763546797
 72
     1
 10
190.7023445193479
 20
244.7015763546797
 11
186.702344519348
 21
244.7015763546797
 72
     1
 10
186.702344519348
 20
244.7015763546797
 11
186.702344519348
 21
242.7015763546797
 72
     1
 10
186.702344519348
 20
242.7015763546797
 11
190.7023445193479
 21
242.7015763546797
 97
        0
 75
     0
 76
     1
 52
0.0
 41
1.0
 77
     0
 78
     1
 53
45.0
 43
0.0
 44
0.0
 45
-2.245064030267288
 46
2.245064030267288
 79
     0
 98
        1
 10
0.0
 20
0.0
  0
HATCH
  5
337
330
1F
100
AcDbEntity
  8
0
  6
Continuous
 62
     7
370
    18
100
AcDbHatch
 10
0.0
 20
0.0
 30
0.0
210
0.0
220
0.0
230
1.0
  2
ANSI31
 70
     0
 71
     0
 91
        1
 92
        0
 93
        4
 72
     1
 10
83.90234451934758
 20
244.7015763546797
 11
83.90234451934758
 21
242.7015763546797
 72
     1
 10
83.90234451934758
 20
242.7015763546797
 11
87.90234451934757
 21
242.7015763546797
 72
     1
 10
87.90234451934757
 20
242.7015763546797
 11
87.90234451934758
 21
244.7015763546797
 72
     1
 10
87.90234451934758
 20
244.7015763546797
 11
83.90234451934758
 21
244.7015763546797
 97
        0
 75
     0
 76
     1
 52
0.0
 41
1.0
 77
     0
 78
     1
 53
45.0
 43
0.0
 44
0.0
 45
-2.245064030267288
 46
2.245064030267288
 79
     0
 98
        1
 10
0.0
 20
0.0
  0
HATCH
  5
338
330
1F
100
AcDbEntity
  8
0
  6
Continuous
 62
     7
370
    18
100
AcDbHatch
 10
0.0
 20
0.0
 30
0.0
210
0.0
220
0.0
230
1.0
  2
ANSI31
 70
     0
 71
     0
 91
        1
 92
        0
 93
       12
 72
     1
 10
188.3023445193478
 20
247.0265763546808
 11
188.3023445193478
 21
248.2765763546807
 72
     1
 10
188.3023445193478
 20
248.2765763546807
 11
183.5713708927886
 21
248.2765763546807
 72
     2
 10
183.5710377396274
 20
245.0265763546808
 40
3.25
 50
89.99412668615255
 51
149.9999999999991
 73
     1
 72
     1
 10
180.7564551773279
 20
246.6515763546808
 11
170.4877619570483
 21
228.8656779698185
 72
     2
 10
173.3023445193478
 20
227.2406779698184
 40
3.25
 50
149.9999999999998
 51
180.0
 73
     1
 72
     1
 10
170.0523445193478
 20
227.2406779698184
 11
170.0523445193478
 21
178.2765763546807
 72
     1
 10
170.0523445193478
 20
178.2765763546807
 11
171.3023445193478
 21
178.2765763546807
 72
     1
 10
171.3023445193478
 20
178.2765763546807
 11
171.3023445193478
 21
227.2406779698184
 72
     2
 10
173.3023445193478
 20
227.2406779698184
 40
2.0
 50
180.0
 51
210.0000000000013
 73
     0
 72
     1
 10
171.5702937117789
 20
228.2406779698185
 11
181.8389869320585
 21
246.0265763546807
 72
     2
 10
183.5710377396274
 20
245.0265763546808
 40
2.0
 50
209.9999999999991
 51
269.9999999999992
 73
     0
 72
     1
 10
183.5710377396273
 20
247.0265763546808
 11
188.3023445193478
 21
247.0265763546808
 97
        0
 75
     0
 76
     1
 52
0.0
 41
1.0
 77
     0
 78
     1
 53
45.0
 43
0.0
 44
0.0
 45
-2.245064030267288
 46
2.245064030267288
 79
     0
 98
        1
 10
0.0
 20
0.0
  0
HATCH
  5
339
330
1F
100
AcDbEntity
  8
0
  6
Continuous
 62
     7
370
    18
100
AcDbHatch
 10
0.0
 20
0.0
 30
0.0
210
0.0
220
0.0
230
1.0
  2
ANSI31
 70
     0
 71
     0
 91
        1
 92
        0
 93
       12
 72
     2
 10
91.03365129906818
 20
245.0265763546808
 40
3.25
 50
30.00000000000078
 51
89.999999999999
 73
     1
 72
     1
 10
91.03365129906824
 20
248.2765763546807
 11
86.30234451934777
 21
248.2765763546807
 72
     1
 10
86.30234451934777
 20
248.2765763546807
 11
86.30234451934777
 21
247.0265763546808
 72
     1
 10
86.30234451934777
 20
247.0265763546808
 11
91.03331814590072
 21
247.0265763546808
 72
     2
 10
91.03365129906818
 20
245.0265763546808
 40
2.0
 50
269.9904558648756
 51
330.0000000000024
 73
     0
 72
     1
 10
92.76570210663706
 20
246.0265763546807
 11
103.0343953269167
 21
228.2406779698185
 72
     2
 10
101.3023445193478
 20
227.2406779698184
 40
2.0
 50
330.0000000000002
 51
360.0000000000008
 73
     0
 72
     1
 10
103.3023445193478
 20
227.2406779698184
 11
103.3023445193478
 21
178.2765763546807
 72
     1
 10
103.3023445193478
 20
178.2765763546807
 11
104.5523445193478
 21
178.2765763546807
 72
     1
 10
104.5523445193478
 20
178.2765763546807
 11
104.5523445193478
 21
227.2406779698184
 72
     2
 10
101.3023445193478
 20
227.2406779698184
 40
3.25
 50
0.0
 51
30.00000000000035
 73
     1
 72
     1
 10
104.1169270816472
 20
228.8656779698185
 11
93.84823386136763
 21
246.6515763546808
 97
        0
 75
     0
 76
     1
 52
0.0
 41
1.0
 77
     0
 78
     1
 53
45.0
 43
0.0
 44
0.0
 45
-2.245064030267288
 46
2.245064030267288
 79
     0
 98
        1
 10
0.0
 20
0.0
  0
HATCH
  5
33A
330
1F
100
AcDbEntity
  8
0
  6
Continuous
 62
     7
370
    18
100
AcDbHatch
 10
0.0
 20
0.0
 30
0.0
210
0.0
220
0.0
230
1.0
  2
ANSI31
 70
     0
 71
     0
 91
        1
 92
        0
 93
       26
 72
     1
 10
92.30234451934778
 20
179.2765763546807
 11
92.30234451934786
 21
228.2765763546808
 72
     1
 10
92.30234451934786
 20
228.2765763546808
 11
91.30234451934778
 21
228.2765763546808
 72
     1
 10
91.30234451934778
 20
228.2765763546808
 11
91.30234451934778
 21
179.2765763546807
 72
     2
 10
107.3023445193478
 20
179.2765763546807
 40
16.0
 50
180.0
 51
270.0000000000008
 73
     1
 72
     1
 10
107.3023445193478
 20
163.2765763546808
 11
116.5404780591931
 21
163.2765763546808
 72
     2
 10
116.5404867802228
 20
179.2765763546807
 40
16.0
 50
270.0000000000008
 51
311.5000000000009
 73
     1
 72
     1
 10
127.1424075516746
 20
167.2932848220567
 11
127.3883905174354
 21
167.5109121665158
 72
     2
 10
137.3276912406715
 20
156.2765763546807
 40
15.00000000000004
 50
228.5000000000008
 51
269.9031826101696
 73
     0
 72
     2
 10
137.276997798024
 20
156.2765763546807
 40
15.00000000000004
 50
270.096817389832
 51
311.5000000000009
 73
     0
 72
     1
 10
147.2162985212601
 20
167.5109121665158
 11
147.462281487021
 21
167.2932848220567
 72
     2
 10
158.0642022584728
 20
179.2765763546807
 40
16.0
 50
228.5000000000007
 51
270.0000000000008
 73
     1
 72
     1
 10
158.0642046685059
 20
163.2765763546808
 11
167.3023606015606
 21
163.2765763546808
 72
     2
 10
167.3023445193478
 20
179.2765763546807
 40
16.0
 50
270.0000575901832
 51
360.0000000000008
 73
     1
 72
     1
 10
183.3023445193478
 20
179.2765763546807
 11
183.3023445193478
 21
228.2765763546808
 72
     1
 10
183.3023445193478
 20
228.2765763546808
 11
182.3023445193478
 21
228.2765763546808
 72
     1
 10
182.3023445193478
 20
228.2765763546808
 11
182.3023445193478
 21
179.2765763546807
 72
     2
 10
167.3023445193478
 20
179.2765763546807
 40
15.0
 50
0.0
 51
90.0
 73
     0
 72
     1
 10
167.3023502953385
 20
164.2765763546808
 11
158.0642149747234
 21
164.2765763546808
 72
     2
 10
158.0642022584728
 20
179.2765763546807
 40
15.0000000000002
 50
89.99995142750059
 51
131.5454692449037
 73
     0
 72
     1
 10
148.115989231521
 20
168.0501317897086
 11
147.8761025639247
 21
168.2623591563121
 72
     2
 10
137.276997798024
 20
156.2765763546808
 40
15.99999999999992
 50
48.51346389300557
 51
89.90923370226405
 73
     1
 72
     2
 10
137.3276912406715
 20
156.2765763546808
 40
15.99999999999992
 50
90.09076629773598
 51
131.4865361069944
 73
     1
 72
     1
 10
126.7285864747709
 20
168.2623591563121
 11
126.4886998071745
 21
168.0501317897086
 72
     2
 10
116.5404867802228
 20
179.2765763546807
 40
15.0000000000002
 50
48.45453075509625
 51
90.0
 73
     0
 72
     1
 10
116.5404867802228
 20
164.2765763546806
 11
107.3023294392348
 21
164.2765763546808
 72
     2
 10
107.3023445193478
 20
179.2765763546807
 40
15.0
 50
90.00005760178854
 51
180.0
 73
     0
 97
        0
 75
     0
 76
     1
 52
90.0
 41
1.0
 77
     0
 78
     1
 53
135.0000000000002
 43
0.0
 44
0.0
 45
-2.245064030267281
 46
-2.245064030267296
 79
     0
 98
        1
 10
0.0
 20
0.0
  0
HATCH
  5
33B
330
1F
100
AcDbEntity
  8
0
  6
Continuous
 62
     7
370
    18
100
AcDbHatch
 10
0.0
 20
0.0
 30
0.0
210
0.0
220
0.0
230
1.0
  2
ANSI31
 70
     0
 71
     0
 91
        1
 92
        0
 93
        1
 72
     2
 10
137.3023445193478
 20
236.8765763546808
 40
2.5
 50
0.0
 51
360.0
 73
     1
 97
        0
 75
     0
 76
     1
 52
0.0
 41
0.25
 77
     0
 78
     1
 53
45.0
 43
0.0
 44
0.0
 45
-0.5612660075668221
 46
0.5612660075668221
 79
     0
 98
        1
 10
0.0
 20
0.0
  0
HATCH
  5
33C
330
1F
100
AcDbEntity
  8
0
  6
Continuous
 62
     7
370
    18
100
AcDbHatch
 10
0.0
 20
0.0
 30
0.0
210
0.0
220
0.0
230
1.0
  2
DIN 128 Elastomer-Rubber
 70
     0
 71
     0
 91
        1
 92
        0
 93
       14
 72
     1
 10
183.302344519348
 20
250.9515763546793
 11
183.3023445193479
 21
248.6265763546811
 72
     1
 10
183.3023445193479
 20
248.6265763546811
 11
188.302344519348
 21
248.6265763546813
 72
     1
 10
188.302344519348
 20
248.6265763546813
 11
188.302344519348
 21
247.0265763546809
 72
     1
 10
188.302344519348
 20
247.0265763546809
 11
183.3023445193484
 21
247.0265763546808
 72
     1
 10
183.3023445193484
 20
247.0265763546808
 11
183.3023445193484
 21
244.7015763546793
 72
     1
 10
183.3023445193484
 20
244.7015763546793
 11
188.8640835949964
 21
244.7015763546797
 72
     2
 10
188.8640228615817
 20
245.2015763546793
 40
0.499999999999634
 50
270.0069595366355
 51
352.478417015937
 73
     1
 72
     1
 10
189.3597206728723
 20
245.1361265274722
 11
190.2057646899624
 21
251.5438159809525
 72
     2
 10
191.1971603125442
 20
251.4129163265384
 40
1.0
 50
187.5215829840577
 51
243.4225014848468
 73
     0
 72
     4
 94
        3
 73
     1
 74
     0
 95
       26
 96
       22
 40
0.0
 40
0.0
 40
0.0
 40
0.0
 40
0.0003357713719788
 40
0.0003357713719788
 40
0.0003357713719788
 40
0.0006715427439576
 40
0.0006715427439576
 40
0.0006715427439576
 40
0.0010073141159364
 40
0.0010073141159364
 40
0.0010073141159364
 40
0.0013430854879152
 40
0.0013430854879152
 40
0.0013430854879152
 40
0.001678856859894
 40
0.001678856859894
 40
0.001678856859894
 40
0.0020146282318728
 40
0.0020146282318728
 40
0.0020146282318728
 40
0.0020919249173781
 40
0.0020919249173781
 40
0.0020919249173781
 40
0.0020919249173781
 10
190.7497524159461
 20
252.3072463406057
 42
1.0
 10
190.8498492212211
 20
252.357321928364
 42
1.0
 10
190.9426807995473
 20
252.4253699496646
 42
1.0
 10
191.0205597275614
 20
252.5057553182772
 42
1.0
 10
191.0984386555755
 20
252.5861406868899
 42
1.0
 10
191.1635129302681
 20
252.6810805305315
 42
1.0
 10
191.2103937226585
 20
252.7827128394714
 42
1.0
 10
191.2572745150489
 20
252.8843451484113
 42
1.0
 10
191.2872548552741
 20
252.9954730672141
 42
1.0
 10
191.2978520583252
 20
253.1068940446066
 42
1.0
 10
191.3084492613762
 20
253.2183150219992
 42
1.0
 10
191.2999556111974
 20
253.3331021861078
 42
1.0
 10
191.2730744706529
 20
253.4417499619647
 42
1.0
 10
191.2461933301084
 20
253.5503977378215
 42
1.0
 10
191.2001832841524
 20
253.6559027652305
 42
1.0
 10
191.138854444695
 20
253.7495281269997
 42
1.0
 10
191.0775256052376
 20
253.843153488769
 42
1.0
 10
190.9991864471646
 20
253.9274814879738
 42
1.0
 10
190.9103242702172
 20
253.9955288863354
 42
1.0
 10
190.8895890339601
 20
254.0114071703272
 42
1.0
 10
190.8682149232694
 20
254.0264840803557
 42
1.0
 10
190.8463002308324
 20
254.0406902825419
 42
1.0
 72
     2
 10
191.3902559423166
 20
254.8798042104108
 40
1.0
 50
122.9533294624056
 51
153.1181680903447
 73
     0
 72
     2
 10
190.0523445193479
 20
254.2015763546793
 40
0.5
 50
26.88183190966392
 51
143.7815835925628
 73
     1
 72
     1
 10
189.6489593024053
 20
254.4970088626268
 11
187.0523445193479
 21
250.9515763546793
 72
     1
 10
187.0523445193479
 20
250.9515763546793
 11
183.302344519348
 21
250.9515763546793
 97
        0
 75
     0
 76
     2
 52
180.0
 41
0.125
 77
     0
 78
     3
 53
225.0000020971721
 43
-0.8418989999999942
 44
-0.841899000000006
 45
-0.5612659459355058
 46
-1.683798043244237
 79
     2
 49
0.79375
 49
-1.5875
 53
225.0000020971721
 43
-1.964431249999994
 44
-0.8418990000000138
 45
-0.5612659459355058
 46
-1.683798043244237
 79
     2
 49
0.79375
 49
-1.5875
 53
314.9999719140479
 43
0.0
 44
0.0
 45
0.5612662826950509
 46
0.5612657324384583
 79
     0
 98
        1
 10
0.0
 20
0.0
  0
HATCH
  5
33D
330
1F
100
AcDbEntity
  8
0
  6
Continuous
 62
     7
370
    18
100
AcDbHatch
 10
0.0
 20
0.0
 30
0.0
210
0.0
220
0.0
230
1.0
  2
DIN 128 Elastomer-Rubber
 70
     0
 71
     0
 91
        1
 92
        0
 93
       14
 72
     1
 10
91.3023445193476
 20
248.6265763546811
 11
91.30234451934766
 21
250.9515763546793
 72
     1
 10
91.30234451934766
 20
250.9515763546793
 11
87.5523445193476
 21
250.9515763546793
 72
     1
 10
87.5523445193476
 20
250.9515763546793
 11
84.95572973629025
 21
254.4970088626268
 72
     2
 10
84.55234451934757
 20
254.2015763546793
 40
0.5
 50
36.21841640743625
 51
153.1181680903339
 73
     1
 72
     2
 10
83.21443309637894
 20
254.8798042104108
 40
1.0
 50
26.88183190965416
 51
57.04667053758828
 73
     0
 72
     4
 94
        3
 73
     1
 74
     0
 95
       26
 96
       22
 40
0.0
 40
0.0
 40
0.0
 40
0.0
 40
0.0003357713719788
 40
0.0003357713719788
 40
0.0003357713719788
 40
0.0006715427439576
 40
0.0006715427439576
 40
0.0006715427439576
 40
0.0010073141159364
 40
0.0010073141159364
 40
0.0010073141159364
 40
0.0013430854879152
 40
0.0013430854879152
 40
0.0013430854879152
 40
0.001678856859894
 40
0.001678856859894
 40
0.001678856859894
 40
0.0020146282318729
 40
0.0020146282318729
 40
0.0020146282318729
 40
0.0020919249173782
 40
0.0020919249173782
 40
0.0020919249173782
 40
0.0020919249173782
 10
83.75838880786317
 20
254.0406902825419
 42
1.0
 10
83.66447199626083
 20
253.9798086973616
 42
1.0
 10
83.5797713088427
 20
253.9018726422373
 42
1.0
 10
83.51130084636057
 20
253.8133360357793
 42
1.0
 10
83.44283038387846
 20
253.7247994293213
 42
1.0
 10
83.38870164643765
 20
253.6232203226087
 42
1.0
 10
83.35339705832016
 20
253.5170105256337
 42
1.0
 10
83.31809247020267
 20
253.4108007286587
 42
1.0
 10
83.30063828727819
 20
253.2970308440851
 42
1.0
 10
83.30247989802346
 20
253.1851222055201
 42
1.0
 10
83.30432150876874
 20
253.073213566955
 42
1.0
 10
83.32550970708199
 20
252.9600795959751
 42
1.0
 10
83.36428988904851
 20
252.8550889659062
 42
1.0
 10
83.40307007101505
 20
252.7500983358374
 42
1.0
 10
83.46051184193479
 20
252.6503552754719
 42
1.0
 10
83.53185842378296
 20
252.5641195510058
 42
1.0
 10
83.60320500563115
 20
252.4778838265397
 42
1.0
 10
83.6904242252257
 20
252.4027769502182
 42
1.0
 10
83.78629342107017
 20
252.3450185551249
 42
1.0
 10
83.80866368583185
 20
252.3315411228896
 42
1.0
 10
83.83157988113842
 20
252.3189310548289
 42
1.0
 10
83.8549366227495
 20
252.3072463406057
 42
1.0
 72
     2
 10
83.4075287261514
 20
251.4129163265384
 40
1.0
 50
296.5774985151541
 51
352.4784170159409
 73
     0
 72
     1
 10
84.39892434873322
 20
251.5438159809526
 11
85.24496836582324
 21
245.1361265274722
 72
     2
 10
85.74066617711384
 20
245.2015763546793
 40
0.499999999999634
 50
187.5215829840644
 51
270.0000000000008
 73
     1
 72
     1
 10
85.74066617711384
 20
244.7015763546797
 11
91.30234451934712
 21
244.7015763546793
 72
     1
 10
91.30234451934712
 20
244.7015763546793
 11
91.30234451934712
 21
247.0265763546808
 72
     1
 10
91.30234451934712
 20
247.0265763546808
 11
86.30234451934761
 21
247.0265763546809
 72
     1
 10
86.30234451934761
 20
247.0265763546809
 11
86.30234451934761
 21
248.6265763546813
 72
     1
 10
86.30234451934761
 20
248.6265763546813
 11
91.3023445193476
 21
248.6265763546811
 97
        0
 75
     0
 76
     2
 52
180.0
 41
0.125
 77
     0
 78
     3
 53
225.0000020971721
 43
-0.8418989999999942
 44
-0.841899000000006
 45
-0.5612659459355058
 46
-1.683798043244237
 79
     2
 49
0.79375
 49
-1.5875
 53
225.0000020971721
 43
-1.964431249999994
 44
-0.8418990000000138
 45
-0.5612659459355058
 46
-1.683798043244237
 79
     2
 49
0.79375
 49
-1.5875
 53
314.9999719140479
 43
0.0
 44
0.0
 45
0.5612662826950509
 46
0.5612657324384583
 79
     0
 98
        1
 10
0.0
 20
0.0
  0
DIMENSION
  5
33E
330
1F
100
AcDbEntity
  8
0
  6
Continuous
 62
     7
370
    18
100
AcDbDimension
  2
_D
 10
192.3023445193
 20
261.7015763547
 30
0.0
 11
137.3023445193
 21
261.7015763547
 31
0.0
 70
   160
  1
%%c<>
 71
     2
 42
-1.0
  3
SLDDIMSTYLE0
100
AcDbAlignedDimension
 13
82.3023445193
 23
254.7015763547
 33
0.0
 14
192.3023445193
 24
254.7015763547
 34
0.0
100
AcDbRotatedDimension
  0
DIMENSION
  5
34A
330
1F
100
AcDbEntity
  8
0
  6
Continuous
 62
     7
370
    18
100
AcDbDimension
  2
_D_1
 10
212.4916484465
 20
254.7015763547
 30
0.0
 11
212.4916484465
 21
206.4515763547
 31
0.0
 70
   160
  1
<>
 71
     2
 42
-1.0
  3
SLDDIMSTYLE1
100
AcDbAlignedDimension
 13
191.2305477496
 23
158.2015763547
 33
0.0
 14
192.3023445193
 24
254.7015763547
 34
0.0
 50
90.0
100
AcDbRotatedDimension
  0
DIMENSION
  5
355
330
1F
100
AcDbEntity
  8
0
  6
Continuous
 62
     7
370
    18
100
AcDbDimension
  2
_D_2
 10
201.9806872934
 20
244.7015763547
 30
0.0
 11
201.9806872934
 21
249.7015763547
 31
0.0
 70
   160
  1
<>
 71
     2
 42
-1.0
  3
SLDDIMSTYLE0
100
AcDbAlignedDimension
 13
192.3023445193
 23
254.7015763547
 33
0.0
 14
190.7023445193
 24
244.7015763547
 34
0.0
 50
90.0
100
AcDbRotatedDimension
  0
DIMENSION
  5
35F
330
1F
100
AcDbEntity
  8
0
  6
Continuous
 62
     7
370
    18
100
AcDbDimension
  2
_D_3
 10
192.3023445193
 20
231.8233141274
 30
0.0
 11
197.3029840135
 21
231.8233141274
 31
0.0
 70
   160
  1
<>
 71
     2
 42
-1.0
  3
SLDDIMSTYLE2
100
AcDbAlignedDimension
 13
190.8023445193
 23
254.7015763547
 33
0.0
 14
192.3023445193
 24
254.7015763547
 34
0.0
100
AcDbRotatedDimension
  0
MTEXT
  5
36B
330
1F
100
AcDbEntity
  8
0
  6
Continuous
 62
     7
370
     0
100
AcDbMText
 10
137.0131087263
 20
272.142101672
 30
0.0
 40
3.5
 41
0.0
 71
     2
 72
     1
  1
A-A
  7
SLDTEXTSTYLE2
 73
     1
 44
1.0
  0
ENDSEC
  0
SECTION
  2
OBJECTS
  0
DICTIONARY
  5
C
330
0
100
AcDbDictionary
281
     1
  3
ACAD_GROUP
350
D
  3
ACAD_LAYOUT
350
1A
  3
ACAD_MLINESTYLE
350
17
  3
ACAD_PLOTSETTINGS
350
19
  3
ACAD_PLOTSTYLENAME
350
E
  3
ACAD_SCALELIST
350
47
  3
DWGPROPS
350
36C
  0
DICTIONARY
  5
D
102
{ACAD_REACTORS
330
C
102
}
330
C
100
AcDbDictionary
281
     1
  0
DICTIONARY
  5
1A
102
{ACAD_REACTORS
330
C
102
}
330
C
100
AcDbDictionary
281
     1
  3
Layout1
350
1E
  3
Layout2
350
26
  3
Model
350
22
  0
DICTIONARY
  5
17
102
{ACAD_REACTORS
330
C
102
}
330
C
100
AcDbDictionary
281
     1
  3
Standard
350
18
  0
DICTIONARY
  5
19
102
{ACAD_REACTORS
330
C
102
}
330
C
100
AcDbDictionary
281
     1
  0
ACDBDICTIONARYWDFLT
  5
E
102
{ACAD_REACTORS
330
C
102
}
330
C
100
AcDbDictionary
281
     1
  3
Normal
350
F
100
AcDbDictionaryWithDefault
340
F
  0
DICTIONARY
  5
47
102
{ACAD_REACTORS
330
C
102
}
330
C
100
AcDbDictionary
281
     1
  3
A0
350
48
  3
A1
350
49
  3
A2
350
4A
  3
A3
350
4B
  3
A4
350
4C
  3
A5
350
4D
  3
A6
350
4E
  3
A7
350
4F
  3
A8
350
50
  3
A9
350
51
  3
B0
350
52
  3
B1
350
53
  3
B2
350
54
  3
B3
350
55
  3
B4
350
56
  3
B5
350
57
  3
B6
350
58
  3
B7
350
59
  3
B8
350
5A
  3
B9
350
5B
  3
C0
350
5C
  3
C1
350
5D
  3
C2
350
5E
  3
C3
350
5F
  3
C4
350
60
  3
C5
350
61
  3
C6
350
62
  3
C7
350
63
  3
C8
350
64
  3
C9
350
65
  3
D0
350
66
  3
D1
350
67
  3
D2
350
68
  0
XRECORD
  5
36C
102
{ACAD_REACTORS
330
C
102
}
330
C
100
AcDbXrecord
280
     1
  1
DWGPROPS COOKIE
  2

  3

  4

  6

  7

  8
ch-ntl-rs-wscad
  9

300
=
301
=
302
=
303
=
304
=
305
=
306
=
307
=
308
=
309
=
 40
0.0
 41
2460222.518980232
 42
2460222.518985289
  1

 90
        0
  0
LAYOUT
  5
1E
102
{ACAD_REACTORS
330
1A
102
}
330
1A
100
AcDbPlotSettings
  1

  2
none_device
  4

  6

 40
0.0
 41
0.0
 42
0.0
 43
0.0
 44
0.0
 45
0.0
 46
0.0
 47
0.0
 48
0.0
 49
0.0
140
0.0
141
0.0
142
1.0
143
1.0
 70
   688
 72
     1
 73
     0
 74
     5
  7

 75
    16
147
1.0
148
0.0
149
0.0
100
AcDbLayout
  1
Layout1
 70
     1
 71
     1
 10
0.0
 20
0.0
 11
420.0
 21
297.0
 12
0.0
 22
0.0
 32
0.0
 14
1.0000000000E+20
 24
1.0000000000E+20
 34
1.0000000000E+20
 15
-1.0000000000E+20
 25
-1.0000000000E+20
 35
-1.0000000000E+20
146
0.0
 13
0.0
 23
0.0
 33
0.0
 16
1.0
 26
0.0
 36
0.0
 17
0.0
 27
1.0
 37
0.0
 76
     0
330
1B
  0
LAYOUT
  5
26
102
{ACAD_REACTORS
330
1A
102
}
330
1A
100
AcDbPlotSettings
  1

  2
none_device
  4

  6

 40
0.0
 41
0.0
 42
0.0
 43
0.0
 44
0.0
 45
0.0
 46
0.0
 47
0.0
 48
0.0
 49
0.0
140
0.0
141
0.0
142
1.0
143
1.0
 70
   688
 72
     1
 73
     0
 74
     5
  7

 75
    16
147
1.0
148
0.0
149
0.0
100
AcDbLayout
  1
Layout2
 70
     1
 71
     2
 10
0.0
 20
0.0
 11
0.0
 21
0.0
 12
0.0
 22
0.0
 32
0.0
 14
0.0
 24
0.0
 34
0.0
 15
0.0
 25
0.0
 35
0.0
146
0.0
 13
0.0
 23
0.0
 33
0.0
 16
1.0
 26
0.0
 36
0.0
 17
0.0
 27
1.0
 37
0.0
 76
     0
330
23
  0
LAYOUT
  5
22
102
{ACAD_REACTORS
330
1A
102
}
330
1A
100
AcDbPlotSettings
  1

  2
none_device
  4
Letter_(8.50_x_11.00_Inches)
  6

 40
6.35
 41
6.35
 42
6.35000508
 43
6.35000508
 44
215.9
 45
279.4
 46
0.0
 47
0.0
 48
0.0
 49
0.0
140
0.0
141
0.0
142
1.0
143
1.0
 70
  1712
 72
     1
 73
     0
 74
     0
  7

 75
     0
147
1.0
148
0.0
149
0.0
100
AcDbLayout
  1
Model
 70
     1
 71
     0
 10
0.0
 20
0.0
 11
420.0
 21
297.0
 12
0.0
 22
0.0
 32
0.0
 14
0.0
 24
0.0
 34
0.0
 15
420.0
 25
297.0
 35
0.0
146
0.0
 13
0.0
 23
0.0
 33
0.0
 16
1.0
 26
0.0
 36
0.0
 17
0.0
 27
1.0
 37
0.0
 76
     0
330
1F
331
29
  0
MLINESTYLE
  5
18
102
{ACAD_REACTORS
330
17
102
}
330
17
100
AcDbMlineStyle
  2
Standard
 70
     0
  3

 62
   256
 51
90.0
 52
90.0
 71
     2
 49
0.5
 62
   256
  6
BYLAYER
 49
-0.5
 62
   256
  6
BYLAYER
  0
ACDBPLACEHOLDER
  5
F
102
{ACAD_REACTORS
330
E
102
}
330
E
  0
SCALE
  5
48
102
{ACAD_REACTORS
330
47
102
}
330
47
100
AcDbScale
 70
     0
300
1:1
140
1.0
141
1.0
290
     1
  0
SCALE
  5
49
102
{ACAD_REACTORS
330
47
102
}
330
47
100
AcDbScale
 70
     0
300
1:2
140
1.0
141
2.0
290
     0
  0
SCALE
  5
4A
102
{ACAD_REACTORS
330
47
102
}
330
47
100
AcDbScale
 70
     0
300
1:4
140
1.0
141
4.0
290
     0
  0
SCALE
  5
4B
102
{ACAD_REACTORS
330
47
102
}
330
47
100
AcDbScale
 70
     0
300
1:5
140
1.0
141
5.0
290
     0
  0
SCALE
  5
4C
102
{ACAD_REACTORS
330
47
102
}
330
47
100
AcDbScale
 70
     0
300
1:8
140
1.0
141
8.0
290
     0
  0
SCALE
  5
4D
102
{ACAD_REACTORS
330
47
102
}
330
47
100
AcDbScale
 70
     0
300
1:10
140
1.0
141
10.0
290
     0
  0
SCALE
  5
4E
102
{ACAD_REACTORS
330
47
102
}
330
47
100
AcDbScale
 70
     0
300
1:16
140
1.0
141
16.0
290
     0
  0
SCALE
  5
4F
102
{ACAD_REACTORS
330
47
102
}
330
47
100
AcDbScale
 70
     0
300
1:20
140
1.0
141
20.0
290
     0
  0
SCALE
  5
50
102
{ACAD_REACTORS
330
47
102
}
330
47
100
AcDbScale
 70
     0
300
1:30
140
1.0
141
30.0
290
     0
  0
SCALE
  5
51
102
{ACAD_REACTORS
330
47
102
}
330
47
100
AcDbScale
 70
     0
300
1:40
140
1.0
141
40.0
290
     0
  0
SCALE
  5
52
102
{ACAD_REACTORS
330
47
102
}
330
47
100
AcDbScale
 70
     0
300
1:50
140
1.0
141
50.0
290
     0
  0
SCALE
  5
53
102
{ACAD_REACTORS
330
47
102
}
330
47
100
AcDbScale
 70
     0
300
1:100
140
1.0
141
100.0
290
     0
  0
SCALE
  5
54
102
{ACAD_REACTORS
330
47
102
}
330
47
100
AcDbScale
 70
     0
300
2:1
140
2.0
141
1.0
290
     0
  0
SCALE
  5
55
102
{ACAD_REACTORS
330
47
102
}
330
47
100
AcDbScale
 70
     0
300
4:1
140
4.0
141
1.0
290
     0
  0
SCALE
  5
56
102
{ACAD_REACTORS
330
47
102
}
330
47
100
AcDbScale
 70
     0
300
8:1
140
8.0
141
1.0
290
     0
  0
SCALE
  5
57
102
{ACAD_REACTORS
330
47
102
}
330
47
100
AcDbScale
 70
     0
300
10:1
140
10.0
141
1.0
290
     0
  0
SCALE
  5
58
102
{ACAD_REACTORS
330
47
102
}
330
47
100
AcDbScale
 70
     0
300
100:1
140
100.0
141
1.0
290
     0
  0
SCALE
  5
59
102
{ACAD_REACTORS
330
47
102
}
330
47
100
AcDbScale
 70
     0
300
1/128" = 1'-0"
140
0.0078125
141
12.0
290
     0
  0
SCALE
  5
5A
102
{ACAD_REACTORS
330
47
102
}
330
47
100
AcDbScale
 70
     0
300
1/64" = 1'-0"
140
0.015625
141
12.0
290
     0
  0
SCALE
  5
5B
102
{ACAD_REACTORS
330
47
102
}
330
47
100
AcDbScale
 70
     0
300
1/32" = 1'-0"
140
0.03125
141
12.0
290
     0
  0
SCALE
  5
5C
102
{ACAD_REACTORS
330
47
102
}
330
47
100
AcDbScale
 70
     0
300
1/16" = 1'-0"
140
0.0625
141
12.0
290
     0
  0
SCALE
  5
5D
102
{ACAD_REACTORS
330
47
102
}
330
47
100
AcDbScale
 70
     0
300
3/32" = 1'-0"
140
0.09375
141
12.0
290
     0
  0
SCALE
  5
5E
102
{ACAD_REACTORS
330
47
102
}
330
47
100
AcDbScale
 70
     0
300
1/8" = 1'-0"
140
0.125
141
12.0
290
     0
  0
SCALE
  5
5F
102
{ACAD_REACTORS
330
47
102
}
330
47
100
AcDbScale
 70
     0
300
3/16" = 1'-0"
140
0.1875
141
12.0
290
     0
  0
SCALE
  5
60
102
{ACAD_REACTORS
330
47
102
}
330
47
100
AcDbScale
 70
     0
300
1/4" = 1'-0"
140
0.25
141
12.0
290
     0
  0
SCALE
  5
61
102
{ACAD_REACTORS
330
47
102
}
330
47
100
AcDbScale
 70
     0
300
3/8" = 1'-0"
140
0.375
141
12.0
290
     0
  0
SCALE
  5
62
102
{ACAD_REACTORS
330
47
102
}
330
47
100
AcDbScale
 70
     0
300
1/2" = 1'-0"
140
0.5
141
12.0
290
     0
  0
SCALE
  5
63
102
{ACAD_REACTORS
330
47
102
}
330
47
100
AcDbScale
 70
     0
300
3/4" = 1'-0"
140
0.75
141
12.0
290
     0
  0
SCALE
  5
64
102
{ACAD_REACTORS
330
47
102
}
330
47
100
AcDbScale
 70
     0
300
1" = 1'-0"
140
1.0
141
12.0
290
     0
  0
SCALE
  5
65
102
{ACAD_REACTORS
330
47
102
}
330
47
100
AcDbScale
 70
     0
300
1-1/2" = 1'-0"
140
1.5
141
12.0
290
     0
  0
SCALE
  5
66
102
{ACAD_REACTORS
330
47
102
}
330
47
100
AcDbScale
 70
     0
300
3" = 1'-0"
140
3.0
141
12.0
290
     0
  0
SCALE
  5
67
102
{ACAD_REACTORS
330
47
102
}
330
47
100
AcDbScale
 70
     0
300
6" = 1'-0"
140
6.0
141
12.0
290
     0
  0
SCALE
  5
68
102
{ACAD_REACTORS
330
47
102
}
330
47
100
AcDbScale
 70
     0
300
1'-0" = 1'-0"
140
12.0
141
12.0
290
     0
  0
ENDSEC
  0
EOF
