  0
SECTION
  2
HEADER
  9
$ACADVER
  1
AC1015
  9
$ACADMAINTVER
 70
     6
  9
$DWGCODEPAGE
  3
ANSI_1252
  9
$INSBASE
 10
0.0
 20
0.0
 30
0.0
  9
$EXTMIN
 10
0.0
 20
0.0
 30
0.0
  9
$EXTMAX
 10
420.0
 20
297.0
 30
0.0
  9
$LIMMIN
 10
0.0
 20
0.0
  9
$LIMMAX
 10
420.0
 20
297.0
  9
$ORTHOMODE
 70
     0
  9
$REGENMODE
 70
     1
  9
$FILLMODE
 70
     1
  9
$QTEXTMODE
 70
     0
  9
$MIRRTEXT
 70
     1
  9
$LTSCALE
 40
1.0
  9
$ATTMODE
 70
     1
  9
$TEXTSIZE
 40
3.5
  9
$TRACEWID
 40
1.0
  9
$TEXTSTYLE
  7
Standard
  9
$CLAYER
  8
0
  9
$CELTYPE
  6
ByLayer
  9
$CECOLOR
 62
   256
  9
$CELTSCALE
 40
1.0
  9
$DISPSILH
 70
     0
  9
$DIMSCALE
 40
1.0
  9
$DIMASZ
 40
2.2
  9
$DIMEXO
 40
0.3
  9
$DIMDLI
 40
3.75
  9
$DIMRND
 40
0.0
  9
$DIMDLE
 40
0.0
  9
$DIMEXE
 40
1.0
  9
$DIMTP
 40
0.0
  9
$DIMTM
 40
0.0
  9
$DIMTXT
 40
3.5277777778
  9
$DIMCEN
 40
2.5
  9
$DIMTSZ
 40
0.0
  9
$DIMTOL
 70
     0
  9
$DIMLIM
 70
     0
  9
$DIMTIH
 70
     1
  9
$DIMTOH
 70
     1
  9
$DIMSE1
 70
     0
  9
$DIMSE2
 70
     0
  9
$DIMTAD
 70
     1
  9
$DIMZIN
 70
     0
  9
$DIMBLK
  1

  9
$DIMASO
 70
     1
  9
$DIMSHO
 70
     1
  9
$DIMPOST
  1

  9
$DIMAPOST
  1

  9
$DIMALT
 70
     0
  9
$DIMALTD
 70
     3
  9
$DIMALTF
 40
0.0393700787
  9
$DIMLFAC
 40
1.0
  9
$DIMTOFL
 70
     1
  9
$DIMTVP
 40
0.0
  9
$DIMTIX
 70
     0
  9
$DIMSOXD
 70
     0
  9
$DIMSAH
 70
     0
  9
$DIMBLK1
  1

  9
$DIMBLK2
  1

  9
$DIMSTYLE
  2
ISO-25
  9
$DIMCLRD
 70
     0
  9
$DIMCLRE
 70
     0
  9
$DIMCLRT
 70
     0
  9
$DIMTFAC
 40
1.0
  9
$DIMGAP
 40
1.524
  9
$DIMJUST
 70
     0
  9
$DIMSD1
 70
     0
  9
$DIMSD2
 70
     0
  9
$DIMTOLJ
 70
     0
  9
$DIMTZIN
 70
     0
  9
$DIMALTZ
 70
     0
  9
$DIMALTTZ
 70
     0
  9
$DIMUPT
 70
     0
  9
$DIMDEC
 70
     2
  9
$DIMTDEC
 70
     2
  9
$DIMALTU
 70
     2
  9
$DIMALTTD
 70
     3
  9
$DIMTXSTY
  7
Standard
  9
$DIMAUNIT
 70
     0
  9
$DIMADEC
 70
     2
  9
$DIMALTRND
 40
0.0
  9
$DIMAZIN
 70
     0
  9
$DIMDSEP
 70
    44
  9
$DIMATFIT
 70
     3
  9
$DIMFRAC
 70
     0
  9
$DIMLDRBLK
  1

  9
$DIMLUNIT
 70
     2
  9
$DIMLWD
 70
    -2
  9
$DIMLWE
 70
    -2
  9
$DIMTMOVE
 70
     0
  9
$LUNITS
 70
     2
  9
$LUPREC
 70
     3
  9
$SKETCHINC
 40
1.0
  9
$FILLETRAD
 40
10.0
  9
$AUNITS
 70
     0
  9
$AUPREC
 70
     2
  9
$MENU
  1
.
  9
$ELEVATION
 40
0.0
  9
$PELEVATION
 40
0.0
  9
$THICKNESS
 40
0.0
  9
$LIMCHECK
 70
     0
  9
$CHAMFERA
 40
0.0
  9
$CHAMFERB
 40
0.0
  9
$CHAMFERC
 40
0.0
  9
$CHAMFERD
 40
0.0
  9
$SKPOLY
 70
     0
  9
$TDCREATE
 40
2460222.607345255
  9
$TDUCREATE
 40
2460222.524011921
  9
$TDUPDATE
 40
2460222.607348704
  9
$TDUUPDATE
 40
2460222.52401537
  9
$TDINDWG
 40
0.0000000116
  9
$TDUSRTIMER
 40
0.0000000116
  9
$USRTIMER
 70
     1
  9
$ANGBASE
 50
0.0
  9
$ANGDIR
 70
     0
  9
$PDMODE
 70
     0
  9
$PDSIZE
 40
-1.0
  9
$PLINEWID
 40
0.0
  9
$SPLFRAME
 70
     0
  9
$SPLINETYPE
 70
     6
  9
$SPLINESEGS
 70
     8
  9
$HANDSEED
  5
271
  9
$SURFTAB1
 70
     6
  9
$SURFTAB2
 70
     6
  9
$SURFTYPE
 70
     6
  9
$SURFU
 70
     6
  9
$SURFV
 70
     6
  9
$UCSBASE
  2

  9
$UCSNAME
  2

  9
$UCSORG
 10
0.0
 20
0.0
 30
0.0
  9
$UCSXDIR
 10
1.0
 20
0.0
 30
0.0
  9
$UCSYDIR
 10
0.0
 20
1.0
 30
0.0
  9
$UCSORTHOREF
  2

  9
$UCSORTHOVIEW
 70
     0
  9
$UCSORGTOP
 10
0.0
 20
0.0
 30
0.0
  9
$UCSORGBOTTOM
 10
0.0
 20
0.0
 30
0.0
  9
$UCSORGLEFT
 10
0.0
 20
0.0
 30
0.0
  9
$UCSORGRIGHT
 10
0.0
 20
0.0
 30
0.0
  9
$UCSORGFRONT
 10
0.0
 20
0.0
 30
0.0
  9
$UCSORGBACK
 10
0.0
 20
0.0
 30
0.0
  9
$PUCSBASE
  2

  9
$PUCSNAME
  2

  9
$PUCSORG
 10
0.0
 20
0.0
 30
0.0
  9
$PUCSXDIR
 10
1.0
 20
0.0
 30
0.0
  9
$PUCSYDIR
 10
0.0
 20
1.0
 30
0.0
  9
$PUCSORTHOREF
  2

  9
$PUCSORTHOVIEW
 70
     0
  9
$PUCSORGTOP
 10
0.0
 20
0.0
 30
0.0
  9
$PUCSORGBOTTOM
 10
0.0
 20
0.0
 30
0.0
  9
$PUCSORGLEFT
 10
0.0
 20
0.0
 30
0.0
  9
$PUCSORGRIGHT
 10
0.0
 20
0.0
 30
0.0
  9
$PUCSORGFRONT
 10
0.0
 20
0.0
 30
0.0
  9
$PUCSORGBACK
 10
0.0
 20
0.0
 30
0.0
  9
$USERI1
 70
     0
  9
$USERI2
 70
     0
  9
$USERI3
 70
     0
  9
$USERI4
 70
     0
  9
$USERI5
 70
     0
  9
$USERR1
 40
0.0
  9
$USERR2
 40
0.0
  9
$USERR3
 40
0.0
  9
$USERR4
 40
0.0
  9
$USERR5
 40
0.0
  9
$WORLDVIEW
 70
     1
  9
$SHADEDGE
 70
     3
  9
$SHADEDIF
 70
    70
  9
$TILEMODE
 70
     1
  9
$MAXACTVP
 70
    64
  9
$PINSBASE
 10
0.0
 20
0.0
 30
0.0
  9
$PLIMCHECK
 70
     0
  9
$PEXTMIN
 10
1.0000000000E+20
 20
1.0000000000E+20
 30
1.0000000000E+20
  9
$PEXTMAX
 10
-1.0000000000E+20
 20
-1.0000000000E+20
 30
-1.0000000000E+20
  9
$PLIMMIN
 10
0.0
 20
0.0
  9
$PLIMMAX
 10
420.0
 20
297.0
  9
$UNITMODE
 70
     0
  9
$VISRETAIN
 70
     1
  9
$PLINEGEN
 70
     0
  9
$PSLTSCALE
 70
     1
  9
$TREEDEPTH
 70
  3020
  9
$CMLSTYLE
  2
Standard
  9
$CMLJUST
 70
     0
  9
$CMLSCALE
 40
20.0
  9
$PROXYGRAPHICS
 70
     1
  9
$MEASUREMENT
 70
     1
  9
$CELWEIGHT
370
    -1
  9
$ENDCAPS
280
     0
  9
$JOINSTYLE
280
     0
  9
$LWDISPLAY
290
     1
  9
$INSUNITS
 70
     4
  9
$HYPERLINKBASE
  1

  9
$STYLESHEET
  1

  9
$XEDIT
290
     1
  9
$CEPSNTYPE
380
     0
  9
$PSTYLEMODE
290
     1
  9
$FINGERPRINTGUID
  2
{b150d028-9efe-4458-aa1b-1a18210bfbb2}
  9
$VERSIONGUID
  2
{FAEB1C32-E019-11D5-929B-00C0DF256EC4}
  9
$EXTNAMES
290
     1
  9
$PSVPSCALE
 40
0.0
  9
$OLESTARTUP
290
     0
  0
ENDSEC
  0
SECTION
  2
CLASSES
  0
CLASS
  1
ACDBDICTIONARYWDFLT
  2
AcDbDictionaryWithDefault
  3
ObjectDBX Classes
 90
        0
280
     0
281
     0
  0
CLASS
  1
VISUALSTYLE
  2
AcDbVisualStyle
  3
ObjectDBX Classes
 90
     4095
280
     0
281
     0
  0
CLASS
  1
MATERIAL
  2
AcDbMaterial
  3
ObjectDBX Classes
 90
     1153
280
     0
281
     0
  0
CLASS
  1
SCALE
  2
AcDbScale
  3
ObjectDBX Classes
 90
     1153
280
     0
281
     0
  0
CLASS
  1
TABLESTYLE
  2
AcDbTableStyle
  3
ObjectDBX Classes
 90
     4095
280
     0
281
     0
  0
CLASS
  1
MLEADERSTYLE
  2
AcDbMLeaderStyle
  3
ACDB_MLEADERSTYLE_CLASS
 90
     4095
280
     0
281
     0
  0
CLASS
  1
SUN
  2
AcDbSun
  3
SCENEOE
 90
     1153
280
     0
281
     0
  0
CLASS
  1
ACDBPLACEHOLDER
  2
AcDbPlaceHolder
  3
ObjectDBX Classes
 90
        0
280
     0
281
     0
  0
CLASS
  1
LAYOUT
  2
AcDbLayout
  3
ObjectDBX Classes
 90
        0
280
     0
281
     0
  0
ENDSEC
  0
SECTION
  2
TABLES
  0
TABLE
  2
VPORT
  5
8
330
0
100
AcDbSymbolTable
 70
     1
  0
VPORT
  5
29
330
8
100
AcDbSymbolTableRecord
100
AcDbViewportTableRecord
  2
*Active
 70
     0
 10
0.0
 20
0.0
 11
1.0
 21
1.0
 12
210.0
 22
148.5
 13
0.0
 23
0.0
 14
10.0
 24
10.0
 15
10.0
 25
10.0
 16
0.0
 26
0.0
 36
1.0
 17
0.0
 27
0.0
 37
0.0
 40
297.0
 41
1.4141414141
 42
50.0
 43
0.0
 44
0.0
 50
0.0
 51
0.0
 71
     0
 72
  2000
 73
     1
 74
     3
 75
     0
 76
     0
 77
     0
 78
     0
281
     0
 65
     1
110
0.0
120
0.0
130
0.0
111
1.0
121
0.0
131
0.0
112
0.0
122
1.0
132
0.0
 79
     0
146
0.0
  0
ENDTAB
  0
TABLE
  2
LTYPE
  5
5
330
0
100
AcDbSymbolTable
 70
     6
  0
LTYPE
  5
14
330
5
100
AcDbSymbolTableRecord
100
AcDbLinetypeTableRecord
  2
ByBlock
 70
     0
  3

 72
    65
 73
     0
 40
0.0
  0
LTYPE
  5
15
330
5
100
AcDbSymbolTableRecord
100
AcDbLinetypeTableRecord
  2
ByLayer
 70
     0
  3

 72
    65
 73
     0
 40
0.0
  0
LTYPE
  5
16
330
5
100
AcDbSymbolTableRecord
100
AcDbLinetypeTableRecord
  2
Continuous
 70
     0
  3
Solid line
 72
    65
 73
     0
 40
0.0
  0
LTYPE
  5
6E
330
5
100
AcDbSymbolTableRecord
100
AcDbLinetypeTableRecord
  2
HIDDEN
 70
     0
  3
Hidden __ __ __ __ __ __ __ __ __ __ __ __ __ __
 72
    65
 73
     2
 40
1.905
 49
1.27
 74
     0
 49
-0.635
 74
     0
  0
LTYPE
  5
6F
330
5
100
AcDbSymbolTableRecord
100
AcDbLinetypeTableRecord
  2
PHANTOM
 70
     0
  3
Phantom ______  __  __  ______  __  __  ______
 72
    65
 73
     6
 40
12.7
 49
6.35
 74
     0
 49
-1.27
 74
     0
 49
1.27
 74
     0
 49
-1.27
 74
     0
 49
1.27
 74
     0
 49
-1.27
 74
     0
  0
LTYPE
  5
70
330
5
100
AcDbSymbolTableRecord
100
AcDbLinetypeTableRecord
  2
CENTER
 70
     0
  3
Center ____ _ ____ _ ____ _ ____ _ ____ _ ____
 72
    65
 73
     4
 40
10.16
 49
6.35
 74
     0
 49
-1.27
 74
     0
 49
1.27
 74
     0
 49
-1.27
 74
     0
  0
LTYPE
  5
71
330
5
100
AcDbSymbolTableRecord
100
AcDbLinetypeTableRecord
  2
CENTERX2
 70
     0
  3
Center (2x) ________  __  ________  __  _____
 72
    65
 73
     4
 40
20.32
 49
12.7
 74
     0
 49
-2.54
 74
     0
 49
2.54
 74
     0
 49
-2.54
 74
     0
  0
LTYPE
  5
72
330
5
100
AcDbSymbolTableRecord
100
AcDbLinetypeTableRecord
  2
DOT2
 70
     0
  3
Dot (.5x) ........................................
 72
    65
 73
     2
 40
0.635
 49
0.0
 74
     0
 49
-0.635
 74
     0
  0
ENDTAB
  0
TABLE
  2
LAYER
  5
2
330
0
100
AcDbSymbolTable
 70
    10
  0
LAYER
  5
10
330
2
100
AcDbSymbolTableRecord
100
AcDbLayerTableRecord
  2
0
 70
     0
 62
     7
  6
Continuous
370
    -3
390
F
  0
LAYER
  5
73
330
2
100
AcDbSymbolTableRecord
100
AcDbLayerTableRecord
  2
FORMAT
 70
     0
 62
     7
  6
Continuous
370
    -3
390
F
  0
LAYER
  5
74
330
2
100
AcDbSymbolTableRecord
100
AcDbLayerTableRecord
  2
VORLAGE_TEXT
 70
     0
 62
     7
  6
Continuous
370
    -3
390
F
  0
LAYER
  5
75
330
2
100
AcDbSymbolTableRecord
100
AcDbLayerTableRecord
  2
VORLAGE_BEMASSUNG
 70
     0
 62
    -5
  6
Continuous
290
     0
370
    -3
390
F
  0
LAYER
  5
76
330
2
100
AcDbSymbolTableRecord
100
AcDbLayerTableRecord
  2
TEXT
 70
     0
 62
     7
  6
Continuous
370
    -3
390
F
  0
LAYER
  5
77
330
2
100
AcDbSymbolTableRecord
100
AcDbLayerTableRecord
  2
LINIEN-DICK
 70
     0
 62
     7
  6
Continuous
370
    35
390
F
  0
LAYER
  5
78
330
2
100
AcDbSymbolTableRecord
100
AcDbLayerTableRecord
  2
LINIEN-NORMAL
 70
     0
 62
     7
  6
Continuous
370
    25
390
F
  0
LAYER
  5
79
330
2
100
AcDbSymbolTableRecord
100
AcDbLayerTableRecord
  2
LINIEN-DÜNN
 70
     0
 62
     7
  6
Continuous
370
    -3
390
F
  0
LAYER
  5
7A
330
2
100
AcDbSymbolTableRecord
100
AcDbLayerTableRecord
  2
TEXT-DEUTSCH
 70
     0
 62
     7
  6
Continuous
370
    -3
390
F
  0
LAYER
  5
7B
330
2
100
AcDbSymbolTableRecord
100
AcDbLayerTableRecord
  2
TEXT-ENGLISCH
 70
     0
 62
    -7
  6
Continuous
290
     0
370
    -3
390
F
  0
ENDTAB
  0
TABLE
  2
STYLE
  5
3
330
0
100
AcDbSymbolTable
 70
     4
  0
STYLE
  5
11
330
3
100
AcDbSymbolTableRecord
100
AcDbTextStyleTableRecord
  2
Standard
 70
     0
 40
0.0
 41
1.0
 50
0.0
 71
     0
 42
3.5
  3
txt
  4

  0
STYLE
  5
F2
330
3
100
AcDbSymbolTableRecord
100
AcDbTextStyleTableRecord
  2
SLDTEXTSTYLE0
 70
     0
 40
0.0
 41
0.605
 50
0.0
 71
     0
 42
3.5
  3
TXT
  4

  0
STYLE
  5
19E
330
3
100
AcDbSymbolTableRecord
100
AcDbTextStyleTableRecord
  2
SLDTEXTSTYLE1
 70
     0
 40
0.0
 41
0.563
 50
0.0
 71
     0
 42
3.5
  3
TXT
  4

  0
STYLE
  5
26E
330
3
100
AcDbSymbolTableRecord
100
AcDbTextStyleTableRecord
  2
SLDTEXTSTYLE2
 70
     0
 40
0.0
 41
0.75
 50
0.0
 71
     0
 42
3.5
  3
TXT
  4

  0
ENDTAB
  0
TABLE
  2
VIEW
  5
6
330
0
100
AcDbSymbolTable
 70
     0
  0
ENDTAB
  0
TABLE
  2
UCS
  5
7
330
0
100
AcDbSymbolTable
 70
     0
  0
ENDTAB
  0
TABLE
  2
APPID
  5
9
330
0
100
AcDbSymbolTable
 70
     1
  0
APPID
  5
12
330
9
100
AcDbSymbolTableRecord
100
AcDbRegAppTableRecord
  2
ACAD
 70
     0
  0
ENDTAB
  0
TABLE
  2
DIMSTYLE
  5
A
330
0
100
AcDbSymbolTable
 70
     5
100
AcDbDimStyleTable
  0
DIMSTYLE
105
27
330
A
100
AcDbSymbolTableRecord
100
AcDbDimStyleTableRecord
  2
ISO-25
 70
     0
 41
2.5
 42
0.625
 43
3.75
 44
1.25
 73
     0
 74
     0
 77
     1
 78
     8
140
2.5
141
2.5
143
0.0393700787
147
0.625
171
     3
172
     1
178
     0
271
     2
272
     2
274
     3
278
    44
283
     0
284
     8
340
11
  0
DIMSTYLE
105
23B
102
{ACAD_REACTORS
330
23A
102
}
330
A
100
AcDbSymbolTableRecord
100
AcDbDimStyleTableRecord
  2
SLDDIMSTYLE0
 70
     0
 41
2.2
 44
0.0
 45
0.000000001
 73
     0
 74
     0
 77
     1
 78
    12
 79
     3
140
2.5683186849
141
0.0
147
0.6420796712
173
     1
178
     0
271
     1
272
     2
276
     2
279
     1
284
    12
340
F2
  0
DIMSTYLE
105
243
102
{ACAD_REACTORS
330
242
102
}
330
A
100
AcDbSymbolTableRecord
100
AcDbDimStyleTableRecord
  2
SLDDIMSTYLE1
 70
     0
 41
2.2
 44
0.0
 45
0.000000001
 73
     0
 74
     0
 77
     1
 78
    12
 79
     3
140
2.5683186849
147
0.6420796712
173
     1
178
     0
271
     1
272
     1
276
     2
284
    12
340
F2
  0
DIMSTYLE
105
24E
102
{ACAD_REACTORS
330
24D
330
258
102
}
330
A
100
AcDbSymbolTableRecord
100
AcDbDimStyleTableRecord
  2
SLDDIMSTYLE2
 70
     0
 41
2.2
 44
0.0
 45
0.000000001
 73
     0
 74
     0
 77
     1
 78
    12
 79
     3
140
2.5683186849
147
0.6420796712
173
     1
178
     0
271
     2
272
     2
276
     2
284
    12
340
F2
  0
DIMSTYLE
105
264
102
{ACAD_REACTORS
330
263
102
}
330
A
100
AcDbSymbolTableRecord
100
AcDbDimStyleTableRecord
  2
SLDDIMSTYLE3
 70
     0
 41
2.2
 44
0.0
 45
0.000000001
 73
     0
 74
     0
 77
     1
 78
    12
 79
     3
140
2.5683186849
147
0.6420796712
172
     1
173
     1
178
     0
271
     2
272
     2
276
     2
284
    12
289
     0
340
F2
  0
ENDTAB
  0
TABLE
  2
BLOCK_RECORD
  5
1
330
0
100
AcDbSymbolTable
 70
    11
  0
BLOCK_RECORD
  5
1F
330
1
100
AcDbSymbolTableRecord
100
AcDbBlockTableRecord
  2
*Model_Space
340
22
  0
BLOCK_RECORD
  5
1B
330
1
100
AcDbSymbolTableRecord
100
AcDbBlockTableRecord
  2
*Paper_Space
340
1E
  0
BLOCK_RECORD
  5
23
330
1
100
AcDbSymbolTableRecord
100
AcDbBlockTableRecord
  2
*Paper_Space0
340
26
  0
BLOCK_RECORD
  5
7C
330
1
100
AcDbSymbolTableRecord
100
AcDbBlockTableRecord
  2
ACO-Logo
340
0
102
{BLKREFS
331
152
102
}
  0
BLOCK_RECORD
  5
EF
330
1
100
AcDbSymbolTableRecord
100
AcDbBlockTableRecord
  2
SW_NOTE_0
340
0
102
{BLKREFS
331
F4
102
}
  0
BLOCK_RECORD
  5
F5
330
1
100
AcDbSymbolTableRecord
100
AcDbBlockTableRecord
  2
SW_NOTE_0_1
340
0
102
{BLKREFS
331
F9
102
}
  0
BLOCK_RECORD
  5
FA
330
1
100
AcDbSymbolTableRecord
100
AcDbBlockTableRecord
  2
SW_NOTE_0_2
340
0
102
{BLKREFS
331
101
102
}
  0
BLOCK_RECORD
  5
17A
330
1
100
AcDbSymbolTableRecord
100
AcDbBlockTableRecord
  2
SW_NOTE_0_3
340
0
102
{BLKREFS
331
182
102
}
  0
BLOCK_RECORD
  5
23C
330
1
100
AcDbSymbolTableRecord
100
AcDbBlockTableRecord
  2
_D
340
0
  0
BLOCK_RECORD
  5
244
330
1
100
AcDbSymbolTableRecord
100
AcDbBlockTableRecord
  2
_D_1
340
0
  0
BLOCK_RECORD
  5
24F
330
1
100
AcDbSymbolTableRecord
100
AcDbBlockTableRecord
  2
_D_2
340
0
  0
BLOCK_RECORD
  5
259
330
1
100
AcDbSymbolTableRecord
100
AcDbBlockTableRecord
  2
_D_3
340
0
  0
BLOCK_RECORD
  5
265
330
1
100
AcDbSymbolTableRecord
100
AcDbBlockTableRecord
  2
_D_4
340
0
  0
ENDTAB
  0
ENDSEC
  0
SECTION
  2
BLOCKS
  0
BLOCK
  5
20
330
1F
100
AcDbEntity
  8
0
100
AcDbBlockBegin
  2
*Model_Space
 70
     0
 10
0.0
 20
0.0
 30
0.0
  3
*Model_Space
  1

  0
ENDBLK
  5
21
330
1F
100
AcDbEntity
  8
0
100
AcDbBlockEnd
  0
BLOCK
  5
1C
330
1B
100
AcDbEntity
 67
     1
  8
0
100
AcDbBlockBegin
  2
*Paper_Space
 70
     0
 10
0.0
 20
0.0
 30
0.0
  3
*Paper_Space
  1

  0
ENDBLK
  5
1D
330
1B
100
AcDbEntity
 67
     1
  8
0
100
AcDbBlockEnd
  0
BLOCK
  5
24
330
23
100
AcDbEntity
  8
0
100
AcDbBlockBegin
  2
*Paper_Space0
 70
     0
 10
0.0
 20
0.0
 30
0.0
  3
*Paper_Space0
  1

  0
ENDBLK
  5
25
330
23
100
AcDbEntity
  8
0
100
AcDbBlockEnd
  0
BLOCK
  5
7D
330
7C
100
AcDbEntity
  8
0
100
AcDbBlockBegin
  2
ACO-Logo
 70
     0
 10
0.0
 20
0.0
 30
0.0
  3
ACO-Logo
  1

  0
ARC
  5
7F
330
7C
100
AcDbEntity
  8
0
  6
Continuous
 62
   179
370
    18
100
AcDbCircle
 10
80.3853261169
 20
4.9940995715
 30
0.0
 40
0.3000000000000441
100
AcDbArc
 50
181.9349323096
 51
274.6062978506
  0
ARC
  5
80
330
7C
100
AcDbEntity
  8
0
  6
Continuous
 62
   179
370
    18
100
AcDbCircle
 10
81.2359083165
 20
2.1946665956
 30
0.0
 40
1.000000000000021
100
AcDbArc
 50
221.4087409628
 51
276.0561297228
  0
ARC
  5
81
330
7C
100
AcDbEntity
  8
0
  6
Continuous
 62
   179
370
    18
100
AcDbCircle
 10
79.1360017163
 20
3.654242048
 30
0.0
 40
0.300000000000004
100
AcDbArc
 50
181.2730300201
 51
274.4996077095
  0
ARC
  5
82
330
7C
100
AcDbEntity
  8
0
  6
Continuous
 62
   179
370
    18
100
AcDbCircle
 10
78.7699033484
 20
3.2873137407
 30
0.0
 40
0.4000000000000358
100
AcDbArc
 50
221.0090869016
 51
274.5606296317
  0
ARC
  5
83
330
7C
100
AcDbEntity
  8
0
  6
Continuous
 62
   179
370
    18
100
AcDbCircle
 10
91.2333953062
 20
4.6062442307
 30
0.0
 40
0.3000000000000493
100
AcDbArc
 50
274.4996077095
 51
3.7249371334
  0
ARC
  5
84
330
7C
100
AcDbEntity
  8
0
  6
Continuous
 62
   179
370
    18
100
AcDbCircle
 10
81.5287571045
 20
9.7648973508
 30
0.0
 40
1.00000000000002
100
AcDbArc
 50
93.1134387481
 51
181.9414863909
  0
ARC
  5
85
330
7C
100
AcDbEntity
  8
0
  6
Continuous
 62
   179
370
    18
100
AcDbCircle
 10
81.6051675115
 20
7.5107903456
 30
0.0
 40
1.0
100
AcDbArc
 50
181.9414863909
 51
274.398705355
  0
ARC
  5
86
330
7C
100
AcDbEntity
  8
0
  6
Continuous
 62
   179
370
    18
100
AcDbCircle
 10
80.1506905656
 20
11.9393118923
 30
0.0
 40
0.300000000000045
100
AcDbArc
 50
93.0418421566
 51
181.9349323096
  0
ARC
  5
87
330
7C
100
AcDbEntity
  8
0
  6
Continuous
 62
   179
370
    18
100
AcDbCircle
 10
78.1879722102
 20
12.3499352608
 30
0.0
 40
0.7999999999953393
100
AcDbArc
 50
92.6995697565
 51
148.2554209065
  0
ARC
  5
88
330
7C
100
AcDbEntity
  8
0
  6
Continuous
 62
   179
370
    18
100
AcDbCircle
 10
78.930862229
 20
12.8855189761
 30
0.0
 40
0.3000000000000031
100
AcDbArc
 50
92.6995697565
 51
181.2730300201
  0
ARC
  5
89
330
7C
100
AcDbEntity
  8
0
  6
Continuous
 62
   179
370
    18
100
AcDbCircle
 10
82.327743407
 20
9.8083568568
 30
0.0
 40
1.000000000000034
100
AcDbArc
 50
1.9414863909
 51
93.1134387481
  0
ARC
  5
8A
330
7C
100
AcDbEntity
  8
0
  6
Continuous
 62
   179
370
    18
100
AcDbCircle
 10
81.5287571045
 20
9.7648973508
 30
0.0
 40
0.3625000000000009
100
AcDbArc
 50
93.1134387481
 51
181.9414863909
  0
ARC
  5
8B
330
7C
100
AcDbEntity
  8
0
  6
Continuous
 62
   179
370
    18
100
AcDbCircle
 10
82.327743407
 20
9.8083568568
 30
0.0
 40
0.3625000000000146
100
AcDbArc
 50
1.9414863909
 51
93.1134387481
  0
ARC
  5
8C
330
7C
100
AcDbEntity
  8
0
  6
Continuous
 62
   179
370
    18
100
AcDbCircle
 10
82.4035451983
 20
7.5722040138
 30
0.0
 40
1.000000000000008
100
AcDbArc
 50
274.398705355
 51
1.9414863909
  0
ARC
  5
8D
330
7C
100
AcDbEntity
  8
0
  6
Continuous
 62
   179
370
    18
100
AcDbCircle
 10
82.4035451983
 20
7.5722040138
 30
0.0
 40
0.3625000000000068
100
AcDbArc
 50
274.398705355
 51
1.9414863909
  0
ARC
  5
8E
330
7C
100
AcDbEntity
  8
0
  6
Continuous
 62
   179
370
    18
100
AcDbCircle
 10
81.6051675115
 20
7.5107903456
 30
0.0
 40
0.3625000000000111
100
AcDbArc
 50
181.9414863909
 51
274.398705355
  0
ARC
  5
8F
330
7C
100
AcDbEntity
  8
0
  6
Continuous
 62
   179
370
    18
100
AcDbCircle
 10
88.825822761
 20
8.0662148274
 30
0.0
 40
0.9999999999999997
100
AcDbArc
 50
274.398705355
 51
2.6541955134
  0
ARC
  5
90
330
7C
100
AcDbEntity
  8
0
  6
Continuous
 62
   179
370
    18
100
AcDbCircle
 10
90.1578295581
 20
5.7814576687
 30
0.0
 40
0.3000000000000043
100
AcDbArc
 50
274.6062978507
 51
2.5147526475
  0
ARC
  5
91
330
7C
100
AcDbEntity
  8
0
  6
Continuous
 62
   179
370
    18
100
AcDbCircle
 10
88.825822761
 20
8.0662148274
 30
0.0
 40
0.3625000000000083
100
AcDbArc
 50
274.398705355
 51
2.6541955134
  0
ARC
  5
92
330
7C
100
AcDbEntity
  8
0
  6
Continuous
 62
   179
370
    18
100
AcDbCircle
 10
88.728529747
 20
10.16496413
 30
0.0
 40
1.000000000000001
100
AcDbArc
 50
2.6541955134
 51
93.1134387481
  0
ARC
  5
93
330
7C
100
AcDbEntity
  8
0
  6
Continuous
 62
   179
370
    18
100
AcDbCircle
 10
88.728529747
 20
10.16496413
 30
0.0
 40
0.3625000000000085
100
AcDbArc
 50
2.6541955134
 51
93.1134387481
  0
ARC
  5
94
330
7C
100
AcDbEntity
  8
0
  6
Continuous
 62
   179
370
    18
100
AcDbCircle
 10
89.8647121341
 20
12.455515937
 30
0.0
 40
0.2999999999999984
100
AcDbArc
 50
2.5147526475
 51
93.0418421566
  0
ARC
  5
95
330
7C
100
AcDbEntity
  8
0
  6
Continuous
 62
   179
370
    18
100
AcDbCircle
 10
90.6583795404
 20
13.4384863935
 30
0.0
 40
0.2999999999999911
100
AcDbArc
 50
3.7249371334
 51
92.6995697565
  0
CIRCLE
  5
96
330
7C
100
AcDbEntity
  8
0
  6
Continuous
 62
   179
370
    18
100
AcDbCircle
 10
15.7233972286
 20
6.4054930194
 30
0.0
 40
1.579500000000014
  0
CIRCLE
  5
97
330
7C
100
AcDbEntity
  8
0
  6
Continuous
 62
   179
370
    18
100
AcDbCircle
 10
15.7233972286
 20
6.4054930194
 30
0.0
 40
2.281499999999994
  0
ARC
  5
98
330
7C
100
AcDbEntity
  8
0
  6
Continuous
 62
   179
370
    18
100
AcDbCircle
 10
89.7681336026
 20
2.3106616691
 30
0.0
 40
0.098384530246548
100
AcDbArc
 50
332.3802627259
 51
4.9765441602
  0
ARC
  5
99
330
7C
100
AcDbEntity
  8
0
  6
Continuous
 62
   179
370
    18
100
AcDbCircle
 10
89.6886560089
 20
2.3522464185
 30
0.0
 40
0.1880839130754018
100
AcDbArc
 50
303.690067526
 51
332.3802627258
  0
ARC
  5
9A
330
7C
100
AcDbEntity
  8
0
  6
Continuous
 62
   179
370
    18
100
AcDbCircle
 10
89.4849700869
 20
2.6577753016
 30
0.0
 40
0.5552839311631531
100
AcDbArc
 50
287.108652213
 51
303.690067526
  0
ARC
  5
9B
330
7C
100
AcDbEntity
  8
0
  6
Continuous
 62
   179
370
    18
100
AcDbCircle
 10
88.0513010646
 20
7.3154864882
 30
0.0
 40
5.428648309393203
100
AcDbArc
 50
285.2551187031
 51
287.108652213
  0
ARC
  5
9C
330
7C
100
AcDbEntity
  8
0
  6
Continuous
 62
   179
370
    18
100
AcDbCircle
 10
89.1317168954
 20
3.3539617753
 30
0.0
 40
1.322436378825653
100
AcDbArc
 50
281.4991866428
 51
285.255118703
  0
ARC
  5
9D
330
7C
100
AcDbEntity
  8
0
  6
Continuous
 62
   179
370
    18
100
AcDbCircle
 10
89.3198255509
 20
2.4293110075
 30
0.0
 40
0.3788454141584939
100
AcDbArc
 50
279.1917900003
 51
281.499186643
  0
ARC
  5
9E
330
7C
100
AcDbEntity
  8
0
  6
Continuous
 62
   179
370
    18
100
AcDbCircle
 10
89.0487250788
 20
4.1046569124
 30
0.0
 40
2.07598399629105
100
AcDbArc
 50
277.7634675038
 51
279.1917900002
  0
ARC
  5
9F
330
7C
100
AcDbEntity
  8
0
  6
Continuous
 62
   179
370
    18
100
AcDbCircle
 10
9.2588909915
 20
6.4054930194
 30
0.0
 40
1.579500000000074
100
AcDbArc
 50
31.0558004991
 51
330.0
  0
ARC
  5
A0
330
7C
100
AcDbEntity
  8
0
  6
Continuous
 62
   179
370
    18
100
AcDbCircle
 10
9.2588909915
 20
6.4054930194
 30
0.0
 40
2.281500000000107
100
AcDbArc
 50
30.7309172659
 51
330.0
  0
ARC
  5
A1
330
7C
100
AcDbEntity
  8
0
  6
Continuous
 62
   179
370
    18
100
AcDbCircle
 10
6.1288847544
 20
4.0685261312
 30
0.0
 40
4.914000000000307
100
AcDbArc
 50
172.3058370354
 51
179.7113029221
  0
ARC
  5
A2
330
7C
100
AcDbEntity
  8
0
  6
Continuous
 62
   179
370
    18
100
AcDbCircle
 10
-0.5401152456
 20
4.0685261312
 30
0.0
 40
4.91400000000019
100
AcDbArc
 50
0.2886970779
 51
7.6941629646
  0
ARC
  5
A3
330
7C
100
AcDbEntity
  8
0
  6
Continuous
 62
   179
370
    18
100
AcDbCircle
 10
-0.5401152456
 20
4.0685261312
 30
0.0
 40
5.616000000000127
100
AcDbArc
 50
0.2526096926
 51
53.5764263577
  0
ARC
  5
A4
330
7C
100
AcDbEntity
  8
0
  6
Continuous
 62
   179
370
    18
100
AcDbCircle
 10
6.1288847544
 20
4.0685261312
 30
0.0
 40
5.61600000000074
100
AcDbArc
 50
126.4235736423
 51
179.7473903073
  0
ARC
  5
A5
330
7C
100
AcDbEntity
  8
0
  6
Continuous
 62
   179
370
    18
100
AcDbCircle
 10
-0.5401152456
 20
4.0685261312
 30
0.0
 40
4.914000000000161
100
AcDbArc
 50
16.0658750272
 51
47.2678899574
  0
ARC
  5
A6
330
7C
100
AcDbEntity
  8
0
  6
Continuous
 62
   179
370
    18
100
AcDbCircle
 10
6.1288847544
 20
4.0685261312
 30
0.0
 40
4.914000000000584
100
AcDbArc
 50
132.7321100426
 51
163.9341249728
  0
LINE
  5
A7
330
7C
100
AcDbEntity
  8
0
  6
Continuous
 62
   179
370
    18
100
AcDbLine
 10
78.8017089389
 20
2.8885802402
 30
0.0
 11
90.7982178739
 21
3.8455002136
 31
0.0
  0
LINE
  5
A8
330
7C
100
AcDbEntity
  8
0
  6
Continuous
 62
   179
370
    18
100
AcDbLine
 10
76.6545490427
 20
5.8693097374
 30
0.0
 11
78.0344191726
 21
3.5235305166
 31
0.0
  0
LINE
  5
A9
330
7C
100
AcDbEntity
  8
0
  6
Continuous
 62
   179
370
    18
100
AcDbLine
 10
91.5327615373
 20
4.6257342197
 30
0.0
 11
90.9577457715
 21
13.4579763825
 31
0.0
  0
LINE
  5
AA
330
7C
100
AcDbEntity
  8
0
  6
Continuous
 62
   179
370
    18
100
AcDbLine
 10
78.6309362756
 20
12.8788539549
 30
0.0
 11
78.8360757629
 21
3.6475770268
 31
0.0
  0
LINE
  5
AB
330
7C
100
AcDbEntity
  8
0
  6
Continuous
 62
   179
370
    18
100
AcDbLine
 10
80.4094186633
 20
4.6950685544
 30
0.0
 11
90.1819221045
 21
5.4824266516
 31
0.0
  0
LINE
  5
AC
330
7C
100
AcDbEntity
  8
0
  6
Continuous
 62
   179
370
    18
100
AcDbLine
 10
79.1595373973
 20
3.3551666867
 30
0.0
 11
91.2569309872
 21
4.3071688694
 31
0.0
  0
LINE
  5
AD
330
7C
100
AcDbEntity
  8
0
  6
Continuous
 62
   179
370
    18
100
AcDbLine
 10
79.2585043218
 20
2.925017226
 30
0.0
 11
80.4858981444
 21
1.533240302
 31
0.0
  0
LINE
  5
AE
330
7C
100
AcDbEntity
  8
0
  6
Continuous
 62
   179
370
    18
100
AcDbLine
 10
78.0344191726
 20
3.5235305166
 30
0.0
 11
78.3638740472
 21
3.1446574108
 31
0.0
  0
LINE
  5
AF
330
7C
100
AcDbEntity
  8
0
  6
Continuous
 62
   179
370
    18
100
AcDbLine
 10
78.3638740472
 20
3.1446574108
 30
0.0
 11
78.4680611395
 21
3.0248422547
 31
0.0
  0
LINE
  5
B0
330
7C
100
AcDbEntity
  8
0
  6
Continuous
 62
   179
370
    18
100
AcDbLine
 10
81.3414110113
 20
1.2002475785
 30
0.0
 11
89.3291569519
 21
2.0477010263
 31
0.0
  0
LINE
  5
B1
330
7C
100
AcDbEntity
  8
0
  6
Continuous
 62
   179
370
    18
100
AcDbLine
 10
89.8661472522
 20
2.5197759309
 30
0.0
 11
89.8661472522
 21
2.3090867337
 31
0.0
  0
LINE
  5
B2
330
7C
100
AcDbEntity
  8
0
  6
Continuous
 62
   179
370
    18
100
AcDbLine
 10
88.676842368
 20
3.6762854359
 30
0.0
 11
89.6713239345
 21
2.7875997807
 31
0.0
  0
LINE
  5
B3
330
7C
100
AcDbEntity
  8
0
  6
Continuous
 62
   179
370
    18
100
AcDbLine
 10
89.6713239345
 20
2.7875997807
 30
0.0
 11
89.7459749087
 21
2.7242700694
 31
0.0
  0
LINE
  5
B4
330
7C
100
AcDbEntity
  8
0
  6
Continuous
 62
   179
370
    18
100
AcDbLine
 10
90.7982178739
 20
3.8455002136
 30
0.0
 11
91.3961615969
 21
4.3514525945
 31
0.0
  0
LINE
  5
B5
330
7C
100
AcDbEntity
  8
0
  6
Continuous
 62
   179
370
    18
100
AcDbLine
 10
90.6442498554
 20
13.7381534621
 30
0.0
 11
78.1502930503
 21
13.1490474438
 31
0.0
  0
LINE
  5
B6
330
7C
100
AcDbEntity
  8
0
  6
Continuous
 62
   179
370
    18
100
AcDbLine
 10
80.1347709981
 20
12.2388892068
 30
0.0
 11
89.8487925667
 21
12.7550932515
 31
0.0
  0
LINE
  5
B7
330
7C
100
AcDbEntity
  8
0
  6
Continuous
 62
   179
370
    18
100
AcDbLine
 10
76.4935641943
 20
11.7567556248
 30
0.0
 11
76.6545490427
 21
5.8693097374
 31
0.0
  0
LINE
  5
B8
330
7C
100
AcDbEntity
  8
0
  6
Continuous
 62
   179
370
    18
100
AcDbLine
 10
79.8508616208
 20
11.929182536
 30
0.0
 11
80.0854971721
 21
4.9839702153
 31
0.0
  0
LINE
  5
B9
330
7C
100
AcDbEntity
  8
0
  6
Continuous
 62
   179
370
    18
100
AcDbLine
 10
80.5293311574
 20
9.7310185051
 30
0.0
 11
80.6057415643
 21
7.4769115
 31
0.0
  0
LINE
  5
BA
330
7C
100
AcDbEntity
  8
0
  6
Continuous
 62
   179
370
    18
100
AcDbLine
 10
77.507650604
 20
12.7708420346
 30
0.0
 11
76.4935641943
 21
11.7567556248
 31
0.0
  0
LINE
  5
BB
330
7C
100
AcDbEntity
  8
0
  6
Continuous
 62
   179
370
    18
100
AcDbLine
 10
86.8848195129
 20
11.0661568594
 30
0.0
 11
88.6742167283
 21
11.1634880887
 31
0.0
  0
LINE
  5
BC
330
7C
100
AcDbEntity
  8
0
  6
Continuous
 62
   179
370
    18
100
AcDbLine
 10
87.0766213517
 20
6.9287171941
 30
0.0
 11
88.90708891
 21
7.0695223909
 31
0.0
  0
LINE
  5
BD
330
7C
100
AcDbEntity
  8
0
  6
Continuous
 62
   179
370
    18
100
AcDbLine
 10
87.6830038473
 20
7.6147347768
 30
0.0
 11
88.8536252418
 21
7.7047825764
 31
0.0
  0
LINE
  5
BE
330
7C
100
AcDbEntity
  8
0
  6
Continuous
 62
   179
370
    18
100
AcDbLine
 10
87.5509212094
 20
10.4639459651
 30
0.0
 11
88.7088412777
 21
10.5269290651
 31
0.0
  0
LINE
  5
BF
330
7C
100
AcDbEntity
  8
0
  6
Continuous
 62
   179
370
    18
100
AcDbLine
 10
87.0766218384
 20
6.9287066941
 30
0.0
 11
86.8848195129
 21
11.0661568594
 31
0.0
  0
LINE
  5
C0
330
7C
100
AcDbEntity
  8
0
  6
Continuous
 62
   179
370
    18
100
AcDbLine
 10
83.7004598825
 20
6.6667911093
 30
0.0
 11
84.5054929504
 21
10.9267193262
 31
0.0
  0
LINE
  5
C1
330
7C
100
AcDbEntity
  8
0
  6
Continuous
 62
   179
370
    18
100
AcDbLine
 10
85.3543248406
 20
10.9728900984
 30
0.0
 11
86.4940946704
 21
6.8816860929
 31
0.0
  0
LINE
  5
C2
330
7C
100
AcDbEntity
  8
0
  6
Continuous
 62
   179
370
    18
100
AcDbLine
 10
84.9728575427
 20
9.9667192298
 30
0.0
 11
85.4540299774
 21
8.2395506903
 31
0.0
  0
LINE
  5
C3
330
7C
100
AcDbEntity
  8
0
  6
Continuous
 62
   179
370
    18
100
AcDbLine
 10
84.6363094629
 20
8.1858350416
 30
0.0
 11
84.9728575427
 21
9.9667192298
 31
0.0
  0
LINE
  5
C4
330
7C
100
AcDbEntity
  8
0
  6
Continuous
 62
   179
370
    18
100
AcDbLine
 10
87.6830038473
 20
7.6147347768
 30
0.0
 11
87.5509212094
 21
10.4639459651
 31
0.0
  0
LINE
  5
C5
330
7C
100
AcDbEntity
  8
0
  6
Continuous
 62
   179
370
    18
100
AcDbLine
 10
84.6363094629
 20
8.1858350416
 30
0.0
 11
85.4540299774
 21
8.2395506903
 31
0.0
  0
LINE
  5
C6
330
7C
100
AcDbEntity
  8
0
  6
Continuous
 62
   179
370
    18
100
AcDbLine
 10
84.5140586807
 20
7.5389304886
 30
0.0
 11
85.6288154243
 21
7.6121582976
 31
0.0
  0
LINE
  5
C7
330
7C
100
AcDbEntity
  8
0
  6
Continuous
 62
   179
370
    18
100
AcDbLine
 10
84.3588137958
 20
6.717433718
 30
0.0
 11
84.5140586807
 21
7.5389304886
 31
0.0
  0
LINE
  5
C8
330
7C
100
AcDbEntity
  8
0
  6
Continuous
 62
   179
370
    18
100
AcDbLine
 10
81.6818640104
 20
6.5137358601
 30
0.0
 11
82.4802416972
 21
6.5751495283
 31
0.0
  0
LINE
  5
C9
330
7C
100
AcDbEntity
  8
0
  6
Continuous
 62
   179
370
    18
100
AcDbLine
 10
81.6329699923
 20
7.1493580946
 30
0.0
 11
82.4313476791
 21
7.2107717628
 31
0.0
  0
LINE
  5
CA
330
7C
100
AcDbEntity
  8
0
  6
Continuous
 62
   179
370
    18
100
AcDbLine
 10
83.7004598825
 20
6.6667911093
 30
0.0
 11
84.3588137958
 21
6.717433718
 31
0.0
  0
LINE
  5
CB
330
7C
100
AcDbEntity
  8
0
  6
Continuous
 62
   179
370
    18
100
AcDbLine
 10
82.7059483815
 20
9.3512024135
 30
0.0
 11
83.3423973297
 21
9.3930104243
 31
0.0
  0
LINE
  5
CC
330
7C
100
AcDbEntity
  8
0
  6
Continuous
 62
   179
370
    18
100
AcDbLine
 10
82.7491656358
 20
8.0762934118
 30
0.0
 11
83.385614584
 21
8.1181014226
 31
0.0
  0
LINE
  5
CD
330
7C
100
AcDbEntity
  8
0
  6
Continuous
 62
   179
370
    18
100
AcDbLine
 10
81.1664651987
 20
9.7526162692
 30
0.0
 11
81.2428756056
 21
7.4985092641
 31
0.0
  0
LINE
  5
CE
330
7C
100
AcDbEntity
  8
0
  6
Continuous
 62
   179
370
    18
100
AcDbLine
 10
82.6900353128
 20
9.8206379383
 30
0.0
 11
82.7052632884
 21
9.3714126602
 31
0.0
  0
LINE
  5
CF
330
7C
100
AcDbEntity
  8
0
  6
Continuous
 62
   179
370
    18
100
AcDbLine
 10
82.7491656358
 20
8.0762934118
 30
0.0
 11
82.7658371041
 21
7.5844850954
 31
0.0
  0
LINE
  5
D0
330
7C
100
AcDbEntity
  8
0
  6
Continuous
 62
   179
370
    18
100
AcDbLine
 10
83.3271693541
 20
9.8422357024
 30
0.0
 11
83.3423973297
 21
9.3930104243
 31
0.0
  0
LINE
  5
D1
330
7C
100
AcDbEntity
  8
0
  6
Continuous
 62
   179
370
    18
100
AcDbLine
 10
83.385614584
 20
8.1181014226
 30
0.0
 11
83.4029711454
 21
7.6060828595
 31
0.0
  0
LINE
  5
D2
330
7C
100
AcDbEntity
  8
0
  6
Continuous
 62
   179
370
    18
100
AcDbLine
 10
85.6288154243
 20
7.6121582976
 30
0.0
 11
85.8462022593
 21
6.8318482152
 31
0.0
  0
LINE
  5
D3
330
7C
100
AcDbEntity
  8
0
  6
Continuous
 62
   179
370
    18
100
AcDbLine
 10
85.8462022593
 20
6.8318482152
 30
0.0
 11
86.4940946704
 21
6.8816860929
 31
0.0
  0
LINE
  5
D4
330
7C
100
AcDbEntity
  8
0
  6
Continuous
 62
   179
370
    18
100
AcDbLine
 10
84.5054929504
 20
10.9267193262
 30
0.0
 11
85.3543248406
 21
10.9728900984
 31
0.0
  0
LINE
  5
D5
330
7C
100
AcDbEntity
  8
0
  6
Continuous
 62
   179
370
    18
100
AcDbLine
 10
81.4744440858
 20
10.7634213094
 30
0.0
 11
82.2734303883
 21
10.8068808154
 31
0.0
  0
LINE
  5
D6
330
7C
100
AcDbEntity
  8
0
  6
Continuous
 62
   179
370
    18
100
AcDbLine
 10
81.5090686352
 20
10.1268622858
 30
0.0
 11
82.3080549377
 21
10.1703217918
 31
0.0
  0
LINE
  5
D7
330
7C
100
AcDbEntity
  8
0
  6
Continuous
 62
   179
370
    18
100
AcDbLine
 10
90.4575406452
 20
5.7946206556
 30
0.0
 11
90.1644232213
 21
12.4686789239
 31
0.0
  0
LINE
  5
D8
330
7C
100
AcDbEntity
  8
0
  6
Continuous
 62
   179
370
    18
100
AcDbLine
 10
89.8247499755
 20
8.1125227115
 30
0.0
 11
89.7274569615
 21
10.2112720142
 31
0.0
  0
LINE
  5
D9
330
7C
100
AcDbEntity
  8
0
  6
Continuous
 62
   179
370
    18
100
AcDbLine
 10
89.1879338763
 20
8.0830014354
 30
0.0
 11
89.0906408622
 21
10.181750738
 31
0.0
  0
LINE
  5
DA
330
7C
100
AcDbEntity
  8
0
  6
Continuous
 62
   179
370
    18
100
AcDbLine
 10
89.7459749087
 20
2.7242700694
 30
0.0
 11
89.7974962577
 21
2.6659765769
 31
0.0
  0
LINE
  5
DB
330
7C
100
AcDbEntity
  8
0
  6
Continuous
 62
   179
370
    18
100
AcDbLine
 10
89.7974962577
 20
2.6659765769
 30
0.0
 11
89.8351851379
 21
2.60192886
 31
0.0
  0
LINE
  5
DC
330
7C
100
AcDbEntity
  8
0
  6
Continuous
 62
   179
370
    18
100
AcDbLine
 10
89.8351851379
 20
2.60192886
 30
0.0
 11
89.8661472522
 21
2.5197759309
 31
0.0
  0
LINE
  5
DD
330
7C
100
AcDbEntity
  8
0
  6
Continuous
 62
   179
370
    18
100
AcDbLine
 10
10.6119938288
 20
7.2203138351
 30
0.0
 11
11.2200151261
 21
7.5713550947
 31
0.0
  0
LINE
  5
DE
330
7C
100
AcDbEntity
  8
0
  6
Continuous
 62
   179
370
    18
100
AcDbLine
 10
11.2347279503
 20
5.2647430194
 30
0.0
 11
10.6267781168
 21
5.6157430194
 31
0.0
  0
LINE
  5
DF
330
7C
100
AcDbEntity
  8
0
  6
Continuous
 62
   179
370
    18
100
AcDbLine
 10
6.4645062371
 20
16.1712617198
 30
0.0
 11
6.4645062371
 21
2.9364593988
 31
0.0
  0
LINE
  5
E0
330
7C
100
AcDbEntity
  8
0
  6
Continuous
 62
   179
370
    18
100
AcDbLine
 10
6.4645062371
 20
2.9364593988
 30
0.0
 11
12.0532757459
 21
2.9364593988
 31
0.0
  0
LINE
  5
E1
330
7C
100
AcDbEntity
  8
0
  6
Continuous
 62
   179
370
    18
100
AcDbLine
 10
12.0532757459
 20
2.9364593988
 30
0.0
 11
12.0532757459
 21
16.1712617198
 31
0.0
  0
LINE
  5
E2
330
7C
100
AcDbEntity
  8
0
  6
Continuous
 62
   179
370
    18
100
AcDbLine
 10
12.0532757459
 20
16.1712617198
 30
0.0
 11
6.4645062371
 21
16.1712617198
 31
0.0
  0
LINE
  5
E3
330
7C
100
AcDbEntity
  8
0
  6
Continuous
 62
   179
370
    18
100
AcDbLine
 10
0.0
 20
16.1712617198
 30
0.0
 11
0.0
 21
2.9364593988
 31
0.0
  0
LINE
  5
E4
330
7C
100
AcDbEntity
  8
0
  6
Continuous
 62
   179
370
    18
100
AcDbLine
 10
0.0
 20
2.9364593988
 30
0.0
 11
5.5887695089
 21
2.9364593988
 31
0.0
  0
LINE
  5
E5
330
7C
100
AcDbEntity
  8
0
  6
Continuous
 62
   179
370
    18
100
AcDbLine
 10
5.5887695089
 20
2.9364593988
 30
0.0
 11
5.5887695089
 21
16.1712617198
 31
0.0
  0
LINE
  5
E6
330
7C
100
AcDbEntity
  8
0
  6
Continuous
 62
   179
370
    18
100
AcDbLine
 10
5.5887695089
 20
16.1712617198
 30
0.0
 11
0.0
 21
16.1712617198
 31
0.0
  0
LINE
  5
E7
330
7C
100
AcDbEntity
  8
0
  6
Continuous
 62
   179
370
    18
100
AcDbLine
 10
1.2591262606
 20
4.7264381407
 30
0.0
 11
4.3296432482
 21
4.7264381407
 31
0.0
  0
LINE
  5
E8
330
7C
100
AcDbEntity
  8
0
  6
Continuous
 62
   179
370
    18
100
AcDbLine
 10
4.3738223747
 20
4.0932862697
 30
0.0
 11
5.0758301722
 21
4.0932862697
 31
0.0
  0
LINE
  5
E9
330
7C
100
AcDbEntity
  8
0
  6
Continuous
 62
   179
370
    18
100
AcDbLine
 10
0.5129393366
 20
4.0932862697
 30
0.0
 11
1.2149471342
 21
4.0932862697
 31
0.0
  0
LINE
  5
EA
330
7C
100
AcDbEntity
  8
0
  6
Continuous
 62
   179
370
    18
100
AcDbLine
 10
4.1819643097
 20
5.4284381407
 30
0.0
 11
1.4068051992
 21
5.4284381407
 31
0.0
  0
LINE
  5
EB
330
7C
100
AcDbEntity
  8
0
  6
Continuous
 62
   179
370
    18
100
AcDbLine
 10
18.517781983
 20
16.1712617198
 30
0.0
 11
18.517781983
 21
2.9364593988
 31
0.0
  0
LINE
  5
EC
330
7C
100
AcDbEntity
  8
0
  6
Continuous
 62
   179
370
    18
100
AcDbLine
 10
18.517781983
 20
2.9364593988
 30
0.0
 11
12.9290124742
 21
2.9364593988
 31
0.0
  0
LINE
  5
ED
330
7C
100
AcDbEntity
  8
0
  6
Continuous
 62
   179
370
    18
100
AcDbLine
 10
12.9290124742
 20
2.9364593988
 30
0.0
 11
12.9290124742
 21
16.1712617198
 31
0.0
  0
LINE
  5
EE
330
7C
100
AcDbEntity
  8
0
  6
Continuous
 62
   179
370
    18
100
AcDbLine
 10
12.9290124742
 20
16.1712617198
 30
0.0
 11
18.517781983
 21
16.1712617198
 31
0.0
  0
INSERT
  5
F4
330
7C
100
AcDbEntity
  8
0
  6
Continuous
 62
     7
370
     0
100
AcDbBlockReference
  2
SW_NOTE_0
 10
1.8998941161
 20
-0.3226565443
 30
0.0
  0
INSERT
  5
F9
330
7C
100
AcDbEntity
  8
0
  6
Continuous
 62
     7
370
     0
100
AcDbBlockReference
  2
SW_NOTE_0_1
 10
28.8863479825
 20
12.079185406
 30
0.0
  0
INSERT
  5
101
330
7C
100
AcDbEntity
  8
0
  6
Continuous
 62
     7
370
     0
100
AcDbBlockReference
  2
SW_NOTE_0_2
 10
28.8863479825
 20
8.6365742194
 30
0.0
  0
ENDBLK
  5
7E
330
7C
100
AcDbEntity
  8
0
100
AcDbBlockEnd
  0
BLOCK
  5
F0
330
EF
100
AcDbEntity
  8
0
100
AcDbBlockBegin
  2
SW_NOTE_0
 70
     0
 10
0.0
 20
0.0
 30
0.0
  3
SW_NOTE_0
  1

  0
MTEXT
  5
F3
330
EF
100
AcDbEntity
  8
0
  6
Continuous
 62
     0
370
     0
100
AcDbMText
 10
7.46875
 20
2.5781354795
 30
0.0
 40
2.0
 41
0.0
 71
     2
 72
     1
  1
www.aco.ch
  7
SLDTEXTSTYLE0
 73
     1
 44
1.0
  0
ENDBLK
  5
F1
330
EF
100
AcDbEntity
  8
0
100
AcDbBlockEnd
  0
BLOCK
  5
F6
330
F5
100
AcDbEntity
  8
0
100
AcDbBlockBegin
  2
SW_NOTE_0_1
 70
     0
 10
0.0
 20
0.0
 30
0.0
  3
SW_NOTE_0_1
  1

  0
MTEXT
  5
F8
330
F5
100
AcDbEntity
  8
0
  6
Continuous
 62
     0
370
     0
100
AcDbMText
 10
0.0
 20
3.8672032193
 30
0.0
 40
3.0
 41
0.0
 71
     1
 72
     1
  1
ACO AG
  7
SLDTEXTSTYLE0
 73
     1
 44
1.0
  0
ENDBLK
  5
F7
330
F5
100
AcDbEntity
  8
0
100
AcDbBlockEnd
  0
BLOCK
  5
FB
330
FA
100
AcDbEntity
  8
0
100
AcDbBlockBegin
  2
SW_NOTE_0_2
 70
     0
 10
0.0
 20
0.0
 30
0.0
  3
SW_NOTE_0_2
  1

  0
MTEXT
  5
FD
330
FA
100
AcDbEntity
  8
0
  6
Continuous
 62
     0
370
     0
100
AcDbMText
 10
0.0
 20
2.5781354795
 30
0.0
 40
2.0
 41
0.0
 71
     1
 72
     1
  1
Industrie Kleinzaun
  7
SLDTEXTSTYLE0
 73
     1
 44
1.0
  0
MTEXT
  5
FE
330
FA
100
AcDbEntity
  8
0
  6
Continuous
 62
     0
370
     0
100
AcDbMText
 10
0.0
 20
-0.4218645465
 30
0.0
 40
2.0
 41
0.0
 71
     1
 72
     1
  1
CH-8754 Netstal
  7
SLDTEXTSTYLE0
 73
     1
 44
1.0
  0
MTEXT
  5
FF
330
FA
100
AcDbEntity
  8
0
  6
Continuous
 62
     0
370
     0
100
AcDbMText
 10
0.0
 20
-3.4218645726
 30
0.0
 40
2.0
 41
0.0
 71
     1
 72
     1
  1
Tel. 055 / 645 53 00
  7
SLDTEXTSTYLE0
 73
     1
 44
1.0
  0
MTEXT
  5
100
330
FA
100
AcDbEntity
  8
0
  6
Continuous
 62
     0
370
     0
100
AcDbMText
 10
0.0
 20
-6.4218645987
 30
0.0
 40
2.0
 41
0.0
 71
     1
 72
     1
  1
E-Mail: aco@aco.ch
  7
SLDTEXTSTYLE0
 73
     1
 44
1.0
  0
ENDBLK
  5
FC
330
FA
100
AcDbEntity
  8
0
100
AcDbBlockEnd
  0
BLOCK
  5
17B
330
17A
100
AcDbEntity
  8
0
100
AcDbBlockBegin
  2
SW_NOTE_0_3
 70
     0
 10
0.0
 20
0.0
 30
0.0
  3
SW_NOTE_0_3
  1

  0
MTEXT
  5
17D
330
17A
100
AcDbEntity
  8
0
  6
Continuous
 62
     0
370
     0
100
AcDbMText
 10
0.0
 20
1.9336016097
 30
0.0
 40
1.5
 41
0.0
 71
     1
 72
     1
  1
Diese Zeichnung darf weder kopiert
  7
SLDTEXTSTYLE0
 73
     1
 44
1.0
  0
MTEXT
  5
17E
330
17A
100
AcDbEntity
  8
0
  6
Continuous
 62
     0
370
     0
100
AcDbMText
 10
0.0
 20
-0.5663983345
 30
0.0
 40
1.5
 41
0.0
 71
     1
 72
     1
  1
noch dritten Personen, insbesondere
  7
SLDTEXTSTYLE0
 73
     1
 44
1.0
  0
MTEXT
  5
17F
330
17A
100
AcDbEntity
  8
0
  6
Continuous
 62
     0
370
     0
100
AcDbMText
 10
0.0
 20
-3.0663982786
 30
0.0
 40
1.5
 41
0.0
 71
     1
 72
     1
  1
zum Zweck anderweitiger Benutzung
  7
SLDTEXTSTYLE0
 73
     1
 44
1.0
  0
MTEXT
  5
180
330
17A
100
AcDbEntity
  8
0
  6
Continuous
 62
     0
370
     0
100
AcDbMText
 10
0.0
 20
-5.5663982227
 30
0.0
 40
1.5
 41
0.0
 71
     1
 72
     1
  1
mitgeteilt werden und bleibt unser
  7
SLDTEXTSTYLE0
 73
     1
 44
1.0
  0
MTEXT
  5
181
330
17A
100
AcDbEntity
  8
0
  6
Continuous
 62
     0
370
     0
100
AcDbMText
 10
0.0
 20
-8.0663981668
 30
0.0
 40
1.5
 41
0.0
 71
     1
 72
     1
  1
Eigentum.
  7
SLDTEXTSTYLE0
 73
     1
 44
1.0
  0
ENDBLK
  5
17C
330
17A
100
AcDbEntity
  8
0
100
AcDbBlockEnd
  0
BLOCK
  5
23D
330
23C
100
AcDbEntity
  8
0
100
AcDbBlockBegin
  2
_D
 70
     0
 10
0.0
 20
0.0
 30
0.0
  3
_D
  1

  0
SOLID
  5
23F
330
23C
100
AcDbEntity
  8
0
  6
Continuous
 62
     7
370
    18
100
AcDbTrace
 10
97.1094776506
 20
239.2319830297
 30
0.0
 11
94.9993951525
 21
238.5297175163
 31
0.0
 12
95.2925824871
 22
237.9495958163
 32
0.0
 13
95.2925824871
 23
237.9495958163
 33
0.0
  0
LINE
  5
240
330
23C
100
AcDbEntity
  8
0
  6
Continuous
 62
     7
370
     0
100
AcDbLine
 10
97.1094776506
 20
239.2319830297
 30
0.0
 11
86.3519787687
 21
233.7952575556
 31
0.0
  0
MTEXT
  5
241
330
23C
100
AcDbEntity
  8
0
  6
Continuous
 62
     7
370
    18
100
AcDbMText
 10
84.8375995419
 20
236.8512757877
 30
0.0
 40
2.6458333333
 41
0.0
 71
     1
 72
     1
  1
R2.5
  7
SLDTEXTSTYLE0
 11
0.8960199826142882
 21
0.4440137281164748
 31
0.0
 73
     1
 44
1.0
  0
ENDBLK
  5
23E
330
23C
100
AcDbEntity
  8
0
100
AcDbBlockEnd
  0
BLOCK
  5
245
330
244
100
AcDbEntity
  8
0
100
AcDbBlockBegin
  2
_D_1
 70
     0
 10
0.0
 20
0.0
 30
0.0
  3
_D_1
  1

  0
SOLID
  5
247
330
244
100
AcDbEntity
  8
0
  6
Continuous
 62
     7
370
    18
100
AcDbTrace
 10
191.8694276941
 20
258.6219487094
 30
0.0
 11
191.5444276941
 21
256.4219487094
 31
0.0
 12
192.1944276941
 22
256.4219487094
 32
0.0
 13
192.1944276941
 23
256.4219487094
 33
0.0
  0
SOLID
  5
248
330
244
100
AcDbEntity
  8
0
  6
Continuous
 62
     7
370
    18
100
AcDbTrace
 10
191.8694276941
 20
238.1219487094
 30
0.0
 11
192.1944276941
 21
240.3219487094
 31
0.0
 12
191.5444276941
 22
240.3219487094
 32
0.0
 13
191.5444276941
 23
240.3219487094
 33
0.0
  0
LINE
  5
249
330
244
100
AcDbEntity
  8
0
  6
Continuous
 62
     7
370
     0
100
AcDbLine
 10
185.1694276941
 20
258.6219487094
 30
0.0
 11
192.8694276941
 21
258.6219487094
 31
0.0
  0
LINE
  5
24A
330
244
100
AcDbEntity
  8
0
  6
Continuous
 62
     7
370
     0
100
AcDbLine
 10
185.1694276941
 20
238.1219487094
 30
0.0
 11
192.8694276941
 21
238.1219487094
 31
0.0
  0
LINE
  5
24B
330
244
100
AcDbEntity
  8
0
  6
Continuous
 62
     7
370
     0
100
AcDbLine
 10
191.8694276941
 20
258.6219487094
 30
0.0
 11
191.8694276941
 21
238.1219487094
 31
0.0
  0
MTEXT
  5
24C
330
244
100
AcDbEntity
  8
0
  6
Continuous
 62
     7
370
    18
100
AcDbMText
 10
188.4587691246
 20
244.9421645028
 30
0.0
 40
2.6458333333
 41
0.0
 71
     1
 72
     1
  1
20.5
  7
SLDTEXTSTYLE0
 11
-7.044195017643634E-15
 21
1.0
 31
0.0
 73
     1
 44
1.0
  0
ENDBLK
  5
246
330
244
100
AcDbEntity
  8
0
100
AcDbBlockEnd
  0
BLOCK
  5
250
330
24F
100
AcDbEntity
  8
0
100
AcDbBlockBegin
  2
_D_2
 70
     0
 10
0.0
 20
0.0
 30
0.0
  3
_D_2
  1

  0
SOLID
  5
252
330
24F
100
AcDbEntity
  8
0
  6
Continuous
 62
     7
370
    18
100
AcDbTrace
 10
198.8694276941
 20
258.6219487094
 30
0.0
 11
198.5444276941
 21
256.4219487094
 31
0.0
 12
199.1944276941
 22
256.4219487094
 32
0.0
 13
199.1944276941
 23
256.4219487094
 33
0.0
  0
SOLID
  5
253
330
24F
100
AcDbEntity
  8
0
  6
Continuous
 62
     7
370
    18
100
AcDbTrace
 10
198.8694276941
 20
138.6219487094
 30
0.0
 11
199.1944276941
 21
140.8219487094
 31
0.0
 12
198.5444276941
 22
140.8219487094
 32
0.0
 13
198.5444276941
 23
140.8219487094
 33
0.0
  0
LINE
  5
254
330
24F
100
AcDbEntity
  8
0
  6
Continuous
 62
     7
370
     0
100
AcDbLine
 10
185.1694276941
 20
258.6219487094
 30
0.0
 11
199.8694276941
 21
258.6219487094
 31
0.0
  0
LINE
  5
255
330
24F
100
AcDbEntity
  8
0
  6
Continuous
 62
     7
370
     0
100
AcDbLine
 10
184.1694276941
 20
138.6219487094
 30
0.0
 11
199.8694276941
 21
138.6219487094
 31
0.0
  0
LINE
  5
256
330
24F
100
AcDbEntity
  8
0
  6
Continuous
 62
     7
370
     0
100
AcDbLine
 10
198.8694276941
 20
258.6219487094
 30
0.0
 11
198.8694276941
 21
138.6219487094
 31
0.0
  0
MTEXT
  5
257
330
24F
100
AcDbEntity
  8
0
  6
Continuous
 62
     7
370
    18
100
AcDbMText
 10
195.4587691246
 20
195.6821337749
 30
0.0
 40
2.6458333333
 41
0.0
 71
     1
 72
     1
  1
120
  7
SLDTEXTSTYLE0
 11
-7.044195017643634E-15
 21
1.0
 31
0.0
 73
     1
 44
1.0
  0
ENDBLK
  5
251
330
24F
100
AcDbEntity
  8
0
100
AcDbBlockEnd
  0
BLOCK
  5
25A
330
259
100
AcDbEntity
  8
0
100
AcDbBlockBegin
  2
_D_3
 70
     0
 10
0.0
 20
0.0
 30
0.0
  3
_D_3
  1

  0
SOLID
  5
25C
330
259
100
AcDbEntity
  8
0
  6
Continuous
 62
     7
370
    18
100
AcDbTrace
 10
94.8694276941
 20
265.6219487094
 30
0.0
 11
97.0694276941
 21
265.2969487094
 31
0.0
 12
97.0694276941
 22
265.9469487094
 32
0.0
 13
97.0694276941
 23
265.9469487094
 33
0.0
  0
SOLID
  5
25D
330
259
100
AcDbEntity
  8
0
  6
Continuous
 62
     7
370
    18
100
AcDbTrace
 10
184.8694276941
 20
265.6219487094
 30
0.0
 11
182.6694276941
 21
265.9469487094
 31
0.0
 12
182.6694276941
 22
265.2969487094
 32
0.0
 13
182.6694276941
 23
265.2969487094
 33
0.0
  0
LINE
  5
25E
330
259
100
AcDbEntity
  8
0
  6
Continuous
 62
     7
370
     0
100
AcDbLine
 10
94.8694276941
 20
258.9219487094
 30
0.0
 11
94.8694276941
 21
266.6219487094
 31
0.0
  0
LINE
  5
25F
330
259
100
AcDbEntity
  8
0
  6
Continuous
 62
     7
370
     0
100
AcDbLine
 10
184.8694276941
 20
258.9219487094
 30
0.0
 11
184.8694276941
 21
266.6219487094
 31
0.0
  0
LINE
  5
260
330
259
100
AcDbEntity
  8
0
  6
Continuous
 62
     7
370
     0
100
AcDbLine
 10
94.8694276941
 20
265.6219487094
 30
0.0
 11
184.8694276941
 21
265.6219487094
 31
0.0
  0
MTEXT
  5
261
330
259
100
AcDbEntity
  8
0
  6
Continuous
 62
     7
370
    18
100
AcDbMText
 10
136.0360315666
 20
269.032607046
 30
0.0
 40
2.6458333333
 41
0.0
 71
     1
 72
     1
  1
%%c
  7
SLDTEXTSTYLE0
 73
     1
 44
1.0
  0
MTEXT
  5
262
330
259
100
AcDbEntity
  8
0
  6
Continuous
 62
     7
370
    18
100
AcDbMText
 10
139.7830705755
 20
269.032607046
 30
0.0
 40
2.6458333333
 41
0.0
 71
     1
 72
     1
  1
90
  7
SLDTEXTSTYLE0
 73
     1
 44
1.0
  0
ENDBLK
  5
25B
330
259
100
AcDbEntity
  8
0
100
AcDbBlockEnd
  0
BLOCK
  5
266
330
265
100
AcDbEntity
  8
0
100
AcDbBlockBegin
  2
_D_4
 70
     0
 10
0.0
 20
0.0
 30
0.0
  3
_D_4
  1

  0
SOLID
  5
268
330
265
100
AcDbEntity
  8
0
  6
Continuous
 62
     7
370
    18
100
AcDbTrace
 10
184.8694276941
 20
222.320595821
 30
0.0
 11
187.0694276941
 21
221.995595821
 31
0.0
 12
187.0694276941
 22
222.645595821
 32
0.0
 13
187.0694276941
 23
222.645595821
 33
0.0
  0
SOLID
  5
269
330
265
100
AcDbEntity
  8
0
  6
Continuous
 62
     7
370
    18
100
AcDbTrace
 10
182.8694276941
 20
222.320595821
 30
0.0
 11
180.6694276941
 21
222.645595821
 31
0.0
 12
180.6694276941
 22
221.995595821
 32
0.0
 13
180.6694276941
 23
221.995595821
 33
0.0
  0
LINE
  5
26A
330
265
100
AcDbEntity
  8
0
  6
Continuous
 62
     7
370
     0
100
AcDbLine
 10
184.8694276941
 20
222.320595821
 30
0.0
 11
190.2661406186
 21
222.320595821
 31
0.0
  0
LINE
  5
26B
330
265
100
AcDbEntity
  8
0
  6
Continuous
 62
     7
370
     0
100
AcDbLine
 10
184.8694276941
 20
222.320595821
 30
0.0
 11
182.8694276941
 21
222.320595821
 31
0.0
  0
LINE
  5
26C
330
265
100
AcDbEntity
  8
0
  6
Continuous
 62
     7
370
     0
100
AcDbLine
 10
182.8694276941
 20
222.320595821
 30
0.0
 11
178.4694276941
 21
222.320595821
 31
0.0
  0
MTEXT
  5
26D
330
265
100
AcDbEntity
  8
0
  6
Continuous
 62
     7
370
    18
100
AcDbMText
 10
188.3062639956
 20
225.7312543905
 30
0.0
 40
2.6458333333
 41
0.0
 71
     1
 72
     1
  1
2
  7
SLDTEXTSTYLE0
 73
     1
 44
1.0
  0
ENDBLK
  5
267
330
265
100
AcDbEntity
  8
0
100
AcDbBlockEnd
  0
ENDSEC
  0
SECTION
  2
ENTITIES
  0
LINE
  5
102
330
1F
100
AcDbEntity
  8
LINIEN-DÜNN
  6
CENTERX2
100
AcDbLine
 10
352.6174545849
 20
46.9080238789
 30
0.0
 11
352.6174545849
 21
39.4621586124
 31
0.0
  0
LINE
  5
103
330
1F
100
AcDbEntity
  8
LINIEN-DÜNN
100
AcDbLine
 10
357.7661698132
 20
46.3720107039
 30
0.0
 11
357.7661698132
 21
39.9353173413
 31
0.0
  0
LINE
  5
104
330
1F
100
AcDbEntity
  8
LINIEN-DÜNN
100
AcDbLine
 10
364.6059427486
 20
44.7376225767
 30
0.0
 11
364.6059427486
 21
41.5697054685
 31
0.0
  0
LINE
  5
105
330
1F
100
AcDbEntity
  8
LINIEN-DÜNN
100
AcDbLine
 10
364.6059427486
 20
44.7376225767
 30
0.0
 11
357.7661698132
 21
46.3720107039
 31
0.0
  0
LINE
  5
106
330
1F
100
AcDbEntity
  8
LINIEN-DÜNN
100
AcDbLine
 10
15.0
 20
198.5
 30
0.0
 11
20.0
 21
198.5
 31
0.0
  0
LINE
  5
107
330
1F
100
AcDbEntity
  8
LINIEN-DÜNN
100
AcDbLine
 10
12.0
 20
148.5
 30
0.0
 11
0.0
 21
148.5
 31
0.0
  0
LINE
  5
108
330
1F
100
AcDbEntity
  8
LINIEN-DÜNN
100
AcDbLine
 10
357.7661698132
 20
39.9353173413
 30
0.0
 11
364.6059427486
 21
41.5697054685
 31
0.0
  0
LINE
  5
109
330
1F
100
AcDbEntity
  8
LINIEN-DÜNN
  6
CENTERX2
100
AcDbLine
 10
348.6240467841
 20
43.1536640226
 30
0.0
 11
356.6108623857
 21
43.1536640226
 31
0.0
  0
LINE
  5
10A
330
1F
100
AcDbEntity
  8
LINIEN-DÜNN
  6
CENTERX2
100
AcDbLine
 10
357.1289238876
 20
43.1536640226
 30
0.0
 11
365.6255362296
 21
43.1536640226
 31
0.0
  0
LINE
  5
10B
330
1F
100
AcDbEntity
  8
LINIEN-DÜNN
100
AcDbLine
 10
0.0
 20
0.0
 30
0.0
 11
420.0
 21
0.0
 31
0.0
  0
LINE
  5
10C
330
1F
100
AcDbEntity
  8
LINIEN-DÜNN
100
AcDbLine
 10
0.0
 20
0.0
 30
0.0
 11
0.0
 21
297.0
 31
0.0
  0
LINE
  5
10D
330
1F
100
AcDbEntity
  8
LINIEN-DÜNN
100
AcDbLine
 10
0.0
 20
297.0
 30
0.0
 11
420.0
 21
297.0
 31
0.0
  0
LINE
  5
10E
330
1F
100
AcDbEntity
  8
LINIEN-DÜNN
100
AcDbLine
 10
420.0
 20
0.0
 30
0.0
 11
420.0
 21
297.0
 31
0.0
  0
LINE
  5
10F
330
1F
100
AcDbEntity
  8
LINIEN-NORMAL
100
AcDbLine
 10
228.0
 20
35.0
 30
0.0
 11
410.0
 21
35.0
 31
0.0
  0
LINE
  5
110
330
1F
100
AcDbEntity
  8
LINIEN-DÜNN
100
AcDbLine
 10
410.0
 20
198.5
 30
0.0
 11
415.0
 21
198.5
 31
0.0
  0
LINE
  5
111
330
1F
100
AcDbEntity
  8
LINIEN-DÜNN
100
AcDbLine
 10
15.0
 20
148.5
 30
0.0
 11
20.0
 21
148.5
 31
0.0
  0
LINE
  5
112
330
1F
100
AcDbEntity
  8
LINIEN-DÜNN
100
AcDbLine
 10
228.0
 20
40.0
 30
0.0
 11
296.6
 21
40.0
 31
0.0
  0
LINE
  5
113
330
1F
100
AcDbEntity
  8
LINIEN-DÜNN
100
AcDbLine
 10
15.0
 20
248.5
 30
0.0
 11
20.0
 21
248.5
 31
0.0
  0
LINE
  5
114
330
1F
100
AcDbEntity
  8
LINIEN-DICK
100
AcDbLine
 10
20.0
 20
287.0
 30
0.0
 11
20.0
 21
10.0
 31
0.0
  0
LINE
  5
115
330
1F
100
AcDbEntity
  8
LINIEN-DICK
100
AcDbLine
 10
410.0
 20
287.0
 30
0.0
 11
20.0
 21
287.0
 31
0.0
  0
LINE
  5
116
330
1F
100
AcDbEntity
  8
LINIEN-DICK
100
AcDbLine
 10
410.0
 20
5.0
 30
0.0
 11
410.0
 21
287.0
 31
0.0
  0
LINE
  5
117
330
1F
100
AcDbEntity
  8
LINIEN-DICK
100
AcDbLine
 10
20.0
 20
10.0
 30
0.0
 11
415.0
 21
10.0
 31
0.0
  0
LINE
  5
118
330
1F
100
AcDbEntity
  8
LINIEN-DÜNN
100
AcDbLine
 10
410.0
 20
148.5
 30
0.0
 11
415.0
 21
148.5
 31
0.0
  0
LINE
  5
119
330
1F
100
AcDbEntity
  8
LINIEN-DÜNN
100
AcDbLine
 10
228.0
 20
50.0
 30
0.0
 11
296.6
 21
50.0
 31
0.0
  0
LINE
  5
11A
330
1F
100
AcDbEntity
  8
LINIEN-DÜNN
100
AcDbLine
 10
15.0
 20
98.5
 30
0.0
 11
20.0
 21
98.5
 31
0.0
  0
LINE
  5
11B
330
1F
100
AcDbEntity
  8
LINIEN-DÜNN
100
AcDbLine
 10
296.6
 20
45.0
 30
0.0
 11
228.0
 21
45.0
 31
0.0
  0
LINE
  5
11C
330
1F
100
AcDbEntity
  8
LINIEN-DÜNN
100
AcDbLine
 10
65.0
 20
292.0
 30
0.0
 11
65.0
 21
287.0
 31
0.0
  0
LINE
  5
11D
330
1F
100
AcDbEntity
  8
LINIEN-DÜNN
100
AcDbLine
 10
230.0
 20
292.0
 30
0.0
 11
230.0
 21
297.0
 31
0.0
  0
LINE
  5
11E
330
1F
100
AcDbEntity
  8
LINIEN-NORMAL
100
AcDbLine
 10
296.6
 20
55.0
 30
0.0
 11
296.6
 21
35.0
 31
0.0
  0
LINE
  5
11F
330
1F
100
AcDbEntity
  8
LINIEN-DÜNN
100
AcDbLine
 10
410.0
 20
98.5
 30
0.0
 11
415.0
 21
98.5
 31
0.0
  0
LINE
  5
120
330
1F
100
AcDbEntity
  8
VORLAGE_BEMASSUNG
100
AcDbLine
 10
230.0
 20
5.0
 30
0.0
 11
230.0
 21
0.0
 31
0.0
  0
LINE
  5
121
330
1F
100
AcDbEntity
  8
LINIEN-DÜNN
100
AcDbLine
 10
125.0
 20
292.0
 30
0.0
 11
125.0
 21
297.0
 31
0.0
  0
LINE
  5
122
330
1F
100
AcDbEntity
  8
LINIEN-DÜNN
100
AcDbLine
 10
125.0
 20
5.0
 30
0.0
 11
125.0
 21
0.0
 31
0.0
  0
LINE
  5
123
330
1F
100
AcDbEntity
  8
LINIEN-NORMAL
100
AcDbLine
 10
410.0
 20
55.0
 30
0.0
 11
228.0
 21
55.0
 31
0.0
  0
LINE
  5
124
330
1F
100
AcDbEntity
  8
LINIEN-DÜNN
100
AcDbLine
 10
228.0
 20
55.0
 30
0.0
 11
410.0
 21
55.0
 31
0.0
  0
LINE
  5
125
330
1F
100
AcDbEntity
  8
LINIEN-DÜNN
100
AcDbLine
 10
410.0
 20
55.0
 30
0.0
 11
228.0
 21
55.0
 31
0.0
  0
LINE
  5
126
330
1F
100
AcDbEntity
  8
LINIEN-DÜNN
100
AcDbLine
 10
268.0
 20
76.5
 30
0.0
 11
268.0
 21
55.0
 31
0.0
  0
LINE
  5
127
330
1F
100
AcDbEntity
  8
LINIEN-DÜNN
100
AcDbLine
 10
271.6
 20
55.0
 30
0.0
 11
271.6
 21
40.0
 31
0.0
  0
LINE
  5
128
330
1F
100
AcDbEntity
  8
LINIEN-DÜNN
100
AcDbLine
 10
247.0
 20
55.0
 30
0.0
 11
247.0
 21
35.0
 31
0.0
  0
LINE
  5
129
330
1F
100
AcDbEntity
  8
LINIEN-DICK
100
AcDbLine
 10
228.0
 20
76.5
 30
0.0
 11
228.0
 21
10.0
 31
0.0
  0
LINE
  5
12A
330
1F
100
AcDbEntity
  8
LINIEN-DÜNN
100
AcDbLine
 10
15.0
 20
292.0
 30
0.0
 11
415.0
 21
292.0
 31
0.0
  0
LINE
  5
12B
330
1F
100
AcDbEntity
  8
LINIEN-DÜNN
100
AcDbLine
 10
228.0
 20
65.75
 30
0.0
 11
310.0
 21
65.75
 31
0.0
  0
LINE
  5
12C
330
1F
100
AcDbEntity
  8
LINIEN-DICK
100
AcDbLine
 10
228.0
 20
76.5
 30
0.0
 11
410.0
 21
76.5
 31
0.0
  0
LINE
  5
12D
330
1F
100
AcDbEntity
  8
LINIEN-DÜNN
100
AcDbLine
 10
15.0
 20
48.5
 30
0.0
 11
20.0
 21
48.5
 31
0.0
  0
LINE
  5
12E
330
1F
100
AcDbEntity
  8
LINIEN-DÜNN
100
AcDbLine
 10
410.0
 20
48.5
 30
0.0
 11
415.0
 21
48.5
 31
0.0
  0
LINE
  5
12F
330
1F
100
AcDbEntity
  8
LINIEN-DÜNN
100
AcDbLine
 10
332.6610845472
 20
20.0
 30
0.0
 11
332.6610845472
 21
10.0
 31
0.0
  0
LINE
  5
130
330
1F
100
AcDbEntity
  8
LINIEN-DÜNN
100
AcDbLine
 10
410.0
 20
248.5
 30
0.0
 11
415.0
 21
248.5
 31
0.0
  0
LINE
  5
131
330
1F
100
AcDbEntity
  8
LINIEN-DÜNN
100
AcDbLine
 10
65.0
 20
10.0
 30
0.0
 11
65.0
 21
5.0
 31
0.0
  0
LINE
  5
132
330
1F
100
AcDbEntity
  8
LINIEN-DÜNN
100
AcDbLine
 10
115.0
 20
10.0
 30
0.0
 11
115.0
 21
5.0
 31
0.0
  0
LINE
  5
133
330
1F
100
AcDbEntity
  8
LINIEN-DÜNN
100
AcDbLine
 10
115.0
 20
292.0
 30
0.0
 11
115.0
 21
287.0
 31
0.0
  0
LINE
  5
134
330
1F
100
AcDbEntity
  8
LINIEN-DÜNN
100
AcDbLine
 10
165.0
 20
10.0
 30
0.0
 11
165.0
 21
5.0
 31
0.0
  0
LINE
  5
135
330
1F
100
AcDbEntity
  8
LINIEN-DÜNN
100
AcDbLine
 10
165.0
 20
292.0
 30
0.0
 11
165.0
 21
287.0
 31
0.0
  0
LINE
  5
136
330
1F
100
AcDbEntity
  8
LINIEN-DÜNN
100
AcDbLine
 10
215.0
 20
10.0
 30
0.0
 11
215.0
 21
5.0
 31
0.0
  0
LINE
  5
137
330
1F
100
AcDbEntity
  8
LINIEN-DÜNN
100
AcDbLine
 10
215.0
 20
292.0
 30
0.0
 11
215.0
 21
287.0
 31
0.0
  0
LINE
  5
138
330
1F
100
AcDbEntity
  8
LINIEN-DÜNN
100
AcDbLine
 10
265.0
 20
10.0
 30
0.0
 11
265.0
 21
5.0
 31
0.0
  0
LINE
  5
139
330
1F
100
AcDbEntity
  8
LINIEN-DÜNN
100
AcDbLine
 10
265.0
 20
292.0
 30
0.0
 11
265.0
 21
287.0
 31
0.0
  0
LINE
  5
13A
330
1F
100
AcDbEntity
  8
LINIEN-DÜNN
100
AcDbLine
 10
347.6610845472
 20
20.0
 30
0.0
 11
347.6610845472
 21
10.0
 31
0.0
  0
LINE
  5
13B
330
1F
100
AcDbEntity
  8
LINIEN-DÜNN
100
AcDbLine
 10
362.6610845472
 20
20.0
 30
0.0
 11
362.6610845472
 21
10.0
 31
0.0
  0
LINE
  5
13C
330
1F
100
AcDbEntity
  8
LINIEN-NORMAL
100
AcDbLine
 10
327.6610845472
 20
10.0
 30
0.0
 11
327.6610845472
 21
55.0
 31
0.0
  0
LINE
  5
13D
330
1F
100
AcDbEntity
  8
LINIEN-DÜNN
100
AcDbLine
 10
20.0
 20
292.0
 30
0.0
 11
20.0
 21
297.0
 31
0.0
  0
LINE
  5
13E
330
1F
100
AcDbEntity
  8
LINIEN-DÜNN
100
AcDbLine
 10
20.0
 20
5.0
 30
0.0
 11
20.0
 21
0.0
 31
0.0
  0
LINE
  5
13F
330
1F
100
AcDbEntity
  8
LINIEN-DÜNN
100
AcDbLine
 10
315.0
 20
10.0
 30
0.0
 11
315.0
 21
5.0
 31
0.0
  0
LINE
  5
140
330
1F
100
AcDbEntity
  8
LINIEN-DÜNN
100
AcDbLine
 10
315.0
 20
292.0
 30
0.0
 11
315.0
 21
287.0
 31
0.0
  0
LINE
  5
141
330
1F
100
AcDbEntity
  8
LINIEN-DÜNN
100
AcDbLine
 10
365.0
 20
10.0
 30
0.0
 11
365.0
 21
5.0
 31
0.0
  0
LINE
  5
142
330
1F
100
AcDbEntity
  8
LINIEN-DÜNN
100
AcDbLine
 10
365.0
 20
292.0
 30
0.0
 11
365.0
 21
287.0
 31
0.0
  0
LINE
  5
143
330
1F
100
AcDbEntity
  8
LINIEN-DÜNN
100
AcDbLine
 10
15.0
 20
292.0
 30
0.0
 11
15.0
 21
5.0
 31
0.0
  0
LINE
  5
144
330
1F
100
AcDbEntity
  8
LINIEN-DÜNN
100
AcDbLine
 10
15.0
 20
5.0
 30
0.0
 11
415.0
 21
5.0
 31
0.0
  0
LINE
  5
145
330
1F
100
AcDbEntity
  8
LINIEN-DÜNN
100
AcDbLine
 10
415.0
 20
292.0
 30
0.0
 11
415.0
 21
5.0
 31
0.0
  0
LINE
  5
146
330
1F
100
AcDbEntity
  8
LINIEN-DÜNN
100
AcDbLine
 10
347.6610845472
 20
44.213444
 30
0.0
 11
327.6610845472
 21
44.213444
 31
0.0
  0
LINE
  5
147
330
1F
100
AcDbEntity
  8
LINIEN-DÜNN
100
AcDbLine
 10
347.6610845472
 20
35.0
 30
0.0
 11
347.6610845472
 21
55.0
 31
0.0
  0
LINE
  5
148
330
1F
100
AcDbEntity
  8
LINIEN-DÜNN
100
AcDbLine
 10
370.057188
 20
55.012032
 30
0.0
 11
370.057188
 21
35.0
 31
0.0
  0
LINE
  5
149
330
1F
100
AcDbEntity
  8
LINIEN-DÜNN
100
AcDbLine
 10
398.0
 20
35.0
 30
0.0
 11
398.0
 21
20.0
 31
0.0
  0
LINE
  5
14A
330
1F
100
AcDbEntity
  8
LINIEN-DÜNN
100
AcDbLine
 10
410.0
 20
15.0
 30
0.0
 11
327.6610845472
 21
15.0
 31
0.0
  0
LINE
  5
14B
330
1F
100
AcDbEntity
  8
LINIEN-DÜNN
100
AcDbLine
 10
327.6610845472
 20
20.0
 30
0.0
 11
410.0
 21
20.0
 31
0.0
  0
LINE
  5
14C
330
1F
100
AcDbEntity
  8
LINIEN-DÜNN
100
AcDbLine
 10
341.485486
 20
20.0
 30
0.0
 11
341.485486
 21
27.564675
 31
0.0
  0
LINE
  5
14D
330
1F
100
AcDbEntity
  8
LINIEN-NORMAL
100
AcDbLine
 10
310.0
 20
76.5
 30
0.0
 11
310.0
 21
55.0
 31
0.0
  0
CIRCLE
  5
14E
330
1F
100
AcDbEntity
  8
LINIEN-DÜNN
100
AcDbCircle
 10
11.0
 20
108.5
 30
0.0
 40
2.750000000000001
  0
CIRCLE
  5
14F
330
1F
100
AcDbEntity
  8
LINIEN-DÜNN
100
AcDbCircle
 10
11.0
 20
188.5
 30
0.0
 40
2.750000000000001
  0
CIRCLE
  5
150
330
1F
100
AcDbEntity
  8
LINIEN-DÜNN
100
AcDbCircle
 10
352.6174545849
 20
43.1536640226
 30
0.0
 40
3.218346681300138
  0
CIRCLE
  5
151
330
1F
100
AcDbEntity
  8
LINIEN-DÜNN
100
AcDbCircle
 10
352.6174545849
 20
43.1536640226
 30
0.0
 40
1.583958554121555
  0
INSERT
  5
152
330
1F
100
AcDbEntity
  8
0
  6
Continuous
 62
     7
100
AcDbBlockReference
  2
ACO-Logo
 10
314.3510726297
 20
57.6366106772
 30
0.0
  0
POINT
  5
153
330
1F
100
AcDbEntity
  8
0
  6
Continuous
 62
     7
370
     0
100
AcDbPoint
 10
314.3510726297
 20
57.2426704952
 30
0.0
  0
POINT
  5
154
330
1F
100
AcDbEntity
  8
VORLAGE_BEMASSUNG
100
AcDbPoint
 10
0.0
 20
0.0
 30
0.0
  0
POINT
  5
155
330
1F
100
AcDbEntity
  8
VORLAGE_BEMASSUNG
100
AcDbPoint
 10
410.0
 20
10.0
 30
0.0
  0
MTEXT
  5
156
330
1F
100
AcDbEntity
  8
VORLAGE_TEXT
100
AcDbMText
 10
17.7359443114
 20
124.8017866468
 30
0.0
 40
2.0
 41
0.0
 71
     2
 72
     1
  1
D
  7
SLDTEXTSTYLE0
 73
     1
 44
1.0
  0
MTEXT
  5
157
330
1F
100
AcDbEntity
  8
VORLAGE_TEXT
100
AcDbMText
 10
17.6274822413
 20
174.7261854936
 30
0.0
 40
2.0
 41
0.0
 71
     2
 72
     1
  1
C
  7
SLDTEXTSTYLE0
 73
     1
 44
1.0
  0
MTEXT
  5
158
330
1F
100
AcDbEntity
  8
VORLAGE_TEXT
100
AcDbMText
 10
17.5516905072
 20
224.4926420442
 30
0.0
 40
2.0
 41
0.0
 71
     2
 72
     1
  1
B
  7
SLDTEXTSTYLE0
 73
     1
 44
1.0
  0
MTEXT
  5
159
330
1F
100
AcDbEntity
  8
VORLAGE_TEXT
100
AcDbMText
 10
290.0344258799
 20
290.5428789914
 30
0.0
 40
2.0
 41
0.0
 71
     2
 72
     1
  1
6
  7
SLDTEXTSTYLE0
 73
     1
 44
1.0
  0
MTEXT
  5
15A
330
1F
100
AcDbEntity
  8
VORLAGE_TEXT
100
AcDbMText
 10
240.0417859812
 20
290.6369260235
 30
0.0
 40
2.0
 41
0.0
 71
     2
 72
     1
  1
5
  7
SLDTEXTSTYLE0
 73
     1
 44
1.0
  0
MTEXT
  5
15B
330
1F
100
AcDbEntity
  8
VORLAGE_TEXT
100
AcDbMText
 10
190.0300404524
 20
290.6343268032
 30
0.0
 40
2.0
 41
0.0
 71
     2
 72
     1
  1
4
  7
SLDTEXTSTYLE0
 73
     1
 44
1.0
  0
MTEXT
  5
15C
330
1F
100
AcDbEntity
  8
VORLAGE_TEXT
100
AcDbMText
 10
140.0165868337
 20
290.6378887952
 30
0.0
 40
2.0
 41
0.0
 71
     2
 72
     1
  1
3
  7
SLDTEXTSTYLE0
 73
     1
 44
1.0
  0
MTEXT
  5
15D
330
1F
100
AcDbEntity
  8
VORLAGE_TEXT
100
AcDbMText
 10
90.033223
 20
290.5566702875
 30
0.0
 40
2.0
 41
0.0
 71
     2
 72
     1
  1
2
  7
SLDTEXTSTYLE0
 73
     1
 44
1.0
  0
MTEXT
  5
15E
330
1F
100
AcDbEntity
  8
VORLAGE_TEXT
100
AcDbMText
 10
40.0509551097
 20
290.5530165805
 30
0.0
 40
2.0
 41
0.0
 71
     2
 72
     1
  1
1
  7
SLDTEXTSTYLE0
 73
     1
 44
1.0
  0
MTEXT
  5
15F
330
1F
100
AcDbEntity
  8
VORLAGE_TEXT
100
AcDbMText
 10
17.5609786315
 20
271.2966048816
 30
0.0
 40
2.0
 41
0.0
 71
     2
 72
     1
  1
A
  7
SLDTEXTSTYLE0
 73
     1
 44
1.0
  0
MTEXT
  5
160
330
1F
100
AcDbEntity
  8
VORLAGE_TEXT
100
AcDbMText
 10
89.9333968896
 20
8.5904490253
 30
0.0
 40
2.0
 41
0.0
 71
     2
 72
     1
  1
2
  7
SLDTEXTSTYLE0
 73
     1
 44
1.0
  0
MTEXT
  5
161
330
1F
100
AcDbEntity
  8
VORLAGE_TEXT
100
AcDbMText
 10
39.9009486579
 20
8.6623118453
 30
0.0
 40
2.0
 41
0.0
 71
     2
 72
     1
  1
1
  7
SLDTEXTSTYLE0
 73
     1
 44
1.0
  0
MTEXT
  5
162
330
1F
100
AcDbEntity
  8
VORLAGE_TEXT
100
AcDbMText
 10
190.0227230239
 20
8.7073169286
 30
0.0
 40
2.0
 41
0.0
 71
     2
 72
     1
  1
4
  7
SLDTEXTSTYLE0
 73
     1
 44
1.0
  0
MTEXT
  5
163
330
1F
100
AcDbEntity
  8
VORLAGE_TEXT
100
AcDbMText
 10
140.0453427777
 20
8.5647154541
 30
0.0
 40
2.0
 41
0.0
 71
     2
 72
     1
  1
3
  7
SLDTEXTSTYLE0
 73
     1
 44
1.0
  0
MTEXT
  5
164
330
1F
100
AcDbEntity
  8
VORLAGE_TEXT
100
AcDbMText
 10
239.8749782531
 20
8.5637526825
 30
0.0
 40
2.0
 41
0.0
 71
     2
 72
     1
  1
5
  7
SLDTEXTSTYLE0
 73
     1
 44
1.0
  0
MTEXT
  5
165
330
1F
100
AcDbEntity
  8
VORLAGE_TEXT
100
AcDbMText
 10
412.6717254925
 20
224.51208263
 30
0.0
 40
2.0
 41
0.0
 71
     2
 72
     1
  1
B
  7
SLDTEXTSTYLE0
 73
     1
 44
1.0
  0
MTEXT
  5
166
330
1F
100
AcDbEntity
  8
VORLAGE_TEXT
100
AcDbMText
 10
412.5951211154
 20
271.2798202564
 30
0.0
 40
2.0
 41
0.0
 71
     2
 72
     1
  1
A
  7
SLDTEXTSTYLE0
 73
     1
 44
1.0
  0
MTEXT
  5
167
330
1F
100
AcDbEntity
  8
VORLAGE_TEXT
100
AcDbMText
 10
412.6491448679
 20
174.7279841048
 30
0.0
 40
2.0
 41
0.0
 71
     2
 72
     1
  1
C
  7
SLDTEXTSTYLE0
 73
     1
 44
1.0
  0
MTEXT
  5
168
330
1F
100
AcDbEntity
  8
VORLAGE_TEXT
100
AcDbMText
 10
340.0216466634
 20
290.5954278102
 30
0.0
 40
2.0
 41
0.0
 71
     2
 72
     1
  1
7
  7
SLDTEXTSTYLE0
 73
     1
 44
1.0
  0
MTEXT
  5
169
330
1F
100
AcDbEntity
  8
VORLAGE_TEXT
100
AcDbMText
 10
390.037657264
 20
290.6215496941
 30
0.0
 40
2.0
 41
0.0
 71
     2
 72
     1
  1
8
  7
SLDTEXTSTYLE0
 73
     1
 44
1.0
  0
MTEXT
  5
16A
330
1F
100
AcDbEntity
  8
VORLAGE_TEXT
100
AcDbMText
 10
17.6897935208
 20
74.7267628143
 30
0.0
 40
2.0
 41
0.0
 71
     2
 72
     1
  1
E
  7
SLDTEXTSTYLE0
 73
     1
 44
1.0
  0
MTEXT
  5
16B
330
1F
100
AcDbEntity
  8
VORLAGE_TEXT
100
AcDbMText
 10
17.5936930126
 20
27.773321616
 30
0.0
 40
2.0
 41
0.0
 71
     2
 72
     1
  1
F
  7
SLDTEXTSTYLE0
 73
     1
 44
1.0
  0
MTEXT
  5
16C
330
1F
100
AcDbEntity
  8
VORLAGE_TEXT
100
AcDbMText
 10
339.8003474583
 20
8.7205095051
 30
0.0
 40
2.0
 41
0.0
 71
     2
 72
     1
  1
7
  7
SLDTEXTSTYLE0
 73
     1
 44
1.0
  0
MTEXT
  5
16D
330
1F
100
AcDbEntity
  8
VORLAGE_TEXT
100
AcDbMText
 10
289.7886477179
 20
8.6884673623
 30
0.0
 40
2.0
 41
0.0
 71
     2
 72
     1
  1
6
  7
SLDTEXTSTYLE0
 73
     1
 44
1.0
  0
MTEXT
  5
16E
330
1F
100
AcDbEntity
  8
VORLAGE_TEXT
100
AcDbMText
 10
412.5160699095
 20
74.5096307526
 30
0.0
 40
2.0
 41
0.0
 71
     2
 72
     1
  1
E
  7
SLDTEXTSTYLE0
 73
     1
 44
1.0
  0
MTEXT
  5
16F
330
1F
100
AcDbEntity
  8
VORLAGE_TEXT
100
AcDbMText
 10
412.6234021365
 20
124.4517683275
 30
0.0
 40
2.0
 41
0.0
 71
     2
 72
     1
  1
D
  7
SLDTEXTSTYLE0
 73
     1
 44
1.0
  0
MTEXT
  5
170
330
1F
100
AcDbEntity
  8
TEXT-DEUTSCH
100
AcDbMText
 10
411.7952690469
 20
41.8489121823
 30
0.0
 40
1.8
 41
0.0
 71
     3
 72
     1
  1
Plotdatum: 04.10.2023
  7
SLDTEXTSTYLE0
 11
-3.269436733918102E-15
 21
1.0
 31
0.0
 73
     1
 44
1.0
  0
MTEXT
  5
171
330
1F
100
AcDbEntity
  8
VORLAGE_TEXT
100
AcDbMText
 10
412.557933251
 20
8.2549718046
 30
0.0
 40
1.8
 41
0.0
 71
     2
 72
     1
  1
A3
  7
SLDTEXTSTYLE0
 73
     1
 44
1.0
  0
MTEXT
  5
172
330
1F
100
AcDbEntity
  8
VORLAGE_TEXT
100
AcDbMText
 10
390.594604279
 20
8.3847467643
 30
0.0
 40
1.8
 41
0.0
 71
     2
 72
     1
  1
CAD-System: SolidWorks
  7
SLDTEXTSTYLE0
 73
     1
 44
1.0
  0
MTEXT
  5
173
330
1F
100
AcDbEntity
  8
TEXT
100
AcDbMText
 10
403.9986368527
 20
28.4394692021
 30
0.0
 40
5.0
 41
0.0
 71
     2
 72
     1
  1
A
  7
SLDTEXTSTYLE0
 73
     1
 44
1.0
  0
MTEXT
  5
174
330
1F
100
AcDbEntity
  8
TEXT
100
AcDbMText
 10
249.556836311
 20
38.5581729516
 30
0.0
 40
2.0
 41
0.0
 71
     1
 72
     1
  1
Freigegeben
  7
SLDTEXTSTYLE0
 73
     1
 44
1.0
  0
MTEXT
  5
175
330
1F
100
AcDbEntity
  8
TEXT
100
AcDbMText
 10
284.1136255556
 20
43.5473338598
 30
0.0
 40
2.0
 41
0.0
 71
     2
 72
     1
  1
bae
  7
SLDTEXTSTYLE0
 73
     1
 44
1.0
  0
MTEXT
  5
176
330
1F
100
AcDbEntity
  8
TEXT
100
AcDbMText
 10
249.5284668163
 20
43.5603133928
 30
0.0
 40
2.0
 41
0.0
 71
     1
 72
     1
  1
04.10.2023
  7
SLDTEXTSTYLE0
 73
     1
 44
1.0
  0
MTEXT
  5
177
330
1F
100
AcDbEntity
  8
TEXT
100
AcDbMText
 10
284.1309088133
 20
48.5138972561
 30
0.0
 40
2.0
 41
0.0
 71
     2
 72
     1
  1
AB
  7
SLDTEXTSTYLE0
 73
     1
 44
1.0
  0
MTEXT
  5
178
330
1F
100
AcDbEntity
  8
TEXT
100
AcDbMText
 10
249.5284668163
 20
48.4989062069
 30
0.0
 40
2.0
 41
0.0
 71
     1
 72
     1
  1
10.10.2018
  7
SLDTEXTSTYLE0
 73
     1
 44
1.0
  0
MTEXT
  5
179
330
1F
100
AcDbEntity
  8
0
  6
Continuous
 62
     7
370
     0
100
AcDbMText
 10
372.1784386186
 20
38.8723054925
 30
0.0
 40
1.5
 41
0.0
 71
     1
 72
     1
  1
Copyright reserved! © ACO AG
  7
SLDTEXTSTYLE0
 73
     1
 44
1.0
  0
INSERT
  5
182
330
1F
100
AcDbEntity
  8
0
  6
Continuous
 62
     7
370
     0
100
AcDbBlockReference
  2
SW_NOTE_0_3
 10
372.2203831445
 20
51.2202922854
 30
0.0
  0
MTEXT
  5
183
330
1F
100
AcDbEntity
  8
TEXT
100
AcDbMText
 10
364.9468572407
 20
18.4594173137
 30
0.0
 40
2.0
 41
0.0
 71
     1
 72
     1
  1
Art.Nr.
  7
SLDTEXTSTYLE0
 73
     1
 44
1.0
  0
MTEXT
  5
184
330
1F
100
AcDbEntity
  8
TEXT
100
AcDbMText
 10
354.2676663079
 20
18.5245664709
 30
0.0
 40
2.0
 41
0.0
 71
     2
 72
     1
  1
bae
  7
SLDTEXTSTYLE0
 73
     1
 44
1.0
  0
MTEXT
  5
185
330
1F
100
AcDbEntity
  8
TEXT
100
AcDbMText
 10
340.304777906
 20
18.5245664709
 30
0.0
 40
2.0
 41
0.0
 71
     2
 72
     1
  1
04.10.2023
  7
SLDTEXTSTYLE0
 73
     1
 44
1.0
  0
MTEXT
  5
186
330
1F
100
AcDbEntity
  8
TEXT
100
AcDbMText
 10
330.227417144
 20
18.524501801
 30
0.0
 40
2.0
 41
0.0
 71
     2
 72
     1
  1
A
  7
SLDTEXTSTYLE0
 73
     1
 44
1.0
  0
MTEXT
  5
187
330
1F
100
AcDbEntity
  8
VORLAGE_TEXT
100
AcDbMText
 10
311.764909851
 20
46.3490312465
 30
0.0
 40
5.0
 41
0.0
 71
     2
 72
     1
  1
1:1
  7
SLDTEXTSTYLE0
 73
     1
 44
1.0
  0
MTEXT
  5
188
330
1F
100
AcDbEntity
  8
VORLAGE_TEXT
100
AcDbMText
 10
230.1851195342
 20
38.7793829468
 30
0.0
 40
2.0
 41
0.0
 71
     1
 72
     1
  1
Status:
  7
SLDTEXTSTYLE0
 73
     1
 44
1.0
  0
MTEXT
  5
189
330
1F
100
AcDbEntity
  8
TEXT
100
AcDbMText
 10
344.926838705
 20
28.2772828851
 30
0.0
 40
5.0
 41
0.0
 71
     1
 72
     1
  1
201791
  7
SLDTEXTSTYLE0
 73
     1
 44
1.0
  0
MTEXT
  5
18A
330
1F
100
AcDbEntity
  8
TEXT
100
AcDbMText
 10
231.1132118803
 20
14.9211049657
 30
0.0
 40
2.5
 41
0.0
 71
     1
 72
     1
  1
Art. Nr.: 2090474
  7
SLDTEXTSTYLE0
 73
     1
 44
1.0
  0
MTEXT
  5
18B
330
1F
100
AcDbEntity
  8
TEXT
100
AcDbMText
 10
231.1475981734
 20
21.4529560996
 30
0.0
 40
2.5
 41
0.0
 71
     1
 72
     1
  1
zu Kastenrinne
  7
SLDTEXTSTYLE0
 73
     1
 44
1.0
  0
MTEXT
  5
18C
330
1F
100
AcDbEntity
  8
TEXT
100
AcDbMText
 10
231.1159560181
 20
33.0904969858
 30
0.0
 40
2.5
 41
0.0
 71
     1
 72
     1
  1
ACO-Standard
  7
SLDTEXTSTYLE0
 73
     1
 44
1.0
  0
MTEXT
  5
18D
330
1F
100
AcDbEntity
  8
TEXT
100
AcDbMText
 10
231.1475981734
 20
28.0307932366
 30
0.0
 40
3.5
 41
0.0
 71
     1
 72
     1
  1
Ablauf DN90 mit GV
  7
SLDTEXTSTYLE0
 73
     1
 44
1.0
  0
MTEXT
  5
18E
330
1F
100
AcDbEntity
  8
VORLAGE_TEXT
100
AcDbMText
 10
348.2746465368
 20
53.819119072
 30
0.0
 40
2.0
 41
0.0
 71
     1
 72
     1
  1
Projektion: ISO-E
  7
SLDTEXTSTYLE0
 73
     1
 44
1.0
  0
MTEXT
  5
18F
330
1F
100
AcDbEntity
  8
TEXT
100
AcDbMText
 10
337.7677091855
 20
49.3670227094
 30
0.0
 40
2.5
 41
0.0
 71
     2
 72
     1
  1
Millimeter
  7
SLDTEXTSTYLE0
 73
     1
 44
1.0
  0
MTEXT
  5
190
330
1F
100
AcDbEntity
  8
VORLAGE_TEXT
100
AcDbMText
 10
337.6323777421
 20
53.855374072
 30
0.0
 40
2.0
 41
0.0
 71
     2
 72
     1
  1
Masseinheit:
  7
SLDTEXTSTYLE0
 73
     1
 44
1.0
  0
MTEXT
  5
191
330
1F
100
AcDbEntity
  8
VORLAGE_TEXT
100
AcDbMText
 10
337.6114490186
 20
43.5452078816
 30
0.0
 40
2.0
 41
0.0
 71
     2
 72
     1
  1
Blatt / Anz.:
  7
SLDTEXTSTYLE0
 73
     1
 44
1.0
  0
MTEXT
  5
192
330
1F
100
AcDbEntity
  8
VORLAGE_TEXT
100
AcDbMText
 10
329.2895578243
 20
28.4139191092
 30
0.0
 40
5.0
 41
0.0
 71
     1
 72
     1
  1
CH
  7
SLDTEXTSTYLE0
 73
     1
 44
1.0
  0
MTEXT
  5
193
330
1F
100
AcDbEntity
  8
VORLAGE_TEXT
100
AcDbMText
 10
330.40704
 20
33.692638072
 30
0.0
 40
2.0
 41
0.0
 71
     1
 72
     1
  1
Zeichnung Nr.:
  7
SLDTEXTSTYLE0
 73
     1
 44
1.0
  0
MTEXT
  5
194
330
1F
100
AcDbEntity
  8
VORLAGE_TEXT
100
AcDbMText
 10
269.897953
 20
75.161075072
 30
0.0
 40
2.0
 41
0.0
 71
     1
 72
     1
  1
Gewicht:
  7
SLDTEXTSTYLE0
 73
     1
 44
1.0
  0
MTEXT
  5
195
330
1F
100
AcDbEntity
  8
VORLAGE_TEXT
100
AcDbMText
 10
230.0
 20
64.542328072
 30
0.0
 40
2.0
 41
0.0
 71
     1
 72
     1
  1
zul. Abweichung:
  7
SLDTEXTSTYLE0
 73
     1
 44
1.0
  0
MTEXT
  5
196
330
1F
100
AcDbEntity
  8
VORLAGE_TEXT
100
AcDbMText
 10
269.612607
 20
64.542328072
 30
0.0
 40
2.0
 41
0.0
 71
     1
 72
     1
  1
Oberfläche:
  7
SLDTEXTSTYLE0
 73
     1
 44
1.0
  0
MTEXT
  5
197
330
1F
100
AcDbEntity
  8
VORLAGE_TEXT
100
AcDbMText
 10
230.261411
 20
43.4433838912
 30
0.0
 40
2.0
 41
0.0
 71
     1
 72
     1
  1
Freigegeben:
  7
SLDTEXTSTYLE0
 73
     1
 44
1.0
  0
MTEXT
  5
198
330
1F
100
AcDbEntity
  8
VORLAGE_TEXT
100
AcDbMText
 10
230.0
 20
75.161075072
 30
0.0
 40
2.0
 41
0.0
 71
     1
 72
     1
  1
Werkstoff:
  7
SLDTEXTSTYLE0
 73
     1
 44
1.0
  0
MTEXT
  5
199
330
1F
100
AcDbEntity
  8
VORLAGE_TEXT
100
AcDbMText
 10
254.035545
 20
53.129475072
 30
0.0
 40
2.0
 41
0.0
 71
     1
 72
     1
  1
Datum:
  7
SLDTEXTSTYLE0
 73
     1
 44
1.0
  0
MTEXT
  5
19A
330
1F
100
AcDbEntity
  8
VORLAGE_TEXT
100
AcDbMText
 10
279.934928
 20
53.136060072
 30
0.0
 40
2.0
 41
0.0
 71
     1
 72
     1
  1
Name:
  7
SLDTEXTSTYLE0
 73
     1
 44
1.0
  0
MTEXT
  5
19B
330
1F
100
AcDbEntity
  8
VORLAGE_TEXT
100
AcDbMText
 10
312.162455406
 20
53.881591072
 30
0.0
 40
2.0
 41
0.0
 71
     2
 72
     1
  1
Massstab:
  7
SLDTEXTSTYLE0
 73
     1
 44
1.0
  0
MTEXT
  5
19C
330
1F
100
AcDbEntity
  8
VORLAGE_TEXT
100
AcDbMText
 10
403.9552944035
 20
33.324874072
 30
0.0
 40
2.0
 41
0.0
 71
     2
 72
     1
  1
Index:
  7
SLDTEXTSTYLE0
 73
     1
 44
1.0
  0
MTEXT
  5
19D
330
1F
100
AcDbEntity
  8
VORLAGE_TEXT
100
AcDbMText
 10
230.261411
 20
48.4499477886
 30
0.0
 40
2.0
 41
0.0
 71
     1
 72
     1
  1
Erstellt:
  7
SLDTEXTSTYLE0
 73
     1
 44
1.0
  0
MTEXT
  5
19F
330
1F
100
AcDbEntity
  8
VORLAGE_TEXT
100
AcDbMText
 10
337.6348165843
 20
39.869706576
 30
0.0
 40
2.5
 41
0.0
 71
     2
 72
     1
  1
1 / 1
  7
SLDTEXTSTYLE1
 73
     1
 44
1.0
  0
MTEXT
  5
1A0
330
1F
100
AcDbEntity
  8
TEXT
100
AcDbMText
 10
269.612607
 20
60.8119428599
 30
0.0
 40
3.0
 41
0.0
 71
     1
 72
     1
  1
DIN ISO 1302
  7
SLDTEXTSTYLE0
 73
     1
 44
1.0
  0
MTEXT
  5
1A1
330
1F
100
AcDbEntity
  8
TEXT
100
AcDbMText
 10
230.0
 20
60.8119428599
 30
0.0
 40
3.0
 41
0.0
 71
     1
 72
     1
  1
Norm
  7
SLDTEXTSTYLE0
 73
     1
 44
1.0
  0
MTEXT
  5
1A2
330
1F
100
AcDbEntity
  8
TEXT
100
AcDbMText
 10
269.612607
 20
71.2121947186
 30
0.0
 40
3.0
 41
0.0
 71
     1
 72
     1
  1
0.81 kg
  7
SLDTEXTSTYLE0
 73
     1
 44
1.0
  0
LINE
  5
1A3
330
1F
100
AcDbEntity
  8
0
  6
Continuous
 62
     7
370
    25
100
AcDbLine
 10
121.4303387795
 20
66.1820360977
 30
0.0
 11
158.3085166087
 21
66.1820360977
 31
0.0
  0
LINE
  5
1A4
330
1F
100
AcDbEntity
  8
0
  6
Continuous
 62
     7
370
    25
100
AcDbLine
 10
158.3085166087
 20
69.1820360977
 30
0.0
 11
121.4303387795
 21
69.1820360977
 31
0.0
  0
CIRCLE
  5
1A5
330
1F
100
AcDbEntity
  8
0
  6
Continuous
 62
     7
370
    25
100
AcDbCircle
 10
139.8694276941
 20
67.6820360977
 30
0.0
 40
42.99999999999997
  0
CIRCLE
  5
1A6
330
1F
100
AcDbEntity
  8
0
  6
Continuous
 62
     7
370
    25
100
AcDbCircle
 10
139.8694276941
 20
67.6820360977
 30
0.0
 40
45.0
  0
CIRCLE
  5
1A7
330
1F
100
AcDbEntity
  8
0
  6
Continuous
 62
     7
370
    25
100
AcDbCircle
 10
139.8694276941
 20
67.6820360977
 30
0.0
 40
42.09099901339439
  0
CIRCLE
  5
1A8
330
1F
100
AcDbEntity
  8
0
  6
Continuous
 62
     7
370
    25
100
AcDbCircle
 10
139.8694276941
 20
67.6820360977
 30
0.0
 40
42.99966000000367
  0
CIRCLE
  5
1A9
330
1F
100
AcDbEntity
  8
0
  6
Continuous
 62
     7
370
    25
100
AcDbCircle
 10
139.8694276941
 20
67.6820360977
 30
0.0
 40
39.47922000000443
  0
CIRCLE
  5
1AA
330
1F
100
AcDbEntity
  8
0
  6
Continuous
 62
     7
370
    25
100
AcDbCircle
 10
139.8694276941
 20
67.6820360977
 30
0.0
 40
35.70732000000307
  0
CIRCLE
  5
1AB
330
1F
100
AcDbEntity
  8
0
  6
Continuous
 62
     7
370
    25
100
AcDbCircle
 10
139.8694276941
 20
67.6820360977
 30
0.0
 40
18.49999999999999
  0
LINE
  5
1AC
330
1F
100
AcDbEntity
  8
0
  6
Continuous
 62
     7
370
    18
100
AcDbLine
 10
190.4122075549
 20
67.6820360977
 30
0.0
 11
89.2574846135
 21
67.6820360977
 31
0.0
  0
LINE
  5
1AD
330
1F
100
AcDbEntity
  8
0
  6
Continuous
 62
     7
370
    18
100
AcDbLine
 10
188.4122075549
 20
61.6820360977
 30
0.0
 11
188.4122075549
 21
67.6820360977
 31
0.0
  0
SOLID
  5
1AE
330
1F
100
AcDbEntity
  8
0
  6
Continuous
 62
     7
370
    18
100
AcDbTrace
 10
188.4122075549
 20
67.6820360977
 30
0.0
 11
187.4122075549
 21
63.6820360977
 31
0.0
 12
189.4122075549
 22
63.6820360977
 32
0.0
 13
189.4122075549
 23
63.6820360977
 33
0.0
  0
LINE
  5
1AF
330
1F
100
AcDbEntity
  8
0
  6
Continuous
 62
     7
370
    18
100
AcDbLine
 10
91.2574846135
 20
61.6820360977
 30
0.0
 11
91.2574846135
 21
67.6820360977
 31
0.0
  0
SOLID
  5
1B0
330
1F
100
AcDbEntity
  8
0
  6
Continuous
 62
     7
370
    18
100
AcDbTrace
 10
91.2574846135
 20
67.6820360977
 30
0.0
 11
90.2574846135
 21
63.6820360977
 31
0.0
 12
92.2574846135
 22
63.6820360977
 32
0.0
 13
92.2574846135
 23
63.6820360977
 33
0.0
  0
MTEXT
  5
1B1
330
1F
100
AcDbEntity
  8
0
  6
Continuous
 62
     7
100
AcDbMText
 10
186.5804995741
 20
61.3107247323
 30
0.0
 40
4.1093098958
 41
0.0
 71
     1
 72
     1
  1
A
  7
SLDTEXTSTYLE0
 73
     1
 44
1.0
  0
MTEXT
  5
1B2
330
1F
100
AcDbEntity
  8
0
  6
Continuous
 62
     7
100
AcDbMText
 10
89.4216354637
 20
61.4060637737
 30
0.0
 40
4.1093098958
 41
0.0
 71
     1
 72
     1
  1
A
  7
SLDTEXTSTYLE0
 73
     1
 44
1.0
  0
LINE
  5
1B3
330
1F
100
AcDbEntity
  8
0
  6
Continuous
 62
     7
370
    25
100
AcDbLine
 10
364.0453211009
 20
221.3391874323
 30
0.0
 11
364.0453211009
 21
235.3395129333
 31
0.0
  0
LINE
  5
1B4
330
1F
100
AcDbEntity
  8
0
  6
Continuous
 62
     7
370
    25
100
AcDbLine
 10
274.0453211009
 20
235.3395129333
 30
0.0
 11
274.0453211009
 21
221.3391874323
 31
0.0
  0
LWPOLYLINE
  5
1B5
330
1F
100
AcDbEntity
  8
0
  6
Continuous
 62
     7
370
    25
100
AcDbPolyline
 90
       49
 70
   128
 43
0.0
 10
274.4433847195
 20
217.8783263644
 10
274.5073459864
 20
217.5452739463
 10
274.9847814895
 20
215.9447370807
 10
275.6279795145
 20
214.3646093085
 10
276.4352155048
 20
212.8102843338
 10
277.4041501039
 20
211.2874849327
 10
278.53162695
 20
209.8021815797
 10
279.8135815723
 20
208.3604204661
 10
281.2450650058
 20
206.968133767
 10
282.8203442204
 20
205.6309878733
 10
284.5330301103
 20
204.3542923906
 10
286.3761958701
 20
203.1429647511
 10
288.3424683742
 20
202.0015318467
 10
290.4239840691
 20
200.9342007761
 10
292.6126502998
 20
199.9447574181
 10
294.9000838108
 20
199.0366537339
 10
297.2776020471
 20
198.2130345076
 10
299.7362412188
 20
197.4767409345
 10
302.266776412
 20
196.8303093352
 10
304.859744708
 20
196.2759667053
 10
307.5054715048
 20
195.8156245646
 10
310.1940998227
 20
195.4508722502
 10
312.9156221794
 20
195.1829704885
 10
315.6599145504
 20
195.0128458354
 10
318.4167719267
 20
194.9410863837
 10
321.1759449983
 20
194.967939004
 10
323.9271652127
 20
195.0933075006
 10
326.66017475
 20
195.316750336
 10
329.3648181756
 20
195.6374868246
 10
332.0310463257
 20
196.0544018934
 10
334.6489522827
 20
196.5660523593
 10
337.208805921
 20
197.1706748709
 10
339.7010864903
 20
197.8661952923
 10
342.1165126592
 20
198.6502391518
 10
344.4460693995
 20
199.5201425617
 10
346.6810310884
 20
200.4729626954
 10
348.8129802923
 20
201.505486468
 10
350.8338219748
 20
202.6142354946
 10
352.7357934868
 20
203.7954647355
 10
354.5114718558
 20
205.0451516238
 10
356.1536844737
 20
206.3588890808
 10
357.6556700159
 20
207.7319280936
 10
359.0111138619
 20
209.1591366515
 10
360.2141863386
 20
210.6349250183
 10
361.2596550482
 20
212.1532125638
 10
362.1430345092
 20
213.707444
 10
362.8607486668
 20
215.2906865353
 10
363.4102566522
 20
216.895822035
 10
363.5918361334
 20
217.6702772243
  0
LINE
  5
1B6
330
1F
100
AcDbEntity
  8
0
  6
Continuous
 62
     7
370
    25
100
AcDbLine
 10
364.0453211009
 20
140.375816511
 30
0.0
 11
364.0453211009
 21
215.861665147
 31
0.0
  0
LINE
  5
1B7
330
1F
100
AcDbEntity
  8
0
  6
Continuous
 62
     7
370
    25
100
AcDbLine
 10
274.0453211009
 20
215.861665147
 30
0.0
 11
274.0453211009
 21
140.375816511
 31
0.0
  0
LINE
  5
1B8
330
1F
100
AcDbEntity
  8
0
  6
Continuous
 62
     7
370
    25
100
AcDbLine
 10
274.8744603132
 20
135.4119794165
 30
0.0
 11
275.8560349974
 21
132.5010859035
 31
0.0
  0
LINE
  5
1B9
330
1F
100
AcDbEntity
  8
0
  6
Continuous
 62
     7
370
    25
100
AcDbLine
 10
362.2346072045
 20
132.5010859035
 30
0.0
 11
363.2161818887
 21
135.4119794165
 31
0.0
  0
LWPOLYLINE
  5
1BA
330
1F
100
AcDbEntity
  8
0
  6
Continuous
 62
     7
370
    25
100
AcDbPolyline
 90
       43
 70
   128
 43
0.0
 10
360.3030488888
 20
233.5638123288
 10
359.8626123333
 20
234.4292208063
 10
358.9331164916
 20
235.9075424634
 10
357.8455387881
 20
237.3491403947
 10
356.6040702773
 20
238.748075582
 10
355.2136785746
 20
240.0985552708
 10
353.6800365171
 20
241.3950299341
 10
352.0094379041
 20
242.6322508574
 10
350.2087210041
 20
243.8052950462
 10
348.2852078097
 20
244.9095701736
 10
346.2467238012
 20
245.9407799169
 10
344.1014173389
 20
246.8949988079
 10
341.8578085872
 20
247.7686168768
 10
339.5247671324
 20
248.5583398684
 10
337.1114850807
 20
249.2611945267
 10
334.6274481436
 20
249.8745357801
 10
332.0824043676
 20
250.3960548408
 10
329.4863305437
 20
250.823787404
 10
326.8493965346
 20
251.1561213265
 10
324.1819278428
 20
251.3918033354
 10
321.4943667747
 20
251.5299444539
 10
318.7972325541
 20
251.5700239344
 10
316.1010807268
 20
251.5118915595
 10
313.4164763958
 20
251.3557693159
 10
310.7539339858
 20
251.1022506877
 10
308.1238709102
 20
250.7522960416
 10
305.5365772017
 20
250.3072278975
 10
303.0021761452
 20
249.7687244523
 10
300.5305861482
 20
249.1388114835
 10
298.131484237
 20
248.4198527996
 10
295.8142715933
 20
247.6145395064
 10
293.5880415623
 20
246.7258785057
 10
291.4615505501
 20
245.757180856
 10
289.4431921393
 20
244.7120509158
 10
287.5409745267
 20
243.5943775557
 10
285.7625009192
 20
242.4083291352
 10
284.1149670282
 20
241.1583667023
 10
282.6051707607
 20
239.8492879873
 10
281.239388974
 20
238.4861739382
 10
280.0233844285
 20
237.07444053
 10
278.9623444743
 20
235.6198567264
 10
278.0607966319
 20
234.1285436036
 10
277.7918307623
 20
233.5742063662
  0
LINE
  5
1BB
330
1F
100
AcDbEntity
  8
0
  6
Continuous
 62
     7
370
    25
100
AcDbLine
 10
305.2354206647
 20
226.8820602547
 30
0.0
 11
329.3127146063
 21
212.982534322
 31
0.0
  0
LINE
  5
1BC
330
1F
100
AcDbEntity
  8
0
  6
Continuous
 62
     7
370
    25
100
AcDbLine
 10
332.5587079175
 20
214.5726700532
 30
0.0
 11
306.7352987637
 21
229.4802068418
 31
0.0
  0
LWPOLYLINE
  5
1BD
330
1F
100
AcDbEntity
  8
0
  6
Continuous
 62
     7
370
    25
100
AcDbPolyline
 90
       96
 70
   128
 43
0.0
 10
349.4509126919
 20
252.8922873375
 10
351.3939580491
 20
251.6938373124
 10
353.1955510476
 20
250.423873988
 10
354.8478137797
 20
249.0879505906
 10
356.3435213207
 20
247.6919087736
 10
357.6761333223
 20
246.2418530724
 10
358.8398226111
 20
244.7441242117
 10
359.8295006701
 20
243.2052713789
 10
360.6408398888
 20
241.6320235857
 10
361.2702924873
 20
240.0312602444
 10
361.7151060296
 20
238.4099810859
 10
361.9733354592
 20
236.7752755515
 10
362.0438516045
 20
235.1342917924
 10
361.9263461163
 20
233.4942054131
 10
361.6213328163
 20
231.8621880942
 10
361.13014545
 20
230.2453762319
 10
360.4549318548
 20
228.6508397334
 10
359.5986445679
 20
227.0855511009
 10
358.5650279157
 20
225.5563549433
 10
357.358601641
 20
224.0699380465
 10
355.9846411388
 20
222.6328001332
 10
354.4491543889
 20
221.251225442
 10
352.758855684
 20
219.9312552473
 10
350.9211362704
 20
218.6786614431
 10
348.9440320274
 20
217.4989213033
 10
346.8361883289
 20
216.3971935313
 10
344.6068222391
 20
215.3782957025
 10
342.2656822086
 20
214.4466831978
 10
339.8230054471
 20
213.6064297215
 10
337.2894731586
 20
212.8612094885
 10
334.6761638352
 20
212.2142811571
 10
331.9945048135
 20
211.6684735803
 10
329.2562223062
 20
211.2261734358
 10
326.473290126
 20
210.8893147895
 10
323.6578773272
 20
210.6593706387
 10
320.8222949936
 20
210.5373464707
 10
317.9789424053
 20
210.5237758659
 10
315.1402528198
 20
210.6187181653
 10
312.3186391042
 20
210.8217582103
 10
309.5264394575
 20
211.1320081585
 10
306.7758634582
 20
211.5481113658
 10
304.0789386754
 20
212.0682483186
 10
301.4474580749
 20
212.6901445906
 10
298.8929284519
 20
213.4110807875
 10
296.4265201145
 20
214.2279044387
 10
294.0590180386
 20
215.1370437823
 10
291.8007747086
 20
216.1345233833
 10
289.661664848
 20
217.215981517
 10
287.6510422398
 20
218.3766892424
 10
285.7776988252
 20
219.6115710797
 10
284.0498262583
 20
220.915227205
 10
282.4749800862
 20
222.2819570617
 10
281.0600467104
 20
223.705784288
 10
279.8112132747
 20
225.1804828495
 10
278.7339406099
 20
226.6996042647
 10
277.8329393552
 20
228.2565058022
 10
277.1121493599
 20
229.8443795278
 10
276.5747224553
 20
231.4562820735
 10
276.2230086725
 20
233.0851649998
 10
276.0585459663
 20
234.7239056159
 10
276.0820534903
 20
236.3653381263
 10
276.2934284521
 20
238.0022849641
 10
276.6917465627
 20
239.6275881773
 10
277.2752660785
 20
241.2341407285
 10
278.041435417
 20
242.8149175721
 10
278.9869043147
 20
244.3630063733
 10
280.1075384766
 20
245.8716377337
 10
281.3984376548
 20
247.334214792
 10
282.8539570754
 20
248.744342071
 10
284.4677321225
 20
250.0958534429
 10
286.2327061683
 20
251.3828390923
 10
288.1411614305
 20
252.5996713584
 10
290.1847527198
 20
253.7410293434
 10
292.3545439313
 20
254.8019221791
 10
294.6410471203
 20
255.7777108512
 10
297.0342639901
 20
256.664128484
 10
299.5237296121
 20
257.4572989988
 10
302.0985581867
 20
258.1537540628
 10
304.7474906437
 20
258.750448255
 10
307.4589438753
 20
259.2447723838
 10
310.2210613865
 20
259.6345648953
 10
313.0217651402
 20
259.9181213262
 10
315.8488083716
 20
260.0942017563
 10
318.6898291397
 20
260.1620362308
 10
321.5324043838
 20
260.1213281266
 10
324.3641042455
 20
259.97225545
 10
327.1725464218
 20
259.7154700579
 10
329.9454503096
 20
259.3520948074
 10
332.6706907058
 20
258.8837186461
 10
335.3363508276
 20
258.3123896637
 10
337.9307744214
 20
257.6406061366
 10
340.4426167329
 20
256.8713056031
 10
342.860894115
 20
256.0078520188
 10
345.1750320558
 20
255.0540210464
 10
347.3749114191
 20
254.0139835462
 10
349.4509126919
 20
252.8922873375
  0
LWPOLYLINE
  5
1BE
330
1F
100
AcDbEntity
  8
0
  6
Continuous
 62
     7
370
    25
100
AcDbPolyline
 90
       98
 70
   128
 43
0.0
 10
350.8651262543
 20
253.7086954493
 10
352.8580848021
 20
252.4811382338
 10
354.7092208682
 20
251.1816830846
 10
356.4107701445
 20
249.8157803682
 10
357.9555957422
 20
248.3891591554
 10
359.3372181258
 20
246.9078031912
 10
360.5498422908
 20
245.3779257974
 10
361.58838207
 20
243.8059438115
 10
362.4484814669
 20
242.1984506722
 10
363.1265329254
 20
240.5621887644
 10
363.6196924623
 20
238.9040211391
 10
363.925891595
 20
237.2309027276
 10
364.043846018
 20
235.5498511701
 10
363.9730609893
 20
233.8679173808
 10
363.7138334061
 20
232.1921559748
 10
363.2672505589
 20
230.5295956776
 10
362.6351855713
 20
228.8872098449
 10
361.8202895435
 20
227.2718872138
 10
360.8259804328
 20
225.6904030086
 10
359.656428717
 20
224.1493905237
 10
358.3165399025
 20
222.655313301
 10
356.8119339487
 20
221.2144380197
 10
355.1489216957
 20
219.8328082114
 10
353.334478395
 20
218.5162189116
 10
351.3762144522
 20
217.2701923535
 10
349.282343507
 20
216.0999548054
 10
347.0616479816
 20
215.0104146504
 10
344.723442245
 20
214.0061417984
 10
342.2775335445
 20
213.0913485188
 10
339.7341808713
 20
212.2698717725
 10
337.1040519303
 20
211.5451571186
 10
334.3981783963
 20
210.920244262
 10
331.6279096434
 20
210.3977543046
 10
328.8048651413
 20
209.9798787507
 10
325.9408857199
 20
209.6683703156
 10
323.047983904
 20
209.4645355741
 10
320.1382935294
 20
209.3692294798
 10
317.2240188485
 20
209.3828517796
 10
314.3173833423
 20
209.5053453369
 10
311.4305784501
 20
209.7361963711
 10
308.5757124348
 20
210.0744366127
 10
305.7647595968
 20
210.5186473647
 10
303.009510049
 20
211.0669654527
 10
300.3215202656
 20
211.7170910401
 10
297.7120646099
 20
212.4662972743
 10
295.1920880458
 20
213.311441724
 10
292.7721602307
 20
214.2489795597
 10
290.4624311828
 20
215.2749784218
 10
288.2725887085
 20
216.3851349146
 10
286.2118177681
 20
217.5747926559
 10
284.2887619512
 20
218.8389618077
 10
282.5114872221
 20
220.1723400053
 10
280.8874480887
 20
221.5693345971
 10
279.4234563355
 20
223.0240861023
 10
278.1256524527
 20
224.5304927876
 10
276.9994798808
 20
226.0822362597
 10
276.0496621789
 20
227.6728079674
 10
275.2801832127
 20
229.2955365001
 10
274.6942704441
 20
230.9436155703
 10
274.2943813951
 20
232.6101325618
 10
274.0821933393
 20
234.288097523
 10
274.0585962671
 20
235.9704724859
 10
274.2236891529
 20
237.6502009852
 10
274.5767795397
 20
239.3202376557
 10
275.1163864436
 20
240.9735777834
 10
275.840246566
 20
242.6032866851
 10
276.7453237857
 20
244.2025287954
 10
277.8278218945
 20
245.764596337
 10
279.083200519
 20
247.2829374558
 10
280.5061941651
 20
248.7511837016
 10
282.0908343028
 20
250.1631767393
 10
283.8304744008
 20
251.5129941793
 10
285.7178178039
 20
252.7949744184
 10
287.7449483379
 20
254.0037403858
 10
289.9033635129
 20
255.134222097
 10
292.1840101856
 20
256.1816779188
 10
294.5773225312
 20
257.1417144574
 10
297.0732621661
 20
258.0103049861
 10
299.661360252
 20
258.7838063343
 10
302.330761406
 20
259.4589741685
 10
305.0702692322
 20
260.0329766001
 10
307.8683932826
 20
260.5034060635
 10
310.7133972525
 20
260.8682894141
 10
313.5933482065
 20
261.1260962043
 10
316.4961666296
 20
261.2757451027
 10
319.4096770924
 20
261.3166084299
 10
322.3216593196
 20
261.248514791
 10
325.2198994457
 20
261.0717497942
 10
328.0922412444
 20
260.7870548535
 10
330.9266371159
 20
260.3956240783
 10
333.7111986191
 20
259.8990992653
 10
336.4342463352
 20
259.2995630122
 10
339.0843588558
 20
258.5995299824
 10
341.6504206879
 20
257.8019363576
 10
344.1216688766
 20
256.9101275228
 10
346.4877381481
 20
255.927844034
 10
348.7387043855
 20
254.8592059297
 10
350.8651262543
 20
253.7086954493
  0
ARC
  5
1BF
330
1F
100
AcDbEntity
  8
0
  6
Continuous
 62
     7
370
    25
100
AcDbCircle
 10
348.7529322287
 20
221.3577339978
 30
0.0
 40
15.2924001187788
100
AcDbArc
 50
346.6230859035
 51
359.9305118768
  0
ARC
  5
1C0
330
1F
100
AcDbEntity
  8
0
  6
Continuous
 62
     7
370
    25
100
AcDbCircle
 10
289.2821315463
 20
221.3522046283
 30
0.0
 40
15.23681600585707
100
AcDbArc
 50
180.0489492347
 51
192.6283270771
  0
ARC
  5
1C1
330
1F
100
AcDbEntity
  8
0
  6
Continuous
 62
     7
370
    25
100
AcDbCircle
 10
348.8681087473
 20
215.8605782513
 30
0.0
 40
15.1758079924737
100
AcDbArc
 50
346.5945962903
 51
10.4012442659
  0
ARC
  5
1C2
330
1F
100
AcDbEntity
  8
0
  6
Continuous
 62
     7
370
    25
100
AcDbCircle
 10
289.1957091407
 20
215.8606373476
 30
0.0
 40
15.14941455420631
100
AcDbArc
 50
169.5806595903
 51
192.6479518471
  0
LWPOLYLINE
  5
1C3
330
1F
100
AcDbEntity
  8
0
  6
Continuous
 62
     7
370
    25
100
AcDbPolyline
 90
       50
 70
   128
 43
0.0
 10
364.0453211009
 20
140.375816511
 10
363.9730609893
 20
138.9042209585
 10
363.7138334061
 20
137.2284595525
 10
363.2672505589
 20
135.5658992553
 10
362.6351855713
 20
133.9235134226
 10
361.8202895435
 20
132.3081907914
 10
360.8259804328
 20
130.7267065862
 10
359.656428717
 20
129.1856941014
 10
358.3165399025
 20
127.6916168787
 10
356.8119339487
 20
126.2507415974
 10
355.1489216957
 20
124.8691117891
 10
353.334478395
 20
123.5525224893
 10
351.3762144522
 20
122.3064959312
 10
349.282343507
 20
121.1362583831
 10
347.0616479816
 20
120.0467182281
 10
344.723442245
 20
119.0424453761
 10
342.2775335445
 20
118.1276520965
 10
339.7341808713
 20
117.3061753502
 10
337.1040519303
 20
116.5814606962
 10
334.3981783963
 20
115.9565478397
 10
331.6279096434
 20
115.4340578822
 10
328.8048651413
 20
115.0161823284
 10
325.9408857199
 20
114.7046738933
 10
323.047983904
 20
114.5008391518
 10
320.1382935294
 20
114.4055330575
 10
317.2240188485
 20
114.4191553573
 10
314.3173833423
 20
114.5416489146
 10
311.4305784501
 20
114.7724999488
 10
308.5757124348
 20
115.1107401904
 10
305.7647595968
 20
115.5549509423
 10
303.009510049
 20
116.1032690303
 10
300.3215202656
 20
116.7533946178
 10
297.7120646099
 20
117.502600852
 10
295.1920880458
 20
118.3477453017
 10
292.7721602307
 20
119.2852831374
 10
290.4624311828
 20
120.3112819995
 10
288.2725887085
 20
121.4214384923
 10
286.2118177681
 20
122.6110962336
 10
284.2887619512
 20
123.8752653854
 10
282.5114872221
 20
125.208643583
 10
280.8874480887
 20
126.6056381748
 10
279.4234563355
 20
128.06038968
 10
278.1256524527
 20
129.5667963653
 10
276.9994798808
 20
131.1185398374
 10
276.0496621789
 20
132.7091115451
 10
275.2801832127
 20
134.3318400777
 10
274.6942704441
 20
135.979919148
 10
274.2943813951
 20
137.6464361395
 10
274.0821933393
 20
139.3244011007
 10
274.0453211009
 20
140.375816511
  0
LWPOLYLINE
  5
1C4
330
1F
100
AcDbEntity
  8
0
  6
Continuous
 62
     7
370
    25
100
AcDbPolyline
 90
       45
 70
   128
 43
0.0
 10
362.2346072045
 20
132.5010859035
 10
362.1998734387
 20
132.3991926986
 10
361.5460574576
 20
130.7804411138
 10
360.7102467987
 20
129.1898411531
 10
359.6960205314
 20
127.6342040096
 10
358.5077217284
 20
126.1201911605
 10
357.1504388674
 20
124.6542858412
 10
355.6299840422
 20
123.2427652832
 10
353.9528680737
 20
121.8916738345
 10
352.12627263
 20
120.6067970759
 10
350.1580194731
 20
119.3936370469
 10
348.0565369653
 20
118.2573886852
 10
345.8308239773
 20
117.2029175806
 10
343.4904113538
 20
116.2347391402
 10
341.0453211009
 20
115.3569992529
 10
338.5060234706
 20
114.5734565354
 10
335.883392125
 20
113.8874662381
 10
333.1886575743
 20
113.3019658767
 10
330.4333590854
 20
112.8194626537
 10
327.6292952696
 20
112.4420227219
 10
324.7884735586
 20
112.1712623371
 10
321.923058787
 20
112.0083409367
 10
319.0453211009
 20
111.9539561753
 10
316.1675834148
 20
112.0083409367
 10
313.3021686432
 20
112.1712623371
 10
310.4613469322
 20
112.4420227219
 10
307.6572831164
 20
112.8194626537
 10
304.9019846276
 20
113.3019658768
 10
302.2072500769
 20
113.8874662381
 10
299.5846187313
 20
114.5734565354
 10
297.0453211009
 20
115.3569992529
 10
294.6002308481
 20
116.2347391402
 10
292.2598182245
 20
117.2029175806
 10
290.0341052365
 20
118.2573886852
 10
287.9326227287
 20
119.3936370469
 10
285.9643695718
 20
120.6067970759
 10
284.1377741281
 20
121.8916738345
 10
282.4606581596
 20
123.2427652832
 10
280.9402033344
 20
124.6542858412
 10
279.5829204735
 20
126.1201911605
 10
278.3946216704
 20
127.6342040096
 10
277.3803954031
 20
129.1898411531
 10
276.5445847442
 20
130.7804411138
 10
275.8907687632
 20
132.3991926986
 10
275.8560349974
 20
132.5010859035
  0
LWPOLYLINE
  5
1C5
330
1F
100
AcDbEntity
  8
0
  6
Continuous
 62
     7
370
    25
100
AcDbPolyline
 90
        3
 70
   128
 43
0.0
 10
361.3635072251
 20
230.9365397742
 10
360.9781612773
 20
232.0297632934
 10
360.3570945897
 20
233.4213100164
  0
ARC
  5
1C6
330
1F
100
AcDbEntity
  8
0
  6
Continuous
 62
     7
370
    25
100
AcDbCircle
 10
292.6672707736
 20
225.9265860835
 30
0.0
 40
16.70890676264791
100
AcDbArc
 50
153.3045870978
 51
162.5521680275
  0
LWPOLYLINE
  5
1C7
330
1F
100
AcDbEntity
  8
0
  6
Continuous
 62
     7
370
    25
100
AcDbPolyline
 90
       45
 70
   128
 43
0.0
 10
358.4366538279
 20
225.3853098283
 10
358.1941628823
 20
226.8077167403
 10
357.7492503005
 20
228.3599159311
 10
357.1198958704
 20
229.8906967914
 10
356.3090987525
 20
231.3927644532
 10
355.3207227642
 20
232.8589608799
 10
354.1594779673
 20
234.2822989781
 10
352.830898222
 20
235.6559958934
 10
351.3413148158
 20
236.9735053345
 10
349.6978262921
 20
238.2285487689
 10
347.9082646221
 20
239.415145343
 10
345.9811578821
 20
240.5276403839
 10
343.9256896133
 20
241.560732346
 10
341.7516550581
 20
242.5094980757
 10
339.4694144812
 20
243.3694162722
 10
337.0898437982
 20
244.1363890337
 10
334.6242827472
 20
244.8067613857
 10
332.0844808492
 20
245.3773386987
 10
329.4825414171
 20
245.8454019119
 10
326.8308638771
 20
246.2087204909
 10
324.1420846803
 20
246.4655630573
 10
321.4290170839
 20
246.6147056393
 10
318.7045900907
 20
246.6554375046
 10
315.9817868359
 20
246.5875645472
 10
313.2735827169
 20
246.4114102128
 10
310.5928835599
 20
246.1278139569
 10
307.9524641169
 20
245.7381272448
 10
305.3649071891
 20
245.2442071113
 10
302.8425436636
 20
244.6484073106
 10
300.3973937513
 20
243.9535671002
 10
298.0411097051
 20
243.16299771
 10
295.7849202914
 20
242.2804665633
 10
293.6395772803
 20
241.3101793229
 10
291.6153042083
 20
240.2567598492
 10
289.7217476583
 20
239.125228166
 10
287.9679312896
 20
237.9209765368
 10
286.3622128359
 20
236.6497437692
 10
284.9122442769
 20
235.3175878661
 10
283.6249353732
 20
233.9308571572
 10
282.5064207377
 20
232.4961600457
 10
281.5620306022
 20
231.0203335169
 10
280.7962654158
 20
229.510410556
 10
280.2127743982
 20
227.9735866338
 10
279.8143381499
 20
226.417185416
 10
279.6539883739
 20
225.3853098283
  0
LWPOLYLINE
  5
1C8
330
1F
100
AcDbEntity
  8
0
  6
Continuous
 62
     7
370
    25
100
AcDbPolyline
 90
       48
 70
   128
 43
0.0
 10
354.4747754615
 20
221.2988258476
 10
354.6038392776
 20
221.9855074065
 10
354.746685055
 20
223.4889334748
 10
354.6990486087
 20
224.9943682496
 10
354.4611840998
 20
226.4937795851
 10
354.0343606382
 20
227.979167473
 10
353.420855512
 20
229.4426067262
 10
352.6239420362
 20
230.8762892632
 10
351.6478720893
 20
232.2725657673
 10
350.4978534265
 20
233.6239864991
 10
349.1800218952
 20
234.9233410445
 10
347.7014086966
 20
236.1636967846
 10
346.0699028721
 20
237.338435885
 10
344.2942092109
 20
238.4412906043
 10
342.3838018072
 20
239.4663767353
 10
340.348873511
 20
240.408225
 10
338.2002815452
 20
241.2618102304
 10
335.9494895776
 20
242.0225781801
 10
333.6085065572
 20
242.6864698227
 10
331.1898226413
 20
243.2499430093
 10
328.7063425551
 20
243.7099913664
 10
326.1713167394
 20
244.0641603371
 10
323.5982706537
 20
244.3105602767
 10
321.0009326122
 20
244.4478765348
 10
318.3931605372
 20
244.4753764699
 10
315.7888680209
 20
244.3929133579
 10
313.2019500908
 20
244.2009271751
 10
310.6462090733
 20
243.900442251
 10
308.1352809526
 20
243.4930618025
 10
305.6825626165
 20
242.9809593808
 10
303.3011403786
 20
242.3668672736
 10
301.003720157
 20
241.6540619282
 10
298.8025596825
 20
240.8463464695
 10
296.7094030986
 20
239.9480304089
 10
294.7354183015
 20
238.9639066512
 10
292.891137354
 20
237.8992259226
 10
291.1864002931
 20
236.7596687554
 10
289.6303026284
 20
235.5513151801
 10
288.2311468144
 20
234.2806122858
 10
286.9963979526
 20
232.9543398224
 10
285.9326439626
 20
231.5795740272
 10
285.045560432
 20
230.1636498705
 10
284.3398803354
 20
228.7141219205
 10
283.8193687813
 20
227.2387240358
 10
283.4868029243
 20
225.7453281026
 10
283.3439571468
 20
224.2419020343
 10
283.3915935931
 20
222.7364672594
 10
283.6158667403
 20
221.2988258476
  0
LWPOLYLINE
  5
1C9
330
1F
100
AcDbEntity
  8
0
  6
Continuous
 62
     7
370
    25
100
AcDbPolyline
 90
       44
 70
   128
 43
0.0
 10
354.7143179897
 20
222.9106455651
 10
354.6990486087
 20
223.0848238708
 10
354.4611840998
 20
224.5842352063
 10
354.0343606382
 20
226.0696230942
 10
353.420855512
 20
227.5330623474
 10
352.6239420362
 20
228.9667448844
 10
351.6478720893
 20
230.3630213885
 10
350.4978534265
 20
231.7144421204
 10
349.1800218952
 20
233.0137966657
 10
347.7014086966
 20
234.2541524059
 10
346.0699028721
 20
235.4288915062
 10
344.2942092109
 20
236.5317462255
 10
342.3838018072
 20
237.5568323565
 10
340.348873511
 20
238.4986806212
 10
338.2002815452
 20
239.3522658517
 10
335.9494895776
 20
240.1130338013
 10
333.6085065572
 20
240.776925444
 10
331.1898226413
 20
241.3403986305
 10
328.7063425551
 20
241.8004469876
 10
326.1713167394
 20
242.1546159583
 10
323.5982706537
 20
242.4010158979
 10
321.0009326122
 20
242.538332156
 10
318.3931605372
 20
242.5658320911
 10
315.7888680209
 20
242.4833689791
 10
313.2019500908
 20
242.2913827963
 10
310.6462090733
 20
241.9908978722
 10
308.1352809526
 20
241.5835174238
 10
305.6825626165
 20
241.071415002
 10
303.3011403786
 20
240.4573228948
 10
301.003720157
 20
239.7445175494
 10
298.8025596825
 20
238.9368020907
 10
296.7094030986
 20
238.0384860301
 10
294.7354183015
 20
237.0543622724
 10
292.891137354
 20
235.9896815438
 10
291.1864002931
 20
234.8501243766
 10
289.6303026284
 20
233.6417708013
 10
288.2311468144
 20
232.371067907
 10
286.9963979526
 20
231.0447954436
 10
285.9326439626
 20
229.6700296484
 10
285.045560432
 20
228.2541054918
 10
284.3398803354
 20
226.8045775417
 10
283.8193687813
 20
225.329179657
 10
283.4868029243
 20
223.8357837238
 10
283.3763242122
 20
222.9106455651
  0
LWPOLYLINE
  5
1CA
330
1F
100
AcDbEntity
  8
0
  6
Continuous
 62
     7
370
    25
100
AcDbPolyline
 90
       63
 70
   128
 43
0.0
 10
332.1267965529
 20
229.4183645716
 10
333.3831106534
 20
228.6156184478
 10
334.4922996309
 20
227.7436181545
 10
335.4429817057
 20
226.8113115947
 10
336.225401593
 20
225.8282654953
 10
336.8315306061
 20
224.8045672396
 10
337.2551490412
 20
223.750721357
 10
337.4919099997
 20
222.6775417322
 10
337.5393839939
 20
221.5960406405
 10
337.3970838764
 20
220.5173157466
 10
337.0664698388
 20
219.4524362277
 10
336.5509344287
 20
218.4123291886
 10
335.855767737
 20
217.407667535
 10
334.9881031147
 20
216.448760455
 10
333.9568439748
 20
215.545447633
 10
332.7725724318
 20
214.7069982807
 10
331.4474407141
 20
213.9420160232
 10
329.9950464665
 20
213.2583506136
 10
328.4302932192
 20
212.6630173842
 10
326.7692374582
 20
212.1621252595
 10
325.0289238632
 20
211.7608140705
 10
323.2272104067
 20
211.4632018131
 10
321.382585107
 20
211.2723423918
 10
319.5139763157
 20
211.1901942826
 10
317.6405584877
 20
211.2176004361
 10
315.7815554251
 20
211.3542796281
 10
313.956043015
 20
211.5988293453
 10
312.1827534848
 20
211.9487401765
 10
310.479883185
 20
212.4004215632
 10
308.864905869
 20
212.949238643
 10
307.3543933897
 20
213.5895598101
 10
305.963845649
 20
214.3148145029
 10
304.7075315485
 20
215.1175606266
 10
303.5983425709
 20
215.9895609199
 10
302.6476604962
 20
216.9218674797
 10
301.8652406088
 20
217.9049135791
 10
301.2591115957
 20
218.9286118348
 10
300.8354931607
 20
219.9824577175
 10
300.5987322021
 20
221.0556373422
 10
300.5512582079
 20
222.1371384339
 10
300.6935583255
 20
223.2158633278
 10
301.024172363
 20
224.2807428468
 10
301.5397077731
 20
225.3208498859
 10
302.2348744648
 20
226.3255115394
 10
303.1025390872
 20
227.2844186194
 10
304.133798227
 20
228.1877314415
 10
305.3180697701
 20
229.0261807937
 10
306.6432014877
 20
229.7911630512
 10
308.0955957354
 20
230.4748284608
 10
309.6603489826
 20
231.0701616902
 10
311.3214047436
 20
231.5710538149
 10
313.0617183387
 20
231.9723650039
 10
314.8634317951
 20
232.2699772613
 10
316.7080570949
 20
232.4608366826
 10
318.5766658861
 20
232.5429847919
 10
320.4500837141
 20
232.5155786384
 10
322.3090867767
 20
232.3788994463
 10
324.1345991869
 20
232.1343497292
 10
325.907888717
 20
231.7844388979
 10
327.6107590169
 20
231.3327575113
 10
329.2257363328
 20
230.7839404314
 10
330.7362488122
 20
230.1436192643
 10
332.1267965529
 20
229.4183645716
  0
ARC
  5
1CB
330
1F
100
AcDbEntity
  8
0
  6
Continuous
 62
     7
370
    25
100
AcDbCircle
 10
306.4081388872
 20
228.7554268428
 30
0.0
 40
0.7980494431559811
100
AcDbArc
 50
67.4809199844
 51
123.8295384447
  0
LWPOLYLINE
  5
1CC
330
1F
100
AcDbEntity
  8
0
  6
PHANTOM
 62
     8
370
    18
100
AcDbPolyline
 90
       46
 70
   128
 43
0.0
 10
363.6304369355
 20
217.8197465625
 10
363.2672505589
 20
216.5292701766
 10
362.6351855713
 20
214.8868843439
 10
361.8202895435
 20
213.2715617128
 10
360.8259804328
 20
211.6900775076
 10
359.656428717
 20
210.1490650227
 10
358.3165399025
 20
208.6549878
 10
356.8119339487
 20
207.2141125187
 10
355.1489216957
 20
205.8324827104
 10
353.334478395
 20
204.5158934107
 10
351.3762144522
 20
203.2698668525
 10
349.282343507
 20
202.0996293045
 10
347.0616479816
 20
201.0100891494
 10
344.723442245
 20
200.0058162974
 10
342.2775335445
 20
199.0910230178
 10
339.7341808713
 20
198.2695462715
 10
337.1040519303
 20
197.5448316176
 10
334.3981783963
 20
196.919918761
 10
331.6279096434
 20
196.3974288036
 10
328.8048651413
 20
195.9795532497
 10
325.9408857199
 20
195.6680448147
 10
323.047983904
 20
195.4642100731
 10
320.1382935294
 20
195.3689039788
 10
317.2240188485
 20
195.3825262786
 10
314.3173833423
 20
195.5050198359
 10
311.4305784501
 20
195.7358708701
 10
308.5757124348
 20
196.0741111117
 10
305.7647595968
 20
196.5183218637
 10
303.009510049
 20
197.0666399517
 10
300.3215202656
 20
197.7167655391
 10
297.7120646099
 20
198.4659717733
 10
295.1920880458
 20
199.3111162231
 10
292.7721602307
 20
200.2486540587
 10
290.4624311828
 20
201.2746529208
 10
288.2725887085
 20
202.3848094136
 10
286.2118177681
 20
203.5744671549
 10
284.2887619512
 20
204.8386363067
 10
282.5114872221
 20
206.1720145043
 10
280.8874480887
 20
207.5690090961
 10
279.4234563355
 20
209.0237606013
 10
278.1256524527
 20
210.5301672866
 10
276.9994798808
 20
212.0819107587
 10
276.0496621789
 20
213.6724824664
 10
275.2801832127
 20
215.2952109991
 10
274.6942704441
 20
216.9432900693
 10
274.4139125183
 20
218.0210449306
  0
LWPOLYLINE
  5
1CD
330
1F
100
AcDbEntity
  8
0
  6
PHANTOM
 62
     8
370
    18
100
AcDbPolyline
 90
       49
 70
   128
 43
0.0
 10
363.3310222289
 20
216.6244609005
 10
363.2362162729
 20
214.9720981764
 10
362.9521649618
 20
213.3071880833
 10
362.4800978045
 20
211.656567452
 10
361.8220362651
 20
210.0273044933
 10
360.9807982643
 20
208.4263759614
 10
359.9599861121
 20
206.860637278
 10
358.7639710831
 20
205.3367931766
 10
357.3978746971
 20
203.8613689916
 10
355.8675467886
 20
202.4406827158
 10
354.1795404567
 20
201.0808179459
 10
352.3410840036
 20
199.7875978317
 10
350.360049982
 20
198.5665601403
 10
348.2449214839
 20
197.4229335424
 10
346.0047558142
 20
196.3616152228
 10
343.6491457061
 20
195.3871499095
 10
341.1881782438
 20
194.5037104125
 10
338.6323916678
 20
193.7150797553
 10
335.9927302485
 20
193.0246349756
 10
333.2804974215
 20
192.4353326638
 10
330.507307384
 20
191.9496963029
 10
327.6850353616
 20
191.5698054625
 10
324.8257667564
 20
191.2972868933
 10
321.9417453954
 20
191.1333075618
 10
319.0453211009
 20
191.0785696525
 10
316.1488968064
 20
191.1333075618
 10
313.2648754455
 20
191.2972868933
 10
310.4056068402
 20
191.5698054625
 10
307.5833348178
 20
191.9496963029
 10
304.8101447803
 20
192.4353326638
 10
302.0979119533
 20
193.0246349756
 10
299.4582505341
 20
193.7150797553
 10
296.9024639581
 20
194.5037104125
 10
294.4414964958
 20
195.3871499095
 10
292.0858863877
 20
196.3616152228
 10
289.8457207179
 20
197.4229335424
 10
287.7305922198
 20
198.5665601403
 10
285.7495581983
 20
199.7875978317
 10
283.9111017452
 20
201.0808179459
 10
282.2230954132
 20
202.4406827158
 10
280.6927675047
 20
203.8613689916
 10
279.3266711188
 20
205.3367931766
 10
278.1306560897
 20
206.860637278
 10
277.1098439376
 20
208.4263759614
 10
276.2686059367
 20
210.0273044933
 10
275.6105443973
 20
211.656567452
 10
275.1384772401
 20
213.3071880833
 10
274.8544259289
 20
214.9720981764
 10
274.7598720805
 20
216.5556814794
  0
LWPOLYLINE
  5
1CE
330
1F
100
AcDbEntity
  8
0
  6
PHANTOM
 62
     8
370
    18
100
AcDbPolyline
 90
       46
 70
   128
 43
0.0
 10
363.6304369355
 20
212.3422242771
 10
363.2672505589
 20
211.0517478913
 10
362.6351855713
 20
209.4093620586
 10
361.8202895435
 20
207.7940394274
 10
360.8259804328
 20
206.2125552222
 10
359.656428717
 20
204.6715427374
 10
358.3165399025
 20
203.1774655147
 10
356.8119339487
 20
201.7365902334
 10
355.1489216957
 20
200.3549604251
 10
353.334478395
 20
199.0383711253
 10
351.3762144522
 20
197.7923445672
 10
349.282343507
 20
196.6221070191
 10
347.0616479816
 20
195.5325668641
 10
344.723442245
 20
194.528294012
 10
342.2775335445
 20
193.6135007324
 10
339.7341808713
 20
192.7920239862
 10
337.1040519303
 20
192.0673093322
 10
334.3981783963
 20
191.4423964757
 10
331.6279096434
 20
190.9199065182
 10
328.8048651413
 20
190.5020309643
 10
325.9408857199
 20
190.1905225293
 10
323.047983904
 20
189.9866877878
 10
320.1382935294
 20
189.8913816935
 10
317.2240188485
 20
189.9050039933
 10
314.3173833423
 20
190.0274975506
 10
311.4305784501
 20
190.2583485848
 10
308.5757124348
 20
190.5965888264
 10
305.7647595968
 20
191.0407995783
 10
303.009510049
 20
191.5891176663
 10
300.3215202656
 20
192.2392432538
 10
297.7120646099
 20
192.988449488
 10
295.1920880458
 20
193.8335939377
 10
292.7721602307
 20
194.7711317734
 10
290.4624311828
 20
195.7971306355
 10
288.2725887085
 20
196.9072871283
 10
286.2118177681
 20
198.0969448696
 10
284.2887619512
 20
199.3611140214
 10
282.5114872221
 20
200.694492219
 10
280.8874480887
 20
202.0914868108
 10
279.4234563355
 20
203.546238316
 10
278.1256524527
 20
205.0526450013
 10
276.9994798808
 20
206.6043884734
 10
276.0496621789
 20
208.1949601811
 10
275.2801832127
 20
209.8176887137
 10
274.6942704441
 20
211.465767784
 10
274.4139125183
 20
212.5435226453
  0
LWPOLYLINE
  5
1CF
330
1F
100
AcDbEntity
  8
0
  6
PHANTOM
 62
     8
370
    18
100
AcDbPolyline
 90
       46
 70
   128
 43
0.0
 10
360.8607689205
 20
229.553133728
 10
360.8486835415
 20
229.6131484933
 10
360.4272234169
 20
231.2186934722
 10
359.8209416709
 20
232.8044021761
 10
359.0325461051
 20
234.3631924447
 10
358.0655578853
 20
235.8881023425
 10
356.9242958158
 20
237.3723212516
 10
355.6138570499
 20
238.8092202901
 10
354.1400943253
 20
240.192381918
 10
352.5095898241
 20
241.5156285998
 10
350.7296257752
 20
242.7730503945
 10
348.8081519302
 20
243.9590313513
 10
346.7537500576
 20
245.0682745911
 10
344.575595615
 20
246.0958259645
 10
342.2834167689
 20
247.0370961775
 10
339.8874509464
 20
247.8878812889
 10
337.3983991124
 20
248.6443814859
 10
334.8273779768
 20
249.3032180549
 10
332.185870344
 20
249.8614484719
 10
329.4856738284
 20
250.3165795444
 10
326.7388481631
 20
250.6665785464
 10
323.9576613383
 20
250.9098822974
 10
321.1545348095
 20
251.0454041439
 10
318.3419880203
 20
251.0725388124
 10
315.5325824873
 20
250.9911651129
 10
312.7388656977
 20
250.80164648
 10
309.9733150689
 20
250.5048293501
 10
307.2482822212
 20
250.1020393803
 10
304.575937813
 20
249.5950755286
 10
301.968217183
 20
248.9862020185
 10
299.4367670447
 20
248.278138227
 10
296.9928934688
 20
247.4740465389
 10
294.647511388
 20
246.5775182227
 10
292.4110958481
 20
245.5925573916
 10
290.2936352237
 20
244.5235631199
 10
288.304586608
 20
243.3753097953
 10
286.452833575
 20
242.152925796
 10
284.7466465032
 20
240.8618705857
 10
283.1936456383
 20
239.5079103303
 10
281.8007670592
 20
238.0970921451
 10
280.5742316996
 20
236.6357170864
 10
279.5195175643
 20
235.1303120102
 10
278.6413352627
 20
233.5876004209
 10
277.94360697
 20
232.0144724429
 10
277.4294489102
 20
230.4179540477
 10
277.2298732814
 20
229.553133728
  0
LINE
  5
1D0
330
1F
100
AcDbEntity
  8
0
  6
Continuous
 62
     7
370
    25
100
AcDbLine
 10
182.3661676941
 20
248.3417707094
 30
0.0
 11
97.3726876941
 21
248.3417707094
 31
0.0
  0
LINE
  5
1D1
330
1F
100
AcDbEntity
  8
0
  6
Continuous
 62
     7
370
    25
100
AcDbLine
 10
114.6273082378
 20
212.6219487094
 30
0.0
 11
119.8694276941
 21
212.6219487094
 31
0.0
  0
LINE
  5
1D2
330
1F
100
AcDbEntity
  8
0
  6
Continuous
 62
     7
370
    25
100
AcDbLine
 10
119.8694276941
 20
217.6219487094
 30
0.0
 11
114.6249339618
 21
217.6219487094
 31
0.0
  0
LINE
  5
1D3
330
1F
100
AcDbEntity
  8
0
  6
Continuous
 62
     7
370
    25
100
AcDbLine
 10
165.1139214264
 20
217.6219487094
 30
0.0
 11
159.8694276941
 21
217.6219487094
 31
0.0
  0
LINE
  5
1D4
330
1F
100
AcDbEntity
  8
0
  6
Continuous
 62
     7
370
    25
100
AcDbLine
 10
159.8694276941
 20
212.6219487094
 30
0.0
 11
165.1139214264
 21
212.6219487094
 31
0.0
  0
LINE
  5
1D5
330
1F
100
AcDbEntity
  8
0
  6
Continuous
 62
     7
370
    25
100
AcDbLine
 10
184.8694276941
 20
241.4760506757
 30
0.0
 11
184.8694276941
 21
258.6219487094
 31
0.0
  0
LINE
  5
1D6
330
1F
100
AcDbEntity
  8
0
  6
Continuous
 62
     7
370
    25
100
AcDbLine
 10
94.8694276941
 20
258.6219487094
 30
0.0
 11
94.8694276941
 21
241.4760506757
 31
0.0
  0
LINE
  5
1D7
330
1F
100
AcDbEntity
  8
0
  6
Continuous
 62
     7
370
    25
100
AcDbLine
 10
97.9411863856
 20
138.6219487094
 30
0.0
 11
181.7976690025
 21
138.6219487094
 31
0.0
  0
LINE
  5
1D8
330
1F
100
AcDbEntity
  8
0
  6
Continuous
 62
     7
370
    25
100
AcDbLine
 10
97.9411863856
 20
138.6219487094
 30
0.0
 11
96.8694276941
 21
142.5874558681
 31
0.0
  0
LINE
  5
1D9
330
1F
100
AcDbEntity
  8
0
  6
Continuous
 62
     7
370
    25
100
AcDbLine
 10
96.8694276941
 20
142.5874558681
 30
0.0
 11
182.8694276941
 21
142.5874558681
 31
0.0
  0
LINE
  5
1DA
330
1F
100
AcDbEntity
  8
0
  6
Continuous
 62
     7
370
    25
100
AcDbLine
 10
182.8694276941
 20
142.5874558681
 30
0.0
 11
181.7976690025
 21
138.6219487094
 31
0.0
  0
LINE
  5
1DB
330
1F
100
AcDbEntity
  8
0
  6
Continuous
 62
     7
370
    25
100
AcDbLine
 10
96.8694276941
 20
234.0908198353
 30
0.0
 11
119.8694276941
 21
234.0908198353
 31
0.0
  0
LINE
  5
1DC
330
1F
100
AcDbEntity
  8
0
  6
Continuous
 62
     7
370
    25
100
AcDbLine
 10
159.8694276941
 20
234.0908198353
 30
0.0
 11
182.8694276941
 21
234.0908198353
 31
0.0
  0
LINE
  5
1DD
330
1F
100
AcDbEntity
  8
0
  6
Continuous
 62
     7
370
    25
100
AcDbLine
 10
182.8694276941
 20
234.0908198353
 30
0.0
 11
182.8694276941
 21
142.5874558681
 31
0.0
  0
LINE
  5
1DE
330
1F
100
AcDbEntity
  8
0
  6
Continuous
 62
     7
370
    25
100
AcDbLine
 10
96.8694276941
 20
142.5874558681
 30
0.0
 11
96.8694276941
 21
234.0908198353
 31
0.0
  0
ARC
  5
1DF
330
1F
100
AcDbEntity
  8
0
  6
Continuous
 62
     7
370
    25
100
AcDbCircle
 10
183.8694276941
 20
234.7678467432
 30
0.0
 40
0.9999999999999942
100
AcDbArc
 50
0.0
 51
73.398450401
  0
ARC
  5
1E0
330
1F
100
AcDbEntity
  8
0
  6
Continuous
 62
     7
370
    25
100
AcDbCircle
 10
95.8694276941
 20
234.7678467432
 30
0.0
 40
0.9999999999999902
100
AcDbArc
 50
106.601549599
 51
180.0
  0
LINE
  5
1E1
330
1F
100
AcDbEntity
  8
0
  6
Continuous
 62
     7
370
    25
100
AcDbLine
 10
184.8694276941
 20
142.3219487094
 30
0.0
 11
184.8694276941
 21
234.7678467432
 31
0.0
  0
LINE
  5
1E2
330
1F
100
AcDbEntity
  8
0
  6
Continuous
 62
     7
370
    25
100
AcDbLine
 10
94.8694276941
 20
234.7678467432
 30
0.0
 11
94.8694276941
 21
142.3219487094
 31
0.0
  0
ARC
  5
1E3
330
1F
100
AcDbEntity
  8
0
  6
Continuous
 62
     7
370
    25
100
AcDbCircle
 10
183.8694276941
 20
241.4760506757
 30
0.0
 40
1.0
100
AcDbArc
 50
286.601549599
 51
0.0
  0
ARC
  5
1E4
330
1F
100
AcDbEntity
  8
0
  6
Continuous
 62
     7
370
    25
100
AcDbCircle
 10
184.8694276941
 20
238.1219487094
 30
0.0
 40
2.500000000000035
100
AcDbArc
 50
106.601549599
 51
253.398450401
  0
LINE
  5
1E5
330
1F
100
AcDbEntity
  8
0
  6
Continuous
 62
     7
370
    25
100
AcDbLine
 10
183.8694276941
 20
138.6219487094
 30
0.0
 11
184.8694276941
 21
142.3219487094
 31
0.0
  0
LINE
  5
1E6
330
1F
100
AcDbEntity
  8
0
  6
Continuous
 62
     7
370
    25
100
AcDbLine
 10
181.7976690025
 20
138.6219487094
 30
0.0
 11
183.8694276941
 21
138.6219487094
 31
0.0
  0
ARC
  5
1E7
330
1F
100
AcDbEntity
  8
0
  6
Continuous
 62
     7
370
    25
100
AcDbCircle
 10
184.8694276941
 20
238.1219487094
 30
0.0
 40
4.5
100
AcDbArc
 50
116.3877999612
 51
243.6122000388
  0
LINE
  5
1E8
330
1F
100
AcDbEntity
  8
0
  6
Continuous
 62
     7
370
    25
100
AcDbLine
 10
182.8694276941
 20
258.6219487094
 30
0.0
 11
182.8694276941
 21
242.1530775836
 31
0.0
  0
LINE
  5
1E9
330
1F
100
AcDbEntity
  8
0
  6
Continuous
 62
     7
370
    25
100
AcDbLine
 10
184.8694276941
 20
258.6219487094
 30
0.0
 11
182.8694276941
 21
258.6219487094
 31
0.0
  0
ARC
  5
1EA
330
1F
100
AcDbEntity
  8
0
  6
Continuous
 62
     7
370
    25
100
AcDbCircle
 10
94.8694276941
 20
238.1219487094
 30
0.0
 40
4.5
100
AcDbArc
 50
296.3877999612
 51
63.6122000388
  0
LINE
  5
1EB
330
1F
100
AcDbEntity
  8
0
  6
Continuous
 62
     7
370
    25
100
AcDbLine
 10
95.8694276941
 20
138.6219487094
 30
0.0
 11
97.9411863856
 21
138.6219487094
 31
0.0
  0
LINE
  5
1EC
330
1F
100
AcDbEntity
  8
0
  6
Continuous
 62
     7
370
    25
100
AcDbLine
 10
94.8694276941
 20
142.3219487094
 30
0.0
 11
95.8694276941
 21
138.6219487094
 31
0.0
  0
ARC
  5
1ED
330
1F
100
AcDbEntity
  8
0
  6
Continuous
 62
     7
370
    25
100
AcDbCircle
 10
94.8694276941
 20
238.1219487094
 30
0.0
 40
2.500000000000035
100
AcDbArc
 50
286.601549599
 51
73.398450401
  0
ARC
  5
1EE
330
1F
100
AcDbEntity
  8
0
  6
Continuous
 62
     7
370
    25
100
AcDbCircle
 10
95.8694276941
 20
241.4760506757
 30
0.0
 40
0.9999999999999858
100
AcDbArc
 50
180.0
 51
253.398450401
  0
LINE
  5
1EF
330
1F
100
AcDbEntity
  8
0
  6
Continuous
 62
     7
370
    25
100
AcDbLine
 10
96.8694276941
 20
242.1530775836
 30
0.0
 11
96.8694276941
 21
258.6219487094
 31
0.0
  0
LINE
  5
1F0
330
1F
100
AcDbEntity
  8
0
  6
Continuous
 62
     7
370
    25
100
AcDbLine
 10
96.8694276941
 20
258.6219487094
 30
0.0
 11
94.8694276941
 21
258.6219487094
 31
0.0
  0
LINE
  5
1F1
330
1F
100
AcDbEntity
  8
0
  6
Continuous
 62
     7
370
    25
100
AcDbLine
 10
96.8694276941
 20
242.1530775836
 30
0.0
 11
97.6161280843
 21
242.1530775836
 31
0.0
  0
LINE
  5
1F2
330
1F
100
AcDbEntity
  8
0
  6
Continuous
 62
     7
370
    25
100
AcDbLine
 10
182.1227273038
 20
242.1530775836
 30
0.0
 11
182.8694276941
 21
242.1530775836
 31
0.0
  0
LINE
  5
1F3
330
1F
100
AcDbEntity
  8
0
  6
Continuous
 62
     7
370
    25
100
AcDbLine
 10
96.8694276941
 20
258.6219487094
 30
0.0
 11
182.8694276941
 21
258.6219487094
 31
0.0
  0
ARC
  5
1F4
330
1F
100
AcDbEntity
  8
0
  6
Continuous
 62
     7
370
    25
100
AcDbCircle
 10
182.3661676941
 20
247.8388507094
 30
0.0
 40
0.502919999999764
100
AcDbArc
 50
0.0
 51
143.7815835926
  0
LINE
  5
1F5
330
1F
100
AcDbEntity
  8
0
  6
Continuous
 62
     7
370
    25
100
AcDbLine
 10
182.8690876941
 20
247.8388507094
 30
0.0
 11
184.1263876941
 21
247.8388507094
 31
0.0
  0
LINE
  5
1F6
330
1F
100
AcDbEntity
  8
0
  6
Continuous
 62
     7
370
    25
100
AcDbLine
 10
184.1263876941
 20
247.8388507094
 30
0.0
 11
182.5414354934
 21
245.3242507094
 31
0.0
  0
LINE
  5
1F7
330
1F
100
AcDbEntity
  8
0
  6
Continuous
 62
     7
370
    25
100
AcDbLine
 10
182.5414354934
 20
245.3242507094
 30
0.0
 11
181.6694989243
 21
238.7204586552
 31
0.0
  0
ARC
  5
1F8
330
1F
100
AcDbEntity
  8
0
  6
Continuous
 62
     7
370
    25
100
AcDbCircle
 10
181.1709062378
 20
238.7862907094
 30
0.0
 40
0.5029199999994001
100
AcDbArc
 50
270.0
 51
352.4784170158
  0
LINE
  5
1F9
330
1F
100
AcDbEntity
  8
0
  6
Continuous
 62
     7
370
    25
100
AcDbLine
 10
181.1709062378
 20
238.2833707094
 30
0.0
 11
175.5767476941
 21
238.2833707094
 31
0.0
  0
LINE
  5
1FA
330
1F
100
AcDbEntity
  8
0
  6
Continuous
 62
     7
370
    25
100
AcDbLine
 10
175.5767476941
 20
238.2833707094
 30
0.0
 11
175.5767476941
 21
240.6219487094
 31
0.0
  0
LINE
  5
1FB
330
1F
100
AcDbEntity
  8
0
  6
Continuous
 62
     7
370
    25
100
AcDbLine
 10
175.5767476941
 20
240.6219487094
 30
0.0
 11
180.6059476941
 21
240.6219487094
 31
0.0
  0
LINE
  5
1FC
330
1F
100
AcDbEntity
  8
0
  6
Continuous
 62
     7
370
    25
100
AcDbLine
 10
180.6059476941
 20
240.6219487094
 30
0.0
 11
180.6059476941
 21
242.2312927094
 31
0.0
  0
LINE
  5
1FD
330
1F
100
AcDbEntity
  8
0
  6
Continuous
 62
     7
370
    25
100
AcDbLine
 10
180.6059476941
 20
242.2312927094
 30
0.0
 11
175.5767476941
 21
242.2312927094
 31
0.0
  0
LINE
  5
1FE
330
1F
100
AcDbEntity
  8
0
  6
Continuous
 62
     7
370
    25
100
AcDbLine
 10
175.5767476941
 20
242.2312927094
 30
0.0
 11
175.5767476941
 21
244.5698707094
 31
0.0
  0
LINE
  5
1FF
330
1F
100
AcDbEntity
  8
0
  6
Continuous
 62
     7
370
    25
100
AcDbLine
 10
175.5767476941
 20
244.5698707094
 30
0.0
 11
179.3486476941
 21
244.5698707094
 31
0.0
  0
LINE
  5
200
330
1F
100
AcDbEntity
  8
0
  6
Continuous
 62
     7
370
    25
100
AcDbLine
 10
179.3486476941
 20
244.5698707094
 30
0.0
 11
181.9604267075
 21
248.1360085432
 31
0.0
  0
LINE
  5
201
330
1F
100
AcDbEntity
  8
0
  6
Continuous
 62
     7
370
    25
100
AcDbLine
 10
100.3902076941
 20
244.5698707094
 30
0.0
 11
104.1621076941
 21
244.5698707094
 31
0.0
  0
LINE
  5
202
330
1F
100
AcDbEntity
  8
0
  6
Continuous
 62
     7
370
    25
100
AcDbLine
 10
104.1621076941
 20
244.5698707094
 30
0.0
 11
104.1621076941
 21
242.2312927094
 31
0.0
  0
LINE
  5
203
330
1F
100
AcDbEntity
  8
0
  6
Continuous
 62
     7
370
    25
100
AcDbLine
 10
104.1621076941
 20
242.2312927094
 30
0.0
 11
99.1329076941
 21
242.2312927094
 31
0.0
  0
LINE
  5
204
330
1F
100
AcDbEntity
  8
0
  6
Continuous
 62
     7
370
    25
100
AcDbLine
 10
99.1329076941
 20
242.2312927094
 30
0.0
 11
99.1329076941
 21
240.6219487094
 31
0.0
  0
LINE
  5
205
330
1F
100
AcDbEntity
  8
0
  6
Continuous
 62
     7
370
    25
100
AcDbLine
 10
99.1329076941
 20
240.6219487094
 30
0.0
 11
104.1621076941
 21
240.6219487094
 31
0.0
  0
LINE
  5
206
330
1F
100
AcDbEntity
  8
0
  6
Continuous
 62
     7
370
    25
100
AcDbLine
 10
104.1621076941
 20
240.6219487094
 30
0.0
 11
104.1621076941
 21
238.2833707094
 31
0.0
  0
LINE
  5
207
330
1F
100
AcDbEntity
  8
0
  6
Continuous
 62
     7
370
    25
100
AcDbLine
 10
104.1621076941
 20
238.2833707094
 30
0.0
 11
98.5679491503
 21
238.2833707094
 31
0.0
  0
ARC
  5
208
330
1F
100
AcDbEntity
  8
0
  6
Continuous
 62
     7
370
    25
100
AcDbCircle
 10
98.5679491503
 20
238.7862907094
 30
0.0
 40
0.5029199999994001
100
AcDbArc
 50
187.5215829842
 51
270.0
  0
LINE
  5
209
330
1F
100
AcDbEntity
  8
0
  6
Continuous
 62
     7
370
    25
100
AcDbLine
 10
98.0693564638
 20
238.7204586552
 30
0.0
 11
97.1974198948
 21
245.3242507094
 31
0.0
  0
LINE
  5
20A
330
1F
100
AcDbEntity
  8
0
  6
Continuous
 62
     7
370
    25
100
AcDbLine
 10
97.1974198948
 20
245.3242507094
 30
0.0
 11
95.6124676941
 21
247.8388507094
 31
0.0
  0
LINE
  5
20B
330
1F
100
AcDbEntity
  8
0
  6
Continuous
 62
     7
370
    25
100
AcDbLine
 10
95.6124676941
 20
247.8388507094
 30
0.0
 11
96.8697676941
 21
247.8388507094
 31
0.0
  0
ARC
  5
20C
330
1F
100
AcDbEntity
  8
0
  6
Continuous
 62
     7
370
    25
100
AcDbCircle
 10
97.3726876941
 20
247.8388507094
 30
0.0
 40
0.5029199999997758
100
AcDbArc
 50
36.2184164074
 51
180.0
  0
LINE
  5
20D
330
1F
100
AcDbEntity
  8
0
  6
Continuous
 62
     7
370
    25
100
AcDbLine
 10
97.7784286807
 20
248.1360085432
 30
0.0
 11
100.3902076941
 21
244.5698707094
 31
0.0
  0
LINE
  5
20E
330
1F
100
AcDbEntity
  8
0
  6
Continuous
 62
     7
370
    25
100
AcDbLine
 10
175.5767476941
 20
242.2312927094
 30
0.0
 11
104.1621076941
 21
242.2312927094
 31
0.0
  0
LINE
  5
20F
330
1F
100
AcDbEntity
  8
0
  6
Continuous
 62
     7
370
    25
100
AcDbLine
 10
175.5767476941
 20
244.5698707094
 30
0.0
 11
104.1621076941
 21
244.5698707094
 31
0.0
  0
LINE
  5
210
330
1F
100
AcDbEntity
  8
0
  6
Continuous
 62
     7
370
    25
100
AcDbLine
 10
181.9604267075
 20
248.1360085432
 30
0.0
 11
97.7784286807
 21
248.1360085432
 31
0.0
  0
LINE
  5
211
330
1F
100
AcDbEntity
  8
0
  6
Continuous
 62
     7
370
    25
100
AcDbLine
 10
175.5767476941
 20
238.2833707094
 30
0.0
 11
159.8694276941
 21
238.2833707094
 31
0.0
  0
LINE
  5
212
330
1F
100
AcDbEntity
  8
0
  6
Continuous
 62
     7
370
    25
100
AcDbLine
 10
119.8694276941
 20
238.2833707094
 30
0.0
 11
104.1621076941
 21
238.2833707094
 31
0.0
  0
LINE
  5
213
330
1F
100
AcDbEntity
  8
0
  6
Continuous
 62
     7
370
    25
100
AcDbLine
 10
110.7194276941
 20
217.1219487094
 30
0.0
 11
113.9082322643
 21
217.1219487094
 31
0.0
  0
LWPOLYLINE
  5
214
330
1F
100
AcDbEntity
  8
0
  6
Continuous
 62
     7
370
    25
100
AcDbPolyline
 90
        9
 70
   128
 43
0.0
 10
114.6278252022
 20
212.6561549381
 10
114.3817636768
 20
212.6710961287
 10
114.0119700859
 20
212.9708417105
 10
113.7227416513
 20
213.5123752437
 10
113.5370607304
 20
214.236995771
 10
113.4681141992
 20
215.0611890456
 10
113.5194067174
 20
215.8896267147
 10
113.687394922
 20
216.6313426778
 10
113.9082322643
 20
217.1219487094
  0
LWPOLYLINE
  5
215
330
1F
100
AcDbEntity
  8
0
  6
Continuous
 62
     7
370
    25
100
AcDbPolyline
 90
        9
 70
   128
 43
0.0
 10
165.8306231239
 20
217.1219487094
 10
165.9525749922
 20
216.8872828798
 10
166.1658577289
 20
216.201582863
 10
166.264757094
 20
215.3935386824
 10
166.2435048063
 20
214.557263923
 10
166.1041490576
 20
213.7857897695
 10
165.8546316633
 20
213.1626708796
 10
165.5121390109
 20
212.7588430779
 10
165.113753668
 20
212.6239794175
  0
LINE
  5
216
330
1F
100
AcDbEntity
  8
0
  6
Continuous
 62
     7
370
    25
100
AcDbLine
 10
165.8306231239
 20
217.1219487094
 30
0.0
 11
169.0194276941
 21
217.1219487094
 31
0.0
  0
LINE
  5
217
330
1F
100
AcDbEntity
  8
0
  6
Continuous
 62
     7
370
    25
100
AcDbLine
 10
169.0194276941
 20
217.1219487094
 30
0.0
 11
169.0194276941
 21
153.1219487094
 31
0.0
  0
LINE
  5
218
330
1F
100
AcDbEntity
  8
0
  6
Continuous
 62
     7
370
    25
100
AcDbLine
 10
110.7194276941
 20
153.1219487094
 30
0.0
 11
110.7194276941
 21
217.1219487094
 31
0.0
  0
LINE
  5
219
330
1F
100
AcDbEntity
  8
0
  6
Continuous
 62
     7
370
    25
100
AcDbLine
 10
99.3694276941
 20
240.6219487094
 30
0.0
 11
119.8694276941
 21
240.6219487094
 31
0.0
  0
LINE
  5
21A
330
1F
100
AcDbEntity
  8
0
  6
Continuous
 62
     7
370
    25
100
AcDbLine
 10
99.3694276941
 20
242.1219487094
 30
0.0
 11
99.3694276941
 21
240.6219487094
 31
0.0
  0
LINE
  5
21B
330
1F
100
AcDbEntity
  8
0
  6
Continuous
 62
     7
370
    25
100
AcDbLine
 10
121.3694276941
 20
242.1219487094
 30
0.0
 11
99.3694276941
 21
242.1219487094
 31
0.0
  0
LINE
  5
21C
330
1F
100
AcDbEntity
  8
0
  6
Continuous
 62
     7
370
    25
100
AcDbLine
 10
121.3694276941
 20
167.1219487094
 30
0.0
 11
121.3694276941
 21
242.1219487094
 31
0.0
  0
LINE
  5
21D
330
1F
100
AcDbEntity
  8
0
  6
Continuous
 62
     7
370
    25
100
AcDbLine
 10
119.8694276941
 20
167.1219487094
 30
0.0
 11
121.3694276941
 21
167.1219487094
 31
0.0
  0
LINE
  5
21E
330
1F
100
AcDbEntity
  8
0
  6
Continuous
 62
     7
370
    25
100
AcDbLine
 10
119.8694276941
 20
240.6219487094
 30
0.0
 11
119.8694276941
 21
167.1219487094
 31
0.0
  0
LINE
  5
21F
330
1F
100
AcDbEntity
  8
0
  6
Continuous
 62
     7
370
    25
100
AcDbLine
 10
180.3694276941
 20
242.1219487094
 30
0.0
 11
158.3694276941
 21
242.1219487094
 31
0.0
  0
LINE
  5
220
330
1F
100
AcDbEntity
  8
0
  6
Continuous
 62
     7
370
    25
100
AcDbLine
 10
180.3694276941
 20
240.6219487094
 30
0.0
 11
180.3694276941
 21
242.1219487094
 31
0.0
  0
LINE
  5
221
330
1F
100
AcDbEntity
  8
0
  6
Continuous
 62
     7
370
    25
100
AcDbLine
 10
159.8694276941
 20
240.6219487094
 30
0.0
 11
180.3694276941
 21
240.6219487094
 31
0.0
  0
LINE
  5
222
330
1F
100
AcDbEntity
  8
0
  6
Continuous
 62
     7
370
    25
100
AcDbLine
 10
159.8694276941
 20
167.1219487094
 30
0.0
 11
159.8694276941
 21
240.6219487094
 31
0.0
  0
LINE
  5
223
330
1F
100
AcDbEntity
  8
0
  6
Continuous
 62
     7
370
    25
100
AcDbLine
 10
158.3694276941
 20
167.1219487094
 30
0.0
 11
159.8694276941
 21
167.1219487094
 31
0.0
  0
LINE
  5
224
330
1F
100
AcDbEntity
  8
0
  6
Continuous
 62
     7
370
    25
100
AcDbLine
 10
158.3694276941
 20
242.1219487094
 30
0.0
 11
158.3694276941
 21
167.1219487094
 31
0.0
  0
LINE
  5
225
330
1F
100
AcDbEntity
  8
0
  6
Continuous
 62
     7
370
    25
100
AcDbLine
 10
121.3694276941
 20
167.1219487094
 30
0.0
 11
158.3694276941
 21
167.1219487094
 31
0.0
  0
LINE
  5
226
330
1F
100
AcDbEntity
  8
0
  6
Continuous
 62
     7
370
    25
100
AcDbLine
 10
110.7194276941
 20
217.1219487094
 30
0.0
 11
109.7194276941
 21
217.1219487094
 31
0.0
  0
LINE
  5
227
330
1F
100
AcDbEntity
  8
0
  6
Continuous
 62
     7
370
    25
100
AcDbLine
 10
169.0194276941
 20
153.1219487094
 30
0.0
 11
110.7194276941
 21
153.1219487094
 31
0.0
  0
LINE
  5
228
330
1F
100
AcDbEntity
  8
0
  6
Continuous
 62
     7
370
    25
100
AcDbLine
 10
170.0194276941
 20
217.1219487094
 30
0.0
 11
169.0194276941
 21
217.1219487094
 31
0.0
  0
LINE
  5
229
330
1F
100
AcDbEntity
  8
0
  6
Continuous
 62
     7
370
    25
100
AcDbLine
 10
170.0194276941
 20
152.1219487094
 30
0.0
 11
170.0194276941
 21
217.1219487094
 31
0.0
  0
LINE
  5
22A
330
1F
100
AcDbEntity
  8
0
  6
Continuous
 62
     7
370
    25
100
AcDbLine
 10
109.7194276941
 20
152.1219487094
 30
0.0
 11
170.0194276941
 21
152.1219487094
 31
0.0
  0
LINE
  5
22B
330
1F
100
AcDbEntity
  8
0
  6
Continuous
 62
     7
370
    25
100
AcDbLine
 10
109.7194276941
 20
217.1219487094
 30
0.0
 11
109.7194276941
 21
152.1219487094
 31
0.0
  0
LWPOLYLINE
  5
22C
330
1F
100
AcDbEntity
  8
0
  6
Continuous
 62
     7
370
    25
100
AcDbPolyline
 90
        3
 70
   128
 43
0.0
 10
113.9082322643
 20
217.1219487094
 10
114.2267163772
 20
217.4850543409
 10
114.6251017201
 20
217.6199180013
  0
LWPOLYLINE
  5
22D
330
1F
100
AcDbEntity
  8
0
  6
Continuous
 62
     7
370
    25
100
AcDbPolyline
 90
        4
 70
   128
 43
0.0
 10
165.1140891848
 20
217.6199180013
 10
165.1202854324
 20
217.6219177633
 10
165.5220774473
 20
217.477732996
 10
165.8306231239
 20
217.1219487094
  0
LINE
  5
22E
330
1F
100
AcDbEntity
  8
0
  6
Continuous
 62
     7
370
    25
100
AcDbLine
 10
121.3694276941
 20
239.1219487094
 30
0.0
 11
158.3694276941
 21
239.1219487094
 31
0.0
  0
LINE
  5
22F
330
1F
100
AcDbEntity
  8
0
  6
Continuous
 62
     7
370
    25
100
AcDbLine
 10
158.3694276941
 20
242.1219487094
 30
0.0
 11
121.3694276941
 21
242.1219487094
 31
0.0
  0
LINE
  5
230
330
1F
100
AcDbEntity
  8
0
  6
Continuous
 62
     7
370
    25
100
AcDbLine
 10
158.3694276941
 20
242.1219487094
 30
0.0
 11
158.3694276941
 21
239.1219487094
 31
0.0
  0
LINE
  5
231
330
1F
100
AcDbEntity
  8
0
  6
Continuous
 62
     7
370
    25
100
AcDbLine
 10
121.3694276941
 20
242.1219487094
 30
0.0
 11
121.3694276941
 21
239.1219487094
 31
0.0
  0
HATCH
  5
232
330
1F
100
AcDbEntity
  8
0
  6
Continuous
 62
     7
370
    18
100
AcDbHatch
 10
0.0
 20
0.0
 30
0.0
210
0.0
220
0.0
230
1.0
  2
ANSI31
 70
     0
 71
     0
 91
        1
 92
        0
 93
        4
 72
     1
 10
158.3694276940675
 20
239.1219487094248
 11
158.3694276940675
 21
242.1219487094248
 72
     1
 10
158.3694276940675
 20
242.1219487094248
 11
121.3694276940675
 21
242.1219487094248
 72
     1
 10
121.3694276940675
 20
242.1219487094248
 11
121.3694276940675
 21
239.1219487094248
 72
     1
 10
121.3694276940675
 20
239.1219487094248
 11
158.3694276940675
 21
239.1219487094248
 97
        0
 75
     0
 76
     1
 52
0.0
 41
1.0
 77
     0
 78
     1
 53
45.0
 43
0.0
 44
0.0
 45
-2.245064030267288
 46
2.245064030267288
 79
     0
 98
        1
 10
0.0
 20
0.0
  0
HATCH
  5
233
330
1F
100
AcDbEntity
  8
0
  6
Continuous
 62
     7
370
    18
100
AcDbHatch
 10
0.0
 20
0.0
 30
0.0
210
0.0
220
0.0
230
1.0
  2
ANSI31
 70
     0
 71
     0
 91
        1
 92
        0
 93
        8
 72
     1
 10
109.7194276940675
 20
217.1219487094249
 11
109.7194276940675
 21
152.1219487094249
 72
     1
 10
109.7194276940675
 20
152.1219487094249
 11
170.0194276940675
 21
152.1219487094249
 72
     1
 10
170.0194276940675
 20
152.1219487094249
 11
170.0194276940675
 21
217.1219487094249
 72
     1
 10
170.0194276940675
 20
217.1219487094249
 11
169.0194276940675
 21
217.1219487094249
 72
     1
 10
169.0194276940675
 20
217.1219487094249
 11
169.0194276940675
 21
153.1219487094249
 72
     1
 10
169.0194276940675
 20
153.1219487094249
 11
110.7194276940675
 21
153.1219487094249
 72
     1
 10
110.7194276940675
 20
153.1219487094249
 11
110.7194276940675
 21
217.1219487094249
 72
     1
 10
110.7194276940675
 20
217.1219487094249
 11
109.7194276940675
 21
217.1219487094249
 97
        0
 75
     0
 76
     1
 52
0.0
 41
1.0
 77
     0
 78
     1
 53
45.0
 43
0.0
 44
0.0
 45
-2.245064030267288
 46
2.245064030267288
 79
     0
 98
        1
 10
0.0
 20
0.0
  0
HATCH
  5
234
330
1F
100
AcDbEntity
  8
0
  6
Continuous
 62
     7
370
    18
100
AcDbHatch
 10
0.0
 20
0.0
 30
0.0
210
0.0
220
0.0
230
1.0
  2
ANSI31
 70
     0
 71
     0
 91
        1
 92
        0
 93
        6
 72
     1
 10
158.3694276940675
 20
242.1219487094248
 11
158.3694276940675
 21
167.1219487094249
 72
     1
 10
158.3694276940675
 20
167.1219487094249
 11
159.8694276940675
 21
167.1219487094249
 72
     1
 10
159.8694276940675
 20
167.1219487094249
 11
159.8694276940675
 21
240.6219487094248
 72
     1
 10
159.8694276940675
 20
240.6219487094248
 11
180.3694276940675
 21
240.6219487094248
 72
     1
 10
180.3694276940675
 20
240.6219487094248
 11
180.3694276940675
 21
242.1219487094248
 72
     1
 10
180.3694276940675
 20
242.1219487094248
 11
158.3694276940675
 21
242.1219487094248
 97
        0
 75
     0
 76
     1
 52
0.0
 41
1.0
 77
     0
 78
     1
 53
45.0
 43
0.0
 44
0.0
 45
-2.245064030267288
 46
2.245064030267288
 79
     0
 98
        1
 10
0.0
 20
0.0
  0
HATCH
  5
235
330
1F
100
AcDbEntity
  8
0
  6
Continuous
 62
     7
370
    18
100
AcDbHatch
 10
0.0
 20
0.0
 30
0.0
210
0.0
220
0.0
230
1.0
  2
ANSI31
 70
     0
 71
     0
 91
        1
 92
        0
 93
        6
 72
     1
 10
119.8694276940675
 20
240.6219487094248
 11
119.8694276940675
 21
167.1219487094249
 72
     1
 10
119.8694276940675
 20
167.1219487094249
 11
121.3694276940675
 21
167.1219487094249
 72
     1
 10
121.3694276940675
 20
167.1219487094249
 11
121.3694276940675
 21
242.1219487094248
 72
     1
 10
121.3694276940675
 20
242.1219487094248
 11
99.36942769406748
 21
242.1219487094248
 72
     1
 10
99.36942769406748
 20
242.1219487094248
 11
99.36942769406748
 21
240.6219487094248
 72
     1
 10
99.36942769406748
 20
240.6219487094248
 11
119.8694276940675
 21
240.6219487094248
 97
        0
 75
     0
 76
     1
 52
0.0
 41
1.0
 77
     0
 78
     1
 53
45.0
 43
0.0
 44
0.0
 45
-2.245064030267288
 46
2.245064030267288
 79
     0
 98
        1
 10
0.0
 20
0.0
  0
HATCH
  5
236
330
1F
100
AcDbEntity
  8
0
  6
Continuous
 62
     7
370
    18
100
AcDbHatch
 10
0.0
 20
0.0
 30
0.0
210
0.0
220
0.0
230
1.0
  2
DIN 128 Elastomer-Rubber
 70
     0
 71
     0
 91
        1
 92
        0
 93
       13
 72
     1
 10
100.3902076940631
 20
244.5698707094248
 11
97.7784286806731
 21
248.1360085432161
 72
     2
 10
97.3726876940636
 20
247.8388507094225
 40
0.5029199999997649
 50
36.2184164074141
 51
180.0
 73
     1
 72
     1
 10
96.86976769406382
 20
247.8388507094225
 11
95.61246769406382
 21
247.8388507094225
 72
     1
 10
95.61246769406382
 20
247.8388507094225
 11
97.19741989476177
 21
245.3242507094225
 72
     1
 10
97.19741989476177
 20
245.3242507094225
 11
98.06935646380389
 21
238.7204586552237
 72
     2
 10
98.56794915031197
 20
238.7862907094226
 40
0.5029199999994028
 50
187.5215829841704
 51
270.0000000000008
 73
     1
 72
     1
 10
98.56794915031197
 20
238.2833707094232
 11
104.1621076940644
 21
238.2833707094232
 72
     1
 10
104.1621076940644
 20
238.2833707094232
 11
104.1621076940644
 21
240.6219487094248
 72
     1
 10
104.1621076940644
 20
240.6219487094248
 11
99.13290769406441
 21
240.6219487094248
 72
     1
 10
99.13290769406441
 20
240.6219487094248
 11
99.13290769406441
 21
242.2312927094243
 72
     1
 10
99.13290769406441
 20
242.2312927094243
 11
104.1621076940644
 21
242.2312927094243
 72
     1
 10
104.1621076940644
 20
242.2312927094243
 11
104.1621076940644
 21
244.5698707094248
 72
     1
 10
104.1621076940644
 20
244.5698707094248
 11
100.3902076940631
 21
244.5698707094248
 97
        0
 75
     0
 76
     2
 52
90.0
 41
0.125
 77
     0
 78
     3
 53
135.0000020971719
 43
-0.841899000000003
 44
0.8418989999999972
 45
-1.683798043244235
 46
0.5612659459355116
 79
     2
 49
0.79375
 49
-1.5875
 53
135.0000020971719
 43
-0.841899000000007
 44
1.964431249999997
 45
-1.683798043244235
 46
0.5612659459355116
 79
     2
 49
0.79375
 49
-1.5875
 53
224.9999719140477
 43
0.0
 44
0.0
 45
0.5612657324384562
 46
-0.5612662826950531
 79
     0
 98
        1
 10
0.0
 20
0.0
  0
HATCH
  5
237
330
1F
100
AcDbEntity
  8
0
  6
Continuous
 62
     7
370
    18
100
AcDbHatch
 10
0.0
 20
0.0
 30
0.0
210
0.0
220
0.0
230
1.0
  2
DIN 128 Elastomer-Rubber
 70
     0
 71
     0
 91
        1
 92
        0
 93
       13
 72
     1
 10
181.9604267074619
 20
248.1360085432161
 11
179.3486476940719
 21
244.5698707094248
 72
     1
 10
179.3486476940719
 20
244.5698707094248
 11
175.5767476940705
 21
244.5698707094248
 72
     1
 10
175.5767476940705
 20
244.5698707094248
 11
175.5767476940705
 21
242.2312927094243
 72
     1
 10
175.5767476940705
 20
242.2312927094243
 11
180.6059476940706
 21
242.2312927094243
 72
     1
 10
180.6059476940706
 20
242.2312927094243
 11
180.6059476940706
 21
240.6219487094248
 72
     1
 10
180.6059476940706
 20
240.6219487094248
 11
175.5767476940705
 21
240.6219487094248
 72
     1
 10
175.5767476940705
 20
240.6219487094248
 11
175.5767476940705
 21
238.2833707094232
 72
     1
 10
175.5767476940705
 20
238.2833707094232
 11
181.170906237823
 21
238.2833707094232
 72
     2
 10
181.170906237823
 20
238.7862907094226
 40
0.5029199999994028
 50
270.0000000000008
 51
352.4784170158313
 73
     1
 72
     1
 10
181.6694989243311
 20
238.7204586552237
 11
182.5414354933732
 21
245.3242507094225
 72
     1
 10
182.5414354933732
 20
245.3242507094225
 11
184.1263876940711
 21
247.8388507094225
 72
     1
 10
184.1263876940711
 20
247.8388507094225
 11
182.8690876940711
 21
247.8388507094225
 72
     2
 10
182.3661676940714
 20
247.8388507094225
 40
0.5029199999997649
 50
0.0
 51
143.7815835925869
 73
     1
 97
        0
 75
     0
 76
     2
 52
90.0
 41
0.125
 77
     0
 78
     3
 53
135.0000020971719
 43
-0.841899000000003
 44
0.8418989999999972
 45
-1.683798043244235
 46
0.5612659459355116
 79
     2
 49
0.79375
 49
-1.5875
 53
135.0000020971719
 43
-0.841899000000007
 44
1.964431249999997
 45
-1.683798043244235
 46
0.5612659459355116
 79
     2
 49
0.79375
 49
-1.5875
 53
224.9999719140477
 43
0.0
 44
0.0
 45
0.5612657324384562
 46
-0.5612662826950531
 79
     0
 98
        1
 10
0.0
 20
0.0
  0
HATCH
  5
238
330
1F
100
AcDbEntity
  8
0
  6
Continuous
 62
     7
370
    18
100
AcDbHatch
 10
0.0
 20
0.0
 30
0.0
210
0.0
220
0.0
230
1.0
  2
ANSI31
 70
     0
 71
     0
 91
        1
 92
        0
 93
       12
 72
     1
 10
184.8694276940675
 20
241.4760506756745
 11
184.8694276940675
 21
258.6219487094248
 72
     1
 10
184.8694276940675
 20
258.6219487094248
 11
182.8694276940675
 21
258.6219487094248
 72
     1
 10
182.8694276940675
 20
258.6219487094248
 11
182.8694276940675
 21
242.1530775835741
 72
     2
 10
184.8694276940675
 20
238.1219487094248
 40
4.499999999999999
 50
116.3877999612434
 51
243.6122000387577
 73
     1
 72
     1
 10
182.8694276940675
 20
234.0908198352756
 11
182.8694276940675
 21
142.5874558681196
 72
     1
 10
182.8694276940675
 20
142.5874558681196
 11
181.7976690025284
 21
138.6219487094249
 72
     1
 10
181.7976690025284
 20
138.6219487094249
 11
183.8694276940675
 21
138.6219487094249
 72
     1
 10
183.8694276940675
 20
138.6219487094249
 11
184.8694276940675
 21
142.3219487094248
 72
     1
 10
184.8694276940675
 20
142.3219487094248
 11
184.8694276940675
 21
234.7678467431751
 72
     2
 10
183.8694276940675
 20
234.7678467431751
 40
0.9999999999999902
 50
0.0
 51
73.39845040098015
 73
     1
 72
     2
 10
184.8694276940675
 20
238.1219487094248
 40
2.500000000000011
 50
106.6015495990204
 51
253.3984504009806
 73
     0
 72
     2
 10
183.8694276940675
 20
241.4760506756745
 40
0.9999999999999913
 50
286.6015495990212
 51
360.0000000000008
 73
     1
 97
        0
 75
     0
 76
     1
 52
90.0
 41
1.0
 77
     0
 78
     1
 53
135.0000000000002
 43
0.0
 44
0.0
 45
-2.245064030267281
 46
-2.245064030267296
 79
     0
 98
        1
 10
0.0
 20
0.0
  0
HATCH
  5
239
330
1F
100
AcDbEntity
  8
0
  6
Continuous
 62
     7
370
    18
100
AcDbHatch
 10
0.0
 20
0.0
 30
0.0
210
0.0
220
0.0
230
1.0
  2
ANSI31
 70
     0
 71
     0
 91
        1
 92
        0
 93
       12
 72
     1
 10
96.86942769406751
 20
242.1530775835741
 11
96.86942769406751
 21
258.6219487094248
 72
     1
 10
96.86942769406751
 20
258.6219487094248
 11
94.86942769406748
 21
258.6219487094248
 72
     1
 10
94.86942769406748
 20
258.6219487094248
 11
94.8694276940675
 21
241.4760506756745
 72
     2
 10
95.86942769406748
 20
241.4760506756745
 40
0.9999999999999913
 50
180.0
 51
253.3984504009805
 73
     1
 72
     2
 10
94.86942769406748
 20
238.1219487094248
 40
2.500000000000011
 50
286.601549599021
 51
433.3984504009802
 73
     0
 72
     2
 10
95.86942769406748
 20
234.7678467431751
 40
0.9999999999999902
 50
106.6015495990191
 51
180.0
 73
     1
 72
     1
 10
94.86942769406751
 20
234.7678467431751
 11
94.8694276940675
 21
142.3219487094248
 72
     1
 10
94.8694276940675
 20
142.3219487094248
 11
95.86942769406748
 21
138.6219487094249
 72
     1
 10
95.86942769406748
 20
138.6219487094249
 11
97.94118638560661
 21
138.6219487094249
 72
     1
 10
97.94118638560661
 20
138.6219487094249
 11
96.86942769406748
 21
142.5874558681196
 72
     1
 10
96.86942769406748
 20
142.5874558681196
 11
96.86942769406748
 21
234.0908198352756
 72
     2
 10
94.86942769406748
 20
238.1219487094248
 40
4.499999999999999
 50
296.3877999612439
 51
423.6122000387574
 73
     1
 97
        0
 75
     0
 76
     1
 52
90.0
 41
1.0
 77
     0
 78
     1
 53
135.0000000000002
 43
0.0
 44
0.0
 45
-2.245064030267281
 46
-2.245064030267296
 79
     0
 98
        1
 10
0.0
 20
0.0
  0
DIMENSION
  5
23A
330
1F
100
AcDbEntity
  8
0
  6
Continuous
 62
     7
370
    18
100
AcDbDimension
  2
_D
 10
94.8694276941
 20
238.1219487094
 30
0.0
 11
89.382252234
 21
235.4028389127
 31
0.0
 70
   164
  1
<>
 71
     1
 42
-1.0
  3
SLDDIMSTYLE0
100
AcDbRadialDimension
 15
97.1094776506
 25
239.2319830297
 35
0.0
 40
0.0
  0
DIMENSION
  5
242
330
1F
100
AcDbEntity
  8
0
  6
Continuous
 62
     7
370
    18
100
AcDbDimension
  2
_D_1
 10
191.8694276941
 20
238.1219487094
 30
0.0
 11
191.8694276941
 21
248.3719487094
 31
0.0
 70
   160
  1
<>
 71
     2
 42
-1.0
  3
SLDDIMSTYLE1
100
AcDbAlignedDimension
 13
184.8694276941
 23
258.6219487094
 33
0.0
 14
184.8694276941
 24
238.1219487094
 34
0.0
 50
90.0
100
AcDbRotatedDimension
  0
DIMENSION
  5
24D
330
1F
100
AcDbEntity
  8
0
  6
Continuous
 62
     7
370
    18
100
AcDbDimension
  2
_D_2
 10
198.8694276941
 20
138.6219487094
 30
0.0
 11
198.8694276941
 21
198.6219487094
 31
0.0
 70
   160
  1
<>
 71
     2
 42
-1.0
  3
SLDDIMSTYLE2
100
AcDbAlignedDimension
 13
184.8694276941
 23
258.6219487094
 33
0.0
 14
183.8694276941
 24
138.6219487094
 34
0.0
 50
90.0
100
AcDbRotatedDimension
  0
DIMENSION
  5
258
330
1F
100
AcDbEntity
  8
0
  6
Continuous
 62
     7
370
    18
100
AcDbDimension
  2
_D_3
 10
184.8694276941
 20
265.6219487094
 30
0.0
 11
139.8694276941
 21
265.6219487094
 31
0.0
 70
   160
  1
%%c<>
 71
     2
 42
-1.0
  3
SLDDIMSTYLE2
100
AcDbAlignedDimension
 13
94.8694276941
 23
258.6219487094
 33
0.0
 14
184.8694276941
 24
258.6219487094
 34
0.0
 50
0.0
100
AcDbRotatedDimension
  0
DIMENSION
  5
263
330
1F
100
AcDbEntity
  8
0
  6
Continuous
 62
     7
370
    18
100
AcDbDimension
  2
_D_4
 10
182.8694276941
 20
222.320595821
 30
0.0
 11
189.2862023071
 21
222.320595821
 31
0.0
 70
   160
  1
<>
 71
     2
 42
-1.0
  3
SLDDIMSTYLE3
100
AcDbAlignedDimension
 13
184.8694276941
 23
234.7678467432
 33
0.0
 14
182.8694276941
 24
234.0908198353
 34
0.0
100
AcDbRotatedDimension
  0
MTEXT
  5
26F
330
1F
100
AcDbEntity
  8
0
  6
Continuous
 62
     7
370
     0
100
AcDbMText
 10
139.580191901
 20
276.0949807409
 30
0.0
 40
3.5
 41
0.0
 71
     2
 72
     1
  1
A-A
  7
SLDTEXTSTYLE2
 73
     1
 44
1.0
  0
ENDSEC
  0
SECTION
  2
OBJECTS
  0
DICTIONARY
  5
C
330
0
100
AcDbDictionary
281
     1
  3
ACAD_GROUP
350
D
  3
ACAD_LAYOUT
350
1A
  3
ACAD_MLINESTYLE
350
17
  3
ACAD_PLOTSETTINGS
350
19
  3
ACAD_PLOTSTYLENAME
350
E
  3
ACAD_SCALELIST
350
47
  3
DWGPROPS
350
270
  0
DICTIONARY
  5
D
102
{ACAD_REACTORS
330
C
102
}
330
C
100
AcDbDictionary
281
     1
  0
DICTIONARY
  5
1A
102
{ACAD_REACTORS
330
C
102
}
330
C
100
AcDbDictionary
281
     1
  3
Layout1
350
1E
  3
Layout2
350
26
  3
Model
350
22
  0
DICTIONARY
  5
17
102
{ACAD_REACTORS
330
C
102
}
330
C
100
AcDbDictionary
281
     1
  3
Standard
350
18
  0
DICTIONARY
  5
19
102
{ACAD_REACTORS
330
C
102
}
330
C
100
AcDbDictionary
281
     1
  0
ACDBDICTIONARYWDFLT
  5
E
102
{ACAD_REACTORS
330
C
102
}
330
C
100
AcDbDictionary
281
     1
  3
Normal
350
F
100
AcDbDictionaryWithDefault
340
F
  0
DICTIONARY
  5
47
102
{ACAD_REACTORS
330
C
102
}
330
C
100
AcDbDictionary
281
     1
  3
A0
350
48
  3
A1
350
49
  3
A2
350
4A
  3
A3
350
4B
  3
A4
350
4C
  3
A5
350
4D
  3
A6
350
4E
  3
A7
350
4F
  3
A8
350
50
  3
A9
350
51
  3
B0
350
52
  3
B1
350
53
  3
B2
350
54
  3
B3
350
55
  3
B4
350
56
  3
B5
350
57
  3
B6
350
58
  3
B7
350
59
  3
B8
350
5A
  3
B9
350
5B
  3
C0
350
5C
  3
C1
350
5D
  3
C2
350
5E
  3
C3
350
5F
  3
C4
350
60
  3
C5
350
61
  3
C6
350
62
  3
C7
350
63
  3
C8
350
64
  3
C9
350
65
  3
D0
350
66
  3
D1
350
67
  3
D2
350
68
  0
XRECORD
  5
270
102
{ACAD_REACTORS
330
C
102
}
330
C
100
AcDbXrecord
280
     1
  1
DWGPROPS COOKIE
  2

  3

  4

  6

  7

  8
ch-ntl-rs-wscad
  9

300
=
301
=
302
=
303
=
304
=
305
=
306
=
307
=
308
=
309
=
 40
0.0
 41
2460222.524011921
 42
2460222.52401537
  1

 90
        0
  0
LAYOUT
  5
1E
102
{ACAD_REACTORS
330
1A
102
}
330
1A
100
AcDbPlotSettings
  1

  2
none_device
  4

  6

 40
0.0
 41
0.0
 42
0.0
 43
0.0
 44
0.0
 45
0.0
 46
0.0
 47
0.0
 48
0.0
 49
0.0
140
0.0
141
0.0
142
1.0
143
1.0
 70
   688
 72
     1
 73
     0
 74
     5
  7

 75
    16
147
1.0
148
0.0
149
0.0
100
AcDbLayout
  1
Layout1
 70
     1
 71
     1
 10
0.0
 20
0.0
 11
420.0
 21
297.0
 12
0.0
 22
0.0
 32
0.0
 14
1.0000000000E+20
 24
1.0000000000E+20
 34
1.0000000000E+20
 15
-1.0000000000E+20
 25
-1.0000000000E+20
 35
-1.0000000000E+20
146
0.0
 13
0.0
 23
0.0
 33
0.0
 16
1.0
 26
0.0
 36
0.0
 17
0.0
 27
1.0
 37
0.0
 76
     0
330
1B
  0
LAYOUT
  5
26
102
{ACAD_REACTORS
330
1A
102
}
330
1A
100
AcDbPlotSettings
  1

  2
none_device
  4

  6

 40
0.0
 41
0.0
 42
0.0
 43
0.0
 44
0.0
 45
0.0
 46
0.0
 47
0.0
 48
0.0
 49
0.0
140
0.0
141
0.0
142
1.0
143
1.0
 70
   688
 72
     1
 73
     0
 74
     5
  7

 75
    16
147
1.0
148
0.0
149
0.0
100
AcDbLayout
  1
Layout2
 70
     1
 71
     2
 10
0.0
 20
0.0
 11
0.0
 21
0.0
 12
0.0
 22
0.0
 32
0.0
 14
0.0
 24
0.0
 34
0.0
 15
0.0
 25
0.0
 35
0.0
146
0.0
 13
0.0
 23
0.0
 33
0.0
 16
1.0
 26
0.0
 36
0.0
 17
0.0
 27
1.0
 37
0.0
 76
     0
330
23
  0
LAYOUT
  5
22
102
{ACAD_REACTORS
330
1A
102
}
330
1A
100
AcDbPlotSettings
  1

  2
none_device
  4
Letter_(8.50_x_11.00_Inches)
  6

 40
6.35
 41
6.35
 42
6.35000508
 43
6.35000508
 44
215.9
 45
279.4
 46
0.0
 47
0.0
 48
0.0
 49
0.0
140
0.0
141
0.0
142
1.0
143
1.0
 70
  1712
 72
     1
 73
     0
 74
     0
  7

 75
     0
147
1.0
148
0.0
149
0.0
100
AcDbLayout
  1
Model
 70
     1
 71
     0
 10
0.0
 20
0.0
 11
420.0
 21
297.0
 12
0.0
 22
0.0
 32
0.0
 14
0.0
 24
0.0
 34
0.0
 15
420.0
 25
297.0
 35
0.0
146
0.0
 13
0.0
 23
0.0
 33
0.0
 16
1.0
 26
0.0
 36
0.0
 17
0.0
 27
1.0
 37
0.0
 76
     0
330
1F
331
29
  0
MLINESTYLE
  5
18
102
{ACAD_REACTORS
330
17
102
}
330
17
100
AcDbMlineStyle
  2
Standard
 70
     0
  3

 62
   256
 51
90.0
 52
90.0
 71
     2
 49
0.5
 62
   256
  6
BYLAYER
 49
-0.5
 62
   256
  6
BYLAYER
  0
ACDBPLACEHOLDER
  5
F
102
{ACAD_REACTORS
330
E
102
}
330
E
  0
SCALE
  5
48
102
{ACAD_REACTORS
330
47
102
}
330
47
100
AcDbScale
 70
     0
300
1:1
140
1.0
141
1.0
290
     1
  0
SCALE
  5
49
102
{ACAD_REACTORS
330
47
102
}
330
47
100
AcDbScale
 70
     0
300
1:2
140
1.0
141
2.0
290
     0
  0
SCALE
  5
4A
102
{ACAD_REACTORS
330
47
102
}
330
47
100
AcDbScale
 70
     0
300
1:4
140
1.0
141
4.0
290
     0
  0
SCALE
  5
4B
102
{ACAD_REACTORS
330
47
102
}
330
47
100
AcDbScale
 70
     0
300
1:5
140
1.0
141
5.0
290
     0
  0
SCALE
  5
4C
102
{ACAD_REACTORS
330
47
102
}
330
47
100
AcDbScale
 70
     0
300
1:8
140
1.0
141
8.0
290
     0
  0
SCALE
  5
4D
102
{ACAD_REACTORS
330
47
102
}
330
47
100
AcDbScale
 70
     0
300
1:10
140
1.0
141
10.0
290
     0
  0
SCALE
  5
4E
102
{ACAD_REACTORS
330
47
102
}
330
47
100
AcDbScale
 70
     0
300
1:16
140
1.0
141
16.0
290
     0
  0
SCALE
  5
4F
102
{ACAD_REACTORS
330
47
102
}
330
47
100
AcDbScale
 70
     0
300
1:20
140
1.0
141
20.0
290
     0
  0
SCALE
  5
50
102
{ACAD_REACTORS
330
47
102
}
330
47
100
AcDbScale
 70
     0
300
1:30
140
1.0
141
30.0
290
     0
  0
SCALE
  5
51
102
{ACAD_REACTORS
330
47
102
}
330
47
100
AcDbScale
 70
     0
300
1:40
140
1.0
141
40.0
290
     0
  0
SCALE
  5
52
102
{ACAD_REACTORS
330
47
102
}
330
47
100
AcDbScale
 70
     0
300
1:50
140
1.0
141
50.0
290
     0
  0
SCALE
  5
53
102
{ACAD_REACTORS
330
47
102
}
330
47
100
AcDbScale
 70
     0
300
1:100
140
1.0
141
100.0
290
     0
  0
SCALE
  5
54
102
{ACAD_REACTORS
330
47
102
}
330
47
100
AcDbScale
 70
     0
300
2:1
140
2.0
141
1.0
290
     0
  0
SCALE
  5
55
102
{ACAD_REACTORS
330
47
102
}
330
47
100
AcDbScale
 70
     0
300
4:1
140
4.0
141
1.0
290
     0
  0
SCALE
  5
56
102
{ACAD_REACTORS
330
47
102
}
330
47
100
AcDbScale
 70
     0
300
8:1
140
8.0
141
1.0
290
     0
  0
SCALE
  5
57
102
{ACAD_REACTORS
330
47
102
}
330
47
100
AcDbScale
 70
     0
300
10:1
140
10.0
141
1.0
290
     0
  0
SCALE
  5
58
102
{ACAD_REACTORS
330
47
102
}
330
47
100
AcDbScale
 70
     0
300
100:1
140
100.0
141
1.0
290
     0
  0
SCALE
  5
59
102
{ACAD_REACTORS
330
47
102
}
330
47
100
AcDbScale
 70
     0
300
1/128" = 1'-0"
140
0.0078125
141
12.0
290
     0
  0
SCALE
  5
5A
102
{ACAD_REACTORS
330
47
102
}
330
47
100
AcDbScale
 70
     0
300
1/64" = 1'-0"
140
0.015625
141
12.0
290
     0
  0
SCALE
  5
5B
102
{ACAD_REACTORS
330
47
102
}
330
47
100
AcDbScale
 70
     0
300
1/32" = 1'-0"
140
0.03125
141
12.0
290
     0
  0
SCALE
  5
5C
102
{ACAD_REACTORS
330
47
102
}
330
47
100
AcDbScale
 70
     0
300
1/16" = 1'-0"
140
0.0625
141
12.0
290
     0
  0
SCALE
  5
5D
102
{ACAD_REACTORS
330
47
102
}
330
47
100
AcDbScale
 70
     0
300
3/32" = 1'-0"
140
0.09375
141
12.0
290
     0
  0
SCALE
  5
5E
102
{ACAD_REACTORS
330
47
102
}
330
47
100
AcDbScale
 70
     0
300
1/8" = 1'-0"
140
0.125
141
12.0
290
     0
  0
SCALE
  5
5F
102
{ACAD_REACTORS
330
47
102
}
330
47
100
AcDbScale
 70
     0
300
3/16" = 1'-0"
140
0.1875
141
12.0
290
     0
  0
SCALE
  5
60
102
{ACAD_REACTORS
330
47
102
}
330
47
100
AcDbScale
 70
     0
300
1/4" = 1'-0"
140
0.25
141
12.0
290
     0
  0
SCALE
  5
61
102
{ACAD_REACTORS
330
47
102
}
330
47
100
AcDbScale
 70
     0
300
3/8" = 1'-0"
140
0.375
141
12.0
290
     0
  0
SCALE
  5
62
102
{ACAD_REACTORS
330
47
102
}
330
47
100
AcDbScale
 70
     0
300
1/2" = 1'-0"
140
0.5
141
12.0
290
     0
  0
SCALE
  5
63
102
{ACAD_REACTORS
330
47
102
}
330
47
100
AcDbScale
 70
     0
300
3/4" = 1'-0"
140
0.75
141
12.0
290
     0
  0
SCALE
  5
64
102
{ACAD_REACTORS
330
47
102
}
330
47
100
AcDbScale
 70
     0
300
1" = 1'-0"
140
1.0
141
12.0
290
     0
  0
SCALE
  5
65
102
{ACAD_REACTORS
330
47
102
}
330
47
100
AcDbScale
 70
     0
300
1-1/2" = 1'-0"
140
1.5
141
12.0
290
     0
  0
SCALE
  5
66
102
{ACAD_REACTORS
330
47
102
}
330
47
100
AcDbScale
 70
     0
300
3" = 1'-0"
140
3.0
141
12.0
290
     0
  0
SCALE
  5
67
102
{ACAD_REACTORS
330
47
102
}
330
47
100
AcDbScale
 70
     0
300
6" = 1'-0"
140
6.0
141
12.0
290
     0
  0
SCALE
  5
68
102
{ACAD_REACTORS
330
47
102
}
330
47
100
AcDbScale
 70
     0
300
1'-0" = 1'-0"
140
12.0
141
12.0
290
     0
  0
ENDSEC
  0
EOF
