  0
SECTION
  2
HEADER
  9
$ACADVER
  1
AC1015
  9
$ACADMAINTVER
 70
    20
  9
$DWGCODEPAGE
  3
ANSI_1252
  9
$INSBASE
 10
0.0
 20
0.0
 30
0.0
  9
$EXTMIN
 10
68.72039900710854
 20
320.8481873240665
 30
-0.0000000000000033
  9
$EXTMAX
 10
193.6257941713856
 20
435.216037418849
 30
0.0000000000000121
  9
$LIMMIN
 10
0.0
 20
0.0
  9
$LIMMAX
 10
420.0
 20
297.0
  9
$ORTHOMODE
 70
     0
  9
$REGENMODE
 70
     1
  9
$FILLMODE
 70
     1
  9
$QTEXTMODE
 70
     0
  9
$MIRRTEXT
 70
     1
  9
$LTSCALE
 40
1.0
  9
$ATTMODE
 70
     1
  9
$TEXTSIZE
 40
0.0
  9
$TRACEWID
 40
1.0
  9
$TEXTSTYLE
  7
STANDARD
  9
$CLAYER
  8
0
  9
$CELTYPE
  6
BYLAYER
  9
$CECOLOR
 62
   256
  9
$CELTSCALE
 40
1.0
  9
$DISPSILH
 70
     0
  9
$DIMSCALE
 40
1.0
  9
$DIMASZ
 40
2.5
  9
$DIMEXO
 40
0.625
  9
$DIMDLI
 40
3.75
  9
$DIMRND
 40
0.0
  9
$DIMDLE
 40
0.0
  9
$DIMEXE
 40
1.25
  9
$DIMTP
 40
0.0
  9
$DIMTM
 40
0.0
  9
$DIMTXT
 40
2.5
  9
$DIMCEN
 40
2.5
  9
$DIMTSZ
 40
0.0
  9
$DIMTOL
 70
     0
  9
$DIMLIM
 70
     0
  9
$DIMTIH
 70
     0
  9
$DIMTOH
 70
     0
  9
$DIMSE1
 70
     0
  9
$DIMSE2
 70
     0
  9
$DIMTAD
 70
     1
  9
$DIMZIN
 70
     8
  9
$DIMBLK
  1

  9
$DIMASO
 70
     1
  9
$DIMSHO
 70
     1
  9
$DIMPOST
  1

  9
$DIMAPOST
  1

  9
$DIMALT
 70
     0
  9
$DIMALTD
 70
     3
  9
$DIMALTF
 40
0.03937
  9
$DIMLFAC
 40
1.0
  9
$DIMTOFL
 70
     1
  9
$DIMTVP
 40
0.0
  9
$DIMTIX
 70
     0
  9
$DIMSOXD
 70
     0
  9
$DIMSAH
 70
     0
  9
$DIMBLK1
  1

  9
$DIMBLK2
  1

  9
$DIMSTYLE
  2
STANDARD
  9
$DIMCLRD
 70
     0
  9
$DIMCLRE
 70
     0
  9
$DIMCLRT
 70
     0
  9
$DIMTFAC
 40
1.0
  9
$DIMGAP
 40
0.625
  9
$DIMJUST
 70
     0
  9
$DIMSD1
 70
     0
  9
$DIMSD2
 70
     0
  9
$DIMTOLJ
 70
     0
  9
$DIMTZIN
 70
     8
  9
$DIMALTZ
 70
     0
  9
$DIMALTTZ
 70
     0
  9
$DIMUPT
 70
     0
  9
$DIMDEC
 70
     2
  9
$DIMTDEC
 70
     2
  9
$DIMALTU
 70
     2
  9
$DIMALTTD
 70
     3
  9
$DIMTXSTY
  7
STANDARD
  9
$DIMAUNIT
 70
     0
  9
$DIMADEC
 70
     0
  9
$DIMALTRND
 40
0.0
  9
$DIMAZIN
 70
     0
  9
$DIMDSEP
 70
    46
  9
$DIMATFIT
 70
     3
  9
$DIMFRAC
 70
     0
  9
$DIMLDRBLK
  1

  9
$DIMLUNIT
 70
     2
  9
$DIMLWD
 70
    -2
  9
$DIMLWE
 70
    -2
  9
$DIMTMOVE
 70
     0
  9
$LUNITS
 70
     2
  9
$LUPREC
 70
     2
  9
$SKETCHINC
 40
1.0
  9
$FILLETRAD
 40
2.5
  9
$AUNITS
 70
     0
  9
$AUPREC
 70
     0
  9
$MENU
  1
.
  9
$ELEVATION
 40
0.0
  9
$PELEVATION
 40
0.0
  9
$THICKNESS
 40
0.0
  9
$LIMCHECK
 70
     0
  9
$CHAMFERA
 40
2.5
  9
$CHAMFERB
 40
2.5
  9
$CHAMFERC
 40
0.0
  9
$CHAMFERD
 40
0.0
  9
$SKPOLY
 70
     0
  9
$TDCREATE
 40
2305814.083842720
  9
$TDUCREATE
 40
6.0000000000
  9
$TDUPDATE
 40
2454043.824753565
  9
$TDUUPDATE
 40
2454043.783086898
  9
$TDINDWG
 40
0.0147318750
  9
$TDUSRTIMER
 40
0.0147294444
  9
$USRTIMER
 70
     1
  9
$ANGBASE
 50
0.0
  9
$ANGDIR
 70
     0
  9
$PDMODE
 70
     0
  9
$PDSIZE
 40
0.0
  9
$PLINEWID
 40
0.0
  9
$SPLFRAME
 70
     0
  9
$SPLINETYPE
 70
     6
  9
$SPLINESEGS
 70
     8
  9
$HANDSEED
  5
226F
  9
$SURFTAB1
 70
     6
  9
$SURFTAB2
 70
     6
  9
$SURFTYPE
 70
     6
  9
$SURFU
 70
     6
  9
$SURFV
 70
     6
  9
$UCSBASE
  2

  9
$UCSNAME
  2

  9
$UCSORG
 10
0.0
 20
0.0
 30
0.0
  9
$UCSXDIR
 10
1.0
 20
0.0
 30
0.0
  9
$UCSYDIR
 10
0.0
 20
1.0
 30
0.0
  9
$UCSORTHOREF
  2

  9
$UCSORTHOVIEW
 70
     0
  9
$UCSORGTOP
 10
0.0
 20
0.0
 30
0.0
  9
$UCSORGBOTTOM
 10
0.0
 20
0.0
 30
0.0
  9
$UCSORGLEFT
 10
0.0
 20
0.0
 30
0.0
  9
$UCSORGRIGHT
 10
0.0
 20
0.0
 30
0.0
  9
$UCSORGFRONT
 10
0.0
 20
0.0
 30
0.0
  9
$UCSORGBACK
 10
0.0
 20
0.0
 30
0.0
  9
$PUCSBASE
  2

  9
$PUCSNAME
  2

  9
$PUCSORG
 10
0.0
 20
0.0
 30
0.0
  9
$PUCSXDIR
 10
1.0
 20
0.0
 30
0.0
  9
$PUCSYDIR
 10
0.0
 20
1.0
 30
0.0
  9
$PUCSORTHOREF
  2

  9
$PUCSORTHOVIEW
 70
     0
  9
$PUCSORGTOP
 10
0.0
 20
0.0
 30
0.0
  9
$PUCSORGBOTTOM
 10
0.0
 20
0.0
 30
0.0
  9
$PUCSORGLEFT
 10
0.0
 20
0.0
 30
0.0
  9
$PUCSORGRIGHT
 10
0.0
 20
0.0
 30
0.0
  9
$PUCSORGFRONT
 10
0.0
 20
0.0
 30
0.0
  9
$PUCSORGBACK
 10
0.0
 20
0.0
 30
0.0
  9
$USERI1
 70
     0
  9
$USERI2
 70
     0
  9
$USERI3
 70
     0
  9
$USERI4
 70
     0
  9
$USERI5
 70
     0
  9
$USERR1
 40
0.0
  9
$USERR2
 40
0.0
  9
$USERR3
 40
0.0
  9
$USERR4
 40
0.0
  9
$USERR5
 40
0.0
  9
$WORLDVIEW
 70
     1
  9
$SHADEDGE
 70
     3
  9
$SHADEDIF
 70
    70
  9
$TILEMODE
 70
     1
  9
$MAXACTVP
 70
    48
  9
$PINSBASE
 10
0.0
 20
0.0
 30
0.0
  9
$PLIMCHECK
 70
     0
  9
$PEXTMIN
 10
0.0
 20
0.0
 30
0.0
  9
$PEXTMAX
 10
471.248962
 20
393.345886
 30
2.0
  9
$PLIMMIN
 10
0.0
 20
0.0
  9
$PLIMMAX
 10
420.0
 20
297.0
  9
$UNITMODE
 70
     0
  9
$VISRETAIN
 70
     0
  9
$PLINEGEN
 70
     0
  9
$PSLTSCALE
 70
     1
  9
$TREEDEPTH
 70
  3020
  9
$CMLSTYLE
  2
STANDARD
  9
$CMLJUST
 70
     0
  9
$CMLSCALE
 40
20.0
  9
$PROXYGRAPHICS
 70
     1
  9
$MEASUREMENT
 70
     1
  9
$CELWEIGHT
370
    -1
  9
$ENDCAPS
280
     0
  9
$JOINSTYLE
280
     0
  9
$LWDISPLAY
290
     0
  9
$INSUNITS
 70
     0
  9
$HYPERLINKBASE
  1

  9
$STYLESHEET
  1

  9
$XEDIT
290
     1
  9
$CEPSNTYPE
380
     0
  9
$PSTYLEMODE
290
     1
  9
$FINGERPRINTGUID
  2
{ED8EB2AE-2D49-4515-B503-696BD1D7C058}
  9
$VERSIONGUID
  2
{44021787-122C-4236-8BBD-721DD95B76CB}
  9
$EXTNAMES
290
     1
  9
$PSVPSCALE
 40
0.0
  9
$OLESTARTUP
290
     0
  0
ENDSEC
  0
SECTION
  2
CLASSES
  0
CLASS
  1
IMAGE
  2
AcDbRasterImage
  3
ISM
 90
    32895
280
     0
281
     1
  0
CLASS
  1
DICTIONARYVAR
  2
AcDbDictionaryVar
  3
ObjectDBX Classes
 90
        0
280
     0
281
     0
  0
CLASS
  1
RASTERVARIABLES
  2
AcDbRasterVariables
  3
ISM
 90
    32768
280
     0
281
     0
  0
CLASS
  1
IMAGEDEF
  2
AcDbRasterImageDef
  3
ISM
 90
    32768
280
     0
281
     0
  0
CLASS
  1
IMAGEDEF_REACTOR
  2
AcDbRasterImageDefReactor
  3
ISM
 90
    32769
280
     0
281
     0
  0
CLASS
  1
IDBUFFER
  2
AcDbIdBuffer
  3
ObjectDBX Classes
 90
    32768
280
     0
281
     0
  0
CLASS
  1
SPATIAL_FILTER
  2
AcDbSpatialFilter
  3
ObjectDBX Classes
 90
    32768
280
     0
281
     0
  0
CLASS
  1
SORTENTSTABLE
  2
AcDbSortentsTable
  3
ObjectDBX Classes
 90
    32768
280
     0
281
     0
  0
CLASS
  1
LAYER_INDEX
  2
AcDbLayerIndex
  3
ObjectDBX Classes
 90
    32768
280
     0
281
     0
  0
CLASS
  1
SPATIAL_INDEX
  2
AcDbSpatialIndex
  3
ObjectDBX Classes
 90
    32768
280
     0
281
     0
  0
CLASS
  1
OBJECT_PTR
  2
CAseDLPNTableRecord
  3
ASE-LPNTableRecord
 90
    32769
280
     0
281
     0
  0
CLASS
  1
LAYOUT
  2
AcDbLayout
  3
ObjectDBX Classes
 90
        0
280
     0
281
     0
  0
CLASS
  1
PLOTSETTINGS
  2
AcDbPlotSettings
  3
ObjectDBX Classes
 90
    32768
280
     0
281
     0
  0
CLASS
  1
ACDBDICTIONARYWDFLT
  2
AcDbDictionaryWithDefault
  3
ObjectDBX Classes
 90
        0
280
     0
281
     0
  0
CLASS
  1
ACDBPLACEHOLDER
  2
AcDbPlaceHolder
  3
ObjectDBX Classes
 90
        0
280
     0
281
     0
  0
CLASS
  1
VBA_PROJECT
  2
AcDbVbaProject
  3
acad
 90
    32768
280
     0
281
     0
  0
CLASS
  1
WIPEOUT
  2
AcDbWipeout
  3
"WipeOut|Product Desc: Object Enabler for WipeOut entity^I^I^I^I^I^I|Company: Autodesk, Inc.^I^I^I^I^I^I|WEB Address: www.autodesk.com"
 90
    32895
280
     0
281
     1
  0
CLASS
  1
WIPEOUTVARIABLES
  2
AcDbWipeoutVariables
  3
"WipeOut|Product Desc:     WipeOut Dbx Application|Company:          Autodesk, Inc.|WEB Address:      www.autodesk.com"
 90
    32768
280
     0
281
     0
  0
CLASS
  1
RTEXT
  2
RText
  3
RText|AutoCAD Express Tool|expresstools@autodesk.com
 90
    32768
280
     0
281
     1
  0
CLASS
  1
ARCALIGNEDTEXT
  2
AcDbArcAlignedText
  3
ATEXT|AutoCAD Express Tool|expresstools@autodesk.com
 90
    32768
280
     0
281
     1
  0
CLASS
  1
TABLESTYLE
  2
AcDbTableStyle
  3
ObjectDBX Classes
 90
     2047
280
     0
281
     0
  0
CLASS
  1
AMGSETTINGSOBJ
  2
AmgSettingsObj
  3
"AcadM|Product Description: AutoCAD Mechanical 2000|Company: Autodesk"
 90
        0
280
     0
281
     0
  0
CLASS
  1
ACME_DOCUMENT
  2
AcMeDbDoc
  3
AcMeServices
 90
        0
280
     0
281
     0
  0
CLASS
  1
ACMESCOPE
  2
AcMeScope
  3
AcMeServices
 90
        0
280
     0
281
     0
  0
CLASS
  1
ACMECOMMANDHISTORY
  2
AcMeCommandHistory
  3
AcMeServices
 90
        0
280
     0
281
     0
  0
CLASS
  1
ACIMSYSVARMAN
  2
AcImSysVarManager
  3
AcMeServices
 90
        0
280
     0
281
     0
  0
CLASS
  1
ACIMINTSYSVAR
  2
AcImIntSysVar
  3
AcMeServices
 90
        0
280
     0
281
     0
  0
CLASS
  1
ACMEDRAWINGMAN
  2
AcMeDrawingMan
  3
AcMeServices
 90
        0
280
     0
281
     0
  0
CLASS
  1
ACMEVIEW
  2
AcMeView
  3
AcMeServices
 90
        0
280
     0
281
     0
  0
CLASS
  1
ACDBENTITYCACHE
  2
AcMeEntityCache
  3
AcMeServices
 90
        0
280
     0
281
     0
  0
CLASS
  1
GSMANAGER
  2
AcMeGSManager
  3
AcMeServices
 90
        0
280
     0
281
     0
  0
CLASS
  1
AMDTINTERNALREACTOR
  2
AmdtInternalReactor
  3
AcMeServices
 90
        0
280
     0
281
     0
  0
CLASS
  1
ACMESTATEMGR
  2
AcMeStateMgr
  3
AcMeServices
 90
        0
280
     0
281
     0
  0
CLASS
  1
ACGREFMASTER
  2
AcGrefMaster
  3
AcAttribServices
 90
        0
280
     0
281
     0
  0
CLASS
  1
AM_DRAWING_MGR
  2
AcDmDwgMgr
  3
AcMechDwgViewMgmt
 90
        0
280
     0
281
     0
  0
CLASS
  1
AM_DWG_DOCUMENT
  2
AcDmDwgDocument
  3
AcMechDwgViewMgmt
 90
        0
280
     0
281
     0
  0
CLASS
  1
AM_DWG_SHEET
  2
AcDmSheet
  3
AcMechDwgViewMgmt
 90
        0
280
     0
281
     0
  0
CLASS
  1
AM_VIEWDIMPARMAP
  2
AcDmViewDimParMap
  3
AcMechDwgViewMgmt
 90
        0
280
     0
281
     0
  0
CLASS
  1
ACIMREALSYSVAR
  2
AcImRealSysVar
  3
AcMeServices
 90
        0
280
     0
281
     0
  0
CLASS
  1
AM_DWGMGR_NAME
  2
AcDmDwgMgrName
  3
AcMechDwgViewMgmt
 90
        0
280
     0
281
     0
  0
CLASS
  1
ACME_DATABASE
  2
AcMeDbDatabase
  3
AcMeServices
 90
        0
280
     0
281
     0
  0
CLASS
  1
ACRFINSADJUSTERMGR
  2
AcRfInsAdjusterMgr
  3
AcMeServices
 90
        0
280
     0
281
     0
  0
CLASS
  1
ACGREFACADMASTER
  2
AcGrefacadMaster
  3
AcGrefServices
 90
        0
280
     0
281
     0
  0
CLASS
  1
AMDTMENUSTATEMGR
  2
AmdtMenuStateMgr
  3
McadcomServices
 90
        0
280
     0
281
     0
  0
CLASS
  1
AMDTMCOMMENUSTATE
  2
AmdtMcomMenuState
  3
McadcomServices
 90
        0
280
     0
281
     0
  0
CLASS
  1
AMIMASTER
  2
AmiMaster
  3
AmiServices
 90
        0
280
     0
281
     0
  0
CLASS
  1
MAPIAMMOUDLE
  2
MApiAmModule
  3
MApiAmServices
 90
        0
280
     0
281
     0
  0
CLASS
  1
AMDTADMENUSTATE
  2
AmdtAdMenuState
  3
DesignerServices
 90
        0
280
     0
281
     0
  0
CLASS
  1
ADAPPL
  2
AcAdAppl
  3
DesignerServices
 90
        0
280
     0
281
     0
  0
CLASS
  1
DEPMGR
  2
AcAdDepMgr
  3
DesignerServices
 90
        0
280
     0
281
     0
  0
CLASS
  1
PARAMMGR
  2
AcAdParamMgr
  3
DesignerServices
 90
        0
280
     0
281
     0
  0
CLASS
  1
PARAMSCOPE
  2
AcAdParamScope
  3
DesignerServices
 90
        0
280
     0
281
     0
  0
CLASS
  1
NAMEDAPPL
  2
AcAdNamedAppl
  3
DesignerServices
 90
        0
280
     0
281
     0
  0
CLASS
  1
AMDTDMMENUSTATE
  2
AmdtDmMenuState
  3
AcMechDwgViewMgmt
 90
        0
280
     0
281
     0
  0
CLASS
  1
AMDTAMMENUSTATE
  2
AmdtAmMenuState
  3
DesignerAssemblies
 90
        0
280
     0
281
     0
  0
CLASS
  1
ACIMSTRSYSVAR
  2
AcImStrSysVar
  3
AcMeServices
 90
        0
280
     0
281
     0
  0
CLASS
  1
ACAMPROJECT
  2
AcAmProject
  3
DesignerAssemblies
 90
        0
280
     0
281
     0
  0
CLASS
  1
ACAMGRCOMPDEF
  2
AcAmGrCompDef
  3
DesignerAssemblies
 90
        0
280
     0
281
     0
  0
CLASS
  1
ACCMCONTEXT
  2
AcCmContext
  3
DesignerAssemblies
 90
        0
280
     0
281
     0
  0
CLASS
  1
ACAMCOMPDEF
  2
AcAmCompDef
  3
DesignerAssemblies
 90
        0
280
     0
281
     0
  0
CLASS
  1
ACAMCOMPDEFMGR
  2
AcAmCompDefMgr
  3
DesignerAssemblies
 90
        0
280
     0
281
     0
  0
CLASS
  1
AMCONTEXTMGR
  2
AcAmContextMgr
  3
DesignerAssemblies
 90
        0
280
     0
281
     0
  0
CLASS
  1
ACAMCONTEXTMODELER
  2
AcAmContextModeler
  3
DesignerAssemblies
 90
        0
280
     0
281
     0
  0
CLASS
  1
ACMDATADICTIONARY
  2
AcmDataDictionary
  3
"AcmSymBB|Product Description: AutoCAD Mechanical 2004 DX|Company: Autodesk"
 90
        0
280
     0
281
     0
  0
CLASS
  1
CATALOGSTATE
  2
AcAmCatalogState
  3
DesignerAssemblies
 90
        0
280
     0
281
     0
  0
CLASS
  1
ACAMGRCOMPDEFSET
  2
AcAmGrCompDefSet
  3
DesignerAssemblies
 90
        0
280
     0
281
     0
  0
CLASS
  1
AMDTBROWSERDBTAB
  2
AmdtBrowserDbTab
  3
McadcomServices
 90
        0
280
     0
281
     0
  0
CLASS
  1
CBROWSERAPPOBJECT
  2
CBrowserAppObject
  3
McadcomServices
 90
        0
280
     0
281
     0
  0
CLASS
  1
DM_PLACEHOLDER
  2
AcDmSelsetPlaceholder
  3
AcMechDwgViewMgmt
 90
        0
280
     0
281
     0
  0
CLASS
  1
ACMSTANDARDDIN
  2
AcmStandardDIN
  3
"Amdt_StdImp|Product Description: AutoCAD Mechanical 2004 DX|Company: Autodesk"
 90
        0
280
     0
281
     0
  0
CLASS
  1
AMGOBJPROPCFG
  2
AmgObjPropCfg
  3
"AmgLay|Product Description: AutoCAD Mechanical 2000|Company: Autodesk"
 90
        1
280
     0
281
     0
  0
CLASS
  1
AMDTEDGESTANDARDDIN13715
  2
AmdtEdgeStdDIN13715
  3
"Amdt_StdImp|Product Description: AutoCAD Mechanical 2004 DX|Company: Autodesk"
 90
        0
280
     0
281
     0
  0
CLASS
  1
ACMSURFSTANDARDDIN
  2
AcmSurfTextStdDIN
  3
"Amdt_StdImp|Product Description: AutoCAD Mechanical 2004 DX|Company: Autodesk"
 90
        0
280
     0
281
     0
  0
CLASS
  1
ACMFCFSTANDARDDIN
  2
AcmFCFStdDIN
  3
"Amdt_StdImp|Product Description: AutoCAD Mechanical 2004 DX|Company: Autodesk"
 90
        0
280
     0
281
     0
  0
CLASS
  1
ACMWELDSTANDARDDIN
  2
AcmWeldingStdDIN
  3
"Amdt_StdImp|Product Description: AutoCAD Mechanical 2004 DX|Company: Autodesk"
 90
        0
280
     0
281
     0
  0
CLASS
  1
ACMIDSTANDARDDIN
  2
AcmIdStdDIN
  3
"Amdt_StdImp|Product Description: AutoCAD Mechanical 2004 DX|Company: Autodesk"
 90
        0
280
     0
281
     0
  0
CLASS
  1
ACMDATUMSTANDARDDIN
  2
AcmDatumStdDIN
  3
"Amdt_StdImp|Product Description: AutoCAD Mechanical 2004 DX|Company: Autodesk"
 90
        0
280
     0
281
     0
  0
CLASS
  1
ACMBOMSTANDARDDIN
  2
AcmBOMStdDIN
  3
"Amdt_StdImp|Product Description: AutoCAD Mechanical 2004 DX|Company: Autodesk"
 90
        0
280
     0
281
     0
  0
CLASS
  1
ACMDETAILSTANDARDDIN
  2
AmdtDetailSymStdDIN
  3
"Amdt_StdImp|Product Description: AutoCAD Mechanical 2004 DX|Company: Autodesk"
 90
        0
280
     0
281
     0
  0
CLASS
  1
ACMSECTIONSTANDARDDIN
  2
AmdtSectionSymStdDIN
  3
"Amdt_StdImp|Product Description: AutoCAD Mechanical 2004 DX|Company: Autodesk"
 90
        0
280
     0
281
     0
  0
CLASS
  1
ACMCENTERLINESTANDARDDIN
  2
AmdtCenterLineStdDIN
  3
"Amdt_StdImp|Product Description: AutoCAD Mechanical 2004 DX|Company: Autodesk"
 90
        0
280
     0
281
     0
  0
CLASS
  1
ACMTHREADLINESTANDARDDIN
  2
AmdtThreadLineStdDIN
  3
"Amdt_StdImp|Product Description: AutoCAD Mechanical 2004 DX|Company: Autodesk"
 90
        0
280
     0
281
     0
  0
CLASS
  1
ACMNOTESTANDARDDIN
  2
AmdtNoteStdDIN
  3
"Amdt_StdImp|Product Description: AutoCAD Mechanical 2004 DX|Company: Autodesk"
 90
        0
280
     0
281
     0
  0
CLASS
  1
AMDTNOTETEMPLATEDB
  2
AmdtNoteTemplateDB
  3
AMDT_STDIMP_MODULE_NAME
 90
        0
280
     0
281
     0
  0
CLASS
  1
ACAMGLAYSTD
  2
AcAmgLayStd
  3
"AcAmgLayStd|Product Description: AutoCAD Mechanical 2000|Company: Autodesk"
 90
        0
280
     0
281
     0
  0
CLASS
  1
ACAMGDIMSTD
  2
AcAmgDimStd
  3
"AcAmgDimStd|Product Description: AutoCAD Mechanical 2000|Company: Autodesk"
 90
        0
280
     0
281
     0
  0
CLASS
  1
ACAMGHOLECHARTSTDDIN
  2
AcAmgHoleChartStdDIN
  3
ACMSYMBB_MODULE_NAME
 90
        0
280
     0
281
     0
  0
CLASS
  1
ACAMGTITLESTD
  2
AcAmgTitleStd
  3
"TITLEAPP"
 90
        0
280
     0
281
     0
  0
CLASS
  1
ACAMGFILTERDAT
  2
AcAmgFilterDat
  3
"AcadM|Product Description: AutoCAD Mechanical 2000|Company: Autodesk"
 90
    32768
280
     0
281
     0
  0
CLASS
  1
EXACXREFPANELOBJECT
  2
ExAcXREFPanelObject
  3
EXAC_ESW
 90
    32768
280
     0
281
     0
  0
ENDSEC
  0
SECTION
  2
TABLES
  0
TABLE
  2
VPORT
  5
7
330
0
100
AcDbSymbolTable
 70
    24
  0
VPORT
  5
2267
330
7
100
AcDbSymbolTableRecord
100
AcDbViewportTableRecord
  2
*Active
 70
     0
 10
0.0
 20
0.0
 11
1.0
 21
1.0
 12
131.1730965355606
 22
378.0321119802607
 13
0.0
 23
0.0
 14
1.0
 24
1.0
 15
0.0
 25
0.0
 16
0.0
 26
0.0
 36
1.0
 17
0.0
 27
0.0
 37
0.0
 40
152.0621647591051
 41
1.494545454545454
 42
50.0
 43
0.0
 44
0.0
 50
0.0
 51
0.0
 71
     0
 72
   100
 73
     1
 74
     1
 75
     0
 76
     0
 77
     0
 78
     0
281
     0
 65
     0
110
0.0
120
0.0
130
0.0
111
1.0
121
0.0
131
0.0
112
0.0
122
1.0
132
0.0
 79
     0
146
0.0
  0
ENDTAB
  0
TABLE
  2
LTYPE
  5
4
330
0
100
AcDbSymbolTable
 70
    16
  0
LTYPE
  5
11
330
4
100
AcDbSymbolTableRecord
100
AcDbLinetypeTableRecord
  2
BYBLOCK
 70
     0
  3

 72
    65
 73
     0
 40
0.0
  0
LTYPE
  5
12
330
4
100
AcDbSymbolTableRecord
100
AcDbLinetypeTableRecord
  2
BYLAYER
 70
     0
  3

 72
    65
 73
     0
 40
0.0
  0
LTYPE
  5
13
330
4
100
AcDbSymbolTableRecord
100
AcDbLinetypeTableRecord
  2
CONTINUOUS
 70
     0
  3
Solid line
 72
    65
 73
     0
 40
0.0
  0
LTYPE
  5
1E
330
4
100
AcDbSymbolTableRecord
100
AcDbLinetypeTableRecord
  2
DASHDOT
 70
     0
  3
 __ . __ . __ . __ . __ . __ . __ . 
 72
    65
 73
     4
 40
18.5
 49
12.0
 74
     0
 49
-3.0
 74
     0
 49
0.5
 74
     0
 49
-3.0
 74
     0
  0
LTYPE
  5
1ECB
330
4
100
AcDbSymbolTableRecord
100
AcDbLinetypeTableRecord
  2
HIDDEN
 70
     0
  3
Verdeckt
 72
    65
 73
     2
 40
9.525
 49
6.349999999999998
 74
     0
 49
-3.174999999999998
 74
     0
  0
LTYPE
  5
1ECC
330
4
100
AcDbSymbolTableRecord
100
AcDbLinetypeTableRecord
  2
PHANTOM2
 70
     0
  3
Phantom (.5x) ___ _ _ ___ _ _ ___ _ _ ___ _ _
 72
    65
 73
     6
 40
31.75
 49
15.875
 74
     0
 49
-3.174999999999998
 74
     0
 49
3.174999999999998
 74
     0
 49
-3.174999999999998
 74
     0
 49
3.174999999999998
 74
     0
 49
-3.174999999999998
 74
     0
  0
LTYPE
  5
1ECD
330
4
100
AcDbSymbolTableRecord
100
AcDbLinetypeTableRecord
  2
CENTER
 70
     0
  3
Mitte ____ _ ____ _ ____ _ ____ _ ____ _ ____
 72
    65
 73
     4
 40
50.8
 49
31.75
 74
     0
 49
-6.349999999999998
 74
     0
 49
6.349999999999998
 74
     0
 49
-6.349999999999998
 74
     0
  0
LTYPE
  5
1F04
330
4
100
AcDbSymbolTableRecord
100
AcDbLinetypeTableRecord
  2
Amconstr
 70
     0
  3
_______________________
 72
    65
 73
     2
 40
9999.0
 49
9999.0
 74
     0
 49
0.0
 74
     0
  0
LTYPE
  5
1F09
330
4
100
AcDbSymbolTableRecord
100
AcDbLinetypeTableRecord
  2
Amzigzag
 70
     0
  3
/\/-/\/-/\/-/\/-/\/-/\/
 72
    65
 73
     2
 40
11.0001
 49
0.0001
 74
     4
 75
   135
340
1F08
 46
0.04
 50
0.0
 44
0.0
 45
0.0
 49
-11.0
 74
     0
  0
LTYPE
  5
1F0A
330
4
100
AcDbSymbolTableRecord
100
AcDbLinetypeTableRecord
  2
AM_DIN_F_W050
 70
     0
  3
__ __ __ __ __ __ __ __ __ __ __ __ __ __ __
 72
    65
 73
     2
 40
6.25
 49
4.75
 74
     0
 49
-1.5
 74
     0
  0
LTYPE
  5
1F0B
330
4
100
AcDbSymbolTableRecord
100
AcDbLinetypeTableRecord
  2
AM_DIN_G_W050
 70
     0
  3
____ . ____ . ____ . ____ . ____ . ____ . ____
 72
    65
 73
     4
 40
13.75
 49
9.75
 74
     0
 49
-1.5
 74
     0
 49
1.0
 74
     0
 49
-1.5
 74
     0
  0
LTYPE
  5
1F0C
330
4
100
AcDbSymbolTableRecord
100
AcDbLinetypeTableRecord
  2
AM_DIN_K_W050
 70
     0
  3
_____ . . _____ . . _____ . . ____ .. ____
 72
    65
 73
     6
 40
16.25
 49
9.75
 74
     0
 49
-1.5
 74
     0
 49
1.0
 74
     0
 49
-1.5
 74
     0
 49
1.0
 74
     0
 49
-1.5
 74
     0
  0
LTYPE
  5
1F0D
330
4
100
AcDbSymbolTableRecord
100
AcDbLinetypeTableRecord
  2
AM_DIN_G_W050x2
 70
     0
  3
__ . __ . __ . __ . __ . __
 72
    65
 73
     4
 40
6.875
 49
4.75
 74
     0
 49
-0.875
 74
     0
 49
0.375
 74
     0
 49
-0.875
 74
     0
  0
LTYPE
  5
1F0E
330
4
100
AcDbSymbolTableRecord
100
AcDbLinetypeTableRecord
  2
AM_DIN_F_W050x2
 70
     0
  3
 _ _ _ _ _ _ _ _ _ _ _ _
 72
    65
 73
     2
 40
3.125
 49
2.25
 74
     0
 49
-0.875
 74
     0
  0
LTYPE
  5
1F1D
330
4
100
AcDbSymbolTableRecord
100
AcDbLinetypeTableRecord
  2
ACDINWELD
 70
     0
  3
_ _ _ _ _
 72
    65
 73
     2
 40
2.0
 49
2.0
 74
     0
 49
-1.0
 74
     0
  0
LTYPE
  5
1F1E
330
4
100
AcDbSymbolTableRecord
100
AcDbLinetypeTableRecord
  2
ACDINTGB
 70
     0
  3
__ . . __ . .
 72
    65
 73
     6
 40
9.0
 49
4.0
 74
     0
 49
-1.0
 74
     0
 49
1.0
 74
     0
 49
-1.0
 74
     0
 49
1.0
 74
     0
 49
-1.0
 74
     0
  0
LTYPE
  5
1F1F
330
4
100
AcDbSymbolTableRecord
100
AcDbLinetypeTableRecord
  2
ACDINTGL
 70
     0
  3
_ _ _ _ _
 72
    65
 73
     2
 40
3.0
 49
2.0
 74
     0
 49
-1.0
 74
     0
  0
ENDTAB
  0
TABLE
  2
LAYER
  5
2
330
0
100
AcDbSymbolTable
 70
     3
  0
LAYER
  5
14
330
2
100
AcDbSymbolTableRecord
100
AcDbLayerTableRecord
  2
0
 70
     0
 62
     7
  6
CONTINUOUS
370
    -3
390
1E8E
  0
LAYER
  5
1F70
330
2
100
AcDbSymbolTableRecord
100
AcDbLayerTableRecord
  2
Defpoints
 70
     0
 62
     7
  6
CONTINUOUS
290
     0
370
    -3
390
1E8E
  0
LAYER
  5
2219
330
2
100
AcDbSymbolTableRecord
100
AcDbLayerTableRecord
  2
AM_5
 70
     0
 62
     3
  6
CONTINUOUS
370
    25
390
1E8E
1001
AcAecLayerStandard
1000

1000

  0
ENDTAB
  0
TABLE
  2
STYLE
  5
3
330
0
100
AcDbSymbolTable
 70
     4
  0
STYLE
  5
17
330
3
100
AcDbSymbolTableRecord
100
AcDbTextStyleTableRecord
  2
STANDARD
 70
     0
 40
0.0
 41
1.0
 50
0.0
 71
     0
 42
0.0
  3
txt
  4

  0
STYLE
  5
1F08
330
3
100
AcDbSymbolTableRecord
100
AcDbTextStyleTableRecord
  2

 70
     1
 40
0.0
 41
1.0
 50
0.0
 71
     0
 42
2.5
  3
ltypeshp.shx
  4

  0
STYLE
  5
1F0F
330
3
100
AcDbSymbolTableRecord
100
AcDbTextStyleTableRecord
  2
ACDINTS
 70
     0
 40
1.0
 41
1.0
 50
0.0
 71
     0
 42
2.5
  3
isocp.shx
  4

  0
STYLE
  5
1F1C
330
3
100
AcDbSymbolTableRecord
100
AcDbTextStyleTableRecord
  2
ACDINGDT
 70
     0
 40
0.0
 41
1.0
 50
0.0
 71
     0
 42
2.5
  3
AMGDT
  4

  0
ENDTAB
  0
TABLE
  2
VIEW
  5
5
330
0
100
AcDbSymbolTable
 70
     0
  0
ENDTAB
  0
TABLE
  2
UCS
  5
6
330
0
100
AcDbSymbolTable
 70
     0
  0
ENDTAB
  0
TABLE
  2
APPID
  5
8
330
0
100
AcDbSymbolTable
 70
    21
  0
APPID
  5
16
330
8
100
AcDbSymbolTableRecord
100
AcDbRegAppTableRecord
  2
ACAD
 70
     0
  0
APPID
  5
1E9E
330
8
100
AcDbSymbolTableRecord
100
AcDbRegAppTableRecord
  2
MCAD_NO_VIS
 70
     0
  0
APPID
  5
1E9F
330
8
100
AcDbSymbolTableRecord
100
AcDbRegAppTableRecord
  2
ACAD_TEMP_GRAPHIC
 70
     0
  0
APPID
  5
1ECF
330
8
100
AcDbSymbolTableRecord
100
AcDbRegAppTableRecord
  2
AD_DRAW
 70
     0
  0
APPID
  5
1ED2
330
8
100
AcDbSymbolTableRecord
100
AcDbRegAppTableRecord
  2
ACATTRIBSERVICES
 70
     0
  0
APPID
  5
1EF0
330
8
100
AcDbSymbolTableRecord
100
AcDbRegAppTableRecord
  2
DESIGNERASSEMBLIES
 70
     0
  0
APPID
  5
1EF6
330
8
100
AcDbSymbolTableRecord
100
AcDbRegAppTableRecord
  2
ACADM_DIM_EDIT
 70
     0
  0
APPID
  5
1EF7
330
8
100
AcDbSymbolTableRecord
100
AcDbRegAppTableRecord
  2
AMDT_DM_ADJ
 70
     0
  0
APPID
  5
1F36
330
8
100
AcDbSymbolTableRecord
100
AcDbRegAppTableRecord
  2
GENIUS_GENSCREG_15
 70
     0
  0
APPID
  5
1F37
330
8
100
AcDbSymbolTableRecord
100
AcDbRegAppTableRecord
  2
GENIUS_GENOBJ-N-SDF_13
 70
     0
  0
APPID
  5
1F38
330
8
100
AcDbSymbolTableRecord
100
AcDbRegAppTableRecord
  2
GENIUS_GENODEF_13
 70
     0
  0
APPID
  5
1F50
330
8
100
AcDbSymbolTableRecord
100
AcDbRegAppTableRecord
  2
GENIUS_GENOBJ-N-CEN_13
 70
     0
  0
APPID
  5
1F51
330
8
100
AcDbSymbolTableRecord
100
AcDbRegAppTableRecord
  2
GENIUS_GENCEN_19
 70
     0
  0
APPID
  5
1F86
330
8
100
AcDbSymbolTableRecord
100
AcDbRegAppTableRecord
  2
GENIUS_GENDTOL_13
 70
     0
  0
APPID
  5
2009
330
8
100
AcDbSymbolTableRecord
100
AcDbRegAppTableRecord
  2
DCO15
 70
     0
  0
APPID
  5
20D5
330
8
100
AcDbSymbolTableRecord
100
AcDbRegAppTableRecord
  2
ACAD_PSEXT
 70
     0
  0
APPID
  5
20F5
330
8
100
AcDbSymbolTableRecord
100
AcDbRegAppTableRecord
  2
ACAD_DSTYLE_DIMARC_LENGTH_SYMBOL
 70
     0
  0
APPID
  5
20F6
330
8
100
AcDbSymbolTableRecord
100
AcDbRegAppTableRecord
  2
ACAD_DSTYLE_DIMJOGGED_JOGANGLE_SYMBOL
 70
     0
  0
APPID
  5
2206
330
8
100
AcDbSymbolTableRecord
100
AcDbRegAppTableRecord
  2
GENIUS_GENDIMSH_14
 70
     0
  0
APPID
  5
2209
330
8
100
AcDbSymbolTableRecord
100
AcDbRegAppTableRecord
  2
ACAD_EXEMPT_FROM_CAD_STANDARDS
 70
     0
  0
APPID
  5
221A
330
8
100
AcDbSymbolTableRecord
100
AcDbRegAppTableRecord
  2
AcAecLayerStandard
 70
     0
  0
ENDTAB
  0
TABLE
  2
DIMSTYLE
  5
9
330
0
100
AcDbSymbolTable
 70
    10
100
AcDbDimStyleTable
 71
     1
340
18
  0
DIMSTYLE
105
18
330
9
100
AcDbSymbolTableRecord
100
AcDbDimStyleTableRecord
  2
STANDARD
 70
     0
340
17
  0
DIMSTYLE
105
1F29
330
9
100
AcDbSymbolTableRecord
100
AcDbDimStyleTableRecord
  2
AM_DIN
 70
     0
  4
"
 41
2.5
 42
1.0
 43
10.0
 44
1.0
 47
0.1
 48
0.1
 73
     0
 74
     0
 77
     1
 78
     8
 79
     2
140
3.5
141
0.0
143
0.0393701
146
0.71
147
1.5
172
     1
176
   256
177
   256
178
     2
271
     2
272
     3
274
     4
283
     0
284
     8
340
17
371
    -1
372
    -1
1001
ACAD_DSTYLE_DIMARC_LENGTH_SYMBOL
1070
   379
1070
     0
1001
ACAD_DSTYLE_DIMJOGGED_JOGANGLE_SYMBOL
1070
   384
1040
1.570796326794896
  0
DIMSTYLE
105
1F2A
330
9
100
AcDbSymbolTableRecord
100
AcDbDimStyleTableRecord
  2
AM_DIN$3
 70
     0
  4
"
 41
2.5
 42
1.0
 43
10.0
 44
1.0
 47
0.1
 48
0.1
 73
     0
 77
     1
 78
     8
 79
     2
140
3.5
141
0.0
143
0.0393701
146
0.71
147
1.5
176
   256
177
   256
178
     2
271
     2
272
     3
274
     4
283
     0
284
     8
288
     1
289
     0
340
17
371
    -1
372
    -1
1001
ACAD_DSTYLE_DIMARC_LENGTH_SYMBOL
1070
   379
1070
     0
1001
ACAD_DSTYLE_DIMJOGGED_JOGANGLE_SYMBOL
1070
   384
1040
1.570796326794896
  0
DIMSTYLE
105
1F2B
330
9
100
AcDbSymbolTableRecord
100
AcDbDimStyleTableRecord
  2
AM_DIN$4
 70
     0
  4
"
 41
2.5
 42
1.0
 43
10.0
 44
1.0
 47
0.1
 48
0.1
 73
     0
 77
     1
 78
     8
 79
     2
140
3.5
141
0.0
143
0.0393701
146
0.71
147
1.5
176
   256
177
   256
178
     2
271
     2
272
     3
274
     4
283
     0
284
     8
288
     1
289
     0
340
17
371
    -1
372
    -1
1001
ACAD_DSTYLE_DIMARC_LENGTH_SYMBOL
1070
   379
1070
     0
1001
ACAD_DSTYLE_DIMJOGGED_JOGANGLE_SYMBOL
1070
   384
1040
1.570796326794896
  0
DIMSTYLE
105
1F2C
330
9
100
AcDbSymbolTableRecord
100
AcDbDimStyleTableRecord
  2
AM_DIN$6
 70
     0
  4
"
 41
2.5
 42
1.0
 43
10.0
 44
1.0
 47
0.1
 48
0.1
 73
     0
 74
     0
 78
     8
 79
     2
140
3.5
141
0.0
143
0.0393701
146
0.71
147
1.5
172
     1
176
   256
177
   256
178
     2
271
     2
272
     3
274
     4
283
     0
284
     8
340
17
371
    -1
372
    -1
1001
ACAD_DSTYLE_DIMARC_LENGTH_SYMBOL
1070
   379
1070
     0
1001
ACAD_DSTYLE_DIMJOGGED_JOGANGLE_SYMBOL
1070
   384
1040
1.570796326794896
  0
DIMSTYLE
105
1F2D
330
9
100
AcDbSymbolTableRecord
100
AcDbDimStyleTableRecord
  2
AM_DIN$7
 70
     0
  4
"
 41
2.5
 42
1.0
 43
10.0
 44
1.0
 47
0.1
 48
0.1
 73
     0
 74
     0
 77
     1
 78
     8
 79
     2
140
5.0
141
0.0
143
0.0393701
146
0.71
147
1.5
172
     1
176
   256
177
   256
178
     2
271
     2
272
     3
274
     4
283
     0
284
     8
340
17
371
    -1
372
    -1
1001
ACAD_DSTYLE_DIMARC_LENGTH_SYMBOL
1070
   379
1070
     0
1001
ACAD_DSTYLE_DIMJOGGED_JOGANGLE_SYMBOL
1070
   384
1040
1.570796326794896
  0
DIMSTYLE
105
1F2E
330
9
100
AcDbSymbolTableRecord
100
AcDbDimStyleTableRecord
  2
AM_DIN$SF
 70
     0
  4
"
 41
2.5
 42
1.0
 43
10.0
 44
1.0
 47
0.1
 48
0.1
 73
     0
 74
     0
 75
     1
 76
     1
 77
     1
 78
     8
 79
     2
140
3.5
141
0.0
143
0.0393701
146
0.71
147
1.5
172
     1
176
   256
177
   256
178
     2
271
     2
272
     3
274
     4
283
     0
284
     8
340
17
371
    -1
372
    -1
1001
ACAD_DSTYLE_DIMARC_LENGTH_SYMBOL
1070
   379
1070
     0
1001
ACAD_DSTYLE_DIMJOGGED_JOGANGLE_SYMBOL
1070
   384
1040
1.570796326794896
  0
DIMSTYLE
105
1F33
330
9
100
AcDbSymbolTableRecord
100
AcDbDimStyleTableRecord
  2
AM_DIN$SH
 70
     0
  4
"
 41
2.5
 42
1.0
 43
10.0
 44
1.0
 47
0.1
 48
0.1
 73
     0
 74
     0
 75
     1
 76
     1
 77
     1
 78
     8
 79
     2
140
3.5
141
0.0
143
0.0393701
144
2.0
146
0.71
147
1.5
172
     1
173
     1
176
   256
177
   256
178
     2
271
     2
272
     3
274
     4
283
     0
284
     8
340
17
343
1F2F
371
    -1
372
    -1
1001
ACAD_DSTYLE_DIMARC_LENGTH_SYMBOL
1070
   379
1070
     0
1001
ACAD_DSTYLE_DIMJOGGED_JOGANGLE_SYMBOL
1070
   384
1040
1.570796326794896
  0
DIMSTYLE
105
1F6B
102
{ACAD_REACTORS
330
1F6F
330
2229
102
}
330
9
100
AcDbSymbolTableRecord
100
AcDbDimStyleTableRecord
  2
STANDARD$0
 70
     0
340
17
  0
ENDTAB
  0
TABLE
  2
BLOCK_RECORD
  5
1
330
0
100
AcDbSymbolTable
 70
     7
  0
BLOCK_RECORD
  5
A
330
1
100
AcDbSymbolTableRecord
100
AcDbBlockTableRecord
  2
*MODEL_SPACE
340
1E95
  0
BLOCK_RECORD
  5
B
330
1
100
AcDbSymbolTableRecord
100
AcDbBlockTableRecord
  2
*PAPER_SPACE
340
1E96
  0
BLOCK_RECORD
  5
1F2F
330
1
100
AcDbSymbolTableRecord
100
AcDbBlockTableRecord
  2
GENAXEH
340
0
  0
BLOCK_RECORD
  5
1F71
330
1
100
AcDbSymbolTableRecord
100
AcDbBlockTableRecord
  2
*D1
340
0
  0
BLOCK_RECORD
  5
1FE6
330
1
100
AcDbSymbolTableRecord
100
AcDbBlockTableRecord
  2
*D2
340
0
  0
BLOCK_RECORD
  5
201E
330
1
100
AcDbSymbolTableRecord
100
AcDbBlockTableRecord
  2
*D3
340
0
  0
BLOCK_RECORD
  5
222A
330
1
100
AcDbSymbolTableRecord
100
AcDbBlockTableRecord
  2
*D6
340
0
  0
ENDTAB
  0
ENDSEC
  0
SECTION
  2
BLOCKS
  0
BLOCK
  5
D
330
A
100
AcDbEntity
  8
0
100
AcDbBlockBegin
  2
*MODEL_SPACE
 70
     0
 10
0.0
 20
0.0
 30
0.0
  3
*MODEL_SPACE
  1

  0
ENDBLK
  5
E
330
A
100
AcDbEntity
  8
0
100
AcDbBlockEnd
  0
BLOCK
  5
F
330
B
100
AcDbEntity
 67
     1
  8
0
100
AcDbBlockBegin
  2
*PAPER_SPACE
 70
     0
 10
0.0
 20
0.0
 30
0.0
  3
*PAPER_SPACE
  1

  0
ENDBLK
  5
10
330
B
100
AcDbEntity
 67
     1
  8
0
100
AcDbBlockEnd
  0
BLOCK
  5
1F31
330
1F2F
100
AcDbEntity
  8
0
100
AcDbBlockBegin
  2
GENAXEH
 70
     0
 10
0.0
 20
0.0
 30
0.0
  3
GENAXEH
  1

  0
LINE
  5
1F30
330
1F2F
100
AcDbEntity
  8
0
100
AcDbLine
 10
-1.0
 20
0.0
 30
0.0
 11
1.0
 21
0.0
 31
0.0
  0
ENDBLK
  5
1F32
330
1F2F
100
AcDbEntity
  8
0
100
AcDbBlockEnd
  0
BLOCK
  5
1F7B
330
1F71
100
AcDbEntity
  8
0
100
AcDbBlockBegin
  2
*D1
 70
     1
 10
0.0
 20
0.0
 30
0.0
  3
*D1
  1

  0
LINE
  5
21D4
330
1F71
100
AcDbEntity
  8
0
 62
     0
370
    -2
100
AcDbLine
 10
81.23636203892486
 20
389.8163753201071
 30
0.0
 11
81.23636203892486
 21
424.4460967596331
 31
0.0
  0
LINE
  5
21D5
330
1F71
100
AcDbEntity
  8
0
 62
     0
370
    -2
100
AcDbLine
 10
181.122833
 20
389.816345
 30
0.0
 11
181.122833
 21
424.4460967596331
 31
0.0
  0
LINE
  5
21D6
330
1F71
100
AcDbEntity
  8
0
 62
     0
370
    -2
100
AcDbLine
 10
91.23636203892486
 20
423.1960967596331
 30
0.0
 11
171.122833
 21
423.1960967596331
 31
0.0
  0
SOLID
  5
21D7
330
1F71
100
AcDbEntity
  8
0
 62
     0
100
AcDbTrace
 10
91.23636203892486
 20
424.8627634262998
 30
0.0
 11
91.23636203892486
 21
421.5294300929664
 31
0.0
 12
81.23636203892486
 22
423.1960967596331
 32
0.0
 13
81.23636203892486
 23
423.1960967596331
 33
0.0
  0
SOLID
  5
21D8
330
1F71
100
AcDbEntity
  8
0
 62
     0
100
AcDbTrace
 10
171.122833
 20
424.8627634262998
 30
0.0
 11
171.122833
 21
421.5294300929664
 31
0.0
 12
181.122833
 22
423.1960967596331
 32
0.0
 13
181.122833
 23
423.1960967596331
 33
0.0
  0
MTEXT
  5
21D9
330
1F71
100
AcDbEntity
  8
0
 62
     2
100
AcDbMText
 10
131.1795975194624
 20
430.1960967596331
 30
0.0
 40
10.0
 41
0.0
 71
     5
 72
     1
  1
100X100
 73
     1
 44
1.0
1001
ACAD
1000
MTEXTBEGIN
1070
    73
1070
     1
1070
    44
1040
1.0
1070
    74
1070
     0
1000
MTEXTEND
  0
POINT
  5
21DA
330
1F71
100
AcDbEntity
  8
Defpoints
 62
     0
100
AcDbPoint
 10
81.23636203892486
 20
389.1913753201071
 30
0.0
  0
POINT
  5
21DB
330
1F71
100
AcDbEntity
  8
Defpoints
 62
     0
100
AcDbPoint
 10
181.122833
 20
389.191345
 30
0.0
  0
POINT
  5
21DC
330
1F71
100
AcDbEntity
  8
Defpoints
 62
     0
100
AcDbPoint
 10
181.122833
 20
423.1960967596331
 30
0.0
  0
ENDBLK
  5
1F7C
330
1F71
100
AcDbEntity
  8
0
100
AcDbBlockEnd
  0
BLOCK
  5
1FF0
330
1FE6
100
AcDbEntity
  8
0
100
AcDbBlockBegin
  2
*D2
 70
     1
 10
0.0
 20
0.0
 30
0.0
  3
*D2
  1

  0
LINE
  5
21CB
330
1FE6
100
AcDbEntity
  8
0
 62
     0
370
    -2
100
AcDbLine
 10
66.05049100000001
 20
357.187866
 30
0.0
 11
11.44927005318396
 21
357.187866
 31
0.0
  0
LINE
  5
21CC
330
1FE6
100
AcDbEntity
  8
0
 62
     0
370
    -2
100
AcDbLine
 10
81.31299109077536
 20
274.7771000000002
 30
0.0
 11
11.44927005318394
 21
274.7771000000002
 31
0.0
  0
LINE
  5
21CD
330
1FE6
100
AcDbEntity
  8
0
 62
     0
370
    -2
100
AcDbLine
 10
12.69927005318395
 20
347.1878660000001
 30
0.0
 11
12.69927005318394
 21
284.7771000000002
 31
0.0
  0
SOLID
  5
21CE
330
1FE6
100
AcDbEntity
  8
0
 62
     0
100
AcDbTrace
 10
11.03260338651729
 20
347.1878660000001
 30
0.0
 11
14.36593671985062
 21
347.1878660000001
 31
0.0
 12
12.69927005318396
 22
357.187866
 32
0.0
 13
12.69927005318396
 23
357.187866
 33
0.0
  0
SOLID
  5
21CF
330
1FE6
100
AcDbEntity
  8
0
 62
     0
100
AcDbTrace
 10
11.03260338651727
 20
284.7771000000002
 30
0.0
 11
14.36593671985061
 21
284.7771000000002
 31
0.0
 12
12.69927005318394
 22
274.7771000000002
 32
0.0
 13
12.69927005318394
 23
274.7771000000002
 33
0.0
  0
MTEXT
  5
21D0
330
1FE6
100
AcDbEntity
  8
0
 62
     2
100
AcDbMText
 10
5.699270053183898
 20
315.9824830000001
 30
0.0
 40
10.0
 41
0.0
 71
     5
 72
     1
  1
82
 11
0.0000000000000001
 21
1.0
 31
0.0
 73
     1
 44
1.0
1001
ACAD
1000
MTEXTBEGIN
1070
    73
1070
     1
1070
    44
1040
1.0
1070
    74
1070
     0
1000
MTEXTEND
  0
POINT
  5
21D1
330
1FE6
100
AcDbEntity
  8
Defpoints
 62
     0
100
AcDbPoint
 10
66.67549100000001
 20
357.187866
 30
0.0
  0
POINT
  5
21D2
330
1FE6
100
AcDbEntity
  8
Defpoints
 62
     0
100
AcDbPoint
 10
81.93799109077536
 20
274.7771000000002
 30
0.0
  0
POINT
  5
21D3
330
1FE6
100
AcDbEntity
  8
Defpoints
 62
     0
100
AcDbPoint
 10
12.69927005318394
 20
274.7771000000002
 30
0.0
  0
ENDBLK
  5
1FF1
330
1FE6
100
AcDbEntity
  8
0
100
AcDbBlockEnd
  0
BLOCK
  5
2028
330
201E
100
AcDbEntity
  8
0
100
AcDbBlockBegin
  2
*D3
 70
     1
 10
0.0
 20
0.0
 30
0.0
  3
*D3
  1

  0
LINE
  5
21DD
330
201E
100
AcDbEntity
  8
0
 62
     0
370
    -2
100
AcDbLine
 10
242.8831346672244
 20
273.2355689256271
 30
0.0
 11
302.328063052271
 21
271.6791208134083
 31
0.0
  0
LINE
  5
21DE
330
201E
100
AcDbEntity
  8
0
 62
     0
370
    -2
100
AcDbLine
 10
244.191985875446
 20
323.218443215108
 30
0.0
 11
303.6367660566199
 21
321.6619989833151
 31
0.0
  0
LINE
  5
21DF
330
201E
100
AcDbEntity
  8
0
 62
     0
370
    -2
100
AcDbLine
 10
301.3402318596531
 20
281.7084123903289
 30
0.0
 11
302.1254537474538
 21
311.698142545963
 31
0.0
  0
SOLID
  5
21E0
330
201E
100
AcDbEntity
  8
0
 62
     0
100
AcDbTrace
 10
299.6741361917969
 20
281.7520358167079
 30
0.0
 11
303.0063275275091
 21
281.6647889639499
 31
0.0
 12
301.078491301379
 22
271.7118383831926
 32
0.0
 13
301.078491301379
 23
271.7118383831926
 33
0.0
  0
SOLID
  5
21E1
330
201E
100
AcDbEntity
  8
0
 62
     0
100
AcDbTrace
 10
300.4593580795977
 20
311.7417659723419
 30
0.0
 11
303.7915494153099
 21
311.6545191195839
 31
0.0
 12
302.3871943057279
 22
321.6947165530994
 32
0.0
 13
302.3871943057279
 23
321.6947165530994
 33
0.0
  0
MTEXT
  5
21E2
330
201E
100
AcDbEntity
  8
0
 62
     2
100
AcDbMText
 10
294.735240998558
 20
296.8864958589378
 30
0.0
 40
10.0
 41
0.0
 71
     5
 72
     1
  1
DN50
 11
0.026174055827404
 21
0.9996574007136365
 31
0.0
 73
     1
 44
1.0
1001
ACAD
1000
MTEXTBEGIN
1070
    73
1070
     1
1070
    44
1040
1.0
1070
    74
1070
     0
1000
MTEXTEND
  0
POINT
  5
21E3
330
201E
100
AcDbEntity
  8
Defpoints
 62
     0
100
AcDbPoint
 10
242.2583487917784
 20
273.2519277105192
 30
0.0
  0
POINT
  5
21E4
330
201E
100
AcDbEntity
  8
Defpoints
 62
     0
100
AcDbPoint
 10
243.5672
 20
323.2348020000001
 30
0.0
  0
POINT
  5
21E5
330
201E
100
AcDbEntity
  8
Defpoints
 62
     0
100
AcDbPoint
 10
302.3871943057279
 20
321.6947165530994
 30
0.0
  0
ENDBLK
  5
2029
330
201E
100
AcDbEntity
  8
0
100
AcDbBlockEnd
  0
BLOCK
  5
2234
330
222A
100
AcDbEntity
  8
0
100
AcDbBlockBegin
  2
*D6
 70
     1
 10
0.0
 20
0.0
 30
0.0
  3
*D6
  1

  0
LINE
  5
225D
330
222A
100
AcDbEntity
  8
0
 62
     0
370
    -2
100
AcDbLine
 10
193.3173562426309
 20
342.553406
 30
0.0
 11
193.3173562426309
 21
321.2877986972445
 31
0.0
  0
LINE
  5
225E
330
222A
100
AcDbEntity
  8
0
 62
     0
370
    -2
100
AcDbLine
 10
69.04183575736912
 20
342.553406
 30
0.0
 11
69.04183575736912
 21
321.2877986972445
 31
0.0
  0
LINE
  5
225F
330
222A
100
AcDbEntity
  8
0
 62
     0
370
    -2
100
AcDbLine
 10
183.3173562426309
 20
322.5377986972445
 30
0.0
 11
79.04183575736912
 21
322.5377986972445
 31
0.0
  0
SOLID
  5
2260
330
222A
100
AcDbEntity
  8
0
 62
     0
100
AcDbTrace
 10
183.3173562426309
 20
324.2044653639112
 30
0.0
 11
183.3173562426309
 21
320.8711320305778
 31
0.0
 12
193.3173562426309
 22
322.5377986972445
 32
0.0
 13
193.3173562426309
 23
322.5377986972445
 33
0.0
  0
SOLID
  5
2261
330
222A
100
AcDbEntity
  8
0
 62
     0
100
AcDbTrace
 10
79.04183575736912
 20
324.2044653639112
 30
0.0
 11
79.04183575736912
 21
320.8711320305778
 31
0.0
 12
69.04183575736912
 22
322.5377986972445
 32
0.0
 13
69.04183575736912
 23
322.5377986972445
 33
0.0
  0
MTEXT
  5
2262
330
222A
100
AcDbEntity
  8
0
 62
     2
100
AcDbMText
 10
131.179596
 20
329.5377986972445
 30
0.0
 40
10.0
 41
0.0
 71
     5
 72
     1
  1
%%c125
 73
     1
 44
1.0
1001
ACAD
1000
MTEXTBEGIN
1070
    73
1070
     1
1070
    44
1040
1.0
1070
    74
1070
     0
1000
MTEXTEND
  0
POINT
  5
2263
330
222A
100
AcDbEntity
  8
Defpoints
 62
     0
100
AcDbPoint
 10
193.3173562426309
 20
343.178406
 30
0.0
  0
POINT
  5
2264
330
222A
100
AcDbEntity
  8
Defpoints
 62
     0
100
AcDbPoint
 10
69.04183575736912
 20
343.178406
 30
0.0
  0
POINT
  5
2265
330
222A
100
AcDbEntity
  8
Defpoints
 62
     0
100
AcDbPoint
 10
69.04183575736912
 20
322.5377986972445
 30
0.0
  0
ENDBLK
  5
2235
330
222A
100
AcDbEntity
  8
0
100
AcDbBlockEnd
  0
ENDSEC
  0
SECTION
  2
ENTITIES
  0
LINE
  5
14F2
330
A
100
AcDbEntity
  8
0
  6
DASHDOT
 62
     4
100
AcDbLine
 10
131.179596
 20
393.345886
 30
0.0
 11
131.179596
 21
339.5925139999999
 31
0.0
  0
LINE
  5
14F5
330
A
100
AcDbEntity
  8
0
  6
DASHDOT
 62
     7
 48
0.099001
100
AcDbLine
 10
91.05128499999999
 20
378.856995
 30
0.0
 11
91.05128499999999
 21
382.817017
 31
0.0
  0
LINE
  5
14F6
330
A
100
AcDbEntity
  8
0
  6
DASHDOT
 62
     7
 48
0.099001
100
AcDbLine
 10
171.307907
 20
378.856995
 30
0.0
 11
171.307907
 21
382.817017
 31
0.0
  0
LINE
  5
1973
330
A
100
AcDbEntity
  8
0
 62
     7
100
AcDbLine
 10
178.979599
 20
384.886993
 30
0.0
 11
135.556808
 21
384.886993
 31
0.0
  0
POLYLINE
  5
1974
330
A
100
AcDbEntity
  8
0
 62
     7
100
AcDb2dPolyline
 66
     1
 10
0.0
 20
0.0
 30
0.0
  0
VERTEX
  5
1975
330
1974
100
AcDbEntity
  8
0
100
AcDbVertex
100
AcDb2dVertex
 10
135.556808
 20
384.886993
 30
0.0
  0
VERTEX
  5
1976
330
1974
100
AcDbEntity
  8
0
100
AcDbVertex
100
AcDb2dVertex
 10
134.304977
 20
384.877319
 30
0.0
  0
VERTEX
  5
1977
330
1974
100
AcDbEntity
  8
0
100
AcDbVertex
100
AcDb2dVertex
 10
131.80426
 20
384.847168
 30
0.0
  0
VERTEX
  5
1978
330
1974
100
AcDbEntity
  8
0
100
AcDbVertex
100
AcDb2dVertex
 10
129.3048399999999
 20
384.85968
 30
0.0
  0
VERTEX
  5
1979
330
1974
100
AcDbEntity
  8
0
100
AcDbVertex
100
AcDb2dVertex
 10
128.054184
 20
384.877319
 30
0.0
  0
VERTEX
  5
197A
330
1974
100
AcDbEntity
  8
0
100
AcDbVertex
100
AcDb2dVertex
 10
126.802383
 20
384.886993
 30
0.0
  0
SEQEND
  5
197B
330
1974
100
AcDbEntity
  8
0
  0
LINE
  5
197C
330
A
100
AcDbEntity
  8
0
 62
     7
100
AcDbLine
 10
126.802383
 20
384.886993
 30
0.0
 11
83.37959299999999
 21
384.886993
 31
0.0
  0
ARC
  5
197D
330
A
100
AcDbEntity
  8
0
 62
     7
100
AcDbCircle
 10
83.179596
 20
384.386993
 30
0.0
 40
0.5
100
AcDbArc
 50
359.999999
 51
426.46718
  0
LINE
  5
197E
330
A
100
AcDbEntity
  8
0
 62
     7
100
AcDbLine
 10
178.679596
 20
384.386993
 30
0.0
 11
83.67959599999997
 21
384.386993
 31
0.0
  0
ARC
  5
197F
330
A
100
AcDbEntity
  8
0
 62
     7
100
AcDbCircle
 10
179.179596
 20
384.386993
 30
0.0
 40
0.5
100
AcDbArc
 50
113.532825
 51
180.000005
  0
LINE
  5
1980
330
A
100
AcDbEntity
  8
0
 62
     7
 48
0.009886
100
AcDbLine
 10
83.87960099999999
 20
388.78717
 30
0.0
 11
83.87960099999999
 21
389.182617
 31
0.0
  0
LINE
  5
1981
330
A
100
AcDbEntity
  8
0
 62
     7
 48
0.017656
100
AcDbLine
 10
83.87960099999999
 20
389.182617
 30
0.0
 11
84.585831
 21
389.182617
 31
0.0
  0
LINE
  5
1982
330
A
100
AcDbEntity
  8
0
 62
     7
 48
0.017661
100
AcDbLine
 10
177.773178
 20
389.182617
 30
0.0
 11
178.479599
 21
389.182617
 31
0.0
  0
LINE
  5
1983
330
A
100
AcDbEntity
  8
0
 62
     7
 48
0.009893
100
AcDbLine
 10
178.479599
 20
388.786896
 30
0.0
 11
178.479599
 21
389.182617
 31
0.0
  0
LINE
  5
1984
330
A
100
AcDbEntity
  8
0
 62
     7
 48
0.108435
100
AcDbLine
 10
83.41708399999998
 20
389.182617
 30
0.0
 11
83.379227
 21
384.845398
 31
0.0
  0
LINE
  5
1985
330
A
100
AcDbEntity
  8
0
 62
     7
 48
0.0475
100
AcDbLine
 10
83.67959599999997
 20
382.487
 30
0.0
 11
83.67959599999997
 21
384.386993
 31
0.0
  0
LINE
  5
1986
330
A
100
AcDbEntity
  8
0
 62
     7
100
AcDbLine
 10
83.67959599999997
 20
382.487
 30
0.0
 11
178.679596
 21
382.487
 31
0.0
  0
LINE
  5
1987
330
A
100
AcDbEntity
  8
0
 62
     7
 48
0.0475
100
AcDbLine
 10
178.679596
 20
382.487
 30
0.0
 11
178.679596
 21
384.386993
 31
0.0
  0
LINE
  5
1988
330
A
100
AcDbEntity
  8
0
 62
     7
 48
0.108435
100
AcDbLine
 10
178.942108
 20
389.182617
 30
0.0
 11
178.97995
 21
384.845398
 31
0.0
  0
LINE
  5
1989
330
A
100
AcDbEntity
  8
0
 62
     7
 48
0.011563
100
AcDbLine
 10
178.479599
 20
389.182617
 30
0.0
 11
178.942108
 21
389.182617
 31
0.0
  0
ARC
  5
198A
330
A
100
AcDbEntity
  8
0
 62
     7
100
AcDbCircle
 10
165.82811
 20
385.386993
 30
0.0
 40
0.5
100
AcDbArc
 50
270.000001
 51
336.423809
  0
ARC
  5
198B
330
A
100
AcDbEntity
  8
0
 62
     7
100
AcDbCircle
 10
176.787704
 20
385.386993
 30
0.0
 40
0.5
100
AcDbArc
 50
191.536959
 51
270.000001
  0
LINE
  5
198C
330
A
100
AcDbEntity
  8
0
 62
     7
 48
0.090376
100
AcDbLine
 10
176.297806
 20
385.286987
 30
0.0
 11
172.68277
 21
385.286987
 31
0.0
  0
LINE
  5
198D
330
A
100
AcDbEntity
  8
0
 62
     7
 48
0.01261
100
AcDbLine
 10
83.87960099999999
 20
389.687012
 30
0.0
 11
83.87960099999999
 21
389.182617
 31
0.0
  0
LINE
  5
198E
330
A
100
AcDbEntity
  8
0
 62
     7
 48
0.01261
100
AcDbLine
 10
178.479599
 20
389.687012
 30
0.0
 11
178.479599
 21
389.182617
 31
0.0
  0
LINE
  5
198F
330
A
100
AcDbEntity
  8
0
 62
     7
100
AcDbLine
 10
83.87960099999999
 20
389.687012
 30
0.0
 11
178.479599
 21
389.687012
 31
0.0
  0
LINE
  5
1990
330
A
100
AcDbEntity
  8
0
 62
     7
 48
0.011563
100
AcDbLine
 10
83.41708399999998
 20
389.182617
 30
0.0
 11
83.87960099999999
 21
389.182617
 31
0.0
  0
ELLIPSE
  5
1991
330
A
100
AcDbEntity
  8
0
 62
     7
100
AcDbEllipse
 10
87.571533
 20
385.386993
 30
0.0
 11
0.0
 21
0.5
 31
0.0
210
0.0
220
0.0
230
1.0
 40
0.99999
 41
3.141592741012571
 42
4.511031150817871
  0
ELLIPSE
  5
1992
330
A
100
AcDbEntity
  8
0
 62
     7
100
AcDbEllipse
 10
94.53105200000001
 20
385.386993
 30
0.0
 11
0.0
 21
-0.5
 31
0.0
210
0.0
220
0.0
230
1.0
 40
0.99999
 41
5.123854160308837
 42
6.283185482025146
  0
LINE
  5
1993
330
A
100
AcDbEntity
  8
0
 62
     7
 48
0.040493
100
AcDbLine
 10
89.68109100000003
 20
385.286987
 30
0.0
 11
88.061386
 21
385.286987
 31
0.0
  0
ARC
  5
1994
330
A
100
AcDbEntity
  8
0
 62
     7
100
AcDbCircle
 10
82.91709899999998
 20
389.187012
 30
0.0
 40
0.5
100
AcDbArc
 50
359.5000000000002
 51
450.000003
  0
LINE
  5
1995
330
A
100
AcDbEntity
  8
0
 62
     7
 48
0.042638
100
AcDbLine
 10
178.679596
 20
382.487
 30
0.0
 11
180.385132
 21
382.487
 31
0.0
  0
LINE
  5
1996
330
A
100
AcDbEntity
  8
0
 62
     7
 48
0.042639
100
AcDbLine
 10
81.974052
 20
382.487
 30
0.0
 11
83.67959599999997
 21
382.487
 31
0.0
  0
ARC
  5
1997
330
A
100
AcDbEntity
  8
0
 62
     7
100
AcDbCircle
 10
179.442093
 20
389.187012
 30
0.0
 40
0.5
100
AcDbArc
 50
90.00000300000001
 51
180.500002
  0
LINE
  5
1998
330
A
100
AcDbEntity
  8
0
 62
     7
 48
0.024062
100
AcDbLine
 10
178.479599
 20
389.687012
 30
0.0
 11
179.442093
 21
389.687012
 31
0.0
  0
ARC
  5
1999
330
A
100
AcDbEntity
  8
0
 62
     7
100
AcDbCircle
 10
175.807907
 20
385.187012
 30
0.0
 40
0.5
100
AcDbArc
 50
11.53696
 51
90.00000300000001
  0
LINE
  5
199A
330
A
100
AcDbEntity
  8
0
 62
     7
 48
0.078128
100
AcDbLine
 10
175.807907
 20
385.687012
 30
0.0
 11
172.68277
 21
385.687012
 31
0.0
  0
LINE
  5
199B
330
A
100
AcDbEntity
  8
0
 62
     7
 48
0.024062
100
AcDbLine
 10
82.91710700000001
 20
389.687012
 30
0.0
 11
83.87960099999999
 21
389.687012
 31
0.0
  0
LINE
  5
199C
330
A
100
AcDbEntity
  8
0
 62
     7
 48
0.029519
100
AcDbLine
 10
81.73634300000001
 20
389.687012
 30
0.0
 11
82.91709899999998
 21
389.687012
 31
0.0
  0
LINE
  5
199D
330
A
100
AcDbEntity
  8
0
 62
     7
 48
0.029519
100
AcDbLine
 10
179.442093
 20
389.687012
 30
0.0
 11
180.622849
 21
389.687012
 31
0.0
  0
ELLIPSE
  5
199E
330
A
100
AcDbEntity
  8
0
 62
     7
100
AcDbEllipse
 10
88.551315
 20
385.187012
 30
0.0
 11
0.0
 21
-0.5
 31
0.0
210
0.0
220
0.0
230
1.0
 40
0.99999
 41
3.141592741012571
 42
4.511031150817871
  0
LINE
  5
199F
330
A
100
AcDbEntity
  8
0
 62
     7
 48
0.028245
100
AcDbLine
 10
89.681084
 20
385.687012
 30
0.0
 11
88.55128499999997
 21
385.687012
 31
0.0
  0
ARC
  5
19A0
330
A
100
AcDbEntity
  8
0
 62
     7
100
AcDbCircle
 10
81.974052
 20
382.187012
 30
0.0
 40
0.3
100
AcDbArc
 50
90.00000300000001
 51
111.300002
  0
LINE
  5
19A1
330
A
100
AcDbEntity
  8
0
 62
     7
 48
0.310252
100
AcDbLine
 10
70.93804899999998
 20
377.998596
 30
0.0
 11
82.508026
 21
382.487
 31
0.0
  0
ARC
  5
19A2
330
A
100
AcDbEntity
  8
0
 62
     7
100
AcDbCircle
 10
71.238037
 20
378.001221
 30
0.0
 40
0.3
100
AcDbArc
 50
111.300023
 51
180.499975
  0
ELLIPSE
  5
19A4
330
A
100
AcDbEntity
  8
0
 62
     7
100
AcDbEllipse
 10
131.179688
 20
401.4479979999999
 30
0.0
 11
60.44601440429687
 21
0.0000457763671875
 31
0.0
210
0.0
220
0.0
230
1.0
 40
0.38794
 41
4.083345413208006
 42
5.21076488494873
  0
POLYLINE
  5
19A5
330
A
100
AcDbEntity
  8
0
 62
     7
100
AcDb2dPolyline
 66
     1
 10
0.0
 20
0.0
 30
0.0
  0
VERTEX
  5
19A6
330
19A5
100
AcDbEntity
  8
0
100
AcDbVertex
100
AcDb2dVertex
 10
85.572067
 20
379.187012
 30
0.0
  0
VERTEX
  5
19A7
330
19A5
100
AcDbEntity
  8
0
100
AcDbVertex
100
AcDb2dVertex
 10
85.602776
 20
378.9847410000001
 30
0.0
  0
VERTEX
  5
19A8
330
19A5
100
AcDbEntity
  8
0
100
AcDbVertex
100
AcDb2dVertex
 10
85.68458599999997
 20
378.81958
 30
0.0
  0
VERTEX
  5
19A9
330
19A5
100
AcDbEntity
  8
0
100
AcDbVertex
100
AcDb2dVertex
 10
85.785599
 20
378.725464
 30
0.0
  0
VERTEX
  5
19AA
330
19A5
100
AcDbEntity
  8
0
100
AcDbVertex
100
AcDb2dVertex
 10
85.88407899999998
 20
378.689423
 30
0.0
  0
VERTEX
  5
19AB
330
19A5
100
AcDbEntity
  8
0
100
AcDbVertex
100
AcDb2dVertex
 10
85.91787700000002
 20
378.6870120000001
 30
0.0
  0
SEQEND
  5
19AC
330
19A5
100
AcDbEntity
  8
0
  0
LINE
  5
19AD
330
A
100
AcDbEntity
  8
0
 62
     7
 48
0.082502
100
AcDbLine
 10
85.572067
 20
379.187012
 30
0.0
 11
85.544945
 21
382.487
 31
0.0
  0
LINE
  5
19AE
330
A
100
AcDbEntity
  8
0
 62
     7
100
AcDbLine
 10
70.93804899999998
 20
377.998596
 30
0.0
 11
71.24191699193239
 21
343.1784060000001
 31
0.0
  0
LINE
  5
19AF
330
A
100
AcDbEntity
  8
0
 62
     7
 48
0.105284
100
AcDbLine
 10
89.78343199999997
 20
379.187012
 30
0.0
 11
85.572067
 21
379.187012
 31
0.0
  0
LINE
  5
19B0
330
A
100
AcDbEntity
  8
0
 62
     7
 48
0.0825
100
AcDbLine
 10
89.78343199999997
 20
382.487
 30
0.0
 11
89.78343199999997
 21
379.187012
 31
0.0
  0
LINE
  5
19B1
330
A
100
AcDbEntity
  8
0
 62
     7
 48
0.106696
100
AcDbLine
 10
94.051285
 20
379.187012
 30
0.0
 11
89.78343199999997
 21
379.187012
 31
0.0
  0
ARC
  5
19B2
330
A
100
AcDbEntity
  8
0
 62
     7
100
AcDbCircle
 10
96.55458799999999
 20
379.833679
 30
0.0
 40
2.653322
100
AcDbArc
 50
82.867571
 51
89.95139899999998
  0
ELLIPSE
  5
19B3
330
A
100
AcDbEntity
  8
0
 62
     7
100
AcDbEllipse
 10
131.179626
 20
401.730957
 30
0.0
 11
60.14614868164063
 21
0.0000152587890625
 31
0.0
210
0.0
220
0.0
230
1.0
 40
0.389888
 41
4.105634212493896
 42
5.210757255554199
  0
ARC
  5
19B4
330
A
100
AcDbEntity
  8
0
 62
     7
100
AcDbCircle
 10
165.804611
 20
379.833679
 30
0.0
 40
2.653324
100
AcDbArc
 50
90.04859899999997
 51
97.13242800000001
  0
LINE
  5
19B5
330
A
100
AcDbEntity
  8
0
 62
     7
100
AcDbLine
 10
96.884033
 20
382.466492
 30
0.0
 11
165.475159
 21
382.466492
 31
0.0
  0
ARC
  5
19B6
330
A
100
AcDbEntity
  8
0
 62
     7
100
AcDbCircle
 10
138.833893
 20
481.97168
 30
0.0
 40
103.326706
100
AcDbArc
 50
281.8617549999999
 51
285.420201
  0
ARC
  5
19B7
330
A
100
AcDbEntity
  8
0
 62
     7
100
AcDbCircle
 10
138.541519
 20
482.329895
 30
0.0
 40
103.431931
100
AcDbArc
 50
281.933595
 51
285.093814
  0
LINE
  5
19B8
330
A
100
AcDbEntity
  8
0
 62
     7
 48
0.310252
100
AcDbLine
 10
179.851181
 20
382.487
 30
0.0
 11
191.421143
 21
377.998596
 31
0.0
  0
LINE
  5
19B9
330
A
100
AcDbEntity
  8
0
 62
     7
 48
0.082502
100
AcDbLine
 10
178.111969
 20
379.187012
 30
0.0
 11
178.138855
 21
382.487
 31
0.0
  0
POLYLINE
  5
19BA
330
A
100
AcDbEntity
  8
0
 62
     7
100
AcDb2dPolyline
 66
     1
 10
0.0
 20
0.0
 30
0.0
  0
VERTEX
  5
19BB
330
19BA
100
AcDbEntity
  8
0
100
AcDbVertex
100
AcDb2dVertex
 10
178.111969
 20
379.187012
 30
0.0
  0
VERTEX
  5
19BC
330
19BA
100
AcDbEntity
  8
0
100
AcDbVertex
100
AcDb2dVertex
 10
178.082947
 20
378.985535
 30
0.0
  0
VERTEX
  5
19BD
330
19BA
100
AcDbEntity
  8
0
100
AcDbVertex
100
AcDb2dVertex
 10
178.005402
 20
378.820343
 30
0.0
  0
VERTEX
  5
19BE
330
19BA
100
AcDbEntity
  8
0
100
AcDbVertex
100
AcDb2dVertex
 10
177.909225
 20
378.7258
 30
0.0
  0
VERTEX
  5
19BF
330
19BA
100
AcDbEntity
  8
0
100
AcDbVertex
100
AcDb2dVertex
 10
177.815201
 20
378.689453
 30
0.0
  0
VERTEX
  5
19C0
330
19BA
100
AcDbEntity
  8
0
100
AcDbVertex
100
AcDb2dVertex
 10
177.7829129999999
 20
378.6870120000001
 30
0.0
  0
SEQEND
  5
19C1
330
19BA
100
AcDbEntity
  8
0
  0
LINE
  5
19C3
330
A
100
AcDbEntity
  8
0
 62
     7
100
AcDbLine
 10
191.421143
 20
377.998596
 30
0.0
 11
191.1172667583474
 21
343.178406
 31
0.0
  0
LINE
  5
19C4
330
A
100
AcDbEntity
  8
0
 62
     7
 48
0.0825
100
AcDbLine
 10
173.421005
 20
382.487
 30
0.0
 11
173.421005
 21
379.187012
 31
0.0
  0
LINE
  5
19C5
330
A
100
AcDbEntity
  8
0
 62
     7
 48
0.177827
100
AcDbLine
 10
173.421005
 20
379.187012
 30
0.0
 11
166.307907
 21
379.187012
 31
0.0
  0
LINE
  5
19C6
330
A
100
AcDbEntity
  8
0
 62
     7
 48
0.117274
100
AcDbLine
 10
178.111969
 20
379.187012
 30
0.0
 11
173.421005
 21
379.187012
 31
0.0
  0
ARC
  5
19C7
330
A
100
AcDbEntity
  8
0
 62
     7
100
AcDbCircle
 10
191.121155
 20
378.001221
 30
0.0
 40
0.3
100
AcDbArc
 50
359.500019
 51
428.699982
  0
ARC
  5
19C8
330
A
100
AcDbEntity
  8
0
 62
     7
100
AcDbCircle
 10
180.385132
 20
382.187012
 30
0.0
 40
0.3
100
AcDbArc
 50
68.700003
 51
90.00000300000001
  0
ARC
  5
19C9
330
A
100
AcDbEntity
  8
0
 62
     7
100
AcDbCircle
 10
180.622849
 20
389.187012
 30
0.0
 40
0.5
100
AcDbArc
 50
0.5
 51
90.00000300000001
  0
ARC
  5
19CA
330
A
100
AcDbEntity
  8
0
 62
     7
100
AcDbCircle
 10
81.73634300000001
 20
389.187012
 30
0.0
 40
0.5
100
AcDbArc
 50
90.00000300000001
 51
179.499994
  0
LINE
  5
19CB
330
A
100
AcDbEntity
  8
0
 62
     7
 48
0.288079
100
AcDbLine
 10
71.129059
 20
378.2807009999999
 30
0.0
 11
81.865082
 21
382.466492
 31
0.0
  0
LINE
  5
19CE
330
A
100
AcDbEntity
  8
0
 62
     7
 48
0.101922
100
AcDbLine
 10
89.99474300000001
 20
378.6870120000001
 30
0.0
 11
85.91787700000002
 21
378.6870120000001
 31
0.0
  0
LINE
  5
19CF
330
A
100
AcDbEntity
  8
0
 62
     7
 48
0.070608
100
AcDbLine
 10
92.819061
 20
378.6870120000001
 30
0.0
 11
89.99474300000001
 21
378.6870120000001
 31
0.0
  0
LINE
  5
19D0
330
A
100
AcDbEntity
  8
0
 62
     7
 48
0.018306
100
AcDbLine
 10
93.55128499999999
 20
378.6870120000001
 30
0.0
 11
92.819061
 21
378.6870120000001
 31
0.0
  0
ELLIPSE
  5
19D1
330
A
100
AcDbEntity
  8
0
 62
     7
100
AcDbEllipse
 10
89.99474300000001
 20
379.187012
 30
0.0
 11
0.0
 21
-0.5
 31
0.0
210
0.0
220
0.0
230
1.0
 40
0.4226180000000002
 41
4.712388992309568
 42
6.283185482025146
  0
ELLIPSE
  5
19D2
330
A
100
AcDbEntity
  8
0
 62
     7
100
AcDbEllipse
 10
173.209686
 20
379.187012
 30
0.0
 11
0.0
 21
0.5
 31
0.0
210
0.0
220
0.0
230
1.0
 40
0.4226180000000002
 41
3.141592741012571
 42
4.712388992309568
  0
LINE
  5
19D3
330
A
100
AcDbEntity
  8
0
 62
     7
 48
0.114331
100
AcDbLine
 10
177.7829129999999
 20
378.6870120000001
 30
0.0
 11
173.209686
 21
378.6870120000001
 31
0.0
  0
LINE
  5
19D4
330
A
100
AcDbEntity
  8
0
 62
     7
 48
0.160044
100
AcDbLine
 10
173.209686
 20
378.6870120000001
 30
0.0
 11
166.807907
 21
378.6870120000001
 31
0.0
  0
LINE
  5
19D5
330
A
100
AcDbEntity
  8
0
 62
     7
 48
0.288079
100
AcDbLine
 10
191.230133
 20
378.2807009999999
 30
0.0
 11
180.49411
 21
382.466492
 31
0.0
  0
LINE
  5
19D6
330
A
100
AcDbEntity
  8
0
 62
     7
 48
0.115717
100
AcDbLine
 10
181.163223
 20
384.562836
 30
0.0
 11
181.122833
 21
389.191345
 31
0.0
  0
LINE
  5
19D7
330
A
100
AcDbEntity
  8
0
 62
     7
 48
0.115717
100
AcDbLine
 10
81.19596899999997
 20
384.562836
 30
0.0
 11
81.236359
 21
389.191345
 31
0.0
  0
ARC
  5
19DA
330
A
100
AcDbEntity
  8
0
 62
     7
100
AcDbCircle
 10
191.121155
 20
378.00119
 30
0.0
 40
2.500004
100
AcDbArc
 50
359.500051
 51
428.6999279999998
  0
LINE
  5
19DB
330
A
100
AcDbEntity
  8
0
 62
     7
 48
0.003454
100
AcDbLine
 10
181.163223
 20
384.562836
 30
0.0
 11
181.293274
 21
384.516235
 31
0.0
  0
LINE
  5
19DC
330
A
100
AcDbEntity
  8
0
 62
     7
 48
0.003454
100
AcDbLine
 10
81.065926
 20
384.516235
 30
0.0
 11
81.19596899999997
 21
384.562836
 31
0.0
  0
ARC
  5
19DD
330
A
100
AcDbEntity
  8
0
 62
     7
100
AcDbCircle
 10
71.238037
 20
378.00119
 30
0.0
 40
2.500004
100
AcDbArc
 50
111.30007
 51
180.499948
  0
LINE
  5
19DE
330
A
100
AcDbEntity
  8
0
 62
     7
100
AcDbLine
 10
69.04183575736912
 20
343.178406
 30
0.0
 11
68.738129
 21
377.97937
 31
0.0
  0
LINE
  5
19DF
330
A
100
AcDbEntity
  8
0
 62
     7
100
AcDbLine
 10
193.3173562426309
 20
343.178406
 30
0.0
 11
193.621063
 21
377.97937
 31
0.0
  0
LINE
  5
19E0
330
A
100
AcDbEntity
  8
0
 62
     7
 48
0.288078
100
AcDbLine
 10
192.029282
 20
380.330444
 30
0.0
 11
181.293274
 21
384.516235
 31
0.0
  0
LINE
  5
19E1
330
A
100
AcDbEntity
  8
0
 62
     7
 48
0.288079
100
AcDbLine
 10
70.32990999999999
 20
380.330444
 30
0.0
 11
81.065926
 21
384.516235
 31
0.0
  0
LINE
  5
19E2
330
A
100
AcDbEntity
  8
0
 62
     7
 48
0.0825
100
AcDbLine
 10
94.051285
 20
379.187012
 30
0.0
 11
94.051285
 21
382.487
 31
0.0
  0
LINE
  5
19E3
330
A
100
AcDbEntity
  8
0
 62
     7
 48
0.0825
100
AcDbLine
 10
166.307907
 20
379.187012
 30
0.0
 11
166.307907
 21
382.487
 31
0.0
  0
ARC
  5
19E4
330
A
100
AcDbEntity
  8
0
 62
     7
100
AcDbCircle
 10
93.55128499999999
 20
379.187012
 30
0.0
 40
0.5
100
AcDbArc
 50
269.999997
 51
360.0
  0
ARC
  5
19E5
330
A
100
AcDbEntity
  8
0
 62
     7
100
AcDbCircle
 10
166.807907
 20
379.187012
 30
0.0
 40
0.5
100
AcDbArc
 50
179.999995
 51
269.999997
  0
LINE
  5
1B5D
330
A
100
AcDbEntity
  8
0
 62
     7
 48
0.025
100
AcDbLine
 10
178.679535
 20
384.886993
 30
0.0
 11
177.679535
 21
384.886993
 31
0.0
  0
LINE
  5
1B5E
330
A
100
AcDbEntity
  8
0
 62
     7
 48
0.0825
100
AcDbLine
 10
177.679535
 20
384.886993
 30
0.0
 11
177.679535
 21
388.187012
 31
0.0
  0
LINE
  5
1B5F
330
A
100
AcDbEntity
  8
0
 62
     7
100
AcDbLine
 10
177.679535
 20
388.187012
 30
0.0
 11
84.679535
 21
388.187012
 31
0.0
  0
LINE
  5
1B60
330
A
100
AcDbEntity
  8
0
 62
     7
 48
0.0825
100
AcDbLine
 10
84.679535
 20
384.886993
 30
0.0
 11
84.679535
 21
388.187012
 31
0.0
  0
LINE
  5
1B61
330
A
100
AcDbEntity
  8
0
 62
     7
 48
0.025
100
AcDbLine
 10
84.679535
 20
384.886993
 30
0.0
 11
83.679535
 21
384.886993
 31
0.0
  0
LINE
  5
1B62
330
A
100
AcDbEntity
  8
0
 62
     7
 48
0.0825
100
AcDbLine
 10
83.679535
 20
384.886993
 30
0.0
 11
83.679535
 21
388.187012
 31
0.0
  0
ARC
  5
1B63
330
A
100
AcDbEntity
  8
0
 62
     7
100
AcDbCircle
 10
84.679535
 20
388.187012
 30
0.0
 40
1.0
100
AcDbArc
 50
89.99998900000001
 51
180.000005
  0
LINE
  5
1B64
330
A
100
AcDbEntity
  8
0
 62
     7
100
AcDbLine
 10
177.679535
 20
389.187012
 30
0.0
 11
84.679535
 21
389.187012
 31
0.0
  0
ARC
  5
1B65
330
A
100
AcDbEntity
  8
0
 62
     7
100
AcDbCircle
 10
177.679535
 20
388.187012
 30
0.0
 40
1.0
100
AcDbArc
 50
0.000002
 51
90.000016
  0
LINE
  5
1B66
330
A
100
AcDbEntity
  8
0
 62
     7
 48
0.0825
100
AcDbLine
 10
178.679535
 20
384.886993
 30
0.0
 11
178.679535
 21
388.187012
 31
0.0
  0
LINE
  5
1B67
330
A
100
AcDbEntity
  8
0
 62
     7
 48
0.007486
100
AcDbLine
 10
166.353989
 20
385.187012
 30
0.0
 11
166.653442
 21
385.187012
 31
0.0
  0
LINE
  5
1B68
330
A
100
AcDbEntity
  8
0
 62
     7
 48
0.008033
100
AcDbLine
 10
166.032684
 20
385.187012
 30
0.0
 11
166.353989
 21
385.187012
 31
0.0
  0
LINE
  5
1B69
330
A
100
AcDbEntity
  8
0
 62
     7
 48
0.006806
100
AcDbLine
 10
166.653442
 20
385.187012
 30
0.0
 11
166.92569
 21
385.187012
 31
0.0
  0
LINE
  5
1B6A
330
A
100
AcDbEntity
  8
0
 62
     7
 48
0.008444
100
AcDbLine
 10
165.694916
 20
385.187012
 30
0.0
 11
166.032684
 21
385.187012
 31
0.0
  0
LINE
  5
1B6B
330
A
100
AcDbEntity
  8
0
 62
     7
 48
0.00599
100
AcDbLine
 10
166.92569
 20
385.187012
 30
0.0
 11
167.165298
 21
385.187012
 31
0.0
  0
LINE
  5
1B6C
330
A
100
AcDbEntity
  8
0
 62
     7
100
AcDbLine
 10
130.031281
 20
385.187012
 30
0.0
 11
165.694916
 21
385.187012
 31
0.0
  0
LINE
  5
1B6D
330
A
100
AcDbEntity
  8
0
 62
     7
 48
0.00504
100
AcDbLine
 10
167.165298
 20
385.187012
 30
0.0
 11
167.366913
 21
385.187012
 31
0.0
  0
LINE
  5
1B6E
330
A
100
AcDbEntity
  8
0
 62
     7
 48
0.000497
100
AcDbLine
 10
178.679535
 20
388.187012
 30
0.0
 11
178.699417
 21
388.187012
 31
0.0
  0
LINE
  5
1B6F
330
A
100
AcDbEntity
  8
0
 62
     7
 48
0.016368
100
AcDbLine
 10
129.376541
 20
385.187012
 30
0.0
 11
130.031281
 21
385.187012
 31
0.0
  0
LINE
  5
1B70
330
A
100
AcDbEntity
  8
0
 62
     7
 48
0.0825
100
AcDbLine
 10
84.699448
 20
388.187012
 30
0.0
 11
84.699448
 21
384.886993
 31
0.0
  0
LINE
  5
1B71
330
A
100
AcDbEntity
  8
0
 62
     7
 48
0.000138
100
AcDbLine
 10
84.679535
 20
384.886993
 30
0.0
 11
84.685074
 21
384.886993
 31
0.0
  0
LINE
  5
1B72
330
A
100
AcDbEntity
  8
0
 62
     7
 48
0.060169
100
AcDbLine
 10
88.70131699999998
 20
388.093781
 30
0.0
 11
88.70131699999998
 21
385.687012
 31
0.0
  0
LINE
  5
1B73
330
A
100
AcDbEntity
  8
0
 62
     7
100
AcDbLine
 10
142.99762
 20
384.886993
 30
0.0
 11
119.473358
 21
384.886993
 31
0.0
  0
LINE
  5
1B74
330
A
100
AcDbEntity
  8
0
 62
     7
 48
0.060512
100
AcDbLine
 10
173.701294
 20
388.107483
 30
0.0
 11
173.701294
 21
385.687012
 31
0.0
  0
ARC
  5
1B75
330
A
100
AcDbEntity
  8
0
 62
     7
100
AcDbCircle
 10
125.198547
 20
386.686462
 30
0.0
 40
1.500453
100
AcDbArc
 50
0.019809
 51
90.019366
  0
ELLIPSE
  5
1B76
330
A
100
AcDbEntity
  8
0
 62
     7
100
AcDbEllipse
 10
125.319115
 20
386.6870120000001
 30
0.0
 11
0.000091552734375
 21
-1.5
 31
0.0
210
0.0
220
0.0
230
1.0
 40
0.9737189999999998
 41
1.570735335350035
 42
3.141535997390747
  0
LINE
  5
1B77
330
A
100
AcDbEntity
  8
0
 62
     7
 48
0.002019
100
AcDbLine
 10
126.698929
 20
386.6870120000001
 30
0.0
 11
126.779686
 21
386.6870120000001
 31
0.0
  0
ELLIPSE
  5
1B78
330
A
100
AcDbEntity
  8
0
 62
     7
100
AcDbEllipse
 10
125.564796
 20
386.6870120000001
 30
0.0
 11
0.0000457763671875
 21
-1.499984741210936
 31
0.0
210
0.0
220
0.0
230
1.0
 40
0.9192259999999999
 41
1.57076323032379
 42
3.141566276550291
  0
LINE
  5
1B79
330
A
100
AcDbEntity
  8
0
 62
     7
 48
0.004099
100
AcDbLine
 10
126.779686
 20
386.6870120000001
 30
0.0
 11
126.943626
 21
386.6870120000001
 31
0.0
  0
ELLIPSE
  5
1B7A
330
A
100
AcDbEntity
  8
0
 62
     7
100
AcDbEllipse
 10
125.922394
 20
386.6870120000001
 30
0.0
 11
0.000030517578125
 21
-1.499984741210936
 31
0.0
210
0.0
220
0.0
230
1.0
 40
0.8394779999999999
 41
1.570770978927611
 42
3.141576766967772
  0
LINE
  5
1B7B
330
A
100
AcDbEntity
  8
0
 62
     7
 48
0.005949
100
AcDbLine
 10
126.943626
 20
386.6870120000001
 30
0.0
 11
127.181602
 21
386.6870120000001
 31
0.0
  0
ELLIPSE
  5
1B7C
330
A
100
AcDbEntity
  8
0
 62
     7
100
AcDbEllipse
 10
126.377586
 20
386.6870120000001
 30
0.0
 11
0.0000152587890625
 21
-1.499984741210936
 31
0.0
210
0.0
220
0.0
230
1.0
 40
0.738047
 41
1.570772647857666
 42
3.141581773757933
  0
LINE
  5
1B7D
330
A
100
AcDbEntity
  8
0
 62
     7
 48
0.007576
100
AcDbLine
 10
127.181602
 20
386.6870120000001
 30
0.0
 11
127.484642
 21
386.6870120000001
 31
0.0
  0
ELLIPSE
  5
1B7E
330
A
100
AcDbEntity
  8
0
 62
     7
100
AcDbEllipse
 10
126.917633
 20
386.6870120000001
 30
0.0
 11
0.0000152587890625
 21
-1.499969482421874
 31
0.0
210
0.0
220
0.0
230
1.0
 40
0.617876
 41
1.570771455764769
 42
3.141585350036619
  0
LINE
  5
1B7F
330
A
100
AcDbEntity
  8
0
 62
     7
 48
0.008995
100
AcDbLine
 10
127.484642
 20
386.6870120000001
 30
0.0
 11
127.844429
 21
386.6870120000001
 31
0.0
  0
ELLIPSE
  5
1B80
330
A
100
AcDbEntity
  8
0
 62
     7
100
AcDbEllipse
 10
127.531174
 20
386.6870120000001
 30
0.0
 11
0.0000152587890625
 21
-1.499969482421874
 31
0.0
210
0.0
220
0.0
230
1.0
 40
0.4813520000000002
 41
1.570766806602478
 42
3.141587734222412
  0
LINE
  5
1B81
330
A
100
AcDbEntity
  8
0
 62
     7
 48
0.010219
100
AcDbLine
 10
127.844429
 20
386.6870120000001
 30
0.0
 11
128.253189
 21
386.6870120000001
 31
0.0
  0
POLYLINE
  5
1B82
330
A
100
AcDbEntity
  8
0
 62
     7
100
AcDb2dPolyline
 66
     1
 10
0.0
 20
0.0
 30
0.0
  0
VERTEX
  5
1B83
330
1B82
100
AcDbEntity
  8
0
100
AcDbVertex
100
AcDb2dVertex
 10
128.207245
 20
388.187012
 30
0.0
  0
VERTEX
  5
1B84
330
1B82
100
AcDbEntity
  8
0
100
AcDbVertex
100
AcDb2dVertex
 10
128.36055
 20
388.113556
 30
0.0
  0
VERTEX
  5
1B85
330
1B82
100
AcDbEntity
  8
0
100
AcDbVertex
100
AcDb2dVertex
 10
128.46167
 20
387.97467
 30
0.0
  0
VERTEX
  5
1B86
330
1B82
100
AcDbEntity
  8
0
100
AcDbVertex
100
AcDb2dVertex
 10
128.549988
 20
387.771362
 30
0.0
  0
VERTEX
  5
1B87
330
1B82
100
AcDbEntity
  8
0
100
AcDbVertex
100
AcDb2dVertex
 10
128.632996
 20
387.456787
 30
0.0
  0
VERTEX
  5
1B88
330
1B82
100
AcDbEntity
  8
0
100
AcDbVertex
100
AcDb2dVertex
 10
128.690826
 20
387.021179
 30
0.0
  0
VERTEX
  5
1B89
330
1B82
100
AcDbEntity
  8
0
100
AcDbVertex
100
AcDb2dVertex
 10
128.703293
 20
386.6870120000001
 30
0.0
  0
SEQEND
  5
1B8A
330
1B82
100
AcDbEntity
  8
0
  0
LINE
  5
1B8B
330
A
100
AcDbEntity
  8
0
 62
     7
 48
0.011253
100
AcDbLine
 10
128.253189
 20
386.6870120000001
 30
0.0
 11
128.703293
 21
386.6870120000001
 31
0.0
  0
POLYLINE
  5
1B8C
330
A
100
AcDbEntity
  8
0
 62
     7
100
AcDb2dPolyline
 66
     1
 10
0.0
 20
0.0
 30
0.0
  0
VERTEX
  5
1B8D
330
1B8C
100
AcDbEntity
  8
0
100
AcDbVertex
100
AcDb2dVertex
 10
128.93338
 20
388.187012
 30
0.0
  0
VERTEX
  5
1B8E
330
1B8C
100
AcDbEntity
  8
0
100
AcDbVertex
100
AcDb2dVertex
 10
128.994858
 20
388.14209
 30
0.0
  0
VERTEX
  5
1B8F
330
1B8C
100
AcDbEntity
  8
0
100
AcDbVertex
100
AcDb2dVertex
 10
129.048889
 20
388.021729
 30
0.0
  0
VERTEX
  5
1B90
330
1B8C
100
AcDbEntity
  8
0
100
AcDbVertex
100
AcDb2dVertex
 10
129.105545
 20
387.786682
 30
0.0
  0
VERTEX
  5
1B91
330
1B8C
100
AcDbEntity
  8
0
100
AcDbVertex
100
AcDb2dVertex
 10
129.160507
 20
387.349487
 30
0.0
  0
VERTEX
  5
1B92
330
1B8C
100
AcDbEntity
  8
0
100
AcDbVertex
100
AcDb2dVertex
 10
129.186539
 20
386.6870120000001
 30
0.0
  0
SEQEND
  5
1B93
330
1B8C
100
AcDbEntity
  8
0
  0
LINE
  5
1B94
330
A
100
AcDbEntity
  8
0
 62
     7
 48
0.012081
100
AcDbLine
 10
128.703293
 20
386.6870120000001
 30
0.0
 11
129.186539
 21
386.6870120000001
 31
0.0
  0
LINE
  5
1B95
330
A
100
AcDbEntity
  8
0
 62
     7
 48
0.036147
100
AcDbLine
 10
129.597458
 20
388.131927
 30
0.0
 11
129.65036
 21
386.6870120000001
 31
0.0
  0
LINE
  5
1B96
330
A
100
AcDbEntity
  8
0
 62
     7
 48
0.011596
100
AcDbLine
 10
129.186539
 20
386.6870120000001
 30
0.0
 11
129.65036
 21
386.6870120000001
 31
0.0
  0
LINE
  5
1B97
330
A
100
AcDbEntity
  8
0
 62
     7
 48
0.026057
100
AcDbLine
 10
129.65036
 20
386.6870120000001
 30
0.0
 11
130.692627
 21
386.6870120000001
 31
0.0
  0
LINE
  5
1B98
330
A
100
AcDbEntity
  8
0
 62
     7
 48
0.125472
100
AcDbLine
 10
121.680046
 20
386.6870120000001
 30
0.0
 11
126.698921
 21
386.6870120000001
 31
0.0
  0
ARC
  5
1B99
330
A
100
AcDbEntity
  8
0
 62
     7
100
AcDbCircle
 10
129.192245
 20
386.686462
 30
0.0
 40
1.500445999999999
100
AcDbArc
 50
0.019671
 51
90.01965300000001
  0
ELLIPSE
  5
1B9A
330
A
100
AcDbEntity
  8
0
 62
     7
100
AcDbEllipse
 10
129.312805
 20
386.6870120000001
 30
0.0
 11
0.000091552734375
 21
-1.5
 31
0.0
210
0.0
220
0.0
230
1.0
 40
0.973722
 41
1.570735335350035
 42
3.141535997390747
  0
LINE
  5
1B9B
330
A
100
AcDbEntity
  8
0
 62
     7
 48
0.002019
100
AcDbLine
 10
130.692627
 20
386.6870120000001
 30
0.0
 11
130.773376
 21
386.6870120000001
 31
0.0
  0
ELLIPSE
  5
1B9C
330
A
100
AcDbEntity
  8
0
 62
     7
100
AcDbEllipse
 10
129.558472
 20
386.6870120000001
 30
0.0
 11
0.0000457763671875
 21
-1.499984741210936
 31
0.0
210
0.0
220
0.0
230
1.0
 40
0.9192319999999998
 41
1.570763111114501
 42
3.141566276550291
  0
LINE
  5
1B9D
330
A
100
AcDbEntity
  8
0
 62
     7
 48
0.004099
100
AcDbLine
 10
130.773376
 20
386.6870120000001
 30
0.0
 11
130.9373169999999
 21
386.6870120000001
 31
0.0
  0
ELLIPSE
  5
1B9E
330
A
100
AcDbEntity
  8
0
 62
     7
100
AcDbEllipse
 10
129.916061
 20
386.6870120000001
 30
0.0
 11
0.000030517578125
 21
-1.499984741210936
 31
0.0
210
0.0
220
0.0
230
1.0
 40
0.8394849999999999
 41
1.570770859718321
 42
3.141576766967772
  0
LINE
  5
1B9F
330
A
100
AcDbEntity
  8
0
 62
     7
 48
0.005949
100
AcDbLine
 10
130.9373169999999
 20
386.6870120000001
 30
0.0
 11
131.175278
 21
386.6870120000001
 31
0.0
  0
ELLIPSE
  5
1BA0
330
A
100
AcDbEntity
  8
0
 62
     7
100
AcDbEllipse
 10
130.371246
 20
386.6870120000001
 30
0.0
 11
0.0000152587890625
 21
-1.499984741210936
 31
0.0
210
0.0
220
0.0
230
1.0
 40
0.738057
 41
1.570772647857666
 42
3.141581773757933
  0
LINE
  5
1BA1
330
A
100
AcDbEntity
  8
0
 62
     7
 48
0.007576
100
AcDbLine
 10
131.175278
 20
386.6870120000001
 30
0.0
 11
131.478317
 21
386.6870120000001
 31
0.0
  0
ELLIPSE
  5
1BA2
330
A
100
AcDbEntity
  8
0
 62
     7
100
AcDbEllipse
 10
130.911285
 20
386.6870120000001
 30
0.0
 11
0.0000152587890625
 21
-1.499969482421874
 31
0.0
210
0.0
220
0.0
230
1.0
 40
0.617888
 41
1.570771455764769
 42
3.14158511161804
  0
LINE
  5
1BA3
330
A
100
AcDbEntity
  8
0
 62
     7
 48
0.008995
100
AcDbLine
 10
131.478317
 20
386.6870120000001
 30
0.0
 11
131.838104
 21
386.6870120000001
 31
0.0
  0
ELLIPSE
  5
1BA4
330
A
100
AcDbEntity
  8
0
 62
     7
100
AcDbEllipse
 10
131.524826
 20
386.6870120000001
 30
0.0
 11
0.0000152587890625
 21
-1.499969482421874
 31
0.0
210
0.0
220
0.0
230
1.0
 40
0.4813629999999999
 41
1.570766806602478
 42
3.141587734222412
  0
LINE
  5
1BA5
330
A
100
AcDbEntity
  8
0
 62
     7
 48
0.010219
100
AcDbLine
 10
131.838104
 20
386.6870120000001
 30
0.0
 11
132.246857
 21
386.6870120000001
 31
0.0
  0
POLYLINE
  5
1BA6
330
A
100
AcDbEntity
  8
0
 62
     7
100
AcDb2dPolyline
 66
     1
 10
0.0
 20
0.0
 30
0.0
  0
VERTEX
  5
1BA7
330
1BA6
100
AcDbEntity
  8
0
100
AcDbVertex
100
AcDb2dVertex
 10
132.200897
 20
388.187012
 30
0.0
  0
VERTEX
  5
1BA8
330
1BA6
100
AcDbEntity
  8
0
100
AcDbVertex
100
AcDb2dVertex
 10
132.343643
 20
388.123535
 30
0.0
  0
VERTEX
  5
1BA9
330
1BA6
100
AcDbEntity
  8
0
100
AcDbVertex
100
AcDb2dVertex
 10
132.427567
 20
388.02124
 30
0.0
  0
VERTEX
  5
1BAA
330
1BA6
100
AcDbEntity
  8
0
100
AcDbVertex
100
AcDb2dVertex
 10
132.52153
 20
387.831543
 30
0.0
  0
VERTEX
  5
1BAB
330
1BA6
100
AcDbEntity
  8
0
100
AcDbVertex
100
AcDb2dVertex
 10
132.611954
 20
387.526672
 30
0.0
  0
VERTEX
  5
1BAC
330
1BA6
100
AcDbEntity
  8
0
100
AcDbVertex
100
AcDb2dVertex
 10
132.678406
 20
387.093384
 30
0.0
  0
VERTEX
  5
1BAD
330
1BA6
100
AcDbEntity
  8
0
100
AcDbVertex
100
AcDb2dVertex
 10
132.69696
 20
386.6870120000001
 30
0.0
  0
SEQEND
  5
1BAE
330
1BA6
100
AcDbEntity
  8
0
  0
LINE
  5
1BAF
330
A
100
AcDbEntity
  8
0
 62
     7
 48
0.011253
100
AcDbLine
 10
132.246857
 20
386.6870120000001
 30
0.0
 11
132.69696
 21
386.6870120000001
 31
0.0
  0
POLYLINE
  5
1BB0
330
A
100
AcDbEntity
  8
0
 62
     7
100
AcDb2dPolyline
 66
     1
 10
0.0
 20
0.0
 30
0.0
  0
VERTEX
  5
1BB1
330
1BB0
100
AcDbEntity
  8
0
100
AcDbVertex
100
AcDb2dVertex
 10
132.927032
 20
388.187012
 30
0.0
  0
VERTEX
  5
1BB2
330
1BB0
100
AcDbEntity
  8
0
100
AcDbVertex
100
AcDb2dVertex
 10
132.9944
 20
388.1329350000001
 30
0.0
  0
VERTEX
  5
1BB3
330
1BB0
100
AcDbEntity
  8
0
100
AcDbVertex
100
AcDb2dVertex
 10
133.046997
 20
388.007874
 30
0.0
  0
VERTEX
  5
1BB4
330
1BB0
100
AcDbEntity
  8
0
100
AcDbVertex
100
AcDb2dVertex
 10
133.109985
 20
387.723816
 30
0.0
  0
VERTEX
  5
1BB5
330
1BB0
100
AcDbEntity
  8
0
100
AcDbVertex
100
AcDb2dVertex
 10
133.164032
 20
387.214539
 30
0.0
  0
VERTEX
  5
1BB6
330
1BB0
100
AcDbEntity
  8
0
100
AcDbVertex
100
AcDb2dVertex
 10
133.180206
 20
386.6870120000001
 30
0.0
  0
SEQEND
  5
1BB7
330
1BB0
100
AcDbEntity
  8
0
  0
LINE
  5
1BB8
330
A
100
AcDbEntity
  8
0
 62
     7
 48
0.012081
100
AcDbLine
 10
132.69696
 20
386.6870120000001
 30
0.0
 11
133.180206
 21
386.6870120000001
 31
0.0
  0
POLYLINE
  5
1BB9
330
A
100
AcDbEntity
  8
0
 62
     7
100
AcDb2dPolyline
 66
     1
 10
0.0
 20
0.0
 30
0.0
  0
VERTEX
  5
1BBA
330
1BB9
100
AcDbEntity
  8
0
100
AcDbVertex
100
AcDb2dVertex
 10
133.579971
 20
388.187012
 30
0.0
  0
VERTEX
  5
1BBB
330
1BB9
100
AcDbEntity
  8
0
100
AcDbVertex
100
AcDb2dVertex
 10
133.59288
 20
388.113373
 30
0.0
  0
VERTEX
  5
1BBC
330
1BB9
100
AcDbEntity
  8
0
100
AcDbVertex
100
AcDb2dVertex
 10
133.611237
 20
387.771057
 30
0.0
  0
VERTEX
  5
1BBD
330
1BB9
100
AcDbEntity
  8
0
100
AcDbVertex
100
AcDb2dVertex
 10
133.644028
 20
386.6870120000001
 30
0.0
  0
SEQEND
  5
1BBE
330
1BB9
100
AcDbEntity
  8
0
  0
LINE
  5
1BBF
330
A
100
AcDbEntity
  8
0
 62
     7
 48
0.011596
100
AcDbLine
 10
133.180206
 20
386.6870120000001
 30
0.0
 11
133.644028
 21
386.6870120000001
 31
0.0
  0
POLYLINE
  5
1BC0
330
A
100
AcDbEntity
  8
0
 62
     7
100
AcDb2dPolyline
 66
     1
 10
0.0
 20
0.0
 30
0.0
  0
VERTEX
  5
1BC1
330
1BC0
100
AcDbEntity
  8
0
100
AcDbVertex
100
AcDb2dVertex
 10
169.397903
 20
388.187012
 30
0.0
  0
VERTEX
  5
1BC2
330
1BC0
100
AcDbEntity
  8
0
100
AcDbVertex
100
AcDb2dVertex
 10
169.38591
 20
388.113586
 30
0.0
  0
VERTEX
  5
1BC3
330
1BC0
100
AcDbEntity
  8
0
100
AcDbVertex
100
AcDb2dVertex
 10
169.372223
 20
387.771179
 30
0.0
  0
VERTEX
  5
1BC4
330
1BC0
100
AcDbEntity
  8
0
100
AcDbVertex
100
AcDb2dVertex
 10
169.3694
 20
386.6870120000001
 30
0.0
  0
SEQEND
  5
1BC5
330
1BC0
100
AcDbEntity
  8
0
  0
LINE
  5
1BC6
330
A
100
AcDbEntity
  8
0
 62
     7
100
AcDbLine
 10
133.644028
 20
386.6870120000001
 30
0.0
 11
169.3694
 21
386.6870120000001
 31
0.0
  0
POLYLINE
  5
1BC7
330
A
100
AcDbEntity
  8
0
 62
     7
100
AcDb2dPolyline
 66
     1
 10
0.0
 20
0.0
 30
0.0
  0
VERTEX
  5
1BC8
330
1BC7
100
AcDbEntity
  8
0
100
AcDbVertex
100
AcDb2dVertex
 10
170.463593
 20
388.187012
 30
0.0
  0
VERTEX
  5
1BC9
330
1BC7
100
AcDbEntity
  8
0
100
AcDbVertex
100
AcDb2dVertex
 10
170.400986
 20
388.147644
 30
0.0
  0
VERTEX
  5
1BCA
330
1BC7
100
AcDbEntity
  8
0
100
AcDbVertex
100
AcDb2dVertex
 10
170.347504
 20
388.046875
 30
0.0
  0
VERTEX
  5
1BCB
330
1BC7
100
AcDbEntity
  8
0
100
AcDbVertex
100
AcDb2dVertex
 10
170.287796
 20
387.840698
 30
0.0
  0
VERTEX
  5
1BCC
330
1BC7
100
AcDbEntity
  8
0
100
AcDbVertex
100
AcDb2dVertex
 10
170.224426
 20
387.427917
 30
0.0
  0
VERTEX
  5
1BCD
330
1BC7
100
AcDbEntity
  8
0
100
AcDbVertex
100
AcDb2dVertex
 10
170.189987
 20
386.841827
 30
0.0
  0
VERTEX
  5
1BCE
330
1BC7
100
AcDbEntity
  8
0
100
AcDbVertex
100
AcDb2dVertex
 10
170.188522
 20
386.6870120000001
 30
0.0
  0
SEQEND
  5
1BCF
330
1BC7
100
AcDbEntity
  8
0
  0
LINE
  5
1BD0
330
A
100
AcDbEntity
  8
0
 62
     7
 48
0.020478
100
AcDbLine
 10
169.3694
 20
386.6870120000001
 30
0.0
 11
170.188522
 21
386.6870120000001
 31
0.0
  0
ELLIPSE
  5
1BD1
330
A
100
AcDbEntity
  8
0
 62
     7
100
AcDbEllipse
 10
171.736359
 20
386.686951
 30
0.0
 11
0.0000152587890625
 21
-1.500045776367186
 31
0.0
210
0.0
220
0.0
230
1.0
 40
0.4403710000000002
 41
3.141588211059569
 42
4.712356567382811
  0
LINE
  5
1BD2
330
A
100
AcDbEntity
  8
0
 62
     7
 48
0.022181
100
AcDbLine
 10
170.188522
 20
386.6870120000001
 30
0.0
 11
171.075775
 21
386.6870120000001
 31
0.0
  0
ELLIPSE
  5
1BD3
330
A
100
AcDbEntity
  8
0
 62
     7
100
AcDbEllipse
 10
172.459717
 20
386.686981
 30
0.0
 11
0.0000152587890625
 21
-1.500030517578125
 31
0.0
210
0.0
220
0.0
230
1.0
 40
0.616536
 41
3.141586303710937
 42
4.712367057800292
  0
LINE
  5
1BD4
330
A
100
AcDbEntity
  8
0
 62
     7
 48
0.011478
100
AcDbLine
 10
171.075775
 20
386.6870120000001
 30
0.0
 11
171.534897
 21
386.6870120000001
 31
0.0
  0
ELLIPSE
  5
1BD5
330
A
100
AcDbEntity
  8
0
 62
     7
100
AcDbEllipse
 10
173.008972
 20
386.686981
 30
0.0
 11
0.0000152587890625
 21
-1.500015258789061
 31
0.0
210
0.0
220
0.0
230
1.0
 40
0.739025
 41
3.141583681106566
 42
4.712368965148924
  0
LINE
  5
1BD6
330
A
100
AcDbEntity
  8
0
 62
     7
 48
0.009138
100
AcDbLine
 10
171.534897
 20
386.6870120000001
 30
0.0
 11
171.900421
 21
386.6870120000001
 31
0.0
  0
ELLIPSE
  5
1BD7
330
A
100
AcDbEntity
  8
0
 62
     7
100
AcDbEllipse
 10
173.46138
 20
386.686981
 30
0.0
 11
0.0000152587890625
 21
-1.500015258789061
 31
0.0
210
0.0
220
0.0
230
1.0
 40
0.8398329999999999
 41
3.141580343246458
 42
4.712369441986083
  0
LINE
  5
1BD8
330
A
100
AcDbEntity
  8
0
 62
     7
 48
0.00753
100
AcDbLine
 10
171.900421
 20
386.6870120000001
 30
0.0
 11
172.20163
 21
386.6870120000001
 31
0.0
  0
ELLIPSE
  5
1BD9
330
A
100
AcDbEntity
  8
0
 62
     7
100
AcDbEllipse
 10
173.81073
 20
386.6870120000001
 30
0.0
 11
0.000030517578125
 21
-1.5
 31
0.0
210
0.0
220
0.0
230
1.0
 40
0.9175689999999999
 41
3.141575336456298
 42
4.712367057800292
  0
LINE
  5
1BDA
330
A
100
AcDbEntity
  8
0
 62
     7
 48
0.005819
100
AcDbLine
 10
172.20163
 20
386.6870120000001
 30
0.0
 11
172.434372
 21
386.6870120000001
 31
0.0
  0
ELLIPSE
  5
1BDB
330
A
100
AcDbEntity
  8
0
 62
     7
100
AcDbEllipse
 10
174.051636
 20
386.6870120000001
 30
0.0
 11
0.0000457763671875
 21
-1.5
 31
0.0
210
0.0
220
0.0
230
1.0
 40
0.9711729999999999
 41
3.141566038131712
 42
4.712359905242919
  0
LINE
  5
1BDC
330
A
100
AcDbEntity
  8
0
 62
     7
 48
0.004012
100
AcDbLine
 10
172.434372
 20
386.6870120000001
 30
0.0
 11
172.594864
 21
386.6870120000001
 31
0.0
  0
ARC
  5
1BDD
330
A
100
AcDbEntity
  8
0
 62
     7
100
AcDbCircle
 10
174.17868
 20
386.687561
 30
0.0
 40
1.499514999999998
100
AcDbArc
 50
90.020903
 51
180.021261
  0
LINE
  5
1BDE
330
A
100
AcDbEntity
  8
0
 62
     7
 48
0.002106
100
AcDbLine
 10
172.594864
 20
386.6870120000001
 30
0.0
 11
172.679092
 21
386.6870120000001
 31
0.0
  0
ARC
  5
1BDF
330
A
100
AcDbEntity
  8
0
 62
     7
100
AcDbCircle
 10
174.183151
 20
386.686462
 30
0.0
 40
1.500454
100
AcDbArc
 50
89.980673
 51
179.980184
  0
ARC
  5
1BE0
330
A
100
AcDbEntity
  8
0
 62
     7
100
AcDbCircle
 10
88.18086200000001
 20
386.6867069999998
 30
0.0
 40
1.500261
100
AcDbArc
 50
0.011402
 51
90.01114300000002
  0
ARC
  5
1BE1
330
A
100
AcDbEntity
  8
0
 62
     7
100
AcDbCircle
 10
88.18341099999997
 20
386.687317
 30
0.0
 40
1.499726
100
AcDbArc
 50
359.987922
 51
449.987913
  0
ELLIPSE
  5
1BE2
330
A
100
AcDbEntity
  8
0
 62
     7
100
AcDbEllipse
 10
88.257858
 20
386.6870120000001
 30
0.0
 11
0.000091552734375
 21
-1.5
 31
0.0
210
0.0
220
0.0
230
1.0
 40
0.9830549999999998
 41
1.570738315582274
 42
3.141537427902221
  0
LINE
  5
1BE3
330
A
100
AcDbEntity
  8
0
 62
     7
 48
0.001232
100
AcDbLine
 10
89.683174
 20
386.6870120000001
 30
0.0
 11
89.73243700000002
 21
386.6870120000001
 31
0.0
  0
ELLIPSE
  5
1BE4
330
A
100
AcDbEntity
  8
0
 62
     7
100
AcDbEllipse
 10
88.39845999999999
 20
386.6870120000001
 30
0.0
 11
0.0000457763671875
 21
-1.5
 31
0.0
210
0.0
220
0.0
230
1.0
 40
0.9517689999999999
 41
1.570764899253845
 42
3.141565322875977
  0
LINE
  5
1BE5
330
A
100
AcDbEntity
  8
0
 62
     7
 48
0.002342
100
AcDbLine
 10
89.73243700000002
 20
386.6870120000001
 30
0.0
 11
89.82611099999997
 21
386.6870120000001
 31
0.0
  0
ELLIPSE
  5
1BE6
330
A
100
AcDbEntity
  8
0
 62
     7
100
AcDbEllipse
 10
88.601173
 20
386.6870120000001
 30
0.0
 11
0.000030517578125
 21
-1.499984741210936
 31
0.0
210
0.0
220
0.0
230
1.0
 40
0.906868
 41
1.570773005485533
 42
3.14157485961914
  0
LINE
  5
1BE7
330
A
100
AcDbEntity
  8
0
 62
     7
 48
0.003384
100
AcDbLine
 10
89.82611099999997
 20
386.6870120000001
 30
0.0
 11
89.96147200000001
 21
386.6870120000001
 31
0.0
  0
ELLIPSE
  5
1BE8
330
A
100
AcDbEntity
  8
0
 62
     7
100
AcDbEllipse
 10
88.86231999999997
 20
386.6870120000001
 30
0.0
 11
0.000030517578125
 21
-1.499984741210936
 31
0.0
210
0.0
220
0.0
230
1.0
 40
0.8491789999999999
 41
1.57077646255493
 42
3.141579866409301
  0
LINE
  5
1BE9
330
A
100
AcDbEntity
  8
0
 62
     7
 48
0.004365
100
AcDbLine
 10
89.96147200000001
 20
386.6870120000001
 30
0.0
 11
90.136078
 21
386.6870120000001
 31
0.0
  0
ELLIPSE
  5
1BEA
330
A
100
AcDbEntity
  8
0
 62
     7
100
AcDbEllipse
 10
89.178963
 20
386.6870120000001
 30
0.0
 11
0.0000152587890625
 21
-1.499984741210936
 31
0.0
210
0.0
220
0.0
230
1.0
 40
0.77923
 41
1.570777654647826
 42
3.14158296585083
  0
LINE
  5
1BEB
330
A
100
AcDbEntity
  8
0
 62
     7
 48
0.005293
100
AcDbLine
 10
90.136078
 20
386.6870120000001
 30
0.0
 11
90.347801
 21
386.6870120000001
 31
0.0
  0
ELLIPSE
  5
1BEC
330
A
100
AcDbEntity
  8
0
 62
     7
100
AcDbEllipse
 10
89.548737
 20
386.6870120000001
 30
0.0
 11
0.0000152587890625
 21
-1.499984741210936
 31
0.0
210
0.0
220
0.0
230
1.0
 40
0.697324
 41
1.570777535438536
 42
3.141585350036619
  0
LINE
  5
1BED
330
A
100
AcDbEntity
  8
0
 62
     7
 48
0.006173
100
AcDbLine
 10
90.347801
 20
386.6870120000001
 30
0.0
 11
90.59471100000001
 21
386.6870120000001
 31
0.0
  0
ELLIPSE
  5
1BEE
330
A
100
AcDbEntity
  8
0
 62
     7
100
AcDbEllipse
 10
89.969376
 20
386.6870120000001
 30
0.0
 11
0.0000152587890625
 21
-1.499984741210936
 31
0.0
210
0.0
220
0.0
230
1.0
 40
0.603722
 41
1.570775866508484
 42
3.141586780548096
  0
LINE
  5
1BEF
330
A
100
AcDbEntity
  8
0
 62
     7
 48
0.007006
100
AcDbLine
 10
90.59471100000001
 20
386.6870120000001
 30
0.0
 11
90.874939
 21
386.6870120000001
 31
0.0
  0
ELLIPSE
  5
1BF0
330
A
100
AcDbEntity
  8
0
 62
     7
100
AcDbEllipse
 10
90.43803399999999
 20
386.6870120000001
 30
0.0
 11
0.0000152587890625
 21
-1.499969482421874
 31
0.0
210
0.0
220
0.0
230
1.0
 40
0.4989110000000001
 41
1.570772767066954
 42
3.141588449478148
  0
LINE
  5
1BF1
330
A
100
AcDbEntity
  8
0
 62
     7
 48
0.007786
100
AcDbLine
 10
90.874939
 20
386.6870120000001
 30
0.0
 11
91.186386
 21
386.6870120000001
 31
0.0
  0
ELLIPSE
  5
1BF2
330
A
100
AcDbEntity
  8
0
 62
     7
100
AcDbEllipse
 10
90.95059199999999
 20
386.687042
 30
0.0
 11
0.0000152587890625
 21
-1.499954223632811
 31
0.0
210
0.0
220
0.0
230
1.0
 40
0.3839010000000001
 41
1.570766329765319
 42
3.141589641571043
  0
LINE
  5
1BF3
330
A
100
AcDbEntity
  8
0
 62
     7
 48
0.008501
100
AcDbLine
 10
91.186386
 20
386.6870120000001
 30
0.0
 11
91.526428
 21
386.6870120000001
 31
0.0
  0
POLYLINE
  5
1BF4
330
A
100
AcDbEntity
  8
0
 62
     7
100
AcDb2dPolyline
 66
     1
 10
0.0
 20
0.0
 30
0.0
  0
VERTEX
  5
1BF5
330
1BF4
100
AcDbEntity
  8
0
100
AcDbVertex
100
AcDb2dVertex
 10
91.5009
 20
388.187012
 30
0.0
  0
VERTEX
  5
1BF6
330
1BF4
100
AcDbEntity
  8
0
100
AcDbVertex
100
AcDb2dVertex
 10
91.59639699999999
 20
388.14151
 30
0.0
  0
VERTEX
  5
1BF7
330
1BF4
100
AcDbEntity
  8
0
100
AcDbVertex
100
AcDb2dVertex
 10
91.66362799999999
 20
388.05072
 30
0.0
  0
VERTEX
  5
1BF8
330
1BF4
100
AcDbEntity
  8
0
100
AcDbVertex
100
AcDb2dVertex
 10
91.739761
 20
387.874084
 30
0.0
  0
VERTEX
  5
1BF9
330
1BF4
100
AcDbEntity
  8
0
100
AcDbVertex
100
AcDb2dVertex
 10
91.81446800000001
 20
387.582001
 30
0.0
  0
VERTEX
  5
1BFA
330
1BF4
100
AcDbEntity
  8
0
100
AcDbVertex
100
AcDb2dVertex
 10
91.877045
 20
387.09314
 30
0.0
  0
VERTEX
  5
1BFB
330
1BF4
100
AcDbEntity
  8
0
100
AcDbVertex
100
AcDb2dVertex
 10
91.891647
 20
386.6870120000001
 30
0.0
  0
SEQEND
  5
1BFC
330
1BF4
100
AcDbEntity
  8
0
  0
LINE
  5
1BFD
330
A
100
AcDbEntity
  8
0
 62
     7
 48
0.00913
100
AcDbLine
 10
91.526428
 20
386.6870120000001
 30
0.0
 11
91.891647
 21
386.6870120000001
 31
0.0
  0
POLYLINE
  5
1BFE
330
A
100
AcDbEntity
  8
0
 62
     7
100
AcDb2dPolyline
 66
     1
 10
0.0
 20
0.0
 30
0.0
  0
VERTEX
  5
1BFF
330
1BFE
100
AcDbEntity
  8
0
100
AcDbVertex
100
AcDb2dVertex
 10
92.080505
 20
388.187012
 30
0.0
  0
VERTEX
  5
1C00
330
1BFE
100
AcDbEntity
  8
0
100
AcDbVertex
100
AcDb2dVertex
 10
92.138
 20
388.121765
 30
0.0
  0
VERTEX
  5
1C01
330
1BFE
100
AcDbEntity
  8
0
100
AcDbVertex
100
AcDb2dVertex
 10
92.179085
 20
387.986023
 30
0.0
  0
VERTEX
  5
1C02
330
1BFE
100
AcDbEntity
  8
0
100
AcDbVertex
100
AcDb2dVertex
 10
92.22759999999999
 20
387.685791
 30
0.0
  0
VERTEX
  5
1C03
330
1BFE
100
AcDbEntity
  8
0
100
AcDbVertex
100
AcDb2dVertex
 10
92.27034000000001
 20
387.092102
 30
0.0
  0
VERTEX
  5
1C04
330
1BFE
100
AcDbEntity
  8
0
100
AcDbVertex
100
AcDb2dVertex
 10
92.277664
 20
386.6870120000001
 30
0.0
  0
SEQEND
  5
1C05
330
1BFE
100
AcDbEntity
  8
0
  0
LINE
  5
1C06
330
A
100
AcDbEntity
  8
0
 62
     7
 48
0.00965
100
AcDbLine
 10
91.891647
 20
386.6870120000001
 30
0.0
 11
92.277664
 21
386.6870120000001
 31
0.0
  0
POLYLINE
  5
1C07
330
A
100
AcDbEntity
  8
0
 62
     7
100
AcDb2dPolyline
 66
     1
 10
0.0
 20
0.0
 30
0.0
  0
VERTEX
  5
1C08
330
1C07
100
AcDbEntity
  8
0
100
AcDbVertex
100
AcDb2dVertex
 10
92.59693099999999
 20
388.187012
 30
0.0
  0
VERTEX
  5
1C09
330
1C07
100
AcDbEntity
  8
0
100
AcDbVertex
100
AcDb2dVertex
 10
92.609802
 20
388.06604
 30
0.0
  0
VERTEX
  5
1C0A
330
1C07
100
AcDbEntity
  8
0
100
AcDbVertex
100
AcDb2dVertex
 10
92.629669
 20
387.456665
 30
0.0
  0
VERTEX
  5
1C0B
330
1C07
100
AcDbEntity
  8
0
100
AcDbVertex
100
AcDb2dVertex
 10
92.64655299999999
 20
386.6870120000001
 30
0.0
  0
SEQEND
  5
1C0C
330
1C07
100
AcDbEntity
  8
0
  0
LINE
  5
1C0D
330
A
100
AcDbEntity
  8
0
 62
     7
 48
0.009222
100
AcDbLine
 10
92.277664
 20
386.6870120000001
 30
0.0
 11
92.64655299999999
 21
386.6870120000001
 31
0.0
  0
POLYLINE
  5
1C0E
330
A
100
AcDbEntity
  8
0
 62
     7
100
AcDb2dPolyline
 66
     1
 10
0.0
 20
0.0
 30
0.0
  0
VERTEX
  5
1C0F
330
1C0E
100
AcDbEntity
  8
0
100
AcDbVertex
100
AcDb2dVertex
 10
118.422943
 20
388.187012
 30
0.0
  0
VERTEX
  5
1C10
330
1C0E
100
AcDbEntity
  8
0
100
AcDbVertex
100
AcDb2dVertex
 10
118.413124
 20
388.038452
 30
0.0
  0
VERTEX
  5
1C11
330
1C0E
100
AcDbEntity
  8
0
100
AcDbVertex
100
AcDb2dVertex
 10
118.404518
 20
387.27655
 30
0.0
  0
VERTEX
  5
1C12
330
1C0E
100
AcDbEntity
  8
0
100
AcDbVertex
100
AcDb2dVertex
 10
118.40625
 20
386.6870120000001
 30
0.0
  0
SEQEND
  5
1C13
330
1C0E
100
AcDbEntity
  8
0
  0
LINE
  5
1C14
330
A
100
AcDbEntity
  8
0
 62
     7
100
AcDbLine
 10
92.64655299999999
 20
386.6870120000001
 30
0.0
 11
118.40625
 21
386.6870120000001
 31
0.0
  0
POLYLINE
  5
1C15
330
A
100
AcDbEntity
  8
0
 62
     7
100
AcDb2dPolyline
 66
     1
 10
0.0
 20
0.0
 30
0.0
  0
VERTEX
  5
1C16
330
1C15
100
AcDbEntity
  8
0
100
AcDbVertex
100
AcDb2dVertex
 10
119.137482
 20
388.187012
 30
0.0
  0
VERTEX
  5
1C17
330
1C15
100
AcDbEntity
  8
0
100
AcDbVertex
100
AcDb2dVertex
 10
119.092461
 20
388.113525
 30
0.0
  0
VERTEX
  5
1C18
330
1C15
100
AcDbEntity
  8
0
100
AcDbVertex
100
AcDb2dVertex
 10
119.057236
 20
387.938843
 30
0.0
  0
VERTEX
  5
1C19
330
1C15
100
AcDbEntity
  8
0
100
AcDbVertex
100
AcDb2dVertex
 10
119.015938
 20
387.513672
 30
0.0
  0
VERTEX
  5
1C1A
330
1C15
100
AcDbEntity
  8
0
100
AcDbVertex
100
AcDb2dVertex
 10
118.991821
 20
386.6870120000001
 30
0.0
  0
SEQEND
  5
1C1B
330
1C15
100
AcDbEntity
  8
0
  0
LINE
  5
1C1C
330
A
100
AcDbEntity
  8
0
 62
     7
 48
0.014639
100
AcDbLine
 10
118.40625
 20
386.6870120000001
 30
0.0
 11
118.991821
 21
386.6870120000001
 31
0.0
  0
POLYLINE
  5
1C1D
330
A
100
AcDbEntity
  8
0
 62
     7
100
AcDb2dPolyline
 66
     1
 10
0.0
 20
0.0
 30
0.0
  0
VERTEX
  5
1C1E
330
1C1D
100
AcDbEntity
  8
0
100
AcDbVertex
100
AcDb2dVertex
 10
119.73056
 20
388.187012
 30
0.0
  0
VERTEX
  5
1C1F
330
1C1D
100
AcDbEntity
  8
0
100
AcDbVertex
100
AcDb2dVertex
 10
119.645264
 20
388.141785
 30
0.0
  0
VERTEX
  5
1C20
330
1C1D
100
AcDbEntity
  8
0
100
AcDbVertex
100
AcDb2dVertex
 10
119.584991
 20
388.051086
 30
0.0
  0
VERTEX
  5
1C21
330
1C1D
100
AcDbEntity
  8
0
100
AcDbVertex
100
AcDb2dVertex
 10
119.516739
 20
387.8745120000002
 30
0.0
  0
VERTEX
  5
1C22
330
1C1D
100
AcDbEntity
  8
0
100
AcDbVertex
100
AcDb2dVertex
 10
119.440521
 20
387.52655
 30
0.0
  0
VERTEX
  5
1C23
330
1C1D
100
AcDbEntity
  8
0
100
AcDbVertex
100
AcDb2dVertex
 10
119.389679
 20
387.026917
 30
0.0
  0
VERTEX
  5
1C24
330
1C1D
100
AcDbEntity
  8
0
100
AcDbVertex
100
AcDb2dVertex
 10
119.380569
 20
386.6870120000001
 30
0.0
  0
SEQEND
  5
1C25
330
1C1D
100
AcDbEntity
  8
0
  0
LINE
  5
1C26
330
A
100
AcDbEntity
  8
0
 62
     7
 48
0.009719
100
AcDbLine
 10
118.991821
 20
386.6870120000001
 30
0.0
 11
119.380569
 21
386.6870120000001
 31
0.0
  0
ELLIPSE
  5
1C27
330
A
100
AcDbEntity
  8
0
 62
     7
100
AcDbEllipse
 10
120.276161
 20
386.686951
 30
0.0
 11
0.0000152587890625
 21
-1.500045776367186
 31
0.0
210
0.0
220
0.0
230
1.0
 40
0.35478
 41
3.141590118408203
 42
4.712358951568603
  0
LINE
  5
1C28
330
A
100
AcDbEntity
  8
0
 62
     7
 48
0.009085
100
AcDbLine
 10
119.380569
 20
386.6870120000001
 30
0.0
 11
119.74398
 21
386.6870120000001
 31
0.0
  0
ELLIPSE
  5
1C29
330
A
100
AcDbEntity
  8
0
 62
     7
100
AcDbEllipse
 10
120.792152
 20
386.686951
 30
0.0
 11
0.0000152587890625
 21
-1.500030517578125
 31
0.0
210
0.0
220
0.0
230
1.0
 40
0.469619
 41
3.141588926315308
 42
4.712366104125976
  0
LINE
  5
1C2A
330
A
100
AcDbEntity
  8
0
 62
     7
 48
0.008593
100
AcDbLine
 10
119.74398
 20
386.6870120000001
 30
0.0
 11
120.087708
 21
386.6870120000001
 31
0.0
  0
ELLIPSE
  5
1C2B
330
A
100
AcDbEntity
  8
0
 62
     7
100
AcDbEllipse
 10
121.272842
 20
386.686981
 30
0.0
 11
0.0000152587890625
 21
-1.500015258789061
 31
0.0
210
0.0
220
0.0
230
1.0
 40
0.576554
 41
3.141587734222412
 42
4.712369441986083
  0
LINE
  5
1C2C
330
A
100
AcDbEntity
  8
0
 62
     7
 48
0.008007
100
AcDbLine
 10
120.087708
 20
386.6870120000001
 30
0.0
 11
120.408005
 21
386.6870120000001
 31
0.0
  0
ELLIPSE
  5
1C2D
330
A
100
AcDbEntity
  8
0
 62
     7
100
AcDbEllipse
 10
121.712944
 20
386.686981
 30
0.0
 11
0.0000152587890625
 21
-1.500015258789061
 31
0.0
210
0.0
220
0.0
230
1.0
 40
0.6744570000000002
 41
3.141586303710937
 42
4.712371349334715
  0
LINE
  5
1C2E
330
A
100
AcDbEntity
  8
0
 62
     7
 48
0.007331
100
AcDbLine
 10
120.408005
 20
386.6870120000001
 30
0.0
 11
120.701248
 21
386.6870120000001
 31
0.0
  0
ELLIPSE
  5
1C2F
330
A
100
AcDbEntity
  8
0
 62
     7
100
AcDbEllipse
 10
122.107079
 20
386.686981
 30
0.0
 11
0.0000152587890625
 21
-1.500015258789061
 31
0.0
210
0.0
220
0.0
230
1.0
 40
0.7621760000000001
 41
3.141584396362303
 42
4.712372303009033
  0
LINE
  5
1C30
330
A
100
AcDbEntity
  8
0
 62
     7
 48
0.006564
100
AcDbLine
 10
120.701248
 20
386.6870120000001
 30
0.0
 11
120.963806
 21
386.6870120000001
 31
0.0
  0
ELLIPSE
  5
1C31
330
A
100
AcDbEntity
  8
0
 62
     7
100
AcDbEllipse
 10
122.449516
 20
386.686981
 30
0.0
 11
0.0000152587890625
 21
-1.500015258789061
 31
0.0
210
0.0
220
0.0
230
1.0
 40
0.838409
 41
3.141582250595091
 42
4.712372303009033
  0
LINE
  5
1C32
330
A
100
AcDbEntity
  8
0
 62
     7
 48
0.005702
100
AcDbLine
 10
120.963806
 20
386.6870120000001
 30
0.0
 11
121.191895
 21
386.6870120000001
 31
0.0
  0
ELLIPSE
  5
1C33
330
A
100
AcDbEntity
  8
0
 62
     7
100
AcDbEllipse
 10
122.734413
 20
386.6870120000001
 30
0.0
 11
0.000030517578125
 21
-1.5
 31
0.0
210
0.0
220
0.0
230
1.0
 40
0.901806
 41
3.141578674316406
 42
4.7123703956604
  0
LINE
  5
1C34
330
A
100
AcDbEntity
  8
0
 62
     7
 48
0.004745
100
AcDbLine
 10
121.191895
 20
386.6870120000001
 30
0.0
 11
121.381699
 21
386.6870120000001
 31
0.0
  0
ELLIPSE
  5
1C35
330
A
100
AcDbEntity
  8
0
 62
     7
100
AcDbEllipse
 10
122.959778
 20
386.6870120000001
 30
0.0
 11
0.000030517578125
 21
-1.5
 31
0.0
210
0.0
220
0.0
230
1.0
 40
0.9510669999999999
 41
3.141573190689086
 42
4.712366580963133
  0
LINE
  5
1C36
330
A
100
AcDbEntity
  8
0
 62
     7
 48
0.003787
100
AcDbLine
 10
121.381699
 20
386.6870120000001
 30
0.0
 11
121.533173
 21
386.6870120000001
 31
0.0
  0
ELLIPSE
  5
1C37
330
A
100
AcDbEntity
  8
0
 62
     7
100
AcDbEllipse
 10
123.108803
 20
386.6870120000001
 30
0.0
 11
0.0000457763671875
 21
-1.5
 31
0.0
210
0.0
220
0.0
230
1.0
 40
0.984247
 41
3.141562223434446
 42
4.712357044219969
  0
LINE
  5
1C38
330
A
100
AcDbEntity
  8
0
 62
     7
 48
0.002481
100
AcDbLine
 10
121.533173
 20
386.6870120000001
 30
0.0
 11
121.632423
 21
386.6870120000001
 31
0.0
  0
ARC
  5
1C39
330
A
100
AcDbEntity
  8
0
 62
     7
100
AcDbCircle
 10
123.180275
 20
386.6867069999998
 30
0.0
 40
1.500256
100
AcDbArc
 50
89.988699
 51
179.988694
  0
LINE
  5
1C3A
330
A
100
AcDbEntity
  8
0
 62
     7
 48
0.001191
100
AcDbLine
 10
121.632423
 20
386.6870120000001
 30
0.0
 11
121.680054
 21
386.6870120000001
 31
0.0
  0
LINE
  5
1C3B
330
A
100
AcDbEntity
  8
0
 62
     7
 48
0.003955
100
AcDbLine
 10
167.366913
 20
385.187012
 30
0.0
 11
167.525131
 21
385.187012
 31
0.0
  0
LINE
  5
1C3C
330
A
100
AcDbEntity
  8
0
 62
     7
 48
0.0825
100
AcDbLine
 10
178.699417
 20
388.187012
 30
0.0
 11
178.699417
 21
384.886993
 31
0.0
  0
LINE
  5
1C3D
330
A
100
AcDbEntity
  8
0
 62
     7
 48
0.000077
100
AcDbLine
 10
178.682617
 20
384.886993
 30
0.0
 11
178.679535
 21
384.886993
 31
0.0
  0
LINE
  5
1C3E
330
A
100
AcDbEntity
  8
0
 62
     7
 48
0.015757
100
AcDbLine
 10
128.746277
 20
385.187012
 30
0.0
 11
129.376541
 21
385.187012
 31
0.0
  0
LINE
  5
1C3F
330
A
100
AcDbEntity
  8
0
 62
     7
 48
0.007074
100
AcDbLine
 10
128.463333
 20
385.187012
 30
0.0
 11
128.746277
 21
385.187012
 31
0.0
  0
LINE
  5
1C40
330
A
100
AcDbEntity
  8
0
 62
     7
 48
0.006076
100
AcDbLine
 10
128.220291
 20
385.187012
 30
0.0
 11
128.463333
 21
385.187012
 31
0.0
  0
LINE
  5
1C41
330
A
100
AcDbEntity
  8
0
 62
     7
 48
0.00501
100
AcDbLine
 10
128.019897
 20
385.187012
 30
0.0
 11
128.220291
 21
385.187012
 31
0.0
  0
LINE
  5
1C42
330
A
100
AcDbEntity
  8
0
 62
     7
 48
0.003875
100
AcDbLine
 10
127.864891
 20
385.187012
 30
0.0
 11
128.019897
 21
385.187012
 31
0.0
  0
LINE
  5
1C43
330
A
100
AcDbEntity
  8
0
 62
     7
 48
0.002672
100
AcDbLine
 10
127.758003
 20
385.187012
 30
0.0
 11
127.864891
 21
385.187012
 31
0.0
  0
LINE
  5
1C44
330
A
100
AcDbEntity
  8
0
 62
     7
 48
0.001401
100
AcDbLine
 10
127.701965
 20
385.187012
 30
0.0
 11
127.758003
 21
385.187012
 31
0.0
  0
LINE
  5
1C45
330
A
100
AcDbEntity
  8
0
 62
     7
 48
0.000061
100
AcDbLine
 10
127.699524
 20
385.187012
 30
0.0
 11
127.701965
 21
385.187012
 31
0.0
  0
LINE
  5
1C46
330
A
100
AcDbEntity
  8
0
 62
     7
 48
0.001347
100
AcDbLine
 10
167.634583
 20
385.187012
 30
0.0
 11
167.688461
 21
385.187012
 31
0.0
  0
LINE
  5
1C47
330
A
100
AcDbEntity
  8
0
 62
     7
 48
0.002736
100
AcDbLine
 10
167.525131
 20
385.187012
 30
0.0
 11
167.634583
 21
385.187012
 31
0.0
  0
LINE
  5
1C48
330
A
100
AcDbEntity
  8
0
 62
     7
 48
0.007486
100
AcDbLine
 10
158.358002
 20
385.187012
 30
0.0
 11
158.657455
 21
385.187012
 31
0.0
  0
LINE
  5
1C49
330
A
100
AcDbEntity
  8
0
 62
     7
 48
0.008033
100
AcDbLine
 10
158.036697
 20
385.187012
 30
0.0
 11
158.358002
 21
385.187012
 31
0.0
  0
LINE
  5
1C4A
330
A
100
AcDbEntity
  8
0
 62
     7
 48
0.008444
100
AcDbLine
 10
157.698929
 20
385.187012
 30
0.0
 11
158.036697
 21
385.187012
 31
0.0
  0
LINE
  5
1C4B
330
A
100
AcDbEntity
  8
0
 62
     7
100
AcDbLine
 10
122.035271
 20
385.187012
 30
0.0
 11
157.698929
 21
385.187012
 31
0.0
  0
LINE
  5
1C4C
330
A
100
AcDbEntity
  8
0
 62
     7
 48
0.016368
100
AcDbLine
 10
121.380531
 20
385.187012
 30
0.0
 11
122.035271
 21
385.187012
 31
0.0
  0
LINE
  5
1C4D
330
A
100
AcDbEntity
  8
0
 62
     7
 48
0.015756
100
AcDbLine
 10
120.750275
 20
385.187012
 30
0.0
 11
121.380531
 21
385.187012
 31
0.0
  0
LINE
  5
1C4E
330
A
100
AcDbEntity
  8
0
 62
     7
 48
0.007074
100
AcDbLine
 10
120.467331
 20
385.187012
 30
0.0
 11
120.750275
 21
385.187012
 31
0.0
  0
LINE
  5
1C4F
330
A
100
AcDbEntity
  8
0
 62
     7
 48
0.006076
100
AcDbLine
 10
120.224297
 20
385.187012
 30
0.0
 11
120.467331
 21
385.187012
 31
0.0
  0
LINE
  5
1C50
330
A
100
AcDbEntity
  8
0
 62
     7
 48
0.00501
100
AcDbLine
 10
120.023911
 20
385.187012
 30
0.0
 11
120.224297
 21
385.187012
 31
0.0
  0
LINE
  5
1C51
330
A
100
AcDbEntity
  8
0
 62
     7
 48
0.003875
100
AcDbLine
 10
119.868896
 20
385.187012
 30
0.0
 11
120.023911
 21
385.187012
 31
0.0
  0
LINE
  5
1C52
330
A
100
AcDbEntity
  8
0
 62
     7
 48
0.002672
100
AcDbLine
 10
119.762009
 20
385.187012
 30
0.0
 11
119.868896
 21
385.187012
 31
0.0
  0
LINE
  5
1C53
330
A
100
AcDbEntity
  8
0
 62
     7
 48
0.001401
100
AcDbLine
 10
119.705971
 20
385.187012
 30
0.0
 11
119.762009
 21
385.187012
 31
0.0
  0
LINE
  5
1C54
330
A
100
AcDbEntity
  8
0
 62
     7
 48
0.000061
100
AcDbLine
 10
119.703529
 20
385.187012
 30
0.0
 11
119.705971
 21
385.187012
 31
0.0
  0
LINE
  5
1C55
330
A
100
AcDbEntity
  8
0
 62
     7
 48
0.001347
100
AcDbLine
 10
159.63858
 20
385.187012
 30
0.0
 11
159.692474
 21
385.187012
 31
0.0
  0
LINE
  5
1C56
330
A
100
AcDbEntity
  8
0
 62
     7
 48
0.002736
100
AcDbLine
 10
159.529129
 20
385.187012
 30
0.0
 11
159.63858
 21
385.187012
 31
0.0
  0
LINE
  5
1C57
330
A
100
AcDbEntity
  8
0
 62
     7
 48
0.003955
100
AcDbLine
 10
159.370911
 20
385.187012
 30
0.0
 11
159.529129
 21
385.187012
 31
0.0
  0
LINE
  5
1C58
330
A
100
AcDbEntity
  8
0
 62
     7
 48
0.00504
100
AcDbLine
 10
159.169296
 20
385.187012
 30
0.0
 11
159.370911
 21
385.187012
 31
0.0
  0
LINE
  5
1C59
330
A
100
AcDbEntity
  8
0
 62
     7
 48
0.00599
100
AcDbLine
 10
158.929688
 20
385.187012
 30
0.0
 11
159.169296
 21
385.187012
 31
0.0
  0
LINE
  5
1C5A
330
A
100
AcDbEntity
  8
0
 62
     7
 48
0.006806
100
AcDbLine
 10
158.657455
 20
385.187012
 30
0.0
 11
158.929688
 21
385.187012
 31
0.0
  0
LINE
  5
1C5B
330
A
100
AcDbEntity
  8
0
 62
     7
 48
0.007487
100
AcDbLine
 10
170.347687
 20
385.187012
 30
0.0
 11
170.647156
 21
385.187012
 31
0.0
  0
LINE
  5
1C5C
330
A
100
AcDbEntity
  8
0
 62
     7
 48
0.008032
100
AcDbLine
 10
170.026398
 20
385.187012
 30
0.0
 11
170.347687
 21
385.187012
 31
0.0
  0
LINE
  5
1C5D
330
A
100
AcDbEntity
  8
0
 62
     7
 48
0.008444
100
AcDbLine
 10
169.688629
 20
385.187012
 30
0.0
 11
170.026398
 21
385.187012
 31
0.0
  0
LINE
  5
1C5E
330
A
100
AcDbEntity
  8
0
 62
     7
100
AcDbLine
 10
134.024979
 20
385.187012
 30
0.0
 11
169.688629
 21
385.187012
 31
0.0
  0
LINE
  5
1C5F
330
A
100
AcDbEntity
  8
0
 62
     7
 48
0.016368
100
AcDbLine
 10
133.370239
 20
385.187012
 30
0.0
 11
134.024979
 21
385.187012
 31
0.0
  0
LINE
  5
1C60
330
A
100
AcDbEntity
  8
0
 62
     7
 48
0.015757
100
AcDbLine
 10
132.739975
 20
385.187012
 30
0.0
 11
133.370239
 21
385.187012
 31
0.0
  0
LINE
  5
1C61
330
A
100
AcDbEntity
  8
0
 62
     7
 48
0.007074
100
AcDbLine
 10
132.457031
 20
385.187012
 30
0.0
 11
132.739975
 21
385.187012
 31
0.0
  0
LINE
  5
1C62
330
A
100
AcDbEntity
  8
0
 62
     7
 48
0.006076
100
AcDbLine
 10
132.214005
 20
385.187012
 30
0.0
 11
132.457031
 21
385.187012
 31
0.0
  0
LINE
  5
1C63
330
A
100
AcDbEntity
  8
0
 62
     7
 48
0.00501
100
AcDbLine
 10
132.013611
 20
385.187012
 30
0.0
 11
132.214005
 21
385.187012
 31
0.0
  0
LINE
  5
1C64
330
A
100
AcDbEntity
  8
0
 62
     7
 48
0.003875
100
AcDbLine
 10
131.858597
 20
385.187012
 30
0.0
 11
132.013611
 21
385.187012
 31
0.0
  0
LINE
  5
1C65
330
A
100
AcDbEntity
  8
0
 62
     7
 48
0.002672
100
AcDbLine
 10
131.751709
 20
385.187012
 30
0.0
 11
131.858597
 21
385.187012
 31
0.0
  0
LINE
  5
1C66
330
A
100
AcDbEntity
  8
0
 62
     7
 48
0.001401
100
AcDbLine
 10
131.695679
 20
385.187012
 30
0.0
 11
131.751709
 21
385.187012
 31
0.0
  0
LINE
  5
1C67
330
A
100
AcDbEntity
  8
0
 62
     7
 48
0.000061
100
AcDbLine
 10
131.693222
 20
385.187012
 30
0.0
 11
131.695679
 21
385.187012
 31
0.0
  0
LINE
  5
1C68
330
A
100
AcDbEntity
  8
0
 62
     7
 48
0.001347
100
AcDbLine
 10
171.628281
 20
385.187012
 30
0.0
 11
171.682175
 21
385.187012
 31
0.0
  0
LINE
  5
1C69
330
A
100
AcDbEntity
  8
0
 62
     7
 48
0.002736
100
AcDbLine
 10
171.518829
 20
385.187012
 30
0.0
 11
171.628281
 21
385.187012
 31
0.0
  0
LINE
  5
1C6A
330
A
100
AcDbEntity
  8
0
 62
     7
 48
0.003955
100
AcDbLine
 10
171.360611
 20
385.187012
 30
0.0
 11
171.518829
 21
385.187012
 31
0.0
  0
LINE
  5
1C6B
330
A
100
AcDbEntity
  8
0
 62
     7
 48
0.00504
100
AcDbLine
 10
171.158997
 20
385.187012
 30
0.0
 11
171.360611
 21
385.187012
 31
0.0
  0
LINE
  5
1C6C
330
A
100
AcDbEntity
  8
0
 62
     7
 48
0.00599
100
AcDbLine
 10
170.919388
 20
385.187012
 30
0.0
 11
171.158997
 21
385.187012
 31
0.0
  0
LINE
  5
1C6D
330
A
100
AcDbEntity
  8
0
 62
     7
 48
0.006806
100
AcDbLine
 10
170.647156
 20
385.187012
 30
0.0
 11
170.919388
 21
385.187012
 31
0.0
  0
LINE
  5
1C6E
330
A
100
AcDbEntity
  8
0
 62
     7
 48
0.006045
100
AcDbLine
 10
119.209007
 20
385.187012
 30
0.0
 11
119.450813
 21
385.187012
 31
0.0
  0
LINE
  5
1C6F
330
A
100
AcDbEntity
  8
0
 62
     7
 48
0.006424
100
AcDbLine
 10
118.952034
 20
385.187012
 30
0.0
 11
119.209007
 21
385.187012
 31
0.0
  0
LINE
  5
1C70
330
A
100
AcDbEntity
  8
0
 62
     7
 48
0.006763
100
AcDbLine
 10
118.681511
 20
385.187012
 30
0.0
 11
118.952034
 21
385.187012
 31
0.0
  0
LINE
  5
1C71
330
A
100
AcDbEntity
  8
0
 62
     7
100
AcDbLine
 10
92.966034
 20
385.187012
 30
0.0
 11
118.681511
 21
385.187012
 31
0.0
  0
LINE
  5
1C72
330
A
100
AcDbEntity
  8
0
 62
     7
 48
0.01249
100
AcDbLine
 10
92.466431
 20
385.187012
 30
0.0
 11
92.966034
 21
385.187012
 31
0.0
  0
LINE
  5
1C73
330
A
100
AcDbEntity
  8
0
 62
     7
 48
0.006313
100
AcDbLine
 10
92.213898
 20
385.187012
 30
0.0
 11
92.466431
 21
385.187012
 31
0.0
  0
LINE
  5
1C74
330
A
100
AcDbEntity
  8
0
 62
     7
 48
0.006049
100
AcDbLine
 10
91.971954
 20
385.187012
 30
0.0
 11
92.213898
 21
385.187012
 31
0.0
  0
LINE
  5
1C75
330
A
100
AcDbEntity
  8
0
 62
     7
 48
0.005722
100
AcDbLine
 10
91.74305699999999
 20
385.187012
 30
0.0
 11
91.971954
 21
385.187012
 31
0.0
  0
LINE
  5
1C76
330
A
100
AcDbEntity
  8
0
 62
     7
 48
0.005334
100
AcDbLine
 10
91.52969400000001
 20
385.187012
 30
0.0
 11
91.74305699999999
 21
385.187012
 31
0.0
  0
LINE
  5
1C77
330
A
100
AcDbEntity
  8
0
 62
     7
 48
0.004883
100
AcDbLine
 10
91.33436600000001
 20
385.187012
 30
0.0
 11
91.52969400000001
 21
385.187012
 31
0.0
  0
LINE
  5
1C78
330
A
100
AcDbEntity
  8
0
 62
     7
 48
0.004371
100
AcDbLine
 10
91.15951499999999
 20
385.187012
 30
0.0
 11
91.33436600000001
 21
385.187012
 31
0.0
  0
LINE
  5
1C79
330
A
100
AcDbEntity
  8
0
 62
     7
 48
0.003796
100
AcDbLine
 10
91.00766
 20
385.187012
 30
0.0
 11
91.15951499999999
 21
385.187012
 31
0.0
  0
LINE
  5
1C7A
330
A
100
AcDbEntity
  8
0
 62
     7
 48
0.00316
100
AcDbLine
 10
90.88125599999999
 20
385.187012
 30
0.0
 11
91.00766
 21
385.187012
 31
0.0
  0
LINE
  5
1C7B
330
A
100
AcDbEntity
  8
0
 62
     7
 48
0.002555
100
AcDbLine
 10
90.779037
 20
385.187012
 30
0.0
 11
90.88125599999999
 21
385.187012
 31
0.0
  0
LINE
  5
1C7C
330
A
100
AcDbEntity
  8
0
 62
     7
 48
0.001652
100
AcDbLine
 10
90.71296700000001
 20
385.187012
 30
0.0
 11
90.779037
 21
385.187012
 31
0.0
  0
LINE
  5
1C7D
330
A
100
AcDbEntity
  8
0
 62
     7
 48
0.000788
100
AcDbLine
 10
90.681427
 20
385.187012
 30
0.0
 11
90.71296700000001
 21
385.187012
 31
0.0
  0
LINE
  5
1C7E
330
A
100
AcDbEntity
  8
0
 62
     7
 48
0.000035
100
AcDbLine
 10
120.678329
 20
385.187012
 30
0.0
 11
120.679718
 21
385.187012
 31
0.0
  0
LINE
  5
1C7F
330
A
100
AcDbEntity
  8
0
 62
     7
 48
0.000817
100
AcDbLine
 10
120.645645
 20
385.187012
 30
0.0
 11
120.678329
 21
385.187012
 31
0.0
  0
LINE
  5
1C80
330
A
100
AcDbEntity
  8
0
 62
     7
 48
0.00156
100
AcDbLine
 10
120.58326
 20
385.187012
 30
0.0
 11
120.645645
 21
385.187012
 31
0.0
  0
LINE
  5
1C81
330
A
100
AcDbEntity
  8
0
 62
     7
 48
0.002261
100
AcDbLine
 10
120.492805
 20
385.187012
 30
0.0
 11
120.58326
 21
385.187012
 31
0.0
  0
LINE
  5
1C82
330
A
100
AcDbEntity
  8
0
 62
     7
 48
0.002923
100
AcDbLine
 10
120.375885
 20
385.187012
 30
0.0
 11
120.492805
 21
385.187012
 31
0.0
  0
LINE
  5
1C83
330
A
100
AcDbEntity
  8
0
 62
     7
 48
0.003544
100
AcDbLine
 10
120.234116
 20
385.187012
 30
0.0
 11
120.375885
 21
385.187012
 31
0.0
  0
LINE
  5
1C84
330
A
100
AcDbEntity
  8
0
 62
     7
 48
0.004125
100
AcDbLine
 10
120.069107
 20
385.187012
 30
0.0
 11
120.234116
 21
385.187012
 31
0.0
  0
LINE
  5
1C85
330
A
100
AcDbEntity
  8
0
 62
     7
 48
0.004666
100
AcDbLine
 10
119.882477
 20
385.187012
 30
0.0
 11
120.069107
 21
385.187012
 31
0.0
  0
LINE
  5
1C86
330
A
100
AcDbEntity
  8
0
 62
     7
 48
0.005166
100
AcDbLine
 10
119.675842
 20
385.187012
 30
0.0
 11
119.882477
 21
385.187012
 31
0.0
  0
LINE
  5
1C87
330
A
100
AcDbEntity
  8
0
 62
     7
 48
0.005626
100
AcDbLine
 10
119.450813
 20
385.187012
 30
0.0
 11
119.675842
 21
385.187012
 31
0.0
  0
LINE
  5
1C88
330
A
100
AcDbEntity
  8
0
 62
     7
 48
0.006424
100
AcDbLine
 10
143.985535
 20
385.187012
 30
0.0
 11
144.242493
 21
385.187012
 31
0.0
  0
LINE
  5
1C89
330
A
100
AcDbEntity
  8
0
 62
     7
 48
0.006763
100
AcDbLine
 10
143.714996
 20
385.187012
 30
0.0
 11
143.985535
 21
385.187012
 31
0.0
  0
LINE
  5
1C8A
330
A
100
AcDbEntity
  8
0
 62
     7
100
AcDbLine
 10
117.999519
 20
385.187012
 30
0.0
 11
143.714996
 21
385.187012
 31
0.0
  0
LINE
  5
1C8B
330
A
100
AcDbEntity
  8
0
 62
     7
 48
0.01249
100
AcDbLine
 10
117.499924
 20
385.187012
 30
0.0
 11
117.999519
 21
385.187012
 31
0.0
  0
LINE
  5
1C8C
330
A
100
AcDbEntity
  8
0
 62
     7
 48
0.006313
100
AcDbLine
 10
117.247391
 20
385.187012
 30
0.0
 11
117.499924
 21
385.187012
 31
0.0
  0
LINE
  5
1C8D
330
A
100
AcDbEntity
  8
0
 62
     7
 48
0.006049
100
AcDbLine
 10
117.00544
 20
385.187012
 30
0.0
 11
117.247391
 21
385.187012
 31
0.0
  0
LINE
  5
1C8E
330
A
100
AcDbEntity
  8
0
 62
     7
 48
0.005722
100
AcDbLine
 10
116.77655
 20
385.187012
 30
0.0
 11
117.00544
 21
385.187012
 31
0.0
  0
LINE
  5
1C8F
330
A
100
AcDbEntity
  8
0
 62
     7
 48
0.005334
100
AcDbLine
 10
116.563194
 20
385.187012
 30
0.0
 11
116.77655
 21
385.187012
 31
0.0
  0
LINE
  5
1C90
330
A
100
AcDbEntity
  8
0
 62
     7
 48
0.004884
100
AcDbLine
 10
116.367851
 20
385.187012
 30
0.0
 11
116.563194
 21
385.187012
 31
0.0
  0
LINE
  5
1C91
330
A
100
AcDbEntity
  8
0
 62
     7
 48
0.004371
100
AcDbLine
 10
116.193016
 20
385.187012
 30
0.0
 11
116.367851
 21
385.187012
 31
0.0
  0
LINE
  5
1C92
330
A
100
AcDbEntity
  8
0
 62
     7
 48
0.003797
100
AcDbLine
 10
116.041153
 20
385.187012
 30
0.0
 11
116.193016
 21
385.187012
 31
0.0
  0
LINE
  5
1C93
330
A
100
AcDbEntity
  8
0
 62
     7
 48
0.00316
100
AcDbLine
 10
115.914749
 20
385.187012
 30
0.0
 11
116.041153
 21
385.187012
 31
0.0
  0
LINE
  5
1C94
330
A
100
AcDbEntity
  8
0
 62
     7
 48
0.002555
100
AcDbLine
 10
115.812531
 20
385.187012
 30
0.0
 11
115.914749
 21
385.187012
 31
0.0
  0
LINE
  5
1C95
330
A
100
AcDbEntity
  8
0
 62
     7
 48
0.001652
100
AcDbLine
 10
115.74646
 20
385.187012
 30
0.0
 11
115.812531
 21
385.187012
 31
0.0
  0
LINE
  5
1C96
330
A
100
AcDbEntity
  8
0
 62
     7
 48
0.000788
100
AcDbLine
 10
115.71492
 20
385.187012
 30
0.0
 11
115.74646
 21
385.187012
 31
0.0
  0
LINE
  5
1C97
330
A
100
AcDbEntity
  8
0
 62
     7
 48
0.000035
100
AcDbLine
 10
145.711823
 20
385.187012
 30
0.0
 11
145.713211
 21
385.187012
 31
0.0
  0
LINE
  5
1C98
330
A
100
AcDbEntity
  8
0
 62
     7
 48
0.000817
100
AcDbLine
 10
145.679138
 20
385.187012
 30
0.0
 11
145.711823
 21
385.187012
 31
0.0
  0
LINE
  5
1C99
330
A
100
AcDbEntity
  8
0
 62
     7
 48
0.001559
100
AcDbLine
 10
145.61676
 20
385.187012
 30
0.0
 11
145.679138
 21
385.187012
 31
0.0
  0
LINE
  5
1C9A
330
A
100
AcDbEntity
  8
0
 62
     7
 48
0.002262
100
AcDbLine
 10
145.526291
 20
385.187012
 30
0.0
 11
145.61676
 21
385.187012
 31
0.0
  0
LINE
  5
1C9B
330
A
100
AcDbEntity
  8
0
 62
     7
 48
0.002923
100
AcDbLine
 10
145.409378
 20
385.187012
 30
0.0
 11
145.526291
 21
385.187012
 31
0.0
  0
LINE
  5
1C9C
330
A
100
AcDbEntity
  8
0
 62
     7
 48
0.003544
100
AcDbLine
 10
145.267609
 20
385.187012
 30
0.0
 11
145.409378
 21
385.187012
 31
0.0
  0
LINE
  5
1C9D
330
A
100
AcDbEntity
  8
0
 62
     7
 48
0.004125
100
AcDbLine
 10
145.1026
 20
385.187012
 30
0.0
 11
145.267609
 21
385.187012
 31
0.0
  0
LINE
  5
1C9E
330
A
100
AcDbEntity
  8
0
 62
     7
 48
0.004666
100
AcDbLine
 10
144.91597
 20
385.187012
 30
0.0
 11
145.1026
 21
385.187012
 31
0.0
  0
LINE
  5
1C9F
330
A
100
AcDbEntity
  8
0
 62
     7
 48
0.005166
100
AcDbLine
 10
144.709335
 20
385.187012
 30
0.0
 11
144.91597
 21
385.187012
 31
0.0
  0
LINE
  5
1CA0
330
A
100
AcDbEntity
  8
0
 62
     7
 48
0.005626
100
AcDbLine
 10
144.484314
 20
385.187012
 30
0.0
 11
144.709335
 21
385.187012
 31
0.0
  0
LINE
  5
1CA1
330
A
100
AcDbEntity
  8
0
 62
     7
 48
0.006046
100
AcDbLine
 10
144.242493
 20
385.187012
 30
0.0
 11
144.484314
 21
385.187012
 31
0.0
  0
LINE
  5
1CA2
330
A
100
AcDbEntity
  8
0
 62
     7
 48
0.004638
100
AcDbLine
 10
116.074234
 20
385.187012
 30
0.0
 11
116.259773
 21
385.187012
 31
0.0
  0
LINE
  5
1CA3
330
A
100
AcDbEntity
  8
0
 62
     7
 48
0.004794
100
AcDbLine
 10
115.882462
 20
385.187012
 30
0.0
 11
116.074234
 21
385.187012
 31
0.0
  0
LINE
  5
1CA4
330
A
100
AcDbEntity
  8
0
 62
     7
 48
0.004926
100
AcDbLine
 10
115.685402
 20
385.187012
 30
0.0
 11
115.882462
 21
385.187012
 31
0.0
  0
LINE
  5
1CA5
330
A
100
AcDbEntity
  8
0
 62
     7
 48
0.436361
100
AcDbLine
 10
98.23097199999999
 20
385.187012
 30
0.0
 11
115.685402
 21
385.187012
 31
0.0
  0
LINE
  5
1CA6
330
A
100
AcDbEntity
  8
0
 62
     7
 48
0.018921
100
AcDbLine
 10
97.474152
 20
385.187012
 30
0.0
 11
98.23097199999999
 21
385.187012
 31
0.0
  0
LINE
  5
1CA7
330
A
100
AcDbEntity
  8
0
 62
     7
 48
0.004873
100
AcDbLine
 10
97.279221
 20
385.187012
 30
0.0
 11
97.474152
 21
385.187012
 31
0.0
  0
LINE
  5
1CA8
330
A
100
AcDbEntity
  8
0
 62
     7
 48
0.004693
100
AcDbLine
 10
97.091507
 20
385.187012
 30
0.0
 11
97.279221
 21
385.187012
 31
0.0
  0
LINE
  5
1CA9
330
A
100
AcDbEntity
  8
0
 62
     7
 48
0.004492
100
AcDbLine
 10
96.91183500000001
 20
385.187012
 30
0.0
 11
97.091507
 21
385.187012
 31
0.0
  0
LINE
  5
1CAA
330
A
100
AcDbEntity
  8
0
 62
     7
 48
0.00427
100
AcDbLine
 10
96.74104300000001
 20
385.187012
 30
0.0
 11
96.91183500000001
 21
385.187012
 31
0.0
  0
LINE
  5
1CAB
330
A
100
AcDbEntity
  8
0
 62
     7
 48
0.004027
100
AcDbLine
 10
96.57997100000001
 20
385.187012
 30
0.0
 11
96.74104300000001
 21
385.187012
 31
0.0
  0
LINE
  5
1CAC
330
A
100
AcDbEntity
  8
0
 62
     7
 48
0.003763
100
AcDbLine
 10
96.42944300000001
 20
385.187012
 30
0.0
 11
96.57997100000001
 21
385.187012
 31
0.0
  0
LINE
  5
1CAD
330
A
100
AcDbEntity
  8
0
 62
     7
 48
0.003479
100
AcDbLine
 10
96.290291
 20
385.187012
 30
0.0
 11
96.42944300000001
 21
385.187012
 31
0.0
  0
LINE
  5
1CAE
330
A
100
AcDbEntity
  8
0
 62
     7
 48
0.003174
100
AcDbLine
 10
96.163345
 20
385.187012
 30
0.0
 11
96.290291
 21
385.187012
 31
0.0
  0
LINE
  5
1CAF
330
A
100
AcDbEntity
  8
0
 62
     7
 48
0.002848
100
AcDbLine
 10
96.049438
 20
385.187012
 30
0.0
 11
96.163345
 21
385.187012
 31
0.0
  0
LINE
  5
1CB0
330
A
100
AcDbEntity
  8
0
 62
     7
 48
0.002501
100
AcDbLine
 10
95.94941699999999
 20
385.187012
 30
0.0
 11
96.049438
 21
385.187012
 31
0.0
  0
LINE
  5
1CB1
330
A
100
AcDbEntity
  8
0
 62
     7
 48
0.002133
100
AcDbLine
 10
95.86409000000001
 20
385.187012
 30
0.0
 11
95.94941699999999
 21
385.187012
 31
0.0
  0
LINE
  5
1CB2
330
A
100
AcDbEntity
  8
0
 62
     7
 48
0.001744
100
AcDbLine
 10
95.794312
 20
385.187012
 30
0.0
 11
95.86409000000001
 21
385.187012
 31
0.0
  0
LINE
  5
1CB3
330
A
100
AcDbEntity
  8
0
 62
     7
 48
0.001336
100
AcDbLine
 10
95.740891
 20
385.187012
 30
0.0
 11
95.794312
 21
385.187012
 31
0.0
  0
LINE
  5
1CB4
330
A
100
AcDbEntity
  8
0
 62
     7
 48
0.000905
100
AcDbLine
 10
95.70468099999999
 20
385.187012
 30
0.0
 11
95.740891
 21
385.187012
 31
0.0
  0
LINE
  5
1CB5
330
A
100
AcDbEntity
  8
0
 62
     7
 48
0.000454
100
AcDbLine
 10
95.68650799999998
 20
385.187012
 30
0.0
 11
95.70468099999999
 21
385.187012
 31
0.0
  0
LINE
  5
1CB6
330
A
100
AcDbEntity
  8
0
 62
     7
 48
0.000498
100
AcDbLine
 10
117.661804
 20
385.187012
 30
0.0
 11
117.681717
 21
385.187012
 31
0.0
  0
LINE
  5
1CB7
330
A
100
AcDbEntity
  8
0
 62
     7
 48
0.000956
100
AcDbLine
 10
117.623566
 20
385.187012
 30
0.0
 11
117.661804
 21
385.187012
 31
0.0
  0
LINE
  5
1CB8
330
A
100
AcDbEntity
  8
0
 62
     7
 48
0.001391
100
AcDbLine
 10
117.56794
 20
385.187012
 30
0.0
 11
117.623566
 21
385.187012
 31
0.0
  0
LINE
  5
1CB9
330
A
100
AcDbEntity
  8
0
 62
     7
 48
0.001802
100
AcDbLine
 10
117.49585
 20
385.187012
 30
0.0
 11
117.56794
 21
385.187012
 31
0.0
  0
LINE
  5
1CBA
330
A
100
AcDbEntity
  8
0
 62
     7
 48
0.002191
100
AcDbLine
 10
117.408226
 20
385.187012
 30
0.0
 11
117.49585
 21
385.187012
 31
0.0
  0
LINE
  5
1CBB
330
A
100
AcDbEntity
  8
0
 62
     7
 48
0.002555
100
AcDbLine
 10
117.306007
 20
385.187012
 30
0.0
 11
117.408226
 21
385.187012
 31
0.0
  0
LINE
  5
1CBC
330
A
100
AcDbEntity
  8
0
 62
     7
 48
0.002897
100
AcDbLine
 10
117.190109
 20
385.187012
 30
0.0
 11
117.306007
 21
385.187012
 31
0.0
  0
LINE
  5
1CBD
330
A
100
AcDbEntity
  8
0
 62
     7
 48
0.003216
100
AcDbLine
 10
117.061478
 20
385.187012
 30
0.0
 11
117.190109
 21
385.187012
 31
0.0
  0
LINE
  5
1CBE
330
A
100
AcDbEntity
  8
0
 62
     7
 48
0.003511
100
AcDbLine
 10
116.921036
 20
385.187012
 30
0.0
 11
117.061478
 21
385.187012
 31
0.0
  0
LINE
  5
1CBF
330
A
100
AcDbEntity
  8
0
 62
     7
 48
0.003783
100
AcDbLine
 10
116.769714
 20
385.187012
 30
0.0
 11
116.921036
 21
385.187012
 31
0.0
  0
LINE
  5
1CC0
330
A
100
AcDbEntity
  8
0
 62
     7
 48
0.004032
100
AcDbLine
 10
116.608444
 20
385.187012
 30
0.0
 11
116.769714
 21
385.187012
 31
0.0
  0
LINE
  5
1CC1
330
A
100
AcDbEntity
  8
0
 62
     7
 48
0.004257
100
AcDbLine
 10
116.438148
 20
385.187012
 30
0.0
 11
116.608444
 21
385.187012
 31
0.0
  0
LINE
  5
1CC2
330
A
100
AcDbEntity
  8
0
 62
     7
 48
0.004459
100
AcDbLine
 10
116.259773
 20
385.187012
 30
0.0
 11
116.438148
 21
385.187012
 31
0.0
  0
LINE
  5
1CC3
330
A
100
AcDbEntity
  8
0
 62
     7
 48
0.004688
100
AcDbLine
 10
108.085373
 20
385.187012
 30
0.0
 11
108.272903
 21
385.187012
 31
0.0
  0
LINE
  5
1CC4
330
A
100
AcDbEntity
  8
0
 62
     7
 48
0.00485
100
AcDbLine
 10
107.891388
 20
385.187012
 30
0.0
 11
108.085373
 21
385.187012
 31
0.0
  0
LINE
  5
1CC5
330
A
100
AcDbEntity
  8
0
 62
     7
 48
0.004987
100
AcDbLine
 10
107.691902
 20
385.187012
 30
0.0
 11
107.891388
 21
385.187012
 31
0.0
  0
LINE
  5
1CC6
330
A
100
AcDbEntity
  8
0
 62
     7
 48
0.134337
100
AcDbLine
 10
102.31842
 20
385.187012
 30
0.0
 11
107.691902
 21
385.187012
 31
0.0
  0
LINE
  5
1CC7
330
A
100
AcDbEntity
  8
0
 62
     7
 48
0.01914
100
AcDbLine
 10
101.552834
 20
385.187012
 30
0.0
 11
102.31842
 21
385.187012
 31
0.0
  0
LINE
  5
1CC8
330
A
100
AcDbEntity
  8
0
 62
     7
 48
0.004963
100
AcDbLine
 10
101.354324
 20
385.187012
 30
0.0
 11
101.552834
 21
385.187012
 31
0.0
  0
LINE
  5
1CC9
330
A
100
AcDbEntity
  8
0
 62
     7
 48
0.004792
100
AcDbLine
 10
101.162628
 20
385.187012
 30
0.0
 11
101.354324
 21
385.187012
 31
0.0
  0
LINE
  5
1CCA
330
A
100
AcDbEntity
  8
0
 62
     7
 48
0.0046
100
AcDbLine
 10
100.97863
 20
385.187012
 30
0.0
 11
101.162628
 21
385.187012
 31
0.0
  0
LINE
  5
1CCB
330
A
100
AcDbEntity
  8
0
 62
     7
 48
0.004385
100
AcDbLine
 10
100.803215
 20
385.187012
 30
0.0
 11
100.97863
 21
385.187012
 31
0.0
  0
LINE
  5
1CCC
330
A
100
AcDbEntity
  8
0
 62
     7
 48
0.004148
100
AcDbLine
 10
100.637283
 20
385.187012
 30
0.0
 11
100.803215
 21
385.187012
 31
0.0
  0
LINE
  5
1CCD
330
A
100
AcDbEntity
  8
0
 62
     7
 48
0.003889
100
AcDbLine
 10
100.481712
 20
385.187012
 30
0.0
 11
100.637283
 21
385.187012
 31
0.0
  0
LINE
  5
1CCE
330
A
100
AcDbEntity
  8
0
 62
     7
 48
0.003608
100
AcDbLine
 10
100.337402
 20
385.187012
 30
0.0
 11
100.481712
 21
385.187012
 31
0.0
  0
LINE
  5
1CCF
330
A
100
AcDbEntity
  8
0
 62
     7
 48
0.003304
100
AcDbLine
 10
100.205246
 20
385.187012
 30
0.0
 11
100.337402
 21
385.187012
 31
0.0
  0
LINE
  5
1CD0
330
A
100
AcDbEntity
  8
0
 62
     7
 48
0.002978
100
AcDbLine
 10
100.086121
 20
385.187012
 30
0.0
 11
100.205246
 21
385.187012
 31
0.0
  0
LINE
  5
1CD1
330
A
100
AcDbEntity
  8
0
 62
     7
 48
0.00263
100
AcDbLine
 10
99.980934
 20
385.187012
 30
0.0
 11
100.086121
 21
385.187012
 31
0.0
  0
LINE
  5
1CD2
330
A
100
AcDbEntity
  8
0
 62
     7
 48
0.002259
100
AcDbLine
 10
99.890564
 20
385.187012
 30
0.0
 11
99.980934
 21
385.187012
 31
0.0
  0
LINE
  5
1CD3
330
A
100
AcDbEntity
  8
0
 62
     7
 48
0.001867
100
AcDbLine
 10
99.815903
 20
385.187012
 30
0.0
 11
99.890564
 21
385.187012
 31
0.0
  0
LINE
  5
1CD4
330
A
100
AcDbEntity
  8
0
 62
     7
 48
0.001451
100
AcDbLine
 10
99.757843
 20
385.187012
 30
0.0
 11
99.815903
 21
385.187012
 31
0.0
  0
LINE
  5
1CD5
330
A
100
AcDbEntity
  8
0
 62
     7
 48
0.001014
100
AcDbLine
 10
99.71727000000001
 20
385.187012
 30
0.0
 11
99.757843
 21
385.187012
 31
0.0
  0
LINE
  5
1CD6
330
A
100
AcDbEntity
  8
0
 62
     7
 48
0.000555
100
AcDbLine
 10
99.695084
 20
385.187012
 30
0.0
 11
99.71727000000001
 21
385.187012
 31
0.0
  0
LINE
  5
1CD7
330
A
100
AcDbEntity
  8
0
 62
     7
 48
0.000073
100
AcDbLine
 10
99.69216199999999
 20
385.187012
 30
0.0
 11
99.695084
 21
385.187012
 31
0.0
  0
LINE
  5
1CD8
330
A
100
AcDbEntity
  8
0
 62
     7
 48
0.000421
100
AcDbLine
 10
109.67289
 20
385.187012
 30
0.0
 11
109.689735
 21
385.187012
 31
0.0
  0
LINE
  5
1CD9
330
A
100
AcDbEntity
  8
0
 62
     7
 48
0.000892
100
AcDbLine
 10
109.637192
 20
385.187012
 30
0.0
 11
109.67289
 21
385.187012
 31
0.0
  0
LINE
  5
1CDA
330
A
100
AcDbEntity
  8
0
 62
     7
 48
0.00134
100
AcDbLine
 10
109.583588
 20
385.187012
 30
0.0
 11
109.637192
 21
385.187012
 31
0.0
  0
LINE
  5
1CDB
330
A
100
AcDbEntity
  8
0
 62
     7
 48
0.001764
100
AcDbLine
 10
109.513039
 20
385.187012
 30
0.0
 11
109.583588
 21
385.187012
 31
0.0
  0
LINE
  5
1CDC
330
A
100
AcDbEntity
  8
0
 62
     7
 48
0.002164
100
AcDbLine
 10
109.426491
 20
385.187012
 30
0.0
 11
109.513039
 21
385.187012
 31
0.0
  0
LINE
  5
1CDD
330
A
100
AcDbEntity
  8
0
 62
     7
 48
0.00254
100
AcDbLine
 10
109.324905
 20
385.187012
 30
0.0
 11
109.426491
 21
385.187012
 31
0.0
  0
LINE
  5
1CDE
330
A
100
AcDbEntity
  8
0
 62
     7
 48
0.002892
100
AcDbLine
 10
109.209244
 20
385.187012
 30
0.0
 11
109.324905
 21
385.187012
 31
0.0
  0
LINE
  5
1CDF
330
A
100
AcDbEntity
  8
0
 62
     7
 48
0.00322
100
AcDbLine
 10
109.080444
 20
385.187012
 30
0.0
 11
109.209244
 21
385.187012
 31
0.0
  0
LINE
  5
1CE0
330
A
100
AcDbEntity
  8
0
 62
     7
 48
0.003524
100
AcDbLine
 10
108.939468
 20
385.187012
 30
0.0
 11
109.080444
 21
385.187012
 31
0.0
  0
LINE
  5
1CE1
330
A
100
AcDbEntity
  8
0
 62
     7
 48
0.003805
100
AcDbLine
 10
108.78727
 20
385.187012
 30
0.0
 11
108.939468
 21
385.187012
 31
0.0
  0
LINE
  5
1CE2
330
A
100
AcDbEntity
  8
0
 62
     7
 48
0.004062
100
AcDbLine
 10
108.624809
 20
385.187012
 30
0.0
 11
108.78727
 21
385.187012
 31
0.0
  0
LINE
  5
1CE3
330
A
100
AcDbEntity
  8
0
 62
     7
 48
0.004294
100
AcDbLine
 10
108.453033
 20
385.187012
 30
0.0
 11
108.624809
 21
385.187012
 31
0.0
  0
LINE
  5
1CE4
330
A
100
AcDbEntity
  8
0
 62
     7
 48
0.004503
100
AcDbLine
 10
108.272903
 20
385.187012
 30
0.0
 11
108.453033
 21
385.187012
 31
0.0
  0
LINE
  5
1CE5
330
A
100
AcDbEntity
  8
0
 62
     7
 48
0.0375
100
AcDbLine
 10
126.698929
 20
386.6870120000001
 30
0.0
 11
126.698929
 21
385.187012
 31
0.0
  0
LINE
  5
1CE6
330
A
100
AcDbEntity
  8
0
 62
     7
 48
0.0375
100
AcDbLine
 10
126.779686
 20
386.6870120000001
 30
0.0
 11
126.779686
 21
385.187012
 31
0.0
  0
LINE
  5
1CE7
330
A
100
AcDbEntity
  8
0
 62
     7
 48
0.002019
100
AcDbLine
 10
126.698929
 20
385.187012
 30
0.0
 11
126.779686
 21
385.187012
 31
0.0
  0
LINE
  5
1CE8
330
A
100
AcDbEntity
  8
0
 62
     7
 48
0.0375
100
AcDbLine
 10
126.943626
 20
386.6870120000001
 30
0.0
 11
126.943626
 21
385.187012
 31
0.0
  0
LINE
  5
1CE9
330
A
100
AcDbEntity
  8
0
 62
     7
 48
0.004099
100
AcDbLine
 10
126.779686
 20
385.187012
 30
0.0
 11
126.943626
 21
385.187012
 31
0.0
  0
LINE
  5
1CEA
330
A
100
AcDbEntity
  8
0
 62
     7
 48
0.005949
100
AcDbLine
 10
126.943626
 20
385.187012
 30
0.0
 11
127.181602
 21
385.187012
 31
0.0
  0
LINE
  5
1CEB
330
A
100
AcDbEntity
  8
0
 62
     7
 48
0.0375
100
AcDbLine
 10
127.181602
 20
386.6870120000001
 30
0.0
 11
127.181602
 21
385.187012
 31
0.0
  0
LINE
  5
1CEC
330
A
100
AcDbEntity
  8
0
 62
     7
 48
0.0375
100
AcDbLine
 10
127.484642
 20
386.6870120000001
 30
0.0
 11
127.484642
 21
385.187012
 31
0.0
  0
LINE
  5
1CED
330
A
100
AcDbEntity
  8
0
 62
     7
 48
0.007576
100
AcDbLine
 10
127.181602
 20
385.187012
 30
0.0
 11
127.484642
 21
385.187012
 31
0.0
  0
LINE
  5
1CEE
330
A
100
AcDbEntity
  8
0
 62
     7
 48
0.0375
100
AcDbLine
 10
127.844429
 20
386.6870120000001
 30
0.0
 11
127.844429
 21
385.187012
 31
0.0
  0
LINE
  5
1CEF
330
A
100
AcDbEntity
  8
0
 62
     7
 48
0.008995
100
AcDbLine
 10
127.484642
 20
385.187012
 30
0.0
 11
127.844429
 21
385.187012
 31
0.0
  0
LINE
  5
1CF0
330
A
100
AcDbEntity
  8
0
 62
     7
 48
0.010219
100
AcDbLine
 10
127.844429
 20
385.187012
 30
0.0
 11
128.253189
 21
385.187012
 31
0.0
  0
LINE
  5
1CF1
330
A
100
AcDbEntity
  8
0
 62
     7
 48
0.0375
100
AcDbLine
 10
128.253189
 20
386.6870120000001
 30
0.0
 11
128.253189
 21
385.187012
 31
0.0
  0
LINE
  5
1CF2
330
A
100
AcDbEntity
  8
0
 62
     7
 48
0.011253
100
AcDbLine
 10
128.253189
 20
385.187012
 30
0.0
 11
128.703293
 21
385.187012
 31
0.0
  0
LINE
  5
1CF3
330
A
100
AcDbEntity
  8
0
 62
     7
 48
0.0375
100
AcDbLine
 10
128.703293
 20
386.6870120000001
 30
0.0
 11
128.703293
 21
385.187012
 31
0.0
  0
LINE
  5
1CF4
330
A
100
AcDbEntity
  8
0
 62
     7
 48
0.012081
100
AcDbLine
 10
128.703293
 20
385.187012
 30
0.0
 11
129.186539
 21
385.187012
 31
0.0
  0
LINE
  5
1CF5
330
A
100
AcDbEntity
  8
0
 62
     7
 48
0.0375
100
AcDbLine
 10
129.186539
 20
386.6870120000001
 30
0.0
 11
129.186539
 21
385.187012
 31
0.0
  0
LINE
  5
1CF6
330
A
100
AcDbEntity
  8
0
 62
     7
 48
0.011596
100
AcDbLine
 10
129.186539
 20
385.187012
 30
0.0
 11
129.65036
 21
385.187012
 31
0.0
  0
LINE
  5
1CF7
330
A
100
AcDbEntity
  8
0
 62
     7
 48
0.0375
100
AcDbLine
 10
129.65036
 20
386.6870120000001
 30
0.0
 11
129.65036
 21
385.187012
 31
0.0
  0
LINE
  5
1CF8
330
A
100
AcDbEntity
  8
0
 62
     7
100
AcDbLine
 10
129.65036
 20
385.187012
 30
0.0
 11
165.375702
 21
385.187012
 31
0.0
  0
LINE
  5
1CF9
330
A
100
AcDbEntity
  8
0
 62
     7
 48
0.020478
100
AcDbLine
 10
165.375702
 20
385.187012
 30
0.0
 11
166.194824
 21
385.187012
 31
0.0
  0
LINE
  5
1CFA
330
A
100
AcDbEntity
  8
0
 62
     7
 48
0.022181
100
AcDbLine
 10
166.194824
 20
385.187012
 30
0.0
 11
167.082077
 21
385.187012
 31
0.0
  0
LINE
  5
1CFB
330
A
100
AcDbEntity
  8
0
 62
     7
 48
0.011478
100
AcDbLine
 10
167.082077
 20
385.187012
 30
0.0
 11
167.541199
 21
385.187012
 31
0.0
  0
LINE
  5
1CFC
330
A
100
AcDbEntity
  8
0
 62
     7
 48
0.009138
100
AcDbLine
 10
167.541199
 20
385.187012
 30
0.0
 11
167.906723
 21
385.187012
 31
0.0
  0
LINE
  5
1CFD
330
A
100
AcDbEntity
  8
0
 62
     7
 48
0.00753
100
AcDbLine
 10
167.906723
 20
385.187012
 30
0.0
 11
168.2079159999999
 21
385.187012
 31
0.0
  0
LINE
  5
1CFE
330
A
100
AcDbEntity
  8
0
 62
     7
 48
0.005819
100
AcDbLine
 10
168.2079159999999
 20
385.187012
 30
0.0
 11
168.440674
 21
385.187012
 31
0.0
  0
LINE
  5
1CFF
330
A
100
AcDbEntity
  8
0
 62
     7
 48
0.004012
100
AcDbLine
 10
168.440674
 20
385.187012
 30
0.0
 11
168.601166
 21
385.187012
 31
0.0
  0
LINE
  5
1D00
330
A
100
AcDbEntity
  8
0
 62
     7
 48
0.002105
100
AcDbLine
 10
168.601166
 20
385.187012
 30
0.0
 11
168.685379
 21
385.187012
 31
0.0
  0
LINE
  5
1D01
330
A
100
AcDbEntity
  8
0
 62
     7
 48
0.000092
100
AcDbLine
 10
168.685379
 20
385.187012
 30
0.0
 11
168.689056
 21
385.187012
 31
0.0
  0
LINE
  5
1D02
330
A
100
AcDbEntity
  8
0
 62
     7
 48
0.002019
100
AcDbLine
 10
118.702934
 20
385.187012
 30
0.0
 11
118.783684
 21
385.187012
 31
0.0
  0
LINE
  5
1D03
330
A
100
AcDbEntity
  8
0
 62
     7
 48
0.004099
100
AcDbLine
 10
118.783684
 20
385.187012
 30
0.0
 11
118.947624
 21
385.187012
 31
0.0
  0
LINE
  5
1D04
330
A
100
AcDbEntity
  8
0
 62
     7
 48
0.005949
100
AcDbLine
 10
118.947624
 20
385.187012
 30
0.0
 11
119.185585
 21
385.187012
 31
0.0
  0
LINE
  5
1D05
330
A
100
AcDbEntity
  8
0
 62
     7
 48
0.007576
100
AcDbLine
 10
119.185585
 20
385.187012
 30
0.0
 11
119.488617
 21
385.187012
 31
0.0
  0
LINE
  5
1D06
330
A
100
AcDbEntity
  8
0
 62
     7
 48
0.008994
100
AcDbLine
 10
119.488617
 20
385.187012
 30
0.0
 11
119.848396
 21
385.187012
 31
0.0
  0
LINE
  5
1D07
330
A
100
AcDbEntity
  8
0
 62
     7
 48
0.010219
100
AcDbLine
 10
119.848396
 20
385.187012
 30
0.0
 11
120.257149
 21
385.187012
 31
0.0
  0
LINE
  5
1D08
330
A
100
AcDbEntity
  8
0
 62
     7
 48
0.011253
100
AcDbLine
 10
120.257149
 20
385.187012
 30
0.0
 11
120.707253
 21
385.187012
 31
0.0
  0
LINE
  5
1D09
330
A
100
AcDbEntity
  8
0
 62
     7
 48
0.012081
100
AcDbLine
 10
120.707253
 20
385.187012
 30
0.0
 11
121.190498
 21
385.187012
 31
0.0
  0
LINE
  5
1D0A
330
A
100
AcDbEntity
  8
0
 62
     7
 48
0.011596
100
AcDbLine
 10
121.190498
 20
385.187012
 30
0.0
 11
121.654335
 21
385.187012
 31
0.0
  0
LINE
  5
1D0B
330
A
100
AcDbEntity
  8
0
 62
     7
100
AcDbLine
 10
121.654335
 20
385.187012
 30
0.0
 11
157.379715
 21
385.187012
 31
0.0
  0
LINE
  5
1D0C
330
A
100
AcDbEntity
  8
0
 62
     7
 48
0.020478
100
AcDbLine
 10
157.379715
 20
385.187012
 30
0.0
 11
158.198837
 21
385.187012
 31
0.0
  0
LINE
  5
1D0D
330
A
100
AcDbEntity
  8
0
 62
     7
 48
0.022181
100
AcDbLine
 10
158.198837
 20
385.187012
 30
0.0
 11
159.08609
 21
385.187012
 31
0.0
  0
LINE
  5
1D0E
330
A
100
AcDbEntity
  8
0
 62
     7
 48
0.011478
100
AcDbLine
 10
159.08609
 20
385.187012
 30
0.0
 11
159.545197
 21
385.187012
 31
0.0
  0
LINE
  5
1D0F
330
A
100
AcDbEntity
  8
0
 62
     7
 48
0.009138
100
AcDbLine
 10
159.545197
 20
385.187012
 30
0.0
 11
159.910736
 21
385.187012
 31
0.0
  0
LINE
  5
1D10
330
A
100
AcDbEntity
  8
0
 62
     7
 48
0.00753
100
AcDbLine
 10
159.910736
 20
385.187012
 30
0.0
 11
160.211929
 21
385.187012
 31
0.0
  0
LINE
  5
1D11
330
A
100
AcDbEntity
  8
0
 62
     7
 48
0.005819
100
AcDbLine
 10
160.211929
 20
385.187012
 30
0.0
 11
160.444672
 21
385.187012
 31
0.0
  0
LINE
  5
1D12
330
A
100
AcDbEntity
  8
0
 62
     7
 48
0.004012
100
AcDbLine
 10
160.444672
 20
385.187012
 30
0.0
 11
160.605164
 21
385.187012
 31
0.0
  0
LINE
  5
1D13
330
A
100
AcDbEntity
  8
0
 62
     7
 48
0.002106
100
AcDbLine
 10
160.605164
 20
385.187012
 30
0.0
 11
160.689392
 21
385.187012
 31
0.0
  0
LINE
  5
1D14
330
A
100
AcDbEntity
  8
0
 62
     7
 48
0.000092
100
AcDbLine
 10
160.689392
 20
385.187012
 30
0.0
 11
160.693069
 21
385.187012
 31
0.0
  0
LINE
  5
1D15
330
A
100
AcDbEntity
  8
0
 62
     7
 48
0.0375
100
AcDbLine
 10
130.692627
 20
386.6870120000001
 30
0.0
 11
130.692627
 21
385.187012
 31
0.0
  0
LINE
  5
1D16
330
A
100
AcDbEntity
  8
0
 62
     7
 48
0.0375
100
AcDbLine
 10
130.773376
 20
386.6870120000001
 30
0.0
 11
130.773376
 21
385.187012
 31
0.0
  0
LINE
  5
1D17
330
A
100
AcDbEntity
  8
0
 62
     7
 48
0.002019
100
AcDbLine
 10
130.692627
 20
385.187012
 30
0.0
 11
130.773376
 21
385.187012
 31
0.0
  0
LINE
  5
1D18
330
A
100
AcDbEntity
  8
0
 62
     7
 48
0.0375
100
AcDbLine
 10
130.9373169999999
 20
386.6870120000001
 30
0.0
 11
130.9373169999999
 21
385.187012
 31
0.0
  0
LINE
  5
1D19
330
A
100
AcDbEntity
  8
0
 62
     7
 48
0.004099
100
AcDbLine
 10
130.773376
 20
385.187012
 30
0.0
 11
130.9373169999999
 21
385.187012
 31
0.0
  0
LINE
  5
1D1A
330
A
100
AcDbEntity
  8
0
 62
     7
 48
0.005949
100
AcDbLine
 10
130.9373169999999
 20
385.187012
 30
0.0
 11
131.175278
 21
385.187012
 31
0.0
  0
LINE
  5
1D1B
330
A
100
AcDbEntity
  8
0
 62
     7
 48
0.0375
100
AcDbLine
 10
131.175278
 20
386.6870120000001
 30
0.0
 11
131.175278
 21
385.187012
 31
0.0
  0
LINE
  5
1D1C
330
A
100
AcDbEntity
  8
0
 62
     7
 48
0.0375
100
AcDbLine
 10
131.478317
 20
386.6870120000001
 30
0.0
 11
131.478317
 21
385.187012
 31
0.0
  0
LINE
  5
1D1D
330
A
100
AcDbEntity
  8
0
 62
     7
 48
0.007576
100
AcDbLine
 10
131.175278
 20
385.187012
 30
0.0
 11
131.478317
 21
385.187012
 31
0.0
  0
LINE
  5
1D1E
330
A
100
AcDbEntity
  8
0
 62
     7
 48
0.008995
100
AcDbLine
 10
131.478317
 20
385.187012
 30
0.0
 11
131.838104
 21
385.187012
 31
0.0
  0
LINE
  5
1D1F
330
A
100
AcDbEntity
  8
0
 62
     7
 48
0.0375
100
AcDbLine
 10
131.838104
 20
386.6870120000001
 30
0.0
 11
131.838104
 21
385.187012
 31
0.0
  0
LINE
  5
1D20
330
A
100
AcDbEntity
  8
0
 62
     7
 48
0.010219
100
AcDbLine
 10
131.838104
 20
385.187012
 30
0.0
 11
132.246857
 21
385.187012
 31
0.0
  0
LINE
  5
1D21
330
A
100
AcDbEntity
  8
0
 62
     7
 48
0.0375
100
AcDbLine
 10
132.246857
 20
386.6870120000001
 30
0.0
 11
132.246857
 21
385.187012
 31
0.0
  0
LINE
  5
1D22
330
A
100
AcDbEntity
  8
0
 62
     7
 48
0.011253
100
AcDbLine
 10
132.246857
 20
385.187012
 30
0.0
 11
132.69696
 21
385.187012
 31
0.0
  0
LINE
  5
1D23
330
A
100
AcDbEntity
  8
0
 62
     7
 48
0.0375
100
AcDbLine
 10
132.69696
 20
386.6870120000001
 30
0.0
 11
132.69696
 21
385.187012
 31
0.0
  0
LINE
  5
1D24
330
A
100
AcDbEntity
  8
0
 62
     7
 48
0.012081
100
AcDbLine
 10
132.69696
 20
385.187012
 30
0.0
 11
133.180206
 21
385.187012
 31
0.0
  0
LINE
  5
1D25
330
A
100
AcDbEntity
  8
0
 62
     7
 48
0.0375
100
AcDbLine
 10
133.180206
 20
386.6870120000001
 30
0.0
 11
133.180206
 21
385.187012
 31
0.0
  0
LINE
  5
1D26
330
A
100
AcDbEntity
  8
0
 62
     7
 48
0.011596
100
AcDbLine
 10
133.180206
 20
385.187012
 30
0.0
 11
133.644028
 21
385.187012
 31
0.0
  0
LINE
  5
1D27
330
A
100
AcDbEntity
  8
0
 62
     7
 48
0.0375
100
AcDbLine
 10
133.644028
 20
386.6870120000001
 30
0.0
 11
133.644028
 21
385.187012
 31
0.0
  0
LINE
  5
1D28
330
A
100
AcDbEntity
  8
0
 62
     7
100
AcDbLine
 10
133.644028
 20
385.187012
 30
0.0
 11
169.3694
 21
385.187012
 31
0.0
  0
LINE
  5
1D29
330
A
100
AcDbEntity
  8
0
 62
     7
 48
0.0375
100
AcDbLine
 10
169.3694
 20
386.6870120000001
 30
0.0
 11
169.3694
 21
385.187012
 31
0.0
  0
LINE
  5
1D2A
330
A
100
AcDbEntity
  8
0
 62
     7
 48
0.0375
100
AcDbLine
 10
170.188522
 20
386.6870120000001
 30
0.0
 11
170.188522
 21
385.187012
 31
0.0
  0
LINE
  5
1D2B
330
A
100
AcDbEntity
  8
0
 62
     7
 48
0.020478
100
AcDbLine
 10
169.3694
 20
385.187012
 30
0.0
 11
170.188522
 21
385.187012
 31
0.0
  0
LINE
  5
1D2C
330
A
100
AcDbEntity
  8
0
 62
     7
 48
0.022181
100
AcDbLine
 10
170.188522
 20
385.187012
 30
0.0
 11
171.075775
 21
385.187012
 31
0.0
  0
LINE
  5
1D2D
330
A
100
AcDbEntity
  8
0
 62
     7
 48
0.0375
100
AcDbLine
 10
171.075775
 20
386.6870120000001
 30
0.0
 11
171.075775
 21
385.187012
 31
0.0
  0
LINE
  5
1D2E
330
A
100
AcDbEntity
  8
0
 62
     7
 48
0.0375
100
AcDbLine
 10
171.534897
 20
386.6870120000001
 30
0.0
 11
171.534897
 21
385.187012
 31
0.0
  0
LINE
  5
1D2F
330
A
100
AcDbEntity
  8
0
 62
     7
 48
0.011478
100
AcDbLine
 10
171.075775
 20
385.187012
 30
0.0
 11
171.534897
 21
385.187012
 31
0.0
  0
LINE
  5
1D30
330
A
100
AcDbEntity
  8
0
 62
     7
 48
0.009138
100
AcDbLine
 10
171.534897
 20
385.187012
 30
0.0
 11
171.900421
 21
385.187012
 31
0.0
  0
LINE
  5
1D31
330
A
100
AcDbEntity
  8
0
 62
     7
 48
0.0375
100
AcDbLine
 10
171.900421
 20
386.6870120000001
 30
0.0
 11
171.900421
 21
385.187012
 31
0.0
  0
LINE
  5
1D32
330
A
100
AcDbEntity
  8
0
 62
     7
 48
0.0375
100
AcDbLine
 10
172.20163
 20
386.6870120000001
 30
0.0
 11
172.20163
 21
385.187012
 31
0.0
  0
LINE
  5
1D33
330
A
100
AcDbEntity
  8
0
 62
     7
 48
0.00753
100
AcDbLine
 10
171.900421
 20
385.187012
 30
0.0
 11
172.20163
 21
385.187012
 31
0.0
  0
LINE
  5
1D34
330
A
100
AcDbEntity
  8
0
 62
     7
 48
0.005819
100
AcDbLine
 10
172.20163
 20
385.187012
 30
0.0
 11
172.434372
 21
385.187012
 31
0.0
  0
LINE
  5
1D35
330
A
100
AcDbEntity
  8
0
 62
     7
 48
0.0375
100
AcDbLine
 10
172.434372
 20
386.6870120000001
 30
0.0
 11
172.434372
 21
385.187012
 31
0.0
  0
LINE
  5
1D36
330
A
100
AcDbEntity
  8
0
 62
     7
 48
0.0375
100
AcDbLine
 10
172.594864
 20
386.6870120000001
 30
0.0
 11
172.594864
 21
385.187012
 31
0.0
  0
LINE
  5
1D37
330
A
100
AcDbEntity
  8
0
 62
     7
 48
0.004012
100
AcDbLine
 10
172.434372
 20
385.187012
 30
0.0
 11
172.594864
 21
385.187012
 31
0.0
  0
LINE
  5
1D38
330
A
100
AcDbEntity
  8
0
 62
     7
 48
0.002106
100
AcDbLine
 10
172.594864
 20
385.187012
 30
0.0
 11
172.679092
 21
385.187012
 31
0.0
  0
LINE
  5
1D39
330
A
100
AcDbEntity
  8
0
 62
     7
 48
0.0375
100
AcDbLine
 10
172.679092
 20
386.6870120000001
 30
0.0
 11
172.679092
 21
385.187012
 31
0.0
  0
LINE
  5
1D3A
330
A
100
AcDbEntity
  8
0
 62
     7
 48
0.000092
100
AcDbLine
 10
172.679092
 20
385.187012
 30
0.0
 11
172.68277
 21
385.187012
 31
0.0
  0
LINE
  5
1D3B
330
A
100
AcDbEntity
  8
0
 62
     7
 48
0.0375
100
AcDbLine
 10
172.68277
 20
386.6870120000001
 30
0.0
 11
172.68277
 21
385.187012
 31
0.0
  0
LINE
  5
1D3C
330
A
100
AcDbEntity
  8
0
 62
     7
 48
0.0375
100
AcDbLine
 10
89.681084
 20
386.6870120000001
 30
0.0
 11
89.681084
 21
385.187012
 31
0.0
  0
LINE
  5
1D3D
330
A
100
AcDbEntity
  8
0
 62
     7
 48
0.000052
100
AcDbLine
 10
89.681084
 20
385.187012
 30
0.0
 11
89.683174
 21
385.187012
 31
0.0
  0
LINE
  5
1D3E
330
A
100
AcDbEntity
  8
0
 62
     7
 48
0.0375
100
AcDbLine
 10
89.683174
 20
386.6870120000001
 30
0.0
 11
89.683174
 21
385.187012
 31
0.0
  0
LINE
  5
1D3F
330
A
100
AcDbEntity
  8
0
 62
     7
 48
0.001232
100
AcDbLine
 10
89.683174
 20
385.187012
 30
0.0
 11
89.73243700000002
 21
385.187012
 31
0.0
  0
LINE
  5
1D40
330
A
100
AcDbEntity
  8
0
 62
     7
 48
0.0375
100
AcDbLine
 10
89.73243700000002
 20
386.6870120000001
 30
0.0
 11
89.73243700000002
 21
385.187012
 31
0.0
  0
LINE
  5
1D41
330
A
100
AcDbEntity
  8
0
 62
     7
 48
0.002342
100
AcDbLine
 10
89.73243700000002
 20
385.187012
 30
0.0
 11
89.82611099999997
 21
385.187012
 31
0.0
  0
LINE
  5
1D42
330
A
100
AcDbEntity
  8
0
 62
     7
 48
0.0375
100
AcDbLine
 10
89.82611099999997
 20
386.6870120000001
 30
0.0
 11
89.82611099999997
 21
385.187012
 31
0.0
  0
LINE
  5
1D43
330
A
100
AcDbEntity
  8
0
 62
     7
 48
0.0375
100
AcDbLine
 10
89.96147200000001
 20
386.6870120000001
 30
0.0
 11
89.96147200000001
 21
385.187012
 31
0.0
  0
LINE
  5
1D44
330
A
100
AcDbEntity
  8
0
 62
     7
 48
0.003384
100
AcDbLine
 10
89.82611099999997
 20
385.187012
 30
0.0
 11
89.96147200000001
 21
385.187012
 31
0.0
  0
LINE
  5
1D45
330
A
100
AcDbEntity
  8
0
 62
     7
 48
0.004365
100
AcDbLine
 10
89.96147200000001
 20
385.187012
 30
0.0
 11
90.136078
 21
385.187012
 31
0.0
  0
LINE
  5
1D46
330
A
100
AcDbEntity
  8
0
 62
     7
 48
0.0375
100
AcDbLine
 10
90.136078
 20
386.6870120000001
 30
0.0
 11
90.136078
 21
385.187012
 31
0.0
  0
LINE
  5
1D47
330
A
100
AcDbEntity
  8
0
 62
     7
 48
0.005293
100
AcDbLine
 10
90.136078
 20
385.187012
 30
0.0
 11
90.347801
 21
385.187012
 31
0.0
  0
LINE
  5
1D48
330
A
100
AcDbEntity
  8
0
 62
     7
 48
0.0375
100
AcDbLine
 10
90.347801
 20
386.6870120000001
 30
0.0
 11
90.347801
 21
385.187012
 31
0.0
  0
LINE
  5
1D49
330
A
100
AcDbEntity
  8
0
 62
     7
 48
0.0375
100
AcDbLine
 10
90.59471100000001
 20
386.6870120000001
 30
0.0
 11
90.59471100000001
 21
385.187012
 31
0.0
  0
LINE
  5
1D4A
330
A
100
AcDbEntity
  8
0
 62
     7
 48
0.006173
100
AcDbLine
 10
90.347801
 20
385.187012
 30
0.0
 11
90.59471100000001
 21
385.187012
 31
0.0
  0
LINE
  5
1D4B
330
A
100
AcDbEntity
  8
0
 62
     7
 48
0.0375
100
AcDbLine
 10
90.874939
 20
386.6870120000001
 30
0.0
 11
90.874939
 21
385.187012
 31
0.0
  0
LINE
  5
1D4C
330
A
100
AcDbEntity
  8
0
 62
     7
 48
0.007006
100
AcDbLine
 10
90.59471100000001
 20
385.187012
 30
0.0
 11
90.874939
 21
385.187012
 31
0.0
  0
LINE
  5
1D4D
330
A
100
AcDbEntity
  8
0
 62
     7
 48
0.007786
100
AcDbLine
 10
90.874939
 20
385.187012
 30
0.0
 11
91.186386
 21
385.187012
 31
0.0
  0
LINE
  5
1D4E
330
A
100
AcDbEntity
  8
0
 62
     7
 48
0.0375
100
AcDbLine
 10
91.186386
 20
386.6870120000001
 30
0.0
 11
91.186386
 21
385.187012
 31
0.0
  0
LINE
  5
1D4F
330
A
100
AcDbEntity
  8
0
 62
     7
 48
0.0375
100
AcDbLine
 10
91.526428
 20
386.6870120000001
 30
0.0
 11
91.526428
 21
385.187012
 31
0.0
  0
LINE
  5
1D50
330
A
100
AcDbEntity
  8
0
 62
     7
 48
0.008501
100
AcDbLine
 10
91.186386
 20
385.187012
 30
0.0
 11
91.526428
 21
385.187012
 31
0.0
  0
LINE
  5
1D51
330
A
100
AcDbEntity
  8
0
 62
     7
 48
0.00913
100
AcDbLine
 10
91.526428
 20
385.187012
 30
0.0
 11
91.891647
 21
385.187012
 31
0.0
  0
LINE
  5
1D52
330
A
100
AcDbEntity
  8
0
 62
     7
 48
0.0375
100
AcDbLine
 10
91.891647
 20
386.6870120000001
 30
0.0
 11
91.891647
 21
385.187012
 31
0.0
  0
LINE
  5
1D53
330
A
100
AcDbEntity
  8
0
 62
     7
 48
0.00965
100
AcDbLine
 10
91.891647
 20
385.187012
 30
0.0
 11
92.277664
 21
385.187012
 31
0.0
  0
LINE
  5
1D54
330
A
100
AcDbEntity
  8
0
 62
     7
 48
0.0375
100
AcDbLine
 10
92.277664
 20
386.6870120000001
 30
0.0
 11
92.277664
 21
385.187012
 31
0.0
  0
LINE
  5
1D55
330
A
100
AcDbEntity
  8
0
 62
     7
 48
0.009222
100
AcDbLine
 10
92.277664
 20
385.187012
 30
0.0
 11
92.64655299999999
 21
385.187012
 31
0.0
  0
LINE
  5
1D56
330
A
100
AcDbEntity
  8
0
 62
     7
 48
0.0375
100
AcDbLine
 10
92.64655299999999
 20
386.6870120000001
 30
0.0
 11
92.64655299999999
 21
385.187012
 31
0.0
  0
LINE
  5
1D57
330
A
100
AcDbEntity
  8
0
 62
     7
100
AcDbLine
 10
92.64655299999999
 20
385.187012
 30
0.0
 11
118.40625
 21
385.187012
 31
0.0
  0
LINE
  5
1D58
330
A
100
AcDbEntity
  8
0
 62
     7
 48
0.0375
100
AcDbLine
 10
118.40625
 20
386.6870120000001
 30
0.0
 11
118.40625
 21
385.187012
 31
0.0
  0
LINE
  5
1D59
330
A
100
AcDbEntity
  8
0
 62
     7
 48
0.014639
100
AcDbLine
 10
118.40625
 20
385.187012
 30
0.0
 11
118.991821
 21
385.187012
 31
0.0
  0
LINE
  5
1D5A
330
A
100
AcDbEntity
  8
0
 62
     7
 48
0.0375
100
AcDbLine
 10
118.991821
 20
386.6870120000001
 30
0.0
 11
118.991821
 21
385.187012
 31
0.0
  0
LINE
  5
1D5B
330
A
100
AcDbEntity
  8
0
 62
     7
 48
0.009719
100
AcDbLine
 10
118.991821
 20
385.187012
 30
0.0
 11
119.380569
 21
385.187012
 31
0.0
  0
LINE
  5
1D5C
330
A
100
AcDbEntity
  8
0
 62
     7
 48
0.0375
100
AcDbLine
 10
119.380569
 20
386.6870120000001
 30
0.0
 11
119.380569
 21
385.187012
 31
0.0
  0
LINE
  5
1D5D
330
A
100
AcDbEntity
  8
0
 62
     7
 48
0.009085
100
AcDbLine
 10
119.380569
 20
385.187012
 30
0.0
 11
119.74398
 21
385.187012
 31
0.0
  0
LINE
  5
1D5E
330
A
100
AcDbEntity
  8
0
 62
     7
 48
0.0375
100
AcDbLine
 10
119.74398
 20
386.6870120000001
 30
0.0
 11
119.74398
 21
385.187012
 31
0.0
  0
LINE
  5
1D5F
330
A
100
AcDbEntity
  8
0
 62
     7
 48
0.0375
100
AcDbLine
 10
120.087708
 20
386.6870120000001
 30
0.0
 11
120.087708
 21
385.187012
 31
0.0
  0
LINE
  5
1D60
330
A
100
AcDbEntity
  8
0
 62
     7
 48
0.008593
100
AcDbLine
 10
119.74398
 20
385.187012
 30
0.0
 11
120.087708
 21
385.187012
 31
0.0
  0
LINE
  5
1D61
330
A
100
AcDbEntity
  8
0
 62
     7
 48
0.008007
100
AcDbLine
 10
120.087708
 20
385.187012
 30
0.0
 11
120.408005
 21
385.187012
 31
0.0
  0
LINE
  5
1D62
330
A
100
AcDbEntity
  8
0
 62
     7
 48
0.0375
100
AcDbLine
 10
120.408005
 20
386.6870120000001
 30
0.0
 11
120.408005
 21
385.187012
 31
0.0
  0
LINE
  5
1D63
330
A
100
AcDbEntity
  8
0
 62
     7
 48
0.007331
100
AcDbLine
 10
120.408005
 20
385.187012
 30
0.0
 11
120.701248
 21
385.187012
 31
0.0
  0
LINE
  5
1D64
330
A
100
AcDbEntity
  8
0
 62
     7
 48
0.0375
100
AcDbLine
 10
120.701248
 20
386.6870120000001
 30
0.0
 11
120.701248
 21
385.187012
 31
0.0
  0
LINE
  5
1D65
330
A
100
AcDbEntity
  8
0
 62
     7
 48
0.0375
100
AcDbLine
 10
120.963806
 20
386.6870120000001
 30
0.0
 11
120.963806
 21
385.187012
 31
0.0
  0
LINE
  5
1D66
330
A
100
AcDbEntity
  8
0
 62
     7
 48
0.006564
100
AcDbLine
 10
120.701248
 20
385.187012
 30
0.0
 11
120.963806
 21
385.187012
 31
0.0
  0
LINE
  5
1D67
330
A
100
AcDbEntity
  8
0
 62
     7
 48
0.0375
100
AcDbLine
 10
121.191895
 20
386.6870120000001
 30
0.0
 11
121.191895
 21
385.187012
 31
0.0
  0
LINE
  5
1D68
330
A
100
AcDbEntity
  8
0
 62
     7
 48
0.005702
100
AcDbLine
 10
120.963806
 20
385.187012
 30
0.0
 11
121.191895
 21
385.187012
 31
0.0
  0
LINE
  5
1D69
330
A
100
AcDbEntity
  8
0
 62
     7
 48
0.004745
100
AcDbLine
 10
121.191895
 20
385.187012
 30
0.0
 11
121.381699
 21
385.187012
 31
0.0
  0
LINE
  5
1D6A
330
A
100
AcDbEntity
  8
0
 62
     7
 48
0.0375
100
AcDbLine
 10
121.381699
 20
386.6870120000001
 30
0.0
 11
121.381699
 21
385.187012
 31
0.0
  0
LINE
  5
1D6B
330
A
100
AcDbEntity
  8
0
 62
     7
 48
0.003787
100
AcDbLine
 10
121.381699
 20
385.187012
 30
0.0
 11
121.533173
 21
385.187012
 31
0.0
  0
LINE
  5
1D6C
330
A
100
AcDbEntity
  8
0
 62
     7
 48
0.0375
100
AcDbLine
 10
121.533173
 20
386.6870120000001
 30
0.0
 11
121.533173
 21
385.187012
 31
0.0
  0
LINE
  5
1D6D
330
A
100
AcDbEntity
  8
0
 62
     7
 48
0.002481
100
AcDbLine
 10
121.533173
 20
385.187012
 30
0.0
 11
121.632423
 21
385.187012
 31
0.0
  0
LINE
  5
1D6E
330
A
100
AcDbEntity
  8
0
 62
     7
 48
0.0375
100
AcDbLine
 10
121.632423
 20
386.6870120000001
 30
0.0
 11
121.632423
 21
385.187012
 31
0.0
  0
LINE
  5
1D6F
330
A
100
AcDbEntity
  8
0
 62
     7
 48
0.001191
100
AcDbLine
 10
121.632423
 20
385.187012
 30
0.0
 11
121.680054
 21
385.187012
 31
0.0
  0
LINE
  5
1D70
330
A
100
AcDbEntity
  8
0
 62
     7
 48
0.0375
100
AcDbLine
 10
121.680054
 20
386.6870120000001
 30
0.0
 11
121.680054
 21
385.187012
 31
0.0
  0
LINE
  5
1D71
330
A
100
AcDbEntity
  8
0
 62
     7
 48
0.000052
100
AcDbLine
 10
114.714577
 20
385.187012
 30
0.0
 11
114.716667
 21
385.187012
 31
0.0
  0
LINE
  5
1D72
330
A
100
AcDbEntity
  8
0
 62
     7
 48
0.001232
100
AcDbLine
 10
114.716667
 20
385.187012
 30
0.0
 11
114.765938
 21
385.187012
 31
0.0
  0
LINE
  5
1D73
330
A
100
AcDbEntity
  8
0
 62
     7
 48
0.002342
100
AcDbLine
 10
114.765938
 20
385.187012
 30
0.0
 11
114.859604
 21
385.187012
 31
0.0
  0
LINE
  5
1D74
330
A
100
AcDbEntity
  8
0
 62
     7
 48
0.003384
100
AcDbLine
 10
114.859604
 20
385.187012
 30
0.0
 11
114.994965
 21
385.187012
 31
0.0
  0
LINE
  5
1D75
330
A
100
AcDbEntity
  8
0
 62
     7
 48
0.004365
100
AcDbLine
 10
114.994965
 20
385.187012
 30
0.0
 11
115.169571
 21
385.187012
 31
0.0
  0
LINE
  5
1D76
330
A
100
AcDbEntity
  8
0
 62
     7
 48
0.005293
100
AcDbLine
 10
115.169571
 20
385.187012
 30
0.0
 11
115.381294
 21
385.187012
 31
0.0
  0
LINE
  5
1D77
330
A
100
AcDbEntity
  8
0
 62
     7
 48
0.006173
100
AcDbLine
 10
115.381294
 20
385.187012
 30
0.0
 11
115.628204
 21
385.187012
 31
0.0
  0
LINE
  5
1D78
330
A
100
AcDbEntity
  8
0
 62
     7
 48
0.007006
100
AcDbLine
 10
115.628204
 20
385.187012
 30
0.0
 11
115.90844
 21
385.187012
 31
0.0
  0
LINE
  5
1D79
330
A
100
AcDbEntity
  8
0
 62
     7
 48
0.007786
100
AcDbLine
 10
115.90844
 20
385.187012
 30
0.0
 11
116.219879
 21
385.187012
 31
0.0
  0
LINE
  5
1D7A
330
A
100
AcDbEntity
  8
0
 62
     7
 48
0.008501
100
AcDbLine
 10
116.219879
 20
385.187012
 30
0.0
 11
116.559921
 21
385.187012
 31
0.0
  0
LINE
  5
1D7B
330
A
100
AcDbEntity
  8
0
 62
     7
 48
0.00913
100
AcDbLine
 10
116.559921
 20
385.187012
 30
0.0
 11
116.925133
 21
385.187012
 31
0.0
  0
LINE
  5
1D7C
330
A
100
AcDbEntity
  8
0
 62
     7
 48
0.009651
100
AcDbLine
 10
116.925133
 20
385.187012
 30
0.0
 11
117.311157
 21
385.187012
 31
0.0
  0
LINE
  5
1D7D
330
A
100
AcDbEntity
  8
0
 62
     7
 48
0.009222
100
AcDbLine
 10
117.311157
 20
385.187012
 30
0.0
 11
117.680046
 21
385.187012
 31
0.0
  0
LINE
  5
1D7E
330
A
100
AcDbEntity
  8
0
 62
     7
100
AcDbLine
 10
117.680046
 20
385.187012
 30
0.0
 11
143.439743
 21
385.187012
 31
0.0
  0
LINE
  5
1D7F
330
A
100
AcDbEntity
  8
0
 62
     7
 48
0.014639
100
AcDbLine
 10
143.439743
 20
385.187012
 30
0.0
 11
144.025314
 21
385.187012
 31
0.0
  0
LINE
  5
1D80
330
A
100
AcDbEntity
  8
0
 62
     7
 48
0.009719
100
AcDbLine
 10
144.025314
 20
385.187012
 30
0.0
 11
144.414063
 21
385.187012
 31
0.0
  0
LINE
  5
1D81
330
A
100
AcDbEntity
  8
0
 62
     7
 48
0.009085
100
AcDbLine
 10
144.414063
 20
385.187012
 30
0.0
 11
144.777466
 21
385.187012
 31
0.0
  0
LINE
  5
1D82
330
A
100
AcDbEntity
  8
0
 62
     7
 48
0.008593
100
AcDbLine
 10
144.777466
 20
385.187012
 30
0.0
 11
145.121201
 21
385.187012
 31
0.0
  0
LINE
  5
1D83
330
A
100
AcDbEntity
  8
0
 62
     7
 48
0.008007
100
AcDbLine
 10
145.121201
 20
385.187012
 30
0.0
 11
145.441498
 21
385.187012
 31
0.0
  0
LINE
  5
1D84
330
A
100
AcDbEntity
  8
0
 62
     7
 48
0.007331
100
AcDbLine
 10
145.441498
 20
385.187012
 30
0.0
 11
145.734741
 21
385.187012
 31
0.0
  0
LINE
  5
1D85
330
A
100
AcDbEntity
  8
0
 62
     7
 48
0.006564
100
AcDbLine
 10
145.734741
 20
385.187012
 30
0.0
 11
145.997299
 21
385.187012
 31
0.0
  0
LINE
  5
1D86
330
A
100
AcDbEntity
  8
0
 62
     7
 48
0.005702
100
AcDbLine
 10
145.997299
 20
385.187012
 30
0.0
 11
146.225388
 21
385.187012
 31
0.0
  0
LINE
  5
1D87
330
A
100
AcDbEntity
  8
0
 62
     7
 48
0.004745
100
AcDbLine
 10
146.225388
 20
385.187012
 30
0.0
 11
146.415192
 21
385.187012
 31
0.0
  0
LINE
  5
1D88
330
A
100
AcDbEntity
  8
0
 62
     7
 48
0.003787
100
AcDbLine
 10
146.415192
 20
385.187012
 30
0.0
 11
146.566666
 21
385.187012
 31
0.0
  0
LINE
  5
1D89
330
A
100
AcDbEntity
  8
0
 62
     7
 48
0.002481
100
AcDbLine
 10
146.566666
 20
385.187012
 30
0.0
 11
146.665924
 21
385.187012
 31
0.0
  0
LINE
  5
1D8A
330
A
100
AcDbEntity
  8
0
 62
     7
 48
0.001191
100
AcDbLine
 10
146.665924
 20
385.187012
 30
0.0
 11
146.713547
 21
385.187012
 31
0.0
  0
LINE
  5
1D8B
330
A
100
AcDbEntity
  8
0
 62
     7
 48
0.000026
100
AcDbLine
 10
94.68633999999999
 20
385.187012
 30
0.0
 11
94.68737
 21
385.187012
 31
0.0
  0
LINE
  5
1D8C
330
A
100
AcDbEntity
  8
0
 62
     7
 48
0.000743
100
AcDbLine
 10
94.68737
 20
385.187012
 30
0.0
 11
94.717072
 21
385.187012
 31
0.0
  0
LINE
  5
1D8D
330
A
100
AcDbEntity
  8
0
 62
     7
 48
0.001434
100
AcDbLine
 10
94.717072
 20
385.187012
 30
0.0
 11
94.77442899999999
 21
385.187012
 31
0.0
  0
LINE
  5
1D8E
330
A
100
AcDbEntity
  8
0
 62
     7
 48
0.00209
100
AcDbLine
 10
94.77442899999999
 20
385.187012
 30
0.0
 11
94.858047
 21
385.187012
 31
0.0
  0
LINE
  5
1D8F
330
A
100
AcDbEntity
  8
0
 62
     7
 48
0.00271
100
AcDbLine
 10
94.858047
 20
385.187012
 30
0.0
 11
94.966431
 21
385.187012
 31
0.0
  0
LINE
  5
1D90
330
A
100
AcDbEntity
  8
0
 62
     7
 48
0.003291
100
AcDbLine
 10
94.966431
 20
385.187012
 30
0.0
 11
95.09808300000001
 21
385.187012
 31
0.0
  0
LINE
  5
1D91
330
A
100
AcDbEntity
  8
0
 62
     7
 48
0.003835
100
AcDbLine
 10
95.09808300000001
 20
385.187012
 30
0.0
 11
95.25149500000001
 21
385.187012
 31
0.0
  0
LINE
  5
1D92
330
A
100
AcDbEntity
  8
0
 62
     7
 48
0.004344
100
AcDbLine
 10
95.25149500000001
 20
385.187012
 30
0.0
 11
95.42524699999999
 21
385.187012
 31
0.0
  0
LINE
  5
1D93
330
A
100
AcDbEntity
  8
0
 62
     7
 48
0.004819
100
AcDbLine
 10
95.42524699999999
 20
385.187012
 30
0.0
 11
95.61799599999998
 21
385.187012
 31
0.0
  0
LINE
  5
1D94
330
A
100
AcDbEntity
  8
0
 62
     7
 48
0.005261
100
AcDbLine
 10
95.61799599999998
 20
385.187012
 30
0.0
 11
95.82843000000002
 21
385.187012
 31
0.0
  0
LINE
  5
1D95
330
A
100
AcDbEntity
  8
0
 62
     7
 48
0.005672
100
AcDbLine
 10
95.82843000000002
 20
385.187012
 30
0.0
 11
96.055328
 21
385.187012
 31
0.0
  0
LINE
  5
1D96
330
A
100
AcDbEntity
  8
0
 62
     7
 48
0.006052
100
AcDbLine
 10
96.055328
 20
385.187012
 30
0.0
 11
96.29740099999999
 21
385.187012
 31
0.0
  0
LINE
  5
1D97
330
A
100
AcDbEntity
  8
0
 62
     7
 48
0.006398
100
AcDbLine
 10
96.29740099999999
 20
385.187012
 30
0.0
 11
96.55331400000001
 21
385.187012
 31
0.0
  0
LINE
  5
1D98
330
A
100
AcDbEntity
  8
0
 62
     7
 48
0.006708
100
AcDbLine
 10
96.55331400000001
 20
385.187012
 30
0.0
 11
96.821625
 21
385.187012
 31
0.0
  0
LINE
  5
1D99
330
A
100
AcDbEntity
  8
0
 62
     7
 48
0.006976
100
AcDbLine
 10
96.821625
 20
385.187012
 30
0.0
 11
97.10066199999999
 21
385.187012
 31
0.0
  0
LINE
  5
1D9A
330
A
100
AcDbEntity
  8
0
 62
     7
 48
0.007198
100
AcDbLine
 10
97.10066199999999
 20
385.187012
 30
0.0
 11
97.38857299999999
 21
385.187012
 31
0.0
  0
LINE
  5
1D9B
330
A
100
AcDbEntity
  8
0
 62
     7
 48
0.006753
100
AcDbLine
 10
97.38857299999999
 20
385.187012
 30
0.0
 11
97.658707
 21
385.187012
 31
0.0
  0
LINE
  5
1D9C
330
A
100
AcDbEntity
  8
0
 62
     7
 48
0.437175
100
AcDbLine
 10
97.658707
 20
385.187012
 30
0.0
 11
115.145691
 21
385.187012
 31
0.0
  0
LINE
  5
1D9D
330
A
100
AcDbEntity
  8
0
 62
     7
 48
0.020862
100
AcDbLine
 10
115.145691
 20
385.187012
 30
0.0
 11
115.980186
 21
385.187012
 31
0.0
  0
LINE
  5
1D9E
330
A
100
AcDbEntity
  8
0
 62
     7
 48
0.007809
100
AcDbLine
 10
115.980186
 20
385.187012
 30
0.0
 11
116.292534
 21
385.187012
 31
0.0
  0
LINE
  5
1D9F
330
A
100
AcDbEntity
  8
0
 62
     7
 48
0.007043
100
AcDbLine
 10
116.292534
 20
385.187012
 30
0.0
 11
116.574257
 21
385.187012
 31
0.0
  0
LINE
  5
1DA0
330
A
100
AcDbEntity
  8
0
 62
     7
 48
0.006753
100
AcDbLine
 10
116.574257
 20
385.187012
 30
0.0
 11
116.84436
 21
385.187012
 31
0.0
  0
LINE
  5
1DA1
330
A
100
AcDbEntity
  8
0
 62
     7
 48
0.006419
100
AcDbLine
 10
116.84436
 20
385.187012
 30
0.0
 11
117.101135
 21
385.187012
 31
0.0
  0
LINE
  5
1DA2
330
A
100
AcDbEntity
  8
0
 62
     7
 48
0.006049
100
AcDbLine
 10
117.101135
 20
385.187012
 30
0.0
 11
117.343094
 21
385.187012
 31
0.0
  0
LINE
  5
1DA3
330
A
100
AcDbEntity
  8
0
 62
     7
 48
0.005646
100
AcDbLine
 10
117.343094
 20
385.187012
 30
0.0
 11
117.568932
 21
385.187012
 31
0.0
  0
LINE
  5
1DA4
330
A
100
AcDbEntity
  8
0
 62
     7
 48
0.005214
100
AcDbLine
 10
117.568932
 20
385.187012
 30
0.0
 11
117.777473
 21
385.187012
 31
0.0
  0
LINE
  5
1DA5
330
A
100
AcDbEntity
  8
0
 62
     7
 48
0.004753
100
AcDbLine
 10
117.777473
 20
385.187012
 30
0.0
 11
117.96759
 21
385.187012
 31
0.0
  0
LINE
  5
1DA6
330
A
100
AcDbEntity
  8
0
 62
     7
 48
0.004264
100
AcDbLine
 10
117.96759
 20
385.187012
 30
0.0
 11
118.138168
 21
385.187012
 31
0.0
  0
LINE
  5
1DA7
330
A
100
AcDbEntity
  8
0
 62
     7
 48
0.003747
100
AcDbLine
 10
118.138168
 20
385.187012
 30
0.0
 11
118.288048
 21
385.187012
 31
0.0
  0
LINE
  5
1DA8
330
A
100
AcDbEntity
  8
0
 62
     7
 48
0.003199
100
AcDbLine
 10
118.288048
 20
385.187012
 30
0.0
 11
118.416016
 21
385.187012
 31
0.0
  0
LINE
  5
1DA9
330
A
100
AcDbEntity
  8
0
 62
     7
 48
0.002619
100
AcDbLine
 10
118.416016
 20
385.187012
 30
0.0
 11
118.52079
 21
385.187012
 31
0.0
  0
LINE
  5
1DAA
330
A
100
AcDbEntity
  8
0
 62
     7
 48
0.002006
100
AcDbLine
 10
118.52079
 20
385.187012
 30
0.0
 11
118.601036
 21
385.187012
 31
0.0
  0
LINE
  5
1DAB
330
A
100
AcDbEntity
  8
0
 62
     7
 48
0.001359
100
AcDbLine
 10
118.601036
 20
385.187012
 30
0.0
 11
118.655411
 21
385.187012
 31
0.0
  0
LINE
  5
1DAC
330
A
100
AcDbEntity
  8
0
 62
     7
 48
0.00068
100
AcDbLine
 10
118.655411
 20
385.187012
 30
0.0
 11
118.682625
 21
385.187012
 31
0.0
  0
LINE
  5
1DAD
330
A
100
AcDbEntity
  8
0
 62
     7
 48
0.000626
100
AcDbLine
 10
98.69154399999999
 20
385.187012
 30
0.0
 11
98.716599
 21
385.187012
 31
0.0
  0
LINE
  5
1DAE
330
A
100
AcDbEntity
  8
0
 62
     7
 48
0.001337
100
AcDbLine
 10
98.716599
 20
385.187012
 30
0.0
 11
98.770088
 21
385.187012
 31
0.0
  0
LINE
  5
1DAF
330
A
100
AcDbEntity
  8
0
 62
     7
 48
0.002013
100
AcDbLine
 10
98.770088
 20
385.187012
 30
0.0
 11
98.850616
 21
385.187012
 31
0.0
  0
LINE
  5
1DB0
330
A
100
AcDbEntity
  8
0
 62
     7
 48
0.002652
100
AcDbLine
 10
98.850616
 20
385.187012
 30
0.0
 11
98.95668
 21
385.187012
 31
0.0
  0
LINE
  5
1DB1
330
A
100
AcDbEntity
  8
0
 62
     7
 48
0.00325
100
AcDbLine
 10
98.95668
 20
385.187012
 30
0.0
 11
99.08669299999999
 21
385.187012
 31
0.0
  0
LINE
  5
1DB2
330
A
100
AcDbEntity
  8
0
 62
     7
 48
0.003811
100
AcDbLine
 10
99.08669299999999
 20
385.187012
 30
0.0
 11
99.239136
 21
385.187012
 31
0.0
  0
LINE
  5
1DB3
330
A
100
AcDbEntity
  8
0
 62
     7
 48
0.004335
100
AcDbLine
 10
99.239136
 20
385.187012
 30
0.0
 11
99.412544
 21
385.187012
 31
0.0
  0
LINE
  5
1DB4
330
A
100
AcDbEntity
  8
0
 62
     7
 48
0.004824
100
AcDbLine
 10
99.412544
 20
385.187012
 30
0.0
 11
99.605522
 21
385.187012
 31
0.0
  0
LINE
  5
1DB5
330
A
100
AcDbEntity
  8
0
 62
     7
 48
0.005281
100
AcDbLine
 10
99.605522
 20
385.187012
 30
0.0
 11
99.816757
 21
385.187012
 31
0.0
  0
LINE
  5
1DB6
330
A
100
AcDbEntity
  8
0
 62
     7
 48
0.005705
100
AcDbLine
 10
99.816757
 20
385.187012
 30
0.0
 11
100.044968
 21
385.187012
 31
0.0
  0
LINE
  5
1DB7
330
A
100
AcDbEntity
  8
0
 62
     7
 48
0.006097
100
AcDbLine
 10
100.044968
 20
385.187012
 30
0.0
 11
100.288857
 21
385.187012
 31
0.0
  0
LINE
  5
1DB8
330
A
100
AcDbEntity
  8
0
 62
     7
 48
0.006455
100
AcDbLine
 10
100.288857
 20
385.187012
 30
0.0
 11
100.54705
 21
385.187012
 31
0.0
  0
LINE
  5
1DB9
330
A
100
AcDbEntity
  8
0
 62
     7
 48
0.006775
100
AcDbLine
 10
100.54705
 20
385.187012
 30
0.0
 11
100.818054
 21
385.187012
 31
0.0
  0
LINE
  5
1DBA
330
A
100
AcDbEntity
  8
0
 62
     7
 48
0.007053
100
AcDbLine
 10
100.818054
 20
385.187012
 30
0.0
 11
101.100159
 21
385.187012
 31
0.0
  0
LINE
  5
1DBB
330
A
100
AcDbEntity
  8
0
 62
     7
 48
0.007282
100
AcDbLine
 10
101.100159
 20
385.187012
 30
0.0
 11
101.391449
 21
385.187012
 31
0.0
  0
LINE
  5
1DBC
330
A
100
AcDbEntity
  8
0
 62
     7
 48
0.006836
100
AcDbLine
 10
101.391449
 20
385.187012
 30
0.0
 11
101.664902
 21
385.187012
 31
0.0
  0
LINE
  5
1DBD
330
A
100
AcDbEntity
  8
0
 62
     7
 48
0.135048
100
AcDbLine
 10
101.664902
 20
385.187012
 30
0.0
 11
107.066818
 21
385.187012
 31
0.0
  0
LINE
  5
1DBE
330
A
100
AcDbEntity
  8
0
 62
     7
 48
0.020637
100
AcDbLine
 10
107.066818
 20
385.187012
 30
0.0
 11
107.892303
 21
385.187012
 31
0.0
  0
LINE
  5
1DBF
330
A
100
AcDbEntity
  8
0
 62
     7
 48
0.007591
100
AcDbLine
 10
107.892303
 20
385.187012
 30
0.0
 11
108.195953
 21
385.187012
 31
0.0
  0
LINE
  5
1DC0
330
A
100
AcDbEntity
  8
0
 62
     7
 48
0.007194
100
AcDbLine
 10
108.195953
 20
385.187012
 30
0.0
 11
108.483711
 21
385.187012
 31
0.0
  0
LINE
  5
1DC1
330
A
100
AcDbEntity
  8
0
 62
     7
 48
0.006917
100
AcDbLine
 10
108.483711
 20
385.187012
 30
0.0
 11
108.760406
 21
385.187012
 31
0.0
  0
LINE
  5
1DC2
330
A
100
AcDbEntity
  8
0
 62
     7
 48
0.006595
100
AcDbLine
 10
108.760406
 20
385.187012
 30
0.0
 11
109.024208
 21
385.187012
 31
0.0
  0
LINE
  5
1DC3
330
A
100
AcDbEntity
  8
0
 62
     7
 48
0.006233
100
AcDbLine
 10
109.024208
 20
385.187012
 30
0.0
 11
109.273521
 21
385.187012
 31
0.0
  0
LINE
  5
1DC4
330
A
100
AcDbEntity
  8
0
 62
     7
 48
0.005836
100
AcDbLine
 10
109.273521
 20
385.187012
 30
0.0
 11
109.506958
 21
385.187012
 31
0.0
  0
LINE
  5
1DC5
330
A
100
AcDbEntity
  8
0
 62
     7
 48
0.005407
100
AcDbLine
 10
109.506958
 20
385.187012
 30
0.0
 11
109.723244
 21
385.187012
 31
0.0
  0
LINE
  5
1DC6
330
A
100
AcDbEntity
  8
0
 62
     7
 48
0.004948
100
AcDbLine
 10
109.723244
 20
385.187012
 30
0.0
 11
109.921181
 21
385.187012
 31
0.0
  0
LINE
  5
1DC7
330
A
100
AcDbEntity
  8
0
 62
     7
 48
0.00446
100
AcDbLine
 10
109.921181
 20
385.187012
 30
0.0
 11
110.099564
 21
385.187012
 31
0.0
  0
LINE
  5
1DC8
330
A
100
AcDbEntity
  8
0
 62
     7
 48
0.00394
100
AcDbLine
 10
110.099564
 20
385.187012
 30
0.0
 11
110.257179
 21
385.187012
 31
0.0
  0
LINE
  5
1DC9
330
A
100
AcDbEntity
  8
0
 62
     7
 48
0.003389
100
AcDbLine
 10
110.257179
 20
385.187012
 30
0.0
 11
110.392723
 21
385.187012
 31
0.0
  0
LINE
  5
1DCA
330
A
100
AcDbEntity
  8
0
 62
     7
 48
0.002802
100
AcDbLine
 10
110.392723
 20
385.187012
 30
0.0
 11
110.504814
 21
385.187012
 31
0.0
  0
LINE
  5
1DCB
330
A
100
AcDbEntity
  8
0
 62
     7
 48
0.00218
100
AcDbLine
 10
110.504814
 20
385.187012
 30
0.0
 11
110.592026
 21
385.187012
 31
0.0
  0
LINE
  5
1DCC
330
A
100
AcDbEntity
  8
0
 62
     7
 48
0.001522
100
AcDbLine
 10
110.592026
 20
385.187012
 30
0.0
 11
110.652924
 21
385.187012
 31
0.0
  0
LINE
  5
1DCD
330
A
100
AcDbEntity
  8
0
 62
     7
 48
0.00083
100
AcDbLine
 10
110.652924
 20
385.187012
 30
0.0
 11
110.686104
 21
385.187012
 31
0.0
  0
LINE
  5
1DCE
330
A
100
AcDbEntity
  8
0
 62
     7
 48
0.000106
100
AcDbLine
 10
110.686104
 20
385.187012
 30
0.0
 11
110.690338
 21
385.187012
 31
0.0
  0
LINE
  5
1DCF
330
A
100
AcDbEntity
  8
0
 62
     7
 48
0.035355
100
AcDbLine
 10
177.679535
 20
386.250122
 30
0.0
 11
178.679535
 21
387.2501220000001
 31
0.0
  0
LINE
  5
1DD0
330
A
100
AcDbEntity
  8
0
 62
     7
 48
0.035355
100
AcDbLine
 10
168.302704
 20
388.187012
 30
0.0
 11
169.302704
 21
389.187012
 31
0.0
  0
LINE
  5
1DD1
330
A
100
AcDbEntity
  8
0
 62
     7
 48
0.035355
100
AcDbLine
 10
156.988998
 20
388.187012
 30
0.0
 11
157.988998
 21
389.187012
 31
0.0
  0
LINE
  5
1DD2
330
A
100
AcDbEntity
  8
0
 62
     7
 48
0.035355
100
AcDbLine
 10
145.675278
 20
388.187012
 30
0.0
 11
146.675278
 21
389.187012
 31
0.0
  0
LINE
  5
1DD3
330
A
100
AcDbEntity
  8
0
 62
     7
 48
0.035355
100
AcDbLine
 10
134.361572
 20
388.187012
 30
0.0
 11
135.361572
 21
389.187012
 31
0.0
  0
LINE
  5
1DD4
330
A
100
AcDbEntity
  8
0
 62
     7
 48
0.035355
100
AcDbLine
 10
123.047867
 20
388.187012
 30
0.0
 11
124.047867
 21
389.187012
 31
0.0
  0
LINE
  5
1DD5
330
A
100
AcDbEntity
  8
0
 62
     7
 48
0.035355
100
AcDbLine
 10
111.734161
 20
388.187012
 30
0.0
 11
112.734161
 21
389.187012
 31
0.0
  0
LINE
  5
1DD6
330
A
100
AcDbEntity
  8
0
 62
     7
 48
0.035355
100
AcDbLine
 10
100.420448
 20
388.187012
 30
0.0
 11
101.420448
 21
389.187012
 31
0.0
  0
LINE
  5
1DD7
330
A
100
AcDbEntity
  8
0
 62
     7
 48
0.035355
100
AcDbLine
 10
89.10674300000001
 20
388.187012
 30
0.0
 11
90.10674299999999
 21
389.187012
 31
0.0
  0
LINE
  5
1DD8
330
A
100
AcDbEntity
  8
0
 62
     7
 48
0.03516
100
AcDbLine
 10
176.787979
 20
388.187012
 30
0.0
 11
177.782455
 21
389.181458
 31
0.0
  0
LINE
  5
1DD9
330
A
100
AcDbEntity
  8
0
 62
     7
 48
0.035355
100
AcDbLine
 10
165.474274
 20
388.187012
 30
0.0
 11
166.474274
 21
389.187012
 31
0.0
  0
LINE
  5
1DDA
330
A
100
AcDbEntity
  8
0
 62
     7
 48
0.035355
100
AcDbLine
 10
154.160568
 20
388.187012
 30
0.0
 11
155.1605679999999
 21
389.187012
 31
0.0
  0
LINE
  5
1DDB
330
A
100
AcDbEntity
  8
0
 62
     7
 48
0.035355
100
AcDbLine
 10
142.846863
 20
388.187012
 30
0.0
 11
143.846863
 21
389.187012
 31
0.0
  0
LINE
  5
1DDC
330
A
100
AcDbEntity
  8
0
 62
     7
 48
0.035355
100
AcDbLine
 10
131.533142
 20
388.187012
 30
0.0
 11
132.533142
 21
389.187012
 31
0.0
  0
LINE
  5
1DDD
330
A
100
AcDbEntity
  8
0
 62
     7
 48
0.035355
100
AcDbLine
 10
120.219437
 20
388.187012
 30
0.0
 11
121.219437
 21
389.187012
 31
0.0
  0
LINE
  5
1DDE
330
A
100
AcDbEntity
  8
0
 62
     7
 48
0.035355
100
AcDbLine
 10
108.905731
 20
388.187012
 30
0.0
 11
109.905731
 21
389.187012
 31
0.0
  0
LINE
  5
1DDF
330
A
100
AcDbEntity
  8
0
 62
     7
 48
0.035355
100
AcDbLine
 10
97.59202600000001
 20
388.187012
 30
0.0
 11
98.59202600000001
 21
389.187012
 31
0.0
  0
LINE
  5
1DE0
330
A
100
AcDbEntity
  8
0
 62
     7
 48
0.035355
100
AcDbLine
 10
83.679535
 20
385.5882259999999
 30
0.0
 11
84.679535
 21
386.588226
 31
0.0
  0
LINE
  5
1DE1
330
A
100
AcDbEntity
  8
0
 62
     7
 48
0.035355
100
AcDbLine
 10
86.278313
 20
388.187012
 30
0.0
 11
87.278313
 21
389.187012
 31
0.0
  0
LINE
  5
1DE8
330
A
100
AcDbEntity
  8
0
 62
     7
 48
0.219666
100
AcDbLine
 10
191.247131
 20
358.059326
 30
0.0
 11
193.521286
 21
366.54657
 31
0.0
  0
LINE
  5
1DE9
330
A
100
AcDbEntity
  8
0
 62
     7
 48
0.219666
100
AcDbLine
 10
191.316833
 20
366.046875
 30
0.0
 11
193.590988
 21
374.534119
 31
0.0
  0
LINE
  5
1DEA
330
A
100
AcDbEntity
  8
0
 62
     7
 48
0.147687
100
AcDbLine
 10
191.386551
 20
374.034424
 30
0.0
 11
192.915512
 21
379.7406009999999
 31
0.0
  0
LINE
  5
1DEB
330
A
100
AcDbEntity
  8
0
 62
     7
 48
0.055334
100
AcDbLine
 10
190.527222
 20
378.554749
 30
0.0
 11
191.100067
 21
380.692688
 31
0.0
  0
LINE
  5
1DEC
330
A
100
AcDbEntity
  8
0
 62
     7
 48
0.055335
100
AcDbLine
 10
188.652512
 20
379.285675
 30
0.0
 11
189.225372
 21
381.423645
 31
0.0
  0
LINE
  5
1DED
330
A
100
AcDbEntity
  8
0
 62
     7
 48
0.055334
100
AcDbLine
 10
186.777802
 20
380.016602
 30
0.0
 11
187.350662
 21
382.154541
 31
0.0
  0
LINE
  5
1DEE
330
A
100
AcDbEntity
  8
0
 62
     7
 48
0.055334
100
AcDbLine
 10
184.903107
 20
380.747498
 30
0.0
 11
185.475967
 21
382.885437
 31
0.0
  0
LINE
  5
1DEF
330
A
100
AcDbEntity
  8
0
 62
     7
 48
0.055335
100
AcDbLine
 10
183.028397
 20
381.478424
 30
0.0
 11
183.601257
 21
383.616394
 31
0.0
  0
LINE
  5
1DF0
330
A
100
AcDbEntity
  8
0
 62
     7
 48
0.055334
100
AcDbLine
 10
181.153687
 20
382.209351
 30
0.0
 11
181.726563
 21
384.34729
 31
0.0
  0
LINE
  5
1DF1
330
A
100
AcDbEntity
  8
0
 62
     7
 48
0.180902
100
AcDbLine
 10
179.157532
 20
382.487
 30
0.0
 11
181.0303649999999
 21
389.476501
 31
0.0
  0
LINE
  5
1DF6
330
A
100
AcDbEntity
  8
0
 62
     7
 48
0.152329
100
AcDbLine
 10
81.83270300000001
 20
382.453888
 30
0.0
 11
83.409729
 21
388.339417
 31
0.0
  0
LINE
  5
1DF8
330
A
100
AcDbEntity
  8
0
 62
     7
 48
0.068245
100
AcDbLine
 10
79.52061500000002
 20
381.552429
 30
0.0
 11
80.22712699999997
 21
384.189209
 31
0.0
  0
LINE
  5
1DF9
330
A
100
AcDbEntity
  8
0
 62
     7
 48
0.045849
100
AcDbLine
 10
81.22521199999999
 20
387.9140930000001
 30
0.0
 11
81.69987500000003
 21
389.6855470000001
 31
0.0
  0
LINE
  5
1DFB
330
A
100
AcDbEntity
  8
0
 62
     7
 48
0.068243
100
AcDbLine
 10
77.208511
 20
380.651001
 30
0.0
 11
77.91503099999999
 21
383.28772
 31
0.0
  0
LINE
  5
1DFC
330
A
100
AcDbEntity
  8
0
 62
     7
 48
0.205809
100
AcDbLine
 10
68.91741899999999
 20
357.435577
 30
0.0
 11
71.048103
 21
365.387421
 31
0.0
  0
LINE
  5
1DFD
330
A
100
AcDbEntity
  8
0
 62
     7
 48
0.068244
100
AcDbLine
 10
74.89642299999998
 20
379.749542
 30
0.0
 11
75.602936
 21
382.386292
 31
0.0
  0
LINE
  5
1DFE
330
A
100
AcDbEntity
  8
0
 62
     7
 48
0.205809
100
AcDbLine
 10
68.852104
 20
364.91925
 30
0.0
 11
70.98279599999997
 21
372.871094
 31
0.0
  0
LINE
  5
1DFF
330
A
100
AcDbEntity
  8
0
 62
     7
 48
0.068245
100
AcDbLine
 10
72.58431999999998
 20
378.8480830000001
 30
0.0
 11
73.290848
 21
381.484863
 31
0.0
  0
LINE
  5
1E00
330
A
100
AcDbEntity
  8
0
 62
     7
 48
0.211726
100
AcDbLine
 10
68.78679699999999
 20
372.4029240000001
 30
0.0
 11
70.97874499999997
 21
380.5834049999999
 31
0.0
  0
DIMENSION
  5
1F6F
330
A
100
AcDbEntity
  8
0
 62
     3
100
AcDbDimension
  2
*D1
 10
181.122833
 20
423.1960967596331
 30
0.0
 11
131.1795975194624
 21
430.1960967596331
 31
0.0
 70
    32
  1
100X100
 71
     5
 42
99.88647096107516
  3
STANDARD$0
100
AcDbAlignedDimension
 13
81.23636203892486
 23
389.1913753201071
 33
0.0
 14
181.122833
 24
389.191345
 34
0.0
 50
0.0000000000000114
100
AcDbRotatedDimension
1001
ACAD
1000
DSTYLE
1002
{
1070
   178
1070
     2
1070
    41
1040
10.0
1070
    42
1040
0.625
1070
    43
1040
3.75
1070
    44
1040
1.25
1070
    73
1070
     0
1070
    74
1070
     0
1070
    77
1070
     1
1070
    78
1070
     8
1070
   140
1040
10.0
1070
   141
1040
2.5
1070
   143
1040
0.03937
1070
   147
1040
2.0
1070
   171
1070
     3
1070
   172
1070
     1
1070
   271
1070
     2
1070
   272
1070
     2
1070
   274
1070
     3
1070
   283
1070
     0
1070
   284
1070
     8
1002
}
  0
LINE
  5
220F
330
A
100
AcDbEntity
  8
0
100
AcDbLine
 10
69.04183575736912
 20
343.178406
 30
0.0
 11
193.3173562426309
 21
343.178406
 31
0.0
  0
LINE
  5
2210
330
A
100
AcDbEntity
  8
0
 62
     7
 48
0.205809
100
AcDbLine
 10
68.98272729438018
 20
349.9519088307006
 30
0.0
 11
71.11341129438018
 21
357.9037528307006
 31
0.0
  0
LINE
  5
2211
330
A
100
AcDbEntity
  8
0
 62
     7
 48
0.205809
100
AcDbLine
 10
68.91741229438018
 20
357.4355818307006
 30
0.0
 11
71.04810429438017
 21
365.3874258307006
 31
0.0
  0
LINE
  5
2212
330
A
100
AcDbEntity
  8
0
 62
     7
 48
0.205809
100
AcDbLine
 10
69.04803558876036
 20
342.4682406614012
 30
0.0
 11
71.17871958876036
 21
350.4200846614012
 31
0.0
  0
LINE
  5
2213
330
A
100
AcDbEntity
  8
0
 62
     7
 48
0.205809
100
AcDbLine
 10
68.98272058876036
 20
349.9519136614011
 30
0.0
 11
71.11341258876034
 21
357.9037576614011
 31
0.0
  0
LINE
  5
2214
330
A
100
AcDbEntity
  8
0
 62
     7
 48
0.219666
100
AcDbLine
 10
190.7786278933876
 20
348.5834341652814
 30
0.0
 11
193.0527828933876
 21
357.0706781652814
 31
0.0
  0
LINE
  5
2215
330
A
100
AcDbEntity
  8
0
 62
     7
 48
0.219666
100
AcDbLine
 10
190.8483298933876
 20
356.5709831652814
 30
0.0
 11
193.1224848933876
 21
365.0582271652813
 31
0.0
  0
LINE
  5
2217
330
A
100
AcDbEntity
  8
0
 62
     7
 48
0.219666
100
AcDbLine
 10
190.7786278933876
 20
348.5834341652814
 30
0.0
 11
193.0527828933876
 21
357.0706781652814
 31
0.0
  0
DIMENSION
  5
2229
330
A
100
AcDbEntity
  8
0
 62
     3
100
AcDbDimension
  2
*D6
 10
69.04183575736912
 20
322.5377986972445
 30
0.0
 11
131.179596
 21
329.5377986972445
 31
0.0
 70
    32
  1
%%c125
 71
     5
 42
124.2755204852618
  3
STANDARD$0
100
AcDbAlignedDimension
 13
193.3173562426309
 23
343.178406
 33
0.0
 14
69.04183575736912
 24
343.178406
 34
0.0
 50
0.0000000000001132
100
AcDbRotatedDimension
1001
ACAD
1000
DSTYLE
1002
{
1070
    41
1040
10.0
1070
    42
1040
0.625
1070
    43
1040
3.75
1070
    44
1040
1.25
1070
    73
1070
     0
1070
    74
1070
     0
1070
    77
1070
     1
1070
    78
1070
     8
1070
   140
1040
10.0
1070
   141
1040
2.5
1070
   143
1040
0.03937
1070
   147
1040
2.0
1070
   171
1070
     3
1070
   172
1070
     1
1070
   178
1070
     2
1070
   271
1070
     2
1070
   272
1070
     2
1070
   274
1070
     3
1070
   283
1070
     0
1070
   284
1070
     8
1002
}
  0
VIEWPORT
  5
1E88
102
{ACAD_XDICTIONARY
360
2269
102
}
330
B
100
AcDbEntity
 67
     1
  8
0
 62
     0
100
AcDbViewport
 10
0.0
 20
0.0
 30
0.0
 40
1000.0
 41
1000.0
 68
     1
 69
     1
 12
0.0
 22
0.0
 13
0.0
 23
0.0
 14
1.0
 24
1.0
 15
1.0
 25
1.0
 16
0.0
 26
0.0
 36
1.0
 17
0.0
 27
0.0
 37
0.0
 42
50.0
 43
0.0
 44
0.0
 45
1000.0
 50
0.0
 51
0.0
 72
   100
 90
    32800
  1

281
     0
 71
     1
 74
     0
110
0.0
120
0.0
130
0.0
111
1.0
121
0.0
131
0.0
112
0.0
122
1.0
132
0.0
 79
     0
146
0.0
1001
GENIUS_GENOBJ-N-SDF_13
1002
{
1000
OWNER
1000
GEN
1002
}
1001
GENIUS_GENODEF_13
1002
{
1000
HIER
1070
     0
1002
}
1002
{
1000
MANEDIT
1070
     0
1002
}
1002
{
1000
NOSEL
1070
     0
1002
}
1002
{
1000
BEHIND
1070
     0
1002
}
1002
{
1000
OTHER
1070
     0
1002
}
1002
{
1000
REACTOR
1002
}
1001
GENIUS_GENSCREG_15
1000
PF
1040
1.0
1000
DF
1040
1.0
1000
MIN
1011
-500.0
1021
-500.0
1031
0.0
1000
MAX
1011
500.0
1021
500.0
1031
0.0
1000
FLAGS
1070
     2
  0
ENDSEC
  0
SECTION
  2
OBJECTS
  0
DICTIONARY
  5
19
330
0
100
AcDbDictionary
281
     1
  3
ACAD_COLOR
350
1E90
  3
ACAD_GROUP
350
1A
  3
ACAD_LAYOUT
350
1E93
  3
ACAD_MATERIAL
350
1E8F
  3
ACAD_MLINESTYLE
350
1B
  3
ACAD_PLOTSETTINGS
350
1E94
  3
ACAD_PLOTSTYLENAME
350
1E8D
  3
ACAD_TABLESTYLE
350
1E91
  3
ACDBHEADERROUNDTRIPXREC
350
2268
  3
AcDbVariableDictionary
350
200C
  3
AcmDictionary
350
1EF1
  3
AMG
350
1E99
  3
AMGSNAPSETTINGS
350
1F3A
  3
ASE_INDEX_DICTIONARY
350
2008
  0
DICTIONARY
  5
2269
330
1E88
100
AcDbDictionary
280
     1
281
     1
  3
ACAD_XREC_ROUNDTRIP
360
226A
  0
DICTIONARY
  5
1E90
102
{ACAD_REACTORS
330
19
102
}
330
19
100
AcDbDictionary
281
     1
  0
DICTIONARY
  5
1A
102
{ACAD_REACTORS
330
19
102
}
330
19
100
AcDbDictionary
281
     1
  0
DICTIONARY
  5
1E93
102
{ACAD_REACTORS
330
19
102
}
330
19
100
AcDbDictionary
281
     1
  3
Layout1
350
1E96
  3
Model
350
1E95
  0
DICTIONARY
  5
1E8F
102
{ACAD_REACTORS
330
19
102
}
330
19
100
AcDbDictionary
281
     1
  0
DICTIONARY
  5
1B
102
{ACAD_REACTORS
330
19
102
}
330
19
100
AcDbDictionary
281
     1
  3
STANDARD
350
1C
  0
DICTIONARY
  5
1E94
102
{ACAD_REACTORS
330
19
102
}
330
19
100
AcDbDictionary
281
     1
  0
ACDBDICTIONARYWDFLT
  5
1E8D
102
{ACAD_REACTORS
330
19
102
}
330
19
100
AcDbDictionary
281
     1
  3
Normal
350
1E8E
100
AcDbDictionaryWithDefault
340
1E8E
  0
DICTIONARY
  5
1E91
102
{ACAD_REACTORS
330
19
102
}
330
19
100
AcDbDictionary
281
     1
  3
Standard
350
1E92
  0
DICTIONARY
  5
2268
102
{ACAD_REACTORS
330
19
102
}
330
19
100
AcDbDictionary
281
     1
  0
DICTIONARY
  5
200C
102
{ACAD_REACTORS
330
19
102
}
330
19
100
AcDbDictionary
281
     1
  3
CTABLESTYLE
350
200D
  3
DIMASSOC
350
210B
  3
PROJECTNAME
350
210C
  0
DICTIONARY
  5
1EF1
102
{ACAD_REACTORS
330
19
102
}
330
19
100
AcDbDictionary
281
     1
  3
AcmStdDictionary
350
1EFE
  3
AMDTSECTSYM_ARROWCOLOR
350
1F21
  0
DICTIONARY
  5
1E99
102
{ACAD_REACTORS
330
19
102
}
330
19
100
AcDbDictionary
281
     1
  0
DICTIONARY
  5
1F3A
102
{ACAD_REACTORS
330
19
102
}
330
19
100
AcDbDictionary
281
     1
  0
DICTIONARY
  5
2008
102
{ACAD_REACTORS
330
19
102
}
330
19
100
AcDbDictionary
281
     1
  3
ASEBlockHierarchyIndexRecord
350
200A
1001
DCO15
1040
1543815705.783
  0
XRECORD
  5
226A
102
{ACAD_REACTORS
330
2269
102
}
330
2269
100
AcDbXrecord
280
     1
102
SHADEPLOT
 70
     0
  0
LAYOUT
  5
1E96
102
{ACAD_XDICTIONARY
360
226D
102
}
102
{ACAD_REACTORS
330
1E93
102
}
330
1E93
100
AcDbPlotSettings
  1

  2
\\RD-SR-200\PH-PR-011
  4

  6

 40
0.0
 41
0.0
 42
0.0
 43
0.0
 44
0.0
 45
0.0
 46
0.0
 47
0.0
 48
0.0
 49
0.0
140
0.0
141
0.0
142
1.0
143
1.0
 70
   688
 72
     0
 73
     0
 74
     5
  7

 75
    16
147
1.0
148
0.0
149
0.0
100
AcDbLayout
  1
Layout1
 70
     1
 71
     1
 10
0.0
 20
0.0
 11
420.0
 21
297.0
 12
0.0
 22
0.0
 32
0.0
 14
0.0
 24
0.0
 34
0.0
 15
471.248962
 25
393.345886
 35
2.0
146
0.0
 13
0.0
 23
0.0
 33
0.0
 16
1.0
 26
0.0
 36
0.0
 17
0.0
 27
1.0
 37
0.0
 76
     0
330
B
331
1E88
  0
LAYOUT
  5
1E95
102
{ACAD_XDICTIONARY
360
226B
102
}
102
{ACAD_REACTORS
330
1E93
102
}
330
1E93
100
AcDbPlotSettings
  1

  2
\\RD-SR-200\PH-PR-011
  4
A4
  6

 40
6.805083274841307
 41
5.027085304260253
 42
6.805084228515625
 43
5.027069091796875
 44
209.9733276367186
 45
296.9683227539062
 46
0.0
 47
0.0
 48
0.0
 49
0.0
140
0.0
141
0.0
142
1.0
143
1.714175429858764
 70
 11952
 72
     1
 73
     1
 74
     0
  7

 75
     0
147
0.5833708630874455
148
93.6801397730194
149
-212.8084321403169
100
AcDbLayout
  1
Model
 70
     1
 71
     0
 10
0.0
 20
0.0
 11
12.0
 21
9.0
 12
0.0
 22
0.0
 32
0.0
 14
0.0
 24
0.0
 34
0.0
 15
0.0
 25
0.0
 35
0.0
146
0.0
 13
0.0
 23
0.0
 33
0.0
 16
1.0
 26
0.0
 36
0.0
 17
0.0
 27
1.0
 37
0.0
 76
     0
330
A
1001
ACAD_PSEXT
1000
\\RD-SR-200\PH-PR-011
1000
HP LaserJet 4000 Series PCL
1000
\\RD-SR-200
1000

1070
     0
  0
MLINESTYLE
  5
1C
102
{ACAD_REACTORS
330
1B
102
}
330
1B
100
AcDbMlineStyle
  2
STANDARD
 70
     0
  3

 62
     0
 51
90.0
 52
90.0
 71
     2
 49
0.5
 62
   256
  6
BYLAYER
 49
-0.5
 62
   256
  6
BYLAYER
  0
ACDBPLACEHOLDER
  5
1E8E
102
{ACAD_REACTORS
330
1E8D
102
}
330
1E8D
  0
TABLESTYLE
  5
1E92
102
{ACAD_REACTORS
330
1E91
102
}
330
1E91
100
AcDbTableStyle
  3
Standard
 70
     0
 71
     0
 40
1.5
 41
1.5
280
     0
281
     0
  7
STANDARD
140
4.5
170
     2
 62
     0
 63
     7
283
     0
274
    -2
284
     1
 64
     0
275
    -2
285
     1
 65
     0
276
    -2
286
     1
 66
     0
277
    -2
287
     1
 67
     0
278
    -2
288
     1
 68
     0
279
    -2
289
     1
 69
     0
  7
STANDARD
140
6.0
170
     5
 62
     0
 63
     7
283
     0
274
    -2
284
     1
 64
     0
275
    -2
285
     1
 65
     0
276
    -2
286
     1
 66
     0
277
    -2
287
     1
 67
     0
278
    -2
288
     1
 68
     0
279
    -2
289
     1
 69
     0
  7
STANDARD
140
4.5
170
     5
 62
     0
 63
     7
283
     0
274
    -2
284
     1
 64
     0
275
    -2
285
     1
 65
     0
276
    -2
286
     1
 66
     0
277
    -2
287
     1
 67
     0
278
    -2
288
     1
 68
     0
279
    -2
289
     1
 69
     0
  0
DICTIONARYVAR
  5
200D
102
{ACAD_REACTORS
330
200C
102
}
330
200C
100
DictionaryVariables
280
     0
  1
STANDARD
  0
DICTIONARYVAR
  5
210B
102
{ACAD_REACTORS
330
200C
102
}
330
200C
100
DictionaryVariables
280
     0
  1
1
  0
DICTIONARYVAR
  5
210C
102
{ACAD_REACTORS
330
200C
102
}
330
200C
100
DictionaryVariables
280
     0
  1

  0
DICTIONARY
  5
1EFE
102
{ACAD_REACTORS
330
1EF1
102
}
330
1EF1
100
AcDbDictionary
281
     1
  0
XRECORD
  5
1F21
102
{ACAD_REACTORS
330
1EF1
102
}
330
1EF1
100
AcDbXrecord
280
     1
 90
-1023410169
  0
XRECORD
  5
200A
102
{ACAD_REACTORS
330
2008
102
}
330
2008
100
AcDbXrecord
280
     1
  0
DICTIONARY
  5
226D
330
1E96
100
AcDbDictionary
280
     1
281
     1
  3
ACAD_XREC_ROUNDTRIP
360
226E
  0
DICTIONARY
  5
226B
330
1E95
100
AcDbDictionary
280
     1
281
     1
  3
ACAD_XREC_ROUNDTRIP
360
226C
  0
XRECORD
  5
226E
102
{ACAD_REACTORS
330
226D
102
}
330
226D
100
AcDbXrecord
280
     1
102
SHADEPLOT
 70
     0
102
SHADEPLOTRESLEVEL
 70
     2
102
SHADEPLOTCUSTOMDPI
 70
   300
  0
XRECORD
  5
226C
102
{ACAD_REACTORS
330
226B
102
}
330
226B
100
AcDbXrecord
280
     1
102
SHADEPLOT
 70
     0
102
SHADEPLOTRESLEVEL
 70
     2
102
SHADEPLOTCUSTOMDPI
 70
   300
  0
ENDSEC
  0
EOF
