  0
SECTION
  2
HEADER
  9
$ACADVER
  1
AC1015
  9
$ACADMAINTVER
 70
    20
  9
$DWGCODEPAGE
  3
ANSI_1252
  9
$INSBASE
 10
0.0
 20
0.0
 30
0.0
  9
$EXTMIN
 10
197.3748791373509
 20
196.0346017262758
 30
-0.0000000349181948
  9
$EXTMAX
 10
347.8189095852652
 20
394.5309683703149
 30
0.0000000814935746
  9
$LIMMIN
 10
0.0
 20
0.0
  9
$LIMMAX
 10
420.0
 20
297.0
  9
$ORTHOMODE
 70
     1
  9
$REGENMODE
 70
     1
  9
$FILLMODE
 70
     1
  9
$QTEXTMODE
 70
     0
  9
$MIRRTEXT
 70
     0
  9
$LTSCALE
 40
1.0
  9
$ATTMODE
 70
     1
  9
$TEXTSIZE
 40
2.5
  9
$TRACEWID
 40
1.0
  9
$TEXTSTYLE
  7
Standard
  9
$CLAYER
  8
0
  9
$CELTYPE
  6
ByLayer
  9
$CECOLOR
 62
   256
  9
$CELTSCALE
 40
1.0
  9
$DISPSILH
 70
     0
  9
$DIMSCALE
 40
1.0
  9
$DIMASZ
 40
2.5
  9
$DIMEXO
 40
0.625
  9
$DIMDLI
 40
3.75
  9
$DIMRND
 40
0.0
  9
$DIMDLE
 40
0.0
  9
$DIMEXE
 40
1.25
  9
$DIMTP
 40
0.0
  9
$DIMTM
 40
0.0
  9
$DIMTXT
 40
2.5
  9
$DIMCEN
 40
2.5
  9
$DIMTSZ
 40
0.0
  9
$DIMTOL
 70
     0
  9
$DIMLIM
 70
     0
  9
$DIMTIH
 70
     0
  9
$DIMTOH
 70
     0
  9
$DIMSE1
 70
     0
  9
$DIMSE2
 70
     0
  9
$DIMTAD
 70
     1
  9
$DIMZIN
 70
     8
  9
$DIMBLK
  1

  9
$DIMASO
 70
     1
  9
$DIMSHO
 70
     1
  9
$DIMPOST
  1

  9
$DIMAPOST
  1

  9
$DIMALT
 70
     0
  9
$DIMALTD
 70
     3
  9
$DIMALTF
 40
0.03937007874016
  9
$DIMLFAC
 40
1.0
  9
$DIMTOFL
 70
     1
  9
$DIMTVP
 40
0.0
  9
$DIMTIX
 70
     0
  9
$DIMSOXD
 70
     0
  9
$DIMSAH
 70
     0
  9
$DIMBLK1
  1

  9
$DIMBLK2
  1

  9
$DIMSTYLE
  2
ISO-25
  9
$DIMCLRD
 70
     0
  9
$DIMCLRE
 70
     0
  9
$DIMCLRT
 70
     0
  9
$DIMTFAC
 40
1.0
  9
$DIMGAP
 40
0.625
  9
$DIMJUST
 70
     0
  9
$DIMSD1
 70
     0
  9
$DIMSD2
 70
     0
  9
$DIMTOLJ
 70
     0
  9
$DIMTZIN
 70
     8
  9
$DIMALTZ
 70
     0
  9
$DIMALTTZ
 70
     0
  9
$DIMUPT
 70
     0
  9
$DIMDEC
 70
     2
  9
$DIMTDEC
 70
     2
  9
$DIMALTU
 70
     2
  9
$DIMALTTD
 70
     3
  9
$DIMTXSTY
  7
Standard
  9
$DIMAUNIT
 70
     0
  9
$DIMADEC
 70
     0
  9
$DIMALTRND
 40
0.0
  9
$DIMAZIN
 70
     0
  9
$DIMDSEP
 70
    44
  9
$DIMATFIT
 70
     3
  9
$DIMFRAC
 70
     0
  9
$DIMLDRBLK
  1

  9
$DIMLUNIT
 70
     2
  9
$DIMLWD
 70
    -2
  9
$DIMLWE
 70
    -2
  9
$DIMTMOVE
 70
     0
  9
$LUNITS
 70
     2
  9
$LUPREC
 70
     2
  9
$SKETCHINC
 40
1.0
  9
$FILLETRAD
 40
10.0
  9
$AUNITS
 70
     0
  9
$AUPREC
 70
     0
  9
$MENU
  1
.
  9
$ELEVATION
 40
0.0
  9
$PELEVATION
 40
0.0
  9
$THICKNESS
 40
0.0
  9
$LIMCHECK
 70
     0
  9
$CHAMFERA
 40
10.0
  9
$CHAMFERB
 40
10.0
  9
$CHAMFERC
 40
20.0
  9
$CHAMFERD
 40
0.0
  9
$SKPOLY
 70
     0
  9
$TDCREATE
 40
2453588.502040590
  9
$TDUCREATE
 40
2453588.460373924
  9
$TDUPDATE
 40
2454043.826589422
  9
$TDUUPDATE
 40
2454043.784922755
  9
$TDINDWG
 40
0.0283932060
  9
$TDUSRTIMER
 40
0.0283926273
  9
$USRTIMER
 70
     1
  9
$ANGBASE
 50
0.0
  9
$ANGDIR
 70
     0
  9
$PDMODE
 70
     0
  9
$PDSIZE
 40
0.0
  9
$PLINEWID
 40
0.0
  9
$SPLFRAME
 70
     0
  9
$SPLINETYPE
 70
     6
  9
$SPLINESEGS
 70
     8
  9
$HANDSEED
  5
12FC
  9
$SURFTAB1
 70
     6
  9
$SURFTAB2
 70
     6
  9
$SURFTYPE
 70
     6
  9
$SURFU
 70
     6
  9
$SURFV
 70
     6
  9
$UCSBASE
  2

  9
$UCSNAME
  2

  9
$UCSORG
 10
0.0
 20
0.0
 30
0.0
  9
$UCSXDIR
 10
1.0
 20
0.0
 30
0.0
  9
$UCSYDIR
 10
0.0
 20
1.0
 30
0.0
  9
$UCSORTHOREF
  2

  9
$UCSORTHOVIEW
 70
     0
  9
$UCSORGTOP
 10
0.0
 20
0.0
 30
0.0
  9
$UCSORGBOTTOM
 10
0.0
 20
0.0
 30
0.0
  9
$UCSORGLEFT
 10
0.0
 20
0.0
 30
0.0
  9
$UCSORGRIGHT
 10
0.0
 20
0.0
 30
0.0
  9
$UCSORGFRONT
 10
0.0
 20
0.0
 30
0.0
  9
$UCSORGBACK
 10
0.0
 20
0.0
 30
0.0
  9
$PUCSBASE
  2

  9
$PUCSNAME
  2

  9
$PUCSORG
 10
0.0
 20
0.0
 30
0.0
  9
$PUCSXDIR
 10
1.0
 20
0.0
 30
0.0
  9
$PUCSYDIR
 10
0.0
 20
1.0
 30
0.0
  9
$PUCSORTHOREF
  2

  9
$PUCSORTHOVIEW
 70
     0
  9
$PUCSORGTOP
 10
0.0
 20
0.0
 30
0.0
  9
$PUCSORGBOTTOM
 10
0.0
 20
0.0
 30
0.0
  9
$PUCSORGLEFT
 10
0.0
 20
0.0
 30
0.0
  9
$PUCSORGRIGHT
 10
0.0
 20
0.0
 30
0.0
  9
$PUCSORGFRONT
 10
0.0
 20
0.0
 30
0.0
  9
$PUCSORGBACK
 10
0.0
 20
0.0
 30
0.0
  9
$USERI1
 70
     0
  9
$USERI2
 70
     0
  9
$USERI3
 70
     0
  9
$USERI4
 70
     0
  9
$USERI5
 70
     0
  9
$USERR1
 40
0.0
  9
$USERR2
 40
0.0
  9
$USERR3
 40
0.0
  9
$USERR4
 40
0.0
  9
$USERR5
 40
0.0
  9
$WORLDVIEW
 70
     1
  9
$SHADEDGE
 70
     3
  9
$SHADEDIF
 70
    70
  9
$TILEMODE
 70
     1
  9
$MAXACTVP
 70
    64
  9
$PINSBASE
 10
0.0
 20
0.0
 30
0.0
  9
$PLIMCHECK
 70
     0
  9
$PEXTMIN
 10
0.0
 20
0.0
 30
0.0
  9
$PEXTMAX
 10
0.0
 20
0.0
 30
0.0
  9
$PLIMMIN
 10
0.0
 20
0.0
  9
$PLIMMAX
 10
12.0
 20
9.0
  9
$UNITMODE
 70
     0
  9
$VISRETAIN
 70
     1
  9
$PLINEGEN
 70
     0
  9
$PSLTSCALE
 70
     1
  9
$TREEDEPTH
 70
  3020
  9
$CMLSTYLE
  2
Standard
  9
$CMLJUST
 70
     0
  9
$CMLSCALE
 40
20.0
  9
$PROXYGRAPHICS
 70
     1
  9
$MEASUREMENT
 70
     1
  9
$CELWEIGHT
370
    -1
  9
$ENDCAPS
280
     0
  9
$JOINSTYLE
280
     0
  9
$LWDISPLAY
290
     0
  9
$INSUNITS
 70
     4
  9
$HYPERLINKBASE
  1

  9
$STYLESHEET
  1

  9
$XEDIT
290
     1
  9
$CEPSNTYPE
380
     0
  9
$PSTYLEMODE
290
     1
  9
$FINGERPRINTGUID
  2
{FDEAD578-A652-11D2-9A35-0060089B3A3F}
  9
$VERSIONGUID
  2
{9FD475C9-622A-4BE4-9A67-2C5F4685618C}
  9
$EXTNAMES
290
     1
  9
$PSVPSCALE
 40
0.0
  9
$OLESTARTUP
290
     0
  0
ENDSEC
  0
SECTION
  2
CLASSES
  0
CLASS
  1
ACDBDICTIONARYWDFLT
  2
AcDbDictionaryWithDefault
  3
ObjectDBX Classes
 90
        0
280
     0
281
     0
  0
CLASS
  1
DICTIONARYVAR
  2
AcDbDictionaryVar
  3
ObjectDBX Classes
 90
        0
280
     0
281
     0
  0
CLASS
  1
DIMASSOC
  2
AcDbDimAssoc
  3
"AcDbDimAssoc|Product Desc:     AcDim ARX App For Dimension|Company:          Autodesk, Inc.|WEB Address:      www.autodesk.com"
 90
        0
280
     0
281
     0
  0
CLASS
  1
TABLESTYLE
  2
AcDbTableStyle
  3
ObjectDBX Classes
 90
     2047
280
     0
281
     0
  0
CLASS
  1
ACME_DOCUMENT
  2
AcMeDbDoc
  3
AcMeServices
 90
        0
280
     0
281
     0
  0
CLASS
  1
AMGSETTINGSOBJ
  2
AmgSettingsObj
  3
"AcadM|Product Description: AutoCAD Mechanical 2000|Company: Autodesk"
 90
        0
280
     0
281
     0
  0
CLASS
  1
ACMESCOPE
  2
AcMeScope
  3
AcMeServices
 90
        0
280
     0
281
     0
  0
CLASS
  1
ACMECOMMANDHISTORY
  2
AcMeCommandHistory
  3
AcMeServices
 90
        0
280
     0
281
     0
  0
CLASS
  1
ACIMSYSVARMAN
  2
AcImSysVarManager
  3
AcMeServices
 90
        0
280
     0
281
     0
  0
CLASS
  1
ACIMINTSYSVAR
  2
AcImIntSysVar
  3
AcMeServices
 90
        0
280
     0
281
     0
  0
CLASS
  1
ACMEDRAWINGMAN
  2
AcMeDrawingMan
  3
AcMeServices
 90
        0
280
     0
281
     0
  0
CLASS
  1
ACMEVIEW
  2
AcMeView
  3
AcMeServices
 90
        0
280
     0
281
     0
  0
CLASS
  1
ACDBENTITYCACHE
  2
AcMeEntityCache
  3
AcMeServices
 90
        0
280
     0
281
     0
  0
CLASS
  1
GSMANAGER
  2
AcMeGSManager
  3
AcMeServices
 90
        0
280
     0
281
     0
  0
CLASS
  1
AMDTINTERNALREACTOR
  2
AmdtInternalReactor
  3
AcMeServices
 90
        0
280
     0
281
     0
  0
CLASS
  1
ACMESTATEMGR
  2
AcMeStateMgr
  3
AcMeServices
 90
        0
280
     0
281
     0
  0
CLASS
  1
ACGREFMASTER
  2
AcGrefMaster
  3
AcAttribServices
 90
        0
280
     0
281
     0
  0
CLASS
  1
AM_DRAWING_MGR
  2
AcDmDwgMgr
  3
AcMechDwgViewMgmt
 90
        0
280
     0
281
     0
  0
CLASS
  1
AM_DWG_DOCUMENT
  2
AcDmDwgDocument
  3
AcMechDwgViewMgmt
 90
        0
280
     0
281
     0
  0
CLASS
  1
AM_DWG_SHEET
  2
AcDmSheet
  3
AcMechDwgViewMgmt
 90
        0
280
     0
281
     0
  0
CLASS
  1
AM_VIEWDIMPARMAP
  2
AcDmViewDimParMap
  3
AcMechDwgViewMgmt
 90
        0
280
     0
281
     0
  0
CLASS
  1
ACIMREALSYSVAR
  2
AcImRealSysVar
  3
AcMeServices
 90
        0
280
     0
281
     0
  0
CLASS
  1
AM_DWGMGR_NAME
  2
AcDmDwgMgrName
  3
AcMechDwgViewMgmt
 90
        0
280
     0
281
     0
  0
CLASS
  1
ACME_DATABASE
  2
AcMeDbDatabase
  3
AcMeServices
 90
        0
280
     0
281
     0
  0
CLASS
  1
ACRFINSADJUSTERMGR
  2
AcRfInsAdjusterMgr
  3
AcMeServices
 90
        0
280
     0
281
     0
  0
CLASS
  1
ACGREFACADMASTER
  2
AcGrefacadMaster
  3
AcGrefServices
 90
        0
280
     0
281
     0
  0
CLASS
  1
AMDTMENUSTATEMGR
  2
AmdtMenuStateMgr
  3
McadcomServices
 90
        0
280
     0
281
     0
  0
CLASS
  1
AMDTMCOMMENUSTATE
  2
AmdtMcomMenuState
  3
McadcomServices
 90
        0
280
     0
281
     0
  0
CLASS
  1
AMIMASTER
  2
AmiMaster
  3
AmiServices
 90
        0
280
     0
281
     0
  0
CLASS
  1
MAPIAMMOUDLE
  2
MApiAmModule
  3
MApiAmServices
 90
        0
280
     0
281
     0
  0
CLASS
  1
ACIMSTRSYSVAR
  2
AcImStrSysVar
  3
AcMeServices
 90
        0
280
     0
281
     0
  0
CLASS
  1
AMDTADMENUSTATE
  2
AmdtAdMenuState
  3
DesignerServices
 90
        0
280
     0
281
     0
  0
CLASS
  1
ADAPPL
  2
AcAdAppl
  3
DesignerServices
 90
        0
280
     0
281
     0
  0
CLASS
  1
DEPMGR
  2
AcAdDepMgr
  3
DesignerServices
 90
        0
280
     0
281
     0
  0
CLASS
  1
PARAMMGR
  2
AcAdParamMgr
  3
DesignerServices
 90
        0
280
     0
281
     0
  0
CLASS
  1
PARAMSCOPE
  2
AcAdParamScope
  3
DesignerServices
 90
        0
280
     0
281
     0
  0
CLASS
  1
NAMEDAPPL
  2
AcAdNamedAppl
  3
DesignerServices
 90
        0
280
     0
281
     0
  0
CLASS
  1
AMDTDMMENUSTATE
  2
AmdtDmMenuState
  3
AcMechDwgViewMgmt
 90
        0
280
     0
281
     0
  0
CLASS
  1
AMDTAMMENUSTATE
  2
AmdtAmMenuState
  3
DesignerAssemblies
 90
        0
280
     0
281
     0
  0
CLASS
  1
ACAMPROJECT
  2
AcAmProject
  3
DesignerAssemblies
 90
        0
280
     0
281
     0
  0
CLASS
  1
ACAMGRCOMPDEF
  2
AcAmGrCompDef
  3
DesignerAssemblies
 90
        0
280
     0
281
     0
  0
CLASS
  1
ACCMCONTEXT
  2
AcCmContext
  3
DesignerAssemblies
 90
        0
280
     0
281
     0
  0
CLASS
  1
ACAMCOMPDEF
  2
AcAmCompDef
  3
DesignerAssemblies
 90
        0
280
     0
281
     0
  0
CLASS
  1
ACAMCOMPDEFMGR
  2
AcAmCompDefMgr
  3
DesignerAssemblies
 90
        0
280
     0
281
     0
  0
CLASS
  1
AMCONTEXTMGR
  2
AcAmContextMgr
  3
DesignerAssemblies
 90
        0
280
     0
281
     0
  0
CLASS
  1
ACAMCONTEXTMODELER
  2
AcAmContextModeler
  3
DesignerAssemblies
 90
        0
280
     0
281
     0
  0
CLASS
  1
ACMDATADICTIONARY
  2
AcmDataDictionary
  3
"AcmSymBB|Product Description: AutoCAD Mechanical 2004 DX|Company: Autodesk"
 90
        0
280
     0
281
     0
  0
CLASS
  1
CATALOGSTATE
  2
AcAmCatalogState
  3
DesignerAssemblies
 90
        0
280
     0
281
     0
  0
CLASS
  1
ACAMGRCOMPDEFSET
  2
AcAmGrCompDefSet
  3
DesignerAssemblies
 90
        0
280
     0
281
     0
  0
CLASS
  1
AMDTBROWSERDBTAB
  2
AmdtBrowserDbTab
  3
McadcomServices
 90
        0
280
     0
281
     0
  0
CLASS
  1
CBROWSERAPPOBJECT
  2
CBrowserAppObject
  3
McadcomServices
 90
        0
280
     0
281
     0
  0
CLASS
  1
DM_PLACEHOLDER
  2
AcDmSelsetPlaceholder
  3
AcMechDwgViewMgmt
 90
        0
280
     0
281
     0
  0
CLASS
  1
EXACXREFPANELOBJECT
  2
ExAcXREFPanelObject
  3
EXAC_ESW
 90
    32768
280
     0
281
     0
  0
CLASS
  1
ACMSTANDARDDIN
  2
AcmStandardDIN
  3
"Amdt_StdImp|Product Description: AutoCAD Mechanical 2004 DX|Company: Autodesk"
 90
        0
280
     0
281
     0
  0
CLASS
  1
AMGOBJPROPCFG
  2
AmgObjPropCfg
  3
"AmgLay|Product Description: AutoCAD Mechanical 2000|Company: Autodesk"
 90
        1
280
     0
281
     0
  0
CLASS
  1
AMDTEDGESTANDARDDIN13715
  2
AmdtEdgeStdDIN13715
  3
"Amdt_StdImp|Product Description: AutoCAD Mechanical 2004 DX|Company: Autodesk"
 90
        0
280
     0
281
     0
  0
CLASS
  1
ACMSURFSTANDARDDIN
  2
AcmSurfTextStdDIN
  3
"Amdt_StdImp|Product Description: AutoCAD Mechanical 2004 DX|Company: Autodesk"
 90
        0
280
     0
281
     0
  0
CLASS
  1
ACMFCFSTANDARDDIN
  2
AcmFCFStdDIN
  3
"Amdt_StdImp|Product Description: AutoCAD Mechanical 2004 DX|Company: Autodesk"
 90
        0
280
     0
281
     0
  0
CLASS
  1
ACMWELDSTANDARDDIN
  2
AcmWeldingStdDIN
  3
"Amdt_StdImp|Product Description: AutoCAD Mechanical 2004 DX|Company: Autodesk"
 90
        0
280
     0
281
     0
  0
CLASS
  1
ACMIDSTANDARDDIN
  2
AcmIdStdDIN
  3
"Amdt_StdImp|Product Description: AutoCAD Mechanical 2004 DX|Company: Autodesk"
 90
        0
280
     0
281
     0
  0
CLASS
  1
ACMDATUMSTANDARDDIN
  2
AcmDatumStdDIN
  3
"Amdt_StdImp|Product Description: AutoCAD Mechanical 2004 DX|Company: Autodesk"
 90
        0
280
     0
281
     0
  0
CLASS
  1
ACMBOMSTANDARDDIN
  2
AcmBOMStdDIN
  3
"Amdt_StdImp|Product Description: AutoCAD Mechanical 2004 DX|Company: Autodesk"
 90
        0
280
     0
281
     0
  0
CLASS
  1
ACMDETAILSTANDARDDIN
  2
AmdtDetailSymStdDIN
  3
"Amdt_StdImp|Product Description: AutoCAD Mechanical 2004 DX|Company: Autodesk"
 90
        0
280
     0
281
     0
  0
CLASS
  1
ACMSECTIONSTANDARDDIN
  2
AmdtSectionSymStdDIN
  3
"Amdt_StdImp|Product Description: AutoCAD Mechanical 2004 DX|Company: Autodesk"
 90
        0
280
     0
281
     0
  0
CLASS
  1
ACMCENTERLINESTANDARDDIN
  2
AmdtCenterLineStdDIN
  3
"Amdt_StdImp|Product Description: AutoCAD Mechanical 2004 DX|Company: Autodesk"
 90
        0
280
     0
281
     0
  0
CLASS
  1
ACMTHREADLINESTANDARDDIN
  2
AmdtThreadLineStdDIN
  3
"Amdt_StdImp|Product Description: AutoCAD Mechanical 2004 DX|Company: Autodesk"
 90
        0
280
     0
281
     0
  0
CLASS
  1
ACMNOTESTANDARDDIN
  2
AmdtNoteStdDIN
  3
"Amdt_StdImp|Product Description: AutoCAD Mechanical 2004 DX|Company: Autodesk"
 90
        0
280
     0
281
     0
  0
CLASS
  1
AMDTNOTETEMPLATEDB
  2
AmdtNoteTemplateDB
  3
AMDT_STDIMP_MODULE_NAME
 90
        0
280
     0
281
     0
  0
CLASS
  1
ACAMGLAYSTD
  2
AcAmgLayStd
  3
"AcAmgLayStd|Product Description: AutoCAD Mechanical 2000|Company: Autodesk"
 90
        0
280
     0
281
     0
  0
CLASS
  1
ACAMGDIMSTD
  2
AcAmgDimStd
  3
"AcAmgDimStd|Product Description: AutoCAD Mechanical 2000|Company: Autodesk"
 90
        0
280
     0
281
     0
  0
CLASS
  1
ACAMGHOLECHARTSTDDIN
  2
AcAmgHoleChartStdDIN
  3
ACMSYMBB_MODULE_NAME
 90
        0
280
     0
281
     0
  0
CLASS
  1
ACAMGTITLESTD
  2
AcAmgTitleStd
  3
"TITLEAPP"
 90
        0
280
     0
281
     0
  0
CLASS
  1
ACAMGFILTERDAT
  2
AcAmgFilterDat
  3
"AcadM|Product Description: AutoCAD Mechanical 2000|Company: Autodesk"
 90
    32768
280
     0
281
     0
  0
CLASS
  1
ACDBPLACEHOLDER
  2
AcDbPlaceHolder
  3
ObjectDBX Classes
 90
        0
280
     0
281
     0
  0
CLASS
  1
LAYOUT
  2
AcDbLayout
  3
ObjectDBX Classes
 90
        0
280
     0
281
     0
  0
ENDSEC
  0
SECTION
  2
TABLES
  0
TABLE
  2
VPORT
  5
8
330
0
100
AcDbSymbolTable
 70
    49
  0
VPORT
  5
12F3
330
8
100
AcDbSymbolTableRecord
100
AcDbViewportTableRecord
  2
*Active
 70
     0
 10
0.0
 20
0.0
 11
1.0
 21
1.0
 12
272.596894361308
 22
295.2827850482954
 13
0.0
 23
0.0
 14
10.0
 24
10.0
 15
10.0
 25
10.0
 16
0.0
 26
0.0
 36
1.0
 17
0.0
 27
0.0
 37
0.0
 40
199.9382288714776
 41
1.494545454545454
 42
50.0
 43
0.0
 44
0.0
 50
0.0
 51
0.0
 71
     0
 72
  1000
 73
     1
 74
     3
 75
     0
 76
     0
 77
     0
 78
     0
281
     0
 65
     0
110
0.0
120
0.0
130
0.0
111
1.0
121
0.0
131
0.0
112
0.0
122
1.0
132
0.0
 79
     0
146
0.0
  0
ENDTAB
  0
TABLE
  2
LTYPE
  5
5
330
0
100
AcDbSymbolTable
 70
    16
  0
LTYPE
  5
14
330
5
100
AcDbSymbolTableRecord
100
AcDbLinetypeTableRecord
  2
ByBlock
 70
     0
  3

 72
    65
 73
     0
 40
0.0
  0
LTYPE
  5
15
330
5
100
AcDbSymbolTableRecord
100
AcDbLinetypeTableRecord
  2
ByLayer
 70
     0
  3

 72
    65
 73
     0
 40
0.0
  0
LTYPE
  5
16
330
5
100
AcDbSymbolTableRecord
100
AcDbLinetypeTableRecord
  2
Continuous
 70
     0
  3
Solid line
 72
    65
 73
     0
 40
0.0
  0
LTYPE
  5
86
330
5
100
AcDbSymbolTableRecord
100
AcDbLinetypeTableRecord
  2
DASHDOT
 70
     0
  3
 __ . __ . __ . __ . __ . __ . __ . 
 72
    65
 73
     4
 40
18.5
 49
12.0
 74
     0
 49
-3.0
 74
     0
 49
0.5
 74
     0
 49
-3.0
 74
     0
  0
LTYPE
  5
1045
330
5
100
AcDbSymbolTableRecord
100
AcDbLinetypeTableRecord
  2
HIDDEN
 70
     0
  3
Verdeckt
 72
    65
 73
     2
 40
9.525
 49
6.349999999999998
 74
     0
 49
-3.174999999999998
 74
     0
  0
LTYPE
  5
1046
330
5
100
AcDbSymbolTableRecord
100
AcDbLinetypeTableRecord
  2
PHANTOM2
 70
     0
  3
Phantom (.5x) ___ _ _ ___ _ _ ___ _ _ ___ _ _
 72
    65
 73
     6
 40
31.75
 49
15.875
 74
     0
 49
-3.174999999999998
 74
     0
 49
3.174999999999998
 74
     0
 49
-3.174999999999998
 74
     0
 49
3.174999999999998
 74
     0
 49
-3.174999999999998
 74
     0
  0
LTYPE
  5
1047
330
5
100
AcDbSymbolTableRecord
100
AcDbLinetypeTableRecord
  2
CENTER
 70
     0
  3
Mitte ____ _ ____ _ ____ _ ____ _ ____ _ ____
 72
    65
 73
     4
 40
50.8
 49
31.75
 74
     0
 49
-6.349999999999998
 74
     0
 49
6.349999999999998
 74
     0
 49
-6.349999999999998
 74
     0
  0
LTYPE
  5
107F
330
5
100
AcDbSymbolTableRecord
100
AcDbLinetypeTableRecord
  2
Amconstr
 70
     0
  3
_______________________
 72
    65
 73
     2
 40
9999.0
 49
9999.0
 74
     0
 49
0.0
 74
     0
  0
LTYPE
  5
1084
330
5
100
AcDbSymbolTableRecord
100
AcDbLinetypeTableRecord
  2
Amzigzag
 70
     0
  3
/\/-/\/-/\/-/\/-/\/-/\/
 72
    65
 73
     2
 40
11.0001
 49
0.0001
 74
     4
 75
   136
340
1083
 46
0.04
 50
0.0
 44
0.0
 45
0.0
 49
-11.0
 74
     0
  0
LTYPE
  5
1085
330
5
100
AcDbSymbolTableRecord
100
AcDbLinetypeTableRecord
  2
AM_DIN_F_W050
 70
     0
  3
__ __ __ __ __ __ __ __ __ __ __ __ __ __ __
 72
    65
 73
     2
 40
6.25
 49
4.75
 74
     0
 49
-1.5
 74
     0
  0
LTYPE
  5
1086
330
5
100
AcDbSymbolTableRecord
100
AcDbLinetypeTableRecord
  2
AM_DIN_G_W050
 70
     0
  3
____ . ____ . ____ . ____ . ____ . ____ . ____
 72
    65
 73
     4
 40
13.75
 49
9.75
 74
     0
 49
-1.5
 74
     0
 49
1.0
 74
     0
 49
-1.5
 74
     0
  0
LTYPE
  5
1087
330
5
100
AcDbSymbolTableRecord
100
AcDbLinetypeTableRecord
  2
AM_DIN_K_W050
 70
     0
  3
_____ . . _____ . . _____ . . ____ .. ____
 72
    65
 73
     6
 40
16.25
 49
9.75
 74
     0
 49
-1.5
 74
     0
 49
1.0
 74
     0
 49
-1.5
 74
     0
 49
1.0
 74
     0
 49
-1.5
 74
     0
  0
LTYPE
  5
1088
330
5
100
AcDbSymbolTableRecord
100
AcDbLinetypeTableRecord
  2
AM_DIN_G_W050x2
 70
     0
  3
__ . __ . __ . __ . __ . __
 72
    65
 73
     4
 40
6.875
 49
4.75
 74
     0
 49
-0.875
 74
     0
 49
0.375
 74
     0
 49
-0.875
 74
     0
  0
LTYPE
  5
1089
330
5
100
AcDbSymbolTableRecord
100
AcDbLinetypeTableRecord
  2
AM_DIN_F_W050x2
 70
     0
  3
 _ _ _ _ _ _ _ _ _ _ _ _
 72
    65
 73
     2
 40
3.125
 49
2.25
 74
     0
 49
-0.875
 74
     0
  0
LTYPE
  5
1098
330
5
100
AcDbSymbolTableRecord
100
AcDbLinetypeTableRecord
  2
ACDINWELD
 70
     0
  3
_ _ _ _ _
 72
    65
 73
     2
 40
2.0
 49
2.0
 74
     0
 49
-1.0
 74
     0
  0
LTYPE
  5
1099
330
5
100
AcDbSymbolTableRecord
100
AcDbLinetypeTableRecord
  2
ACDINTGB
 70
     0
  3
__ . . __ . .
 72
    65
 73
     6
 40
9.0
 49
4.0
 74
     0
 49
-1.0
 74
     0
 49
1.0
 74
     0
 49
-1.0
 74
     0
 49
1.0
 74
     0
 49
-1.0
 74
     0
  0
LTYPE
  5
109A
330
5
100
AcDbSymbolTableRecord
100
AcDbLinetypeTableRecord
  2
ACDINTGL
 70
     0
  3
_ _ _ _ _
 72
    65
 73
     2
 40
3.0
 49
2.0
 74
     0
 49
-1.0
 74
     0
  0
ENDTAB
  0
TABLE
  2
LAYER
  5
2
330
0
100
AcDbSymbolTable
 70
     3
  0
LAYER
  5
10
330
2
100
AcDbSymbolTableRecord
100
AcDbLayerTableRecord
  2
0
 70
     0
 62
     7
  6
Continuous
370
    -3
390
F
  0
LAYER
  5
F4D
330
2
100
AcDbSymbolTableRecord
100
AcDbLayerTableRecord
  2
Defpoints
 70
     0
 62
     7
  6
Continuous
290
     0
370
    -3
390
F
  0
LAYER
  5
123B
330
2
100
AcDbSymbolTableRecord
100
AcDbLayerTableRecord
  2
AM_5
 70
     0
 62
     3
  6
Continuous
370
    25
390
F
1001
AcAecLayerStandard
1000

1000

  0
ENDTAB
  0
TABLE
  2
STYLE
  5
3
330
0
100
AcDbSymbolTable
 70
     4
  0
STYLE
  5
11
330
3
100
AcDbSymbolTableRecord
100
AcDbTextStyleTableRecord
  2
Standard
 70
     0
 40
0.0
 41
1.0
 50
0.0
 71
     0
 42
2.5
  3
txt
  4

  0
STYLE
  5
1083
330
3
100
AcDbSymbolTableRecord
100
AcDbTextStyleTableRecord
  2

 70
     1
 40
0.0
 41
1.0
 50
0.0
 71
     0
 42
2.5
  3
genltshp.shx
  4

  0
STYLE
  5
108A
330
3
100
AcDbSymbolTableRecord
100
AcDbTextStyleTableRecord
  2
ACDINTS
 70
     0
 40
1.0
 41
1.0
 50
0.0
 71
     0
 42
2.5
  3
isocp.shx
  4

  0
STYLE
  5
1097
330
3
100
AcDbSymbolTableRecord
100
AcDbTextStyleTableRecord
  2
ACDINGDT
 70
     0
 40
0.0
 41
1.0
 50
0.0
 71
     0
 42
2.5
  3
AMGDT
  4

  0
ENDTAB
  0
TABLE
  2
VIEW
  5
6
330
0
100
AcDbSymbolTable
 70
     0
  0
ENDTAB
  0
TABLE
  2
UCS
  5
7
330
0
100
AcDbSymbolTable
 70
     0
  0
ENDTAB
  0
TABLE
  2
APPID
  5
9
330
0
100
AcDbSymbolTable
 70
    14
  0
APPID
  5
12
330
9
100
AcDbSymbolTableRecord
100
AcDbRegAppTableRecord
  2
ACAD
 70
     0
  0
APPID
  5
1016
330
9
100
AcDbSymbolTableRecord
100
AcDbRegAppTableRecord
  2
MCAD_NO_VIS
 70
     0
  0
APPID
  5
1017
330
9
100
AcDbSymbolTableRecord
100
AcDbRegAppTableRecord
  2
ACAD_TEMP_GRAPHIC
 70
     0
  0
APPID
  5
1049
330
9
100
AcDbSymbolTableRecord
100
AcDbRegAppTableRecord
  2
AD_DRAW
 70
     0
  0
APPID
  5
104C
330
9
100
AcDbSymbolTableRecord
100
AcDbRegAppTableRecord
  2
ACATTRIBSERVICES
 70
     0
  0
APPID
  5
106C
330
9
100
AcDbSymbolTableRecord
100
AcDbRegAppTableRecord
  2
DESIGNERASSEMBLIES
 70
     0
  0
APPID
  5
1072
330
9
100
AcDbSymbolTableRecord
100
AcDbRegAppTableRecord
  2
ACADM_DIM_EDIT
 70
     0
  0
APPID
  5
1073
330
9
100
AcDbSymbolTableRecord
100
AcDbRegAppTableRecord
  2
AMDT_DM_ADJ
 70
     0
  0
APPID
  5
10A6
330
9
100
AcDbSymbolTableRecord
100
AcDbRegAppTableRecord
  2
ACAD_DSTYLE_DIMARC_LENGTH_SYMBOL
 70
     0
  0
APPID
  5
10A7
330
9
100
AcDbSymbolTableRecord
100
AcDbRegAppTableRecord
  2
ACAD_DSTYLE_DIMJOGGED_JOGANGLE_SYMBOL
 70
     0
  0
APPID
  5
1226
330
9
100
AcDbSymbolTableRecord
100
AcDbRegAppTableRecord
  2
GENIUS_GENDIMSH_14
 70
     0
  0
APPID
  5
1233
330
9
100
AcDbSymbolTableRecord
100
AcDbRegAppTableRecord
  2
ACAD_EXEMPT_FROM_CAD_STANDARDS
 70
     0
  0
APPID
  5
123C
330
9
100
AcDbSymbolTableRecord
100
AcDbRegAppTableRecord
  2
AcAecLayerStandard
 70
     0
  0
APPID
  5
126D
330
9
100
AcDbSymbolTableRecord
100
AcDbRegAppTableRecord
  2
GENIUS_GENDTOL_13
 70
     0
  0
ENDTAB
  0
TABLE
  2
DIMSTYLE
  5
A
330
0
100
AcDbSymbolTable
 70
    11
100
AcDbDimStyleTable
 71
     1
340
27
  0
DIMSTYLE
105
27
330
A
100
AcDbSymbolTableRecord
100
AcDbDimStyleTableRecord
  2
ISO-25
 70
     0
 41
2.5
 42
0.625
 43
3.75
 44
1.25
 73
     0
 74
     0
 77
     1
 78
     8
140
2.5
141
2.5
143
0.03937007874016
147
0.625
171
     3
172
     1
271
     2
272
     2
274
     3
278
    44
283
     0
284
     8
340
11
  0
DIMSTYLE
105
87
330
A
100
AcDbSymbolTableRecord
100
AcDbDimStyleTableRecord
  2
STANDARD
 70
     0
340
11
  0
DIMSTYLE
105
10A5
330
A
100
AcDbSymbolTableRecord
100
AcDbDimStyleTableRecord
  2
AM_DIN
 70
     0
  4
"
 41
2.5
 42
1.0
 43
10.0
 44
1.0
 47
0.1
 48
0.1
 73
     0
 74
     0
 77
     1
 78
     8
 79
     2
140
3.5
141
0.0
143
0.0393701
146
0.71
147
1.5
172
     1
176
   256
177
   256
178
     2
271
     2
272
     3
274
     4
283
     0
284
     8
340
11
371
    -1
372
    -1
1001
ACAD_DSTYLE_DIMARC_LENGTH_SYMBOL
1070
   379
1070
     0
1001
ACAD_DSTYLE_DIMJOGGED_JOGANGLE_SYMBOL
1070
   384
1040
1.570796326794896
  0
DIMSTYLE
105
10B6
330
A
100
AcDbSymbolTableRecord
100
AcDbDimStyleTableRecord
  2
AM_DIN$3
 70
     0
  4
"
 41
2.5
 42
1.0
 43
10.0
 44
1.0
 47
0.1
 48
0.1
 73
     0
 77
     1
 78
     8
 79
     2
140
3.5
141
0.0
143
0.0393701
146
0.71
147
1.5
176
   256
177
   256
178
     2
271
     2
272
     3
274
     4
283
     0
284
     8
288
     1
289
     0
340
11
371
    -1
372
    -1
1001
ACAD_DSTYLE_DIMARC_LENGTH_SYMBOL
1070
   379
1070
     0
1001
ACAD_DSTYLE_DIMJOGGED_JOGANGLE_SYMBOL
1070
   384
1040
1.570796326794896
  0
DIMSTYLE
105
10BB
330
A
100
AcDbSymbolTableRecord
100
AcDbDimStyleTableRecord
  2
AM_DIN$4
 70
     0
  4
"
 41
2.5
 42
1.0
 43
10.0
 44
1.0
 47
0.1
 48
0.1
 73
     0
 77
     1
 78
     8
 79
     2
140
3.5
141
0.0
143
0.0393701
146
0.71
147
1.5
176
   256
177
   256
178
     2
271
     2
272
     3
274
     4
283
     0
284
     8
288
     1
289
     0
340
11
371
    -1
372
    -1
1001
ACAD_DSTYLE_DIMARC_LENGTH_SYMBOL
1070
   379
1070
     0
1001
ACAD_DSTYLE_DIMJOGGED_JOGANGLE_SYMBOL
1070
   384
1040
1.570796326794896
  0
DIMSTYLE
105
10C0
330
A
100
AcDbSymbolTableRecord
100
AcDbDimStyleTableRecord
  2
AM_DIN$6
 70
     0
  4
"
 41
2.5
 42
1.0
 43
10.0
 44
1.0
 47
0.1
 48
0.1
 73
     0
 74
     0
 78
     8
 79
     2
140
3.5
141
0.0
143
0.0393701
146
0.71
147
1.5
172
     1
176
   256
177
   256
178
     2
271
     2
272
     3
274
     4
283
     0
284
     8
340
11
371
    -1
372
    -1
1001
ACAD_DSTYLE_DIMARC_LENGTH_SYMBOL
1070
   379
1070
     0
1001
ACAD_DSTYLE_DIMJOGGED_JOGANGLE_SYMBOL
1070
   384
1040
1.570796326794896
  0
DIMSTYLE
105
10C5
330
A
100
AcDbSymbolTableRecord
100
AcDbDimStyleTableRecord
  2
AM_DIN$7
 70
     0
  4
"
 41
2.5
 42
1.0
 43
10.0
 44
1.0
 47
0.1
 48
0.1
 73
     0
 74
     0
 77
     1
 78
     8
 79
     2
140
5.0
141
0.0
143
0.0393701
146
0.71
147
1.5
172
     1
176
   256
177
   256
178
     2
271
     2
272
     3
274
     4
283
     0
284
     8
340
11
371
    -1
372
    -1
1001
ACAD_DSTYLE_DIMARC_LENGTH_SYMBOL
1070
   379
1070
     0
1001
ACAD_DSTYLE_DIMJOGGED_JOGANGLE_SYMBOL
1070
   384
1040
1.570796326794896
  0
DIMSTYLE
105
10CA
330
A
100
AcDbSymbolTableRecord
100
AcDbDimStyleTableRecord
  2
AM_DIN$SF
 70
     0
  4
"
 41
2.5
 42
1.0
 43
10.0
 44
1.0
 47
0.1
 48
0.1
 73
     0
 74
     0
 75
     1
 76
     1
 77
     1
 78
     8
 79
     2
140
3.5
141
0.0
143
0.0393701
146
0.71
147
1.5
172
     1
176
   256
177
   256
178
     2
271
     2
272
     3
274
     4
283
     0
284
     8
340
11
371
    -1
372
    -1
1001
ACAD_DSTYLE_DIMARC_LENGTH_SYMBOL
1070
   379
1070
     0
1001
ACAD_DSTYLE_DIMJOGGED_JOGANGLE_SYMBOL
1070
   384
1040
1.570796326794896
  0
DIMSTYLE
105
10D3
330
A
100
AcDbSymbolTableRecord
100
AcDbDimStyleTableRecord
  2
AM_DIN$SH
 70
     0
  4
"
 41
2.5
 42
1.0
 43
10.0
 44
1.0
 47
0.1
 48
0.1
 73
     0
 74
     0
 75
     1
 76
     1
 77
     1
 78
     8
 79
     2
140
3.5
141
0.0
143
0.0393701
144
2.0
146
0.71
147
1.5
172
     1
173
     1
176
   256
177
   256
178
     2
271
     2
272
     3
274
     4
283
     0
284
     8
340
11
343
10CB
371
    -1
372
    -1
1001
ACAD_DSTYLE_DIMARC_LENGTH_SYMBOL
1070
   379
1070
     0
1001
ACAD_DSTYLE_DIMJOGGED_JOGANGLE_SYMBOL
1070
   384
1040
1.570796326794896
  0
DIMSTYLE
105
1248
102
{ACAD_REACTORS
330
128E
330
124C
102
}
330
A
100
AcDbSymbolTableRecord
100
AcDbDimStyleTableRecord
  2
ISO-25$0
 70
     0
 41
2.5
 42
0.625
 43
3.75
 44
1.25
 73
     0
 74
     0
 77
     1
 78
     8
140
2.5
141
2.5
143
0.03937007874016
147
0.625
171
     3
172
     1
271
     2
272
     2
274
     3
278
    44
283
     0
284
     8
340
11
  0
ENDTAB
  0
TABLE
  2
BLOCK_RECORD
  5
1
330
0
100
AcDbSymbolTable
 70
     9
  0
BLOCK_RECORD
  5
1F
330
1
100
AcDbSymbolTableRecord
100
AcDbBlockTableRecord
  2
*Model_Space
340
22
  0
BLOCK_RECORD
  5
50
330
1
100
AcDbSymbolTableRecord
100
AcDbBlockTableRecord
  2
*Paper_Space
340
51
  0
BLOCK_RECORD
  5
55
330
1
100
AcDbSymbolTableRecord
100
AcDbBlockTableRecord
  2
*Paper_Space0
340
56
  0
BLOCK_RECORD
  5
F4E
330
1
100
AcDbSymbolTableRecord
100
AcDbBlockTableRecord
  2
*D1
340
0
  0
BLOCK_RECORD
  5
F6F
330
1
100
AcDbSymbolTableRecord
100
AcDbBlockTableRecord
  2
*D2
340
0
  0
BLOCK_RECORD
  5
F90
330
1
100
AcDbSymbolTableRecord
100
AcDbBlockTableRecord
  2
*D3
340
0
  0
BLOCK_RECORD
  5
10CB
330
1
100
AcDbSymbolTableRecord
100
AcDbBlockTableRecord
  2
GENAXEH
340
0
  0
BLOCK_RECORD
  5
124D
330
1
100
AcDbSymbolTableRecord
100
AcDbBlockTableRecord
  2
*D7
340
0
  0
BLOCK_RECORD
  5
128F
330
1
100
AcDbSymbolTableRecord
100
AcDbBlockTableRecord
  2
*D8
340
0
  0
ENDTAB
  0
ENDSEC
  0
SECTION
  2
BLOCKS
  0
BLOCK
  5
20
330
1F
100
AcDbEntity
  8
0
100
AcDbBlockBegin
  2
*Model_Space
 70
     0
 10
0.0
 20
0.0
 30
0.0
  3
*Model_Space
  1

  0
ENDBLK
  5
21
330
1F
100
AcDbEntity
  8
0
100
AcDbBlockEnd
  0
BLOCK
  5
52
330
50
100
AcDbEntity
 67
     1
  8
0
100
AcDbBlockBegin
  2
*Paper_Space
 70
     0
 10
0.0
 20
0.0
 30
0.0
  3
*Paper_Space
  1

  0
ENDBLK
  5
53
330
50
100
AcDbEntity
 67
     1
  8
0
100
AcDbBlockEnd
  0
BLOCK
  5
57
330
55
100
AcDbEntity
 67
     1
  8
0
100
AcDbBlockBegin
  2
*Paper_Space0
 70
     0
 10
0.0
 20
0.0
 30
0.0
  3
*Paper_Space0
  1

  0
ENDBLK
  5
58
330
55
100
AcDbEntity
 67
     1
  8
0
100
AcDbBlockEnd
  0
BLOCK
  5
F58
330
F4E
100
AcDbEntity
  8
0
100
AcDbBlockBegin
  2
*D1
 70
     1
 10
0.0
 20
0.0
 30
0.0
  3
*D1
  1

  0
LINE
  5
11F6
330
F4E
100
AcDbEntity
  8
0
 62
     0
370
    -2
100
AcDbLine
 10
223.1751444625107
 20
93.33396747925664
 30
0.0
 11
223.1751444625107
 21
36.43392978062081
 31
0.0
  0
LINE
  5
11F7
330
F4E
100
AcDbEntity
  8
0
 62
     0
370
    -2
100
AcDbLine
 10
322.0057414625107
 20
93.33396747925664
 30
0.0
 11
322.0057414625107
 21
36.43392978062081
 31
0.0
  0
LINE
  5
11F8
330
F4E
100
AcDbEntity
  8
0
 62
     0
370
    -2
100
AcDbLine
 10
225.6751444625107
 20
37.68392978062081
 30
0.0
 11
319.5057414625107
 21
37.68392978062081
 31
0.0
  0
SOLID
  5
11F9
330
F4E
100
AcDbEntity
  8
0
 62
     0
100
AcDbTrace
 10
225.6751444625107
 20
38.10059644728748
 30
0.0
 11
225.6751444625107
 21
37.26726311395415
 31
0.0
 12
223.1751444625107
 22
37.68392978062081
 32
0.0
 13
223.1751444625107
 23
37.68392978062081
 33
0.0
  0
SOLID
  5
11FA
330
F4E
100
AcDbEntity
  8
0
 62
     0
100
AcDbTrace
 10
319.5057414625107
 20
38.10059644728748
 30
0.0
 11
319.5057414625107
 21
37.26726311395415
 31
0.0
 12
322.0057414625107
 22
37.68392978062081
 32
0.0
 13
322.0057414625107
 23
37.68392978062081
 33
0.0
  0
MTEXT
  5
11FB
330
F4E
100
AcDbEntity
  8
0
 62
     2
100
AcDbMText
 10
272.5904429625107
 20
43.30892978062081
 30
0.0
 40
10.0
 41
0.0
 71
     5
 72
     1
  1
DN 100
 73
     1
 44
1.0
1001
ACAD
1000
MTEXTBEGIN
1070
    73
1070
     1
1070
    44
1040
1.0
1070
    74
1070
     0
1000
MTEXTEND
  0
POINT
  5
11FC
330
F4E
100
AcDbEntity
  8
Defpoints
 62
     0
100
AcDbPoint
 10
223.1751444625107
 20
93.95896747925664
 30
0.0
  0
POINT
  5
11FD
330
F4E
100
AcDbEntity
  8
Defpoints
 62
     0
100
AcDbPoint
 10
322.0057414625107
 20
93.95896747925664
 30
0.0
  0
POINT
  5
11FE
330
F4E
100
AcDbEntity
  8
Defpoints
 62
     0
100
AcDbPoint
 10
322.0057414625107
 20
37.68392978062081
 30
0.0
  0
ENDBLK
  5
F59
330
F4E
100
AcDbEntity
  8
0
100
AcDbBlockEnd
  0
BLOCK
  5
F79
330
F6F
100
AcDbEntity
  8
0
100
AcDbBlockBegin
  2
*D2
 70
     1
 10
0.0
 20
0.0
 30
0.0
  3
*D2
  1

  0
LINE
  5
11ED
330
F6F
100
AcDbEntity
  8
0
 62
     0
370
    -2
100
AcDbLine
 10
235.3468064625107
 20
93.33367847925664
 30
0.0
 11
235.3468064625107
 21
68.25074691483449
 31
0.0
  0
LINE
  5
11EE
330
F6F
100
AcDbEntity
  8
0
 62
     0
370
    -2
100
AcDbLine
 10
309.8340724625107
 20
93.33367847925664
 30
0.0
 11
309.8340724625107
 21
68.25074691483449
 31
0.0
  0
LINE
  5
11EF
330
F6F
100
AcDbEntity
  8
0
 62
     0
370
    -2
100
AcDbLine
 10
237.8468064625107
 20
69.50074691483449
 30
0.0
 11
307.3340724625107
 21
69.50074691483449
 31
0.0
  0
SOLID
  5
11F0
330
F6F
100
AcDbEntity
  8
0
 62
     0
100
AcDbTrace
 10
237.8468064625107
 20
69.91741358150116
 30
0.0
 11
237.8468064625107
 21
69.08408024816782
 31
0.0
 12
235.3468064625107
 22
69.50074691483449
 32
0.0
 13
235.3468064625107
 23
69.50074691483449
 33
0.0
  0
SOLID
  5
11F1
330
F6F
100
AcDbEntity
  8
0
 62
     0
100
AcDbTrace
 10
307.3340724625107
 20
69.91741358150116
 30
0.0
 11
307.3340724625107
 21
69.08408024816782
 31
0.0
 12
309.8340724625107
 22
69.50074691483449
 32
0.0
 13
309.8340724625107
 23
69.50074691483449
 33
0.0
  0
MTEXT
  5
11F2
330
F6F
100
AcDbEntity
  8
0
 62
     2
100
AcDbMText
 10
272.5904394625107
 20
75.12574691483449
 30
0.0
 40
10.0
 41
0.0
 71
     5
 72
     1
  1
DN 70
 73
     1
 44
1.0
1001
ACAD
1000
MTEXTBEGIN
1070
    73
1070
     1
1070
    44
1040
1.0
1070
    74
1070
     0
1000
MTEXTEND
  0
POINT
  5
11F3
330
F6F
100
AcDbEntity
  8
Defpoints
 62
     0
100
AcDbPoint
 10
235.3468064625107
 20
93.95867847925664
 30
0.0
  0
POINT
  5
11F4
330
F6F
100
AcDbEntity
  8
Defpoints
 62
     0
100
AcDbPoint
 10
309.8340724625107
 20
93.95867847925664
 30
0.0
  0
POINT
  5
11F5
330
F6F
100
AcDbEntity
  8
Defpoints
 62
     0
100
AcDbPoint
 10
309.8340724625107
 20
69.50074691483449
 30
0.0
  0
ENDBLK
  5
F7A
330
F6F
100
AcDbEntity
  8
0
100
AcDbBlockEnd
  0
BLOCK
  5
F9A
330
F90
100
AcDbEntity
  8
0
100
AcDbBlockBegin
  2
*D3
 70
     1
 10
0.0
 20
0.0
 30
0.0
  3
*D3
  1

  0
LINE
  5
11FF
330
F90
100
AcDbEntity
  8
0
 62
     0
370
    -2
100
AcDbLine
 10
223.2434274625107
 20
91.45905947925667
 30
0.0
 11
187.4219301067494
 21
91.45905947925667
 31
0.0
  0
LINE
  5
1200
330
F90
100
AcDbEntity
  8
0
 62
     0
370
    -2
100
AcDbLine
 10
207.4601334625107
 20
258.4599134792567
 30
0.0
 11
187.4219301067494
 21
258.4599134792567
 31
0.0
  0
LINE
  5
1201
330
F90
100
AcDbEntity
  8
0
 62
     0
370
    -2
100
AcDbLine
 10
188.6719301067494
 20
93.95905947925667
 30
0.0
 11
188.6719301067494
 21
255.9599134792568
 31
0.0
  0
SOLID
  5
1202
330
F90
100
AcDbEntity
  8
0
 62
     0
100
AcDbTrace
 10
188.2552634400827
 20
93.95905947925667
 30
0.0
 11
189.088596773416
 21
93.95905947925667
 31
0.0
 12
188.6719301067494
 22
91.45905947925667
 32
0.0
 13
188.6719301067494
 23
91.45905947925667
 33
0.0
  0
SOLID
  5
1203
330
F90
100
AcDbEntity
  8
0
 62
     0
100
AcDbTrace
 10
188.2552634400827
 20
255.9599134792568
 30
0.0
 11
189.088596773416
 21
255.9599134792568
 31
0.0
 12
188.6719301067494
 22
258.4599134792567
 32
0.0
 13
188.6719301067494
 23
258.4599134792567
 33
0.0
  0
MTEXT
  5
1204
330
F90
100
AcDbEntity
  8
0
 62
     2
100
AcDbMText
 10
183.0469301067493
 20
174.9594864792567
 30
0.0
 40
10.0
 41
0.0
 71
     5
 72
     1
  1
167
 11
0.0000000000000001
 21
1.0
 31
0.0
 73
     1
 44
1.0
1001
ACAD
1000
MTEXTBEGIN
1070
    73
1070
     1
1070
    44
1040
1.0
1070
    74
1070
     0
1000
MTEXTEND
  0
POINT
  5
1205
330
F90
100
AcDbEntity
  8
Defpoints
 62
     0
100
AcDbPoint
 10
223.8684274625107
 20
91.45905947925667
 30
0.0
  0
POINT
  5
1206
330
F90
100
AcDbEntity
  8
Defpoints
 62
     0
100
AcDbPoint
 10
208.0851334625107
 20
258.4599134792567
 30
0.0
  0
POINT
  5
1207
330
F90
100
AcDbEntity
  8
Defpoints
 62
     0
100
AcDbPoint
 10
188.6719301067494
 20
258.4599134792567
 30
0.0
  0
ENDBLK
  5
F9B
330
F90
100
AcDbEntity
  8
0
100
AcDbBlockEnd
  0
BLOCK
  5
10CD
330
10CB
100
AcDbEntity
  8
0
100
AcDbBlockBegin
  2
GENAXEH
 70
     0
 10
0.0
 20
0.0
 30
0.0
  3
GENAXEH
  1

  0
LINE
  5
10CC
330
10CB
100
AcDbEntity
  8
0
100
AcDbLine
 10
-1.0
 20
0.0
 30
0.0
 11
1.0
 21
0.0
 31
0.0
  0
ENDBLK
  5
10CE
330
10CB
100
AcDbEntity
  8
0
100
AcDbBlockEnd
  0
BLOCK
  5
1257
330
124D
100
AcDbEntity
  8
0
100
AcDbBlockBegin
  2
*D7
 70
     1
 10
0.0
 20
0.0
 30
0.0
  3
*D7
  1

  0
LINE
  5
12E0
330
124D
100
AcDbEntity
  8
AM_5
 62
     0
370
    -2
100
AcDbLine
 10
347.2915925323238
 20
346.0840594792567
 30
0.0
 11
347.2915925323238
 21
376.5322822173466
 31
0.0
  0
LINE
  5
12E1
330
124D
100
AcDbEntity
  8
AM_5
 62
     0
370
    -2
100
AcDbLine
 10
197.3894084625106
 20
345.5840594792566
 30
0.0
 11
197.3894084625106
 21
376.5322822173466
 31
0.0
  0
LINE
  5
12E2
330
124D
100
AcDbEntity
  8
AM_5
 62
     0
370
    -2
100
AcDbLine
 10
342.2915925323238
 20
375.2822822173466
 30
0.0
 11
202.3894084625106
 21
375.2822822173466
 31
0.0
  0
SOLID
  5
12E3
330
124D
100
AcDbEntity
  8
AM_5
 62
     0
100
AcDbTrace
 10
342.2915925323238
 20
376.11561555068
 30
0.0
 11
342.2915925323238
 21
374.4489488840133
 31
0.0
 12
347.2915925323238
 22
375.2822822173466
 32
0.0
 13
347.2915925323238
 23
375.2822822173466
 33
0.0
  0
SOLID
  5
12E4
330
124D
100
AcDbEntity
  8
AM_5
 62
     0
100
AcDbTrace
 10
202.3894084625106
 20
376.11561555068
 30
0.0
 11
202.3894084625106
 21
374.4489488840133
 31
0.0
 12
197.3894084625106
 22
375.2822822173466
 32
0.0
 13
197.3894084625106
 23
375.2822822173466
 33
0.0
  0
MTEXT
  5
12E5
330
124D
100
AcDbEntity
  8
AM_5
 62
     2
100
AcDbMText
 10
272.3405004974172
 20
379.4072822173466
 30
0.0
 40
7.0
 41
0.0
 71
     5
 72
     1
  1
{\Famgdt|c0;o}150
 73
     1
 44
1.0
1001
ACAD
1000
MTEXTBEGIN
1070
    73
1070
     1
1070
    44
1040
1.0
1070
    74
1070
     0
1000
MTEXTEND
  0
POINT
  5
12E6
330
124D
100
AcDbEntity
  8
Defpoints
 62
     0
100
AcDbPoint
 10
347.2915925323238
 20
345.4590594792567
 30
0.0
  0
POINT
  5
12E7
330
124D
100
AcDbEntity
  8
Defpoints
 62
     0
100
AcDbPoint
 10
197.3894084625106
 20
344.9590594792567
 30
0.0
  0
POINT
  5
12E8
330
124D
100
AcDbEntity
  8
Defpoints
 62
     0
100
AcDbPoint
 10
197.3894084625106
 20
375.2822822173466
 30
0.0
  0
ENDBLK
  5
1258
330
124D
100
AcDbEntity
  8
0
100
AcDbBlockEnd
  0
BLOCK
  5
1299
330
128F
100
AcDbEntity
  8
0
100
AcDbBlockBegin
  2
*D8
 70
     1
 10
0.0
 20
0.0
 30
0.0
  3
*D8
  1

  0
LINE
  5
12E9
330
128F
100
AcDbEntity
  8
AM_5
 62
     0
370
    -2
100
AcDbLine
 10
334.7930818010576
 20
248.3340594792566
 30
0.0
 11
334.7930818010576
 21
216.4538471105183
 31
0.0
  0
LINE
  5
12EA
330
128F
100
AcDbEntity
  8
AM_5
 62
     0
370
    -2
100
AcDbLine
 10
210.3878041239638
 20
248.3340594792566
 30
0.0
 11
210.3878041239638
 21
216.4538471105183
 31
0.0
  0
LINE
  5
12EB
330
128F
100
AcDbEntity
  8
AM_5
 62
     0
370
    -2
100
AcDbLine
 10
329.7930818010576
 20
217.7038471105183
 30
0.0
 11
215.3878041239638
 21
217.7038471105183
 31
0.0
  0
SOLID
  5
12EC
330
128F
100
AcDbEntity
  8
AM_5
 62
     0
100
AcDbTrace
 10
329.7930818010576
 20
218.5371804438516
 30
0.0
 11
329.7930818010576
 21
216.8705137771849
 31
0.0
 12
334.7930818010576
 22
217.7038471105183
 32
0.0
 13
334.7930818010576
 23
217.7038471105183
 33
0.0
  0
SOLID
  5
12ED
330
128F
100
AcDbEntity
  8
AM_5
 62
     0
100
AcDbTrace
 10
215.3878041239638
 20
218.5371804438516
 30
0.0
 11
215.3878041239638
 21
216.8705137771849
 31
0.0
 12
210.3878041239638
 22
217.7038471105183
 32
0.0
 13
210.3878041239638
 23
217.7038471105183
 33
0.0
  0
MTEXT
  5
12EE
330
128F
100
AcDbEntity
  8
AM_5
 62
     2
100
AcDbMText
 10
272.5904429625107
 20
221.8288471105183
 30
0.0
 40
7.0
 41
0.0
 71
     5
 72
     1
  1
%%c125
 73
     1
 44
1.0
1001
ACAD
1000
MTEXTBEGIN
1070
    73
1070
     1
1070
    44
1040
1.0
1070
    74
1070
     0
1000
MTEXTEND
  0
POINT
  5
12EF
330
128F
100
AcDbEntity
  8
Defpoints
 62
     0
100
AcDbPoint
 10
334.7930818010576
 20
248.9590594792566
 30
0.0
  0
POINT
  5
12F0
330
128F
100
AcDbEntity
  8
Defpoints
 62
     0
100
AcDbPoint
 10
210.3878041239638
 20
248.9590594792566
 30
0.0
  0
POINT
  5
12F1
330
128F
100
AcDbEntity
  8
Defpoints
 62
     0
100
AcDbPoint
 10
210.3878041239638
 20
217.7038471105183
 30
0.0
  0
ENDBLK
  5
129A
330
128F
100
AcDbEntity
  8
0
100
AcDbBlockEnd
  0
ENDSEC
  0
SECTION
  2
ENTITIES
  0
LINE
  5
881
330
1F
100
AcDbEntity
  8
0
 62
     7
 48
0.093331
100
AcDbLine
 10
344.5230064625107
 20
341.0534194792566
 30
0.0
 11
347.7560774625107
 21
342.9200274792567
 31
0.0
  0
LINE
  5
882
330
1F
100
AcDbEntity
  8
0
 62
     7
 48
0.166074
100
AcDbLine
 10
341.8266414625107
 20
330.2590474792566
 30
0.0
 11
347.5796014625107
 21
333.5805194792567
 31
0.0
  0
LINE
  5
883
330
1F
100
AcDbEntity
  8
0
 62
     7
 48
0.093331
100
AcDbLine
 10
332.9219474625107
 20
325.1179344792567
 30
0.0
 11
336.1550184625107
 21
326.9845414792567
 31
0.0
  0
LINE
  5
884
330
1F
100
AcDbEntity
  8
0
 62
     7
 48
0.093331
100
AcDbLine
 10
332.7590684625107
 20
315.7862684792566
 30
0.0
 11
335.9921304625107
 21
317.6529074792567
 31
0.0
  0
LINE
  5
885
330
1F
100
AcDbEntity
  8
0
 62
     7
 48
0.09333
100
AcDbLine
 10
332.5961804625107
 20
306.4546344792566
 30
0.0
 11
335.8292434625107
 21
308.3212424792567
 31
0.0
  0
LINE
  5
886
330
1F
100
AcDbEntity
  8
0
 62
     7
 48
0.093331
100
AcDbLine
 10
332.4332924625107
 20
297.1229994792566
 30
0.0
 11
335.6663634625107
 21
298.9896074792568
 31
0.0
  0
LINE
  5
887
330
1F
100
AcDbEntity
  8
0
 62
     7
 48
0.093331
100
AcDbLine
 10
332.2704054625106
 20
287.7913344792566
 30
0.0
 11
335.5034834625107
 21
289.6579734792567
 31
0.0
  0
LINE
  5
888
330
1F
100
AcDbEntity
  8
0
 62
     7
 48
0.093331
100
AcDbLine
 10
332.1075254625107
 20
278.4597004792567
 30
0.0
 11
335.3405954625107
 21
280.3263084792567
 31
0.0
  0
LINE
  5
889
330
1F
100
AcDbEntity
  8
0
 62
     7
 48
0.09333
100
AcDbLine
 10
331.9446454625107
 20
269.1280654792567
 30
0.0
 11
335.1777084625107
 21
270.9946734792567
 31
0.0
  0
LINE
  5
88A
330
1F
100
AcDbEntity
  8
0
 62
     7
 48
0.093331
100
AcDbLine
 10
331.7817574625106
 20
259.7964004792567
 30
0.0
 11
335.0148204625107
 21
261.6630384792567
 31
0.0
  0
LINE
  5
88B
330
1F
100
AcDbEntity
  8
0
 62
     7
 48
0.093331
100
AcDbLine
 10
331.6188704625107
 20
250.4647664792567
 30
0.0
 11
334.8519404625107
 21
252.3313734792567
 31
0.0
  0
LINE
  5
88C
330
1F
100
AcDbEntity
  8
0
 62
     7
 48
0.080008
100
AcDbLine
 10
344.5911754625107
 20
344.9590594792567
 30
0.0
 11
347.7914774625107
 21
344.9590594792567
 31
0.0
  0
LINE
  5
88D
330
1F
100
AcDbEntity
  8
0
 62
     7
 48
0.167065
100
AcDbLine
 10
340.9694184625107
 20
336.9590594792567
 30
0.0
 11
347.6520274625106
 21
336.9590594792567
 31
0.0
  0
LINE
  5
88E
330
1F
100
AcDbEntity
  8
0
 62
     7
 48
0.087184
100
AcDbLine
 10
332.9889954625107
 20
328.9590594792567
 30
0.0
 11
336.4763684625107
 21
328.9590594792567
 31
0.0
  0
LINE
  5
88F
330
1F
100
AcDbEntity
  8
0
 62
     7
 48
0.080012
100
AcDbLine
 10
332.8493544625107
 20
320.9590594792567
 30
0.0
 11
336.0498394625107
 21
320.9590594792567
 31
0.0
  0
LINE
  5
890
330
1F
100
AcDbEntity
  8
0
 62
     7
 48
0.080012
100
AcDbLine
 10
332.7097134625106
 20
312.9590594792567
 30
0.0
 11
335.9102064625107
 21
312.9590594792567
 31
0.0
  0
LINE
  5
891
330
1F
100
AcDbEntity
  8
0
 62
     7
 48
0.080012
100
AcDbLine
 10
332.5700724625107
 20
304.9590594792566
 30
0.0
 11
335.7705574625107
 21
304.9590594792566
 31
0.0
  0
LINE
  5
892
330
1F
100
AcDbEntity
  8
0
 62
     7
 48
0.080012
100
AcDbLine
 10
332.4304314625107
 20
296.9590594792567
 30
0.0
 11
335.6309244625107
 21
296.9590594792567
 31
0.0
  0
LINE
  5
893
330
1F
100
AcDbEntity
  8
0
 62
     7
 48
0.080012
100
AcDbLine
 10
332.2907914625107
 20
288.9590594792567
 30
0.0
 11
335.4912764625106
 21
288.9590594792567
 31
0.0
  0
LINE
  5
894
330
1F
100
AcDbEntity
  8
0
 62
     7
 48
0.080012
100
AcDbLine
 10
332.1511504625107
 20
280.9590594792567
 30
0.0
 11
335.3516434625106
 21
280.9590594792567
 31
0.0
  0
LINE
  5
895
330
1F
100
AcDbEntity
  8
0
 62
     7
 48
0.080012
100
AcDbLine
 10
332.0115094625107
 20
272.9590594792567
 30
0.0
 11
335.2119944625107
 21
272.9590594792567
 31
0.0
  0
LINE
  5
896
330
1F
100
AcDbEntity
  8
0
 62
     7
 48
0.080012
100
AcDbLine
 10
331.8718684625107
 20
264.9590594792567
 30
0.0
 11
335.0723614625107
 21
264.9590594792567
 31
0.0
  0
LINE
  5
897
330
1F
100
AcDbEntity
  8
0
 62
     7
 48
0.080012
100
AcDbLine
 10
331.7322274625106
 20
256.9590594792567
 30
0.0
 11
334.9327134625107
 21
256.9590594792567
 31
0.0
  0
LINE
  5
898
102
{ACAD_REACTORS
330
129C
102
}
330
1F
100
AcDbEntity
  8
0
 62
     7
 48
0.080012
100
AcDbLine
 10
331.5925874625107
 20
248.9590594792566
 30
0.0
 11
334.7930794625107
 21
248.9590594792566
 31
0.0
  0
LINE
  5
899
330
1F
100
AcDbEntity
  8
0
 62
     7
 48
0.091469
100
AcDbLine
 10
197.4879804625107
 20
339.3011314792567
 30
0.0
 11
200.6565444625107
 21
341.1305074792567
 31
0.0
  0
LINE
  5
89A
330
1F
100
AcDbEntity
  8
0
 62
     7
 48
0.168248
100
AcDbLine
 10
199.0825544625106
 20
330.9841444792567
 30
0.0
 11
204.9108164625107
 21
334.3491044792567
 31
0.0
  0
LINE
  5
89B
330
1F
100
AcDbEntity
  8
0
 62
     7
 48
0.091468
100
AcDbLine
 10
209.0171854625107
 20
327.4823134792567
 30
0.0
 11
212.1857344625107
 21
329.3116594792567
 31
0.0
  0
LINE
  5
89C
330
1F
100
AcDbEntity
  8
0
 62
     7
 48
0.091468
100
AcDbLine
 10
209.1768234625106
 20
318.3368674792567
 30
0.0
 11
212.3453714625107
 21
320.1662434792567
 31
0.0
  0
LINE
  5
89D
330
1F
100
AcDbEntity
  8
0
 62
     7
 48
0.091469
100
AcDbLine
 10
209.3364454625107
 20
309.1914204792566
 30
0.0
 11
212.5050094625107
 21
311.0207964792567
 31
0.0
  0
LINE
  5
89E
330
1F
100
AcDbEntity
  8
0
 62
     7
 48
0.091469
100
AcDbLine
 10
209.4960824625107
 20
300.0460044792567
 30
0.0
 11
212.6646464625106
 21
301.8753804792567
 31
0.0
  0
LINE
  5
89F
330
1F
100
AcDbEntity
  8
0
 62
     7
 48
0.091468
100
AcDbLine
 10
209.6557204625106
 20
290.9005574792567
 30
0.0
 11
212.8242684625107
 21
292.7299334792567
 31
0.0
  0
LINE
  5
8A0
330
1F
100
AcDbEntity
  8
0
 62
     7
 48
0.091468
100
AcDbLine
 10
209.8153574625107
 20
281.7551104792567
 30
0.0
 11
212.9839064625107
 21
283.5844864792567
 31
0.0
  0
LINE
  5
8A1
330
1F
100
AcDbEntity
  8
0
 62
     7
 48
0.091468
100
AcDbLine
 10
209.9749954625107
 20
272.6096944792567
 30
0.0
 11
213.1435434625106
 21
274.4390394792566
 31
0.0
  0
LINE
  5
8A2
330
1F
100
AcDbEntity
  8
0
 62
     7
 48
0.091468
100
AcDbLine
 10
210.1346174625107
 20
263.4642474792566
 30
0.0
 11
213.3031814625107
 21
265.2935934792566
 31
0.0
  0
LINE
  5
8A3
330
1F
100
AcDbEntity
  8
0
 62
     7
 48
0.091469
100
AcDbLine
 10
210.2942544625107
 20
254.3188004792567
 30
0.0
 11
213.4628184625106
 21
256.1481764792567
 31
0.0
  0
LINE
  5
8A4
330
1F
100
AcDbEntity
  8
0
 62
     7
 48
0.069144
100
AcDbLine
 10
211.2272534625107
 20
245.6198564792567
 30
0.0
 11
213.6224564625107
 21
247.0027304792567
 31
0.0
  0
LINE
  5
8A5
102
{ACAD_REACTORS
330
125A
102
}
330
1F
100
AcDbEntity
  8
0
 62
     7
 48
0.080008
100
AcDbLine
 10
197.3894084625106
 20
344.9590594792567
 30
0.0
 11
200.5897104625106
 21
344.9590594792567
 31
0.0
  0
LINE
  5
8A6
330
1F
100
AcDbEntity
  8
0
 62
     7
 48
0.167065
100
AcDbLine
 10
197.5288584625106
 20
336.9590594792567
 30
0.0
 11
204.2114754625107
 21
336.9590594792567
 31
0.0
  0
LINE
  5
8A7
330
1F
100
AcDbEntity
  8
0
 62
     7
 48
0.087185
100
AcDbLine
 10
208.7045174625107
 20
328.9590594792567
 30
0.0
 11
212.1918984625107
 21
328.9590594792567
 31
0.0
  0
LINE
  5
8A8
330
1F
100
AcDbEntity
  8
0
 62
     7
 48
0.080012
100
AcDbLine
 10
209.1310464625106
 20
320.9590594792567
 30
0.0
 11
212.3315324625107
 21
320.9590594792567
 31
0.0
  0
LINE
  5
8A9
330
1F
100
AcDbEntity
  8
0
 62
     7
 48
0.080013
100
AcDbLine
 10
209.2706794625107
 20
312.9590594792567
 30
0.0
 11
212.4711804625107
 21
312.9590594792567
 31
0.0
  0
LINE
  5
8AA
330
1F
100
AcDbEntity
  8
0
 62
     7
 48
0.080012
100
AcDbLine
 10
209.4103284625107
 20
304.9590594792566
 30
0.0
 11
212.6108134625107
 21
304.9590594792566
 31
0.0
  0
LINE
  5
8AB
330
1F
100
AcDbEntity
  8
0
 62
     7
 48
0.080012
100
AcDbLine
 10
209.5499764625107
 20
296.9590594792567
 30
0.0
 11
212.7504464625107
 21
296.9590594792567
 31
0.0
  0
LINE
  5
8AC
330
1F
100
AcDbEntity
  8
0
 62
     7
 48
0.080012
100
AcDbLine
 10
209.6896104625107
 20
288.9590594792567
 30
0.0
 11
212.8900954625107
 21
288.9590594792567
 31
0.0
  0
LINE
  5
8AD
330
1F
100
AcDbEntity
  8
0
 62
     7
 48
0.080013
100
AcDbLine
 10
209.8292434625107
 20
280.9590594792567
 30
0.0
 11
213.0297434625107
 21
280.9590594792567
 31
0.0
  0
LINE
  5
8AE
330
1F
100
AcDbEntity
  8
0
 62
     7
 48
0.080012
100
AcDbLine
 10
209.9688914625107
 20
272.9590594792567
 30
0.0
 11
213.1693764625107
 21
272.9590594792567
 31
0.0
  0
LINE
  5
8AF
330
1F
100
AcDbEntity
  8
0
 62
     7
 48
0.080012
100
AcDbLine
 10
210.1085244625107
 20
264.9590594792567
 30
0.0
 11
213.3090104625107
 21
264.9590594792567
 31
0.0
  0
LINE
  5
8B0
330
1F
100
AcDbEntity
  8
0
 62
     7
 48
0.080012
100
AcDbLine
 10
210.2481734625107
 20
256.9590594792567
 30
0.0
 11
213.4486584625107
 21
256.9590594792567
 31
0.0
  0
LINE
  5
8B1
102
{ACAD_REACTORS
330
129C
102
}
330
1F
100
AcDbEntity
  8
0
 62
     7
 48
0.080013
100
AcDbLine
 10
210.3878064625106
 20
248.9590594792566
 30
0.0
 11
213.5883064625107
 21
248.9590594792566
 31
0.0
  0
LINE
  5
8B2
330
1F
100
AcDbEntity
  8
0
 62
     7
 48
0.053033
100
AcDbLine
 10
339.1249284625106
 20
343.4590594792567
 30
0.0
 11
340.6249284625106
 21
344.9590594792567
 31
0.0
  0
LINE
  5
8B3
330
1F
100
AcDbEntity
  8
0
 62
     7
 48
0.053033
100
AcDbLine
 10
336.2153054625107
 20
340.5494524792567
 30
0.0
 11
337.7153214625107
 21
342.0494524792566
 31
0.0
  0
LINE
  5
8B4
330
1F
100
AcDbEntity
  8
0
 62
     7
 48
0.037806
100
AcDbLine
 10
341.6896104625107
 20
343.1953264792567
 30
0.0
 11
342.7589384625107
 21
344.2646324792566
 31
0.0
  0
LINE
  5
8B5
330
1F
100
AcDbEntity
  8
0
 62
     7
 48
0.12445
100
AcDbLine
 10
201.3404434625106
 20
341.4390704792567
 30
0.0
 11
204.8604324625107
 21
344.9590594792567
 31
0.0
  0
LINE
  5
8B6
330
1F
100
AcDbEntity
  8
0
 62
     7
 48
0.048967
100
AcDbLine
 10
206.1888624625107
 20
343.4590594792567
 30
0.0
 11
207.5738724625107
 21
344.8440694792566
 31
0.0
  0
LINE
  5
8B7
330
1F
100
AcDbEntity
  8
0
 62
     7
 48
0.053033
100
AcDbLine
 10
201.3404434625106
 20
338.6106704792567
 30
0.0
 11
202.8404434625107
 21
340.1106704792567
 31
0.0
  0
LINE
  5
8B8
330
1F
100
AcDbEntity
  8
0
 62
     7
 48
0.100762
100
AcDbLine
 10
258.5789834625107
 20
342.1090834792567
 30
0.0
 11
261.4289744625107
 21
344.9590594792567
 31
0.0
  0
LINE
  5
8B9
330
1F
100
AcDbEntity
  8
0
 62
     7
 48
0.053033
100
AcDbLine
 10
271.2426804625106
 20
343.4590594792567
 30
0.0
 11
272.7426804625106
 21
344.9590594792567
 31
0.0
  0
LINE
  5
8BA
330
1F
100
AcDbEntity
  8
0
 62
     7
 48
0.053033
100
AcDbLine
 10
262.7574044625106
 20
343.4590594792567
 30
0.0
 11
264.2574044625106
 21
344.9590594792567
 31
0.0
  0
LINE
  5
8BB
330
1F
100
AcDbEntity
  8
0
 62
     7
 48
0.01137
100
AcDbLine
 10
259.7574044625106
 20
340.4590594792566
 30
0.0
 11
260.0789994625106
 21
340.7806534792567
 31
0.0
  0
LINE
  5
8BC
330
1F
100
AcDbEntity
  8
0
 62
     7
 48
0.033074
100
AcDbLine
 10
274.0711104625106
 20
343.4590594792567
 30
0.0
 11
275.0065964625106
 21
344.3945454792567
 31
0.0
  0
LINE
  5
8BD
330
1F
100
AcDbEntity
  8
0
 62
     7
 48
0.075
100
AcDbLine
 10
271.4159584625107
 20
343.4590594792567
 30
0.0
 11
271.4159584625107
 21
340.4590594792566
 31
0.0
  0
LINE
  5
8BE
330
1F
100
AcDbEntity
  8
0
 62
     7
 48
0.075
100
AcDbLine
 10
266.2609904625107
 20
343.4590594792567
 30
0.0
 11
266.2609904625107
 21
340.4590594792566
 31
0.0
  0
LINE
  5
8BF
330
1F
100
AcDbEntity
  8
0
 62
     7
 48
0.075
100
AcDbLine
 10
260.0790294625107
 20
343.4590594792567
 30
0.0
 11
260.0790294625107
 21
340.4590594792566
 31
0.0
  0
LINE
  5
8C0
330
1F
100
AcDbEntity
  8
0
 62
     7
 48
0.075
100
AcDbLine
 10
207.4055984625107
 20
343.4590594792567
 30
0.0
 11
207.4055984625107
 21
340.4590594792566
 31
0.0
  0
LINE
  5
8C1
330
1F
100
AcDbEntity
  8
0
 62
     7
 48
0.075
100
AcDbLine
 10
337.7153514625107
 20
343.4590594792567
 30
0.0
 11
337.7153514625107
 21
340.4590594792566
 31
0.0
  0
LINE
  5
8C2
330
1F
100
AcDbEntity
  8
0
 62
     7
 48
0.075
100
AcDbLine
 10
274.1142464625107
 20
343.4590594792567
 30
0.0
 11
274.1142464625107
 21
340.4590594792566
 31
0.0
  0
LINE
  5
8C3
330
1F
100
AcDbEntity
  8
0
 62
     7
 48
0.0875
100
AcDbLine
 10
201.3404434625106
 20
338.4590594792566
 30
0.0
 11
201.3404434625106
 21
341.9590594792567
 31
0.0
  0
LINE
  5
8C4
330
1F
100
AcDbEntity
  8
0
 62
     7
 48
0.0875
100
AcDbLine
 10
343.8404434625107
 20
338.4590594792566
 30
0.0
 11
343.8404434625107
 21
341.9590594792567
 31
0.0
  0
LINE
  5
8C5
330
1F
100
AcDbEntity
  8
0
 62
     7
 48
0.0625
100
AcDbLine
 10
258.5789834625107
 20
340.4590594792566
 30
0.0
 11
258.5789834625107
 21
342.9590594792567
 31
0.0
  0
LINE
  5
8C6
330
1F
100
AcDbEntity
  8
0
 62
     7
 48
0.0625
100
AcDbLine
 10
254.8581894625107
 20
340.4590594792566
 30
0.0
 11
254.8581894625107
 21
342.9590594792567
 31
0.0
  0
LINE
  5
8C7
330
1F
100
AcDbEntity
  8
0
 62
     7
 48
0.0625
100
AcDbLine
 10
212.6264234625107
 20
340.4590594792566
 30
0.0
 11
212.6264234625107
 21
342.9590594792567
 31
0.0
  0
LINE
  5
8C8
330
1F
100
AcDbEntity
  8
0
 62
     7
 48
0.0625
100
AcDbLine
 10
208.9056434625106
 20
340.4590594792566
 30
0.0
 11
208.9056434625106
 21
342.9590594792567
 31
0.0
  0
LINE
  5
8C9
330
1F
100
AcDbEntity
  8
0
 62
     7
 48
0.0375
100
AcDbLine
 10
343.8404434625107
 20
338.4590594792566
 30
0.0
 11
342.3404434625107
 21
338.4590594792566
 31
0.0
  0
LINE
  5
8CA
330
1F
100
AcDbEntity
  8
0
 62
     7
 48
0.0375
100
AcDbLine
 10
202.8404434625107
 20
338.4590594792566
 30
0.0
 11
201.3404434625106
 21
338.4590594792566
 31
0.0
  0
LINE
  5
8CB
330
1F
100
AcDbEntity
  8
0
 62
     7
 48
0.0625
100
AcDbLine
 10
336.2153054625107
 20
340.4590594792566
 30
0.0
 11
336.2153054625107
 21
342.9590594792567
 31
0.0
  0
LINE
  5
8CC
330
1F
100
AcDbEntity
  8
0
 62
     7
 48
0.0625
100
AcDbLine
 10
332.7001234625106
 20
340.4590594792566
 30
0.0
 11
332.7001234625106
 21
342.9590594792567
 31
0.0
  0
LINE
  5
8CD
330
1F
100
AcDbEntity
  8
0
 62
     7
 48
0.0625
100
AcDbLine
 10
279.1294754625107
 20
340.4590594792566
 30
0.0
 11
279.1294754625107
 21
342.9590594792567
 31
0.0
  0
LINE
  5
8CE
330
1F
100
AcDbEntity
  8
0
 62
     7
 48
0.0625
100
AcDbLine
 10
275.6142924625107
 20
340.4590594792566
 30
0.0
 11
275.6142924625107
 21
342.9590594792567
 31
0.0
  0
ARC
  5
8CF
330
1F
100
AcDbEntity
  8
0
 62
     7
100
AcDbCircle
 10
260.5789994625106
 20
342.9590594792567
 30
0.0
 40
2.000013999999999
100
AcDbArc
 50
89.9998859999996
 51
179.9995819999996
  0
LINE
  5
8D0
330
1F
100
AcDbEntity
  8
0
 62
     7
 48
0.093021
100
AcDbLine
 10
258.5790294625107
 20
342.9590594792567
 30
0.0
 11
254.8581894625107
 21
342.9590594792567
 31
0.0
  0
LINE
  5
8D1
330
1F
100
AcDbEntity
  8
0
 62
     7
100
AcDbLine
 10
254.8581894625107
 20
342.9590594792567
 30
0.0
 11
212.6264234625107
 21
342.9590594792567
 31
0.0
  0
LINE
  5
8D2
330
1F
100
AcDbEntity
  8
0
 62
     7
 48
0.05
100
AcDbLine
 10
254.8581894625107
 20
342.9590594792567
 30
0.0
 11
254.8581894625107
 21
344.9590594792567
 31
0.0
  0
ARC
  5
8D3
330
1F
100
AcDbEntity
  8
0
 62
     7
100
AcDbCircle
 10
206.9056284625107
 20
342.9590594792567
 30
0.0
 40
2.000013
100
AcDbArc
 50
0.0003970000002244
 51
90.00012499999956
  0
LINE
  5
8D4
330
1F
100
AcDbEntity
  8
0
 62
     7
 48
0.05
100
AcDbLine
 10
212.6264234625107
 20
342.9590594792567
 30
0.0
 11
212.6264234625107
 21
344.9590594792567
 31
0.0
  0
LINE
  5
8D5
330
1F
100
AcDbEntity
  8
0
 62
     7
 48
0.093021
100
AcDbLine
 10
212.6264234625107
 20
342.9590594792567
 30
0.0
 11
208.9055984625106
 21
342.9590594792567
 31
0.0
  0
ARC
  5
8D6
330
1F
100
AcDbEntity
  8
0
 62
     7
100
AcDbCircle
 10
204.3404434625106
 20
341.9590594792567
 30
0.0
 40
3.0
100
AcDbArc
 50
90.0000029999993
 51
180.0000050000005
  0
ARC
  5
8D7
330
1F
100
AcDbEntity
  8
0
 62
     7
100
AcDbCircle
 10
340.8404434625107
 20
341.9590594792567
 30
0.0
 40
3.0
100
AcDbArc
 50
0.000009999999378
 51
89.99999200000019
  0
ARC
  5
8D8
330
1F
100
AcDbEntity
  8
0
 62
     7
100
AcDbCircle
 10
338.2153134625107
 20
342.9590594792567
 30
0.0
 40
2.000011
100
AcDbArc
 50
89.99980400000014
 51
179.9996360000005
  0
LINE
  5
8D9
330
1F
100
AcDbEntity
  8
0
 62
     7
 48
0.087881
100
AcDbLine
 10
336.2153514625107
 20
342.9590594792567
 30
0.0
 11
332.7001234625106
 21
342.9590594792567
 31
0.0
  0
LINE
  5
8DA
330
1F
100
AcDbEntity
  8
0
 62
     7
100
AcDbLine
 10
332.7001234625106
 20
342.9590594792567
 30
0.0
 11
279.1294754625107
 21
342.9590594792567
 31
0.0
  0
LINE
  5
8DB
330
1F
100
AcDbEntity
  8
0
 62
     7
 48
0.05
100
AcDbLine
 10
332.7001234625106
 20
342.9590594792567
 30
0.0
 11
332.7001234625106
 21
344.9590594792567
 31
0.0
  0
ARC
  5
8DC
330
1F
100
AcDbEntity
  8
0
 62
     7
100
AcDbCircle
 10
273.6142924625107
 20
342.9590594792567
 30
0.0
 40
2.000011
100
AcDbArc
 50
0.0003670000004613
 51
90.00020100000034
  0
LINE
  5
8DD
330
1F
100
AcDbEntity
  8
0
 62
     7
 48
0.05
100
AcDbLine
 10
279.1294754625107
 20
342.9590594792567
 30
0.0
 11
279.1294754625107
 21
344.9590594792567
 31
0.0
  0
LINE
  5
8DE
330
1F
100
AcDbEntity
  8
0
 62
     7
 48
0.087881
100
AcDbLine
 10
279.1294754625107
 20
342.9590594792567
 30
0.0
 11
275.6142464625106
 21
342.9590594792567
 31
0.0
  0
LINE
  5
8DF
330
1F
100
AcDbEntity
  8
0
 62
     7
 48
0.0375
100
AcDbLine
 10
260.0789994625106
 20
340.4590594792566
 30
0.0
 11
258.5789834625107
 21
340.4590594792566
 31
0.0
  0
LINE
  5
8E0
330
1F
100
AcDbEntity
  8
0
 62
     7
 48
0.093021
100
AcDbLine
 10
258.5790294625107
 20
340.4590594792566
 30
0.0
 11
254.8581894625107
 21
340.4590594792566
 31
0.0
  0
LINE
  5
8E1
330
1F
100
AcDbEntity
  8
0
 62
     7
100
AcDbLine
 10
254.8581894625107
 20
340.4590594792566
 30
0.0
 11
212.6264234625107
 21
340.4590594792566
 31
0.0
  0
LINE
  5
8E2
330
1F
100
AcDbEntity
  8
0
 62
     7
 48
0.093021
100
AcDbLine
 10
212.6264234625107
 20
340.4590594792566
 30
0.0
 11
208.9055984625106
 21
340.4590594792566
 31
0.0
  0
LINE
  5
8E3
330
1F
100
AcDbEntity
  8
0
 62
     7
 48
0.0375
100
AcDbLine
 10
208.9056434625106
 20
340.4590594792566
 30
0.0
 11
207.4056284625107
 21
340.4590594792566
 31
0.0
  0
LINE
  5
8E4
330
1F
100
AcDbEntity
  8
0
 62
     7
 48
0.0875
100
AcDbLine
 10
202.8404434625107
 20
338.4590594792566
 30
0.0
 11
202.8404434625107
 21
341.9590594792567
 31
0.0
  0
LINE
  5
8E5
330
1F
100
AcDbEntity
  8
0
 62
     7
 48
0.08954
100
AcDbLine
 10
202.8404434625107
 20
338.4590594792566
 30
0.0
 11
206.4220474625107
 21
338.4590594792566
 31
0.0
  0
LINE
  5
8E6
330
1F
100
AcDbEntity
  8
0
 62
     7
100
AcDbLine
 10
328.3583184625107
 20
338.4590594792566
 30
0.0
 11
216.8213844625107
 21
338.4590594792566
 31
0.0
  0
LINE
  5
8E7
330
1F
100
AcDbEntity
  8
0
 62
     7
 48
0.089539
100
AcDbLine
 10
338.7588544625107
 20
338.4590594792566
 30
0.0
 11
342.3404054625107
 21
338.4590594792566
 31
0.0
  0
LINE
  5
8E8
330
1F
100
AcDbEntity
  8
0
 62
     7
 48
0.0875
100
AcDbLine
 10
342.3404434625107
 20
338.4590594792566
 30
0.0
 11
342.3404434625107
 21
341.9590594792567
 31
0.0
  0
LINE
  5
8E9
330
1F
100
AcDbEntity
  8
0
 62
     7
 48
0.0375
100
AcDbLine
 10
337.7153214625107
 20
340.4590594792566
 30
0.0
 11
336.2153054625107
 21
340.4590594792566
 31
0.0
  0
LINE
  5
8EA
330
1F
100
AcDbEntity
  8
0
 62
     7
 48
0.087881
100
AcDbLine
 10
336.2153514625107
 20
340.4590594792566
 30
0.0
 11
332.7001234625106
 21
340.4590594792566
 31
0.0
  0
LINE
  5
8EB
330
1F
100
AcDbEntity
  8
0
 62
     7
100
AcDbLine
 10
332.7001234625106
 20
340.4590594792566
 30
0.0
 11
279.1294754625107
 21
340.4590594792566
 31
0.0
  0
LINE
  5
8EC
330
1F
100
AcDbEntity
  8
0
 62
     7
 48
0.087881
100
AcDbLine
 10
279.1294754625107
 20
340.4590594792566
 30
0.0
 11
275.6142464625106
 21
340.4590594792566
 31
0.0
  0
LINE
  5
8ED
330
1F
100
AcDbEntity
  8
0
 62
     7
 48
0.0375
100
AcDbLine
 10
275.6142924625107
 20
340.4590594792566
 30
0.0
 11
274.1142774625107
 21
340.4590594792566
 31
0.0
  0
LINE
  5
8EE
330
1F
100
AcDbEntity
  8
0
 62
     7
 48
0.325882
100
AcDbLine
 10
273.6142774625107
 20
344.9590594792567
 30
0.0
 11
260.5789994625106
 21
344.9590594792567
 31
0.0
  0
LINE
  5
8EF
330
1F
100
AcDbEntity
  8
0
 62
     7
 48
0.143021
100
AcDbLine
 10
260.5790294625107
 20
344.9590594792567
 30
0.0
 11
254.8581894625107
 21
344.9590594792567
 31
0.0
  0
LINE
  5
8F0
330
1F
100
AcDbEntity
  8
0
 62
     7
100
AcDbLine
 10
254.8581894625107
 20
344.9590594792567
 30
0.0
 11
212.6264234625107
 21
344.9590594792567
 31
0.0
  0
LINE
  5
8F1
330
1F
100
AcDbEntity
  8
0
 62
     7
 48
0.143021
100
AcDbLine
 10
212.6264234625107
 20
344.9590594792567
 30
0.0
 11
206.9055984625106
 21
344.9590594792567
 31
0.0
  0
LINE
  5
8F2
330
1F
100
AcDbEntity
  8
0
 62
     7
 48
0.06413
100
AcDbLine
 10
206.9056284625107
 20
344.9590594792567
 30
0.0
 11
204.3404434625106
 21
344.9590594792567
 31
0.0
  0
LINE
  5
8F3
330
1F
100
AcDbEntity
  8
0
 62
     7
 48
0.065628
100
AcDbLine
 10
340.8404434625107
 20
344.9590594792567
 30
0.0
 11
338.2153214625107
 21
344.9590594792567
 31
0.0
  0
LINE
  5
8F4
330
1F
100
AcDbEntity
  8
0
 62
     7
 48
0.137881
100
AcDbLine
 10
338.2153514625107
 20
344.9590594792567
 30
0.0
 11
332.7001234625106
 21
344.9590594792567
 31
0.0
  0
LINE
  5
8F5
330
1F
100
AcDbEntity
  8
0
 62
     7
100
AcDbLine
 10
332.7001234625106
 20
344.9590594792567
 30
0.0
 11
279.1294754625107
 21
344.9590594792567
 31
0.0
  0
LINE
  5
8F6
330
1F
100
AcDbEntity
  8
0
 62
     7
 48
0.137881
100
AcDbLine
 10
279.1294754625107
 20
344.9590594792567
 30
0.0
 11
273.6142464625107
 21
344.9590594792567
 31
0.0
  0
LINE
  5
8F7
330
1F
100
AcDbEntity
  8
0
 62
     7
 48
0.067457
100
AcDbLine
 10
271.4159744625107
 20
340.4590594792566
 30
0.0
 11
274.1142464625107
 21
340.4590594792566
 31
0.0
  0
LINE
  5
8F8
330
1F
100
AcDbEntity
  8
0
 62
     7
 48
0.102388
100
AcDbLine
 10
266.2609904625107
 20
340.4590594792566
 30
0.0
 11
270.3565254625106
 21
340.4590594792566
 31
0.0
  0
LINE
  5
8F9
330
1F
100
AcDbEntity
  8
0
 62
     7
 48
0.026468
100
AcDbLine
 10
270.3565254625106
 20
340.4590594792566
 30
0.0
 11
271.4152564625107
 21
340.4590594792566
 31
0.0
  0
LINE
  5
8FA
330
1F
100
AcDbEntity
  8
0
 62
     7
 48
0.075
100
AcDbLine
 10
270.3565254625106
 20
340.4590594792566
 30
0.0
 11
270.3565254625106
 21
343.4590594792567
 31
0.0
  0
LINE
  5
8FB
330
1F
100
AcDbEntity
  8
0
 62
     7
 48
0.154597
100
AcDbLine
 10
266.2603954625107
 20
340.4590594792566
 30
0.0
 11
260.0764964625107
 21
340.4590594792566
 31
0.0
  0
LINE
  5
8FC
330
1F
100
AcDbEntity
  8
0
 62
     7
 48
0.075
100
AcDbLine
 10
260.0789994625106
 20
340.4590594792566
 30
0.0
 11
260.0789994625106
 21
343.4590594792567
 31
0.0
  0
LINE
  5
8FD
330
1F
100
AcDbEntity
  8
0
 62
     7
 48
0.075
100
AcDbLine
 10
207.4056284625107
 20
343.4590594792567
 30
0.0
 11
207.4056284625107
 21
340.4590594792566
 31
0.0
  0
ARC
  5
8FE
330
1F
100
AcDbEntity
  8
0
 62
     7
100
AcDbCircle
 10
204.3404434625106
 20
341.9590594792567
 30
0.0
 40
1.5
100
AcDbArc
 50
90.0000029999993
 51
180.0000050000005
  0
LINE
  5
8FF
330
1F
100
AcDbEntity
  8
0
 62
     7
 48
0.114129
100
AcDbLine
 10
207.4055984625107
 20
341.9590594792567
 30
0.0
 11
202.8404434625107
 21
341.9590594792567
 31
0.0
  0
LINE
  5
900
330
1F
100
AcDbEntity
  8
0
 62
     7
 48
0.115626
100
AcDbLine
 10
342.3404054625107
 20
341.9590594792567
 30
0.0
 11
337.7153514625107
 21
341.9590594792567
 31
0.0
  0
ARC
  5
901
330
1F
100
AcDbEntity
  8
0
 62
     7
100
AcDbCircle
 10
340.8404434625107
 20
341.9590594792567
 30
0.0
 40
1.5
100
AcDbArc
 50
0.000009999999378
 51
89.99999200000019
  0
LINE
  5
902
330
1F
100
AcDbEntity
  8
0
 62
     7
 48
0.075
100
AcDbLine
 10
337.7153214625107
 20
340.4590594792566
 30
0.0
 11
337.7153214625107
 21
343.4590594792567
 31
0.0
  0
LINE
  5
903
330
1F
100
AcDbEntity
  8
0
 62
     7
 48
0.075
100
AcDbLine
 10
274.1142774625107
 20
343.4590594792567
 30
0.0
 11
274.1142774625107
 21
340.4590594792566
 31
0.0
  0
LINE
  5
904
330
1F
100
AcDbEntity
  8
0
 62
     7
 48
0.350882
100
AcDbLine
 10
274.1142774625107
 20
343.4590594792567
 30
0.0
 11
260.0789994625106
 21
343.4590594792567
 31
0.0
  0
LINE
  5
905
330
1F
100
AcDbEntity
  8
0
 62
     7
 48
0.07663
100
AcDbLine
 10
207.4056284625107
 20
343.4590594792567
 30
0.0
 11
204.3404434625106
 21
343.4590594792567
 31
0.0
  0
LINE
  5
906
330
1F
100
AcDbEntity
  8
0
 62
     7
 48
0.078128
100
AcDbLine
 10
340.8404434625107
 20
343.4590594792567
 30
0.0
 11
337.7153214625107
 21
343.4590594792567
 31
0.0
  0
ARC
  5
ADB
330
1F
100
AcDbEntity
  8
0
 62
     7
100
AcDbCircle
 10
218.0328864625107
 20
334.4589374792566
 30
0.0
 40
0.999892
100
AcDbArc
 50
183.0211239999999
 51
269.8306499999993
  0
ARC
  5
ADC
330
1F
100
AcDbEntity
  8
0
 62
     7
100
AcDbCircle
 10
327.1480904625107
 20
334.4588764792567
 30
0.0
 40
0.9998059999999997
100
AcDbArc
 50
269.9970470000005
 51
356.9827040000003
  0
LINE
  5
ADD
330
1F
100
AcDbEntity
  8
0
 62
     7
 48
0.139666
100
AcDbLine
 10
328.4388774625107
 20
339.9852434792567
 30
0.0
 11
328.1464884625107
 21
334.4062644792566
 31
0.0
  0
LINE
  5
ADE
330
1F
100
AcDbEntity
  8
0
 62
     7
 48
0.038207
100
AcDbLine
 10
338.6789054625107
 20
339.9852434792567
 30
0.0
 11
338.7588924625107
 21
338.4590594792566
 31
0.0
  0
ARC
  5
ADF
330
1F
100
AcDbEntity
  8
0
 62
     7
100
AcDbCircle
 10
328.9382064625107
 20
339.9590594792567
 30
0.0
 40
0.5000230000000001
100
AcDbArc
 50
96.88998999999988
 51
176.997754
  0
ARC
  5
AE0
330
1F
100
AcDbEntity
  8
0
 62
     7
100
AcDbCircle
 10
338.1795774625107
 20
339.9590594792567
 30
0.0
 40
0.500019
100
AcDbArc
 50
3.002045999999728
 51
89.99795299999936
  0
ARC
  5
AE1
330
1F
100
AcDbEntity
  8
0
 62
     7
100
AcDbCircle
 10
338.6689194625106
 20
327.7590474792567
 30
0.0
 40
2.499999
100
AcDbArc
 50
89.99999599999926
 51
179.0000110000003
  0
ARC
  5
AE2
330
1F
100
AcDbEntity
  8
0
 62
     7
100
AcDbCircle
 10
206.5119824625107
 20
327.7590474792567
 30
0.0
 40
2.499999
100
AcDbArc
 50
0.9999900000003382
 51
90.0000029999993
  0
LINE
  5
AE3
330
1F
100
AcDbEntity
  8
0
 62
     7
 48
0.130754
100
AcDbLine
 10
343.8990974625107
 20
330.2590474792566
 30
0.0
 11
338.6689194625106
 21
330.2590474792566
 31
0.0
  0
LINE
  5
AE4
330
1F
100
AcDbEntity
  8
0
 62
     7
 48
0.130755
100
AcDbLine
 10
206.5119824625107
 20
330.2590474792566
 30
0.0
 11
201.2817884625107
 21
330.2590474792566
 31
0.0
  0
LINE
  5
AE5
102
{ACAD_REACTORS
330
129C
102
}
330
1F
100
AcDbEntity
  8
0
 62
     7
100
AcDbLine
 10
334.7581674625106
 20
246.9588154792567
 30
0.0
 11
336.1693004625106
 21
327.8026874792566
 31
0.0
  0
LINE
  5
AE6
102
{ACAD_REACTORS
330
129C
102
}
330
1F
100
AcDbEntity
  8
0
 62
     7
100
AcDbLine
 10
210.4227184625107
 20
246.9588154792567
 30
0.0
 11
209.0115854625107
 21
327.8026874792566
 31
0.0
  0
ARC
  5
AE7
330
1F
100
AcDbEntity
  8
0
 62
     7
100
AcDbCircle
 10
201.2817884625107
 20
333.9590594792567
 30
0.0
 40
3.7
100
AcDbArc
 50
180.9999989999995
 51
270.0000009999998
  0
ARC
  5
AE8
330
1F
100
AcDbEntity
  8
0
 62
     7
100
AcDbCircle
 10
343.8990974625107
 20
333.9590594792567
 30
0.0
 40
3.7
100
AcDbArc
 50
270.0000009999998
 51
358.9999880000004
  0
LINE
  5
AE9
330
1F
100
AcDbEntity
  8
0
 62
     7
 48
0.043742
100
AcDbLine
 10
211.3238724625107
 20
245.4590594792567
 30
0.0
 11
210.4227184625107
 21
246.9588154792567
 31
0.0
  0
LINE
  5
AEA
330
1F
100
AcDbEntity
  8
0
 62
     7
 48
0.043742
100
AcDbLine
 10
333.8570064625106
 20
245.4590594792567
 30
0.0
 11
334.7581674625106
 21
246.9588154792567
 31
0.0
  0
LINE
  5
AEB
330
1F
100
AcDbEntity
  8
0
 62
     7
 48
0.276438
100
AcDbLine
 10
197.3893784625106
 20
344.9503314792567
 30
0.0
 11
197.5823554625106
 21
333.8944844792568
 31
0.0
  0
LINE
  5
AEC
330
1F
100
AcDbEntity
  8
0
 62
     7
 48
0.276438
100
AcDbLine
 10
347.7915154625107
 20
344.9503314792567
 30
0.0
 11
347.5985304625107
 21
333.8944844792568
 31
0.0
  0
LINE
  5
AED
330
1F
100
AcDbEntity
  8
0
 62
     7
 48
0.058138
100
AcDbLine
 10
333.8570064625106
 20
245.4590594792567
 30
0.0
 11
331.5314984625107
 21
245.4590594792567
 31
0.0
  0
LINE
  5
AEE
330
1F
100
AcDbEntity
  8
0
 62
     7
 48
0.058138
100
AcDbLine
 10
213.6493874625107
 20
245.4590594792567
 30
0.0
 11
211.3238724625107
 21
245.4590594792567
 31
0.0
  0
ARC
  5
AEF
330
1F
100
AcDbEntity
  8
0
 62
     7
100
AcDbCircle
 10
211.6220284625107
 20
332.9571674792567
 30
0.0
 40
0.5
100
AcDbArc
 50
1.000000000000133
 51
84.99999700000037
  0
ELLIPSE
  5
AF0
330
1F
100
AcDbEntity
  8
0
 62
     7
100
AcDbEllipse
 10
227.3517954625106
 20
331.5809464792567
 30
0.0
 11
-0.0435791015625
 21
-0.4980926513671877
 31
0.0
210
0.0
220
0.0
230
1.0
 40
0.7403330000000002
 41
1.652959465980529
 42
3.141591787338256
  0
ARC
  5
AF1
330
1F
100
AcDbEntity
  8
0
 62
     7
100
AcDbCircle
 10
197.8893014625106
 20
344.9590594792567
 30
0.0
 40
0.5
100
AcDbArc
 50
90.0000029999993
 51
180.9999989999995
  0
ARC
  5
AF2
102
{ACAD_REACTORS
330
125A
102
}
330
1F
100
AcDbEntity
  8
0
 62
     7
100
AcDbCircle
 10
347.2915924625107
 20
344.9590594792567
 30
0.0
 40
0.5
100
AcDbArc
 50
358.9999880000004
 51
89.99999200000019
  0
LINE
  5
AF3
330
1F
100
AcDbEntity
  8
0
 62
     7
100
AcDbLine
 10
331.5314984625107
 20
245.4590594792567
 30
0.0
 11
333.0589334625107
 21
332.9658644792567
 31
0.0
  0
LINE
  5
AF7
330
1F
100
AcDbEntity
  8
0
 62
     7
100
AcDbLine
 10
213.6493874625107
 20
245.4590594792567
 30
0.0
 11
212.1219524625107
 21
332.9658954792567
 31
0.0
  0
LINE
  5
AF8
330
1F
100
AcDbEntity
  8
0
 62
     7
 48
0.391538
100
AcDbLine
 10
212.1219524625107
 20
332.9658954792567
 30
0.0
 11
227.7228894625107
 21
331.5896744792567
 31
0.0
  0
ELLIPSE
  5
AF9
330
1F
100
AcDbEntity
  8
0
 62
     7
100
AcDbEllipse
 10
258.2675974625107
 20
379.0154554792567
 30
0.0
 11
-40.21783447265625
 21
-43.47019958496092
 31
0.0
210
0.0
220
0.0
230
0.9999999999999998
 40
0.477128
 41
0.3536858856678009
 42
0.4777230024337771
  0
ELLIPSE
  5
AFA
330
1F
100
AcDbEntity
  8
0
 62
     7
100
AcDbEllipse
 10
272.5912364625107
 20
327.6399984792567
 30
0.0
 11
60.37619781494139
 21
-0.0000762939453125
 31
0.0
210
0.0
220
0.0
230
1.0
 40
0.088212
 41
1.570809483528137
 42
2.30614423751831
  0
ELLIPSE
  5
AFB
330
1F
100
AcDbEntity
  8
0
 62
     7
100
AcDbEllipse
 10
231.7531624625107
 20
331.5809774792567
 30
0.0
 11
0.0394439697265625
 21
-0.498443603515625
 31
0.0
210
0.0
220
0.0
230
1.0
 40
0.669682
 41
1.535330891609191
 42
3.023963451385498
  0
ARC
  5
AFC
330
1F
100
AcDbEntity
  8
0
 62
     7
100
AcDbCircle
 10
205.9166154625107
 20
334.4590594792567
 30
0.0
 40
1.000000999999999
100
AcDbArc
 50
195.0000739999999
 51
269.9999429999998
  0
ELLIPSE
  5
AFD
330
1F
100
AcDbEntity
  8
0
 62
     7
100
AcDbEllipse
 10
272.5904884625107
 20
328.1293174792566
 30
0.0
 11
60.87545776367188
 21
-0.0000152587890625
 31
0.0
210
0.0
220
0.0
230
1.0
 40
0.087489
 41
1.570797085762023
 42
2.306129217147826
  0
ELLIPSE
  5
AFE
330
1F
100
AcDbEntity
  8
0
 62
     7
100
AcDbEllipse
 10
257.9450114625107
 20
378.6687764792567
 30
0.0
 11
-40.30809020996094
 21
-42.55691528320313
 31
0.0
210
0.0
220
0.0
230
1.0
 40
0.4758790000000002
 41
0.3612158894538879
 42
0.4857101738452911
  0
LINE
  5
AFF
330
1F
100
AcDbEntity
  8
0
 62
     7
 48
0.351093
100
AcDbLine
 10
217.7628974625107
 20
333.3030534792567
 30
0.0
 11
231.7531624625107
 21
332.0790544792567
 31
0.0
  0
LINE
  5
B00
330
1F
100
AcDbEntity
  8
0
 62
     7
 48
0.394746
100
AcDbLine
 10
211.6656074625107
 20
333.4552444792567
 30
0.0
 11
227.3953744625107
 21
332.0790544792567
 31
0.0
  0
ARC
  5
B01
330
1F
100
AcDbEntity
  8
0
 62
     7
100
AcDbCircle
 10
211.5783274625107
 20
332.4590594792567
 30
0.0
 40
1.0
100
AcDbArc
 50
84.99999700000037
 51
90.0000029999993
  0
LINE
  5
B02
330
1F
100
AcDbEntity
  8
0
 62
     7
 48
0.141543
100
AcDbLine
 10
211.5783274625107
 20
333.4590594792567
 30
0.0
 11
205.9166154625107
 21
333.4590594792567
 31
0.0
  0
ELLIPSE
  5
B03
330
1F
100
AcDbEntity
  8
0
 62
     7
100
AcDbEllipse
 10
208.5875134625107
 20
334.4590594792567
 30
0.0
 11
0.0
 21
1.0
 31
0.0
210
0.0
220
0.0
230
1.0
 40
0.9949049999999999
 41
1.832595705986022
 42
3.141592741012571
  0
LINE
  5
B04
330
1F
100
AcDbEntity
  8
0
 62
     7
 48
0.055009
100
AcDbLine
 10
347.2915924625107
 20
345.4590594792567
 30
0.0
 11
345.0912514625107
 21
345.4590594792567
 31
0.0
  0
LINE
  5
B05
330
1F
100
AcDbEntity
  8
0
 62
     7
 48
0.055008
100
AcDbLine
 10
200.0896344625107
 20
345.4590594792567
 30
0.0
 11
197.8893014625106
 21
345.4590594792567
 31
0.0
  0
LINE
  5
B06
330
1F
100
AcDbEntity
  8
0
 62
     7
 48
0.391538
100
AcDbLine
 10
317.4579964625106
 20
331.5896744792567
 30
0.0
 11
333.0589334625107
 21
332.9658644792567
 31
0.0
  0
ARC
  5
B07
330
1F
100
AcDbEntity
  8
0
 62
     7
100
AcDbCircle
 10
333.5588574625107
 20
332.9571674792567
 30
0.0
 40
0.5
100
AcDbArc
 50
95.00000200000021
 51
178.9999969999995
  0
ELLIPSE
  5
B08
330
1F
100
AcDbEntity
  8
0
 62
     7
100
AcDbEllipse
 10
286.9086424625107
 20
379.0206434792566
 30
0.0
 11
40.22224426269529
 21
-43.47549438476561
 31
0.0
210
0.0
220
0.0
230
1.0
 40
0.477095
 41
5.805496215820312
 42
5.929526329040527
  0
ELLIPSE
  5
B09
330
1F
100
AcDbEntity
  8
0
 62
     7
100
AcDbEllipse
 10
317.8290904625107
 20
331.5809774792567
 30
0.0
 11
0.0435791015625
 21
-0.4980926513671877
 31
0.0
210
0.0
220
0.0
230
1.0
 40
0.7403330000000002
 41
3.141592741012571
 42
4.630225181579588
  0
ELLIPSE
  5
B0A
330
1F
100
AcDbEntity
  8
0
 62
     7
100
AcDbEllipse
 10
272.5895424625106
 20
327.6399674792567
 30
0.0
 11
60.37640380859374
 21
0.0000762939453125
 31
0.0
210
0.0
220
0.0
230
1.0
 40
0.088212
 41
0.8354488015174863
 42
1.570781230926512
  0
ELLIPSE
  5
B0B
330
1F
100
AcDbEntity
  8
0
 62
     7
100
AcDbEllipse
 10
313.4277384625107
 20
331.5809464792567
 30
0.0
 11
-0.0394439697265625
 21
-0.498443603515625
 31
0.0
210
0.0
220
0.0
230
1.0
 40
0.669682
 41
3.259222269058227
 42
4.747854709625244
  0
LINE
  5
B0C
330
1F
100
AcDbEntity
  8
0
 62
     7
100
AcDbLine
 10
272.5904434625106
 20
333.4552754792567
 30
0.0
 11
218.0320634625107
 21
333.4552754792567
 31
0.0
  0
ELLIPSE
  5
B0D
330
1F
100
AcDbEntity
  8
0
 62
     7
100
AcDbEllipse
 10
219.6624794625107
 20
334.4590594792567
 30
0.0
 11
0.0
 21
-1.0
 31
0.0
210
0.0
220
0.0
230
1.0
 40
0.094797
 41
4.974188327789306
 42
6.283185482025146
  0
LINE
  5
B0E
330
1F
100
AcDbEntity
  8
0
 62
     7
 48
0.091043
100
AcDbLine
 10
204.9507034625106
 20
334.2002394792566
 30
0.0
 11
204.0081374625107
 21
337.7178794792567
 31
0.0
  0
LINE
  5
B0F
330
1F
100
AcDbEntity
  8
0
 62
     7
 48
0.066895
100
AcDbLine
 10
207.6264994625107
 20
334.2002394792566
 30
0.0
 11
204.9507034625106
 21
334.2002394792566
 31
0.0
  0
LINE
  5
B10
330
1F
100
AcDbEntity
  8
0
 62
     7
 48
0.000092
100
AcDbLine
 10
218.0320634625107
 20
333.4552754792567
 30
0.0
 11
218.0330244625107
 21
333.4588154792566
 31
0.0
  0
ELLIPSE
  5
B11
330
1F
100
AcDbEntity
  8
0
 62
     7
100
AcDbEllipse
 10
211.6224564625107
 20
333.4641254792567
 30
0.0
 11
6.410400390625
 21
0.0
 31
0.0
210
0.0
220
0.0
230
1.0
 40
0.087493
 41
5.991930007934567
 42
6.267389774322508
  0
ARC
  5
B12
330
1F
100
AcDbEntity
  8
0
 62
     7
100
AcDbCircle
 10
218.0318034625107
 20
334.4554584792567
 30
0.0
 40
1.000002999999998
100
AcDbArc
 50
183.2319590000008
 51
270.0153860000004
  0
LWPOLYLINE
  5
B13
330
1F
100
AcDbEntity
  8
0
 62
     7
100
AcDbPolyline
 90
        6
 70
     0
 43
0.0
 10
213.4051094625107
 20
333.3030534792567
 10
214.8587844625107
 20
333.1981644792567
 10
215.5869184625107
 20
333.1682884792567
 10
216.3156014625107
 20
333.1618484792567
 10
216.8011974625107
 20
333.1766804792567
 10
217.7628974625107
 20
333.3030534792567
  0
ELLIPSE
  5
B14
330
1F
100
AcDbEntity
  8
0
 62
     7
100
AcDbEllipse
 10
217.7628974625107
 20
334.2992694792567
 30
0.0
 11
0.2801666259765625
 21
-0.9599456787109375
 31
0.0
210
0.0
220
0.0
230
0.9999999999999998
 40
0.954542
 41
4.493231773376463
 42
5.986455917358397
  0
ELLIPSE
  5
B15
330
1F
100
AcDbEntity
  8
0
 62
     7
100
AcDbEllipse
 10
213.4922524625107
 20
334.2992694792567
 30
0.0
 11
-0.087158203125
 21
-0.9962005615234376
 31
0.0
210
0.0
220
0.0
230
1.0
 40
0.286139
 41
4.789961338043212
 42
6.283185482025146
  0
LWPOLYLINE
  5
B16
330
1F
100
AcDbEntity
  8
0
 62
     7
100
AcDbPolyline
 90
        4
 70
     0
 43
0.0
 10
211.7323044625107
 20
334.3991224792568
 10
211.6933784625107
 20
333.9274124792567
 10
211.6815384625107
 20
333.7700944792567
 10
211.6654854625107
 20
333.4552754792567
  0
ELLIPSE
  5
B17
330
1F
100
AcDbEntity
  8
0
 62
     7
100
AcDbEllipse
 10
211.5783274625107
 20
334.4590594792567
 30
0.0
 11
0.0
 21
1.0
 31
0.0
210
0.0
220
0.0
230
1.0
 40
0.00681
 41
3.141592741012571
 42
4.660028934478758
  0
ELLIPSE
  5
B18
330
1F
100
AcDbEntity
  8
0
 62
     7
100
AcDbEllipse
 10
210.8558244625107
 20
334.4590594792567
 30
0.0
 11
0.0
 21
-1.0
 31
0.0
210
0.0
220
0.0
230
1.0
 40
0.119506
 41
0.0000003726783575
 42
1.518435716629028
  0
LWPOLYLINE
  5
B19
330
1F
100
AcDbEntity
  8
0
 62
     7
100
AcDbPolyline
 90
        5
 70
     0
 43
0.0
 10
207.6264994625107
 20
334.2002394792566
 10
208.3716934625106
 20
334.2154684792566
 10
208.7440384625107
 20
334.2368304792566
 10
209.3022194625107
 20
334.2738784792567
 10
210.9751784625107
 20
334.4067214792567
  0
ARC
  5
B1A
330
1F
100
AcDbEntity
  8
0
 62
     7
100
AcDbCircle
 10
1350.021961462511
 20
631.7144304792566
 30
0.0
 40
1180.500732
100
AcDbArc
 50
194.4209419999991
 51
194.5972979999997
  0
LINE
  5
B1B
330
1F
100
AcDbEntity
  8
0
 62
     7
 48
0.01011
100
AcDbLine
 10
207.0013014625107
 20
340.4590594792566
 30
0.0
 11
207.4056894625107
 21
340.4590594792566
 31
0.0
  0
LINE
  5
B1C
330
1F
100
AcDbEntity
  8
0
 62
     7
 48
0.000029
100
AcDbLine
 10
218.0317124625107
 20
333.4590594792567
 30
0.0
 11
218.0328564625106
 21
333.4590594792567
 31
0.0
  0
ARC
  5
B1D
330
1F
100
AcDbEntity
  8
0
 62
     7
100
AcDbCircle
 10
207.0013014625107
 20
339.9590594792567
 30
0.0
 40
0.5
100
AcDbArc
 50
90.0000029999993
 51
176.9999950000006
  0
ARC
  5
B1E
330
1F
100
AcDbEntity
  8
0
 62
     7
100
AcDbCircle
 10
216.2426954625106
 20
339.9590594792567
 30
0.0
 40
0.5
100
AcDbArc
 50
3.000000000000716
 51
83.1818210000001
  0
LWPOLYLINE
  5
B1F
330
1F
100
AcDbEntity
  8
0
 62
     7
100
AcDbPolyline
 90
        3
 70
     0
 43
0.0
 10
217.0479624625107
 20
334.2843764792566
 10
218.3071484625107
 20
334.1934344792567
 10
219.5709114625107
 20
334.2002394792566
  0
ARC
  5
B20
330
1F
100
AcDbEntity
  8
0
 62
     7
100
AcDbCircle
 10
345.0912514625107
 20
344.9590594792567
 30
0.0
 40
0.5
100
AcDbArc
 50
90.0000029999993
 51
178.9999969999995
  0
LINE
  5
B21
330
1F
100
AcDbEntity
  8
0
 62
     7
 48
0.024996
100
AcDbLine
 10
344.0914044625107
 20
345.4590594792567
 30
0.0
 11
345.0912514625107
 21
345.4590594792567
 31
0.0
  0
LINE
  5
B22
330
1F
100
AcDbEntity
  8
0
 62
     7
100
AcDbLine
 10
201.0894814625106
 20
345.4590594792567
 30
0.0
 11
344.0914044625107
 21
345.4590594792567
 31
0.0
  0
LINE
  5
B23
330
1F
100
AcDbEntity
  8
0
 62
     7
 48
0.012282
100
AcDbLine
 10
344.0914044625107
 20
344.9677874792567
 30
0.0
 11
344.0914044625107
 21
345.4590594792567
 31
0.0
  0
LINE
  5
B24
330
1F
100
AcDbEntity
  8
0
 62
     7
 48
0.024996
100
AcDbLine
 10
200.0896344625107
 20
345.4590594792567
 30
0.0
 11
201.0894814625106
 21
345.4590594792567
 31
0.0
  0
LINE
  5
B25
330
1F
100
AcDbEntity
  8
0
 62
     7
 48
0.012282
100
AcDbLine
 10
201.0894814625106
 20
344.9677874792567
 30
0.0
 11
201.0894814625106
 21
345.4590594792567
 31
0.0
  0
ARC
  5
B26
330
1F
100
AcDbEntity
  8
0
 62
     7
100
AcDbCircle
 10
200.0896344625107
 20
344.9590594792567
 30
0.0
 40
0.5
100
AcDbArc
 50
1.000000000000133
 51
90.0000029999993
  0
ARC
  5
B27
330
1F
100
AcDbEntity
  8
0
 62
     7
100
AcDbCircle
 10
339.2642714625107
 20
334.4590594792567
 30
0.0
 40
1.000000999999999
100
AcDbArc
 50
270.0000519999997
 51
344.9999229999999
  0
LINE
  5
B28
330
1F
100
AcDbEntity
  8
0
 62
     7
 48
0.394746
100
AcDbLine
 10
317.7855114625107
 20
332.0790544792567
 30
0.0
 11
333.5152784625107
 21
333.4552444792567
 31
0.0
  0
ELLIPSE
  5
B29
330
1F
100
AcDbEntity
  8
0
 62
     7
100
AcDbEllipse
 10
287.2383314625107
 20
378.6648094792567
 30
0.0
 11
40.30574035644529
 21
-42.5528564453125
 31
0.0
210
0.0
220
0.0
230
0.9999999999999998
 40
0.4758930000000002
 41
5.797447681427002
 42
5.921947002410887
  0
ELLIPSE
  5
B2A
330
1F
100
AcDbEntity
  8
0
 62
     7
100
AcDbEllipse
 10
272.5903974625107
 20
328.1293174792566
 30
0.0
 11
60.87545776367188
 21
0.0
 31
0.0
210
0.0
220
0.0
230
1.0
 40
0.087489
 41
0.8354635238647459
 42
1.570795655250549
  0
LINE
  5
B2B
330
1F
100
AcDbEntity
  8
0
 62
     7
 48
0.351093
100
AcDbLine
 10
327.4180034625107
 20
333.3030534792567
 30
0.0
 11
313.4277234625107
 21
332.0790544792567
 31
0.0
  0
LINE
  5
B2C
330
1F
100
AcDbEntity
  8
0
 62
     7
100
AcDbLine
 10
272.5904434625106
 20
333.4552754792567
 30
0.0
 11
327.1488234625107
 21
333.4552754792567
 31
0.0
  0
LINE
  5
B2D
330
1F
100
AcDbEntity
  8
0
 62
     7
100
AcDbLine
 10
272.5904434625106
 20
333.4590594792567
 30
0.0
 11
327.1480374625107
 21
333.4590594792567
 31
0.0
  0
LINE
  5
B2E
330
1F
100
AcDbEntity
  8
0
 62
     7
100
AcDbLine
 10
272.5904434625106
 20
333.4590594792567
 30
0.0
 11
218.0328564625106
 21
333.4590594792567
 31
0.0
  0
ELLIPSE
  5
B2F
330
1F
100
AcDbEntity
  8
0
 62
     7
100
AcDbEllipse
 10
325.5184064625106
 20
334.4590594792567
 30
0.0
 11
0.0
 21
1.0
 31
0.0
210
0.0
220
0.0
230
1.0
 40
0.094796
 41
3.141592741012571
 42
4.450589656829833
  0
LINE
  5
B30
330
1F
100
AcDbEntity
  8
0
 62
     7
100
AcDbLine
 10
325.6099744625107
 20
334.2002394792566
 30
0.0
 11
219.5709114625107
 21
334.2002394792566
 31
0.0
  0
ARC
  5
B31
330
1F
100
AcDbEntity
  8
0
 62
     7
100
AcDbCircle
 10
113.4695934625106
 20
323.0194844792567
 30
0.0
 40
106.688721
100
AcDbArc
 50
6.015508000000401
 51
7.918759999999733
  0
LINE
  5
B32
330
1F
100
AcDbEntity
  8
0
 62
     7
 48
0.141543
100
AcDbLine
 10
339.2642714625107
 20
333.4590594792567
 30
0.0
 11
333.6025504625106
 21
333.4590594792567
 31
0.0
  0
ARC
  5
B33
330
1F
100
AcDbEntity
  8
0
 62
     7
100
AcDbCircle
 10
333.6025504625106
 20
332.4590594792567
 30
0.0
 40
1.0
100
AcDbArc
 50
90.0000029999993
 51
95.00000200000021
  0
ARC
  5
B34
330
1F
100
AcDbEntity
  8
0
 62
     7
100
AcDbCircle
 10
203.0422254625107
 20
337.4590594792567
 30
0.0
 40
1.000000999999999
100
AcDbArc
 50
15.00005499999986
 51
89.99992099999984
  0
LINE
  5
B35
330
1F
100
AcDbEntity
  8
0
 62
     7
 48
0.067701
100
AcDbLine
 10
204.0081374625107
 20
337.7178794792567
 30
0.0
 11
206.7161904625107
 21
337.7178794792567
 31
0.0
  0
LWPOLYLINE
  5
B36
330
1F
100
AcDbEntity
  8
0
 62
     7
100
AcDbPolyline
 90
        6
 70
     0
 43
0.0
 10
206.7161904625107
 20
337.7178794792567
 10
207.2726024625107
 20
337.7266984792567
 10
207.5510754625107
 20
337.7163834792567
 10
207.9685254625107
 20
337.6957844792566
 10
208.5943344625107
 20
337.6576674792567
 10
210.4695014625107
 20
337.5113974792566
  0
ELLIPSE
  5
B37
330
1F
100
AcDbEntity
  8
0
 62
     7
100
AcDbEllipse
 10
205.7552384625107
 20
337.4590594792567
 30
0.0
 11
0.0
 21
1.0
 31
0.0
210
0.0
220
0.0
230
1.0
 40
0.9948529999999999
 41
4.974188327789306
 42
6.283185482025146
  0
LINE
  5
B38
330
1F
100
AcDbEntity
  8
0
 62
     7
 48
0.256001
100
AcDbLine
 10
206.5019724625107
 20
339.9852434792567
 30
0.0
 11
216.7420234625107
 21
339.9852434792567
 31
0.0
  0
LWPOLYLINE
  5
B39
330
1F
100
AcDbEntity
  8
0
 62
     7
100
AcDbPolyline
 90
        6
 70
     0
 43
0.0
 10
208.5711254625107
 20
338.4590594792566
 10
209.0394174625107
 20
338.3714434792566
 10
209.2611584625107
 20
338.2818744792567
 10
209.5788314625107
 20
338.1152484792567
 10
209.8828474625106
 20
337.9246964792567
 10
210.4694864625107
 20
337.5113974792566
  0
ARC
  5
B3A
330
1F
100
AcDbEntity
  8
0
 62
     7
100
AcDbCircle
 10
781.7409864625107
 20
428.9673604792565
 30
0.0
 40
578.5458369999998
100
AcDbArc
 50
189.0954159999995
 51
189.406928
  0
LINE
  5
B3B
330
1F
100
AcDbEntity
  8
0
 62
     7
 48
0.015249
100
AcDbLine
 10
211.5851334625107
 20
334.4067214792567
 30
0.0
 11
210.9751784625107
 21
334.4067214792567
 31
0.0
  0
ARC
  5
B3C
330
1F
100
AcDbEntity
  8
0
 62
     7
100
AcDbCircle
 10
211.5850564625107
 20
332.9790794792567
 30
0.0
 40
1.427640999999999
100
AcDbArc
 50
84.08024299999924
 51
89.9967920000005
  0
LINE
  5
B3D
330
1F
100
AcDbEntity
  8
0
 62
     7
 48
0.036922
100
AcDbLine
 10
211.7323044625107
 20
334.3991224792568
 30
0.0
 11
213.2013134625107
 21
334.2469014792567
 31
0.0
  0
LWPOLYLINE
  5
B3E
330
1F
100
AcDbEntity
  8
0
 62
     7
100
AcDbPolyline
 90
        6
 70
     0
 43
0.0
 10
213.2013134625107
 20
334.2469014792567
 10
214.4047584625107
 20
334.1438434792566
 10
215.0079844625107
 20
334.1142104792567
 10
215.6118514625107
 20
334.1074664792566
 10
216.0142104625107
 20
334.1218404792567
 10
216.8075754625107
 20
334.2469014792567
  0
ELLIPSE
  5
B3F
330
1F
100
AcDbEntity
  8
0
 62
     7
100
AcDbEllipse
 10
211.6154374625107
 20
334.4084914792567
 30
0.0
 11
5.4188232421875
 21
-0.001007080078125
 31
0.0
210
0.0
220
0.0
230
0.9999999999999998
 40
0.10357
 41
5.992946624755858
 42
6.268264293670653
  0
LINE
  5
B40
330
1F
100
AcDbEntity
  8
0
 62
     7
 48
0.00018
100
AcDbLine
 10
217.0336494625107
 20
334.3991224792568
 30
0.0
 11
217.0343974625107
 21
334.4062644792566
 31
0.0
  0
LINE
  5
B41
330
1F
100
AcDbEntity
  8
0
 62
     7
 48
0.038207
100
AcDbLine
 10
206.5019724625107
 20
339.9852434792567
 30
0.0
 11
206.4220014625107
 21
338.4590594792566
 31
0.0
  0
LINE
  5
B42
330
1F
100
AcDbEntity
  8
0
 62
     7
 48
0.038207
100
AcDbLine
 10
216.7420234625107
 20
339.9852434792567
 30
0.0
 11
216.8219954625107
 21
338.4590594792566
 31
0.0
  0
LINE
  5
B43
330
1F
100
AcDbEntity
  8
0
 62
     7
 48
0.101459
100
AcDbLine
 10
216.8219954625107
 20
338.4590594792566
 30
0.0
 11
217.0343974625107
 21
334.4062644792566
 31
0.0
  0
LWPOLYLINE
  5
B44
330
1F
100
AcDbEntity
  8
0
 62
     7
100
AcDbPolyline
 90
        3
 70
     0
 43
0.0
 10
219.1409034625106
 20
337.7178794792567
 10
218.0010264625107
 20
337.7388754792567
 10
216.8622174625107
 20
337.6948994792567
  0
LINE
  5
B45
330
1F
100
AcDbEntity
  8
0
 62
     7
100
AcDbLine
 10
219.1409034625106
 20
337.7178794792567
 30
0.0
 11
326.0399974625106
 21
337.7178794792567
 31
0.0
  0
ELLIPSE
  5
B46
330
1F
100
AcDbEntity
  8
0
 62
     7
100
AcDbEllipse
 10
219.0487564625107
 20
337.4590594792567
 30
0.0
 11
0.0
 21
-1.0
 31
0.0
210
0.0
220
0.0
230
1.0
 40
0.095404
 41
1.832595705986022
 42
3.141592741012571
  0
LINE
  5
B47
330
1F
100
AcDbEntity
  8
0
 62
     7
 48
0.162743
100
AcDbLine
 10
344.5913284625107
 20
344.9677874792567
 30
0.0
 11
344.4777184625106
 21
338.4590594792566
 31
0.0
  0
LINE
  5
B48
330
1F
100
AcDbEntity
  8
0
 62
     7
 48
0.01249
100
AcDbLine
 10
344.5910074625107
 20
344.9680924792567
 30
0.0
 11
344.0914044625107
 21
344.9677874792567
 31
0.0
  0
LINE
  5
B49
330
1F
100
AcDbEntity
  8
0
 62
     7
100
AcDbLine
 10
201.0894814625106
 20
344.9677874792567
 30
0.0
 11
344.0914044625107
 21
344.9677874792567
 31
0.0
  0
LINE
  5
B4A
330
1F
100
AcDbEntity
  8
0
 62
     7
 48
0.162743
100
AcDbLine
 10
343.9777954625107
 20
338.4590594792566
 30
0.0
 11
344.0914044625107
 21
344.9677874792567
 31
0.0
  0
LINE
  5
B4B
330
1F
100
AcDbEntity
  8
0
 62
     7
 48
0.162743
100
AcDbLine
 10
201.2030834625107
 20
338.4590594792566
 30
0.0
 11
201.0894814625106
 21
344.9677874792567
 31
0.0
  0
LWPOLYLINE
  5
B4C
330
1F
100
AcDbEntity
  8
0
 62
     7
100
AcDbPolyline
 90
        3
 70
     0
 43
0.0
 10
201.0894814625106
 20
344.9677874792567
 10
200.8394054625107
 20
344.9709614792566
 10
200.5895584625107
 20
344.9677874792567
  0
LINE
  5
B4D
330
1F
100
AcDbEntity
  8
0
 62
     7
 48
0.162743
100
AcDbLine
 10
200.5895584625107
 20
344.9677874792567
 30
0.0
 11
200.7031754625107
 21
338.4590594792566
 31
0.0
  0
ARC
  5
B4E
330
1F
100
AcDbEntity
  8
0
 62
     7
100
AcDbCircle
 10
342.1386684625107
 20
337.4590594792567
 30
0.0
 40
1.000000999999999
100
AcDbArc
 50
90.00007800000036
 51
164.9999400000002
  0
ELLIPSE
  5
B4F
330
1F
100
AcDbEntity
  8
0
 62
     7
100
AcDbEllipse
 10
336.5933804625107
 20
334.4590594792567
 30
0.0
 11
0.0
 21
1.0
 31
0.0
210
0.0
220
0.0
230
1.0
 40
0.9949049999999999
 41
3.141592741012571
 42
4.450589656829833
  0
LINE
  5
B50
330
1F
100
AcDbEntity
  8
0
 62
     7
 48
0.091043
100
AcDbLine
 10
340.2301984625107
 20
334.2002394792566
 30
0.0
 11
341.1727414625107
 21
337.7178794792567
 31
0.0
  0
LINE
  5
B51
330
1F
100
AcDbEntity
  8
0
 62
     7
 48
0.067701
100
AcDbLine
 10
338.4646954625107
 20
337.7178794792567
 30
0.0
 11
341.1727414625107
 21
337.7178794792567
 31
0.0
  0
LINE
  5
B52
330
1F
100
AcDbEntity
  8
0
 62
     7
 48
0.066895
100
AcDbLine
 10
340.2301984625107
 20
334.2002394792566
 30
0.0
 11
337.5543864625107
 21
334.2002394792566
 31
0.0
  0
LWPOLYLINE
  5
B53
330
1F
100
AcDbEntity
  8
0
 62
     7
100
AcDbPolyline
 90
        4
 70
     0
 43
0.0
 10
333.4485894625107
 20
334.3991224792568
 10
333.4875074625107
 20
333.9274124792567
 10
333.4993634625107
 20
333.7700944792567
 10
333.5154004625107
 20
333.4552754792567
  0
LWPOLYLINE
  5
B54
330
1F
100
AcDbEntity
  8
0
 62
     7
100
AcDbPolyline
 90
        6
 70
     0
 43
0.0
 10
327.4180034625107
 20
333.3030534792567
 10
328.3797044625107
 20
333.1766804792567
 10
328.8652924625107
 20
333.1618184792566
 10
329.5939834625106
 20
333.1682884792567
 10
330.3221174625107
 20
333.1981644792567
 10
331.7757914625107
 20
333.3030534792567
  0
ELLIPSE
  5
B55
330
1F
100
AcDbEntity
  8
0
 62
     7
100
AcDbEllipse
 10
331.6886334625106
 20
334.2992694792567
 30
0.0
 11
0.087158203125
 21
-0.9962005615234376
 31
0.0
210
0.0
220
0.0
230
1.0
 40
0.286139
 41
0.0000000849955057
 42
1.493224143981932
  0
ELLIPSE
  5
B56
330
1F
100
AcDbEntity
  8
0
 62
     7
100
AcDbEllipse
 10
333.5586744625107
 20
333.4641254792567
 30
0.0
 11
6.41064453125
 21
0.0
 31
0.0
210
0.0
220
0.0
230
1.0
 40
0.087491
 41
3.157387733459471
 42
3.432842254638671
  0
ELLIPSE
  5
B57
330
1F
100
AcDbEntity
  8
0
 62
     7
100
AcDbEllipse
 10
327.4180034625107
 20
334.2992694792567
 30
0.0
 11
-0.2801666259765625
 21
-0.9599456787109375
 31
0.0
210
0.0
220
0.0
230
0.9999999999999998
 40
0.954542
 41
0.2967304289340973
 42
1.789954543113707
  0
LINE
  5
B58
330
1F
100
AcDbEntity
  8
0
 62
     7
 48
0.000097
100
AcDbLine
 10
327.1488234625107
 20
333.4552754792567
 30
0.0
 11
327.1480374625107
 21
333.4590594792567
 31
0.0
  0
ARC
  5
B59
330
1F
100
AcDbEntity
  8
0
 62
     7
100
AcDbCircle
 10
327.1490904625107
 20
334.4554584792567
 30
0.0
 40
1.000002999999998
100
AcDbArc
 50
269.9846160000009
 51
356.7680379999996
  0
ELLIPSE
  5
B5A
330
1F
100
AcDbEntity
  8
0
 62
     7
100
AcDbEllipse
 10
327.1480374625107
 20
334.4590594792567
 30
0.0
 11
0.0
 21
-1.0
 31
0.0
210
0.0
220
0.0
230
1.0
 40
0.9999769999999999
 41
0.0000000000000069
 42
0.0020201012957841
  0
LWPOLYLINE
  5
B5B
330
1F
100
AcDbEntity
  8
0
 62
     7
100
AcDbPolyline
 90
        3
 70
     0
 43
0.0
 10
325.6099744625107
 20
334.2002394792566
 10
326.8735244625107
 20
334.1934344792567
 10
328.1325114625107
 20
334.2842854792567
  0
ARC
  5
B5C
330
1F
100
AcDbEntity
  8
0
 62
     7
100
AcDbCircle
 10
431.6965374625105
 20
323.0202774792567
 30
0.0
 40
106.673973
100
AcDbArc
 50
172.0805649999995
 51
173.9840840000003
  0
LWPOLYLINE
  5
B5D
330
1F
100
AcDbEntity
  8
0
 62
     7
100
AcDbPolyline
 90
        3
 70
     0
 43
0.0
 10
326.0399974625106
 20
337.7178794792567
 10
327.1798744625107
 20
337.7388754792567
 10
328.3186844625106
 20
337.6948994792567
  0
ELLIPSE
  5
B5E
330
1F
100
AcDbEntity
  8
0
 62
     7
100
AcDbEllipse
 10
326.1321534625107
 20
337.4590594792567
 30
0.0
 11
0.0
 21
1.0
 31
0.0
210
0.0
220
0.0
230
1.0
 40
0.095405
 41
6.283185482025146
 42
7.592182159423827
  0
ELLIPSE
  5
B5F
330
1F
100
AcDbEntity
  8
0
 62
     7
100
AcDbEllipse
 10
334.3250624625107
 20
334.4590594792567
 30
0.0
 11
0.0
 21
1.0
 31
0.0
210
0.0
220
0.0
230
1.0
 40
0.119509
 41
1.623156189918518
 42
3.141592741012571
  0
ARC
  5
B60
330
1F
100
AcDbEntity
  8
0
 62
     7
100
AcDbCircle
 10
372.7280084625107
 20
334.1433244792566
 30
0.0
 40
39.132286
100
AcDbArc
 50
179.6143320000002
 51
181.0019249999999
  0
LINE
  5
B61
330
1F
100
AcDbEntity
  8
0
 62
     7
 48
0.058476
100
AcDbLine
 10
203.0422254625107
 20
338.4590594792566
 30
0.0
 11
200.7031754625107
 21
338.4590594792566
 31
0.0
  0
LINE
  5
B62
330
1F
100
AcDbEntity
  8
0
 62
     7
 48
0.067825
100
AcDbLine
 10
203.0422254625107
 20
338.4590594792566
 30
0.0
 11
205.7552384625107
 21
338.4590594792566
 31
0.0
  0
LINE
  5
B63
330
1F
100
AcDbEntity
  8
0
 62
     7
 48
0.070397
100
AcDbLine
 10
205.7552384625107
 20
338.4590594792566
 30
0.0
 11
208.5711254625107
 21
338.4590594792566
 31
0.0
  0
LINE
  5
B64
330
1F
100
AcDbEntity
  8
0
 62
     7
 48
0.055669
100
AcDbLine
 10
216.8219804625107
 20
338.4590594792566
 30
0.0
 11
219.0487564625107
 21
338.4590594792566
 31
0.0
  0
LINE
  5
B65
330
1F
100
AcDbEntity
  8
0
 62
     7
100
AcDbLine
 10
219.0487564625107
 20
338.4590594792566
 30
0.0
 11
326.1321534625107
 21
338.4590594792566
 31
0.0
  0
LINE
  5
B66
330
1F
100
AcDbEntity
  8
0
 62
     7
 48
0.055677
100
AcDbLine
 10
326.1321534625107
 20
338.4590594792566
 30
0.0
 11
328.3592264625107
 21
338.4590594792566
 31
0.0
  0
LINE
  5
B67
330
1F
100
AcDbEntity
  8
0
 62
     7
 48
0.067826
100
AcDbLine
 10
339.4256484625107
 20
338.4590594792566
 30
0.0
 11
342.1386684625107
 21
338.4590594792566
 31
0.0
  0
LINE
  5
B68
330
1F
100
AcDbEntity
  8
0
 62
     7
 48
0.058476
100
AcDbLine
 10
344.4777184625106
 20
338.4590594792566
 30
0.0
 11
342.1386684625107
 21
338.4590594792566
 31
0.0
  0
LINE
  5
B69
330
1F
100
AcDbEntity
  8
0
 62
     7
 48
0.070397
100
AcDbLine
 10
336.6097534625106
 20
338.4590594792566
 30
0.0
 11
339.4256484625107
 21
338.4590594792566
 31
0.0
  0
ARC
  5
B6A
330
1F
100
AcDbEntity
  8
0
 62
     7
100
AcDbCircle
 10
339.4276084625106
 20
337.4635764792566
 30
0.0
 40
0.9956939999999999
100
AcDbArc
 50
90.11251599999985
 51
165.2061980000008
  0
LWPOLYLINE
  5
B6B
330
1F
100
AcDbEntity
  8
0
 62
     7
100
AcDbPolyline
 90
        5
 70
     0
 43
0.0
 10
334.2057154625107
 20
334.4067214792567
 10
335.8786664625107
 20
334.2738784792567
 10
336.4368554625106
 20
334.2368304792566
 10
336.8091854625106
 20
334.2154684792566
 10
337.5543864625107
 20
334.2002394792566
  0
ARC
  5
B6C
330
1F
100
AcDbEntity
  8
0
 62
     7
100
AcDbCircle
 10
-805.0156355374893
 20
631.7604514792566
 30
0.0
 40
1180.681274
100
AcDbArc
 50
345.4026750000001
 51
345.5790019999998
  0
LWPOLYLINE
  5
B6D
330
1F
100
AcDbEntity
  8
0
 62
     7
100
AcDbPolyline
 90
        6
 70
     0
 43
0.0
 10
338.4646954625107
 20
337.7178794792567
 10
337.9082764625107
 20
337.7266984792567
 10
337.6298184625107
 20
337.7163834792567
 10
337.2123534625107
 20
337.6957844792566
 10
336.5865524625107
 20
337.6576674792567
 10
334.7113914625107
 20
337.5113974792566
  0
LINE
  5
B6E
330
1F
100
AcDbEntity
  8
0
 62
     7
 48
0.00018
100
AcDbLine
 10
328.1472434625107
 20
334.3991224792568
 30
0.0
 11
328.1464884625107
 21
334.4062644792566
 31
0.0
  0
ELLIPSE
  5
B6F
330
1F
100
AcDbEntity
  8
0
 62
     7
100
AcDbEllipse
 10
333.5651284625106
 20
334.4084614792567
 30
0.0
 11
5.418502807617188
 21
0.0009918212890625
 31
0.0
210
0.0
220
0.0
230
1.0
 40
0.103572
 41
3.156514167785643
 42
3.431840181350708
  0
LWPOLYLINE
  5
B70
330
1F
100
AcDbEntity
  8
0
 62
     7
100
AcDbPolyline
 90
        6
 70
     0
 43
0.0
 10
328.3733104625107
 20
334.2469014792567
 10
329.1666764625107
 20
334.1218404792567
 10
329.5690354625107
 20
334.1074664792566
 10
330.1729164625107
 20
334.1142104792567
 10
330.7761274625107
 20
334.1438434792566
 10
331.9795804625107
 20
334.2469014792567
  0
LINE
  5
B71
330
1F
100
AcDbEntity
  8
0
 62
     7
 48
0.036922
100
AcDbLine
 10
331.9795724625107
 20
334.2469014792567
 30
0.0
 11
333.4485894625107
 21
334.3991224792568
 31
0.0
  0
ARC
  5
B72
330
1F
100
AcDbEntity
  8
0
 62
     7
100
AcDbCircle
 10
333.5958824625107
 20
332.9782554792567
 30
0.0
 40
1.428468
100
AcDbArc
 50
91.48384700000001
 51
95.91834800000015
  0
ARC
  5
B73
330
1F
100
AcDbEntity
  8
0
 62
     7
100
AcDbCircle
 10
-236.0347395374893
 20
428.8807204792567
 30
0.0
 40
578.0134279999998
100
AcDbArc
 50
350.5930270000002
 51
350.9048349999992
  0
LWPOLYLINE
  5
B74
330
1F
100
AcDbEntity
  8
0
 62
     7
100
AcDbPolyline
 90
        6
 70
     0
 43
0.0
 10
336.6097534625106
 20
338.4590594792566
 10
336.1414604625107
 20
338.3714434792566
 10
335.9197124625107
 20
338.2818744792567
 10
335.6020554625107
 20
338.1152484792567
 10
335.2980314625107
 20
337.9246964792567
 10
334.7113914625107
 20
337.5113974792566
  0
LINE
  5
B75
330
1F
100
AcDbEntity
  8
0
 62
     7
 48
0.000922
100
AcDbLine
 10
333.5588874625107
 20
334.4062644792566
 30
0.0
 11
333.5957534625107
 21
334.4067214792567
 31
0.0
  0
LINE
  5
B76
330
1F
100
AcDbEntity
  8
0
 62
     7
 48
0.015249
100
AcDbLine
 10
334.2057234625106
 20
334.4067214792567
 30
0.0
 11
333.5957534625107
 21
334.4067214792567
 31
0.0
  0
LINE
  5
B77
330
1F
100
AcDbEntity
  8
0
 62
     7
 48
0.128
100
AcDbLine
 10
328.4388774625107
 20
339.9852434792567
 30
0.0
 11
333.5588874625107
 21
339.9852434792567
 31
0.0
  0
LINE
  5
B78
330
1F
100
AcDbEntity
  8
0
 62
     7
 48
0.128
100
AcDbLine
 10
333.5588874625107
 20
339.9852434792567
 30
0.0
 11
338.6789054625107
 21
339.9852434792567
 31
0.0
  0
LINE
  5
B79
330
1F
100
AcDbEntity
  8
0
 62
     7
 48
0.011608
100
AcDbLine
 10
337.7152824625107
 20
340.4590594792566
 30
0.0
 11
338.1795924625107
 21
340.4590594792566
 31
0.0
  0
LINE
  5
F40
330
1F
100
AcDbEntity
  8
0
  6
DASHDOT
 62
     7
 48
0.075015
100
AcDbLine
 10
279.1294754625107
 20
343.2091204792567
 30
0.0
 11
279.1294754625107
 21
340.2085104792566
 31
0.0
  0
LINE
  5
F41
330
1F
100
AcDbEntity
  8
0
  6
DASHDOT
 62
     7
 48
0.075015
100
AcDbLine
 10
332.7001234625106
 20
343.2091204792567
 30
0.0
 11
332.7001234625106
 21
340.2085104792566
 31
0.0
  0
LINE
  5
F42
330
1F
100
AcDbEntity
  8
0
  6
DASHDOT
 62
     7
 48
0.075015
100
AcDbLine
 10
212.6264234625107
 20
343.2091204792567
 30
0.0
 11
212.6264234625107
 21
340.2085104792566
 31
0.0
  0
LINE
  5
F43
330
1F
100
AcDbEntity
  8
0
  6
DASHDOT
 62
     7
 48
0.075015
100
AcDbLine
 10
254.8581894625107
 20
343.2091204792567
 30
0.0
 11
254.8581894625107
 21
340.2085104792566
 31
0.0
  0
LINE
  5
F44
330
1F
100
AcDbEntity
  8
0
  6
DASHDOT
 62
     7
 48
0.090015
100
AcDbLine
 10
270.3565254625106
 20
343.7591084792567
 30
0.0
 11
270.3565254625106
 21
340.1585224792567
 31
0.0
  0
LINE
  5
F46
330
1F
100
AcDbEntity
  8
0
  6
DASHDOT
 62
     4
100
AcDbLine
 10
272.5904434625106
 20
236.7083884792567
 30
0.0
 11
272.5904434625106
 21
341.7165664792567
 31
0.0
  0
LINE
  5
F47
330
1F
100
AcDbEntity
  8
0
  6
DASHDOT
 62
     7
 48
0.10553
100
AcDbLine
 10
272.5904434625106
 20
333.8484634792567
 30
0.0
 11
272.5904434625106
 21
338.0696554792566
 31
0.0
  0
LINE
  5
F48
330
1F
100
AcDbEntity
  8
0
  6
DASHDOT
 62
     7
 48
0.176363
100
AcDbLine
 10
333.5588874625107
 20
340.5731034792566
 30
0.0
 11
333.5588874625107
 21
333.5185684792567
 31
0.0
  0
LINE
  5
F49
330
1F
100
AcDbEntity
  8
0
  6
DASHDOT
 62
     7
 48
0.176363
100
AcDbLine
 10
211.6219984625107
 20
340.5731034792566
 30
0.0
 11
211.6219984625107
 21
333.5185684792567
 31
0.0
  0
LINE
  5
1239
330
1F
100
AcDbEntity
  8
0
100
AcDbLine
 10
213.6493874625107
 20
245.4590594792567
 30
0.0
 11
331.5314984625107
 21
245.4590594792567
 31
0.0
  0
DIMENSION
  5
124C
102
{ACAD_XDICTIONARY
360
1259
102
}
102
{ACAD_REACTORS
330
125A
102
}
330
1F
100
AcDbEntity
  8
AM_5
100
AcDbDimension
  2
*D7
 10
197.3894084625106
 20
375.2822822173466
 30
0.0
 11
272.3405004974172
 21
375.2822822173466
 31
0.0
 70
   160
  1
{\Famgdt;o}150
 71
     5
 42
149.9021840698132
  3
ISO-25$0
100
AcDbAlignedDimension
 13
347.2915925323238
 23
345.4590594792567
 33
0.0
 14
197.3894084625106
 24
344.9590594792567
 34
0.0
 50
0.0000000000000114
100
AcDbRotatedDimension
1001
ACAD
1000
DSTYLE
1002
{
1070
    41
1040
5.0
1070
   140
1040
7.0
1070
   178
1070
     2
1002
}
  0
DIMENSION
  5
128E
102
{ACAD_XDICTIONARY
360
129B
102
}
102
{ACAD_REACTORS
330
129C
102
}
330
1F
100
AcDbEntity
  8
AM_5
100
AcDbDimension
  2
*D8
 10
210.3878041239638
 20
217.7038471105183
 30
0.0
 11
272.5904429625107
 21
217.7038471105183
 31
0.0
 70
   160
  1
%%c125
 71
     5
 42
124.4052776770937
  3
ISO-25$0
100
AcDbAlignedDimension
 13
334.7930818010576
 23
248.9590594792566
 33
0.0
 14
210.3878041239638
 24
248.9590594792566
 34
0.0
 50
0.0000000000001132
100
AcDbRotatedDimension
1001
ACAD
1000
DSTYLE
1002
{
1070
    41
1040
5.0
1070
   140
1040
7.0
1070
   178
1070
     2
1002
}
  0
ENDSEC
  0
SECTION
  2
OBJECTS
  0
DICTIONARY
  5
C
330
0
100
AcDbDictionary
281
     1
  3
ACAD_COLOR
350
6B
  3
ACAD_GROUP
350
D
  3
ACAD_LAYOUT
350
1A
  3
ACAD_MATERIAL
350
6A
  3
ACAD_MLINESTYLE
350
17
  3
ACAD_PLOTSETTINGS
350
19
  3
ACAD_PLOTSTYLENAME
350
E
  3
ACAD_TABLESTYLE
350
100B
  3
ACDBHEADERROUNDTRIPXREC
350
12F5
  3
AcDbVariableDictionary
350
5E
  3
AcmDictionary
350
106D
  3
AMG
350
1011
  3
AMGSNAPSETTINGS
350
10DB
  3
DWGPROPS
350
12F4
  0
DICTIONARY
  5
1259
330
124C
100
AcDbDictionary
280
     1
281
     1
  3
ACAD_DIMASSOC
360
125A
  0
DICTIONARY
  5
129B
330
128E
100
AcDbDictionary
280
     1
281
     1
  3
ACAD_DIMASSOC
360
129C
  0
DICTIONARY
  5
6B
102
{ACAD_REACTORS
330
C
102
}
330
C
100
AcDbDictionary
281
     1
  0
DICTIONARY
  5
D
102
{ACAD_REACTORS
330
C
102
}
330
C
100
AcDbDictionary
281
     1
  0
DICTIONARY
  5
1A
102
{ACAD_REACTORS
330
C
102
}
330
C
100
AcDbDictionary
281
     1
  3
Layout1
350
51
  3
Layout2
350
56
  3
Model
350
22
  0
DICTIONARY
  5
6A
102
{ACAD_REACTORS
330
C
102
}
330
C
100
AcDbDictionary
281
     1
  0
DICTIONARY
  5
17
102
{ACAD_REACTORS
330
C
102
}
330
C
100
AcDbDictionary
281
     1
  3
Standard
350
18
  0
DICTIONARY
  5
19
102
{ACAD_REACTORS
330
C
102
}
330
C
100
AcDbDictionary
281
     1
  0
ACDBDICTIONARYWDFLT
  5
E
102
{ACAD_REACTORS
330
C
102
}
330
C
100
AcDbDictionary
281
     1
  3
Normal
350
F
100
AcDbDictionaryWithDefault
340
F
  0
DICTIONARY
  5
100B
102
{ACAD_REACTORS
330
C
102
}
330
C
100
AcDbDictionary
281
     1
  3
Standard
350
100C
  0
DICTIONARY
  5
12F5
102
{ACAD_REACTORS
330
C
102
}
330
C
100
AcDbDictionary
281
     1
  0
DICTIONARY
  5
5E
102
{ACAD_REACTORS
330
C
102
}
330
C
100
AcDbDictionary
281
     1
  3
CTABLESTYLE
350
10E3
  3
DIMASSOC
350
5F
  3
HIDETEXT
350
63
  3
PROJECTNAME
350
1141
  0
DICTIONARY
  5
106D
102
{ACAD_REACTORS
330
C
102
}
330
C
100
AcDbDictionary
281
     1
  3
AcmStdDictionary
350
1079
  3
AMDTSECTSYM_ARROWCOLOR
350
109C
  0
DICTIONARY
  5
1011
102
{ACAD_REACTORS
330
C
102
}
330
C
100
AcDbDictionary
281
     1
  0
DICTIONARY
  5
10DB
102
{ACAD_REACTORS
330
C
102
}
330
C
100
AcDbDictionary
281
     1
  0
XRECORD
  5
12F4
102
{ACAD_REACTORS
330
C
102
}
330
C
100
AcDbXrecord
280
     1
  1
DWGPROPS COOKIE
  2

  3

  4

  6

  7

  8

  9

300
=
301
=
302
=
303
=
304
=
305
=
306
=
307
=
308
=
309
=
 40
0.028392974537037
 41
2453588.50204059
 42
2454043.826589422
  1

 90
        0
  0
DIMASSOC
  5
125A
102
{ACAD_REACTORS
330
1259
102
}
330
1259
100
AcDbDimAssoc
330
124C
 90
        3
 70
     0
 71
     0
  1
AcDbOsnapPointRef
 72
     1
331
AF2
 73
     0
 91
        0
 40
0.0
 10
0.0
 20
0.0
 30
2.000000000000000E+50
 75
     0
  1
AcDbOsnapPointRef
 72
    13
331
8A5
 73
     0
 91
        0
 40
0.0
 10
0.0
 20
0.0
 30
2.000000000000000E+50
 75
     0
  0
DIMASSOC
  5
129C
102
{ACAD_REACTORS
330
129B
102
}
330
129B
100
AcDbDimAssoc
330
128E
 90
        3
 70
     0
 71
     0
  1
AcDbOsnapPointRef
 72
     6
331
898
 73
     0
 91
        0
 40
1.000000730683561
 10
0.0
 20
0.0
 30
0.0
332
AE5
 74
     0
 92
        0
 75
     0
  1
AcDbOsnapPointRef
 72
     6
331
8B1
 73
     0
 91
        0
 40
0.0
 10
0.0
 20
0.0
 30
0.0
332
AE6
 74
     0
 92
        0
 75
     0
  0
LAYOUT
  5
51
102
{ACAD_XDICTIONARY
360
12F8
102
}
102
{ACAD_REACTORS
330
1A
102
}
330
1A
100
AcDbPlotSettings
  1

  2
None
  4

  6

 40
0.0
 41
0.0
 42
0.0
 43
0.0
 44
0.0
 45
0.0
 46
0.0
 47
0.0
 48
0.0
 49
0.0
140
0.0
141
0.0
142
1.0
143
1.0
 70
   688
 72
     0
 73
     0
 74
     5
  7

 75
    16
147
1.0
148
0.0
149
0.0
100
AcDbLayout
  1
Layout1
 70
     1
 71
     1
 10
0.0
 20
0.0
 11
12.0
 21
9.0
 12
0.0
 22
0.0
 32
0.0
 14
0.0
 24
0.0
 34
0.0
 15
0.0
 25
0.0
 35
0.0
146
0.0
 13
0.0
 23
0.0
 33
0.0
 16
1.0
 26
0.0
 36
0.0
 17
0.0
 27
1.0
 37
0.0
 76
     0
330
50
  0
LAYOUT
  5
56
102
{ACAD_XDICTIONARY
360
12FA
102
}
102
{ACAD_REACTORS
330
1A
102
}
330
1A
100
AcDbPlotSettings
  1

  2
None
  4

  6

 40
0.0
 41
0.0
 42
0.0
 43
0.0
 44
0.0
 45
0.0
 46
0.0
 47
0.0
 48
0.0
 49
0.0
140
0.0
141
0.0
142
1.0
143
1.0
 70
   688
 72
     0
 73
     0
 74
     5
  7

 75
    16
147
1.0
148
0.0
149
0.0
100
AcDbLayout
  1
Layout2
 70
     1
 71
     2
 10
0.0
 20
0.0
 11
12.0
 21
9.0
 12
0.0
 22
0.0
 32
0.0
 14
0.0
 24
0.0
 34
0.0
 15
0.0
 25
0.0
 35
0.0
146
0.0
 13
0.0
 23
0.0
 33
0.0
 16
1.0
 26
0.0
 36
0.0
 17
0.0
 27
1.0
 37
0.0
 76
     0
330
55
  0
LAYOUT
  5
22
102
{ACAD_XDICTIONARY
360
12F6
102
}
102
{ACAD_REACTORS
330
1A
102
}
330
1A
100
AcDbPlotSettings
  1

  2
none_device
  4
ANSI_A_(8.50_x_11.00_Inches)
  6

 40
6.349999904632567
 41
19.04999923706055
 42
6.350006103515625
 43
19.04998779296875
 44
215.8999938964844
 45
279.3999938964844
 46
0.0
 47
0.0
 48
0.0
 49
0.0
140
0.0
141
0.0
142
1.0
143
78.436453180766
 70
 11952
 72
     0
 73
     1
 74
     0
  7

 75
     0
147
0.0127491741332998
148
0.0
149
0.0
100
AcDbLayout
  1
Model
 70
     1
 71
     0
 10
0.0
 20
0.0
 11
12.0
 21
9.0
 12
0.0
 22
0.0
 32
0.0
 14
0.0
 24
0.0
 34
0.0
 15
0.0
 25
0.0
 35
0.0
146
0.0
 13
0.0
 23
0.0
 33
0.0
 16
1.0
 26
0.0
 36
0.0
 17
0.0
 27
1.0
 37
0.0
 76
     0
330
1F
  0
MLINESTYLE
  5
18
102
{ACAD_REACTORS
330
17
102
}
330
17
100
AcDbMlineStyle
  2
STANDARD
 70
     0
  3

 62
   256
 51
90.0
 52
90.0
 71
     2
 49
0.5
 62
   256
  6
BYLAYER
 49
-0.5
 62
   256
  6
BYLAYER
  0
ACDBPLACEHOLDER
  5
F
102
{ACAD_REACTORS
330
E
102
}
330
E
  0
TABLESTYLE
  5
100C
102
{ACAD_REACTORS
330
100B
102
}
330
100B
100
AcDbTableStyle
  3
Standard
 70
     0
 71
     0
 40
1.5
 41
1.5
280
     0
281
     0
  7
Standard
140
4.5
170
     2
 62
     0
 63
     7
283
     0
274
    -2
284
     1
 64
     0
275
    -2
285
     1
 65
     0
276
    -2
286
     1
 66
     0
277
    -2
287
     1
 67
     0
278
    -2
288
     1
 68
     0
279
    -2
289
     1
 69
     0
  7
Standard
140
6.0
170
     5
 62
     0
 63
     7
283
     0
274
    -2
284
     1
 64
     0
275
    -2
285
     1
 65
     0
276
    -2
286
     1
 66
     0
277
    -2
287
     1
 67
     0
278
    -2
288
     1
 68
     0
279
    -2
289
     1
 69
     0
  7
Standard
140
4.5
170
     5
 62
     0
 63
     7
283
     0
274
    -2
284
     1
 64
     0
275
    -2
285
     1
 65
     0
276
    -2
286
     1
 66
     0
277
    -2
287
     1
 67
     0
278
    -2
288
     1
 68
     0
279
    -2
289
     1
 69
     0
  0
DICTIONARYVAR
  5
10E3
102
{ACAD_REACTORS
330
5E
102
}
330
5E
100
DictionaryVariables
280
     0
  1
STANDARD
  0
DICTIONARYVAR
  5
5F
102
{ACAD_REACTORS
330
5E
102
}
330
5E
100
DictionaryVariables
280
     0
  1
2
  0
DICTIONARYVAR
  5
63
102
{ACAD_REACTORS
330
5E
102
}
330
5E
100
DictionaryVariables
280
     0
  1
1
  0
DICTIONARYVAR
  5
1141
102
{ACAD_REACTORS
330
5E
102
}
330
5E
100
DictionaryVariables
280
     0
  1

  0
DICTIONARY
  5
1079
102
{ACAD_REACTORS
330
106D
102
}
330
106D
100
AcDbDictionary
281
     1
  0
XRECORD
  5
109C
102
{ACAD_REACTORS
330
106D
102
}
330
106D
100
AcDbXrecord
280
     1
 90
-1023410169
  0
DICTIONARY
  5
12F8
330
51
100
AcDbDictionary
280
     1
281
     1
  3
ACAD_XREC_ROUNDTRIP
360
12F9
  0
DICTIONARY
  5
12FA
330
56
100
AcDbDictionary
280
     1
281
     1
  3
ACAD_XREC_ROUNDTRIP
360
12FB
  0
DICTIONARY
  5
12F6
330
22
100
AcDbDictionary
280
     1
281
     1
  3
ACAD_XREC_ROUNDTRIP
360
12F7
  0
XRECORD
  5
12F9
102
{ACAD_REACTORS
330
12F8
102
}
330
12F8
100
AcDbXrecord
280
     1
102
SHADEPLOT
 70
     0
102
SHADEPLOTRESLEVEL
 70
     2
102
SHADEPLOTCUSTOMDPI
 70
   300
  0
XRECORD
  5
12FB
102
{ACAD_REACTORS
330
12FA
102
}
330
12FA
100
AcDbXrecord
280
     1
102
SHADEPLOT
 70
     0
102
SHADEPLOTRESLEVEL
 70
     2
102
SHADEPLOTCUSTOMDPI
 70
   300
  0
XRECORD
  5
12F7
102
{ACAD_REACTORS
330
12F6
102
}
330
12F6
100
AcDbXrecord
280
     1
102
SHADEPLOT
 70
     0
102
SHADEPLOTRESLEVEL
 70
     2
102
SHADEPLOTCUSTOMDPI
 70
   300
  0
ENDSEC
  0
EOF
