  0
SECTION
  2
HEADER
  9
$ACADVER
  1
AC1015
  9
$ACADMAINTVER
 70
    20
  9
$DWGCODEPAGE
  3
ANSI_1252
  9
$INSBASE
 10
0.0
 20
0.0
 30
0.0
  9
$EXTMIN
 10
0.0
 20
0.0
 30
0.0
  9
$EXTMAX
 10
233.9816269560028
 20
297.0
 30
0.0
  9
$LIMMIN
 10
0.0
 20
0.0
  9
$LIMMAX
 10
210.0
 20
297.0
  9
$ORTHOMODE
 70
     0
  9
$REGENMODE
 70
     1
  9
$FILLMODE
 70
     1
  9
$QTEXTMODE
 70
     0
  9
$MIRRTEXT
 70
     0
  9
$LTSCALE
 40
19.36
  9
$ATTMODE
 70
     1
  9
$TEXTSIZE
 40
0.2
  9
$TRACEWID
 40
0.05
  9
$TEXTSTYLE
  7
STANDARD
  9
$CLAYER
  8
0
  9
$CELTYPE
  6
BYLAYER
  9
$CECOLOR
 62
   256
  9
$CELTSCALE
 40
1.0
  9
$DISPSILH
 70
     0
  9
$DIMSCALE
 40
1.0
  9
$DIMASZ
 40
3.5
  9
$DIMEXO
 40
2.2
  9
$DIMDLI
 40
13.376
  9
$DIMRND
 40
0.0
  9
$DIMDLE
 40
0.0
  9
$DIMEXE
 40
6.336
  9
$DIMTP
 40
0.005
  9
$DIMTM
 40
0.005
  9
$DIMTXT
 40
3.5
  9
$DIMCEN
 40
3.168
  9
$DIMTSZ
 40
0.0
  9
$DIMTOL
 70
     1
  9
$DIMLIM
 70
     0
  9
$DIMTIH
 70
     1
  9
$DIMTOH
 70
     1
  9
$DIMSE1
 70
     0
  9
$DIMSE2
 70
     0
  9
$DIMTAD
 70
     0
  9
$DIMZIN
 70
     0
  9
$DIMBLK
  1
_FILLED
  9
$DIMASO
 70
     1
  9
$DIMSHO
 70
     1
  9
$DIMPOST
  1

  9
$DIMAPOST
  1

  9
$DIMALT
 70
     0
  9
$DIMALTD
 70
     2
  9
$DIMALTF
 40
25.4
  9
$DIMLFAC
 40
1.0
  9
$DIMTOFL
 70
     0
  9
$DIMTVP
 40
0.0
  9
$DIMTIX
 70
     0
  9
$DIMSOXD
 70
     0
  9
$DIMSAH
 70
     0
  9
$DIMBLK1
  1

  9
$DIMBLK2
  1

  9
$DIMSTYLE
  2
STANDARD
  9
$DIMCLRD
 70
     0
  9
$DIMCLRE
 70
     0
  9
$DIMCLRT
 70
     0
  9
$DIMTFAC
 40
1.0
  9
$DIMGAP
 40
0.09
  9
$DIMJUST
 70
     0
  9
$DIMSD1
 70
     0
  9
$DIMSD2
 70
     0
  9
$DIMTOLJ
 70
     1
  9
$DIMTZIN
 70
     0
  9
$DIMALTZ
 70
     0
  9
$DIMALTTZ
 70
     0
  9
$DIMUPT
 70
     0
  9
$DIMDEC
 70
     4
  9
$DIMTDEC
 70
     4
  9
$DIMALTU
 70
     2
  9
$DIMALTTD
 70
     2
  9
$DIMTXSTY
  7
STANDARD
  9
$DIMAUNIT
 70
     0
  9
$DIMADEC
 70
     0
  9
$DIMALTRND
 40
0.0
  9
$DIMAZIN
 70
     0
  9
$DIMDSEP
 70
    46
  9
$DIMATFIT
 70
     3
  9
$DIMFRAC
 70
     0
  9
$DIMLDRBLK
  1

  9
$DIMLUNIT
 70
     2
  9
$DIMLWD
 70
    -2
  9
$DIMLWE
 70
    -2
  9
$DIMTMOVE
 70
     0
  9
$LUNITS
 70
     2
  9
$LUPREC
 70
     2
  9
$SKETCHINC
 40
0.1
  9
$FILLETRAD
 40
0.0
  9
$AUNITS
 70
     0
  9
$AUPREC
 70
     0
  9
$MENU
  1
.
  9
$ELEVATION
 40
0.0
  9
$PELEVATION
 40
0.0
  9
$THICKNESS
 40
0.0
  9
$LIMCHECK
 70
     0
  9
$CHAMFERA
 40
0.0
  9
$CHAMFERB
 40
0.0
  9
$CHAMFERC
 40
0.0
  9
$CHAMFERD
 40
0.0
  9
$SKPOLY
 70
     0
  9
$TDCREATE
 40
2456346.525230498
  9
$TDUCREATE
 40
2456346.483563831
  9
$TDUPDATE
 40
2456346.526027454
  9
$TDUUPDATE
 40
2456346.484360787
  9
$TDINDWG
 40
0.0007975000
  9
$TDUSRTIMER
 40
0.0007975000
  9
$USRTIMER
 70
     1
  9
$ANGBASE
 50
0.0
  9
$ANGDIR
 70
     0
  9
$PDMODE
 70
     3
  9
$PDSIZE
 40
0.3125
  9
$PLINEWID
 40
0.0
  9
$SPLFRAME
 70
     0
  9
$SPLINETYPE
 70
     6
  9
$SPLINESEGS
 70
     8
  9
$HANDSEED
  5
6EA
  9
$SURFTAB1
 70
     6
  9
$SURFTAB2
 70
     6
  9
$SURFTYPE
 70
     6
  9
$SURFU
 70
     6
  9
$SURFV
 70
     6
  9
$UCSBASE
  2

  9
$UCSNAME
  2

  9
$UCSORG
 10
0.0
 20
0.0
 30
0.0
  9
$UCSXDIR
 10
1.0
 20
0.0
 30
0.0
  9
$UCSYDIR
 10
0.0
 20
1.0
 30
0.0
  9
$UCSORTHOREF
  2

  9
$UCSORTHOVIEW
 70
     0
  9
$UCSORGTOP
 10
0.0
 20
0.0
 30
0.0
  9
$UCSORGBOTTOM
 10
0.0
 20
0.0
 30
0.0
  9
$UCSORGLEFT
 10
0.0
 20
0.0
 30
0.0
  9
$UCSORGRIGHT
 10
0.0
 20
0.0
 30
0.0
  9
$UCSORGFRONT
 10
0.0
 20
0.0
 30
0.0
  9
$UCSORGBACK
 10
0.0
 20
0.0
 30
0.0
  9
$PUCSBASE
  2

  9
$PUCSNAME
  2

  9
$PUCSORG
 10
0.0
 20
0.0
 30
0.0
  9
$PUCSXDIR
 10
1.0
 20
0.0
 30
0.0
  9
$PUCSYDIR
 10
0.0
 20
1.0
 30
0.0
  9
$PUCSORTHOREF
  2

  9
$PUCSORTHOVIEW
 70
     0
  9
$PUCSORGTOP
 10
0.0
 20
0.0
 30
0.0
  9
$PUCSORGBOTTOM
 10
0.0
 20
0.0
 30
0.0
  9
$PUCSORGLEFT
 10
0.0
 20
0.0
 30
0.0
  9
$PUCSORGRIGHT
 10
0.0
 20
0.0
 30
0.0
  9
$PUCSORGFRONT
 10
0.0
 20
0.0
 30
0.0
  9
$PUCSORGBACK
 10
0.0
 20
0.0
 30
0.0
  9
$USERI1
 70
     0
  9
$USERI2
 70
     0
  9
$USERI3
 70
     0
  9
$USERI4
 70
     0
  9
$USERI5
 70
     0
  9
$USERR1
 40
0.0
  9
$USERR2
 40
0.0
  9
$USERR3
 40
0.0
  9
$USERR4
 40
0.0
  9
$USERR5
 40
0.0
  9
$WORLDVIEW
 70
     1
  9
$SHADEDGE
 70
     3
  9
$SHADEDIF
 70
    70
  9
$TILEMODE
 70
     1
  9
$MAXACTVP
 70
    64
  9
$PINSBASE
 10
0.0
 20
0.0
 30
0.0
  9
$PLIMCHECK
 70
     0
  9
$PEXTMIN
 10
1.000000000000000E+20
 20
1.000000000000000E+20
 30
1.000000000000000E+20
  9
$PEXTMAX
 10
-1.000000000000000E+20
 20
-1.000000000000000E+20
 30
-1.000000000000000E+20
  9
$PLIMMIN
 10
0.0
 20
0.0
  9
$PLIMMAX
 10
12.0
 20
9.0
  9
$UNITMODE
 70
     0
  9
$VISRETAIN
 70
     1
  9
$PLINEGEN
 70
     0
  9
$PSLTSCALE
 70
     1
  9
$TREEDEPTH
 70
  3020
  9
$CMLSTYLE
  2
Standard
  9
$CMLJUST
 70
     0
  9
$CMLSCALE
 40
1.0
  9
$PROXYGRAPHICS
 70
     1
  9
$MEASUREMENT
 70
     1
  9
$CELWEIGHT
370
    -1
  9
$ENDCAPS
280
     0
  9
$JOINSTYLE
280
     0
  9
$LWDISPLAY
290
     0
  9
$INSUNITS
 70
     4
  9
$HYPERLINKBASE
  1

  9
$STYLESHEET
  1

  9
$XEDIT
290
     1
  9
$CEPSNTYPE
380
     0
  9
$PSTYLEMODE
290
     1
  9
$FINGERPRINTGUID
  2
{4B80F124-68BF-49FC-974A-725A84CF2317}
  9
$VERSIONGUID
  2
{88A19773-2B1F-4948-BD69-835776A2DA61}
  9
$EXTNAMES
290
     1
  9
$PSVPSCALE
 40
0.0
  9
$OLESTARTUP
290
     0
  0
ENDSEC
  0
SECTION
  2
CLASSES
  0
CLASS
  1
ACDBDICTIONARYWDFLT
  2
AcDbDictionaryWithDefault
  3
ObjectDBX Classes
 90
        0
280
     0
281
     0
  0
CLASS
  1
ACDBPLACEHOLDER
  2
AcDbPlaceHolder
  3
ObjectDBX Classes
 90
        0
280
     0
281
     0
  0
CLASS
  1
LAYOUT
  2
AcDbLayout
  3
ObjectDBX Classes
 90
        0
280
     0
281
     0
  0
CLASS
  1
RASTERVARIABLES
  2
AcDbRasterVariables
  3
ISM
 90
        0
280
     0
281
     0
  0
CLASS
  1
IMAGEDEF
  2
AcDbRasterImageDef
  3
ISM
 90
        0
280
     0
281
     0
  0
CLASS
  1
IMAGEDEF_REACTOR
  2
AcDbRasterImageDefReactor
  3
ISM
 90
        1
280
     0
281
     0
  0
CLASS
  1
IMAGE
  2
AcDbRasterImage
  3
ISM
 90
     2175
280
     0
281
     1
  0
CLASS
  1
MATERIAL
  2
AcDbMaterial
  3
ObjectDBX Classes
 90
     1153
280
     0
281
     0
  0
CLASS
  1
VISUALSTYLE
  2
AcDbVisualStyle
  3
ObjectDBX Classes
 90
     4095
280
     0
281
     0
  0
CLASS
  1
TABLESTYLE
  2
AcDbTableStyle
  3
ObjectDBX Classes
 90
     4095
280
     0
281
     0
  0
CLASS
  1
SCALE
  2
AcDbScale
  3
ObjectDBX Classes
 90
     1153
280
     0
281
     0
  0
CLASS
  1
MLEADERSTYLE
  2
AcDbMLeaderStyle
  3
ACDB_MLEADERSTYLE_CLASS
 90
     4095
280
     0
281
     0
  0
CLASS
  1
AMGSETTINGSOBJ
  2
AmgSettingsObj
  3
"AcadM|Product Description: AutoCAD Mechanical|Company: Autodesk, Inc."
 90
     1024
280
     0
281
     0
  0
CLASS
  1
ACME_DOCUMENT
  2
AcMeDbDoc
  3
AcMeServices
 90
     1024
280
     0
281
     0
  0
CLASS
  1
ACMESCOPE
  2
AcMeScope
  3
AcMeServices
 90
     1024
280
     0
281
     0
  0
CLASS
  1
ACMECOMMANDHISTORY
  2
AcMeCommandHistory
  3
AcMeServices
 90
     1024
280
     0
281
     0
  0
CLASS
  1
ACIMSYSVARMAN
  2
AcImSysVarManager
  3
AcMeServices
 90
     1024
280
     0
281
     0
  0
CLASS
  1
ACIMINTSYSVAR
  2
AcImIntSysVar
  3
AcMeServices
 90
     1024
280
     0
281
     0
  0
CLASS
  1
ACMEDRAWINGMAN
  2
AcMeDrawingMan
  3
AcMeServices
 90
     1024
280
     0
281
     0
  0
CLASS
  1
ACMEVIEW
  2
AcMeView
  3
AcMeServices
 90
     1024
280
     0
281
     0
  0
CLASS
  1
ACDBENTITYCACHE
  2
AcMeEntityCache
  3
AcMeServices
 90
     1024
280
     0
281
     0
  0
CLASS
  1
ACMESTATEMGR
  2
AcMeStateMgr
  3
AcMeServices
 90
     1024
280
     0
281
     0
  0
CLASS
  1
ACGREFMASTER
  2
AcGrefMaster
  3
AcAttribServices
 90
     1024
280
     0
281
     0
  0
CLASS
  1
AM_DRAWING_MGR
  2
AcDmDwgMgr
  3
AcMechDwgViewMgmt
 90
     1024
280
     0
281
     0
  0
CLASS
  1
AM_DWG_DOCUMENT
  2
AcDmDwgDocument
  3
AcMechDwgViewMgmt
 90
     1024
280
     0
281
     0
  0
CLASS
  1
AM_DWG_SHEET
  2
AcDmSheet
  3
AcMechDwgViewMgmt
 90
     1024
280
     0
281
     0
  0
CLASS
  1
AM_VIEWDIMPARMAP
  2
AcDmViewDimParMap
  3
AcMechDwgViewMgmt
 90
     1024
280
     0
281
     0
  0
CLASS
  1
AMDTINTERNALREACTOR
  2
AmdtInternalReactor
  3
AcMeServices
 90
     1024
280
     0
281
     0
  0
CLASS
  1
ACIMREALSYSVAR
  2
AcImRealSysVar
  3
AcMeServices
 90
     1024
280
     0
281
     0
  0
CLASS
  1
AM_DWGMGR_NAME
  2
AcDmDwgMgrName
  3
AcMechDwgViewMgmt
 90
     1024
280
     0
281
     0
  0
CLASS
  1
ACME_DATABASE
  2
AcMeDbDatabase
  3
AcMeServices
 90
     1024
280
     0
281
     0
  0
CLASS
  1
ACRFINSADJUSTERMGR
  2
AcRfInsAdjusterMgr
  3
AcMeServices
 90
     1024
280
     0
281
     0
  0
CLASS
  1
ACGREFACADMASTER
  2
AcGrefacadMaster
  3
AcGrefServices
 90
     1024
280
     0
281
     0
  0
CLASS
  1
AMDTMENUSTATEMGR
  2
AmdtMenuStateMgr
  3
McadcomServices
 90
     1024
280
     0
281
     0
  0
CLASS
  1
AMDTMCOMMENUSTATE
  2
AmdtMcomMenuState
  3
McadcomServices
 90
     1024
280
     0
281
     0
  0
CLASS
  1
AMIMASTER
  2
AmiMaster
  3
AmiServices
 90
     1024
280
     0
281
     0
  0
CLASS
  1
MAPIAMMOUDLE
  2
MApiAmModule
  3
MApiAmServices
 90
     1024
280
     0
281
     0
  0
CLASS
  1
ACIMSTRSYSVAR
  2
AcImStrSysVar
  3
AcMeServices
 90
     1024
280
     0
281
     0
  0
CLASS
  1
AMDTADMENUSTATE
  2
AmdtAdMenuState
  3
DesignerServices
 90
     1024
280
     0
281
     0
  0
CLASS
  1
ADAPPL
  2
AcAdAppl
  3
DesignerServices
 90
     1024
280
     0
281
     0
  0
CLASS
  1
DEPMGR
  2
AcAdDepMgr
  3
DesignerServices
 90
     1024
280
     0
281
     0
  0
CLASS
  1
PARAMMGR
  2
AcAdParamMgr
  3
DesignerServices
 90
     1024
280
     0
281
     0
  0
CLASS
  1
PARAMSCOPE
  2
AcAdParamScope
  3
DesignerServices
 90
     1024
280
     0
281
     0
  0
CLASS
  1
NAMEDAPPL
  2
AcAdNamedAppl
  3
DesignerServices
 90
     1024
280
     0
281
     0
  0
CLASS
  1
AMDTDMMENUSTATE
  2
AmdtDmMenuState
  3
AcMechDwgViewMgmt
 90
     1024
280
     0
281
     0
  0
CLASS
  1
AMDTAMMENUSTATE
  2
AmdtAmMenuState
  3
DesignerAssemblies
 90
     1024
280
     0
281
     0
  0
CLASS
  1
ACAMPROJECT
  2
AcAmProject
  3
DesignerAssemblies
 90
     1024
280
     0
281
     0
  0
CLASS
  1
ACAMGRCOMPDEF
  2
AcAmGrCompDef
  3
DesignerAssemblies
 90
     1024
280
     0
281
     0
  0
CLASS
  1
ACAMCOMPDEF
  2
AcAmCompDef
  3
DesignerAssemblies
 90
     1024
280
     0
281
     0
  0
CLASS
  1
ACAMCOMPDEFMGR
  2
AcAmCompDefMgr
  3
DesignerAssemblies
 90
     1024
280
     0
281
     0
  0
CLASS
  1
AMCONTEXTMGR
  2
AcAmContextMgr
  3
DesignerAssemblies
 90
     1024
280
     0
281
     0
  0
CLASS
  1
ACAMCONTEXTMODELER
  2
AcAmContextModeler
  3
DesignerAssemblies
 90
     1024
280
     0
281
     0
  0
CLASS
  1
ACMDATADICTIONARY
  2
AcmDataDictionary
  3
"AcmSymBB|Product Description: AutoCAD Mechanical|Company: Autodesk, Inc."
 90
     1024
280
     0
281
     0
  0
CLASS
  1
CATALOGSTATE
  2
AcAmCatalogState
  3
DesignerAssemblies
 90
     1024
280
     0
281
     0
  0
CLASS
  1
ACAMGRCOMPDEFSET
  2
AcAmGrCompDefSet
  3
DesignerAssemblies
 90
     1024
280
     0
281
     0
  0
CLASS
  1
AMDTBROWSERDBTAB
  2
AmdtBrowserDbTab
  3
McadcomServices
 90
     1024
280
     0
281
     0
  0
CLASS
  1
CBROWSERAPPOBJECT
  2
CBrowserAppObject
  3
McadcomServices
 90
     1024
280
     0
281
     0
  0
CLASS
  1
DM_PLACEHOLDER
  2
AcDmSelsetPlaceholder
  3
AcMechDwgViewMgmt
 90
     1024
280
     0
281
     0
  0
CLASS
  1
EXACXREFPANELOBJECT
  2
ExAcXREFPanelObject
  3
EXAC_ESW
 90
     1025
280
     0
281
     0
  0
CLASS
  1
NPOCOLLECTION
  2
AcDbImpNonPersistentObjectsCollection
  3
ObjectDBX Classes
 90
     1153
280
     0
281
     0
  0
CLASS
  1
ACMSTANDARDDIN
  2
AcmStandardDIN
  3
"Amdt_StdImp|Product Description: AutoCAD Mechanical|Company: Autodesk, Inc."
 90
     1024
280
     0
281
     0
  0
CLASS
  1
AMDTEDGESTANDARDDIN13715
  2
AmdtEdgeStdDIN13715
  3
"Amdt_StdImp|Product Description: AutoCAD Mechanical|Company: Autodesk, Inc."
 90
     1024
280
     0
281
     0
  0
CLASS
  1
ACMSURFSTANDARDDIN2002
  2
AcmSurfTextStdDIN2002
  3
"Amdt_StdImp|Product Description: AutoCAD Mechanical|Company: Autodesk, Inc."
 90
     1024
280
     0
281
     0
  0
CLASS
  1
ACMFCFSTANDARDDIN
  2
AcmFCFStdDIN
  3
"Amdt_StdImp|Product Description: AutoCAD Mechanical|Company: Autodesk, Inc."
 90
     1024
280
     0
281
     0
  0
CLASS
  1
ACMWELDSTANDARDDIN
  2
AcmWeldingStdDIN
  3
"Amdt_StdImp|Product Description: AutoCAD Mechanical|Company: Autodesk, Inc."
 90
     1024
280
     0
281
     0
  0
CLASS
  1
ACMIDSTANDARDDIN
  2
AcmIdStdDIN
  3
"Amdt_StdImp|Product Description: AutoCAD Mechanical|Company: Autodesk, Inc."
 90
     1024
280
     0
281
     0
  0
CLASS
  1
ACMDATUMSTANDARDDIN
  2
AcmDatumStdDIN
  3
"Amdt_StdImp|Product Description: AutoCAD Mechanical|Company: Autodesk, Inc."
 90
     1024
280
     0
281
     0
  0
CLASS
  1
ACMBOMSTANDARDDIN
  2
AcmBOMStdDIN
  3
"Amdt_StdImp|Product Description: AutoCAD Mechanical|Company: Autodesk, Inc."
 90
     1024
280
     0
281
     0
  0
CLASS
  1
ACMDETAILSTANDARDDIN
  2
AmdtDetailSymStdDIN
  3
"Amdt_StdImp|Product Description: AutoCAD Mechanical|Company: Autodesk, Inc."
 90
     1024
280
     0
281
     0
  0
CLASS
  1
ACMSECTIONSTANDARDDIN
  2
AmdtSectionSymStdDIN
  3
"Amdt_StdImp|Product Description: AutoCAD Mechanical|Company: Autodesk, Inc."
 90
     1024
280
     0
281
     0
  0
CLASS
  1
ACMCENTERLINESTANDARDDIN
  2
AmdtCenterLineStdDIN
  3
"Amdt_StdImp|Product Description: AutoCAD Mechanical|Company: Autodesk, Inc."
 90
     1024
280
     0
281
     0
  0
CLASS
  1
ACMTHREADLINESTANDARDDIN
  2
AmdtThreadLineStdDIN
  3
"Amdt_StdImp|Product Description: AutoCAD Mechanical|Company: Autodesk, Inc."
 90
     1024
280
     0
281
     0
  0
CLASS
  1
ACMNOTESTANDARDDIN
  2
AmdtNoteStdDIN
  3
"Amdt_StdImp|Product Description: AutoCAD Mechanical|Company: Autodesk, Inc."
 90
     1024
280
     0
281
     0
  0
CLASS
  1
ACMTAPERSTANDARDDIN
  2
AcmTaperStdDIN
  3
"Amdt_StdImp|Product Description: AutoCAD Mechanical|Company: Autodesk, Inc."
 90
     1024
280
     0
281
     0
  0
CLASS
  1
ACMANOOTATIONVIEWSTANDARDDIN
  2
AmdtAnViewStdDIN
  3
"Amdt_StdImp|Product Description: AutoCAD Mechanical|Company: Autodesk, Inc."
 90
     1024
280
     0
281
     0
  0
CLASS
  1
ACAMGLAYSTD
  2
AcAmgLayStd
  3
"AmgLay|Product Description: AutoCAD Mechanical|Company: Autodesk, Inc."
 90
     1024
280
     0
281
     0
  0
CLASS
  1
ACAMGDIMSTD
  2
AcAmgDimStd
  3
"AmgDim|Product Description: AutoCAD Mechanical|Company: Autodesk, Inc."
 90
     1024
280
     0
281
     0
  0
CLASS
  1
AMGOBJPROPCFG
  2
AmgObjPropCfg
  3
"AmgLay|Product Description: AutoCAD Mechanical|Company: Autodesk, Inc."
 90
     1025
280
     0
281
     0
  0
CLASS
  1
ACAMGHOLECHARTSTDDIN
  2
AcAmgHoleChartStdDIN
  3
AmgDim|Product Description: AutoCAD Mechanical|Company: Autodesk, Inc.
 90
     1024
280
     0
281
     0
  0
CLASS
  1
ACAMGTITLESTD
  2
AcAmgTitleStd
  3
"AmgTitle|Product Description: AutoCAD Mechanical|Company: Autodesk, Inc."
 90
     4095
280
     0
281
     0
  0
CLASS
  1
AMDTNOTETEMPLATEDB
  2
AmdtNoteTemplateDB
  3
AcmSymBB|Product Description: AutoCAD Mechanical|Company: Autodesk, Inc.
 90
     1024
280
     0
281
     0
  0
CLASS
  1
ACAMGFILTERDAT
  2
AcAmgFilterDat
  3
"AcadM|Product Description: AutoCAD Mechanical|Company: Autodesk, Inc."
 90
     1024
280
     0
281
     0
  0
CLASS
  1
DICTIONARYVAR
  2
AcDbDictionaryVar
  3
ObjectDBX Classes
 90
        0
280
     0
281
     0
  0
CLASS
  1
CELLSTYLEMAP
  2
AcDbCellStyleMap
  3
ObjectDBX Classes
 90
     1152
280
     0
281
     0
  0
ENDSEC
  0
SECTION
  2
TABLES
  0
TABLE
  2
VPORT
  5
8
330
0
100
AcDbSymbolTable
 70
     1
  0
VPORT
  5
1F4
330
8
100
AcDbSymbolTableRecord
100
AcDbViewportTableRecord
  2
*ACTIVE
 70
     0
 10
0.0
 20
0.0
 11
1.0
 21
1.0
 12
189.4474079403297
 22
132.6228140195578
 13
0.0
 23
0.0
 14
1.0
 24
1.0
 15
0.0
 25
0.0
 16
0.0
 26
0.0
 36
1.0
 17
0.0
 27
0.0
 37
0.0
 40
286.6299567107401
 41
1.84068136272545
 42
50.0
 43
0.0
 44
0.0
 50
0.0
 51
0.0
 71
     0
 72
   100
 73
     1
 74
     1
 75
     0
 76
     0
 77
     0
 78
     0
281
     0
 65
     0
110
0.0
120
0.0
130
0.0
111
1.0
121
0.0
131
0.0
112
0.0
122
1.0
132
0.0
 79
     0
146
0.0
  0
ENDTAB
  0
TABLE
  2
LTYPE
  5
5
330
0
100
AcDbSymbolTable
 70
    22
  0
LTYPE
  5
14
330
5
100
AcDbSymbolTableRecord
100
AcDbLinetypeTableRecord
  2
BYBLOCK
 70
     0
  3

 72
    65
 73
     0
 40
0.0
  0
LTYPE
  5
15
330
5
100
AcDbSymbolTableRecord
100
AcDbLinetypeTableRecord
  2
BYLAYER
 70
     0
  3

 72
    65
 73
     0
 40
0.0
  0
LTYPE
  5
16
330
5
100
AcDbSymbolTableRecord
100
AcDbLinetypeTableRecord
  2
CONTINUOUS
 70
     0
  3
Solid line
 72
    65
 73
     0
 40
0.0
  0
LTYPE
  5
1F5
330
5
100
AcDbSymbolTableRecord
100
AcDbLinetypeTableRecord
  2
CENTER
 70
     0
  3
____ _ ____ _ ____ _ ____ _ ____ _ ____ _ ____
 72
    65
 73
     4
 40
0.6
 49
0.375
 74
     0
 49
-0.075
 74
     0
 49
0.075
 74
     0
 49
-0.075
 74
     0
  0
LTYPE
  5
1F6
330
5
100
AcDbSymbolTableRecord
100
AcDbLinetypeTableRecord
  2
HIDDEN
 70
     0
  3
- - - - - - - - - - - - - - - - - - - -
 72
    65
 73
     2
 40
0.2
 49
0.1
 74
     0
 49
-0.1
 74
     0
  0
LTYPE
  5
1F7
330
5
100
AcDbSymbolTableRecord
100
AcDbLinetypeTableRecord
  2
PHANTOM
 70
     0
  3
_____ _ _ _____ _ _ _____ _ _ _____
 72
    65
 73
     6
 40
0.8
 49
0.45
 74
     0
 49
-0.05
 74
     0
 49
0.1
 74
     0
 49
-0.05
 74
     0
 49
0.1
 74
     0
 49
-0.05
 74
     0
  0
LTYPE
  5
1F8
330
5
100
AcDbSymbolTableRecord
100
AcDbLinetypeTableRecord
  2
DOT
 70
     0
  3
. . . . . . . . . . . . . . . . . . . .
 72
    65
 73
     2
 40
0.2
 49
0.1
 74
     0
 49
-0.1
 74
     0
  0
LTYPE
  5
1F9
330
5
100
AcDbSymbolTableRecord
100
AcDbLinetypeTableRecord
  2
DASHED
 70
     0
  3
- - - - - - - - - - - - - - - - - - - -
 72
    65
 73
     2
 40
0.2
 49
0.1
 74
     0
 49
-0.1
 74
     0
  0
LTYPE
  5
533
330
5
100
AcDbSymbolTableRecord
100
AcDbLinetypeTableRecord
  2
PHANTOM2
 70
     0
  3
Phantom (.5x) ___ _ _ ___ _ _ ___ _ _ ___ _ _
 72
    65
 73
     6
 40
31.75
 49
15.875
 74
     0
 49
-3.174999999999999
 74
     0
 49
3.174999999999999
 74
     0
 49
-3.174999999999999
 74
     0
 49
3.174999999999999
 74
     0
 49
-3.174999999999999
 74
     0
  0
LTYPE
  5
57B
330
5
100
AcDbSymbolTableRecord
100
AcDbLinetypeTableRecord
  2
AM_ISO02W050
 70
     0
  3
__ __ __ __ __ __ __ __ __ __ __ __ __ __ __
 72
    65
 73
     2
 40
7.5
 49
6.0
 74
     0
 49
-1.5
 74
     0
  0
LTYPE
  5
57C
330
5
100
AcDbSymbolTableRecord
100
AcDbLinetypeTableRecord
  2
AM_ISO08W050
 70
     0
  3
____ . ____ . ____ . ____ . ____ . ____ . ____
 72
    65
 73
     4
 40
18.0
 49
12.0
 74
     0
 49
-1.5
 74
     0
 49
3.0
 74
     0
 49
-1.5
 74
     0
  0
LTYPE
  5
57D
330
5
100
AcDbSymbolTableRecord
100
AcDbLinetypeTableRecord
  2
AM_ISO09W050
 70
     0
  3
_____ . . _____ . . _____ . . ____ .. ____
 72
    65
 73
     6
 40
22.5
 49
12.0
 74
     0
 49
-1.5
 74
     0
 49
3.0
 74
     0
 49
-1.5
 74
     0
 49
3.0
 74
     0
 49
-1.5
 74
     0
  0
LTYPE
  5
57E
330
5
100
AcDbSymbolTableRecord
100
AcDbLinetypeTableRecord
  2
Amconstr
 70
     0
  3
_______________________
 72
    65
 73
     2
 40
9999.0
 49
9999.0
 74
     0
 49
0.0
 74
     0
  0
LTYPE
  5
57F
330
5
100
AcDbSymbolTableRecord
100
AcDbLinetypeTableRecord
  2
AM_ISO08W050x2
 70
     0
  3
__ . __ . __ . __ . __ . __
 72
    65
 73
     4
 40
9.0
 49
6.0
 74
     0
 49
-0.75
 74
     0
 49
1.5
 74
     0
 49
-0.75
 74
     0
  0
LTYPE
  5
580
330
5
100
AcDbSymbolTableRecord
100
AcDbLinetypeTableRecord
  2
AM_ISO02W050x2
 70
     0
  3
 _ _ _ _ _ _ _ _ _ _ _ _
 72
    65
 73
     2
 40
3.75
 49
3.0
 74
     0
 49
-0.75
 74
     0
  0
LTYPE
  5
583
330
5
100
AcDbSymbolTableRecord
100
AcDbLinetypeTableRecord
  2
Amzigzag
 70
     0
  3
/\/-/\/-/\/-/\/-/\/-/\/
 72
    65
 73
     2
 40
11.0001
 49
0.0001
 74
     4
 75
   136
340
582
 46
0.04
 50
0.0
 44
0.0
 45
0.0
 49
-11.0
 74
     0
  0
LTYPE
  5
584
330
5
100
AcDbSymbolTableRecord
100
AcDbLinetypeTableRecord
  2
AM_DIN_F_W050
 70
     0
  3
__ __ __ __ __ __ __ __ __ __ __ __ __ __ __
 72
    65
 73
     2
 40
6.25
 49
4.75
 74
     0
 49
-1.5
 74
     0
  0
LTYPE
  5
585
330
5
100
AcDbSymbolTableRecord
100
AcDbLinetypeTableRecord
  2
AM_DIN_G_W050
 70
     0
  3
____ . ____ . ____ . ____ . ____ . ____ . ____
 72
    65
 73
     4
 40
13.75
 49
9.75
 74
     0
 49
-1.5
 74
     0
 49
1.0
 74
     0
 49
-1.5
 74
     0
  0
LTYPE
  5
586
330
5
100
AcDbSymbolTableRecord
100
AcDbLinetypeTableRecord
  2
AM_DIN_K_W050
 70
     0
  3
_____ . . _____ . . _____ . . ____ .. ____
 72
    65
 73
     6
 40
16.25
 49
9.75
 74
     0
 49
-1.5
 74
     0
 49
1.0
 74
     0
 49
-1.5
 74
     0
 49
1.0
 74
     0
 49
-1.5
 74
     0
  0
LTYPE
  5
587
330
5
100
AcDbSymbolTableRecord
100
AcDbLinetypeTableRecord
  2
AM_DIN_G_W050x2
 70
     0
  3
__ . __ . __ . __ . __ . __
 72
    65
 73
     4
 40
6.875
 49
4.75
 74
     0
 49
-0.875
 74
     0
 49
0.375
 74
     0
 49
-0.875
 74
     0
  0
LTYPE
  5
588
330
5
100
AcDbSymbolTableRecord
100
AcDbLinetypeTableRecord
  2
AM_DIN_F_W050x2
 70
     0
  3
 _ _ _ _ _ _ _ _ _ _ _ _
 72
    65
 73
     2
 40
3.125
 49
2.25
 74
     0
 49
-0.875
 74
     0
  0
LTYPE
  5
597
330
5
100
AcDbSymbolTableRecord
100
AcDbLinetypeTableRecord
  2
ACDINWELD
 70
     0
  3
_ _ _ _ _
 72
    65
 73
     2
 40
2.0
 49
2.0
 74
     0
 49
-1.0
 74
     0
  0
LTYPE
  5
598
330
5
100
AcDbSymbolTableRecord
100
AcDbLinetypeTableRecord
  2
ACDINTGB
 70
     0
  3
__ . . __ . .
 72
    65
 73
     6
 40
9.0
 49
4.0
 74
     0
 49
-1.0
 74
     0
 49
1.0
 74
     0
 49
-1.0
 74
     0
 49
1.0
 74
     0
 49
-1.0
 74
     0
  0
LTYPE
  5
599
330
5
100
AcDbSymbolTableRecord
100
AcDbLinetypeTableRecord
  2
ACDINTGL
 70
     0
  3
_ _ _ _ _
 72
    65
 73
     2
 40
3.0
 49
2.0
 74
     0
 49
-1.0
 74
     0
  0
ENDTAB
  0
TABLE
  2
LAYER
  5
2
330
0
100
AcDbSymbolTable
 70
    37
  0
LAYER
  5
10
102
{ACAD_XDICTIONARY
360
663
102
}
330
2
100
AcDbSymbolTableRecord
100
AcDbLayerTableRecord
  2
0
 70
     0
 62
     7
  6
CONTINUOUS
370
    -3
390
F
  0
LAYER
  5
1FA
102
{ACAD_XDICTIONARY
360
665
102
}
330
2
100
AcDbSymbolTableRecord
100
AcDbLayerTableRecord
  2
DEFAULT_1
 70
     0
 62
     7
  6
CENTER
370
    -3
390
F
  0
LAYER
  5
1FB
102
{ACAD_XDICTIONARY
360
667
102
}
330
2
100
AcDbSymbolTableRecord
100
AcDbLayerTableRecord
  2
DEFAULT_2
 70
     0
 62
     8
  6
HIDDEN
370
    -3
390
F
  0
LAYER
  5
1FC
102
{ACAD_XDICTIONARY
360
669
102
}
330
2
100
AcDbSymbolTableRecord
100
AcDbLayerTableRecord
  2
DEFAULT_3
 70
     0
 62
     7
  6
PHANTOM
370
    -3
390
F
  0
LAYER
  5
1FD
102
{ACAD_XDICTIONARY
360
66B
102
}
330
2
100
AcDbSymbolTableRecord
100
AcDbLayerTableRecord
  2
01___PRT_ALL_DTM_PLN
 70
     0
 62
     7
  6
CONTINUOUS
370
    -3
390
F
  0
LAYER
  5
1FE
102
{ACAD_XDICTIONARY
360
66D
102
}
330
2
100
AcDbSymbolTableRecord
100
AcDbLayerTableRecord
  2
01___PRT_DEF_DTM_PLN
 70
     0
 62
     7
  6
CONTINUOUS
370
    -3
390
F
  0
LAYER
  5
1FF
102
{ACAD_XDICTIONARY
360
66F
102
}
330
2
100
AcDbSymbolTableRecord
100
AcDbLayerTableRecord
  2
02___PRT_ALL_AXES
 70
     0
 62
     7
  6
CONTINUOUS
370
    -3
390
F
  0
LAYER
  5
200
102
{ACAD_XDICTIONARY
360
671
102
}
330
2
100
AcDbSymbolTableRecord
100
AcDbLayerTableRecord
  2
03___PRT_ALL_CURVES
 70
     0
 62
     7
  6
CONTINUOUS
370
    -3
390
F
  0
LAYER
  5
201
102
{ACAD_XDICTIONARY
360
673
102
}
330
2
100
AcDbSymbolTableRecord
100
AcDbLayerTableRecord
  2
04___PRT_ALL_DTM_PNT
 70
     0
 62
     7
  6
CONTINUOUS
370
    -3
390
F
  0
LAYER
  5
202
102
{ACAD_XDICTIONARY
360
675
102
}
330
2
100
AcDbSymbolTableRecord
100
AcDbLayerTableRecord
  2
05___PRT_ALL_DTM_CSYS
 70
     0
 62
     7
  6
CONTINUOUS
370
    -3
390
F
  0
LAYER
  5
203
102
{ACAD_XDICTIONARY
360
677
102
}
330
2
100
AcDbSymbolTableRecord
100
AcDbLayerTableRecord
  2
05___PRT_DEF_DTM_CSYS
 70
     0
 62
     7
  6
CONTINUOUS
370
    -3
390
F
  0
LAYER
  5
204
102
{ACAD_XDICTIONARY
360
679
102
}
330
2
100
AcDbSymbolTableRecord
100
AcDbLayerTableRecord
  2
06___PRT_ALL_SURFS
 70
     0
 62
     7
  6
CONTINUOUS
370
    -3
390
F
  0
LAYER
  5
205
102
{ACAD_XDICTIONARY
360
67B
102
}
330
2
100
AcDbSymbolTableRecord
100
AcDbLayerTableRecord
  2
AXES
 70
     0
 62
     7
  6
CONTINUOUS
370
    -3
390
F
  0
LAYER
  5
206
102
{ACAD_XDICTIONARY
360
67D
102
}
330
2
100
AcDbSymbolTableRecord
100
AcDbLayerTableRecord
  2
AXIS
 70
     0
 62
     7
  6
CONTINUOUS
370
    -3
390
F
  0
LAYER
  5
207
102
{ACAD_XDICTIONARY
360
67F
102
}
330
2
100
AcDbSymbolTableRecord
100
AcDbLayerTableRecord
  2
BEZUGSACHSEN
 70
     0
 62
     7
  6
CONTINUOUS
370
    -3
390
F
  0
LAYER
  5
208
102
{ACAD_XDICTIONARY
360
681
102
}
330
2
100
AcDbSymbolTableRecord
100
AcDbLayerTableRecord
  2
BEZUGSEBENEN
 70
     0
 62
     7
  6
CONTINUOUS
370
    -3
390
F
  0
LAYER
  5
209
102
{ACAD_XDICTIONARY
360
683
102
}
330
2
100
AcDbSymbolTableRecord
100
AcDbLayerTableRecord
  2
BG_STARTBEZUEGE
 70
     0
 62
     7
  6
CONTINUOUS
370
    -3
390
F
  0
LAYER
  5
20A
102
{ACAD_XDICTIONARY
360
685
102
}
330
2
100
AcDbSymbolTableRecord
100
AcDbLayerTableRecord
  2
CSYS
 70
     0
 62
     7
  6
CONTINUOUS
370
    -3
390
F
  0
LAYER
  5
20B
102
{ACAD_XDICTIONARY
360
687
102
}
330
2
100
AcDbSymbolTableRecord
100
AcDbLayerTableRecord
  2
CURVES
 70
     0
 62
     7
  6
CONTINUOUS
370
    -3
390
F
  0
LAYER
  5
20C
102
{ACAD_XDICTIONARY
360
689
102
}
330
2
100
AcDbSymbolTableRecord
100
AcDbLayerTableRecord
  2
FASEN
 70
     0
 62
     7
  6
CONTINUOUS
370
    -3
390
F
  0
LAYER
  5
20D
102
{ACAD_XDICTIONARY
360
68B
102
}
330
2
100
AcDbSymbolTableRecord
100
AcDbLayerTableRecord
  2
GV1
 70
     0
 62
     7
  6
CONTINUOUS
370
    -3
390
F
  0
LAYER
  5
20E
102
{ACAD_XDICTIONARY
360
68D
102
}
330
2
100
AcDbSymbolTableRecord
100
AcDbLayerTableRecord
  2
HILFEN
 70
     0
 62
     7
  6
CONTINUOUS
370
    -3
390
F
  0
LAYER
  5
20F
102
{ACAD_XDICTIONARY
360
68F
102
}
330
2
100
AcDbSymbolTableRecord
100
AcDbLayerTableRecord
  2
INTFCLR_7673
 70
     0
 62
     7
  6
CONTINUOUS
370
    -3
390
F
  0
LAYER
  5
210
102
{ACAD_XDICTIONARY
360
691
102
}
330
2
100
AcDbSymbolTableRecord
100
AcDbLayerTableRecord
  2
INTF_RED
 70
     0
 62
     7
  6
CONTINUOUS
370
    -3
390
F
  0
LAYER
  5
211
102
{ACAD_XDICTIONARY
360
693
102
}
330
2
100
AcDbSymbolTableRecord
100
AcDbLayerTableRecord
  2
OBJ1
 70
     0
 62
     7
  6
CONTINUOUS
370
    -3
390
F
  0
LAYER
  5
212
102
{ACAD_XDICTIONARY
360
695
102
}
330
2
100
AcDbSymbolTableRecord
100
AcDbLayerTableRecord
  2
PLANES
 70
     0
 62
     7
  6
CONTINUOUS
370
    -3
390
F
  0
LAYER
  5
213
102
{ACAD_XDICTIONARY
360
697
102
}
330
2
100
AcDbSymbolTableRecord
100
AcDbLayerTableRecord
  2
PLATZIERUNG
 70
     0
 62
     7
  6
CONTINUOUS
370
    -3
390
F
  0
LAYER
  5
214
102
{ACAD_XDICTIONARY
360
699
102
}
330
2
100
AcDbSymbolTableRecord
100
AcDbLayerTableRecord
  2
PLN
 70
     0
 62
     7
  6
CONTINUOUS
370
    -3
390
F
  0
LAYER
  5
215
102
{ACAD_XDICTIONARY
360
69B
102
}
330
2
100
AcDbSymbolTableRecord
100
AcDbLayerTableRecord
  2
PNT
 70
     0
 62
     7
  6
CONTINUOUS
370
    -3
390
F
  0
LAYER
  5
216
102
{ACAD_XDICTIONARY
360
69D
102
}
330
2
100
AcDbSymbolTableRecord
100
AcDbLayerTableRecord
  2
POINTS
 70
     0
 62
     7
  6
CONTINUOUS
370
    -3
390
F
  0
LAYER
  5
217
102
{ACAD_XDICTIONARY
360
69F
102
}
330
2
100
AcDbSymbolTableRecord
100
AcDbLayerTableRecord
  2
RUNDUNGEN
 70
     0
 62
     7
  6
CONTINUOUS
370
    -3
390
F
  0
LAYER
  5
218
102
{ACAD_XDICTIONARY
360
6A1
102
}
330
2
100
AcDbSymbolTableRecord
100
AcDbLayerTableRecord
  2
SURFACES
 70
     0
 62
     7
  6
CONTINUOUS
370
    -3
390
F
  0
LAYER
  5
219
102
{ACAD_XDICTIONARY
360
6A3
102
}
330
2
100
AcDbSymbolTableRecord
100
AcDbLayerTableRecord
  2
TEIL_STARTBEZUEGE
 70
     0
 62
     7
  6
CONTINUOUS
370
    -3
390
F
  0
LAYER
  5
21A
102
{ACAD_XDICTIONARY
360
6A5
102
}
330
2
100
AcDbSymbolTableRecord
100
AcDbLayerTableRecord
  2
XSEC_DATUMS
 70
     0
 62
     7
  6
CONTINUOUS
370
    -3
390
F
  0
LAYER
  5
21B
102
{ACAD_XDICTIONARY
360
6A7
102
}
330
2
100
AcDbSymbolTableRecord
100
AcDbLayerTableRecord
  2
ZEICHNUNGSBEMASSUNGEN
 70
     0
 62
     7
  6
CONTINUOUS
370
    -3
390
F
  0
LAYER
  5
5A7
102
{ACAD_XDICTIONARY
360
6A9
102
}
330
2
100
AcDbSymbolTableRecord
100
AcDbLayerTableRecord
  2
AM_5
 70
     0
 62
     3
  6
CONTINUOUS
370
    25
390
F
1001
AcAecLayerStandard
1000

1000

  0
LAYER
  5
5AC
330
2
100
AcDbSymbolTableRecord
100
AcDbLayerTableRecord
  2
Defpoints
 70
     0
 62
     7
  6
CONTINUOUS
290
     0
370
    -3
390
F
  0
ENDTAB
  0
TABLE
  2
STYLE
  5
3
330
0
100
AcDbSymbolTable
 70
    12
  0
STYLE
  5
11
330
3
100
AcDbSymbolTableRecord
100
AcDbTextStyleTableRecord
  2
STANDARD
 70
     0
 40
0.0
 41
0.7
 50
0.0
 71
     0
 42
0.2
  3
txt
  4

  0
STYLE
  5
21C
330
3
100
AcDbSymbolTableRecord
100
AcDbTextStyleTableRecord
  2
TEXTSTYLE_1
 70
     0
 40
0.0
 41
0.8
 50
0.0
 71
     0
 42
0.2
  3
gdt
  4

  0
STYLE
  5
21D
330
3
100
AcDbSymbolTableRecord
100
AcDbTextStyleTableRecord
  2
TEXTSTYLE_2
 70
     0
 40
0.0
 41
0.7857142857
 50
0.0
 71
     0
 42
0.2
  3
txt
  4

  0
STYLE
  5
21E
330
3
100
AcDbSymbolTableRecord
100
AcDbTextStyleTableRecord
  2
TEXTSTYLE_3
 70
     0
 40
0.0
 41
0.8333333333
 50
0.0
 71
     0
 42
0.2
  3
txt
  4

  0
STYLE
  5
21F
330
3
100
AcDbSymbolTableRecord
100
AcDbTextStyleTableRecord
  2
TEXTSTYLE_4
 70
     0
 40
0.0
 41
0.9047619048000001
 50
0.0
 71
     0
 42
0.2
  3
txt
  4

  0
STYLE
  5
220
330
3
100
AcDbSymbolTableRecord
100
AcDbTextStyleTableRecord
  2
TEXTSTYLE_5
 70
     0
 40
0.0
 41
0.7142857143000001
 50
0.0
 71
     0
 42
0.2
  3
txt
  4

  0
STYLE
  5
221
330
3
100
AcDbSymbolTableRecord
100
AcDbTextStyleTableRecord
  2
TEXTSTYLE_6
 70
     0
 40
0.0
 41
0.5714285714000001
 50
0.0
 71
     0
 42
0.2
  3
txt
  4

  0
STYLE
  5
222
330
3
100
AcDbSymbolTableRecord
100
AcDbTextStyleTableRecord
  2
TEXTSTYLE_7
 70
     0
 40
0.0
 41
1.0
 50
0.0
 71
     0
 42
0.2
  3
trium.ttf
  4

  0
STYLE
  5
223
330
3
100
AcDbSymbolTableRecord
100
AcDbTextStyleTableRecord
  2
TEXTSTYLE_8
 70
     0
 40
0.0
 41
1.0
 50
0.0
 71
     0
 42
0.2
  3
trium.ttf
  4

  0
STYLE
  5
582
330
3
100
AcDbSymbolTableRecord
100
AcDbTextStyleTableRecord
  2

 70
     1
 40
0.0
 41
1.0
 50
0.0
 71
     0
 42
0.2
  3
genltshp.shx
  4

  0
STYLE
  5
595
330
3
100
AcDbSymbolTableRecord
100
AcDbTextStyleTableRecord
  2
ACDINTS
 70
     0
 40
1.0
 41
1.0
 50
0.0
 71
     0
 42
0.2
  3
isocp.shx
  4

  0
STYLE
  5
596
330
3
100
AcDbSymbolTableRecord
100
AcDbTextStyleTableRecord
  2
ACDINGDT
 70
     0
 40
0.0
 41
1.0
 50
0.0
 71
     0
 42
0.2
  3
amgdt.shx
  4

  0
ENDTAB
  0
TABLE
  2
VIEW
  5
6
330
0
100
AcDbSymbolTable
 70
     0
  0
ENDTAB
  0
TABLE
  2
UCS
  5
7
330
0
100
AcDbSymbolTable
 70
     0
  0
ENDTAB
  0
TABLE
  2
APPID
  5
9
330
0
100
AcDbSymbolTable
 70
    18
  0
APPID
  5
224
330
9
100
AcDbSymbolTableRecord
100
AcDbRegAppTableRecord
  2
ACAD
 70
     0
  0
APPID
  5
508
330
9
100
AcDbSymbolTableRecord
100
AcDbRegAppTableRecord
  2
MCAD_NO_VIS
 70
     0
  0
APPID
  5
509
330
9
100
AcDbSymbolTableRecord
100
AcDbRegAppTableRecord
  2
ACAD_TEMP_GRAPHIC
 70
     0
  0
APPID
  5
535
330
9
100
AcDbSymbolTableRecord
100
AcDbRegAppTableRecord
  2
AD_DRAW
 70
     0
  0
APPID
  5
538
330
9
100
AcDbSymbolTableRecord
100
AcDbRegAppTableRecord
  2
ACATTRIBSERVICES
 70
     0
  0
APPID
  5
558
330
9
100
AcDbSymbolTableRecord
100
AcDbRegAppTableRecord
  2
DESIGNERASSEMBLIES
 70
     0
  0
APPID
  5
55E
330
9
100
AcDbSymbolTableRecord
100
AcDbRegAppTableRecord
  2
ACADM_DIM_EDIT
 70
     0
  0
APPID
  5
55F
330
9
100
AcDbSymbolTableRecord
100
AcDbRegAppTableRecord
  2
AMDT_DM_ADJ
 70
     0
  0
APPID
  5
578
330
9
100
AcDbSymbolTableRecord
100
AcDbRegAppTableRecord
  2
ACAD_DSTYLE_DIMJAG
 70
     0
  0
APPID
  5
579
330
9
100
AcDbSymbolTableRecord
100
AcDbRegAppTableRecord
  2
ACAD_DSTYLE_DIMBREAK
 70
     0
  0
APPID
  5
5A8
330
9
100
AcDbSymbolTableRecord
100
AcDbRegAppTableRecord
  2
AcAecLayerStandard
 70
     0
  0
APPID
  5
5C4
330
9
100
AcDbSymbolTableRecord
100
AcDbRegAppTableRecord
  2
GENIUS_GENDTOL_13
 70
     0
  0
APPID
  5
5C5
330
9
100
AcDbSymbolTableRecord
100
AcDbRegAppTableRecord
  2
ACAD_DSTYLE_DIMINSPECT
 70
     0
  0
APPID
  5
6E5
330
9
100
AcDbSymbolTableRecord
100
AcDbRegAppTableRecord
  2
ACAD_MLEADERVER
 70
     0
  0
APPID
  5
6E6
330
9
100
AcDbSymbolTableRecord
100
AcDbRegAppTableRecord
  2
ACAD_DSTYLE_DIMJOGGED_JOGANGLE_SYMBOL
 70
     0
  0
APPID
  5
6E7
330
9
100
AcDbSymbolTableRecord
100
AcDbRegAppTableRecord
  2
ACAD_DSTYLE_DIM_LINETYPE
 70
     0
  0
APPID
  5
6E8
330
9
100
AcDbSymbolTableRecord
100
AcDbRegAppTableRecord
  2
ACAD_DSTYLE_DIM_EXT1_LINETYPE
 70
     0
  0
APPID
  5
6E9
330
9
100
AcDbSymbolTableRecord
100
AcDbRegAppTableRecord
  2
ACAD_DSTYLE_DIM_EXT2_LINETYPE
 70
     0
  0
ENDTAB
  0
TABLE
  2
DIMSTYLE
  5
A
330
0
100
AcDbSymbolTable
 70
    10
100
AcDbDimStyleTable
 71
     1
340
22D
  0
DIMSTYLE
105
22D
330
A
100
AcDbSymbolTableRecord
100
AcDbDimStyleTableRecord
  2
STANDARD
 70
     0
 41
3.5
 47
0.005
 48
0.005
 71
     1
 73
     0
 74
     0
 77
     1
 78
     8
140
3.5
178
     5
271
     3
272
     3
284
     8
340
11
341
227
342
227
343
227
344
227
  0
DIMSTYLE
105
22E
330
A
100
AcDbSymbolTableRecord
100
AcDbDimStyleTableRecord
  2
DIMSTYLE_1
 70
     0
 41
3.5
 47
0.3
 48
0.3
 73
     0
 74
     0
 77
     1
 78
     8
140
3.5
178
     5
271
     3
272
     3
284
     8
340
11
341
227
342
227
343
227
344
227
  0
DIMSTYLE
105
577
102
{ACAD_REACTORS
330
566
102
}
330
A
100
AcDbSymbolTableRecord
100
AcDbDimStyleTableRecord
  2
AM_DIN
 70
     0
  4
"
 41
3.5
 42
1.0
 43
10.0
 44
1.0
 47
0.1
 48
0.1
 73
     0
 74
     0
 77
     1
 78
     8
 79
     2
140
3.5
141
0.0
143
0.0393701
146
0.71
147
1.5
172
     1
176
   256
177
   256
178
     2
271
     2
272
     3
274
     4
283
     0
284
     8
340
11
371
    -1
372
    -1
1001
ACAD_DSTYLE_DIMJAG
1070
   388
1040
1.5
1001
ACAD_DSTYLE_DIMBREAK
1070
   391
1040
3.75
1001
ACAD_DSTYLE_DIMJOGGED_JOGANGLE_SYMBOL
1070
   384
1040
1.570796326794896
1001
ACAD_DSTYLE_DIM_LINETYPE
1070
   380
1005
14
1001
ACAD_DSTYLE_DIM_EXT1_LINETYPE
1070
   381
1005
14
1001
ACAD_DSTYLE_DIM_EXT2_LINETYPE
1070
   382
1005
14
  0
DIMSTYLE
105
589
330
A
100
AcDbSymbolTableRecord
100
AcDbDimStyleTableRecord
  2
AM_DIN$3
 70
     0
  4
"
 41
3.5
 42
1.0
 43
10.0
 44
1.0
 47
0.1
 48
0.1
 73
     0
 77
     1
 78
     8
 79
     2
140
3.5
141
0.0
143
0.0393701
146
0.71
147
1.5
176
   256
177
   256
178
     2
271
     2
272
     3
274
     4
283
     0
284
     8
288
     1
289
     0
340
11
371
    -1
372
    -1
1001
ACAD_DSTYLE_DIMBREAK
1070
   391
1040
3.75
1001
ACAD_DSTYLE_DIMJAG
1070
   388
1040
1.5
1001
ACAD_DSTYLE_DIMJOGGED_JOGANGLE_SYMBOL
1070
   384
1040
1.570796326794896
1001
ACAD_DSTYLE_DIM_LINETYPE
1070
   380
1005
14
1001
ACAD_DSTYLE_DIM_EXT1_LINETYPE
1070
   381
1005
14
1001
ACAD_DSTYLE_DIM_EXT2_LINETYPE
1070
   382
1005
14
  0
DIMSTYLE
105
58A
330
A
100
AcDbSymbolTableRecord
100
AcDbDimStyleTableRecord
  2
AM_DIN$4
 70
     0
  4
"
 41
3.5
 42
1.0
 43
10.0
 44
1.0
 47
0.1
 48
0.1
 73
     0
 77
     1
 78
     8
 79
     2
140
3.5
141
0.0
143
0.0393701
146
0.71
147
1.5
176
   256
177
   256
178
     2
271
     2
272
     3
274
     4
283
     0
284
     8
288
     1
289
     0
340
11
371
    -1
372
    -1
1001
ACAD_DSTYLE_DIMBREAK
1070
   391
1040
3.75
1001
ACAD_DSTYLE_DIMJAG
1070
   388
1040
1.5
1001
ACAD_DSTYLE_DIMJOGGED_JOGANGLE_SYMBOL
1070
   384
1040
1.570796326794896
1001
ACAD_DSTYLE_DIM_LINETYPE
1070
   380
1005
14
1001
ACAD_DSTYLE_DIM_EXT1_LINETYPE
1070
   381
1005
14
1001
ACAD_DSTYLE_DIM_EXT2_LINETYPE
1070
   382
1005
14
  0
DIMSTYLE
105
58B
330
A
100
AcDbSymbolTableRecord
100
AcDbDimStyleTableRecord
  2
AM_DIN$6
 70
     0
  4
"
 41
3.5
 42
1.0
 43
10.0
 44
1.0
 47
0.1
 48
0.1
 73
     0
 74
     0
 78
     8
 79
     2
140
3.5
141
0.0
143
0.0393701
146
0.71
147
1.5
172
     1
176
   256
177
   256
178
     2
271
     2
272
     3
274
     4
283
     0
284
     8
340
11
371
    -1
372
    -1
1001
ACAD_DSTYLE_DIMBREAK
1070
   391
1040
3.75
1001
ACAD_DSTYLE_DIMJAG
1070
   388
1040
1.5
1001
ACAD_DSTYLE_DIMJOGGED_JOGANGLE_SYMBOL
1070
   384
1040
1.570796326794896
1001
ACAD_DSTYLE_DIM_LINETYPE
1070
   380
1005
14
1001
ACAD_DSTYLE_DIM_EXT1_LINETYPE
1070
   381
1005
14
1001
ACAD_DSTYLE_DIM_EXT2_LINETYPE
1070
   382
1005
14
  0
DIMSTYLE
105
58C
330
A
100
AcDbSymbolTableRecord
100
AcDbDimStyleTableRecord
  2
AM_DIN$7
 70
     0
  4
"
 41
3.5
 42
1.0
 43
10.0
 44
1.0
 47
0.1
 48
0.1
 73
     0
 74
     0
 77
     1
 78
     8
 79
     2
140
3.5
141
0.0
143
0.0393701
146
0.71
147
1.5
172
     1
176
   256
177
   256
178
     2
271
     2
272
     3
274
     4
283
     0
284
     8
340
11
371
    -1
372
    -1
1001
ACAD_DSTYLE_DIMBREAK
1070
   391
1040
3.75
1001
ACAD_DSTYLE_DIMJAG
1070
   388
1040
1.5
1001
ACAD_DSTYLE_DIMJOGGED_JOGANGLE_SYMBOL
1070
   384
1040
1.570796326794896
1001
ACAD_DSTYLE_DIM_LINETYPE
1070
   380
1005
14
1001
ACAD_DSTYLE_DIM_EXT1_LINETYPE
1070
   381
1005
14
1001
ACAD_DSTYLE_DIM_EXT2_LINETYPE
1070
   382
1005
14
  0
DIMSTYLE
105
58D
330
A
100
AcDbSymbolTableRecord
100
AcDbDimStyleTableRecord
  2
AM_DIN$SF
 70
     0
  4
"
 41
3.5
 42
1.0
 43
10.0
 44
1.0
 47
0.1
 48
0.1
 73
     0
 74
     0
 75
     1
 76
     1
 77
     1
 78
     8
 79
     2
140
3.5
141
0.0
143
0.0393701
146
0.71
147
1.5
172
     1
176
   256
177
   256
178
     2
271
     2
272
     3
274
     4
283
     0
284
     8
340
11
371
    -1
372
    -1
1001
ACAD_DSTYLE_DIMBREAK
1070
   391
1040
3.75
1001
ACAD_DSTYLE_DIMJAG
1070
   388
1040
1.5
1001
ACAD_DSTYLE_DIMJOGGED_JOGANGLE_SYMBOL
1070
   384
1040
1.570796326794896
1001
ACAD_DSTYLE_DIM_LINETYPE
1070
   380
1005
14
1001
ACAD_DSTYLE_DIM_EXT1_LINETYPE
1070
   381
1005
14
1001
ACAD_DSTYLE_DIM_EXT2_LINETYPE
1070
   382
1005
14
  0
DIMSTYLE
105
592
330
A
100
AcDbSymbolTableRecord
100
AcDbDimStyleTableRecord
  2
AM_DIN$SH
 70
     0
  4
"
 41
3.5
 42
1.0
 43
10.0
 44
1.0
 47
0.1
 48
0.1
 73
     0
 74
     0
 75
     1
 76
     1
 77
     1
 78
     8
 79
     2
140
3.5
141
0.0
143
0.0393701
144
2.0
146
0.71
147
1.5
172
     1
173
     1
176
   256
177
   256
178
     2
271
     2
272
     3
274
     4
283
     0
284
     8
340
11
343
58E
371
    -1
372
    -1
1001
ACAD_DSTYLE_DIMBREAK
1070
   391
1040
3.75
1001
ACAD_DSTYLE_DIMJAG
1070
   388
1040
1.5
1001
ACAD_DSTYLE_DIMJOGGED_JOGANGLE_SYMBOL
1070
   384
1040
1.570796326794896
1001
ACAD_DSTYLE_DIM_LINETYPE
1070
   380
1005
14
1001
ACAD_DSTYLE_DIM_EXT1_LINETYPE
1070
   381
1005
14
1001
ACAD_DSTYLE_DIM_EXT2_LINETYPE
1070
   382
1005
14
  0
DIMSTYLE
105
5A9
102
{ACAD_REACTORS
330
5AB
330
5E4
330
61A
102
}
330
A
100
AcDbSymbolTableRecord
100
AcDbDimStyleTableRecord
  2
STANDARD$0
 70
     0
 41
3.5
 47
0.005
 48
0.005
 71
     1
 73
     0
 74
     0
 77
     1
 78
     8
140
3.5
178
     5
271
     3
272
     3
284
     8
340
11
341
227
342
227
343
227
344
227
1001
ACAD_DSTYLE_DIMBREAK
1070
   391
1040
3.75
1001
ACAD_DSTYLE_DIMJAG
1070
   388
1040
1.5
  0
ENDTAB
  0
TABLE
  2
BLOCK_RECORD
  5
1
330
0
100
AcDbSymbolTable
 70
    11
  0
BLOCK_RECORD
  5
225
330
1
100
AcDbSymbolTableRecord
100
AcDbBlockTableRecord
  2
*Model_Space
340
4B6
  0
BLOCK_RECORD
  5
226
330
1
100
AcDbSymbolTableRecord
100
AcDbBlockTableRecord
  2
*Paper_Space
340
4B7
  0
BLOCK_RECORD
  5
227
330
1
100
AcDbSymbolTableRecord
100
AcDbBlockTableRecord
  2
_FILLED
340
0
102
{BLKREFS
331
251
331
252
331
5DE
331
5DF
331
614
331
615
331
65D
331
65E
102
}
  0
BLOCK_RECORD
  5
228
330
1
100
AcDbSymbolTableRecord
100
AcDbBlockTableRecord
  2
_DOTBLANK
340
0
  0
BLOCK_RECORD
  5
229
330
1
100
AcDbSymbolTableRecord
100
AcDbBlockTableRecord
  2
*D2
340
0
  0
BLOCK_RECORD
  5
22A
330
1
100
AcDbSymbolTableRecord
100
AcDbBlockTableRecord
  2
BALLOON_BL2
340
0
  0
BLOCK_RECORD
  5
22B
330
1
100
AcDbSymbolTableRecord
100
AcDbBlockTableRecord
  2
BALLOON_BL1
340
0
  0
BLOCK_RECORD
  5
22C
330
1
100
AcDbSymbolTableRecord
100
AcDbBlockTableRecord
  2
SYMBOL_0_BL0
340
0
  0
BLOCK_RECORD
  5
58E
330
1
100
AcDbSymbolTableRecord
100
AcDbBlockTableRecord
  2
GENAXEH
340
0
  0
BLOCK_RECORD
  5
5AD
330
1
100
AcDbSymbolTableRecord
100
AcDbBlockTableRecord
  2
*D8
340
0
  0
BLOCK_RECORD
  5
5E5
330
1
100
AcDbSymbolTableRecord
100
AcDbBlockTableRecord
  2
*D9
340
0
  0
BLOCK_RECORD
  5
61B
330
1
100
AcDbSymbolTableRecord
100
AcDbBlockTableRecord
  2
*D10
340
0
  0
ENDTAB
  0
ENDSEC
  0
SECTION
  2
BLOCKS
  0
BLOCK
  5
20
330
225
100
AcDbEntity
  8
0
100
AcDbBlockBegin
  2
*Model_Space
 70
     0
 10
0.0
 20
0.0
 30
0.0
  3
*Model_Space
  1

  0
ENDBLK
  5
21
330
225
100
AcDbEntity
  8
0
100
AcDbBlockEnd
  0
BLOCK
  5
1C
330
226
100
AcDbEntity
 67
     1
  8
0
100
AcDbBlockBegin
  2
*Paper_Space
 70
     0
 10
0.0
 20
0.0
 30
0.0
  3
*Paper_Space
  1

  0
ENDBLK
  5
1D
330
226
100
AcDbEntity
 67
     1
  8
0
100
AcDbBlockEnd
  0
BLOCK
  5
242
330
227
100
AcDbEntity
  8
0
100
AcDbBlockBegin
  2
_FILLED
 70
     0
 10
0.0
 20
0.0
 30
0.0
  3
_FILLED
  1

  0
SOLID
  5
243
330
227
100
AcDbEntity
  8
0
  6
ByBlock
 62
     0
100
AcDbTrace
 10
0.0
 20
0.0
 30
0.0
 11
-1.0
 21
0.125
 31
0.0
 12
-1.0
 22
-0.125
 32
0.0
 13
-1.0
 23
-0.125
 33
0.0
  0
ENDBLK
  5
244
330
227
100
AcDbEntity
  8
0
  6
ByBlock
 62
     0
100
AcDbBlockEnd
  0
BLOCK
  5
245
330
228
100
AcDbEntity
  8
0
100
AcDbBlockBegin
  2
_DOTBLANK
 70
     0
 10
0.0
 20
0.0
 30
0.0
  3
_DOTBLANK
  1

  0
CIRCLE
  5
246
330
228
100
AcDbEntity
  8
0
  6
ByBlock
 62
     0
100
AcDbCircle
 10
0.0
 20
0.0
 30
0.0
 40
0.125
  0
LINE
  5
247
330
228
100
AcDbEntity
  8
0
  6
ByBlock
 62
     0
100
AcDbLine
 10
-1.0
 20
0.0
 30
0.0
 11
0.0
 21
0.0
 31
0.0
  0
ENDBLK
  5
248
330
228
100
AcDbEntity
  8
0
  6
ByBlock
 62
     0
100
AcDbBlockEnd
  0
BLOCK
  5
249
330
229
100
AcDbEntity
  8
ZEICHNUNGSBEMASSUNGEN
  6
Continuous
 62
     2
100
AcDbBlockBegin
  2
*D2
 70
     1
 10
0.0
 20
0.0
 30
0.0
  3
*D2
  1

  0
MTEXT
  5
24A
330
229
100
AcDbEntity
  8
ZEICHNUNGSBEMASSUNGEN
  6
Continuous
 62
     5
100
AcDbMText
 10
178.5571005229
 20
158.1355346864
 30
0.0
 40
3.5
 41
5.25
 71
     2
 72
     1
  1
50
 11
0.0
 21
1.0
 31
0.0
 73
     1
 44
0.9
1001
ACAD
1000
MTEXTBEGIN
1070
    73
1070
     1
1070
    44
1040
0.9
1070
    74
1070
     0
1000
MTEXTEND
  0
LINE
  5
24B
330
229
100
AcDbEntity
  8
ZEICHNUNGSBEMASSUNGEN
  6
Continuous
 62
     2
100
AcDbLine
 10
169.2148136746
 20
183.528038747
 30
0.0
 11
182.0571005229
 21
183.528038747
 31
0.0
  0
LINE
  5
24C
330
229
100
AcDbEntity
  8
ZEICHNUNGSBEMASSUNGEN
  6
Continuous
 62
     2
100
AcDbLine
 10
182.0571005229
 20
183.528038747
 30
0.0
 11
184.4321005229
 21
183.528038747
 31
0.0
  0
LINE
  5
24D
330
229
100
AcDbEntity
  8
ZEICHNUNGSBEMASSUNGEN
  6
Continuous
 62
     2
100
AcDbLine
 10
168.9108045642
 20
132.7430306258
 30
0.0
 11
182.0571005229
 21
132.7430306258
 31
0.0
  0
LINE
  5
24E
330
229
100
AcDbEntity
  8
ZEICHNUNGSBEMASSUNGEN
  6
Continuous
 62
     2
100
AcDbLine
 10
182.0571005229
 20
132.7430306258
 30
0.0
 11
184.4321005229
 21
132.7430306258
 31
0.0
  0
LINE
  5
24F
330
229
100
AcDbEntity
  8
ZEICHNUNGSBEMASSUNGEN
  6
Continuous
 62
     2
100
AcDbLine
 10
182.9321005229
 20
183.528038747
 30
0.0
 11
182.9321005229
 21
158.1355346864
 31
0.0
  0
LINE
  5
250
330
229
100
AcDbEntity
  8
ZEICHNUNGSBEMASSUNGEN
  6
Continuous
 62
     2
100
AcDbLine
 10
182.9321005229
 20
132.7430306258
 30
0.0
 11
182.9321005229
 21
158.1355346864
 31
0.0
  0
INSERT
  5
251
330
229
100
AcDbEntity
  8
ZEICHNUNGSBEMASSUNGEN
  6
Continuous
 62
     2
100
AcDbBlockReference
  2
_FILLED
 10
182.9321005229
 20
183.528038747
 30
0.0
 41
3.5
 42
3.5
 43
3.5
 50
90.0
  0
INSERT
  5
252
330
229
100
AcDbEntity
  8
ZEICHNUNGSBEMASSUNGEN
  6
Continuous
 62
     2
100
AcDbBlockReference
  2
_FILLED
 10
182.9321005229
 20
132.7430306258
 30
0.0
 41
3.5
 42
3.5
 43
3.5
 50
270.0
  0
ENDBLK
  5
253
330
229
100
AcDbEntity
  8
0
  6
ByBlock
 62
     0
100
AcDbBlockEnd
  0
BLOCK
  5
22F
330
22A
100
AcDbEntity
  8
0
  6
Continuous
 62
     2
100
AcDbBlockBegin
  2
BALLOON_BL2
 70
     0
 10
43.6858855929
 20
190.40774169
 30
0.0
  3
BALLOON_BL2
  1

  0
CIRCLE
  5
230
330
22A
100
AcDbEntity
  8
0
  6
Continuous
 62
     2
100
AcDbCircle
 10
43.6858855929
 20
190.40774169
 30
0.0
 40
4.1955884318
  0
MTEXT
  5
231
330
22A
100
AcDbEntity
  8
0
  6
Continuous
 62
     5
100
AcDbMText
 10
41.9775522596
 20
192.15774169
 30
0.0
 40
3.5
 41
3.4166666667
 71
     1
 72
     1
  1
2
 73
     1
 44
0.9
1001
ACAD
1000
MTEXTBEGIN
1070
    73
1070
     1
1070
    44
1040
0.9
1070
    74
1070
     0
1000
MTEXTEND
  0
ENDBLK
  5
232
330
22A
100
AcDbEntity
  8
0
  6
ByBlock
 62
     0
100
AcDbBlockEnd
  0
BLOCK
  5
233
330
22B
100
AcDbEntity
  8
0
  6
Continuous
 62
     2
100
AcDbBlockBegin
  2
BALLOON_BL1
 70
     0
 10
44.17751661729999
 20
152.5866735845
 30
0.0
  3
BALLOON_BL1
  1

  0
CIRCLE
  5
234
330
22B
100
AcDbEntity
  8
0
  6
Continuous
 62
     2
100
AcDbCircle
 10
44.17751661729999
 20
152.5866735845
 30
0.0
 40
3.9500631304
  0
MTEXT
  5
235
330
22B
100
AcDbEntity
  8
0
  6
Continuous
 62
     5
100
AcDbMText
 10
42.844183284
 20
154.3366735845
 30
0.0
 40
3.5
 41
2.666666666699999
 71
     1
 72
     1
  1
1
 73
     1
 44
0.9
1001
ACAD
1000
MTEXTBEGIN
1070
    73
1070
     1
1070
    44
1040
0.9
1070
    74
1070
     0
1000
MTEXTEND
  0
ENDBLK
  5
236
330
22B
100
AcDbEntity
  8
0
  6
ByBlock
 62
     0
100
AcDbBlockEnd
  0
BLOCK
  5
237
330
22C
100
AcDbEntity
  8
0
  6
Continuous
 62
     2
100
AcDbBlockBegin
  2
SYMBOL_0_BL0
 70
     0
 10
111.4168489175
 20
32.6250038799
 30
0.0
  3
SYMBOL_0_BL0
  1

  0
LINE
  5
238
330
22C
100
AcDbEntity
  8
0
  6
Continuous
 62
     7
100
AcDbLine
 10
205.0168553551
 20
60.2500057799
 30
0.0
 11
17.8168424798
 21
60.2500057799
 31
0.0
  0
LINE
  5
239
330
22C
100
AcDbEntity
  8
0
  6
Continuous
 62
     7
100
AcDbLine
 10
17.8168424798
 20
60.2500057799
 30
0.0
 11
17.8168424798
 21
5.0000019799
 31
0.0
  0
LINE
  5
23A
330
22C
100
AcDbEntity
  8
0
  6
Continuous
 62
     7
100
AcDbLine
 10
17.8168424798
 20
5.0000019799
 30
0.0
 11
205.0168553551
 21
5.0000019799
 31
0.0
  0
LINE
  5
23B
330
22C
100
AcDbEntity
  8
0
  6
Continuous
 62
     7
100
AcDbLine
 10
205.0168553551
 20
5.0000019799
 30
0.0
 11
205.0168553551
 21
60.2500057799
 31
0.0
  0
LINE
  5
23C
330
22C
100
AcDbEntity
  8
0
  6
Continuous
 62
     7
100
AcDbLine
 10
72.4168462351
 20
60.2500057799
 30
0.0
 11
72.4168462351
 21
5.0000019799
 31
0.0
  0
LINE
  5
23D
330
22C
100
AcDbEntity
  8
0
  6
Continuous
 62
     7
100
AcDbLine
 10
116.6168492751
 20
60.2500057799
 30
0.0
 11
116.6168492751
 21
5.0000019799
 31
0.0
  0
LINE
  5
23E
330
22C
100
AcDbEntity
  8
0
  6
Continuous
 62
     7
100
AcDbLine
 10
17.8168424798
 20
43.2500046107
 30
0.0
 11
205.0168553551
 21
43.2500046107
 31
0.0
  0
LINE
  5
23F
330
22C
100
AcDbEntity
  8
0
  6
Continuous
 62
     7
100
AcDbLine
 10
192.016854461
 20
22.0000031492
 30
0.0
 11
192.016854461
 21
9.250002272199999
 31
0.0
  0
LINE
  5
240
330
22C
100
AcDbEntity
  8
0
  6
Continuous
 62
     7
100
AcDbLine
 10
72.4168462351
 20
22.0000031492
 30
0.0
 11
205.0168553551
 21
22.0000031492
 31
0.0
  0
ENDBLK
  5
241
330
22C
100
AcDbEntity
  8
0
  6
ByBlock
 62
     0
100
AcDbBlockEnd
  0
BLOCK
  5
590
330
58E
100
AcDbEntity
  8
0
100
AcDbBlockBegin
  2
GENAXEH
 70
     0
 10
0.0
 20
0.0
 30
0.0
  3
GENAXEH
  1

  0
LINE
  5
58F
330
58E
100
AcDbEntity
  8
0
100
AcDbLine
 10
-1.0
 20
0.0
 30
0.0
 11
1.0
 21
0.0
 31
0.0
  0
ENDBLK
  5
591
330
58E
100
AcDbEntity
  8
0
100
AcDbBlockEnd
  0
BLOCK
  5
5AE
330
5AD
100
AcDbEntity
  8
0
100
AcDbBlockBegin
  2
*D8
 70
     1
 10
0.0
 20
0.0
 30
0.0
  3
*D8
  1

  0
LINE
  5
5DA
330
5AD
100
AcDbEntity
  8
AM_5
 62
     0
370
    -2
100
AcDbLine
 10
161.69348138695
 20
132.7953845224
 30
0.0
 11
202.7331136498471
 21
132.7953845223999
 31
0.0
  0
LINE
  5
5DB
330
5AD
100
AcDbEntity
  8
AM_5
 62
     0
370
    -2
100
AcDbLine
 10
169.9148136745999
 20
183.528038747
 30
0.0
 11
202.7331136498471
 21
183.528038747
 31
0.0
  0
LINE
  5
5DC
330
5AD
100
AcDbEntity
  8
AM_5
 62
     0
370
    -2
100
AcDbLine
 10
196.3971136498471
 20
136.2953845223999
 30
0.0
 11
196.3971136498471
 21
156.3217116346999
 31
0.0
  0
LINE
  5
5DD
330
5AD
100
AcDbEntity
  8
AM_5
 62
     0
370
    -2
100
AcDbLine
 10
196.3971136498471
 20
180.028038747
 30
0.0
 11
196.3971136498471
 21
160.0017116347
 31
0.0
  0
INSERT
  5
5DE
330
5AD
100
AcDbEntity
  8
AM_5
 62
     0
370
    -2
100
AcDbBlockReference
  2
_FILLED
 10
196.3971136498471
 20
132.7953845223999
 30
0.0
 41
3.5
 42
3.5
 43
3.5
 50
270.0
  0
INSERT
  5
5DF
330
5AD
100
AcDbEntity
  8
AM_5
 62
     0
370
    -2
100
AcDbBlockReference
  2
_FILLED
 10
196.3971136498471
 20
183.528038747
 30
0.0
 41
3.5
 42
3.5
 43
3.5
 50
90.0
  0
MTEXT
  5
5E0
330
5AD
100
AcDbEntity
  8
AM_5
 62
     0
100
AcDbMText
 10
196.3971136498471
 20
158.1617116347
 30
0.0
 40
3.5
 41
0.0
 71
     5
 72
     1
  1
\A1;50
 73
     1
 44
1.0
1001
ACAD
1000
MTEXTBEGIN
1070
    73
1070
     1
1070
    44
1040
1.0
1070
    74
1070
     0
1000
MTEXTEND
  0
POINT
  5
5E1
330
5AD
100
AcDbEntity
  8
Defpoints
 62
     0
100
AcDbPoint
 10
159.49348138695
 20
132.7953845224
 30
0.0
  0
POINT
  5
5E2
330
5AD
100
AcDbEntity
  8
Defpoints
 62
     0
100
AcDbPoint
 10
167.7148136746
 20
183.528038747
 30
0.0
  0
POINT
  5
5E3
330
5AD
100
AcDbEntity
  8
Defpoints
 62
     0
100
AcDbPoint
 10
196.3971136498471
 20
183.528038747
 30
0.0
  0
ENDBLK
  5
5AF
330
5AD
100
AcDbEntity
  8
0
100
AcDbBlockEnd
  0
BLOCK
  5
5E6
330
5E5
100
AcDbEntity
  8
0
100
AcDbBlockBegin
  2
*D9
 70
     1
 10
0.0
 20
0.0
 30
0.0
  3
*D9
  1

  0
LINE
  5
610
330
5E5
100
AcDbEntity
  8
AM_5
 62
     0
370
    -2
100
AcDbLine
 10
152.4406568037
 20
115.688038747
 30
0.0
 11
226.0259602893363
 21
115.6880387469999
 31
0.0
  0
LINE
  5
611
330
5E5
100
AcDbEntity
  8
AM_5
 62
     0
370
    -2
100
AcDbLine
 10
174.4106566737348
 20
198.2574570005
 30
0.0
 11
226.0259602893364
 21
198.2574570004999
 31
0.0
  0
LINE
  5
612
330
5E5
100
AcDbEntity
  8
AM_5
 62
     0
370
    -2
100
AcDbLine
 10
219.6899602893363
 20
119.188038747
 30
0.0
 11
219.6899602893363
 21
155.1327478737499
 31
0.0
  0
LINE
  5
613
330
5E5
100
AcDbEntity
  8
AM_5
 62
     0
370
    -2
100
AcDbLine
 10
219.6899602893364
 20
194.7574570004999
 30
0.0
 11
219.6899602893363
 21
158.8127478737499
 31
0.0
  0
INSERT
  5
614
330
5E5
100
AcDbEntity
  8
AM_5
 62
     0
370
    -2
100
AcDbBlockReference
  2
_FILLED
 10
219.6899602893363
 20
115.688038747
 30
0.0
 41
3.5
 42
3.5
 43
3.5
 50
270.0
  0
INSERT
  5
615
330
5E5
100
AcDbEntity
  8
AM_5
 62
     0
370
    -2
100
AcDbBlockReference
  2
_FILLED
 10
219.6899602893364
 20
198.2574570004999
 30
0.0
 41
3.5
 42
3.5
 43
3.5
 50
90.0
  0
MTEXT
  5
616
330
5E5
100
AcDbEntity
  8
AM_5
 62
     0
100
AcDbMText
 10
219.6899602893363
 20
156.97274787375
 30
0.0
 40
3.5
 41
0.0
 71
     5
 72
     1
  1
\A1;83
 73
     1
 44
1.0
1001
ACAD
1000
MTEXTBEGIN
1070
    73
1070
     1
1070
    44
1040
1.0
1070
    74
1070
     0
1000
MTEXTEND
  0
POINT
  5
617
330
5E5
100
AcDbEntity
  8
Defpoints
 62
     0
100
AcDbPoint
 10
150.2406568037
 20
115.688038747
 30
0.0
  0
POINT
  5
618
330
5E5
100
AcDbEntity
  8
Defpoints
 62
     0
100
AcDbPoint
 10
172.2106566737348
 20
198.2574570005
 30
0.0
  0
POINT
  5
619
330
5E5
100
AcDbEntity
  8
Defpoints
 62
     0
100
AcDbPoint
 10
219.6899602893364
 20
198.2574570004999
 30
0.0
  0
ENDBLK
  5
5E7
330
5E5
100
AcDbEntity
  8
0
100
AcDbBlockEnd
  0
BLOCK
  5
61C
330
61B
100
AcDbEntity
  8
0
100
AcDbBlockBegin
  2
*D10
 70
     1
 10
0.0
 20
0.0
 30
0.0
  3
*D10
  1

  0
LINE
  5
659
330
61B
100
AcDbEntity
  8
AM_5
 62
     0
370
    -2
100
AcDbLine
 10
63.53365626627939
 20
199.7854097040721
 30
0.0
 11
63.53365626627939
 21
215.9214097040721
 31
0.0
  0
LINE
  5
65A
330
61B
100
AcDbEntity
  8
AM_5
 62
     0
370
    -2
100
AcDbLine
 10
173.9476573411206
 20
199.7854097040721
 30
0.0
 11
173.9476573411206
 21
215.9214097040721
 31
0.0
  0
LINE
  5
65B
330
61B
100
AcDbEntity
  8
AM_5
 62
     0
370
    -2
100
AcDbLine
 10
67.03365626627939
 20
209.5854097040721
 30
0.0
 11
115.1798234703666
 21
209.5854097040721
 31
0.0
  0
LINE
  5
65C
330
61B
100
AcDbEntity
  8
AM_5
 62
     0
370
    -2
100
AcDbLine
 10
170.4476573411206
 20
209.5854097040721
 30
0.0
 11
122.3014901370333
 21
209.5854097040721
 31
0.0
  0
INSERT
  5
65D
330
61B
100
AcDbEntity
  8
AM_5
 62
     0
370
    -2
100
AcDbBlockReference
  2
_FILLED
 10
63.53365626627939
 20
209.5854097040721
 30
0.0
 41
3.5
 42
3.5
 43
3.5
 50
180.0
  0
INSERT
  5
65E
330
61B
100
AcDbEntity
  8
AM_5
 62
     0
370
    -2
100
AcDbBlockReference
  2
_FILLED
 10
173.9476573411206
 20
209.5854097040721
 30
0.0
 41
3.5
 42
3.5
 43
3.5
  0
MTEXT
  5
65F
330
61B
100
AcDbEntity
  8
AM_5
 62
     0
100
AcDbMText
 10
118.7406568037
 20
209.5854097040721
 30
0.0
 40
3.5
 41
0.0
 71
     5
 72
     1
  1
\A1;%%c110
 73
     1
 44
1.0
1001
ACAD
1000
MTEXTBEGIN
1070
    73
1070
     1
1070
    44
1040
1.0
1070
    74
1070
     0
1000
MTEXTEND
  0
POINT
  5
660
330
61B
100
AcDbEntity
  8
Defpoints
 62
     0
100
AcDbPoint
 10
63.53365626627939
 20
197.5854097040721
 30
0.0
  0
POINT
  5
661
330
61B
100
AcDbEntity
  8
Defpoints
 62
     0
100
AcDbPoint
 10
173.9476573411206
 20
197.5854097040721
 30
0.0
  0
POINT
  5
662
330
61B
100
AcDbEntity
  8
Defpoints
 62
     0
100
AcDbPoint
 10
173.9476573411206
 20
209.5854097040721
 30
0.0
  0
ENDBLK
  5
61D
330
61B
100
AcDbEntity
  8
0
100
AcDbBlockEnd
  0
ENDSEC
  0
SECTION
  2
ENTITIES
  0
IMAGE
  5
254
330
225
100
AcDbEntity
  8
0
  6
Continuous
 62
     7
 92
      140
310
8C000000010000008400000006000000050000004E4BB7235F485240C65930B050AD224000000000000000004E4BB7235F48524078586FAF28B335400000000000000000E4727853F5045C4078586FAF28B335400000000000000000E4727853F5045C40C65930B050AD224000000000000000004E4BB7235F485240C65930
310
B050AD22400000000000000000
100
AcDbRasterImage
 90
        0
 10
73.13080685520001
 20
9.338506227399999
 30
0.0
 11
0.1693333333
 21
0.0
 31
0.0
 12
0.0
 22
0.1693333333
 32
0.0
 13
230.0
 23
73.0
340
4B8
 70
     1
280
     0
281
    50
282
    50
283
     0
360
4B3
 71
     1
 91
        2
 14
-0.5
 24
-0.5
 14
229.5
 24
72.5
  0
HATCH
  5
264
330
225
100
AcDbEntity
  8
0
  6
Continuous
 62
     2
100
AcDbHatch
 10
0.0
 20
0.0
 30
0.0
210
0.0
220
0.0
230
1.0
  2
A
 70
     0
 71
     0
 91
        2
 92
        1
 93
       12
 72
     1
 10
123.8662574897
 20
196.0951837987
 11
123.6926738954
 21
186.1505863406
 72
     4
 94
        3
 73
     1
 74
     0
 95
        8
 96
        4
 40
0.0
 40
0.0
 40
0.0
 40
0.0
 40
1.0
 40
1.0
 40
1.0
 40
1.0
 10
123.8662574897
 20
196.0951837987
 42
1.0
 10
123.8771179246
 20
196.7173776959
 42
0.7861981284000001
 10
124.3411006461
 20
197.1320621891
 42
0.7861981284000001
 10
124.9606045314
 20
197.0732563159
 42
1.0
 72
     4
 94
        3
 73
     1
 74
     0
 95
        8
 96
        4
 40
0.0
 40
0.0
 40
0.0
 40
0.0
 40
1.0
 40
1.0
 40
1.0
 40
1.0
 10
124.9606045314
 20
197.0732563159
 42
1.0
 10
128.6278306563
 20
196.7251480321
 42
0.9984129519999999
 10
132.2623211506
 20
196.1249766608
 42
0.9984129519999999
 10
135.8467716822
 20
195.2755997042
 42
1.0
 72
     1
 10
135.8467716599
 20
194.8453695823
 11
135.8467716599
 21
195.2755997095
 72
     4
 94
        3
 73
     1
 74
     0
 95
        8
 96
        4
 40
0.0
 40
0.0
 40
0.0
 40
0.0
 40
1.0
 40
1.0
 40
1.0
 40
1.0
 10
124.9186648054
 20
196.7154308554
 42
1.0
 10
128.6015671331
 20
196.3444467463
 42
0.9984095102999999
 10
132.2500722902
 20
195.7200999806
 42
0.9984095102999999
 10
135.8467715469
 20
194.8453696098
 42
1.0
 72
     4
 94
        3
 73
     1
 74
     0
 95
        8
 96
        4
 40
0.0
 40
0.0
 40
0.0
 40
0.0
 40
1.0
 40
1.0
 40
1.0
 40
1.0
 10
124.3686288346
 20
196.2266746216999
 42
1.0
 10
124.3740832614
 20
196.539158528
 42
0.7847891357
 10
124.6077069412
 20
196.7467540935
 42
0.7847891357
 10
124.9186648117
 20
196.7154308548
 42
1.0
 72
     1
 10
124.3686288346
 20
196.2266746216999
 11
124.192597743
 21
186.1418601374
 72
     4
 94
        3
 73
     1
 74
     0
 95
        8
 96
        4
 40
0.0
 40
0.0
 40
0.0
 40
0.0
 40
1.0
 40
1.0
 40
1.0
 40
1.0
 10
124.192597743
 20
186.1418601374
 42
1.0
 10
124.1774740477
 20
185.2754242178
 42
0.8088336328
 10
123.5593941023
 20
184.668038747
 42
0.8088336328
 10
122.6928262002
 20
184.668038747
 42
1.0
 72
     1
 10
122.6928262002
 20
184.668038747
 11
121.7406568037
 21
184.668038747
 72
     1
 10
121.7406568037
 20
185.168038747
 11
121.7406568037
 21
184.668038747
 72
     1
 10
122.6928262002
 20
185.168038747
 11
121.7406568037
 21
185.168038747
 72
     4
 94
        3
 73
     1
 74
     0
 95
        8
 96
        4
 40
0.0
 40
0.0
 40
0.0
 40
0.0
 40
1.0
 40
1.0
 40
1.0
 40
1.0
 10
123.6926738954
 20
186.1505863406
 42
1.0
 10
123.6825914319
 20
185.5729623942
 42
0.8088336328
 10
123.270538135
 20
185.1680387469999
 42
0.8088336328
 10
122.6928262002
 20
185.168038747
 42
1.0
 97
        0
 92
        1
 93
       18
 72
     4
 94
        3
 73
     0
 74
     0
 95
        8
 96
        4
 40
0.0
 40
0.0
 40
0.0
 40
0.0
 40
1.0
 40
1.0
 40
1.0
 40
1.0
 10
98.56500081500001
 20
194.0342518485
 10
92.9307464418
 20
192.4256053737
 10
87.47997146580001
 20
190.195557927
 10
82.21267588699999
 20
187.3441095085
 72
     2
 10
120.7178740427
 20
116.2495720389
 40
80.87772378930001
 50
95.4023999208
 51
105.8968143567
 73
     1
 72
     4
 94
        3
 73
     1
 74
     0
 95
        8
 96
        4
 40
0.0
 40
0.0
 40
0.0
 40
0.0
 40
1.0
 40
1.0
 40
1.0
 40
1.0
 10
113.1032352269
 20
196.768038747
 42
1.0
 10
108.1798680272
 20
196.3057174835
 42
0.9971658273999999
 10
103.320016231
 20
195.3918651687
 42
0.9971658273999999
 10
98.56500081500001
 20
194.0342518485
 42
1.0
 72
     4
 94
        3
 73
     1
 74
     0
 95
        8
 96
        4
 40
0.0
 40
0.0
 40
0.0
 40
0.0
 40
1.0
 40
1.0
 40
1.0
 40
1.0
 10
98.56500081500001
 20
194.0342518485
 42
1.0
 10
92.87896984280001
 20
192.4108225403
 42
0.9959534944999999
 10
87.40604866129999
 20
190.1717145309
 42
0.9959534944999999
 10
82.21267588699999
 20
187.3441095085
 42
1.0
 72
     4
 94
        3
 73
     1
 74
     0
 95
        8
 96
        4
 40
0.0
 40
0.0
 40
0.0
 40
0.0
 40
1.0
 40
1.0
 40
1.0
 40
1.0
 10
82.2126758839
 20
187.3441095068
 42
1.0
 10
81.7944462762
 20
187.1163985008
 42
0.9999736246999999
 10
81.37825874859998
 20
186.8849762700999
 42
0.9999736246999999
 10
80.96414623239999
 20
186.6498611262
 42
1.0
 72
     1
 10
81.2406568037
 20
187.3701957919
 11
80.96414623239999
 21
186.6498611262
 72
     4
 94
        3
 73
     1
 74
     0
 95
        8
 96
        4
 40
0.0
 40
0.0
 40
0.0
 40
0.0
 40
1.0
 40
1.0
 40
1.0
 40
1.0
 10
112.520709076
 20
197.0732563159
 42
1.0
 10
101.4971479859
 20
196.0268542666
 42
0.9858845359
 10
90.92117918739999
 20
192.746192698
 42
0.9858845359
 10
81.2406568037
 20
187.3701957919
 42
1.0
 72
     4
 94
        3
 73
     1
 74
     0
 95
        8
 96
        4
 40
0.0
 40
0.0
 40
0.0
 40
0.0
 40
1.0
 40
1.0
 40
1.0
 40
1.0
 10
113.6150561177
 20
196.0951837987
 42
1.0
 10
113.6041956829
 20
196.7173776959
 42
0.7861981284000001
 10
113.1402129613
 20
197.1320621891
 42
0.7861981284000001
 10
112.520709076
 20
197.0732563159
 42
1.0
 72
     1
 10
113.6150561177
 20
196.0951837987
 11
113.6384782178
 21
194.753332583
 72
     1
 10
113.6384782178
 20
194.753332583
 11
113.788639712
 21
186.1505863406
 72
     4
 94
        3
 73
     1
 74
     0
 95
        8
 96
        4
 40
0.0
 40
0.0
 40
0.0
 40
0.0
 40
1.0
 40
1.0
 40
1.0
 40
1.0
 10
113.788639712
 20
186.1505863406
 42
1.0
 10
113.7987221755
 20
185.5729623942
 42
0.8088336328
 10
114.2107754725
 20
185.1680387469999
 42
0.8088336328
 10
114.7884874072
 20
185.168038747
 42
1.0
 72
     1
 10
115.7406568037
 20
185.168038747
 11
114.7884874072
 21
185.168038747
 72
     1
 10
115.7406568037
 20
185.168038747
 11
115.7406568037
 21
184.668038747
 72
     1
 10
115.7406568037
 20
184.668038747
 11
114.7884874072
 21
184.668038747
 72
     4
 94
        3
 73
     1
 74
     0
 95
        8
 96
        4
 40
0.0
 40
0.0
 40
0.0
 40
0.0
 40
1.0
 40
1.0
 40
1.0
 40
1.0
 10
113.2887158645
 20
186.1418601374
 42
1.0
 10
113.3038395597
 20
185.2754242178
 42
0.8088336328
 10
113.9219195051
 20
184.668038747
 42
0.8088336328
 10
114.7884874072
 20
184.668038747
 42
1.0
 72
     1
 10
113.14229039
 20
194.5305699537
 11
113.2887158645
 21
186.1418601374
 72
     4
 94
        3
 73
     1
 74
     0
 95
        8
 96
        4
 40
0.0
 40
0.0
 40
0.0
 40
0.0
 40
1.0
 40
1.0
 40
1.0
 40
1.0
 10
113.1422942603
 20
194.5305695656
 42
1.0
 10
113.1402105026
 20
194.6499798098
 42
0.7989723398999999
 10
113.0532990773
 20
194.7318916687
 42
0.7989723398999999
 10
112.9339747858
 20
194.7269054941999
 42
1.0
 72
     4
 94
        3
 73
     0
 74
     0
 95
        9
 96
        5
 40
0.0
 40
0.0
 40
0.0
 40
0.0
 40
0.7416395221
 40
1.0
 40
1.0
 40
1.0
 40
1.0
 10
82.21267588699999
 20
187.3441095085
 10
89.54865971629999
 20
190.6663684524
 10
99.69896300610001
 20
193.6488481379
 10
110.1981246084
 20
194.6126455898
 10
112.9339793573
 20
194.7269054454
 97
        0
 75
     0
 76
     0
 52
45.0
 41
0.0431126982
 77
     0
 78
     2
 53
45.0
 43
0.0
 44
0.0
 45
-0.0304852813
 46
0.0304852813
 79
     0
 53
165.0
 43
0.0
 44
0.0
 45
-0.0066359915
 46
-0.0247658574
 79
     0
 98
        1
 10
0.0
 20
0.0
  0
HATCH
  5
265
330
225
100
AcDbEntity
  8
0
  6
Continuous
 62
     2
100
AcDbHatch
 10
0.0
 20
0.0
 30
0.0
210
0.0
220
0.0
230
1.0
  2
DEFAULT__1
 70
     0
 71
     0
 91
        1
 92
        1
 93
       50
 72
     1
 10
70.07050904329999
 20
132.7430306258
 11
68.7675281928
 21
182.5018617987
 72
     4
 94
        3
 73
     1
 74
     0
 95
       11
 96
        7
 40
0.0
 40
0.0
 40
0.0
 40
0.0
 40
1.0
 40
1.0
 40
1.0
 40
2.0
 40
2.0
 40
2.0
 40
2.0
 10
68.7668426078
 20
182.5018617987
 42
1.0
 10
68.7515085065
 20
183.087447502
 42
0.8047378541
 10
69.1547372812
 20
183.5123619707
 42
0.8047378541
 10
69.7403229845
 20
183.527696072
 42
1.0
 10
70.3259086877
 20
183.5430301733
 42
0.8047378541
 10
70.75082315649999
 20
183.1398013986
 42
0.8047378541
 10
70.7661572578
 20
182.5542156954
 42
1.0
 72
     1
 10
72.06913810819999
 20
132.7953845224
 11
70.7661572578
 21
182.5542156954
 72
     4
 94
        3
 73
     1
 74
     0
 95
        8
 96
        4
 40
0.0
 40
0.0
 40
0.0
 40
0.0
 40
1.0
 40
1.0
 40
1.0
 40
1.0
 10
87.0639979829
 20
118.188038747
 42
1.0
 10
78.4585222174
 20
118.188038747
 42
0.8108679623
 10
72.29440320250001
 20
124.1928576386
 42
0.8108679623
 10
72.06913810819999
 20
132.7953845224
 42
1.0
 72
     1
 10
87.0639979829
 20
118.188038747
 11
107.1667577717
 21
118.188038747
 72
     4
 94
        3
 73
     1
 74
     0
 95
        8
 96
        4
 40
0.0
 40
0.0
 40
0.0
 40
0.0
 40
1.0
 40
1.0
 40
1.0
 40
1.0
 10
112.1659962475
 20
123.1007767149
 42
1.0
 10
112.11558393
 20
120.2126569828
 42
0.8088336328
 10
110.0553174454
 20
118.188038747
 42
0.8088336328
 10
107.1667577717
 20
118.188038747
 42
1.0
 72
     1
 10
112.1659962475
 20
123.1007767149
 11
113.2235063717
 21
183.6854911535
 72
     4
 94
        3
 73
     1
 74
     0
 95
        8
 96
        4
 40
0.0
 40
0.0
 40
0.0
 40
0.0
 40
1.0
 40
1.0
 40
1.0
 40
1.0
 10
113.2235063717
 20
183.6854911535
 42
1.0
 10
113.2335888352
 20
184.2631150999
 42
0.8088336327
 10
113.6456421321
 20
184.6680387471
 42
0.8088336327
 10
114.2233540669
 20
184.668038747
 42
1.0
 72
     1
 10
114.2233540668
 20
184.668038747
 11
115.8240673493
 21
184.668038747
 72
     1
 10
115.8240673493
 20
184.668038747
 11
116.0720815877
 21
198.8767649503
 72
     4
 94
        3
 73
     1
 74
     0
 95
        8
 96
        4
 40
0.0
 40
0.0
 40
0.0
 40
0.0
 40
1.0
 40
1.0
 40
1.0
 40
1.0
 10
116.0720815877
 20
198.8767649503
 42
1.0
 10
116.0771228195
 20
199.1655769238
 42
0.8088336325
 10
116.2831494682
 20
199.3680387474
 42
0.8088336325
 10
116.5720054359
 20
199.368038747
 42
1.0
 72
     1
 10
116.5720054353
 20
199.368038747
 11
120.9093081722
 21
199.368038747
 72
     4
 94
        3
 73
     1
 74
     0
 95
        8
 96
        4
 40
0.0
 40
0.0
 40
0.0
 40
0.0
 40
1.0
 40
1.0
 40
1.0
 40
1.0
 10
121.4092320197
 20
198.8767649503
 42
1.0
 10
121.4041907879999
 20
199.1655769238
 42
0.8088336325
 10
121.1981641392
 20
199.3680387474
 42
0.8088336325
 10
120.9093081715
 20
199.368038747
 42
1.0
 72
     1
 10
121.6572462582
 20
184.668038747
 11
121.4092320197
 21
198.8767649503
 72
     1
 10
121.6572462582
 20
184.668038747
 11
123.2579595406
 21
184.668038747
 72
     4
 94
        3
 73
     1
 74
     0
 95
        8
 96
        4
 40
0.0
 40
0.0
 40
0.0
 40
0.0
 40
1.0
 40
1.0
 40
1.0
 40
1.0
 10
124.2578072357
 20
183.6854911535
 42
1.0
 10
124.2477247723
 20
184.2631150999
 42
0.8088336327
 10
123.8356714753
 20
184.6680387471
 42
0.8088336327
 10
123.2579595405
 20
184.668038747
 42
1.0
 72
     1
 10
125.3153173599
 20
123.1007767149
 11
124.2578072357
 21
183.6854911535
 72
     4
 94
        3
 73
     1
 74
     0
 95
        8
 96
        4
 40
0.0
 40
0.0
 40
0.0
 40
0.0
 40
1.0
 40
1.0
 40
1.0
 40
1.0
 10
125.3153173599
 20
123.1007767149
 42
1.0
 10
125.3657296774
 20
120.2126569828
 42
0.8088336328
 10
127.425996162
 20
118.188038747
 42
0.8088336328
 10
130.3145558357
 20
118.188038747
 42
1.0
 72
     1
 10
130.3145558357
 20
118.188038747
 11
150.4173156246
 21
118.188038747
 72
     4
 94
        3
 73
     1
 74
     0
 95
        8
 96
        4
 40
0.0
 40
0.0
 40
0.0
 40
0.0
 40
1.0
 40
1.0
 40
1.0
 40
1.0
 10
150.4173156246
 20
118.188038747
 42
1.0
 10
159.02279139
 20
118.188038747
 42
0.8108679623
 10
165.1869104049
 20
124.1928576386
 42
0.8108679623
 10
165.4121754992
 20
132.7953845224
 42
1.0
 72
     1
 10
165.4121754992
 20
132.7953845224
 11
166.7151563496999
 21
182.5542156954
 72
     4
 94
        3
 73
     1
 74
     0
 95
       11
 96
        7
 40
0.0
 40
0.0
 40
0.0
 40
0.0
 40
1.0
 40
1.0
 40
1.0
 40
2.0
 40
2.0
 40
2.0
 40
2.0
 10
168.7144709996
 20
182.5018617987
 42
1.0
 10
168.7298051009
 20
183.087447502
 42
0.8047378541
 10
168.3265763262
 20
183.5123619707
 42
0.8047378541
 10
167.7409906229
 20
183.527696072
 42
1.0
 10
167.1554049197
 20
183.5430301733
 42
0.8047378541
 10
166.730490451
 20
183.1398013986
 42
0.8047378541
 10
166.7151563496999
 20
182.5542156954
 42
1.0
 72
     1
 10
167.4108045642
 20
132.7430306258
 11
168.7137854146
 21
182.5018617987
 72
     4
 94
        3
 73
     1
 74
     0
 95
        8
 96
        4
 40
0.0
 40
0.0
 40
0.0
 40
0.0
 40
1.0
 40
1.0
 40
1.0
 40
1.0
 10
150.4906568037
 20
116.1881999232
 42
1.0
 10
160.2094899155
 20
116.2305211342
 42
0.8118796793000001
 10
167.1563927600999
 20
123.0274358024
 42
0.8118796793000001
 10
167.4108045642
 20
132.7430306258
 42
1.0
 72
     1
 10
150.2406568037
 20
115.688038747
 11
150.4906568037
 21
116.1881999232
 72
     1
 10
149.7406568037
 20
115.688038747
 11
150.2406568037
 21
115.688038747
 72
     1
 10
149.7406568037
 20
115.688038747
 11
149.2406568037
 21
116.188038747
 72
     1
 10
130.2845512659
 20
116.188038747
 11
149.2406568037
 21
116.188038747
 72
     4
 94
        3
 73
     1
 74
     0
 95
        8
 96
        4
 40
0.0
 40
0.0
 40
0.0
 40
0.0
 40
1.0
 40
1.0
 40
1.0
 40
1.0
 10
123.2856173998
 20
123.065871902
 42
1.0
 10
123.3561946442
 20
119.0225042771
 42
0.8088336328
 10
126.2405677227
 20
116.1880387471
 42
0.8088336328
 10
130.2845512658
 20
116.188038747
 42
1.0
 72
     1
 10
123.2856173998
 20
123.065871902
 11
123.1045685602
 21
133.4381529757
 72
     4
 94
        3
 73
     1
 74
     0
 95
        8
 96
        4
 40
0.0
 40
0.0
 40
0.0
 40
0.0
 40
1.0
 40
1.0
 40
1.0
 40
1.0
 10
123.0783899505
 20
134.9379245184
 42
1.0
 10
121.5786184078
 20
134.9117459088
 42
0.3333333333
 10
121.6047970174
 20
133.411974366
 42
0.3333333333
 10
123.1045685602
 20
133.4381529757
 42
1.0
 72
     1
 10
123.0783899505
 20
134.9379245184
 11
122.2640927196
 21
181.5889816348
 72
     4
 94
        3
 73
     1
 74
     0
 95
        8
 96
        4
 40
0.0
 40
0.0
 40
0.0
 40
0.0
 40
1.0
 40
1.0
 40
1.0
 40
1.0
 10
122.2640927196
 20
181.5889816348
 42
1.0
 10
122.2539408671
 20
182.1705808734
 42
0.8553717440999999
 10
121.8842662182
 20
182.6196926505
 42
0.8553717440999999
 10
121.3154649719
 20
182.7414542071
 42
1.0
 72
     4
 94
        3
 73
     1
 74
     0
 95
        8
 96
        4
 40
0.0
 40
0.0
 40
0.0
 40
0.0
 40
1.0
 40
1.0
 40
1.0
 40
1.0
 10
119.655366414
 20
184.7582812085
 42
1.0
 10
119.6731321559
 20
183.7404825415
 42
0.8553717441999999
 10
120.320062791
 20
182.9545369316999
 42
0.8553717441999999
 10
121.3154649714
 20
182.7414542072
 42
1.0
 72
     1
 10
119.655366414
 20
184.7582812085
 11
119.4438374935
 21
196.8767649503
 72
     4
 94
        3
 73
     1
 74
     0
 95
        8
 96
        4
 40
0.0
 40
0.0
 40
0.0
 40
0.0
 40
1.0
 40
1.0
 40
1.0
 40
1.0
 10
119.4438374935
 20
196.8767649503
 42
1.0
 10
119.4387962617
 20
197.1655769236
 42
0.8088336326
 10
119.2327696131
 20
197.3680387472
 42
0.8088336326
 10
118.9439136456
 20
197.368038747
 42
1.0
 72
     1
 10
118.5373999615
 20
197.368038747
 11
118.9439136459
 21
197.368038747
 72
     4
 94
        3
 73
     1
 74
     0
 95
        8
 96
        4
 40
0.0
 40
0.0
 40
0.0
 40
0.0
 40
1.0
 40
1.0
 40
1.0
 40
1.0
 10
118.0374761139
 20
196.8767649503
 42
1.0
 10
118.0425173457
 20
197.1655769236
 42
0.8088336326
 10
118.2485439943
 20
197.3680387472
 42
0.8088336326
 10
118.5373999618
 20
197.368038747
 42
1.0
 72
     1
 10
117.8259471934
 20
184.7582812085
 11
118.0374761139
 21
196.8767649503
 72
     4
 94
        3
 73
     1
 74
     0
 95
        8
 96
        4
 40
0.0
 40
0.0
 40
0.0
 40
0.0
 40
1.0
 40
1.0
 40
1.0
 40
1.0
 10
117.8259471934
 20
184.7582812085
 42
1.0
 10
117.8081814516
 20
183.7404825413999
 42
0.8553717441999999
 10
117.1612508162999
 20
182.9545369316
 42
0.8553717441999999
 10
116.1658486359
 20
182.7414542072
 42
1.0
 72
     4
 94
        3
 73
     1
 74
     0
 95
        8
 96
        4
 40
0.0
 40
0.0
 40
0.0
 40
0.0
 40
1.0
 40
1.0
 40
1.0
 40
1.0
 10
115.2172208878
 20
181.5889816348
 42
1.0
 10
115.2273727403
 20
182.1705808733
 42
0.8553717440999999
 10
115.5970473892
 20
182.6196926505
 42
0.8553717440999999
 10
116.1658486355
 20
182.7414542071
 42
1.0
 72
     1
 10
114.4029236569
 20
134.9379245184
 11
115.2172208878
 21
181.5889816348
 72
     4
 94
        3
 73
     1
 74
     0
 95
       11
 96
        7
 40
0.0
 40
0.0
 40
0.0
 40
0.0
 40
1.0
 40
1.0
 40
1.0
 40
2.0
 40
2.0
 40
2.0
 40
2.0
 10
114.4029236569
 20
134.9379245184
 42
1.0
 10
114.8421965715
 20
134.9302569812
 42
0.8047378541
 10
115.1473876607
 20
134.6142223569
 42
0.8047378541
 10
115.1397201234
 20
134.1749494422
 42
1.0
 10
115.1320525862
 20
133.7356765276
 42
0.8047378541
 10
114.8160179619
 20
133.4304854384
 42
0.8047378541
 10
114.3767450472
 20
133.4381529757
 42
1.0
 72
     1
 10
114.1956962076
 20
123.065871902
 11
114.3767450472
 21
133.4381529757
 72
     4
 94
        3
 73
     1
 74
     0
 95
        8
 96
        4
 40
0.0
 40
0.0
 40
0.0
 40
0.0
 40
1.0
 40
1.0
 40
1.0
 40
1.0
 10
114.1956962076
 20
123.065871902
 42
1.0
 10
114.1251189632
 20
119.0225042772
 42
0.8088336328
 10
111.2407458847
 20
116.1880387471
 42
0.8088336328
 10
107.1967623416
 20
116.188038747
 42
1.0
 72
     1
 10
88.24065680370001
 20
116.188038747
 11
107.1967623415
 21
116.188038747
 72
     1
 10
87.7406568037
 20
115.688038747
 11
88.24065680370001
 21
116.188038747
 72
     1
 10
87.24065680370001
 20
115.688038747
 11
87.7406568037
 21
115.688038747
 72
     1
 10
87.24065680370001
 20
115.688038747
 11
86.99065680370001
 21
116.1881999232
 72
     4
 94
        3
 73
     1
 74
     0
 95
        8
 96
        4
 40
0.0
 40
0.0
 40
0.0
 40
0.0
 40
1.0
 40
1.0
 40
1.0
 40
1.0
 10
86.99065680370001
 20
116.1881999232
 42
1.0
 10
77.2718236919
 20
116.2305211342
 42
0.8118796793000001
 10
70.32492084729999
 20
123.0274358024
 42
0.8118796793000001
 10
70.07050904329999
 20
132.7430306258
 42
1.0
 97
        0
 75
     0
 76
     0
 52
125.0
 41
8.052586144799999
 77
     0
 78
     1
 53
125.0
 43
0.0
 44
0.0
 45
-6.5962924023
 46
-4.618773664299999
 79
     0
 98
        1
 10
0.0
 20
0.0
  0
HATCH
  5
266
330
225
100
AcDbEntity
  8
0
  6
Continuous
 62
     2
100
AcDbHatch
 10
0.0
 20
0.0
 30
0.0
210
0.0
220
0.0
230
1.0
  2
DEFAULT__2
 70
     0
 71
     0
 91
        3
 92
        1
 93
       14
 72
     4
 94
        3
 73
     1
 74
     0
 95
        8
 96
        4
 40
0.0
 40
0.0
 40
0.0
 40
0.0
 40
1.0
 40
1.0
 40
1.0
 40
1.0
 10
83.1406568072
 20
184.7080387471
 42
1.0
 10
83.0982525882
 20
189.5670809591999
 42
0.8571495216
 10
80.059243409
 20
193.3587181449
 42
0.8571495216
 10
75.3260010152
 20
194.4580387458
 42
1.0
 72
     1
 10
75.3260010173
 20
194.458038747
 11
66.7406568064
 21
194.458038747
 72
     1
 10
66.5870651061
 20
196.1823989741
 11
66.7406568064
 21
194.458038747
 72
     4
 94
        3
 73
     1
 74
     0
 95
        8
 96
        4
 40
0.0
 40
0.0
 40
0.0
 40
0.0
 40
1.0
 40
1.0
 40
1.0
 40
1.0
 10
66.5870651061
 20
196.182398974
 42
1.0
 10
66.5628742416
 20
196.4539876366
 42
0.8252051432
 10
66.3617007153
 20
196.6380387486999
 42
0.8252051432
 10
66.0890368205
 20
196.638038747
 42
1.0
 72
     1
 10
66.08903682350001
 20
196.638038747
 11
65.85830571169999
 21
196.638038747
 72
     4
 94
        3
 73
     1
 74
     0
 95
        8
 96
        4
 40
0.0
 40
0.0
 40
0.0
 40
0.0
 40
1.0
 40
1.0
 40
1.0
 40
1.0
 10
65.37438520090001
 20
197.0122574318
 42
1.0
 10
65.4339831468
 20
196.7829652799
 42
0.8607089393
 10
65.6213947431
 20
196.638038748
 42
0.8607089393
 10
65.8583057097
 20
196.6380387471
 42
1.0
 72
     1
 10
65.3106525758
 20
197.2574570005
 11
65.37438520100001
 21
197.0122574315
 72
     1
 10
65.3106525758
 20
197.2574570005
 11
65.27065680639999
 21
197.2574570005
 72
     1
 10
65.27065680639999
 20
198.2574570005
 11
65.27065680639999
 21
197.2574570005
 72
     4
 94
        3
 73
     0
 74
     0
 95
       15
 96
       11
 40
0.0
 40
0.0
 40
0.0
 40
0.0
 40
0.125
 40
0.25
 40
0.375
 40
0.5
 40
0.625
 40
0.75
 40
0.875
 40
1.0
 40
1.0
 40
1.0
 40
1.0
 10
65.27065680639999
 20
198.2574570005
 10
65.9802884515
 20
198.2569507571
 10
67.393556757
 20
198.2409920559
 10
69.4881164447
 20
198.1438103322
 10
71.5795871535
 20
197.9426692125
 10
73.66355823550001
 20
197.6036724736
 10
75.75078450799999
 20
197.080443091
 10
77.7798537882
 20
196.3361106725999
 10
79.70682265349999
 20
195.3152025237
 10
80.85047603460001
 20
194.4617598257
 10
81.3906574934
 20
193.9880381452
 72
     4
 94
        3
 73
     0
 74
     0
 95
        9
 96
        5
 40
0.0
 40
0.0
 40
0.0
 40
0.0
 40
0.5470305949000001
 40
1.0
 40
1.0
 40
1.0
 40
1.0
 10
81.3906566854
 20
193.9880388547
 10
82.89804078500001
 20
192.6661119298
 10
84.86994325279999
 20
189.8101988094
 10
85.6256811303
 20
186.4140974289
 10
85.75386285609999
 20
184.8080382358
 72
     1
 10
85.75386281570001
 20
184.808038747
 11
84.8553140889
 21
133.3302166699
 72
     4
 94
        3
 73
     1
 74
     0
 95
        8
 96
        4
 40
0.0
 40
0.0
 40
0.0
 40
0.0
 40
1.0
 40
1.0
 40
1.0
 40
1.0
 10
83.58897604810001
 20
133.3357421471
 42
1.0
 10
83.59974497520001
 20
132.1017453099
 42
0.3420597304
 10
84.833777054
 20
132.0963607949
 42
0.3420597304
 10
84.8553140886
 20
133.3302166699
 42
1.0
 72
     1
 10
83.14065680369999
 20
184.708038747
 11
83.58897604810001
 21
133.3357421471
 97
        0
 92
        1
 93
       14
 72
     4
 94
        3
 73
     1
 74
     0
 95
        8
 96
        4
 40
0.0
 40
0.0
 40
0.0
 40
0.0
 40
1.0
 40
1.0
 40
1.0
 40
1.0
 10
154.3406568002
 20
184.7080387471
 42
1.0
 10
154.3830610192
 20
189.5670809591999
 42
0.8571495216
 10
157.4220701985
 20
193.3587181449
 42
0.8571495216
 10
162.1553125922
 20
194.4580387458
 42
1.0
 72
     1
 10
154.3406568037
 20
184.708038747
 11
153.8923375593
 21
133.3357421471
 72
     4
 94
        3
 73
     1
 74
     0
 95
        8
 96
        4
 40
0.0
 40
0.0
 40
0.0
 40
0.0
 40
1.0
 40
1.0
 40
1.0
 40
1.0
 10
153.8923375593
 20
133.3357421471
 42
1.0
 10
153.8815686322
 20
132.1017453099
 42
0.3420597304
 10
152.6475365534
 20
132.0963607949
 42
0.3420597304
 10
152.6259995189
 20
133.3302166699
 42
1.0
 72
     1
 10
151.7274507917
 20
184.808038747
 11
152.6259995186
 21
133.3302166699
 72
     4
 94
        3
 73
     0
 74
     0
 95
        9
 96
        5
 40
0.0
 40
0.0
 40
0.0
 40
0.0
 40
0.4529694083
 40
1.0
 40
1.0
 40
1.0
 40
1.0
 10
151.7274507479
 20
184.8080381937
 10
151.8556324711
 20
186.414097402
 10
152.611370345
 20
189.8101987898
 10
154.5832728128
 20
192.6661119159
 10
156.0906569018
 20
193.988038837
 72
     4
 94
        3
 73
     0
 74
     0
 95
       15
 96
       11
 40
0.0
 40
0.0
 40
0.0
 40
0.0
 40
0.125
 40
0.25
 40
0.375
 40
0.5
 40
0.625
 40
0.75
 40
0.875
 40
1.0
 40
1.0
 40
1.0
 40
1.0
 10
156.0906561444
 20
193.9880381718
 10
156.6309685089
 20
194.4618746496
 10
157.7750436782
 20
195.3156363726
 10
159.7037556582
 20
196.337219347
 10
161.7345873065
 20
197.0817214666999
 10
163.8226542281
 20
197.604663541
 10
165.9057987139
 20
197.9431510491999
 10
167.9955976234
 20
198.1439439772
 10
170.088369965
 20
198.2409928203
 10
171.5011551557
 20
198.2569508498
 10
172.2106568011
 20
198.2574570005
 72
     1
 10
172.2106568011
 20
198.2574570005
 11
172.2106568011
 21
197.2574570005
 72
     1
 10
172.2106568011
 20
197.2574570005
 11
172.1706610316
 21
197.2574570005
 72
     1
 10
172.1706610316
 20
197.2574570005
 11
172.1069284065
 21
197.0122574315
 72
     4
 94
        3
 73
     1
 74
     0
 95
        8
 96
        4
 40
0.0
 40
0.0
 40
0.0
 40
0.0
 40
1.0
 40
1.0
 40
1.0
 40
1.0
 10
172.1069284065
 20
197.0122574318
 42
1.0
 10
172.0473304606
 20
196.7829652799
 42
0.8607089393
 10
171.8599188643
 20
196.638038748
 42
0.8607089393
 10
171.6230078977
 20
196.6380387471
 42
1.0
 72
     1
 10
171.6230078957
 20
196.638038747
 11
171.3922767839
 21
196.638038747
 72
     4
 94
        3
 73
     1
 74
     0
 95
        8
 96
        4
 40
0.0
 40
0.0
 40
0.0
 40
0.0
 40
1.0
 40
1.0
 40
1.0
 40
1.0
 10
170.8942485013
 20
196.182398974
 42
1.0
 10
170.9184393658
 20
196.4539876366
 42
0.8252051432
 10
171.1196128921
 20
196.6380387486999
 42
0.8252051432
 10
171.3922767869
 20
196.638038747
 42
1.0
 72
     1
 10
170.8942485013
 20
196.1823989741
 11
170.740656801
 21
194.458038747
 72
     1
 10
170.740656801
 20
194.458038747
 11
162.1553125901
 21
194.458038747
 97
        0
 92
        1
 93
       18
 72
     4
 94
        3
 73
     0
 74
     0
 95
       27
 96
       23
 40
0.0
 40
0.0
 40
0.0
 40
0.0
 40
0.05
 40
0.1
 40
0.15
 40
0.2
 40
0.25
 40
0.3
 40
0.35
 40
0.4
 40
0.45
 40
0.5
 40
0.55
 40
0.6
 40
0.65
 40
0.7
 40
0.75
 40
0.8
 40
0.85
 40
0.9
 40
0.95
 40
1.0
 40
1.0
 40
1.0
 40
1.0
 10
112.9073604738
 20
198.8610593898
 10
112.7778365182
 20
198.78462955
 10
112.5010509156
 20
198.6485596729
 10
112.0276006682
 20
198.4814868628
 10
111.5291184188
 20
198.3606142193
 10
111.0143111062
 20
198.2854732736999
 10
110.5126937869
 20
198.252179816
 10
110.0410267695
 20
198.2551522995
 10
109.6023289753
 20
198.2913670562
 10
109.2054996613
 20
198.3601385657
 10
108.8556301701
 20
198.4645580568
 10
108.5543687949
 20
198.6112799594
 10
108.3213917902
 20
198.7960738486
 10
108.1726219543
 20
199.0240869173
 10
108.1383841736
 20
199.2698987223
 10
108.2179825154
 20
199.5156847637
 10
108.3817483754
 20
199.738261519
 10
108.6109349296
 20
199.9483523605
 10
108.8910238086
 20
200.1392556988
 10
109.2043554907
 20
200.3062961839
 10
109.5496771747
 20
200.4517832246
 10
109.8004409383
 20
200.5335524926
 10
109.9311648146
 20
200.5702056055
 72
     2
 10
119.9562306946
 20
164.7657827015
 40
37.1814493749
 50
100.3561765588
 51
105.6420038333
 73
     1
 72
     4
 94
        3
 73
     0
 74
     0
 95
        9
 96
        5
 40
0.0
 40
0.0
 40
0.0
 40
0.0
 40
0.5
 40
1.0
 40
1.0
 40
1.0
 40
1.0
 10
113.2722362295
 20
201.3415430194
 10
113.3469605528
 20
201.3552642746
 10
113.4783690672
 20
201.4128344115
 10
113.5797663284
 20
201.5176089257
 10
113.6197631556
 20
201.58453171
 72
     4
 94
        3
 73
     1
 74
     0
 95
        8
 96
        4
 40
0.0
 40
0.0
 40
0.0
 40
0.0
 40
1.0
 40
1.0
 40
1.0
 40
1.0
 10
113.6197617045
 20
201.5845859705
 42
1.0
 10
113.7121715769
 20
201.7391742046
 42
0.9131981640000001
 10
113.8688247043
 20
201.8280387329
 42
0.9131981640000001
 10
114.0489277495
 20
201.8280387428
 42
1.0
 72
     1
 10
114.0489277825
 20
201.828038747
 11
123.4323858249
 21
201.828038747
 72
     4
 94
        3
 73
     1
 74
     0
 95
        8
 96
        4
 40
0.0
 40
0.0
 40
0.0
 40
0.0
 40
1.0
 40
1.0
 40
1.0
 40
1.0
 10
123.8615519029
 20
201.5845859705
 42
1.0
 10
123.7691420305
 20
201.7391742046
 42
0.9131981640000001
 10
123.6124889031
 20
201.8280387329
 42
0.9131981640000001
 10
123.4323858579
 20
201.8280387428
 42
1.0
 72
     4
 94
        3
 73
     0
 74
     0
 95
        9
 96
        5
 40
0.0
 40
0.0
 40
0.0
 40
0.0
 40
0.5
 40
1.0
 40
1.0
 40
1.0
 40
1.0
 10
123.8615540478
 20
201.5845317453
 10
123.9015508888
 20
201.5176083863
 10
124.0029482861
 20
201.412833023
 10
124.1343569556
 20
201.3552626699
 10
124.2090813637
 20
201.3415413907
 72
     2
 10
117.5250847118
 20
164.7657897911
 40
37.1814420629
 50
74.35799588890001
 51
79.64381771010001
 73
     1
 72
     4
 94
        3
 73
     0
 74
     0
 95
       27
 96
       23
 40
0.0
 40
0.0
 40
0.0
 40
0.0
 40
0.05
 40
0.1
 40
0.15
 40
0.2
 40
0.25
 40
0.3
 40
0.35
 40
0.4
 40
0.45
 40
0.5
 40
0.55
 40
0.6
 40
0.65
 40
0.7
 40
0.75
 40
0.8
 40
0.85
 40
0.9
 40
0.95
 40
1.0
 40
1.0
 40
1.0
 40
1.0
 10
127.5501487941
 20
200.5702056052
 10
127.6943251587
 20
200.5297806061
 10
127.9701288152
 20
200.4387260818
 10
128.3550626536
 20
200.2698558718
 10
128.6863876793
 20
200.080089201
 10
128.9545119749
 20
199.878687134
 10
129.157554519
 20
199.6703311121
 10
129.2975403533
 20
199.4435853198
 10
129.3450009949
 20
199.2004877246
 10
129.2765652608
 20
198.954978676
 10
129.1056194149
 20
198.7447757953
 10
128.8623639165
 20
198.5739367578
 10
128.5512897534
 20
198.4379121872
 10
128.2026661891
 20
198.3448615189
 10
127.8147469815
 20
198.2842507858
 10
127.3894468027
 20
198.2535687235
 10
126.9293518313
 20
198.2537628666
 10
126.4391140337
 20
198.2887511627
 10
125.9358334054
 20
198.3641095241999
 10
125.447135471
 20
198.4837204889
 10
124.9797043899
 20
198.648955823
 10
124.7036739628
 20
198.784515015
 10
124.5739442823
 20
198.8610673093
 72
     4
 94
        3
 73
     0
 74
     0
 95
       13
 96
        9
 40
0.0
 40
0.0
 40
0.0
 40
0.0
 40
0.1666666667
 40
0.3333333333
 40
0.5
 40
0.6666666667
 40
0.8333333333
 40
1.0
 40
1.0
 40
1.0
 40
1.0
 10
124.5739695135
 20
198.8611100675
 10
124.5244148557
 20
198.8903518164
 10
124.4250946866
 20
198.9268445926
 10
124.2660054734
 20
198.9144031285
 10
124.1240337503
 20
198.836370838
 10
123.9986179316
 20
198.7015704222
 10
123.906402907
 20
198.5151972979
 10
123.8809265792
 20
198.3768397416999
 10
123.8794853566
 20
198.3023375259999
 72
     1
 10
123.6444534189
 20
184.828038747
 11
123.8796321708
 21
198.3014203418
 72
     1
 10
121.9944534043
 20
184.828038747
 11
123.6444534189
 21
184.828038747
 72
     1
 10
121.9944534043
 20
184.828038747
 11
121.7406567566
 21
199.368038747
 72
     1
 10
115.7406568508
 20
199.368038747
 11
121.7406567566
 21
199.368038747
 72
     1
 10
115.4868602031
 20
184.828038747
 11
115.7406568508
 21
199.368038747
 72
     1
 10
113.8368601885
 20
184.828038747
 11
115.4868602031
 21
184.828038747
 72
     1
 10
113.8368601885
 20
184.828038747
 11
113.6016814366
 21
198.3014203418
 72
     4
 94
        3
 73
     0
 74
     0
 95
       13
 96
        9
 40
0.0
 40
0.0
 40
0.0
 40
0.0
 40
0.1666666667
 40
0.3333333333
 40
0.5
 40
0.6666666667
 40
0.8333333333
 40
1.0
 40
1.0
 40
1.0
 40
1.0
 10
113.6018130688
 20
198.3023373002
 10
113.6004026766
 20
198.3754843506
 10
113.5756893294
 20
198.5115294118
 10
113.4870044914
 20
198.694725905
 10
113.3649184405
 20
198.829281297
 10
113.2300958241
 20
198.909303395
 10
113.0656834333
 20
198.9293940711
 10
112.9603409637
 20
198.8923713386
 10
112.9073389921
 20
198.8610957943999
 97
        0
 75
     0
 76
     0
 52
125.0
 41
8.457391792499999
 77
     0
 78
     1
 53
125.0
 43
0.0
 44
0.0
 45
-6.927889776199999
 46
-4.850960645099999
 79
     0
 98
        1
 10
0.0
 20
0.0
  0
HATCH
  5
267
330
225
100
AcDbEntity
  8
0
  6
Continuous
 62
     2
100
AcDbHatch
 10
0.0
 20
0.0
 30
0.0
210
0.0
220
0.0
230
1.0
  2
DEFAULT__3
 70
     1
 71
     0
 91
        2
 92
        1
 93
       13
 72
     4
 94
        3
 73
     1
 74
     0
 95
        8
 96
        4
 40
0.0
 40
0.0
 40
0.0
 40
0.0
 40
1.0
 40
1.0
 40
1.0
 40
1.0
 10
63.70267496100001
 20
197.2260768609
 42
1.0
 10
63.47194832199999
 20
197.4295776098
 42
0.7897501182
 10
63.4623177966
 20
197.7370749102
 42
0.7897501182
 10
63.6798578351
 20
197.9546149487
 42
1.0
 72
     1
 10
63.6798578351
 20
197.9546149487
 11
63.97065680369999
 21
198.2454139173
 72
     1
 10
63.97065680369999
 20
198.2454139173
 11
65.27065680369999
 21
198.2454139173
 72
     1
 10
65.27065680369999
 20
197.2454139173
 11
65.27065680369999
 21
198.2454139173
 72
     1
 10
65.27065680369999
 20
197.2454139173
 11
65.3106525731
 21
197.2454139173
 72
     1
 10
65.37438519850001
 20
197.0002143477
 11
65.3106525731
 21
197.2454139173
 72
     4
 94
        3
 73
     1
 74
     0
 95
        8
 96
        4
 40
0.0
 40
0.0
 40
0.0
 40
0.0
 40
1.0
 40
1.0
 40
1.0
 40
1.0
 10
65.85830570899999
 20
196.6259956638
 42
1.0
 10
65.62139474199999
 20
196.6259956638
 42
0.860708939
 10
65.433983145
 20
196.7709221955
 42
0.860708939
 10
65.37438519850001
 20
197.0002143477
 42
1.0
 72
     1
 10
65.85830570899999
 20
196.6259956638
 11
66.08903682080001
 21
196.6259956638
 72
     4
 94
        3
 73
     1
 74
     0
 95
        8
 96
        4
 40
0.0
 40
0.0
 40
0.0
 40
0.0
 40
1.0
 40
1.0
 40
1.0
 40
1.0
 10
66.08903682080001
 20
196.6259956638
 42
1.0
 10
66.3617007144
 20
196.6259956638
 42
0.8252051443999999
 10
66.5628742391
 20
196.4419445518999
 42
0.8252051443999999
 10
66.5870651034
 20
196.1703558906
 42
1.0
 72
     1
 10
66.7406568037
 20
194.4459956638
 11
66.5870651034
 21
196.1703558906
 72
     1
 10
65.66065680369999
 20
194.4459956638
 11
66.7406568037
 21
194.4459956638
 72
     4
 94
        3
 73
     1
 74
     0
 95
        8
 96
        4
 40
0.0
 40
0.0
 40
0.0
 40
0.0
 40
1.0
 40
1.0
 40
1.0
 40
1.0
 10
65.66065680369999
 20
194.4459956638
 42
1.0
 10
65.4231944934
 20
194.4459956638
 42
0.8601716102999999
 10
65.2355381417
 20
194.5915066343
 42
0.8601716102999999
 10
65.1764068052
 20
194.8214888811
 42
1.0
 72
     4
 94
        3
 73
     1
 74
     0
 95
        8
 96
        4
 40
0.0
 40
0.0
 40
0.0
 40
0.0
 40
1.0
 40
1.0
 40
1.0
 40
1.0
 10
63.70267496100001
 20
197.2260768609
 42
1.0
 10
64.42908313930001
 20
196.5853853091
 42
0.970582403
 10
64.935216309
 20
195.7595622527
 42
0.970582403
 10
65.1764068052
 20
194.8214888811
 42
1.0
 97
        0
 92
        1
 93
       13
 72
     1
 10
172.2106568036999
 20
198.2454139173
 11
173.5106568037
 21
198.2454139173
 72
     1
 10
173.8014557723
 20
197.9546149487
 11
173.5106568037
 21
198.2454139173
 72
     4
 94
        3
 73
     1
 74
     0
 95
        8
 96
        4
 40
0.0
 40
0.0
 40
0.0
 40
0.0
 40
1.0
 40
1.0
 40
1.0
 40
1.0
 10
173.7786386464
 20
197.2260768609
 42
1.0
 10
174.0093652854
 20
197.4295776098
 42
0.7897501182
 10
174.0189958108
 20
197.7370749102
 42
0.7897501182
 10
173.8014557723
 20
197.9546149487
 42
1.0
 72
     4
 94
        3
 73
     1
 74
     0
 95
        8
 96
        4
 40
0.0
 40
0.0
 40
0.0
 40
0.0
 40
1.0
 40
1.0
 40
1.0
 40
1.0
 10
173.7786386464
 20
197.2260768609
 42
1.0
 10
173.0522304681
 20
196.5853853091
 42
0.970582403
 10
172.5460972984999
 20
195.7595622527
 42
0.970582403
 10
172.3049068022
 20
194.8214888811
 42
1.0
 72
     4
 94
        3
 73
     1
 74
     0
 95
        8
 96
        4
 40
0.0
 40
0.0
 40
0.0
 40
0.0
 40
1.0
 40
1.0
 40
1.0
 40
1.0
 10
171.8206568037
 20
194.4459956638
 42
1.0
 10
172.058119114
 20
194.4459956638
 42
0.8601716102999999
 10
172.2457754657
 20
194.5915066343
 42
0.8601716102999999
 10
172.3049068022
 20
194.8214888811
 42
1.0
 72
     1
 10
170.7406568037
 20
194.4459956638
 11
171.8206568037
 21
194.4459956638
 72
     1
 10
170.7406568037
 20
194.4459956638
 11
170.894248504
 21
196.1703558906
 72
     4
 94
        3
 73
     1
 74
     0
 95
        8
 96
        4
 40
0.0
 40
0.0
 40
0.0
 40
0.0
 40
1.0
 40
1.0
 40
1.0
 40
1.0
 10
171.3922767866
 20
196.6259956638
 42
1.0
 10
171.119612893
 20
196.6259956638
 42
0.8252051443999999
 10
170.9184393683
 20
196.4419445518999
 42
0.8252051443999999
 10
170.894248504
 20
196.1703558906
 42
1.0
 72
     1
 10
171.3922767866
 20
196.6259956638
 11
171.6230078984
 21
196.6259956638
 72
     4
 94
        3
 73
     1
 74
     0
 95
        8
 96
        4
 40
0.0
 40
0.0
 40
0.0
 40
0.0
 40
1.0
 40
1.0
 40
1.0
 40
1.0
 10
171.6230078984
 20
196.6259956638
 42
1.0
 10
171.8599188654
 20
196.6259956638
 42
0.860708939
 10
172.0473304624
 20
196.7709221955
 42
0.860708939
 10
172.1069284089
 20
197.0002143477
 42
1.0
 72
     1
 10
172.1069284089
 20
197.0002143477
 11
172.1706610343
 21
197.2454139173
 72
     1
 10
172.1706610343
 20
197.2454139173
 11
172.2106568036999
 21
197.2454139173
 72
     1
 10
172.2106568036999
 20
197.2454139173
 11
172.2106568036999
 21
198.2454139173
 97
        0
 75
     0
 76
     1
 98
        1
 10
0.0
 20
0.0
  0
LINE
  5
2E0
330
225
100
AcDbEntity
  8
0
  6
Continuous
 62
     7
100
AcDbLine
 10
87.24065680370001
 20
115.688038747
 30
0.0
 11
150.2406568037
 21
115.688038747
 31
0.0
  0
LINE
  5
2E1
330
225
100
AcDbEntity
  8
0
  6
Continuous
 62
     7
100
AcDbLine
 10
88.24065680370001
 20
116.188038747
 30
0.0
 11
149.2406568037
 21
116.188038747
 31
0.0
  0
LINE
  5
2E2
330
225
100
AcDbEntity
  8
0
  6
Continuous
 62
     7
100
AcDbLine
 10
65.27065680369999
 20
197.2454139173
 30
0.0
 11
65.27065680369999
 21
198.2574570005
 31
0.0
  0
LINE
  5
2E3
330
225
100
AcDbEntity
  8
0
  6
Continuous
 62
     7
100
AcDbLine
 10
63.6798578351
 20
197.9546149487
 30
0.0
 11
63.97065680369999
 21
198.2454139173
 31
0.0
  0
LINE
  5
2E4
330
225
100
AcDbEntity
  8
0
  6
Continuous
 62
     7
100
AcDbLine
 10
87.0639979829
 20
118.188038747
 30
0.0
 11
107.1667577717
 21
118.188038747
 31
0.0
  0
LINE
  5
2E5
330
225
100
AcDbEntity
  8
0
  6
Continuous
 62
     7
100
AcDbLine
 10
130.3145558357
 20
118.188038747
 30
0.0
 11
150.4173156246
 21
118.188038747
 31
0.0
  0
LINE
  5
2E6
330
225
100
AcDbEntity
  8
0
  6
Continuous
 62
     7
100
AcDbLine
 10
87.24065680370001
 20
115.688038747
 30
0.0
 11
86.99065680370001
 21
116.1881999232
 31
0.0
  0
LINE
  5
2E7
330
225
100
AcDbEntity
  8
0
  6
Continuous
 62
     7
100
AcDbLine
 10
66.5870651034
 20
196.1823989738
 30
0.0
 11
66.7406568037
 21
194.4459956638
 31
0.0
  0
LINE
  5
2E8
330
225
100
AcDbEntity
  8
0
  6
Continuous
 62
     7
100
AcDbLine
 10
70.07050904329999
 20
132.7430306258
 30
0.0
 11
68.7675281928
 21
182.5018617987
 31
0.0
  0
LINE
  5
2E9
330
225
100
AcDbEntity
  8
0
  6
Continuous
 62
     9
100
AcDbLine
 10
114.1956962076
 20
123.065871902
 30
0.0
 11
123.2856173998
 21
123.065871902
 31
0.0
  0
LINE
  5
2EA
330
225
100
AcDbEntity
  8
0
  6
Continuous
 62
     7
100
AcDbLine
 10
72.06913810819999
 20
132.7953845224
 30
0.0
 11
70.7661572578
 21
182.5542156954
 31
0.0
  0
LINE
  5
2EB
330
225
100
AcDbEntity
  8
0
  6
Continuous
 62
     7
100
AcDbLine
 10
65.3106525731
 20
197.2574570005
 30
0.0
 11
65.37438519850001
 21
197.0002143477
 31
0.0
  0
LINE
  5
2EC
330
225
100
AcDbEntity
  8
0
  6
Continuous
 62
     7
100
AcDbLine
 10
81.2406568037
 20
187.3701957919
 30
0.0
 11
80.96414623239999
 21
186.6498611262
 31
0.0
  0
LINE
  5
2ED
330
225
100
AcDbEntity
  8
0
  6
Continuous
 62
     7
100
AcDbLine
 10
123.0914792554
 20
133.438038747
 30
0.0
 11
123.1045685602
 21
133.4381529757
 31
0.0
  0
LINE
  5
2EE
330
225
100
AcDbEntity
  8
0
  6
Continuous
 62
     7
100
AcDbLine
 10
123.0910961094
 20
133.4381254059
 30
0.0
 11
123.1045685602
 21
133.4381529757
 31
0.0
  0
LINE
  5
2EF
330
225
100
AcDbEntity
  8
0
  6
Continuous
 62
     7
100
AcDbLine
 10
84.2221812346
 20
132.708038747
 30
0.0
 11
112.33369163
 21
132.708038747
 31
0.0
  0
LINE
  5
2F0
330
225
100
AcDbEntity
  8
0
  6
Continuous
 62
     7
100
AcDbLine
 10
125.1476219774
 20
132.708038747
 30
0.0
 11
153.2591323729
 21
132.708038747
 31
0.0
  0
LINE
  5
2F1
330
225
100
AcDbEntity
  8
0
  6
Continuous
 62
     9
100
AcDbLine
 10
72.06913810819999
 20
132.7953845224
 30
0.0
 11
83.90652633270001
 21
132.7953845224
 31
0.0
  0
LINE
  5
2F2
330
225
100
AcDbEntity
  8
0
  6
Continuous
 62
     9
100
AcDbLine
 10
153.5747872747
 20
132.7953845224
 30
0.0
 11
165.4121754992
 21
132.7953845224
 31
0.0
  0
LINE
  5
2F3
330
225
100
AcDbEntity
  8
0
  6
Continuous
 62
     9
100
AcDbLine
 10
84.8553140847
 20
133.3302166699
 30
0.0
 11
112.3445517861
 21
133.3302166699
 31
0.0
  0
LINE
  5
2F4
330
225
100
AcDbEntity
  8
0
  6
Continuous
 62
     9
100
AcDbLine
 10
125.1367618213
 20
133.3302166699
 30
0.0
 11
152.6259995227
 21
133.3302166699
 31
0.0
  0
LINE
  5
2F5
330
225
100
AcDbEntity
  8
0
  6
Continuous
 62
     7
100
AcDbLine
 10
123.0078794219
 20
133.438038747
 30
0.0
 11
114.4734341855
 21
133.438038747
 31
0.0
  0
LINE
  5
2F6
330
225
100
AcDbEntity
  8
0
  6
Continuous
 62
     7
100
AcDbLine
 10
123.0783899505
 20
134.9379245184
 30
0.0
 11
114.4029236569
 21
134.9379245184
 31
0.0
  0
LINE
  5
2F7
330
225
100
AcDbEntity
  8
0
  6
Continuous
 62
     7
100
AcDbLine
 10
114.390217498
 20
133.4381254059
 30
0.0
 11
114.3767450472
 21
133.4381529757
 31
0.0
  0
LINE
  5
2F8
330
225
100
AcDbEntity
  8
0
  6
Continuous
 62
     7
100
AcDbLine
 10
114.3898343521
 20
133.438038747
 30
0.0
 11
114.3767450472
 21
133.4381529757
 31
0.0
  0
LINE
  5
2F9
330
225
100
AcDbEntity
  8
0
  6
Continuous
 62
     7
100
AcDbLine
 10
83.14065680369999
 20
184.708038747
 30
0.0
 11
83.5889760441
 21
133.3357421471
 31
0.0
  0
LINE
  5
2FA
330
225
100
AcDbEntity
  8
0
  6
Continuous
 62
     7
100
AcDbLine
 10
85.75386281570001
 20
184.808038747
 30
0.0
 11
84.8553140889
 21
133.3302166699
 31
0.0
  0
LWPOLYLINE
  5
2FB
330
225
100
AcDbEntity
  8
0
  6
Continuous
 62
     7
100
AcDbPolyline
 90
        8
 70
     0
 43
0.0
 10
92.3131908547
 20
192.4423515174
 10
93.18786377610001
 20
192.9108846834999
 10
96.21155986739999
 20
194.3030405662
 10
99.344065581
 20
195.5197210607
 10
102.5794796852
 20
196.552640295
 10
105.8975654704
 20
197.3945661906
 10
109.2790318339
 20
198.0399689012
 10
111.1420431746
 20
198.3070767327
  0
LWPOLYLINE
  5
2FC
330
225
100
AcDbEntity
  8
0
  6
Continuous
 62
     7
100
AcDbPolyline
 90
        7
 70
     0
 43
0.0
 10
89.0288176055
 20
194.514872095
 10
88.8345098753
 20
194.4195425233
 10
88.25376936599999
 20
194.1313008384
 10
87.6749623004
 20
193.8380201696
 10
87.09809688860001
 20
193.5397100192
 10
86.5231827114
 20
193.2363794364
 10
86.23872076559999
 20
193.0840504294
  0
LINE
  5
2FD
330
225
100
AcDbEntity
  8
0
  6
Continuous
 62
     7
100
AcDbLine
 10
94.9701154423
 20
186.6679583328
 30
0.0
 11
94.9594428522
 21
189.0992846221
 31
0.0
  0
LINE
  5
2FE
330
225
100
AcDbEntity
  8
RUNDUNGEN
  6
Continuous
 62
     7
100
AcDbLine
 10
93.3228608215
 20
190.4287219575
 30
0.0
 11
93.31795658959999
 21
190.4262597947
 31
0.0
  0
LWPOLYLINE
  5
2FF
330
225
100
AcDbEntity
  8
0
  6
Continuous
 62
     7
100
AcDbPolyline
 90
       11
 70
     0
 43
0.0
 10
93.3228612102
 20
190.4287221549
 10
93.33840580389999
 20
190.4363862369
 10
93.39452293609999
 20
190.4630681994
 10
93.46131642639999
 20
190.4935564698
 10
93.5356386709
 20
190.5264285765
 10
93.6152414722
 20
190.560756265
 10
93.7002570625
 20
190.5966472298
 10
93.7907880104
 20
190.6341631234999
 10
93.88585302290001
 20
190.6729085013
 10
93.98459943090001
 20
190.7125526923
 10
94.08699259229999
 20
190.7530958834
  0
LINE
  5
300
330
225
100
AcDbEntity
  8
0
  6
Continuous
 62
     7
100
AcDbLine
 10
94.08699259229999
 20
190.7530958834
 30
0.0
 11
94.301935495
 21
190.8365973507
 31
0.0
  0
LINE
  5
301
330
225
100
AcDbEntity
  8
0
  6
Continuous
 62
     7
100
AcDbLine
 10
94.301935495
 20
190.8365973507
 30
0.0
 11
94.52918112229999
 21
190.9228577919
 31
0.0
  0
LINE
  5
302
330
225
100
AcDbEntity
  8
0
  6
Continuous
 62
     7
100
AcDbLine
 10
94.52918112229999
 20
190.9228577919
 30
0.0
 11
94.7671381161
 21
191.011277477
 31
0.0
  0
LINE
  5
303
330
225
100
AcDbEntity
  8
0
  6
Continuous
 62
     7
100
AcDbLine
 10
94.7671381161
 20
191.011277477
 30
0.0
 11
95.01440711229999
 21
191.1013316982
 31
0.0
  0
LINE
  5
304
330
225
100
AcDbEntity
  8
0
  6
Continuous
 62
     7
100
AcDbLine
 10
95.01440711229999
 20
191.1013316982
 30
0.0
 11
95.26972119099999
 21
191.1925513078
 31
0.0
  0
LINE
  5
305
330
225
100
AcDbEntity
  8
0
  6
Continuous
 62
     7
100
AcDbLine
 10
95.26972119099999
 20
191.1925513078
 30
0.0
 11
95.5318973702
 21
191.2845064487
 31
0.0
  0
LINE
  5
306
330
225
100
AcDbEntity
  8
0
  6
Continuous
 62
     7
100
AcDbLine
 10
95.5318973702
 20
191.2845064487
 30
0.0
 11
95.7998219377
 21
191.3768024992
 31
0.0
  0
LINE
  5
307
330
225
100
AcDbEntity
  8
0
  6
Continuous
 62
     7
100
AcDbLine
 10
95.7998219377
 20
191.3768024992
 30
0.0
 11
96.07373357040001
 21
191.4695110413
 31
0.0
  0
LWPOLYLINE
  5
308
330
225
100
AcDbEntity
  8
0
  6
Continuous
 62
     7
100
AcDbPolyline
 90
        4
 70
     0
 43
0.0
 10
106.2560371463
 20
196.2224701368
 10
108.2422021087
 20
196.8872060086
 10
111.522846058
 20
197.7078733752
 10
113.6057895598
 20
198.0660645484
  0
LINE
  5
309
330
225
100
AcDbEntity
  8
0
  6
Continuous
 62
     7
100
AcDbLine
 10
96.07373357040001
 20
191.4695110413
 30
0.0
 11
96.35643014620001
 21
191.5635304723
 31
0.0
  0
LINE
  5
30A
330
225
100
AcDbEntity
  8
0
  6
Continuous
 62
     7
100
AcDbLine
 10
96.35643014620001
 20
191.5635304723
 30
0.0
 11
96.65108989049999
 21
191.659809453
 31
0.0
  0
LINE
  5
30B
330
225
100
AcDbEntity
  8
0
  6
Continuous
 62
     7
100
AcDbLine
 10
96.65108989049999
 20
191.659809453
 30
0.0
 11
96.96098016070001
 21
191.7592455761
 31
0.0
  0
LINE
  5
30C
330
225
100
AcDbEntity
  8
0
  6
Continuous
 62
     7
100
AcDbLine
 10
96.96098016070001
 20
191.7592455761
 30
0.0
 11
97.2894475242
 21
191.8626784661
 31
0.0
  0
LINE
  5
30D
330
225
100
AcDbEntity
  8
0
  6
Continuous
 62
     7
100
AcDbLine
 10
97.2894475242
 20
191.8626784661
 30
0.0
 11
97.6417948687
 21
191.9714569861
 31
0.0
  0
LINE
  5
30E
330
225
100
AcDbEntity
  8
0
  6
Continuous
 62
     7
100
AcDbLine
 10
97.6417948687
 20
191.9714569861
 30
0.0
 11
98.02434642719999
 21
192.087089413
 31
0.0
  0
LINE
  5
30F
330
225
100
AcDbEntity
  8
0
  6
Continuous
 62
     7
100
AcDbLine
 10
98.02434642719999
 20
192.087089413
 30
0.0
 11
98.43284413379999
 21
192.2078048486
 31
0.0
  0
LINE
  5
310
330
225
100
AcDbEntity
  8
0
  6
Continuous
 62
     7
100
AcDbLine
 10
98.43284413379999
 20
192.2078048486
 30
0.0
 11
98.86196053389999
 21
192.3316249422
 31
0.0
  0
LINE
  5
311
330
225
100
AcDbEntity
  8
0
  6
Continuous
 62
     7
100
AcDbLine
 10
99.99065680370001
 20
187.3701957919
 30
0.0
 11
99.85240151799999
 21
186.6498611262
 31
0.0
  0
LINE
  5
312
330
225
100
AcDbEntity
  8
0
  6
Continuous
 62
    40
100
AcDbLine
 10
113.7005600192
 20
192.622786573
 30
0.0
 11
113.6755113485
 21
192.6153773396
 31
0.0
  0
LINE
  5
313
330
225
100
AcDbEntity
  8
SURFACES
  6
Continuous
 62
    40
100
AcDbLine
 10
113.6755801159
 20
192.6154201583
 30
0.0
 11
113.70060583
 21
192.6228169267
 31
0.0
  0
LINE
  5
314
330
225
100
AcDbEntity
  8
0
  6
Continuous
 62
     7
100
AcDbLine
 10
149.7406568037
 20
115.688038747
 30
0.0
 11
149.2406568037
 21
116.188038747
 31
0.0
  0
LINE
  5
315
330
225
100
AcDbEntity
  8
0
  6
Continuous
 62
     7
100
AcDbLine
 10
113.14229039
 20
194.5305699537
 30
0.0
 11
113.2887158645
 21
186.1418601374
 31
0.0
  0
LINE
  5
316
330
225
100
AcDbEntity
  8
0
  6
Continuous
 62
     7
100
AcDbLine
 10
113.6150561177
 20
196.0951837987
 30
0.0
 11
113.788639712
 21
186.1505863406
 31
0.0
  0
LINE
  5
317
330
225
100
AcDbEntity
  8
0
  6
Continuous
 62
     7
100
AcDbLine
 10
113.8368601597
 20
184.828038747
 30
0.0
 11
113.6016814093
 21
198.3014203324
 31
0.0
  0
LINE
  5
318
330
225
100
AcDbEntity
  8
0
  6
Continuous
 62
     7
100
AcDbLine
 10
112.1659962475
 20
123.1007767149
 30
0.0
 11
113.2235063717
 21
183.6854911535
 31
0.0
  0
LINE
  5
319
330
225
100
AcDbEntity
  8
0
  6
Continuous
 62
     7
100
AcDbLine
 10
115.7406568037
 20
185.168038747
 30
0.0
 11
115.7406568037
 21
184.668038747
 31
0.0
  0
LINE
  5
31A
330
225
100
AcDbEntity
  8
DEFAULT_1
  6
CENTER
 62
     7
100
AcDbLine
 10
118.7406568037
 20
146.4973350617
 30
0.0
 11
118.7406568037
 21
113.188038747
 31
0.0
  0
LINE
  5
31D
330
225
100
AcDbEntity
  8
0
  6
Continuous
 62
     7
100
AcDbLine
 10
114.1956962076
 20
123.065871902
 30
0.0
 11
114.3767450472
 21
133.4381529757
 31
0.0
  0
LINE
  5
31E
330
225
100
AcDbEntity
  8
0
  6
Continuous
 62
     7
100
AcDbLine
 10
114.4029236569
 20
134.9379245184
 30
0.0
 11
115.2172208878
 21
181.5889816348
 31
0.0
  0
LINE
  5
31F
330
225
100
AcDbEntity
  8
0
  6
Continuous
 62
     7
100
AcDbLine
 10
115.4868602031
 20
184.828038747
 30
0.0
 11
115.7406568508
 21
199.368038747
 31
0.0
  0
LINE
  5
320
330
225
100
AcDbEntity
  8
0
  6
Continuous
 62
     7
100
AcDbLine
 10
115.8240673493
 20
184.668038747
 30
0.0
 11
116.0720815877
 21
198.8767649503
 31
0.0
  0
LINE
  5
321
330
225
100
AcDbEntity
  8
0
  6
Continuous
 62
     7
100
AcDbLine
 10
117.8259471934
 20
184.7582812085
 30
0.0
 11
118.0374761139
 21
196.8767649503
 31
0.0
  0
LINE
  5
322
330
225
100
AcDbEntity
  8
0
  6
Continuous
 62
     7
100
AcDbLine
 10
119.655366414
 20
184.7582812085
 30
0.0
 11
119.4438374935
 21
196.8767649503
 31
0.0
  0
LINE
  5
323
330
225
100
AcDbEntity
  8
0
  6
Continuous
 62
     7
100
AcDbLine
 10
121.6572462582
 20
184.668038747
 30
0.0
 11
121.4092320197
 21
198.8767649503
 31
0.0
  0
LINE
  5
324
330
225
100
AcDbEntity
  8
0
  6
Continuous
 62
     7
100
AcDbLine
 10
121.9944534043
 20
184.828038747
 30
0.0
 11
121.7406567566
 21
199.368038747
 31
0.0
  0
LINE
  5
325
330
225
100
AcDbEntity
  8
0
  6
Continuous
 62
     7
100
AcDbLine
 10
123.2856173998
 20
123.065871902
 30
0.0
 11
123.1045685602
 21
133.4381529757
 31
0.0
  0
LINE
  5
326
330
225
100
AcDbEntity
  8
0
  6
Continuous
 62
     7
100
AcDbLine
 10
123.0783899505
 20
134.9379245184
 30
0.0
 11
122.2640927196
 21
181.5889816348
 31
0.0
  0
LINE
  5
327
330
225
100
AcDbEntity
  8
0
  6
Continuous
 62
     7
100
AcDbLine
 10
125.3153173599
 20
123.1007767149
 30
0.0
 11
124.2578072357
 21
183.6854911535
 31
0.0
  0
LINE
  5
328
330
225
100
AcDbEntity
  8
0
  6
Continuous
 62
     7
100
AcDbLine
 10
121.7406568037
 20
185.168038747
 30
0.0
 11
121.7406568037
 21
184.668038747
 31
0.0
  0
LINE
  5
329
330
225
100
AcDbEntity
  8
0
  6
Continuous
 62
     7
100
AcDbLine
 10
123.6444534189
 20
184.828038747
 30
0.0
 11
123.8796321708
 21
198.3014203418
 31
0.0
  0
LINE
  5
32A
330
225
100
AcDbEntity
  8
0
  6
Continuous
 62
     7
100
AcDbLine
 10
123.8662574897
 20
196.0951837987
 30
0.0
 11
123.6926738954
 21
186.1505863406
 31
0.0
  0
LINE
  5
32B
330
225
100
AcDbEntity
  8
0
  6
Continuous
 62
     7
100
AcDbLine
 10
124.3686288346
 20
196.2266746216999
 30
0.0
 11
124.192597743
 21
186.1418601374
 31
0.0
  0
LINE
  5
32C
330
225
100
AcDbEntity
  8
0
  6
Continuous
 62
     9
100
AcDbLine
 10
122.2640927196
 20
181.5889816348
 30
0.0
 11
115.2172208878
 21
181.5889816348
 31
0.0
  0
LINE
  5
32D
330
225
100
AcDbEntity
  8
0
  6
Continuous
 62
     9
100
AcDbLine
 10
70.7661572578
 20
182.5542156954
 30
0.0
 11
83.15945293270001
 21
182.5542156954
 31
0.0
  0
LINE
  5
32E
330
225
100
AcDbEntity
  8
0
  6
Continuous
 62
     9
100
AcDbLine
 10
154.3218606745
 20
182.5542156954
 30
0.0
 11
166.7151563496999
 21
182.5542156954
 31
0.0
  0
LINE
  5
32F
330
225
100
AcDbEntity
  8
0
  6
Continuous
 62
     9
100
AcDbLine
 10
116.1658486353
 20
182.741454207
 30
0.0
 11
121.3154649721
 21
182.741454207
 31
0.0
  0
LINE
  5
330
330
225
100
AcDbEntity
  8
0
  6
Continuous
 62
     7
100
AcDbLine
 10
167.7148136746
 20
183.528038747
 30
0.0
 11
154.3303590996
 21
183.528038747
 31
0.0
  0
LINE
  5
331
330
225
100
AcDbEntity
  8
0
  6
Continuous
 62
     7
100
AcDbLine
 10
83.1509545077
 20
183.528038747
 30
0.0
 11
69.7664999328
 21
183.528038747
 31
0.0
  0
LINE
  5
332
330
225
100
AcDbEntity
  8
0
  6
Continuous
 62
     7
100
AcDbLine
 10
114.2233540668
 20
184.668038747
 30
0.0
 11
115.8240673493
 21
184.668038747
 31
0.0
  0
LINE
  5
333
330
225
100
AcDbEntity
  8
0
  6
Continuous
 62
     7
100
AcDbLine
 10
121.6572462582
 20
184.668038747
 30
0.0
 11
123.2579595406
 21
184.668038747
 31
0.0
  0
LINE
  5
334
330
225
100
AcDbEntity
  8
0
  6
Continuous
 62
     9
100
AcDbLine
 10
117.8259471934
 20
184.7582812085
 30
0.0
 11
119.655366414
 21
184.7582812085
 31
0.0
  0
LINE
  5
335
330
225
100
AcDbEntity
  8
0
  6
Continuous
 62
     7
100
AcDbLine
 10
142.5906119307
 20
184.808038747
 30
0.0
 11
123.3187129694
 21
184.808038747
 31
0.0
  0
LINE
  5
336
330
225
100
AcDbEntity
  8
0
  6
Continuous
 62
     7
100
AcDbLine
 10
114.1626006381
 20
184.808038747
 30
0.0
 11
94.8907016749
 21
184.808038747
 31
0.0
  0
LINE
  5
337
330
225
100
AcDbEntity
  8
0
  6
Continuous
 62
     7
100
AcDbLine
 10
87.0642702063
 20
184.808038747
 30
0.0
 11
85.7538628114
 21
184.808038747
 31
0.0
  0
LINE
  5
338
330
225
100
AcDbEntity
  8
0
  6
Continuous
 62
     7
100
AcDbLine
 10
113.8368601885
 20
184.828038747
 30
0.0
 11
115.4868602031
 21
184.828038747
 31
0.0
  0
LINE
  5
339
330
225
100
AcDbEntity
  8
0
  6
Continuous
 62
     7
100
AcDbLine
 10
121.9944534043
 20
184.828038747
 30
0.0
 11
123.6444534189
 21
184.828038747
 31
0.0
  0
LINE
  5
33A
330
225
100
AcDbEntity
  8
0
  6
Continuous
 62
     7
100
AcDbLine
 10
122.6928262002
 20
185.168038747
 30
0.0
 11
121.6485187257
 21
185.168038747
 31
0.0
  0
LINE
  5
33B
330
225
100
AcDbEntity
  8
0
  6
Continuous
 62
     7
100
AcDbLine
 10
115.8327948817
 20
185.168038747
 30
0.0
 11
114.7884874072
 21
185.168038747
 31
0.0
  0
LINE
  5
33C
330
225
100
AcDbEntity
  8
0
  6
Continuous
 62
     7
100
AcDbLine
 10
156.5096550122
 20
186.6498611262
 30
0.0
 11
154.5478638522
 21
186.6498611262
 31
0.0
  0
LINE
  5
33D
330
225
100
AcDbEntity
  8
0
  6
Continuous
 62
     7
100
AcDbLine
 10
113.2798486742
 20
186.6498611262
 30
0.0
 11
99.85240151799999
 21
186.6498611262
 31
0.0
  0
LINE
  5
33E
330
225
100
AcDbEntity
  8
0
  6
Continuous
 62
     7
100
AcDbLine
 10
99.20374375690002
 20
186.6498611262
 30
0.0
 11
94.9701074899
 21
186.6498611262
 31
0.0
  0
LINE
  5
33F
330
225
100
AcDbEntity
  8
0
  6
Continuous
 62
     7
100
AcDbLine
 10
82.93346024879999
 20
186.6498611262
 30
0.0
 11
80.96414623239999
 21
186.6498611262
 31
0.0
  0
LINE
  5
340
330
225
100
AcDbEntity
  8
0
  6
Continuous
 62
     7
100
AcDbLine
 10
135.8467716599
 20
194.8453695823
 30
0.0
 11
135.8467716599
 21
195.2755997095
 31
0.0
  0
LINE
  5
341
330
225
100
AcDbEntity
  8
0
  6
Continuous
 62
     7
100
AcDbLine
 10
87.7406568037
 20
115.688038747
 30
0.0
 11
88.24065680370001
 21
116.188038747
 31
0.0
  0
LINE
  5
342
330
225
100
AcDbEntity
  8
0
  6
Continuous
 62
     7
100
AcDbLine
 10
98.86196053389999
 20
192.3316249422
 30
0.0
 11
99.30675081290001
 21
192.4568146393
 31
0.0
  0
LINE
  5
343
330
225
100
AcDbEntity
  8
0
  6
Continuous
 62
     7
100
AcDbLine
 10
99.30675081290001
 20
192.4568146393
 30
0.0
 11
99.7672395926
 21
192.5831165996
 31
0.0
  0
LINE
  5
344
330
225
100
AcDbEntity
  8
0
  6
Continuous
 62
     7
100
AcDbLine
 10
99.7672395926
 20
192.5831165996
 30
0.0
 11
100.2464349741
 21
192.7110509448
 31
0.0
  0
LINE
  5
345
330
225
100
AcDbEntity
  8
0
  6
Continuous
 62
     7
100
AcDbLine
 10
100.2464349741
 20
192.7110509448
 30
0.0
 11
100.747428921
 21
192.8410622339
 31
0.0
  0
LINE
  5
346
330
225
100
AcDbEntity
  8
0
  6
Continuous
 62
     7
100
AcDbLine
 10
100.747428921
 20
192.8410622339
 30
0.0
 11
101.2730147063
 21
192.9734158566
 31
0.0
  0
LINE
  5
347
330
225
100
AcDbEntity
  8
0
  6
Continuous
 62
     7
100
AcDbLine
 10
101.2730147063
 20
192.9734158566
 30
0.0
 11
101.8251007246
 21
193.1080623042
 31
0.0
  0
LINE
  5
348
330
225
100
AcDbEntity
  8
0
  6
Continuous
 62
     7
100
AcDbLine
 10
101.8251007246
 20
193.1080623042
 30
0.0
 11
102.4054579105
 21
193.2448405908
 31
0.0
  0
LINE
  5
349
330
225
100
AcDbEntity
  8
0
  6
Continuous
 62
     7
100
AcDbLine
 10
102.4054579105
 20
193.2448405908
 30
0.0
 11
103.0162783826
 21
193.38360399
 31
0.0
  0
LWPOLYLINE
  5
34A
330
225
100
AcDbEntity
  8
0
  6
Continuous
 62
     7
100
AcDbPolyline
 90
        6
 70
     0
 43
0.0
 10
103.0162783826
 20
193.38360399
 10
103.6612402915
 20
193.524422665
 10
103.9977838834
 20
193.5956031827
 10
104.344379953
 20
193.6672763977
 10
104.7015344299
 20
193.7394100753
 10
105.0697604188
 20
193.8119598199
  0
LINE
  5
34B
330
225
100
AcDbEntity
  8
0
  6
Continuous
 62
     7
100
AcDbLine
 10
105.0697604188
 20
193.8119598199
 30
0.0
 11
105.7048946228
 21
193.9327886994
 31
0.0
  0
LWPOLYLINE
  5
34C
330
225
100
AcDbEntity
  8
0
  6
Continuous
 62
     7
100
AcDbPolyline
 90
        3
 70
     0
 43
0.0
 10
105.7048889609
 20
193.9327876488
 10
106.0856998231
 20
194.0026362465
 10
106.5939553749
 20
194.0928497059
  0
LWPOLYLINE
  5
34D
330
225
100
AcDbEntity
  8
0
  6
Continuous
 62
     7
100
AcDbPolyline
 90
        4
 70
     0
 43
0.0
 10
106.5939553749
 20
194.0928497059
 10
107.1042424555
 20
194.1799824850999
 10
107.6165114558
 20
194.2640082746
 10
108.1307120183
 20
194.3449006685
  0
LINE
  5
34E
330
225
100
AcDbEntity
  8
0
  6
Continuous
 62
     7
100
AcDbLine
 10
108.1307120183
 20
194.3449006685
 30
0.0
 11
108.5089928361
 21
194.4022153182
 31
0.0
  0
LINE
  5
34F
330
225
100
AcDbEntity
  8
0
  6
Continuous
 62
     7
100
AcDbLine
 10
108.5089940301
 20
194.4022126188
 30
0.0
 11
108.8493753131
 21
194.4511896361
 31
0.0
  0
LINE
  5
350
330
225
100
AcDbEntity
  8
RUNDUNGEN
  6
Continuous
 62
     9
100
AcDbLine
 10
108.5089928361
 20
194.4022153182
 30
0.0
 11
108.472436345
 21
194.3995169704
 31
0.0
  0
LINE
  5
351
330
225
100
AcDbEntity
  8
0
  6
Continuous
 62
     7
100
AcDbLine
 10
112.6152084226
 20
197.0777313923
 30
0.0
 11
112.520709076
 21
197.0732563159
 31
0.0
  0
LINE
  5
352
330
225
100
AcDbEntity
  8
0
  6
Continuous
 62
     7
100
AcDbLine
 10
112.6172550419
 20
197.0773671594
 30
0.0
 11
112.520709076
 21
197.0732563159
 31
0.0
  0
LINE
  5
353
330
225
100
AcDbEntity
  8
0
  6
Continuous
 62
     9
100
AcDbLine
 10
81.39065680399999
 20
193.9880387468
 30
0.0
 11
87.9710329989
 21
193.9880387468
 31
0.0
  0
LINE
  5
354
330
225
100
AcDbEntity
  8
0
  6
Continuous
 62
     9
100
AcDbLine
 10
149.5107525101
 20
193.9880387468
 30
0.0
 11
156.0906568035
 21
193.9880387468
 31
0.0
  0
LINE
  5
355
330
225
100
AcDbEntity
  8
0
  6
Continuous
 62
     7
100
AcDbLine
 10
65.66065680369999
 20
194.4459956638
 30
0.0
 11
66.7406568037
 21
194.4459956638
 31
0.0
  0
LINE
  5
356
330
225
100
AcDbEntity
  8
0
  6
Continuous
 62
     7
100
AcDbLine
 10
170.7406568037
 20
194.4459956638
 30
0.0
 11
171.8206568037
 21
194.4459956638
 31
0.0
  0
LINE
  5
357
330
225
100
AcDbEntity
  8
0
  6
Continuous
 62
     7
100
AcDbLine
 10
170.740656801
 20
194.458038747
 30
0.0
 11
162.1553125901
 21
194.458038747
 31
0.0
  0
LINE
  5
358
330
225
100
AcDbEntity
  8
0
  6
Continuous
 62
     7
100
AcDbLine
 10
75.3260010173
 20
194.458038747
 30
0.0
 11
66.7406568064
 21
194.458038747
 31
0.0
  0
LINE
  5
359
330
225
100
AcDbEntity
  8
CURVES
  6
Continuous
 62
     4
100
AcDbLine
 10
170.7406568037
 20
194.458038747
 30
0.0
 11
171.8206568037
 21
194.458038747
 31
0.0
  0
LINE
  5
35A
330
225
100
AcDbEntity
  8
0
  6
Continuous
 62
     9
100
AcDbLine
 10
66.5881378014
 20
196.1703558906
 30
0.0
 11
66.5870651034
 21
196.1703558906
 31
0.0
  0
LINE
  5
35B
330
225
100
AcDbEntity
  8
0
  6
Continuous
 62
     7
100
AcDbLine
 10
65.85830570899999
 20
196.6259956638
 30
0.0
 11
66.08903682080001
 21
196.6259956638
 31
0.0
  0
LINE
  5
35C
330
225
100
AcDbEntity
  8
0
  6
Continuous
 62
     7
100
AcDbLine
 10
171.3922767866
 20
196.6259956638
 30
0.0
 11
171.6230078984
 21
196.6259956638
 31
0.0
  0
LINE
  5
35D
330
225
100
AcDbEntity
  8
0
  6
Continuous
 62
     7
100
AcDbLine
 10
171.6230078957
 20
196.638038747
 30
0.0
 11
171.3922767839
 21
196.638038747
 31
0.0
  0
LINE
  5
35E
330
225
100
AcDbEntity
  8
0
  6
Continuous
 62
     7
100
AcDbLine
 10
66.08903682350001
 20
196.638038747
 30
0.0
 11
65.85830571169999
 21
196.638038747
 31
0.0
  0
LINE
  5
35F
330
225
100
AcDbEntity
  8
CURVES
  6
Continuous
 62
     4
100
AcDbLine
 10
170.9348331141
 20
196.638038747
 30
0.0
 11
172.0096609496
 21
196.638038747
 31
0.0
  0
LINE
  5
360
330
225
100
AcDbEntity
  8
0
  6
Continuous
 62
     9
100
AcDbLine
 10
119.4438374935
 20
196.8767649503
 30
0.0
 11
118.0374761139
 21
196.8767649503
 31
0.0
  0
LINE
  5
361
330
225
100
AcDbEntity
  8
0
  6
Continuous
 62
     7
100
AcDbLine
 10
112.6826223429
 20
197.0777313923
 30
0.0
 11
113.6230409792
 21
197.0777313923
 31
0.0
  0
LINE
  5
362
330
225
100
AcDbEntity
  8
0
  6
Continuous
 62
     7
100
AcDbLine
 10
123.8582726006
 20
197.0777313923
 30
0.0
 11
124.834521719
 21
197.0777313923
 31
0.0
  0
LINE
  5
363
330
225
100
AcDbEntity
  8
0
  6
Continuous
 62
     7
100
AcDbLine
 10
65.27065680369999
 20
197.2454139173
 30
0.0
 11
65.3106525731
 21
197.2454139173
 31
0.0
  0
LINE
  5
364
330
225
100
AcDbEntity
  8
0
  6
Continuous
 62
     7
100
AcDbLine
 10
172.1706610343
 20
197.2454139173
 30
0.0
 11
172.2106568036999
 21
197.2454139173
 31
0.0
  0
LINE
  5
365
330
225
100
AcDbEntity
  8
0
  6
Continuous
 62
     7
100
AcDbLine
 10
172.2106568011
 20
197.2574570005
 30
0.0
 11
172.1706610316
 21
197.2574570005
 31
0.0
  0
LINE
  5
366
330
225
100
AcDbEntity
  8
0
  6
Continuous
 62
     7
100
AcDbLine
 10
65.3106525758
 20
197.2574570005
 30
0.0
 11
65.27065680639999
 21
197.2574570005
 31
0.0
  0
LINE
  5
367
330
225
100
AcDbEntity
  8
CURVES
  6
Continuous
 62
     4
100
AcDbLine
 10
172.1706610343
 20
197.2574570005
 30
0.0
 11
172.2106568036999
 21
197.2574570005
 31
0.0
  0
LINE
  5
368
330
225
100
AcDbEntity
  8
0
  6
Continuous
 62
     7
100
AcDbLine
 10
118.5373999615
 20
197.368038747
 30
0.0
 11
118.9439136459
 21
197.368038747
 31
0.0
  0
LINE
  5
369
330
225
100
AcDbEntity
  8
0
  6
Continuous
 62
     7
100
AcDbLine
 10
124.8640585655
 20
197.0773671594
 30
0.0
 11
124.9606045314
 21
197.0732563159
 31
0.0
  0
LINE
  5
36A
330
225
100
AcDbEntity
  8
0
  6
Continuous
 62
     7
100
AcDbLine
 10
124.8674942282
 20
196.7177638062
 30
0.0
 11
124.9186648117
 21
196.7154308548
 31
0.0
  0
LINE
  5
36B
330
225
100
AcDbEntity
  8
0
  6
Continuous
 62
     7
100
AcDbLine
 10
124.8661051849
 20
197.0777313923
 30
0.0
 11
124.9606045314
 21
197.0732563159
 31
0.0
  0
LINE
  5
36C
330
225
100
AcDbEntity
  8
RUNDUNGEN
  6
Continuous
 62
     9
100
AcDbLine
 10
128.9698813932
 20
194.4027097188
 30
0.0
 11
129.006427608
 21
194.4000128914
 31
0.0
  0
LWPOLYLINE
  5
36D
330
225
100
AcDbEntity
  8
0
  6
Continuous
 62
     7
100
AcDbPolyline
 90
        7
 70
     0
 43
0.0
 10
124.3464431827
 20
194.9556594776
 10
124.4121102515
 20
194.9499323823
 10
125.3542466056
 20
194.8583329579
 10
126.294951456
 20
194.7557289579
 10
127.2341278038
 20
194.6421393439
 10
128.1716790047
 20
194.517583136
 10
128.9698813932
 20
194.4027097188
  0
LINE
  5
36E
330
225
100
AcDbEntity
  8
0
  6
Continuous
 62
     7
100
AcDbLine
 10
128.9698812303
 20
194.4027130631
 30
0.0
 11
129.5174264293
 21
194.3191696795
 31
0.0
  0
LINE
  5
36F
330
225
100
AcDbEntity
  8
0
  6
Continuous
 62
     7
100
AcDbLine
 10
129.5174264293
 20
194.3191696795
 30
0.0
 11
130.1883928888
 21
194.2114689471
 31
0.0
  0
LINE
  5
370
330
225
100
AcDbEntity
  8
0
  6
Continuous
 62
     7
100
AcDbLine
 10
130.1883928888
 20
194.2114689471
 30
0.0
 11
130.7191480656
 21
194.1220907838
 31
0.0
  0
LWPOLYLINE
  5
371
330
225
100
AcDbEntity
  8
0
  6
Continuous
 62
     7
100
AcDbPolyline
 90
       13
 70
     0
 43
0.0
 10
130.7191384348
 20
194.1220924336
 10
131.0860808111
 20
194.0581249611
 10
131.5598245321
 20
193.9728941995999
 10
132.0140100814
 20
193.8883657163
 10
132.4505815877
 20
193.8044983878
 10
132.8708445145
 20
193.7213246900999
 10
133.2760816061
 20
193.6388418929
 10
133.6677872949
 20
193.5569677044
 10
134.0466255938
 20
193.4757621641
 10
134.4139532461
 20
193.3951112422
 10
134.7691856523
 20
193.3153113131
 10
135.112349642
 20
193.2365237584
 10
135.4429868841
 20
193.1590197783
  0
LWPOLYLINE
  5
372
330
225
100
AcDbEntity
  8
0
  6
Continuous
 62
     7
100
AcDbPolyline
 90
        5
 70
     0
 43
0.0
 10
124.3319541597
 20
194.1255839058
 10
124.4018809904
 20
194.1093622269
 10
125.6472751452
 20
193.7400576643
 10
126.8839033128
 20
193.2928250784
 10
128.0334820482
 20
192.8040247131
  0
LINE
  5
373
330
225
100
AcDbEntity
  8
0
  6
Continuous
 62
     7
100
AcDbLine
 10
135.4429868841
 20
193.1590197783
 30
0.0
 11
136.0653547218
 21
193.0088462337
 31
0.0
  0
LINE
  5
374
330
225
100
AcDbEntity
  8
0
  6
Continuous
 62
     7
100
AcDbLine
 10
136.0653547218
 20
193.0088462337
 30
0.0
 11
136.6286720439999
 21
192.8680256665
 31
0.0
  0
LINE
  5
375
330
225
100
AcDbEntity
  8
0
  6
Continuous
 62
     7
100
AcDbLine
 10
136.6286720439999
 20
192.8680256665
 30
0.0
 11
137.1395860357
 21
192.7362111368
 31
0.0
  0
LINE
  5
376
330
225
100
AcDbEntity
  8
0
  6
Continuous
 62
     7
100
AcDbLine
 10
137.1395860357
 20
192.7362111368
 30
0.0
 11
137.6190217228
 21
192.6089122979
 31
0.0
  0
LINE
  5
377
330
225
100
AcDbEntity
  8
0
  6
Continuous
 62
     7
100
AcDbLine
 10
137.6190217228
 20
192.6089122979
 30
0.0
 11
138.0744720551
 21
192.4846873405
 31
0.0
  0
LINE
  5
378
330
225
100
AcDbEntity
  8
0
  6
Continuous
 62
     7
100
AcDbLine
 10
138.0744720551
 20
192.4846873405
 30
0.0
 11
138.5087866293
 21
192.3631765588
 31
0.0
  0
LINE
  5
379
330
225
100
AcDbEntity
  8
0
  6
Continuous
 62
     7
100
AcDbLine
 10
138.5087866293
 20
192.3631765588
 30
0.0
 11
138.9247637377
 21
192.2439438034
 31
0.0
  0
LINE
  5
37A
330
225
100
AcDbEntity
  8
0
  6
Continuous
 62
     7
100
AcDbLine
 10
138.9247637377
 20
192.2439438034
 30
0.0
 11
139.324688669
 21
192.1266191888
 31
0.0
  0
LINE
  5
37B
330
225
100
AcDbEntity
  8
0
  6
Continuous
 62
    40
100
AcDbLine
 10
123.8057334915
 20
192.6154201583
 30
0.0
 11
123.7807077494
 21
192.6228169349
 31
0.0
  0
LINE
  5
37C
330
225
100
AcDbEntity
  8
0
  6
Continuous
 62
     7
100
AcDbLine
 10
139.324688669
 20
192.1266191888
 30
0.0
 11
139.7100736656
 21
192.0109982198
 31
0.0
  0
LINE
  5
37D
330
225
100
AcDbEntity
  8
0
  6
Continuous
 62
     7
100
AcDbLine
 10
139.7100736656
 20
192.0109982198
 30
0.0
 11
140.082333823
 21
191.8968598759
 31
0.0
  0
LINE
  5
37E
330
225
100
AcDbEntity
  8
0
  6
Continuous
 62
     7
100
AcDbLine
 10
140.082333823
 20
191.8968598759
 30
0.0
 11
140.4428424398
 21
191.7839529822
 31
0.0
  0
LINE
  5
37F
330
225
100
AcDbEntity
  8
RUNDUNGEN
  6
Continuous
 62
     7
100
AcDbLine
 10
128.0334820482
 20
192.8040247131
 30
0.0
 11
128.0335919985
 21
192.8039745861
 31
0.0
  0
LWPOLYLINE
  5
380
330
225
100
AcDbEntity
  8
0
  6
Continuous
 62
     7
100
AcDbPolyline
 90
        7
 70
     0
 43
0.0
 10
128.0335922733
 20
192.8039751879
 10
129.359077305
 20
192.1452045967
 10
130.5932929462999
 20
191.4285457462
 10
131.665429175
 20
190.7163104107
 10
132.599840061
 20
190.0173492947
 10
133.4169411224
 20
189.3328947629
 10
133.9190843076
 20
188.8667552523
  0
LINE
  5
381
330
225
100
AcDbEntity
  8
0
  6
Continuous
 62
     7
100
AcDbLine
 10
142.5218708571
 20
189.0992930404
 30
0.0
 11
142.5111980797
 21
186.6679402800999
 31
0.0
  0
LWPOLYLINE
  5
382
330
225
100
AcDbEntity
  8
0
  6
Continuous
 62
     7
100
AcDbPolyline
 90
        6
 70
     0
 43
0.0
 10
110.6443719028
 20
201.2057146505
 10
105.8633995395
 20
200.3610658321
 10
101.1548400823
 20
199.1899314241999
 10
96.5574876674
 20
197.7024769756
 10
92.09714644669999
 20
195.9293940537
 10
89.0218807239
 20
194.5114751251
  0
LINE
  5
383
330
225
100
AcDbEntity
  8
0
  6
Continuous
 62
     7
100
AcDbLine
 10
113.5856319984
 20
201.5636920224
 30
0.0
 11
110.6443719028
 21
201.2057146505
 31
0.0
  0
LINE
  5
384
330
225
100
AcDbEntity
  8
0
  6
Continuous
 62
    40
100
AcDbLine
 10
115.4872584075
 20
197.608038747
 30
0.0
 11
121.9940551999
 21
197.608038747
 31
0.0
  0
LINE
  5
385
330
225
100
AcDbEntity
  8
0
  6
Continuous
 62
     7
100
AcDbLine
 10
63.97065680369999
 20
198.2454139173
 30
0.0
 11
65.27065680369999
 21
198.2454139173
 31
0.0
  0
LINE
  5
386
330
225
100
AcDbEntity
  8
0
  6
Continuous
 62
     7
100
AcDbLine
 10
172.2106568036999
 20
198.2454139173
 30
0.0
 11
173.5106568037
 21
198.2454139173
 31
0.0
  0
LINE
  5
387
330
225
100
AcDbEntity
  8
0
  6
Continuous
 62
     7
100
AcDbLine
 10
65.27065680369999
 20
198.2574570005
 30
0.0
 11
98.27279314120001
 21
198.2574570005
 31
0.0
  0
LINE
  5
388
330
225
100
AcDbEntity
  8
0
  6
Continuous
 62
     7
100
AcDbLine
 10
139.2085201631
 20
198.2574570005
 30
0.0
 11
172.2106568036999
 21
198.2574570005
 31
0.0
  0
LINE
  5
389
330
225
100
AcDbEntity
  8
CURVES
  6
Continuous
 62
     4
100
AcDbLine
 10
172.2106568036999
 20
198.2574570005
 30
0.0
 11
173.5106568037
 21
198.2574570005
 31
0.0
  0
LINE
  5
38A
330
225
100
AcDbEntity
  8
0
  6
Continuous
 62
     7
100
AcDbLine
 10
115.7406568508
 20
199.368038747
 30
0.0
 11
121.7406567566
 21
199.368038747
 31
0.0
  0
LINE
  5
38B
330
225
100
AcDbEntity
  8
0
  6
Continuous
 62
     7
100
AcDbLine
 10
114.0489277825
 20
201.828038747
 30
0.0
 11
123.4323858249
 21
201.828038747
 31
0.0
  0
LINE
  5
38C
330
225
100
AcDbEntity
  8
0
  6
Continuous
 62
     7
100
AcDbLine
 10
126.8369438416
 20
201.2057143447
 30
0.0
 11
123.902799859
 21
201.5628255338
 31
0.0
  0
LWPOLYLINE
  5
38D
330
225
100
AcDbEntity
  8
0
  6
Continuous
 62
     7
100
AcDbPolyline
 90
        8
 70
     0
 43
0.0
 10
126.3392704371
 20
198.3070767322
 10
128.2022789379
 20
198.0399693549
 10
131.5837476325
 20
197.3945663025999
 10
134.9018356863
 20
196.5526397906
 10
138.1372519712
 20
195.519719666
 10
141.2697597264
 20
194.3030380274
 10
144.2934577055
 20
192.9108807638
 10
145.134736881
 20
192.4602353209
  0
LWPOLYLINE
  5
38E
330
225
100
AcDbEntity
  8
0
  6
Continuous
 62
     7
100
AcDbPolyline
 90
        4
 70
     0
 43
0.0
 10
123.8755240205
 20
198.0660645701
 10
125.9584609111
 20
197.7078747718
 10
129.239102177
 20
196.8872087261
 10
131.2564500004
 20
196.2120370866
  0
LINE
  5
38F
330
225
100
AcDbEntity
  8
0
  6
Continuous
 62
     7
100
AcDbLine
 10
131.6179181908
 20
200.3610649595
 30
0.0
 11
126.8369438416
 21
201.2057143447
 31
0.0
  0
LINE
  5
390
330
225
100
AcDbEntity
  8
0
  6
Continuous
 62
     7
100
AcDbLine
 10
140.4428424398
 20
191.7839529822
 30
0.0
 11
140.7919659243
 21
191.6723088158
 31
0.0
  0
LINE
  5
391
330
225
100
AcDbEntity
  8
0
  6
Continuous
 62
     7
100
AcDbLine
 10
140.7919659243
 20
191.6723088158
 30
0.0
 11
141.1279683232
 21
191.5626347816
 31
0.0
  0
LINE
  5
392
330
225
100
AcDbEntity
  8
0
  6
Continuous
 62
     7
100
AcDbLine
 10
141.1279683232
 20
191.5626347816
 30
0.0
 11
141.4488679485
 21
191.4557589702
 31
0.0
  0
LINE
  5
393
330
225
100
AcDbEntity
  8
0
  6
Continuous
 62
     7
100
AcDbLine
 10
141.4488679485
 20
191.4557589702
 30
0.0
 11
141.7527198215
 21
191.3525411163
 31
0.0
  0
LINE
  5
394
330
225
100
AcDbEntity
  8
0
  6
Continuous
 62
     7
100
AcDbLine
 10
141.7527198215
 20
191.3525411163
 30
0.0
 11
142.0377260786
 21
191.2538325695999
 31
0.0
  0
LINE
  5
395
330
225
100
AcDbEntity
  8
0
  6
Continuous
 62
     7
100
AcDbLine
 10
142.0377260786
 20
191.2538325695999
 30
0.0
 11
142.3047325983
 21
191.1595818782
 31
0.0
  0
LINE
  5
396
330
225
100
AcDbEntity
  8
0
  6
Continuous
 62
     7
100
AcDbLine
 10
142.3047325983
 20
191.1595818782
 30
0.0
 11
142.5561806803
 21
191.0691274647
 31
0.0
  0
LINE
  5
397
330
225
100
AcDbEntity
  8
0
  6
Continuous
 62
     7
100
AcDbLine
 10
142.5561806803
 20
191.0691274647
 30
0.0
 11
142.7935955187
 21
190.9820710412
 31
0.0
  0
LINE
  5
398
330
225
100
AcDbEntity
  8
0
  6
Continuous
 62
     7
100
AcDbLine
 10
142.7935955187
 20
190.9820710412
 30
0.0
 11
143.0183197278
 21
190.8980272804
 31
0.0
  0
LINE
  5
399
330
225
100
AcDbEntity
  8
0
  6
Continuous
 62
     7
100
AcDbLine
 10
143.0183197278
 20
190.8980272804
 30
0.0
 11
143.2314811051
 21
190.8166331672999
 31
0.0
  0
LWPOLYLINE
  5
39A
330
225
100
AcDbEntity
  8
0
  6
Continuous
 62
     7
100
AcDbPolyline
 90
       12
 70
     0
 43
0.0
 10
143.2314811051
 20
190.8166331672999
 10
143.433867821
 20
190.7375883293999
 10
143.5309488907
 20
190.6989563171
 10
143.6248884326
 20
190.6610591544
 10
143.7155251622
 20
190.6239432124
 10
143.8019794514
 20
190.5879482498
 10
143.8832985932
 20
190.5534557161999
 10
143.9592986946
 20
190.5205244013
 10
144.029837285
 20
190.4891743269
 10
144.0928014114
 20
190.4602969243
 10
144.1452058854
 20
190.4352722101
 10
144.158122611
 20
190.4288881205
  0
LINE
  5
39B
330
225
100
AcDbEntity
  8
RUNDUNGEN
  6
Continuous
 62
     7
100
AcDbLine
 10
144.1624645818
 20
190.426708125
 30
0.0
 11
144.1581228232
 21
190.4288879902999
 31
0.0
  0
LINE
  5
39C
330
225
100
AcDbEntity
  8
0
  6
Continuous
 62
     7
100
AcDbLine
 10
151.7274507917
 20
184.808038747
 30
0.0
 11
152.6259995186
 21
133.3302166699
 31
0.0
  0
LWPOLYLINE
  5
39D
330
225
100
AcDbEntity
  8
0
  6
Continuous
 62
     7
100
AcDbPolyline
 90
        5
 70
     0
 43
0.0
 10
148.4593305471
 20
194.5115250483
 10
145.3841765338
 20
195.9293899794
 10
140.9238336858
 20
197.7024741806
 10
136.3264795231
 20
199.1899297061
 10
131.6179181908
 20
200.3610649595
  0
LWPOLYLINE
  5
39E
330
225
100
AcDbEntity
  8
0
  6
Continuous
 62
     7
100
AcDbPolyline
 90
        7
 70
     0
 43
0.0
 10
151.2432106699
 20
193.0840381075999
 10
150.9588353636
 20
193.2363102615
 10
150.3837902342
 20
193.5396892693
 10
149.806790313
 20
193.8380478532
 10
149.2278456104
 20
194.1313767202
 10
148.6469648122
 20
194.4196661174
 10
148.4523921513
 20
194.514892988
  0
LINE
  5
39F
330
225
100
AcDbEntity
  8
0
  6
Continuous
 62
     7
100
AcDbLine
 10
154.3406568037
 20
184.708038747
 30
0.0
 11
153.8923375593
 21
133.3357421471
 31
0.0
  0
LINE
  5
3A0
330
225
100
AcDbEntity
  8
0
  6
Continuous
 62
     7
100
AcDbLine
 10
156.5096550122
 20
186.6498611262
 30
0.0
 11
156.233233779
 21
187.3701957919
 31
0.0
  0
LINE
  5
3A1
330
225
100
AcDbEntity
  8
0
  6
Continuous
 62
     7
100
AcDbLine
 10
165.4121754992
 20
132.7953845224
 30
0.0
 11
166.7151563496999
 21
182.5542156954
 31
0.0
  0
LINE
  5
3A2
330
225
100
AcDbEntity
  8
CURVES
  6
Continuous
 62
     4
100
AcDbLine
 10
172.1706610343
 20
197.2574570005
 30
0.0
 11
172.0096609496
 21
196.638038747
 31
0.0
  0
LINE
  5
3A3
330
225
100
AcDbEntity
  8
0
  6
Continuous
 62
     7
100
AcDbLine
 10
172.1069284089
 20
197.0002143477
 30
0.0
 11
172.1706610316
 21
197.2574570005
 31
0.0
  0
LINE
  5
3A4
330
225
100
AcDbEntity
  8
CURVES
  6
Continuous
 62
     4
100
AcDbLine
 10
172.2106568036999
 20
198.2574570005
 30
0.0
 11
172.2106568036999
 21
197.2574570005
 31
0.0
  0
LINE
  5
3A5
330
225
100
AcDbEntity
  8
0
  6
Continuous
 62
     7
100
AcDbLine
 10
172.2106568036999
 20
197.2454139173
 30
0.0
 11
172.2106568036999
 21
198.2574570005
 31
0.0
  0
LINE
  5
3A6
330
225
100
AcDbEntity
  8
0
  6
Continuous
 62
     7
100
AcDbLine
 10
167.4108045642
 20
132.7430306258
 30
0.0
 11
168.7137854146
 21
182.5018617987
 31
0.0
  0
LINE
  5
3A7
330
225
100
AcDbEntity
  8
CURVES
  6
Continuous
 62
     4
100
AcDbLine
 10
170.9348331141
 20
196.638038747
 30
0.0
 11
170.7406568037
 21
194.458038747
 31
0.0
  0
LINE
  5
3A8
330
225
100
AcDbEntity
  8
0
  6
Continuous
 62
     7
100
AcDbLine
 10
170.7406568037
 20
194.4459956638
 30
0.0
 11
170.8942485013
 21
196.1823989741
 31
0.0
  0
LINE
  5
3A9
330
225
100
AcDbEntity
  8
0
  6
Continuous
 62
     7
100
AcDbLine
 10
150.2406568037
 20
115.688038747
 30
0.0
 11
150.4906568037
 21
116.1881999232
 31
0.0
  0
LINE
  5
3AA
330
225
100
AcDbEntity
  8
0
  6
Continuous
 62
     7
100
AcDbLine
 10
173.8014557723
 20
197.9546149487
 30
0.0
 11
173.5106568037
 21
198.2454139173
 31
0.0
  0
LINE
  5
3AB
330
225
100
AcDbEntity
  8
CURVES
  6
Continuous
 62
     4
100
AcDbLine
 10
173.5106568037
 20
198.2574570005
 30
0.0
 11
173.8014557723
 21
197.9666580319
 31
0.0
  0
ARC
  5
3AC
330
225
100
AcDbEntity
  8
0
  6
Continuous
 62
     7
100
AcDbCircle
 10
118.471365837
 20
107.3069834622
 30
0.0
 40
87.86709359200001
100
AcDbArc
 50
112.3908761014
 51
114.0224990723
  0
ARC
  5
3AD
330
225
100
AcDbEntity
  8
0
  6
Continuous
 62
     7
100
AcDbCircle
 10
117.7745102001
 20
109.0021580974
 30
0.0
 40
86.03427533020001
100
AcDbArc
 50
110.3832062468
 51
112.3918176816
  0
ARC
  5
3AE
330
225
100
AcDbEntity
  8
RUNDUNGEN
  6
Continuous
 62
     9
100
AcDbCircle
 10
117.5697700339
 20
114.5398316752
 30
0.0
 40
81.7446128547
100
AcDbArc
 50
81.52488701680001
 51
85.23180457249999
  0
ARC
  5
3AF
330
225
100
AcDbEntity
  8
RUNDUNGEN
  6
Continuous
 62
     9
100
AcDbCircle
 10
117.0779828926
 20
114.359877579
 30
0.0
 40
80.9241075645
100
AcDbArc
 50
81.54944099999999
 51
84.8467958812
  0
ARC
  5
3B0
330
225
100
AcDbEntity
  8
0
  6
Continuous
 62
     7
100
AcDbCircle
 10
116.8706568037
 20
116.819751578
 30
0.0
 40
80.29999999999999
100
AcDbArc
 50
76.3308349351
 51
84.24791554789999
  0
ARC
  5
3B1
330
225
100
AcDbEntity
  8
0
  6
Continuous
 62
     7
100
AcDbCircle
 10
116.8718738166
 20
116.8575785842
 30
0.0
 40
80.2627998104
100
AcDbArc
 50
63.60636069179999
 51
65.7524187162
  0
ARC
  5
3B2
330
225
100
AcDbEntity
  8
0
  6
Continuous
 62
     7
100
AcDbCircle
 10
116.872213901
 20
116.8579754511
 30
0.0
 40
80.26228282279999
100
AcDbArc
 50
60.40612504729999
 51
61.80643116569999
  0
ARC
  5
3B3
330
225
100
AcDbEntity
  8
0
  6
Continuous
 62
     7
100
AcDbCircle
 10
116.8759121698
 20
116.8667631811
 30
0.0
 40
80.2527670121
100
AcDbArc
 50
65.7523545712
 51
76.3285359873
  0
ARC
  5
3B4
330
225
100
AcDbEntity
  8
0
  6
Continuous
 62
     7
100
AcDbCircle
 10
117.4006568037
 20
117.4312624285
 30
0.0
 40
80.0
100
AcDbArc
 50
76.66898869169999
 51
84.5774951497
  0
ARC
  5
3B5
330
225
100
AcDbEntity
  8
0
  6
Continuous
 62
     7
100
AcDbCircle
 10
117.405866333
 20
117.4764016196
 30
0.0
 40
79.9544052982
100
AcDbArc
 50
60.9469733703
 51
61.9867648034
  0
ARC
  5
3B6
330
225
100
AcDbEntity
  8
0
  6
Continuous
 62
     7
100
AcDbCircle
 10
117.4053954692
 20
117.4771109994
 30
0.0
 40
79.9539907847
100
AcDbArc
 50
63.7874392291
 51
76.6667114262
  0
ARC
  5
3B7
330
225
100
AcDbEntity
  8
RUNDUNGEN
  6
Continuous
 62
     9
100
AcDbCircle
 10
117.2278673748
 20
115.361462008
 30
0.0
 40
79.9113727041
100
AcDbArc
 50
80.37299180279999
 51
81.5239897046
  0
ARC
  5
3B8
330
225
100
AcDbEntity
  8
RUNDUNGEN
  6
Continuous
 62
     9
100
AcDbCircle
 10
117.4522064645
 20
129.6934222246
 30
0.0
 40
66.815152477
100
AcDbArc
 50
78.118323106
 51
79.50961260479999
  0
ARC
  5
3B9
330
225
100
AcDbEntity
  8
RUNDUNGEN
  6
Continuous
 62
     9
100
AcDbCircle
 10
114.8783086341
 20
132.2579321279
 30
0.0
 40
65.1091335029
100
AcDbArc
 50
63.05767248710001
 51
63.2821069545
  0
ARC
  5
3BA
330
225
100
AcDbEntity
  8
RUNDUNGEN
  6
Continuous
 62
     9
100
AcDbCircle
 10
114.9220349287
 20
132.3448843377
 30
0.0
 40
65.0118058381
100
AcDbArc
 50
63.28207535579999
 51
63.63281570529999
  0
ARC
  5
3BB
330
225
100
AcDbEntity
  8
RUNDUNGEN
  6
Continuous
 62
     9
100
AcDbCircle
 10
117.2747447629
 20
134.1858866424
 30
0.0
 40
62.98884017729999
100
AcDbArc
 50
62.98190233489999
 51
76.90717052310001
  0
ARC
  5
3BC
330
225
100
AcDbEntity
  8
RUNDUNGEN
  6
Continuous
 62
     9
100
AcDbCircle
 10
117.8482825593
 20
136.3657403036
 30
0.0
 40
60.73576470039999
100
AcDbArc
 50
76.9683261328
 51
83.23483859739999
  0
ARC
  5
3BD
330
225
100
AcDbEntity
  8
RUNDUNGEN
  6
Continuous
 62
     9
100
AcDbCircle
 10
117.6296145794
 20
136.4631460503
 30
0.0
 40
60.13559030149999
100
AcDbArc
 50
78.50140752119999
 51
83.4811588009
  0
ARC
  5
3BE
330
225
100
AcDbEntity
  8
0
  6
Continuous
 62
     9
100
AcDbCircle
 10
117.8793815685
 20
144.0686137405
 30
0.0
 40
56.2606607183
100
AcDbArc
 50
123.1593179686
 51
124.4368798868
  0
ARC
  5
3BF
330
225
100
AcDbEntity
  8
0
  6
Continuous
 62
     9
100
AcDbCircle
 10
116.6141959733
 20
145.2415157357
 30
0.0
 40
55.5394712726
100
AcDbArc
 50
121.8639784214
 51
123.8021639684
  0
ARC
  5
3C0
330
225
100
AcDbEntity
  8
0
  6
Continuous
 62
     9
100
AcDbCircle
 10
115.8915175941
 20
145.8182187089
 30
0.0
 40
53.4739159732
100
AcDbArc
 50
80.70438756719999
 51
81.18268750129999
  0
ARC
  5
3C1
330
225
100
AcDbEntity
  8
0
  6
Continuous
 62
     9
100
AcDbCircle
 10
116.1264839709
 20
147.2329074525
 30
0.0
 40
52.0398511981
100
AcDbArc
 50
78.6915235047
 51
80.70809641439998
  0
ARC
  5
3C2
330
225
100
AcDbEntity
  8
0
  6
Continuous
 62
     9
100
AcDbCircle
 10
116.4436416265
 20
148.8747059022
 30
0.0
 40
50.3677365413
100
AcDbArc
 50
78.36058359519999
 51
78.6790764328
  0
ARC
  5
3C3
330
225
100
AcDbEntity
  8
0
  6
Continuous
 62
     7
100
AcDbCircle
 10
87.0646835678
 20
133.188038747
 30
0.0
 40
17.0
100
AcDbArc
 50
181.5
 51
269.7505038494
  0
ARC
  5
3C4
330
225
100
AcDbEntity
  8
0
  6
Continuous
 62
     7
100
AcDbCircle
 10
87.0639979829
 20
133.188038747
 30
0.0
 40
15.0
100
AcDbArc
 50
181.5
 51
270.0
  0
ARC
  5
3C5
330
225
100
AcDbEntity
  8
0
  6
Continuous
 62
     7
100
AcDbCircle
 10
107.1967623415
 20
123.188038747
 30
0.0
 40
7.0
100
AcDbArc
 50
270.0000000007
 51
359.0
  0
ARC
  5
3C6
330
225
100
AcDbEntity
  8
0
  6
Continuous
 62
     7
100
AcDbCircle
 10
107.1667577717
 20
123.188038747
 30
0.0
 40
5.0
100
AcDbArc
 50
270.0
 51
359.0
  0
ARC
  5
3C7
330
225
100
AcDbEntity
  8
0
  6
Continuous
 62
     7
100
AcDbCircle
 10
114.3898343521
 20
134.188038747
 30
0.0
 40
0.75
100
AcDbArc
 50
270.0292735727
 51
89.0
  0
ARC
  5
3C8
330
225
100
AcDbEntity
  8
0
  6
Continuous
 62
     7
100
AcDbCircle
 10
84.2221812346
 20
133.341268045
 30
0.0
 40
0.633229298
100
AcDbArc
 50
180.4999999957
 51
358.9999999953
  0
ARC
  5
3C9
330
225
100
AcDbEntity
  8
0
  6
Continuous
 62
     7
100
AcDbCircle
 10
69.7664999328
 20
182.528038747
 30
0.0
 40
1.0
100
AcDbArc
 50
1.5
 51
181.5
  0
ARC
  5
3CA
330
225
100
AcDbEntity
  8
0
  6
Continuous
 62
     9
100
AcDbCircle
 10
75.25536276
 20
183.8929695257
 30
0.0
 40
13.9056900648
100
AcDbArc
 50
30.8224154611
 51
31.5359963716
  0
ARC
  5
3CB
330
225
100
AcDbEntity
  8
0
  6
Continuous
 62
     7
100
AcDbCircle
 10
72.0834395926
 20
184.169578075
 30
0.0
 40
13.6425440987
100
AcDbArc
 50
18.6526398317
 51
19.64272247
  0
ARC
  5
3CC
330
225
100
AcDbEntity
  8
0
  6
Continuous
 62
     9
100
AcDbCircle
 10
73.7574864293
 20
184.6748432475
 30
0.0
 40
13.6103411779
100
AcDbArc
 50
22.7513184805
 51
24.1423080964
  0
ARC
  5
3CD
330
225
100
AcDbEntity
  8
0
  6
Continuous
 62
     7
100
AcDbCircle
 10
72.31626337729998
 20
184.2533967486
 30
0.0
 40
13.3950930554
100
AcDbArc
 50
19.6398292952
 51
21.6780692414
  0
ARC
  5
3CE
330
225
100
AcDbEntity
  8
0
  6
Continuous
 62
     9
100
AcDbCircle
 10
73.5574467021
 20
184.6761086952
 30
0.0
 40
13.1577763805
100
AcDbArc
 50
22.2760547149
 51
24.051973708
  0
ARC
  5
3CF
330
225
100
AcDbEntity
  8
0
  6
Continuous
 62
     9
100
AcDbCircle
 10
84.58448282109999
 20
186.6035391845
 30
0.0
 40
10.5363758633
100
AcDbArc
 50
359.6233782001001
 51
2.2773226
  0
ARC
  5
3D0
330
225
100
AcDbEntity
  8
0
  6
Continuous
 62
     7
100
AcDbCircle
 10
73.0410413852
 20
184.6199007385
 30
0.0
 40
10.1
100
AcDbArc
 50
0.5
 51
76.9245695524
  0
ARC
  5
3D1
330
225
100
AcDbEntity
  8
0
  6
Continuous
 62
     9
100
AcDbCircle
 10
78.3634194401
 20
186.5057833451
 30
0.0
 40
8.661036278300001
100
AcDbArc
 50
25.5518812363
 51
27.2291480961
  0
ARC
  5
3D2
330
225
100
AcDbEntity
  8
0
  6
Continuous
 62
     9
100
AcDbCircle
 10
79.4548374198
 20
187.3075296599
 30
0.0
 40
6.699944483099999
100
AcDbArc
 50
24.0572775657
 51
25.8932192928
  0
ARC
  5
3D3
330
225
100
AcDbEntity
  8
0
  6
Continuous
 62
     7
100
AcDbCircle
 10
60.5276068195
 20
193.6262237671
 30
0.0
 40
4.799999999999999
100
AcDbArc
 50
14.4191477563
 51
48.587726821
  0
ARC
  5
3D4
330
225
100
AcDbEntity
  8
0
  6
Continuous
 62
     9
100
AcDbCircle
 10
86.91553586000001
 20
189.2432549636
 30
0.0
 40
4.173467139399999
100
AcDbArc
 50
90.71920882799998
 51
93.27922800290002
  0
ARC
  5
3D5
330
225
100
AcDbEntity
  8
0
  6
Continuous
 62
     9
100
AcDbCircle
 10
88.7229931268
 20
192.7823492895999
 30
0.0
 40
2.285863876399999
100
AcDbArc
 50
229.3838041555
 51
235.5150932612
  0
ARC
  5
3D6
330
225
100
AcDbEntity
  8
0
  6
Continuous
 62
     7
100
AcDbCircle
 10
64.03341122569999
 20
197.6010615581
 30
0.0
 40
0.5
100
AcDbArc
 50
135.0
 51
228.587726821
  0
ARC
  5
3D7
330
225
100
AcDbEntity
  8
0
  6
Continuous
 62
     7
100
AcDbCircle
 10
65.85830570899999
 20
197.1259956638
 30
0.0
 40
0.5
100
AcDbArc
 50
194.57
 51
270.0
  0
ARC
  5
3D8
330
225
100
AcDbEntity
  8
0
  6
Continuous
 62
     7
100
AcDbCircle
 10
66.08903682080001
 20
196.1259956638
 30
0.0
 40
0.5
100
AcDbArc
 50
5.089999999999999
 51
90.0
  0
ARC
  5
3D9
330
225
100
AcDbEntity
  8
0
  6
Continuous
 62
     7
100
AcDbCircle
 10
65.66065680369999
 20
194.9459956638
 30
0.0
 40
0.5
100
AcDbArc
 50
194.4191477563
 51
270.0
  0
ARC
  5
3DA
330
225
100
AcDbEntity
  8
0
  6
Continuous
 62
     7
100
AcDbCircle
 10
66.0890368236
 20
196.138038747
 30
0.0
 40
0.5
100
AcDbArc
 50
5.0900000256
 51
89.99999998840001
  0
ARC
  5
3DB
330
225
100
AcDbEntity
  8
0
  6
Continuous
 62
     7
100
AcDbCircle
 10
65.85830571159999
 20
197.138038747
 30
0.0
 40
0.5
100
AcDbArc
 50
194.5699998857
 51
269.9999997843999
  0
ARC
  5
3DC
330
225
100
AcDbEntity
  8
0
  6
Continuous
 62
     7
100
AcDbCircle
 10
117.4644049791
 20
164.5029380132
 30
0.0
 40
37.4509220577
100
AcDbArc
 50
74.3770264412
 51
79.6247871577
  0
ARC
  5
3DD
330
225
100
AcDbEntity
  8
0
  6
Continuous
 62
     9
100
AcDbCircle
 10
102.4558671871
 20
167.1939252481
 30
0.0
 40
28.4649244133
100
AcDbArc
 50
121.4234880106
 51
122.629390907
  0
ARC
  5
3DE
330
225
100
AcDbEntity
  8
RUNDUNGEN
  6
Continuous
 62
     9
100
AcDbCircle
 10
116.8754353829
 20
170.4306701711
 30
0.0
 40
26.5923056778
100
AcDbArc
 50
59.52782563390001
 51
63.33943571919999
  0
ARC
  5
3DF
330
225
100
AcDbEntity
  8
RUNDUNGEN
  6
Continuous
 62
     9
100
AcDbCircle
 10
117.5541999701
 20
171.7488486902
 30
0.0
 40
25.1097154961
100
AcDbArc
 50
63.37395198859999
 51
65.09679890930001
  0
ARC
  5
3E0
330
225
100
AcDbEntity
  8
0
  6
Continuous
 62
    40
100
AcDbCircle
 10
118.6838121487
 20
173.1943507262
 30
0.0
 40
20.1114226297
100
AcDbArc
 50
81.9216915888
 51
87.65566830110001
  0
ARC
  5
3E1
330
225
100
AcDbEntity
  8
0
  6
Continuous
 62
    40
100
AcDbCircle
 10
118.6319796395
 20
174.4785417328
 30
0.0
 40
18.8167218604
100
AcDbArc
 50
98.1288039164
 51
99.17883384799999
  0
ARC
  5
3E2
330
225
100
AcDbEntity
  8
0
  6
Continuous
 62
    40
100
AcDbCircle
 10
117.3961320569
 20
180.0730611014
 30
0.0
 40
13.0825347344
100
AcDbArc
 50
106.5227487249
 51
108.8088378232
  0
ARC
  5
3E3
330
225
100
AcDbEntity
  8
0
  6
Continuous
 62
     7
100
AcDbCircle
 10
116.417038122
 20
181.568038747
 30
0.0
 40
1.199999999999999
100
AcDbArc
 50
102.0827733899
 51
178.9999999999
  0
ARC
  5
3E4
330
225
100
AcDbEntity
  8
0
  6
Continuous
 62
     9
100
AcDbCircle
 10
90.1676416769
 20
192.1800090204
 30
0.0
 40
2.597748421599999
100
AcDbArc
 50
116.1700611738
 51
116.6694470242
  0
ARC
  5
3E5
330
225
100
AcDbEntity
  8
0
  6
Continuous
 62
     7
100
AcDbCircle
 10
115.7262670335
 20
184.794931262
 30
0.0
 40
2.1
100
AcDbArc
 50
282.082773416
 51
359.0
  0
ARC
  5
3E6
330
225
100
AcDbEntity
  8
0
  6
Continuous
 62
     7
100
AcDbCircle
 10
114.7884874072
 20
186.168038747
 30
0.0
 40
1.5
100
AcDbArc
 50
181.0
 51
270.0
  0
ARC
  5
3E7
330
225
100
AcDbEntity
  8
0
  6
Continuous
 62
     7
100
AcDbCircle
 10
114.7884874072
 20
186.168038747
 30
0.0
 40
1.0
100
AcDbArc
 50
181.0
 51
270.0
  0
ARC
  5
3E8
330
225
100
AcDbEntity
  8
0
  6
Continuous
 62
     7
100
AcDbCircle
 10
112.6152084226
 20
196.0777313923
 30
0.0
 40
1.0
100
AcDbArc
 50
1.0
 51
89.8826947855
  0
ARC
  5
3E9
330
225
100
AcDbEntity
  8
0
  6
Continuous
 62
     7
100
AcDbCircle
 10
114.2233540668
 20
183.668038747
 30
0.0
 40
1.0
100
AcDbArc
 50
90.0000000001
 51
178.9999999999
  0
ARC
  5
3EA
330
225
100
AcDbEntity
  8
0
  6
Continuous
 62
     7
100
AcDbCircle
 10
113.174322886
 20
201.8508826457
 30
0.0
 40
0.5189988967
100
AcDbArc
 50
323.2806482545
 51
329.1226934987
  0
ARC
  5
3EB
330
225
100
AcDbEntity
  8
0
  6
Continuous
 62
     7
100
AcDbCircle
 10
116.5720054353
 20
198.868038747
 30
0.0
 40
0.5
100
AcDbArc
 50
90.0000000022
 51
178.9999999974
  0
ARC
  5
3EC
330
225
100
AcDbEntity
  8
0
  6
Continuous
 62
     7
100
AcDbCircle
 10
118.5373999615
 20
196.868038747
 30
0.0
 40
0.5
100
AcDbArc
 50
90.00000000120001
 51
178.9999999999
  0
ARC
  5
3ED
330
225
100
AcDbEntity
  8
0
  6
Continuous
 62
     7
100
AcDbCircle
 10
114.0489277796
 20
201.328038747
 30
0.0
 40
0.5
100
AcDbArc
 50
90.0000031223
 51
149.1298299633
  0
ARC
  5
3EE
330
225
100
AcDbEntity
  8
RUNDUNGEN
  6
Continuous
 62
     9
100
AcDbCircle
 10
108.4759475352
 20
194.6814150755
 30
0.0
 40
0.2821174816
100
AcDbArc
 50
255.215057233
 51
262.7938795527
  0
ARC
  5
3EF
330
225
100
AcDbEntity
  8
RUNDUNGEN
  6
Continuous
 62
     9
100
AcDbCircle
 10
108.4726512787
 20
194.6565478735
 30
0.0
 40
0.2570332624
100
AcDbArc
 50
262.8275165599
 51
269.9521431996
  0
ARC
  5
3F0
330
225
100
AcDbEntity
  8
0
  6
Continuous
 62
     7
100
AcDbCircle
 10
112.9423248433
 20
194.5270800173
 30
0.0
 40
0.1999998617
100
AcDbArc
 50
0.9997333745999998
 51
92.39281239540002
  0
ARC
  5
3F1
330
225
100
AcDbEntity
  8
0
  6
Continuous
 62
     7
100
AcDbCircle
 10
118.9254669449
 20
106.2779498793
 30
0.0
 40
88.99186066309999
100
AcDbArc
 50
114.0198301725
 51
114.3645566176
  0
ARC
  5
3F2
330
225
100
AcDbEntity
  8
RUNDUNGEN
  6
Continuous
 62
     9
100
AcDbCircle
 10
121.2918054789
 20
108.9636961137
 30
0.0
 40
86.39272362979999
100
AcDbArc
 50
99.71735106780002
 51
100.3947717206
  0
ARC
  5
3F3
330
225
100
AcDbEntity
  8
RUNDUNGEN
  6
Continuous
 62
     9
100
AcDbCircle
 10
121.4194122355
 20
109.0374879413
 30
0.0
 40
86.3416396636
100
AcDbArc
 50
99.8090803935
 51
100.4870413158
  0
ARC
  5
3F4
330
225
100
AcDbEntity
  8
0
  6
Continuous
 62
     7
100
AcDbCircle
 10
122.5513896915
 20
112.8293998382
 30
0.0
 40
84.73283772349999
100
AcDbArc
 50
118.0641867688
 51
118.4290034061
  0
ARC
  5
3F5
330
225
100
AcDbEntity
  8
0
  6
Continuous
 62
     7
100
AcDbCircle
 10
122.1253441818
 20
113.6359262849
 30
0.0
 40
83.8207042942
100
AcDbArc
 50
116.3431631311
 51
118.0665704585
  0
ARC
  5
3F6
330
225
100
AcDbEntity
  8
0
  6
Continuous
 62
     7
100
AcDbCircle
 10
121.4908302766
 20
114.9194024983
 30
0.0
 40
82.38895074310001
100
AcDbArc
 50
114.2507996773
 51
116.3438007183
  0
ARC
  5
3F7
330
225
100
AcDbEntity
  8
RUNDUNGEN
  6
Continuous
 62
     9
100
AcDbCircle
 10
120.4039681388
 20
114.3507467921
 30
0.0
 40
80.9331000829
100
AcDbArc
 50
98.2673783851
 51
98.451815002
  0
ARC
  5
3F8
330
225
100
AcDbEntity
  8
0
  6
Continuous
 62
     7
100
AcDbCircle
 10
120.7178740427
 20
116.2495720389
 30
0.0
 40
80.87772378930001
100
AcDbArc
 50
95.4023999208
 51
105.8968143567
  0
ARC
  5
3F9
330
225
100
AcDbEntity
  8
0
  6
Continuous
 62
     7
100
AcDbCircle
 10
120.6106568037
 20
116.819751578
 30
0.0
 40
80.29999999999999
100
AcDbArc
 50
95.36454148489999
 51
119.5860330015
  0
ARC
  5
3FA
330
225
100
AcDbEntity
  8
0
  6
Continuous
 62
     7
100
AcDbCircle
 10
120.566152157
 20
117.0461153824
 30
0.0
 40
80.0701181272
100
AcDbArc
 50
105.9485202274
 51
114.2725723479
  0
ARC
  5
3FB
330
225
100
AcDbEntity
  8
0
  6
Continuous
 62
     7
100
AcDbCircle
 10
120.0806568037
 20
117.4312624285
 30
0.0
 40
80.0
100
AcDbArc
 50
95.42250485030001
 51
119.0452362408999
  0
ARC
  5
3FC
330
225
100
AcDbEntity
  8
RUNDUNGEN
  6
Continuous
 62
     9
100
AcDbCircle
 10
120.2559917567
 20
115.3466647659
 30
0.0
 40
79.9262506084
100
AcDbArc
 50
98.47804100530002
 51
99.75658149250001
  0
ARC
  5
3FD
330
225
100
AcDbEntity
  8
0
  6
Continuous
 62
     7
100
AcDbCircle
 10
130.2845512659
 20
123.188038747
 30
0.0
 40
7.0
100
AcDbArc
 50
181.0
 51
269.9999999994
  0
ARC
  5
3FE
330
225
100
AcDbEntity
  8
0
  6
Continuous
 62
     7
100
AcDbCircle
 10
130.3145558357
 20
123.188038747
 30
0.0
 40
5.0
100
AcDbArc
 50
181.0
 51
270.0
  0
ARC
  5
3FF
330
225
100
AcDbEntity
  8
RUNDUNGEN
  6
Continuous
 62
     9
100
AcDbCircle
 10
122.6035889282
 20
132.2567852546
 30
0.0
 40
65.11042048189999
100
AcDbArc
 50
116.718196741
 51
116.943222359
  0
ARC
  5
400
330
225
100
AcDbEntity
  8
RUNDUNGEN
  6
Continuous
 62
     9
100
AcDbCircle
 10
122.5600584198
 20
132.3433419949
 30
0.0
 40
65.0135340879
100
AcDbArc
 50
116.3747188075
 51
116.718226218
  0
ARC
  5
401
330
225
100
AcDbEntity
  8
RUNDUNGEN
  6
Continuous
 62
     9
100
AcDbCircle
 10
120.7999581328
 20
132.8560733515
 30
0.0
 40
64.4431261695
100
AcDbArc
 50
113.4430811683
 51
116.9519021194
  0
ARC
  5
402
330
225
100
AcDbEntity
  8
0
  6
Continuous
 62
     9
100
AcDbCircle
 10
119.6019313196
 20
144.0686129379
 30
0.0
 40
56.26066106239999
100
AcDbArc
 50
55.56311796140001
 51
56.84068183359999
  0
ARC
  5
403
330
225
100
AcDbEntity
  8
0
  6
Continuous
 62
     9
100
AcDbCircle
 10
120.8477086983
 20
145.2114271277
 30
0.0
 40
55.5752770714
100
AcDbArc
 50
56.1984685056
 51
58.13541030039999
  0
ARC
  5
404
330
225
100
AcDbEntity
  8
0
  6
Continuous
 62
     9
100
AcDbCircle
 10
121.5440165013
 20
146.0884698262
 30
0.0
 40
53.1998386458
100
AcDbArc
 50
98.85365227920001
 51
99.29509412370002
  0
ARC
  5
405
330
225
100
AcDbEntity
  8
0
  6
Continuous
 62
     9
100
AcDbCircle
 10
121.4740420899
 20
146.5173152101
 30
0.0
 40
52.76532197579999
100
AcDbArc
 50
99.29532345730001
 51
99.5717915742
  0
ARC
  5
406
330
225
100
AcDbEntity
  8
0
  6
Continuous
 62
     9
100
AcDbCircle
 10
121.2915286907
 20
147.5758033338
 30
0.0
 40
51.6912213229
100
AcDbArc
 50
99.5673982669
 51
101.1459731282
  0
ARC
  5
407
330
225
100
AcDbEntity
  8
0
  6
Continuous
 62
     7
100
AcDbCircle
 10
123.0914792554
 20
134.188038747
 30
0.0
 40
0.75
100
AcDbArc
 50
91.0
 51
269.9707264273
  0
ARC
  5
408
330
225
100
AcDbEntity
  8
0
  6
Continuous
 62
     7
100
AcDbCircle
 10
150.4166300396
 20
133.188038747
 30
0.0
 40
17.0
100
AcDbArc
 50
270.2494961506
 51
358.5
  0
ARC
  5
409
330
225
100
AcDbEntity
  8
0
  6
Continuous
 62
     7
100
AcDbCircle
 10
150.4173156246
 20
133.188038747
 30
0.0
 40
15.0
100
AcDbArc
 50
270.0
 51
358.5
  0
ARC
  5
40A
330
225
100
AcDbEntity
  8
0
  6
Continuous
 62
     7
100
AcDbCircle
 10
153.2591323729
 20
133.341268045
 30
0.0
 40
0.633229298
100
AcDbArc
 50
181.0000000048
 51
359.5000000042
  0
ARC
  5
40B
330
225
100
AcDbEntity
  8
0
  6
Continuous
 62
     7
100
AcDbCircle
 10
132.77485164
 20
155.756692577
 30
0.0
 40
45.62244127079999
100
AcDbArc
 50
136.0386970217
 51
137.3787818788
  0
ARC
  5
40C
330
225
100
AcDbEntity
  8
0
  6
Continuous
 62
     9
100
AcDbCircle
 10
118.7742939654
 20
155.1096495764
 30
0.0
 40
44.2407843897
100
AcDbArc
 50
62.78774875239999
 51
71.88037225249999
  0
ARC
  5
40D
330
225
100
AcDbEntity
  8
0
  6
Continuous
 62
     7
100
AcDbCircle
 10
131.3229705795
 20
159.1959143677
 30
0.0
 40
42.1367300619
100
AcDbArc
 50
134.9852103731
 51
138.0378538638
  0
ARC
  5
40E
330
225
100
AcDbEntity
  8
0
  6
Continuous
 62
     7
100
AcDbCircle
 10
120.016909156
 20
164.5029363678
 30
0.0
 40
37.45092378440001
100
AcDbArc
 50
100.3752067354999
 51
105.6229736566
  0
ARC
  5
40F
330
225
100
AcDbEntity
  8
0
  6
Continuous
 62
     9
100
AcDbCircle
 10
134.5148993531
 20
166.3487846151
 30
0.0
 40
29.4519810702
100
AcDbArc
 50
57.42066753899999
 51
58.5856088147
  0
ARC
  5
410
330
225
100
AcDbEntity
  8
0
  6
Continuous
 62
    40
100
AcDbCircle
 10
118.7975014587
 20
173.1943507262
 30
0.0
 40
20.1114226297
100
AcDbArc
 50
92.34433169889999
 51
98.07830841120001
  0
ARC
  5
411
330
225
100
AcDbEntity
  8
0
  6
Continuous
 62
    40
100
AcDbCircle
 10
118.8493339679
 20
174.4785417328
 30
0.0
 40
18.8167218604
100
AcDbArc
 50
80.821166152
 51
81.87119608359999
  0
ARC
  5
412
330
225
100
AcDbEntity
  8
0
  6
Continuous
 62
    40
100
AcDbCircle
 10
118.7406568037
 20
174.6184907477
 30
0.0
 40
18.6861493822
100
AcDbArc
 50
87.65120016719999
 51
92.3487998328
  0
ARC
  5
413
330
225
100
AcDbEntity
  8
0
  6
Continuous
 62
    40
100
AcDbCircle
 10
120.0851815505
 20
180.0730611014
 30
0.0
 40
13.0825347344
100
AcDbArc
 50
71.19116217680001
 51
73.4772512751
  0
ARC
  5
414
330
225
100
AcDbEntity
  8
0
  6
Continuous
 62
     7
100
AcDbCircle
 10
121.7550465739
 20
184.794931262
 30
0.0
 40
2.1
100
AcDbArc
 50
181.0
 51
257.9172265789
  0
ARC
  5
415
330
225
100
AcDbEntity
  8
0
  6
Continuous
 62
     7
100
AcDbCircle
 10
122.6928262002
 20
186.168038747
 30
0.0
 40
1.5
100
AcDbArc
 50
270.0
 51
359.0
  0
ARC
  5
416
330
225
100
AcDbEntity
  8
0
  6
Continuous
 62
     7
100
AcDbCircle
 10
121.0642754854
 20
181.568038747
 30
0.0
 40
1.199999999999999
100
AcDbArc
 50
1.0000000004
 51
77.9172266101
  0
ARC
  5
417
330
225
100
AcDbEntity
  8
0
  6
Continuous
 62
     7
100
AcDbCircle
 10
122.6928262002
 20
186.168038747
 30
0.0
 40
1.0
100
AcDbArc
 50
270.0
 51
359.0
  0
ARC
  5
418
330
225
100
AcDbEntity
  8
0
  6
Continuous
 62
     7
100
AcDbCircle
 10
123.2579595406
 20
183.668038747
 30
0.0
 40
1.0
100
AcDbArc
 50
1.0
 51
89.9999999999
  0
ARC
  5
419
330
225
100
AcDbEntity
  8
0
  6
Continuous
 62
     7
100
AcDbCircle
 10
124.8661051849
 20
196.0777313923
 30
0.0
 40
1.0
100
AcDbArc
 50
90.11730521450001
 51
179.0
  0
ARC
  5
41A
330
225
100
AcDbEntity
  8
0
  6
Continuous
 62
     7
100
AcDbCircle
 10
124.8685526821
 20
196.2179484184
 30
0.0
 40
0.5
100
AcDbArc
 50
90.0
 51
179.0
  0
ARC
  5
41B
330
225
100
AcDbEntity
  8
0
  6
Continuous
 62
     7
100
AcDbCircle
 10
120.9093081722
 20
198.868038747
 30
0.0
 40
0.5
100
AcDbArc
 50
1.000000001999999
 51
89.99999999779999
  0
ARC
  5
41C
330
225
100
AcDbEntity
  8
0
  6
Continuous
 62
     7
100
AcDbCircle
 10
118.9439136459
 20
196.868038747
 30
0.0
 40
0.5
100
AcDbArc
 50
1.000000004499999
 51
89.99999999879999
  0
ARC
  5
41D
330
225
100
AcDbEntity
  8
0
  6
Continuous
 62
     7
100
AcDbCircle
 10
123.4323858278
 20
201.328038747
 30
0.0
 40
0.5
100
AcDbArc
 50
30.8701700367
 51
89.99999687769999
  0
ARC
  5
41E
330
225
100
AcDbEntity
  8
RUNDUNGEN
  6
Continuous
 62
     9
100
AcDbCircle
 10
139.2225855574
 20
179.3379919695
 30
0.0
 40
12.1657991291
100
AcDbArc
 50
66.5551800544
 51
67.08487275039999
  0
ARC
  5
41F
330
225
100
AcDbEntity
  8
0
  6
Continuous
 62
     9
100
AcDbCircle
 10
162.2360935399
 20
183.8982914966999
 30
0.0
 40
13.9116963008
100
AcDbArc
 50
148.5037883392
 51
149.2332342676
  0
ARC
  5
420
330
225
100
AcDbEntity
  8
0
  6
Continuous
 62
     9
100
AcDbCircle
 10
152.7025839802
 20
186.609163668
 30
0.0
 40
10.3420565795
100
AcDbArc
 50
177.28753391
 51
178.956610837
  0
ARC
  5
421
330
225
100
AcDbEntity
  8
0
  6
Continuous
 62
     9
100
AcDbCircle
 10
159.1174145281
 20
186.5060227146
 30
0.0
 40
8.6605002771
100
AcDbArc
 50
152.7709103067
 51
154.4481835198
  0
ARC
  5
422
330
225
100
AcDbEntity
  8
0
  6
Continuous
 62
     9
100
AcDbCircle
 10
158.0264670913
 20
187.3075337215
 30
0.0
 40
6.699934521799999
100
AcDbArc
 50
154.1067803607
 51
155.942725184
  0
ARC
  5
423
330
225
100
AcDbEntity
  8
0
  6
Continuous
 62
     9
100
AcDbCircle
 10
150.5642927137
 20
189.2922448375
 30
0.0
 40
4.1244285397
100
AcDbArc
 50
85.1545515225
 51
89.24412686030001
  0
ARC
  5
424
330
225
100
AcDbEntity
  8
0
  6
Continuous
 62
     9
100
AcDbCircle
 10
148.6854953936
 20
192.8499853489
 30
0.0
 40
2.4130984721
100
AcDbArc
 50
304.6234683856
 51
311.0428271611
  0
ARC
  5
425
330
225
100
AcDbEntity
  8
0
  6
Continuous
 62
     9
100
AcDbCircle
 10
163.7237097168
 20
184.6748909800999
 30
0.0
 40
13.6102144289
100
AcDbArc
 50
155.8576760533
 51
157.2341961025
  0
ARC
  5
426
330
225
100
AcDbEntity
  8
0
  6
Continuous
 62
     9
100
AcDbCircle
 10
163.9213353111
 20
184.6772001884
 30
0.0
 40
13.1550197352
100
AcDbArc
 50
155.9478749702
 51
157.6894918842
  0
ARC
  5
427
330
225
100
AcDbEntity
  8
0
  6
Continuous
 62
     7
100
AcDbCircle
 10
164.4402722222
 20
184.6199007385
 30
0.0
 40
10.1
100
AcDbArc
 50
103.0754304476
 51
179.5
  0
ARC
  5
428
330
225
100
AcDbEntity
  8
0
  6
Continuous
 62
     7
100
AcDbCircle
 10
167.7148136746
 20
182.528038747
 30
0.0
 40
1.0
100
AcDbArc
 50
358.5
 51
178.5
  0
ARC
  5
429
330
225
100
AcDbEntity
  8
0
  6
Continuous
 62
     7
100
AcDbCircle
 10
176.9537067879
 20
193.6262237671
 30
0.0
 40
4.799999999999999
100
AcDbArc
 50
131.412273179
 51
165.5808522437
  0
ARC
  5
42A
330
225
100
AcDbEntity
  8
CURVES
  6
Continuous
 62
     4
100
AcDbCircle
 10
176.9537067879
 20
193.6382668503
 30
0.0
 40
4.799999999999999
100
AcDbArc
 50
131.412273179
 51
165.5808522437
  0
ARC
  5
42B
330
225
100
AcDbEntity
  8
0
  6
Continuous
 62
     7
100
AcDbCircle
 10
171.6230078984
 20
197.1259956638
 30
0.0
 40
0.5
100
AcDbArc
 50
270.0
 51
345.43
  0
ARC
  5
42C
330
225
100
AcDbEntity
  8
0
  6
Continuous
 62
     7
100
AcDbCircle
 10
171.8206568037
 20
194.9459956638
 30
0.0
 40
0.5
100
AcDbArc
 50
270.0
 51
345.5808522437
  0
ARC
  5
42D
330
225
100
AcDbEntity
  8
0
  6
Continuous
 62
     7
100
AcDbCircle
 10
171.3922767866
 20
196.1259956638
 30
0.0
 40
0.5
100
AcDbArc
 50
90.0
 51
174.91
  0
ARC
  5
42E
330
225
100
AcDbEntity
  8
0
  6
Continuous
 62
     7
100
AcDbCircle
 10
173.4479023817
 20
197.6010615581
 30
0.0
 40
0.5
100
AcDbArc
 50
311.412273179
 51
45.0
  0
ARC
  5
42F
330
225
100
AcDbEntity
  8
0
  6
Continuous
 62
     7
100
AcDbCircle
 10
171.3922767839
 20
196.138038747
 30
0.0
 40
0.5
100
AcDbArc
 50
90.0000000116
 51
174.9099999744
  0
ARC
  5
430
330
225
100
AcDbEntity
  8
0
  6
Continuous
 62
     7
100
AcDbCircle
 10
171.6230078958
 20
197.138038747
 30
0.0
 40
0.5
100
AcDbArc
 50
270.0000002156
 51
345.430000114
  0
ARC
  5
431
330
225
100
AcDbEntity
  8
CURVES
  6
Continuous
 62
     4
100
AcDbCircle
 10
173.4479023817
 20
197.6131046413
 30
0.0
 40
0.5
100
AcDbArc
 50
311.412273179
 51
45.0
  0
ARC
  5
432
330
225
100
AcDbEntity
  8
CURVES
  6
Continuous
 62
     4
100
AcDbCircle
 10
171.8206568037
 20
194.958038747
 30
0.0
 40
0.5
100
AcDbArc
 50
270.0
 51
345.5808522437
  0
SPLINE
  5
433
330
225
100
AcDbEntity
  8
0
  6
Continuous
 62
     7
100
AcDbSpline
210
0.0
220
0.0
230
1.0
 70
     8
 71
     3
 72
     9
 73
     5
 74
     0
 42
0.0000000001
 43
0.0000000001
 40
0.0
 40
0.0
 40
0.0
 40
0.0
 40
0.6820761437
 40
1.0
 40
1.0
 40
1.0
 40
1.0
 10
87.80900361139998
 20
189.6493213859
 30
0.0
 10
93.3642453987
 20
191.713053434
 30
0.0
 10
101.6659922915
 20
193.8294166333
 30
0.0
 10
110.1981246084
 20
194.6126455898
 30
0.0
 10
112.9339793573
 20
194.7269054454
 30
0.0
  0
LINE
  5
434
330
225
100
AcDbEntity
  8
0
  6
Continuous
 62
     7
100
AcDbLine
 10
135.7406570379
 20
194.8710205737
 30
0.0
 11
135.8467716599
 21
194.8453695823
 31
0.0
  0
SPLINE
  5
435
330
225
100
AcDbEntity
  8
0
  6
Continuous
 62
     7
100
AcDbSpline
210
0.0
220
0.0
230
1.0
 70
     8
 71
     3
 72
     9
 73
     5
 74
     0
 42
0.0000000001
 43
0.0000000001
 40
0.0
 40
0.0
 40
0.0
 40
0.0
 40
0.5199599768
 40
1.0
 40
1.0
 40
1.0
 40
1.0
 10
99.93541685090001
 20
187.4265310711
 30
0.0
 10
101.3495451516
 20
188.8925317202
 30
0.0
 10
104.2667470308
 20
191.5320257218
 30
0.0
 10
107.593431673
 20
193.648452407
 30
0.0
 10
109.2740714878
 20
194.4921083718
 30
0.0
  0
SPLINE
  5
436
330
225
100
AcDbEntity
  8
RUNDUNGEN
  6
Continuous
 62
     9
100
AcDbSpline
210
0.0
220
0.0
230
1.0
 70
     8
 71
     3
 72
    22
 73
    18
 74
     0
 42
0.0000000001
 43
0.0000000001
 40
0.0
 40
0.0
 40
0.0
 40
0.0
 40
0.0171501644
 40
0.0295224666
 40
0.0363810502
 40
0.0404989547
 40
0.0543304181
 40
0.0748895127
 40
0.1259715313
 40
0.1838297945
 40
0.2453755642
 40
0.3092802929
 40
0.3748415134
 40
0.4416388148
 40
0.5779545123
 40
0.7168926967
 40
1.0
 40
1.0
 40
1.0
 40
1.0
 10
144.378827624
 20
190.3003186815
 30
0.0
 10
144.3803399177
 20
190.2999958267
 30
0.0
 10
144.383029144
 20
190.2994731165
 30
0.0
 10
144.3860947943
 20
190.2992859124
 30
0.0
 10
144.3885906128
 20
190.2994653528
 30
0.0
 10
144.3891260389
 20
190.3019802207
 30
0.0
 10
144.3859649576
 20
190.3044571077
 30
0.0
 10
144.3804830396
 20
190.3093613173
 30
0.0
 10
144.3703934059
 20
190.3157690565
 30
0.0
 10
144.3574033295
 20
190.3237948826
 30
0.0
 10
144.3430605964
 20
190.3320745745
 30
0.0
 10
144.328051393
 20
190.3405035544
 30
0.0
 10
144.3125303579
 20
190.3490099096
 30
0.0
 10
144.2912038106
 20
190.3604997198
 30
0.0
 10
144.2639255172
 20
190.3748927533
 30
0.0
 10
144.2192182678
 20
190.3980432192
 30
0.0
 10
144.1852747737
 20
190.4152491017
 30
0.0
 10
144.1624644981
 20
190.4267081725
 30
0.0
  0
SPLINE
  5
437
330
225
100
AcDbEntity
  8
RUNDUNGEN
  6
Continuous
 62
     9
100
AcDbSpline
210
0.0
220
0.0
230
1.0
 70
     8
 71
     3
 72
    44
 73
    40
 74
     0
 42
0.0000000001
 43
0.0000000001
 40
0.0
 40
0.0
 40
0.0
 40
0.0
 40
0.1227241249
 40
0.2457905326
 40
0.3074760577
 40
0.3692757965
 40
0.4312015794
 40
0.4932671077000001
 40
0.5554887837
 40
0.617887106
 40
0.6804890831
 40
0.7118778827
 40
0.7433332265000001
 40
0.7748632903
 40
0.8064789147999999
 40
0.8381952088
 40
0.8540976995999999
 40
0.8700346173999999
 40
0.8860109826
 40
0.9020335589
 40
0.9181118924999999
 40
0.9342602955
 40
0.9423675147
 40
0.9505021821999999
 40
0.9586704390999999
 40
0.9668814696
 40
0.9751501743
 40
0.9793138529
 40
0.9835039804
 40
0.9877293706999999
 40
0.9898596064999999
 40
0.9920050526
 40
0.9941694100999999
 40
0.9963558834999998
 40
0.9974549225
 40
0.9985430092000001
 40
0.9995294073
 40
0.9998586715
 40
1.0
 40
1.0
 40
1.0
 40
1.0
 10
131.2088616685
 20
195.0770519662
 30
0.0
 10
131.8279332167
 20
194.9468097772
 30
0.0
 10
133.064177292
 20
194.6684048736
 30
0.0
 10
134.6002861785
 20
194.2769476781
 30
0.0
 10
135.8251142822
 20
193.9375969545
 30
0.0
 10
136.7426158151
 20
193.6697595797
 30
0.0
 10
137.6582505238
 20
193.3888620012
 30
0.0
 10
138.5720788738
 20
193.0949593414
 30
0.0
 10
139.4842112456
 20
192.7881094244
 30
0.0
 10
140.3948367271
 20
192.4683740882
 30
0.0
 10
141.1519860406
 20
192.1915003593
 30
0.0
 10
141.7571951395
 20
191.9637087341999
 30
0.0
 10
142.2114352101
 20
191.7895365613
 30
0.0
 10
142.665707323
 20
191.6122077417
 30
0.0
 10
143.1201871759
 20
191.4317353293
 30
0.0
 10
143.4989483986
 20
191.2788769405
 30
0.0
 10
143.8022790321
 20
191.1550813361
 30
0.0
 10
144.0302572994
 20
191.0613807109
 30
0.0
 10
144.2585908896
 20
190.966918119
 30
0.0
 10
144.487400312
 20
190.8717003015
 30
0.0
 10
144.716859335
 20
190.7757364178
 30
0.0
 10
144.9085705601
 20
190.6952656018
 30
0.0
 10
145.0624994523
 20
190.6305830924999
 30
0.0
 10
145.1785067019
 20
190.5818427411
 30
0.0
 10
145.2950304739
 20
190.5329502402
 30
0.0
 10
145.4122466361
 20
190.4839223028
 30
0.0
 10
145.5105073157
 20
190.443072215
 30
0.0
 10
145.5897324907
 20
190.410429481
 30
0.0
 10
145.6497631533
 20
190.3859128904
 30
0.0
 10
145.7001836606
 20
190.3655911087
 30
0.0
 10
145.7409233346
 20
190.3494452231
 30
0.0
 10
145.7718479722
 20
190.3373782188
 30
0.0
 10
145.8031494701
 20
190.3254546354
 30
0.0
 10
145.8294953976
 20
190.3157700567
 30
0.0
 10
145.8508690246
 20
190.3084287612
 30
0.0
 10
145.8662770168
 20
190.3034124609
 30
0.0
 10
145.8787218684
 20
190.3002781058
 30
0.0
 10
145.8855571647
 20
190.2990375979
 30
0.0
 10
145.8885868903
 20
190.29962384
 30
0.0
 10
145.8888056809
 20
190.3003187365
 30
0.0
  0
LINE
  5
438
330
225
100
AcDbEntity
  8
RUNDUNGEN
  6
Continuous
 62
     9
100
AcDbLine
 10
108.5086145505
 20
194.4048987896
 30
0.0
 11
108.4724365894
 21
194.3995147008
 31
0.0
  0
SPLINE
  5
439
330
225
100
AcDbEntity
  8
RUNDUNGEN
  6
Continuous
 62
     7
100
AcDbSpline
210
0.0
220
0.0
230
1.0
 70
     8
 71
     3
 72
    11
 73
     7
 74
     0
 42
0.0000000001
 43
0.0000000001
 40
0.0
 40
0.0
 40
0.0
 40
0.0
 40
0.2396613021
 40
0.3946995704
 40
0.606524827
 40
1.0
 40
1.0
 40
1.0
 40
1.0
 10
91.58876729129998
 20
190.2709777721
 30
0.0
 10
91.5852133987
 20
190.2714714999
 30
0.0
 10
91.5791442123
 20
190.272098892
 30
0.0
 10
91.57225141290002
 20
190.2802922628
 30
0.0
 10
91.5801147404
 20
190.2913215424
 30
0.0
 10
91.5868204124
 20
190.2964194951
 30
0.0
 10
91.59160290770001
 20
190.2998588773
 30
0.0
  0
SPLINE
  5
43A
330
225
100
AcDbEntity
  8
RUNDUNGEN
  6
Continuous
 62
     7
100
AcDbSpline
210
0.0
220
0.0
230
1.0
 70
     8
 71
     3
 72
     9
 73
     5
 74
     0
 42
0.0000000001
 43
0.0000000001
 40
0.0
 40
0.0
 40
0.0
 40
0.0
 40
0.291179002
 40
1.0
 40
1.0
 40
1.0
 40
1.0
 10
93.1015802772
 20
190.2998584062
 30
0.0
 10
93.09032092069999
 20
190.2956170442
 30
0.0
 10
93.05121560209999
 20
190.2823288421
 30
0.0
 10
93.0104502444
 20
190.2732774276
 30
0.0
 10
92.98125158540001
 20
190.2709790647
 30
0.0
  0
SPLINE
  5
43B
330
225
100
AcDbEntity
  8
RUNDUNGEN
  6
Continuous
 62
     7
100
AcDbSpline
210
0.0
220
0.0
230
1.0
 70
     8
 71
     3
 72
    11
 73
     7
 74
     0
 42
0.0000000001
 43
0.0000000001
 40
0.0
 40
0.0
 40
0.0
 40
0.0
 40
0.3933616125
 40
0.6053029035000001
 40
0.7603406456
 40
1.0
 40
1.0
 40
1.0
 40
1.0
 10
145.8888057403
 20
190.3003188435
 30
0.0
 10
145.8935820691
 20
190.2968760334
 30
0.0
 10
145.9002843576
 20
190.2917805865
 30
0.0
 10
145.9081574824
 20
190.2807590209
 30
0.0
 10
145.9012673373
 20
190.2725629245
 30
0.0
 10
145.895199186
 20
190.2719347311
 30
0.0
 10
145.8916459695999
 20
190.2714421102
 30
0.0
  0
LINE
  5
43C
330
225
100
AcDbEntity
  8
RUNDUNGEN
  6
Continuous
 62
     9
100
AcDbLine
 10
130.7638938161
 20
194.1184942789
 30
0.0
 11
130.6355213139
 21
194.1402529016
 31
0.0
  0
LINE
  5
43D
330
225
100
AcDbEntity
  8
RUNDUNGEN
  6
Continuous
 62
     9
100
AcDbLine
 10
130.6355213139
 20
194.1402529016
 30
0.0
 11
130.5931211335
 21
194.147457754
 31
0.0
  0
SPLINE
  5
43E
330
225
100
AcDbEntity
  8
RUNDUNGEN
  6
Continuous
 62
     9
100
AcDbSpline
210
0.0
220
0.0
230
1.0
 70
     8
 71
     3
 72
    11
 73
     7
 74
     0
 42
0.0000000001
 43
0.0000000001
 40
0.0
 40
0.0
 40
0.0
 40
0.0
 40
0.2905631924
 40
0.5649362218000001
 40
0.8048823195999998
 40
1.0
 40
1.0
 40
1.0
 40
1.0
 10
129.6172770034
 20
195.3917906755
 30
0.0
 10
129.6057230448
 20
195.2884175709
 30
0.0
 10
129.5678312222
 20
195.088831104
 30
0.0
 10
129.4697116692
 20
194.8163487241
 30
0.0
 10
129.3401625689
 20
194.596279621
 30
0.0
 10
129.2262429137
 20
194.4845174065
 30
0.0
 10
129.1663616751
 20
194.448557652
 30
0.0
  0
SPLINE
  5
43F
330
225
100
AcDbEntity
  8
RUNDUNGEN
  6
Continuous
 62
     9
100
AcDbSpline
210
0.0
220
0.0
230
1.0
 70
     8
 71
     3
 72
     9
 73
     5
 74
     0
 42
0.0000000001
 43
0.0000000001
 40
0.0
 40
0.0
 40
0.0
 40
0.0
 40
0.2699189114
 40
1.0
 40
1.0
 40
1.0
 40
1.0
 10
129.1663616751
 20
194.448557652
 30
0.0
 10
129.1533843730999
 20
194.4407645502
 30
0.0
 10
129.1039078302
 20
194.4144762524
 30
0.0
 10
129.0473720194
 20
194.4000161616
 30
0.0
 10
129.0064279604
 20
194.4000158788
 30
0.0
  0
LINE
  5
440
330
225
100
AcDbEntity
  8
RUNDUNGEN
  6
Continuous
 62
     9
100
AcDbLine
 10
129.0064277063
 20
194.4000136052
 30
0.0
 11
128.9702600775
 21
194.4053954327
 31
0.0
  0
SPLINE
  5
441
330
225
100
AcDbEntity
  8
RUNDUNGEN
  6
Continuous
 62
     7
100
AcDbSpline
210
0.0
220
0.0
230
1.0
 70
     8
 71
     3
 72
     9
 73
     5
 74
     0
 42
0.0000000001
 43
0.0000000001
 40
0.0
 40
0.0
 40
0.0
 40
0.0
 40
0.2022420234
 40
1.0
 40
1.0
 40
1.0
 40
1.0
 10
144.4991412244
 20
190.2714428789
 30
0.0
 10
144.4908115188
 20
190.272097446
 30
0.0
 10
144.4497838559
 20
190.2772266728
 30
0.0
 10
144.4096709355
 20
190.2887020365
 30
0.0
 10
144.3788276425
 20
190.300318741
 30
0.0
  0
SPLINE
  5
442
330
225
100
AcDbEntity
  8
RUNDUNGEN
  6
Continuous
 62
     9
100
AcDbSpline
210
0.0
220
0.0
230
1.0
 70
     8
 71
     3
 72
    22
 73
    18
 74
     0
 42
0.0000000001
 43
0.0000000001
 40
0.0
 40
0.0
 40
0.0
 40
0.0
 40
0.283143454
 40
0.4220986128
 40
0.5584286525
 40
0.6252336728
 40
0.6907987253
 40
0.7547058101000001
 40
0.8162531863999999
 40
0.8741038051
 40
0.9251606984999998
 40
0.9456979520999999
 40
0.9595073538999999
 40
0.9636204735999999
 40
0.9704353753999999
 40
0.9828319104
 40
1.0
 40
1.0
 40
1.0
 40
1.0
 10
93.31795668559999
 20
190.4262598557
 30
0.0
 10
93.2951426232
 20
190.4147984239
 30
0.0
 10
93.26119352360001
 20
190.3975891024
 30
0.0
 10
93.21647911840001
 20
190.3744341446
 30
0.0
 10
93.18919682529999
 20
190.360038084
 30
0.0
 10
93.16786734169999
 20
190.3485464349
 30
0.0
 10
93.1523447774
 20
190.3400385427
 30
0.0
 10
93.1373346258
 20
190.3316082115999
 30
0.0
 10
93.1229915543
 20
190.3233281596
 30
0.0
 10
93.11000410510001
 20
190.3153022068
 30
0.0
 10
93.09991822219998
 20
190.3088965991
 30
0.0
 10
93.09444248209999
 20
190.3039936219
 30
0.0
 10
93.09128596649999
 20
190.3015193
 30
0.0
 10
93.09181831629999
 20
190.2990128437
 30
0.0
 10
93.0943057718
 20
190.2988156407
 30
0.0
 10
93.0973735575
 20
190.2990189111
 30
0.0
 10
93.10006635479998
 20
190.2995350583
 30
0.0
 10
93.10158028729999
 20
190.2998583221
 30
0.0
  0
LINE
  5
443
330
225
100
AcDbEntity
  8
RUNDUNGEN
  6
Continuous
 62
     9
100
AcDbLine
 10
125.0029663022
 20
196.6786213016
 30
0.0
 11
124.9155994176
 21
196.688887434
 31
0.0
  0
LINE
  5
444
330
225
100
AcDbEntity
  8
RUNDUNGEN
  6
Continuous
 62
     9
100
AcDbLine
 10
124.9155994176
 20
196.688887434
 30
0.0
 11
124.8648385123
 21
196.6947920682
 31
0.0
  0
LINE
  5
445
330
225
100
AcDbEntity
  8
RUNDUNGEN
  6
Continuous
 62
     9
100
AcDbLine
 10
124.8648385123
 20
196.6947920682
 30
0.0
 11
124.764253846
 21
196.7063618543
 31
0.0
  0
SPLINE
  5
446
330
225
100
AcDbEntity
  8
RUNDUNGEN
  6
Continuous
 62
     9
100
AcDbSpline
210
0.0
220
0.0
230
1.0
 70
     8
 71
     3
 72
    23
 73
    19
 74
     0
 42
0.0000000001
 43
0.0000000001
 40
0.0
 40
0.0
 40
0.0
 40
0.0
 40
0.0167573886
 40
0.0339734971
 40
0.051023442
 40
0.0678939939
 40
0.1011996287
 40
0.1340622732
 40
0.1665901641
 40
0.1988517616
 40
0.2627476904
 40
0.3259882467000001
 40
0.3887131419
 40
0.5129561861000001
 40
0.6359535829000001
 40
0.7579950485
 40
0.8792871021999999
 40
1.0
 40
1.0
 40
1.0
 40
1.0
 10
91.58875841030001
 20
190.2709785988
 30
0.0
 10
91.6688574506
 20
190.2861122378
 30
0.0
 10
91.8290557247
 20
190.3275492937
 30
0.0
 10
92.06805820299999
 20
190.3942494982
 30
0.0
 10
92.3067108513
 20
190.4645038894
 30
0.0
 10
92.61985996019999
 20
190.5587178413
 30
0.0
 10
93.0060211007
 20
190.6772620281
 30
0.0
 10
93.46468262409999
 20
190.8191440394
 30
0.0
 10
93.9184875711
 20
190.959546828
 30
0.0
 10
94.51674328360001
 20
191.1438082798
 30
0.0
 10
95.25850417399999
 20
191.369699249
 30
0.0
 10
96.14368585740001
 20
191.633262735
 30
0.0
 10
97.31272658969999
 20
191.9720655837
 30
0.0
 10
98.76599998340001
 20
192.374269297
 30
0.0
 10
100.5057518808
 20
192.8221183986
 30
0.0
 10
102.2398052972
 20
193.2332723096
 30
0.0
 10
103.9708716996
 20
193.6072963377
 30
0.0
 10
105.1264624844
 20
193.8325162395999
 30
0.0
 10
105.7040188013
 20
193.9385371118
 30
0.0
  0
LINE
  5
447
330
225
100
AcDbEntity
  8
RUNDUNGEN
  6
Continuous
 62
     9
100
AcDbLine
 10
105.7040995991
 20
193.9368853982
 30
0.0
 11
105.6592464536
 21
193.9285588534
 31
0.0
  0
SPLINE
  5
448
330
225
100
AcDbEntity
  8
RUNDUNGEN
  6
Continuous
 62
     9
100
AcDbSpline
210
0.0
220
0.0
230
1.0
 70
     8
 71
     3
 72
    15
 73
    11
 74
     0
 42
0.0000000001
 43
0.0000000001
 40
0.0
 40
0.0
 40
0.0
 40
0.0
 40
0.2570582376
 40
0.3849163109
 40
0.5120706728
 40
0.6382099004999999
 40
0.7627945513
 40
0.8846764638999999
 40
0.9437208518
 40
1.0
 40
1.0
 40
1.0
 40
1.0
 10
105.6592464536
 20
193.9285588534
 30
0.0
 10
104.5957288613
 20
193.7307700083
 30
0.0
 10
103.0090455624
 20
193.401775812
 30
0.0
 10
100.9139302835
 20
192.8972270721
 30
0.0
 10
99.36293884660001
 20
192.4878768826
 30
0.0
 10
97.8347535426
 20
192.0476434442
 30
0.0
 10
96.33865498879998
 20
191.5778028131
 30
0.0
 10
95.1222596783
 20
191.1608273444
 30
0.0
 10
94.18657680249999
 20
190.8130220602
 30
0.0
 10
93.7353623751
 20
190.6340478811
 30
0.0
 10
93.51726370809998
 20
190.5417258708
 30
0.0
  0
SPLINE
  5
449
330
225
100
AcDbEntity
  8
RUNDUNGEN
  6
Continuous
 62
     9
100
AcDbSpline
210
0.0
220
0.0
230
1.0
 70
     8
 71
     3
 72
     9
 73
     5
 74
     0
 42
0.0000000001
 43
0.0000000001
 40
0.0
 40
0.0
 40
0.0
 40
0.0
 40
0.2590203405
 40
1.0
 40
1.0
 40
1.0
 40
1.0
 10
93.51726370809998
 20
190.5417258708
 30
0.0
 10
93.4913952603
 20
190.5307756566999
 30
0.0
 10
93.3916640766
 20
190.4881781634
 30
0.0
 10
93.29246813120001
 20
190.4442815542
 30
0.0
 10
93.2197140567
 20
190.4101582889
 30
0.0
  0
SPLINE
  5
44A
330
225
100
AcDbEntity
  8
RUNDUNGEN
  6
Continuous
 62
     9
100
AcDbSpline
210
0.0
220
0.0
230
1.0
 70
     8
 71
     3
 72
    13
 73
     9
 74
     0
 42
0.0000000001
 43
0.0000000001
 40
0.0
 40
0.0
 40
0.0
 40
0.0
 40
0.316556928
 40
0.6061362013
 40
0.7355574362999999
 40
0.8495482859
 40
0.9411491618999999
 40
1.0
 40
1.0
 40
1.0
 40
1.0
 10
93.2197140567
 20
190.4101582889
 30
0.0
 10
93.19314230479999
 20
190.3976955512
 30
0.0
 10
93.14249022170001
 20
190.3733928217
 30
0.0
 10
93.08172713030002
 20
190.3422435266999
 30
0.0
 10
93.0388281701
 20
190.3179220628
 30
0.0
 10
93.01221986100001
 20
190.3013647855
 30
0.0
 10
92.99318619220001
 20
190.2869318538
 30
0.0
 10
92.98235479569999
 20
190.2763231814
 30
0.0
 10
92.9812535229
 20
190.2709791818999
 30
0.0
  0
SPLINE
  5
44B
330
225
100
AcDbEntity
  8
RUNDUNGEN
  6
Continuous
 62
     7
100
AcDbSpline
210
0.0
220
0.0
230
1.0
 70
     8
 71
     3
 72
    10
 73
     6
 74
     0
 42
0.0000000001
 43
0.0000000001
 40
0.0
 40
0.0
 40
0.0
 40
0.0
 40
0.568523484
 40
0.8018215446999999
 40
1.0
 40
1.0
 40
1.0
 40
1.0
 10
92.98125158540001
 20
190.2709790647
 30
0.0
 10
92.7177760876
 20
190.2502460906999
 30
0.0
 10
92.34501299260001
 20
190.2300922337
 30
0.0
 10
91.8800768142
 20
190.240617064
 30
0.0
 10
91.680021358
 20
190.2583227402
 30
0.0
 10
91.58876729129998
 20
190.2709777721
 30
0.0
  0
SPLINE
  5
44C
330
225
100
AcDbEntity
  8
RUNDUNGEN
  6
Continuous
 62
     9
100
AcDbSpline
210
0.0
220
0.0
230
1.0
 70
     8
 71
     3
 72
    25
 73
    21
 74
     0
 42
0.0000000001
 43
0.0000000001
 40
0.0
 40
0.0
 40
0.0
 40
0.0
 40
0.1208400695
 40
0.2421194491
 40
0.3641384203
 40
0.4870995749000001
 40
0.5490209929
 40
0.6112990078000001
 40
0.6739995269
 40
0.7372147213
 40
0.8010844071999999
 40
0.8333326468
 40
0.8658472762999998
 40
0.8986975636
 40
0.9319945743999999
 40
0.9488650855999999
 40
0.9659228590999999
 40
0.9831676537999999
 40
0.9917762612999998
 40
1.0
 40
1.0
 40
1.0
 40
1.0
 10
130.7630293973
 20
194.1184929207
 30
0.0
 10
131.3832870942
 20
194.0123207827999
 30
0.0
 10
132.6237789116
 20
193.7859799581
 30
0.0
 10
134.4811455737
 20
193.4031263367
 30
0.0
 10
136.3405962423
 20
192.9779039536
 30
0.0
 10
137.8908847601
 20
192.5890150308
 30
0.0
 10
139.1345592307
 20
192.2574514361
 30
0.0
 10
140.0726020741
 20
191.9978472697
 30
0.0
 10
141.0147653958
 20
191.7280292896
 30
0.0
 10
141.9626380037
 20
191.4481681477999
 30
0.0
 10
142.7567301636
 20
191.2075780103
 30
0.0
 10
143.3970607983
 20
191.0108860843
 30
0.0
 10
143.8827185195
 20
190.860785856
 30
0.0
 10
144.3735244431
 20
190.7088479247
 30
0.0
 10
144.7867231837
 20
190.5817011947
 30
0.0
 10
145.1218260524
 20
190.4803949431
 30
0.0
 10
145.3773885594
 20
190.4048916363
 30
0.0
 10
145.5923991443
 20
190.3439231115
 30
0.0
 10
145.7641362651
 20
190.2992611851
 30
0.0
 10
145.8495651643
 20
190.2793960850999
 30
0.0
 10
145.8916454519
 20
190.2714421002
 30
0.0
  0
SPLINE
  5
44D
330
225
100
AcDbEntity
  8
RUNDUNGEN
  6
Continuous
 62
     7
100
AcDbSpline
210
0.0
220
0.0
230
1.0
 70
     8
 71
     3
 72
    10
 73
     6
 74
     0
 42
0.0000000001
 43
0.0000000001
 40
0.0
 40
0.0
 40
0.0
 40
0.0
 40
0.1981730757
 40
0.4314690853
 40
1.0
 40
1.0
 40
1.0
 40
1.0
 10
145.8916459695999
 20
190.2714421102
 30
0.0
 10
145.8003931755
 20
190.2587860691
 30
0.0
 10
145.6003383483
 20
190.2410780356
 30
0.0
 10
145.1353951535
 20
190.2305520217
 30
0.0
 10
144.7626240443
 20
190.250708497
 30
0.0
 10
144.4991412244
 20
190.2714428789
 30
0.0
  0
SPLINE
  5
44E
330
225
100
AcDbEntity
  8
RUNDUNGEN
  6
Continuous
 62
     9
100
AcDbSpline
210
0.0
220
0.0
230
1.0
 70
     8
 71
     3
 72
    16
 73
    12
 74
     0
 42
0.0000000001
 43
0.0000000001
 40
0.0
 40
0.0
 40
0.0
 40
0.0
 40
0.0243099157
 40
0.0606872592
 40
0.1061859075
 40
0.1583917345
 40
0.2768447137
 40
0.4080841382
 40
0.5479899508
 40
0.6941888132999999
 40
1.0
 40
1.0
 40
1.0
 40
1.0
 10
144.499147296
 20
190.2714425676
 30
0.0
 10
144.4983277964
 20
190.2753691186999
 30
0.0
 10
144.4914481898
 20
190.2835255375
 30
0.0
 10
144.4781864065
 20
190.2945466788
 30
0.0
 10
144.4597992786
 20
190.3070948413
 30
0.0
 10
144.4293887534
 20
190.3256482422
 30
0.0
 10
144.3856017361
 20
190.3495061765
 30
0.0
 10
144.3282272858
 20
190.3784821352999
 30
0.0
 10
144.2661234838
 20
190.4082504325999
 30
0.0
 10
144.1774517487
 20
190.4491920783
 30
0.0
 10
144.1092291033
 20
190.4793425095
 30
0.0
 10
144.0629395951
 20
190.4994274166
 30
0.0
  0
SPLINE
  5
44F
330
225
100
AcDbEntity
  8
RUNDUNGEN
  6
Continuous
 62
     9
100
AcDbSpline
210
0.0
220
0.0
230
1.0
 70
     8
 71
     3
 72
    15
 73
    11
 74
     0
 42
0.0000000001
 43
0.0000000001
 40
0.0
 40
0.0
 40
0.0
 40
0.0
 40
0.0563116946
 40
0.1154447532
 40
0.2374771172
 40
0.3621552955
 40
0.4883364085000001
 40
0.6154861562000001
 40
0.7432961604
 40
1.0
 40
1.0
 40
1.0
 40
1.0
 10
143.9595480703
 20
190.5436983105
 30
0.0
 10
143.7227816485
 20
190.6438400286
 30
0.0
 10
143.2324233482
 20
190.8373448454
 30
0.0
 10
142.2152597268
 20
191.2125367685
 30
0.0
 10
140.8925485099
 20
191.6604929533
 30
0.0
 10
139.2656599996
 20
192.1621940674
 30
0.0
 10
137.6040896676
 20
192.6288523591999
 30
0.0
 10
135.9179699953
 20
193.0591165382
 30
0.0
 10
133.6416748177
 20
193.5837857189
 30
0.0
 10
131.9179899141
 20
193.9199547147
 30
0.0
 10
130.7630293973
 20
194.1184929207
 30
0.0
  0
LINE
  5
450
330
225
100
AcDbEntity
  8
RUNDUNGEN
  6
Continuous
 62
     9
100
AcDbLine
 10
124.4568042233
 20
196.2099342691999
 30
0.0
 11
124.3685152521
 21
196.2199315755
 31
0.0
  0
SPLINE
  5
451
330
225
100
AcDbEntity
  8
RUNDUNGEN
  6
Continuous
 62
     9
100
AcDbSpline
210
0.0
220
0.0
230
1.0
 70
     8
 71
     3
 72
    36
 73
    32
 74
     0
 42
0.0000000001
 43
0.0000000001
 40
0.0
 40
0.0
 40
0.0
 40
0.0
 40
0.0007425874
 40
0.002492188
 40
0.0045765972
 40
0.0067270981
 40
0.0110419884
 40
0.0153270514
 40
0.0195778352
 40
0.0237989268
 40
0.032170023
 40
0.0404681042
 40
0.0487107262
 40
0.0650720897
 40
0.0813112114
 40
0.0974596027
 40
0.1135368073
 40
0.129555968
 40
0.1614551119
 40
0.193207304
 40
0.2248433026
 40
0.2563836224
 40
0.3192315444
 40
0.3818291724
 40
0.4442243329
 40
0.506449084
 40
0.5685262606000001
 40
0.6304729302000001
 40
0.7540246156000001
 40
0.8771823818000001
 40
1.0
 40
1.0
 40
1.0
 40
1.0
 10
91.59160304209999
 20
190.2998585418
 30
0.0
 10
91.5920880708
 20
190.2984125963
 30
0.0
 10
91.59924625909999
 20
190.2993256968
 30
0.0
 10
91.6069048387
 20
190.3009958113999
 30
0.0
 10
91.61928098770001
 20
190.3046421531
 30
0.0
 10
91.63576665669999
 20
190.3100287951
 30
0.0
 10
91.65668927629999
 20
190.3174176417
 30
0.0
 10
91.68140627940001
 20
190.3265751343
 30
0.0
 10
91.70589696569999
 20
190.3359103947
 30
0.0
 10
91.73813800280001
 20
190.3484378544
 30
0.0
 10
91.7780230373
 20
190.3642535455
 30
0.0
 10
91.82547778209999
 20
190.3833783211
 30
0.0
 10
91.88805683129999
 20
190.4088770221
 30
0.0
 10
91.96561134479999
 20
190.4408424854
 30
0.0
 10
92.05806221000001
 20
190.4792737977
 30
0.0
 10
92.1499039941
 20
190.517649351
 30
0.0
 10
92.24128708450001
 20
190.5559507118
 30
0.0
 10
92.3624731556
 20
190.6068313733
 30
0.0
 10
92.5133171569
 20
190.6702347788
 30
0.0
 10
92.6937552544
 20
190.7460045596
 30
0.0
 10
92.8735785902
 20
190.8213347970999
 30
0.0
 10
93.11242697009999
 20
190.921053248
 30
0.0
 10
93.4102272323
 20
191.0446193295
 30
0.0
 10
93.76708458680001
 20
191.1911985239
 30
0.0
 10
94.12333390849999
 20
191.3358819981
 30
0.0
 10
94.47920008030001
 20
191.4786593127
 30
0.0
 10
94.8348382266
 20
191.6195217181
 30
0.0
 10
95.30842952989999
 20
191.8046036418999
 30
0.0
 10
95.9004786879
 20
192.0311948368
 30
0.0
 10
96.61189161580001
 20
192.2955644443
 30
0.0
 10
97.08717599679999
 20
192.466813877
 30
0.0
 10
97.32491630870001
 20
192.5511112022
 30
0.0
  0
SPLINE
  5
452
330
225
100
AcDbEntity
  8
0
  6
Continuous
 62
     7
100
AcDbSpline
210
0.0
220
0.0
230
1.0
 70
     8
 71
     3
 72
    10
 73
     6
 74
     0
 42
0.0000000001
 43
0.0000000001
 40
0.0
 40
0.0
 40
0.0
 40
0.0
 40
0.4759718961
 40
0.7315909281000001
 40
1.0
 40
1.0
 40
1.0
 40
1.0
 10
109.5494886778
 20
194.5238760742
 30
0.0
 10
107.7838785741
 20
193.6034649334
 30
0.0
 10
105.2263847418
 20
191.8737064604
 30
0.0
 10
102.105083291
 20
189.0855271828
 30
0.0
 10
100.5944838704
 20
187.492505539
 30
0.0
 10
99.85240151799999
 20
186.6498611262
 30
0.0
  0
LINE
  5
453
330
225
100
AcDbEntity
  8
RUNDUNGEN
  6
Continuous
 62
     9
100
AcDbLine
 10
95.30953057079999
 20
192.0435166822
 30
0.0
 11
95.16204365629999
 21
191.9797898432
 31
0.0
  0
SPLINE
  5
454
330
225
100
AcDbEntity
  8
0
  6
Continuous
 62
     7
100
AcDbSpline
210
0.0
220
0.0
230
1.0
 70
     8
 71
     3
 72
     9
 73
     5
 74
     0
 42
0.0000000001
 43
0.0000000001
 40
0.0
 40
0.0
 40
0.0
 40
0.0
 40
0.508709152
 40
1.0
 40
1.0
 40
1.0
 40
1.0
 10
81.3906566854
 20
193.9880388547
 30
0.0
 10
82.1425807081
 20
193.3286258947
 30
0.0
 10
83.4746776689
 20
191.8523957284999
 30
0.0
 10
84.4071296755
 20
190.098951269
 30
0.0
 10
84.76397547239999
 20
189.2014247964
 30
0.0
  0
SPLINE
  5
455
330
225
100
AcDbEntity
  8
0
  6
Continuous
 62
     7
100
AcDbSpline
210
0.0
220
0.0
230
1.0
 70
     8
 71
     3
 72
     9
 73
     5
 74
     0
 42
0.0000000001
 43
0.0000000001
 40
0.0
 40
0.0
 40
0.0
 40
0.0
 40
0.2468057499
 40
1.0
 40
1.0
 40
1.0
 40
1.0
 10
85.0094086518
 20
188.5328719415
 30
0.0
 10
85.1095068751
 20
188.2363552602
 30
0.0
 10
85.47403972119999
 20
187.0211912113999
 30
0.0
 10
85.6778789678
 20
185.7600820757
 30
0.0
 10
85.75386285609999
 20
184.8080382358
 30
0.0
  0
SPLINE
  5
456
330
225
100
AcDbEntity
  8
0
  6
Continuous
 62
     7
100
AcDbSpline
210
0.0
220
0.0
230
1.0
 70
     8
 71
     3
 72
    11
 73
     7
 74
     0
 42
0.0000000001
 43
0.0000000001
 40
0.0
 40
0.0
 40
0.0
 40
0.0
 40
0.2518247483
 40
0.4980493165000001
 40
0.7445502462000002
 40
1.0
 40
1.0
 40
1.0
 40
1.0
 10
151.7274507479
 20
184.8080381937
 30
0.0
 10
151.7970095916
 20
185.6795791479
 30
0.0
 10
152.0621930613
 20
187.3971997942
 30
0.0
 10
152.9039227778
 20
189.8573526428
 30
0.0
 10
154.2281323026
 20
192.1135334272
 30
0.0
 10
155.4238487128
 20
193.4032696977
 30
0.0
 10
156.0906569018
 20
193.988038837
 30
0.0
  0
SPLINE
  5
457
330
225
100
AcDbEntity
  8
0
  6
Continuous
 62
     7
100
AcDbSpline
210
0.0
220
0.0
230
1.0
 70
     8
 71
     3
 72
    13
 73
     9
 74
     0
 42
0.0000000001
 43
0.0000000001
 40
0.0
 40
0.0
 40
0.0
 40
0.0
 40
0.2500038196
 40
0.4999047829000001
 40
0.6249276325000001
 40
0.7499508722
 40
0.8749764847999999
 40
1.0
 40
1.0
 40
1.0
 40
1.0
 10
65.27065680639999
 20
198.2574570005
 30
0.0
 10
66.6908341513
 20
198.2564438615
 30
0.0
 10
69.53155011189998
 20
198.1952569122999
 30
0.0
 10
73.06746128899999
 20
197.7602113489
 30
0.0
 10
75.8233686345
 20
197.0575310852
 30
0.0
 10
77.8255300716
 20
196.3138752075
 30
0.0
 10
79.71289615100001
 20
195.3100936846
 30
0.0
 10
80.85668982680001
 20
194.4563105307
 30
0.0
 10
81.3906574934
 20
193.9880381452
 30
0.0
  0
SPLINE
  5
458
330
225
100
AcDbEntity
  8
0
  6
Continuous
 62
     7
100
AcDbSpline
210
0.0
220
0.0
230
1.0
 70
     8
 71
     3
 72
    13
 73
     9
 74
     0
 42
0.0000000001
 43
0.0000000001
 40
0.0
 40
0.0
 40
0.0
 40
0.0
 40
0.1250235631
 40
0.2500493185
 40
0.3750725921
 40
0.50009545
 40
0.7499962847
 40
1.0
 40
1.0
 40
1.0
 40
1.0
 10
156.0906561444
 20
193.9880381718
 30
0.0
 10
156.6246240135
 20
194.4563107322
 30
0.0
 10
157.76841867
 20
195.3100943572
 30
0.0
 10
159.6557859472
 20
196.3138764431
 30
0.0
 10
161.6579488356
 20
197.0575313135
 30
0.0
 10
164.4138553396
 20
197.7602127003
 30
0.0
 10
167.9497655083
 20
198.1952566846
 30
0.0
 10
170.7904800568
 20
198.256443862
 30
0.0
 10
172.2106568011
 20
198.2574570005
 30
0.0
  0
SPLINE
  5
459
330
225
100
AcDbEntity
  8
0
  6
Continuous
 62
     7
100
AcDbSpline
210
0.0
220
0.0
230
1.0
 70
     8
 71
     3
 72
    10
 73
     6
 74
     0
 42
0.0000000001
 43
0.0000000001
 40
0.0
 40
0.0
 40
0.0
 40
0.0
 40
0.2500997121
 40
0.5002153692000001
 40
1.0
 40
1.0
 40
1.0
 40
1.0
 10
112.9073604738
 20
198.8610593898
 30
0.0
 10
112.7737692955
 20
198.7822295524
 30
0.0
 10
112.4935856734
 20
198.6462515925
 30
0.0
 10
111.9082508655
 20
198.4391954271
 30
0.0
 10
111.4495732911
 20
198.3459178015
 30
0.0
 10
111.1420457269
 20
198.3070561491
 30
0.0
  0
SPLINE
  5
45A
330
225
100
AcDbEntity
  8
0
  6
Continuous
 62
     7
100
AcDbSpline
210
0.0
220
0.0
230
1.0
 70
     8
 71
     3
 72
    10
 73
     6
 74
     0
 42
0.0000000001
 43
0.0000000001
 40
0.0
 40
0.0
 40
0.0
 40
0.0
 40
0.4997836555000001
 40
0.7498984926000001
 40
1.0
 40
1.0
 40
1.0
 40
1.0
 10
126.3392689424
 20
198.3070641343
 30
0.0
 10
126.031741306
 20
198.345934436
 30
0.0
 10
125.5730600149
 20
198.4391963698
 30
0.0
 10
124.9877209444
 20
198.6462536854
 30
0.0
 10
124.7075367009
 20
198.7822356487
 30
0.0
 10
124.5739442823
 20
198.8610673093
 30
0.0
  0
SPLINE
  5
45B
330
225
100
AcDbEntity
  8
0
  6
Continuous
 62
     7
100
AcDbSpline
210
0.0
220
0.0
230
1.0
 70
     8
 71
     3
 72
    13
 73
     9
 74
     0
 42
0.0000000001
 43
0.0000000001
 40
0.0
 40
0.0
 40
0.0
 40
0.0
 40
0.1253075434
 40
0.2506021964
 40
0.3757034492
 40
0.5011136441
 40
0.7504046733
 40
1.0
 40
1.0
 40
1.0
 40
1.0
 10
124.5739695135
 20
198.8611100675
 30
0.0
 10
124.5354068811
 20
198.8838655231
 30
0.0
 10
124.4511464811
 20
198.9192843464
 30
0.0
 10
124.3135195971
 20
198.9228057873
 30
0.0
 10
124.185038652
 20
198.8747811317
 30
0.0
 10
124.0432664774
 20
198.7630503271
 30
0.0
 10
123.9196793155
 20
198.5701366207
 30
0.0
 10
123.8812103397
 20
198.3915083911
 30
0.0
 10
123.8794853566
 20
198.3023375259999
 30
0.0
  0
SPLINE
  5
45C
330
225
100
AcDbEntity
  8
0
  6
Continuous
 62
     7
100
AcDbSpline
210
0.0
220
0.0
230
1.0
 70
     8
 71
     3
 72
    13
 73
     9
 74
     0
 42
0.0000000001
 43
0.0000000001
 40
0.0
 40
0.0
 40
0.0
 40
0.0
 40
0.2495478036
 40
0.4987821070000001
 40
0.6241393231
 40
0.749282888
 40
0.8745882765999999
 40
1.0
 40
1.0
 40
1.0
 40
1.0
 10
113.6018130688
 20
198.3023373002
 30
0.0
 10
113.600094076
 20
198.3914892767
 30
0.0
 10
113.561681955
 20
198.5701075269
 30
0.0
 10
113.4380648801
 20
198.7628807025999
 30
0.0
 10
113.2964393388
 20
198.8747772255
 30
0.0
 10
113.1679112626
 20
198.9226653875
 30
0.0
 10
113.0302469328
 20
198.9193098663
 30
0.0
 10
112.9459329493
 20
198.8838694192
 30
0.0
 10
112.9073389921
 20
198.8610957943999
 30
0.0
  0
SPLINE
  5
45D
330
225
100
AcDbEntity
  8
0
  6
Continuous
 62
     9
100
AcDbSpline
210
0.0
220
0.0
230
1.0
 70
     8
 71
     3
 72
    10
 73
     6
 74
     0
 42
0.0000000001
 43
0.0000000001
 40
0.0
 40
0.0
 40
0.0
 40
0.0
 40
0.2844788525
 40
0.5435760466
 40
1.0
 40
1.0
 40
1.0
 40
1.0
 10
150.1864675674999
 20
192.4119298665
 30
0.0
 10
150.0835112549
 20
192.6533392712
 30
0.0
 10
149.8662204677
 20
193.1071808701
 30
0.0
 10
149.3584036002
 20
193.8787075949
 30
0.0
 10
148.8372359262
 20
194.3258232935
 30
0.0
 10
148.4593079626
 20
194.5114985218
 30
0.0
  0
SPLINE
  5
45E
330
225
100
AcDbEntity
  8
0
  6
Continuous
 62
     9
100
AcDbSpline
210
0.0
220
0.0
230
1.0
 70
     8
 71
     3
 72
     9
 73
     5
 74
     0
 42
0.0000000001
 43
0.0000000001
 40
0.0
 40
0.0
 40
0.0
 40
0.0
 40
0.4179237803
 40
1.0
 40
1.0
 40
1.0
 40
1.0
 10
113.2786907795999
 20
201.3548624634
 30
0.0
 10
113.3032491032
 20
201.4002619739
 30
0.0
 10
113.4040015241
 20
201.4829568455
 30
0.0
 10
113.520145476
 20
201.5254177848
 30
0.0
 10
113.5892276825
 20
201.5453129634
 30
0.0
  0
SPLINE
  5
45F
330
225
100
AcDbEntity
  8
0
  6
Continuous
 62
     9
100
AcDbSpline
210
0.0
220
0.0
230
1.0
 70
     8
 71
     3
 72
     8
 73
     4
 74
     0
 42
0.0000000001
 43
0.0000000001
 40
0.0
 40
0.0
 40
0.0
 40
0.0
 40
1.0
 40
1.0
 40
1.0
 40
1.0
 10
113.2722407158
 20
201.3415185873
 30
0.0
 10
113.2742210876
 20
201.3460446292
 30
0.0
 10
113.2763425322
 20
201.3505158944
 30
0.0
 10
113.2786907795999
 20
201.3548624634
 30
0.0
  0
SPLINE
  5
460
330
225
100
AcDbEntity
  8
0
  6
Continuous
 62
     9
100
AcDbSpline
210
0.0
220
0.0
230
1.0
 70
     8
 71
     3
 72
     9
 73
     5
 74
     0
 42
0.0000000001
 43
0.0000000001
 40
0.0
 40
0.0
 40
0.0
 40
0.0
 40
0.2638348738
 40
1.0
 40
1.0
 40
1.0
 40
1.0
 10
123.8941639716
 20
201.5447128508
 30
0.0
 10
123.9048352724
 20
201.5416192265
 30
0.0
 10
123.9451170314
 20
201.5293453099
 30
0.0
 10
123.9847361758
 20
201.514793199
 30
0.0
 10
124.0131654764
 20
201.5024290622
 30
0.0
  0
SPLINE
  5
461
330
225
100
AcDbEntity
  8
0
  6
Continuous
 62
     9
100
AcDbSpline
210
0.0
220
0.0
230
1.0
 70
     8
 71
     3
 72
     8
 73
     4
 74
     0
 42
0.0000000001
 43
0.0000000001
 40
0.0
 40
0.0
 40
0.0
 40
0.0
 40
1.0
 40
1.0
 40
1.0
 40
1.0
 10
124.0131654764
 20
201.5024290622
 30
0.0
 10
124.0326846795
 20
201.4939400001
 30
0.0
 10
124.0518907877
 20
201.484653403
 30
0.0
 10
124.070519172
 20
201.4743555022
 30
0.0
  0
SPLINE
  5
462
330
225
100
AcDbEntity
  8
0
  6
Continuous
 62
     9
100
AcDbSpline
210
0.0
220
0.0
230
1.0
 70
     8
 71
     3
 72
     9
 73
     5
 74
     0
 42
0.0000000001
 43
0.0000000001
 40
0.0
 40
0.0
 40
0.0
 40
0.0
 40
0.2888363107
 40
1.0
 40
1.0
 40
1.0
 40
1.0
 10
124.070519172
 20
201.4743555022
 30
0.0
 10
124.0856285842
 20
201.4660029138
 30
0.0
 10
124.1363962934
 20
201.4349558288
 30
0.0
 10
124.1823968181
 20
201.3922500333
 30
0.0
 10
124.2026228278
 20
201.3548624634
 30
0.0
  0
SPLINE
  5
463
330
225
100
AcDbEntity
  8
0
  6
Continuous
 62
     9
100
AcDbSpline
210
0.0
220
0.0
230
1.0
 70
     8
 71
     3
 72
    15
 73
    11
 74
     0
 42
0.0000000001
 43
0.0000000001
 40
0.0
 40
0.0
 40
0.0
 40
0.0
 40
0.1456927373
 40
0.2740778381
 40
0.3870000502000001
 40
0.4912829468
 40
0.5964895247
 40
0.7123932254000001
 40
0.8456957734999999
 40
1.0
 40
1.0
 40
1.0
 40
1.0
 10
85.01929452129999
 20
191.4732827489
 30
0.0
 10
85.0099833067
 20
191.6179937871
 30
0.0
 10
84.9989797515
 20
191.8908932041
 30
0.0
 10
85.0272423626
 20
192.2763034396
 30
0.0
 10
85.11776136159999
 20
192.6116647223
 30
0.0
 10
85.285139443
 20
192.8903121146
 30
0.0
 10
85.52591598640001
 20
193.1140883599
 30
0.0
 10
85.84804421660001
 20
193.267408021
 30
0.0
 10
86.23810234389999
 20
193.3683536514
 30
0.0
 10
86.52347618620002
 20
193.4010804763
 30
0.0
 10
86.6768048397
 20
193.4098885524
 30
0.0
  0
SPLINE
  5
464
330
225
100
AcDbEntity
  8
0
  6
Continuous
 62
     9
100
AcDbSpline
210
0.0
220
0.0
230
1.0
 70
     8
 71
     3
 72
    11
 73
     7
 74
     0
 42
0.0000000001
 43
0.0000000001
 40
0.0
 40
0.0
 40
0.0
 40
0.0
 40
0.3142633442
 40
0.5957034322000001
 40
0.828041192
 40
1.0
 40
1.0
 40
1.0
 40
1.0
 10
85.4821709001
 20
190.2333641037
 30
0.0
 10
85.421419564
 20
190.3585426319
 30
0.0
 10
85.30997169629999
 20
190.5975912057
 30
0.0
 10
85.1670697119
 20
190.9355608604
 30
0.0
 10
85.0658581605
 20
191.2215250114
 30
0.0
 10
85.0241918699
 20
191.3973048278
 30
0.0
 10
85.01929452129999
 20
191.4732827489
 30
0.0
  0
SPLINE
  5
465
330
225
100
AcDbEntity
  8
0
  6
Continuous
 62
     9
100
AcDbSpline
210
0.0
220
0.0
230
1.0
 70
     8
 71
     3
 72
    14
 73
    10
 74
     0
 42
0.0000000001
 43
0.0000000001
 40
0.0
 40
0.0
 40
0.0
 40
0.0
 40
0.0571112382
 40
0.1175875999
 40
0.1792107512
 40
0.2413838913
 40
0.4927526610000001
 40
0.7464387070999999
 40
1.0
 40
1.0
 40
1.0
 40
1.0
 10
87.0642702063
 20
184.808038747
 30
0.0
 10
87.04603968629999
 20
184.887515227
 30
0.0
 10
87.00478057599999
 20
185.0503221244
 30
0.0
 10
86.9580050208
 20
185.3019680881
 30
0.0
 10
86.9078505515
 20
185.5602166317
 30
0.0
 10
86.8046824129
 20
186.0858348075
 30
0.0
 10
86.6303174401
 20
186.8769899013999
 30
0.0
 10
86.34522564079999
 20
187.9223899787
 30
0.0
 10
86.1203495368
 20
188.6111068983
 30
0.0
 10
86.00139043909999
 20
188.9530260739
 30
0.0
  0
SPLINE
  5
466
330
225
100
AcDbEntity
  8
0
  6
Continuous
 62
     9
100
AcDbSpline
210
0.0
220
0.0
230
1.0
 70
     8
 71
     3
 72
    11
 73
     7
 74
     0
 42
0.0000000001
 43
0.0000000001
 40
0.0
 40
0.0
 40
0.0
 40
0.0
 40
0.1747870225
 40
0.409419378
 40
0.6898493015
 40
1.0
 40
1.0
 40
1.0
 40
1.0
 10
151.765224992
 20
191.3927766578
 30
0.0
 10
151.7584396858
 20
191.3355219565
 30
0.0
 10
151.7211889737
 20
191.2046302168
 30
0.0
 10
151.6413042482
 20
190.9918721568
 30
0.0
 10
151.5356492583
 20
190.7408277656
 30
0.0
 10
151.4577686835
 20
190.5623031043
 30
0.0
 10
151.416633109
 20
190.4686308647
 30
0.0
  0
SPLINE
  5
467
330
225
100
AcDbEntity
  8
0
  6
Continuous
 62
     9
100
AcDbSpline
210
0.0
220
0.0
230
1.0
 70
     8
 71
     3
 72
     9
 73
     5
 74
     0
 42
0.0000000001
 43
0.0000000001
 40
0.0
 40
0.0
 40
0.0
 40
0.0
 40
0.5016332955000001
 40
1.0
 40
1.0
 40
1.0
 40
1.0
 10
150.7957582018
 20
190.1187983888
 30
0.0
 10
150.7378509485
 20
190.2844641817999
 30
0.0
 10
150.5804303971
 20
190.6000701615
 30
0.0
 10
150.3798168827
 20
190.8873360141999
 30
0.0
 10
150.2735271444
 20
191.0255427057
 30
0.0
  0
SPLINE
  5
468
330
225
100
AcDbEntity
  8
0
  6
Continuous
 62
     9
100
AcDbSpline
210
0.0
220
0.0
230
1.0
 70
     8
 71
     3
 72
    11
 73
     7
 74
     0
 42
0.0000000001
 43
0.0000000001
 40
0.0
 40
0.0
 40
0.0
 40
0.0
 40
0.2504813378000001
 40
0.500554683
 40
0.7504734797000001
 40
1.0
 40
1.0
 40
1.0
 40
1.0
 10
151.3039494721
 20
190.241532002
 30
0.0
 10
151.2201998198
 20
190.3099252921
 30
0.0
 10
151.0525335377
 20
190.4462545095999
 30
0.0
 10
150.7953642272
 20
190.6433482288
 30
0.0
 10
150.5362953167
 20
190.8370869448
 30
0.0
 10
150.363043411
 20
190.9656301126
 30
0.0
 10
150.2735271444
 20
191.0255427057
 30
0.0
  0
SPLINE
  5
469
330
225
100
AcDbEntity
  8
0
  6
Continuous
 62
     9
100
AcDbSpline
210
0.0
220
0.0
230
1.0
 70
     8
 71
     3
 72
    11
 73
     7
 74
     0
 42
0.0000000001
 43
0.0000000001
 40
0.0
 40
0.0
 40
0.0
 40
0.0
 40
0.2494967362
 40
0.4994053843
 40
0.7495087323999999
 40
1.0
 40
1.0
 40
1.0
 40
1.0
 10
87.20591818269999
 20
191.0226664368
 30
0.0
 10
87.11663292809999
 20
190.962909873
 30
0.0
 10
86.94309366170001
 20
190.8357197899
 30
0.0
 10
86.68452503180001
 20
190.6426286565
 30
0.0
 10
86.42827308540001
 20
190.4456402012
 30
0.0
 10
86.26090958789999
 20
190.3097604035
 30
0.0
 10
86.17736387649999
 20
190.2415326745
 30
0.0
  0
SPLINE
  5
46A
330
225
100
AcDbEntity
  8
0
  6
Continuous
 62
     9
100
AcDbSpline
210
0.0
220
0.0
230
1.0
 70
     8
 71
     3
 72
    11
 73
     7
 74
     0
 42
0.0000000001
 43
0.0000000001
 40
0.0
 40
0.0
 40
0.0
 40
0.0
 40
0.2512433302
 40
0.5015556786
 40
0.7509070174
 40
1.0
 40
1.0
 40
1.0
 40
1.0
 10
86.71411692920001
 20
190.1320076531
 30
0.0
 10
86.74195451690001
 20
190.2128006947
 30
0.0
 10
86.80792472360002
 20
190.3704934727999
 30
0.0
 10
86.9265806519
 20
190.5971404647
 30
0.0
 10
87.06709142020001
 20
190.8096078424
 30
0.0
 10
87.15521714209998
 20
190.9547887118
 30
0.0
 10
87.20591818269999
 20
191.0226664368
 30
0.0
  0
SPLINE
  5
46B
330
225
100
AcDbEntity
  8
0
  6
Continuous
 62
     9
100
AcDbSpline
210
0.0
220
0.0
230
1.0
 70
     8
 71
     3
 72
    11
 73
     7
 74
     0
 42
0.0000000001
 43
0.0000000001
 40
0.0
 40
0.0
 40
0.0
 40
0.0
 40
0.3101462149
 40
0.5905743118000001
 40
0.8252068755999999
 40
1.0
 40
1.0
 40
1.0
 40
1.0
 10
86.0646739627
 20
190.4686449459
 30
0.0
 10
86.02353998479999
 20
190.5623137681
 30
0.0
 10
85.94566220009999
 20
190.7408327024
 30
0.0
 10
85.84001128309999
 20
190.9918696692
 30
0.0
 10
85.7601234652
 20
191.2046234349
 30
0.0
 10
85.72287833489999
 20
191.335514935
 30
0.0
 10
85.71608967680001
 20
191.3927699649
 30
0.0
  0
SPLINE
  5
46C
330
225
100
AcDbEntity
  8
0
  6
Continuous
 62
     9
100
AcDbSpline
210
0.0
220
0.0
230
1.0
 70
     8
 71
     3
 72
    13
 73
     9
 74
     0
 42
0.0000000001
 43
0.0000000001
 40
0.0
 40
0.0
 40
0.0
 40
0.0
 40
0.3071595848
 40
0.4408458791
 40
0.5620263664000001
 40
0.7795771187
 40
0.8868783837999998
 40
1.0
 40
1.0
 40
1.0
 40
1.0
 10
85.71607549419999
 20
191.3927979064
 30
0.0
 10
85.69543953529999
 20
191.5849591504
 30
0.0
 10
85.6723848556
 20
191.8623366162
 30
0.0
 10
85.691213175
 20
192.2161960292
 30
0.0
 10
85.7437422303
 20
192.5094741972
 30
0.0
 10
85.86787595729999
 20
192.7702384418
 30
0.0
 10
86.05828640270001
 20
192.9720488702
 30
0.0
 10
86.17485987059998
 20
193.0495595865
 30
0.0
 10
86.23749261509999
 20
193.0833715257
 30
0.0
  0
SPLINE
  5
46D
330
225
100
AcDbEntity
  8
0
  6
Continuous
 62
     9
100
AcDbSpline
210
0.0
220
0.0
230
1.0
 70
     8
 71
     3
 72
    10
 73
     6
 74
     0
 42
0.0000000001
 43
0.0000000001
 40
0.0
 40
0.0
 40
0.0
 40
0.0
 40
0.4956357938
 40
0.7468853369000001
 40
1.0
 40
1.0
 40
1.0
 40
1.0
 10
150.0565717303
 20
190.8642376158
 30
0.0
 10
150.027601535
 20
190.9673300194
 30
0.0
 10
149.9821285843
 20
191.122190478
 30
0.0
 10
149.9172792315
 20
191.3282687834
 30
0.0
 10
149.8843499749
 20
191.432182017
 30
0.0
 10
149.8659787688
 20
191.483691108
 30
0.0
  0
SPLINE
  5
46E
330
225
100
AcDbEntity
  8
0
  6
Continuous
 62
     9
100
AcDbSpline
210
0.0
220
0.0
230
1.0
 70
     8
 71
     3
 72
     9
 73
     5
 74
     0
 42
0.0000000001
 43
0.0000000001
 40
0.0
 40
0.0
 40
0.0
 40
0.0
 40
0.2468359015
 40
1.0
 40
1.0
 40
1.0
 40
1.0
 10
150.1723709427
 20
190.4057763819
 30
0.0
 10
150.163915401
 20
190.4437555864
 30
0.0
 10
150.1285474751
 20
190.5973717788
 30
0.0
 10
150.0886469807
 20
190.7499303282
 30
0.0
 10
150.0565717303
 20
190.8642376158
 30
0.0
  0
SPLINE
  5
46F
330
225
100
AcDbEntity
  8
0
  6
Continuous
 62
     9
100
AcDbSpline
210
0.0
220
0.0
230
1.0
 70
     8
 71
     3
 72
     9
 73
     5
 74
     0
 42
0.0000000001
 43
0.0000000001
 40
0.0
 40
0.0
 40
0.0
 40
0.0
 40
0.2469495073
 40
1.0
 40
1.0
 40
1.0
 40
1.0
 10
87.29926158439999
 20
190.4026210346
 30
0.0
 10
87.3085977466
 20
190.4437399364
 30
0.0
 10
87.34784913670001
 20
190.6099188143
 30
0.0
 10
87.39266923969999
 20
190.7747576594
 30
0.0
 10
87.42876187709999
 20
190.8981679803
 30
0.0
  0
SPLINE
  5
470
330
225
100
AcDbEntity
  8
0
  6
Continuous
 62
     9
100
AcDbSpline
210
0.0
220
0.0
230
1.0
 70
     8
 71
     3
 72
     9
 73
     5
 74
     0
 42
0.0000000001
 43
0.0000000001
 40
0.0
 40
0.0
 40
0.0
 40
0.0
 40
0.4961562348000001
 40
1.0
 40
1.0
 40
1.0
 40
1.0
 10
87.42876187709999
 20
190.8981679803
 30
0.0
 10
87.45737896719999
 20
190.9957686502
 30
0.0
 10
87.5177745635
 20
191.1916684849
 30
0.0
 10
87.58095402549999
 20
191.3867333454
 30
0.0
 10
87.6154088236
 20
191.4841024786
 30
0.0
  0
SPLINE
  5
471
330
225
100
AcDbEntity
  8
0
  6
Continuous
 62
     9
100
AcDbSpline
210
0.0
220
0.0
230
1.0
 70
     8
 71
     3
 72
     9
 73
     5
 74
     0
 42
0.0000000001
 43
0.0000000001
 40
0.0
 40
0.0
 40
0.0
 40
0.0
 40
0.261581761
 40
1.0
 40
1.0
 40
1.0
 40
1.0
 10
87.6154088236
 20
191.4841024786
 30
0.0
 10
87.60000853740001
 20
191.3985625111
 30
0.0
 10
87.54787715149999
 20
191.0703877977
 30
0.0
 10
87.51957507450001
 20
190.7383231435
 30
0.0
 10
87.51391649309999
 20
190.4930357433
 30
0.0
  0
SPLINE
  5
472
330
225
100
AcDbEntity
  8
0
  6
Continuous
 62
     9
100
AcDbSpline
210
0.0
220
0.0
230
1.0
 70
     8
 71
     3
 72
    16
 73
    12
 74
     0
 42
0.0000000001
 43
0.0000000001
 40
0.0
 40
0.0
 40
0.0
 40
0.0
 40
0.0559994061
 40
0.1164201614
 40
0.1782317747
 40
0.240687474
 40
0.3665187695
 40
0.4929379391
 40
0.6196096658
 40
0.7463874179000002
 40
1.0
 40
1.0
 40
1.0
 40
1.0
 10
142.5906119307
 20
184.808038747
 30
0.0
 10
142.5655001872
 20
184.8361071909
 30
0.0
 10
142.5332175159
 20
184.9100444475999
 30
0.0
 10
142.4996794133
 20
185.0243962848
 30
0.0
 10
142.4732011763
 20
185.1460542085
 30
0.0
 10
142.4440865251
 20
185.311663887
 30
0.0
 10
142.4163145749
 20
185.5216133596
 30
0.0
 10
142.3919234844
 20
185.7753056752
 30
0.0
 10
142.3747939255
 20
186.0302478988
 30
0.0
 10
142.3605800503
 20
186.3709947357
 30
0.0
 10
142.3591187454
 20
186.6269506829
 30
0.0
 10
142.362242196
 20
186.7974880689
 30
0.0
  0
SPLINE
  5
473
330
225
100
AcDbEntity
  8
0
  6
Continuous
 62
     9
100
AcDbSpline
210
0.0
220
0.0
230
1.0
 70
     8
 71
     3
 72
     9
 73
     5
 74
     0
 42
0.0000000001
 43
0.0000000001
 40
0.0
 40
0.0
 40
0.0
 40
0.0
 40
0.7495030534999999
 40
1.0
 40
1.0
 40
1.0
 40
1.0
 10
142.3721146185
 20
187.0985889029
 30
0.0
 10
142.3870421844
 20
187.4129768075
 30
0.0
 10
142.4263297255
 20
187.8321228886
 30
0.0
 10
142.4977213279
 20
188.2460307795
 30
0.0
 10
142.5178248449
 20
188.3492841768
 30
0.0
  0
SPLINE
  5
474
330
225
100
AcDbEntity
  8
0
  6
Continuous
 62
     9
100
AcDbSpline
210
0.0
220
0.0
230
1.0
 70
     8
 71
     3
 72
    10
 73
     6
 74
     0
 42
0.0000000001
 43
0.0000000001
 40
0.0
 40
0.0
 40
0.0
 40
0.0
 40
0.5008654052
 40
0.7506612956000001
 40
1.0
 40
1.0
 40
1.0
 40
1.0
 10
150.2699375368
 20
191.0299393559
 30
0.0
 10
150.2053394043
 20
191.1081522371
 30
0.0
 10
150.106161787
 20
191.2234904426
 30
0.0
 10
149.9693590137
 20
191.3727510989
 30
0.0
 10
149.9022761316
 20
191.4485521269
 30
0.0
 10
149.866004289
 20
191.4836871514
 30
0.0
  0
LINE
  5
475
330
225
100
AcDbEntity
  8
0
  6
Continuous
 62
     9
100
AcDbLine
 10
150.2823744289
 20
191.0147437997
 30
0.0
 11
150.2699375368
 21
191.0299393559
 31
0.0
  0
SPLINE
  5
476
330
225
100
AcDbEntity
  8
0
  6
Continuous
 62
     9
100
AcDbSpline
210
0.0
220
0.0
230
1.0
 70
     8
 71
     3
 72
    21
 73
    17
 74
     0
 42
0.0000000001
 43
0.0000000001
 40
0.0
 40
0.0
 40
0.0
 40
0.0
 40
0.1260614712
 40
0.2521200251
 40
0.3781655564
 40
0.5041789357999999
 40
0.6301218050000001
 40
0.6930435990000001
 40
0.7559060420999999
 40
0.8186675048000001
 40
0.8812312899
 40
0.9123641801999999
 40
0.9432771212999998
 40
0.9736092435999999
 40
0.988083007
 40
1.0
 40
1.0
 40
1.0
 40
1.0
 10
94.97011546859999
 20
186.6679580492
 30
0.0
 10
94.97041095709999
 20
186.5901644121
 30
0.0
 10
94.9702045104
 20
186.4345747255
 30
0.0
 10
94.96749140129999
 20
186.2012155532
 30
0.0
 10
94.96229082459999
 20
185.9679273739
 30
0.0
 10
94.95439063059999
 20
185.7347858148
 30
0.0
 10
94.9452034211
 20
185.5406795424
 30
0.0
 10
94.935781625
 20
185.3856178706
 30
0.0
 10
94.92743642129999
 20
185.2695641263
 30
0.0
 10
94.91736570370001
 20
185.1538483959
 30
0.0
 10
94.90695609600001
 20
185.0578925804
 30
0.0
 10
94.8962227962
 20
184.9816327882
 30
0.0
 10
94.88670585479999
 20
184.925736294
 30
0.0
 10
94.87522529290002
 20
184.8793405182
 30
0.0
 10
94.86422855059998
 20
184.8480184694
 30
0.0
 10
94.8518636394
 20
184.8319996983
 30
0.0
 10
94.84451124219999
 20
184.8321595059999
 30
0.0
  0
SPLINE
  5
477
330
225
100
AcDbEntity
  8
0
  6
Continuous
 62
     9
100
AcDbSpline
210
0.0
220
0.0
230
1.0
 70
     8
 71
     3
 72
     9
 73
     5
 74
     0
 42
0.0000000001
 43
0.0000000001
 40
0.0
 40
0.0
 40
0.0
 40
0.0
 40
0.5000182472
 40
1.0
 40
1.0
 40
1.0
 40
1.0
 10
87.2031297923
 20
191.0076934624
 30
0.0
 10
87.20718329090001
 20
191.0151075202
 30
0.0
 10
87.219612207
 20
191.0270344075
 30
0.0
 10
87.2302180473
 20
191.0401552266
 30
0.0
 10
87.23498745790001
 20
191.0471295655
 30
0.0
  0
SPLINE
  5
478
330
225
100
AcDbEntity
  8
0
  6
Continuous
 62
     9
100
AcDbSpline
210
0.0
220
0.0
230
1.0
 70
     8
 71
     3
 72
    10
 73
     6
 74
     0
 42
0.0000000001
 43
0.0000000001
 40
0.0
 40
0.0
 40
0.0
 40
0.0
 40
0.5008250898
 40
0.7506136122
 40
1.0
 40
1.0
 40
1.0
 40
1.0
 10
87.23498745790001
 20
191.0471295655
 30
0.0
 10
87.29596867709998
 20
191.122218797
 30
0.0
 10
87.3895942512
 20
191.2329779646
 30
0.0
 10
87.51809128559999
 20
191.3771593418
 30
0.0
 10
87.5821795142
 20
191.4492249854
 30
0.0
 10
87.6154017077
 20
191.4841023206
 30
0.0
  0
SPLINE
  5
479
330
225
100
AcDbEntity
  8
0
  6
Continuous
 62
     7
100
AcDbSpline
210
0.0
220
0.0
230
1.0
 70
     8
 71
     3
 72
     9
 73
     5
 74
     0
 42
0.0000000001
 43
0.0000000001
 40
0.0
 40
0.0
 40
0.0
 40
0.0
 40
0.3811547695000001
 40
1.0
 40
1.0
 40
1.0
 40
1.0
 10
87.0906951407
 20
184.8321595058
 30
0.0
 10
87.08937281290001
 20
184.827575277
 30
0.0
 10
87.08474026719999
 20
184.8157912265
 30
0.0
 10
87.07201664610002
 20
184.8080389282
 30
0.0
 10
87.0642702063
 20
184.808038747
 30
0.0
  0
SPLINE
  5
47A
330
225
100
AcDbEntity
  8
0
  6
Continuous
 62
     9
100
AcDbSpline
210
0.0
220
0.0
230
1.0
 70
     8
 71
     3
 72
     9
 73
     5
 74
     0
 42
0.0000000001
 43
0.0000000001
 40
0.0
 40
0.0
 40
0.0
 40
0.0
 40
0.4980009664000001
 40
1.0
 40
1.0
 40
1.0
 40
1.0
 10
101.5621953244
 20
195.245899515
 30
0.0
 10
103.0894412071
 20
195.9245360564
 30
0.0
 10
106.2387216485
 20
197.1082762648
 30
0.0
 10
109.4991829267
 20
197.9318898218
 30
0.0
 10
111.1510556939
 20
198.2626012759
 30
0.0
  0
LINE
  5
47B
330
225
100
AcDbEntity
  8
0
  6
Continuous
 62
     9
100
AcDbLine
 10
111.1510556939
 20
198.2626012759
 30
0.0
 11
111.2991360963
 21
198.2920182171
 31
0.0
  0
LINE
  5
47C
330
225
100
AcDbEntity
  8
0
  6
Continuous
 62
     9
100
AcDbLine
 10
113.3559678922
 20
198.6544159502999
 30
0.0
 11
113.4882655221
 21
198.6748550827
 31
0.0
  0
SPLINE
  5
47D
330
225
100
AcDbEntity
  8
0
  6
Continuous
 62
     9
100
AcDbSpline
210
0.0
220
0.0
230
1.0
 70
     8
 71
     3
 72
    27
 73
    23
 74
     0
 42
0.0000000001
 43
0.0000000001
 40
0.0
 40
0.0
 40
0.0
 40
0.0
 40
0.0049099969
 40
0.0122691423
 40
0.0197668563
 40
0.0272663583
 40
0.0425693575
 40
0.0580544768
 40
0.0735685519
 40
0.0891327549
 40
0.120338658
 40
0.151604842
 40
0.1829107913
 40
0.2455996536
 40
0.3083574317
 40
0.371163695
 40
0.4340074460000001
 40
0.4968814468
 40
0.6226960810000001
 40
0.7485558522
 40
0.8743774612999999
 40
1.0
 40
1.0
 40
1.0
 40
1.0
 10
87.0906951411
 20
184.8321595057
 30
0.0
 10
87.08545514209999
 20
184.8369992163
 30
0.0
 10
87.08169621000001
 20
184.8560694959999
 30
0.0
 10
87.07594332209998
 20
184.8833214918
 30
0.0
 10
87.07194076589999
 20
184.9158476664
 30
0.0
 10
87.06750327549999
 20
184.9595466346
 30
0.0
 10
87.0619669451
 20
185.0149411744
 30
0.0
 10
87.0558008895
 20
185.0819094870999
 30
0.0
 10
87.05023971120001
 20
185.1493305544
 30
0.0
 10
87.04290177830001
 20
185.239515055
 30
0.0
 10
87.03402931360001
 20
185.3525362466
 30
0.0
 10
87.02348961290001
 20
185.4883646903
 30
0.0
 10
87.00931855200002
 20
185.6697863694
 30
0.0
 10
86.9911521462
 20
185.8967849911
 30
0.0
 10
86.9681638758
 20
186.1693045562
 30
0.0
 10
86.94376138049999
 20
186.4419272804999
 30
0.0
 10
86.91780637639999
 20
186.7145765281
 30
0.0
 10
86.88100904950001
 20
187.0781371525
 30
0.0
 10
86.83076932350001
 20
187.532343787
 30
0.0
 10
86.7634796467
 20
188.0766262959
 30
0.0
 10
86.6892805426
 20
188.6197274709
 30
0.0
 10
86.63547515209998
 20
188.9810399293
 30
0.0
 10
86.60769834040001
 20
189.1614131452
 30
0.0
  0
SPLINE
  5
47E
330
225
100
AcDbEntity
  8
0
  6
Continuous
 62
     9
100
AcDbSpline
210
0.0
220
0.0
230
1.0
 70
     8
 71
     3
 72
    21
 73
    17
 74
     0
 42
0.0000000001
 43
0.0000000001
 40
0.0
 40
0.0
 40
0.0
 40
0.0
 40
0.0120546608
 40
0.0265092018
 40
0.0568510393
 40
0.087763504
 40
0.1188931165
 40
0.181448929
 40
0.2442018163
 40
0.3070554594
 40
0.3699683514999999
 40
0.4958932871
 40
0.6218886515
 40
0.7479161362000001
 40
0.8739566254999999
 40
1.0
 40
1.0
 40
1.0
 40
1.0
 10
142.6368023597
 20
184.8321595076
 30
0.0
 10
142.6293662529
 20
184.8319527611
 30
0.0
 10
142.6169879779
 20
184.8482012049
 30
0.0
 10
142.6060663833
 20
184.8795690131
 30
0.0
 10
142.5945329719
 20
184.9259720547
 30
0.0
 10
142.5850607527
 20
184.9818717128
 30
0.0
 10
142.5743256173
 20
185.058124806
 30
0.0
 10
142.5639281109
 20
185.1540673052999
 30
0.0
 10
142.5538609315
 20
185.2697661472
 30
0.0
 10
142.5455199172
 20
185.3858021481
 30
0.0
 10
142.5361017494
 20
185.5408397219
 30
0.0
 10
142.5269179462
 20
185.7349155552
 30
0.0
 10
142.519020274
 20
185.9680204067
 30
0.0
 10
142.5138213373
 20
186.2012717584
 30
0.0
 10
142.5111091496
 20
186.4345940337
 30
0.0
 10
142.510902716
 20
186.5901591018
 30
0.0
 10
142.511198035
 20
186.6679404214
 30
0.0
  0
SPLINE
  5
47F
330
225
100
AcDbEntity
  8
0
  6
Continuous
 62
     9
100
AcDbSpline
210
0.0
220
0.0
230
1.0
 70
     8
 71
     3
 72
    12
 73
     8
 74
     0
 42
0.0000000001
 43
0.0000000001
 40
0.0
 40
0.0
 40
0.0
 40
0.0
 40
0.3141168169
 40
0.6151088936
 40
0.8553489737999999
 40
0.9409986214999999
 40
1.0
 40
1.0
 40
1.0
 40
1.0
 10
151.303946303
 20
190.2415243531
 30
0.0
 10
151.3637994237
 20
190.2107942864
 30
0.0
 10
151.4833485555
 20
190.1550015355
 30
0.0
 10
151.6542255729
 20
190.0890247469
 30
0.0
 10
151.7833601178
 20
190.0501219985
 30
0.0
 10
151.8646694736
 20
190.0370829042
 30
0.0
 10
151.8960987654
 20
190.0363290788
 30
0.0
 10
151.9085004803
 20
190.0387592074
 30
0.0
  0
SPLINE
  5
480
330
225
100
AcDbEntity
  8
0
  6
Continuous
 62
     9
100
AcDbSpline
210
0.0
220
0.0
230
1.0
 70
     8
 71
     3
 72
    12
 73
     8
 74
     0
 42
0.0000000001
 43
0.0000000001
 40
0.0
 40
0.0
 40
0.0
 40
0.0
 40
0.3178878485
 40
0.6206395092000001
 40
0.8601565484999998
 40
0.9441239505
 40
1.0
 40
1.0
 40
1.0
 40
1.0
 10
151.4166345556
 20
190.4686296059
 30
0.0
 10
151.475703411
 20
190.4373978227
 30
0.0
 10
151.5926032358
 20
190.3792994774
 30
0.0
 10
151.7580504836
 20
190.3065080126
 30
0.0
 10
151.8813840603
 20
190.2595728426
 30
0.0
 10
151.9581877357
 20
190.2385057122
 30
0.0
 10
151.9873980154
 20
190.233322088
 30
0.0
 10
151.9991426108
 20
190.2333638409
 30
0.0
  0
SPLINE
  5
481
330
225
100
AcDbEntity
  8
0
  6
Continuous
 62
     9
100
AcDbSpline
210
0.0
220
0.0
230
1.0
 70
     8
 71
     3
 72
     9
 73
     5
 74
     0
 42
0.0000000001
 43
0.0000000001
 40
0.0
 40
0.0
 40
0.0
 40
0.0
 40
0.5081788324000001
 40
1.0
 40
1.0
 40
1.0
 40
1.0
 10
151.7652223477
 20
191.3927796859
 30
0.0
 10
151.8702184745
 20
191.3216466471
 30
0.0
 10
152.1353350212
 20
191.2560427194
 30
0.0
 10
152.3828931666
 20
191.3794719257
 30
0.0
 10
152.4620191631
 20
191.4733035951
 30
0.0
  0
SPLINE
  5
482
330
225
100
AcDbEntity
  8
0
  6
Continuous
 62
     9
100
AcDbSpline
210
0.0
220
0.0
230
1.0
 70
     8
 71
     3
 72
     8
 73
     4
 74
     0
 42
0.0000000001
 43
0.0000000001
 40
0.0
 40
0.0
 40
0.0
 40
0.0
 40
1.0
 40
1.0
 40
1.0
 40
1.0
 10
87.0906951407
 20
184.8321595058
 30
0.0
 10
87.12619273280001
 20
186.3537757291999
 30
0.0
 10
87.1615011803
 20
187.8753967859999
 30
0.0
 10
87.19829941769999
 20
189.3969821107
 30
0.0
  0
SPLINE
  5
483
330
225
100
AcDbEntity
  8
0
  6
Continuous
 62
     7
100
AcDbSpline
210
0.0
220
0.0
230
1.0
 70
     8
 71
     3
 72
     9
 73
     5
 74
     0
 42
0.0000000001
 43
0.0000000001
 40
0.0
 40
0.0
 40
0.0
 40
0.0
 40
0.2786398882
 40
1.0
 40
1.0
 40
1.0
 40
1.0
 10
142.6368023597
 20
184.8321595076
 30
0.0
 10
142.6341346471
 20
184.827962902
 30
0.0
 10
142.6223921327
 20
184.8142160515
 30
0.0
 10
142.6034854424
 20
184.8079607778
 30
0.0
 10
142.5906119307
 20
184.808038747
 30
0.0
  0
SPLINE
  5
484
330
225
100
AcDbEntity
  8
0
  6
Continuous
 62
     9
100
AcDbSpline
210
0.0
220
0.0
230
1.0
 70
     8
 71
     3
 72
    12
 73
     8
 74
     0
 42
0.0000000001
 43
0.0000000001
 40
0.0
 40
0.0
 40
0.0
 40
0.0
 40
0.3141169266
 40
0.6151089727
 40
0.8553489839
 40
0.9409986159999998
 40
1.0
 40
1.0
 40
1.0
 40
1.0
 10
86.1773675156
 20
190.241524898
 30
0.0
 10
86.11751442
 20
190.2107948834999
 30
0.0
 10
85.9979653785
 20
190.1550022247
 30
0.0
 10
85.82708852679999
 20
190.0890255258
 30
0.0
 10
85.69795414479999
 20
190.0501228183
 30
0.0
 10
85.6166448939
 20
190.0370837082
 30
0.0
 10
85.5852156403
 20
190.0363298603
 30
0.0
 10
85.5728139334
 20
190.0387599678
 30
0.0
  0
SPLINE
  5
485
330
225
100
AcDbEntity
  8
0
  6
Continuous
 62
     9
100
AcDbSpline
210
0.0
220
0.0
230
1.0
 70
     8
 71
     3
 72
    12
 73
     8
 74
     0
 42
0.0000000001
 43
0.0000000001
 40
0.0
 40
0.0
 40
0.0
 40
0.0
 40
0.3178884543
 40
0.6206409852000001
 40
0.8601579425
 40
0.944124797
 40
1.0
 40
1.0
 40
1.0
 40
1.0
 10
86.0646803808
 20
190.4686308943
 30
0.0
 10
86.0056095931
 20
190.4374028458
 30
0.0
 10
85.88870792359999
 20
190.3793085091
 30
0.0
 10
85.7232609365
 20
190.3065169886
 30
0.0
 10
85.59992890889999
 20
190.2595787638
 30
0.0
 10
85.52312659100001
 20
190.2385086897
 30
0.0
 10
85.4939169222
 20
190.2333237284
 30
0.0
 10
85.4821725318
 20
190.2333649533
 30
0.0
  0
SPLINE
  5
486
330
225
100
AcDbEntity
  8
0
  6
Continuous
 62
     9
100
AcDbSpline
210
0.0
220
0.0
230
1.0
 70
     8
 71
     3
 72
     9
 73
     5
 74
     0
 42
0.0000000001
 43
0.0000000001
 40
0.0
 40
0.0
 40
0.0
 40
0.0
 40
0.508172428
 40
1.0
 40
1.0
 40
1.0
 40
1.0
 10
85.71607817150001
 20
191.3927896478
 30
0.0
 10
85.6110879633
 20
191.3216570541
 30
0.0
 10
85.34598166850001
 20
191.2560479447
 30
0.0
 10
85.0984272356
 20
191.3794592967
 30
0.0
 10
85.01929359569999
 20
191.4732821147
 30
0.0
  0
SPLINE
  5
487
330
225
100
AcDbEntity
  8
0
  6
Continuous
 62
     9
100
AcDbSpline
210
0.0
220
0.0
230
1.0
 70
     8
 71
     3
 72
     9
 73
     5
 74
     0
 42
0.0000000001
 43
0.0000000001
 40
0.0
 40
0.0
 40
0.0
 40
0.0
 40
0.2505096385
 40
1.0
 40
1.0
 40
1.0
 40
1.0
 10
94.96309080969998
 20
188.3513229056
 30
0.0
 10
94.98447752590001
 20
188.2416404621
 30
0.0
 10
95.05984601829998
 20
187.8018659068
 30
0.0
 10
95.09919038520001
 20
187.3562842376
 30
0.0
 10
95.1125370635
 20
187.0222159132
 30
0.0
  0
SPLINE
  5
488
330
225
100
AcDbEntity
  8
0
  6
Continuous
 62
     9
100
AcDbSpline
210
0.0
220
0.0
230
1.0
 70
     8
 71
     3
 72
    16
 73
    12
 74
     0
 42
0.0000000001
 43
0.0000000001
 40
0.0
 40
0.0
 40
0.0
 40
0.0
 40
0.2541204911
 40
0.3811011434
 40
0.5079205643
 40
0.6344069955000001
 40
0.7601793662000001
 40
0.822530513
 40
0.8841570965
 40
0.9442724545
 40
1.0
 40
1.0
 40
1.0
 40
1.0
 10
95.12063105660001
 20
186.5342810243999
 30
0.0
 10
95.11968051729999
 20
186.3856585572
 30
0.0
 10
95.1136697525
 20
186.1627595392
 30
0.0
 10
95.09600182159999
 20
185.8662057222
 30
0.0
 10
95.07750706770002
 20
185.6445303298
 30
0.0
 10
95.0529233834
 20
185.4241734347
 30
0.0
 10
95.0259851056
 20
185.2420394822
 30
0.0
 10
94.9982661591
 20
185.0986690658
 30
0.0
 10
94.97338259969998
 20
184.9936496197999
 30
0.0
 10
94.94205721470001
 20
184.8952994533
 30
0.0
 10
94.91281718739999
 20
184.8319804272
 30
0.0
 10
94.8907016749
 20
184.808038747
 30
0.0
  0
SPLINE
  5
489
330
225
100
AcDbEntity
  8
0
  6
Continuous
 62
     7
100
AcDbSpline
210
0.0
220
0.0
230
1.0
 70
     8
 71
     3
 72
     9
 73
     5
 74
     0
 42
0.0000000001
 43
0.0000000001
 40
0.0
 40
0.0
 40
0.0
 40
0.0
 40
0.4721735562
 40
1.0
 40
1.0
 40
1.0
 40
1.0
 10
94.8907016749
 20
184.808038747
 30
0.0
 10
94.88222255809999
 20
184.8080485271
 30
0.0
 10
94.86381163370001
 20
184.8113770229
 30
0.0
 10
94.8498184644
 20
184.8243061226
 30
0.0
 10
94.8445112423
 20
184.8321595089
 30
0.0
  0
LINE
  5
48A
330
225
100
AcDbEntity
  8
0
  6
Continuous
 62
     9
100
AcDbLine
 10
94.8445112423
 20
184.8321595089
 30
0.0
 11
94.83817550999999
 21
186.6695545857
 31
0.0
  0
LINE
  5
48B
330
225
100
AcDbEntity
  8
0
  6
Continuous
 62
     9
100
AcDbLine
 10
94.83817550999999
 20
186.6695545857
 30
0.0
 11
94.8372899748
 21
186.9151344374
 31
0.0
  0
SPLINE
  5
48C
330
225
100
AcDbEntity
  8
0
  6
Continuous
 62
     9
100
AcDbSpline
210
0.0
220
0.0
230
1.0
 70
     8
 71
     3
 72
     8
 73
     4
 74
     0
 42
0.0000000001
 43
0.0000000001
 40
0.0
 40
0.0
 40
0.0
 40
0.0
 40
1.0
 40
1.0
 40
1.0
 40
1.0
 10
94.8372899748
 20
186.9151344374
 30
0.0
 10
94.8340308641
 20
187.8089327477
 30
0.0
 10
94.83039273920001
 20
188.7027303054
 30
0.0
 10
94.82560421509999
 20
189.5965217303
 30
0.0
  0
SPLINE
  5
48D
330
225
100
AcDbEntity
  8
0
  6
Continuous
 62
     9
100
AcDbSpline
210
0.0
220
0.0
230
1.0
 70
     8
 71
     3
 72
    13
 73
     9
 74
     0
 42
0.0000000001
 43
0.0000000001
 40
0.0
 40
0.0
 40
0.0
 40
0.0
 40
0.1131721695
 40
0.2204754664
 40
0.4380494283
 40
0.5592026207
 40
0.6928723185
 40
1.0
 40
1.0
 40
1.0
 40
1.0
 10
151.243207997
 20
193.0840390302
 30
0.0
 10
151.3059490173
 20
193.0502846013
 30
0.0
 10
151.4227209847
 20
192.9728377986
 30
0.0
 10
151.6130670509
 20
192.7707087187
 30
0.0
 10
151.7374925226
 20
192.5099652839
 30
0.0
 10
151.7900474467
 20
192.2165342068
 30
0.0
 10
151.8090025665
 20
191.8625549099
 30
0.0
 10
151.7858882044
 20
191.5850622395
 30
0.0
 10
151.7652542402
 20
191.3928221021
 30
0.0
  0
LINE
  5
48E
330
225
100
AcDbEntity
  8
0
  6
Continuous
 62
     9
100
AcDbLine
 10
142.6368023597
 20
184.8321595076
 30
0.0
 11
142.6431306447
 21
186.6674670848
 31
0.0
  0
LINE
  5
48F
330
225
100
AcDbEntity
  8
0
  6
Continuous
 62
     9
100
AcDbLine
 10
142.6431306447
 20
186.6674670848
 30
0.0
 11
142.6439050811
 21
186.8826977797
 31
0.0
  0
SPLINE
  5
490
330
225
100
AcDbEntity
  8
0
  6
Continuous
 62
     9
100
AcDbSpline
210
0.0
220
0.0
230
1.0
 70
     8
 71
     3
 72
     8
 73
     4
 74
     0
 42
0.0000000001
 43
0.0000000001
 40
0.0
 40
0.0
 40
0.0
 40
0.0
 40
1.0
 40
1.0
 40
1.0
 40
1.0
 10
142.6439050811
 20
186.8826977797
 30
0.0
 10
142.6467283344
 20
187.6598128328
 30
0.0
 10
142.6498349844
 20
188.4369272879
 30
0.0
 10
142.6538326587
 20
189.2140371869
 30
0.0
  0
SPLINE
  5
491
330
225
100
AcDbEntity
  8
0
  6
Continuous
 62
     9
100
AcDbSpline
210
0.0
220
0.0
230
1.0
 70
     8
 71
     3
 72
    10
 73
     6
 74
     0
 42
0.0000000001
 43
0.0000000001
 40
0.0
 40
0.0
 40
0.0
 40
0.0
 40
0.4565995641
 40
0.7157569719
 40
1.0
 40
1.0
 40
1.0
 40
1.0
 10
89.00166166549999
 20
194.5013852232
 30
0.0
 10
88.6282787839
 20
194.3138397568
 30
0.0
 10
88.11425985600001
 20
193.8675701618
 30
0.0
 10
87.61216823719999
 20
193.1012633716
 30
0.0
 10
87.39686877790001
 20
192.6511898563
 30
0.0
 10
87.2948367591
 20
192.4119240967
 30
0.0
  0
SPLINE
  5
492
330
225
100
AcDbEntity
  8
0
  6
Continuous
 62
     7
100
AcDbSpline
210
0.0
220
0.0
230
1.0
 70
     8
 71
     3
 72
    22
 73
    18
 74
     0
 42
0.0000000001
 43
0.0000000001
 40
0.0
 40
0.0
 40
0.0
 40
0.0
 40
0.1249941053
 40
0.2499722796
 40
0.3124918103
 40
0.3750098135
 40
0.4375173411000001
 40
0.4999690429000001
 40
0.5621784677
 40
0.5935775610000001
 40
0.624871761
 40
0.6562617557000001
 40
0.6875579756999999
 40
0.7500471644
 40
0.8125546465000001
 40
0.8750657881
 40
1.0
 40
1.0
 40
1.0
 40
1.0
 10
111.1420457269
 20
198.3070561491
 30
0.0
 10
110.9047777879
 20
198.2770730670999
 30
0.0
 10
110.4267129509
 20
198.2433199568
 30
0.0
 10
109.827666312
 20
198.2645699415
 30
0.0
 10
109.3534565163
 20
198.3308887688
 30
0.0
 10
109.0036148659
 20
198.4140444664
 30
0.0
 10
108.6681076483
 20
198.5457979541
 30
0.0
 10
108.3649743768
 20
198.7419269942
 30
0.0
 10
108.1802293427
 20
198.9949929146
 30
0.0
 10
108.145055644
 20
199.2364823154
 30
0.0
 10
108.1813298325
 20
199.4158324441
 30
0.0
 10
108.2632824699
 20
199.577596876
 30
0.0
 10
108.410244389
 20
199.767808089
 30
0.0
 10
108.6348502796
 20
199.9684099722
 30
0.0
 10
108.9353572986
 20
200.1657409617
 30
0.0
 10
109.3615102941
 20
200.3841800752
 30
0.0
 10
109.7010006824
 20
200.5056708613
 30
0.0
 10
109.9311648146
 20
200.5702056055
 30
0.0
  0
SPLINE
  5
493
330
225
100
AcDbEntity
  8
0
  6
Continuous
 62
     9
100
AcDbSpline
210
0.0
220
0.0
230
1.0
 70
     8
 71
     3
 72
     9
 73
     5
 74
     0
 42
0.0000000001
 43
0.0000000001
 40
0.0
 40
0.0
 40
0.0
 40
0.0
 40
0.2348119691
 40
1.0
 40
1.0
 40
1.0
 40
1.0
 10
149.9673709414
 20
190.4936406402
 30
0.0
 10
149.9655636085
 20
190.5715587156
 30
0.0
 10
149.9510628022
 20
190.9031962699
 30
0.0
 10
149.9109737727
 20
191.2337264902
 30
0.0
 10
149.8659787688
 20
191.483691108
 30
0.0
  0
SPLINE
  5
494
330
225
100
AcDbEntity
  8
0
  6
Continuous
 62
     9
100
AcDbSpline
210
0.0
220
0.0
230
1.0
 70
     8
 71
     3
 72
    11
 73
     7
 74
     0
 42
0.0000000001
 43
0.0000000001
 40
0.0
 40
0.0
 40
0.0
 40
0.0
 40
0.2041301837
 40
0.4492073637
 40
0.7188218006999999
 40
1.0
 40
1.0
 40
1.0
 40
1.0
 10
87.2948933904
 20
192.4118483964
 30
0.0
 10
87.2609953707
 20
192.3327200581
 30
0.0
 10
87.20809280240001
 20
192.1496801131
 30
0.0
 10
87.15440258299999
 20
191.8512645071
 30
0.0
 10
87.1191612682
 20
191.5171575183
 30
0.0
 10
87.10953494100001
 20
191.2849568247
 30
0.0
 10
87.1074983827
 20
191.1663989814
 30
0.0
  0
SPLINE
  5
495
330
225
100
AcDbEntity
  8
0
  6
Continuous
 62
     9
100
AcDbSpline
210
0.0
220
0.0
230
1.0
 70
     8
 71
     3
 72
    10
 73
     6
 74
     0
 42
0.0000000001
 43
0.0000000001
 40
0.0
 40
0.0
 40
0.0
 40
0.0
 40
0.5192451272
 40
0.7634019168
 40
1.0
 40
1.0
 40
1.0
 40
1.0
 10
109.9316231022
 20
200.5706094985
 30
0.0
 10
105.7859030536
 20
199.9665737015
 30
0.0
 10
99.7524878055
 20
198.4610813858
 30
0.0
 10
92.3191632011
 20
195.2997114725
 30
0.0
 10
88.9162156867
 20
193.4200825106
 30
0.0
 10
87.29490455670001
 20
192.4123441491
 30
0.0
  0
SPLINE
  5
496
330
225
100
AcDbEntity
  8
0
  6
Continuous
 62
     9
100
AcDbSpline
210
0.0
220
0.0
230
1.0
 70
     8
 71
     3
 72
     8
 73
     4
 74
     0
 42
0.0000000001
 43
0.0000000001
 40
0.0
 40
0.0
 40
0.0
 40
0.0
 40
1.0
 40
1.0
 40
1.0
 40
1.0
 10
124.2026228278
 20
201.3548624634
 30
0.0
 10
124.2049710872
 20
201.3505149543
 30
0.0
 10
124.2070969537
 20
201.3460448935
 30
0.0
 10
124.2090770347
 20
201.3415178153
 30
0.0
  0
SPLINE
  5
497
330
225
100
AcDbEntity
  8
0
  6
Continuous
 62
     7
100
AcDbSpline
210
0.0
220
0.0
230
1.0
 70
     8
 71
     3
 72
     9
 73
     5
 74
     0
 42
0.0000000001
 43
0.0000000001
 40
0.0
 40
0.0
 40
0.0
 40
0.0
 40
0.4994361905
 40
1.0
 40
1.0
 40
1.0
 40
1.0
 10
113.2722362295
 20
201.3415430194
 30
0.0
 10
113.3347703929
 20
201.3530258562
 30
0.0
 10
113.4566380134
 20
201.4005310565
 30
0.0
 10
113.5522465684
 20
201.4894907398
 30
0.0
 10
113.5903387776
 20
201.5405753261
 30
0.0
  0
SPLINE
  5
498
330
225
100
AcDbEntity
  8
0
  6
Continuous
 62
     7
100
AcDbSpline
210
0.0
220
0.0
230
1.0
 70
     8
 71
     3
 72
     8
 73
     4
 74
     0
 42
0.0000000001
 43
0.0000000001
 40
0.0
 40
0.0
 40
0.0
 40
0.0
 40
1.0
 40
1.0
 40
1.0
 40
1.0
 10
123.8615540478
 20
201.5845317453
 30
0.0
 10
123.8989166242
 20
201.5220160804
 30
0.0
 10
123.9506979978
 20
201.4662724402
 30
0.0
 10
124.0104511041
 20
201.4246342756
 30
0.0
  0
SPLINE
  5
499
330
225
100
AcDbEntity
  8
0
  6
Continuous
 62
     7
100
AcDbSpline
210
0.0
220
0.0
230
1.0
 70
     8
 71
     3
 72
     8
 73
     4
 74
     0
 42
0.0000000001
 43
0.0000000001
 40
0.0
 40
0.0
 40
0.0
 40
0.0
 40
1.0
 40
1.0
 40
1.0
 40
1.0
 10
124.0104511041
 20
201.4246342756
 30
0.0
 10
124.0693347579
 20
201.3836019775
 30
0.0
 10
124.1384915687
 20
201.354503451
 30
0.0
 10
124.2090813637
 20
201.3415413907
 30
0.0
  0
SPLINE
  5
49A
330
225
100
AcDbEntity
  8
0
  6
Continuous
 62
     9
100
AcDbSpline
210
0.0
220
0.0
230
1.0
 70
     8
 71
     3
 72
     9
 73
     5
 74
     0
 42
0.0000000001
 43
0.0000000001
 40
0.0
 40
0.0
 40
0.0
 40
0.0
 40
0.2495884486
 40
1.0
 40
1.0
 40
1.0
 40
1.0
 10
98.43005736090001
 20
194.4299389204
 30
0.0
 10
98.94970954560001
 20
194.6988097358
 30
0.0
 10
101.0536605713
 20
195.7333092765
 30
0.0
 10
103.2417083546
 20
196.5956564809
 30
0.0
 10
104.9128817189
 20
197.1449387818999
 30
0.0
  0
LINE
  5
49B
330
225
100
AcDbEntity
  8
0
  6
Continuous
 62
     9
100
AcDbLine
 10
123.9933710019
 20
198.6748153854
 30
0.0
 11
124.0882364568
 21
198.6601858316
 31
0.0
  0
SPLINE
  5
49C
330
225
100
AcDbEntity
  8
0
  6
Continuous
 62
     9
100
AcDbSpline
210
0.0
220
0.0
230
1.0
 70
     8
 71
     3
 72
     9
 73
     5
 74
     0
 42
0.0000000001
 43
0.0000000001
 40
0.0
 40
0.0
 40
0.0
 40
0.0
 40
0.5018959401
 40
1.0
 40
1.0
 40
1.0
 40
1.0
 10
126.6054215454
 20
198.2067149143
 30
0.0
 10
128.1615770974
 20
197.8861605989
 30
0.0
 10
131.2341498305
 20
197.0999953536
 30
0.0
 10
134.2077765067
 20
195.993628802
 30
0.0
 10
135.6530318672
 20
195.3630637145
 30
0.0
  0
LINE
  5
49D
330
225
100
AcDbEntity
  8
0
  6
Continuous
 62
     9
100
AcDbLine
 10
135.6530318672
 20
195.3630637145
 30
0.0
 11
135.7497848245
 21
195.3207091389
 31
0.0
  0
LINE
  5
49E
330
225
100
AcDbEntity
  8
0
  6
Continuous
 62
     9
100
AcDbLine
 10
135.7497848245
 20
195.3207091389
 30
0.0
 11
135.8476759675
 21
195.2775680931999
 31
0.0
  0
SPLINE
  5
49F
330
225
100
AcDbEntity
  8
0
  6
Continuous
 62
     9
100
AcDbSpline
210
0.0
220
0.0
230
1.0
 70
     8
 71
     3
 72
    11
 73
     7
 74
     0
 42
0.0000000001
 43
0.0000000001
 40
0.0
 40
0.0
 40
0.0
 40
0.0
 40
0.1719610345
 40
0.4042963117000001
 40
0.6857356293000001
 40
1.0
 40
1.0
 40
1.0
 40
1.0
 10
152.4620267875
 20
191.4732983721
 30
0.0
 10
152.4571352618
 20
191.397318112
 30
0.0
 10
152.4154511559
 20
191.2215383412
 30
0.0
 10
152.3142506486
 20
190.935568683
 30
0.0
 10
152.1713401421
 20
190.5975977883
 30
0.0
 10
152.0599026365
 20
190.3585406358
 30
0.0
 10
151.9991425899
 20
190.2333638518
 30
0.0
  0
SPLINE
  5
4A0
330
225
100
AcDbEntity
  8
0
  6
Continuous
 62
     9
100
AcDbSpline
210
0.0
220
0.0
230
1.0
 70
     8
 71
     3
 72
    15
 73
    11
 74
     0
 42
0.0000000001
 43
0.0000000001
 40
0.0
 40
0.0
 40
0.0
 40
0.0
 40
0.1509196818
 40
0.2820020131
 40
0.3966747197
 40
0.5021582305
 40
0.6077594962
 40
0.7226018378
 40
0.8528139355
 40
1.0
 40
1.0
 40
1.0
 40
1.0
 10
150.9126760182
 20
193.4019333722
 30
0.0
 10
151.0569232834
 20
193.3895457103
 30
0.0
 10
151.3255678261
 20
193.3510931720999
 30
0.0
 10
151.6926292653
 20
193.2453980541
 30
0.0
 10
151.9941407799
 20
193.0861430881
 30
0.0
 10
152.2175280416
 20
192.8613889175
 30
0.0
 10
152.3732377987
 20
192.5859971655
 30
0.0
 10
152.4562282197
 20
192.2568634584
 30
0.0
 10
152.4820382908
 20
191.8804063797
 30
0.0
 10
152.471093402
 20
191.6142034944
 30
0.0
 10
152.4620267875
 20
191.4732983721
 30
0.0
  0
SPLINE
  5
4A1
330
225
100
AcDbEntity
  8
0
  6
Continuous
 62
     7
100
AcDbSpline
210
0.0
220
0.0
230
1.0
 70
     8
 71
     3
 72
    23
 73
    19
 74
     0
 42
0.0000000001
 43
0.0000000001
 40
0.0
 40
0.0
 40
0.0
 40
0.0
 40
0.1248855005
 40
0.187371997
 40
0.2498581617
 40
0.3123039295
 40
0.34361689
 40
0.3749149471
 40
0.4062772675
 40
0.4375795169
 40
0.4689420298
 40
0.5002789889
 40
0.5627037114000001
 40
0.6251777174999999
 40
0.6876629456000001
 40
0.7501493245999999
 40
0.8750666049999999
 40
1.0
 40
1.0
 40
1.0
 40
1.0
 10
127.5501487941
 20
200.5702056052
 30
0.0
 10
127.7803388248
 20
200.5056635993
 30
0.0
 10
128.1198765367
 20
200.3841702371
 30
0.0
 10
128.5460583177
 20
200.1656797531
 30
0.0
 10
128.8466388412
 20
199.9684050185
 30
0.0
 10
129.0710883407
 20
199.7675802884
 30
0.0
 10
129.2181286844
 20
199.5775446009999
 30
0.0
 10
129.3000632812
 20
199.4157360239
 30
0.0
 10
129.3365123315
 20
199.2364275688
 30
0.0
 10
129.3092042739
 20
199.0548527414
 30
0.0
 10
129.2271766476
 20
198.8918304118
 30
0.0
 10
129.0668465396
 20
198.7113983136
 30
0.0
 10
128.8130255763
 20
198.5452553929
 30
0.0
 10
128.477770294
 20
198.4141374876
 30
0.0
 10
128.1278423107
 20
198.3309384185
 30
0.0
 10
127.6536801204
 20
198.2645396327
 30
0.0
 10
127.0546066958
 20
198.2433272105
 30
0.0
 10
126.5765400063
 20
198.277073991
 30
0.0
 10
126.3392689424
 20
198.3070641343
 30
0.0
  0
SPLINE
  5
4A2
330
225
100
AcDbEntity
  8
0
  6
Continuous
 62
     9
100
AcDbSpline
210
0.0
220
0.0
230
1.0
 70
     8
 71
     3
 72
    10
 73
     6
 74
     0
 42
0.0000000001
 43
0.0000000001
 40
0.0
 40
0.0
 40
0.0
 40
0.0
 40
0.5192451276
 40
0.7634019170000001
 40
1.0
 40
1.0
 40
1.0
 40
1.0
 10
127.5496905062
 20
200.5706094983
 30
0.0
 10
131.6954106908
 20
199.9665736814
 30
0.0
 10
137.7288261332
 20
198.4610812963
 30
0.0
 10
145.1621509486
 20
195.2997112156
 30
0.0
 10
148.5650985467
 20
193.4200821529
 30
0.0
 10
150.186409713
 20
192.4123437374
 30
0.0
  0
SPLINE
  5
4A3
330
225
100
AcDbEntity
  8
0
  6
Continuous
 62
     9
100
AcDbSpline
210
0.0
220
0.0
230
1.0
 70
     8
 71
     3
 72
    11
 73
     7
 74
     0
 42
0.0000000001
 43
0.0000000001
 40
0.0
 40
0.0
 40
0.0
 40
0.0
 40
0.28117828
 40
0.5507928038000001
 40
0.7958700755
 40
1.0
 40
1.0
 40
1.0
 40
1.0
 10
150.3738152208
 20
191.1663988531
 30
0.0
 10
150.3717786584
 20
191.2849566867
 30
0.0
 10
150.362152344
 20
191.5171573674
 30
0.0
 10
150.3269110692
 20
191.8512643379
 30
0.0
 10
150.2732208353
 20
192.1496798246
 30
0.0
 10
150.2203184012
 20
192.3327195864
 30
0.0
 10
150.1864208793
 20
192.4118479847
 30
0.0
  0
SPLINE
  5
4A4
330
225
100
AcDbEntity
  8
0
  6
Continuous
 62
    40
100
AcDbSpline
210
0.0
220
0.0
230
1.0
 70
     8
 71
     3
 72
    10
 73
     6
 74
     0
 42
0.0000000001
 43
0.0000000001
 40
0.0
 40
0.0
 40
0.0
 40
0.0
 40
0.0451675379
 40
0.9847686627999999
 40
1.0
 40
1.0
 40
1.0
 40
1.0
 10
123.7807535603
 20
192.6227865812
 30
0.0
 10
123.7521644213
 20
192.6312129531
 30
0.0
 10
123.1282646274
 20
192.8128570659
 30
0.0
 10
122.4823874254
 20
192.9517453584
 30
0.0
 10
121.8608280075
 20
193.0527177213
 30
0.0
 10
121.850911766
 20
193.0543203785
 30
0.0
  0
SPLINE
  5
4A5
330
225
100
AcDbEntity
  8
0
  6
Continuous
 62
    40
100
AcDbSpline
210
0.0
220
0.0
230
1.0
 70
     8
 71
     3
 72
    10
 73
     6
 74
     0
 42
0.0000000001
 43
0.0000000001
 40
0.0
 40
0.0
 40
0.0
 40
0.0
 40
0.015231337
 40
0.9548324479999999
 40
1.0
 40
1.0
 40
1.0
 40
1.0
 10
115.6304018414
 20
193.0543203785
 30
0.0
 10
115.6204855999
 20
193.0527177213
 30
0.0
 10
114.998926182
 20
192.9517453584
 30
0.0
 10
114.3530489705
 20
192.8128570639
 30
0.0
 10
113.7291491675
 20
192.6312129477
 30
0.0
 10
113.7005600192
 20
192.622786573
 30
0.0
  0
SPLINE
  5
4A6
330
225
100
AcDbEntity
  8
0
  6
Continuous
 62
    40
100
AcDbSpline
210
0.0
220
0.0
230
1.0
 70
     8
 71
     3
 72
     9
 73
     5
 74
     0
 42
0.0000000001
 43
0.0000000001
 40
0.0
 40
0.0
 40
0.0
 40
0.0
 40
0.4797627971000001
 40
1.0
 40
1.0
 40
1.0
 40
1.0
 10
113.1781696463
 20
192.4569824585
 30
0.0
 10
112.7985231532
 20
192.3275945908
 30
0.0
 10
112.0200613938
 20
192.0205042417
 30
0.0
 10
111.2810814974
 20
191.6284586168
 30
0.0
 10
110.904693543
 20
191.4115521225999
 30
0.0
  0
SPLINE
  5
4A7
330
225
100
AcDbEntity
  8
SURFACES
  6
Continuous
 62
    40
100
AcDbSpline
210
0.0
220
0.0
230
1.0
 70
     8
 71
     3
 72
     9
 73
     5
 74
     0
 42
0.0000000001
 43
0.0000000001
 40
0.0
 40
0.0
 40
0.0
 40
0.0
 40
0.5193439742
 40
1.0
 40
1.0
 40
1.0
 40
1.0
 10
110.904693543
 20
191.4115521225999
 30
0.0
 10
111.2808178107
 20
191.6283066583
 30
0.0
 10
112.0228679987
 20
192.0216925918
 30
0.0
 10
112.798584461
 20
192.3278293026
 30
0.0
 10
113.1782545142
 20
192.4571526028
 30
0.0
  0
SPLINE
  5
4A8
330
225
100
AcDbEntity
  8
SURFACES
  6
Continuous
 62
    40
100
AcDbSpline
210
0.0
220
0.0
230
1.0
 70
     8
 71
     3
 72
     8
 73
     4
 74
     0
 42
0.0000000001
 43
0.0000000001
 40
0.0
 40
0.0
 40
0.0
 40
0.0
 40
1.0
 40
1.0
 40
1.0
 40
1.0
 10
113.1782545142
 20
192.4571526028
 30
0.0
 10
113.3427756792
 20
192.5131918395999
 30
0.0
 10
113.5085769352
 20
192.5658843868
 30
0.0
 10
113.6755801159
 20
192.6154201583
 30
0.0
  0
SPLINE
  5
4A9
330
225
100
AcDbEntity
  8
SURFACES
  6
Continuous
 62
    40
100
AcDbSpline
210
0.0
220
0.0
230
1.0
 70
     8
 71
     3
 72
     8
 73
     4
 74
     0
 42
0.0000000001
 43
0.0000000001
 40
0.0
 40
0.0
 40
0.0
 40
0.0
 40
1.0
 40
1.0
 40
1.0
 40
1.0
 10
113.70060583
 20
192.6228169267
 30
0.0
 10
114.3283424332
 20
192.8076976175
 30
0.0
 10
114.9729870681
 20
192.948176518
 30
0.0
 10
115.6303802979
 20
193.054311985
 30
0.0
  0
SPLINE
  5
4AA
330
225
100
AcDbEntity
  8
SURFACES
  6
Continuous
 62
    40
100
AcDbSpline
210
0.0
220
0.0
230
1.0
 70
     8
 71
     3
 72
     8
 73
     4
 74
     0
 42
0.0000000001
 43
0.0000000001
 40
0.0
 40
0.0
 40
0.0
 40
0.0
 40
1.0
 40
1.0
 40
1.0
 40
1.0
 10
115.6303802979
 20
193.054311985
 30
0.0
 10
115.7436896209
 20
193.0726056597
 30
0.0
 10
115.8573666573
 20
193.0898752638
 30
0.0
 10
115.9712602196
 20
193.1061278005
 30
0.0
  0
SPLINE
  5
4AB
330
225
100
AcDbEntity
  8
SURFACES
  6
Continuous
 62
    40
100
AcDbSpline
210
0.0
220
0.0
230
1.0
 70
     8
 71
     3
 72
     8
 73
     4
 74
     0
 42
0.0000000001
 43
0.0000000001
 40
0.0
 40
0.0
 40
0.0
 40
0.0
 40
1.0
 40
1.0
 40
1.0
 40
1.0
 10
115.9712602196
 20
193.1061278005
 30
0.0
 10
116.6419963504
 20
193.2018414068
 30
0.0
 10
117.3202420466
 20
193.2622810061
 30
0.0
 10
117.9751175621
 20
193.2888769809
 30
0.0
  0
SPLINE
  5
4AC
330
225
100
AcDbEntity
  8
SURFACES
  6
Continuous
 62
    40
100
AcDbSpline
210
0.0
220
0.0
230
1.0
 70
     8
 71
     3
 72
     8
 73
     4
 74
     0
 42
0.0000000001
 43
0.0000000001
 40
0.0
 40
0.0
 40
0.0
 40
0.0
 40
1.0
 40
1.0
 40
1.0
 40
1.0
 10
117.9751175621
 20
193.2888769809
 30
0.0
 10
118.2346069913
 20
193.2994154331
 30
0.0
 10
118.4904271148
 20
193.3046401649
 30
0.0
 10
118.7406568037
 20
193.3046401649
 30
0.0
  0
SPLINE
  5
4AD
330
225
100
AcDbEntity
  8
0
  6
Continuous
 62
    40
100
AcDbSpline
210
0.0
220
0.0
230
1.0
 70
     8
 71
     3
 72
     9
 73
     5
 74
     0
 42
0.0000000001
 43
0.0000000001
 40
0.0
 40
0.0
 40
0.0
 40
0.0
 40
0.5193439742
 40
1.0
 40
1.0
 40
1.0
 40
1.0
 10
126.5766200644
 20
191.4115521225999
 30
0.0
 10
126.2004957968
 20
191.6283066583
 30
0.0
 10
125.4584456087
 20
192.0216925918
 30
0.0
 10
124.6827291465
 20
192.3278293026
 30
0.0
 10
124.3030590932
 20
192.4571526028
 30
0.0
  0
SPLINE
  5
4AE
330
225
100
AcDbEntity
  8
0
  6
Continuous
 62
    40
100
AcDbSpline
210
0.0
220
0.0
230
1.0
 70
     8
 71
     3
 72
     8
 73
     4
 74
     0
 42
0.0000000001
 43
0.0000000001
 40
0.0
 40
0.0
 40
0.0
 40
0.0
 40
1.0
 40
1.0
 40
1.0
 40
1.0
 10
124.3030590932
 20
192.4571526028
 30
0.0
 10
124.1385379282
 20
192.5131918395999
 30
0.0
 10
123.9727366723
 20
192.5658843868
 30
0.0
 10
123.8057334915
 20
192.6154201583
 30
0.0
  0
SPLINE
  5
4AF
330
225
100
AcDbEntity
  8
0
  6
Continuous
 62
    40
100
AcDbSpline
210
0.0
220
0.0
230
1.0
 70
     8
 71
     3
 72
     8
 73
     4
 74
     0
 42
0.0000000001
 43
0.0000000001
 40
0.0
 40
0.0
 40
0.0
 40
0.0
 40
1.0
 40
1.0
 40
1.0
 40
1.0
 10
123.7807077494
 20
192.6228169349
 30
0.0
 10
123.1529711551
 20
192.8076976216
 30
0.0
 10
122.5083265296
 20
192.9481765195
 30
0.0
 10
121.8509333095
 20
193.054311985
 30
0.0
  0
SPLINE
  5
4B0
330
225
100
AcDbEntity
  8
0
  6
Continuous
 62
    40
100
AcDbSpline
210
0.0
220
0.0
230
1.0
 70
     8
 71
     3
 72
     8
 73
     4
 74
     0
 42
0.0000000001
 43
0.0000000001
 40
0.0
 40
0.0
 40
0.0
 40
0.0
 40
1.0
 40
1.0
 40
1.0
 40
1.0
 10
121.8509333095
 20
193.054311985
 30
0.0
 10
121.7376239865
 20
193.0726056597
 30
0.0
 10
121.6239469501
 20
193.0898752638
 30
0.0
 10
121.5100533879
 20
193.1061278005
 30
0.0
  0
SPLINE
  5
4B1
330
225
100
AcDbEntity
  8
0
  6
Continuous
 62
    40
100
AcDbSpline
210
0.0
220
0.0
230
1.0
 70
     8
 71
     3
 72
     8
 73
     4
 74
     0
 42
0.0000000001
 43
0.0000000001
 40
0.0
 40
0.0
 40
0.0
 40
0.0
 40
1.0
 40
1.0
 40
1.0
 40
1.0
 10
121.5100533879
 20
193.1061278005
 30
0.0
 10
120.839317257
 20
193.2018414068
 30
0.0
 10
120.1610715608
 20
193.2622810061
 30
0.0
 10
119.5061960453
 20
193.2888769809
 30
0.0
  0
SPLINE
  5
4B2
330
225
100
AcDbEntity
  8
0
  6
Continuous
 62
    40
100
AcDbSpline
210
0.0
220
0.0
230
1.0
 70
     8
 71
     3
 72
     8
 73
     4
 74
     0
 42
0.0000000001
 43
0.0000000001
 40
0.0
 40
0.0
 40
0.0
 40
0.0
 40
1.0
 40
1.0
 40
1.0
 40
1.0
 10
119.5061960453
 20
193.2888769809
 30
0.0
 10
119.2467066161
 20
193.2994154331
 30
0.0
 10
118.9908864926
 20
193.3046401649
 30
0.0
 10
118.7406568037
 20
193.3046401649
 30
0.0
  0
DIMENSION
  5
5AB
330
225
100
AcDbEntity
  8
AM_5
100
AcDbDimension
  2
*D8
 10
196.3971136498471
 20
183.528038747
 30
0.0
 11
196.3971136498471
 21
158.1617116347
 31
0.0
 70
    32
  1
50
 71
     5
 42
50.73265422460003
  3
STANDARD$0
100
AcDbAlignedDimension
 13
159.49348138695
 23
132.7953845224
 33
0.0
 14
167.7148136746
 24
183.528038747
 34
0.0
 50
90.00000000000003
100
AcDbRotatedDimension
1001
ACAD
1000
DSTYLE
1002
{
1070
    42
1040
2.2
1070
    43
1040
13.376
1070
    44
1040
6.336
1070
    71
1070
     0
1070
    73
1070
     1
1070
    74
1070
     1
1070
    77
1070
     0
1070
    78
1070
     0
1070
   141
1040
3.168
1070
   178
1070
     0
1070
   271
1070
     4
1070
   272
1070
     4
1070
   284
1070
     0
1070
   341
1005
0
1070
   343
1005
0
1070
   344
1005
0
1002
}
1001
ACAD_DSTYLE_DIMINSPECT
1070
   396
1000
100%
1070
   395
1000

1070
   394
1070
    33
1070
   393
1070
     0
  0
DIMENSION
  5
5E4
330
225
100
AcDbEntity
  8
AM_5
100
AcDbDimension
  2
*D9
 10
219.6899602893364
 20
198.2574570004999
 30
0.0
 11
219.6899602893363
 21
156.97274787375
 31
0.0
 70
    32
  1
83
 71
     5
 42
82.56941825349997
  3
STANDARD$0
100
AcDbAlignedDimension
 13
150.2406568037
 23
115.688038747
 33
0.0
 14
172.2106566737348
 24
198.2574570005
 34
0.0
 50
90.00000000000003
100
AcDbRotatedDimension
1001
ACAD
1000
DSTYLE
1002
{
1070
    42
1040
2.2
1070
    43
1040
13.376
1070
    44
1040
6.336
1070
    71
1070
     0
1070
    73
1070
     1
1070
    74
1070
     1
1070
    77
1070
     0
1070
    78
1070
     0
1070
   141
1040
3.168
1070
   178
1070
     0
1070
   271
1070
     4
1070
   272
1070
     4
1070
   284
1070
     0
1070
   341
1005
0
1070
   343
1005
0
1070
   344
1005
0
1002
}
1001
ACAD_DSTYLE_DIMINSPECT
1070
   396
1000
100%
1070
   395
1000

1070
   394
1070
    33
1070
   393
1070
     0
  0
DIMENSION
  5
61A
330
225
100
AcDbEntity
  8
AM_5
100
AcDbDimension
  2
*D10
 10
173.9476573411206
 20
209.5854097040721
 30
0.0
 11
118.7406568037
 21
209.5854097040721
 31
0.0
 70
    32
  1
%%c110
 71
     5
 42
110.4140010748412
  3
STANDARD$0
100
AcDbAlignedDimension
 13
63.53365626627939
 23
197.5854097040721
 33
0.0
 14
173.9476573411206
 24
197.5854097040721
 34
0.0
 50
0.0000000000000114
100
AcDbRotatedDimension
1001
ACAD
1000
DSTYLE
1002
{
1070
    42
1040
2.2
1070
    43
1040
13.376
1070
    44
1040
6.336
1070
    71
1070
     0
1070
    73
1070
     1
1070
    74
1070
     1
1070
    77
1070
     0
1070
    78
1070
     0
1070
   141
1040
3.168
1070
   178
1070
     0
1070
   271
1070
     4
1070
   272
1070
     4
1070
   341
1005
0
1070
   343
1005
0
1070
   344
1005
0
1002
}
1001
ACAD_DSTYLE_DIMINSPECT
1070
   396
1000
100%
1070
   395
1000

1070
   394
1070
    33
1070
   393
1070
     0
  0
ENDSEC
  0
SECTION
  2
OBJECTS
  0
DICTIONARY
  5
C
330
0
100
AcDbDictionary
281
     1
  3
ACAD_COLOR
350
4E8
  3
ACAD_GROUP
350
D
  3
ACAD_IMAGE_DICT
350
4B4
  3
ACAD_IMAGE_VARS
350
4B5
  3
ACAD_LAYOUT
350
1A
  3
ACAD_MATERIAL
350
4BB
  3
ACAD_MLEADERSTYLE
350
4FD
  3
ACAD_MLINESTYLE
350
17
  3
ACAD_PLOTSETTINGS
350
19
  3
ACAD_PLOTSTYLENAME
350
E
  3
ACAD_SCALELIST
350
4EB
  3
ACAD_TABLESTYLE
350
4E9
  3
ACAD_VISUALSTYLE
350
4D4
  3
ACDB_RECOMPOSE_DATA
350
6B5
  3
AcDbVariableDictionary
350
6AB
  3
AcmDictionary
350
559
  3
AMG
350
503
  3
AMGSNAPSETTINGS
350
5A0
  3
DWGPROPS
350
6B6
  0
DICTIONARY
  5
663
330
10
100
AcDbDictionary
280
     1
281
     1
  3
ADSK_XREC_LAYER_RECONCILED
360
664
  0
DICTIONARY
  5
665
330
1FA
100
AcDbDictionary
280
     1
281
     1
  3
ADSK_XREC_LAYER_RECONCILED
360
666
  0
DICTIONARY
  5
667
330
1FB
100
AcDbDictionary
280
     1
281
     1
  3
ADSK_XREC_LAYER_RECONCILED
360
668
  0
DICTIONARY
  5
669
330
1FC
100
AcDbDictionary
280
     1
281
     1
  3
ADSK_XREC_LAYER_RECONCILED
360
66A
  0
DICTIONARY
  5
66B
330
1FD
100
AcDbDictionary
280
     1
281
     1
  3
ADSK_XREC_LAYER_RECONCILED
360
66C
  0
DICTIONARY
  5
66D
330
1FE
100
AcDbDictionary
280
     1
281
     1
  3
ADSK_XREC_LAYER_RECONCILED
360
66E
  0
DICTIONARY
  5
66F
330
1FF
100
AcDbDictionary
280
     1
281
     1
  3
ADSK_XREC_LAYER_RECONCILED
360
670
  0
DICTIONARY
  5
671
330
200
100
AcDbDictionary
280
     1
281
     1
  3
ADSK_XREC_LAYER_RECONCILED
360
672
  0
DICTIONARY
  5
673
330
201
100
AcDbDictionary
280
     1
281
     1
  3
ADSK_XREC_LAYER_RECONCILED
360
674
  0
DICTIONARY
  5
675
330
202
100
AcDbDictionary
280
     1
281
     1
  3
ADSK_XREC_LAYER_RECONCILED
360
676
  0
DICTIONARY
  5
677
330
203
100
AcDbDictionary
280
     1
281
     1
  3
ADSK_XREC_LAYER_RECONCILED
360
678
  0
DICTIONARY
  5
679
330
204
100
AcDbDictionary
280
     1
281
     1
  3
ADSK_XREC_LAYER_RECONCILED
360
67A
  0
DICTIONARY
  5
67B
330
205
100
AcDbDictionary
280
     1
281
     1
  3
ADSK_XREC_LAYER_RECONCILED
360
67C
  0
DICTIONARY
  5
67D
330
206
100
AcDbDictionary
280
     1
281
     1
  3
ADSK_XREC_LAYER_RECONCILED
360
67E
  0
DICTIONARY
  5
67F
330
207
100
AcDbDictionary
280
     1
281
     1
  3
ADSK_XREC_LAYER_RECONCILED
360
680
  0
DICTIONARY
  5
681
330
208
100
AcDbDictionary
280
     1
281
     1
  3
ADSK_XREC_LAYER_RECONCILED
360
682
  0
DICTIONARY
  5
683
330
209
100
AcDbDictionary
280
     1
281
     1
  3
ADSK_XREC_LAYER_RECONCILED
360
684
  0
DICTIONARY
  5
685
330
20A
100
AcDbDictionary
280
     1
281
     1
  3
ADSK_XREC_LAYER_RECONCILED
360
686
  0
DICTIONARY
  5
687
330
20B
100
AcDbDictionary
280
     1
281
     1
  3
ADSK_XREC_LAYER_RECONCILED
360
688
  0
DICTIONARY
  5
689
330
20C
100
AcDbDictionary
280
     1
281
     1
  3
ADSK_XREC_LAYER_RECONCILED
360
68A
  0
DICTIONARY
  5
68B
330
20D
100
AcDbDictionary
280
     1
281
     1
  3
ADSK_XREC_LAYER_RECONCILED
360
68C
  0
DICTIONARY
  5
68D
330
20E
100
AcDbDictionary
280
     1
281
     1
  3
ADSK_XREC_LAYER_RECONCILED
360
68E
  0
DICTIONARY
  5
68F
330
20F
100
AcDbDictionary
280
     1
281
     1
  3
ADSK_XREC_LAYER_RECONCILED
360
690
  0
DICTIONARY
  5
691
330
210
100
AcDbDictionary
280
     1
281
     1
  3
ADSK_XREC_LAYER_RECONCILED
360
692
  0
DICTIONARY
  5
693
330
211
100
AcDbDictionary
280
     1
281
     1
  3
ADSK_XREC_LAYER_RECONCILED
360
694
  0
DICTIONARY
  5
695
330
212
100
AcDbDictionary
280
     1
281
     1
  3
ADSK_XREC_LAYER_RECONCILED
360
696
  0
DICTIONARY
  5
697
330
213
100
AcDbDictionary
280
     1
281
     1
  3
ADSK_XREC_LAYER_RECONCILED
360
698
  0
DICTIONARY
  5
699
330
214
100
AcDbDictionary
280
     1
281
     1
  3
ADSK_XREC_LAYER_RECONCILED
360
69A
  0
DICTIONARY
  5
69B
330
215
100
AcDbDictionary
280
     1
281
     1
  3
ADSK_XREC_LAYER_RECONCILED
360
69C
  0
DICTIONARY
  5
69D
330
216
100
AcDbDictionary
280
     1
281
     1
  3
ADSK_XREC_LAYER_RECONCILED
360
69E
  0
DICTIONARY
  5
69F
330
217
100
AcDbDictionary
280
     1
281
     1
  3
ADSK_XREC_LAYER_RECONCILED
360
6A0
  0
DICTIONARY
  5
6A1
330
218
100
AcDbDictionary
280
     1
281
     1
  3
ADSK_XREC_LAYER_RECONCILED
360
6A2
  0
DICTIONARY
  5
6A3
330
219
100
AcDbDictionary
280
     1
281
     1
  3
ADSK_XREC_LAYER_RECONCILED
360
6A4
  0
DICTIONARY
  5
6A5
330
21A
100
AcDbDictionary
280
     1
281
     1
  3
ADSK_XREC_LAYER_RECONCILED
360
6A6
  0
DICTIONARY
  5
6A7
330
21B
100
AcDbDictionary
280
     1
281
     1
  3
ADSK_XREC_LAYER_RECONCILED
360
6A8
  0
DICTIONARY
  5
6A9
330
5A7
100
AcDbDictionary
280
     1
281
     1
  3
ADSK_XREC_LAYER_RECONCILED
360
6AA
  0
IMAGEDEF_REACTOR
  5
4B3
330
254
100
AcDbRasterImageDefReactor
 90
        2
330
254
  0
DICTIONARY
  5
4E8
102
{ACAD_REACTORS
330
C
102
}
330
C
100
AcDbDictionary
281
     1
  0
DICTIONARY
  5
D
102
{ACAD_REACTORS
330
C
102
}
330
C
100
AcDbDictionary
281
     1
  0
DICTIONARY
  5
4B4
330
C
100
AcDbDictionary
281
     1
  3
2000_00_00_img_1
350
4B8
  0
RASTERVARIABLES
  5
4B5
330
C
100
AcDbRasterVariables
 90
        0
 70
     0
 71
     1
 72
     1
  0
DICTIONARY
  5
1A
102
{ACAD_REACTORS
330
C
102
}
330
C
100
AcDbDictionary
281
     1
  3
Layout1
350
4B7
  3
Model
350
4B6
  0
DICTIONARY
  5
4BB
102
{ACAD_REACTORS
330
C
102
}
330
C
100
AcDbDictionary
281
     1
  3
ByBlock
350
4C4
  3
ByLayer
350
4BC
  3
Global
350
4CC
  0
DICTIONARY
  5
4FD
102
{ACAD_REACTORS
330
C
102
}
330
C
100
AcDbDictionary
281
     1
  3
Standard
350
4FE
  0
DICTIONARY
  5
17
102
{ACAD_REACTORS
330
C
102
}
330
C
100
AcDbDictionary
281
     1
  3
Standard
350
18
  0
DICTIONARY
  5
19
102
{ACAD_REACTORS
330
C
102
}
330
C
100
AcDbDictionary
281
     1
  0
ACDBDICTIONARYWDFLT
  5
E
102
{ACAD_REACTORS
330
C
102
}
330
C
100
AcDbDictionary
281
     1
  3
Normal
350
F
100
AcDbDictionaryWithDefault
340
F
  0
DICTIONARY
  5
4EB
102
{ACAD_REACTORS
330
C
102
}
330
C
100
AcDbDictionary
281
     1
  3
A0
350
4EC
  3
A1
350
4ED
  3
A2
350
4EE
  3
A3
350
4EF
  3
A4
350
4F0
  3
A5
350
4F1
  3
A6
350
4F2
  3
A7
350
4F3
  3
A8
350
4F4
  3
A9
350
4F5
  3
B0
350
4F6
  3
B1
350
4F7
  3
B2
350
4F8
  3
B3
350
4F9
  3
B4
350
4FA
  3
B5
350
4FB
  3
B6
350
4FC
  0
DICTIONARY
  5
4E9
102
{ACAD_REACTORS
330
C
102
}
330
C
100
AcDbDictionary
281
     1
  3
Standard
350
4EA
  0
DICTIONARY
  5
4D4
102
{ACAD_REACTORS
330
C
102
}
330
C
100
AcDbDictionary
281
     1
  3
2dWireframe
350
4DA
  3
3D Hidden
350
4DC
  3
3dWireframe
350
4DB
  3
Basic
350
4D9
  3
Brighten
350
4E0
  3
ColorChange
350
4E4
  3
Conceptual
350
4DD
  3
Dim
350
4DF
  3
EdgeColorOff
350
4E7
  3
Facepattern
350
4E3
  3
Flat
350
4D5
  3
FlatWithEdges
350
4D6
  3
Gouraud
350
4D7
  3
GouraudWithEdges
350
4D8
  3
JitterOff
350
4E5
  3
Linepattern
350
4E2
  3
OverhangOff
350
4E6
  3
Realistic
350
4DE
  3
Thicken
350
4E1
  0
XRECORD
  5
6B5
102
{ACAD_REACTORS
330
C
102
}
330
C
100
AcDbXrecord
280
     1
 90
        1
330
4EA
  0
DICTIONARY
  5
6AB
102
{ACAD_REACTORS
330
C
102
}
330
C
100
AcDbDictionary
281
     1
  3
CANNOSCALE
350
6AE
  3
CMLEADERSTYLE
350
6AD
  3
CTABLESTYLE
350
6AC
  3
DIMASSOC
350
6B1
  3
INDEXCTL
350
6B0
  3
SORTENTS
350
6AF
  3
XCLIPFRAME
350
6B2
  0
DICTIONARY
  5
559
102
{ACAD_REACTORS
330
C
102
}
330
C
100
AcDbDictionary
281
     1
  3
AcmStdDictionary
350
565
  0
DICTIONARY
  5
503
102
{ACAD_REACTORS
330
C
102
}
330
C
100
AcDbDictionary
281
     1
  0
DICTIONARY
  5
5A0
102
{ACAD_REACTORS
330
C
102
}
330
C
100
AcDbDictionary
281
     1
  0
XRECORD
  5
6B6
102
{ACAD_REACTORS
330
C
102
}
330
C
100
AcDbXrecord
280
     1
  1
DWGPROPS COOKIE
  2

  3

  4

  6

  7

  8
atittmar
  9

300
=
301
=
302
=
303
=
304
=
305
=
306
=
307
=
308
=
309
=
 40
0.0007975
 41
2456346.525230498
 42
2456346.526027454
  1

 90
        0
  0
XRECORD
  5
664
102
{ACAD_REACTORS
330
663
102
}
330
663
100
AcDbXrecord
280
     1
290
     1
  0
XRECORD
  5
666
102
{ACAD_REACTORS
330
665
102
}
330
665
100
AcDbXrecord
280
     1
290
     1
  0
XRECORD
  5
668
102
{ACAD_REACTORS
330
667
102
}
330
667
100
AcDbXrecord
280
     1
290
     1
  0
XRECORD
  5
66A
102
{ACAD_REACTORS
330
669
102
}
330
669
100
AcDbXrecord
280
     1
290
     1
  0
XRECORD
  5
66C
102
{ACAD_REACTORS
330
66B
102
}
330
66B
100
AcDbXrecord
280
     1
290
     1
  0
XRECORD
  5
66E
102
{ACAD_REACTORS
330
66D
102
}
330
66D
100
AcDbXrecord
280
     1
290
     1
  0
XRECORD
  5
670
102
{ACAD_REACTORS
330
66F
102
}
330
66F
100
AcDbXrecord
280
     1
290
     1
  0
XRECORD
  5
672
102
{ACAD_REACTORS
330
671
102
}
330
671
100
AcDbXrecord
280
     1
290
     1
  0
XRECORD
  5
674
102
{ACAD_REACTORS
330
673
102
}
330
673
100
AcDbXrecord
280
     1
290
     1
  0
XRECORD
  5
676
102
{ACAD_REACTORS
330
675
102
}
330
675
100
AcDbXrecord
280
     1
290
     1
  0
XRECORD
  5
678
102
{ACAD_REACTORS
330
677
102
}
330
677
100
AcDbXrecord
280
     1
290
     1
  0
XRECORD
  5
67A
102
{ACAD_REACTORS
330
679
102
}
330
679
100
AcDbXrecord
280
     1
290
     1
  0
XRECORD
  5
67C
102
{ACAD_REACTORS
330
67B
102
}
330
67B
100
AcDbXrecord
280
     1
290
     1
  0
XRECORD
  5
67E
102
{ACAD_REACTORS
330
67D
102
}
330
67D
100
AcDbXrecord
280
     1
290
     1
  0
XRECORD
  5
680
102
{ACAD_REACTORS
330
67F
102
}
330
67F
100
AcDbXrecord
280
     1
290
     1
  0
XRECORD
  5
682
102
{ACAD_REACTORS
330
681
102
}
330
681
100
AcDbXrecord
280
     1
290
     1
  0
XRECORD
  5
684
102
{ACAD_REACTORS
330
683
102
}
330
683
100
AcDbXrecord
280
     1
290
     1
  0
XRECORD
  5
686
102
{ACAD_REACTORS
330
685
102
}
330
685
100
AcDbXrecord
280
     1
290
     1
  0
XRECORD
  5
688
102
{ACAD_REACTORS
330
687
102
}
330
687
100
AcDbXrecord
280
     1
290
     1
  0
XRECORD
  5
68A
102
{ACAD_REACTORS
330
689
102
}
330
689
100
AcDbXrecord
280
     1
290
     1
  0
XRECORD
  5
68C
102
{ACAD_REACTORS
330
68B
102
}
330
68B
100
AcDbXrecord
280
     1
290
     1
  0
XRECORD
  5
68E
102
{ACAD_REACTORS
330
68D
102
}
330
68D
100
AcDbXrecord
280
     1
290
     1
  0
XRECORD
  5
690
102
{ACAD_REACTORS
330
68F
102
}
330
68F
100
AcDbXrecord
280
     1
290
     1
  0
XRECORD
  5
692
102
{ACAD_REACTORS
330
691
102
}
330
691
100
AcDbXrecord
280
     1
290
     1
  0
XRECORD
  5
694
102
{ACAD_REACTORS
330
693
102
}
330
693
100
AcDbXrecord
280
     1
290
     1
  0
XRECORD
  5
696
102
{ACAD_REACTORS
330
695
102
}
330
695
100
AcDbXrecord
280
     1
290
     1
  0
XRECORD
  5
698
102
{ACAD_REACTORS
330
697
102
}
330
697
100
AcDbXrecord
280
     1
290
     1
  0
XRECORD
  5
69A
102
{ACAD_REACTORS
330
699
102
}
330
699
100
AcDbXrecord
280
     1
290
     1
  0
XRECORD
  5
69C
102
{ACAD_REACTORS
330
69B
102
}
330
69B
100
AcDbXrecord
280
     1
290
     1
  0
XRECORD
  5
69E
102
{ACAD_REACTORS
330
69D
102
}
330
69D
100
AcDbXrecord
280
     1
290
     1
  0
XRECORD
  5
6A0
102
{ACAD_REACTORS
330
69F
102
}
330
69F
100
AcDbXrecord
280
     1
290
     1
  0
XRECORD
  5
6A2
102
{ACAD_REACTORS
330
6A1
102
}
330
6A1
100
AcDbXrecord
280
     1
290
     1
  0
XRECORD
  5
6A4
102
{ACAD_REACTORS
330
6A3
102
}
330
6A3
100
AcDbXrecord
280
     1
290
     1
  0
XRECORD
  5
6A6
102
{ACAD_REACTORS
330
6A5
102
}
330
6A5
100
AcDbXrecord
280
     1
290
     1
  0
XRECORD
  5
6A8
102
{ACAD_REACTORS
330
6A7
102
}
330
6A7
100
AcDbXrecord
280
     1
290
     1
  0
XRECORD
  5
6AA
102
{ACAD_REACTORS
330
6A9
102
}
330
6A9
100
AcDbXrecord
280
     1
290
     1
  0
IMAGEDEF
  5
4B8
102
{ACAD_REACTORS
330
4B4
330
4B3
102
}
330
4B4
100
AcDbRasterImageDef
 90
        0
  1
2000_00_00_img_1.jpg
 10
230.0
 20
73.0
 11
0.1693333333
 21
0.1693333333
280
     1
281
     0
  0
LAYOUT
  5
4B7
102
{ACAD_XDICTIONARY
360
6B9
102
}
102
{ACAD_REACTORS
330
1A
102
}
330
1A
100
AcDbPlotSettings
  1

  2
none_device
  4

  6

 40
0.0
 41
0.0
 42
0.0
 43
0.0
 44
210.0
 45
297.0
 46
0.0
 47
0.0
 48
0.0
 49
0.0
140
0.0
141
0.0
142
1.0
143
1.0
 70
     0
 72
     1
 73
     0
 74
     0
  7

 75
     0
147
1.0
148
0.0
149
0.0
100
AcDbLayout
  1
Layout1
 70
     1
 71
     1
 10
0.0
 20
0.0
 11
12.0
 21
9.0
 12
0.0
 22
0.0
 32
0.0
 14
1.000000000000000E+20
 24
1.000000000000000E+20
 34
1.000000000000000E+20
 15
-1.000000000000000E+20
 25
-1.000000000000000E+20
 35
-1.000000000000000E+20
146
0.0
 13
0.0
 23
0.0
 33
0.0
 16
1.0
 26
0.0
 36
0.0
 17
0.0
 27
1.0
 37
0.0
 76
     0
330
226
  0
LAYOUT
  5
4B6
102
{ACAD_XDICTIONARY
360
6B7
102
}
102
{ACAD_REACTORS
330
1A
102
}
330
1A
100
AcDbPlotSettings
  1

  2
none_device
  4

  6

 40
0.0
 41
0.0
 42
0.0
 43
0.0
 44
210.0
 45
297.0
 46
0.0
 47
0.0
 48
0.0
 49
0.0
140
0.0
141
0.0
142
1.0
143
1.0
 70
  1024
 72
     1
 73
     0
 74
     0
  7

 75
     0
147
1.0
148
0.0
149
0.0
100
AcDbLayout
  1
Model
 70
     0
 71
     0
 10
0.0
 20
0.0
 11
210.0
 21
297.0
 12
0.0
 22
0.0
 32
0.0
 14
0.0
 24
0.0
 34
0.0
 15
0.0
 25
0.0
 35
0.0
146
0.0
 13
0.0
 23
0.0
 33
0.0
 16
1.0
 26
0.0
 36
0.0
 17
0.0
 27
1.0
 37
0.0
 76
     0
330
225
331
1F4
  0
MATERIAL
  5
4C4
102
{ACAD_XDICTIONARY
360
4C5
102
}
102
{ACAD_REACTORS
330
4BB
102
}
330
4BB
100
AcDbMaterial
  1
ByBlock
 72
     0
 43
0.0008202099737533
 43
0.0
 43
0.0
 43
0.0
 43
0.0
 43
0.0008202099737533
 43
0.0
 43
0.0
 43
0.0
 43
0.0
 43
1.0
 43
0.0
 43
0.0
 43
0.0
 43
0.0
 43
1.0
 77
     0
 47
0.0008202099737533
 47
0.0
 47
0.0
 47
0.0
 47
0.0
 47
0.0008202099737533
 47
0.0
 47
0.0
 47
0.0
 47
0.0
 47
1.0
 47
0.0
 47
0.0
 47
0.0
 47
0.0
 47
1.0
171
     0
 49
0.0008202099737533
 49
0.0
 49
0.0
 49
0.0
 49
0.0
 49
0.0008202099737533
 49
0.0
 49
0.0
 49
0.0
 49
0.0
 49
1.0
 49
0.0
 49
0.0
 49
0.0
 49
0.0
 49
1.0
175
     0
142
0.0008202099737533
142
0.0
142
0.0
142
0.0
142
0.0
142
0.0008202099737533
142
0.0
142
0.0
142
0.0
142
0.0
142
1.0
142
0.0
142
0.0
142
0.0
142
0.0
142
1.0
179
     0
144
0.0008202099737533
144
0.0
144
0.0
144
0.0
144
0.0
144
0.0008202099737533
144
0.0
144
0.0
144
0.0
144
0.0
144
1.0
144
0.0
144
0.0
144
0.0
144
0.0
144
1.0
147
0.0008202099737533
147
0.0
147
0.0
147
0.0
147
0.0
147
0.0008202099737533
147
0.0
147
0.0
147
0.0
147
0.0
147
1.0
147
0.0
147
0.0
147
0.0
147
0.0
147
1.0
  0
MATERIAL
  5
4BC
102
{ACAD_XDICTIONARY
360
4BD
102
}
102
{ACAD_REACTORS
330
4BB
102
}
330
4BB
100
AcDbMaterial
  1
ByLayer
 72
     0
 43
0.0008202099737533
 43
0.0
 43
0.0
 43
0.0
 43
0.0
 43
0.0008202099737533
 43
0.0
 43
0.0
 43
0.0
 43
0.0
 43
1.0
 43
0.0
 43
0.0
 43
0.0
 43
0.0
 43
1.0
 77
     0
 47
0.0008202099737533
 47
0.0
 47
0.0
 47
0.0
 47
0.0
 47
0.0008202099737533
 47
0.0
 47
0.0
 47
0.0
 47
0.0
 47
1.0
 47
0.0
 47
0.0
 47
0.0
 47
0.0
 47
1.0
171
     0
 49
0.0008202099737533
 49
0.0
 49
0.0
 49
0.0
 49
0.0
 49
0.0008202099737533
 49
0.0
 49
0.0
 49
0.0
 49
0.0
 49
1.0
 49
0.0
 49
0.0
 49
0.0
 49
0.0
 49
1.0
175
     0
142
0.0008202099737533
142
0.0
142
0.0
142
0.0
142
0.0
142
0.0008202099737533
142
0.0
142
0.0
142
0.0
142
0.0
142
1.0
142
0.0
142
0.0
142
0.0
142
0.0
142
1.0
179
     0
144
0.0008202099737533
144
0.0
144
0.0
144
0.0
144
0.0
144
0.0008202099737533
144
0.0
144
0.0
144
0.0
144
0.0
144
1.0
144
0.0
144
0.0
144
0.0
144
0.0
144
1.0
147
0.0008202099737533
147
0.0
147
0.0
147
0.0
147
0.0
147
0.0008202099737533
147
0.0
147
0.0
147
0.0
147
0.0
147
1.0
147
0.0
147
0.0
147
0.0
147
0.0
147
1.0
  0
MATERIAL
  5
4CC
102
{ACAD_XDICTIONARY
360
4CD
102
}
102
{ACAD_REACTORS
330
4BB
102
}
330
4BB
100
AcDbMaterial
  1
Global
 72
     0
 43
0.0008202099737533
 43
0.0
 43
0.0
 43
0.0
 43
0.0
 43
0.0008202099737533
 43
0.0
 43
0.0
 43
0.0
 43
0.0
 43
1.0
 43
0.0
 43
0.0
 43
0.0
 43
0.0
 43
1.0
 77
     0
 47
0.0008202099737533
 47
0.0
 47
0.0
 47
0.0
 47
0.0
 47
0.0008202099737533
 47
0.0
 47
0.0
 47
0.0
 47
0.0
 47
1.0
 47
0.0
 47
0.0
 47
0.0
 47
0.0
 47
1.0
171
     0
 49
0.0008202099737533
 49
0.0
 49
0.0
 49
0.0
 49
0.0
 49
0.0008202099737533
 49
0.0
 49
0.0
 49
0.0
 49
0.0
 49
1.0
 49
0.0
 49
0.0
 49
0.0
 49
0.0
 49
1.0
175
     0
142
0.0008202099737533
142
0.0
142
0.0
142
0.0
142
0.0
142
0.0008202099737533
142
0.0
142
0.0
142
0.0
142
0.0
142
1.0
142
0.0
142
0.0
142
0.0
142
0.0
142
1.0
179
     0
144
0.0008202099737533
144
0.0
144
0.0
144
0.0
144
0.0
144
0.0008202099737533
144
0.0
144
0.0
144
0.0
144
0.0
144
1.0
144
0.0
144
0.0
144
0.0
144
0.0
144
1.0
147
0.0008202099737533
147
0.0
147
0.0
147
0.0
147
0.0
147
0.0008202099737533
147
0.0
147
0.0
147
0.0
147
0.0
147
1.0
147
0.0
147
0.0
147
0.0
147
0.0
147
1.0
  0
MLEADERSTYLE
  5
4FE
102
{ACAD_REACTORS
330
4FD
102
}
330
4FD
100
AcDbMLeaderStyle
170
     2
171
     1
172
     0
 90
        2
 40
0.0
 41
0.0
173
     1
 91
-1056964608
340
14
 92
       -2
290
     1
 42
2.0
291
     1
 43
0.36
  3
Standard
 44
4.0
300

342
11
174
     1
178
     6
175
     1
176
     0
 93
-1056964608
 45
4.0
292
     0
297
     0
 46
4.0
 94
-1056964608
 47
1.0
 49
1.0
140
1.0
293
     1
141
0.0
294
     1
177
     0
142
1.0
295
     0
296
     0
143
0.125
1001
ACAD_MLEADERVER
1070
     2
  0
MLINESTYLE
  5
18
102
{ACAD_REACTORS
330
17
102
}
330
17
100
AcDbMlineStyle
  2
STANDARD
 70
     0
  3

 62
   256
 51
90.0
 52
90.0
 71
     2
 49
0.5
 62
   256
  6
BYLAYER
 49
-0.5
 62
   256
  6
BYLAYER
  0
ACDBPLACEHOLDER
  5
F
102
{ACAD_REACTORS
330
E
102
}
330
E
  0
SCALE
  5
4EC
102
{ACAD_REACTORS
330
4EB
102
}
330
4EB
100
AcDbScale
 70
     0
300
1:1
140
1.0
141
1.0
290
     1
  0
SCALE
  5
4ED
102
{ACAD_REACTORS
330
4EB
102
}
330
4EB
100
AcDbScale
 70
     0
300
1:2
140
1.0
141
2.0
290
     0
  0
SCALE
  5
4EE
102
{ACAD_REACTORS
330
4EB
102
}
330
4EB
100
AcDbScale
 70
     0
300
1:4
140
1.0
141
4.0
290
     0
  0
SCALE
  5
4EF
102
{ACAD_REACTORS
330
4EB
102
}
330
4EB
100
AcDbScale
 70
     0
300
1:5
140
1.0
141
5.0
290
     0
  0
SCALE
  5
4F0
102
{ACAD_REACTORS
330
4EB
102
}
330
4EB
100
AcDbScale
 70
     0
300
1:8
140
1.0
141
8.0
290
     0
  0
SCALE
  5
4F1
102
{ACAD_REACTORS
330
4EB
102
}
330
4EB
100
AcDbScale
 70
     0
300
1:10
140
1.0
141
10.0
290
     0
  0
SCALE
  5
4F2
102
{ACAD_REACTORS
330
4EB
102
}
330
4EB
100
AcDbScale
 70
     0
300
1:16
140
1.0
141
16.0
290
     0
  0
SCALE
  5
4F3
102
{ACAD_REACTORS
330
4EB
102
}
330
4EB
100
AcDbScale
 70
     0
300
1:20
140
1.0
141
20.0
290
     0
  0
SCALE
  5
4F4
102
{ACAD_REACTORS
330
4EB
102
}
330
4EB
100
AcDbScale
 70
     0
300
1:30
140
1.0
141
30.0
290
     0
  0
SCALE
  5
4F5
102
{ACAD_REACTORS
330
4EB
102
}
330
4EB
100
AcDbScale
 70
     0
300
1:40
140
1.0
141
40.0
290
     0
  0
SCALE
  5
4F6
102
{ACAD_REACTORS
330
4EB
102
}
330
4EB
100
AcDbScale
 70
     0
300
1:50
140
1.0
141
50.0
290
     0
  0
SCALE
  5
4F7
102
{ACAD_REACTORS
330
4EB
102
}
330
4EB
100
AcDbScale
 70
     0
300
1:100
140
1.0
141
100.0
290
     0
  0
SCALE
  5
4F8
102
{ACAD_REACTORS
330
4EB
102
}
330
4EB
100
AcDbScale
 70
     0
300
2:1
140
2.0
141
1.0
290
     0
  0
SCALE
  5
4F9
102
{ACAD_REACTORS
330
4EB
102
}
330
4EB
100
AcDbScale
 70
     0
300
4:1
140
4.0
141
1.0
290
     0
  0
SCALE
  5
4FA
102
{ACAD_REACTORS
330
4EB
102
}
330
4EB
100
AcDbScale
 70
     0
300
8:1
140
8.0
141
1.0
290
     0
  0
SCALE
  5
4FB
102
{ACAD_REACTORS
330
4EB
102
}
330
4EB
100
AcDbScale
 70
     0
300
10:1
140
10.0
141
1.0
290
     0
  0
SCALE
  5
4FC
102
{ACAD_REACTORS
330
4EB
102
}
330
4EB
100
AcDbScale
 70
     0
300
100:1
140
100.0
141
1.0
290
     0
  0
TABLESTYLE
  5
4EA
102
{ACAD_XDICTIONARY
360
6B3
102
}
102
{ACAD_REACTORS
330
4E9
102
}
330
4E9
100
AcDbTableStyle
  3
Standard
 70
     0
 71
     0
 40
1.5
 41
1.5
280
     0
281
     0
  7
STANDARD
140
4.5
170
     2
 62
     0
 63
     7
283
     0
274
    -2
284
     1
 64
     0
275
    -2
285
     1
 65
     0
276
    -2
286
     1
 66
     0
277
    -2
287
     1
 67
     0
278
    -2
288
     1
 68
     0
279
    -2
289
     1
 69
     0
  7
STANDARD
140
6.0
170
     5
 62
     0
 63
     7
283
     0
274
    -2
284
     1
 64
     0
275
    -2
285
     1
 65
     0
276
    -2
286
     1
 66
     0
277
    -2
287
     1
 67
     0
278
    -2
288
     1
 68
     0
279
    -2
289
     1
 69
     0
  7
STANDARD
140
4.5
170
     5
 62
     0
 63
     7
283
     0
274
    -2
284
     1
 64
     0
275
    -2
285
     1
 65
     0
276
    -2
286
     1
 66
     0
277
    -2
287
     1
 67
     0
278
    -2
288
     1
 68
     0
279
    -2
289
     1
 69
     0
  0
VISUALSTYLE
  5
4DA
102
{ACAD_XDICTIONARY
360
6C8
102
}
102
{ACAD_REACTORS
330
4D4
102
}
330
4D4
100
AcDbVisualStyle
  2
2dWireframe
 70
     4
 71
     0
 72
     2
 73
     0
 90
        0
 40
-0.6
 41
-30.0
 62
     5
 63
     7
 74
     1
 91
        4
 64
     7
 65
   257
 75
     1
175
     1
 42
1.0
 92
        0
 66
   257
 43
1.0
 76
     1
 77
     6
 78
     2
 67
     7
 79
     5
170
     0
171
     0
290
     0
174
     0
 93
        1
 44
0.0
173
     0
291
     0
 45
0.0
1001
ACAD
1000
AcDbSavedByObjectVersion
1070
     0
  0
VISUALSTYLE
  5
4DC
102
{ACAD_XDICTIONARY
360
6CC
102
}
102
{ACAD_REACTORS
330
4D4
102
}
330
4D4
100
AcDbVisualStyle
  2
3D Hidden
 70
     6
 71
     1
 72
     2
 73
     2
 90
        0
 40
-0.6
 41
-30.0
 62
     5
 63
     7
 74
     2
 91
        2
 64
     7
 65
   257
 75
     2
175
     1
 42
179.0
 92
        0
 66
   257
 43
1.0
 76
     1
 77
     6
 78
     2
 67
     7
 79
     3
170
     0
171
     0
290
     0
174
     0
 93
        1
 44
0.0
173
     0
291
     0
 45
0.0
1001
ACAD
1000
AcDbSavedByObjectVersion
1070
     0
  0
VISUALSTYLE
  5
4DB
102
{ACAD_XDICTIONARY
360
6CA
102
}
102
{ACAD_REACTORS
330
4D4
102
}
330
4D4
100
AcDbVisualStyle
  2
3dWireframe
 70
     5
 71
     0
 72
     2
 73
     0
 90
        0
 40
-0.6
 41
-30.0
 62
     5
 63
     7
 74
     1
 91
        4
 64
     7
 65
   257
 75
     1
175
     1
 42
1.0
 92
        0
 66
   257
 43
1.0
 76
     1
 77
     6
 78
     2
 67
     7
 79
     5
170
     0
171
     0
290
     0
174
     0
 93
        1
 44
0.0
173
     0
291
     0
 45
0.0
1001
ACAD
1000
AcDbSavedByObjectVersion
1070
     0
  0
VISUALSTYLE
  5
4D9
102
{ACAD_XDICTIONARY
360
6C6
102
}
102
{ACAD_REACTORS
330
4D4
102
}
330
4D4
100
AcDbVisualStyle
  2
Basic
 70
     7
 71
     1
 72
     0
 73
     1
 90
        0
 40
-0.6
 41
-30.0
 62
     5
 63
     7
 74
     0
 91
        4
 64
     7
 65
   257
 75
     1
175
     1
 42
1.0
 92
        8
 66
     7
 43
1.0
 76
     1
 77
     6
 78
     2
 67
     7
 79
     5
170
     0
171
     0
290
     0
174
     0
 93
        1
 44
0.0
173
     0
291
     1
 45
0.0
1001
ACAD
1000
AcDbSavedByObjectVersion
1070
     0
  0
VISUALSTYLE
  5
4E0
102
{ACAD_XDICTIONARY
360
6D4
102
}
102
{ACAD_REACTORS
330
4D4
102
}
330
4D4
100
AcDbVisualStyle
  2
Brighten
 70
    12
 71
     2
 72
     2
 73
     0
 90
        0
 40
-0.6
 41
-30.0
 62
     5
 63
     7
 74
     1
 91
        4
 64
     7
 65
   257
 75
     1
175
     1
 42
1.0
 92
        8
 66
     7
 43
1.0
 76
     1
 77
     6
 78
     2
 67
     7
 79
     5
170
     0
171
     0
290
     0
174
     0
 93
        1
 44
50.0
173
     0
291
     1
 45
0.0
1001
ACAD
1000
AcDbSavedByObjectVersion
1070
     0
  0
VISUALSTYLE
  5
4E4
102
{ACAD_XDICTIONARY
360
6DC
102
}
102
{ACAD_REACTORS
330
4D4
102
}
330
4D4
100
AcDbVisualStyle
  2
ColorChange
 70
    16
 71
     2
 72
     2
 73
     3
 90
        0
 40
-0.6
 41
-30.0
 62
     5
 63
     8
 74
     1
 91
        4
 64
     7
 65
   257
 75
     1
175
     1
 42
1.0
 92
        8
 66
     8
 43
1.0
 76
     1
 77
     6
 78
     2
 67
     7
 79
     5
170
     0
171
     0
290
     0
174
     0
 93
        1
 44
0.0
173
     0
291
     1
 45
0.0
1001
ACAD
1000
AcDbSavedByObjectVersion
1070
     0
  0
VISUALSTYLE
  5
4DD
102
{ACAD_XDICTIONARY
360
6CE
102
}
102
{ACAD_REACTORS
330
4D4
102
}
330
4D4
100
AcDbVisualStyle
  2
Conceptual
 70
     9
 71
     3
 72
     2
 73
     0
 90
        0
 40
-0.6
 41
-30.0
 62
     5
 63
     7
 74
     2
 91
        2
 64
     7
 65
   257
 75
     1
175
     1
 42
179.0
 92
        8
 66
     7
 43
1.0
 76
     1
 77
     6
 78
     2
 67
     7
 79
     3
170
     0
171
     0
290
     0
174
     0
 93
        1
 44
0.0
173
     0
291
     0
 45
0.0
1001
ACAD
1000
AcDbSavedByObjectVersion
1070
     0
  0
VISUALSTYLE
  5
4DF
102
{ACAD_XDICTIONARY
360
6D2
102
}
102
{ACAD_REACTORS
330
4D4
102
}
330
4D4
100
AcDbVisualStyle
  2
Dim
 70
    11
 71
     2
 72
     2
 73
     0
 90
        0
 40
-0.6
 41
-30.0
 62
     5
 63
     7
 74
     1
 91
        4
 64
     7
 65
   257
 75
     1
175
     1
 42
1.0
 92
        8
 66
     7
 43
1.0
 76
     1
 77
     6
 78
     2
 67
     7
 79
     5
170
     0
171
     0
290
     0
174
     0
 93
        1
 44
-50.0
173
     0
291
     1
 45
0.0
1001
ACAD
1000
AcDbSavedByObjectVersion
1070
     0
  0
VISUALSTYLE
  5
4E7
102
{ACAD_XDICTIONARY
360
6E2
102
}
102
{ACAD_REACTORS
330
4D4
102
}
330
4D4
100
AcDbVisualStyle
  2
EdgeColorOff
 70
    22
 71
     2
 72
     2
 73
     0
 90
        0
 40
-0.6
 41
-30.0
 62
     5
 63
     7
 74
     1
 91
        4
 64
     7
 65
   257
 75
     1
175
     1
 42
1.0
 92
        8
 66
     7
 43
1.0
 76
     1
 77
     6
 78
     2
 67
     7
 79
     5
170
     0
171
     0
290
     0
174
     0
 93
        1
 44
0.0
173
     0
291
     1
 45
0.0
1001
ACAD
1000
AcDbSavedByObjectVersion
1070
     0
  0
VISUALSTYLE
  5
4E3
102
{ACAD_XDICTIONARY
360
6DA
102
}
102
{ACAD_REACTORS
330
4D4
102
}
330
4D4
100
AcDbVisualStyle
  2
Facepattern
 70
    15
 71
     2
 72
     2
 73
     0
 90
        0
 40
-0.6
 41
-30.0
 62
     5
 63
     7
 74
     1
 91
        4
 64
     7
 65
   257
 75
     1
175
     1
 42
1.0
 92
        8
 66
     7
 43
1.0
 76
     1
 77
     6
 78
     2
 67
     7
 79
     5
170
     0
171
     0
290
     0
174
     0
 93
        1
 44
0.0
173
     0
291
     1
 45
0.0
1001
ACAD
1000
AcDbSavedByObjectVersion
1070
     0
  0
VISUALSTYLE
  5
4D5
102
{ACAD_XDICTIONARY
360
6BE
102
}
102
{ACAD_REACTORS
330
4D4
102
}
330
4D4
100
AcDbVisualStyle
  2
Flat
 70
     0
 71
     2
 72
     1
 73
     1
 90
        2
 40
-0.6
 41
30.0
 62
     5
 63
     7
 74
     0
 91
        4
 64
     7
 65
   257
 75
     1
175
     1
 42
1.0
 92
        8
 66
     7
 43
1.0
 76
     1
 77
     6
 78
     2
 67
     7
 79
     5
170
     0
171
     0
290
     0
174
     0
 93
       13
 44
0.0
173
     0
291
     1
 45
0.0
1001
ACAD
1000
AcDbSavedByObjectVersion
1070
     0
  0
VISUALSTYLE
  5
4D6
102
{ACAD_XDICTIONARY
360
6C0
102
}
102
{ACAD_REACTORS
330
4D4
102
}
330
4D4
100
AcDbVisualStyle
  2
FlatWithEdges
 70
     1
 71
     2
 72
     1
 73
     1
 90
        2
 40
-0.6
 41
30.0
 62
     5
 63
     7
 74
     1
 91
        4
 64
     7
 65
   257
 75
     1
175
     1
 42
1.0
 92
        0
 66
   257
 43
1.0
 76
     1
 77
     6
 78
     2
 67
     7
 79
     5
170
     0
171
     0
290
     0
174
     0
 93
       13
 44
0.0
173
     0
291
     1
 45
0.0
1001
ACAD
1000
AcDbSavedByObjectVersion
1070
     0
  0
VISUALSTYLE
  5
4D7
102
{ACAD_XDICTIONARY
360
6C2
102
}
102
{ACAD_REACTORS
330
4D4
102
}
330
4D4
100
AcDbVisualStyle
  2
Gouraud
 70
     2
 71
     2
 72
     2
 73
     1
 90
        2
 40
-0.6
 41
30.0
 62
     5
 63
     7
 74
     0
 91
        4
 64
     7
 65
   257
 75
     1
175
     1
 42
1.0
 92
        0
 66
     7
 43
1.0
 76
     1
 77
     6
 78
     2
 67
     7
 79
     5
170
     0
171
     0
290
     0
174
     0
 93
       13
 44
0.0
173
     0
291
     1
 45
0.0
1001
ACAD
1000
AcDbSavedByObjectVersion
1070
     0
  0
VISUALSTYLE
  5
4D8
102
{ACAD_XDICTIONARY
360
6C4
102
}
102
{ACAD_REACTORS
330
4D4
102
}
330
4D4
100
AcDbVisualStyle
  2
GouraudWithEdges
 70
     3
 71
     2
 72
     2
 73
     1
 90
        2
 40
-0.6
 41
30.0
 62
     5
 63
     7
 74
     1
 91
        4
 64
     7
 65
   257
 75
     1
175
     1
 42
1.0
 92
        0
 66
   257
 43
1.0
 76
     1
 77
     6
 78
     2
 67
     7
 79
     5
170
     0
171
     0
290
     0
174
     0
 93
       13
 44
0.0
173
     0
291
     1
 45
0.0
1001
ACAD
1000
AcDbSavedByObjectVersion
1070
     0
  0
VISUALSTYLE
  5
4E5
102
{ACAD_XDICTIONARY
360
6DE
102
}
102
{ACAD_REACTORS
330
4D4
102
}
330
4D4
100
AcDbVisualStyle
  2
JitterOff
 70
    20
 71
     2
 72
     2
 73
     0
 90
        0
 40
-0.6
 41
-30.0
 62
     5
 63
     7
 74
     1
 91
        4
 64
     7
 65
   257
 75
     1
175
     1
 42
1.0
 92
       10
 66
     7
 43
1.0
 76
     1
 77
     6
 78
     2
 67
     7
 79
     5
170
     0
171
     0
290
     0
174
     0
 93
        1
 44
0.0
173
     0
291
     1
 45
0.0
1001
ACAD
1000
AcDbSavedByObjectVersion
1070
     0
  0
VISUALSTYLE
  5
4E2
102
{ACAD_XDICTIONARY
360
6D8
102
}
102
{ACAD_REACTORS
330
4D4
102
}
330
4D4
100
AcDbVisualStyle
  2
Linepattern
 70
    14
 71
     2
 72
     2
 73
     0
 90
        0
 40
-0.6
 41
-30.0
 62
     5
 63
     7
 74
     1
 91
        4
 64
     7
 65
   257
 75
     7
175
     7
 42
1.0
 92
        8
 66
     7
 43
1.0
 76
     1
 77
     6
 78
     2
 67
     7
 79
     5
170
     0
171
     0
290
     0
174
     0
 93
        1
 44
0.0
173
     0
291
     1
 45
0.0
1001
ACAD
1000
AcDbSavedByObjectVersion
1070
     0
  0
VISUALSTYLE
  5
4E6
102
{ACAD_XDICTIONARY
360
6E0
102
}
102
{ACAD_REACTORS
330
4D4
102
}
330
4D4
100
AcDbVisualStyle
  2
OverhangOff
 70
    21
 71
     2
 72
     2
 73
     0
 90
        0
 40
-0.6
 41
-30.0
 62
     5
 63
     7
 74
     1
 91
        4
 64
     7
 65
   257
 75
     1
175
     1
 42
1.0
 92
        9
 66
     7
 43
1.0
 76
     1
 77
     6
 78
     2
 67
     7
 79
     5
170
     0
171
     0
290
     0
174
     0
 93
        1
 44
0.0
173
     0
291
     1
 45
0.0
1001
ACAD
1000
AcDbSavedByObjectVersion
1070
     0
  0
VISUALSTYLE
  5
4DE
102
{ACAD_XDICTIONARY
360
6D0
102
}
102
{ACAD_REACTORS
330
4D4
102
}
330
4D4
100
AcDbVisualStyle
  2
Realistic
 70
     8
 71
     2
 72
     2
 73
     0
 90
        0
 40
-0.6
 41
-30.0
 62
     5
 63
     7
 74
     1
 91
        0
 64
     7
 65
   257
 75
     1
175
     1
 42
1.0
 92
        8
 66
     8
 43
1.0
 76
     1
 77
     6
 78
     2
 67
     7
 79
     5
170
     0
171
     0
290
     0
174
     0
 93
       13
 44
0.0
173
     0
291
     0
 45
0.0
1001
ACAD
1000
AcDbSavedByObjectVersion
1070
     0
  0
VISUALSTYLE
  5
4E1
102
{ACAD_XDICTIONARY
360
6D6
102
}
102
{ACAD_REACTORS
330
4D4
102
}
330
4D4
100
AcDbVisualStyle
  2
Thicken
 70
    13
 71
     2
 72
     2
 73
     0
 90
        0
 40
-0.6
 41
-30.0
 62
     5
 63
     7
 74
     1
 91
        4
 64
     7
 65
   257
 75
     1
175
     1
 42
1.0
 92
       12
 66
     7
 43
1.0
 76
     1
 77
     6
 78
     2
 67
     7
 79
     5
170
     0
171
     0
290
     0
174
     0
 93
        1
 44
0.0
173
     0
291
     1
 45
0.0
1001
ACAD
1000
AcDbSavedByObjectVersion
1070
     0
  0
DICTIONARYVAR
  5
6AE
102
{ACAD_REACTORS
330
6AB
102
}
330
6AB
100
DictionaryVariables
280
     0
  1
1:1
  0
DICTIONARYVAR
  5
6AD
102
{ACAD_REACTORS
330
6AB
102
}
330
6AB
100
DictionaryVariables
280
     0
  1
STANDARD
  0
DICTIONARYVAR
  5
6AC
102
{ACAD_REACTORS
330
6AB
102
}
330
6AB
100
DictionaryVariables
280
     0
  1
STANDARD
  0
DICTIONARYVAR
  5
6B1
102
{ACAD_REACTORS
330
6AB
102
}
330
6AB
100
DictionaryVariables
280
     0
  1
1
  0
DICTIONARYVAR
  5
6B0
102
{ACAD_REACTORS
330
6AB
102
}
330
6AB
100
DictionaryVariables
280
     0
  1
0
  0
DICTIONARYVAR
  5
6AF
102
{ACAD_REACTORS
330
6AB
102
}
330
6AB
100
DictionaryVariables
280
     0
  1
127
  0
DICTIONARYVAR
  5
6B2
102
{ACAD_REACTORS
330
6AB
102
}
330
6AB
100
DictionaryVariables
280
     0
  1
2
  0
DICTIONARY
  5
565
102
{ACAD_REACTORS
330
559
102
}
330
559
100
AcDbDictionary
281
     1
  0
DICTIONARY
  5
6B9
330
4B7
100
AcDbDictionary
280
     1
281
     1
  3
ACAD_XREC_ROUNDTRIP
360
6BA
  0
DICTIONARY
  5
6B7
330
4B6
100
AcDbDictionary
280
     1
281
     1
  3
ACAD_XREC_ROUNDTRIP
360
6B8
  0
DICTIONARY
  5
4C5
330
4C4
100
AcDbDictionary
280
     1
281
     1
  3
ACAD_XREC_ROUNDTRIP
360
6BC
  3
BUMPTILE
360
4C7
  3
DIFFUSETILE
360
4C6
  3
OPACITYTILE
360
4CA
  3
REFLECTIONTILE
360
4C9
  3
REFRACTIONTILE
360
4CB
  3
SPECULARTILE
360
4C8
  0
DICTIONARY
  5
4BD
330
4BC
100
AcDbDictionary
280
     1
281
     1
  3
ACAD_XREC_ROUNDTRIP
360
6BB
  3
BUMPTILE
360
4BF
  3
DIFFUSETILE
360
4BE
  3
OPACITYTILE
360
4C2
  3
REFLECTIONTILE
360
4C1
  3
REFRACTIONTILE
360
4C3
  3
SPECULARTILE
360
4C0
  0
DICTIONARY
  5
4CD
330
4CC
100
AcDbDictionary
280
     1
281
     1
  3
ACAD_XREC_ROUNDTRIP
360
6BD
  3
BUMPTILE
360
4CF
  3
DIFFUSETILE
360
4CE
  3
OPACITYTILE
360
4D2
  3
REFLECTIONTILE
360
4D1
  3
REFRACTIONTILE
360
4D3
  3
SPECULARTILE
360
4D0
  0
DICTIONARY
  5
6B3
330
4EA
100
AcDbDictionary
280
     1
281
     1
  3
ACAD_ROUNDTRIP_2008_TABLESTYLE_CELLSTYLEMAP
360
6B4
  3
ACAD_XREC_ROUNDTRIP
360
6E4
  0
DICTIONARY
  5
6C8
330
4DA
100
AcDbDictionary
280
     1
281
     1
  3
ACAD_XREC_ROUNDTRIP
360
6C9
  0
DICTIONARY
  5
6CC
330
4DC
100
AcDbDictionary
280
     1
281
     1
  3
ACAD_XREC_ROUNDTRIP
360
6CD
  0
DICTIONARY
  5
6CA
330
4DB
100
AcDbDictionary
280
     1
281
     1
  3
ACAD_XREC_ROUNDTRIP
360
6CB
  0
DICTIONARY
  5
6C6
330
4D9
100
AcDbDictionary
280
     1
281
     1
  3
ACAD_XREC_ROUNDTRIP
360
6C7
  0
DICTIONARY
  5
6D4
330
4E0
100
AcDbDictionary
280
     1
281
     1
  3
ACAD_XREC_ROUNDTRIP
360
6D5
  0
DICTIONARY
  5
6DC
330
4E4
100
AcDbDictionary
280
     1
281
     1
  3
ACAD_XREC_ROUNDTRIP
360
6DD
  0
DICTIONARY
  5
6CE
330
4DD
100
AcDbDictionary
280
     1
281
     1
  3
ACAD_XREC_ROUNDTRIP
360
6CF
  0
DICTIONARY
  5
6D2
330
4DF
100
AcDbDictionary
280
     1
281
     1
  3
ACAD_XREC_ROUNDTRIP
360
6D3
  0
DICTIONARY
  5
6E2
330
4E7
100
AcDbDictionary
280
     1
281
     1
  3
ACAD_XREC_ROUNDTRIP
360
6E3
  0
DICTIONARY
  5
6DA
330
4E3
100
AcDbDictionary
280
     1
281
     1
  3
ACAD_XREC_ROUNDTRIP
360
6DB
  0
DICTIONARY
  5
6BE
330
4D5
100
AcDbDictionary
280
     1
281
     1
  3
ACAD_XREC_ROUNDTRIP
360
6BF
  0
DICTIONARY
  5
6C0
330
4D6
100
AcDbDictionary
280
     1
281
     1
  3
ACAD_XREC_ROUNDTRIP
360
6C1
  0
DICTIONARY
  5
6C2
330
4D7
100
AcDbDictionary
280
     1
281
     1
  3
ACAD_XREC_ROUNDTRIP
360
6C3
  0
DICTIONARY
  5
6C4
330
4D8
100
AcDbDictionary
280
     1
281
     1
  3
ACAD_XREC_ROUNDTRIP
360
6C5
  0
DICTIONARY
  5
6DE
330
4E5
100
AcDbDictionary
280
     1
281
     1
  3
ACAD_XREC_ROUNDTRIP
360
6DF
  0
DICTIONARY
  5
6D8
330
4E2
100
AcDbDictionary
280
     1
281
     1
  3
ACAD_XREC_ROUNDTRIP
360
6D9
  0
DICTIONARY
  5
6E0
330
4E6
100
AcDbDictionary
280
     1
281
     1
  3
ACAD_XREC_ROUNDTRIP
360
6E1
  0
DICTIONARY
  5
6D0
330
4DE
100
AcDbDictionary
280
     1
281
     1
  3
ACAD_XREC_ROUNDTRIP
360
6D1
  0
DICTIONARY
  5
6D6
330
4E1
100
AcDbDictionary
280
     1
281
     1
  3
ACAD_XREC_ROUNDTRIP
360
6D7
  0
XRECORD
  5
6BA
102
{ACAD_REACTORS
330
6B9
102
}
330
6B9
100
AcDbXrecord
280
     1
102
SHADEPLOT
 70
     0
102
SHADEPLOTRESLEVEL
 70
     2
102
SHADEPLOTCUSTOMDPI
 70
   300
  0
XRECORD
  5
6B8
102
{ACAD_REACTORS
330
6B7
102
}
330
6B7
100
AcDbXrecord
280
     1
102
SHADEPLOT
 70
     0
102
SHADEPLOTRESLEVEL
 70
     2
102
SHADEPLOTCUSTOMDPI
 70
   300
  0
XRECORD
  5
6BC
102
{ACAD_REACTORS
330
4C5
102
}
330
4C5
100
AcDbXrecord
280
     1
102
MATERIAL
148
0.0
149
0.0
149
0.0
 93
        0
 94
      127
282
     0
 72
     0
 77
     0
171
     0
175
     0
179
     0
273
     0
  0
XRECORD
  5
4C7
102
{ACAD_REACTORS
330
4C5
102
}
330
4C5
100
AcDbXrecord
280
     1
270
     1
271
     1
  0
XRECORD
  5
4C6
102
{ACAD_REACTORS
330
4C5
102
}
330
4C5
100
AcDbXrecord
280
     1
270
     1
271
     1
  0
XRECORD
  5
4CA
102
{ACAD_REACTORS
330
4C5
102
}
330
4C5
100
AcDbXrecord
280
     1
270
     1
271
     1
  0
XRECORD
  5
4C9
102
{ACAD_REACTORS
330
4C5
102
}
330
4C5
100
AcDbXrecord
280
     1
270
     1
271
     1
  0
XRECORD
  5
4CB
102
{ACAD_REACTORS
330
4C5
102
}
330
4C5
100
AcDbXrecord
280
     1
270
     1
271
     1
  0
XRECORD
  5
4C8
102
{ACAD_REACTORS
330
4C5
102
}
330
4C5
100
AcDbXrecord
280
     1
270
     1
271
     1
  0
XRECORD
  5
6BB
102
{ACAD_REACTORS
330
4BD
102
}
330
4BD
100
AcDbXrecord
280
     1
102
MATERIAL
148
0.0
149
0.0
149
0.0
 93
        0
 94
      127
282
     0
 72
     0
 77
     0
171
     0
175
     0
179
     0
273
     0
  0
XRECORD
  5
4BF
102
{ACAD_REACTORS
330
4BD
102
}
330
4BD
100
AcDbXrecord
280
     1
270
     1
271
     1
  0
XRECORD
  5
4BE
102
{ACAD_REACTORS
330
4BD
102
}
330
4BD
100
AcDbXrecord
280
     1
270
     1
271
     1
  0
XRECORD
  5
4C2
102
{ACAD_REACTORS
330
4BD
102
}
330
4BD
100
AcDbXrecord
280
     1
270
     1
271
     1
  0
XRECORD
  5
4C1
102
{ACAD_REACTORS
330
4BD
102
}
330
4BD
100
AcDbXrecord
280
     1
270
     1
271
     1
  0
XRECORD
  5
4C3
102
{ACAD_REACTORS
330
4BD
102
}
330
4BD
100
AcDbXrecord
280
     1
270
     1
271
     1
  0
XRECORD
  5
4C0
102
{ACAD_REACTORS
330
4BD
102
}
330
4BD
100
AcDbXrecord
280
     1
270
     1
271
     1
  0
XRECORD
  5
6BD
102
{ACAD_REACTORS
330
4CD
102
}
330
4CD
100
AcDbXrecord
280
     1
102
MATERIAL
148
0.0
149
0.0
149
0.0
 93
        0
 94
      127
282
     0
 72
     0
 77
     0
171
     0
175
     0
179
     0
273
     0
  0
XRECORD
  5
4CF
102
{ACAD_REACTORS
330
4CD
102
}
330
4CD
100
AcDbXrecord
280
     1
270
     1
271
     1
  0
XRECORD
  5
4CE
102
{ACAD_REACTORS
330
4CD
102
}
330
4CD
100
AcDbXrecord
280
     1
270
     1
271
     1
  0
XRECORD
  5
4D2
102
{ACAD_REACTORS
330
4CD
102
}
330
4CD
100
AcDbXrecord
280
     1
270
     1
271
     1
  0
XRECORD
  5
4D1
102
{ACAD_REACTORS
330
4CD
102
}
330
4CD
100
AcDbXrecord
280
     1
270
     1
271
     1
  0
XRECORD
  5
4D3
102
{ACAD_REACTORS
330
4CD
102
}
330
4CD
100
AcDbXrecord
280
     1
270
     1
271
     1
  0
XRECORD
  5
4D0
102
{ACAD_REACTORS
330
4CD
102
}
330
4CD
100
AcDbXrecord
280
     1
270
     1
271
     1
  0
CELLSTYLEMAP
  5
6B4
102
{ACAD_REACTORS
330
6B3
102
}
330
6B3
100
AcDbCellStyleMap
 90
        3
300
CELLSTYLE
  1
TABLEFORMAT_BEGIN
 90
        5
170
     1
 91
        0
 92
    32768
 62
   257
 93
        1
300
CONTENTFORMAT
  1
CONTENTFORMAT_BEGIN
 90
        0
 91
        0
 92
      512
 93
        0
300

 40
0.0
140
1.0
 94
        5
 62
     0
340
11
144
6.0
309
CONTENTFORMAT_END
171
     1
301
MARGIN
  1
CELLMARGIN_BEGIN
 40
1.5
 40
1.5
 40
1.5
 40
1.5
 40
4.5
 40
4.5
309
CELLMARGIN_END
 94
        6
 95
        1
302
GRIDFORMAT
  1
GRIDFORMAT_BEGIN
 90
        0
 91
        1
 62
     0
 92
       -2
340
0
 93
        0
 40
1.125
309
GRIDFORMAT_END
 95
        2
302
GRIDFORMAT
  1
GRIDFORMAT_BEGIN
 90
        0
 91
        1
 62
     0
 92
       -2
340
0
 93
        0
 40
1.125
309
GRIDFORMAT_END
 95
        4
302
GRIDFORMAT
  1
GRIDFORMAT_BEGIN
 90
        0
 91
        1
 62
     0
 92
       -2
340
0
 93
        0
 40
1.125
309
GRIDFORMAT_END
 95
        8
302
GRIDFORMAT
  1
GRIDFORMAT_BEGIN
 90
        0
 91
        1
 62
     0
 92
       -2
340
0
 93
        0
 40
1.125
309
GRIDFORMAT_END
 95
       16
302
GRIDFORMAT
  1
GRIDFORMAT_BEGIN
 90
        0
 91
        1
 62
     0
 92
       -2
340
0
 93
        0
 40
1.125
309
GRIDFORMAT_END
 95
       32
302
GRIDFORMAT
  1
GRIDFORMAT_BEGIN
 90
        0
 91
        1
 62
     0
 92
       -2
340
0
 93
        0
 40
1.125
309
GRIDFORMAT_END
309
TABLEFORMAT_END
  1
CELLSTYLE_BEGIN
 90
        1
 91
        1
300
_TITLE
309
CELLSTYLE_END
300
CELLSTYLE
  1
TABLEFORMAT_BEGIN
 90
        5
170
     1
 91
        0
 92
        0
 62
   257
 93
        1
300
CONTENTFORMAT
  1
CONTENTFORMAT_BEGIN
 90
        0
 91
        0
 92
      512
 93
        0
300

 40
0.0
140
1.0
 94
        5
 62
     0
340
11
144
4.5
309
CONTENTFORMAT_END
171
     1
301
MARGIN
  1
CELLMARGIN_BEGIN
 40
1.5
 40
1.5
 40
1.5
 40
1.5
 40
4.5
 40
4.5
309
CELLMARGIN_END
 94
        6
 95
        1
302
GRIDFORMAT
  1
GRIDFORMAT_BEGIN
 90
        0
 91
        1
 62
     0
 92
       -2
340
0
 93
        0
 40
1.125
309
GRIDFORMAT_END
 95
        2
302
GRIDFORMAT
  1
GRIDFORMAT_BEGIN
 90
        0
 91
        1
 62
     0
 92
       -2
340
0
 93
        0
 40
1.125
309
GRIDFORMAT_END
 95
        4
302
GRIDFORMAT
  1
GRIDFORMAT_BEGIN
 90
        0
 91
        1
 62
     0
 92
       -2
340
0
 93
        0
 40
1.125
309
GRIDFORMAT_END
 95
        8
302
GRIDFORMAT
  1
GRIDFORMAT_BEGIN
 90
        0
 91
        1
 62
     0
 92
       -2
340
0
 93
        0
 40
1.125
309
GRIDFORMAT_END
 95
       16
302
GRIDFORMAT
  1
GRIDFORMAT_BEGIN
 90
        0
 91
        1
 62
     0
 92
       -2
340
0
 93
        0
 40
1.125
309
GRIDFORMAT_END
 95
       32
302
GRIDFORMAT
  1
GRIDFORMAT_BEGIN
 90
        0
 91
        1
 62
     0
 92
       -2
340
0
 93
        0
 40
1.125
309
GRIDFORMAT_END
309
TABLEFORMAT_END
  1
CELLSTYLE_BEGIN
 90
        2
 91
        1
300
_HEADER
309
CELLSTYLE_END
300
CELLSTYLE
  1
TABLEFORMAT_BEGIN
 90
        5
170
     1
 91
        0
 92
        0
 62
   257
 93
        1
300
CONTENTFORMAT
  1
CONTENTFORMAT_BEGIN
 90
        0
 91
        0
 92
      512
 93
        0
300

 40
0.0
140
1.0
 94
        2
 62
     0
340
11
144
4.5
309
CONTENTFORMAT_END
171
     1
301
MARGIN
  1
CELLMARGIN_BEGIN
 40
1.5
 40
1.5
 40
1.5
 40
1.5
 40
4.5
 40
4.5
309
CELLMARGIN_END
 94
        6
 95
        1
302
GRIDFORMAT
  1
GRIDFORMAT_BEGIN
 90
        0
 91
        1
 62
     0
 92
       -2
340
0
 93
        0
 40
1.125
309
GRIDFORMAT_END
 95
        2
302
GRIDFORMAT
  1
GRIDFORMAT_BEGIN
 90
        0
 91
        1
 62
     0
 92
       -2
340
0
 93
        0
 40
1.125
309
GRIDFORMAT_END
 95
        4
302
GRIDFORMAT
  1
GRIDFORMAT_BEGIN
 90
        0
 91
        1
 62
     0
 92
       -2
340
0
 93
        0
 40
1.125
309
GRIDFORMAT_END
 95
        8
302
GRIDFORMAT
  1
GRIDFORMAT_BEGIN
 90
        0
 91
        1
 62
     0
 92
       -2
340
0
 93
        0
 40
1.125
309
GRIDFORMAT_END
 95
       16
302
GRIDFORMAT
  1
GRIDFORMAT_BEGIN
 90
        0
 91
        1
 62
     0
 92
       -2
340
0
 93
        0
 40
1.125
309
GRIDFORMAT_END
 95
       32
302
GRIDFORMAT
  1
GRIDFORMAT_BEGIN
 90
        0
 91
        1
 62
     0
 92
       -2
340
0
 93
        0
 40
1.125
309
GRIDFORMAT_END
309
TABLEFORMAT_END
  1
CELLSTYLE_BEGIN
 90
        3
 91
        2
300
_DATA
309
CELLSTYLE_END
  0
XRECORD
  5
6E4
102
{ACAD_REACTORS
330
6B3
102
}
330
6B3
100
AcDbXrecord
280
     1
102
ACAD_ROUNDTRIP_PRE2007_TABLESTYLE
 90
      512
 91
        0
  1

 92
      512
 93
        0
  2

 94
      512
 95
        0
  3

  0
XRECORD
  5
6C9
102
{ACAD_REACTORS
330
6C8
102
}
330
6C8
100
AcDbXrecord
280
     1
102
RTVSPropertyOp0
 70
     1
102
RTVSPropertyOp1
 70
     1
102
RTVSPropertyOp2
 70
     1
102
RTVSPropertyOp3
 70
     1
102
RTVSPropertyOp4
 70
     1
102
RTVSPropertyOp5
 70
     1
102
RTVSPropertyOp6
 70
     1
102
RTVSPropertyOp7
 70
     1
102
RTVSPropertyOp8
 70
     1
102
RTVSPropertyOp9
 70
     1
102
RTVSPropertyOp10
 70
     1
102
RTVSPropertyOp11
 70
     1
102
RTVSPropertyOp12
 70
     1
102
RTVSPropertyOp13
 70
     1
102
RTVSPropertyOp14
 70
     1
102
RTVSPropertyOp15
 70
     1
102
RTVSPropertyOp16
 70
     1
102
RTVSPropertyOp17
 70
     1
102
RTVSPropertyOp18
 70
     1
102
RTVSPropertyOp19
 70
     1
102
RTVSPropertyOp20
 70
     1
102
RTVSPropertyOp21
 70
     1
102
RTVSPropertyOp22
 70
     1
102
RTVSPropertyOp23
 70
     1
102
RTVSPropertyOp24
 70
     1
102
RTVSPropertyOp25
 70
     1
102
RTVSPropertyOp26
 70
     1
102
RTVSPropertyOp27
 70
     1
  0
XRECORD
  5
6CD
102
{ACAD_REACTORS
330
6CC
102
}
330
6CC
100
AcDbXrecord
280
     1
102
RTVSPropertyOp0
 70
     1
102
RTVSPropertyOp1
 70
     1
102
RTVSPropertyOp2
 70
     1
102
RTVSPropertyOp3
 70
     1
102
RTVSPropertyOp4
 70
     1
102
RTVSPropertyOp5
 70
     1
102
RTVSPropertyOp6
 70
     1
102
RTVSPropertyOp7
 70
     1
102
RTVSPropertyOp8
 70
     1
102
RTVSPropertyOp9
 70
     1
102
RTVSPropertyOp10
 70
     1
102
RTVSPropertyOp11
 70
     1
102
RTVSPropertyOp12
 70
     1
102
RTVSPropertyOp13
 70
     1
102
RTVSPropertyOp14
 70
     1
102
RTVSPropertyOp15
 70
     1
102
RTVSPropertyOp16
 70
     1
102
RTVSPropertyOp17
 70
     1
102
RTVSPropertyOp18
 70
     1
102
RTVSPropertyOp19
 70
     1
102
RTVSPropertyOp20
 70
     1
102
RTVSPropertyOp21
 70
     1
102
RTVSPropertyOp22
 70
     1
102
RTVSPropertyOp23
 70
     1
102
RTVSPropertyOp24
 70
     1
102
RTVSPropertyOp25
 70
     1
102
RTVSPropertyOp26
 70
     1
102
RTVSPropertyOp27
 70
     1
  0
XRECORD
  5
6CB
102
{ACAD_REACTORS
330
6CA
102
}
330
6CA
100
AcDbXrecord
280
     1
102
RTVSPropertyOp0
 70
     1
102
RTVSPropertyOp1
 70
     1
102
RTVSPropertyOp2
 70
     1
102
RTVSPropertyOp3
 70
     1
102
RTVSPropertyOp4
 70
     1
102
RTVSPropertyOp5
 70
     1
102
RTVSPropertyOp6
 70
     1
102
RTVSPropertyOp7
 70
     1
102
RTVSPropertyOp8
 70
     1
102
RTVSPropertyOp9
 70
     1
102
RTVSPropertyOp10
 70
     1
102
RTVSPropertyOp11
 70
     1
102
RTVSPropertyOp12
 70
     1
102
RTVSPropertyOp13
 70
     1
102
RTVSPropertyOp14
 70
     1
102
RTVSPropertyOp15
 70
     1
102
RTVSPropertyOp16
 70
     1
102
RTVSPropertyOp17
 70
     1
102
RTVSPropertyOp18
 70
     1
102
RTVSPropertyOp19
 70
     1
102
RTVSPropertyOp20
 70
     1
102
RTVSPropertyOp21
 70
     1
102
RTVSPropertyOp22
 70
     1
102
RTVSPropertyOp23
 70
     1
102
RTVSPropertyOp24
 70
     1
102
RTVSPropertyOp25
 70
     1
102
RTVSPropertyOp26
 70
     1
102
RTVSPropertyOp27
 70
     1
  0
XRECORD
  5
6C7
102
{ACAD_REACTORS
330
6C6
102
}
330
6C6
100
AcDbXrecord
280
     1
102
RTVSPropertyOp0
 70
     1
102
RTVSPropertyOp1
 70
     1
102
RTVSPropertyOp2
 70
     1
102
RTVSPropertyOp3
 70
     1
102
RTVSPropertyOp4
 70
     1
102
RTVSPropertyOp5
 70
     1
102
RTVSPropertyOp6
 70
     1
102
RTVSPropertyOp7
 70
     1
102
RTVSPropertyOp8
 70
     1
102
RTVSPropertyOp9
 70
     1
102
RTVSPropertyOp10
 70
     1
102
RTVSPropertyOp11
 70
     1
102
RTVSPropertyOp12
 70
     1
102
RTVSPropertyOp13
 70
     1
102
RTVSPropertyOp14
 70
     1
102
RTVSPropertyOp15
 70
     1
102
RTVSPropertyOp16
 70
     1
102
RTVSPropertyOp17
 70
     1
102
RTVSPropertyOp18
 70
     1
102
RTVSPropertyOp19
 70
     1
102
RTVSPropertyOp20
 70
     1
102
RTVSPropertyOp21
 70
     1
102
RTVSPropertyOp22
 70
     1
102
RTVSPropertyOp23
 70
     1
102
RTVSPropertyOp24
 70
     1
102
RTVSPropertyOp25
 70
     1
102
RTVSPropertyOp26
 70
     1
102
RTVSPropertyOp27
 70
     1
  0
XRECORD
  5
6D5
102
{ACAD_REACTORS
330
6D4
102
}
330
6D4
100
AcDbXrecord
280
     1
102
RTVSPropertyOp0
 70
     1
102
RTVSPropertyOp1
 70
     1
102
RTVSPropertyOp2
 70
     1
102
RTVSPropertyOp3
 70
     1
102
RTVSPropertyOp4
 70
     1
102
RTVSPropertyOp5
 70
     1
102
RTVSPropertyOp6
 70
     1
102
RTVSPropertyOp7
 70
     1
102
RTVSPropertyOp8
 70
     1
102
RTVSPropertyOp9
 70
     1
102
RTVSPropertyOp10
 70
     1
102
RTVSPropertyOp11
 70
     1
102
RTVSPropertyOp12
 70
     1
102
RTVSPropertyOp13
 70
     1
102
RTVSPropertyOp14
 70
     1
102
RTVSPropertyOp15
 70
     1
102
RTVSPropertyOp16
 70
     1
102
RTVSPropertyOp17
 70
     1
102
RTVSPropertyOp18
 70
     1
102
RTVSPropertyOp19
 70
     1
102
RTVSPropertyOp20
 70
     1
102
RTVSPropertyOp21
 70
     1
102
RTVSPropertyOp22
 70
     1
102
RTVSPropertyOp23
 70
     1
102
RTVSPropertyOp24
 70
     1
102
RTVSPropertyOp25
 70
     1
102
RTVSPropertyOp26
 70
     1
102
RTVSPropertyOp27
 70
     1
  0
XRECORD
  5
6DD
102
{ACAD_REACTORS
330
6DC
102
}
330
6DC
100
AcDbXrecord
280
     1
102
RTVSPropertyOp0
 70
     1
102
RTVSPropertyOp1
 70
     1
102
RTVSPropertyOp2
 70
     1
102
RTVSPropertyOp3
 70
     1
102
RTVSPropertyOp4
 70
     1
102
RTVSPropertyOp5
 70
     1
102
RTVSPropertyOp6
 70
     1
102
RTVSPropertyOp7
 70
     1
102
RTVSPropertyOp8
 70
     1
102
RTVSPropertyOp9
 70
     1
102
RTVSPropertyOp10
 70
     1
102
RTVSPropertyOp11
 70
     1
102
RTVSPropertyOp12
 70
     1
102
RTVSPropertyOp13
 70
     1
102
RTVSPropertyOp14
 70
     1
102
RTVSPropertyOp15
 70
     1
102
RTVSPropertyOp16
 70
     1
102
RTVSPropertyOp17
 70
     1
102
RTVSPropertyOp18
 70
     1
102
RTVSPropertyOp19
 70
     1
102
RTVSPropertyOp20
 70
     1
102
RTVSPropertyOp21
 70
     1
102
RTVSPropertyOp22
 70
     1
102
RTVSPropertyOp23
 70
     1
102
RTVSPropertyOp24
 70
     1
102
RTVSPropertyOp25
 70
     1
102
RTVSPropertyOp26
 70
     1
102
RTVSPropertyOp27
 70
     1
  0
XRECORD
  5
6CF
102
{ACAD_REACTORS
330
6CE
102
}
330
6CE
100
AcDbXrecord
280
     1
102
RTVSPropertyOp0
 70
     1
102
RTVSPropertyOp1
 70
     1
102
RTVSPropertyOp2
 70
     1
102
RTVSPropertyOp3
 70
     1
102
RTVSPropertyOp4
 70
     1
102
RTVSPropertyOp5
 70
     1
102
RTVSPropertyOp6
 70
     1
102
RTVSPropertyOp7
 70
     1
102
RTVSPropertyOp8
 70
     1
102
RTVSPropertyOp9
 70
     1
102
RTVSPropertyOp10
 70
     1
102
RTVSPropertyOp11
 70
     1
102
RTVSPropertyOp12
 70
     1
102
RTVSPropertyOp13
 70
     1
102
RTVSPropertyOp14
 70
     1
102
RTVSPropertyOp15
 70
     1
102
RTVSPropertyOp16
 70
     1
102
RTVSPropertyOp17
 70
     1
102
RTVSPropertyOp18
 70
     1
102
RTVSPropertyOp19
 70
     1
102
RTVSPropertyOp20
 70
     1
102
RTVSPropertyOp21
 70
     1
102
RTVSPropertyOp22
 70
     1
102
RTVSPropertyOp23
 70
     1
102
RTVSPropertyOp24
 70
     1
102
RTVSPropertyOp25
 70
     1
102
RTVSPropertyOp26
 70
     1
102
RTVSPropertyOp27
 70
     1
  0
XRECORD
  5
6D3
102
{ACAD_REACTORS
330
6D2
102
}
330
6D2
100
AcDbXrecord
280
     1
102
RTVSPropertyOp0
 70
     1
102
RTVSPropertyOp1
 70
     1
102
RTVSPropertyOp2
 70
     1
102
RTVSPropertyOp3
 70
     1
102
RTVSPropertyOp4
 70
     1
102
RTVSPropertyOp5
 70
     1
102
RTVSPropertyOp6
 70
     1
102
RTVSPropertyOp7
 70
     1
102
RTVSPropertyOp8
 70
     1
102
RTVSPropertyOp9
 70
     1
102
RTVSPropertyOp10
 70
     1
102
RTVSPropertyOp11
 70
     1
102
RTVSPropertyOp12
 70
     1
102
RTVSPropertyOp13
 70
     1
102
RTVSPropertyOp14
 70
     1
102
RTVSPropertyOp15
 70
     1
102
RTVSPropertyOp16
 70
     1
102
RTVSPropertyOp17
 70
     1
102
RTVSPropertyOp18
 70
     1
102
RTVSPropertyOp19
 70
     1
102
RTVSPropertyOp20
 70
     1
102
RTVSPropertyOp21
 70
     1
102
RTVSPropertyOp22
 70
     1
102
RTVSPropertyOp23
 70
     1
102
RTVSPropertyOp24
 70
     1
102
RTVSPropertyOp25
 70
     1
102
RTVSPropertyOp26
 70
     1
102
RTVSPropertyOp27
 70
     1
  0
XRECORD
  5
6E3
102
{ACAD_REACTORS
330
6E2
102
}
330
6E2
100
AcDbXrecord
280
     1
102
RTVSPropertyOp0
 70
     0
102
RTVSPropertyOp1
 70
     0
102
RTVSPropertyOp2
 70
     0
102
RTVSPropertyOp3
 70
     0
102
RTVSPropertyOp4
 70
     0
102
RTVSPropertyOp5
 70
     0
102
RTVSPropertyOp6
 70
     0
102
RTVSPropertyOp7
 70
     0
102
RTVSPropertyOp8
 70
     0
102
RTVSPropertyOp9
 70
     0
102
RTVSPropertyOp10
 70
     0
102
RTVSPropertyOp11
 70
     0
102
RTVSPropertyOp12
 70
     0
102
RTVSPropertyOp13
 70
     0
102
RTVSPropertyOp14
 70
     2
102
RTVSPropertyOp15
 70
     0
102
RTVSPropertyOp16
 70
     0
102
RTVSPropertyOp17
 70
     0
102
RTVSPropertyOp18
 70
     0
102
RTVSPropertyOp19
 70
     0
102
RTVSPropertyOp20
 70
     0
102
RTVSPropertyOp21
 70
     0
102
RTVSPropertyOp22
 70
     0
102
RTVSPropertyOp23
 70
     0
102
RTVSPropertyOp24
 70
     0
102
RTVSPropertyOp25
 70
     0
102
RTVSPropertyOp26
 70
     0
102
RTVSPropertyOp27
 70
     0
  0
XRECORD
  5
6DB
102
{ACAD_REACTORS
330
6DA
102
}
330
6DA
100
AcDbXrecord
280
     1
102
RTVSPropertyOp0
 70
     1
102
RTVSPropertyOp1
 70
     1
102
RTVSPropertyOp2
 70
     1
102
RTVSPropertyOp3
 70
     1
102
RTVSPropertyOp4
 70
     1
102
RTVSPropertyOp5
 70
     1
102
RTVSPropertyOp6
 70
     1
102
RTVSPropertyOp7
 70
     1
102
RTVSPropertyOp8
 70
     1
102
RTVSPropertyOp9
 70
     1
102
RTVSPropertyOp10
 70
     1
102
RTVSPropertyOp11
 70
     1
102
RTVSPropertyOp12
 70
     1
102
RTVSPropertyOp13
 70
     1
102
RTVSPropertyOp14
 70
     1
102
RTVSPropertyOp15
 70
     1
102
RTVSPropertyOp16
 70
     1
102
RTVSPropertyOp17
 70
     1
102
RTVSPropertyOp18
 70
     1
102
RTVSPropertyOp19
 70
     1
102
RTVSPropertyOp20
 70
     1
102
RTVSPropertyOp21
 70
     1
102
RTVSPropertyOp22
 70
     1
102
RTVSPropertyOp23
 70
     1
102
RTVSPropertyOp24
 70
     1
102
RTVSPropertyOp25
 70
     1
102
RTVSPropertyOp26
 70
     1
102
RTVSPropertyOp27
 70
     1
  0
XRECORD
  5
6BF
102
{ACAD_REACTORS
330
6BE
102
}
330
6BE
100
AcDbXrecord
280
     1
102
RTVSPropertyOp0
 70
     1
102
RTVSPropertyOp1
 70
     1
102
RTVSPropertyOp2
 70
     1
102
RTVSPropertyOp3
 70
     1
102
RTVSPropertyOp4
 70
     1
102
RTVSPropertyOp5
 70
     1
102
RTVSPropertyOp6
 70
     1
102
RTVSPropertyOp7
 70
     1
102
RTVSPropertyOp8
 70
     1
102
RTVSPropertyOp9
 70
     1
102
RTVSPropertyOp10
 70
     1
102
RTVSPropertyOp11
 70
     1
102
RTVSPropertyOp12
 70
     1
102
RTVSPropertyOp13
 70
     1
102
RTVSPropertyOp14
 70
     1
102
RTVSPropertyOp15
 70
     1
102
RTVSPropertyOp16
 70
     1
102
RTVSPropertyOp17
 70
     1
102
RTVSPropertyOp18
 70
     1
102
RTVSPropertyOp19
 70
     1
102
RTVSPropertyOp20
 70
     1
102
RTVSPropertyOp21
 70
     1
102
RTVSPropertyOp22
 70
     1
102
RTVSPropertyOp23
 70
     1
102
RTVSPropertyOp24
 70
     1
102
RTVSPropertyOp25
 70
     1
102
RTVSPropertyOp26
 70
     1
102
RTVSPropertyOp27
 70
     1
  0
XRECORD
  5
6C1
102
{ACAD_REACTORS
330
6C0
102
}
330
6C0
100
AcDbXrecord
280
     1
102
RTVSPropertyOp0
 70
     1
102
RTVSPropertyOp1
 70
     1
102
RTVSPropertyOp2
 70
     1
102
RTVSPropertyOp3
 70
     1
102
RTVSPropertyOp4
 70
     1
102
RTVSPropertyOp5
 70
     1
102
RTVSPropertyOp6
 70
     1
102
RTVSPropertyOp7
 70
     1
102
RTVSPropertyOp8
 70
     1
102
RTVSPropertyOp9
 70
     1
102
RTVSPropertyOp10
 70
     1
102
RTVSPropertyOp11
 70
     1
102
RTVSPropertyOp12
 70
     1
102
RTVSPropertyOp13
 70
     1
102
RTVSPropertyOp14
 70
     1
102
RTVSPropertyOp15
 70
     1
102
RTVSPropertyOp16
 70
     1
102
RTVSPropertyOp17
 70
     1
102
RTVSPropertyOp18
 70
     1
102
RTVSPropertyOp19
 70
     1
102
RTVSPropertyOp20
 70
     1
102
RTVSPropertyOp21
 70
     1
102
RTVSPropertyOp22
 70
     1
102
RTVSPropertyOp23
 70
     1
102
RTVSPropertyOp24
 70
     1
102
RTVSPropertyOp25
 70
     1
102
RTVSPropertyOp26
 70
     1
102
RTVSPropertyOp27
 70
     1
  0
XRECORD
  5
6C3
102
{ACAD_REACTORS
330
6C2
102
}
330
6C2
100
AcDbXrecord
280
     1
102
RTVSPropertyOp0
 70
     1
102
RTVSPropertyOp1
 70
     1
102
RTVSPropertyOp2
 70
     1
102
RTVSPropertyOp3
 70
     1
102
RTVSPropertyOp4
 70
     1
102
RTVSPropertyOp5
 70
     1
102
RTVSPropertyOp6
 70
     1
102
RTVSPropertyOp7
 70
     1
102
RTVSPropertyOp8
 70
     1
102
RTVSPropertyOp9
 70
     1
102
RTVSPropertyOp10
 70
     1
102
RTVSPropertyOp11
 70
     1
102
RTVSPropertyOp12
 70
     1
102
RTVSPropertyOp13
 70
     1
102
RTVSPropertyOp14
 70
     1
102
RTVSPropertyOp15
 70
     1
102
RTVSPropertyOp16
 70
     1
102
RTVSPropertyOp17
 70
     1
102
RTVSPropertyOp18
 70
     1
102
RTVSPropertyOp19
 70
     1
102
RTVSPropertyOp20
 70
     1
102
RTVSPropertyOp21
 70
     1
102
RTVSPropertyOp22
 70
     1
102
RTVSPropertyOp23
 70
     1
102
RTVSPropertyOp24
 70
     1
102
RTVSPropertyOp25
 70
     1
102
RTVSPropertyOp26
 70
     1
102
RTVSPropertyOp27
 70
     1
  0
XRECORD
  5
6C5
102
{ACAD_REACTORS
330
6C4
102
}
330
6C4
100
AcDbXrecord
280
     1
102
RTVSPropertyOp0
 70
     1
102
RTVSPropertyOp1
 70
     1
102
RTVSPropertyOp2
 70
     1
102
RTVSPropertyOp3
 70
     1
102
RTVSPropertyOp4
 70
     1
102
RTVSPropertyOp5
 70
     1
102
RTVSPropertyOp6
 70
     1
102
RTVSPropertyOp7
 70
     1
102
RTVSPropertyOp8
 70
     1
102
RTVSPropertyOp9
 70
     1
102
RTVSPropertyOp10
 70
     1
102
RTVSPropertyOp11
 70
     1
102
RTVSPropertyOp12
 70
     1
102
RTVSPropertyOp13
 70
     1
102
RTVSPropertyOp14
 70
     1
102
RTVSPropertyOp15
 70
     1
102
RTVSPropertyOp16
 70
     1
102
RTVSPropertyOp17
 70
     1
102
RTVSPropertyOp18
 70
     1
102
RTVSPropertyOp19
 70
     1
102
RTVSPropertyOp20
 70
     1
102
RTVSPropertyOp21
 70
     1
102
RTVSPropertyOp22
 70
     1
102
RTVSPropertyOp23
 70
     1
102
RTVSPropertyOp24
 70
     1
102
RTVSPropertyOp25
 70
     1
102
RTVSPropertyOp26
 70
     1
102
RTVSPropertyOp27
 70
     1
  0
XRECORD
  5
6DF
102
{ACAD_REACTORS
330
6DE
102
}
330
6DE
100
AcDbXrecord
280
     1
102
RTVSPropertyOp0
 70
     0
102
RTVSPropertyOp1
 70
     0
102
RTVSPropertyOp2
 70
     0
102
RTVSPropertyOp3
 70
     0
102
RTVSPropertyOp4
 70
     0
102
RTVSPropertyOp5
 70
     0
102
RTVSPropertyOp6
 70
     0
102
RTVSPropertyOp7
 70
     0
102
RTVSPropertyOp8
 70
     0
102
RTVSPropertyOp9
 70
     0
102
RTVSPropertyOp10
 70
     0
102
RTVSPropertyOp11
 70
     0
102
RTVSPropertyOp12
 70
     0
102
RTVSPropertyOp13
 70
     0
102
RTVSPropertyOp14
 70
     2
102
RTVSPropertyOp15
 70
     0
102
RTVSPropertyOp16
 70
     0
102
RTVSPropertyOp17
 70
     0
102
RTVSPropertyOp18
 70
     0
102
RTVSPropertyOp19
 70
     0
102
RTVSPropertyOp20
 70
     0
102
RTVSPropertyOp21
 70
     0
102
RTVSPropertyOp22
 70
     0
102
RTVSPropertyOp23
 70
     0
102
RTVSPropertyOp24
 70
     0
102
RTVSPropertyOp25
 70
     0
102
RTVSPropertyOp26
 70
     0
102
RTVSPropertyOp27
 70
     0
  0
XRECORD
  5
6D9
102
{ACAD_REACTORS
330
6D8
102
}
330
6D8
100
AcDbXrecord
280
     1
102
RTVSPropertyOp0
 70
     1
102
RTVSPropertyOp1
 70
     1
102
RTVSPropertyOp2
 70
     1
102
RTVSPropertyOp3
 70
     1
102
RTVSPropertyOp4
 70
     1
102
RTVSPropertyOp5
 70
     1
102
RTVSPropertyOp6
 70
     1
102
RTVSPropertyOp7
 70
     1
102
RTVSPropertyOp8
 70
     1
102
RTVSPropertyOp9
 70
     1
102
RTVSPropertyOp10
 70
     1
102
RTVSPropertyOp11
 70
     1
102
RTVSPropertyOp12
 70
     1
102
RTVSPropertyOp13
 70
     1
102
RTVSPropertyOp14
 70
     1
102
RTVSPropertyOp15
 70
     1
102
RTVSPropertyOp16
 70
     1
102
RTVSPropertyOp17
 70
     1
102
RTVSPropertyOp18
 70
     1
102
RTVSPropertyOp19
 70
     1
102
RTVSPropertyOp20
 70
     1
102
RTVSPropertyOp21
 70
     1
102
RTVSPropertyOp22
 70
     1
102
RTVSPropertyOp23
 70
     1
102
RTVSPropertyOp24
 70
     1
102
RTVSPropertyOp25
 70
     1
102
RTVSPropertyOp26
 70
     1
102
RTVSPropertyOp27
 70
     1
  0
XRECORD
  5
6E1
102
{ACAD_REACTORS
330
6E0
102
}
330
6E0
100
AcDbXrecord
280
     1
102
RTVSPropertyOp0
 70
     0
102
RTVSPropertyOp1
 70
     0
102
RTVSPropertyOp2
 70
     0
102
RTVSPropertyOp3
 70
     0
102
RTVSPropertyOp4
 70
     0
102
RTVSPropertyOp5
 70
     0
102
RTVSPropertyOp6
 70
     0
102
RTVSPropertyOp7
 70
     0
102
RTVSPropertyOp8
 70
     0
102
RTVSPropertyOp9
 70
     0
102
RTVSPropertyOp10
 70
     0
102
RTVSPropertyOp11
 70
     0
102
RTVSPropertyOp12
 70
     0
102
RTVSPropertyOp13
 70
     0
102
RTVSPropertyOp14
 70
     2
102
RTVSPropertyOp15
 70
     0
102
RTVSPropertyOp16
 70
     0
102
RTVSPropertyOp17
 70
     0
102
RTVSPropertyOp18
 70
     0
102
RTVSPropertyOp19
 70
     0
102
RTVSPropertyOp20
 70
     0
102
RTVSPropertyOp21
 70
     0
102
RTVSPropertyOp22
 70
     0
102
RTVSPropertyOp23
 70
     0
102
RTVSPropertyOp24
 70
     0
102
RTVSPropertyOp25
 70
     0
102
RTVSPropertyOp26
 70
     0
102
RTVSPropertyOp27
 70
     0
  0
XRECORD
  5
6D1
102
{ACAD_REACTORS
330
6D0
102
}
330
6D0
100
AcDbXrecord
280
     1
102
RTVSPropertyOp0
 70
     1
102
RTVSPropertyOp1
 70
     1
102
RTVSPropertyOp2
 70
     1
102
RTVSPropertyOp3
 70
     1
102
RTVSPropertyOp4
 70
     1
102
RTVSPropertyOp5
 70
     1
102
RTVSPropertyOp6
 70
     1
102
RTVSPropertyOp7
 70
     1
102
RTVSPropertyOp8
 70
     1
102
RTVSPropertyOp9
 70
     1
102
RTVSPropertyOp10
 70
     1
102
RTVSPropertyOp11
 70
     1
102
RTVSPropertyOp12
 70
     1
102
RTVSPropertyOp13
 70
     1
102
RTVSPropertyOp14
 70
     1
102
RTVSPropertyOp15
 70
     1
102
RTVSPropertyOp16
 70
     1
102
RTVSPropertyOp17
 70
     1
102
RTVSPropertyOp18
 70
     1
102
RTVSPropertyOp19
 70
     1
102
RTVSPropertyOp20
 70
     1
102
RTVSPropertyOp21
 70
     1
102
RTVSPropertyOp22
 70
     1
102
RTVSPropertyOp23
 70
     1
102
RTVSPropertyOp24
 70
     1
102
RTVSPropertyOp25
 70
     1
102
RTVSPropertyOp26
 70
     1
102
RTVSPropertyOp27
 70
     1
  0
XRECORD
  5
6D7
102
{ACAD_REACTORS
330
6D6
102
}
330
6D6
100
AcDbXrecord
280
     1
102
RTVSPropertyOp0
 70
     1
102
RTVSPropertyOp1
 70
     1
102
RTVSPropertyOp2
 70
     1
102
RTVSPropertyOp3
 70
     1
102
RTVSPropertyOp4
 70
     1
102
RTVSPropertyOp5
 70
     1
102
RTVSPropertyOp6
 70
     1
102
RTVSPropertyOp7
 70
     1
102
RTVSPropertyOp8
 70
     1
102
RTVSPropertyOp9
 70
     1
102
RTVSPropertyOp10
 70
     1
102
RTVSPropertyOp11
 70
     1
102
RTVSPropertyOp12
 70
     1
102
RTVSPropertyOp13
 70
     1
102
RTVSPropertyOp14
 70
     1
102
RTVSPropertyOp15
 70
     1
102
RTVSPropertyOp16
 70
     1
102
RTVSPropertyOp17
 70
     1
102
RTVSPropertyOp18
 70
     1
102
RTVSPropertyOp19
 70
     1
102
RTVSPropertyOp20
 70
     1
102
RTVSPropertyOp21
 70
     1
102
RTVSPropertyOp22
 70
     1
102
RTVSPropertyOp23
 70
     1
102
RTVSPropertyOp24
 70
     1
102
RTVSPropertyOp25
 70
     1
102
RTVSPropertyOp26
 70
     1
102
RTVSPropertyOp27
 70
     1
  0
ENDSEC
  0
EOF
