  0
SECTION
  2
HEADER
  9
$ACADVER
  1
AC1015
  9
$ACADMAINTVER
 70
     6
  9
$DWGCODEPAGE
  3
ANSI_1252
  9
$INSBASE
 10
0.0
 20
0.0
 30
0.0
  9
$EXTMIN
 10
0.0
 20
0.0
 30
0.0
  9
$EXTMAX
 10
420.0
 20
297.0
 30
0.0
  9
$LIMMIN
 10
0.0
 20
0.0
  9
$LIMMAX
 10
420.0
 20
297.0
  9
$ORTHOMODE
 70
     0
  9
$REGENMODE
 70
     1
  9
$FILLMODE
 70
     1
  9
$QTEXTMODE
 70
     0
  9
$MIRRTEXT
 70
     1
  9
$LTSCALE
 40
1.0
  9
$ATTMODE
 70
     1
  9
$TEXTSIZE
 40
3.5
  9
$TRACEWID
 40
1.0
  9
$TEXTSTYLE
  7
Standard
  9
$CLAYER
  8
0
  9
$CELTYPE
  6
ByLayer
  9
$CECOLOR
 62
   256
  9
$CELTSCALE
 40
1.0
  9
$DISPSILH
 70
     0
  9
$DIMSCALE
 40
1.0
  9
$DIMASZ
 40
3.5
  9
$DIMEXO
 40
0.1
  9
$DIMDLI
 40
3.75
  9
$DIMRND
 40
0.0
  9
$DIMDLE
 40
0.0
  9
$DIMEXE
 40
1.0
  9
$DIMTP
 40
0.0
  9
$DIMTM
 40
0.0
  9
$DIMTXT
 40
3.5
  9
$DIMCEN
 40
2.5
  9
$DIMTSZ
 40
0.0
  9
$DIMTOL
 70
     0
  9
$DIMLIM
 70
     0
  9
$DIMTIH
 70
     1
  9
$DIMTOH
 70
     1
  9
$DIMSE1
 70
     0
  9
$DIMSE2
 70
     0
  9
$DIMTAD
 70
     1
  9
$DIMZIN
 70
     0
  9
$DIMBLK
  1

  9
$DIMASO
 70
     1
  9
$DIMSHO
 70
     1
  9
$DIMPOST
  1

  9
$DIMAPOST
  1

  9
$DIMALT
 70
     0
  9
$DIMALTD
 70
     3
  9
$DIMALTF
 40
0.0393700787
  9
$DIMLFAC
 40
1.0
  9
$DIMTOFL
 70
     1
  9
$DIMTVP
 40
0.0
  9
$DIMTIX
 70
     0
  9
$DIMSOXD
 70
     0
  9
$DIMSAH
 70
     0
  9
$DIMBLK1
  1

  9
$DIMBLK2
  1

  9
$DIMSTYLE
  2
ISO-25
  9
$DIMCLRD
 70
     0
  9
$DIMCLRE
 70
     0
  9
$DIMCLRT
 70
     0
  9
$DIMTFAC
 40
1.0
  9
$DIMGAP
 40
2.0
  9
$DIMJUST
 70
     0
  9
$DIMSD1
 70
     0
  9
$DIMSD2
 70
     0
  9
$DIMTOLJ
 70
     0
  9
$DIMTZIN
 70
     0
  9
$DIMALTZ
 70
     0
  9
$DIMALTTZ
 70
     0
  9
$DIMUPT
 70
     0
  9
$DIMDEC
 70
     2
  9
$DIMTDEC
 70
     3
  9
$DIMALTU
 70
     2
  9
$DIMALTTD
 70
     3
  9
$DIMTXSTY
  7
Standard
  9
$DIMAUNIT
 70
     0
  9
$DIMADEC
 70
     2
  9
$DIMALTRND
 40
0.0
  9
$DIMAZIN
 70
     0
  9
$DIMDSEP
 70
    44
  9
$DIMATFIT
 70
     3
  9
$DIMFRAC
 70
     0
  9
$DIMLDRBLK
  1

  9
$DIMLUNIT
 70
     2
  9
$DIMLWD
 70
    -2
  9
$DIMLWE
 70
    -2
  9
$DIMTMOVE
 70
     0
  9
$LUNITS
 70
     2
  9
$LUPREC
 70
     2
  9
$SKETCHINC
 40
1.0
  9
$FILLETRAD
 40
10.0
  9
$AUNITS
 70
     0
  9
$AUPREC
 70
     2
  9
$MENU
  1
.
  9
$ELEVATION
 40
0.0
  9
$PELEVATION
 40
0.0
  9
$THICKNESS
 40
0.0
  9
$LIMCHECK
 70
     0
  9
$CHAMFERA
 40
0.0
  9
$CHAMFERB
 40
0.0
  9
$CHAMFERC
 40
0.0
  9
$CHAMFERD
 40
0.0
  9
$SKPOLY
 70
     0
  9
$TDCREATE
 40
2460540.499458588
  9
$TDUCREATE
 40
2460540.416125255
  9
$TDUPDATE
 40
2460540.499462025
  9
$TDUUPDATE
 40
2460540.416128692
  9
$TDINDWG
 40
0.0000000116
  9
$TDUSRTIMER
 40
0.0000000116
  9
$USRTIMER
 70
     1
  9
$ANGBASE
 50
0.0
  9
$ANGDIR
 70
     0
  9
$PDMODE
 70
     0
  9
$PDSIZE
 40
-1.0
  9
$PLINEWID
 40
0.0
  9
$SPLFRAME
 70
     0
  9
$SPLINETYPE
 70
     6
  9
$SPLINESEGS
 70
     8
  9
$HANDSEED
  5
3A7
  9
$SURFTAB1
 70
     6
  9
$SURFTAB2
 70
     6
  9
$SURFTYPE
 70
     6
  9
$SURFU
 70
     6
  9
$SURFV
 70
     6
  9
$UCSBASE
  2

  9
$UCSNAME
  2

  9
$UCSORG
 10
0.0
 20
0.0
 30
0.0
  9
$UCSXDIR
 10
1.0
 20
0.0
 30
0.0
  9
$UCSYDIR
 10
0.0
 20
1.0
 30
0.0
  9
$UCSORTHOREF
  2

  9
$UCSORTHOVIEW
 70
     0
  9
$UCSORGTOP
 10
0.0
 20
0.0
 30
0.0
  9
$UCSORGBOTTOM
 10
0.0
 20
0.0
 30
0.0
  9
$UCSORGLEFT
 10
0.0
 20
0.0
 30
0.0
  9
$UCSORGRIGHT
 10
0.0
 20
0.0
 30
0.0
  9
$UCSORGFRONT
 10
0.0
 20
0.0
 30
0.0
  9
$UCSORGBACK
 10
0.0
 20
0.0
 30
0.0
  9
$PUCSBASE
  2

  9
$PUCSNAME
  2

  9
$PUCSORG
 10
0.0
 20
0.0
 30
0.0
  9
$PUCSXDIR
 10
1.0
 20
0.0
 30
0.0
  9
$PUCSYDIR
 10
0.0
 20
1.0
 30
0.0
  9
$PUCSORTHOREF
  2

  9
$PUCSORTHOVIEW
 70
     0
  9
$PUCSORGTOP
 10
0.0
 20
0.0
 30
0.0
  9
$PUCSORGBOTTOM
 10
0.0
 20
0.0
 30
0.0
  9
$PUCSORGLEFT
 10
0.0
 20
0.0
 30
0.0
  9
$PUCSORGRIGHT
 10
0.0
 20
0.0
 30
0.0
  9
$PUCSORGFRONT
 10
0.0
 20
0.0
 30
0.0
  9
$PUCSORGBACK
 10
0.0
 20
0.0
 30
0.0
  9
$USERI1
 70
     0
  9
$USERI2
 70
     0
  9
$USERI3
 70
     0
  9
$USERI4
 70
     0
  9
$USERI5
 70
     0
  9
$USERR1
 40
0.0
  9
$USERR2
 40
0.0
  9
$USERR3
 40
0.0
  9
$USERR4
 40
0.0
  9
$USERR5
 40
0.0
  9
$WORLDVIEW
 70
     1
  9
$SHADEDGE
 70
     3
  9
$SHADEDIF
 70
    70
  9
$TILEMODE
 70
     1
  9
$MAXACTVP
 70
    64
  9
$PINSBASE
 10
0.0
 20
0.0
 30
0.0
  9
$PLIMCHECK
 70
     0
  9
$PEXTMIN
 10
1.0000000000E+20
 20
1.0000000000E+20
 30
1.0000000000E+20
  9
$PEXTMAX
 10
-1.0000000000E+20
 20
-1.0000000000E+20
 30
-1.0000000000E+20
  9
$PLIMMIN
 10
0.0
 20
0.0
  9
$PLIMMAX
 10
420.0
 20
297.0
  9
$UNITMODE
 70
     0
  9
$VISRETAIN
 70
     1
  9
$PLINEGEN
 70
     0
  9
$PSLTSCALE
 70
     1
  9
$TREEDEPTH
 70
  3020
  9
$CMLSTYLE
  2
Standard
  9
$CMLJUST
 70
     0
  9
$CMLSCALE
 40
20.0
  9
$PROXYGRAPHICS
 70
     1
  9
$MEASUREMENT
 70
     1
  9
$CELWEIGHT
370
    -1
  9
$ENDCAPS
280
     0
  9
$JOINSTYLE
280
     0
  9
$LWDISPLAY
290
     1
  9
$INSUNITS
 70
     4
  9
$HYPERLINKBASE
  1

  9
$STYLESHEET
  1

  9
$XEDIT
290
     1
  9
$CEPSNTYPE
380
     0
  9
$PSTYLEMODE
290
     1
  9
$FINGERPRINTGUID
  2
{d11d3dce-aa8a-4507-a574-26772bc2a3d0}
  9
$VERSIONGUID
  2
{FAEB1C32-E019-11D5-929B-00C0DF256EC4}
  9
$EXTNAMES
290
     1
  9
$PSVPSCALE
 40
0.0
  9
$OLESTARTUP
290
     0
  0
ENDSEC
  0
SECTION
  2
CLASSES
  0
CLASS
  1
ACDBDICTIONARYWDFLT
  2
AcDbDictionaryWithDefault
  3
ObjectDBX Classes
 90
        0
280
     0
281
     0
  0
CLASS
  1
VISUALSTYLE
  2
AcDbVisualStyle
  3
ObjectDBX Classes
 90
     4095
280
     0
281
     0
  0
CLASS
  1
MATERIAL
  2
AcDbMaterial
  3
ObjectDBX Classes
 90
     1153
280
     0
281
     0
  0
CLASS
  1
SCALE
  2
AcDbScale
  3
ObjectDBX Classes
 90
     1153
280
     0
281
     0
  0
CLASS
  1
TABLESTYLE
  2
AcDbTableStyle
  3
ObjectDBX Classes
 90
     4095
280
     0
281
     0
  0
CLASS
  1
MLEADERSTYLE
  2
AcDbMLeaderStyle
  3
ACDB_MLEADERSTYLE_CLASS
 90
     4095
280
     0
281
     0
  0
CLASS
  1
SUN
  2
AcDbSun
  3
SCENEOE
 90
     1153
280
     0
281
     0
  0
CLASS
  1
ACDBPLACEHOLDER
  2
AcDbPlaceHolder
  3
ObjectDBX Classes
 90
        0
280
     0
281
     0
  0
CLASS
  1
LAYOUT
  2
AcDbLayout
  3
ObjectDBX Classes
 90
        0
280
     0
281
     0
  0
ENDSEC
  0
SECTION
  2
TABLES
  0
TABLE
  2
VPORT
  5
8
330
0
100
AcDbSymbolTable
 70
     1
  0
VPORT
  5
29
330
8
100
AcDbSymbolTableRecord
100
AcDbViewportTableRecord
  2
*Active
 70
     0
 10
0.0
 20
0.0
 11
1.0
 21
1.0
 12
210.0
 22
148.5
 13
0.0
 23
0.0
 14
10.0
 24
10.0
 15
10.0
 25
10.0
 16
0.0
 26
0.0
 36
1.0
 17
0.0
 27
0.0
 37
0.0
 40
297.0
 41
1.4141414141
 42
50.0
 43
0.0
 44
0.0
 50
0.0
 51
0.0
 71
     0
 72
  2000
 73
     1
 74
     3
 75
     0
 76
     0
 77
     0
 78
     0
281
     0
 65
     1
110
0.0
120
0.0
130
0.0
111
1.0
121
0.0
131
0.0
112
0.0
122
1.0
132
0.0
 79
     0
146
0.0
  0
ENDTAB
  0
TABLE
  2
LTYPE
  5
5
330
0
100
AcDbSymbolTable
 70
     6
  0
LTYPE
  5
14
330
5
100
AcDbSymbolTableRecord
100
AcDbLinetypeTableRecord
  2
ByBlock
 70
     0
  3

 72
    65
 73
     0
 40
0.0
  0
LTYPE
  5
15
330
5
100
AcDbSymbolTableRecord
100
AcDbLinetypeTableRecord
  2
ByLayer
 70
     0
  3

 72
    65
 73
     0
 40
0.0
  0
LTYPE
  5
16
330
5
100
AcDbSymbolTableRecord
100
AcDbLinetypeTableRecord
  2
Continuous
 70
     0
  3
Solid line
 72
    65
 73
     0
 40
0.0
  0
LTYPE
  5
6E
330
5
100
AcDbSymbolTableRecord
100
AcDbLinetypeTableRecord
  2
HIDDEN
 70
     0
  3
Hidden __ __ __ __ __ __ __ __ __ __ __ __ __ __
 72
    65
 73
     2
 40
1.905
 49
1.27
 74
     0
 49
-0.635
 74
     0
  0
LTYPE
  5
6F
330
5
100
AcDbSymbolTableRecord
100
AcDbLinetypeTableRecord
  2
PHANTOM
 70
     0
  3
Phantom ______  __  __  ______  __  __  ______
 72
    65
 73
     6
 40
12.7
 49
6.35
 74
     0
 49
-1.27
 74
     0
 49
1.27
 74
     0
 49
-1.27
 74
     0
 49
1.27
 74
     0
 49
-1.27
 74
     0
  0
LTYPE
  5
70
330
5
100
AcDbSymbolTableRecord
100
AcDbLinetypeTableRecord
  2
CENTER
 70
     0
  3
Center ____ _ ____ _ ____ _ ____ _ ____ _ ____
 72
    65
 73
     4
 40
10.16
 49
6.35
 74
     0
 49
-1.27
 74
     0
 49
1.27
 74
     0
 49
-1.27
 74
     0
  0
LTYPE
  5
71
330
5
100
AcDbSymbolTableRecord
100
AcDbLinetypeTableRecord
  2
CENTERX2
 70
     0
  3
Center (2x) ________  __  ________  __  _____
 72
    65
 73
     4
 40
20.32
 49
12.7
 74
     0
 49
-2.54
 74
     0
 49
2.54
 74
     0
 49
-2.54
 74
     0
  0
LTYPE
  5
72
330
5
100
AcDbSymbolTableRecord
100
AcDbLinetypeTableRecord
  2
DOT2
 70
     0
  3
Dot (.5x) ........................................
 72
    65
 73
     2
 40
0.635
 49
0.0
 74
     0
 49
-0.635
 74
     0
  0
ENDTAB
  0
TABLE
  2
LAYER
  5
2
330
0
100
AcDbSymbolTable
 70
     1
  0
LAYER
  5
10
330
2
100
AcDbSymbolTableRecord
100
AcDbLayerTableRecord
  2
0
 70
     0
 62
     7
  6
Continuous
370
    -3
390
F
  0
ENDTAB
  0
TABLE
  2
STYLE
  5
3
330
0
100
AcDbSymbolTable
 70
     3
  0
STYLE
  5
11
330
3
100
AcDbSymbolTableRecord
100
AcDbTextStyleTableRecord
  2
Standard
 70
     0
 40
0.0
 41
1.0
 50
0.0
 71
     0
 42
3.5
  3
txt
  4

  0
STYLE
  5
E9
330
3
100
AcDbSymbolTableRecord
100
AcDbTextStyleTableRecord
  2
SLDTEXTSTYLE0
 70
     0
 40
0.0
 41
0.605
 50
0.0
 71
     0
 42
3.5
  3
TXT
  4

  0
STYLE
  5
198
330
3
100
AcDbSymbolTableRecord
100
AcDbTextStyleTableRecord
  2
SLDTEXTSTYLE1
 70
     0
 40
0.0
 41
0.563
 50
0.0
 71
     0
 42
3.5
  3
TXT
  4

  0
ENDTAB
  0
TABLE
  2
VIEW
  5
6
330
0
100
AcDbSymbolTable
 70
     0
  0
ENDTAB
  0
TABLE
  2
UCS
  5
7
330
0
100
AcDbSymbolTable
 70
     0
  0
ENDTAB
  0
TABLE
  2
APPID
  5
9
330
0
100
AcDbSymbolTable
 70
     1
  0
APPID
  5
12
330
9
100
AcDbSymbolTableRecord
100
AcDbRegAppTableRecord
  2
ACAD
 70
     0
  0
ENDTAB
  0
TABLE
  2
DIMSTYLE
  5
A
330
0
100
AcDbSymbolTable
 70
     4
100
AcDbDimStyleTable
  0
DIMSTYLE
105
27
330
A
100
AcDbSymbolTableRecord
100
AcDbDimStyleTableRecord
  2
ISO-25
 70
     0
 41
2.5
 42
0.625
 43
3.75
 44
1.25
 73
     0
 74
     0
 77
     1
 78
     8
140
2.5
141
2.5
143
0.0393700787
147
0.625
171
     3
172
     1
178
     0
271
     2
272
     2
274
     3
278
    44
283
     0
284
     8
340
11
  0
DIMSTYLE
105
233
102
{ACAD_REACTORS
330
232
102
}
330
A
100
AcDbSymbolTableRecord
100
AcDbDimStyleTableRecord
  2
SLDDIMSTYLE0
 70
     0
 41
3.5
 44
0.0
 45
0.000000001
 48
1.0
 71
     1
 73
     0
 74
     0
 77
     1
 78
    12
 79
     3
140
3.5
147
0.875
173
     1
178
     0
271
     2
272
     0
276
     2
284
     8
340
E9
  0
DIMSTYLE
105
24B
102
{ACAD_REACTORS
330
24A
330
255
102
}
330
A
100
AcDbSymbolTableRecord
100
AcDbDimStyleTableRecord
  2
SLDDIMSTYLE1
 70
     0
 41
3.5
 44
0.0
 45
0.000000001
 73
     0
 74
     0
 77
     1
 78
    12
 79
     3
140
3.5
147
0.875
173
     1
178
     0
271
     2
272
     3
276
     2
284
    12
340
E9
  0
DIMSTYLE
105
260
102
{ACAD_REACTORS
330
25F
330
38D
330
399
102
}
330
A
100
AcDbSymbolTableRecord
100
AcDbDimStyleTableRecord
  2
SLDDIMSTYLE2
 70
     0
 41
3.5
 44
0.0
 45
0.000000001
 73
     0
 74
     0
 77
     1
 78
    12
 79
     3
140
3.5
147
0.875
172
     1
173
     1
178
     0
271
     2
272
     3
276
     2
284
    12
289
     0
340
E9
  0
ENDTAB
  0
TABLE
  2
BLOCK_RECORD
  5
1
330
0
100
AcDbSymbolTable
 70
    13
  0
BLOCK_RECORD
  5
1F
330
1
100
AcDbSymbolTableRecord
100
AcDbBlockTableRecord
  2
*Model_Space
340
22
  0
BLOCK_RECORD
  5
1B
330
1
100
AcDbSymbolTableRecord
100
AcDbBlockTableRecord
  2
*Paper_Space
340
1E
  0
BLOCK_RECORD
  5
23
330
1
100
AcDbSymbolTableRecord
100
AcDbBlockTableRecord
  2
*Paper_Space0
340
26
  0
BLOCK_RECORD
  5
73
330
1
100
AcDbSymbolTableRecord
100
AcDbBlockTableRecord
  2
ACO-Logo
340
0
102
{BLKREFS
331
149
102
}
  0
BLOCK_RECORD
  5
E6
330
1
100
AcDbSymbolTableRecord
100
AcDbBlockTableRecord
  2
SW_NOTE_0
340
0
102
{BLKREFS
331
EB
102
}
  0
BLOCK_RECORD
  5
EC
330
1
100
AcDbSymbolTableRecord
100
AcDbBlockTableRecord
  2
SW_NOTE_0_1
340
0
102
{BLKREFS
331
F0
102
}
  0
BLOCK_RECORD
  5
F1
330
1
100
AcDbSymbolTableRecord
100
AcDbBlockTableRecord
  2
SW_NOTE_0_2
340
0
102
{BLKREFS
331
F8
102
}
  0
BLOCK_RECORD
  5
170
330
1
100
AcDbSymbolTableRecord
100
AcDbBlockTableRecord
  2
SW_NOTE_0_3
340
0
102
{BLKREFS
331
178
102
}
  0
BLOCK_RECORD
  5
234
330
1
100
AcDbSymbolTableRecord
100
AcDbBlockTableRecord
  2
_D
340
0
  0
BLOCK_RECORD
  5
23C
330
1
100
AcDbSymbolTableRecord
100
AcDbBlockTableRecord
  2
SW_SYMBOL_MOD_BOX
340
0
102
{BLKREFS
331
243
102
}
  0
BLOCK_RECORD
  5
24C
330
1
100
AcDbSymbolTableRecord
100
AcDbBlockTableRecord
  2
_D_1
340
0
  0
BLOCK_RECORD
  5
256
330
1
100
AcDbSymbolTableRecord
100
AcDbBlockTableRecord
  2
_D_2
340
0
  0
BLOCK_RECORD
  5
261
330
1
100
AcDbSymbolTableRecord
100
AcDbBlockTableRecord
  2
_D_3
340
0
  0
BLOCK_RECORD
  5
38E
330
1
100
AcDbSymbolTableRecord
100
AcDbBlockTableRecord
  2
_D_4
340
0
  0
BLOCK_RECORD
  5
39A
330
1
100
AcDbSymbolTableRecord
100
AcDbBlockTableRecord
  2
_D_5
340
0
  0
ENDTAB
  0
ENDSEC
  0
SECTION
  2
BLOCKS
  0
BLOCK
  5
20
330
1F
100
AcDbEntity
  8
0
100
AcDbBlockBegin
  2
*Model_Space
 70
     0
 10
0.0
 20
0.0
 30
0.0
  3
*Model_Space
  1

  0
ENDBLK
  5
21
330
1F
100
AcDbEntity
  8
0
100
AcDbBlockEnd
  0
BLOCK
  5
1C
330
1B
100
AcDbEntity
 67
     1
  8
0
100
AcDbBlockBegin
  2
*Paper_Space
 70
     0
 10
0.0
 20
0.0
 30
0.0
  3
*Paper_Space
  1

  0
ENDBLK
  5
1D
330
1B
100
AcDbEntity
 67
     1
  8
0
100
AcDbBlockEnd
  0
BLOCK
  5
24
330
23
100
AcDbEntity
  8
0
100
AcDbBlockBegin
  2
*Paper_Space0
 70
     0
 10
0.0
 20
0.0
 30
0.0
  3
*Paper_Space0
  1

  0
ENDBLK
  5
25
330
23
100
AcDbEntity
  8
0
100
AcDbBlockEnd
  0
BLOCK
  5
74
330
73
100
AcDbEntity
  8
0
100
AcDbBlockBegin
  2
ACO-Logo
 70
     0
 10
0.0
 20
0.0
 30
0.0
  3
ACO-Logo
  1

  0
ARC
  5
76
330
73
100
AcDbEntity
  8
0
  6
Continuous
 62
   179
370
    18
100
AcDbCircle
 10
80.3853261169
 20
4.9940995715
 30
0.0
 40
0.3000000000000441
100
AcDbArc
 50
181.9349323096
 51
274.6062978506
  0
ARC
  5
77
330
73
100
AcDbEntity
  8
0
  6
Continuous
 62
   179
370
    18
100
AcDbCircle
 10
81.2359083165
 20
2.1946665956
 30
0.0
 40
1.000000000000021
100
AcDbArc
 50
221.4087409628
 51
276.0561297228
  0
ARC
  5
78
330
73
100
AcDbEntity
  8
0
  6
Continuous
 62
   179
370
    18
100
AcDbCircle
 10
79.1360017163
 20
3.654242048
 30
0.0
 40
0.300000000000004
100
AcDbArc
 50
181.2730300201
 51
274.4996077095
  0
ARC
  5
79
330
73
100
AcDbEntity
  8
0
  6
Continuous
 62
   179
370
    18
100
AcDbCircle
 10
78.7699033484
 20
3.2873137407
 30
0.0
 40
0.4000000000000358
100
AcDbArc
 50
221.0090869016
 51
274.5606296317
  0
ARC
  5
7A
330
73
100
AcDbEntity
  8
0
  6
Continuous
 62
   179
370
    18
100
AcDbCircle
 10
91.2333953062
 20
4.6062442307
 30
0.0
 40
0.3000000000000493
100
AcDbArc
 50
274.4996077095
 51
3.7249371334
  0
ARC
  5
7B
330
73
100
AcDbEntity
  8
0
  6
Continuous
 62
   179
370
    18
100
AcDbCircle
 10
81.5287571045
 20
9.7648973508
 30
0.0
 40
1.00000000000002
100
AcDbArc
 50
93.1134387481
 51
181.9414863909
  0
ARC
  5
7C
330
73
100
AcDbEntity
  8
0
  6
Continuous
 62
   179
370
    18
100
AcDbCircle
 10
81.6051675115
 20
7.5107903456
 30
0.0
 40
1.0
100
AcDbArc
 50
181.9414863909
 51
274.398705355
  0
ARC
  5
7D
330
73
100
AcDbEntity
  8
0
  6
Continuous
 62
   179
370
    18
100
AcDbCircle
 10
80.1506905656
 20
11.9393118923
 30
0.0
 40
0.300000000000045
100
AcDbArc
 50
93.0418421566
 51
181.9349323096
  0
ARC
  5
7E
330
73
100
AcDbEntity
  8
0
  6
Continuous
 62
   179
370
    18
100
AcDbCircle
 10
78.1879722102
 20
12.3499352608
 30
0.0
 40
0.7999999999953393
100
AcDbArc
 50
92.6995697565
 51
148.2554209065
  0
ARC
  5
7F
330
73
100
AcDbEntity
  8
0
  6
Continuous
 62
   179
370
    18
100
AcDbCircle
 10
78.930862229
 20
12.8855189761
 30
0.0
 40
0.3000000000000031
100
AcDbArc
 50
92.6995697565
 51
181.2730300201
  0
ARC
  5
80
330
73
100
AcDbEntity
  8
0
  6
Continuous
 62
   179
370
    18
100
AcDbCircle
 10
82.327743407
 20
9.8083568568
 30
0.0
 40
1.000000000000034
100
AcDbArc
 50
1.9414863909
 51
93.1134387481
  0
ARC
  5
81
330
73
100
AcDbEntity
  8
0
  6
Continuous
 62
   179
370
    18
100
AcDbCircle
 10
81.5287571045
 20
9.7648973508
 30
0.0
 40
0.3625000000000009
100
AcDbArc
 50
93.1134387481
 51
181.9414863909
  0
ARC
  5
82
330
73
100
AcDbEntity
  8
0
  6
Continuous
 62
   179
370
    18
100
AcDbCircle
 10
82.327743407
 20
9.8083568568
 30
0.0
 40
0.3625000000000146
100
AcDbArc
 50
1.9414863909
 51
93.1134387481
  0
ARC
  5
83
330
73
100
AcDbEntity
  8
0
  6
Continuous
 62
   179
370
    18
100
AcDbCircle
 10
82.4035451983
 20
7.5722040138
 30
0.0
 40
1.000000000000008
100
AcDbArc
 50
274.398705355
 51
1.9414863909
  0
ARC
  5
84
330
73
100
AcDbEntity
  8
0
  6
Continuous
 62
   179
370
    18
100
AcDbCircle
 10
82.4035451983
 20
7.5722040138
 30
0.0
 40
0.3625000000000068
100
AcDbArc
 50
274.398705355
 51
1.9414863909
  0
ARC
  5
85
330
73
100
AcDbEntity
  8
0
  6
Continuous
 62
   179
370
    18
100
AcDbCircle
 10
81.6051675115
 20
7.5107903456
 30
0.0
 40
0.3625000000000111
100
AcDbArc
 50
181.9414863909
 51
274.398705355
  0
ARC
  5
86
330
73
100
AcDbEntity
  8
0
  6
Continuous
 62
   179
370
    18
100
AcDbCircle
 10
88.825822761
 20
8.0662148274
 30
0.0
 40
0.9999999999999997
100
AcDbArc
 50
274.398705355
 51
2.6541955134
  0
ARC
  5
87
330
73
100
AcDbEntity
  8
0
  6
Continuous
 62
   179
370
    18
100
AcDbCircle
 10
90.1578295581
 20
5.7814576687
 30
0.0
 40
0.3000000000000043
100
AcDbArc
 50
274.6062978507
 51
2.5147526475
  0
ARC
  5
88
330
73
100
AcDbEntity
  8
0
  6
Continuous
 62
   179
370
    18
100
AcDbCircle
 10
88.825822761
 20
8.0662148274
 30
0.0
 40
0.3625000000000083
100
AcDbArc
 50
274.398705355
 51
2.6541955134
  0
ARC
  5
89
330
73
100
AcDbEntity
  8
0
  6
Continuous
 62
   179
370
    18
100
AcDbCircle
 10
88.728529747
 20
10.16496413
 30
0.0
 40
1.000000000000001
100
AcDbArc
 50
2.6541955134
 51
93.1134387481
  0
ARC
  5
8A
330
73
100
AcDbEntity
  8
0
  6
Continuous
 62
   179
370
    18
100
AcDbCircle
 10
88.728529747
 20
10.16496413
 30
0.0
 40
0.3625000000000085
100
AcDbArc
 50
2.6541955134
 51
93.1134387481
  0
ARC
  5
8B
330
73
100
AcDbEntity
  8
0
  6
Continuous
 62
   179
370
    18
100
AcDbCircle
 10
89.8647121341
 20
12.455515937
 30
0.0
 40
0.2999999999999984
100
AcDbArc
 50
2.5147526475
 51
93.0418421566
  0
ARC
  5
8C
330
73
100
AcDbEntity
  8
0
  6
Continuous
 62
   179
370
    18
100
AcDbCircle
 10
90.6583795404
 20
13.4384863935
 30
0.0
 40
0.2999999999999911
100
AcDbArc
 50
3.7249371334
 51
92.6995697565
  0
CIRCLE
  5
8D
330
73
100
AcDbEntity
  8
0
  6
Continuous
 62
   179
370
    18
100
AcDbCircle
 10
15.7233972286
 20
6.4054930194
 30
0.0
 40
1.579500000000014
  0
CIRCLE
  5
8E
330
73
100
AcDbEntity
  8
0
  6
Continuous
 62
   179
370
    18
100
AcDbCircle
 10
15.7233972286
 20
6.4054930194
 30
0.0
 40
2.281499999999994
  0
ARC
  5
8F
330
73
100
AcDbEntity
  8
0
  6
Continuous
 62
   179
370
    18
100
AcDbCircle
 10
89.7681336026
 20
2.3106616691
 30
0.0
 40
0.098384530246548
100
AcDbArc
 50
332.3802627259
 51
4.9765441602
  0
ARC
  5
90
330
73
100
AcDbEntity
  8
0
  6
Continuous
 62
   179
370
    18
100
AcDbCircle
 10
89.6886560089
 20
2.3522464185
 30
0.0
 40
0.1880839130754018
100
AcDbArc
 50
303.690067526
 51
332.3802627258
  0
ARC
  5
91
330
73
100
AcDbEntity
  8
0
  6
Continuous
 62
   179
370
    18
100
AcDbCircle
 10
89.4849700869
 20
2.6577753016
 30
0.0
 40
0.5552839311631531
100
AcDbArc
 50
287.108652213
 51
303.690067526
  0
ARC
  5
92
330
73
100
AcDbEntity
  8
0
  6
Continuous
 62
   179
370
    18
100
AcDbCircle
 10
88.0513010646
 20
7.3154864882
 30
0.0
 40
5.428648309393203
100
AcDbArc
 50
285.2551187031
 51
287.108652213
  0
ARC
  5
93
330
73
100
AcDbEntity
  8
0
  6
Continuous
 62
   179
370
    18
100
AcDbCircle
 10
89.1317168954
 20
3.3539617753
 30
0.0
 40
1.322436378825653
100
AcDbArc
 50
281.4991866428
 51
285.255118703
  0
ARC
  5
94
330
73
100
AcDbEntity
  8
0
  6
Continuous
 62
   179
370
    18
100
AcDbCircle
 10
89.3198255509
 20
2.4293110075
 30
0.0
 40
0.3788454141584939
100
AcDbArc
 50
279.1917900003
 51
281.499186643
  0
ARC
  5
95
330
73
100
AcDbEntity
  8
0
  6
Continuous
 62
   179
370
    18
100
AcDbCircle
 10
89.0487250788
 20
4.1046569124
 30
0.0
 40
2.07598399629105
100
AcDbArc
 50
277.7634675038
 51
279.1917900002
  0
ARC
  5
96
330
73
100
AcDbEntity
  8
0
  6
Continuous
 62
   179
370
    18
100
AcDbCircle
 10
9.2588909915
 20
6.4054930194
 30
0.0
 40
1.579500000000074
100
AcDbArc
 50
31.0558004991
 51
330.0
  0
ARC
  5
97
330
73
100
AcDbEntity
  8
0
  6
Continuous
 62
   179
370
    18
100
AcDbCircle
 10
9.2588909915
 20
6.4054930194
 30
0.0
 40
2.281500000000107
100
AcDbArc
 50
30.7309172659
 51
330.0
  0
ARC
  5
98
330
73
100
AcDbEntity
  8
0
  6
Continuous
 62
   179
370
    18
100
AcDbCircle
 10
6.1288847544
 20
4.0685261312
 30
0.0
 40
4.914000000000307
100
AcDbArc
 50
172.3058370354
 51
179.7113029221
  0
ARC
  5
99
330
73
100
AcDbEntity
  8
0
  6
Continuous
 62
   179
370
    18
100
AcDbCircle
 10
-0.5401152456
 20
4.0685261312
 30
0.0
 40
4.91400000000019
100
AcDbArc
 50
0.2886970779
 51
7.6941629646
  0
ARC
  5
9A
330
73
100
AcDbEntity
  8
0
  6
Continuous
 62
   179
370
    18
100
AcDbCircle
 10
-0.5401152456
 20
4.0685261312
 30
0.0
 40
5.616000000000127
100
AcDbArc
 50
0.2526096926
 51
53.5764263577
  0
ARC
  5
9B
330
73
100
AcDbEntity
  8
0
  6
Continuous
 62
   179
370
    18
100
AcDbCircle
 10
6.1288847544
 20
4.0685261312
 30
0.0
 40
5.61600000000074
100
AcDbArc
 50
126.4235736423
 51
179.7473903073
  0
ARC
  5
9C
330
73
100
AcDbEntity
  8
0
  6
Continuous
 62
   179
370
    18
100
AcDbCircle
 10
-0.5401152456
 20
4.0685261312
 30
0.0
 40
4.914000000000161
100
AcDbArc
 50
16.0658750272
 51
47.2678899574
  0
ARC
  5
9D
330
73
100
AcDbEntity
  8
0
  6
Continuous
 62
   179
370
    18
100
AcDbCircle
 10
6.1288847544
 20
4.0685261312
 30
0.0
 40
4.914000000000584
100
AcDbArc
 50
132.7321100426
 51
163.9341249728
  0
LINE
  5
9E
330
73
100
AcDbEntity
  8
0
  6
Continuous
 62
   179
370
    18
100
AcDbLine
 10
78.8017089389
 20
2.8885802402
 30
0.0
 11
90.7982178739
 21
3.8455002136
 31
0.0
  0
LINE
  5
9F
330
73
100
AcDbEntity
  8
0
  6
Continuous
 62
   179
370
    18
100
AcDbLine
 10
76.6545490427
 20
5.8693097374
 30
0.0
 11
78.0344191726
 21
3.5235305166
 31
0.0
  0
LINE
  5
A0
330
73
100
AcDbEntity
  8
0
  6
Continuous
 62
   179
370
    18
100
AcDbLine
 10
91.5327615373
 20
4.6257342197
 30
0.0
 11
90.9577457715
 21
13.4579763825
 31
0.0
  0
LINE
  5
A1
330
73
100
AcDbEntity
  8
0
  6
Continuous
 62
   179
370
    18
100
AcDbLine
 10
78.6309362756
 20
12.8788539549
 30
0.0
 11
78.8360757629
 21
3.6475770268
 31
0.0
  0
LINE
  5
A2
330
73
100
AcDbEntity
  8
0
  6
Continuous
 62
   179
370
    18
100
AcDbLine
 10
80.4094186633
 20
4.6950685544
 30
0.0
 11
90.1819221045
 21
5.4824266516
 31
0.0
  0
LINE
  5
A3
330
73
100
AcDbEntity
  8
0
  6
Continuous
 62
   179
370
    18
100
AcDbLine
 10
79.1595373973
 20
3.3551666867
 30
0.0
 11
91.2569309872
 21
4.3071688694
 31
0.0
  0
LINE
  5
A4
330
73
100
AcDbEntity
  8
0
  6
Continuous
 62
   179
370
    18
100
AcDbLine
 10
79.2585043218
 20
2.925017226
 30
0.0
 11
80.4858981444
 21
1.533240302
 31
0.0
  0
LINE
  5
A5
330
73
100
AcDbEntity
  8
0
  6
Continuous
 62
   179
370
    18
100
AcDbLine
 10
78.0344191726
 20
3.5235305166
 30
0.0
 11
78.3638740472
 21
3.1446574108
 31
0.0
  0
LINE
  5
A6
330
73
100
AcDbEntity
  8
0
  6
Continuous
 62
   179
370
    18
100
AcDbLine
 10
78.3638740472
 20
3.1446574108
 30
0.0
 11
78.4680611395
 21
3.0248422547
 31
0.0
  0
LINE
  5
A7
330
73
100
AcDbEntity
  8
0
  6
Continuous
 62
   179
370
    18
100
AcDbLine
 10
81.3414110113
 20
1.2002475785
 30
0.0
 11
89.3291569519
 21
2.0477010263
 31
0.0
  0
LINE
  5
A8
330
73
100
AcDbEntity
  8
0
  6
Continuous
 62
   179
370
    18
100
AcDbLine
 10
89.8661472522
 20
2.5197759309
 30
0.0
 11
89.8661472522
 21
2.3090867337
 31
0.0
  0
LINE
  5
A9
330
73
100
AcDbEntity
  8
0
  6
Continuous
 62
   179
370
    18
100
AcDbLine
 10
88.676842368
 20
3.6762854359
 30
0.0
 11
89.6713239345
 21
2.7875997807
 31
0.0
  0
LINE
  5
AA
330
73
100
AcDbEntity
  8
0
  6
Continuous
 62
   179
370
    18
100
AcDbLine
 10
89.6713239345
 20
2.7875997807
 30
0.0
 11
89.7459749087
 21
2.7242700694
 31
0.0
  0
LINE
  5
AB
330
73
100
AcDbEntity
  8
0
  6
Continuous
 62
   179
370
    18
100
AcDbLine
 10
90.7982178739
 20
3.8455002136
 30
0.0
 11
91.3961615969
 21
4.3514525945
 31
0.0
  0
LINE
  5
AC
330
73
100
AcDbEntity
  8
0
  6
Continuous
 62
   179
370
    18
100
AcDbLine
 10
90.6442498554
 20
13.7381534621
 30
0.0
 11
78.1502930503
 21
13.1490474438
 31
0.0
  0
LINE
  5
AD
330
73
100
AcDbEntity
  8
0
  6
Continuous
 62
   179
370
    18
100
AcDbLine
 10
80.1347709981
 20
12.2388892068
 30
0.0
 11
89.8487925667
 21
12.7550932515
 31
0.0
  0
LINE
  5
AE
330
73
100
AcDbEntity
  8
0
  6
Continuous
 62
   179
370
    18
100
AcDbLine
 10
76.4935641943
 20
11.7567556248
 30
0.0
 11
76.6545490427
 21
5.8693097374
 31
0.0
  0
LINE
  5
AF
330
73
100
AcDbEntity
  8
0
  6
Continuous
 62
   179
370
    18
100
AcDbLine
 10
79.8508616208
 20
11.929182536
 30
0.0
 11
80.0854971721
 21
4.9839702153
 31
0.0
  0
LINE
  5
B0
330
73
100
AcDbEntity
  8
0
  6
Continuous
 62
   179
370
    18
100
AcDbLine
 10
80.5293311574
 20
9.7310185051
 30
0.0
 11
80.6057415643
 21
7.4769115
 31
0.0
  0
LINE
  5
B1
330
73
100
AcDbEntity
  8
0
  6
Continuous
 62
   179
370
    18
100
AcDbLine
 10
77.507650604
 20
12.7708420346
 30
0.0
 11
76.4935641943
 21
11.7567556248
 31
0.0
  0
LINE
  5
B2
330
73
100
AcDbEntity
  8
0
  6
Continuous
 62
   179
370
    18
100
AcDbLine
 10
86.8848195129
 20
11.0661568594
 30
0.0
 11
88.6742167283
 21
11.1634880887
 31
0.0
  0
LINE
  5
B3
330
73
100
AcDbEntity
  8
0
  6
Continuous
 62
   179
370
    18
100
AcDbLine
 10
87.0766213517
 20
6.9287171941
 30
0.0
 11
88.90708891
 21
7.0695223909
 31
0.0
  0
LINE
  5
B4
330
73
100
AcDbEntity
  8
0
  6
Continuous
 62
   179
370
    18
100
AcDbLine
 10
87.6830038473
 20
7.6147347768
 30
0.0
 11
88.8536252418
 21
7.7047825764
 31
0.0
  0
LINE
  5
B5
330
73
100
AcDbEntity
  8
0
  6
Continuous
 62
   179
370
    18
100
AcDbLine
 10
87.5509212094
 20
10.4639459651
 30
0.0
 11
88.7088412777
 21
10.5269290651
 31
0.0
  0
LINE
  5
B6
330
73
100
AcDbEntity
  8
0
  6
Continuous
 62
   179
370
    18
100
AcDbLine
 10
87.0766218384
 20
6.9287066941
 30
0.0
 11
86.8848195129
 21
11.0661568594
 31
0.0
  0
LINE
  5
B7
330
73
100
AcDbEntity
  8
0
  6
Continuous
 62
   179
370
    18
100
AcDbLine
 10
83.7004598825
 20
6.6667911093
 30
0.0
 11
84.5054929504
 21
10.9267193262
 31
0.0
  0
LINE
  5
B8
330
73
100
AcDbEntity
  8
0
  6
Continuous
 62
   179
370
    18
100
AcDbLine
 10
85.3543248406
 20
10.9728900984
 30
0.0
 11
86.4940946704
 21
6.8816860929
 31
0.0
  0
LINE
  5
B9
330
73
100
AcDbEntity
  8
0
  6
Continuous
 62
   179
370
    18
100
AcDbLine
 10
84.9728575427
 20
9.9667192298
 30
0.0
 11
85.4540299774
 21
8.2395506903
 31
0.0
  0
LINE
  5
BA
330
73
100
AcDbEntity
  8
0
  6
Continuous
 62
   179
370
    18
100
AcDbLine
 10
84.6363094629
 20
8.1858350416
 30
0.0
 11
84.9728575427
 21
9.9667192298
 31
0.0
  0
LINE
  5
BB
330
73
100
AcDbEntity
  8
0
  6
Continuous
 62
   179
370
    18
100
AcDbLine
 10
87.6830038473
 20
7.6147347768
 30
0.0
 11
87.5509212094
 21
10.4639459651
 31
0.0
  0
LINE
  5
BC
330
73
100
AcDbEntity
  8
0
  6
Continuous
 62
   179
370
    18
100
AcDbLine
 10
84.6363094629
 20
8.1858350416
 30
0.0
 11
85.4540299774
 21
8.2395506903
 31
0.0
  0
LINE
  5
BD
330
73
100
AcDbEntity
  8
0
  6
Continuous
 62
   179
370
    18
100
AcDbLine
 10
84.5140586807
 20
7.5389304886
 30
0.0
 11
85.6288154243
 21
7.6121582976
 31
0.0
  0
LINE
  5
BE
330
73
100
AcDbEntity
  8
0
  6
Continuous
 62
   179
370
    18
100
AcDbLine
 10
84.3588137958
 20
6.717433718
 30
0.0
 11
84.5140586807
 21
7.5389304886
 31
0.0
  0
LINE
  5
BF
330
73
100
AcDbEntity
  8
0
  6
Continuous
 62
   179
370
    18
100
AcDbLine
 10
81.6818640104
 20
6.5137358601
 30
0.0
 11
82.4802416972
 21
6.5751495283
 31
0.0
  0
LINE
  5
C0
330
73
100
AcDbEntity
  8
0
  6
Continuous
 62
   179
370
    18
100
AcDbLine
 10
81.6329699923
 20
7.1493580946
 30
0.0
 11
82.4313476791
 21
7.2107717628
 31
0.0
  0
LINE
  5
C1
330
73
100
AcDbEntity
  8
0
  6
Continuous
 62
   179
370
    18
100
AcDbLine
 10
83.7004598825
 20
6.6667911093
 30
0.0
 11
84.3588137958
 21
6.717433718
 31
0.0
  0
LINE
  5
C2
330
73
100
AcDbEntity
  8
0
  6
Continuous
 62
   179
370
    18
100
AcDbLine
 10
82.7059483815
 20
9.3512024135
 30
0.0
 11
83.3423973297
 21
9.3930104243
 31
0.0
  0
LINE
  5
C3
330
73
100
AcDbEntity
  8
0
  6
Continuous
 62
   179
370
    18
100
AcDbLine
 10
82.7491656358
 20
8.0762934118
 30
0.0
 11
83.385614584
 21
8.1181014226
 31
0.0
  0
LINE
  5
C4
330
73
100
AcDbEntity
  8
0
  6
Continuous
 62
   179
370
    18
100
AcDbLine
 10
81.1664651987
 20
9.7526162692
 30
0.0
 11
81.2428756056
 21
7.4985092641
 31
0.0
  0
LINE
  5
C5
330
73
100
AcDbEntity
  8
0
  6
Continuous
 62
   179
370
    18
100
AcDbLine
 10
82.6900353128
 20
9.8206379383
 30
0.0
 11
82.7052632884
 21
9.3714126602
 31
0.0
  0
LINE
  5
C6
330
73
100
AcDbEntity
  8
0
  6
Continuous
 62
   179
370
    18
100
AcDbLine
 10
82.7491656358
 20
8.0762934118
 30
0.0
 11
82.7658371041
 21
7.5844850954
 31
0.0
  0
LINE
  5
C7
330
73
100
AcDbEntity
  8
0
  6
Continuous
 62
   179
370
    18
100
AcDbLine
 10
83.3271693541
 20
9.8422357024
 30
0.0
 11
83.3423973297
 21
9.3930104243
 31
0.0
  0
LINE
  5
C8
330
73
100
AcDbEntity
  8
0
  6
Continuous
 62
   179
370
    18
100
AcDbLine
 10
83.385614584
 20
8.1181014226
 30
0.0
 11
83.4029711454
 21
7.6060828595
 31
0.0
  0
LINE
  5
C9
330
73
100
AcDbEntity
  8
0
  6
Continuous
 62
   179
370
    18
100
AcDbLine
 10
85.6288154243
 20
7.6121582976
 30
0.0
 11
85.8462022593
 21
6.8318482152
 31
0.0
  0
LINE
  5
CA
330
73
100
AcDbEntity
  8
0
  6
Continuous
 62
   179
370
    18
100
AcDbLine
 10
85.8462022593
 20
6.8318482152
 30
0.0
 11
86.4940946704
 21
6.8816860929
 31
0.0
  0
LINE
  5
CB
330
73
100
AcDbEntity
  8
0
  6
Continuous
 62
   179
370
    18
100
AcDbLine
 10
84.5054929504
 20
10.9267193262
 30
0.0
 11
85.3543248406
 21
10.9728900984
 31
0.0
  0
LINE
  5
CC
330
73
100
AcDbEntity
  8
0
  6
Continuous
 62
   179
370
    18
100
AcDbLine
 10
81.4744440858
 20
10.7634213094
 30
0.0
 11
82.2734303883
 21
10.8068808154
 31
0.0
  0
LINE
  5
CD
330
73
100
AcDbEntity
  8
0
  6
Continuous
 62
   179
370
    18
100
AcDbLine
 10
81.5090686352
 20
10.1268622858
 30
0.0
 11
82.3080549377
 21
10.1703217918
 31
0.0
  0
LINE
  5
CE
330
73
100
AcDbEntity
  8
0
  6
Continuous
 62
   179
370
    18
100
AcDbLine
 10
90.4575406452
 20
5.7946206556
 30
0.0
 11
90.1644232213
 21
12.4686789239
 31
0.0
  0
LINE
  5
CF
330
73
100
AcDbEntity
  8
0
  6
Continuous
 62
   179
370
    18
100
AcDbLine
 10
89.8247499755
 20
8.1125227115
 30
0.0
 11
89.7274569615
 21
10.2112720142
 31
0.0
  0
LINE
  5
D0
330
73
100
AcDbEntity
  8
0
  6
Continuous
 62
   179
370
    18
100
AcDbLine
 10
89.1879338763
 20
8.0830014354
 30
0.0
 11
89.0906408622
 21
10.181750738
 31
0.0
  0
LINE
  5
D1
330
73
100
AcDbEntity
  8
0
  6
Continuous
 62
   179
370
    18
100
AcDbLine
 10
89.7459749087
 20
2.7242700694
 30
0.0
 11
89.7974962577
 21
2.6659765769
 31
0.0
  0
LINE
  5
D2
330
73
100
AcDbEntity
  8
0
  6
Continuous
 62
   179
370
    18
100
AcDbLine
 10
89.7974962577
 20
2.6659765769
 30
0.0
 11
89.8351851379
 21
2.60192886
 31
0.0
  0
LINE
  5
D3
330
73
100
AcDbEntity
  8
0
  6
Continuous
 62
   179
370
    18
100
AcDbLine
 10
89.8351851379
 20
2.60192886
 30
0.0
 11
89.8661472522
 21
2.5197759309
 31
0.0
  0
LINE
  5
D4
330
73
100
AcDbEntity
  8
0
  6
Continuous
 62
   179
370
    18
100
AcDbLine
 10
10.6119938288
 20
7.2203138351
 30
0.0
 11
11.2200151261
 21
7.5713550947
 31
0.0
  0
LINE
  5
D5
330
73
100
AcDbEntity
  8
0
  6
Continuous
 62
   179
370
    18
100
AcDbLine
 10
11.2347279503
 20
5.2647430194
 30
0.0
 11
10.6267781168
 21
5.6157430194
 31
0.0
  0
LINE
  5
D6
330
73
100
AcDbEntity
  8
0
  6
Continuous
 62
   179
370
    18
100
AcDbLine
 10
6.4645062371
 20
16.1712617198
 30
0.0
 11
6.4645062371
 21
2.9364593988
 31
0.0
  0
LINE
  5
D7
330
73
100
AcDbEntity
  8
0
  6
Continuous
 62
   179
370
    18
100
AcDbLine
 10
6.4645062371
 20
2.9364593988
 30
0.0
 11
12.0532757459
 21
2.9364593988
 31
0.0
  0
LINE
  5
D8
330
73
100
AcDbEntity
  8
0
  6
Continuous
 62
   179
370
    18
100
AcDbLine
 10
12.0532757459
 20
2.9364593988
 30
0.0
 11
12.0532757459
 21
16.1712617198
 31
0.0
  0
LINE
  5
D9
330
73
100
AcDbEntity
  8
0
  6
Continuous
 62
   179
370
    18
100
AcDbLine
 10
12.0532757459
 20
16.1712617198
 30
0.0
 11
6.4645062371
 21
16.1712617198
 31
0.0
  0
LINE
  5
DA
330
73
100
AcDbEntity
  8
0
  6
Continuous
 62
   179
370
    18
100
AcDbLine
 10
0.0
 20
16.1712617198
 30
0.0
 11
0.0
 21
2.9364593988
 31
0.0
  0
LINE
  5
DB
330
73
100
AcDbEntity
  8
0
  6
Continuous
 62
   179
370
    18
100
AcDbLine
 10
0.0
 20
2.9364593988
 30
0.0
 11
5.5887695089
 21
2.9364593988
 31
0.0
  0
LINE
  5
DC
330
73
100
AcDbEntity
  8
0
  6
Continuous
 62
   179
370
    18
100
AcDbLine
 10
5.5887695089
 20
2.9364593988
 30
0.0
 11
5.5887695089
 21
16.1712617198
 31
0.0
  0
LINE
  5
DD
330
73
100
AcDbEntity
  8
0
  6
Continuous
 62
   179
370
    18
100
AcDbLine
 10
5.5887695089
 20
16.1712617198
 30
0.0
 11
0.0
 21
16.1712617198
 31
0.0
  0
LINE
  5
DE
330
73
100
AcDbEntity
  8
0
  6
Continuous
 62
   179
370
    18
100
AcDbLine
 10
1.2591262606
 20
4.7264381407
 30
0.0
 11
4.3296432482
 21
4.7264381407
 31
0.0
  0
LINE
  5
DF
330
73
100
AcDbEntity
  8
0
  6
Continuous
 62
   179
370
    18
100
AcDbLine
 10
4.3738223747
 20
4.0932862697
 30
0.0
 11
5.0758301722
 21
4.0932862697
 31
0.0
  0
LINE
  5
E0
330
73
100
AcDbEntity
  8
0
  6
Continuous
 62
   179
370
    18
100
AcDbLine
 10
0.5129393366
 20
4.0932862697
 30
0.0
 11
1.2149471342
 21
4.0932862697
 31
0.0
  0
LINE
  5
E1
330
73
100
AcDbEntity
  8
0
  6
Continuous
 62
   179
370
    18
100
AcDbLine
 10
4.1819643097
 20
5.4284381407
 30
0.0
 11
1.4068051992
 21
5.4284381407
 31
0.0
  0
LINE
  5
E2
330
73
100
AcDbEntity
  8
0
  6
Continuous
 62
   179
370
    18
100
AcDbLine
 10
18.517781983
 20
16.1712617198
 30
0.0
 11
18.517781983
 21
2.9364593988
 31
0.0
  0
LINE
  5
E3
330
73
100
AcDbEntity
  8
0
  6
Continuous
 62
   179
370
    18
100
AcDbLine
 10
18.517781983
 20
2.9364593988
 30
0.0
 11
12.9290124742
 21
2.9364593988
 31
0.0
  0
LINE
  5
E4
330
73
100
AcDbEntity
  8
0
  6
Continuous
 62
   179
370
    18
100
AcDbLine
 10
12.9290124742
 20
2.9364593988
 30
0.0
 11
12.9290124742
 21
16.1712617198
 31
0.0
  0
LINE
  5
E5
330
73
100
AcDbEntity
  8
0
  6
Continuous
 62
   179
370
    18
100
AcDbLine
 10
12.9290124742
 20
16.1712617198
 30
0.0
 11
18.517781983
 21
16.1712617198
 31
0.0
  0
INSERT
  5
EB
330
73
100
AcDbEntity
  8
0
  6
Continuous
 62
     7
370
     0
100
AcDbBlockReference
  2
SW_NOTE_0
 10
1.8998941161
 20
-0.3226565443
 30
0.0
  0
INSERT
  5
F0
330
73
100
AcDbEntity
  8
0
  6
Continuous
 62
     7
370
     0
100
AcDbBlockReference
  2
SW_NOTE_0_1
 10
29.1164837035
 20
12.7459167441
 30
0.0
  0
INSERT
  5
F8
330
73
100
AcDbEntity
  8
0
  6
Continuous
 62
     7
370
     0
100
AcDbBlockReference
  2
SW_NOTE_0_2
 10
28.8863479825
 20
8.6365742194
 30
0.0
  0
ENDBLK
  5
75
330
73
100
AcDbEntity
  8
0
100
AcDbBlockEnd
  0
BLOCK
  5
E7
330
E6
100
AcDbEntity
  8
0
100
AcDbBlockBegin
  2
SW_NOTE_0
 70
     0
 10
0.0
 20
0.0
 30
0.0
  3
SW_NOTE_0
  1

  0
MTEXT
  5
EA
330
E6
100
AcDbEntity
  8
0
  6
Continuous
 62
     0
370
     0
100
AcDbMText
 10
7.46875
 20
2.5781354795
 30
0.0
 40
2.0
 41
0.0
 71
     2
 72
     1
  1
www.aco.ch
  7
SLDTEXTSTYLE0
 73
     1
 44
1.0
  0
ENDBLK
  5
E8
330
E6
100
AcDbEntity
  8
0
100
AcDbBlockEnd
  0
BLOCK
  5
ED
330
EC
100
AcDbEntity
  8
0
100
AcDbBlockBegin
  2
SW_NOTE_0_1
 70
     0
 10
0.0
 20
0.0
 30
0.0
  3
SW_NOTE_0_1
  1

  0
MTEXT
  5
EF
330
EC
100
AcDbEntity
  8
0
  6
Continuous
 62
     0
370
     0
100
AcDbMText
 10
0.0
 20
3.8672032193
 30
0.0
 40
3.0
 41
0.0
 71
     1
 72
     1
  1
ACO AG
  7
SLDTEXTSTYLE0
 73
     1
 44
1.0
  0
ENDBLK
  5
EE
330
EC
100
AcDbEntity
  8
0
100
AcDbBlockEnd
  0
BLOCK
  5
F2
330
F1
100
AcDbEntity
  8
0
100
AcDbBlockBegin
  2
SW_NOTE_0_2
 70
     0
 10
0.0
 20
0.0
 30
0.0
  3
SW_NOTE_0_2
  1

  0
MTEXT
  5
F4
330
F1
100
AcDbEntity
  8
0
  6
Continuous
 62
     0
370
     0
100
AcDbMText
 10
0.0
 20
2.5781354795
 30
0.0
 40
2.0
 41
0.0
 71
     1
 72
     1
  1
Industrie Kleinzaun
  7
SLDTEXTSTYLE0
 73
     1
 44
1.0
  0
MTEXT
  5
F5
330
F1
100
AcDbEntity
  8
0
  6
Continuous
 62
     0
370
     0
100
AcDbMText
 10
0.0
 20
-0.4218645465
 30
0.0
 40
2.0
 41
0.0
 71
     1
 72
     1
  1
CH-8754 Netstal
  7
SLDTEXTSTYLE0
 73
     1
 44
1.0
  0
MTEXT
  5
F6
330
F1
100
AcDbEntity
  8
0
  6
Continuous
 62
     0
370
     0
100
AcDbMText
 10
0.0
 20
-3.4218645726
 30
0.0
 40
2.0
 41
0.0
 71
     1
 72
     1
  1
Tel. 055 / 645 53 00
  7
SLDTEXTSTYLE0
 73
     1
 44
1.0
  0
MTEXT
  5
F7
330
F1
100
AcDbEntity
  8
0
  6
Continuous
 62
     0
370
     0
100
AcDbMText
 10
0.0
 20
-6.4218645987
 30
0.0
 40
2.0
 41
0.0
 71
     1
 72
     1
  1
E-Mail: aco@aco.ch
  7
SLDTEXTSTYLE0
 73
     1
 44
1.0
  0
ENDBLK
  5
F3
330
F1
100
AcDbEntity
  8
0
100
AcDbBlockEnd
  0
BLOCK
  5
171
330
170
100
AcDbEntity
  8
0
100
AcDbBlockBegin
  2
SW_NOTE_0_3
 70
     0
 10
0.0
 20
0.0
 30
0.0
  3
SW_NOTE_0_3
  1

  0
MTEXT
  5
173
330
170
100
AcDbEntity
  8
0
  6
Continuous
 62
     0
370
     0
100
AcDbMText
 10
0.0
 20
1.9336016097
 30
0.0
 40
1.5
 41
0.0
 71
     1
 72
     1
  1
Diese Zeichnung darf weder kopiert
  7
SLDTEXTSTYLE0
 73
     1
 44
1.0
  0
MTEXT
  5
174
330
170
100
AcDbEntity
  8
0
  6
Continuous
 62
     0
370
     0
100
AcDbMText
 10
0.0
 20
-0.5663983345
 30
0.0
 40
1.5
 41
0.0
 71
     1
 72
     1
  1
noch dritten Personen, insbesondere
  7
SLDTEXTSTYLE0
 73
     1
 44
1.0
  0
MTEXT
  5
175
330
170
100
AcDbEntity
  8
0
  6
Continuous
 62
     0
370
     0
100
AcDbMText
 10
0.0
 20
-3.0663982786
 30
0.0
 40
1.5
 41
0.0
 71
     1
 72
     1
  1
zum Zweck anderweitiger Benutzung
  7
SLDTEXTSTYLE0
 73
     1
 44
1.0
  0
MTEXT
  5
176
330
170
100
AcDbEntity
  8
0
  6
Continuous
 62
     0
370
     0
100
AcDbMText
 10
0.0
 20
-5.5663982227
 30
0.0
 40
1.5
 41
0.0
 71
     1
 72
     1
  1
mitgeteilt werden und bleibt unser
  7
SLDTEXTSTYLE0
 73
     1
 44
1.0
  0
MTEXT
  5
177
330
170
100
AcDbEntity
  8
0
  6
Continuous
 62
     0
370
     0
100
AcDbMText
 10
0.0
 20
-8.0663981668
 30
0.0
 40
1.5
 41
0.0
 71
     1
 72
     1
  1
Eigentum.
  7
SLDTEXTSTYLE0
 73
     1
 44
1.0
  0
ENDBLK
  5
172
330
170
100
AcDbEntity
  8
0
100
AcDbBlockEnd
  0
BLOCK
  5
235
330
234
100
AcDbEntity
  8
0
100
AcDbBlockBegin
  2
_D
 70
     0
 10
0.0
 20
0.0
 30
0.0
  3
_D
  1

  0
SOLID
  5
237
330
234
100
AcDbEntity
  8
0
  6
Continuous
 62
     7
370
    18
100
AcDbTrace
 10
50.1705790683
 20
66.5252179875
 30
0.0
 11
53.6705790683
 21
65.986756449
 31
0.0
 12
53.6705790683
 22
67.0636795259
 32
0.0
 13
53.6705790683
 23
67.0636795259
 33
0.0
  0
SOLID
  5
238
330
234
100
AcDbEntity
  8
0
  6
Continuous
 62
     7
370
    18
100
AcDbTrace
 10
191.1705790683
 20
66.5252179875
 30
0.0
 11
187.6705790683
 21
67.0636795259
 31
0.0
 12
187.6705790683
 22
65.986756449
 32
0.0
 13
187.6705790683
 23
65.986756449
 33
0.0
  0
LINE
  5
239
330
234
100
AcDbEntity
  8
0
  6
Continuous
 62
     7
370
     0
100
AcDbLine
 10
50.1705790683
 20
79.9252179875
 30
0.0
 11
50.1705790683
 21
65.5252179875
 31
0.0
  0
LINE
  5
23A
330
234
100
AcDbEntity
  8
0
  6
Continuous
 62
     7
370
     0
100
AcDbLine
 10
191.1705790683
 20
79.9252179875
 30
0.0
 11
191.1705790683
 21
65.5252179875
 31
0.0
  0
LINE
  5
23B
330
234
100
AcDbEntity
  8
0
  6
Continuous
 62
     7
370
     0
100
AcDbLine
 10
50.1705790683
 20
66.5252179875
 30
0.0
 11
191.1705790683
 21
66.5252179875
 31
0.0
  0
INSERT
  5
243
330
234
100
AcDbEntity
  8
0
  6
Continuous
 62
     7
370
    18
100
AcDbBlockReference
  2
SW_SYMBOL_MOD_BOX
 10
112.0790519491
 20
67.0310865321
 30
0.0
 41
0.0045117371
 42
0.0045117371
 43
0.0045117371
  0
MTEXT
  5
244
330
234
100
AcDbEntity
  8
0
  6
Continuous
 62
     7
370
    18
100
AcDbMText
 10
116.9134268276
 20
71.0466773858
 30
0.0
 40
3.5
 41
0.0
 71
     1
 72
     1
  1
141
  7
SLDTEXTSTYLE0
 73
     1
 44
1.0
  0
MTEXT
  5
245
330
234
100
AcDbEntity
  8
0
  6
Continuous
 62
     7
370
    18
100
AcDbMText
 10
126.2467594966
 20
71.0466773858
 30
0.0
 40
3.5
 41
0.0
 71
     1
 72
     1
  1

  7
SLDTEXTSTYLE0
 73
     1
 44
1.0
  0
MTEXT
  5
246
330
234
100
AcDbEntity
  8
0
  6
Continuous
 62
     7
370
    18
100
AcDbMText
 10
127.2816900201
 20
73.1542673632
 30
0.0
 40
2.45
 41
0.0
 71
     1
 72
     1
  1

  7
SLDTEXTSTYLE0
 73
     1
 44
1.0
  0
MTEXT
  5
247
330
234
100
AcDbEntity
  8
0
  6
Continuous
 62
     7
370
    18
100
AcDbMText
 10
126.271065019
 20
69.9896840117
 30
0.0
 40
2.45
 41
0.0
 71
     1
 72
     1
  1
-
  7
SLDTEXTSTYLE0
 73
     1
 44
1.0
  0
MTEXT
  5
248
330
234
100
AcDbEntity
  8
0
  6
Continuous
 62
     7
370
    18
100
AcDbMText
 10
127.390579015
 20
73.1542673632
 30
0.0
 40
2.45
 41
0.0
 71
     1
 72
     1
  1
0
  7
SLDTEXTSTYLE0
 73
     1
 44
1.0
  0
MTEXT
  5
249
330
234
100
AcDbEntity
  8
0
  6
Continuous
 62
     7
370
    18
100
AcDbMText
 10
127.390579015
 20
69.9896840117
 30
0.0
 40
2.45
 41
0.0
 71
     1
 72
     1
  1
1
  7
SLDTEXTSTYLE0
 73
     1
 44
1.0
  0
ENDBLK
  5
236
330
234
100
AcDbEntity
  8
0
100
AcDbBlockEnd
  0
BLOCK
  5
23D
330
23C
100
AcDbEntity
  8
0
100
AcDbBlockBegin
  2
SW_SYMBOL_MOD_BOX
 70
     0
 10
0.0
 20
0.0
 30
0.0
  3
SW_SYMBOL_MOD_BOX
  1

  0
LINE
  5
23F
330
23C
100
AcDbEntity
  8
0
  6
Continuous
 62
     0
370
    18
100
AcDbLine
 10
200.0
 20
200.0
 30
0.0
 11
800.0
 21
200.0
 31
0.0
  0
LINE
  5
240
330
23C
100
AcDbEntity
  8
0
  6
Continuous
 62
     0
370
    18
100
AcDbLine
 10
200.0
 20
200.0
 30
0.0
 11
200.0
 21
800.0
 31
0.0
  0
LINE
  5
241
330
23C
100
AcDbEntity
  8
0
  6
Continuous
 62
     0
370
    18
100
AcDbLine
 10
200.0
 20
800.0
 30
0.0
 11
800.0
 21
800.0
 31
0.0
  0
LINE
  5
242
330
23C
100
AcDbEntity
  8
0
  6
Continuous
 62
     0
370
    18
100
AcDbLine
 10
800.0
 20
800.0
 30
0.0
 11
800.0
 21
200.0
 31
0.0
  0
ENDBLK
  5
23E
330
23C
100
AcDbEntity
  8
0
100
AcDbBlockEnd
  0
BLOCK
  5
24D
330
24C
100
AcDbEntity
  8
0
100
AcDbBlockBegin
  2
_D_1
 70
     0
 10
0.0
 20
0.0
 30
0.0
  3
_D_1
  1

  0
SOLID
  5
24F
330
24C
100
AcDbEntity
  8
0
  6
Continuous
 62
     7
370
    18
100
AcDbTrace
 10
175.6705790683
 20
227.5252179875
 30
0.0
 11
179.1705790683
 21
226.986756449
 31
0.0
 12
179.1705790683
 22
228.0636795259
 32
0.0
 13
179.1705790683
 23
228.0636795259
 33
0.0
  0
SOLID
  5
250
330
24C
100
AcDbEntity
  8
0
  6
Continuous
 62
     7
370
    18
100
AcDbTrace
 10
191.1705790683
 20
227.5252179875
 30
0.0
 11
187.6705790683
 21
228.0636795259
 31
0.0
 12
187.6705790683
 22
226.986756449
 32
0.0
 13
187.6705790683
 23
226.986756449
 33
0.0
  0
LINE
  5
251
330
24C
100
AcDbEntity
  8
0
  6
Continuous
 62
     7
370
     0
100
AcDbLine
 10
175.6705790683
 20
189.3752179875
 30
0.0
 11
175.6705790683
 21
228.5252179875
 31
0.0
  0
LINE
  5
252
330
24C
100
AcDbEntity
  8
0
  6
Continuous
 62
     7
370
     0
100
AcDbLine
 10
191.1705790683
 20
214.1252179875
 30
0.0
 11
191.1705790683
 21
228.5252179875
 31
0.0
  0
LINE
  5
253
330
24C
100
AcDbEntity
  8
0
  6
Continuous
 62
     7
370
     0
100
AcDbLine
 10
175.6705790683
 20
227.5252179875
 30
0.0
 11
191.1705790683
 21
227.5252179875
 31
0.0
  0
MTEXT
  5
254
330
24C
100
AcDbEntity
  8
0
  6
Continuous
 62
     7
370
    18
100
AcDbMText
 10
178.7417597398
 20
232.0369553095
 30
0.0
 40
3.5
 41
0.0
 71
     1
 72
     1
  1
15.5
  7
SLDTEXTSTYLE0
 73
     1
 44
1.0
  0
ENDBLK
  5
24E
330
24C
100
AcDbEntity
  8
0
100
AcDbBlockEnd
  0
BLOCK
  5
257
330
256
100
AcDbEntity
  8
0
100
AcDbBlockBegin
  2
_D_2
 70
     0
 10
0.0
 20
0.0
 30
0.0
  3
_D_2
  1

  0
SOLID
  5
259
330
256
100
AcDbEntity
  8
0
  6
Continuous
 62
     7
370
    18
100
AcDbTrace
 10
143.6705790683
 20
227.5252179875
 30
0.0
 11
147.1705790683
 21
226.986756449
 31
0.0
 12
147.1705790683
 22
228.0636795259
 32
0.0
 13
147.1705790683
 23
228.0636795259
 33
0.0
  0
SOLID
  5
25A
330
256
100
AcDbEntity
  8
0
  6
Continuous
 62
     7
370
    18
100
AcDbTrace
 10
175.6705790683
 20
227.5252179875
 30
0.0
 11
172.1705790683
 21
228.0636795259
 31
0.0
 12
172.1705790683
 22
226.986756449
 32
0.0
 13
172.1705790683
 23
226.986756449
 33
0.0
  0
LINE
  5
25B
330
256
100
AcDbEntity
  8
0
  6
Continuous
 62
     7
370
     0
100
AcDbLine
 10
143.6705790683
 20
189.3752179875
 30
0.0
 11
143.6705790683
 21
228.5252179875
 31
0.0
  0
LINE
  5
25C
330
256
100
AcDbEntity
  8
0
  6
Continuous
 62
     7
370
     0
100
AcDbLine
 10
175.6705790683
 20
189.3752179875
 30
0.0
 11
175.6705790683
 21
228.5252179875
 31
0.0
  0
LINE
  5
25D
330
256
100
AcDbEntity
  8
0
  6
Continuous
 62
     7
370
     0
100
AcDbLine
 10
143.6705790683
 20
227.5252179875
 30
0.0
 11
175.6705790683
 21
227.5252179875
 31
0.0
  0
MTEXT
  5
25E
330
256
100
AcDbEntity
  8
0
  6
Continuous
 62
     7
370
    18
100
AcDbMText
 10
156.9969680235
 20
232.0369553095
 30
0.0
 40
3.5
 41
0.0
 71
     1
 72
     1
  1
32
  7
SLDTEXTSTYLE0
 73
     1
 44
1.0
  0
ENDBLK
  5
258
330
256
100
AcDbEntity
  8
0
100
AcDbBlockEnd
  0
BLOCK
  5
262
330
261
100
AcDbEntity
  8
0
100
AcDbBlockBegin
  2
_D_3
 70
     0
 10
0.0
 20
0.0
 30
0.0
  3
_D_3
  1

  0
SOLID
  5
264
330
261
100
AcDbEntity
  8
0
  6
Continuous
 62
     7
370
    18
100
AcDbTrace
 10
201.1705790683
 20
189.2752179875
 30
0.0
 11
201.7090406068
 21
192.7752179875
 31
0.0
 12
200.6321175299
 22
192.7752179875
 32
0.0
 13
200.6321175299
 23
192.7752179875
 33
0.0
  0
SOLID
  5
265
330
261
100
AcDbEntity
  8
0
  6
Continuous
 62
     7
370
    18
100
AcDbTrace
 10
201.1705790683
 20
182.7752179875
 30
0.0
 11
200.6321175299
 21
179.2752179875
 31
0.0
 12
201.7090406068
 22
179.2752179875
 32
0.0
 13
201.7090406068
 23
179.2752179875
 33
0.0
  0
LINE
  5
266
330
261
100
AcDbEntity
  8
0
  6
Continuous
 62
     7
370
     0
100
AcDbLine
 10
175.7705790683
 20
189.2752179875
 30
0.0
 11
202.1705790683
 21
189.2752179875
 31
0.0
  0
LINE
  5
267
330
261
100
AcDbEntity
  8
0
  6
Continuous
 62
     7
370
     0
100
AcDbLine
 10
175.7705790683
 20
182.7752179875
 30
0.0
 11
202.1705790683
 21
182.7752179875
 31
0.0
  0
LINE
  5
268
330
261
100
AcDbEntity
  8
0
  6
Continuous
 62
     7
370
     0
100
AcDbLine
 10
201.1705790683
 20
189.2752179875
 30
0.0
 11
201.1705790683
 21
201.1090922587
 31
0.0
  0
LINE
  5
269
330
261
100
AcDbEntity
  8
0
  6
Continuous
 62
     7
370
     0
100
AcDbLine
 10
201.1705790683
 20
189.2752179875
 30
0.0
 11
201.1705790683
 21
182.7752179875
 31
0.0
  0
LINE
  5
26A
330
261
100
AcDbEntity
  8
0
  6
Continuous
 62
     7
370
     0
100
AcDbLine
 10
201.1705790683
 20
182.7752179875
 30
0.0
 11
201.1705790683
 21
176.0444487567
 31
0.0
  0
MTEXT
  5
26B
330
261
100
AcDbEntity
  8
0
  6
Continuous
 62
     7
370
    18
100
AcDbMText
 10
196.6588417463
 20
194.4250646465
 30
0.0
 40
3.5
 41
0.0
 71
     1
 72
     1
  1
6.5
  7
SLDTEXTSTYLE0
 11
-3.491481338843133E-15
 21
1.0
 31
0.0
 73
     1
 44
1.0
  0
ENDBLK
  5
263
330
261
100
AcDbEntity
  8
0
100
AcDbBlockEnd
  0
BLOCK
  5
38F
330
38E
100
AcDbEntity
  8
0
100
AcDbBlockBegin
  2
_D_4
 70
     0
 10
0.0
 20
0.0
 30
0.0
  3
_D_4
  1

  0
SOLID
  5
391
330
38E
100
AcDbEntity
  8
0
  6
Continuous
 62
     7
370
    18
100
AcDbTrace
 10
201.1705790683
 20
249.3251495017
 30
0.0
 11
200.6321175299
 21
245.8251495017
 31
0.0
 12
201.7090406068
 22
245.8251495017
 32
0.0
 13
201.7090406068
 23
245.8251495017
 33
0.0
  0
SOLID
  5
392
330
38E
100
AcDbEntity
  8
0
  6
Continuous
 62
     7
370
    18
100
AcDbTrace
 10
201.1705790683
 20
253.3251495017
 30
0.0
 11
201.7090406068
 21
256.8251495017
 31
0.0
 12
200.6321175299
 22
256.8251495017
 32
0.0
 13
200.6321175299
 23
256.8251495017
 33
0.0
  0
LINE
  5
393
330
38E
100
AcDbEntity
  8
0
  6
Continuous
 62
     7
370
     0
100
AcDbLine
 10
191.2705790683
 20
249.3251495017
 30
0.0
 11
202.1705790683
 21
249.3251495017
 31
0.0
  0
LINE
  5
394
330
38E
100
AcDbEntity
  8
0
  6
Continuous
 62
     7
370
     0
100
AcDbLine
 10
189.2705790683
 20
253.3251495017
 30
0.0
 11
202.1705790683
 21
253.3251495017
 31
0.0
  0
LINE
  5
395
330
38E
100
AcDbEntity
  8
0
  6
Continuous
 62
     7
370
     0
100
AcDbLine
 10
201.1705790683
 20
249.3251495017
 30
0.0
 11
201.1705790683
 21
242.5943802709
 31
0.0
  0
LINE
  5
396
330
38E
100
AcDbEntity
  8
0
  6
Continuous
 62
     7
370
     0
100
AcDbLine
 10
201.1705790683
 20
249.3251495017
 30
0.0
 11
201.1705790683
 21
253.3251495017
 31
0.0
  0
LINE
  5
397
330
38E
100
AcDbEntity
  8
0
  6
Continuous
 62
     7
370
     0
100
AcDbLine
 10
201.1705790683
 20
253.3251495017
 30
0.0
 11
201.1705790683
 21
260.0559187324
 31
0.0
  0
MTEXT
  5
398
330
38E
100
AcDbEntity
  8
0
  6
Continuous
 62
     7
370
    18
100
AcDbMText
 10
196.6588417463
 20
249.9883439792
 30
0.0
 40
3.5
 41
0.0
 71
     1
 72
     1
  1
4
  7
SLDTEXTSTYLE0
 11
6.123233995736766E-17
 21
1.0
 31
0.0
 73
     1
 44
1.0
  0
ENDBLK
  5
390
330
38E
100
AcDbEntity
  8
0
100
AcDbBlockEnd
  0
BLOCK
  5
39B
330
39A
100
AcDbEntity
  8
0
100
AcDbBlockBegin
  2
_D_5
 70
     0
 10
0.0
 20
0.0
 30
0.0
  3
_D_5
  1

  0
SOLID
  5
39D
330
39A
100
AcDbEntity
  8
0
  6
Continuous
 62
     7
370
    18
100
AcDbTrace
 10
50.1705790683
 20
263.3251495017
 30
0.0
 11
46.6705790683
 21
263.8636110401
 31
0.0
 12
46.6705790683
 22
262.7866879632
 32
0.0
 13
46.6705790683
 23
262.7866879632
 33
0.0
  0
SOLID
  5
39E
330
39A
100
AcDbEntity
  8
0
  6
Continuous
 62
     7
370
    18
100
AcDbTrace
 10
52.1705790683
 20
263.3251495017
 30
0.0
 11
55.6705790683
 21
262.7866879632
 31
0.0
 12
55.6705790683
 22
263.8636110401
 32
0.0
 13
55.6705790683
 23
263.8636110401
 33
0.0
  0
LINE
  5
39F
330
39A
100
AcDbEntity
  8
0
  6
Continuous
 62
     7
370
     0
100
AcDbLine
 10
50.1705790683
 20
251.4251495017
 30
0.0
 11
50.1705790683
 21
264.3251495017
 31
0.0
  0
LINE
  5
3A0
330
39A
100
AcDbEntity
  8
0
  6
Continuous
 62
     7
370
     0
100
AcDbLine
 10
52.1705790683
 20
253.4251495017
 30
0.0
 11
52.1705790683
 21
264.3251495017
 31
0.0
  0
LINE
  5
3A1
330
39A
100
AcDbEntity
  8
0
  6
Continuous
 62
     7
370
     0
100
AcDbLine
 10
50.1705790683
 20
263.3251495017
 30
0.0
 11
43.4398098376
 21
263.3251495017
 31
0.0
  0
LINE
  5
3A2
330
39A
100
AcDbEntity
  8
0
  6
Continuous
 62
     7
370
     0
100
AcDbLine
 10
50.1705790683
 20
263.3251495017
 30
0.0
 11
52.1705790683
 21
263.3251495017
 31
0.0
  0
LINE
  5
3A3
330
39A
100
AcDbEntity
  8
0
  6
Continuous
 62
     7
370
     0
100
AcDbLine
 10
52.1705790683
 20
263.3251495017
 30
0.0
 11
69.3307044241
 21
263.3251495017
 31
0.0
  0
MTEXT
  5
3A4
330
39A
100
AcDbEntity
  8
0
  6
Continuous
 62
     7
370
    18
100
AcDbMText
 10
56.9786215458
 20
267.8368868237
 30
0.0
 40
3.5
 41
0.0
 71
     1
 72
     1
  1
2
  7
SLDTEXTSTYLE0
 73
     1
 44
1.0
  0
MTEXT
  5
3A5
330
39A
100
AcDbEntity
  8
0
  6
Continuous
 62
     7
370
    18
100
AcDbMText
 10
59.6522325907
 20
267.8368868237
 30
0.0
 40
3.5
 41
0.0
 71
     1
 72
     1
  1
x45°
  7
SLDTEXTSTYLE0
 73
     1
 44
1.0
  0
ENDBLK
  5
39C
330
39A
100
AcDbEntity
  8
0
100
AcDbBlockEnd
  0
ENDSEC
  0
SECTION
  2
ENTITIES
  0
LINE
  5
F9
330
1F
100
AcDbEntity
  8
0
  6
CENTERX2
 62
     7
370
    18
100
AcDbLine
 10
352.6174545849
 20
46.9080238789
 30
0.0
 11
352.6174545849
 21
39.4621586124
 31
0.0
  0
LINE
  5
FA
330
1F
100
AcDbEntity
  8
0
  6
Continuous
 62
     7
370
    18
100
AcDbLine
 10
357.7661698132
 20
46.3720107039
 30
0.0
 11
357.7661698132
 21
39.9353173413
 31
0.0
  0
LINE
  5
FB
330
1F
100
AcDbEntity
  8
0
  6
Continuous
 62
     7
370
    18
100
AcDbLine
 10
364.6059427486
 20
44.7376225767
 30
0.0
 11
364.6059427486
 21
41.5697054685
 31
0.0
  0
LINE
  5
FC
330
1F
100
AcDbEntity
  8
0
  6
Continuous
 62
     7
370
    18
100
AcDbLine
 10
364.6059427486
 20
44.7376225767
 30
0.0
 11
357.7661698132
 21
46.3720107039
 31
0.0
  0
LINE
  5
FD
330
1F
100
AcDbEntity
  8
0
  6
Continuous
 62
     7
370
    18
100
AcDbLine
 10
15.0
 20
198.5
 30
0.0
 11
20.0
 21
198.5
 31
0.0
  0
LINE
  5
FE
330
1F
100
AcDbEntity
  8
0
  6
Continuous
 62
     7
370
    18
100
AcDbLine
 10
12.0
 20
148.5
 30
0.0
 11
0.0
 21
148.5
 31
0.0
  0
LINE
  5
FF
330
1F
100
AcDbEntity
  8
0
  6
Continuous
 62
     7
370
    18
100
AcDbLine
 10
357.7661698132
 20
39.9353173413
 30
0.0
 11
364.6059427486
 21
41.5697054685
 31
0.0
  0
LINE
  5
100
330
1F
100
AcDbEntity
  8
0
  6
CENTERX2
 62
     7
370
    18
100
AcDbLine
 10
348.6240467841
 20
43.1536640226
 30
0.0
 11
356.6108623857
 21
43.1536640226
 31
0.0
  0
LINE
  5
101
330
1F
100
AcDbEntity
  8
0
  6
CENTERX2
 62
     7
370
    18
100
AcDbLine
 10
357.1289238876
 20
43.1536640226
 30
0.0
 11
365.6255362296
 21
43.1536640226
 31
0.0
  0
LINE
  5
102
330
1F
100
AcDbEntity
  8
0
  6
Continuous
 62
     7
370
    18
100
AcDbLine
 10
0.0
 20
0.0
 30
0.0
 11
420.0
 21
0.0
 31
0.0
  0
LINE
  5
103
330
1F
100
AcDbEntity
  8
0
  6
Continuous
 62
     7
370
    18
100
AcDbLine
 10
0.0
 20
0.0
 30
0.0
 11
0.0
 21
297.0
 31
0.0
  0
LINE
  5
104
330
1F
100
AcDbEntity
  8
0
  6
Continuous
 62
     7
370
    18
100
AcDbLine
 10
0.0
 20
297.0
 30
0.0
 11
420.0
 21
297.0
 31
0.0
  0
LINE
  5
105
330
1F
100
AcDbEntity
  8
0
  6
Continuous
 62
     7
370
    18
100
AcDbLine
 10
420.0
 20
0.0
 30
0.0
 11
420.0
 21
297.0
 31
0.0
  0
LINE
  5
106
330
1F
100
AcDbEntity
  8
0
  6
Continuous
 62
     7
370
    25
100
AcDbLine
 10
228.0
 20
35.0
 30
0.0
 11
410.0
 21
35.0
 31
0.0
  0
LINE
  5
107
330
1F
100
AcDbEntity
  8
0
  6
Continuous
 62
     7
370
    18
100
AcDbLine
 10
410.0
 20
198.5
 30
0.0
 11
415.0
 21
198.5
 31
0.0
  0
LINE
  5
108
330
1F
100
AcDbEntity
  8
0
  6
Continuous
 62
     7
370
    18
100
AcDbLine
 10
15.0
 20
148.5
 30
0.0
 11
20.0
 21
148.5
 31
0.0
  0
LINE
  5
109
330
1F
100
AcDbEntity
  8
0
  6
Continuous
 62
     7
370
    18
100
AcDbLine
 10
228.0
 20
40.0
 30
0.0
 11
296.6
 21
40.0
 31
0.0
  0
LINE
  5
10A
330
1F
100
AcDbEntity
  8
0
  6
Continuous
 62
     7
370
    18
100
AcDbLine
 10
15.0
 20
248.5
 30
0.0
 11
20.0
 21
248.5
 31
0.0
  0
LINE
  5
10B
330
1F
100
AcDbEntity
  8
0
  6
Continuous
 62
     7
370
    35
100
AcDbLine
 10
20.0
 20
287.0
 30
0.0
 11
20.0
 21
10.0
 31
0.0
  0
LINE
  5
10C
330
1F
100
AcDbEntity
  8
0
  6
Continuous
 62
     7
370
    35
100
AcDbLine
 10
410.0
 20
287.0
 30
0.0
 11
20.0
 21
287.0
 31
0.0
  0
LINE
  5
10D
330
1F
100
AcDbEntity
  8
0
  6
Continuous
 62
     7
370
    35
100
AcDbLine
 10
410.0
 20
5.0
 30
0.0
 11
410.0
 21
287.0
 31
0.0
  0
LINE
  5
10E
330
1F
100
AcDbEntity
  8
0
  6
Continuous
 62
     7
370
    35
100
AcDbLine
 10
20.0
 20
10.0
 30
0.0
 11
415.0
 21
10.0
 31
0.0
  0
LINE
  5
10F
330
1F
100
AcDbEntity
  8
0
  6
Continuous
 62
     7
370
    18
100
AcDbLine
 10
410.0
 20
148.5
 30
0.0
 11
415.0
 21
148.5
 31
0.0
  0
LINE
  5
110
330
1F
100
AcDbEntity
  8
0
  6
Continuous
 62
     7
370
    18
100
AcDbLine
 10
228.0
 20
50.0
 30
0.0
 11
296.6
 21
50.0
 31
0.0
  0
LINE
  5
111
330
1F
100
AcDbEntity
  8
0
  6
Continuous
 62
     7
370
    18
100
AcDbLine
 10
15.0
 20
98.5
 30
0.0
 11
20.0
 21
98.5
 31
0.0
  0
LINE
  5
112
330
1F
100
AcDbEntity
  8
0
  6
Continuous
 62
     7
370
    18
100
AcDbLine
 10
296.6
 20
45.0
 30
0.0
 11
228.0
 21
45.0
 31
0.0
  0
LINE
  5
113
330
1F
100
AcDbEntity
  8
0
  6
Continuous
 62
     7
370
    18
100
AcDbLine
 10
65.0
 20
292.0
 30
0.0
 11
65.0
 21
287.0
 31
0.0
  0
LINE
  5
114
330
1F
100
AcDbEntity
  8
0
  6
Continuous
 62
     7
370
    18
100
AcDbLine
 10
230.0
 20
292.0
 30
0.0
 11
230.0
 21
297.0
 31
0.0
  0
LINE
  5
115
330
1F
100
AcDbEntity
  8
0
  6
Continuous
 62
     7
370
    25
100
AcDbLine
 10
296.6
 20
55.0
 30
0.0
 11
296.6
 21
35.0
 31
0.0
  0
LINE
  5
116
330
1F
100
AcDbEntity
  8
0
  6
Continuous
 62
     7
370
    18
100
AcDbLine
 10
410.0
 20
98.5
 30
0.0
 11
415.0
 21
98.5
 31
0.0
  0
LINE
  5
117
330
1F
100
AcDbEntity
  8
0
100
AcDbLine
 10
230.0
 20
5.0
 30
0.0
 11
230.0
 21
0.0
 31
0.0
  0
LINE
  5
118
330
1F
100
AcDbEntity
  8
0
  6
Continuous
 62
     7
370
    18
100
AcDbLine
 10
125.0
 20
292.0
 30
0.0
 11
125.0
 21
297.0
 31
0.0
  0
LINE
  5
119
330
1F
100
AcDbEntity
  8
0
  6
Continuous
 62
     7
370
    18
100
AcDbLine
 10
125.0
 20
5.0
 30
0.0
 11
125.0
 21
0.0
 31
0.0
  0
LINE
  5
11A
330
1F
100
AcDbEntity
  8
0
  6
Continuous
 62
     7
370
    25
100
AcDbLine
 10
410.0
 20
55.0
 30
0.0
 11
228.0
 21
55.0
 31
0.0
  0
LINE
  5
11B
330
1F
100
AcDbEntity
  8
0
  6
Continuous
 62
     7
370
    18
100
AcDbLine
 10
228.0
 20
55.0
 30
0.0
 11
410.0
 21
55.0
 31
0.0
  0
LINE
  5
11C
330
1F
100
AcDbEntity
  8
0
  6
Continuous
 62
     7
370
    18
100
AcDbLine
 10
410.0
 20
55.0
 30
0.0
 11
228.0
 21
55.0
 31
0.0
  0
LINE
  5
11D
330
1F
100
AcDbEntity
  8
0
  6
Continuous
 62
     7
370
    18
100
AcDbLine
 10
268.0
 20
76.5
 30
0.0
 11
268.0
 21
55.0
 31
0.0
  0
LINE
  5
11E
330
1F
100
AcDbEntity
  8
0
  6
Continuous
 62
     7
370
    18
100
AcDbLine
 10
271.6
 20
55.0
 30
0.0
 11
271.6
 21
40.0
 31
0.0
  0
LINE
  5
11F
330
1F
100
AcDbEntity
  8
0
  6
Continuous
 62
     7
370
    18
100
AcDbLine
 10
247.0
 20
55.0
 30
0.0
 11
247.0
 21
35.0
 31
0.0
  0
LINE
  5
120
330
1F
100
AcDbEntity
  8
0
  6
Continuous
 62
     7
370
    35
100
AcDbLine
 10
228.0
 20
76.5
 30
0.0
 11
228.0
 21
10.0
 31
0.0
  0
LINE
  5
121
330
1F
100
AcDbEntity
  8
0
  6
Continuous
 62
     7
370
    18
100
AcDbLine
 10
15.0
 20
292.0
 30
0.0
 11
415.0
 21
292.0
 31
0.0
  0
LINE
  5
122
330
1F
100
AcDbEntity
  8
0
  6
Continuous
 62
     7
370
    18
100
AcDbLine
 10
228.0
 20
65.75
 30
0.0
 11
310.0
 21
65.75
 31
0.0
  0
LINE
  5
123
330
1F
100
AcDbEntity
  8
0
  6
Continuous
 62
     7
370
    35
100
AcDbLine
 10
228.0
 20
76.5
 30
0.0
 11
410.0
 21
76.5
 31
0.0
  0
LINE
  5
124
330
1F
100
AcDbEntity
  8
0
  6
Continuous
 62
     7
370
    18
100
AcDbLine
 10
15.0
 20
48.5
 30
0.0
 11
20.0
 21
48.5
 31
0.0
  0
LINE
  5
125
330
1F
100
AcDbEntity
  8
0
  6
Continuous
 62
     7
370
    18
100
AcDbLine
 10
410.0
 20
48.5
 30
0.0
 11
415.0
 21
48.5
 31
0.0
  0
LINE
  5
126
330
1F
100
AcDbEntity
  8
0
  6
Continuous
 62
     7
370
    18
100
AcDbLine
 10
332.6610845472
 20
20.0
 30
0.0
 11
332.6610845472
 21
10.0
 31
0.0
  0
LINE
  5
127
330
1F
100
AcDbEntity
  8
0
  6
Continuous
 62
     7
370
    18
100
AcDbLine
 10
410.0
 20
248.5
 30
0.0
 11
415.0
 21
248.5
 31
0.0
  0
LINE
  5
128
330
1F
100
AcDbEntity
  8
0
  6
Continuous
 62
     7
370
    18
100
AcDbLine
 10
65.0
 20
10.0
 30
0.0
 11
65.0
 21
5.0
 31
0.0
  0
LINE
  5
129
330
1F
100
AcDbEntity
  8
0
  6
Continuous
 62
     7
370
    18
100
AcDbLine
 10
115.0
 20
10.0
 30
0.0
 11
115.0
 21
5.0
 31
0.0
  0
LINE
  5
12A
330
1F
100
AcDbEntity
  8
0
  6
Continuous
 62
     7
370
    18
100
AcDbLine
 10
115.0
 20
292.0
 30
0.0
 11
115.0
 21
287.0
 31
0.0
  0
LINE
  5
12B
330
1F
100
AcDbEntity
  8
0
  6
Continuous
 62
     7
370
    18
100
AcDbLine
 10
165.0
 20
10.0
 30
0.0
 11
165.0
 21
5.0
 31
0.0
  0
LINE
  5
12C
330
1F
100
AcDbEntity
  8
0
  6
Continuous
 62
     7
370
    18
100
AcDbLine
 10
165.0
 20
292.0
 30
0.0
 11
165.0
 21
287.0
 31
0.0
  0
LINE
  5
12D
330
1F
100
AcDbEntity
  8
0
  6
Continuous
 62
     7
370
    18
100
AcDbLine
 10
215.0
 20
10.0
 30
0.0
 11
215.0
 21
5.0
 31
0.0
  0
LINE
  5
12E
330
1F
100
AcDbEntity
  8
0
  6
Continuous
 62
     7
370
    18
100
AcDbLine
 10
215.0
 20
292.0
 30
0.0
 11
215.0
 21
287.0
 31
0.0
  0
LINE
  5
12F
330
1F
100
AcDbEntity
  8
0
  6
Continuous
 62
     7
370
    18
100
AcDbLine
 10
265.0
 20
10.0
 30
0.0
 11
265.0
 21
5.0
 31
0.0
  0
LINE
  5
130
330
1F
100
AcDbEntity
  8
0
  6
Continuous
 62
     7
370
    18
100
AcDbLine
 10
265.0
 20
292.0
 30
0.0
 11
265.0
 21
287.0
 31
0.0
  0
LINE
  5
131
330
1F
100
AcDbEntity
  8
0
  6
Continuous
 62
     7
370
    18
100
AcDbLine
 10
347.6610845472
 20
20.0
 30
0.0
 11
347.6610845472
 21
10.0
 31
0.0
  0
LINE
  5
132
330
1F
100
AcDbEntity
  8
0
  6
Continuous
 62
     7
370
    18
100
AcDbLine
 10
362.6610845472
 20
20.0
 30
0.0
 11
362.6610845472
 21
10.0
 31
0.0
  0
LINE
  5
133
330
1F
100
AcDbEntity
  8
0
  6
Continuous
 62
     7
370
    25
100
AcDbLine
 10
327.6610845472
 20
10.0
 30
0.0
 11
327.6610845472
 21
55.0
 31
0.0
  0
LINE
  5
134
330
1F
100
AcDbEntity
  8
0
  6
Continuous
 62
     7
370
    18
100
AcDbLine
 10
20.0
 20
292.0
 30
0.0
 11
20.0
 21
297.0
 31
0.0
  0
LINE
  5
135
330
1F
100
AcDbEntity
  8
0
  6
Continuous
 62
     7
370
    18
100
AcDbLine
 10
20.0
 20
5.0
 30
0.0
 11
20.0
 21
0.0
 31
0.0
  0
LINE
  5
136
330
1F
100
AcDbEntity
  8
0
  6
Continuous
 62
     7
370
    18
100
AcDbLine
 10
315.0
 20
10.0
 30
0.0
 11
315.0
 21
5.0
 31
0.0
  0
LINE
  5
137
330
1F
100
AcDbEntity
  8
0
  6
Continuous
 62
     7
370
    18
100
AcDbLine
 10
315.0
 20
292.0
 30
0.0
 11
315.0
 21
287.0
 31
0.0
  0
LINE
  5
138
330
1F
100
AcDbEntity
  8
0
  6
Continuous
 62
     7
370
    18
100
AcDbLine
 10
365.0
 20
10.0
 30
0.0
 11
365.0
 21
5.0
 31
0.0
  0
LINE
  5
139
330
1F
100
AcDbEntity
  8
0
  6
Continuous
 62
     7
370
    18
100
AcDbLine
 10
365.0
 20
292.0
 30
0.0
 11
365.0
 21
287.0
 31
0.0
  0
LINE
  5
13A
330
1F
100
AcDbEntity
  8
0
  6
Continuous
 62
     7
370
    18
100
AcDbLine
 10
15.0
 20
292.0
 30
0.0
 11
15.0
 21
5.0
 31
0.0
  0
LINE
  5
13B
330
1F
100
AcDbEntity
  8
0
  6
Continuous
 62
     7
370
    18
100
AcDbLine
 10
15.0
 20
5.0
 30
0.0
 11
415.0
 21
5.0
 31
0.0
  0
LINE
  5
13C
330
1F
100
AcDbEntity
  8
0
  6
Continuous
 62
     7
370
    18
100
AcDbLine
 10
415.0
 20
292.0
 30
0.0
 11
415.0
 21
5.0
 31
0.0
  0
LINE
  5
13D
330
1F
100
AcDbEntity
  8
0
  6
Continuous
 62
     7
370
    18
100
AcDbLine
 10
347.6610845472
 20
44.213444
 30
0.0
 11
327.6610845472
 21
44.213444
 31
0.0
  0
LINE
  5
13E
330
1F
100
AcDbEntity
  8
0
  6
Continuous
 62
     7
370
    18
100
AcDbLine
 10
347.6610845472
 20
35.0
 30
0.0
 11
347.6610845472
 21
55.0
 31
0.0
  0
LINE
  5
13F
330
1F
100
AcDbEntity
  8
0
  6
Continuous
 62
     7
370
    18
100
AcDbLine
 10
370.057188
 20
55.012032
 30
0.0
 11
370.057188
 21
35.0
 31
0.0
  0
LINE
  5
140
330
1F
100
AcDbEntity
  8
0
  6
Continuous
 62
     7
370
    18
100
AcDbLine
 10
398.0
 20
35.0
 30
0.0
 11
398.0
 21
20.0
 31
0.0
  0
LINE
  5
141
330
1F
100
AcDbEntity
  8
0
  6
Continuous
 62
     7
370
    18
100
AcDbLine
 10
410.0
 20
15.0
 30
0.0
 11
327.6610845472
 21
15.0
 31
0.0
  0
LINE
  5
142
330
1F
100
AcDbEntity
  8
0
  6
Continuous
 62
     7
370
    18
100
AcDbLine
 10
327.6610845472
 20
20.0
 30
0.0
 11
410.0
 21
20.0
 31
0.0
  0
LINE
  5
143
330
1F
100
AcDbEntity
  8
0
  6
Continuous
 62
     7
370
    18
100
AcDbLine
 10
341.485486
 20
20.0
 30
0.0
 11
341.485486
 21
27.564675
 31
0.0
  0
LINE
  5
144
330
1F
100
AcDbEntity
  8
0
  6
Continuous
 62
     7
370
    25
100
AcDbLine
 10
310.0
 20
76.5
 30
0.0
 11
310.0
 21
55.0
 31
0.0
  0
CIRCLE
  5
145
330
1F
100
AcDbEntity
  8
0
  6
Continuous
 62
     7
370
    18
100
AcDbCircle
 10
11.0
 20
108.5
 30
0.0
 40
2.750000000000001
  0
CIRCLE
  5
146
330
1F
100
AcDbEntity
  8
0
  6
Continuous
 62
     7
370
    18
100
AcDbCircle
 10
11.0
 20
188.5
 30
0.0
 40
2.750000000000001
  0
CIRCLE
  5
147
330
1F
100
AcDbEntity
  8
0
  6
Continuous
 62
     7
370
    18
100
AcDbCircle
 10
352.6174545849
 20
43.1536640226
 30
0.0
 40
3.218346681300138
  0
CIRCLE
  5
148
330
1F
100
AcDbEntity
  8
0
  6
Continuous
 62
     7
370
    18
100
AcDbCircle
 10
352.6174545849
 20
43.1536640226
 30
0.0
 40
1.583958554121555
  0
INSERT
  5
149
330
1F
100
AcDbEntity
  8
0
  6
Continuous
 62
     7
100
AcDbBlockReference
  2
ACO-Logo
 10
314.3510726297
 20
57.6366106772
 30
0.0
  0
POINT
  5
14A
330
1F
100
AcDbEntity
  8
0
100
AcDbPoint
 10
0.0
 20
0.0
 30
0.0
  0
POINT
  5
14B
330
1F
100
AcDbEntity
  8
0
100
AcDbPoint
 10
410.0
 20
10.0
 30
0.0
  0
MTEXT
  5
14C
330
1F
100
AcDbEntity
  8
0
  6
Continuous
 62
     7
370
    18
100
AcDbMText
 10
17.7359443114
 20
124.8017866468
 30
0.0
 40
2.0
 41
0.0
 71
     2
 72
     1
  1
D
  7
SLDTEXTSTYLE0
 73
     1
 44
1.0
  0
MTEXT
  5
14D
330
1F
100
AcDbEntity
  8
0
  6
Continuous
 62
     7
370
    18
100
AcDbMText
 10
17.6274822413
 20
174.7261854936
 30
0.0
 40
2.0
 41
0.0
 71
     2
 72
     1
  1
C
  7
SLDTEXTSTYLE0
 73
     1
 44
1.0
  0
MTEXT
  5
14E
330
1F
100
AcDbEntity
  8
0
  6
Continuous
 62
     7
370
    18
100
AcDbMText
 10
17.5516905072
 20
224.4926420442
 30
0.0
 40
2.0
 41
0.0
 71
     2
 72
     1
  1
B
  7
SLDTEXTSTYLE0
 73
     1
 44
1.0
  0
MTEXT
  5
14F
330
1F
100
AcDbEntity
  8
0
  6
Continuous
 62
     7
370
    18
100
AcDbMText
 10
290.0344258799
 20
290.5428789914
 30
0.0
 40
2.0
 41
0.0
 71
     2
 72
     1
  1
6
  7
SLDTEXTSTYLE0
 73
     1
 44
1.0
  0
MTEXT
  5
150
330
1F
100
AcDbEntity
  8
0
  6
Continuous
 62
     7
370
    18
100
AcDbMText
 10
240.0417859812
 20
290.6369260235
 30
0.0
 40
2.0
 41
0.0
 71
     2
 72
     1
  1
5
  7
SLDTEXTSTYLE0
 73
     1
 44
1.0
  0
MTEXT
  5
151
330
1F
100
AcDbEntity
  8
0
  6
Continuous
 62
     7
370
    18
100
AcDbMText
 10
190.0300404524
 20
290.6343268032
 30
0.0
 40
2.0
 41
0.0
 71
     2
 72
     1
  1
4
  7
SLDTEXTSTYLE0
 73
     1
 44
1.0
  0
MTEXT
  5
152
330
1F
100
AcDbEntity
  8
0
  6
Continuous
 62
     7
370
    18
100
AcDbMText
 10
140.0165868337
 20
290.6378887952
 30
0.0
 40
2.0
 41
0.0
 71
     2
 72
     1
  1
3
  7
SLDTEXTSTYLE0
 73
     1
 44
1.0
  0
MTEXT
  5
153
330
1F
100
AcDbEntity
  8
0
  6
Continuous
 62
     7
370
    18
100
AcDbMText
 10
90.033223
 20
290.5566702875
 30
0.0
 40
2.0
 41
0.0
 71
     2
 72
     1
  1
2
  7
SLDTEXTSTYLE0
 73
     1
 44
1.0
  0
MTEXT
  5
154
330
1F
100
AcDbEntity
  8
0
  6
Continuous
 62
     7
370
    18
100
AcDbMText
 10
40.0509551097
 20
290.5530165805
 30
0.0
 40
2.0
 41
0.0
 71
     2
 72
     1
  1
1
  7
SLDTEXTSTYLE0
 73
     1
 44
1.0
  0
MTEXT
  5
155
330
1F
100
AcDbEntity
  8
0
  6
Continuous
 62
     7
370
    18
100
AcDbMText
 10
17.5609786315
 20
271.2966048816
 30
0.0
 40
2.0
 41
0.0
 71
     2
 72
     1
  1
A
  7
SLDTEXTSTYLE0
 73
     1
 44
1.0
  0
MTEXT
  5
156
330
1F
100
AcDbEntity
  8
0
  6
Continuous
 62
     7
370
    18
100
AcDbMText
 10
89.9333968896
 20
8.5904490253
 30
0.0
 40
2.0
 41
0.0
 71
     2
 72
     1
  1
2
  7
SLDTEXTSTYLE0
 73
     1
 44
1.0
  0
MTEXT
  5
157
330
1F
100
AcDbEntity
  8
0
  6
Continuous
 62
     7
370
    18
100
AcDbMText
 10
39.9009486579
 20
8.6623118453
 30
0.0
 40
2.0
 41
0.0
 71
     2
 72
     1
  1
1
  7
SLDTEXTSTYLE0
 73
     1
 44
1.0
  0
MTEXT
  5
158
330
1F
100
AcDbEntity
  8
0
  6
Continuous
 62
     7
370
    18
100
AcDbMText
 10
190.0227230239
 20
8.7073169286
 30
0.0
 40
2.0
 41
0.0
 71
     2
 72
     1
  1
4
  7
SLDTEXTSTYLE0
 73
     1
 44
1.0
  0
MTEXT
  5
159
330
1F
100
AcDbEntity
  8
0
  6
Continuous
 62
     7
370
    18
100
AcDbMText
 10
140.0453427777
 20
8.5647154541
 30
0.0
 40
2.0
 41
0.0
 71
     2
 72
     1
  1
3
  7
SLDTEXTSTYLE0
 73
     1
 44
1.0
  0
MTEXT
  5
15A
330
1F
100
AcDbEntity
  8
0
  6
Continuous
 62
     7
370
    18
100
AcDbMText
 10
239.8749782531
 20
8.5637526825
 30
0.0
 40
2.0
 41
0.0
 71
     2
 72
     1
  1
5
  7
SLDTEXTSTYLE0
 73
     1
 44
1.0
  0
MTEXT
  5
15B
330
1F
100
AcDbEntity
  8
0
  6
Continuous
 62
     7
370
    18
100
AcDbMText
 10
412.6717254925
 20
224.51208263
 30
0.0
 40
2.0
 41
0.0
 71
     2
 72
     1
  1
B
  7
SLDTEXTSTYLE0
 73
     1
 44
1.0
  0
MTEXT
  5
15C
330
1F
100
AcDbEntity
  8
0
  6
Continuous
 62
     7
370
    18
100
AcDbMText
 10
412.5951211154
 20
271.2798202564
 30
0.0
 40
2.0
 41
0.0
 71
     2
 72
     1
  1
A
  7
SLDTEXTSTYLE0
 73
     1
 44
1.0
  0
MTEXT
  5
15D
330
1F
100
AcDbEntity
  8
0
  6
Continuous
 62
     7
370
    18
100
AcDbMText
 10
412.6491448679
 20
174.7279841048
 30
0.0
 40
2.0
 41
0.0
 71
     2
 72
     1
  1
C
  7
SLDTEXTSTYLE0
 73
     1
 44
1.0
  0
MTEXT
  5
15E
330
1F
100
AcDbEntity
  8
0
  6
Continuous
 62
     7
370
    18
100
AcDbMText
 10
340.0216466634
 20
290.5954278102
 30
0.0
 40
2.0
 41
0.0
 71
     2
 72
     1
  1
7
  7
SLDTEXTSTYLE0
 73
     1
 44
1.0
  0
MTEXT
  5
15F
330
1F
100
AcDbEntity
  8
0
  6
Continuous
 62
     7
370
    18
100
AcDbMText
 10
390.037657264
 20
290.6215496941
 30
0.0
 40
2.0
 41
0.0
 71
     2
 72
     1
  1
8
  7
SLDTEXTSTYLE0
 73
     1
 44
1.0
  0
MTEXT
  5
160
330
1F
100
AcDbEntity
  8
0
  6
Continuous
 62
     7
370
    18
100
AcDbMText
 10
17.6897935208
 20
74.7267628143
 30
0.0
 40
2.0
 41
0.0
 71
     2
 72
     1
  1
E
  7
SLDTEXTSTYLE0
 73
     1
 44
1.0
  0
MTEXT
  5
161
330
1F
100
AcDbEntity
  8
0
  6
Continuous
 62
     7
370
    18
100
AcDbMText
 10
17.5936930126
 20
27.773321616
 30
0.0
 40
2.0
 41
0.0
 71
     2
 72
     1
  1
F
  7
SLDTEXTSTYLE0
 73
     1
 44
1.0
  0
MTEXT
  5
162
330
1F
100
AcDbEntity
  8
0
  6
Continuous
 62
     7
370
    18
100
AcDbMText
 10
339.8003474583
 20
8.7205095051
 30
0.0
 40
2.0
 41
0.0
 71
     2
 72
     1
  1
7
  7
SLDTEXTSTYLE0
 73
     1
 44
1.0
  0
MTEXT
  5
163
330
1F
100
AcDbEntity
  8
0
  6
Continuous
 62
     7
370
    18
100
AcDbMText
 10
289.7886477179
 20
8.6884673623
 30
0.0
 40
2.0
 41
0.0
 71
     2
 72
     1
  1
6
  7
SLDTEXTSTYLE0
 73
     1
 44
1.0
  0
MTEXT
  5
164
330
1F
100
AcDbEntity
  8
0
  6
Continuous
 62
     7
370
    18
100
AcDbMText
 10
412.5160699095
 20
74.5096307526
 30
0.0
 40
2.0
 41
0.0
 71
     2
 72
     1
  1
E
  7
SLDTEXTSTYLE0
 73
     1
 44
1.0
  0
MTEXT
  5
165
330
1F
100
AcDbEntity
  8
0
  6
Continuous
 62
     7
370
    18
100
AcDbMText
 10
412.6234021365
 20
124.4517683275
 30
0.0
 40
2.0
 41
0.0
 71
     2
 72
     1
  1
D
  7
SLDTEXTSTYLE0
 73
     1
 44
1.0
  0
MTEXT
  5
166
330
1F
100
AcDbEntity
  8
0
  6
Continuous
 62
     7
370
    18
100
AcDbMText
 10
411.7952690469
 20
41.848914045
 30
0.0
 40
1.8
 41
0.0
 71
     3
 72
     1
  1
Plotdatum: 17.08.2024
  7
SLDTEXTSTYLE0
 11
-3.269436733918102E-15
 21
1.0
 31
0.0
 73
     1
 44
1.0
  0
MTEXT
  5
167
330
1F
100
AcDbEntity
  8
0
  6
Continuous
 62
     7
370
    18
100
AcDbMText
 10
412.557933251
 20
8.2549718046
 30
0.0
 40
1.8
 41
0.0
 71
     2
 72
     1
  1
A3
  7
SLDTEXTSTYLE0
 73
     1
 44
1.0
  0
MTEXT
  5
168
330
1F
100
AcDbEntity
  8
0
  6
Continuous
 62
     7
370
    18
100
AcDbMText
 10
390.594604279
 20
8.3847467643
 30
0.0
 40
1.8
 41
0.0
 71
     2
 72
     1
  1
CAD-System: SolidWorks
  7
SLDTEXTSTYLE0
 73
     1
 44
1.0
  0
MTEXT
  5
169
330
1F
100
AcDbEntity
  8
0
  6
Continuous
 62
     7
370
    18
100
AcDbMText
 10
403.9986368527
 20
28.4394692021
 30
0.0
 40
5.0
 41
0.0
 71
     2
 72
     1
  1
B
  7
SLDTEXTSTYLE0
 73
     1
 44
1.0
  0
MTEXT
  5
16A
330
1F
100
AcDbEntity
  8
0
  6
Continuous
 62
     7
370
    18
100
AcDbMText
 10
249.556836311
 20
38.5581729516
 30
0.0
 40
2.0
 41
0.0
 71
     1
 72
     1
  1
Freigegeben
  7
SLDTEXTSTYLE0
 73
     1
 44
1.0
  0
MTEXT
  5
16B
330
1F
100
AcDbEntity
  8
0
  6
Continuous
 62
     7
370
    18
100
AcDbMText
 10
284.096264263
 20
43.5473338598
 30
0.0
 40
2.0
 41
0.0
 71
     2
 72
     1
  1
dca
  7
SLDTEXTSTYLE0
 73
     1
 44
1.0
  0
MTEXT
  5
16C
330
1F
100
AcDbEntity
  8
0
  6
Continuous
 62
     7
370
    18
100
AcDbMText
 10
249.5284668163
 20
43.5603133928
 30
0.0
 40
2.0
 41
0.0
 71
     1
 72
     1
  1
17.08.2024
  7
SLDTEXTSTYLE0
 73
     1
 44
1.0
  0
MTEXT
  5
16D
330
1F
100
AcDbEntity
  8
0
  6
Continuous
 62
     7
370
    18
100
AcDbMText
 10
284.1309088133
 20
48.5138972561
 30
0.0
 40
2.0
 41
0.0
 71
     2
 72
     1
  1
AB
  7
SLDTEXTSTYLE0
 73
     1
 44
1.0
  0
MTEXT
  5
16E
330
1F
100
AcDbEntity
  8
0
  6
Continuous
 62
     7
370
    18
100
AcDbMText
 10
249.5284668163
 20
48.4989062069
 30
0.0
 40
2.0
 41
0.0
 71
     1
 72
     1
  1
31.08.2021
  7
SLDTEXTSTYLE0
 73
     1
 44
1.0
  0
MTEXT
  5
16F
330
1F
100
AcDbEntity
  8
0
  6
Continuous
 62
     7
370
     0
100
AcDbMText
 10
372.2007348103
 20
38.8723054925
 30
0.0
 40
1.5
 41
0.0
 71
     1
 72
     1
  1
Copyright reserved! © ACO AG
  7
SLDTEXTSTYLE0
 73
     1
 44
1.0
  0
INSERT
  5
178
330
1F
100
AcDbEntity
  8
0
  6
Continuous
 62
     7
370
     0
100
AcDbBlockReference
  2
SW_NOTE_0_3
 10
372.2203831445
 20
51.2202922854
 30
0.0
  0
MTEXT
  5
179
330
1F
100
AcDbEntity
  8
0
  6
Continuous
 62
     7
370
    18
100
AcDbMText
 10
340.2237528517
 20
13.606872109
 30
0.0
 40
2.0
 41
0.0
 71
     2
 72
     1
  1
25.04.2023
  7
SLDTEXTSTYLE0
 73
     1
 44
1.0
  0
MTEXT
  5
17A
330
1F
100
AcDbEntity
  8
0
  6
Continuous
 62
     7
370
    18
100
AcDbMText
 10
364.9468572407
 20
13.5417229519
 30
0.0
 40
2.0
 41
0.0
 71
     1
 72
     1
  1
SAP-Nr.
  7
SLDTEXTSTYLE0
 73
     1
 44
1.0
  0
MTEXT
  5
17B
330
1F
100
AcDbEntity
  8
0
  6
Continuous
 62
     7
370
    18
100
AcDbMText
 10
354.2334651348
 20
13.606872109
 30
0.0
 40
2.0
 41
0.0
 71
     2
 72
     1
  1
AB
  7
SLDTEXTSTYLE0
 73
     1
 44
1.0
  0
MTEXT
  5
17C
330
1F
100
AcDbEntity
  8
0
  6
Continuous
 62
     7
370
    18
100
AcDbMText
 10
330.227417144
 20
13.524501801
 30
0.0
 40
2.0
 41
0.0
 71
     2
 72
     1
  1
A
  7
SLDTEXTSTYLE0
 73
     1
 44
1.0
  0
MTEXT
  5
17D
330
1F
100
AcDbEntity
  8
0
  6
Continuous
 62
     7
370
    18
100
AcDbMText
 10
364.9468572407
 20
18.4594173137
 30
0.0
 40
2.0
 41
0.0
 71
     1
 72
     1
  1
SAP-Nr.
  7
SLDTEXTSTYLE0
 73
     1
 44
1.0
  0
MTEXT
  5
17E
330
1F
100
AcDbEntity
  8
0
  6
Continuous
 62
     7
370
    18
100
AcDbMText
 10
354.24544421
 20
18.5245664709
 30
0.0
 40
2.0
 41
0.0
 71
     2
 72
     1
  1
dca
  7
SLDTEXTSTYLE0
 73
     1
 44
1.0
  0
MTEXT
  5
17F
330
1F
100
AcDbEntity
  8
0
  6
Continuous
 62
     7
370
    18
100
AcDbMText
 10
340.3030419208
 20
18.5245664709
 30
0.0
 40
2.0
 41
0.0
 71
     2
 72
     1
  1
16.08.2024
  7
SLDTEXTSTYLE0
 73
     1
 44
1.0
  0
MTEXT
  5
180
330
1F
100
AcDbEntity
  8
0
  6
Continuous
 62
     7
370
    18
100
AcDbMText
 10
330.2494657985
 20
18.524501801
 30
0.0
 40
2.0
 41
0.0
 71
     2
 72
     1
  1
B
  7
SLDTEXTSTYLE0
 73
     1
 44
1.0
  0
MTEXT
  5
181
330
1F
100
AcDbEntity
  8
0
  6
Continuous
 62
     7
370
    18
100
AcDbMText
 10
311.764909851
 20
46.3490312465
 30
0.0
 40
5.0
 41
0.0
 71
     2
 72
     1
  1
1:1
  7
SLDTEXTSTYLE0
 73
     1
 44
1.0
  0
MTEXT
  5
182
330
1F
100
AcDbEntity
  8
0
  6
Continuous
 62
     7
370
    18
100
AcDbMText
 10
230.1851195342
 20
38.7793829468
 30
0.0
 40
2.0
 41
0.0
 71
     1
 72
     1
  1
Status:
  7
SLDTEXTSTYLE0
 73
     1
 44
1.0
  0
MTEXT
  5
183
330
1F
100
AcDbEntity
  8
0
  6
Continuous
 62
     7
370
    18
100
AcDbMText
 10
344.926838705
 20
28.2772828851
 30
0.0
 40
5.0
 41
0.0
 71
     1
 72
     1
  1
445088
  7
SLDTEXTSTYLE0
 73
     1
 44
1.0
  0
MTEXT
  5
184
330
1F
100
AcDbEntity
  8
0
  6
Continuous
 62
     7
370
    18
100
AcDbMText
 10
231.1132118803
 20
14.9211049657
 30
0.0
 40
2.5
 41
0.0
 71
     1
 72
     1
  1
Art. Nr.: 2091303
  7
SLDTEXTSTYLE0
 73
     1
 44
1.0
  0
MTEXT
  5
185
330
1F
100
AcDbEntity
  8
0
  6
Continuous
 62
     7
370
    18
100
AcDbMText
 10
231.1475981734
 20
21.4529560996
 30
0.0
 40
2.5
 41
0.0
 71
     1
 72
     1
  1
zu Aufsatzstück, Klasse K3, verschraubt
  7
SLDTEXTSTYLE0
 73
     1
 44
1.0
  0
MTEXT
  5
186
330
1F
100
AcDbEntity
  8
0
  6
Continuous
 62
     7
370
    18
100
AcDbMText
 10
231.1159560181
 20
33.0904969858
 30
0.0
 40
2.5
 41
0.0
 71
     1
 72
     1
  1
Bauelemente
  7
SLDTEXTSTYLE0
 73
     1
 44
1.0
  0
MTEXT
  5
187
330
1F
100
AcDbEntity
  8
0
  6
Continuous
 62
     7
370
    18
100
AcDbMText
 10
231.1475981734
 20
28.0307932366
 30
0.0
 40
3.5
 41
0.0
 71
     1
 72
     1
  1
Design Rost Linea 142x142 verschraubt
  7
SLDTEXTSTYLE0
 73
     1
 44
1.0
  0
MTEXT
  5
188
330
1F
100
AcDbEntity
  8
0
  6
Continuous
 62
     7
370
    18
100
AcDbMText
 10
348.2746465368
 20
53.819119072
 30
0.0
 40
2.0
 41
0.0
 71
     1
 72
     1
  1
Projektion: ISO-E
  7
SLDTEXTSTYLE0
 73
     1
 44
1.0
  0
MTEXT
  5
189
330
1F
100
AcDbEntity
  8
0
  6
Continuous
 62
     7
370
    18
100
AcDbMText
 10
337.7677091855
 20
49.3670227094
 30
0.0
 40
2.5
 41
0.0
 71
     2
 72
     1
  1
Millimeter
  7
SLDTEXTSTYLE0
 73
     1
 44
1.0
  0
MTEXT
  5
18A
330
1F
100
AcDbEntity
  8
0
  6
Continuous
 62
     7
370
    18
100
AcDbMText
 10
337.6323777421
 20
53.855374072
 30
0.0
 40
2.0
 41
0.0
 71
     2
 72
     1
  1
Masseinheit:
  7
SLDTEXTSTYLE0
 73
     1
 44
1.0
  0
MTEXT
  5
18B
330
1F
100
AcDbEntity
  8
0
  6
Continuous
 62
     7
370
    18
100
AcDbMText
 10
337.6114490186
 20
43.5452078816
 30
0.0
 40
2.0
 41
0.0
 71
     2
 72
     1
  1
Blatt / Anz.:
  7
SLDTEXTSTYLE0
 73
     1
 44
1.0
  0
MTEXT
  5
18C
330
1F
100
AcDbEntity
  8
0
  6
Continuous
 62
     7
370
    18
100
AcDbMText
 10
329.2895578243
 20
28.4139191092
 30
0.0
 40
5.0
 41
0.0
 71
     1
 72
     1
  1
CH
  7
SLDTEXTSTYLE0
 73
     1
 44
1.0
  0
MTEXT
  5
18D
330
1F
100
AcDbEntity
  8
0
  6
Continuous
 62
     7
370
    18
100
AcDbMText
 10
330.40704
 20
33.692638072
 30
0.0
 40
2.0
 41
0.0
 71
     1
 72
     1
  1
Zeichnung Nr.:
  7
SLDTEXTSTYLE0
 73
     1
 44
1.0
  0
MTEXT
  5
18E
330
1F
100
AcDbEntity
  8
0
  6
Continuous
 62
     7
370
    18
100
AcDbMText
 10
269.897953
 20
75.161075072
 30
0.0
 40
2.0
 41
0.0
 71
     1
 72
     1
  1
Gewicht:
  7
SLDTEXTSTYLE0
 73
     1
 44
1.0
  0
MTEXT
  5
18F
330
1F
100
AcDbEntity
  8
0
  6
Continuous
 62
     7
370
    18
100
AcDbMText
 10
230.0
 20
64.542328072
 30
0.0
 40
2.0
 41
0.0
 71
     1
 72
     1
  1
zul. Abweichung:
  7
SLDTEXTSTYLE0
 73
     1
 44
1.0
  0
MTEXT
  5
190
330
1F
100
AcDbEntity
  8
0
  6
Continuous
 62
     7
370
    18
100
AcDbMText
 10
269.612607
 20
64.542328072
 30
0.0
 40
2.0
 41
0.0
 71
     1
 72
     1
  1
Oberfläche:
  7
SLDTEXTSTYLE0
 73
     1
 44
1.0
  0
MTEXT
  5
191
330
1F
100
AcDbEntity
  8
0
  6
Continuous
 62
     7
370
    18
100
AcDbMText
 10
230.261411
 20
43.4433838912
 30
0.0
 40
2.0
 41
0.0
 71
     1
 72
     1
  1
Freigegeben:
  7
SLDTEXTSTYLE0
 73
     1
 44
1.0
  0
MTEXT
  5
192
330
1F
100
AcDbEntity
  8
0
  6
Continuous
 62
     7
370
    18
100
AcDbMText
 10
230.0
 20
75.161075072
 30
0.0
 40
2.0
 41
0.0
 71
     1
 72
     1
  1
Werkstoff:
  7
SLDTEXTSTYLE0
 73
     1
 44
1.0
  0
MTEXT
  5
193
330
1F
100
AcDbEntity
  8
0
  6
Continuous
 62
     7
370
    18
100
AcDbMText
 10
254.035545
 20
53.129475072
 30
0.0
 40
2.0
 41
0.0
 71
     1
 72
     1
  1
Datum:
  7
SLDTEXTSTYLE0
 73
     1
 44
1.0
  0
MTEXT
  5
194
330
1F
100
AcDbEntity
  8
0
  6
Continuous
 62
     7
370
    18
100
AcDbMText
 10
279.934928
 20
53.136060072
 30
0.0
 40
2.0
 41
0.0
 71
     1
 72
     1
  1
Name:
  7
SLDTEXTSTYLE0
 73
     1
 44
1.0
  0
MTEXT
  5
195
330
1F
100
AcDbEntity
  8
0
  6
Continuous
 62
     7
370
    18
100
AcDbMText
 10
312.162455406
 20
53.881591072
 30
0.0
 40
2.0
 41
0.0
 71
     2
 72
     1
  1
Massstab:
  7
SLDTEXTSTYLE0
 73
     1
 44
1.0
  0
MTEXT
  5
196
330
1F
100
AcDbEntity
  8
0
  6
Continuous
 62
     7
370
    18
100
AcDbMText
 10
403.9552944035
 20
33.324874072
 30
0.0
 40
2.0
 41
0.0
 71
     2
 72
     1
  1
Index:
  7
SLDTEXTSTYLE0
 73
     1
 44
1.0
  0
MTEXT
  5
197
330
1F
100
AcDbEntity
  8
0
  6
Continuous
 62
     7
370
    18
100
AcDbMText
 10
230.261411
 20
48.4499477886
 30
0.0
 40
2.0
 41
0.0
 71
     1
 72
     1
  1
Erstellt:
  7
SLDTEXTSTYLE0
 73
     1
 44
1.0
  0
MTEXT
  5
199
330
1F
100
AcDbEntity
  8
0
  6
Continuous
 62
     7
370
    18
100
AcDbMText
 10
337.6348165843
 20
39.869706576
 30
0.0
 40
2.5
 41
0.0
 71
     2
 72
     1
  1
1 / 1
  7
SLDTEXTSTYLE1
 73
     1
 44
1.0
  0
MTEXT
  5
19A
330
1F
100
AcDbEntity
  8
0
  6
Continuous
 62
     7
370
    18
100
AcDbMText
 10
269.612607
 20
60.8119428599
 30
0.0
 40
3.0
 41
0.0
 71
     1
 72
     1
  1
DIN ISO 1302
  7
SLDTEXTSTYLE0
 73
     1
 44
1.0
  0
MTEXT
  5
19B
330
1F
100
AcDbEntity
  8
0
  6
Continuous
 62
     7
370
    18
100
AcDbMText
 10
230.0
 20
60.8119428599
 30
0.0
 40
3.0
 41
0.0
 71
     1
 72
     1
  1
Norm
  7
SLDTEXTSTYLE0
 73
     1
 44
1.0
  0
MTEXT
  5
19C
330
1F
100
AcDbEntity
  8
0
  6
Continuous
 62
     7
370
    18
100
AcDbMText
 10
269.612607
 20
71.2121947186
 30
0.0
 40
3.0
 41
0.0
 71
     1
 72
     1
  1
0.47 kg
  7
SLDTEXTSTYLE0
 73
     1
 44
1.0
  0
MTEXT
  5
19D
330
1F
100
AcDbEntity
  8
0
  6
Continuous
 62
     7
370
    18
100
AcDbMText
 10
230.0
 20
71.2121947186
 30
0.0
 40
3.0
 41
0.0
 71
     1
 72
     1
  1
1.4301 (X5CrNi18-10)
  7
SLDTEXTSTYLE0
 73
     1
 44
1.0
  0
CIRCLE
  5
19E
330
1F
100
AcDbEntity
  8
0
  6
Continuous
 62
     7
370
    25
100
AcDbCircle
 10
61.6705790683
 20
88.0252179875
 30
0.0
 40
4.700000000000003
  0
CIRCLE
  5
19F
330
1F
100
AcDbEntity
  8
0
  6
Continuous
 62
     7
370
    25
100
AcDbCircle
 10
179.6705790683
 20
206.0252179875
 30
0.0
 40
4.700000000000017
  0
LINE
  5
1A0
330
1F
100
AcDbEntity
  8
0
  6
Continuous
 62
     7
370
    25
100
AcDbLine
 10
104.6705790683
 20
163.2752179875
 30
0.0
 11
104.6705790683
 21
156.7752179875
 31
0.0
  0
LINE
  5
1A1
330
1F
100
AcDbEntity
  8
0
  6
Continuous
 62
     7
370
    25
100
AcDbLine
 10
104.6705790683
 20
156.7752179875
 30
0.0
 11
136.6705790683
 21
156.7752179875
 31
0.0
  0
LINE
  5
1A2
330
1F
100
AcDbEntity
  8
0
  6
Continuous
 62
     7
370
    25
100
AcDbLine
 10
136.6705790683
 20
163.2752179875
 30
0.0
 11
136.6705790683
 21
156.7752179875
 31
0.0
  0
LINE
  5
1A3
330
1F
100
AcDbEntity
  8
0
  6
Continuous
 62
     7
370
    25
100
AcDbLine
 10
104.6705790683
 20
163.2752179875
 30
0.0
 11
136.6705790683
 21
163.2752179875
 31
0.0
  0
LINE
  5
1A4
330
1F
100
AcDbEntity
  8
0
  6
Continuous
 62
     7
370
    25
100
AcDbLine
 10
104.6705790683
 20
176.2752179875
 30
0.0
 11
104.6705790683
 21
169.7752179875
 31
0.0
  0
LINE
  5
1A5
330
1F
100
AcDbEntity
  8
0
  6
Continuous
 62
     7
370
    25
100
AcDbLine
 10
104.6705790683
 20
169.7752179875
 30
0.0
 11
136.6705790683
 21
169.7752179875
 31
0.0
  0
LINE
  5
1A6
330
1F
100
AcDbEntity
  8
0
  6
Continuous
 62
     7
370
    25
100
AcDbLine
 10
136.6705790683
 20
176.2752179875
 30
0.0
 11
136.6705790683
 21
169.7752179875
 31
0.0
  0
LINE
  5
1A7
330
1F
100
AcDbEntity
  8
0
  6
Continuous
 62
     7
370
    25
100
AcDbLine
 10
104.6705790683
 20
176.2752179875
 30
0.0
 11
136.6705790683
 21
176.2752179875
 31
0.0
  0
LINE
  5
1A8
330
1F
100
AcDbEntity
  8
0
  6
Continuous
 62
     7
370
    25
100
AcDbLine
 10
104.6705790683
 20
189.2752179875
 30
0.0
 11
104.6705790683
 21
182.7752179875
 31
0.0
  0
LINE
  5
1A9
330
1F
100
AcDbEntity
  8
0
  6
Continuous
 62
     7
370
    25
100
AcDbLine
 10
104.6705790683
 20
182.7752179875
 30
0.0
 11
136.6705790683
 21
182.7752179875
 31
0.0
  0
LINE
  5
1AA
330
1F
100
AcDbEntity
  8
0
  6
Continuous
 62
     7
370
    25
100
AcDbLine
 10
136.6705790683
 20
189.2752179875
 30
0.0
 11
136.6705790683
 21
182.7752179875
 31
0.0
  0
LINE
  5
1AB
330
1F
100
AcDbEntity
  8
0
  6
Continuous
 62
     7
370
    25
100
AcDbLine
 10
104.6705790683
 20
189.2752179875
 30
0.0
 11
136.6705790683
 21
189.2752179875
 31
0.0
  0
LINE
  5
1AC
330
1F
100
AcDbEntity
  8
0
  6
Continuous
 62
     7
370
    25
100
AcDbLine
 10
104.6705790683
 20
202.2752179875
 30
0.0
 11
104.6705790683
 21
195.7752179875
 31
0.0
  0
LINE
  5
1AD
330
1F
100
AcDbEntity
  8
0
  6
Continuous
 62
     7
370
    25
100
AcDbLine
 10
104.6705790683
 20
195.7752179875
 30
0.0
 11
136.6705790683
 21
195.7752179875
 31
0.0
  0
LINE
  5
1AE
330
1F
100
AcDbEntity
  8
0
  6
Continuous
 62
     7
370
    25
100
AcDbLine
 10
136.6705790683
 20
202.2752179875
 30
0.0
 11
136.6705790683
 21
195.7752179875
 31
0.0
  0
LINE
  5
1AF
330
1F
100
AcDbEntity
  8
0
  6
Continuous
 62
     7
370
    25
100
AcDbLine
 10
104.6705790683
 20
202.2752179875
 30
0.0
 11
136.6705790683
 21
202.2752179875
 31
0.0
  0
LINE
  5
1B0
330
1F
100
AcDbEntity
  8
0
  6
Continuous
 62
     7
370
    25
100
AcDbLine
 10
104.6705790683
 20
137.2752179875
 30
0.0
 11
104.6705790683
 21
130.7752179875
 31
0.0
  0
LINE
  5
1B1
330
1F
100
AcDbEntity
  8
0
  6
Continuous
 62
     7
370
    25
100
AcDbLine
 10
104.6705790683
 20
130.7752179875
 30
0.0
 11
136.6705790683
 21
130.7752179875
 31
0.0
  0
LINE
  5
1B2
330
1F
100
AcDbEntity
  8
0
  6
Continuous
 62
     7
370
    25
100
AcDbLine
 10
136.6705790683
 20
137.2752179875
 30
0.0
 11
136.6705790683
 21
130.7752179875
 31
0.0
  0
LINE
  5
1B3
330
1F
100
AcDbEntity
  8
0
  6
Continuous
 62
     7
370
    25
100
AcDbLine
 10
104.6705790683
 20
137.2752179875
 30
0.0
 11
136.6705790683
 21
137.2752179875
 31
0.0
  0
LINE
  5
1B4
330
1F
100
AcDbEntity
  8
0
  6
Continuous
 62
     7
370
    25
100
AcDbLine
 10
104.6705790683
 20
124.2752179875
 30
0.0
 11
104.6705790683
 21
117.7752179875
 31
0.0
  0
LINE
  5
1B5
330
1F
100
AcDbEntity
  8
0
  6
Continuous
 62
     7
370
    25
100
AcDbLine
 10
104.6705790683
 20
117.7752179875
 30
0.0
 11
136.6705790683
 21
117.7752179875
 31
0.0
  0
LINE
  5
1B6
330
1F
100
AcDbEntity
  8
0
  6
Continuous
 62
     7
370
    25
100
AcDbLine
 10
136.6705790683
 20
124.2752179875
 30
0.0
 11
136.6705790683
 21
117.7752179875
 31
0.0
  0
LINE
  5
1B7
330
1F
100
AcDbEntity
  8
0
  6
Continuous
 62
     7
370
    25
100
AcDbLine
 10
104.6705790683
 20
124.2752179875
 30
0.0
 11
136.6705790683
 21
124.2752179875
 31
0.0
  0
LINE
  5
1B8
330
1F
100
AcDbEntity
  8
0
  6
Continuous
 62
     7
370
    25
100
AcDbLine
 10
104.6705790683
 20
111.2752179875
 30
0.0
 11
104.6705790683
 21
104.7752179875
 31
0.0
  0
LINE
  5
1B9
330
1F
100
AcDbEntity
  8
0
  6
Continuous
 62
     7
370
    25
100
AcDbLine
 10
104.6705790683
 20
104.7752179875
 30
0.0
 11
136.6705790683
 21
104.7752179875
 31
0.0
  0
LINE
  5
1BA
330
1F
100
AcDbEntity
  8
0
  6
Continuous
 62
     7
370
    25
100
AcDbLine
 10
136.6705790683
 20
111.2752179875
 30
0.0
 11
136.6705790683
 21
104.7752179875
 31
0.0
  0
LINE
  5
1BB
330
1F
100
AcDbEntity
  8
0
  6
Continuous
 62
     7
370
    25
100
AcDbLine
 10
104.6705790683
 20
111.2752179875
 30
0.0
 11
136.6705790683
 21
111.2752179875
 31
0.0
  0
LINE
  5
1BC
330
1F
100
AcDbEntity
  8
0
  6
Continuous
 62
     7
370
    25
100
AcDbLine
 10
104.6705790683
 20
98.2752179875
 30
0.0
 11
104.6705790683
 21
91.7752179875
 31
0.0
  0
LINE
  5
1BD
330
1F
100
AcDbEntity
  8
0
  6
Continuous
 62
     7
370
    25
100
AcDbLine
 10
104.6705790683
 20
91.7752179875
 30
0.0
 11
136.6705790683
 21
91.7752179875
 31
0.0
  0
LINE
  5
1BE
330
1F
100
AcDbEntity
  8
0
  6
Continuous
 62
     7
370
    25
100
AcDbLine
 10
136.6705790683
 20
98.2752179875
 30
0.0
 11
136.6705790683
 21
91.7752179875
 31
0.0
  0
LINE
  5
1BF
330
1F
100
AcDbEntity
  8
0
  6
Continuous
 62
     7
370
    25
100
AcDbLine
 10
104.6705790683
 20
98.2752179875
 30
0.0
 11
136.6705790683
 21
98.2752179875
 31
0.0
  0
LINE
  5
1C0
330
1F
100
AcDbEntity
  8
0
  6
Continuous
 62
     7
370
    25
100
AcDbLine
 10
65.6705790683
 20
189.2752179875
 30
0.0
 11
65.6705790683
 21
182.7752179875
 31
0.0
  0
LINE
  5
1C1
330
1F
100
AcDbEntity
  8
0
  6
Continuous
 62
     7
370
    25
100
AcDbLine
 10
65.6705790683
 20
182.7752179875
 30
0.0
 11
97.6705790683
 21
182.7752179875
 31
0.0
  0
LINE
  5
1C2
330
1F
100
AcDbEntity
  8
0
  6
Continuous
 62
     7
370
    25
100
AcDbLine
 10
97.6705790683
 20
189.2752179875
 30
0.0
 11
97.6705790683
 21
182.7752179875
 31
0.0
  0
LINE
  5
1C3
330
1F
100
AcDbEntity
  8
0
  6
Continuous
 62
     7
370
    25
100
AcDbLine
 10
65.6705790683
 20
189.2752179875
 30
0.0
 11
97.6705790683
 21
189.2752179875
 31
0.0
  0
LINE
  5
1C4
330
1F
100
AcDbEntity
  8
0
  6
Continuous
 62
     7
370
    25
100
AcDbLine
 10
143.6705790683
 20
189.2752179875
 30
0.0
 11
143.6705790683
 21
182.7752179875
 31
0.0
  0
LINE
  5
1C5
330
1F
100
AcDbEntity
  8
0
  6
Continuous
 62
     7
370
    25
100
AcDbLine
 10
143.6705790683
 20
182.7752179875
 30
0.0
 11
175.6705790683
 21
182.7752179875
 31
0.0
  0
LINE
  5
1C6
330
1F
100
AcDbEntity
  8
0
  6
Continuous
 62
     7
370
    25
100
AcDbLine
 10
175.6705790683
 20
189.2752179875
 30
0.0
 11
175.6705790683
 21
182.7752179875
 31
0.0
  0
LINE
  5
1C7
330
1F
100
AcDbEntity
  8
0
  6
Continuous
 62
     7
370
    25
100
AcDbLine
 10
143.6705790683
 20
189.2752179875
 30
0.0
 11
175.6705790683
 21
189.2752179875
 31
0.0
  0
LINE
  5
1C8
330
1F
100
AcDbEntity
  8
0
  6
Continuous
 62
     7
370
    25
100
AcDbLine
 10
143.6705790683
 20
176.2752179875
 30
0.0
 11
143.6705790683
 21
169.7752179875
 31
0.0
  0
LINE
  5
1C9
330
1F
100
AcDbEntity
  8
0
  6
Continuous
 62
     7
370
    25
100
AcDbLine
 10
143.6705790683
 20
169.7752179875
 30
0.0
 11
175.6705790683
 21
169.7752179875
 31
0.0
  0
LINE
  5
1CA
330
1F
100
AcDbEntity
  8
0
  6
Continuous
 62
     7
370
    25
100
AcDbLine
 10
175.6705790683
 20
176.2752179875
 30
0.0
 11
175.6705790683
 21
169.7752179875
 31
0.0
  0
LINE
  5
1CB
330
1F
100
AcDbEntity
  8
0
  6
Continuous
 62
     7
370
    25
100
AcDbLine
 10
143.6705790683
 20
176.2752179875
 30
0.0
 11
175.6705790683
 21
176.2752179875
 31
0.0
  0
LINE
  5
1CC
330
1F
100
AcDbEntity
  8
0
  6
Continuous
 62
     7
370
    25
100
AcDbLine
 10
65.6705790683
 20
176.2752179875
 30
0.0
 11
65.6705790683
 21
169.7752179875
 31
0.0
  0
LINE
  5
1CD
330
1F
100
AcDbEntity
  8
0
  6
Continuous
 62
     7
370
    25
100
AcDbLine
 10
65.6705790683
 20
169.7752179875
 30
0.0
 11
97.6705790683
 21
169.7752179875
 31
0.0
  0
LINE
  5
1CE
330
1F
100
AcDbEntity
  8
0
  6
Continuous
 62
     7
370
    25
100
AcDbLine
 10
97.6705790683
 20
176.2752179875
 30
0.0
 11
97.6705790683
 21
169.7752179875
 31
0.0
  0
LINE
  5
1CF
330
1F
100
AcDbEntity
  8
0
  6
Continuous
 62
     7
370
    25
100
AcDbLine
 10
65.6705790683
 20
176.2752179875
 30
0.0
 11
97.6705790683
 21
176.2752179875
 31
0.0
  0
LINE
  5
1D0
330
1F
100
AcDbEntity
  8
0
  6
Continuous
 62
     7
370
    25
100
AcDbLine
 10
143.6705790683
 20
163.2752179875
 30
0.0
 11
143.6705790683
 21
156.7752179875
 31
0.0
  0
LINE
  5
1D1
330
1F
100
AcDbEntity
  8
0
  6
Continuous
 62
     7
370
    25
100
AcDbLine
 10
143.6705790683
 20
156.7752179875
 30
0.0
 11
175.6705790683
 21
156.7752179875
 31
0.0
  0
LINE
  5
1D2
330
1F
100
AcDbEntity
  8
0
  6
Continuous
 62
     7
370
    25
100
AcDbLine
 10
175.6705790683
 20
163.2752179875
 30
0.0
 11
175.6705790683
 21
156.7752179875
 31
0.0
  0
LINE
  5
1D3
330
1F
100
AcDbEntity
  8
0
  6
Continuous
 62
     7
370
    25
100
AcDbLine
 10
143.6705790683
 20
163.2752179875
 30
0.0
 11
175.6705790683
 21
163.2752179875
 31
0.0
  0
LINE
  5
1D4
330
1F
100
AcDbEntity
  8
0
  6
Continuous
 62
     7
370
    25
100
AcDbLine
 10
65.6705790683
 20
163.2752179875
 30
0.0
 11
65.6705790683
 21
156.7752179875
 31
0.0
  0
LINE
  5
1D5
330
1F
100
AcDbEntity
  8
0
  6
Continuous
 62
     7
370
    25
100
AcDbLine
 10
65.6705790683
 20
156.7752179875
 30
0.0
 11
97.6705790683
 21
156.7752179875
 31
0.0
  0
LINE
  5
1D6
330
1F
100
AcDbEntity
  8
0
  6
Continuous
 62
     7
370
    25
100
AcDbLine
 10
97.6705790683
 20
163.2752179875
 30
0.0
 11
97.6705790683
 21
156.7752179875
 31
0.0
  0
LINE
  5
1D7
330
1F
100
AcDbEntity
  8
0
  6
Continuous
 62
     7
370
    25
100
AcDbLine
 10
65.6705790683
 20
163.2752179875
 30
0.0
 11
97.6705790683
 21
163.2752179875
 31
0.0
  0
LINE
  5
1D8
330
1F
100
AcDbEntity
  8
0
  6
Continuous
 62
     7
370
    25
100
AcDbLine
 10
143.6705790683
 20
150.2752179875
 30
0.0
 11
143.6705790683
 21
143.7752179875
 31
0.0
  0
LINE
  5
1D9
330
1F
100
AcDbEntity
  8
0
  6
Continuous
 62
     7
370
    25
100
AcDbLine
 10
143.6705790683
 20
143.7752179875
 30
0.0
 11
175.6705790683
 21
143.7752179875
 31
0.0
  0
LINE
  5
1DA
330
1F
100
AcDbEntity
  8
0
  6
Continuous
 62
     7
370
    25
100
AcDbLine
 10
175.6705790683
 20
150.2752179875
 30
0.0
 11
175.6705790683
 21
143.7752179875
 31
0.0
  0
LINE
  5
1DB
330
1F
100
AcDbEntity
  8
0
  6
Continuous
 62
     7
370
    25
100
AcDbLine
 10
143.6705790683
 20
150.2752179875
 30
0.0
 11
175.6705790683
 21
150.2752179875
 31
0.0
  0
LINE
  5
1DC
330
1F
100
AcDbEntity
  8
0
  6
Continuous
 62
     7
370
    25
100
AcDbLine
 10
65.6705790683
 20
150.2752179875
 30
0.0
 11
65.6705790683
 21
143.7752179875
 31
0.0
  0
LINE
  5
1DD
330
1F
100
AcDbEntity
  8
0
  6
Continuous
 62
     7
370
    25
100
AcDbLine
 10
65.6705790683
 20
143.7752179875
 30
0.0
 11
97.6705790683
 21
143.7752179875
 31
0.0
  0
LINE
  5
1DE
330
1F
100
AcDbEntity
  8
0
  6
Continuous
 62
     7
370
    25
100
AcDbLine
 10
97.6705790683
 20
150.2752179875
 30
0.0
 11
97.6705790683
 21
143.7752179875
 31
0.0
  0
LINE
  5
1DF
330
1F
100
AcDbEntity
  8
0
  6
Continuous
 62
     7
370
    25
100
AcDbLine
 10
65.6705790683
 20
150.2752179875
 30
0.0
 11
97.6705790683
 21
150.2752179875
 31
0.0
  0
LINE
  5
1E0
330
1F
100
AcDbEntity
  8
0
  6
Continuous
 62
     7
370
    25
100
AcDbLine
 10
143.6705790683
 20
137.2752179875
 30
0.0
 11
143.6705790683
 21
130.7752179875
 31
0.0
  0
LINE
  5
1E1
330
1F
100
AcDbEntity
  8
0
  6
Continuous
 62
     7
370
    25
100
AcDbLine
 10
143.6705790683
 20
130.7752179875
 30
0.0
 11
175.6705790683
 21
130.7752179875
 31
0.0
  0
LINE
  5
1E2
330
1F
100
AcDbEntity
  8
0
  6
Continuous
 62
     7
370
    25
100
AcDbLine
 10
175.6705790683
 20
137.2752179875
 30
0.0
 11
175.6705790683
 21
130.7752179875
 31
0.0
  0
LINE
  5
1E3
330
1F
100
AcDbEntity
  8
0
  6
Continuous
 62
     7
370
    25
100
AcDbLine
 10
143.6705790683
 20
137.2752179875
 30
0.0
 11
175.6705790683
 21
137.2752179875
 31
0.0
  0
LINE
  5
1E4
330
1F
100
AcDbEntity
  8
0
  6
Continuous
 62
     7
370
    25
100
AcDbLine
 10
65.6705790683
 20
137.2752179875
 30
0.0
 11
65.6705790683
 21
130.7752179875
 31
0.0
  0
LINE
  5
1E5
330
1F
100
AcDbEntity
  8
0
  6
Continuous
 62
     7
370
    25
100
AcDbLine
 10
65.6705790683
 20
130.7752179875
 30
0.0
 11
97.6705790683
 21
130.7752179875
 31
0.0
  0
LINE
  5
1E6
330
1F
100
AcDbEntity
  8
0
  6
Continuous
 62
     7
370
    25
100
AcDbLine
 10
97.6705790683
 20
137.2752179875
 30
0.0
 11
97.6705790683
 21
130.7752179875
 31
0.0
  0
LINE
  5
1E7
330
1F
100
AcDbEntity
  8
0
  6
Continuous
 62
     7
370
    25
100
AcDbLine
 10
65.6705790683
 20
137.2752179875
 30
0.0
 11
97.6705790683
 21
137.2752179875
 31
0.0
  0
LINE
  5
1E8
330
1F
100
AcDbEntity
  8
0
  6
Continuous
 62
     7
370
    25
100
AcDbLine
 10
143.6705790683
 20
124.2752179875
 30
0.0
 11
143.6705790683
 21
117.7752179875
 31
0.0
  0
LINE
  5
1E9
330
1F
100
AcDbEntity
  8
0
  6
Continuous
 62
     7
370
    25
100
AcDbLine
 10
143.6705790683
 20
117.7752179875
 30
0.0
 11
175.6705790683
 21
117.7752179875
 31
0.0
  0
LINE
  5
1EA
330
1F
100
AcDbEntity
  8
0
  6
Continuous
 62
     7
370
    25
100
AcDbLine
 10
175.6705790683
 20
124.2752179875
 30
0.0
 11
175.6705790683
 21
117.7752179875
 31
0.0
  0
LINE
  5
1EB
330
1F
100
AcDbEntity
  8
0
  6
Continuous
 62
     7
370
    25
100
AcDbLine
 10
143.6705790683
 20
124.2752179875
 30
0.0
 11
175.6705790683
 21
124.2752179875
 31
0.0
  0
LINE
  5
1EC
330
1F
100
AcDbEntity
  8
0
  6
Continuous
 62
     7
370
    25
100
AcDbLine
 10
65.6705790683
 20
124.2752179875
 30
0.0
 11
65.6705790683
 21
117.7752179875
 31
0.0
  0
LINE
  5
1ED
330
1F
100
AcDbEntity
  8
0
  6
Continuous
 62
     7
370
    25
100
AcDbLine
 10
65.6705790683
 20
117.7752179875
 30
0.0
 11
97.6705790683
 21
117.7752179875
 31
0.0
  0
LINE
  5
1EE
330
1F
100
AcDbEntity
  8
0
  6
Continuous
 62
     7
370
    25
100
AcDbLine
 10
97.6705790683
 20
124.2752179875
 30
0.0
 11
97.6705790683
 21
117.7752179875
 31
0.0
  0
LINE
  5
1EF
330
1F
100
AcDbEntity
  8
0
  6
Continuous
 62
     7
370
    25
100
AcDbLine
 10
65.6705790683
 20
124.2752179875
 30
0.0
 11
97.6705790683
 21
124.2752179875
 31
0.0
  0
LINE
  5
1F0
330
1F
100
AcDbEntity
  8
0
  6
Continuous
 62
     7
370
    25
100
AcDbLine
 10
143.6705790683
 20
111.2752179875
 30
0.0
 11
143.6705790683
 21
104.7752179875
 31
0.0
  0
LINE
  5
1F1
330
1F
100
AcDbEntity
  8
0
  6
Continuous
 62
     7
370
    25
100
AcDbLine
 10
143.6705790683
 20
104.7752179875
 30
0.0
 11
175.6705790683
 21
104.7752179875
 31
0.0
  0
LINE
  5
1F2
330
1F
100
AcDbEntity
  8
0
  6
Continuous
 62
     7
370
    25
100
AcDbLine
 10
175.6705790683
 20
111.2752179875
 30
0.0
 11
175.6705790683
 21
104.7752179875
 31
0.0
  0
LINE
  5
1F3
330
1F
100
AcDbEntity
  8
0
  6
Continuous
 62
     7
370
    25
100
AcDbLine
 10
143.6705790683
 20
111.2752179875
 30
0.0
 11
175.6705790683
 21
111.2752179875
 31
0.0
  0
LINE
  5
1F4
330
1F
100
AcDbEntity
  8
0
  6
Continuous
 62
     7
370
    25
100
AcDbLine
 10
65.6705790683
 20
111.2752179875
 30
0.0
 11
65.6705790683
 21
104.7752179875
 31
0.0
  0
LINE
  5
1F5
330
1F
100
AcDbEntity
  8
0
  6
Continuous
 62
     7
370
    25
100
AcDbLine
 10
65.6705790683
 20
104.7752179875
 30
0.0
 11
97.6705790683
 21
104.7752179875
 31
0.0
  0
LINE
  5
1F6
330
1F
100
AcDbEntity
  8
0
  6
Continuous
 62
     7
370
    25
100
AcDbLine
 10
97.6705790683
 20
111.2752179875
 30
0.0
 11
97.6705790683
 21
104.7752179875
 31
0.0
  0
LINE
  5
1F7
330
1F
100
AcDbEntity
  8
0
  6
Continuous
 62
     7
370
    25
100
AcDbLine
 10
65.6705790683
 20
111.2752179875
 30
0.0
 11
97.6705790683
 21
111.2752179875
 31
0.0
  0
LINE
  5
1F8
330
1F
100
AcDbEntity
  8
0
  6
Continuous
 62
     7
370
    25
100
AcDbLine
 10
189.1705790683
 20
80.0252179875
 30
0.0
 11
189.1705790683
 21
214.0252179875
 31
0.0
  0
ARC
  5
1F9
330
1F
100
AcDbEntity
  8
0
  6
Continuous
 62
     7
370
    25
100
AcDbCircle
 10
187.6705790683
 20
80.0252179875
 30
0.0
 40
1.5
100
AcDbArc
 50
270.0
 51
0.0
  0
LINE
  5
1FA
330
1F
100
AcDbEntity
  8
0
  6
Continuous
 62
     7
370
    25
100
AcDbLine
 10
53.6705790683
 20
78.5252179875
 30
0.0
 11
187.6705790683
 21
78.5252179875
 31
0.0
  0
ARC
  5
1FB
330
1F
100
AcDbEntity
  8
0
  6
Continuous
 62
     7
370
    25
100
AcDbCircle
 10
53.6705790683
 20
80.0252179875
 30
0.0
 40
1.5
100
AcDbArc
 50
180.0
 51
270.0
  0
LINE
  5
1FC
330
1F
100
AcDbEntity
  8
0
  6
Continuous
 62
     7
370
    25
100
AcDbLine
 10
52.1705790683
 20
214.0252179875
 30
0.0
 11
52.1705790683
 21
80.0252179875
 31
0.0
  0
ARC
  5
1FD
330
1F
100
AcDbEntity
  8
0
  6
Continuous
 62
     7
370
    25
100
AcDbCircle
 10
53.6705790683
 20
214.0252179875
 30
0.0
 40
1.5
100
AcDbArc
 50
90.0
 51
180.0
  0
LINE
  5
1FE
330
1F
100
AcDbEntity
  8
0
  6
Continuous
 62
     7
370
    25
100
AcDbLine
 10
187.6705790683
 20
215.5252179875
 30
0.0
 11
53.6705790683
 21
215.5252179875
 31
0.0
  0
ARC
  5
1FF
330
1F
100
AcDbEntity
  8
0
  6
Continuous
 62
     7
370
    25
100
AcDbCircle
 10
187.6705790683
 20
214.0252179875
 30
0.0
 40
1.5
100
AcDbArc
 50
0.0
 51
90.0
  0
ARC
  5
200
330
1F
100
AcDbEntity
  8
0
  6
Continuous
 62
     7
370
    25
100
AcDbCircle
 10
77.0335134443
 20
206.4633809548
 30
0.0
 40
2.471747648225552
100
AcDbArc
 50
30.7501143665
 51
329.8398731416
  0
LINE
  5
201
330
1F
100
AcDbEntity
  8
0
  6
Continuous
 62
     7
370
    25
100
AcDbLine
 10
79.1577466981
 20
207.727172678
 30
0.0
 11
79.6837814346
 21
208.0289219529
 31
0.0
  0
ARC
  5
202
330
1F
100
AcDbEntity
  8
0
  6
Continuous
 62
     7
370
    25
100
AcDbCircle
 10
77.0335134443
 20
206.4633809548
 30
0.0
 40
3.078122648225557
100
AcDbArc
 50
30.5707904075
 51
329.8398731416
  0
LINE
  5
203
330
1F
100
AcDbEntity
  8
0
  6
Continuous
 62
     7
370
    25
100
AcDbLine
 10
79.6949341711
 20
204.9168756195
 30
0.0
 11
79.1706473971
 21
205.221529553
 31
0.0
  0
CIRCLE
  5
204
330
1F
100
AcDbEntity
  8
0
  6
Continuous
 62
     7
370
    25
100
AcDbCircle
 10
157.5065404842
 20
87.5995339192
 30
0.0
 40
3.078122648224564
  0
ARC
  5
205
330
1F
100
AcDbEntity
  8
0
  6
Continuous
 62
     7
370
    25
100
AcDbCircle
 10
176.0914125116
 20
90.7070913678
 30
0.0
 40
7.576917287940242
100
AcDbArc
 50
180.0924828342
 51
233.4162994992
  0
ARC
  5
206
330
1F
100
AcDbEntity
  8
0
  6
Continuous
 62
     7
370
    25
100
AcDbCircle
 10
167.0938583703
 20
90.7322372659
 30
0.0
 40
7.576917287939896
100
AcDbArc
 50
306.2634467839
 51
359.5872634489
  0
LINE
  5
207
330
1F
100
AcDbEntity
  8
0
  6
Continuous
 62
     7
370
    25
100
AcDbLine
 10
174.6705790683
 20
90.6776565674
 30
0.0
 11
174.0642000303
 21
90.6793512442
 31
0.0
  0
ARC
  5
208
330
1F
100
AcDbEntity
  8
0
  6
Continuous
 62
     7
370
    25
100
AcDbCircle
 10
167.0938583703
 20
90.7322372659
 30
0.0
 40
6.970542287939574
100
AcDbArc
 50
352.5678710029
 51
359.5652884975
  0
LINE
  5
209
330
1F
100
AcDbEntity
  8
0
  6
Continuous
 62
     7
370
    25
100
AcDbLine
 10
174.0058396232
 20
89.8305860315
 30
0.0
 11
169.1744994947
 21
89.8440884105
 31
0.0
  0
ARC
  5
20A
330
1F
100
AcDbEntity
  8
0
  6
Continuous
 62
     7
370
    25
100
AcDbCircle
 10
176.0914125116
 20
90.7070913678
 30
0.0
 40
6.970542287940262
100
AcDbArc
 50
180.1144577856
 51
187.1118752801
  0
LINE
  5
20B
330
1F
100
AcDbEntity
  8
0
  6
Continuous
 62
     7
370
    25
100
AcDbLine
 10
169.1208841322
 20
90.6931665673
 30
0.0
 11
168.5145050942
 21
90.694861244
 31
0.0
  0
ARC
  5
20C
330
1F
100
AcDbEntity
  8
0
  6
Continuous
 62
     7
370
    25
100
AcDbCircle
 10
164.3076446924
 20
87.5870550201
 30
0.0
 40
2.471747648225544
100
AcDbArc
 50
210.7501143664
 51
149.8398731415
  0
LINE
  5
20D
330
1F
100
AcDbEntity
  8
0
  6
Continuous
 62
     7
370
    25
100
AcDbLine
 10
162.1834114385
 20
86.3232632969
 30
0.0
 11
161.6573767021
 21
86.021514022
 31
0.0
  0
ARC
  5
20E
330
1F
100
AcDbEntity
  8
0
  6
Continuous
 62
     7
370
    25
100
AcDbCircle
 10
164.3076446924
 20
87.5870550201
 30
0.0
 40
3.078122648225571
100
AcDbArc
 50
210.5707904075
 51
149.8398731415
  0
LINE
  5
20F
330
1F
100
AcDbEntity
  8
0
  6
Continuous
 62
     7
370
    25
100
AcDbLine
 10
161.6462239656
 20
89.1335603555
 30
0.0
 11
162.1705107396
 21
88.8289064219
 31
0.0
  0
CIRCLE
  5
210
330
1F
100
AcDbEntity
  8
0
  6
Continuous
 62
     7
370
    25
100
AcDbCircle
 10
83.8346176524
 20
206.4509020557
 30
0.0
 40
3.078122648225531
  0
ARC
  5
211
330
1F
100
AcDbEntity
  8
0
  6
Continuous
 62
     7
370
    25
100
AcDbCircle
 10
65.2497456251
 20
203.3433446071
 30
0.0
 40
7.576917287940233
100
AcDbArc
 50
0.0924828342
 51
53.4162994993
  0
ARC
  5
212
330
1F
100
AcDbEntity
  8
0
  6
Continuous
 62
     7
370
    25
100
AcDbCircle
 10
74.2472997663
 20
203.318198709
 30
0.0
 40
7.576917287939895
100
AcDbArc
 50
126.2634467839
 51
179.5872634489
  0
LINE
  5
213
330
1F
100
AcDbEntity
  8
0
  6
Continuous
 62
     7
370
    25
100
AcDbLine
 10
66.6705790683
 20
203.3727794075
 30
0.0
 11
67.2769581064
 21
203.3710847307
 31
0.0
  0
ARC
  5
214
330
1F
100
AcDbEntity
  8
0
  6
Continuous
 62
     7
370
    25
100
AcDbCircle
 10
74.2472997663
 20
203.318198709
 30
0.0
 40
6.970542287939577
100
AcDbArc
 50
172.567871003
 51
179.5652884975
  0
LINE
  5
215
330
1F
100
AcDbEntity
  8
0
  6
Continuous
 62
     7
370
    25
100
AcDbLine
 10
67.3353185135
 20
204.2198499434
 30
0.0
 11
72.166658642
 21
204.2063475644
 31
0.0
  0
ARC
  5
216
330
1F
100
AcDbEntity
  8
0
  6
Continuous
 62
     7
370
    25
100
AcDbCircle
 10
65.2497456251
 20
203.3433446071
 30
0.0
 40
6.97054228794026
100
AcDbArc
 50
0.1144577857
 51
7.1118752802
  0
LINE
  5
217
330
1F
100
AcDbEntity
  8
0
  6
Continuous
 62
     7
370
    25
100
AcDbLine
 10
72.2202740045
 20
203.3572694077
 30
0.0
 11
72.8266530425
 21
203.3555747309
 31
0.0
  0
CIRCLE
  5
218
330
1F
100
AcDbEntity
  8
0
  6
Continuous
 62
     7
370
    25
100
AcDbCircle
 10
61.6705790683
 20
88.0252179875
 30
0.0
 40
2.150000000000006
  0
CIRCLE
  5
219
330
1F
100
AcDbEntity
  8
0
  6
Continuous
 62
     7
370
    25
100
AcDbCircle
 10
179.6705790683
 20
206.0252179875
 30
0.0
 40
2.150000000000006
  0
LINE
  5
21A
330
1F
100
AcDbEntity
  8
0
  6
Continuous
 62
     7
370
    25
100
AcDbLine
 10
187.6705790683
 20
76.5252179875
 30
0.0
 11
53.6705790683
 21
76.5252179875
 31
0.0
  0
ARC
  5
21B
330
1F
100
AcDbEntity
  8
0
  6
Continuous
 62
     7
370
    25
100
AcDbCircle
 10
187.6705790683
 20
80.0252179875
 30
0.0
 40
3.5
100
AcDbArc
 50
270.0
 51
0.0
  0
ARC
  5
21C
330
1F
100
AcDbEntity
  8
0
  6
Continuous
 62
     7
370
    25
100
AcDbCircle
 10
53.6705790683
 20
80.0252179875
 30
0.0
 40
3.5
100
AcDbArc
 50
180.0
 51
270.0
  0
LINE
  5
21D
330
1F
100
AcDbEntity
  8
0
  6
Continuous
 62
     7
370
    25
100
AcDbLine
 10
191.1705790683
 20
214.0252179875
 30
0.0
 11
191.1705790683
 21
80.0252179875
 31
0.0
  0
LINE
  5
21E
330
1F
100
AcDbEntity
  8
0
  6
Continuous
 62
     7
370
    25
100
AcDbLine
 10
50.1705790683
 20
80.0252179875
 30
0.0
 11
50.1705790683
 21
214.0252179875
 31
0.0
  0
ARC
  5
21F
330
1F
100
AcDbEntity
  8
0
  6
Continuous
 62
     7
370
    25
100
AcDbCircle
 10
187.6705790683
 20
214.0252179875
 30
0.0
 40
3.500000000000028
100
AcDbArc
 50
0.0
 51
90.0
  0
ARC
  5
220
330
1F
100
AcDbEntity
  8
0
  6
Continuous
 62
     7
370
    25
100
AcDbCircle
 10
53.6705790683
 20
214.0252179875
 30
0.0
 40
3.500000000000028
100
AcDbArc
 50
90.0
 51
180.0
  0
LINE
  5
221
330
1F
100
AcDbEntity
  8
0
  6
Continuous
 62
     7
370
    25
100
AcDbLine
 10
53.6705790683
 20
217.5252179875
 30
0.0
 11
187.6705790683
 21
217.5252179875
 31
0.0
  0
CIRCLE
  5
222
330
1F
100
AcDbEntity
  8
0
  6
Continuous
 62
     7
370
    25
100
AcDbCircle
 10
83.8346176524
 20
206.4509020557
 30
0.0
 40
2.471747648225545
  0
ARC
  5
223
330
1F
100
AcDbEntity
  8
0
  6
Continuous
 62
     7
370
    25
100
AcDbCircle
 10
65.2497456251
 20
203.3433446071
 30
0.0
 40
6.970542287940067
100
AcDbArc
 50
12.1715764324
 51
49.6441288905
  0
ARC
  5
224
330
1F
100
AcDbEntity
  8
0
  6
Continuous
 62
     7
370
    25
100
AcDbCircle
 10
74.2472997663
 20
203.318198709
 30
0.0
 40
6.970542287939713
100
AcDbArc
 50
130.0356173927
 51
167.5081698507
  0
LINE
  5
225
330
1F
100
AcDbEntity
  8
0
  6
Continuous
 62
     7
370
    25
100
AcDbLine
 10
67.4417721054
 20
204.8259298005
 30
0.0
 11
72.0635943677
 21
204.8130129712
 31
0.0
  0
CIRCLE
  5
226
330
1F
100
AcDbEntity
  8
0
  6
Continuous
 62
     7
370
    25
100
AcDbCircle
 10
157.5065404842
 20
87.5995339192
 30
0.0
 40
2.471747648224564
  0
ARC
  5
227
330
1F
100
AcDbEntity
  8
0
  6
Continuous
 62
     7
370
    25
100
AcDbCircle
 10
176.0914125116
 20
90.7070913678
 30
0.0
 40
6.970542287940065
100
AcDbArc
 50
192.1715764324
 51
229.6441288904
  0
ARC
  5
228
330
1F
100
AcDbEntity
  8
0
  6
Continuous
 62
     7
370
    25
100
AcDbCircle
 10
167.0938583703
 20
90.7322372659
 30
0.0
 40
6.970542287939716
100
AcDbArc
 50
310.0356173926
 51
347.5081698507
  0
LINE
  5
229
330
1F
100
AcDbEntity
  8
0
  6
Continuous
 62
     7
370
    25
100
AcDbLine
 10
173.8993860313
 20
89.2245061744
 30
0.0
 11
169.277563769
 21
89.2374230037
 31
0.0
  0
LINE
  5
22A
330
1F
100
AcDbEntity
  8
0
  6
Continuous
 62
     8
370
    18
100
AcDbLine
 10
187.6705790683
 20
78.5252179875
 30
0.0
 11
187.6705790683
 21
76.5252179875
 31
0.0
  0
LINE
  5
22B
330
1F
100
AcDbEntity
  8
0
  6
Continuous
 62
     8
370
    18
100
AcDbLine
 10
53.6705790683
 20
76.5252179875
 30
0.0
 11
53.6705790683
 21
78.5252179875
 31
0.0
  0
LINE
  5
22C
330
1F
100
AcDbEntity
  8
0
  6
Continuous
 62
     8
370
    18
100
AcDbLine
 10
189.1705790683
 20
80.0252179875
 30
0.0
 11
191.1705790683
 21
80.0252179875
 31
0.0
  0
LINE
  5
22D
330
1F
100
AcDbEntity
  8
0
  6
Continuous
 62
     8
370
    18
100
AcDbLine
 10
50.1705790683
 20
80.0252179875
 30
0.0
 11
52.1705790683
 21
80.0252179875
 31
0.0
  0
LINE
  5
22E
330
1F
100
AcDbEntity
  8
0
  6
Continuous
 62
     8
370
    18
100
AcDbLine
 10
189.1705790683
 20
214.0252179875
 30
0.0
 11
191.1705790683
 21
214.0252179875
 31
0.0
  0
LINE
  5
22F
330
1F
100
AcDbEntity
  8
0
  6
Continuous
 62
     8
370
    18
100
AcDbLine
 10
50.1705790683
 20
214.0252179875
 30
0.0
 11
52.1705790683
 21
214.0252179875
 31
0.0
  0
LINE
  5
230
330
1F
100
AcDbEntity
  8
0
  6
Continuous
 62
     8
370
    18
100
AcDbLine
 10
187.6705790683
 20
215.5252179875
 30
0.0
 11
187.6705790683
 21
217.5252179875
 31
0.0
  0
LINE
  5
231
330
1F
100
AcDbEntity
  8
0
  6
Continuous
 62
     8
370
    18
100
AcDbLine
 10
53.6705790683
 20
217.5252179875
 30
0.0
 11
53.6705790683
 21
215.5252179875
 31
0.0
  0
DIMENSION
  5
232
330
1F
100
AcDbEntity
  8
0
  6
Continuous
 62
     7
370
    18
100
AcDbDimension
  2
_D
 10
191.1705790683
 20
66.5252179875
 30
0.0
 11
120.6705790683
 21
66.5252179875
 31
0.0
 70
   160
  1
{\fGDT;o}<>
 71
     2
 42
-1.0
  3
SLDDIMSTYLE0
100
AcDbAlignedDimension
 13
50.1705790683
 23
80.0252179875
 33
0.0
 14
191.1705790683
 24
80.0252179875
 34
0.0
100
AcDbRotatedDimension
  0
DIMENSION
  5
24A
330
1F
100
AcDbEntity
  8
0
  6
Continuous
 62
     7
370
    18
100
AcDbDimension
  2
_D_1
 10
191.1705790683
 20
227.5252179875
 30
0.0
 11
183.4205790683
 21
227.5252179875
 31
0.0
 70
   160
  1
<>
 71
     2
 42
-1.0
  3
SLDDIMSTYLE1
100
AcDbAlignedDimension
 13
175.6705790683
 23
189.2752179875
 33
0.0
 14
191.1705790683
 24
214.0252179875
 34
0.0
100
AcDbRotatedDimension
  0
DIMENSION
  5
255
330
1F
100
AcDbEntity
  8
0
  6
Continuous
 62
     7
370
    18
100
AcDbDimension
  2
_D_2
 10
175.6705790683
 20
227.5252179875
 30
0.0
 11
159.6705790683
 21
227.5252179875
 31
0.0
 70
   160
  1
<>
 71
     2
 42
-1.0
  3
SLDDIMSTYLE1
100
AcDbAlignedDimension
 13
143.6705790683
 23
189.2752179875
 33
0.0
 14
175.6705790683
 24
189.2752179875
 34
0.0
100
AcDbRotatedDimension
  0
DIMENSION
  5
25F
330
1F
100
AcDbEntity
  8
0
  6
Continuous
 62
     7
370
    18
100
AcDbDimension
  2
_D_3
 10
201.1705790683
 20
182.7752179875
 30
0.0
 11
201.1705790683
 21
197.7670784526
 31
0.0
 70
   160
  1
<>
 71
     2
 42
-1.0
  3
SLDDIMSTYLE2
100
AcDbAlignedDimension
 13
175.6705790683
 23
189.2752179875
 33
0.0
 14
175.6705790683
 24
182.7752179875
 34
0.0
 50
90.0
100
AcDbRotatedDimension
  0
LINE
  5
26C
330
1F
100
AcDbEntity
  8
0
  6
Continuous
 62
     7
370
    25
100
AcDbLine
 10
299.506994217
 20
107.3275523074
 30
0.0
 11
299.506994217
 21
107.2458982262
 31
0.0
  0
LINE
  5
26D
330
1F
100
AcDbEntity
  8
0
  6
Continuous
 62
     7
370
    25
100
AcDbLine
 10
293.4672078648
 20
110.8641226333
 30
0.0
 11
293.4672078648
 21
110.7824685522
 31
0.0
  0
LINE
  5
26E
330
1F
100
AcDbEntity
  8
0
  6
Continuous
 62
     7
370
    25
100
AcDbLine
 10
298.4107031612
 20
110.7824685522
 30
0.0
 11
298.4107031612
 21
110.8641226333
 31
0.0
  0
LINE
  5
26F
330
1F
100
AcDbEntity
  8
0
  6
Continuous
 62
     7
370
    25
100
AcDbLine
 10
288.6669248738
 20
113.645454893
 30
0.0
 11
288.6669248738
 21
113.5638008118
 31
0.0
  0
LINE
  5
270
330
1F
100
AcDbEntity
  8
0
  6
Continuous
 62
     7
370
    25
100
AcDbLine
 10
293.6104201703
 20
113.5638008118
 30
0.0
 11
293.6104201703
 21
113.645454893
 31
0.0
  0
LINE
  5
271
330
1F
100
AcDbEntity
  8
0
  6
Continuous
 62
     7
370
    25
100
AcDbLine
 10
405.3643272736
 20
149.6736857608
 30
0.0
 11
405.3643272736
 21
151.3067673846
 31
0.0
  0
LINE
  5
272
330
1F
100
AcDbEntity
  8
0
  6
Continuous
 62
     7
370
    25
100
AcDbLine
 10
208.8597099156
 20
151.3067673846
 30
0.0
 11
208.8597099156
 21
149.6736857608
 31
0.0
  0
LINE
  5
273
330
1F
100
AcDbEntity
  8
0
  6
Continuous
 62
     7
370
    25
100
AcDbLine
 10
320.613617019
 20
192.2342431237
 30
0.0
 11
320.613617019
 21
192.1525890425
 31
0.0
  0
LINE
  5
274
330
1F
100
AcDbEntity
  8
0
  6
Continuous
 62
     7
370
    25
100
AcDbLine
 10
325.5571123154
 20
192.1525890425
 30
0.0
 11
325.5571123154
 21
192.2342431237
 31
0.0
  0
LINE
  5
275
330
1F
100
AcDbEntity
  8
0
  6
Continuous
 62
     7
370
    25
100
AcDbLine
 10
315.813334028
 20
195.0155753834
 30
0.0
 11
315.813334028
 21
194.9339213022
 31
0.0
  0
LINE
  5
276
330
1F
100
AcDbEntity
  8
0
  6
Continuous
 62
     7
370
    25
100
AcDbLine
 10
320.7568293245
 20
194.9339213022
 30
0.0
 11
320.7568293245
 21
195.0155753834
 31
0.0
  0
LINE
  5
277
330
1F
100
AcDbEntity
  8
0
  6
Continuous
 62
     7
370
    25
100
AcDbLine
 10
314.7170429723
 20
198.4704916281
 30
0.0
 11
314.7170429723
 21
198.5521457093
 31
0.0
  0
ARC
  5
278
330
1F
100
AcDbEntity
  8
0
  6
Continuous
 62
     7
370
    25
100
AcDbCircle
 10
307.1120185946
 20
99.6752660598
 30
0.0
 40
2.305532861867367
100
AcDbArc
 50
242.6096722366
 51
297.3903277634
  0
ARC
  5
279
330
1F
100
AcDbEntity
  8
0
  6
Continuous
 62
     7
370
    25
100
AcDbCircle
 10
307.1120185946
 20
99.928957863
 30
0.0
 40
5.356291407423521
100
AcDbArc
 50
242.4805390039
 51
297.5194609961
  0
ARC
  5
27A
330
1F
100
AcDbEntity
  8
0
  6
Continuous
 62
     7
370
    25
100
AcDbCircle
 10
307.1120185946
 20
98.2958762393
 30
0.0
 40
5.356291407423459
100
AcDbArc
 50
242.4805390039
 51
297.5194609961
  0
LINE
  5
27B
330
1F
100
AcDbEntity
  8
0
  6
Continuous
 62
     7
370
    25
100
AcDbLine
 10
308.1726787664
 20
97.6281994324
 30
0.0
 11
402.9249874454
 21
152.3275429245
 31
0.0
  0
LINE
  5
27C
330
1F
100
AcDbEntity
  8
0
  6
Continuous
 62
     7
370
    25
100
AcDbLine
 10
404.3392010078
 20
149.8780531889
 30
0.0
 11
309.5868923288
 21
95.1787096968
 31
0.0
  0
LINE
  5
27D
330
1F
100
AcDbEntity
  8
0
  6
Continuous
 62
     7
370
    25
100
AcDbLine
 10
211.2990497438
 20
152.3275429245
 30
0.0
 11
306.0513584228
 21
97.6281994324
 31
0.0
  0
LINE
  5
27E
330
1F
100
AcDbEntity
  8
0
  6
Continuous
 62
     7
370
    25
100
AcDbLine
 10
304.6371448605
 20
95.1787096968
 30
0.0
 11
209.8848361815
 21
149.8780531889
 31
0.0
  0
LWPOLYLINE
  5
27F
330
1F
100
AcDbEntity
  8
0
  6
Continuous
 62
     7
370
    25
100
AcDbPolyline
 90
       43
 70
   128
 43
0.0
 10
220.350016543
 20
151.0212899456
 10
220.8824635424
 20
150.7567722746
 10
221.4772558617
 20
150.5410209305
 10
222.1211068234
 20
150.3788554417
 10
222.7996338609
 20
150.2738983172
 10
223.4976798015
 20
150.2284941259
 10
224.1996514523
 20
150.2436571222
 10
224.8898679266
 20
150.3190485899
 10
225.5529109289
 20
150.4529844083
 10
226.1739691742
 20
150.6424726724
 10
226.7391692476
 20
150.8832805275
 10
227.2358855134
 20
151.1700287241
 10
227.653022151
 20
151.4963117814
 10
227.9812610172
 20
151.8548410749
 10
228.2132697982
 20
152.2376076527
 10
228.3438658011
 20
152.636061142
 10
228.3701317271
 20
153.0413007502
 10
228.2914808388
 20
153.4442740942
 10
228.1096700671
 20
153.8359794153
 10
227.8287607641
 20
154.2076666639
 10
227.4550279795
 20
154.5510329611
 10
226.9968202862
 20
154.8584080711
 10
226.4643732868
 20
155.1229257421
 10
225.8695809675
 20
155.3386770862
 10
225.2257300058
 20
155.500842575
 10
224.5472029683
 20
155.6057996995
 10
223.8491570277
 20
155.6512038908
 10
223.1471853769
 20
155.6360408945
 10
222.4569689026
 20
155.5606494268
 10
221.7939259003
 20
155.4267136084
 10
221.172867655
 20
155.2372253443
 10
220.6076675816
 20
154.9964174892
 10
220.1109513158
 20
154.7096692926
 10
219.6938146782
 20
154.3833862353
 10
219.365575812
 20
154.0248569418
 10
219.1335670311
 20
153.642090364
 10
219.0029710281
 20
153.2436368747
 10
218.9767051021
 20
152.8383972665
 10
219.0553559904
 20
152.4354239225
 10
219.2371667622
 20
152.0437186014
 10
219.5180760651
 20
151.6720313528
 10
219.8918088497
 20
151.3286650556
 10
220.350016543
 20
151.0212899456
  0
LWPOLYLINE
  5
280
330
1F
100
AcDbEntity
  8
0
  6
Continuous
 62
     7
370
    25
100
AcDbPolyline
 90
       43
 70
   128
 43
0.0
 10
387.2272169031
 20
151.0212899456
 10
387.7596639024
 20
150.7567722746
 10
388.3544562218
 20
150.5410209305
 10
388.9983071835
 20
150.3788554417
 10
389.676834221
 20
150.2738983172
 10
390.3748801615
 20
150.2284941259
 10
391.0768518123
 20
150.2436571222
 10
391.7670682866
 20
150.3190485899
 10
392.4301112889
 20
150.4529844083
 10
393.0511695343
 20
150.6424726724
 10
393.6163696076
 20
150.8832805275
 10
394.1130858734
 20
151.1700287241
 10
394.530222511
 20
151.4963117814
 10
394.8584613772
 20
151.8548410749
 10
395.0904701582
 20
152.2376076527
 10
395.2210661611
 20
152.636061142
 10
395.2473320871
 20
153.0413007502
 10
395.1686811988
 20
153.4442740942
 10
394.9868704271
 20
153.8359794153
 10
394.7059611241
 20
154.2076666639
 10
394.3322283395
 20
154.5510329611
 10
393.8740206462
 20
154.8584080711
 10
393.3415736468
 20
155.1229257421
 10
392.7467813275
 20
155.3386770862
 10
392.1029303658
 20
155.500842575
 10
391.4244033283
 20
155.6057996995
 10
390.7263573877
 20
155.6512038908
 10
390.024385737
 20
155.6360408945
 10
389.3341692627
 20
155.5606494268
 10
388.6711262603
 20
155.4267136084
 10
388.050068015
 20
155.2372253443
 10
387.4848679416
 20
154.9964174892
 10
386.9881516759
 20
154.7096692926
 10
386.5710150383
 20
154.3833862353
 10
386.2427761721
 20
154.0248569418
 10
386.0107673911
 20
153.642090364
 10
385.8801713881
 20
153.2436368747
 10
385.8539054621
 20
152.8383972665
 10
385.9325563504
 20
152.4354239225
 10
386.1143671222
 20
152.0437186014
 10
386.3952764252
 20
151.6720313528
 10
386.7690092097
 20
151.3286650556
 10
387.2272169031
 20
151.0212899456
  0
LINE
  5
281
330
1F
100
AcDbEntity
  8
0
  6
Continuous
 62
     7
370
    25
100
AcDbLine
 10
307.2887952899
 20
166.1044298115
 30
0.0
 11
302.6926012122
 21
163.4511034481
 31
0.0
  0
LINE
  5
282
330
1F
100
AcDbEntity
  8
0
  6
Continuous
 62
     7
370
    25
100
AcDbLine
 10
302.6926012122
 20
163.4511034481
 30
0.0
 11
325.3200182102
 21
150.3885736589
 31
0.0
  0
LINE
  5
283
330
1F
100
AcDbEntity
  8
0
  6
Continuous
 62
     7
370
    25
100
AcDbLine
 10
329.9162122879
 20
153.0419000223
 30
0.0
 11
325.3200182102
 21
150.3885736589
 31
0.0
  0
LINE
  5
284
330
1F
100
AcDbEntity
  8
0
  6
Continuous
 62
     7
370
    25
100
AcDbLine
 10
307.2887952899
 20
166.1044298115
 30
0.0
 11
329.9162122879
 21
153.0419000223
 31
0.0
  0
LINE
  5
285
330
1F
100
AcDbEntity
  8
0
  6
Continuous
 62
     7
370
    25
100
AcDbLine
 10
316.4811834453
 20
171.4110825383
 30
0.0
 11
311.8849893676
 21
168.7577561749
 31
0.0
  0
LINE
  5
286
330
1F
100
AcDbEntity
  8
0
  6
Continuous
 62
     7
370
    25
100
AcDbLine
 10
311.8849893676
 20
168.7577561749
 30
0.0
 11
334.5124063656
 21
155.6952263858
 31
0.0
  0
LINE
  5
287
330
1F
100
AcDbEntity
  8
0
  6
Continuous
 62
     7
370
    25
100
AcDbLine
 10
339.1086004433
 20
158.3485527492
 30
0.0
 11
334.5124063656
 21
155.6952263858
 31
0.0
  0
LINE
  5
288
330
1F
100
AcDbEntity
  8
0
  6
Continuous
 62
     7
370
    25
100
AcDbLine
 10
316.4811834453
 20
171.4110825383
 30
0.0
 11
339.1086004433
 21
158.3485527492
 31
0.0
  0
LINE
  5
289
330
1F
100
AcDbEntity
  8
0
  6
Continuous
 62
     7
370
    25
100
AcDbLine
 10
325.6735716008
 20
176.7177352652
 30
0.0
 11
321.0773775231
 21
174.0644089018
 31
0.0
  0
LINE
  5
28A
330
1F
100
AcDbEntity
  8
0
  6
Continuous
 62
     7
370
    25
100
AcDbLine
 10
321.0773775231
 20
174.0644089018
 30
0.0
 11
343.704794521
 21
161.0018791126
 31
0.0
  0
LINE
  5
28B
330
1F
100
AcDbEntity
  8
0
  6
Continuous
 62
     7
370
    25
100
AcDbLine
 10
348.3009885987
 20
163.655205476
 30
0.0
 11
343.704794521
 21
161.0018791126
 31
0.0
  0
LINE
  5
28C
330
1F
100
AcDbEntity
  8
0
  6
Continuous
 62
     7
370
    25
100
AcDbLine
 10
325.6735716008
 20
176.7177352652
 30
0.0
 11
348.3009885987
 21
163.655205476
 31
0.0
  0
LINE
  5
28D
330
1F
100
AcDbEntity
  8
0
  6
Continuous
 62
     7
370
    25
100
AcDbLine
 10
334.8659597562
 20
182.024387992
 30
0.0
 11
330.2697656785
 21
179.3710616286
 31
0.0
  0
LINE
  5
28E
330
1F
100
AcDbEntity
  8
0
  6
Continuous
 62
     7
370
    25
100
AcDbLine
 10
330.2697656785
 20
179.3710616286
 30
0.0
 11
352.8971826765
 21
166.3085318394
 31
0.0
  0
LINE
  5
28F
330
1F
100
AcDbEntity
  8
0
  6
Continuous
 62
     7
370
    25
100
AcDbLine
 10
357.4933767542
 20
168.9618582029
 30
0.0
 11
352.8971826765
 21
166.3085318394
 31
0.0
  0
LINE
  5
290
330
1F
100
AcDbEntity
  8
0
  6
Continuous
 62
     7
370
    25
100
AcDbLine
 10
334.8659597562
 20
182.024387992
 30
0.0
 11
357.4933767542
 21
168.9618582029
 31
0.0
  0
LINE
  5
291
330
1F
100
AcDbEntity
  8
0
  6
Continuous
 62
     7
370
    25
100
AcDbLine
 10
288.9040189791
 20
155.4911243578
 30
0.0
 11
284.3078249014
 21
152.8377979944
 31
0.0
  0
LINE
  5
292
330
1F
100
AcDbEntity
  8
0
  6
Continuous
 62
     7
370
    25
100
AcDbLine
 10
284.3078249014
 20
152.8377979944
 30
0.0
 11
306.9352418993
 21
139.7752682052
 31
0.0
  0
LINE
  5
293
330
1F
100
AcDbEntity
  8
0
  6
Continuous
 62
     7
370
    25
100
AcDbLine
 10
311.531435977
 20
142.4285945686
 30
0.0
 11
306.9352418993
 21
139.7752682052
 31
0.0
  0
LINE
  5
294
330
1F
100
AcDbEntity
  8
0
  6
Continuous
 62
     7
370
    25
100
AcDbLine
 10
288.9040189791
 20
155.4911243578
 30
0.0
 11
311.531435977
 21
142.4285945686
 31
0.0
  0
LINE
  5
295
330
1F
100
AcDbEntity
  8
0
  6
Continuous
 62
     7
370
    25
100
AcDbLine
 10
279.7116308236
 20
150.184471631
 30
0.0
 11
275.1154367459
 21
147.5311452675
 31
0.0
  0
LINE
  5
296
330
1F
100
AcDbEntity
  8
0
  6
Continuous
 62
     7
370
    25
100
AcDbLine
 10
275.1154367459
 20
147.5311452675
 30
0.0
 11
297.7428537439
 21
134.4686154784
 31
0.0
  0
LINE
  5
297
330
1F
100
AcDbEntity
  8
0
  6
Continuous
 62
     7
370
    25
100
AcDbLine
 10
302.3390478216
 20
137.1219418418
 30
0.0
 11
297.7428537439
 21
134.4686154784
 31
0.0
  0
LINE
  5
298
330
1F
100
AcDbEntity
  8
0
  6
Continuous
 62
     7
370
    25
100
AcDbLine
 10
279.7116308236
 20
150.184471631
 30
0.0
 11
302.3390478216
 21
137.1219418418
 31
0.0
  0
LINE
  5
299
330
1F
100
AcDbEntity
  8
0
  6
Continuous
 62
     7
370
    25
100
AcDbLine
 10
270.5192426682
 20
144.8778189041
 30
0.0
 11
265.9230485905
 21
142.2244925407
 31
0.0
  0
LINE
  5
29A
330
1F
100
AcDbEntity
  8
0
  6
Continuous
 62
     7
370
    25
100
AcDbLine
 10
265.9230485905
 20
142.2244925407
 30
0.0
 11
288.5504655885
 21
129.1619627515
 31
0.0
  0
LINE
  5
29B
330
1F
100
AcDbEntity
  8
0
  6
Continuous
 62
     7
370
    25
100
AcDbLine
 10
293.1466596662
 20
131.8152891149
 30
0.0
 11
288.5504655885
 21
129.1619627515
 31
0.0
  0
LINE
  5
29C
330
1F
100
AcDbEntity
  8
0
  6
Continuous
 62
     7
370
    25
100
AcDbLine
 10
270.5192426682
 20
144.8778189041
 30
0.0
 11
293.1466596662
 21
131.8152891149
 31
0.0
  0
LINE
  5
29D
330
1F
100
AcDbEntity
  8
0
  6
Continuous
 62
     7
370
    25
100
AcDbLine
 10
261.3268545128
 20
139.5711661773
 30
0.0
 11
256.7306604351
 21
136.9178398138
 31
0.0
  0
LINE
  5
29E
330
1F
100
AcDbEntity
  8
0
  6
Continuous
 62
     7
370
    25
100
AcDbLine
 10
256.7306604351
 20
136.9178398138
 30
0.0
 11
279.3580774331
 21
123.8553100247
 31
0.0
  0
LINE
  5
29F
330
1F
100
AcDbEntity
  8
0
  6
Continuous
 62
     7
370
    25
100
AcDbLine
 10
283.9542715108
 20
126.5086363881
 30
0.0
 11
279.3580774331
 21
123.8553100247
 31
0.0
  0
LINE
  5
2A0
330
1F
100
AcDbEntity
  8
0
  6
Continuous
 62
     7
370
    25
100
AcDbLine
 10
261.3268545128
 20
139.5711661773
 30
0.0
 11
283.9542715108
 21
126.5086363881
 31
0.0
  0
LINE
  5
2A1
330
1F
100
AcDbEntity
  8
0
  6
Continuous
 62
     7
370
    25
100
AcDbLine
 10
298.0964071345
 20
192.6376934457
 30
0.0
 11
293.5002130568
 21
189.9843670823
 31
0.0
  0
LINE
  5
2A2
330
1F
100
AcDbEntity
  8
0
  6
Continuous
 62
     7
370
    25
100
AcDbLine
 10
293.5002130568
 20
189.9843670823
 30
0.0
 11
316.1276300548
 21
176.9218372931
 31
0.0
  0
LINE
  5
2A3
330
1F
100
AcDbEntity
  8
0
  6
Continuous
 62
     7
370
    25
100
AcDbLine
 10
320.7238241325
 20
179.5751636566
 30
0.0
 11
316.1276300548
 21
176.9218372931
 31
0.0
  0
LINE
  5
2A4
330
1F
100
AcDbEntity
  8
0
  6
Continuous
 62
     7
370
    25
100
AcDbLine
 10
298.0964071345
 20
192.6376934457
 30
0.0
 11
320.7238241325
 21
179.5751636566
 31
0.0
  0
LINE
  5
2A5
330
1F
100
AcDbEntity
  8
0
  6
Continuous
 62
     7
370
    25
100
AcDbLine
 10
353.250736067
 20
160.7977770846
 30
0.0
 11
348.6545419893
 21
158.1444507212
 31
0.0
  0
LINE
  5
2A6
330
1F
100
AcDbEntity
  8
0
  6
Continuous
 62
     7
370
    25
100
AcDbLine
 10
348.6545419893
 20
158.1444507212
 30
0.0
 11
371.2819589873
 21
145.0819209321
 31
0.0
  0
LINE
  5
2A7
330
1F
100
AcDbEntity
  8
0
  6
Continuous
 62
     7
370
    25
100
AcDbLine
 10
375.878153065
 20
147.7352472955
 30
0.0
 11
371.2819589873
 21
145.0819209321
 31
0.0
  0
LINE
  5
2A8
330
1F
100
AcDbEntity
  8
0
  6
Continuous
 62
     7
370
    25
100
AcDbLine
 10
353.250736067
 20
160.7977770846
 30
0.0
 11
375.878153065
 21
147.7352472955
 31
0.0
  0
LINE
  5
2A9
330
1F
100
AcDbEntity
  8
0
  6
Continuous
 62
     7
370
    25
100
AcDbLine
 10
344.0583479116
 20
155.4911243578
 30
0.0
 11
339.4621538339
 21
152.8377979944
 31
0.0
  0
LINE
  5
2AA
330
1F
100
AcDbEntity
  8
0
  6
Continuous
 62
     7
370
    25
100
AcDbLine
 10
339.4621538339
 20
152.8377979944
 30
0.0
 11
362.0895708319
 21
139.7752682052
 31
0.0
  0
LINE
  5
2AB
330
1F
100
AcDbEntity
  8
0
  6
Continuous
 62
     7
370
    25
100
AcDbLine
 10
366.6857649096
 20
142.4285945686
 30
0.0
 11
362.0895708319
 21
139.7752682052
 31
0.0
  0
LINE
  5
2AC
330
1F
100
AcDbEntity
  8
0
  6
Continuous
 62
     7
370
    25
100
AcDbLine
 10
344.0583479116
 20
155.4911243578
 30
0.0
 11
366.6857649096
 21
142.4285945686
 31
0.0
  0
LINE
  5
2AD
330
1F
100
AcDbEntity
  8
0
  6
Continuous
 62
     7
370
    25
100
AcDbLine
 10
288.9040189791
 20
187.3310407189
 30
0.0
 11
284.3078249014
 21
184.6777143555
 31
0.0
  0
LINE
  5
2AE
330
1F
100
AcDbEntity
  8
0
  6
Continuous
 62
     7
370
    25
100
AcDbLine
 10
284.3078249014
 20
184.6777143555
 30
0.0
 11
306.9352418993
 21
171.6151845663
 31
0.0
  0
LINE
  5
2AF
330
1F
100
AcDbEntity
  8
0
  6
Continuous
 62
     7
370
    25
100
AcDbLine
 10
311.531435977
 20
174.2685109297
 30
0.0
 11
306.9352418993
 21
171.6151845663
 31
0.0
  0
LINE
  5
2B0
330
1F
100
AcDbEntity
  8
0
  6
Continuous
 62
     7
370
    25
100
AcDbLine
 10
288.9040189791
 20
187.3310407189
 30
0.0
 11
311.531435977
 21
174.2685109297
 31
0.0
  0
LINE
  5
2B1
330
1F
100
AcDbEntity
  8
0
  6
Continuous
 62
     7
370
    25
100
AcDbLine
 10
334.8659597562
 20
150.1844716309
 30
0.0
 11
330.2697656785
 21
147.5311452675
 31
0.0
  0
LINE
  5
2B2
330
1F
100
AcDbEntity
  8
0
  6
Continuous
 62
     7
370
    25
100
AcDbLine
 10
330.2697656785
 20
147.5311452675
 30
0.0
 11
352.8971826765
 21
134.4686154784
 31
0.0
  0
LINE
  5
2B3
330
1F
100
AcDbEntity
  8
0
  6
Continuous
 62
     7
370
    25
100
AcDbLine
 10
357.4933767542
 20
137.1219418418
 30
0.0
 11
352.8971826765
 21
134.4686154784
 31
0.0
  0
LINE
  5
2B4
330
1F
100
AcDbEntity
  8
0
  6
Continuous
 62
     7
370
    25
100
AcDbLine
 10
334.8659597562
 20
150.1844716309
 30
0.0
 11
357.4933767542
 21
137.1219418418
 31
0.0
  0
LINE
  5
2B5
330
1F
100
AcDbEntity
  8
0
  6
Continuous
 62
     7
370
    25
100
AcDbLine
 10
279.7116308236
 20
182.024387992
 30
0.0
 11
275.1154367459
 21
179.3710616286
 31
0.0
  0
LINE
  5
2B6
330
1F
100
AcDbEntity
  8
0
  6
Continuous
 62
     7
370
    25
100
AcDbLine
 10
275.1154367459
 20
179.3710616286
 30
0.0
 11
297.7428537439
 21
166.3085318394
 31
0.0
  0
LINE
  5
2B7
330
1F
100
AcDbEntity
  8
0
  6
Continuous
 62
     7
370
    25
100
AcDbLine
 10
302.3390478216
 20
168.9618582029
 30
0.0
 11
297.7428537439
 21
166.3085318394
 31
0.0
  0
LINE
  5
2B8
330
1F
100
AcDbEntity
  8
0
  6
Continuous
 62
     7
370
    25
100
AcDbLine
 10
279.7116308236
 20
182.024387992
 30
0.0
 11
302.3390478216
 21
168.9618582029
 31
0.0
  0
LINE
  5
2B9
330
1F
100
AcDbEntity
  8
0
  6
Continuous
 62
     7
370
    25
100
AcDbLine
 10
325.6735716008
 20
144.8778189041
 30
0.0
 11
321.0773775231
 21
142.2244925407
 31
0.0
  0
LINE
  5
2BA
330
1F
100
AcDbEntity
  8
0
  6
Continuous
 62
     7
370
    25
100
AcDbLine
 10
321.0773775231
 20
142.2244925407
 30
0.0
 11
343.704794521
 21
129.1619627515
 31
0.0
  0
LINE
  5
2BB
330
1F
100
AcDbEntity
  8
0
  6
Continuous
 62
     7
370
    25
100
AcDbLine
 10
348.3009885987
 20
131.8152891149
 30
0.0
 11
343.704794521
 21
129.1619627515
 31
0.0
  0
LINE
  5
2BC
330
1F
100
AcDbEntity
  8
0
  6
Continuous
 62
     7
370
    25
100
AcDbLine
 10
325.6735716008
 20
144.8778189041
 30
0.0
 11
348.3009885987
 21
131.8152891149
 31
0.0
  0
LINE
  5
2BD
330
1F
100
AcDbEntity
  8
0
  6
Continuous
 62
     7
370
    25
100
AcDbLine
 10
270.5192426682
 20
176.7177352652
 30
0.0
 11
265.9230485905
 21
174.0644089018
 31
0.0
  0
LINE
  5
2BE
330
1F
100
AcDbEntity
  8
0
  6
Continuous
 62
     7
370
    25
100
AcDbLine
 10
265.9230485905
 20
174.0644089018
 30
0.0
 11
288.5504655885
 21
161.0018791126
 31
0.0
  0
LINE
  5
2BF
330
1F
100
AcDbEntity
  8
0
  6
Continuous
 62
     7
370
    25
100
AcDbLine
 10
293.1466596662
 20
163.655205476
 30
0.0
 11
288.5504655885
 21
161.0018791126
 31
0.0
  0
LINE
  5
2C0
330
1F
100
AcDbEntity
  8
0
  6
Continuous
 62
     7
370
    25
100
AcDbLine
 10
270.5192426682
 20
176.7177352652
 30
0.0
 11
293.1466596662
 21
163.655205476
 31
0.0
  0
LINE
  5
2C1
330
1F
100
AcDbEntity
  8
0
  6
Continuous
 62
     7
370
    25
100
AcDbLine
 10
316.4811834453
 20
139.5711661773
 30
0.0
 11
311.8849893676
 21
136.9178398138
 31
0.0
  0
LINE
  5
2C2
330
1F
100
AcDbEntity
  8
0
  6
Continuous
 62
     7
370
    25
100
AcDbLine
 10
311.8849893676
 20
136.9178398138
 30
0.0
 11
334.5124063656
 21
123.8553100247
 31
0.0
  0
LINE
  5
2C3
330
1F
100
AcDbEntity
  8
0
  6
Continuous
 62
     7
370
    25
100
AcDbLine
 10
339.1086004433
 20
126.5086363881
 30
0.0
 11
334.5124063656
 21
123.8553100247
 31
0.0
  0
LINE
  5
2C4
330
1F
100
AcDbEntity
  8
0
  6
Continuous
 62
     7
370
    25
100
AcDbLine
 10
316.4811834453
 20
139.5711661773
 30
0.0
 11
339.1086004433
 21
126.5086363881
 31
0.0
  0
LINE
  5
2C5
330
1F
100
AcDbEntity
  8
0
  6
Continuous
 62
     7
370
    25
100
AcDbLine
 10
261.3268545128
 20
171.4110825383
 30
0.0
 11
256.7306604351
 21
168.7577561749
 31
0.0
  0
LINE
  5
2C6
330
1F
100
AcDbEntity
  8
0
  6
Continuous
 62
     7
370
    25
100
AcDbLine
 10
256.7306604351
 20
168.7577561749
 30
0.0
 11
279.3580774331
 21
155.6952263858
 31
0.0
  0
LINE
  5
2C7
330
1F
100
AcDbEntity
  8
0
  6
Continuous
 62
     7
370
    25
100
AcDbLine
 10
283.9542715108
 20
158.3485527492
 30
0.0
 11
279.3580774331
 21
155.6952263858
 31
0.0
  0
LINE
  5
2C8
330
1F
100
AcDbEntity
  8
0
  6
Continuous
 62
     7
370
    25
100
AcDbLine
 10
261.3268545128
 20
171.4110825383
 30
0.0
 11
283.9542715108
 21
158.3485527492
 31
0.0
  0
LINE
  5
2C9
330
1F
100
AcDbEntity
  8
0
  6
Continuous
 62
     7
370
    25
100
AcDbLine
 10
307.2887952899
 20
134.2645134504
 30
0.0
 11
302.6926012122
 21
131.611187087
 31
0.0
  0
LINE
  5
2CA
330
1F
100
AcDbEntity
  8
0
  6
Continuous
 62
     7
370
    25
100
AcDbLine
 10
302.6926012122
 20
131.611187087
 30
0.0
 11
325.3200182102
 21
118.5486572978
 31
0.0
  0
LINE
  5
2CB
330
1F
100
AcDbEntity
  8
0
  6
Continuous
 62
     7
370
    25
100
AcDbLine
 10
329.9162122879
 20
121.2019836612
 30
0.0
 11
325.3200182102
 21
118.5486572978
 31
0.0
  0
LINE
  5
2CC
330
1F
100
AcDbEntity
  8
0
  6
Continuous
 62
     7
370
    25
100
AcDbLine
 10
307.2887952899
 20
134.2645134504
 30
0.0
 11
329.9162122879
 21
121.2019836612
 31
0.0
  0
LINE
  5
2CD
330
1F
100
AcDbEntity
  8
0
  6
Continuous
 62
     7
370
    25
100
AcDbLine
 10
252.1344663574
 20
166.1044298115
 30
0.0
 11
247.5382722797
 21
163.4511034481
 31
0.0
  0
LINE
  5
2CE
330
1F
100
AcDbEntity
  8
0
  6
Continuous
 62
     7
370
    25
100
AcDbLine
 10
247.5382722797
 20
163.4511034481
 30
0.0
 11
270.1656892776
 21
150.3885736589
 31
0.0
  0
LINE
  5
2CF
330
1F
100
AcDbEntity
  8
0
  6
Continuous
 62
     7
370
    25
100
AcDbLine
 10
274.7618833553
 20
153.0419000223
 30
0.0
 11
270.1656892776
 21
150.3885736589
 31
0.0
  0
LINE
  5
2D0
330
1F
100
AcDbEntity
  8
0
  6
Continuous
 62
     7
370
    25
100
AcDbLine
 10
252.1344663574
 20
166.1044298115
 30
0.0
 11
274.7618833553
 21
153.0419000223
 31
0.0
  0
LINE
  5
2D1
330
1F
100
AcDbEntity
  8
0
  6
Continuous
 62
     7
370
    25
100
AcDbLine
 10
298.0964071345
 20
128.9578607236
 30
0.0
 11
293.5002130568
 21
126.3045343601
 31
0.0
  0
LINE
  5
2D2
330
1F
100
AcDbEntity
  8
0
  6
Continuous
 62
     7
370
    25
100
AcDbLine
 10
293.5002130568
 20
126.3045343601
 30
0.0
 11
316.1276300548
 21
113.242004571
 31
0.0
  0
LINE
  5
2D3
330
1F
100
AcDbEntity
  8
0
  6
Continuous
 62
     7
370
    25
100
AcDbLine
 10
320.7238241325
 20
115.8953309344
 30
0.0
 11
316.1276300548
 21
113.242004571
 31
0.0
  0
LINE
  5
2D4
330
1F
100
AcDbEntity
  8
0
  6
Continuous
 62
     7
370
    25
100
AcDbLine
 10
298.0964071345
 20
128.9578607236
 30
0.0
 11
320.7238241325
 21
115.8953309344
 31
0.0
  0
LINE
  5
2D5
330
1F
100
AcDbEntity
  8
0
  6
Continuous
 62
     7
370
    25
100
AcDbLine
 10
242.9420782019
 20
160.7977770846
 30
0.0
 11
238.3458841242
 21
158.1444507212
 31
0.0
  0
LINE
  5
2D6
330
1F
100
AcDbEntity
  8
0
  6
Continuous
 62
     7
370
    25
100
AcDbLine
 10
238.3458841242
 20
158.1444507212
 30
0.0
 11
260.9733011222
 21
145.0819209321
 31
0.0
  0
LINE
  5
2D7
330
1F
100
AcDbEntity
  8
0
  6
Continuous
 62
     7
370
    25
100
AcDbLine
 10
265.5694951999
 20
147.7352472955
 30
0.0
 11
260.9733011222
 21
145.0819209321
 31
0.0
  0
LINE
  5
2D8
330
1F
100
AcDbEntity
  8
0
  6
Continuous
 62
     7
370
    25
100
AcDbLine
 10
242.9420782019
 20
160.7977770846
 30
0.0
 11
265.5694951999
 21
147.7352472955
 31
0.0
  0
ARC
  5
2D9
330
1F
100
AcDbEntity
  8
0
  6
Continuous
 62
     7
370
    25
100
AcDbCircle
 10
211.531440284
 20
152.9398490084
 30
0.0
 40
0.6549229752514016
100
AcDbArc
 50
110.7834207995
 51
249.2165792005
  0
LINE
  5
2DA
330
1F
100
AcDbEntity
  8
0
  6
Continuous
 62
     7
370
    25
100
AcDbLine
 10
306.0513584228
 20
208.2514985843
 30
0.0
 11
211.2990497438
 21
153.5521550922
 31
0.0
  0
ARC
  5
2DB
330
1F
100
AcDbEntity
  8
0
  6
Continuous
 62
     7
370
    25
100
AcDbCircle
 10
307.1120185946
 20
206.2044319569
 30
0.0
 40
2.305532861867633
100
AcDbArc
 50
62.6096722366
 51
117.3903277634
  0
LINE
  5
2DC
330
1F
100
AcDbEntity
  8
0
  6
Continuous
 62
     7
370
    25
100
AcDbLine
 10
402.9249874454
 20
153.5521550922
 30
0.0
 11
308.1726787664
 21
208.2514985843
 31
0.0
  0
ARC
  5
2DD
330
1F
100
AcDbEntity
  8
0
  6
Continuous
 62
     7
370
    25
100
AcDbCircle
 10
402.6925969052
 20
152.9398490084
 30
0.0
 40
0.6549229752513814
100
AcDbArc
 50
290.7834207995
 51
69.2165792005
  0
LWPOLYLINE
  5
2DE
330
1F
100
AcDbEntity
  8
0
  6
Continuous
 62
     7
370
    25
100
AcDbPolyline
 90
       26
 70
   128
 43
0.0
 10
318.9181420392
 20
193.6362598567
 10
318.4091127929
 20
193.590463439
 10
317.894695517
 20
193.6065752394
 10
317.3972369871
 20
193.683895346
 10
316.9383472748
 20
193.8190648998
 10
316.5379609856
 20
194.0062120069
 10
316.2134712807
 20
194.2372068189
 10
315.9789743015
 20
194.5020147017
 10
315.8446568198
 20
194.7891321488
 10
315.8163537146
 20
195.0860865053
 10
315.8952944997
 20
195.3799777917
 10
316.0780499125
 20
195.6580390909
 10
316.356680884
 20
195.9081911557
 10
316.7190834197
 20
196.1195671425
 10
317.149514409
 20
196.2829846774
 10
317.6292755203
 20
196.3913447472
 10
318.1375254746
 20
196.4399400875
 10
318.6521854107
 20
196.4266596706
 10
319.1508980114
 20
196.3520804103
 10
319.6119987272
 20
196.2194421006
 10
320.0154569043
 20
196.0345066758
 10
320.343745936
 20
195.8053079067
 10
320.5826046345
 20
195.5418024058
 10
320.7216567508
 20
195.2554371026
 10
320.7548617287
 20
194.9586519782
 10
320.6807771123
 20
194.6643396607
  0
LINE
  5
2DF
330
1F
100
AcDbEntity
  8
0
  6
Continuous
 62
     7
370
    25
100
AcDbLine
 10
320.6807771123
 20
194.6643396607
 30
0.0
 11
321.2661088002
 21
194.5727854256
 31
0.0
  0
LWPOLYLINE
  5
2E0
330
1F
100
AcDbEntity
  8
0
  6
Continuous
 62
     7
370
    25
100
AcDbPolyline
 90
       29
 70
   128
 43
0.0
 10
321.2661088002
 20
194.5727854256
 10
321.3566453144
 20
194.8996341429
 10
321.340605164
 20
195.2305057724
 10
321.2185449077
 20
195.5539197788
 10
320.9946997744
 20
195.8586543903
 10
320.6768367098
 20
196.1341359701
 10
320.2759848798
 20
196.3708058986
 10
319.8060529824
 20
196.5604522375
 10
319.2833466457
 20
196.6964946659
 10
318.7260026575
 20
196.7742128036
 10
318.1533596577
 20
196.7909099979
 10
317.5852871292
 20
196.7460068922
 10
317.0414959693
 20
196.6410615278
 10
316.5408545639
 20
196.4797152835
 10
316.100734095
 20
196.2675665277
 10
315.7364057981
 20
196.0119763668
 10
315.460511083
 20
195.7218132307
 10
315.2826229042
 20
195.4071451573
 10
315.2089135994
 20
195.0788904534
 10
315.2419407235
 20
194.7484388524
 10
315.380558306
 20
194.4272563156
 10
315.6199566145
 20
194.1264871876
 10
315.9518290415
 20
193.8565675113
 10
316.3646603262
 20
193.6268629203
 10
316.8441261092
 20
193.4453436706
 10
317.3735899572
 20
193.3183080906
 10
317.9346806112
 20
193.2501640421
 10
318.5079294299
 20
193.2432759775
 10
319.07344591
 20
193.2978828978
  0
LINE
  5
2E1
330
1F
100
AcDbEntity
  8
0
  6
Continuous
 62
     7
370
    25
100
AcDbLine
 10
319.07344591
 20
193.2978828978
 30
0.0
 11
318.9181420392
 21
193.6362598567
 31
0.0
  0
LWPOLYLINE
  5
2E2
330
1F
100
AcDbEntity
  8
0
  6
Continuous
 62
     7
370
    25
100
AcDbPolyline
 90
       35
 70
   128
 43
0.0
 10
288.9621111242
 20
112.3889527434
 10
289.3991133255
 20
112.1794654162
 10
289.8953541289
 20
112.0199006023
 10
290.4339346489
 20
111.9156920901
 10
290.996514172
 20
111.8703885756
 10
291.5639347272
 20
111.8855328155
 10
292.1168734881
 20
111.960609091
 10
292.6365007883
 20
112.0930607696
 10
293.1051213433
 20
112.2783773681
 10
293.5067768422
 20
112.5102481521
 10
293.8277893887
 20
112.7807770401
 10
294.0572272856
 20
113.0807514954
 10
294.1872773004
 20
113.3999562476
 10
294.2135107359
 20
113.7275211617
 10
294.1350342438
 20
114.0522914074
 10
293.9545202471
 20
114.3632073236
 10
293.6781159333
 20
114.6496810417
 10
293.3152339199
 20
114.9019570426
 10
292.8782317186
 20
115.1114443699
 10
292.3819909152
 20
115.2710091838
 10
291.8434103952
 20
115.375217696
 10
291.2808308721
 20
115.4205212105
 10
290.7134103169
 20
115.4053769706
 10
290.160471556
 20
115.3303006951
 10
289.6408442558
 20
115.1978490165
 10
289.1722237008
 20
115.012532418
 10
288.7705682019
 20
114.780661634
 10
288.4495556554
 20
114.5101327459
 10
288.2201177585
 20
114.2101582907
 10
288.0900677437
 20
113.8909535385
 10
288.0638343083
 20
113.5633886244
 10
288.1423108003
 20
113.2386183786
 10
288.322824797
 20
112.9277024624
 10
288.5992291108
 20
112.6412287444
 10
288.9621111242
 20
112.3889527434
  0
ARC
  5
2E3
330
1F
100
AcDbEntity
  8
0
  6
Continuous
 62
     7
370
    25
100
AcDbCircle
 10
302.4397356162
 20
107.1848558083
 30
0.0
 40
3.493129175722964
100
AcDbArc
 50
112.3539107054
 51
188.1882222827
  0
ARC
  5
2E4
330
1F
100
AcDbEntity
  8
0
  6
Continuous
 62
     7
370
    25
100
AcDbCircle
 10
300.2090276647
 20
118.0448418713
 30
0.0
 40
11.42356311002154
100
AcDbArc
 50
263.8349453402
 51
297.3203335808
  0
LINE
  5
2E5
330
1F
100
AcDbEntity
  8
0
  6
Continuous
 62
     7
370
    25
100
AcDbLine
 10
305.4520419953
 20
107.8955268768
 30
0.0
 11
305.0244655829
 21
108.1437450334
 31
0.0
  0
ARC
  5
2E6
330
1F
100
AcDbEntity
  8
0
  6
Continuous
 62
     7
370
    25
100
AcDbCircle
 10
301.4479271122
 20
114.455130849
 30
0.0
 40
7.254324113601509
100
AcDbArc
 50
293.8661002819
 51
299.5393767094
  0
LINE
  5
2E7
330
1F
100
AcDbEntity
  8
0
  6
Continuous
 62
     7
370
    25
100
AcDbLine
 10
304.3830309058
 20
107.821098586
 30
0.0
 11
300.9763051625
 21
109.7987829478
 31
0.0
  0
ARC
  5
2E8
330
1F
100
AcDbEntity
  8
0
  6
Continuous
 62
     7
370
    25
100
AcDbCircle
 10
304.5181131744
 20
105.0058750041
 30
0.0
 40
5.959561271614866
100
AcDbArc
 50
119.9950071612
 51
126.4632338735
  0
LINE
  5
2E9
330
1F
100
AcDbEntity
  8
0
  6
Continuous
 62
     7
370
    25
100
AcDbLine
 10
301.5387822985
 20
110.1672661036
 30
0.0
 11
301.1112058861
 21
110.4154842603
 31
0.0
  0
LWPOLYLINE
  5
2EA
330
1F
100
AcDbEntity
  8
0
  6
Continuous
 62
     7
370
    25
100
AcDbPolyline
 90
       26
 70
   128
 43
0.0
 10
295.3058951501
 20
112.24343816
 10
295.8149243964
 20
112.2892345777
 10
296.3293416723
 20
112.2731227773
 10
296.8268002022
 20
112.1958026707
 10
297.2856899145
 20
112.0606331169
 10
297.6860762036
 20
111.8734860098
 10
298.0105659085
 20
111.6424911978
 10
298.2450628877
 20
111.377683315
 10
298.3793803695
 20
111.0905658679
 10
298.4076834747
 20
110.7936115114
 10
298.3287426895
 20
110.499720225
 10
298.1459872767
 20
110.2216589258
 10
297.8673563053
 20
109.971506861
 10
297.5049537695
 20
109.7601308742
 10
297.0745227802
 20
109.5967133393
 10
296.594761669
 20
109.4883532695
 10
296.0865117146
 20
109.4397579292
 10
295.5718517786
 20
109.4530383461
 10
295.0731391778
 20
109.5276176064
 10
294.6120384621
 20
109.6602559161
 10
294.2085802849
 20
109.8451913409
 10
293.8802912532
 20
110.07439011
 10
293.6414325547
 20
110.3378956109
 10
293.5023804385
 20
110.6242609141
 10
293.4691754606
 20
110.9210460385
 10
293.5432600769
 20
111.2153583561
  0
LINE
  5
2EB
330
1F
100
AcDbEntity
  8
0
  6
Continuous
 62
     7
370
    25
100
AcDbLine
 10
293.5432600769
 20
111.2153583561
 30
0.0
 11
292.9579283891
 21
111.3069125911
 31
0.0
  0
LWPOLYLINE
  5
2EC
330
1F
100
AcDbEntity
  8
0
  6
Continuous
 62
     7
370
    25
100
AcDbPolyline
 90
       29
 70
   128
 43
0.0
 10
292.9579283891
 20
111.3069125911
 10
292.8673918748
 20
110.9800638738
 10
292.8834320253
 20
110.6491922443
 10
293.0054922815
 20
110.3257782379
 10
293.2293374148
 20
110.0210436264
 10
293.5472004794
 20
109.7455620467
 10
293.9480523095
 20
109.5088921181
 10
294.4179842069
 20
109.3192457792
 10
294.9406905436
 20
109.1832033508
 10
295.4980345318
 20
109.1054852131
 10
296.0706775315
 20
109.0887880188
 10
296.63875006
 20
109.1336911245
 10
297.1825412199
 20
109.2386364889
 10
297.6831826254
 20
109.3999827332
 10
298.1233030943
 20
109.612131489
 10
298.4876313912
 20
109.8677216499
 10
298.7635261062
 20
110.157884786
 10
298.9414142851
 20
110.4725528594
 10
299.0151235898
 20
110.8008075633
 10
298.9820964658
 20
111.1312591643
 10
298.8434788832
 20
111.4524417011
 10
298.6040805748
 20
111.7532108291
 10
298.2722081478
 20
112.0231305054
 10
297.8593768631
 20
112.2528350964
 10
297.37991108
 20
112.4343543461
 10
296.850447232
 20
112.5613899261
 10
296.2893565781
 20
112.6295339746
 10
295.7161077593
 20
112.6364220392
 10
295.1505912792
 20
112.5818151189
  0
LINE
  5
2ED
330
1F
100
AcDbEntity
  8
0
  6
Continuous
 62
     7
370
    25
100
AcDbLine
 10
295.1505912792
 20
112.5818151189
 30
0.0
 11
295.3058951501
 21
112.24343816
 31
0.0
  0
LWPOLYLINE
  5
2EE
330
1F
100
AcDbEntity
  8
0
  6
Continuous
 62
     7
370
    25
100
AcDbPolyline
 90
       35
 70
   128
 43
0.0
 10
320.9088032693
 20
190.9777409741
 10
321.3458054706
 20
190.7682536468
 10
321.842046274
 20
190.6086888329
 10
322.3806267941
 20
190.5044803207
 10
322.9432063172
 20
190.4591768062
 10
323.5106268724
 20
190.4743210461
 10
324.0635656332
 20
190.5493973217
 10
324.5831929334
 20
190.6818490002
 10
325.0518134884
 20
190.8671655987
 10
325.4534689873
 20
191.0990363827
 10
325.7744815338
 20
191.3695652708
 10
326.0039194307
 20
191.669539726
 10
326.1339694455
 20
191.9887444782
 10
326.160202881
 20
192.3163093923
 10
326.081726389
 20
192.6410796381
 10
325.9012123923
 20
192.9519955543
 10
325.6248080785
 20
193.2384692723
 10
325.2619260651
 20
193.4907452733
 10
324.8249238638
 20
193.7002326006
 10
324.3286830604
 20
193.8597974145
 10
323.7901025403
 20
193.9640059266
 10
323.2275230172
 20
194.0093094412
 10
322.660102462
 20
193.9941652012
 10
322.1071637012
 20
193.9190889257
 10
321.587536401
 20
193.7866372472
 10
321.118915846
 20
193.6013206486
 10
320.7172603471
 20
193.3694498646
 10
320.3962478006
 20
193.0989209766
 10
320.1668099037
 20
192.7989465213
 10
320.0367598889
 20
192.4797417691
 10
320.0105264534
 20
192.152176855
 10
320.0890029454
 20
191.8274066093
 10
320.2695169422
 20
191.5164906931
 10
320.5459212559
 20
191.2300169751
 10
320.9088032693
 20
190.9777409741
  0
ARC
  5
2EF
330
1F
100
AcDbEntity
  8
0
  6
Continuous
 62
     7
370
    25
100
AcDbCircle
 10
311.7843015731
 20
198.6948422084
 30
0.0
 40
3.49312917571912
100
AcDbArc
 50
292.3539107054
 51
8.1882222828
  0
ARC
  5
2F0
330
1F
100
AcDbEntity
  8
0
  6
Continuous
 62
     7
370
    25
100
AcDbCircle
 10
314.0150095245
 20
187.8348561454
 30
0.0
 40
11.42356311001535
100
AcDbArc
 50
83.8349453402
 51
117.3203335808
  0
LINE
  5
2F1
330
1F
100
AcDbEntity
  8
0
  6
Continuous
 62
     7
370
    25
100
AcDbLine
 10
308.771995194
 20
197.9841711399
 30
0.0
 11
309.1995716063
 21
197.7359529833
 31
0.0
  0
ARC
  5
2F2
330
1F
100
AcDbEntity
  8
0
  6
Continuous
 62
     7
370
    25
100
AcDbCircle
 10
312.7761100771
 20
191.4245671677
 30
0.0
 40
7.254324113603805
100
AcDbArc
 50
113.8661002819
 51
119.5393767095
  0
LINE
  5
2F3
330
1F
100
AcDbEntity
  8
0
  6
Continuous
 62
     7
370
    25
100
AcDbLine
 10
309.8410062835
 20
198.0585994307
 30
0.0
 11
313.2477320268
 21
196.0809150689
 31
0.0
  0
ARC
  5
2F4
330
1F
100
AcDbEntity
  8
0
  6
Continuous
 62
     7
370
    25
100
AcDbCircle
 10
309.7059240149
 20
200.8738230126
 30
0.0
 40
5.959561271628163
100
AcDbArc
 50
299.9950071613
 51
306.4632338735
  0
LINE
  5
2F5
330
1F
100
AcDbEntity
  8
0
  6
Continuous
 62
     7
370
    25
100
AcDbLine
 10
312.6852548908
 20
195.7124319131
 30
0.0
 11
313.1128313032
 21
195.4642137564
 31
0.0
  0
LINE
  5
2F6
330
1F
100
AcDbEntity
  8
0
  6
Continuous
 62
     7
370
    25
100
AcDbLine
 10
309.5868923288
 20
93.545628073
 30
0.0
 11
404.3392010078
 21
148.2449715651
 31
0.0
  0
LINE
  5
2F7
330
1F
100
AcDbEntity
  8
0
  6
Continuous
 62
     7
370
    25
100
AcDbLine
 10
209.8848361815
 20
148.2449715651
 30
0.0
 11
304.6371448605
 21
93.545628073
 31
0.0
  0
LINE
  5
2F8
330
1F
100
AcDbEntity
  8
0
  6
Continuous
 62
     7
370
    25
100
AcDbLine
 10
304.3830309058
 20
107.7394445048
 30
0.0
 11
300.9763051625
 21
109.7171288666
 31
0.0
  0
ARC
  5
2F9
330
1F
100
AcDbEntity
  8
0
  6
Continuous
 62
     7
370
    25
100
AcDbCircle
 10
301.4479271122
 20
114.3734767678
 30
0.0
 40
7.25432411359405
100
AcDbArc
 50
293.8661002819
 51
299.5393767094
  0
LINE
  5
2FA
330
1F
100
AcDbEntity
  8
0
  6
Continuous
 62
     7
370
    25
100
AcDbLine
 10
305.3805479413
 20
107.8553767743
 30
0.0
 11
305.0244655829
 21
108.0620909522
 31
0.0
  0
ARC
  5
2FB
330
1F
100
AcDbEntity
  8
0
  6
Continuous
 62
     7
370
    25
100
AcDbCircle
 10
302.592475921
 20
106.934200537
 30
0.0
 40
3.708320727670533
100
AcDbArc
 50
113.5434850055
 51
174.5450442682
  0
LINE
  5
2FC
330
1F
100
AcDbEntity
  8
0
  6
Continuous
 62
     7
370
    25
100
AcDbLine
 10
301.4689014745
 20
110.1261794831
 30
0.0
 11
301.1112058861
 21
110.3338301791
 31
0.0
  0
LINE
  5
2FD
330
1F
100
AcDbEntity
  8
0
  6
Continuous
 62
     7
370
    25
100
AcDbLine
 10
299.506994217
 20
107.2458982262
 30
0.0
 11
299.5298798035
 21
106.9200878905
 31
0.0
  0
ARC
  5
2FE
330
1F
100
AcDbEntity
  8
0
  6
Continuous
 62
     7
370
    25
100
AcDbCircle
 10
300.1708315645
 20
118.0670630254
 30
0.0
 40
11.16538731154278
100
AcDbArc
 50
266.7091127749
 51
289.3981199029
  0
LINE
  5
2FF
330
1F
100
AcDbEntity
  8
0
  6
Continuous
 62
     7
370
    25
100
AcDbLine
 10
303.8791936722
 20
107.6171491181
 30
0.0
 11
300.6202053867
 21
109.5090684134
 31
0.0
  0
ARC
  5
300
330
1F
100
AcDbEntity
  8
0
  6
Continuous
 62
     7
370
    25
100
AcDbCircle
 10
300.1708315645
 20
118.1487171066
 30
0.0
 40
11.16538731154266
100
AcDbArc
 50
266.7091127749
 51
289.3981199029
  0
ARC
  5
301
330
1F
100
AcDbEntity
  8
0
  6
Continuous
 62
     7
370
    25
100
AcDbCircle
 10
302.3742017158
 20
107.2556023876
 30
0.0
 40
2.855628171167163
100
AcDbArc
 50
127.8955810624
 51
185.1002287854
  0
LINE
  5
302
330
1F
100
AcDbEntity
  8
0
  6
Continuous
 62
     7
370
    25
100
AcDbLine
 10
303.8791936722
 20
107.5354950369
 30
0.0
 11
303.8791936722
 21
107.6171491181
 31
0.0
  0
LINE
  5
303
330
1F
100
AcDbEntity
  8
0
  6
Continuous
 62
     7
370
    25
100
AcDbLine
 10
299.5298798035
 20
106.9200878905
 30
0.0
 11
299.5298798035
 21
107.0017419717
 31
0.0
  0
LINE
  5
304
330
1F
100
AcDbEntity
  8
0
  6
Continuous
 62
     7
370
    25
100
AcDbLine
 10
301.1112058861
 20
110.3338301791
 30
0.0
 11
301.1112058861
 21
110.4154842603
 31
0.0
  0
LINE
  5
305
330
1F
100
AcDbEntity
  8
0
  6
Continuous
 62
     7
370
    25
100
AcDbLine
 10
305.0244655829
 20
108.0620909522
 30
0.0
 11
305.0244655829
 21
108.1437450334
 31
0.0
  0
LINE
  5
306
330
1F
100
AcDbEntity
  8
0
  6
Continuous
 62
     7
370
    25
100
AcDbLine
 10
304.3830309058
 20
107.7394445048
 30
0.0
 11
304.3830309058
 21
107.821098586
 31
0.0
  0
LINE
  5
307
330
1F
100
AcDbEntity
  8
0
  6
Continuous
 62
     7
370
    25
100
AcDbLine
 10
300.9763051625
 20
109.7171288666
 30
0.0
 11
300.9763051625
 21
109.7987829478
 31
0.0
  0
LINE
  5
308
330
1F
100
AcDbEntity
  8
0
  6
Continuous
 62
     7
370
    25
100
AcDbLine
 10
292.9579283891
 20
111.2252585099
 30
0.0
 11
292.9579283891
 21
111.3069125911
 31
0.0
  0
LWPOLYLINE
  5
309
330
1F
100
AcDbEntity
  8
0
  6
Continuous
 62
     7
370
    25
100
AcDbPolyline
 90
        3
 70
   128
 43
0.0
 10
292.9579283891
 20
111.2252585099
 10
292.8673918748
 20
110.8984097926
 10
292.8616454195
 20
110.8232955928
  0
LWPOLYLINE
  5
30A
330
1F
100
AcDbEntity
  8
0
  6
Continuous
 62
     7
370
    25
100
AcDbPolyline
 90
       11
 70
   128
 43
0.0
 10
299.0162656066
 20
110.8232955928
 10
298.9820964658
 20
111.0496050831
 10
298.8434788832
 20
111.3707876199
 10
298.6040805748
 20
111.6715567479
 10
298.2722081478
 20
111.9414764242
 10
297.8593768631
 20
112.1711810153
 10
297.37991108
 20
112.3527002649
 10
296.850447232
 20
112.479735845
 10
296.2893565781
 20
112.5478798934
 10
295.7161077593
 20
112.554767958
 10
295.1505912792
 20
112.5001610377
  0
LINE
  5
30B
330
1F
100
AcDbEntity
  8
0
  6
Continuous
 62
     7
370
    25
100
AcDbLine
 10
293.5132971936
 20
111.1383908977
 30
0.0
 11
292.9579283891
 21
111.2252585099
 31
0.0
  0
LWPOLYLINE
  5
30C
330
1F
100
AcDbEntity
  8
0
  6
Continuous
 62
     7
370
    25
100
AcDbPolyline
 90
       17
 70
   128
 43
0.0
 10
298.4107031612
 20
110.7824685522
 10
298.4076834747
 20
110.7119574302
 10
298.3287426895
 20
110.4180661438
 10
298.1459872767
 20
110.1400048446
 10
297.8673563053
 20
109.8898527798
 10
297.5049537695
 20
109.678476793
 10
297.0745227802
 20
109.5150592582
 10
296.594761669
 20
109.4066991883
 10
296.0865117146
 20
109.358103848
 10
295.5718517786
 20
109.3713842649
 10
295.0731391778
 20
109.4459635253
 10
294.6120384621
 20
109.5786018349
 10
294.2085802849
 20
109.7635372597
 10
293.8802912532
 20
109.9927360288
 10
293.6414325547
 20
110.2562415297
 10
293.5023804385
 20
110.5426068329
 10
293.4672078648
 20
110.7824685522
  0
LWPOLYLINE
  5
30D
330
1F
100
AcDbEntity
  8
0
  6
Continuous
 62
     7
370
    25
100
AcDbPolyline
 90
       19
 70
   128
 43
0.0
 10
294.2159826156
 20
113.6046278524
 10
294.2135107359
 20
113.6458670805
 10
294.1350342438
 20
113.9706373262
 10
293.9545202471
 20
114.2815532424
 10
293.6781159333
 20
114.5680269605
 10
293.3152339199
 20
114.8203029614
 10
292.8782317186
 20
115.0297902887
 10
292.3819909152
 20
115.1893551026
 10
291.8434103952
 20
115.2935636148
 10
291.2808308721
 20
115.3388671293
 10
290.7134103169
 20
115.3237228894
 10
290.160471556
 20
115.2486466139
 10
289.6408442558
 20
115.1161949353
 10
289.1722237008
 20
114.9308783368
 10
288.7705682019
 20
114.6990075528
 10
288.4495556554
 20
114.4284786647
 10
288.2201177585
 20
114.1285042095
 10
288.0900677437
 20
113.8092994573
 10
288.0613624285
 20
113.6046278524
  0
LWPOLYLINE
  5
30E
330
1F
100
AcDbEntity
  8
0
  6
Continuous
 62
     7
370
    25
100
AcDbPolyline
 90
       13
 70
   128
 43
0.0
 10
289.3908829986
 20
112.5548233966
 10
289.7784877973
 20
112.3723715631
 10
290.2217787185
 20
112.238696983
 10
290.7026073797
 20
112.1592723094
 10
291.2012885991
 20
112.1373491977
 10
291.6974063089
 20
112.1738251826
 10
292.1706493918
 20
112.2672069332
 10
292.6016432205
 20
112.4136713894
 10
292.9727428568
 20
112.6072222794
 10
293.2687554382
 20
112.8399356068
 10
293.4775621747
 20
113.1022840609
 10
293.590614494
 20
113.3835270649
 10
293.6104201703
 20
113.5638008118
  0
ARC
  5
30F
330
1F
100
AcDbEntity
  8
0
  6
Continuous
 62
     7
370
    25
100
AcDbCircle
 10
289.8976956643
 20
113.6826846602
 30
0.0
 40
1.236499133845831
100
AcDbArc
 50
185.5172549231
 51
245.8028860345
  0
LWPOLYLINE
  5
310
330
1F
100
AcDbEntity
  8
0
  6
Continuous
 62
     7
370
    25
100
AcDbPolyline
 90
       32
 70
   128
 43
0.0
 10
289.3908829986
 20
112.6364774778
 10
289.7784877973
 20
112.4540256443
 10
290.2217787185
 20
112.3203510642
 10
290.7026073797
 20
112.2409263906
 10
291.2012885991
 20
112.2190032789
 10
291.6974063089
 20
112.2554792638
 10
292.1706493918
 20
112.3488610143
 10
292.6016432205
 20
112.4953254706
 10
292.9727428568
 20
112.6888763606
 10
293.2687554382
 20
112.921589688
 10
293.4775621747
 20
113.183938142
 10
293.590614494
 20
113.4651811461
 10
293.6032840209
 20
113.7538045785
 10
293.5150520634
 20
114.037992162
 10
293.3295308483
 20
114.3061092237
 10
293.0543156359
 20
114.5471790194
 10
292.7006737694
 20
114.7513321234
 10
292.2830833883
 20
114.9102104837
 10
291.8186406918
 20
115.0173096015
 10
291.3263600186
 20
115.0682448264
 10
290.8263953972
 20
115.0609308642
 10
290.339215438
 20
114.9956671494
 10
289.8847653457
 20
114.8751255862
 10
289.4816503606
 20
114.7042411604
 10
289.1463740575
 20
114.4900099004
 10
288.8926626875
 20
114.2412024591
 10
288.7309032241
 20
113.9680050425
 10
288.6677181187
 20
113.6816023849
 10
288.7056941769
 20
113.3937198447
 10
288.8432766543
 20
113.1161433669
 10
289.0748329083
 20
112.8602369653
 10
289.3908829986
 20
112.6364774778
  0
LINE
  5
311
330
1F
100
AcDbEntity
  8
0
  6
Continuous
 62
     7
370
    25
100
AcDbLine
 10
298.0964071345
 20
128.9578607236
 30
0.0
 11
298.0964071345
 21
125.691697476
 31
0.0
  0
LINE
  5
312
330
1F
100
AcDbEntity
  8
0
  6
Continuous
 62
     7
370
    25
100
AcDbLine
 10
298.0964071345
 20
125.691697476
 30
0.0
 11
317.8949372714
 21
114.2622493106
 31
0.0
  0
LINE
  5
313
330
1F
100
AcDbEntity
  8
0
  6
Continuous
 62
     7
370
    25
100
AcDbLine
 10
307.2887952899
 20
134.2645134504
 30
0.0
 11
307.2887952899
 21
130.9983502029
 31
0.0
  0
LINE
  5
314
330
1F
100
AcDbEntity
  8
0
  6
Continuous
 62
     7
370
    25
100
AcDbLine
 10
307.2887952899
 20
130.9983502029
 30
0.0
 11
327.0873254268
 21
119.5689020375
 31
0.0
  0
LINE
  5
315
330
1F
100
AcDbEntity
  8
0
  6
Continuous
 62
     7
370
    25
100
AcDbLine
 10
298.0964071345
 20
125.691697476
 30
0.0
 11
296.3290999178
 21
124.6714527364
 31
0.0
  0
LINE
  5
316
330
1F
100
AcDbEntity
  8
0
  6
Continuous
 62
     7
370
    25
100
AcDbLine
 10
316.4811834453
 20
139.5711661773
 30
0.0
 11
316.4811834453
 21
136.3050029297
 31
0.0
  0
LINE
  5
317
330
1F
100
AcDbEntity
  8
0
  6
Continuous
 62
     7
370
    25
100
AcDbLine
 10
316.4811834453
 20
136.3050029297
 30
0.0
 11
336.2797135823
 21
124.8755547643
 31
0.0
  0
LINE
  5
318
330
1F
100
AcDbEntity
  8
0
  6
Continuous
 62
     7
370
    25
100
AcDbLine
 10
261.3268545128
 20
139.5711661773
 30
0.0
 11
261.3268545128
 21
136.3050029297
 31
0.0
  0
LINE
  5
319
330
1F
100
AcDbEntity
  8
0
  6
Continuous
 62
     7
370
    25
100
AcDbLine
 10
261.3268545128
 20
136.3050029297
 30
0.0
 11
281.1253846497
 21
124.8755547643
 31
0.0
  0
LINE
  5
31A
330
1F
100
AcDbEntity
  8
0
  6
Continuous
 62
     7
370
    25
100
AcDbLine
 10
307.2887952899
 20
130.9983502029
 30
0.0
 11
305.5214880733
 21
129.9781054632
 31
0.0
  0
LINE
  5
31B
330
1F
100
AcDbEntity
  8
0
  6
Continuous
 62
     7
370
    25
100
AcDbLine
 10
325.6735716008
 20
144.8778189041
 30
0.0
 11
325.6735716008
 21
141.6116556566
 31
0.0
  0
LINE
  5
31C
330
1F
100
AcDbEntity
  8
0
  6
Continuous
 62
     7
370
    25
100
AcDbLine
 10
325.6735716008
 20
141.6116556566
 30
0.0
 11
345.4721017377
 21
130.1822074912
 31
0.0
  0
LINE
  5
31D
330
1F
100
AcDbEntity
  8
0
  6
Continuous
 62
     7
370
    25
100
AcDbLine
 10
270.5192426682
 20
144.8778189041
 30
0.0
 11
270.5192426682
 21
141.6116556566
 31
0.0
  0
LINE
  5
31E
330
1F
100
AcDbEntity
  8
0
  6
Continuous
 62
     7
370
    25
100
AcDbLine
 10
270.5192426682
 20
141.6116556566
 30
0.0
 11
290.3177728051
 21
130.1822074912
 31
0.0
  0
LINE
  5
31F
330
1F
100
AcDbEntity
  8
0
  6
Continuous
 62
     7
370
    25
100
AcDbLine
 10
316.4811834453
 20
136.3050029297
 30
0.0
 11
314.7138762287
 21
135.2847581901
 31
0.0
  0
LINE
  5
320
330
1F
100
AcDbEntity
  8
0
  6
Continuous
 62
     7
370
    25
100
AcDbLine
 10
261.3268545128
 20
136.3050029297
 30
0.0
 11
259.5595472961
 21
135.2847581901
 31
0.0
  0
LINE
  5
321
330
1F
100
AcDbEntity
  8
0
  6
Continuous
 62
     7
370
    25
100
AcDbLine
 10
334.8659597562
 20
150.1844716309
 30
0.0
 11
334.8659597562
 21
146.9183083834
 31
0.0
  0
LINE
  5
322
330
1F
100
AcDbEntity
  8
0
  6
Continuous
 62
     7
370
    25
100
AcDbLine
 10
334.8659597562
 20
146.9183083834
 30
0.0
 11
354.6644898931
 21
135.488860218
 31
0.0
  0
LINE
  5
323
330
1F
100
AcDbEntity
  8
0
  6
Continuous
 62
     7
370
    25
100
AcDbLine
 10
279.7116308236
 20
150.184471631
 30
0.0
 11
279.7116308236
 21
146.9183083834
 31
0.0
  0
LINE
  5
324
330
1F
100
AcDbEntity
  8
0
  6
Continuous
 62
     7
370
    25
100
AcDbLine
 10
279.7116308236
 20
146.9183083834
 30
0.0
 11
299.5101609606
 21
135.488860218
 31
0.0
  0
LINE
  5
325
330
1F
100
AcDbEntity
  8
0
  6
Continuous
 62
     7
370
    25
100
AcDbLine
 10
325.6735716008
 20
141.6116556566
 30
0.0
 11
323.9062643841
 21
140.5914109169
 31
0.0
  0
LINE
  5
326
330
1F
100
AcDbEntity
  8
0
  6
Continuous
 62
     7
370
    25
100
AcDbLine
 10
270.5192426682
 20
141.6116556566
 30
0.0
 11
268.7519354516
 21
140.5914109169
 31
0.0
  0
LINE
  5
327
330
1F
100
AcDbEntity
  8
0
  6
Continuous
 62
     7
370
    25
100
AcDbLine
 10
344.0583479116
 20
155.4911243578
 30
0.0
 11
344.0583479116
 21
152.2249611103
 31
0.0
  0
LINE
  5
328
330
1F
100
AcDbEntity
  8
0
  6
Continuous
 62
     7
370
    25
100
AcDbLine
 10
344.0583479116
 20
152.2249611103
 30
0.0
 11
363.8568780485
 21
140.7955129449
 31
0.0
  0
LINE
  5
329
330
1F
100
AcDbEntity
  8
0
  6
Continuous
 62
     7
370
    25
100
AcDbLine
 10
288.9040189791
 20
155.4911243578
 30
0.0
 11
288.9040189791
 21
152.2249611103
 31
0.0
  0
LINE
  5
32A
330
1F
100
AcDbEntity
  8
0
  6
Continuous
 62
     7
370
    25
100
AcDbLine
 10
288.9040189791
 20
152.2249611103
 30
0.0
 11
308.702549116
 21
140.7955129449
 31
0.0
  0
LINE
  5
32B
330
1F
100
AcDbEntity
  8
0
  6
Continuous
 62
     7
370
    25
100
AcDbLine
 10
334.8659597562
 20
146.9183083834
 30
0.0
 11
333.0986525395
 21
145.8980636438
 31
0.0
  0
LINE
  5
32C
330
1F
100
AcDbEntity
  8
0
  6
Continuous
 62
     7
370
    25
100
AcDbLine
 10
279.7116308236
 20
146.9183083834
 30
0.0
 11
277.944323607
 21
145.8980636438
 31
0.0
  0
LINE
  5
32D
330
1F
100
AcDbEntity
  8
0
  6
Continuous
 62
     7
370
    25
100
AcDbLine
 10
353.250736067
 20
160.7977770846
 30
0.0
 11
353.250736067
 21
157.5316138371
 31
0.0
  0
LINE
  5
32E
330
1F
100
AcDbEntity
  8
0
  6
Continuous
 62
     7
370
    25
100
AcDbLine
 10
353.250736067
 20
157.5316138371
 30
0.0
 11
373.049266204
 21
146.1021656717
 31
0.0
  0
LINE
  5
32F
330
1F
100
AcDbEntity
  8
0
  6
Continuous
 62
     7
370
    25
100
AcDbLine
 10
242.9420782019
 20
160.7977770846
 30
0.0
 11
242.9420782019
 21
157.5316138371
 31
0.0
  0
LINE
  5
330
330
1F
100
AcDbEntity
  8
0
  6
Continuous
 62
     7
370
    25
100
AcDbLine
 10
242.9420782019
 20
157.5316138371
 30
0.0
 11
262.7406083389
 21
146.1021656717
 31
0.0
  0
LWPOLYLINE
  5
331
330
1F
100
AcDbEntity
  8
0
  6
Continuous
 62
     7
370
    25
100
AcDbPolyline
 90
       18
 70
   128
 43
0.0
 10
392.6098751296
 20
150.5008877936
 10
392.6871000259
 20
150.7187031481
 10
392.6871000259
 20
150.996636728
 10
392.5799679348
 20
151.2676019327
 10
392.371075803
 20
151.5180114355
 10
392.0708983542
 20
151.7353086583
 10
391.6944877391
 20
151.9085974109
 10
391.2607187578
 20
152.0291882717
 10
390.7913423983
 20
152.0910343115
 10
390.309895151
 20
152.0910343115
 10
389.8405187914
 20
152.0291882717
 10
389.4067498101
 20
151.9085974109
 10
389.0303391951
 20
151.7353086583
 10
388.7301617463
 20
151.5180114355
 10
388.5212696145
 20
151.2676019327
 10
388.4141375234
 20
150.996636728
 10
388.4141375234
 20
150.7187031481
 10
388.4913624196
 20
150.5008877936
  0
LWPOLYLINE
  5
332
330
1F
100
AcDbEntity
  8
0
  6
Continuous
 62
     7
370
    25
100
AcDbPolyline
 90
       18
 70
   128
 43
0.0
 10
225.7326747697
 20
150.5008877936
 10
225.8098996659
 20
150.7187031481
 10
225.8098996659
 20
150.996636728
 10
225.7027675748
 20
151.2676019327
 10
225.493875443
 20
151.5180114355
 10
225.1936979942
 20
151.7353086583
 10
224.8172873791
 20
151.9085974109
 10
224.3835183978
 20
152.0291882717
 10
223.9141420382
 20
152.0910343115
 10
223.432694791
 20
152.0910343115
 10
222.9633184314
 20
152.0291882717
 10
222.5295494501
 20
151.9085974109
 10
222.1531388351
 20
151.7353086583
 10
221.8529613863
 20
151.5180114355
 10
221.6440692545
 20
151.2676019327
 10
221.5369371633
 20
150.996636728
 10
221.5369371633
 20
150.7187031481
 10
221.6141620596
 20
150.5008877936
  0
LINE
  5
333
330
1F
100
AcDbEntity
  8
0
  6
Continuous
 62
     7
370
    25
100
AcDbLine
 10
402.9249874454
 20
153.5521550922
 30
0.0
 11
404.3392010078
 21
152.7354815803
 31
0.0
  0
ARC
  5
334
330
1F
100
AcDbEntity
  8
0
  6
Continuous
 62
     7
370
    25
100
AcDbCircle
 10
403.7818080201
 20
151.3067673846
 30
0.0
 40
1.533594208274902
100
AcDbArc
 50
291.3125518932
 51
68.6874481068
  0
ARC
  5
335
330
1F
100
AcDbEntity
  8
0
  6
Continuous
 62
     7
370
    25
100
AcDbCircle
 10
210.4422291691
 20
151.3067673846
 30
0.0
 40
1.533594208274892
100
AcDbArc
 50
111.3125518932
 51
248.6874481068
  0
LINE
  5
336
330
1F
100
AcDbEntity
  8
0
  6
Continuous
 62
     7
370
    25
100
AcDbLine
 10
209.8848361815
 20
152.7354815803
 30
0.0
 11
211.2990497438
 21
153.5521550922
 31
0.0
  0
LINE
  5
337
330
1F
100
AcDbEntity
  8
0
  6
Continuous
 62
     7
370
    25
100
AcDbLine
 10
392.0708983542
 20
150.551324481
 30
0.0
 11
392.2741976616
 21
150.4156241888
 31
0.0
  0
ARC
  5
338
330
1F
100
AcDbEntity
  8
0
  6
Continuous
 62
     7
370
    25
100
AcDbCircle
 10
390.5642931751
 20
147.7267012763
 30
0.0
 40
3.201305267272377
100
AcDbArc
 50
61.9253105512
 51
122.8656033627
  0
LINE
  5
339
330
1F
100
AcDbEntity
  8
0
  6
Continuous
 62
     7
370
    25
100
AcDbLine
 10
225.1936979942
 20
150.551324481
 30
0.0
 11
225.3969973016
 21
150.4156241889
 31
0.0
  0
ARC
  5
33A
330
1F
100
AcDbEntity
  8
0
  6
Continuous
 62
     7
370
    25
100
AcDbCircle
 10
223.6870928151
 20
147.7267012763
 30
0.0
 40
3.201305267279082
100
AcDbArc
 50
61.9253105513
 51
122.8656033623
  0
ARC
  5
33B
330
1F
100
AcDbEntity
  8
0
  6
Continuous
 62
     7
370
    25
100
AcDbCircle
 10
403.6147951215
 20
149.8468745665
 30
0.0
 40
1.758083363739421
100
AcDbArc
 50
294.333235592
 51
354.3466234504
  0
ARC
  5
33C
330
1F
100
AcDbEntity
  8
0
  6
Continuous
 62
     7
370
    25
100
AcDbCircle
 10
210.5669267816
 20
149.8165126428
 30
0.0
 40
1.71318094365049
100
AcDbArc
 50
184.7822660226
 51
246.537874935
  0
LINE
  5
33D
330
1F
100
AcDbEntity
  8
0
  6
Continuous
 62
     7
370
    25
100
AcDbLine
 10
344.0583479116
 20
152.2249611103
 30
0.0
 11
342.291040695
 21
151.2047163706
 31
0.0
  0
LINE
  5
33E
330
1F
100
AcDbEntity
  8
0
  6
Continuous
 62
     7
370
    25
100
AcDbLine
 10
288.9040189791
 20
152.2249611103
 30
0.0
 11
287.1367117624
 21
151.2047163706
 31
0.0
  0
LINE
  5
33F
330
1F
100
AcDbEntity
  8
0
  6
Continuous
 62
     7
370
    25
100
AcDbLine
 10
307.2887952899
 20
166.1044298115
 30
0.0
 11
307.2887952899
 21
162.8382665639
 31
0.0
  0
LINE
  5
340
330
1F
100
AcDbEntity
  8
0
  6
Continuous
 62
     7
370
    25
100
AcDbLine
 10
307.2887952899
 20
162.8382665639
 30
0.0
 11
327.0873254268
 21
151.4088183986
 31
0.0
  0
LINE
  5
341
330
1F
100
AcDbEntity
  8
0
  6
Continuous
 62
     7
370
    25
100
AcDbLine
 10
252.1344663574
 20
166.1044298115
 30
0.0
 11
252.1344663574
 21
162.8382665639
 31
0.0
  0
LINE
  5
342
330
1F
100
AcDbEntity
  8
0
  6
Continuous
 62
     7
370
    25
100
AcDbLine
 10
252.1344663574
 20
162.8382665639
 30
0.0
 11
271.9329964943
 21
151.4088183986
 31
0.0
  0
LINE
  5
343
330
1F
100
AcDbEntity
  8
0
  6
Continuous
 62
     7
370
    25
100
AcDbLine
 10
353.250736067
 20
157.5316138371
 30
0.0
 11
351.4834288504
 21
156.5113690974
 31
0.0
  0
LINE
  5
344
330
1F
100
AcDbEntity
  8
0
  6
Continuous
 62
     7
370
    25
100
AcDbLine
 10
242.9420782019
 20
157.5316138371
 30
0.0
 11
241.1747709853
 21
156.5113690974
 31
0.0
  0
LINE
  5
345
330
1F
100
AcDbEntity
  8
0
  6
Continuous
 62
     7
370
    25
100
AcDbLine
 10
316.4811834453
 20
171.4110825383
 30
0.0
 11
316.4811834453
 21
168.1449192908
 31
0.0
  0
LINE
  5
346
330
1F
100
AcDbEntity
  8
0
  6
Continuous
 62
     7
370
    25
100
AcDbLine
 10
316.4811834453
 20
168.1449192908
 30
0.0
 11
336.2797135823
 21
156.7154711254
 31
0.0
  0
LINE
  5
347
330
1F
100
AcDbEntity
  8
0
  6
Continuous
 62
     7
370
    25
100
AcDbLine
 10
261.3268545128
 20
171.4110825383
 30
0.0
 11
261.3268545128
 21
168.1449192908
 31
0.0
  0
LINE
  5
348
330
1F
100
AcDbEntity
  8
0
  6
Continuous
 62
     7
370
    25
100
AcDbLine
 10
261.3268545128
 20
168.1449192908
 30
0.0
 11
281.1253846497
 21
156.7154711254
 31
0.0
  0
LINE
  5
349
330
1F
100
AcDbEntity
  8
0
  6
Continuous
 62
     7
370
    25
100
AcDbLine
 10
307.2887952899
 20
162.8382665639
 30
0.0
 11
305.5214880733
 21
161.8180218243
 31
0.0
  0
LINE
  5
34A
330
1F
100
AcDbEntity
  8
0
  6
Continuous
 62
     7
370
    25
100
AcDbLine
 10
252.1344663574
 20
162.8382665639
 30
0.0
 11
250.3671591407
 21
161.8180218243
 31
0.0
  0
LINE
  5
34B
330
1F
100
AcDbEntity
  8
0
  6
Continuous
 62
     7
370
    25
100
AcDbLine
 10
325.6735716008
 20
176.7177352652
 30
0.0
 11
325.6735716008
 21
173.4515720176
 31
0.0
  0
LINE
  5
34C
330
1F
100
AcDbEntity
  8
0
  6
Continuous
 62
     7
370
    25
100
AcDbLine
 10
325.6735716008
 20
173.4515720176
 30
0.0
 11
345.4721017377
 21
162.0221238523
 31
0.0
  0
LINE
  5
34D
330
1F
100
AcDbEntity
  8
0
  6
Continuous
 62
     7
370
    25
100
AcDbLine
 10
270.5192426682
 20
176.7177352652
 30
0.0
 11
270.5192426682
 21
173.4515720176
 31
0.0
  0
LINE
  5
34E
330
1F
100
AcDbEntity
  8
0
  6
Continuous
 62
     7
370
    25
100
AcDbLine
 10
270.5192426682
 20
173.4515720176
 30
0.0
 11
290.3177728051
 21
162.0221238523
 31
0.0
  0
LINE
  5
34F
330
1F
100
AcDbEntity
  8
0
  6
Continuous
 62
     7
370
    25
100
AcDbLine
 10
316.4811834453
 20
168.1449192908
 30
0.0
 11
314.7138762287
 21
167.1246745511
 31
0.0
  0
LINE
  5
350
330
1F
100
AcDbEntity
  8
0
  6
Continuous
 62
     7
370
    25
100
AcDbLine
 10
261.3268545128
 20
168.1449192908
 30
0.0
 11
259.5595472961
 21
167.1246745511
 31
0.0
  0
LINE
  5
351
330
1F
100
AcDbEntity
  8
0
  6
Continuous
 62
     7
370
    25
100
AcDbLine
 10
334.8659597562
 20
182.024387992
 30
0.0
 11
334.8659597562
 21
178.7582247445
 31
0.0
  0
LINE
  5
352
330
1F
100
AcDbEntity
  8
0
  6
Continuous
 62
     7
370
    25
100
AcDbLine
 10
334.8659597562
 20
178.7582247445
 30
0.0
 11
354.6644898931
 21
167.3287765791
 31
0.0
  0
LINE
  5
353
330
1F
100
AcDbEntity
  8
0
  6
Continuous
 62
     7
370
    25
100
AcDbLine
 10
279.7116308236
 20
182.024387992
 30
0.0
 11
279.7116308236
 21
178.7582247445
 31
0.0
  0
LINE
  5
354
330
1F
100
AcDbEntity
  8
0
  6
Continuous
 62
     7
370
    25
100
AcDbLine
 10
279.7116308236
 20
178.7582247445
 30
0.0
 11
299.5101609606
 21
167.3287765791
 31
0.0
  0
LINE
  5
355
330
1F
100
AcDbEntity
  8
0
  6
Continuous
 62
     7
370
    25
100
AcDbLine
 10
325.6735716008
 20
173.4515720176
 30
0.0
 11
323.9062643841
 21
172.431327278
 31
0.0
  0
LINE
  5
356
330
1F
100
AcDbEntity
  8
0
  6
Continuous
 62
     7
370
    25
100
AcDbLine
 10
270.5192426682
 20
173.4515720176
 30
0.0
 11
268.7519354516
 21
172.431327278
 31
0.0
  0
LINE
  5
357
330
1F
100
AcDbEntity
  8
0
  6
Continuous
 62
     7
370
    25
100
AcDbLine
 10
288.9040189791
 20
187.3310407189
 30
0.0
 11
288.9040189791
 21
184.0648774713
 31
0.0
  0
LINE
  5
358
330
1F
100
AcDbEntity
  8
0
  6
Continuous
 62
     7
370
    25
100
AcDbLine
 10
288.9040189791
 20
184.0648774713
 30
0.0
 11
308.702549116
 21
172.6354293059
 31
0.0
  0
LINE
  5
359
330
1F
100
AcDbEntity
  8
0
  6
Continuous
 62
     7
370
    25
100
AcDbLine
 10
334.8659597562
 20
178.7582247445
 30
0.0
 11
333.0986525395
 21
177.7379800048
 31
0.0
  0
LINE
  5
35A
330
1F
100
AcDbEntity
  8
0
  6
Continuous
 62
     7
370
    25
100
AcDbLine
 10
279.7116308236
 20
178.7582247445
 30
0.0
 11
277.944323607
 21
177.7379800048
 31
0.0
  0
LINE
  5
35B
330
1F
100
AcDbEntity
  8
0
  6
Continuous
 62
     7
370
    25
100
AcDbLine
 10
298.0964071345
 20
192.6376934457
 30
0.0
 11
298.0964071345
 21
189.3715301982
 31
0.0
  0
LINE
  5
35C
330
1F
100
AcDbEntity
  8
0
  6
Continuous
 62
     7
370
    25
100
AcDbLine
 10
298.0964071345
 20
189.3715301982
 30
0.0
 11
317.8949372714
 21
177.9420820328
 31
0.0
  0
LINE
  5
35D
330
1F
100
AcDbEntity
  8
0
  6
Continuous
 62
     7
370
    25
100
AcDbLine
 10
288.9040189791
 20
184.0648774713
 30
0.0
 11
287.1367117624
 21
183.0446327317
 31
0.0
  0
LWPOLYLINE
  5
35E
330
1F
100
AcDbEntity
  8
0
  6
Continuous
 62
     7
370
    25
100
AcDbPolyline
 90
       19
 70
   128
 43
0.0
 10
326.1626747608
 20
192.193416083
 10
326.160202881
 20
192.2346553111
 10
326.081726389
 20
192.5594255569
 10
325.9012123923
 20
192.8703414731
 10
325.6248080785
 20
193.1568151911
 10
325.2619260651
 20
193.4090911921
 10
324.8249238638
 20
193.6185785194
 10
324.3286830604
 20
193.7781433333
 10
323.7901025403
 20
193.8823518454
 10
323.2275230172
 20
193.92765536
 10
322.660102462
 20
193.91251112
 10
322.1071637012
 20
193.8374348445
 10
321.587536401
 20
193.704983166
 10
321.118915846
 20
193.5196665674
 10
320.7172603471
 20
193.2877957834
 10
320.3962478006
 20
193.0172668954
 10
320.1668099037
 20
192.7172924401
 10
320.0367598889
 20
192.3980876879
 10
320.0080545736
 20
192.1934160831
  0
LWPOLYLINE
  5
35F
330
1F
100
AcDbEntity
  8
0
  6
Continuous
 62
     7
370
    25
100
AcDbPolyline
 90
       13
 70
   128
 43
0.0
 10
321.3375751438
 20
191.1436116273
 10
321.7251799425
 20
190.9611597938
 10
322.1684708636
 20
190.8274852137
 10
322.6492995249
 20
190.74806054
 10
323.1479807442
 20
190.7261374283
 10
323.6440984541
 20
190.7626134133
 10
324.117341537
 20
190.8559951638
 10
324.5483353656
 20
191.0024596201
 10
324.919435002
 20
191.19601051
 10
325.2154475833
 20
191.4287238375
 10
325.4242543198
 20
191.6910722915
 10
325.5373066391
 20
191.9723152955
 10
325.5571123154
 20
192.1525890425
  0
ARC
  5
360
330
1F
100
AcDbEntity
  8
0
  6
Continuous
 62
     7
370
    25
100
AcDbCircle
 10
321.8443878094
 20
192.2714728909
 30
0.0
 40
1.236499133846391
100
AcDbArc
 50
185.5172549231
 51
245.8028860345
  0
LINE
  5
361
330
1F
100
AcDbEntity
  8
0
  6
Continuous
 62
     7
370
    25
100
AcDbLine
 10
298.0964071345
 20
189.3715301982
 30
0.0
 11
296.3290999178
 21
188.3512854585
 31
0.0
  0
LWPOLYLINE
  5
362
330
1F
100
AcDbEntity
  8
0
  6
Continuous
 62
     7
370
    25
100
AcDbPolyline
 90
       32
 70
   128
 43
0.0
 10
321.3375751438
 20
191.2252657085
 10
321.7251799425
 20
191.042813875
 10
322.1684708636
 20
190.9091392949
 10
322.6492995249
 20
190.8297146212
 10
323.1479807442
 20
190.8077915095
 10
323.6440984541
 20
190.8442674945
 10
324.117341537
 20
190.937649245
 10
324.5483353656
 20
191.0841137013
 10
324.919435002
 20
191.2776645912
 10
325.2154475833
 20
191.5103779187
 10
325.4242543198
 20
191.7727263727
 10
325.5373066391
 20
192.0539693767
 10
325.549976166
 20
192.3425928091
 10
325.4617442086
 20
192.6267803927
 10
325.2762229935
 20
192.8948974543
 10
325.0010077811
 20
193.13596725
 10
324.6473659145
 20
193.3401203541
 10
324.2297755334
 20
193.4989987144
 10
323.7653328369
 20
193.6060978322
 10
323.2730521637
 20
193.657033057
 10
322.7730875423
 20
193.6497190948
 10
322.2859075831
 20
193.5844553801
 10
321.8314574909
 20
193.4639138169
 10
321.4283425057
 20
193.2930293911
 10
321.0930662026
 20
193.078798131
 10
320.8393548327
 20
192.8299906898
 10
320.6775953693
 20
192.5567932732
 10
320.6144102639
 20
192.2703906155
 10
320.652386322
 20
191.9825080753
 10
320.7899687995
 20
191.7049315976
 10
321.0215250535
 20
191.4490251959
 10
321.3375751438
 20
191.2252657085
  0
LWPOLYLINE
  5
363
330
1F
100
AcDbEntity
  8
0
  6
Continuous
 62
     7
370
    25
100
AcDbPolyline
 90
       19
 70
   128
 43
0.0
 10
321.3623917698
 20
194.9747483428
 10
321.340605164
 20
195.1488516912
 10
321.2185449077
 20
195.4722656976
 10
320.9946997744
 20
195.7770003091
 10
320.6768367098
 20
196.0524818889
 10
320.2759848798
 20
196.2891518174
 10
319.8060529824
 20
196.4787981563
 10
319.2833466457
 20
196.6148405847
 10
318.7260026575
 20
196.6925587224
 10
318.1533596577
 20
196.7092559168
 10
317.5852871292
 20
196.664352811
 10
317.0414959693
 20
196.5594074466
 10
316.5408545639
 20
196.3980612023
 10
316.100734095
 20
196.1859124465
 10
315.7364057981
 20
195.9303222856
 10
315.460511083
 20
195.6401591495
 10
315.2826229042
 20
195.3254910761
 10
315.2089135994
 20
194.9972363722
 10
315.2077715827
 20
194.9747483428
  0
LWPOLYLINE
  5
364
330
1F
100
AcDbEntity
  8
0
  6
Continuous
 62
     7
370
    25
100
AcDbPolyline
 90
       10
 70
   128
 43
0.0
 10
318.9181420392
 20
193.5546057755
 10
318.4091127929
 20
193.5088093578
 10
317.894695517
 20
193.5249211582
 10
317.3972369871
 20
193.6022412648
 10
316.9383472748
 20
193.7374108186
 10
316.5379609856
 20
193.9245579257
 10
316.2134712807
 20
194.1555527378
 10
315.9789743015
 20
194.4203606205
 10
315.8446568198
 20
194.7074780676
 10
315.813334028
 20
194.9339213022
  0
LWPOLYLINE
  5
365
330
1F
100
AcDbEntity
  8
0
  6
Continuous
 62
     7
370
    25
100
AcDbPolyline
 90
        3
 70
   128
 43
0.0
 10
320.7568293245
 20
194.9339213022
 10
320.7548617287
 20
194.876997897
 10
320.7107399957
 20
194.6596530378
  0
LINE
  5
366
330
1F
100
AcDbEntity
  8
0
  6
Continuous
 62
     7
370
    25
100
AcDbLine
 10
319.0383731149
 20
193.2926456226
 30
0.0
 11
318.9181420392
 21
193.5546057755
 31
0.0
  0
LINE
  5
367
330
1F
100
AcDbEntity
  8
0
  6
Continuous
 62
     7
370
    25
100
AcDbLine
 10
318.9181420392
 20
193.5546057755
 30
0.0
 11
318.9181420392
 21
193.6362598567
 31
0.0
  0
LWPOLYLINE
  5
368
330
1F
100
AcDbEntity
  8
0
  6
Continuous
 62
     7
370
    25
100
AcDbPolyline
 90
        3
 70
   128
 43
0.0
 10
315.3230879083
 20
198.5113186686
 10
315.3198807065
 20
198.6041317107
 10
315.241820144
 20
199.1106987
  0
LINE
  5
369
330
1F
100
AcDbEntity
  8
0
  6
Continuous
 62
     7
370
    25
100
AcDbLine
 10
315.241820144
 20
199.1106987
 30
0.0
 11
315.241820144
 21
199.1923527812
 31
0.0
  0
ARC
  5
36A
330
1F
100
AcDbEntity
  8
0
  6
Continuous
 62
     7
370
    25
100
AcDbCircle
 10
314.0171917613
 20
187.710415483
 30
0.0
 40
11.46586987990436
100
AcDbArc
 50
83.8687485125
 51
116.8223919806
  0
ARC
  5
36B
330
1F
100
AcDbEntity
  8
0
  6
Continuous
 62
     7
370
    25
100
AcDbCircle
 10
309.7313914683
 20
200.7556234225
 30
0.0
 40
5.915034618207918
100
AcDbArc
 50
300.7435524891
 51
306.4752193458
  0
ARC
  5
36C
330
1F
100
AcDbEntity
  8
0
  6
Continuous
 62
     7
370
    25
100
AcDbCircle
 10
311.7881312448
 20
198.5903034575
 30
0.0
 40
2.931361250600155
100
AcDbArc
 50
308.2727159105
 51
357.6575303004
  0
LINE
  5
36D
330
1F
100
AcDbEntity
  8
0
  6
Continuous
 62
     7
370
    25
100
AcDbLine
 10
310.3448435171
 20
198.1808948174
 30
0.0
 11
313.6038318026
 21
196.2889755221
 31
0.0
  0
LINE
  5
36E
330
1F
100
AcDbEntity
  8
0
  6
Continuous
 62
     7
370
    25
100
AcDbLine
 10
313.2477320268
 20
195.9992609877
 30
0.0
 11
313.2477320268
 21
196.0809150689
 31
0.0
  0
LINE
  5
36F
330
1F
100
AcDbEntity
  8
0
  6
Continuous
 62
     7
370
    25
100
AcDbLine
 10
310.3448435171
 20
198.2625488986
 30
0.0
 11
313.6038318026
 21
196.3706296033
 31
0.0
  0
ARC
  5
370
330
1F
100
AcDbEntity
  8
0
  6
Continuous
 62
     7
370
    25
100
AcDbCircle
 10
314.0532056247
 20
187.7309809102
 30
0.0
 40
11.1653873115378
100
AcDbArc
 50
86.709112775
 51
109.3981199029
  0
ARC
  5
371
330
1F
100
AcDbEntity
  8
0
  6
Continuous
 62
     7
370
    25
100
AcDbCircle
 10
311.8498354734
 20
198.624095629
 30
0.0
 40
2.855628171164301
100
AcDbArc
 50
307.8955810625
 51
5.1002287855
  0
LINE
  5
372
330
1F
100
AcDbEntity
  8
0
  6
Continuous
 62
     7
370
    25
100
AcDbLine
 10
313.6038318026
 20
196.2889755221
 30
0.0
 11
313.6038318026
 21
196.3706296033
 31
0.0
  0
LINE
  5
373
330
1F
100
AcDbEntity
  8
0
  6
Continuous
 62
     7
370
    25
100
AcDbLine
 10
310.3448435171
 20
198.1808948174
 30
0.0
 11
310.3448435171
 21
198.2625488986
 31
0.0
  0
LINE
  5
374
330
1F
100
AcDbEntity
  8
0
  6
Continuous
 62
     8
370
    18
100
AcDbLine
 10
308.1726787664
 20
97.6281994324
 30
0.0
 11
309.5868923288
 21
95.1787096968
 31
0.0
  0
LINE
  5
375
330
1F
100
AcDbEntity
  8
0
  6
Continuous
 62
     8
370
    18
100
AcDbLine
 10
306.0513584228
 20
97.6281994324
 30
0.0
 11
304.6371448605
 21
95.1787096968
 31
0.0
  0
LINE
  5
376
330
1F
100
AcDbEntity
  8
0
  6
Continuous
 62
     8
370
    18
100
AcDbLine
 10
304.6371448605
 20
93.545628073
 30
0.0
 11
304.6371448605
 21
95.1787096968
 31
0.0
  0
LINE
  5
377
330
1F
100
AcDbEntity
  8
0
  6
Continuous
 62
     8
370
    18
100
AcDbLine
 10
309.5868923288
 20
95.1787096968
 30
0.0
 11
309.5868923288
 21
93.545628073
 31
0.0
  0
LINE
  5
378
330
1F
100
AcDbEntity
  8
0
  6
Continuous
 62
     8
370
    18
100
AcDbLine
 10
402.9249874454
 20
152.3275429245
 30
0.0
 11
404.3392010078
 21
149.8780531889
 31
0.0
  0
LINE
  5
379
330
1F
100
AcDbEntity
  8
0
  6
Continuous
 62
     8
370
    18
100
AcDbLine
 10
209.8848361815
 20
149.8780531889
 30
0.0
 11
211.2990497438
 21
152.3275429245
 31
0.0
  0
LINE
  5
37A
330
1F
100
AcDbEntity
  8
0
  6
Continuous
 62
     8
370
    18
100
AcDbLine
 10
404.3392010078
 20
148.2449715651
 30
0.0
 11
404.3392010078
 21
149.8780531889
 31
0.0
  0
LINE
  5
37B
330
1F
100
AcDbEntity
  8
0
  6
Continuous
 62
     8
370
    18
100
AcDbLine
 10
209.8848361815
 20
149.8780531889
 30
0.0
 11
209.8848361815
 21
148.2449715651
 31
0.0
  0
LINE
  5
37C
330
1F
100
AcDbEntity
  8
0
  6
Continuous
 62
     7
370
    25
100
AcDbLine
 10
187.6705790683
 20
253.3251495017
 30
0.0
 11
189.1705790683
 21
253.3251495017
 31
0.0
  0
LINE
  5
37D
330
1F
100
AcDbEntity
  8
0
  6
Continuous
 62
     7
370
    25
100
AcDbLine
 10
189.1705790683
 20
253.3251495017
 30
0.0
 11
191.1705790683
 21
251.3251495017
 31
0.0
  0
LINE
  5
37E
330
1F
100
AcDbEntity
  8
0
  6
Continuous
 62
     7
370
    25
100
AcDbLine
 10
191.1705790683
 20
251.3251495017
 30
0.0
 11
187.6705790683
 21
251.3251495017
 31
0.0
  0
LINE
  5
37F
330
1F
100
AcDbEntity
  8
0
  6
Continuous
 62
     7
370
    25
100
AcDbLine
 10
191.1705790683
 20
249.3251495017
 30
0.0
 11
187.6705790683
 21
249.3251495017
 31
0.0
  0
LINE
  5
380
330
1F
100
AcDbEntity
  8
0
  6
Continuous
 62
     7
370
    25
100
AcDbLine
 10
191.1705790683
 20
251.3251495017
 30
0.0
 11
191.1705790683
 21
249.3251495017
 31
0.0
  0
LINE
  5
381
330
1F
100
AcDbEntity
  8
0
  6
Continuous
 62
     7
370
    25
100
AcDbLine
 10
53.6705790683
 20
249.3251495017
 30
0.0
 11
50.1705790683
 21
249.3251495017
 31
0.0
  0
LINE
  5
382
330
1F
100
AcDbEntity
  8
0
  6
Continuous
 62
     7
370
    25
100
AcDbLine
 10
50.1705790683
 20
249.3251495017
 30
0.0
 11
50.1705790683
 21
251.3251495017
 31
0.0
  0
LINE
  5
383
330
1F
100
AcDbEntity
  8
0
  6
Continuous
 62
     7
370
    25
100
AcDbLine
 10
53.6705790683
 20
251.3251495017
 30
0.0
 11
50.1705790683
 21
251.3251495017
 31
0.0
  0
LINE
  5
384
330
1F
100
AcDbEntity
  8
0
  6
Continuous
 62
     7
370
    25
100
AcDbLine
 10
53.6705790683
 20
253.3251495017
 30
0.0
 11
187.6705790683
 21
253.3251495017
 31
0.0
  0
LINE
  5
385
330
1F
100
AcDbEntity
  8
0
  6
Continuous
 62
     7
370
    25
100
AcDbLine
 10
187.6705790683
 20
251.3251495017
 30
0.0
 11
53.6705790683
 21
251.3251495017
 31
0.0
  0
LINE
  5
386
330
1F
100
AcDbEntity
  8
0
  6
Continuous
 62
     7
370
    25
100
AcDbLine
 10
50.1705790683
 20
251.3251495017
 30
0.0
 11
52.1705790683
 21
253.3251495017
 31
0.0
  0
LINE
  5
387
330
1F
100
AcDbEntity
  8
0
  6
Continuous
 62
     7
370
    25
100
AcDbLine
 10
52.1705790683
 20
253.3251495017
 30
0.0
 11
53.6705790683
 21
253.3251495017
 31
0.0
  0
LINE
  5
388
330
1F
100
AcDbEntity
  8
0
  6
Continuous
 62
     7
370
    25
100
AcDbLine
 10
53.6705790683
 20
249.3251495017
 30
0.0
 11
187.6705790683
 21
249.3251495017
 31
0.0
  0
LINE
  5
389
330
1F
100
AcDbEntity
  8
0
  6
Continuous
 62
     8
370
    18
100
AcDbLine
 10
187.6705790683
 20
253.3251495017
 30
0.0
 11
187.6705790683
 21
251.3251495017
 31
0.0
  0
LINE
  5
38A
330
1F
100
AcDbEntity
  8
0
  6
Continuous
 62
     8
370
    18
100
AcDbLine
 10
187.6705790683
 20
249.3251495017
 30
0.0
 11
187.6705790683
 21
251.3251495017
 31
0.0
  0
LINE
  5
38B
330
1F
100
AcDbEntity
  8
0
  6
Continuous
 62
     8
370
    18
100
AcDbLine
 10
53.6705790683
 20
251.3251495017
 30
0.0
 11
53.6705790683
 21
249.3251495017
 31
0.0
  0
LINE
  5
38C
330
1F
100
AcDbEntity
  8
0
  6
Continuous
 62
     8
370
    18
100
AcDbLine
 10
53.6705790683
 20
251.3251495017
 30
0.0
 11
53.6705790683
 21
253.3251495017
 31
0.0
  0
DIMENSION
  5
38D
330
1F
100
AcDbEntity
  8
0
  6
Continuous
 62
     7
370
    18
100
AcDbDimension
  2
_D_4
 10
201.1705790683
 20
253.3251495017
 30
0.0
 11
201.1705790683
 21
251.3251495017
 31
0.0
 70
   160
  1
<>
 71
     2
 42
-1.0
  3
SLDDIMSTYLE2
100
AcDbAlignedDimension
 13
191.1705790683
 23
249.3251495017
 33
0.0
 14
189.1705790683
 24
253.3251495017
 34
0.0
 50
90.0
100
AcDbRotatedDimension
  0
DIMENSION
  5
399
330
1F
100
AcDbEntity
  8
0
  6
Continuous
 62
     7
370
    18
100
AcDbDimension
  2
_D_5
 10
52.1705790683
 20
263.3251495017
 30
0.0
 11
63.154662985
 21
263.3251495017
 31
0.0
 70
   160
  1
<>x45°
 71
     2
 42
-1.0
  3
SLDDIMSTYLE2
100
AcDbAlignedDimension
 13
50.1705790683
 23
251.3251495017
 33
0.0
 14
52.1705790683
 24
253.3251495017
 34
0.0
100
AcDbRotatedDimension
  0
ENDSEC
  0
SECTION
  2
OBJECTS
  0
DICTIONARY
  5
C
330
0
100
AcDbDictionary
281
     1
  3
ACAD_GROUP
350
D
  3
ACAD_LAYOUT
350
1A
  3
ACAD_MLINESTYLE
350
17
  3
ACAD_PLOTSETTINGS
350
19
  3
ACAD_PLOTSTYLENAME
350
E
  3
ACAD_SCALELIST
350
47
  3
DWGPROPS
350
3A6
  0
DICTIONARY
  5
D
102
{ACAD_REACTORS
330
C
102
}
330
C
100
AcDbDictionary
281
     1
  0
DICTIONARY
  5
1A
102
{ACAD_REACTORS
330
C
102
}
330
C
100
AcDbDictionary
281
     1
  3
Layout1
350
1E
  3
Layout2
350
26
  3
Model
350
22
  0
DICTIONARY
  5
17
102
{ACAD_REACTORS
330
C
102
}
330
C
100
AcDbDictionary
281
     1
  3
Standard
350
18
  0
DICTIONARY
  5
19
102
{ACAD_REACTORS
330
C
102
}
330
C
100
AcDbDictionary
281
     1
  0
ACDBDICTIONARYWDFLT
  5
E
102
{ACAD_REACTORS
330
C
102
}
330
C
100
AcDbDictionary
281
     1
  3
Normal
350
F
100
AcDbDictionaryWithDefault
340
F
  0
DICTIONARY
  5
47
102
{ACAD_REACTORS
330
C
102
}
330
C
100
AcDbDictionary
281
     1
  3
A0
350
48
  3
A1
350
49
  3
A2
350
4A
  3
A3
350
4B
  3
A4
350
4C
  3
A5
350
4D
  3
A6
350
4E
  3
A7
350
4F
  3
A8
350
50
  3
A9
350
51
  3
B0
350
52
  3
B1
350
53
  3
B2
350
54
  3
B3
350
55
  3
B4
350
56
  3
B5
350
57
  3
B6
350
58
  3
B7
350
59
  3
B8
350
5A
  3
B9
350
5B
  3
C0
350
5C
  3
C1
350
5D
  3
C2
350
5E
  3
C3
350
5F
  3
C4
350
60
  3
C5
350
61
  3
C6
350
62
  3
C7
350
63
  3
C8
350
64
  3
C9
350
65
  3
D0
350
66
  3
D1
350
67
  3
D2
350
68
  0
XRECORD
  5
3A6
102
{ACAD_REACTORS
330
C
102
}
330
C
100
AcDbXrecord
280
     1
  1
DWGPROPS COOKIE
  2

  3

  4

  6

  7

  8
CH-NTL-RS-WSCAD
  9

300
=
301
=
302
=
303
=
304
=
305
=
306
=
307
=
308
=
309
=
 40
0.0
 41
2460540.416125255
 42
2460540.416128692
  1

 90
        0
  0
LAYOUT
  5
1E
102
{ACAD_REACTORS
330
1A
102
}
330
1A
100
AcDbPlotSettings
  1

  2
none_device
  4

  6

 40
0.0
 41
0.0
 42
0.0
 43
0.0
 44
0.0
 45
0.0
 46
0.0
 47
0.0
 48
0.0
 49
0.0
140
0.0
141
0.0
142
1.0
143
1.0
 70
   688
 72
     1
 73
     0
 74
     5
  7

 75
    16
147
1.0
148
0.0
149
0.0
100
AcDbLayout
  1
Layout1
 70
     1
 71
     1
 10
0.0
 20
0.0
 11
420.0
 21
297.0
 12
0.0
 22
0.0
 32
0.0
 14
1.0000000000E+20
 24
1.0000000000E+20
 34
1.0000000000E+20
 15
-1.0000000000E+20
 25
-1.0000000000E+20
 35
-1.0000000000E+20
146
0.0
 13
0.0
 23
0.0
 33
0.0
 16
1.0
 26
0.0
 36
0.0
 17
0.0
 27
1.0
 37
0.0
 76
     0
330
1B
  0
LAYOUT
  5
26
102
{ACAD_REACTORS
330
1A
102
}
330
1A
100
AcDbPlotSettings
  1

  2
none_device
  4

  6

 40
0.0
 41
0.0
 42
0.0
 43
0.0
 44
0.0
 45
0.0
 46
0.0
 47
0.0
 48
0.0
 49
0.0
140
0.0
141
0.0
142
1.0
143
1.0
 70
   688
 72
     1
 73
     0
 74
     5
  7

 75
    16
147
1.0
148
0.0
149
0.0
100
AcDbLayout
  1
Layout2
 70
     1
 71
     2
 10
0.0
 20
0.0
 11
0.0
 21
0.0
 12
0.0
 22
0.0
 32
0.0
 14
0.0
 24
0.0
 34
0.0
 15
0.0
 25
0.0
 35
0.0
146
0.0
 13
0.0
 23
0.0
 33
0.0
 16
1.0
 26
0.0
 36
0.0
 17
0.0
 27
1.0
 37
0.0
 76
     0
330
23
  0
LAYOUT
  5
22
102
{ACAD_REACTORS
330
1A
102
}
330
1A
100
AcDbPlotSettings
  1

  2
none_device
  4
Letter_(8.50_x_11.00_Inches)
  6

 40
6.35
 41
6.35
 42
6.35000508
 43
6.35000508
 44
215.9
 45
279.4
 46
0.0
 47
0.0
 48
0.0
 49
0.0
140
0.0
141
0.0
142
1.0
143
1.0
 70
  1712
 72
     1
 73
     0
 74
     0
  7

 75
     0
147
1.0
148
0.0
149
0.0
100
AcDbLayout
  1
Model
 70
     1
 71
     0
 10
0.0
 20
0.0
 11
420.0
 21
297.0
 12
0.0
 22
0.0
 32
0.0
 14
0.0
 24
0.0
 34
0.0
 15
420.0
 25
297.0
 35
0.0
146
0.0
 13
0.0
 23
0.0
 33
0.0
 16
1.0
 26
0.0
 36
0.0
 17
0.0
 27
1.0
 37
0.0
 76
     0
330
1F
331
29
  0
MLINESTYLE
  5
18
102
{ACAD_REACTORS
330
17
102
}
330
17
100
AcDbMlineStyle
  2
Standard
 70
     0
  3

 62
   256
 51
90.0
 52
90.0
 71
     2
 49
0.5
 62
   256
  6
BYLAYER
 49
-0.5
 62
   256
  6
BYLAYER
  0
ACDBPLACEHOLDER
  5
F
102
{ACAD_REACTORS
330
E
102
}
330
E
  0
SCALE
  5
48
102
{ACAD_REACTORS
330
47
102
}
330
47
100
AcDbScale
 70
     0
300
1:1
140
1.0
141
1.0
290
     1
  0
SCALE
  5
49
102
{ACAD_REACTORS
330
47
102
}
330
47
100
AcDbScale
 70
     0
300
1:2
140
1.0
141
2.0
290
     0
  0
SCALE
  5
4A
102
{ACAD_REACTORS
330
47
102
}
330
47
100
AcDbScale
 70
     0
300
1:4
140
1.0
141
4.0
290
     0
  0
SCALE
  5
4B
102
{ACAD_REACTORS
330
47
102
}
330
47
100
AcDbScale
 70
     0
300
1:5
140
1.0
141
5.0
290
     0
  0
SCALE
  5
4C
102
{ACAD_REACTORS
330
47
102
}
330
47
100
AcDbScale
 70
     0
300
1:8
140
1.0
141
8.0
290
     0
  0
SCALE
  5
4D
102
{ACAD_REACTORS
330
47
102
}
330
47
100
AcDbScale
 70
     0
300
1:10
140
1.0
141
10.0
290
     0
  0
SCALE
  5
4E
102
{ACAD_REACTORS
330
47
102
}
330
47
100
AcDbScale
 70
     0
300
1:16
140
1.0
141
16.0
290
     0
  0
SCALE
  5
4F
102
{ACAD_REACTORS
330
47
102
}
330
47
100
AcDbScale
 70
     0
300
1:20
140
1.0
141
20.0
290
     0
  0
SCALE
  5
50
102
{ACAD_REACTORS
330
47
102
}
330
47
100
AcDbScale
 70
     0
300
1:30
140
1.0
141
30.0
290
     0
  0
SCALE
  5
51
102
{ACAD_REACTORS
330
47
102
}
330
47
100
AcDbScale
 70
     0
300
1:40
140
1.0
141
40.0
290
     0
  0
SCALE
  5
52
102
{ACAD_REACTORS
330
47
102
}
330
47
100
AcDbScale
 70
     0
300
1:50
140
1.0
141
50.0
290
     0
  0
SCALE
  5
53
102
{ACAD_REACTORS
330
47
102
}
330
47
100
AcDbScale
 70
     0
300
1:100
140
1.0
141
100.0
290
     0
  0
SCALE
  5
54
102
{ACAD_REACTORS
330
47
102
}
330
47
100
AcDbScale
 70
     0
300
2:1
140
2.0
141
1.0
290
     0
  0
SCALE
  5
55
102
{ACAD_REACTORS
330
47
102
}
330
47
100
AcDbScale
 70
     0
300
4:1
140
4.0
141
1.0
290
     0
  0
SCALE
  5
56
102
{ACAD_REACTORS
330
47
102
}
330
47
100
AcDbScale
 70
     0
300
8:1
140
8.0
141
1.0
290
     0
  0
SCALE
  5
57
102
{ACAD_REACTORS
330
47
102
}
330
47
100
AcDbScale
 70
     0
300
10:1
140
10.0
141
1.0
290
     0
  0
SCALE
  5
58
102
{ACAD_REACTORS
330
47
102
}
330
47
100
AcDbScale
 70
     0
300
100:1
140
100.0
141
1.0
290
     0
  0
SCALE
  5
59
102
{ACAD_REACTORS
330
47
102
}
330
47
100
AcDbScale
 70
     0
300
1/128" = 1'-0"
140
0.0078125
141
12.0
290
     0
  0
SCALE
  5
5A
102
{ACAD_REACTORS
330
47
102
}
330
47
100
AcDbScale
 70
     0
300
1/64" = 1'-0"
140
0.015625
141
12.0
290
     0
  0
SCALE
  5
5B
102
{ACAD_REACTORS
330
47
102
}
330
47
100
AcDbScale
 70
     0
300
1/32" = 1'-0"
140
0.03125
141
12.0
290
     0
  0
SCALE
  5
5C
102
{ACAD_REACTORS
330
47
102
}
330
47
100
AcDbScale
 70
     0
300
1/16" = 1'-0"
140
0.0625
141
12.0
290
     0
  0
SCALE
  5
5D
102
{ACAD_REACTORS
330
47
102
}
330
47
100
AcDbScale
 70
     0
300
3/32" = 1'-0"
140
0.09375
141
12.0
290
     0
  0
SCALE
  5
5E
102
{ACAD_REACTORS
330
47
102
}
330
47
100
AcDbScale
 70
     0
300
1/8" = 1'-0"
140
0.125
141
12.0
290
     0
  0
SCALE
  5
5F
102
{ACAD_REACTORS
330
47
102
}
330
47
100
AcDbScale
 70
     0
300
3/16" = 1'-0"
140
0.1875
141
12.0
290
     0
  0
SCALE
  5
60
102
{ACAD_REACTORS
330
47
102
}
330
47
100
AcDbScale
 70
     0
300
1/4" = 1'-0"
140
0.25
141
12.0
290
     0
  0
SCALE
  5
61
102
{ACAD_REACTORS
330
47
102
}
330
47
100
AcDbScale
 70
     0
300
3/8" = 1'-0"
140
0.375
141
12.0
290
     0
  0
SCALE
  5
62
102
{ACAD_REACTORS
330
47
102
}
330
47
100
AcDbScale
 70
     0
300
1/2" = 1'-0"
140
0.5
141
12.0
290
     0
  0
SCALE
  5
63
102
{ACAD_REACTORS
330
47
102
}
330
47
100
AcDbScale
 70
     0
300
3/4" = 1'-0"
140
0.75
141
12.0
290
     0
  0
SCALE
  5
64
102
{ACAD_REACTORS
330
47
102
}
330
47
100
AcDbScale
 70
     0
300
1" = 1'-0"
140
1.0
141
12.0
290
     0
  0
SCALE
  5
65
102
{ACAD_REACTORS
330
47
102
}
330
47
100
AcDbScale
 70
     0
300
1-1/2" = 1'-0"
140
1.5
141
12.0
290
     0
  0
SCALE
  5
66
102
{ACAD_REACTORS
330
47
102
}
330
47
100
AcDbScale
 70
     0
300
3" = 1'-0"
140
3.0
141
12.0
290
     0
  0
SCALE
  5
67
102
{ACAD_REACTORS
330
47
102
}
330
47
100
AcDbScale
 70
     0
300
6" = 1'-0"
140
6.0
141
12.0
290
     0
  0
SCALE
  5
68
102
{ACAD_REACTORS
330
47
102
}
330
47
100
AcDbScale
 70
     0
300
1'-0" = 1'-0"
140
12.0
141
12.0
290
     0
  0
ENDSEC
  0
EOF
