  0
SECTION
  2
HEADER
  9
$ACADVER
  1
AC1015
  9
$ACADMAINTVER
 70
     6
  9
$DWGCODEPAGE
  3
ANSI_1252
  9
$INSBASE
 10
0.0
 20
0.0
 30
0.0
  9
$EXTMIN
 10
0.0
 20
0.0
 30
0.0
  9
$EXTMAX
 10
420.0
 20
297.0
 30
0.0
  9
$LIMMIN
 10
0.0
 20
0.0
  9
$LIMMAX
 10
420.0
 20
297.0
  9
$ORTHOMODE
 70
     0
  9
$REGENMODE
 70
     1
  9
$FILLMODE
 70
     1
  9
$QTEXTMODE
 70
     0
  9
$MIRRTEXT
 70
     1
  9
$LTSCALE
 40
1.0
  9
$ATTMODE
 70
     1
  9
$TEXTSIZE
 40
3.5
  9
$TRACEWID
 40
1.0
  9
$TEXTSTYLE
  7
Standard
  9
$CLAYER
  8
0
  9
$CELTYPE
  6
ByLayer
  9
$CECOLOR
 62
   256
  9
$CELTSCALE
 40
1.0
  9
$DISPSILH
 70
     0
  9
$DIMSCALE
 40
1.0
  9
$DIMASZ
 40
3.5
  9
$DIMEXO
 40
0.1
  9
$DIMDLI
 40
3.75
  9
$DIMRND
 40
0.0
  9
$DIMDLE
 40
0.0
  9
$DIMEXE
 40
1.0
  9
$DIMTP
 40
0.0
  9
$DIMTM
 40
0.0
  9
$DIMTXT
 40
3.5
  9
$DIMCEN
 40
2.5
  9
$DIMTSZ
 40
0.0
  9
$DIMTOL
 70
     0
  9
$DIMLIM
 70
     0
  9
$DIMTIH
 70
     1
  9
$DIMTOH
 70
     1
  9
$DIMSE1
 70
     0
  9
$DIMSE2
 70
     0
  9
$DIMTAD
 70
     1
  9
$DIMZIN
 70
     0
  9
$DIMBLK
  1

  9
$DIMASO
 70
     1
  9
$DIMSHO
 70
     1
  9
$DIMPOST
  1

  9
$DIMAPOST
  1

  9
$DIMALT
 70
     0
  9
$DIMALTD
 70
     3
  9
$DIMALTF
 40
0.0393700787
  9
$DIMLFAC
 40
1.0
  9
$DIMTOFL
 70
     1
  9
$DIMTVP
 40
0.0
  9
$DIMTIX
 70
     0
  9
$DIMSOXD
 70
     0
  9
$DIMSAH
 70
     0
  9
$DIMBLK1
  1

  9
$DIMBLK2
  1

  9
$DIMSTYLE
  2
ISO-25
  9
$DIMCLRD
 70
     0
  9
$DIMCLRE
 70
     0
  9
$DIMCLRT
 70
     0
  9
$DIMTFAC
 40
1.0
  9
$DIMGAP
 40
2.0
  9
$DIMJUST
 70
     0
  9
$DIMSD1
 70
     0
  9
$DIMSD2
 70
     0
  9
$DIMTOLJ
 70
     0
  9
$DIMTZIN
 70
     0
  9
$DIMALTZ
 70
     0
  9
$DIMALTTZ
 70
     0
  9
$DIMUPT
 70
     0
  9
$DIMDEC
 70
     2
  9
$DIMTDEC
 70
     3
  9
$DIMALTU
 70
     2
  9
$DIMALTTD
 70
     3
  9
$DIMTXSTY
  7
Standard
  9
$DIMAUNIT
 70
     0
  9
$DIMADEC
 70
     2
  9
$DIMALTRND
 40
0.0
  9
$DIMAZIN
 70
     0
  9
$DIMDSEP
 70
    44
  9
$DIMATFIT
 70
     3
  9
$DIMFRAC
 70
     0
  9
$DIMLDRBLK
  1

  9
$DIMLUNIT
 70
     2
  9
$DIMLWD
 70
    -2
  9
$DIMLWE
 70
    -2
  9
$DIMTMOVE
 70
     0
  9
$LUNITS
 70
     2
  9
$LUPREC
 70
     2
  9
$SKETCHINC
 40
1.0
  9
$FILLETRAD
 40
10.0
  9
$AUNITS
 70
     0
  9
$AUPREC
 70
     2
  9
$MENU
  1
.
  9
$ELEVATION
 40
0.0
  9
$PELEVATION
 40
0.0
  9
$THICKNESS
 40
0.0
  9
$LIMCHECK
 70
     0
  9
$CHAMFERA
 40
0.0
  9
$CHAMFERB
 40
0.0
  9
$CHAMFERC
 40
0.0
  9
$CHAMFERD
 40
0.0
  9
$SKPOLY
 70
     0
  9
$TDCREATE
 40
2460061.435159711
  9
$TDUCREATE
 40
2460061.351826377
  9
$TDUPDATE
 40
2460061.435175104
  9
$TDUUPDATE
 40
2460061.351841771
  9
$TDINDWG
 40
0.0000000116
  9
$TDUSRTIMER
 40
0.0000000116
  9
$USRTIMER
 70
     1
  9
$ANGBASE
 50
0.0
  9
$ANGDIR
 70
     0
  9
$PDMODE
 70
     0
  9
$PDSIZE
 40
-1.0
  9
$PLINEWID
 40
0.0
  9
$SPLFRAME
 70
     0
  9
$SPLINETYPE
 70
     6
  9
$SPLINESEGS
 70
     8
  9
$HANDSEED
  5
361
  9
$SURFTAB1
 70
     6
  9
$SURFTAB2
 70
     6
  9
$SURFTYPE
 70
     6
  9
$SURFU
 70
     6
  9
$SURFV
 70
     6
  9
$UCSBASE
  2

  9
$UCSNAME
  2

  9
$UCSORG
 10
0.0
 20
0.0
 30
0.0
  9
$UCSXDIR
 10
1.0
 20
0.0
 30
0.0
  9
$UCSYDIR
 10
0.0
 20
1.0
 30
0.0
  9
$UCSORTHOREF
  2

  9
$UCSORTHOVIEW
 70
     0
  9
$UCSORGTOP
 10
0.0
 20
0.0
 30
0.0
  9
$UCSORGBOTTOM
 10
0.0
 20
0.0
 30
0.0
  9
$UCSORGLEFT
 10
0.0
 20
0.0
 30
0.0
  9
$UCSORGRIGHT
 10
0.0
 20
0.0
 30
0.0
  9
$UCSORGFRONT
 10
0.0
 20
0.0
 30
0.0
  9
$UCSORGBACK
 10
0.0
 20
0.0
 30
0.0
  9
$PUCSBASE
  2

  9
$PUCSNAME
  2

  9
$PUCSORG
 10
0.0
 20
0.0
 30
0.0
  9
$PUCSXDIR
 10
1.0
 20
0.0
 30
0.0
  9
$PUCSYDIR
 10
0.0
 20
1.0
 30
0.0
  9
$PUCSORTHOREF
  2

  9
$PUCSORTHOVIEW
 70
     0
  9
$PUCSORGTOP
 10
0.0
 20
0.0
 30
0.0
  9
$PUCSORGBOTTOM
 10
0.0
 20
0.0
 30
0.0
  9
$PUCSORGLEFT
 10
0.0
 20
0.0
 30
0.0
  9
$PUCSORGRIGHT
 10
0.0
 20
0.0
 30
0.0
  9
$PUCSORGFRONT
 10
0.0
 20
0.0
 30
0.0
  9
$PUCSORGBACK
 10
0.0
 20
0.0
 30
0.0
  9
$USERI1
 70
     0
  9
$USERI2
 70
     0
  9
$USERI3
 70
     0
  9
$USERI4
 70
     0
  9
$USERI5
 70
     0
  9
$USERR1
 40
0.0
  9
$USERR2
 40
0.0
  9
$USERR3
 40
0.0
  9
$USERR4
 40
0.0
  9
$USERR5
 40
0.0
  9
$WORLDVIEW
 70
     1
  9
$SHADEDGE
 70
     3
  9
$SHADEDIF
 70
    70
  9
$TILEMODE
 70
     1
  9
$MAXACTVP
 70
    64
  9
$PINSBASE
 10
0.0
 20
0.0
 30
0.0
  9
$PLIMCHECK
 70
     0
  9
$PEXTMIN
 10
1.0000000000E+20
 20
1.0000000000E+20
 30
1.0000000000E+20
  9
$PEXTMAX
 10
-1.0000000000E+20
 20
-1.0000000000E+20
 30
-1.0000000000E+20
  9
$PLIMMIN
 10
0.0
 20
0.0
  9
$PLIMMAX
 10
420.0
 20
297.0
  9
$UNITMODE
 70
     0
  9
$VISRETAIN
 70
     1
  9
$PLINEGEN
 70
     0
  9
$PSLTSCALE
 70
     1
  9
$TREEDEPTH
 70
  3020
  9
$CMLSTYLE
  2
Standard
  9
$CMLJUST
 70
     0
  9
$CMLSCALE
 40
20.0
  9
$PROXYGRAPHICS
 70
     1
  9
$MEASUREMENT
 70
     1
  9
$CELWEIGHT
370
    -1
  9
$ENDCAPS
280
     0
  9
$JOINSTYLE
280
     0
  9
$LWDISPLAY
290
     1
  9
$INSUNITS
 70
     4
  9
$HYPERLINKBASE
  1

  9
$STYLESHEET
  1

  9
$XEDIT
290
     1
  9
$CEPSNTYPE
380
     0
  9
$PSTYLEMODE
290
     1
  9
$FINGERPRINTGUID
  2
{8ac08734-7569-4b76-8b53-0bb13fb745b0}
  9
$VERSIONGUID
  2
{FAEB1C32-E019-11D5-929B-00C0DF256EC4}
  9
$EXTNAMES
290
     1
  9
$PSVPSCALE
 40
0.0
  9
$OLESTARTUP
290
     0
  0
ENDSEC
  0
SECTION
  2
CLASSES
  0
CLASS
  1
ACDBDICTIONARYWDFLT
  2
AcDbDictionaryWithDefault
  3
ObjectDBX Classes
 90
        0
280
     0
281
     0
  0
CLASS
  1
VISUALSTYLE
  2
AcDbVisualStyle
  3
ObjectDBX Classes
 90
     4095
280
     0
281
     0
  0
CLASS
  1
MATERIAL
  2
AcDbMaterial
  3
ObjectDBX Classes
 90
     1153
280
     0
281
     0
  0
CLASS
  1
SCALE
  2
AcDbScale
  3
ObjectDBX Classes
 90
     1153
280
     0
281
     0
  0
CLASS
  1
TABLESTYLE
  2
AcDbTableStyle
  3
ObjectDBX Classes
 90
     4095
280
     0
281
     0
  0
CLASS
  1
MLEADERSTYLE
  2
AcDbMLeaderStyle
  3
ACDB_MLEADERSTYLE_CLASS
 90
     4095
280
     0
281
     0
  0
CLASS
  1
SUN
  2
AcDbSun
  3
SCENEOE
 90
     1153
280
     0
281
     0
  0
CLASS
  1
ACDBPLACEHOLDER
  2
AcDbPlaceHolder
  3
ObjectDBX Classes
 90
        0
280
     0
281
     0
  0
CLASS
  1
LAYOUT
  2
AcDbLayout
  3
ObjectDBX Classes
 90
        0
280
     0
281
     0
  0
ENDSEC
  0
SECTION
  2
TABLES
  0
TABLE
  2
VPORT
  5
8
330
0
100
AcDbSymbolTable
 70
     1
  0
VPORT
  5
29
330
8
100
AcDbSymbolTableRecord
100
AcDbViewportTableRecord
  2
*Active
 70
     0
 10
0.0
 20
0.0
 11
1.0
 21
1.0
 12
210.0
 22
148.5
 13
0.0
 23
0.0
 14
10.0
 24
10.0
 15
10.0
 25
10.0
 16
0.0
 26
0.0
 36
1.0
 17
0.0
 27
0.0
 37
0.0
 40
297.0
 41
1.4141414141
 42
50.0
 43
0.0
 44
0.0
 50
0.0
 51
0.0
 71
     0
 72
  2000
 73
     1
 74
     3
 75
     0
 76
     0
 77
     0
 78
     0
281
     0
 65
     1
110
0.0
120
0.0
130
0.0
111
1.0
121
0.0
131
0.0
112
0.0
122
1.0
132
0.0
 79
     0
146
0.0
  0
ENDTAB
  0
TABLE
  2
LTYPE
  5
5
330
0
100
AcDbSymbolTable
 70
     6
  0
LTYPE
  5
14
330
5
100
AcDbSymbolTableRecord
100
AcDbLinetypeTableRecord
  2
ByBlock
 70
     0
  3

 72
    65
 73
     0
 40
0.0
  0
LTYPE
  5
15
330
5
100
AcDbSymbolTableRecord
100
AcDbLinetypeTableRecord
  2
ByLayer
 70
     0
  3

 72
    65
 73
     0
 40
0.0
  0
LTYPE
  5
16
330
5
100
AcDbSymbolTableRecord
100
AcDbLinetypeTableRecord
  2
Continuous
 70
     0
  3
Solid line
 72
    65
 73
     0
 40
0.0
  0
LTYPE
  5
6E
330
5
100
AcDbSymbolTableRecord
100
AcDbLinetypeTableRecord
  2
HIDDEN
 70
     0
  3
Hidden __ __ __ __ __ __ __ __ __ __ __ __ __ __
 72
    65
 73
     2
 40
1.905
 49
1.27
 74
     0
 49
-0.635
 74
     0
  0
LTYPE
  5
6F
330
5
100
AcDbSymbolTableRecord
100
AcDbLinetypeTableRecord
  2
PHANTOM
 70
     0
  3
Phantom ______  __  __  ______  __  __  ______
 72
    65
 73
     6
 40
12.7
 49
6.35
 74
     0
 49
-1.27
 74
     0
 49
1.27
 74
     0
 49
-1.27
 74
     0
 49
1.27
 74
     0
 49
-1.27
 74
     0
  0
LTYPE
  5
70
330
5
100
AcDbSymbolTableRecord
100
AcDbLinetypeTableRecord
  2
CENTER
 70
     0
  3
Center ____ _ ____ _ ____ _ ____ _ ____ _ ____
 72
    65
 73
     4
 40
10.16
 49
6.35
 74
     0
 49
-1.27
 74
     0
 49
1.27
 74
     0
 49
-1.27
 74
     0
  0
LTYPE
  5
71
330
5
100
AcDbSymbolTableRecord
100
AcDbLinetypeTableRecord
  2
CENTERX2
 70
     0
  3
Center (2x) ________  __  ________  __  _____
 72
    65
 73
     4
 40
20.32
 49
12.7
 74
     0
 49
-2.54
 74
     0
 49
2.54
 74
     0
 49
-2.54
 74
     0
  0
LTYPE
  5
72
330
5
100
AcDbSymbolTableRecord
100
AcDbLinetypeTableRecord
  2
DOT2
 70
     0
  3
Dot (.5x) ........................................
 72
    65
 73
     2
 40
0.635
 49
0.0
 74
     0
 49
-0.635
 74
     0
  0
ENDTAB
  0
TABLE
  2
LAYER
  5
2
330
0
100
AcDbSymbolTable
 70
     9
  0
LAYER
  5
10
330
2
100
AcDbSymbolTableRecord
100
AcDbLayerTableRecord
  2
0
 70
     0
 62
     7
  6
Continuous
370
    -3
390
F
  0
LAYER
  5
73
330
2
100
AcDbSymbolTableRecord
100
AcDbLayerTableRecord
  2
VORLAGE_TEXT
 70
     0
 62
     7
  6
Continuous
370
    -3
390
F
  0
LAYER
  5
74
330
2
100
AcDbSymbolTableRecord
100
AcDbLayerTableRecord
  2
VORLAGE_BEMASSUNG
 70
     0
 62
    -5
  6
Continuous
290
     0
370
    -3
390
F
  0
LAYER
  5
75
330
2
100
AcDbSymbolTableRecord
100
AcDbLayerTableRecord
  2
TEXT
 70
     0
 62
     7
  6
Continuous
370
    -3
390
F
  0
LAYER
  5
76
330
2
100
AcDbSymbolTableRecord
100
AcDbLayerTableRecord
  2
LINIEN-DICK
 70
     0
 62
     7
  6
Continuous
370
    35
390
F
  0
LAYER
  5
77
330
2
100
AcDbSymbolTableRecord
100
AcDbLayerTableRecord
  2
LINIEN-NORMAL
 70
     0
 62
     7
  6
Continuous
370
    25
390
F
  0
LAYER
  5
78
330
2
100
AcDbSymbolTableRecord
100
AcDbLayerTableRecord
  2
LINIEN-DÜNN
 70
     0
 62
     7
  6
Continuous
370
    -3
390
F
  0
LAYER
  5
79
330
2
100
AcDbSymbolTableRecord
100
AcDbLayerTableRecord
  2
TEXT-DEUTSCH
 70
     0
 62
     7
  6
Continuous
370
    -3
390
F
  0
LAYER
  5
7A
330
2
100
AcDbSymbolTableRecord
100
AcDbLayerTableRecord
  2
TEXT-ENGLISCH
 70
     0
 62
    -7
  6
Continuous
290
     0
370
    -3
390
F
  0
ENDTAB
  0
TABLE
  2
STYLE
  5
3
330
0
100
AcDbSymbolTable
 70
     3
  0
STYLE
  5
11
330
3
100
AcDbSymbolTableRecord
100
AcDbTextStyleTableRecord
  2
Standard
 70
     0
 40
0.0
 41
1.0
 50
0.0
 71
     0
 42
3.5
  3
txt
  4

  0
STYLE
  5
F1
330
3
100
AcDbSymbolTableRecord
100
AcDbTextStyleTableRecord
  2
SLDTEXTSTYLE0
 70
     0
 40
0.0
 41
0.605
 50
0.0
 71
     0
 42
3.5
  3
TXT
  4

  0
STYLE
  5
19D
330
3
100
AcDbSymbolTableRecord
100
AcDbTextStyleTableRecord
  2
SLDTEXTSTYLE1
 70
     0
 40
0.0
 41
0.563
 50
0.0
 71
     0
 42
3.5
  3
TXT
  4

  0
ENDTAB
  0
TABLE
  2
VIEW
  5
6
330
0
100
AcDbSymbolTable
 70
     0
  0
ENDTAB
  0
TABLE
  2
UCS
  5
7
330
0
100
AcDbSymbolTable
 70
     0
  0
ENDTAB
  0
TABLE
  2
APPID
  5
9
330
0
100
AcDbSymbolTable
 70
     1
  0
APPID
  5
12
330
9
100
AcDbSymbolTableRecord
100
AcDbRegAppTableRecord
  2
ACAD
 70
     0
  0
ENDTAB
  0
TABLE
  2
DIMSTYLE
  5
A
330
0
100
AcDbSymbolTable
 70
     3
100
AcDbDimStyleTable
  0
DIMSTYLE
105
27
330
A
100
AcDbSymbolTableRecord
100
AcDbDimStyleTableRecord
  2
ISO-25
 70
     0
 41
2.5
 42
0.625
 43
3.75
 44
1.25
 73
     0
 74
     0
 77
     1
 78
     8
140
2.5
141
2.5
143
0.0393700787
147
0.625
171
     3
172
     1
178
     0
271
     2
272
     2
274
     3
278
    44
283
     0
284
     8
340
11
  0
DIMSTYLE
105
2BB
102
{ACAD_REACTORS
330
2BA
330
2C6
330
2DB
102
}
330
A
100
AcDbSymbolTableRecord
100
AcDbDimStyleTableRecord
  2
SLDDIMSTYLE0
 70
     0
 41
3.5
 44
0.0
 45
0.000000001
 73
     0
 74
     0
 77
     1
 78
    12
 79
     3
140
3.5
147
0.875
173
     1
178
     0
271
     2
272
     3
276
     2
284
    12
340
F1
  0
DIMSTYLE
105
2D1
102
{ACAD_REACTORS
330
2D0
102
}
330
A
100
AcDbSymbolTableRecord
100
AcDbDimStyleTableRecord
  2
SLDDIMSTYLE1
 70
     0
 41
3.5
 44
0.0
 45
0.000000001
 73
     0
 74
     0
 77
     1
 78
    12
 79
     3
140
3.5
147
0.875
173
     1
178
     0
271
     1
272
     3
276
     2
284
    12
340
F1
  0
ENDTAB
  0
TABLE
  2
BLOCK_RECORD
  5
1
330
0
100
AcDbSymbolTable
 70
    10
  0
BLOCK_RECORD
  5
1F
330
1
100
AcDbSymbolTableRecord
100
AcDbBlockTableRecord
  2
*Model_Space
340
22
  0
BLOCK_RECORD
  5
1B
330
1
100
AcDbSymbolTableRecord
100
AcDbBlockTableRecord
  2
*Paper_Space
340
1E
  0
BLOCK_RECORD
  5
23
330
1
100
AcDbSymbolTableRecord
100
AcDbBlockTableRecord
  2
*Paper_Space0
340
26
  0
BLOCK_RECORD
  5
7B
330
1
100
AcDbSymbolTableRecord
100
AcDbBlockTableRecord
  2
ACO-Logo
340
0
102
{BLKREFS
331
151
102
}
  0
BLOCK_RECORD
  5
EE
330
1
100
AcDbSymbolTableRecord
100
AcDbBlockTableRecord
  2
SW_NOTE_0
340
0
102
{BLKREFS
331
F3
102
}
  0
BLOCK_RECORD
  5
F4
330
1
100
AcDbSymbolTableRecord
100
AcDbBlockTableRecord
  2
SW_NOTE_0_1
340
0
102
{BLKREFS
331
F8
102
}
  0
BLOCK_RECORD
  5
F9
330
1
100
AcDbSymbolTableRecord
100
AcDbBlockTableRecord
  2
SW_NOTE_0_2
340
0
102
{BLKREFS
331
100
102
}
  0
BLOCK_RECORD
  5
178
330
1
100
AcDbSymbolTableRecord
100
AcDbBlockTableRecord
  2
SW_NOTE_0_3
340
0
102
{BLKREFS
331
180
102
}
  0
BLOCK_RECORD
  5
2BC
330
1
100
AcDbSymbolTableRecord
100
AcDbBlockTableRecord
  2
_D
340
0
  0
BLOCK_RECORD
  5
2C7
330
1
100
AcDbSymbolTableRecord
100
AcDbBlockTableRecord
  2
_D_1
340
0
  0
BLOCK_RECORD
  5
2D2
330
1
100
AcDbSymbolTableRecord
100
AcDbBlockTableRecord
  2
_D_2
340
0
  0
BLOCK_RECORD
  5
2DC
330
1
100
AcDbSymbolTableRecord
100
AcDbBlockTableRecord
  2
_D_3
340
0
  0
ENDTAB
  0
ENDSEC
  0
SECTION
  2
BLOCKS
  0
BLOCK
  5
20
330
1F
100
AcDbEntity
  8
0
100
AcDbBlockBegin
  2
*Model_Space
 70
     0
 10
0.0
 20
0.0
 30
0.0
  3
*Model_Space
  1

  0
ENDBLK
  5
21
330
1F
100
AcDbEntity
  8
0
100
AcDbBlockEnd
  0
BLOCK
  5
1C
330
1B
100
AcDbEntity
 67
     1
  8
0
100
AcDbBlockBegin
  2
*Paper_Space
 70
     0
 10
0.0
 20
0.0
 30
0.0
  3
*Paper_Space
  1

  0
ENDBLK
  5
1D
330
1B
100
AcDbEntity
 67
     1
  8
0
100
AcDbBlockEnd
  0
BLOCK
  5
24
330
23
100
AcDbEntity
  8
0
100
AcDbBlockBegin
  2
*Paper_Space0
 70
     0
 10
0.0
 20
0.0
 30
0.0
  3
*Paper_Space0
  1

  0
ENDBLK
  5
25
330
23
100
AcDbEntity
  8
0
100
AcDbBlockEnd
  0
BLOCK
  5
7C
330
7B
100
AcDbEntity
  8
0
100
AcDbBlockBegin
  2
ACO-Logo
 70
     0
 10
0.0
 20
0.0
 30
0.0
  3
ACO-Logo
  1

  0
ARC
  5
7E
330
7B
100
AcDbEntity
  8
0
  6
Continuous
 62
   179
370
    18
100
AcDbCircle
 10
80.3853261169
 20
4.9940995715
 30
0.0
 40
0.3000000000000441
100
AcDbArc
 50
181.9349323096
 51
274.6062978506
  0
ARC
  5
7F
330
7B
100
AcDbEntity
  8
0
  6
Continuous
 62
   179
370
    18
100
AcDbCircle
 10
81.2359083165
 20
2.1946665956
 30
0.0
 40
1.000000000000021
100
AcDbArc
 50
221.4087409628
 51
276.0561297228
  0
ARC
  5
80
330
7B
100
AcDbEntity
  8
0
  6
Continuous
 62
   179
370
    18
100
AcDbCircle
 10
79.1360017163
 20
3.654242048
 30
0.0
 40
0.300000000000004
100
AcDbArc
 50
181.2730300201
 51
274.4996077095
  0
ARC
  5
81
330
7B
100
AcDbEntity
  8
0
  6
Continuous
 62
   179
370
    18
100
AcDbCircle
 10
78.7699033484
 20
3.2873137407
 30
0.0
 40
0.4000000000000358
100
AcDbArc
 50
221.0090869016
 51
274.5606296317
  0
ARC
  5
82
330
7B
100
AcDbEntity
  8
0
  6
Continuous
 62
   179
370
    18
100
AcDbCircle
 10
91.2333953062
 20
4.6062442307
 30
0.0
 40
0.3000000000000493
100
AcDbArc
 50
274.4996077095
 51
3.7249371334
  0
ARC
  5
83
330
7B
100
AcDbEntity
  8
0
  6
Continuous
 62
   179
370
    18
100
AcDbCircle
 10
81.5287571045
 20
9.7648973508
 30
0.0
 40
1.00000000000002
100
AcDbArc
 50
93.1134387481
 51
181.9414863909
  0
ARC
  5
84
330
7B
100
AcDbEntity
  8
0
  6
Continuous
 62
   179
370
    18
100
AcDbCircle
 10
81.6051675115
 20
7.5107903456
 30
0.0
 40
1.0
100
AcDbArc
 50
181.9414863909
 51
274.398705355
  0
ARC
  5
85
330
7B
100
AcDbEntity
  8
0
  6
Continuous
 62
   179
370
    18
100
AcDbCircle
 10
80.1506905656
 20
11.9393118923
 30
0.0
 40
0.300000000000045
100
AcDbArc
 50
93.0418421566
 51
181.9349323096
  0
ARC
  5
86
330
7B
100
AcDbEntity
  8
0
  6
Continuous
 62
   179
370
    18
100
AcDbCircle
 10
78.1879722102
 20
12.3499352608
 30
0.0
 40
0.7999999999953393
100
AcDbArc
 50
92.6995697565
 51
148.2554209065
  0
ARC
  5
87
330
7B
100
AcDbEntity
  8
0
  6
Continuous
 62
   179
370
    18
100
AcDbCircle
 10
78.930862229
 20
12.8855189761
 30
0.0
 40
0.3000000000000031
100
AcDbArc
 50
92.6995697565
 51
181.2730300201
  0
ARC
  5
88
330
7B
100
AcDbEntity
  8
0
  6
Continuous
 62
   179
370
    18
100
AcDbCircle
 10
82.327743407
 20
9.8083568568
 30
0.0
 40
1.000000000000034
100
AcDbArc
 50
1.9414863909
 51
93.1134387481
  0
ARC
  5
89
330
7B
100
AcDbEntity
  8
0
  6
Continuous
 62
   179
370
    18
100
AcDbCircle
 10
81.5287571045
 20
9.7648973508
 30
0.0
 40
0.3625000000000009
100
AcDbArc
 50
93.1134387481
 51
181.9414863909
  0
ARC
  5
8A
330
7B
100
AcDbEntity
  8
0
  6
Continuous
 62
   179
370
    18
100
AcDbCircle
 10
82.327743407
 20
9.8083568568
 30
0.0
 40
0.3625000000000146
100
AcDbArc
 50
1.9414863909
 51
93.1134387481
  0
ARC
  5
8B
330
7B
100
AcDbEntity
  8
0
  6
Continuous
 62
   179
370
    18
100
AcDbCircle
 10
82.4035451983
 20
7.5722040138
 30
0.0
 40
1.000000000000008
100
AcDbArc
 50
274.398705355
 51
1.9414863909
  0
ARC
  5
8C
330
7B
100
AcDbEntity
  8
0
  6
Continuous
 62
   179
370
    18
100
AcDbCircle
 10
82.4035451983
 20
7.5722040138
 30
0.0
 40
0.3625000000000068
100
AcDbArc
 50
274.398705355
 51
1.9414863909
  0
ARC
  5
8D
330
7B
100
AcDbEntity
  8
0
  6
Continuous
 62
   179
370
    18
100
AcDbCircle
 10
81.6051675115
 20
7.5107903456
 30
0.0
 40
0.3625000000000111
100
AcDbArc
 50
181.9414863909
 51
274.398705355
  0
ARC
  5
8E
330
7B
100
AcDbEntity
  8
0
  6
Continuous
 62
   179
370
    18
100
AcDbCircle
 10
88.825822761
 20
8.0662148274
 30
0.0
 40
0.9999999999999997
100
AcDbArc
 50
274.398705355
 51
2.6541955134
  0
ARC
  5
8F
330
7B
100
AcDbEntity
  8
0
  6
Continuous
 62
   179
370
    18
100
AcDbCircle
 10
90.1578295581
 20
5.7814576687
 30
0.0
 40
0.3000000000000043
100
AcDbArc
 50
274.6062978507
 51
2.5147526475
  0
ARC
  5
90
330
7B
100
AcDbEntity
  8
0
  6
Continuous
 62
   179
370
    18
100
AcDbCircle
 10
88.825822761
 20
8.0662148274
 30
0.0
 40
0.3625000000000083
100
AcDbArc
 50
274.398705355
 51
2.6541955134
  0
ARC
  5
91
330
7B
100
AcDbEntity
  8
0
  6
Continuous
 62
   179
370
    18
100
AcDbCircle
 10
88.728529747
 20
10.16496413
 30
0.0
 40
1.000000000000001
100
AcDbArc
 50
2.6541955134
 51
93.1134387481
  0
ARC
  5
92
330
7B
100
AcDbEntity
  8
0
  6
Continuous
 62
   179
370
    18
100
AcDbCircle
 10
88.728529747
 20
10.16496413
 30
0.0
 40
0.3625000000000085
100
AcDbArc
 50
2.6541955134
 51
93.1134387481
  0
ARC
  5
93
330
7B
100
AcDbEntity
  8
0
  6
Continuous
 62
   179
370
    18
100
AcDbCircle
 10
89.8647121341
 20
12.455515937
 30
0.0
 40
0.2999999999999984
100
AcDbArc
 50
2.5147526475
 51
93.0418421566
  0
ARC
  5
94
330
7B
100
AcDbEntity
  8
0
  6
Continuous
 62
   179
370
    18
100
AcDbCircle
 10
90.6583795404
 20
13.4384863935
 30
0.0
 40
0.2999999999999911
100
AcDbArc
 50
3.7249371334
 51
92.6995697565
  0
CIRCLE
  5
95
330
7B
100
AcDbEntity
  8
0
  6
Continuous
 62
   179
370
    18
100
AcDbCircle
 10
15.7233972286
 20
6.4054930194
 30
0.0
 40
1.579500000000014
  0
CIRCLE
  5
96
330
7B
100
AcDbEntity
  8
0
  6
Continuous
 62
   179
370
    18
100
AcDbCircle
 10
15.7233972286
 20
6.4054930194
 30
0.0
 40
2.281499999999994
  0
ARC
  5
97
330
7B
100
AcDbEntity
  8
0
  6
Continuous
 62
   179
370
    18
100
AcDbCircle
 10
89.7681336026
 20
2.3106616691
 30
0.0
 40
0.098384530246548
100
AcDbArc
 50
332.3802627259
 51
4.9765441602
  0
ARC
  5
98
330
7B
100
AcDbEntity
  8
0
  6
Continuous
 62
   179
370
    18
100
AcDbCircle
 10
89.6886560089
 20
2.3522464185
 30
0.0
 40
0.1880839130754018
100
AcDbArc
 50
303.690067526
 51
332.3802627258
  0
ARC
  5
99
330
7B
100
AcDbEntity
  8
0
  6
Continuous
 62
   179
370
    18
100
AcDbCircle
 10
89.4849700869
 20
2.6577753016
 30
0.0
 40
0.5552839311631531
100
AcDbArc
 50
287.108652213
 51
303.690067526
  0
ARC
  5
9A
330
7B
100
AcDbEntity
  8
0
  6
Continuous
 62
   179
370
    18
100
AcDbCircle
 10
88.0513010646
 20
7.3154864882
 30
0.0
 40
5.428648309393203
100
AcDbArc
 50
285.2551187031
 51
287.108652213
  0
ARC
  5
9B
330
7B
100
AcDbEntity
  8
0
  6
Continuous
 62
   179
370
    18
100
AcDbCircle
 10
89.1317168954
 20
3.3539617753
 30
0.0
 40
1.322436378825653
100
AcDbArc
 50
281.4991866428
 51
285.255118703
  0
ARC
  5
9C
330
7B
100
AcDbEntity
  8
0
  6
Continuous
 62
   179
370
    18
100
AcDbCircle
 10
89.3198255509
 20
2.4293110075
 30
0.0
 40
0.3788454141584939
100
AcDbArc
 50
279.1917900003
 51
281.499186643
  0
ARC
  5
9D
330
7B
100
AcDbEntity
  8
0
  6
Continuous
 62
   179
370
    18
100
AcDbCircle
 10
89.0487250788
 20
4.1046569124
 30
0.0
 40
2.07598399629105
100
AcDbArc
 50
277.7634675038
 51
279.1917900002
  0
ARC
  5
9E
330
7B
100
AcDbEntity
  8
0
  6
Continuous
 62
   179
370
    18
100
AcDbCircle
 10
9.2588909915
 20
6.4054930194
 30
0.0
 40
1.579500000000074
100
AcDbArc
 50
31.0558004991
 51
330.0
  0
ARC
  5
9F
330
7B
100
AcDbEntity
  8
0
  6
Continuous
 62
   179
370
    18
100
AcDbCircle
 10
9.2588909915
 20
6.4054930194
 30
0.0
 40
2.281500000000107
100
AcDbArc
 50
30.7309172659
 51
330.0
  0
ARC
  5
A0
330
7B
100
AcDbEntity
  8
0
  6
Continuous
 62
   179
370
    18
100
AcDbCircle
 10
6.1288847544
 20
4.0685261312
 30
0.0
 40
4.914000000000307
100
AcDbArc
 50
172.3058370354
 51
179.7113029221
  0
ARC
  5
A1
330
7B
100
AcDbEntity
  8
0
  6
Continuous
 62
   179
370
    18
100
AcDbCircle
 10
-0.5401152456
 20
4.0685261312
 30
0.0
 40
4.91400000000019
100
AcDbArc
 50
0.2886970779
 51
7.6941629646
  0
ARC
  5
A2
330
7B
100
AcDbEntity
  8
0
  6
Continuous
 62
   179
370
    18
100
AcDbCircle
 10
-0.5401152456
 20
4.0685261312
 30
0.0
 40
5.616000000000127
100
AcDbArc
 50
0.2526096926
 51
53.5764263577
  0
ARC
  5
A3
330
7B
100
AcDbEntity
  8
0
  6
Continuous
 62
   179
370
    18
100
AcDbCircle
 10
6.1288847544
 20
4.0685261312
 30
0.0
 40
5.61600000000074
100
AcDbArc
 50
126.4235736423
 51
179.7473903073
  0
ARC
  5
A4
330
7B
100
AcDbEntity
  8
0
  6
Continuous
 62
   179
370
    18
100
AcDbCircle
 10
-0.5401152456
 20
4.0685261312
 30
0.0
 40
4.914000000000161
100
AcDbArc
 50
16.0658750272
 51
47.2678899574
  0
ARC
  5
A5
330
7B
100
AcDbEntity
  8
0
  6
Continuous
 62
   179
370
    18
100
AcDbCircle
 10
6.1288847544
 20
4.0685261312
 30
0.0
 40
4.914000000000584
100
AcDbArc
 50
132.7321100426
 51
163.9341249728
  0
LINE
  5
A6
330
7B
100
AcDbEntity
  8
0
  6
Continuous
 62
   179
370
    18
100
AcDbLine
 10
78.8017089389
 20
2.8885802402
 30
0.0
 11
90.7982178739
 21
3.8455002136
 31
0.0
  0
LINE
  5
A7
330
7B
100
AcDbEntity
  8
0
  6
Continuous
 62
   179
370
    18
100
AcDbLine
 10
76.6545490427
 20
5.8693097374
 30
0.0
 11
78.0344191726
 21
3.5235305166
 31
0.0
  0
LINE
  5
A8
330
7B
100
AcDbEntity
  8
0
  6
Continuous
 62
   179
370
    18
100
AcDbLine
 10
91.5327615373
 20
4.6257342197
 30
0.0
 11
90.9577457715
 21
13.4579763825
 31
0.0
  0
LINE
  5
A9
330
7B
100
AcDbEntity
  8
0
  6
Continuous
 62
   179
370
    18
100
AcDbLine
 10
78.6309362756
 20
12.8788539549
 30
0.0
 11
78.8360757629
 21
3.6475770268
 31
0.0
  0
LINE
  5
AA
330
7B
100
AcDbEntity
  8
0
  6
Continuous
 62
   179
370
    18
100
AcDbLine
 10
80.4094186633
 20
4.6950685544
 30
0.0
 11
90.1819221045
 21
5.4824266516
 31
0.0
  0
LINE
  5
AB
330
7B
100
AcDbEntity
  8
0
  6
Continuous
 62
   179
370
    18
100
AcDbLine
 10
79.1595373973
 20
3.3551666867
 30
0.0
 11
91.2569309872
 21
4.3071688694
 31
0.0
  0
LINE
  5
AC
330
7B
100
AcDbEntity
  8
0
  6
Continuous
 62
   179
370
    18
100
AcDbLine
 10
79.2585043218
 20
2.925017226
 30
0.0
 11
80.4858981444
 21
1.533240302
 31
0.0
  0
LINE
  5
AD
330
7B
100
AcDbEntity
  8
0
  6
Continuous
 62
   179
370
    18
100
AcDbLine
 10
78.0344191726
 20
3.5235305166
 30
0.0
 11
78.3638740472
 21
3.1446574108
 31
0.0
  0
LINE
  5
AE
330
7B
100
AcDbEntity
  8
0
  6
Continuous
 62
   179
370
    18
100
AcDbLine
 10
78.3638740472
 20
3.1446574108
 30
0.0
 11
78.4680611395
 21
3.0248422547
 31
0.0
  0
LINE
  5
AF
330
7B
100
AcDbEntity
  8
0
  6
Continuous
 62
   179
370
    18
100
AcDbLine
 10
81.3414110113
 20
1.2002475785
 30
0.0
 11
89.3291569519
 21
2.0477010263
 31
0.0
  0
LINE
  5
B0
330
7B
100
AcDbEntity
  8
0
  6
Continuous
 62
   179
370
    18
100
AcDbLine
 10
89.8661472522
 20
2.5197759309
 30
0.0
 11
89.8661472522
 21
2.3090867337
 31
0.0
  0
LINE
  5
B1
330
7B
100
AcDbEntity
  8
0
  6
Continuous
 62
   179
370
    18
100
AcDbLine
 10
88.676842368
 20
3.6762854359
 30
0.0
 11
89.6713239345
 21
2.7875997807
 31
0.0
  0
LINE
  5
B2
330
7B
100
AcDbEntity
  8
0
  6
Continuous
 62
   179
370
    18
100
AcDbLine
 10
89.6713239345
 20
2.7875997807
 30
0.0
 11
89.7459749087
 21
2.7242700694
 31
0.0
  0
LINE
  5
B3
330
7B
100
AcDbEntity
  8
0
  6
Continuous
 62
   179
370
    18
100
AcDbLine
 10
90.7982178739
 20
3.8455002136
 30
0.0
 11
91.3961615969
 21
4.3514525945
 31
0.0
  0
LINE
  5
B4
330
7B
100
AcDbEntity
  8
0
  6
Continuous
 62
   179
370
    18
100
AcDbLine
 10
90.6442498554
 20
13.7381534621
 30
0.0
 11
78.1502930503
 21
13.1490474438
 31
0.0
  0
LINE
  5
B5
330
7B
100
AcDbEntity
  8
0
  6
Continuous
 62
   179
370
    18
100
AcDbLine
 10
80.1347709981
 20
12.2388892068
 30
0.0
 11
89.8487925667
 21
12.7550932515
 31
0.0
  0
LINE
  5
B6
330
7B
100
AcDbEntity
  8
0
  6
Continuous
 62
   179
370
    18
100
AcDbLine
 10
76.4935641943
 20
11.7567556248
 30
0.0
 11
76.6545490427
 21
5.8693097374
 31
0.0
  0
LINE
  5
B7
330
7B
100
AcDbEntity
  8
0
  6
Continuous
 62
   179
370
    18
100
AcDbLine
 10
79.8508616208
 20
11.929182536
 30
0.0
 11
80.0854971721
 21
4.9839702153
 31
0.0
  0
LINE
  5
B8
330
7B
100
AcDbEntity
  8
0
  6
Continuous
 62
   179
370
    18
100
AcDbLine
 10
80.5293311574
 20
9.7310185051
 30
0.0
 11
80.6057415643
 21
7.4769115
 31
0.0
  0
LINE
  5
B9
330
7B
100
AcDbEntity
  8
0
  6
Continuous
 62
   179
370
    18
100
AcDbLine
 10
77.507650604
 20
12.7708420346
 30
0.0
 11
76.4935641943
 21
11.7567556248
 31
0.0
  0
LINE
  5
BA
330
7B
100
AcDbEntity
  8
0
  6
Continuous
 62
   179
370
    18
100
AcDbLine
 10
86.8848195129
 20
11.0661568594
 30
0.0
 11
88.6742167283
 21
11.1634880887
 31
0.0
  0
LINE
  5
BB
330
7B
100
AcDbEntity
  8
0
  6
Continuous
 62
   179
370
    18
100
AcDbLine
 10
87.0766213517
 20
6.9287171941
 30
0.0
 11
88.90708891
 21
7.0695223909
 31
0.0
  0
LINE
  5
BC
330
7B
100
AcDbEntity
  8
0
  6
Continuous
 62
   179
370
    18
100
AcDbLine
 10
87.6830038473
 20
7.6147347768
 30
0.0
 11
88.8536252418
 21
7.7047825764
 31
0.0
  0
LINE
  5
BD
330
7B
100
AcDbEntity
  8
0
  6
Continuous
 62
   179
370
    18
100
AcDbLine
 10
87.5509212094
 20
10.4639459651
 30
0.0
 11
88.7088412777
 21
10.5269290651
 31
0.0
  0
LINE
  5
BE
330
7B
100
AcDbEntity
  8
0
  6
Continuous
 62
   179
370
    18
100
AcDbLine
 10
87.0766218384
 20
6.9287066941
 30
0.0
 11
86.8848195129
 21
11.0661568594
 31
0.0
  0
LINE
  5
BF
330
7B
100
AcDbEntity
  8
0
  6
Continuous
 62
   179
370
    18
100
AcDbLine
 10
83.7004598825
 20
6.6667911093
 30
0.0
 11
84.5054929504
 21
10.9267193262
 31
0.0
  0
LINE
  5
C0
330
7B
100
AcDbEntity
  8
0
  6
Continuous
 62
   179
370
    18
100
AcDbLine
 10
85.3543248406
 20
10.9728900984
 30
0.0
 11
86.4940946704
 21
6.8816860929
 31
0.0
  0
LINE
  5
C1
330
7B
100
AcDbEntity
  8
0
  6
Continuous
 62
   179
370
    18
100
AcDbLine
 10
84.9728575427
 20
9.9667192298
 30
0.0
 11
85.4540299774
 21
8.2395506903
 31
0.0
  0
LINE
  5
C2
330
7B
100
AcDbEntity
  8
0
  6
Continuous
 62
   179
370
    18
100
AcDbLine
 10
84.6363094629
 20
8.1858350416
 30
0.0
 11
84.9728575427
 21
9.9667192298
 31
0.0
  0
LINE
  5
C3
330
7B
100
AcDbEntity
  8
0
  6
Continuous
 62
   179
370
    18
100
AcDbLine
 10
87.6830038473
 20
7.6147347768
 30
0.0
 11
87.5509212094
 21
10.4639459651
 31
0.0
  0
LINE
  5
C4
330
7B
100
AcDbEntity
  8
0
  6
Continuous
 62
   179
370
    18
100
AcDbLine
 10
84.6363094629
 20
8.1858350416
 30
0.0
 11
85.4540299774
 21
8.2395506903
 31
0.0
  0
LINE
  5
C5
330
7B
100
AcDbEntity
  8
0
  6
Continuous
 62
   179
370
    18
100
AcDbLine
 10
84.5140586807
 20
7.5389304886
 30
0.0
 11
85.6288154243
 21
7.6121582976
 31
0.0
  0
LINE
  5
C6
330
7B
100
AcDbEntity
  8
0
  6
Continuous
 62
   179
370
    18
100
AcDbLine
 10
84.3588137958
 20
6.717433718
 30
0.0
 11
84.5140586807
 21
7.5389304886
 31
0.0
  0
LINE
  5
C7
330
7B
100
AcDbEntity
  8
0
  6
Continuous
 62
   179
370
    18
100
AcDbLine
 10
81.6818640104
 20
6.5137358601
 30
0.0
 11
82.4802416972
 21
6.5751495283
 31
0.0
  0
LINE
  5
C8
330
7B
100
AcDbEntity
  8
0
  6
Continuous
 62
   179
370
    18
100
AcDbLine
 10
81.6329699923
 20
7.1493580946
 30
0.0
 11
82.4313476791
 21
7.2107717628
 31
0.0
  0
LINE
  5
C9
330
7B
100
AcDbEntity
  8
0
  6
Continuous
 62
   179
370
    18
100
AcDbLine
 10
83.7004598825
 20
6.6667911093
 30
0.0
 11
84.3588137958
 21
6.717433718
 31
0.0
  0
LINE
  5
CA
330
7B
100
AcDbEntity
  8
0
  6
Continuous
 62
   179
370
    18
100
AcDbLine
 10
82.7059483815
 20
9.3512024135
 30
0.0
 11
83.3423973297
 21
9.3930104243
 31
0.0
  0
LINE
  5
CB
330
7B
100
AcDbEntity
  8
0
  6
Continuous
 62
   179
370
    18
100
AcDbLine
 10
82.7491656358
 20
8.0762934118
 30
0.0
 11
83.385614584
 21
8.1181014226
 31
0.0
  0
LINE
  5
CC
330
7B
100
AcDbEntity
  8
0
  6
Continuous
 62
   179
370
    18
100
AcDbLine
 10
81.1664651987
 20
9.7526162692
 30
0.0
 11
81.2428756056
 21
7.4985092641
 31
0.0
  0
LINE
  5
CD
330
7B
100
AcDbEntity
  8
0
  6
Continuous
 62
   179
370
    18
100
AcDbLine
 10
82.6900353128
 20
9.8206379383
 30
0.0
 11
82.7052632884
 21
9.3714126602
 31
0.0
  0
LINE
  5
CE
330
7B
100
AcDbEntity
  8
0
  6
Continuous
 62
   179
370
    18
100
AcDbLine
 10
82.7491656358
 20
8.0762934118
 30
0.0
 11
82.7658371041
 21
7.5844850954
 31
0.0
  0
LINE
  5
CF
330
7B
100
AcDbEntity
  8
0
  6
Continuous
 62
   179
370
    18
100
AcDbLine
 10
83.3271693541
 20
9.8422357024
 30
0.0
 11
83.3423973297
 21
9.3930104243
 31
0.0
  0
LINE
  5
D0
330
7B
100
AcDbEntity
  8
0
  6
Continuous
 62
   179
370
    18
100
AcDbLine
 10
83.385614584
 20
8.1181014226
 30
0.0
 11
83.4029711454
 21
7.6060828595
 31
0.0
  0
LINE
  5
D1
330
7B
100
AcDbEntity
  8
0
  6
Continuous
 62
   179
370
    18
100
AcDbLine
 10
85.6288154243
 20
7.6121582976
 30
0.0
 11
85.8462022593
 21
6.8318482152
 31
0.0
  0
LINE
  5
D2
330
7B
100
AcDbEntity
  8
0
  6
Continuous
 62
   179
370
    18
100
AcDbLine
 10
85.8462022593
 20
6.8318482152
 30
0.0
 11
86.4940946704
 21
6.8816860929
 31
0.0
  0
LINE
  5
D3
330
7B
100
AcDbEntity
  8
0
  6
Continuous
 62
   179
370
    18
100
AcDbLine
 10
84.5054929504
 20
10.9267193262
 30
0.0
 11
85.3543248406
 21
10.9728900984
 31
0.0
  0
LINE
  5
D4
330
7B
100
AcDbEntity
  8
0
  6
Continuous
 62
   179
370
    18
100
AcDbLine
 10
81.4744440858
 20
10.7634213094
 30
0.0
 11
82.2734303883
 21
10.8068808154
 31
0.0
  0
LINE
  5
D5
330
7B
100
AcDbEntity
  8
0
  6
Continuous
 62
   179
370
    18
100
AcDbLine
 10
81.5090686352
 20
10.1268622858
 30
0.0
 11
82.3080549377
 21
10.1703217918
 31
0.0
  0
LINE
  5
D6
330
7B
100
AcDbEntity
  8
0
  6
Continuous
 62
   179
370
    18
100
AcDbLine
 10
90.4575406452
 20
5.7946206556
 30
0.0
 11
90.1644232213
 21
12.4686789239
 31
0.0
  0
LINE
  5
D7
330
7B
100
AcDbEntity
  8
0
  6
Continuous
 62
   179
370
    18
100
AcDbLine
 10
89.8247499755
 20
8.1125227115
 30
0.0
 11
89.7274569615
 21
10.2112720142
 31
0.0
  0
LINE
  5
D8
330
7B
100
AcDbEntity
  8
0
  6
Continuous
 62
   179
370
    18
100
AcDbLine
 10
89.1879338763
 20
8.0830014354
 30
0.0
 11
89.0906408622
 21
10.181750738
 31
0.0
  0
LINE
  5
D9
330
7B
100
AcDbEntity
  8
0
  6
Continuous
 62
   179
370
    18
100
AcDbLine
 10
89.7459749087
 20
2.7242700694
 30
0.0
 11
89.7974962577
 21
2.6659765769
 31
0.0
  0
LINE
  5
DA
330
7B
100
AcDbEntity
  8
0
  6
Continuous
 62
   179
370
    18
100
AcDbLine
 10
89.7974962577
 20
2.6659765769
 30
0.0
 11
89.8351851379
 21
2.60192886
 31
0.0
  0
LINE
  5
DB
330
7B
100
AcDbEntity
  8
0
  6
Continuous
 62
   179
370
    18
100
AcDbLine
 10
89.8351851379
 20
2.60192886
 30
0.0
 11
89.8661472522
 21
2.5197759309
 31
0.0
  0
LINE
  5
DC
330
7B
100
AcDbEntity
  8
0
  6
Continuous
 62
   179
370
    18
100
AcDbLine
 10
10.6119938288
 20
7.2203138351
 30
0.0
 11
11.2200151261
 21
7.5713550947
 31
0.0
  0
LINE
  5
DD
330
7B
100
AcDbEntity
  8
0
  6
Continuous
 62
   179
370
    18
100
AcDbLine
 10
11.2347279503
 20
5.2647430194
 30
0.0
 11
10.6267781168
 21
5.6157430194
 31
0.0
  0
LINE
  5
DE
330
7B
100
AcDbEntity
  8
0
  6
Continuous
 62
   179
370
    18
100
AcDbLine
 10
6.4645062371
 20
16.1712617198
 30
0.0
 11
6.4645062371
 21
2.9364593988
 31
0.0
  0
LINE
  5
DF
330
7B
100
AcDbEntity
  8
0
  6
Continuous
 62
   179
370
    18
100
AcDbLine
 10
6.4645062371
 20
2.9364593988
 30
0.0
 11
12.0532757459
 21
2.9364593988
 31
0.0
  0
LINE
  5
E0
330
7B
100
AcDbEntity
  8
0
  6
Continuous
 62
   179
370
    18
100
AcDbLine
 10
12.0532757459
 20
2.9364593988
 30
0.0
 11
12.0532757459
 21
16.1712617198
 31
0.0
  0
LINE
  5
E1
330
7B
100
AcDbEntity
  8
0
  6
Continuous
 62
   179
370
    18
100
AcDbLine
 10
12.0532757459
 20
16.1712617198
 30
0.0
 11
6.4645062371
 21
16.1712617198
 31
0.0
  0
LINE
  5
E2
330
7B
100
AcDbEntity
  8
0
  6
Continuous
 62
   179
370
    18
100
AcDbLine
 10
0.0
 20
16.1712617198
 30
0.0
 11
0.0
 21
2.9364593988
 31
0.0
  0
LINE
  5
E3
330
7B
100
AcDbEntity
  8
0
  6
Continuous
 62
   179
370
    18
100
AcDbLine
 10
0.0
 20
2.9364593988
 30
0.0
 11
5.5887695089
 21
2.9364593988
 31
0.0
  0
LINE
  5
E4
330
7B
100
AcDbEntity
  8
0
  6
Continuous
 62
   179
370
    18
100
AcDbLine
 10
5.5887695089
 20
2.9364593988
 30
0.0
 11
5.5887695089
 21
16.1712617198
 31
0.0
  0
LINE
  5
E5
330
7B
100
AcDbEntity
  8
0
  6
Continuous
 62
   179
370
    18
100
AcDbLine
 10
5.5887695089
 20
16.1712617198
 30
0.0
 11
0.0
 21
16.1712617198
 31
0.0
  0
LINE
  5
E6
330
7B
100
AcDbEntity
  8
0
  6
Continuous
 62
   179
370
    18
100
AcDbLine
 10
1.2591262606
 20
4.7264381407
 30
0.0
 11
4.3296432482
 21
4.7264381407
 31
0.0
  0
LINE
  5
E7
330
7B
100
AcDbEntity
  8
0
  6
Continuous
 62
   179
370
    18
100
AcDbLine
 10
4.3738223747
 20
4.0932862697
 30
0.0
 11
5.0758301722
 21
4.0932862697
 31
0.0
  0
LINE
  5
E8
330
7B
100
AcDbEntity
  8
0
  6
Continuous
 62
   179
370
    18
100
AcDbLine
 10
0.5129393366
 20
4.0932862697
 30
0.0
 11
1.2149471342
 21
4.0932862697
 31
0.0
  0
LINE
  5
E9
330
7B
100
AcDbEntity
  8
0
  6
Continuous
 62
   179
370
    18
100
AcDbLine
 10
4.1819643097
 20
5.4284381407
 30
0.0
 11
1.4068051992
 21
5.4284381407
 31
0.0
  0
LINE
  5
EA
330
7B
100
AcDbEntity
  8
0
  6
Continuous
 62
   179
370
    18
100
AcDbLine
 10
18.517781983
 20
16.1712617198
 30
0.0
 11
18.517781983
 21
2.9364593988
 31
0.0
  0
LINE
  5
EB
330
7B
100
AcDbEntity
  8
0
  6
Continuous
 62
   179
370
    18
100
AcDbLine
 10
18.517781983
 20
2.9364593988
 30
0.0
 11
12.9290124742
 21
2.9364593988
 31
0.0
  0
LINE
  5
EC
330
7B
100
AcDbEntity
  8
0
  6
Continuous
 62
   179
370
    18
100
AcDbLine
 10
12.9290124742
 20
2.9364593988
 30
0.0
 11
12.9290124742
 21
16.1712617198
 31
0.0
  0
LINE
  5
ED
330
7B
100
AcDbEntity
  8
0
  6
Continuous
 62
   179
370
    18
100
AcDbLine
 10
12.9290124742
 20
16.1712617198
 30
0.0
 11
18.517781983
 21
16.1712617198
 31
0.0
  0
INSERT
  5
F3
330
7B
100
AcDbEntity
  8
0
  6
Continuous
 62
     7
370
     0
100
AcDbBlockReference
  2
SW_NOTE_0
 10
1.8998941161
 20
-0.3226565443
 30
0.0
  0
INSERT
  5
F8
330
7B
100
AcDbEntity
  8
0
  6
Continuous
 62
     7
370
     0
100
AcDbBlockReference
  2
SW_NOTE_0_1
 10
29.1164837035
 20
12.7459167441
 30
0.0
  0
INSERT
  5
100
330
7B
100
AcDbEntity
  8
0
  6
Continuous
 62
     7
370
     0
100
AcDbBlockReference
  2
SW_NOTE_0_2
 10
28.8863479825
 20
8.6365742194
 30
0.0
  0
ENDBLK
  5
7D
330
7B
100
AcDbEntity
  8
0
100
AcDbBlockEnd
  0
BLOCK
  5
EF
330
EE
100
AcDbEntity
  8
0
100
AcDbBlockBegin
  2
SW_NOTE_0
 70
     0
 10
0.0
 20
0.0
 30
0.0
  3
SW_NOTE_0
  1

  0
MTEXT
  5
F2
330
EE
100
AcDbEntity
  8
0
  6
Continuous
 62
     0
370
     0
100
AcDbMText
 10
7.09375
 20
2.5781354795
 30
0.0
 40
2.0
 41
0.0
 71
     2
 72
     1
  1
www.aco.ch
  7
SLDTEXTSTYLE0
 73
     1
 44
1.0
  0
ENDBLK
  5
F0
330
EE
100
AcDbEntity
  8
0
100
AcDbBlockEnd
  0
BLOCK
  5
F5
330
F4
100
AcDbEntity
  8
0
100
AcDbBlockBegin
  2
SW_NOTE_0_1
 70
     0
 10
0.0
 20
0.0
 30
0.0
  3
SW_NOTE_0_1
  1

  0
MTEXT
  5
F7
330
F4
100
AcDbEntity
  8
0
  6
Continuous
 62
     0
370
     0
100
AcDbMText
 10
0.0
 20
3.8672032193
 30
0.0
 40
3.0
 41
0.0
 71
     1
 72
     1
  1
ACO AG
  7
SLDTEXTSTYLE0
 73
     1
 44
1.0
  0
ENDBLK
  5
F6
330
F4
100
AcDbEntity
  8
0
100
AcDbBlockEnd
  0
BLOCK
  5
FA
330
F9
100
AcDbEntity
  8
0
100
AcDbBlockBegin
  2
SW_NOTE_0_2
 70
     0
 10
0.0
 20
0.0
 30
0.0
  3
SW_NOTE_0_2
  1

  0
MTEXT
  5
FC
330
F9
100
AcDbEntity
  8
0
  6
Continuous
 62
     0
370
     0
100
AcDbMText
 10
0.0
 20
2.5781354795
 30
0.0
 40
2.0
 41
0.0
 71
     1
 72
     1
  1
Industrie Kleinzaun
  7
SLDTEXTSTYLE0
 73
     1
 44
1.0
  0
MTEXT
  5
FD
330
F9
100
AcDbEntity
  8
0
  6
Continuous
 62
     0
370
     0
100
AcDbMText
 10
0.0
 20
-0.4218645465
 30
0.0
 40
2.0
 41
0.0
 71
     1
 72
     1
  1
CH-8754 Netstal
  7
SLDTEXTSTYLE0
 73
     1
 44
1.0
  0
MTEXT
  5
FE
330
F9
100
AcDbEntity
  8
0
  6
Continuous
 62
     0
370
     0
100
AcDbMText
 10
0.0
 20
-3.4218645726
 30
0.0
 40
2.0
 41
0.0
 71
     1
 72
     1
  1
Tel. 055 / 645 53 00
  7
SLDTEXTSTYLE0
 73
     1
 44
1.0
  0
MTEXT
  5
FF
330
F9
100
AcDbEntity
  8
0
  6
Continuous
 62
     0
370
     0
100
AcDbMText
 10
0.0
 20
-6.4218645987
 30
0.0
 40
2.0
 41
0.0
 71
     1
 72
     1
  1
E-Mail: aco@aco.ch
  7
SLDTEXTSTYLE0
 73
     1
 44
1.0
  0
ENDBLK
  5
FB
330
F9
100
AcDbEntity
  8
0
100
AcDbBlockEnd
  0
BLOCK
  5
179
330
178
100
AcDbEntity
  8
0
100
AcDbBlockBegin
  2
SW_NOTE_0_3
 70
     0
 10
0.0
 20
0.0
 30
0.0
  3
SW_NOTE_0_3
  1

  0
MTEXT
  5
17B
330
178
100
AcDbEntity
  8
0
  6
Continuous
 62
     0
370
     0
100
AcDbMText
 10
0.0
 20
1.9336016097
 30
0.0
 40
1.5
 41
0.0
 71
     1
 72
     1
  1
Diese Zeichnung darf weder kopiert
  7
SLDTEXTSTYLE0
 73
     1
 44
1.0
  0
MTEXT
  5
17C
330
178
100
AcDbEntity
  8
0
  6
Continuous
 62
     0
370
     0
100
AcDbMText
 10
0.0
 20
-0.5663983345
 30
0.0
 40
1.5
 41
0.0
 71
     1
 72
     1
  1
noch dritten Personen, insbesondere
  7
SLDTEXTSTYLE0
 73
     1
 44
1.0
  0
MTEXT
  5
17D
330
178
100
AcDbEntity
  8
0
  6
Continuous
 62
     0
370
     0
100
AcDbMText
 10
0.0
 20
-3.0663982786
 30
0.0
 40
1.5
 41
0.0
 71
     1
 72
     1
  1
zum Zweck anderweitiger Benutzung
  7
SLDTEXTSTYLE0
 73
     1
 44
1.0
  0
MTEXT
  5
17E
330
178
100
AcDbEntity
  8
0
  6
Continuous
 62
     0
370
     0
100
AcDbMText
 10
0.0
 20
-5.5663982227
 30
0.0
 40
1.5
 41
0.0
 71
     1
 72
     1
  1
mitgeteilt werden und bleibt unser
  7
SLDTEXTSTYLE0
 73
     1
 44
1.0
  0
MTEXT
  5
17F
330
178
100
AcDbEntity
  8
0
  6
Continuous
 62
     0
370
     0
100
AcDbMText
 10
0.0
 20
-8.0663981668
 30
0.0
 40
1.5
 41
0.0
 71
     1
 72
     1
  1
Eigentum.
  7
SLDTEXTSTYLE0
 73
     1
 44
1.0
  0
ENDBLK
  5
17A
330
178
100
AcDbEntity
  8
0
100
AcDbBlockEnd
  0
BLOCK
  5
2BD
330
2BC
100
AcDbEntity
  8
0
100
AcDbBlockBegin
  2
_D
 70
     0
 10
0.0
 20
0.0
 30
0.0
  3
_D
  1

  0
SOLID
  5
2BF
330
2BC
100
AcDbEntity
  8
0
  6
Continuous
 62
     7
370
    18
100
AcDbTrace
 10
85.958609341
 20
262.2518281799
 30
0.0
 11
89.458609341
 21
261.7133666414
 31
0.0
 12
89.458609341
 22
262.7902897183
 32
0.0
 13
89.458609341
 23
262.7902897183
 33
0.0
  0
SOLID
  5
2C0
330
2BC
100
AcDbEntity
  8
0
  6
Continuous
 62
     7
370
    18
100
AcDbTrace
 10
193.958609341
 20
262.2518281799
 30
0.0
 11
190.458609341
 21
262.7902897183
 31
0.0
 12
190.458609341
 22
261.7133666414
 32
0.0
 13
190.458609341
 23
261.7133666414
 33
0.0
  0
LINE
  5
2C1
330
2BC
100
AcDbEntity
  8
0
  6
Continuous
 62
     7
370
     0
100
AcDbLine
 10
85.958609341
 20
250.8518281799
 30
0.0
 11
85.958609341
 21
263.2518281799
 31
0.0
  0
LINE
  5
2C2
330
2BC
100
AcDbEntity
  8
0
  6
Continuous
 62
     7
370
     0
100
AcDbLine
 10
193.958609341
 20
250.8518281799
 30
0.0
 11
193.958609341
 21
263.2518281799
 31
0.0
  0
LINE
  5
2C3
330
2BC
100
AcDbEntity
  8
0
  6
Continuous
 62
     7
370
     0
100
AcDbLine
 10
85.958609341
 20
262.2518281799
 30
0.0
 11
193.958609341
 21
262.2518281799
 31
0.0
  0
MTEXT
  5
2C4
330
2BC
100
AcDbEntity
  8
0
  6
Continuous
 62
     7
370
    18
100
AcDbMText
 10
133.3967172339
 20
266.7635652691
 30
0.0
 40
3.5
 41
0.0
 71
     1
 72
     1
  1
%%c
  7
SLDTEXTSTYLE0
 73
     1
 44
1.0
  0
MTEXT
  5
2C5
330
2BC
100
AcDbEntity
  8
0
  6
Continuous
 62
     7
370
    18
100
AcDbMText
 10
138.4996687791
 20
266.7732875782
 30
0.0
 40
3.5
 41
0.0
 71
     1
 72
     1
  1
108
  7
SLDTEXTSTYLE0
 73
     1
 44
1.0
  0
ENDBLK
  5
2BE
330
2BC
100
AcDbEntity
  8
0
100
AcDbBlockEnd
  0
BLOCK
  5
2C8
330
2C7
100
AcDbEntity
  8
0
100
AcDbBlockBegin
  2
_D_1
 70
     0
 10
0.0
 20
0.0
 30
0.0
  3
_D_1
  1

  0
SOLID
  5
2CA
330
2C7
100
AcDbEntity
  8
0
  6
Continuous
 62
     7
370
    18
100
AcDbTrace
 10
78.4911627907
 20
225.8268281799
 30
0.0
 11
77.9527012522
 21
222.3268281799
 31
0.0
 12
79.0296243292
 22
222.3268281799
 32
0.0
 13
79.0296243292
 23
222.3268281799
 33
0.0
  0
SOLID
  5
2CB
330
2C7
100
AcDbEntity
  8
0
  6
Continuous
 62
     7
370
    18
100
AcDbTrace
 10
78.4911627907
 20
175.8268281799
 30
0.0
 11
79.0296243292
 21
179.3268281799
 31
0.0
 12
77.9527012522
 22
179.3268281799
 32
0.0
 13
77.9527012522
 23
179.3268281799
 33
0.0
  0
LINE
  5
2CC
330
2C7
100
AcDbEntity
  8
0
  6
Continuous
 62
     7
370
     0
100
AcDbLine
 10
93.858609341
 20
225.8268281799
 30
0.0
 11
77.4911627907
 21
225.8268281799
 31
0.0
  0
LINE
  5
2CD
330
2C7
100
AcDbEntity
  8
0
  6
Continuous
 62
     7
370
     0
100
AcDbLine
 10
105.858609341
 20
175.8268281799
 30
0.0
 11
77.4911627907
 21
175.8268281799
 31
0.0
  0
LINE
  5
2CE
330
2C7
100
AcDbEntity
  8
0
  6
Continuous
 62
     7
370
     0
100
AcDbLine
 10
78.4911627907
 20
225.8268281799
 30
0.0
 11
78.4911627907
 21
175.8268281799
 31
0.0
  0
MTEXT
  5
2CF
330
2C7
100
AcDbEntity
  8
0
  6
Continuous
 62
     7
370
    18
100
AcDbMText
 10
73.9794254687
 20
198.153217135
 30
0.0
 40
3.5
 41
0.0
 71
     1
 72
     1
  1
50
  7
SLDTEXTSTYLE0
 11
-4.379659758543259E-15
 21
1.0
 31
0.0
 73
     1
 44
1.0
  0
ENDBLK
  5
2C9
330
2C7
100
AcDbEntity
  8
0
100
AcDbBlockEnd
  0
BLOCK
  5
2D3
330
2D2
100
AcDbEntity
  8
0
100
AcDbBlockBegin
  2
_D_2
 70
     0
 10
0.0
 20
0.0
 30
0.0
  3
_D_2
  1

  0
SOLID
  5
2D5
330
2D2
100
AcDbEntity
  8
0
  6
Continuous
 62
     7
370
    18
100
AcDbTrace
 10
65.2904240847
 20
252.2518281799
 30
0.0
 11
64.7519625463
 21
248.7518281799
 31
0.0
 12
65.8288856232
 22
248.7518281799
 32
0.0
 13
65.8288856232
 23
248.7518281799
 33
0.0
  0
SOLID
  5
2D6
330
2D2
100
AcDbEntity
  8
0
  6
Continuous
 62
     7
370
    18
100
AcDbTrace
 10
65.2904240847
 20
160.8268281799
 30
0.0
 11
65.8288856232
 21
164.3268281799
 31
0.0
 12
64.7519625463
 22
164.3268281799
 32
0.0
 13
64.7519625463
 23
164.3268281799
 33
0.0
  0
LINE
  5
2D7
330
2D2
100
AcDbEntity
  8
0
  6
Continuous
 62
     7
370
     0
100
AcDbLine
 10
87.108609341
 20
252.2518281799
 30
0.0
 11
64.2904240847
 21
252.2518281799
 31
0.0
  0
LINE
  5
2D8
330
2D2
100
AcDbEntity
  8
0
  6
Continuous
 62
     7
370
     0
100
AcDbLine
 10
109.8585831219
 20
160.8268281799
 30
0.0
 11
64.2904240847
 21
160.8268281799
 31
0.0
  0
LINE
  5
2D9
330
2D2
100
AcDbEntity
  8
0
  6
Continuous
 62
     7
370
     0
100
AcDbLine
 10
65.2904240847
 20
252.2518281799
 30
0.0
 11
65.2904240847
 21
160.8268281799
 31
0.0
  0
MTEXT
  5
2DA
330
2D2
100
AcDbEntity
  8
0
  6
Continuous
 62
     7
370
    18
100
AcDbMText
 10
60.7786867627
 20
201.8605088513
 30
0.0
 40
3.5
 41
0.0
 71
     1
 72
     1
  1
91.4
  7
SLDTEXTSTYLE0
 11
-7.044195017643634E-15
 21
1.0
 31
0.0
 73
     1
 44
1.0
  0
ENDBLK
  5
2D4
330
2D2
100
AcDbEntity
  8
0
100
AcDbBlockEnd
  0
BLOCK
  5
2DD
330
2DC
100
AcDbEntity
  8
0
100
AcDbBlockBegin
  2
_D_3
 70
     0
 10
0.0
 20
0.0
 30
0.0
  3
_D_3
  1

  0
SOLID
  5
2DF
330
2DC
100
AcDbEntity
  8
0
  6
Continuous
 62
     7
370
    18
100
AcDbTrace
 10
185.958609341
 20
150.824849561
 30
0.0
 11
182.458609341
 21
151.3633110995
 31
0.0
 12
182.458609341
 22
150.2863880225
 32
0.0
 13
182.458609341
 23
150.2863880225
 33
0.0
  0
SOLID
  5
2E0
330
2DC
100
AcDbEntity
  8
0
  6
Continuous
 62
     7
370
    18
100
AcDbTrace
 10
93.958609341
 20
150.824849561
 30
0.0
 11
97.458609341
 21
150.2863880225
 31
0.0
 12
97.458609341
 22
151.3633110995
 32
0.0
 13
97.458609341
 23
151.3633110995
 33
0.0
  0
LINE
  5
2E1
330
2DC
100
AcDbEntity
  8
0
  6
Continuous
 62
     7
370
     0
100
AcDbLine
 10
185.958609341
 20
176.7268281799
 30
0.0
 11
185.958609341
 21
149.824849561
 31
0.0
  0
LINE
  5
2E2
330
2DC
100
AcDbEntity
  8
0
  6
Continuous
 62
     7
370
     0
100
AcDbLine
 10
93.958609341
 20
176.7268281799
 30
0.0
 11
93.958609341
 21
149.824849561
 31
0.0
  0
LINE
  5
2E3
330
2DC
100
AcDbEntity
  8
0
  6
Continuous
 62
     7
370
     0
100
AcDbLine
 10
185.958609341
 20
150.824849561
 30
0.0
 11
93.958609341
 21
150.824849561
 31
0.0
  0
MTEXT
  5
2E4
330
2DC
100
AcDbEntity
  8
0
  6
Continuous
 62
     7
370
    18
100
AcDbMText
 10
134.7335227563
 20
155.3365866502
 30
0.0
 40
3.5
 41
0.0
 71
     1
 72
     1
  1
%%c
  7
SLDTEXTSTYLE0
 73
     1
 44
1.0
  0
MTEXT
  5
2E5
330
2DC
100
AcDbEntity
  8
0
  6
Continuous
 62
     7
370
    18
100
AcDbMText
 10
139.8364743016
 20
155.3463089594
 30
0.0
 40
3.5
 41
0.0
 71
     1
 72
     1
  1
92
  7
SLDTEXTSTYLE0
 73
     1
 44
1.0
  0
ENDBLK
  5
2DE
330
2DC
100
AcDbEntity
  8
0
100
AcDbBlockEnd
  0
ENDSEC
  0
SECTION
  2
ENTITIES
  0
LINE
  5
101
330
1F
100
AcDbEntity
  8
LINIEN-DÜNN
  6
CENTERX2
100
AcDbLine
 10
352.6174545849
 20
46.9080238789
 30
0.0
 11
352.6174545849
 21
39.4621586124
 31
0.0
  0
LINE
  5
102
330
1F
100
AcDbEntity
  8
LINIEN-DÜNN
100
AcDbLine
 10
357.7661698132
 20
46.3720107039
 30
0.0
 11
357.7661698132
 21
39.9353173413
 31
0.0
  0
LINE
  5
103
330
1F
100
AcDbEntity
  8
LINIEN-DÜNN
100
AcDbLine
 10
364.6059427486
 20
44.7376225767
 30
0.0
 11
364.6059427486
 21
41.5697054685
 31
0.0
  0
LINE
  5
104
330
1F
100
AcDbEntity
  8
LINIEN-DÜNN
100
AcDbLine
 10
364.6059427486
 20
44.7376225767
 30
0.0
 11
357.7661698132
 21
46.3720107039
 31
0.0
  0
LINE
  5
105
330
1F
100
AcDbEntity
  8
LINIEN-DÜNN
100
AcDbLine
 10
15.0
 20
198.5
 30
0.0
 11
20.0
 21
198.5
 31
0.0
  0
LINE
  5
106
330
1F
100
AcDbEntity
  8
LINIEN-DÜNN
100
AcDbLine
 10
12.0
 20
148.5
 30
0.0
 11
0.0
 21
148.5
 31
0.0
  0
LINE
  5
107
330
1F
100
AcDbEntity
  8
LINIEN-DÜNN
100
AcDbLine
 10
357.7661698132
 20
39.9353173413
 30
0.0
 11
364.6059427486
 21
41.5697054685
 31
0.0
  0
LINE
  5
108
330
1F
100
AcDbEntity
  8
LINIEN-DÜNN
  6
CENTERX2
100
AcDbLine
 10
348.6240467841
 20
43.1536640226
 30
0.0
 11
356.6108623857
 21
43.1536640226
 31
0.0
  0
LINE
  5
109
330
1F
100
AcDbEntity
  8
LINIEN-DÜNN
  6
CENTERX2
100
AcDbLine
 10
357.1289238876
 20
43.1536640226
 30
0.0
 11
365.6255362296
 21
43.1536640226
 31
0.0
  0
LINE
  5
10A
330
1F
100
AcDbEntity
  8
LINIEN-DÜNN
100
AcDbLine
 10
0.0
 20
0.0
 30
0.0
 11
420.0
 21
0.0
 31
0.0
  0
LINE
  5
10B
330
1F
100
AcDbEntity
  8
LINIEN-DÜNN
100
AcDbLine
 10
0.0
 20
0.0
 30
0.0
 11
0.0
 21
297.0
 31
0.0
  0
LINE
  5
10C
330
1F
100
AcDbEntity
  8
LINIEN-DÜNN
100
AcDbLine
 10
0.0
 20
297.0
 30
0.0
 11
420.0
 21
297.0
 31
0.0
  0
LINE
  5
10D
330
1F
100
AcDbEntity
  8
LINIEN-DÜNN
100
AcDbLine
 10
420.0
 20
0.0
 30
0.0
 11
420.0
 21
297.0
 31
0.0
  0
LINE
  5
10E
330
1F
100
AcDbEntity
  8
LINIEN-NORMAL
100
AcDbLine
 10
228.0
 20
35.0
 30
0.0
 11
410.0
 21
35.0
 31
0.0
  0
LINE
  5
10F
330
1F
100
AcDbEntity
  8
LINIEN-DÜNN
100
AcDbLine
 10
410.0
 20
198.5
 30
0.0
 11
415.0
 21
198.5
 31
0.0
  0
LINE
  5
110
330
1F
100
AcDbEntity
  8
LINIEN-DÜNN
100
AcDbLine
 10
15.0
 20
148.5
 30
0.0
 11
20.0
 21
148.5
 31
0.0
  0
LINE
  5
111
330
1F
100
AcDbEntity
  8
LINIEN-DÜNN
100
AcDbLine
 10
228.0
 20
40.0
 30
0.0
 11
296.6
 21
40.0
 31
0.0
  0
LINE
  5
112
330
1F
100
AcDbEntity
  8
LINIEN-DÜNN
100
AcDbLine
 10
15.0
 20
248.5
 30
0.0
 11
20.0
 21
248.5
 31
0.0
  0
LINE
  5
113
330
1F
100
AcDbEntity
  8
LINIEN-DICK
100
AcDbLine
 10
20.0
 20
287.0
 30
0.0
 11
20.0
 21
10.0
 31
0.0
  0
LINE
  5
114
330
1F
100
AcDbEntity
  8
LINIEN-DICK
100
AcDbLine
 10
410.0
 20
287.0
 30
0.0
 11
20.0
 21
287.0
 31
0.0
  0
LINE
  5
115
330
1F
100
AcDbEntity
  8
LINIEN-DICK
100
AcDbLine
 10
410.0
 20
5.0
 30
0.0
 11
410.0
 21
287.0
 31
0.0
  0
LINE
  5
116
330
1F
100
AcDbEntity
  8
LINIEN-DICK
100
AcDbLine
 10
20.0
 20
10.0
 30
0.0
 11
415.0
 21
10.0
 31
0.0
  0
LINE
  5
117
330
1F
100
AcDbEntity
  8
LINIEN-DÜNN
100
AcDbLine
 10
410.0
 20
148.5
 30
0.0
 11
415.0
 21
148.5
 31
0.0
  0
LINE
  5
118
330
1F
100
AcDbEntity
  8
LINIEN-DÜNN
100
AcDbLine
 10
228.0
 20
50.0
 30
0.0
 11
296.6
 21
50.0
 31
0.0
  0
LINE
  5
119
330
1F
100
AcDbEntity
  8
LINIEN-DÜNN
100
AcDbLine
 10
15.0
 20
98.5
 30
0.0
 11
20.0
 21
98.5
 31
0.0
  0
LINE
  5
11A
330
1F
100
AcDbEntity
  8
LINIEN-DÜNN
100
AcDbLine
 10
296.6
 20
45.0
 30
0.0
 11
228.0
 21
45.0
 31
0.0
  0
LINE
  5
11B
330
1F
100
AcDbEntity
  8
LINIEN-DÜNN
100
AcDbLine
 10
65.0
 20
292.0
 30
0.0
 11
65.0
 21
287.0
 31
0.0
  0
LINE
  5
11C
330
1F
100
AcDbEntity
  8
LINIEN-DÜNN
100
AcDbLine
 10
230.0
 20
292.0
 30
0.0
 11
230.0
 21
297.0
 31
0.0
  0
LINE
  5
11D
330
1F
100
AcDbEntity
  8
LINIEN-NORMAL
100
AcDbLine
 10
296.6
 20
55.0
 30
0.0
 11
296.6
 21
35.0
 31
0.0
  0
LINE
  5
11E
330
1F
100
AcDbEntity
  8
LINIEN-DÜNN
100
AcDbLine
 10
410.0
 20
98.5
 30
0.0
 11
415.0
 21
98.5
 31
0.0
  0
LINE
  5
11F
330
1F
100
AcDbEntity
  8
VORLAGE_BEMASSUNG
100
AcDbLine
 10
230.0
 20
5.0
 30
0.0
 11
230.0
 21
0.0
 31
0.0
  0
LINE
  5
120
330
1F
100
AcDbEntity
  8
LINIEN-DÜNN
100
AcDbLine
 10
125.0
 20
292.0
 30
0.0
 11
125.0
 21
297.0
 31
0.0
  0
LINE
  5
121
330
1F
100
AcDbEntity
  8
LINIEN-DÜNN
100
AcDbLine
 10
125.0
 20
5.0
 30
0.0
 11
125.0
 21
0.0
 31
0.0
  0
LINE
  5
122
330
1F
100
AcDbEntity
  8
LINIEN-NORMAL
100
AcDbLine
 10
410.0
 20
55.0
 30
0.0
 11
228.0
 21
55.0
 31
0.0
  0
LINE
  5
123
330
1F
100
AcDbEntity
  8
LINIEN-DÜNN
100
AcDbLine
 10
228.0
 20
55.0
 30
0.0
 11
410.0
 21
55.0
 31
0.0
  0
LINE
  5
124
330
1F
100
AcDbEntity
  8
LINIEN-DÜNN
100
AcDbLine
 10
410.0
 20
55.0
 30
0.0
 11
228.0
 21
55.0
 31
0.0
  0
LINE
  5
125
330
1F
100
AcDbEntity
  8
LINIEN-DÜNN
100
AcDbLine
 10
268.0
 20
76.5
 30
0.0
 11
268.0
 21
55.0
 31
0.0
  0
LINE
  5
126
330
1F
100
AcDbEntity
  8
LINIEN-DÜNN
100
AcDbLine
 10
271.6
 20
55.0
 30
0.0
 11
271.6
 21
40.0
 31
0.0
  0
LINE
  5
127
330
1F
100
AcDbEntity
  8
LINIEN-DÜNN
100
AcDbLine
 10
247.0
 20
55.0
 30
0.0
 11
247.0
 21
35.0
 31
0.0
  0
LINE
  5
128
330
1F
100
AcDbEntity
  8
LINIEN-DICK
100
AcDbLine
 10
228.0
 20
76.5
 30
0.0
 11
228.0
 21
10.0
 31
0.0
  0
LINE
  5
129
330
1F
100
AcDbEntity
  8
LINIEN-DÜNN
100
AcDbLine
 10
15.0
 20
292.0
 30
0.0
 11
415.0
 21
292.0
 31
0.0
  0
LINE
  5
12A
330
1F
100
AcDbEntity
  8
LINIEN-DÜNN
100
AcDbLine
 10
228.0
 20
65.75
 30
0.0
 11
310.0
 21
65.75
 31
0.0
  0
LINE
  5
12B
330
1F
100
AcDbEntity
  8
LINIEN-DICK
100
AcDbLine
 10
228.0
 20
76.5
 30
0.0
 11
410.0
 21
76.5
 31
0.0
  0
LINE
  5
12C
330
1F
100
AcDbEntity
  8
LINIEN-DÜNN
100
AcDbLine
 10
15.0
 20
48.5
 30
0.0
 11
20.0
 21
48.5
 31
0.0
  0
LINE
  5
12D
330
1F
100
AcDbEntity
  8
LINIEN-DÜNN
100
AcDbLine
 10
410.0
 20
48.5
 30
0.0
 11
415.0
 21
48.5
 31
0.0
  0
LINE
  5
12E
330
1F
100
AcDbEntity
  8
LINIEN-DÜNN
100
AcDbLine
 10
332.6610845472
 20
20.0
 30
0.0
 11
332.6610845472
 21
10.0
 31
0.0
  0
LINE
  5
12F
330
1F
100
AcDbEntity
  8
LINIEN-DÜNN
100
AcDbLine
 10
410.0
 20
248.5
 30
0.0
 11
415.0
 21
248.5
 31
0.0
  0
LINE
  5
130
330
1F
100
AcDbEntity
  8
LINIEN-DÜNN
100
AcDbLine
 10
65.0
 20
10.0
 30
0.0
 11
65.0
 21
5.0
 31
0.0
  0
LINE
  5
131
330
1F
100
AcDbEntity
  8
LINIEN-DÜNN
100
AcDbLine
 10
115.0
 20
10.0
 30
0.0
 11
115.0
 21
5.0
 31
0.0
  0
LINE
  5
132
330
1F
100
AcDbEntity
  8
LINIEN-DÜNN
100
AcDbLine
 10
115.0
 20
292.0
 30
0.0
 11
115.0
 21
287.0
 31
0.0
  0
LINE
  5
133
330
1F
100
AcDbEntity
  8
LINIEN-DÜNN
100
AcDbLine
 10
165.0
 20
10.0
 30
0.0
 11
165.0
 21
5.0
 31
0.0
  0
LINE
  5
134
330
1F
100
AcDbEntity
  8
LINIEN-DÜNN
100
AcDbLine
 10
165.0
 20
292.0
 30
0.0
 11
165.0
 21
287.0
 31
0.0
  0
LINE
  5
135
330
1F
100
AcDbEntity
  8
LINIEN-DÜNN
100
AcDbLine
 10
215.0
 20
10.0
 30
0.0
 11
215.0
 21
5.0
 31
0.0
  0
LINE
  5
136
330
1F
100
AcDbEntity
  8
LINIEN-DÜNN
100
AcDbLine
 10
215.0
 20
292.0
 30
0.0
 11
215.0
 21
287.0
 31
0.0
  0
LINE
  5
137
330
1F
100
AcDbEntity
  8
LINIEN-DÜNN
100
AcDbLine
 10
265.0
 20
10.0
 30
0.0
 11
265.0
 21
5.0
 31
0.0
  0
LINE
  5
138
330
1F
100
AcDbEntity
  8
LINIEN-DÜNN
100
AcDbLine
 10
265.0
 20
292.0
 30
0.0
 11
265.0
 21
287.0
 31
0.0
  0
LINE
  5
139
330
1F
100
AcDbEntity
  8
LINIEN-DÜNN
100
AcDbLine
 10
347.6610845472
 20
20.0
 30
0.0
 11
347.6610845472
 21
10.0
 31
0.0
  0
LINE
  5
13A
330
1F
100
AcDbEntity
  8
LINIEN-DÜNN
100
AcDbLine
 10
362.6610845472
 20
20.0
 30
0.0
 11
362.6610845472
 21
10.0
 31
0.0
  0
LINE
  5
13B
330
1F
100
AcDbEntity
  8
LINIEN-NORMAL
100
AcDbLine
 10
327.6610845472
 20
10.0
 30
0.0
 11
327.6610845472
 21
55.0
 31
0.0
  0
LINE
  5
13C
330
1F
100
AcDbEntity
  8
LINIEN-DÜNN
100
AcDbLine
 10
20.0
 20
292.0
 30
0.0
 11
20.0
 21
297.0
 31
0.0
  0
LINE
  5
13D
330
1F
100
AcDbEntity
  8
LINIEN-DÜNN
100
AcDbLine
 10
20.0
 20
5.0
 30
0.0
 11
20.0
 21
0.0
 31
0.0
  0
LINE
  5
13E
330
1F
100
AcDbEntity
  8
LINIEN-DÜNN
100
AcDbLine
 10
315.0
 20
10.0
 30
0.0
 11
315.0
 21
5.0
 31
0.0
  0
LINE
  5
13F
330
1F
100
AcDbEntity
  8
LINIEN-DÜNN
100
AcDbLine
 10
315.0
 20
292.0
 30
0.0
 11
315.0
 21
287.0
 31
0.0
  0
LINE
  5
140
330
1F
100
AcDbEntity
  8
LINIEN-DÜNN
100
AcDbLine
 10
365.0
 20
10.0
 30
0.0
 11
365.0
 21
5.0
 31
0.0
  0
LINE
  5
141
330
1F
100
AcDbEntity
  8
LINIEN-DÜNN
100
AcDbLine
 10
365.0
 20
292.0
 30
0.0
 11
365.0
 21
287.0
 31
0.0
  0
LINE
  5
142
330
1F
100
AcDbEntity
  8
LINIEN-DÜNN
100
AcDbLine
 10
15.0
 20
292.0
 30
0.0
 11
15.0
 21
5.0
 31
0.0
  0
LINE
  5
143
330
1F
100
AcDbEntity
  8
LINIEN-DÜNN
100
AcDbLine
 10
15.0
 20
5.0
 30
0.0
 11
415.0
 21
5.0
 31
0.0
  0
LINE
  5
144
330
1F
100
AcDbEntity
  8
LINIEN-DÜNN
100
AcDbLine
 10
415.0
 20
292.0
 30
0.0
 11
415.0
 21
5.0
 31
0.0
  0
LINE
  5
145
330
1F
100
AcDbEntity
  8
LINIEN-DÜNN
100
AcDbLine
 10
347.6610845472
 20
44.213444
 30
0.0
 11
327.6610845472
 21
44.213444
 31
0.0
  0
LINE
  5
146
330
1F
100
AcDbEntity
  8
LINIEN-DÜNN
100
AcDbLine
 10
347.6610845472
 20
35.0
 30
0.0
 11
347.6610845472
 21
55.0
 31
0.0
  0
LINE
  5
147
330
1F
100
AcDbEntity
  8
LINIEN-DÜNN
100
AcDbLine
 10
370.057188
 20
55.012032
 30
0.0
 11
370.057188
 21
35.0
 31
0.0
  0
LINE
  5
148
330
1F
100
AcDbEntity
  8
LINIEN-DÜNN
100
AcDbLine
 10
398.0
 20
35.0
 30
0.0
 11
398.0
 21
20.0
 31
0.0
  0
LINE
  5
149
330
1F
100
AcDbEntity
  8
LINIEN-DÜNN
100
AcDbLine
 10
410.0
 20
15.0
 30
0.0
 11
327.6610845472
 21
15.0
 31
0.0
  0
LINE
  5
14A
330
1F
100
AcDbEntity
  8
LINIEN-DÜNN
100
AcDbLine
 10
327.6610845472
 20
20.0
 30
0.0
 11
410.0
 21
20.0
 31
0.0
  0
LINE
  5
14B
330
1F
100
AcDbEntity
  8
LINIEN-DÜNN
100
AcDbLine
 10
341.485486
 20
20.0
 30
0.0
 11
341.485486
 21
27.564675
 31
0.0
  0
LINE
  5
14C
330
1F
100
AcDbEntity
  8
LINIEN-NORMAL
100
AcDbLine
 10
310.0
 20
76.5
 30
0.0
 11
310.0
 21
55.0
 31
0.0
  0
CIRCLE
  5
14D
330
1F
100
AcDbEntity
  8
LINIEN-DÜNN
100
AcDbCircle
 10
11.0
 20
108.5
 30
0.0
 40
2.750000000000001
  0
CIRCLE
  5
14E
330
1F
100
AcDbEntity
  8
LINIEN-DÜNN
100
AcDbCircle
 10
11.0
 20
188.5
 30
0.0
 40
2.750000000000001
  0
CIRCLE
  5
14F
330
1F
100
AcDbEntity
  8
LINIEN-DÜNN
100
AcDbCircle
 10
352.6174545849
 20
43.1536640226
 30
0.0
 40
3.218346681300138
  0
CIRCLE
  5
150
330
1F
100
AcDbEntity
  8
LINIEN-DÜNN
100
AcDbCircle
 10
352.6174545849
 20
43.1536640226
 30
0.0
 40
1.583958554121555
  0
INSERT
  5
151
330
1F
100
AcDbEntity
  8
0
  6
Continuous
 62
     7
100
AcDbBlockReference
  2
ACO-Logo
 10
314.3510726297
 20
57.6366106772
 30
0.0
  0
POINT
  5
152
330
1F
100
AcDbEntity
  8
VORLAGE_BEMASSUNG
100
AcDbPoint
 10
0.0
 20
0.0
 30
0.0
  0
POINT
  5
153
330
1F
100
AcDbEntity
  8
VORLAGE_BEMASSUNG
100
AcDbPoint
 10
410.0
 20
10.0
 30
0.0
  0
MTEXT
  5
154
330
1F
100
AcDbEntity
  8
VORLAGE_TEXT
100
AcDbMText
 10
17.7046943114
 20
124.8017866468
 30
0.0
 40
2.0
 41
0.0
 71
     2
 72
     1
  1
D
  7
SLDTEXTSTYLE0
 73
     1
 44
1.0
  0
MTEXT
  5
155
330
1F
100
AcDbEntity
  8
VORLAGE_TEXT
100
AcDbMText
 10
17.5962322413
 20
174.7261854936
 30
0.0
 40
2.0
 41
0.0
 71
     2
 72
     1
  1
C
  7
SLDTEXTSTYLE0
 73
     1
 44
1.0
  0
MTEXT
  5
156
330
1F
100
AcDbEntity
  8
VORLAGE_TEXT
100
AcDbMText
 10
17.5516905072
 20
224.4926420442
 30
0.0
 40
2.0
 41
0.0
 71
     2
 72
     1
  1
B
  7
SLDTEXTSTYLE0
 73
     1
 44
1.0
  0
MTEXT
  5
157
330
1F
100
AcDbEntity
  8
VORLAGE_TEXT
100
AcDbMText
 10
290.0344258799
 20
290.5428789914
 30
0.0
 40
2.0
 41
0.0
 71
     2
 72
     1
  1
6
  7
SLDTEXTSTYLE0
 73
     1
 44
1.0
  0
MTEXT
  5
158
330
1F
100
AcDbEntity
  8
VORLAGE_TEXT
100
AcDbMText
 10
240.0417859812
 20
290.6369260235
 30
0.0
 40
2.0
 41
0.0
 71
     2
 72
     1
  1
5
  7
SLDTEXTSTYLE0
 73
     1
 44
1.0
  0
MTEXT
  5
159
330
1F
100
AcDbEntity
  8
VORLAGE_TEXT
100
AcDbMText
 10
190.0300404524
 20
290.6343268032
 30
0.0
 40
2.0
 41
0.0
 71
     2
 72
     1
  1
4
  7
SLDTEXTSTYLE0
 73
     1
 44
1.0
  0
MTEXT
  5
15A
330
1F
100
AcDbEntity
  8
VORLAGE_TEXT
100
AcDbMText
 10
140.0165868337
 20
290.6378887952
 30
0.0
 40
2.0
 41
0.0
 71
     2
 72
     1
  1
3
  7
SLDTEXTSTYLE0
 73
     1
 44
1.0
  0
MTEXT
  5
15B
330
1F
100
AcDbEntity
  8
VORLAGE_TEXT
100
AcDbMText
 10
90.033223
 20
290.5566702875
 30
0.0
 40
2.0
 41
0.0
 71
     2
 72
     1
  1
2
  7
SLDTEXTSTYLE0
 73
     1
 44
1.0
  0
MTEXT
  5
15C
330
1F
100
AcDbEntity
  8
VORLAGE_TEXT
100
AcDbMText
 10
40.0509551097
 20
290.5530165805
 30
0.0
 40
2.0
 41
0.0
 71
     2
 72
     1
  1
1
  7
SLDTEXTSTYLE0
 73
     1
 44
1.0
  0
MTEXT
  5
15D
330
1F
100
AcDbEntity
  8
VORLAGE_TEXT
100
AcDbMText
 10
17.5609786315
 20
271.2966048816
 30
0.0
 40
2.0
 41
0.0
 71
     2
 72
     1
  1
A
  7
SLDTEXTSTYLE0
 73
     1
 44
1.0
  0
MTEXT
  5
15E
330
1F
100
AcDbEntity
  8
VORLAGE_TEXT
100
AcDbMText
 10
89.9333968896
 20
8.5904490253
 30
0.0
 40
2.0
 41
0.0
 71
     2
 72
     1
  1
2
  7
SLDTEXTSTYLE0
 73
     1
 44
1.0
  0
MTEXT
  5
15F
330
1F
100
AcDbEntity
  8
VORLAGE_TEXT
100
AcDbMText
 10
39.9009486579
 20
8.6623118453
 30
0.0
 40
2.0
 41
0.0
 71
     2
 72
     1
  1
1
  7
SLDTEXTSTYLE0
 73
     1
 44
1.0
  0
MTEXT
  5
160
330
1F
100
AcDbEntity
  8
VORLAGE_TEXT
100
AcDbMText
 10
190.0227230239
 20
8.7073169286
 30
0.0
 40
2.0
 41
0.0
 71
     2
 72
     1
  1
4
  7
SLDTEXTSTYLE0
 73
     1
 44
1.0
  0
MTEXT
  5
161
330
1F
100
AcDbEntity
  8
VORLAGE_TEXT
100
AcDbMText
 10
140.0453427777
 20
8.5647154541
 30
0.0
 40
2.0
 41
0.0
 71
     2
 72
     1
  1
3
  7
SLDTEXTSTYLE0
 73
     1
 44
1.0
  0
MTEXT
  5
162
330
1F
100
AcDbEntity
  8
VORLAGE_TEXT
100
AcDbMText
 10
239.8749782531
 20
8.5637526825
 30
0.0
 40
2.0
 41
0.0
 71
     2
 72
     1
  1
5
  7
SLDTEXTSTYLE0
 73
     1
 44
1.0
  0
MTEXT
  5
163
330
1F
100
AcDbEntity
  8
VORLAGE_TEXT
100
AcDbMText
 10
412.6717254925
 20
224.51208263
 30
0.0
 40
2.0
 41
0.0
 71
     2
 72
     1
  1
B
  7
SLDTEXTSTYLE0
 73
     1
 44
1.0
  0
MTEXT
  5
164
330
1F
100
AcDbEntity
  8
VORLAGE_TEXT
100
AcDbMText
 10
412.5951211154
 20
271.2798202564
 30
0.0
 40
2.0
 41
0.0
 71
     2
 72
     1
  1
A
  7
SLDTEXTSTYLE0
 73
     1
 44
1.0
  0
MTEXT
  5
165
330
1F
100
AcDbEntity
  8
VORLAGE_TEXT
100
AcDbMText
 10
412.6178948679
 20
174.7279841048
 30
0.0
 40
2.0
 41
0.0
 71
     2
 72
     1
  1
C
  7
SLDTEXTSTYLE0
 73
     1
 44
1.0
  0
MTEXT
  5
166
330
1F
100
AcDbEntity
  8
VORLAGE_TEXT
100
AcDbMText
 10
340.0216466634
 20
290.5954278102
 30
0.0
 40
2.0
 41
0.0
 71
     2
 72
     1
  1
7
  7
SLDTEXTSTYLE0
 73
     1
 44
1.0
  0
MTEXT
  5
167
330
1F
100
AcDbEntity
  8
VORLAGE_TEXT
100
AcDbMText
 10
390.037657264
 20
290.6215496941
 30
0.0
 40
2.0
 41
0.0
 71
     2
 72
     1
  1
8
  7
SLDTEXTSTYLE0
 73
     1
 44
1.0
  0
MTEXT
  5
168
330
1F
100
AcDbEntity
  8
VORLAGE_TEXT
100
AcDbMText
 10
17.6897935208
 20
74.7267628143
 30
0.0
 40
2.0
 41
0.0
 71
     2
 72
     1
  1
E
  7
SLDTEXTSTYLE0
 73
     1
 44
1.0
  0
MTEXT
  5
169
330
1F
100
AcDbEntity
  8
VORLAGE_TEXT
100
AcDbMText
 10
17.5624430126
 20
27.773321616
 30
0.0
 40
2.0
 41
0.0
 71
     2
 72
     1
  1
F
  7
SLDTEXTSTYLE0
 73
     1
 44
1.0
  0
MTEXT
  5
16A
330
1F
100
AcDbEntity
  8
VORLAGE_TEXT
100
AcDbMText
 10
339.8003474583
 20
8.7205095051
 30
0.0
 40
2.0
 41
0.0
 71
     2
 72
     1
  1
7
  7
SLDTEXTSTYLE0
 73
     1
 44
1.0
  0
MTEXT
  5
16B
330
1F
100
AcDbEntity
  8
VORLAGE_TEXT
100
AcDbMText
 10
289.7886477179
 20
8.6884673623
 30
0.0
 40
2.0
 41
0.0
 71
     2
 72
     1
  1
6
  7
SLDTEXTSTYLE0
 73
     1
 44
1.0
  0
MTEXT
  5
16C
330
1F
100
AcDbEntity
  8
VORLAGE_TEXT
100
AcDbMText
 10
412.5160699095
 20
74.5096307526
 30
0.0
 40
2.0
 41
0.0
 71
     2
 72
     1
  1
E
  7
SLDTEXTSTYLE0
 73
     1
 44
1.0
  0
MTEXT
  5
16D
330
1F
100
AcDbEntity
  8
VORLAGE_TEXT
100
AcDbMText
 10
412.5921521365
 20
124.4517683275
 30
0.0
 40
2.0
 41
0.0
 71
     2
 72
     1
  1
D
  7
SLDTEXTSTYLE0
 73
     1
 44
1.0
  0
MTEXT
  5
16E
330
1F
100
AcDbEntity
  8
TEXT-DEUTSCH
100
AcDbMText
 10
411.7952690469
 20
41.6692265718
 30
0.0
 40
1.8
 41
0.0
 71
     3
 72
     1
  1
Plotdatum: 26.04.2023
  7
SLDTEXTSTYLE0
 11
-3.269436733918102E-15
 21
1.0
 31
0.0
 73
     1
 44
1.0
  0
MTEXT
  5
16F
330
1F
100
AcDbEntity
  8
VORLAGE_TEXT
100
AcDbMText
 10
412.557933251
 20
8.2549718046
 30
0.0
 40
1.8
 41
0.0
 71
     2
 72
     1
  1
A3
  7
SLDTEXTSTYLE0
 73
     1
 44
1.0
  0
MTEXT
  5
170
330
1F
100
AcDbEntity
  8
VORLAGE_TEXT
100
AcDbMText
 10
390.369604279
 20
8.3847467643
 30
0.0
 40
1.8
 41
0.0
 71
     2
 72
     1
  1
CAD-System: SolidWorks
  7
SLDTEXTSTYLE0
 73
     1
 44
1.0
  0
MTEXT
  5
171
330
1F
100
AcDbEntity
  8
TEXT
100
AcDbMText
 10
403.9986368527
 20
28.4394692021
 30
0.0
 40
5.0
 41
0.0
 71
     2
 72
     1
  1
A
  7
SLDTEXTSTYLE0
 73
     1
 44
1.0
  0
MTEXT
  5
172
330
1F
100
AcDbEntity
  8
TEXT
100
AcDbMText
 10
249.556836311
 20
38.5581729516
 30
0.0
 40
2.0
 41
0.0
 71
     1
 72
     1
  1
Freigegeben
  7
SLDTEXTSTYLE0
 73
     1
 44
1.0
  0
MTEXT
  5
173
330
1F
100
AcDbEntity
  8
TEXT
100
AcDbMText
 10
284.1032088477
 20
43.5473338598
 30
0.0
 40
2.0
 41
0.0
 71
     2
 72
     1
  1
AB
  7
SLDTEXTSTYLE0
 73
     1
 44
1.0
  0
MTEXT
  5
174
330
1F
100
AcDbEntity
  8
TEXT
100
AcDbMText
 10
249.5284668163
 20
43.5603133928
 30
0.0
 40
2.0
 41
0.0
 71
     1
 72
     1
  1
26.04.2023
  7
SLDTEXTSTYLE0
 73
     1
 44
1.0
  0
MTEXT
  5
175
330
1F
100
AcDbEntity
  8
TEXT
100
AcDbMText
 10
284.1309088133
 20
48.5138972561
 30
0.0
 40
2.0
 41
0.0
 71
     2
 72
     1
  1
AB
  7
SLDTEXTSTYLE0
 73
     1
 44
1.0
  0
MTEXT
  5
176
330
1F
100
AcDbEntity
  8
TEXT
100
AcDbMText
 10
249.5284668163
 20
48.4989062069
 30
0.0
 40
2.0
 41
0.0
 71
     1
 72
     1
  1
25.01.2021
  7
SLDTEXTSTYLE0
 73
     1
 44
1.0
  0
MTEXT
  5
177
330
1F
100
AcDbEntity
  8
0
  6
Continuous
 62
     7
370
     0
100
AcDbMText
 10
372.2007348103
 20
38.8723054925
 30
0.0
 40
1.5
 41
0.0
 71
     1
 72
     1
  1
Copyright reserved! © ACO AG
  7
SLDTEXTSTYLE0
 73
     1
 44
1.0
  0
INSERT
  5
180
330
1F
100
AcDbEntity
  8
0
  6
Continuous
 62
     7
370
     0
100
AcDbBlockReference
  2
SW_NOTE_0_3
 10
372.2203831445
 20
51.2202922854
 30
0.0
  0
MTEXT
  5
181
330
1F
100
AcDbEntity
  8
TEXT
100
AcDbMText
 10
364.9468572407
 20
13.5417229519
 30
0.0
 40
2.0
 41
0.0
 71
     1
 72
     1
  1
Erstausgabe
  7
SLDTEXTSTYLE0
 73
     1
 44
1.0
  0
MTEXT
  5
182
330
1F
100
AcDbEntity
  8
TEXT
100
AcDbMText
 10
330.2295005021
 20
13.524501801
 30
0.0
 40
2.0
 41
0.0
 71
     2
 72
     1
  1
-
  7
SLDTEXTSTYLE0
 73
     1
 44
1.0
  0
MTEXT
  5
183
330
1F
100
AcDbEntity
  8
TEXT
100
AcDbMText
 10
364.9468572407
 20
18.4594173137
 30
0.0
 40
2.0
 41
0.0
 71
     1
 72
     1
  1
SAP-Nr.
  7
SLDTEXTSTYLE0
 73
     1
 44
1.0
  0
MTEXT
  5
184
330
1F
100
AcDbEntity
  8
TEXT
100
AcDbMText
 10
354.2334651348
 20
18.5245664709
 30
0.0
 40
2.0
 41
0.0
 71
     2
 72
     1
  1
AB
  7
SLDTEXTSTYLE0
 73
     1
 44
1.0
  0
MTEXT
  5
185
330
1F
100
AcDbEntity
  8
TEXT
100
AcDbMText
 10
340.2674514286
 20
18.5245664709
 30
0.0
 40
2.0
 41
0.0
 71
     2
 72
     1
  1
26.04.2023
  7
SLDTEXTSTYLE0
 73
     1
 44
1.0
  0
MTEXT
  5
186
330
1F
100
AcDbEntity
  8
TEXT
100
AcDbMText
 10
330.227417144
 20
18.524501801
 30
0.0
 40
2.0
 41
0.0
 71
     2
 72
     1
  1
A
  7
SLDTEXTSTYLE0
 73
     1
 44
1.0
  0
MTEXT
  5
187
330
1F
100
AcDbEntity
  8
VORLAGE_TEXT
100
AcDbMText
 10
311.764909851
 20
46.3490312465
 30
0.0
 40
5.0
 41
0.0
 71
     2
 72
     1
  1
1:1
  7
SLDTEXTSTYLE0
 73
     1
 44
1.0
  0
MTEXT
  5
188
330
1F
100
AcDbEntity
  8
VORLAGE_TEXT
100
AcDbMText
 10
230.1851195342
 20
38.7793829468
 30
0.0
 40
2.0
 41
0.0
 71
     1
 72
     1
  1
Status:
  7
SLDTEXTSTYLE0
 73
     1
 44
1.0
  0
MTEXT
  5
189
330
1F
100
AcDbEntity
  8
TEXT
100
AcDbMText
 10
344.926838705
 20
28.2772828851
 30
0.0
 40
5.0
 41
0.0
 71
     1
 72
     1
  1
97217
  7
SLDTEXTSTYLE0
 73
     1
 44
1.0
  0
MTEXT
  5
18A
330
1F
100
AcDbEntity
  8
TEXT
100
AcDbMText
 10
231.1132118803
 20
14.9211049657
 30
0.0
 40
2.5
 41
0.0
 71
     1
 72
     1
  1
Art. Nr.: 2021371
  7
SLDTEXTSTYLE0
 73
     1
 44
1.0
  0
MTEXT
  5
18B
330
1F
100
AcDbEntity
  8
TEXT
100
AcDbMText
 10
231.1159560181
 20
33.0904969858
 30
0.0
 40
2.5
 41
0.0
 71
     1
 72
     1
  1
Haustechnik
  7
SLDTEXTSTYLE0
 73
     1
 44
1.0
  0
MTEXT
  5
18C
330
1F
100
AcDbEntity
  8
TEXT
100
AcDbMText
 10
231.1475981734
 20
28.0307932366
 30
0.0
 40
3.5
 41
0.0
 71
     1
 72
     1
  1
Geruchsverschluss zu EG150
  7
SLDTEXTSTYLE0
 73
     1
 44
1.0
  0
MTEXT
  5
18D
330
1F
100
AcDbEntity
  8
VORLAGE_TEXT
100
AcDbMText
 10
348.2746465368
 20
53.819119072
 30
0.0
 40
2.0
 41
0.0
 71
     1
 72
     1
  1
Projektion: ISO-E
  7
SLDTEXTSTYLE0
 73
     1
 44
1.0
  0
MTEXT
  5
18E
330
1F
100
AcDbEntity
  8
TEXT
100
AcDbMText
 10
337.5723966855
 20
49.3670227094
 30
0.0
 40
2.5
 41
0.0
 71
     2
 72
     1
  1
Millimeter
  7
SLDTEXTSTYLE0
 73
     1
 44
1.0
  0
MTEXT
  5
18F
330
1F
100
AcDbEntity
  8
VORLAGE_TEXT
100
AcDbMText
 10
337.5698777421
 20
53.855374072
 30
0.0
 40
2.0
 41
0.0
 71
     2
 72
     1
  1
Masseinheit:
  7
SLDTEXTSTYLE0
 73
     1
 44
1.0
  0
MTEXT
  5
190
330
1F
100
AcDbEntity
  8
VORLAGE_TEXT
100
AcDbMText
 10
337.5801990186
 20
43.5452078816
 30
0.0
 40
2.0
 41
0.0
 71
     2
 72
     1
  1
Blatt / Anz.:
  7
SLDTEXTSTYLE0
 73
     1
 44
1.0
  0
MTEXT
  5
191
330
1F
100
AcDbEntity
  8
VORLAGE_TEXT
100
AcDbMText
 10
329.2895578243
 20
28.4139191092
 30
0.0
 40
5.0
 41
0.0
 71
     1
 72
     1
  1
CH
  7
SLDTEXTSTYLE0
 73
     1
 44
1.0
  0
MTEXT
  5
192
330
1F
100
AcDbEntity
  8
VORLAGE_TEXT
100
AcDbMText
 10
330.40704
 20
33.692638072
 30
0.0
 40
2.0
 41
0.0
 71
     1
 72
     1
  1
Zeichnung Nr.:
  7
SLDTEXTSTYLE0
 73
     1
 44
1.0
  0
MTEXT
  5
193
330
1F
100
AcDbEntity
  8
VORLAGE_TEXT
100
AcDbMText
 10
269.897953
 20
75.161075072
 30
0.0
 40
2.0
 41
0.0
 71
     1
 72
     1
  1
Gewicht:
  7
SLDTEXTSTYLE0
 73
     1
 44
1.0
  0
MTEXT
  5
194
330
1F
100
AcDbEntity
  8
VORLAGE_TEXT
100
AcDbMText
 10
230.0
 20
64.542328072
 30
0.0
 40
2.0
 41
0.0
 71
     1
 72
     1
  1
zul. Abweichung:
  7
SLDTEXTSTYLE0
 73
     1
 44
1.0
  0
MTEXT
  5
195
330
1F
100
AcDbEntity
  8
VORLAGE_TEXT
100
AcDbMText
 10
269.612607
 20
64.542328072
 30
0.0
 40
2.0
 41
0.0
 71
     1
 72
     1
  1
Oberfläche:
  7
SLDTEXTSTYLE0
 73
     1
 44
1.0
  0
MTEXT
  5
196
330
1F
100
AcDbEntity
  8
VORLAGE_TEXT
100
AcDbMText
 10
230.261411
 20
43.4433838912
 30
0.0
 40
2.0
 41
0.0
 71
     1
 72
     1
  1
Freigegeben:
  7
SLDTEXTSTYLE0
 73
     1
 44
1.0
  0
MTEXT
  5
197
330
1F
100
AcDbEntity
  8
VORLAGE_TEXT
100
AcDbMText
 10
230.0
 20
75.161075072
 30
0.0
 40
2.0
 41
0.0
 71
     1
 72
     1
  1
Werkstoff:
  7
SLDTEXTSTYLE0
 73
     1
 44
1.0
  0
MTEXT
  5
198
330
1F
100
AcDbEntity
  8
VORLAGE_TEXT
100
AcDbMText
 10
254.035545
 20
53.129475072
 30
0.0
 40
2.0
 41
0.0
 71
     1
 72
     1
  1
Datum:
  7
SLDTEXTSTYLE0
 73
     1
 44
1.0
  0
MTEXT
  5
199
330
1F
100
AcDbEntity
  8
VORLAGE_TEXT
100
AcDbMText
 10
279.934928
 20
53.136060072
 30
0.0
 40
2.0
 41
0.0
 71
     1
 72
     1
  1
Name:
  7
SLDTEXTSTYLE0
 73
     1
 44
1.0
  0
MTEXT
  5
19A
330
1F
100
AcDbEntity
  8
VORLAGE_TEXT
100
AcDbMText
 10
312.068705406
 20
53.881591072
 30
0.0
 40
2.0
 41
0.0
 71
     2
 72
     1
  1
Massstab:
  7
SLDTEXTSTYLE0
 73
     1
 44
1.0
  0
MTEXT
  5
19B
330
1F
100
AcDbEntity
  8
VORLAGE_TEXT
100
AcDbMText
 10
403.9552944035
 20
33.324874072
 30
0.0
 40
2.0
 41
0.0
 71
     2
 72
     1
  1
Index:
  7
SLDTEXTSTYLE0
 73
     1
 44
1.0
  0
MTEXT
  5
19C
330
1F
100
AcDbEntity
  8
VORLAGE_TEXT
100
AcDbMText
 10
230.261411
 20
48.4499477886
 30
0.0
 40
2.0
 41
0.0
 71
     1
 72
     1
  1
Erstellt:
  7
SLDTEXTSTYLE0
 73
     1
 44
1.0
  0
MTEXT
  5
19E
330
1F
100
AcDbEntity
  8
VORLAGE_TEXT
100
AcDbMText
 10
337.6348165843
 20
39.869706576
 30
0.0
 40
2.5
 41
0.0
 71
     2
 72
     1
  1
1 / 1
  7
SLDTEXTSTYLE1
 73
     1
 44
1.0
  0
MTEXT
  5
19F
330
1F
100
AcDbEntity
  8
TEXT
100
AcDbMText
 10
269.612607
 20
60.8119428599
 30
0.0
 40
3.0
 41
0.0
 71
     1
 72
     1
  1
DIN ISO 1302
  7
SLDTEXTSTYLE0
 73
     1
 44
1.0
  0
MTEXT
  5
1A0
330
1F
100
AcDbEntity
  8
TEXT
100
AcDbMText
 10
230.0
 20
60.8119428599
 30
0.0
 40
3.0
 41
0.0
 71
     1
 72
     1
  1
Norm
  7
SLDTEXTSTYLE0
 73
     1
 44
1.0
  0
MTEXT
  5
1A1
330
1F
100
AcDbEntity
  8
TEXT
100
AcDbMText
 10
269.612607
 20
71.2121947186
 30
0.0
 40
3.0
 41
0.0
 71
     1
 72
     1
  1
0.39 kg
  7
SLDTEXTSTYLE0
 73
     1
 44
1.0
  0
MTEXT
  5
1A2
330
1F
100
AcDbEntity
  8
TEXT
100
AcDbMText
 10
230.0
 20
71.2121947186
 30
0.0
 40
3.0
 41
0.0
 71
     1
 72
     1
  1
1.4301 / TPE
  7
SLDTEXTSTYLE0
 73
     1
 44
1.0
  0
CIRCLE
  5
1A3
330
1F
100
AcDbEntity
  8
0
  6
Continuous
 62
     7
370
    25
100
AcDbCircle
 10
139.958609341
 20
78.65274047
 30
0.0
 40
54.00000000000014
  0
LINE
  5
1A4
330
1F
100
AcDbEntity
  8
0
  6
Continuous
 62
     7
370
    25
100
AcDbLine
 10
142.458609341
 20
42.35274047
 30
0.0
 11
142.458609341
 21
122.3312534941
 31
0.0
  0
LINE
  5
1A5
330
1F
100
AcDbEntity
  8
0
  6
Continuous
 62
     7
370
    25
100
AcDbLine
 10
137.458609341
 20
122.3312534941
 30
0.0
 11
137.458609341
 21
42.35274047
 31
0.0
  0
CIRCLE
  5
1A6
330
1F
100
AcDbEntity
  8
0
  6
Continuous
 62
     7
370
    25
100
AcDbCircle
 10
139.958609341
 20
78.65274047
 30
0.0
 40
49.75000000000014
  0
CIRCLE
  5
1A7
330
1F
100
AcDbEntity
  8
0
  6
Continuous
 62
     7
370
    25
100
AcDbCircle
 10
139.958609341
 20
78.65274047
 30
0.0
 40
46.00000000000013
  0
LINE
  5
1A8
330
1F
100
AcDbEntity
  8
0
  6
Continuous
 62
     7
370
    25
100
AcDbLine
 10
142.0496617076
 20
122.35274047
 30
0.0
 11
137.8675569744
 21
122.35274047
 31
0.0
  0
LINE
  5
1A9
330
1F
100
AcDbEntity
  8
0
  6
Continuous
 62
     7
370
    25
100
AcDbLine
 10
137.458609341
 20
42.35274047
 30
0.0
 11
142.458609341
 21
42.35274047
 31
0.0
  0
ARC
  5
1AA
330
1F
100
AcDbEntity
  8
0
  6
Continuous
 62
     7
370
    25
100
AcDbCircle
 10
136.1801727948
 20
117.4692758289
 30
0.0
 40
4.750000000000004
100
AcDbArc
 50
95.5597071084
 51
122.5993414365
  0
ARC
  5
1AB
330
1F
100
AcDbEntity
  8
0
  6
Continuous
 62
     7
370
    25
100
AcDbCircle
 10
143.7370458872
 20
117.4692758289
 30
0.0
 40
4.750000000000015
100
AcDbArc
 50
57.4006585635
 51
84.4402928909
  0
ARC
  5
1AC
330
1F
100
AcDbEntity
  8
0
  6
Continuous
 62
     7
370
    25
100
AcDbCircle
 10
139.958609341
 20
78.65274047
 30
0.0
 40
43.75000000000001
100
AcDbArc
 50
84.4402928916
 51
95.5597071084
  0
ARC
  5
1AD
330
1F
100
AcDbEntity
  8
0
  6
Continuous
 62
     7
370
    25
100
AcDbCircle
 10
136.1801727948
 20
117.4692758289
 30
0.0
 40
4.749999999999384
100
AcDbArc
 50
122.5993414365
 51
150.0
  0
ARC
  5
1AE
330
1F
100
AcDbEntity
  8
0
  6
Continuous
 62
     7
370
    25
100
AcDbCircle
 10
143.7370458872
 20
117.4692758289
 30
0.0
 40
4.750000000000458
100
AcDbArc
 50
30.0
 51
57.4006585635
  0
LINE
  5
1AF
330
1F
100
AcDbEntity
  8
0
  6
Continuous
 62
     7
370
    25
100
AcDbLine
 10
126.0344945346
 20
109.3964456049
 30
0.0
 11
132.0665521268
 21
119.8442758289
 31
0.0
  0
LINE
  5
1B0
330
1F
100
AcDbEntity
  8
0
  6
Continuous
 62
     7
370
    25
100
AcDbLine
 10
147.8506665551
 20
119.8442758289
 30
0.0
 11
153.8827241474
 21
109.3964456049
 31
0.0
  0
ARC
  5
1B1
330
1F
100
AcDbEntity
  8
0
  6
Continuous
 62
     7
370
    25
100
AcDbCircle
 10
159.2953829211
 20
112.5214456049
 30
0.0
 40
6.249999999999542
100
AcDbArc
 50
210.0
 51
240.2765125913
  0
ARC
  5
1B2
330
1F
100
AcDbEntity
  8
0
  6
Continuous
 62
     7
370
    25
100
AcDbCircle
 10
120.6218357609
 20
112.5214456049
 30
0.0
 40
6.250000000000128
100
AcDbArc
 50
299.7234874087
 51
330.0
  0
ARC
  5
1B3
330
1F
100
AcDbEntity
  8
0
  6
Continuous
 62
     7
370
    25
100
AcDbCircle
 10
139.958609341
 20
78.65274047
 30
0.0
 40
32.75000000000001
100
AcDbArc
 50
274.37798254
 51
60.2765125913
  0
ARC
  5
1B4
330
1F
100
AcDbEntity
  8
0
  6
Continuous
 62
     7
370
    25
100
AcDbCircle
 10
139.958609341
 20
78.65274047
 30
0.0
 40
32.75
100
AcDbArc
 50
119.7234874087
 51
265.62201746
  0
ARC
  5
1B5
330
1F
100
AcDbEntity
  8
0
  6
Continuous
 62
     7
370
    25
100
AcDbCircle
 10
94.9887768945
 20
11.5659804981
 30
0.0
 40
113.4546106046441
100
AcDbArc
 50
57.3509906076
 51
60.7337357336
  0
ARC
  5
1B6
330
1F
100
AcDbEntity
  8
0
  6
Continuous
 62
     7
370
    25
100
AcDbCircle
 10
139.958609341
 20
78.65274047
 30
0.0
 40
32.74999999999843
100
AcDbArc
 50
108.5737084116
 51
119.7234874087
  0
ARC
  5
1B7
330
1F
100
AcDbEntity
  8
0
  6
Continuous
 62
     7
370
    25
100
AcDbCircle
 10
140.0374950923
 20
78.843544169
 30
0.0
 40
32.54401035181947
100
AcDbArc
 50
60.6687660567
 51
71.4509418182
  0
ARC
  5
1B8
330
1F
100
AcDbEntity
  8
0
  6
Continuous
 62
     7
370
    25
100
AcDbCircle
 10
139.958609341
 20
78.65274047
 30
0.0
 40
32.75
100
AcDbArc
 50
94.37798254
 51
106.6051701957
  0
ARC
  5
1B9
330
1F
100
AcDbEntity
  8
0
  6
Continuous
 62
     7
370
    25
100
AcDbCircle
 10
139.958609341
 20
78.65274047
 30
0.0
 40
32.75
100
AcDbArc
 50
73.3948298044
 51
85.62201746
  0
LINE
  5
1BA
330
1F
100
AcDbEntity
  8
0
  6
Continuous
 62
     7
370
    25
100
AcDbLine
 10
150.3902824162
 20
109.6969459978
 30
0.0
 11
149.3177354274
 21
110.0369603726
 31
0.0
  0
LINE
  5
1BB
330
1F
100
AcDbEntity
  8
0
  6
Continuous
 62
     7
370
    25
100
AcDbLine
 10
130.5994832545
 20
110.0369603726
 30
0.0
 11
129.5269362658
 21
109.6969459978
 31
0.0
  0
CIRCLE
  5
1BC
330
1F
100
AcDbEntity
  8
0
  6
Continuous
 62
     8
370
    18
100
AcDbCircle
 10
139.958609341
 20
78.65274047
 30
0.0
 40
52.34661478305749
  0
CIRCLE
  5
1BD
330
1F
100
AcDbEntity
  8
0
  6
Continuous
 62
     8
370
    18
100
AcDbCircle
 10
139.958609341
 20
78.65274047
 30
0.0
 40
53.19597047432303
  0
CIRCLE
  5
1BE
330
1F
100
AcDbEntity
  8
0
  6
Continuous
 62
     8
370
    18
100
AcDbCircle
 10
139.958609341
 20
78.65274047
 30
0.0
 40
53.54395571148452
  0
ARC
  5
1BF
330
1F
100
AcDbEntity
  8
0
  6
Continuous
 62
     8
370
    18
100
AcDbCircle
 10
139.905021939
 20
78.6148788964
 30
0.0
 40
29.94007821446344
100
AcDbArc
 50
191.1764280653
 51
265.3131197196
  0
ARC
  5
1C0
330
1F
100
AcDbEntity
  8
0
  6
Continuous
 62
     8
370
    18
100
AcDbCircle
 10
139.9709574071
 20
78.660469047
 30
0.0
 40
29.99057272236445
100
AcDbArc
 50
274.7580254905
 51
85.2419745095
  0
LWPOLYLINE
  5
1C1
330
1F
100
AcDbEntity
  8
0
  6
Continuous
 62
     8
370
    18
100
AcDbPolyline
 90
        3
 70
   128
 43
0.0
 10
137.458609341
 20
108.5251665423
 10
136.8076567342
 20
108.4868811439
 10
134.1174395891
 20
108.0785919603
  0
ARC
  5
1C2
330
1F
100
AcDbEntity
  8
0
  6
Continuous
 62
     8
370
    18
100
AcDbCircle
 10
139.958253395
 20
78.6529785074
 30
0.0
 40
29.99969721501762
100
AcDbArc
 50
101.2269512072
 51
191.2281077781
  0
ARC
  5
1C3
330
1F
100
AcDbEntity
  8
0
  6
Continuous
 62
     8
370
    18
100
AcDbCircle
 10
139.958609341
 20
78.65274047
 30
0.0
 40
10.57375804457691
100
AcDbArc
 50
103.6761900584
 51
191.2275294926
  0
ARC
  5
1C4
330
1F
100
AcDbEntity
  8
0
  6
Continuous
 62
     8
370
    18
100
AcDbCircle
 10
139.958609341
 20
78.65274047
 30
0.0
 40
10.5737580445769
100
AcDbArc
 50
283.6761900584
 51
76.3238099416
  0
ARC
  5
1C5
330
1F
100
AcDbEntity
  8
0
  6
Continuous
 62
     8
370
    18
100
AcDbCircle
 10
139.958609341
 20
78.65274047
 30
0.0
 40
10.57375804457691
100
AcDbArc
 50
191.2275294926
 51
256.3238099416
  0
ARC
  5
1C6
330
1F
100
AcDbEntity
  8
0
  6
Continuous
 62
     8
370
    18
100
AcDbCircle
 10
139.958609341
 20
78.65274047
 30
0.0
 40
10.81364471217325
100
AcDbArc
 50
103.3671066262
 51
256.6328933738
  0
ARC
  5
1C7
330
1F
100
AcDbEntity
  8
0
  6
Continuous
 62
     8
370
    18
100
AcDbCircle
 10
139.958609341
 20
78.65274047
 30
0.0
 40
10.81364471217325
100
AcDbArc
 50
283.3671066262
 51
76.6328933738
  0
ARC
  5
1C8
330
1F
100
AcDbEntity
  8
0
  6
Continuous
 62
     8
370
    18
100
AcDbCircle
 10
139.9583247311
 20
78.6529308017
 30
0.0
 40
20.76161563625354
100
AcDbArc
 50
101.226861358
 51
191.2281976272
  0
LINE
  5
1C9
330
1F
100
AcDbEntity
  8
0
  6
Continuous
 62
     8
370
    18
100
AcDbLine
 10
135.9161581604
 20
99.0172518865
 30
0.0
 11
137.458609341
 21
99.2513393193
 31
0.0
  0
ARC
  5
1CA
330
1F
100
AcDbEntity
  8
0
  6
Continuous
 62
     8
370
    18
100
AcDbCircle
 10
139.9854469688
 20
78.6464782916
 30
0.0
 40
20.74092553663495
100
AcDbArc
 50
276.8482829585
 51
83.1517170415
  0
ARC
  5
1CB
330
1F
100
AcDbEntity
  8
0
  6
Continuous
 62
     8
370
    18
100
AcDbCircle
 10
139.8886624229
 20
78.6064877357
 30
0.0
 40
20.68426818147076
100
AcDbArc
 50
191.1395856332
 51
263.2531295545
  0
LINE
  5
1CC
330
1F
100
AcDbEntity
  8
0
  6
Continuous
 62
     8
370
    18
100
AcDbLine
 10
133.6210575616
 20
121.4709541296
 30
0.0
 11
132.0268870723
 21
123.9637521763
 31
0.0
  0
LWPOLYLINE
  5
1CD
330
1F
100
AcDbEntity
  8
0
  6
Continuous
 62
     8
370
    18
100
AcDbPolyline
 90
        3
 70
   128
 43
0.0
 10
132.3621191098
 20
121.4377035907
 10
133.0522791223
 20
121.3052614115
 10
133.6210575616
 20
121.4709541296
  0
LINE
  5
1CE
330
1F
100
AcDbEntity
  8
0
  6
Continuous
 62
     8
370
    18
100
AcDbLine
 10
132.3621191098
 20
121.4377035907
 30
0.0
 11
131.9170559565
 21
123.9443889183
 31
0.0
  0
LINE
  5
1CF
330
1F
100
AcDbEntity
  8
0
  6
Continuous
 62
     8
370
    18
100
AcDbLine
 10
135.7199786001
 20
122.1969307764
 30
0.0
 11
135.5019918763
 21
124.4363462779
 31
0.0
  0
LINE
  5
1D0
330
1F
100
AcDbEntity
  8
0
  6
Continuous
 62
     8
370
    18
100
AcDbLine
 10
147.8903316097
 20
123.9637521763
 30
0.0
 11
146.2961611204
 21
121.4709541296
 31
0.0
  0
LINE
  5
1D1
330
1F
100
AcDbEntity
  8
0
  6
Continuous
 62
     8
370
    18
100
AcDbLine
 10
148.0001627255
 20
123.9443889183
 30
0.0
 11
147.5550995721
 21
121.4377035907
 31
0.0
  0
LWPOLYLINE
  5
1D2
330
1F
100
AcDbEntity
  8
0
  6
Continuous
 62
     8
370
    18
100
AcDbPolyline
 90
        3
 70
   128
 43
0.0
 10
146.2961611204
 20
121.4709541296
 10
146.8649395596
 20
121.3052614115
 10
147.5550995721
 20
121.4377035907
  0
LINE
  5
1D3
330
1F
100
AcDbEntity
  8
0
  6
Continuous
 62
     8
370
    18
100
AcDbLine
 10
144.4152268057
 20
124.4363462779
 30
0.0
 11
144.1972400819
 21
122.1969307764
 31
0.0
  0
ARC
  5
1D4
330
1F
100
AcDbEntity
  8
0
  6
Continuous
 62
     8
370
    18
100
AcDbCircle
 10
139.958609341
 20
78.65274047
 30
0.0
 40
43.45411065798014
100
AcDbArc
 50
100.0679726183
 51
79.9320273817
  0
ARC
  5
1D5
330
1F
100
AcDbEntity
  8
0
  6
Continuous
 62
     8
370
    18
100
AcDbCircle
 10
136.5142437028
 20
115.2623503276
 30
0.0
 40
7.441446536821922
100
AcDbArc
 50
123.9157174175
 51
152.1492931712
  0
LWPOLYLINE
  5
1D6
330
1F
100
AcDbEntity
  8
0
  6
Continuous
 62
     8
370
    18
100
AcDbPolyline
 90
        7
 70
   128
 43
0.0
 10
129.9347557228
 20
118.738765792
 10
129.0316092995
 20
117.0460135896
 10
128.1552671091
 20
115.3988847089
 10
127.3045322987
 20
113.796368728
 10
126.3472445227
 20
111.9898354488
 10
125.4175106514
 20
110.232416089
 10
124.5127680301
 20
108.5213659634
  0
ARC
  5
1D7
330
1F
100
AcDbEntity
  8
0
  6
Continuous
 62
     8
370
    18
100
AcDbCircle
 10
122.2030769418
 20
109.7309439252
 30
0.0
 40
2.60724984785201
100
AcDbArc
 50
299.9515311475
 51
332.3590903882
  0
ARC
  5
1D8
330
1F
100
AcDbEntity
  8
0
  6
Continuous
 62
     8
370
    18
100
AcDbCircle
 10
139.958609341
 20
78.65274047
 30
0.0
 40
33.18541743770059
100
AcDbArc
 50
119.7234874087
 51
265.6795697088
  0
ARC
  5
1D9
330
1F
100
AcDbEntity
  8
0
  6
Continuous
 62
     8
370
    18
100
AcDbCircle
 10
139.958609341
 20
78.65274047
 30
0.0
 40
33.18541743770058
100
AcDbArc
 50
274.3204302912
 51
60.2765125913
  0
ARC
  5
1DA
330
1F
100
AcDbEntity
  8
0
  6
Continuous
 62
     8
370
    18
100
AcDbCircle
 10
157.7142628953
 20
109.7310602903
 30
0.0
 40
2.607411161298383
100
AcDbArc
 50
207.6419397032
 51
240.0474387611
  0
LWPOLYLINE
  5
1DB
330
1F
100
AcDbEntity
  8
0
  6
Continuous
 62
     8
370
    18
100
AcDbPolyline
 90
        7
 70
   128
 43
0.0
 10
155.4044506519
 20
108.5213659634
 10
154.4976086053
 20
110.2358434761
 10
153.5675959085
 20
111.9932037619
 10
152.6126258957
 20
113.796340448
 10
151.7603546284
 20
115.4026773802
 10
150.8838183771
 20
117.0497862245
 10
149.9824629565
 20
118.738765797
  0
ARC
  5
1DC
330
1F
100
AcDbEntity
  8
0
  6
Continuous
 62
     8
370
    18
100
AcDbCircle
 10
143.4225588602
 20
115.2799636257
 30
0.0
 40
7.415905488463412
100
AcDbArc
 50
27.8010736554
 51
56.1339157985
  0
ARC
  5
1DD
330
1F
100
AcDbEntity
  8
0
  6
Continuous
 62
     8
370
    18
100
AcDbCircle
 10
130.0157072342
 20
121.1908337381
 30
0.0
 40
2.453402326690922
100
AcDbArc
 50
268.109165952
 51
326.7116214336
  0
ARC
  5
1DE
330
1F
100
AcDbEntity
  8
0
  6
Continuous
 62
     8
370
    18
100
AcDbCircle
 10
149.8833583253
 20
121.1558283584
 30
0.0
 40
2.419091951651219
100
AcDbArc
 50
212.8312979448
 51
272.3479146696
  0
ARC
  5
1DF
330
1F
100
AcDbEntity
  8
0
  6
Continuous
 62
     8
370
    18
100
AcDbCircle
 10
124.3937106511
 20
110.4890505651
 30
0.0
 40
1.971283173773627
100
AcDbArc
 50
273.4625361414
 51
326.3401853989
  0
ARC
  5
1E0
330
1F
100
AcDbEntity
  8
0
  6
Continuous
 62
     8
370
    18
100
AcDbCircle
 10
155.4853932857
 20
110.4227706345
 30
0.0
 40
1.903126751796302
100
AcDbArc
 50
212.634883118
 51
267.5623953417
  0
LINE
  5
1E1
330
1F
100
AcDbEntity
  8
0
  6
Continuous
 62
     8
370
    18
100
AcDbLine
 10
156.4124273706
 20
107.4718973411
 30
0.0
 11
156.1965410012
 21
107.0937684999
 31
0.0
  0
LINE
  5
1E2
330
1F
100
AcDbEntity
  8
0
  6
Continuous
 62
     8
370
    18
100
AcDbLine
 10
123.7206776808
 20
107.0937684999
 30
0.0
 11
123.5047913114
 21
107.4718973411
 31
0.0
  0
LWPOLYLINE
  5
1E3
330
1F
100
AcDbEntity
  8
0
  6
Continuous
 62
     8
370
    18
100
AcDbPolyline
 90
        3
 70
   128
 43
0.0
 10
147.7633219495
 20
119.9492528392
 10
147.4947926487
 20
120.2719906084
 10
146.9169572362
 20
120.6422596873
  0
ARC
  5
1E4
330
1F
100
AcDbEntity
  8
0
  6
Continuous
 62
     8
370
    18
100
AcDbCircle
 10
151.2851345631
 20
107.3176136198
 30
0.0
 40
3.32701278490191
100
AcDbArc
 50
38.6700327354
 51
104.4806175528
  0
LINE
  5
1E5
330
1F
100
AcDbEntity
  8
0
  6
Continuous
 62
     8
370
    18
100
AcDbLine
 10
149.5897653462
 20
110.9491659255
 30
0.0
 11
150.4532067736
 21
110.5389348121
 31
0.0
  0
LWPOLYLINE
  5
1E6
330
1F
100
AcDbEntity
  8
0
  6
Continuous
 62
     8
370
    18
100
AcDbPolyline
 90
        5
 70
   128
 43
0.0
 10
143.2885074924
 20
120.4984562444
 10
144.9477472745
 20
117.9508031651
 10
146.5509883246
 20
115.5138609038
 10
148.0974677366
 20
113.181954846
 10
149.5897653461
 20
110.9491659257
  0
ARC
  5
1E7
330
1F
100
AcDbEntity
  8
0
  6
Continuous
 62
     8
370
    18
100
AcDbCircle
 10
145.2789923653
 20
116.1229640593
 30
0.0
 40
4.806970136330274
100
AcDbArc
 50
70.077554653
 51
114.4615852699
  0
LWPOLYLINE
  5
1E8
330
1F
100
AcDbEntity
  8
0
  6
Continuous
 62
     8
370
    18
100
AcDbPolyline
 90
        3
 70
   128
 43
0.0
 10
133.0002614457
 20
120.6422596873
 10
132.4224260332
 20
120.2719906084
 10
132.0665521269
 20
119.8442758289
  0
ARC
  5
1E9
330
1F
100
AcDbEntity
  8
0
  6
Continuous
 62
     8
370
    18
100
AcDbCircle
 10
134.6382263167
 20
116.1229640592
 30
0.0
 40
4.806970136364661
100
AcDbArc
 50
65.5384147303
 51
109.9224453468
  0
LWPOLYLINE
  5
1EA
330
1F
100
AcDbEntity
  8
0
  6
Continuous
 62
     8
370
    18
100
AcDbPolyline
 90
        5
 70
   128
 43
0.0
 10
130.3274533358
 20
110.9491659256
 10
131.8197509453
 20
113.1819548459
 10
133.3662303574
 20
115.5138609038
 10
134.9694714075
 20
117.9508031651
 10
136.6287111896
 20
120.4984562444
  0
LINE
  5
1EB
330
1F
100
AcDbEntity
  8
0
  6
Continuous
 62
     8
370
    18
100
AcDbLine
 10
129.4640119083
 20
110.5389348121
 30
0.0
 11
130.3274533358
 21
110.9491659255
 31
0.0
  0
ARC
  5
1EC
330
1F
100
AcDbEntity
  8
0
  6
Continuous
 62
     8
370
    18
100
AcDbCircle
 10
128.6320841189
 20
107.3176136198
 30
0.0
 40
3.327012784892694
100
AcDbArc
 50
75.5193824472
 51
141.3299672646
  0
ARC
  5
1ED
330
1F
100
AcDbEntity
  8
0
  6
Continuous
 62
     8
370
    18
100
AcDbCircle
 10
136.2842470287
 20
118.0454014908
 30
0.0
 40
4.186673357377088
100
AcDbArc
 50
96.0817801898
 51
141.664315023
  0
ARC
  5
1EE
330
1F
100
AcDbEntity
  8
0
  6
Continuous
 62
     8
370
    18
100
AcDbCircle
 10
143.6674432456
 20
118.0759482942
 30
0.0
 40
4.140687786048903
100
AcDbArc
 50
38.2999986964
 51
71.6329621158
  0
LINE
  5
1EF
330
1F
100
AcDbEntity
  8
0
  6
Continuous
 62
     8
370
    18
100
AcDbLine
 10
144.4917531223
 20
122.1242544383
 30
0.0
 11
144.0765407812
 21
122.2085109333
 31
0.0
  0
ARC
  5
1F0
330
1F
100
AcDbEntity
  8
0
  6
Continuous
 62
     8
370
    18
100
AcDbCircle
 10
133.3939181817
 20
120.0443872453
 30
0.0
 40
3.26650646095256
100
AcDbArc
 50
7.9904204411
 51
41.4922958008
  0
LWPOLYLINE
  5
1F1
330
1F
100
AcDbEntity
  8
0
  6
Continuous
 62
     8
370
    18
100
AcDbPolyline
 90
        9
 70
   128
 43
0.0
 10
144.0765407812
 20
122.2085109333
 10
144.0253134815
 20
122.1966111534
 10
143.9653892601
 20
122.1494162409
 10
143.8965750811
 20
122.0630718194
 10
143.8187430521
 20
121.9338888928
 10
143.7318425354
 20
121.7584433036
 10
143.6181191275
 20
121.4890618126
 10
143.4707522904
 20
121.0817658922
 10
143.2885074924
 20
120.4984562444
  0
LINE
  5
1F2
330
1F
100
AcDbEntity
  8
0
  6
Continuous
 62
     8
370
    18
100
AcDbLine
 10
136.6287111896
 20
120.4984562444
 30
0.0
 11
137.458609341
 21
120.5562266063
 31
0.0
  0
LINE
  5
1F3
330
1F
100
AcDbEntity
  8
0
  6
Continuous
 62
     8
370
    18
100
AcDbLine
 10
142.458609341
 20
120.5562266063
 30
0.0
 11
143.2885074924
 21
120.4984562444
 31
0.0
  0
ARC
  5
1F4
330
1F
100
AcDbEntity
  8
0
  6
Continuous
 62
     8
370
    18
100
AcDbCircle
 10
139.958609341
 20
78.65274047
 30
0.0
 40
33.70190296125623
100
AcDbArc
 50
73.3948298044
 51
85.7459036904
  0
ARC
  5
1F5
330
1F
100
AcDbEntity
  8
0
  6
Continuous
 62
     8
370
    18
100
AcDbCircle
 10
139.958609341
 20
78.65274047
 30
0.0
 40
33.70190296125624
100
AcDbArc
 50
94.2540963096
 51
106.6051701957
  0
ARC
  5
1F6
330
1F
100
AcDbEntity
  8
0
  6
Continuous
 62
     8
370
    18
100
AcDbCircle
 10
190.6375287465
 20
2.0485315368
 30
0.0
 40
124.5486522013987
100
AcDbArc
 50
119.4169596172
 51
122.4983140416
  0
ARC
  5
1F7
330
1F
100
AcDbEntity
  8
0
  6
Continuous
 62
     8
370
    18
100
AcDbCircle
 10
127.9711519938
 20
110.0040232286
 30
0.0
 40
1.585799838099971
100
AcDbArc
 50
348.8346042311
 51
19.7132780148
  0
ARC
  5
1F8
330
1F
100
AcDbEntity
  8
0
  6
Continuous
 62
     8
370
    18
100
AcDbCircle
 10
151.4809042686
 20
110.0387862158
 30
0.0
 40
1.142939525778954
100
AcDbArc
 50
154.0492453392
 51
197.4028724145
  0
LINE
  5
1F9
330
1F
100
AcDbEntity
  8
0
  6
Continuous
 62
     8
370
    18
100
AcDbLine
 10
130.3274533358
 20
110.9491659257
 30
0.0
 11
130.5994832545
 21
110.0369603726
 31
0.0
  0
LINE
  5
1FA
330
1F
100
AcDbEntity
  8
0
  6
Continuous
 62
     8
370
    18
100
AcDbLine
 10
149.3177354274
 20
110.0369603726
 30
0.0
 11
149.5897653461
 21
110.9491659257
 31
0.0
  0
LINE
  5
1FB
330
1F
100
AcDbEntity
  8
0
  6
CENTER
 62
     7
370
    18
100
AcDbLine
 10
200.0335288429
 20
78.65274047
 30
0.0
 11
80.4497620438
 21
78.65274047
 31
0.0
  0
LINE
  5
1FC
330
1F
100
AcDbEntity
  8
0
  6
Continuous
 62
     7
370
    18
100
AcDbLine
 10
198.0335288429
 20
71.05274047
 30
0.0
 11
198.0335288429
 21
78.65274047
 31
0.0
  0
SOLID
  5
1FD
330
1F
100
AcDbEntity
  8
0
  6
Continuous
 62
     7
370
    18
100
AcDbTrace
 10
198.0335288429
 20
78.65274047
 30
0.0
 11
197.2335288429
 21
73.65274047
 31
0.0
 12
198.8335288429
 22
73.65274047
 32
0.0
 13
198.8335288429
 23
73.65274047
 33
0.0
  0
LINE
  5
1FE
330
1F
100
AcDbEntity
  8
0
  6
Continuous
 62
     7
370
    18
100
AcDbLine
 10
82.4497620438
 20
71.05274047
 30
0.0
 11
82.4497620438
 21
78.65274047
 31
0.0
  0
SOLID
  5
1FF
330
1F
100
AcDbEntity
  8
0
  6
Continuous
 62
     7
370
    18
100
AcDbTrace
 10
82.4497620438
 20
78.65274047
 30
0.0
 11
81.6497620438
 21
73.65274047
 31
0.0
 12
83.2497620438
 22
73.65274047
 32
0.0
 13
83.2497620438
 23
73.65274047
 33
0.0
  0
MTEXT
  5
200
330
1F
100
AcDbEntity
  8
0
  6
Continuous
 62
     7
100
AcDbMText
 10
195.7314940316
 20
69.2842422183
 30
0.0
 40
5.0
 41
0.0
 71
     1
 72
     1
  1
A
  7
SLDTEXTSTYLE0
 73
     1
 44
1.0
  0
MTEXT
  5
201
330
1F
100
AcDbEntity
  8
0
  6
Continuous
 62
     7
100
AcDbMText
 10
80.279890297
 20
69.8776328606
 30
0.0
 40
5.0
 41
0.0
 71
     1
 72
     1
  1
A
  7
SLDTEXTSTYLE0
 73
     1
 44
1.0
  0
LINE
  5
202
330
1F
100
AcDbEntity
  8
0
  6
Continuous
 62
     7
370
    25
100
AcDbLine
 10
192.708609341
 20
252.2518281799
 30
0.0
 11
87.208609341
 21
252.2518281799
 31
0.0
  0
ARC
  5
203
330
1F
100
AcDbEntity
  8
0
  6
Continuous
 62
     7
370
    25
100
AcDbCircle
 10
86.958609341
 20
250.7518281799
 30
0.0
 40
1.000000000000043
100
AcDbArc
 50
122.9533294624
 51
243.4225014848
  0
ARC
  5
204
330
1F
100
AcDbEntity
  8
0
  6
Continuous
 62
     7
370
    25
100
AcDbCircle
 10
192.958609341
 20
250.7518281799
 30
0.0
 40
1.000000000000031
100
AcDbArc
 50
296.5774985152
 51
57.0466705376
  0
ARC
  5
205
330
1F
100
AcDbEntity
  8
0
  6
Continuous
 62
     7
370
    25
100
AcDbCircle
 10
194.046520764
 20
252.4300560356
 30
0.0
 40
1.00000000000001
100
AcDbArc
 50
206.8818319097
 51
237.0466705376
  0
ARC
  5
206
330
1F
100
AcDbEntity
  8
0
  6
Continuous
 62
     7
370
    25
100
AcDbCircle
 10
85.870697918
 20
252.4300560356
 30
0.0
 40
0.9999999999999846
100
AcDbArc
 50
302.9533294624
 51
333.1181680903
  0
ARC
  5
207
330
1F
100
AcDbEntity
  8
0
  6
Continuous
 62
     7
370
    25
100
AcDbCircle
 10
193.8534251342
 20
248.9631681517
 30
0.0
 40
1.000000000000041
100
AcDbArc
 50
116.5774985152
 51
172.4784170159
  0
ARC
  5
208
330
1F
100
AcDbEntity
  8
0
  6
Continuous
 62
     7
370
    25
100
AcDbCircle
 10
86.0637935478
 20
248.9631681517
 30
0.0
 40
1.000000000000012
100
AcDbArc
 50
7.5215829841
 51
63.4225014848
  0
ARC
  5
209
330
1F
100
AcDbEntity
  8
0
  6
Continuous
 62
     7
370
    25
100
AcDbCircle
 10
192.708609341
 20
251.7518281799
 30
0.0
 40
0.5000000000000752
100
AcDbArc
 50
26.8818319097
 51
143.7815835926
  0
ARC
  5
20A
330
1F
100
AcDbEntity
  8
0
  6
Continuous
 62
     7
370
    25
100
AcDbCircle
 10
87.208609341
 20
251.7518281799
 30
0.0
 40
0.5000000000000752
100
AcDbArc
 50
36.2184164074
 51
153.1181680903
  0
LINE
  5
20B
330
1F
100
AcDbEntity
  8
0
  6
Continuous
 62
     7
370
    25
100
AcDbLine
 10
192.0159854945
 20
242.6863783527
 30
0.0
 11
192.8620295116
 21
249.0940678061
 31
0.0
  0
LINE
  5
20C
330
1F
100
AcDbEntity
  8
0
  6
Continuous
 62
     7
370
    25
100
AcDbLine
 10
87.0551891704
 20
249.0940678061
 30
0.0
 11
87.9012331875
 21
242.6863783527
 31
0.0
  0
LINE
  5
20D
330
1F
100
AcDbEntity
  8
0
  6
Continuous
 62
     7
370
    25
100
AcDbLine
 10
189.708609341
 20
248.5018281799
 30
0.0
 11
192.305224124
 21
252.0472606878
 31
0.0
  0
LINE
  5
20E
330
1F
100
AcDbEntity
  8
0
  6
Continuous
 62
     7
370
    25
100
AcDbLine
 10
87.6119945579
 20
252.0472606878
 30
0.0
 11
90.208609341
 21
248.5018281799
 31
0.0
  0
ARC
  5
20F
330
1F
100
AcDbEntity
  8
0
  6
Continuous
 62
     7
370
    25
100
AcDbCircle
 10
191.5202876832
 20
242.7518281799
 30
0.0
 40
0.49999999999967
100
AcDbArc
 50
270.0
 51
352.4784170159
  0
ARC
  5
210
330
1F
100
AcDbEntity
  8
0
  6
Continuous
 62
     7
370
    25
100
AcDbCircle
 10
88.3969309988
 20
242.7518281799
 30
0.0
 40
0.49999999999967
100
AcDbArc
 50
187.5215829841
 51
270.0
  0
LINE
  5
211
330
1F
100
AcDbEntity
  8
0
  6
Continuous
 62
     7
370
    25
100
AcDbLine
 10
190.958609341
 20
244.5768281799
 30
0.0
 11
190.958609341
 21
246.1768281799
 31
0.0
  0
LINE
  5
212
330
1F
100
AcDbEntity
  8
0
  6
Continuous
 62
     7
370
    25
100
AcDbLine
 10
88.958609341
 20
246.1768281799
 30
0.0
 11
88.958609341
 21
244.5768281799
 31
0.0
  0
LINE
  5
213
330
1F
100
AcDbEntity
  8
0
  6
Continuous
 62
     7
370
    25
100
AcDbLine
 10
185.958609341
 20
242.2518281799
 30
0.0
 11
185.958609341
 21
244.5768281799
 31
0.0
  0
LINE
  5
214
330
1F
100
AcDbEntity
  8
0
  6
Continuous
 62
     7
370
    25
100
AcDbLine
 10
93.958609341
 20
244.5768281799
 30
0.0
 11
93.958609341
 21
242.2518281799
 31
0.0
  0
LINE
  5
215
330
1F
100
AcDbEntity
  8
0
  6
Continuous
 62
     7
370
    25
100
AcDbLine
 10
185.958609341
 20
242.2518281799
 30
0.0
 11
183.730262647
 21
242.2518281799
 31
0.0
  0
LINE
  5
216
330
1F
100
AcDbEntity
  8
0
  6
Continuous
 62
     7
370
    25
100
AcDbLine
 10
96.186956035
 20
242.2518281799
 30
0.0
 11
93.958609341
 21
242.2518281799
 31
0.0
  0
LINE
  5
217
330
1F
100
AcDbEntity
  8
0
  6
Continuous
 62
     7
370
    25
100
AcDbLine
 10
185.958609341
 20
246.1768281799
 30
0.0
 11
185.958609341
 21
248.5018281799
 31
0.0
  0
LINE
  5
218
330
1F
100
AcDbEntity
  8
0
  6
Continuous
 62
     7
370
    25
100
AcDbLine
 10
93.958609341
 20
248.5018281799
 30
0.0
 11
93.958609341
 21
246.1768281799
 31
0.0
  0
LINE
  5
219
330
1F
100
AcDbEntity
  8
0
  6
Continuous
 62
     7
370
    25
100
AcDbLine
 10
93.958609341
 20
248.5018281799
 30
0.0
 11
185.958609341
 21
248.5018281799
 31
0.0
  0
LINE
  5
21A
330
1F
100
AcDbEntity
  8
0
  6
Continuous
 62
     7
370
    25
100
AcDbLine
 10
185.958609341
 20
246.1768281799
 30
0.0
 11
93.958609341
 21
246.1768281799
 31
0.0
  0
LINE
  5
21B
330
1F
100
AcDbEntity
  8
0
  6
Continuous
 62
     7
370
    25
100
AcDbLine
 10
93.958609341
 20
248.5018281799
 30
0.0
 11
90.208609341
 21
248.5018281799
 31
0.0
  0
LINE
  5
21C
330
1F
100
AcDbEntity
  8
0
  6
Continuous
 62
     7
370
    25
100
AcDbLine
 10
93.958609341
 20
244.5768281799
 30
0.0
 11
88.958609341
 21
244.5768281799
 31
0.0
  0
LINE
  5
21D
330
1F
100
AcDbEntity
  8
0
  6
Continuous
 62
     7
370
    25
100
AcDbLine
 10
88.958609341
 20
246.1768281799
 30
0.0
 11
93.958609341
 21
246.1768281799
 31
0.0
  0
LINE
  5
21E
330
1F
100
AcDbEntity
  8
0
  6
Continuous
 62
     7
370
    25
100
AcDbLine
 10
88.3968165158
 20
242.2518281799
 30
0.0
 11
93.958609341
 21
242.2518281799
 31
0.0
  0
LINE
  5
21F
330
1F
100
AcDbEntity
  8
0
  6
Continuous
 62
     7
370
    25
100
AcDbLine
 10
189.708609341
 20
248.5018281799
 30
0.0
 11
185.958609341
 21
248.5018281799
 31
0.0
  0
LINE
  5
220
330
1F
100
AcDbEntity
  8
0
  6
Continuous
 62
     7
370
    25
100
AcDbLine
 10
190.958609341
 20
244.5768281799
 30
0.0
 11
185.958609341
 21
244.5768281799
 31
0.0
  0
LINE
  5
221
330
1F
100
AcDbEntity
  8
0
  6
Continuous
 62
     7
370
    25
100
AcDbLine
 10
185.958609341
 20
246.1768281799
 30
0.0
 11
190.958609341
 21
246.1768281799
 31
0.0
  0
LINE
  5
222
330
1F
100
AcDbEntity
  8
0
  6
Continuous
 62
     7
370
    25
100
AcDbLine
 10
185.958609341
 20
242.2518281799
 30
0.0
 11
191.5203484166
 21
242.2518281799
 31
0.0
  0
CIRCLE
  5
223
330
1F
100
AcDbEntity
  8
0
  6
Continuous
 62
     7
370
    25
100
AcDbCircle
 10
139.958609341
 20
234.4268281799
 30
0.0
 40
2.5
  0
ARC
  5
224
330
1F
100
AcDbEntity
  8
0
  6
Continuous
 62
     7
370
    25
100
AcDbCircle
 10
169.958609341
 20
176.8268281799
 30
0.0
 40
16.0
100
AcDbArc
 50
270.0
 51
0.0
  0
ARC
  5
225
330
1F
100
AcDbEntity
  8
0
  6
Continuous
 62
     7
370
    25
100
AcDbCircle
 10
109.958609341
 20
176.8268281799
 30
0.0
 40
16.00000000000001
100
AcDbArc
 50
180.0
 51
270.0
  0
ARC
  5
226
330
1F
100
AcDbEntity
  8
0
  6
Continuous
 62
     7
370
    25
100
AcDbCircle
 10
109.958609341
 20
176.8268281799
 30
0.0
 40
15.00000000000001
100
AcDbArc
 50
180.0
 51
270.0
  0
LINE
  5
227
330
1F
100
AcDbEntity
  8
0
  6
Continuous
 62
     7
370
    25
100
AcDbLine
 10
119.1967317419
 20
161.8268281799
 30
0.0
 11
109.9585942609
 21
161.8268281799
 31
0.0
  0
ARC
  5
228
330
1F
100
AcDbEntity
  8
0
  6
Continuous
 62
     7
370
    25
100
AcDbCircle
 10
119.1967516019
 20
176.8268281799
 30
0.0
 40
15.00000000000023
100
AcDbArc
 50
270.0
 51
311.5454692449
  0
LINE
  5
229
330
1F
100
AcDbEntity
  8
0
  6
Continuous
 62
     7
370
    25
100
AcDbLine
 10
129.3848512964
 20
165.8126109815
 30
0.0
 11
129.1449646288
 21
165.6003836149
 31
0.0
  0
ARC
  5
22A
330
1F
100
AcDbEntity
  8
0
  6
Continuous
 62
     7
370
    25
100
AcDbCircle
 10
139.9839560623
 20
153.8268281799
 30
0.0
 40
16.00000035020049
100
AcDbArc
 50
90.0907662977
 51
131.486536107
  0
ARC
  5
22B
330
1F
100
AcDbEntity
  8
0
  6
Continuous
 62
     7
370
    25
100
AcDbCircle
 10
139.9332626197
 20
153.8268281799
 30
0.0
 40
16.00000035020051
100
AcDbArc
 50
48.513463893
 51
89.9092337023
  0
LINE
  5
22C
330
1F
100
AcDbEntity
  8
0
  6
Continuous
 62
     7
370
    25
100
AcDbLine
 10
150.7722540532
 20
165.6003836149
 30
0.0
 11
150.5323673856
 21
165.8126109815
 31
0.0
  0
ARC
  5
22D
330
1F
100
AcDbEntity
  8
0
  6
Continuous
 62
     7
370
    25
100
AcDbCircle
 10
160.7204670801
 20
176.8268281799
 30
0.0
 40
15.00000000000023
100
AcDbArc
 50
228.4545307551
 51
270.0
  0
LINE
  5
22E
330
1F
100
AcDbEntity
  8
0
  6
Continuous
 62
     7
370
    25
100
AcDbLine
 10
169.958615117
 20
161.8268281799
 30
0.0
 11
160.7204797964
 21
161.8268281799
 31
0.0
  0
ARC
  5
22F
330
1F
100
AcDbEntity
  8
0
  6
Continuous
 62
     7
370
    25
100
AcDbCircle
 10
169.958609341
 20
176.8268281799
 30
0.0
 40
15.0
100
AcDbArc
 50
270.0
 51
0.0
  0
LINE
  5
230
330
1F
100
AcDbEntity
  8
0
  6
Continuous
 62
     7
370
    25
100
AcDbLine
 10
184.958609341
 20
176.8268281799
 30
0.0
 11
184.958609341
 21
225.8268281799
 31
0.0
  0
LINE
  5
231
330
1F
100
AcDbEntity
  8
0
  6
Continuous
 62
     7
370
    25
100
AcDbLine
 10
185.958609341
 20
225.8268281799
 30
0.0
 11
184.958609341
 21
225.8268281799
 31
0.0
  0
LINE
  5
232
330
1F
100
AcDbEntity
  8
0
  6
Continuous
 62
     7
370
    25
100
AcDbLine
 10
185.958609341
 20
176.8268281799
 30
0.0
 11
185.958609341
 21
225.8268281799
 31
0.0
  0
LINE
  5
233
330
1F
100
AcDbEntity
  8
0
  6
Continuous
 62
     7
370
    25
100
AcDbLine
 10
160.7204694901
 20
160.8268281799
 30
0.0
 11
169.9586254232
 21
160.8268281799
 31
0.0
  0
ARC
  5
234
330
1F
100
AcDbEntity
  8
0
  6
Continuous
 62
     7
370
    25
100
AcDbCircle
 10
160.7204670801
 20
176.8268281799
 30
0.0
 40
16.0
100
AcDbArc
 50
228.5
 51
270.0
  0
LINE
  5
235
330
1F
100
AcDbEntity
  8
0
  6
Continuous
 62
     7
370
    25
100
AcDbLine
 10
150.1185463087
 20
164.8435366472
 30
0.0
 11
149.8725633429
 21
165.0611639917
 31
0.0
  0
ARC
  5
236
330
1F
100
AcDbEntity
  8
0
  6
Continuous
 62
     7
370
    25
100
AcDbCircle
 10
139.9332626197
 20
153.8268281799
 30
0.0
 40
15.00000000000004
100
AcDbArc
 50
48.5
 51
89.9031826102
  0
ARC
  5
237
330
1F
100
AcDbEntity
  8
0
  6
Continuous
 62
     7
370
    25
100
AcDbCircle
 10
139.9839560623
 20
153.8268281799
 30
0.0
 40
15.00000000000004
100
AcDbArc
 50
90.0968173898
 51
131.5
  0
LINE
  5
238
330
1F
100
AcDbEntity
  8
0
  6
Continuous
 62
     7
370
    25
100
AcDbLine
 10
130.0446553391
 20
165.0611639917
 30
0.0
 11
129.7986723733
 21
164.8435366472
 31
0.0
  0
ARC
  5
239
330
1F
100
AcDbEntity
  8
0
  6
Continuous
 62
     7
370
    25
100
AcDbCircle
 10
119.1967516019
 20
176.8268281799
 30
0.0
 40
16.00000000000001
100
AcDbArc
 50
270.0
 51
311.5
  0
LINE
  5
23A
330
1F
100
AcDbEntity
  8
0
  6
Continuous
 62
     7
370
    25
100
AcDbLine
 10
109.9585831219
 20
160.8268281799
 30
0.0
 11
119.1967428808
 21
160.8268281799
 31
0.0
  0
LINE
  5
23B
330
1F
100
AcDbEntity
  8
0
  6
Continuous
 62
     7
370
    25
100
AcDbLine
 10
93.958609341
 20
225.8268281799
 30
0.0
 11
93.958609341
 21
176.8268281799
 31
0.0
  0
LINE
  5
23C
330
1F
100
AcDbEntity
  8
0
  6
Continuous
 62
     7
370
    25
100
AcDbLine
 10
94.958609341
 20
225.8268281799
 30
0.0
 11
93.958609341
 21
225.8268281799
 31
0.0
  0
LINE
  5
23D
330
1F
100
AcDbEntity
  8
0
  6
Continuous
 62
     7
370
    25
100
AcDbLine
 10
94.958609341
 20
225.8268281799
 30
0.0
 11
94.958609341
 21
176.8268281799
 31
0.0
  0
LINE
  5
23E
330
1F
100
AcDbEntity
  8
0
  6
Continuous
 62
     7
370
    25
100
AcDbLine
 10
94.958609341
 20
225.8268281799
 30
0.0
 11
105.6699342064
 21
225.8268281799
 31
0.0
  0
LINE
  5
23F
330
1F
100
AcDbEntity
  8
0
  6
Continuous
 62
     7
370
    25
100
AcDbLine
 10
174.2472844756
 20
225.8268281799
 30
0.0
 11
184.958609341
 21
225.8268281799
 31
0.0
  0
LINE
  5
240
330
1F
100
AcDbEntity
  8
0
  6
Continuous
 62
     7
370
    25
100
AcDbLine
 10
135.9161581604
 20
160.8268281799
 30
0.0
 11
119.1967428808
 21
160.8268281799
 31
0.0
  0
LINE
  5
241
330
1F
100
AcDbEntity
  8
0
  6
Continuous
 62
     7
370
    25
100
AcDbLine
 10
160.7204694901
 20
160.8268281799
 30
0.0
 11
135.9161581604
 21
160.8268281799
 31
0.0
  0
LINE
  5
242
330
1F
100
AcDbEntity
  8
0
  6
Continuous
 62
     7
370
    25
100
AcDbLine
 10
131.8700839809
 20
245.8268281799
 30
0.0
 11
93.6895830417
 21
245.8268281799
 31
0.0
  0
ARC
  5
243
330
1F
100
AcDbEntity
  8
0
  6
Continuous
 62
     7
370
    25
100
AcDbCircle
 10
93.6899161207
 20
242.5768281799
 30
0.0
 40
3.250000000000022
100
AcDbArc
 50
30.0
 51
90.0
  0
ARC
  5
244
330
1F
100
AcDbEntity
  8
0
  6
Continuous
 62
     7
370
    25
100
AcDbCircle
 10
93.6899161207
 20
242.5768281799
 30
0.0
 40
2.0
100
AcDbArc
 50
30.0
 51
90.0
  0
ARC
  5
245
330
1F
100
AcDbEntity
  8
0
  6
Continuous
 62
     7
370
    25
100
AcDbCircle
 10
103.958609341
 20
224.790929795
 30
0.0
 40
3.250000000000014
100
AcDbArc
 50
0.0
 51
30.0
  0
ARC
  5
246
330
1F
100
AcDbEntity
  8
0
  6
Continuous
 62
     7
370
    25
100
AcDbCircle
 10
103.958609341
 20
224.790929795
 30
0.0
 40
2.000000000000014
100
AcDbArc
 50
0.0
 51
30.0
  0
LINE
  5
247
330
1F
100
AcDbEntity
  8
0
  6
Continuous
 62
     7
370
    25
100
AcDbLine
 10
186.2276356403
 20
244.5768281799
 30
0.0
 11
190.958609341
 21
244.5768281799
 31
0.0
  0
ARC
  5
248
330
1F
100
AcDbEntity
  8
0
  6
Continuous
 62
     7
370
    25
100
AcDbCircle
 10
186.2273025613
 20
242.5768281799
 30
0.0
 40
2.000000000000002
100
AcDbArc
 50
90.0
 51
150.0
  0
LINE
  5
249
330
1F
100
AcDbEntity
  8
0
  6
Continuous
 62
     7
370
    25
100
AcDbLine
 10
174.2265585334
 20
225.790929795
 30
0.0
 11
184.4952517537
 21
243.5768281799
 31
0.0
  0
ARC
  5
24A
330
1F
100
AcDbEntity
  8
0
  6
Continuous
 62
     7
370
    25
100
AcDbCircle
 10
175.958609341
 20
224.790929795
 30
0.0
 40
2.000000000000006
100
AcDbArc
 50
150.0
 51
180.0
  0
LINE
  5
24B
330
1F
100
AcDbEntity
  8
0
  6
Continuous
 62
     7
370
    25
100
AcDbLine
 10
173.958609341
 20
175.8268281799
 30
0.0
 11
173.958609341
 21
224.790929795
 31
0.0
  0
LINE
  5
24C
330
1F
100
AcDbEntity
  8
0
  6
Continuous
 62
     7
370
    25
100
AcDbLine
 10
172.708609341
 20
175.8268281799
 30
0.0
 11
173.958609341
 21
175.8268281799
 31
0.0
  0
LINE
  5
24D
330
1F
100
AcDbEntity
  8
0
  6
Continuous
 62
     7
370
    25
100
AcDbLine
 10
172.708609341
 20
175.8268281799
 30
0.0
 11
172.708609341
 21
224.790929795
 31
0.0
  0
ARC
  5
24E
330
1F
100
AcDbEntity
  8
0
  6
Continuous
 62
     7
370
    25
100
AcDbCircle
 10
175.958609341
 20
224.790929795
 30
0.0
 40
3.25000000000001
100
AcDbArc
 50
150.0
 51
180.0
  0
LINE
  5
24F
330
1F
100
AcDbEntity
  8
0
  6
Continuous
 62
     7
370
    25
100
AcDbLine
 10
173.1440267787
 20
226.415929795
 30
0.0
 11
183.412719999
 21
244.2018281799
 31
0.0
  0
ARC
  5
250
330
1F
100
AcDbEntity
  8
0
  6
Continuous
 62
     7
370
    25
100
AcDbCircle
 10
186.2273025613
 20
242.5768281799
 30
0.0
 40
3.25000000000001
100
AcDbArc
 50
90.0
 51
150.0
  0
LINE
  5
251
330
1F
100
AcDbEntity
  8
0
  6
Continuous
 62
     7
370
    25
100
AcDbLine
 10
190.958609341
 20
244.5768281799
 30
0.0
 11
190.958609341
 21
245.8268281799
 31
0.0
  0
LINE
  5
252
330
1F
100
AcDbEntity
  8
0
  6
Continuous
 62
     7
370
    25
100
AcDbLine
 10
190.958609341
 20
245.8268281799
 30
0.0
 11
186.2276357144
 21
245.8268281799
 31
0.0
  0
LINE
  5
253
330
1F
100
AcDbEntity
  8
0
  6
Continuous
 62
     7
370
    25
100
AcDbLine
 10
96.504498683
 20
244.2018281799
 30
0.0
 11
106.7731919033
 21
226.415929795
 31
0.0
  0
LINE
  5
254
330
1F
100
AcDbEntity
  8
0
  6
Continuous
 62
     7
370
    25
100
AcDbLine
 10
107.208609341
 20
224.790929795
 30
0.0
 11
107.208609341
 21
175.8268281799
 31
0.0
  0
LINE
  5
255
330
1F
100
AcDbEntity
  8
0
  6
Continuous
 62
     7
370
    25
100
AcDbLine
 10
105.958609341
 20
175.8268281799
 30
0.0
 11
107.208609341
 21
175.8268281799
 31
0.0
  0
LINE
  5
256
330
1F
100
AcDbEntity
  8
0
  6
Continuous
 62
     7
370
    25
100
AcDbLine
 10
105.958609341
 20
224.790929795
 30
0.0
 11
105.958609341
 21
175.8268281799
 31
0.0
  0
LINE
  5
257
330
1F
100
AcDbEntity
  8
0
  6
Continuous
 62
     7
370
    25
100
AcDbLine
 10
95.4219669283
 20
243.5768281799
 30
0.0
 11
105.6906601486
 21
225.790929795
 31
0.0
  0
LINE
  5
258
330
1F
100
AcDbEntity
  8
0
  6
Continuous
 62
     7
370
    25
100
AcDbLine
 10
88.958609341
 20
244.5768281799
 30
0.0
 11
93.6895829675
 21
244.5768281799
 31
0.0
  0
LINE
  5
259
330
1F
100
AcDbEntity
  8
0
  6
Continuous
 62
     7
370
    25
100
AcDbLine
 10
88.958609341
 20
245.8268281799
 30
0.0
 11
88.958609341
 21
244.5768281799
 31
0.0
  0
LINE
  5
25A
330
1F
100
AcDbEntity
  8
0
  6
Continuous
 62
     7
370
    25
100
AcDbLine
 10
93.6895830417
 20
245.8268281799
 30
0.0
 11
88.958609341
 21
245.8268281799
 31
0.0
  0
LINE
  5
25B
330
1F
100
AcDbEntity
  8
0
  6
Continuous
 62
     7
370
    25
100
AcDbLine
 10
186.2276357144
 20
245.8268281799
 30
0.0
 11
148.0471347011
 21
245.8268281799
 31
0.0
  0
LINE
  5
25C
330
1F
100
AcDbEntity
  8
0
  6
Continuous
 62
     7
370
    25
100
AcDbLine
 10
172.708609341
 20
175.8268281799
 30
0.0
 11
107.208609341
 21
175.8268281799
 31
0.0
  0
ARC
  5
25D
330
1F
100
AcDbEntity
  8
0
  6
Continuous
 62
     7
370
    25
100
AcDbCircle
 10
151.001258099
 20
210.1274138889
 30
0.0
 40
8.941094525296894
100
AcDbArc
 50
266.4858078271
 51
305.5248998376
  0
LINE
  5
25E
330
1F
100
AcDbEntity
  8
0
  6
Continuous
 62
     7
370
    25
100
AcDbLine
 10
131.8700839809
 20
245.8268281799
 30
0.0
 11
135.4051088879
 21
245.8268281799
 31
0.0
  0
LINE
  5
25F
330
1F
100
AcDbEntity
  8
0
  6
Continuous
 62
     7
370
    25
100
AcDbLine
 10
144.5121097941
 20
245.8268281799
 30
0.0
 11
148.0471347011
 21
245.8268281799
 31
0.0
  0
LINE
  5
260
330
1F
100
AcDbEntity
  8
0
  6
Continuous
 62
     7
370
    25
100
AcDbLine
 10
135.4051088879
 20
245.8268281799
 30
0.0
 11
144.5121097941
 21
245.8268281799
 31
0.0
  0
LINE
  5
261
330
1F
100
AcDbEntity
  8
0
  6
Continuous
 62
     8
370
    18
100
AcDbLine
 10
87.6119945579
 20
252.0472606878
 30
0.0
 11
192.305224124
 21
252.0472606878
 31
0.0
  0
LINE
  5
262
330
1F
100
AcDbEntity
  8
0
  6
Continuous
 62
     8
370
    18
100
AcDbLine
 10
184.958609341
 20
176.8268281799
 30
0.0
 11
173.958609341
 21
176.8268281799
 31
0.0
  0
LINE
  5
263
330
1F
100
AcDbEntity
  8
0
  6
Continuous
 62
     8
370
    18
100
AcDbLine
 10
105.958609341
 20
176.8268281799
 30
0.0
 11
94.958609341
 21
176.8268281799
 31
0.0
  0
LINE
  5
264
330
1F
100
AcDbEntity
  8
0
  6
Continuous
 62
     8
370
    18
100
AcDbLine
 10
150.1185463087
 20
164.8435366472
 30
0.0
 11
129.7986723733
 21
164.8435366472
 31
0.0
  0
LINE
  5
265
330
1F
100
AcDbEntity
  8
0
  6
Continuous
 62
     8
370
    18
100
AcDbLine
 10
130.0446553391
 20
165.0611639917
 30
0.0
 11
149.8725633429
 21
165.0611639917
 31
0.0
  0
ARC
  5
266
330
1F
100
AcDbEntity
  8
0
  6
Continuous
 62
     8
370
    18
100
AcDbCircle
 10
130.1697089936
 20
244.4249783275
 30
0.0
 40
2.203737304247433
100
AcDbArc
 50
354.1882761361
 51
39.5033880448
  0
LINE
  5
267
330
1F
100
AcDbEntity
  8
0
  6
Continuous
 62
     8
370
    18
100
AcDbLine
 10
96.504498683
 20
244.2018281799
 30
0.0
 11
132.3621191098
 21
244.2018281799
 31
0.0
  0
LINE
  5
268
330
1F
100
AcDbEntity
  8
0
  6
Continuous
 62
     8
370
    18
100
AcDbLine
 10
123.5047913114
 20
226.415929795
 30
0.0
 11
106.7731919033
 21
226.415929795
 31
0.0
  0
LWPOLYLINE
  5
269
330
1F
100
AcDbEntity
  8
0
  6
Continuous
 62
     8
370
    18
100
AcDbPolyline
 90
        3
 70
   128
 43
0.0
 10
123.7206776808
 20
224.790929795
 10
123.6657706323
 20
225.6320916916
 10
123.5047913114
 20
226.415929795
  0
LINE
  5
26A
330
1F
100
AcDbEntity
  8
0
  6
Continuous
 62
     8
370
    18
100
AcDbLine
 10
107.208609341
 20
224.790929795
 30
0.0
 11
123.7206776808
 21
224.790929795
 31
0.0
  0
LINE
  5
26B
330
1F
100
AcDbEntity
  8
0
  6
Continuous
 62
     8
370
    18
100
AcDbLine
 10
156.1965410012
 20
224.790929795
 30
0.0
 11
172.708609341
 21
224.790929795
 31
0.0
  0
LWPOLYLINE
  5
26C
330
1F
100
AcDbEntity
  8
0
  6
Continuous
 62
     8
370
    18
100
AcDbPolyline
 90
        3
 70
   128
 43
0.0
 10
156.4124273706
 20
226.415929795
 10
156.2514480497
 20
225.6320916916
 10
156.1965410012
 20
224.790929795
  0
LINE
  5
26D
330
1F
100
AcDbEntity
  8
0
  6
Continuous
 62
     8
370
    18
100
AcDbLine
 10
173.1440267787
 20
226.415929795
 30
0.0
 11
156.4124273706
 21
226.415929795
 31
0.0
  0
LINE
  5
26E
330
1F
100
AcDbEntity
  8
0
  6
Continuous
 62
     8
370
    18
100
AcDbLine
 10
147.5550995721
 20
244.2018281799
 30
0.0
 11
183.412719999
 21
244.2018281799
 31
0.0
  0
ARC
  5
26F
330
1F
100
AcDbEntity
  8
0
  6
Continuous
 62
     8
370
    18
100
AcDbCircle
 10
149.7475096884
 20
244.4249783275
 30
0.0
 40
2.203737304247513
100
AcDbArc
 50
140.4966119552
 51
185.8117238639
  0
ARC
  5
270
330
1F
100
AcDbEntity
  8
0
  6
Continuous
 62
     8
370
    18
100
AcDbCircle
 10
156.4625848879
 20
227.5294333945
 30
0.0
 40
1.114632694041455
100
AcDbArc
 50
198.3206883424
 51
267.4208680293
  0
ARC
  5
271
330
1F
100
AcDbEntity
  8
0
  6
Continuous
 62
     8
370
    18
100
AcDbCircle
 10
313.3940893288
 20
299.2228599482
 30
0.0
 40
173.6405318855194
100
AcDbArc
 50
199.7643272608
 51
204.5131418249
  0
ARC
  5
272
330
1F
100
AcDbEntity
  8
0
  6
Continuous
 62
     8
370
    18
100
AcDbCircle
 10
141.9509751424
 20
237.8761138999
 30
0.0
 40
8.451087017419642
100
AcDbArc
 50
18.1305993113
 51
48.4613831988
  0
ARC
  5
273
330
1F
100
AcDbEntity
  8
0
  6
Continuous
 62
     8
370
    18
100
AcDbCircle
 10
138.251636847
 20
237.6886741187
 30
0.0
 40
8.781093041392216
100
AcDbArc
 50
132.1214540116
 51
161.2865635236
  0
ARC
  5
274
330
1F
100
AcDbEntity
  8
0
  6
Continuous
 62
     8
370
    18
100
AcDbCircle
 10
-28.3526159045
 20
297.1380793369
 30
0.0
 40
168.1133227508834
100
AcDbArc
 50
335.408745753
 51
340.3137851592
  0
ARC
  5
275
330
1F
100
AcDbEntity
  8
0
  6
Continuous
 62
     8
370
    18
100
AcDbCircle
 10
123.454672838
 20
227.5293818239
 30
0.0
 40
1.114579419314479
100
AcDbArc
 50
272.5772462161
 51
341.6811974122
  0
LINE
  5
276
330
1F
100
AcDbEntity
  8
0
  6
Continuous
 62
     8
370
    18
100
AcDbLine
 10
123.7206776808
 20
224.790929795
 30
0.0
 11
123.7206776808
 21
202.8505871852
 31
0.0
  0
ARC
  5
277
330
1F
100
AcDbEntity
  8
0
  6
Continuous
 62
     8
370
    18
100
AcDbCircle
 10
129.9584898367
 20
206.0579529179
 30
0.0
 40
7.014092630931914
100
AcDbArc
 50
207.2113756187
 51
266.4725551163
  0
LINE
  5
278
330
1F
100
AcDbEntity
  8
0
  6
Continuous
 62
     8
370
    18
100
AcDbLine
 10
130.5994832545
 20
198.9984010551
 30
0.0
 11
129.5269362658
 21
199.0571488962
 31
0.0
  0
LINE
  5
279
330
1F
100
AcDbEntity
  8
0
  6
Continuous
 62
     8
370
    18
100
AcDbLine
 10
130.5994832545
 20
198.9984010551
 30
0.0
 11
149.3177354274
 21
198.9984010551
 31
0.0
  0
LINE
  5
27A
330
1F
100
AcDbEntity
  8
0
  6
Continuous
 62
     8
370
    18
100
AcDbLine
 10
150.3902824162
 20
199.0571488962
 30
0.0
 11
149.3177354274
 21
198.9984010551
 31
0.0
  0
ARC
  5
27B
330
1F
100
AcDbEntity
  8
0
  6
Continuous
 62
     8
370
    18
100
AcDbCircle
 10
149.9206585865
 20
206.1162234762
 30
0.0
 40
7.074678824351257
100
AcDbArc
 50
273.806146445
 51
332.5099228199
  0
LINE
  5
27C
330
1F
100
AcDbEntity
  8
0
  6
Continuous
 62
     8
370
    18
100
AcDbLine
 10
156.1965410012
 20
202.8505871852
 30
0.0
 11
156.1965410012
 21
224.790929795
 31
0.0
  0
ARC
  5
27D
330
1F
100
AcDbEntity
  8
0
  6
Continuous
 62
     8
370
    18
100
AcDbCircle
 10
128.9087281132
 20
210.1022001617
 30
0.0
 40
8.916375836090756
100
AcDbArc
 50
234.4187811801
 51
273.5705111551
  0
ARC
  5
27E
330
1F
100
AcDbEntity
  8
0
  6
Continuous
 62
     8
370
    18
100
AcDbCircle
 10
123.0669213656
 20
205.8090542931
 30
0.0
 40
3.029839096075649
100
AcDbArc
 50
282.4608590672
 51
348.3641086551
  0
ARC
  5
27F
330
1F
100
AcDbEntity
  8
0
  6
Continuous
 62
     8
370
    18
100
AcDbCircle
 10
133.2138034323
 20
207.8918029172
 30
0.0
 40
7.668067421168871
100
AcDbArc
 50
200.5672434694
 51
240.7242115969
  0
ARC
  5
280
330
1F
100
AcDbEntity
  8
0
  6
Continuous
 62
     8
370
    18
100
AcDbCircle
 10
146.7034152497
 20
207.8918029172
 30
0.0
 40
7.668067421166326
100
AcDbArc
 50
299.275788403
 51
339.4327565306
  0
LWPOLYLINE
  5
281
330
1F
100
AcDbEntity
  8
0
  6
Continuous
 62
     8
370
    18
100
AcDbPolyline
 90
        8
 70
   128
 43
0.0
 10
153.8827241474
 20
205.1979614729
 10
154.173117076
 20
204.5238619091
 10
154.4894973596
 20
203.9685290945
 10
154.8258270007
 20
203.5319630293
 10
155.1349112188
 20
203.2430787444
 10
155.4618487111
 20
203.032621172
 10
155.8242100965
 20
202.8960956819
 10
156.1965410012
 20
202.8505871852
  0
ARC
  5
282
330
1F
100
AcDbEntity
  8
0
  6
Continuous
 62
     8
370
    18
100
AcDbCircle
 10
123.9075170995
 20
228.1137349315
 30
0.0
 40
3.328053927393216
100
AcDbArc
 50
266.7816803077
 51
309.7251481777
  0
LINE
  5
283
330
1F
100
AcDbEntity
  8
0
  6
Continuous
 62
     8
370
    18
100
AcDbLine
 10
126.0344945346
 20
205.1979614729
 30
0.0
 11
126.0344945346
 21
225.5540650438
 31
0.0
  0
LINE
  5
284
330
1F
100
AcDbEntity
  8
0
  6
Continuous
 62
     8
370
    18
100
AcDbLine
 10
153.8827241474
 20
225.5540650438
 30
0.0
 11
153.8827241474
 21
205.1979614729
 31
0.0
  0
ARC
  5
285
330
1F
100
AcDbEntity
  8
0
  6
Continuous
 62
     8
370
    18
100
AcDbCircle
 10
156.0581345727
 20
228.2605831726
 30
0.0
 40
3.472412835522385
100
AcDbArc
 50
231.2088217309
 51
272.2843497836
  0
ARC
  5
286
330
1F
100
AcDbEntity
  8
0
  6
Continuous
 62
     8
370
    18
100
AcDbCircle
 10
121.4419622624
 20
199.8939958409
 30
0.0
 40
8.12816814816319
100
AcDbArc
 50
354.0905611543
 51
9.2685219127
  0
ARC
  5
287
330
1F
100
AcDbEntity
  8
0
  6
Continuous
 62
     8
370
    18
100
AcDbCircle
 10
157.5428731799
 20
223.6515373416
 30
0.0
 40
4.125082132244289
100
AcDbArc
 50
121.2246620798
 51
152.5348081659
  0
ARC
  5
288
330
1F
100
AcDbEntity
  8
0
  6
Continuous
 62
     8
370
    18
100
AcDbCircle
 10
158.2998341298
 20
199.8991395608
 30
0.0
 40
7.954241421373789
100
AcDbArc
 50
170.5645282232
 51
186.0763887096
  0
ARC
  5
289
330
1F
100
AcDbEntity
  8
0
  6
Continuous
 62
     8
370
    18
100
AcDbCircle
 10
122.426401757
 20
223.7002852695
 30
0.0
 40
4.056455711965209
100
AcDbArc
 50
27.1933664478
 51
59.0471633066
  0
ARC
  5
28A
330
1F
100
AcDbEntity
  8
0
  6
Continuous
 62
     8
370
    18
100
AcDbCircle
 10
128.2945691763
 20
236.1434159011
 30
0.0
 40
4.660686532834187
100
AcDbArc
 50
35.9705343982
 51
69.3952233353
  0
ARC
  5
28B
330
1F
100
AcDbEntity
  8
0
  6
Continuous
 62
     8
370
    18
100
AcDbCircle
 10
1.9598724695
 20
289.7416519543
 30
0.0
 40
139.6945172653091
100
AcDbArc
 50
332.6460956648
 51
338.6487107748
  0
ARC
  5
28C
330
1F
100
AcDbEntity
  8
0
  6
Continuous
 62
     8
370
    18
100
AcDbCircle
 10
151.552695541
 20
236.2351867042
 30
0.0
 40
4.55028910812837
100
AcDbArc
 50
110.1869423798
 51
144.4472998867
  0
ARC
  5
28D
330
1F
100
AcDbEntity
  8
0
  6
Continuous
 62
     8
370
    18
100
AcDbCircle
 10
277.943665218
 20
289.7354596228
 30
0.0
 40
139.6795207230608
100
AcDbArc
 50
201.3509666979
 51
207.3542268625
  0
LWPOLYLINE
  5
28E
330
1F
100
AcDbEntity
  8
0
  6
Continuous
 62
     8
370
    18
100
AcDbPolyline
 90
        3
 70
   128
 43
0.0
 10
147.850666555
 20
214.4091904884
 10
147.4947926487
 20
213.4790879088
 10
146.9169572362
 20
212.5268127184
  0
ARC
  5
28F
330
1F
100
AcDbEntity
  8
0
  6
Continuous
 62
     8
370
    18
100
AcDbCircle
 10
251.285548415
 20
275.5637806207
 30
0.0
 40
120.160969868082
100
AcDbArc
 50
210.5931752824
 51
215.8451269253
  0
LINE
  5
290
330
1F
100
AcDbEntity
  8
0
  6
Continuous
 62
     8
370
    18
100
AcDbLine
 10
149.5897653462
 20
201.296498094
 30
0.0
 11
150.4532067736
 21
201.2031317859
 31
0.0
  0
ARC
  5
291
330
1F
100
AcDbEntity
  8
0
  6
Continuous
 62
     8
370
    18
100
AcDbCircle
 10
217.8424992128
 20
259.7996897564
 30
0.0
 40
89.8947112735221
100
AcDbArc
 50
213.9681883273
 51
220.6017051809
  0
ARC
  5
292
330
1F
100
AcDbEntity
  8
0
  6
Continuous
 62
     8
370
    18
100
AcDbCircle
 10
139.2892285592
 20
218.1899945567
 30
0.0
 40
9.500203855907504
100
AcDbArc
 50
294.8956972952
 51
323.4080829451
  0
LWPOLYLINE
  5
293
330
1F
100
AcDbEntity
  8
0
  6
Continuous
 62
     8
370
    18
100
AcDbPolyline
 90
        3
 70
   128
 43
0.0
 10
133.0002614457
 20
212.5268127184
 10
132.4224260332
 20
213.4790879089
 10
132.0665521269
 20
214.4091904887
  0
ARC
  5
294
330
1F
100
AcDbEntity
  8
0
  6
Continuous
 62
     8
370
    18
100
AcDbCircle
 10
140.6279901229
 20
218.1899945568
 30
0.0
 40
9.500203856028575
100
AcDbArc
 50
216.5919170551
 51
245.1043027047
  0
ARC
  5
295
330
1F
100
AcDbEntity
  8
0
  6
Continuous
 62
     8
370
    18
100
AcDbCircle
 10
62.0747194724
 20
259.7996897542
 30
0.0
 40
89.89471126963562
100
AcDbArc
 50
319.3982948188
 51
326.0318116727
  0
LINE
  5
296
330
1F
100
AcDbEntity
  8
0
  6
Continuous
 62
     8
370
    18
100
AcDbLine
 10
129.4640119083
 20
201.2031317859
 30
0.0
 11
130.3274533358
 21
201.296498094
 31
0.0
  0
ARC
  5
297
330
1F
100
AcDbEntity
  8
0
  6
Continuous
 62
     8
370
    18
100
AcDbCircle
 10
31.8801823639
 20
273.4364627513
 30
0.0
 40
116.2821033394409
100
AcDbArc
 50
324.0672129027
 51
329.494484892
  0
LINE
  5
298
330
1F
100
AcDbEntity
  8
0
  6
Continuous
 62
     8
370
    18
100
AcDbLine
 10
147.850666555
 20
214.4091904883
 30
0.0
 11
147.8506665551
 21
238.8809592484
 31
0.0
  0
LINE
  5
299
330
1F
100
AcDbEntity
  8
0
  6
Continuous
 62
     8
370
    18
100
AcDbLine
 10
132.0665521268
 20
238.8809592484
 30
0.0
 11
132.0665521269
 21
214.4091904886
 31
0.0
  0
ARC
  5
29A
330
1F
100
AcDbEntity
  8
0
  6
Continuous
 62
     8
370
    18
100
AcDbCircle
 10
158.0713616746
 20
199.1273672813
 30
0.0
 40
8.75457621837358
100
AcDbArc
 50
165.6543446546
 51
180.8440714385
  0
ARC
  5
29B
330
1F
100
AcDbEntity
  8
0
  6
Continuous
 62
     8
370
    18
100
AcDbCircle
 10
121.8458570073
 20
199.1273672813
 30
0.0
 40
8.754576218296723
100
AcDbArc
 50
359.1559285615
 51
14.3456553455
  0
LINE
  5
29C
330
1F
100
AcDbEntity
  8
0
  6
Continuous
 62
     8
370
    18
100
AcDbLine
 10
149.5897653461
 20
201.2964980941
 30
0.0
 11
130.3274533358
 21
201.2964980941
 31
0.0
  0
LINE
  5
29D
330
1F
100
AcDbEntity
  8
0
  6
Continuous
 62
     8
370
    18
100
AcDbLine
 10
136.6287111896
 20
209.572591159
 30
0.0
 11
143.2885074924
 21
209.572591159
 31
0.0
  0
ARC
  5
29E
330
1F
100
AcDbEntity
  8
0
  6
Continuous
 62
     8
370
    18
100
AcDbCircle
 10
127.4568335814
 20
239.1013801299
 30
0.0
 40
7.076467793023779
100
AcDbArc
 50
29.4147169084
 51
46.1174164275
  0
ARC
  5
29F
330
1F
100
AcDbEntity
  8
0
  6
Continuous
 62
     8
370
    18
100
AcDbCircle
 10
142.0262114317
 20
236.8667164538
 30
0.0
 40
10.16129851469539
100
AcDbArc
 50
145.8094435353
 51
168.5667073924
  0
ARC
  5
2A0
330
1F
100
AcDbEntity
  8
0
  6
Continuous
 62
     8
370
    18
100
AcDbCircle
 10
137.8910119947
 20
236.8667184494
 30
0.0
 40
10.1612934688385
100
AcDbArc
 50
11.4332868817
 51
34.1905621905
  0
ARC
  5
2A1
330
1F
100
AcDbEntity
  8
0
  6
Continuous
 62
     8
370
    18
100
AcDbCircle
 10
152.456749932
 20
239.104196409
 30
0.0
 40
7.071918121827828
100
AcDbArc
 50
133.8771723746
 51
150.5906942895
  0
LINE
  5
2A2
330
1F
100
AcDbEntity
  8
0
  6
Continuous
 62
     8
370
    18
100
AcDbLine
 10
133.6210575616
 20
242.5768281799
 30
0.0
 11
135.7199786001
 21
242.5768281799
 31
0.0
  0
LINE
  5
2A3
330
1F
100
AcDbEntity
  8
0
  6
Continuous
 62
     8
370
    18
100
AcDbLine
 10
135.7199786001
 20
242.5768281799
 30
0.0
 11
135.7199786001
 21
214.4091904887
 31
0.0
  0
LINE
  5
2A4
330
1F
100
AcDbEntity
  8
0
  6
Continuous
 62
     8
370
    18
100
AcDbLine
 10
135.7199786001
 20
214.4091904887
 30
0.0
 11
132.0665521269
 21
214.4091904887
 31
0.0
  0
LINE
  5
2A5
330
1F
100
AcDbEntity
  8
0
  6
Continuous
 62
     8
370
    18
100
AcDbLine
 10
144.1972400819
 20
242.5768281799
 30
0.0
 11
146.2961611204
 21
242.5768281799
 31
0.0
  0
LINE
  5
2A6
330
1F
100
AcDbEntity
  8
0
  6
Continuous
 62
     8
370
    18
100
AcDbLine
 10
147.8506665551
 20
214.4091904883
 30
0.0
 11
144.1972400819
 21
214.4091904883
 31
0.0
  0
LINE
  5
2A7
330
1F
100
AcDbEntity
  8
0
  6
Continuous
 62
     8
370
    18
100
AcDbLine
 10
144.1972400819
 20
214.4091904883
 30
0.0
 11
144.1972400819
 21
242.5768281799
 31
0.0
  0
LWPOLYLINE
  5
2A8
330
1F
100
AcDbEntity
  8
0
  6
Continuous
 62
     8
370
    18
100
AcDbPolyline
 90
        3
 70
   128
 43
0.0
 10
135.8406779007
 20
213.8505871852
 10
135.7503109053
 20
214.1113817125
 10
135.7199786001
 20
214.4091904887
  0
ARC
  5
2A9
330
1F
100
AcDbEntity
  8
0
  6
Continuous
 62
     8
370
    18
100
AcDbCircle
 10
170.4972437807
 20
135.7789406685
 30
0.0
 40
85.4181453112608
100
AcDbArc
 50
113.9367793512
 51
116.0389124714
  0
LWPOLYLINE
  5
2AA
330
1F
100
AcDbEntity
  8
0
  6
Continuous
 62
     8
370
    18
100
AcDbPolyline
 90
        3
 70
   128
 43
0.0
 10
144.1972400819
 20
214.4091904886
 10
144.1669077766
 20
214.1113817125
 10
144.0765407812
 20
213.8505871852
  0
ARC
  5
2AB
330
1F
100
AcDbEntity
  8
0
  6
Continuous
 62
     8
370
    18
100
AcDbCircle
 10
109.4199749013
 20
135.7789406685
 30
0.0
 40
85.41814531124112
100
AcDbArc
 50
63.9610875286
 51
66.0632206488
  0
ARC
  5
2AC
330
1F
100
AcDbEntity
  8
0
  6
Continuous
 62
     8
370
    18
100
AcDbCircle
 10
161.932944526
 20
216.4453655304
 30
0.0
 40
26.22096970560209
100
AcDbArc
 50
185.6791786131
 51
195.1952899379
  0
LINE
  5
2AD
330
1F
100
AcDbEntity
  8
0
  6
Continuous
 62
     8
370
    18
100
AcDbLine
 10
135.8406779007
 20
213.8505871852
 30
0.0
 11
144.0765407812
 21
213.8505871852
 31
0.0
  0
ARC
  5
2AE
330
1F
100
AcDbEntity
  8
0
  6
Continuous
 62
     8
370
    18
100
AcDbCircle
 10
117.214357765
 20
216.5871888846
 30
0.0
 40
27.00121969950115
100
AcDbArc
 50
344.9425061246
 51
354.1830253245
  0
LWPOLYLINE
  5
2AF
330
1F
100
AcDbEntity
  8
0
  6
Continuous
 62
     8
370
    18
100
AcDbPolyline
 90
       10
 70
   128
 43
0.0
 10
133.6210575616
 20
242.5768281799
 10
133.5944563385
 20
243.1411847573
 10
133.5154609338
 20
243.6883936457
 10
133.3864715831
 20
244.2018281799
 10
133.2114075624
 20
244.6658879113
 10
132.9955881034
 20
245.06647262
 10
132.7455707712
 20
245.3914107422
 10
132.4689522159
 20
245.6308291974
 10
132.1741373523
 20
245.7774533772
 10
131.8700839809
 20
245.8268281799
  0
LWPOLYLINE
  5
2B0
330
1F
100
AcDbEntity
  8
0
  6
Continuous
 62
     8
370
    18
100
AcDbPolyline
 90
       10
 70
   128
 43
0.0
 10
148.0471347011
 20
245.8268281799
 10
147.7430813296
 20
245.7774533772
 10
147.448266466
 20
245.6308291974
 10
147.1716479107
 20
245.3914107422
 10
146.9216305785
 20
245.06647262
 10
146.7058111196
 20
244.6658879113
 10
146.5307470989
 20
244.2018281799
 10
146.4017577481
 20
243.6883936457
 10
146.3227623435
 20
243.1411847573
 10
146.2961611204
 20
242.5768281799
  0
ARC
  5
2B1
330
1F
100
AcDbEntity
  8
0
  6
Continuous
 62
     8
370
    18
100
AcDbCircle
 10
127.4387475195
 20
243.4147705248
 30
0.0
 40
8.323517020037169
100
AcDbArc
 50
354.2221505721
 51
16.8452808969
  0
ARC
  5
2B2
330
1F
100
AcDbEntity
  8
0
  6
Continuous
 62
     8
370
    18
100
AcDbCircle
 10
153.1611240232
 20
243.3486330756
 30
0.0
 40
8.99704941140674
100
AcDbArc
 50
164.0114462532
 51
184.9211222778
  0
LINE
  5
2B3
330
1F
100
AcDbEntity
  8
0
  6
Continuous
 62
     8
370
    18
100
AcDbLine
 10
135.7199786001
 20
242.5768281799
 30
0.0
 11
144.1972400819
 21
242.5768281799
 31
0.0
  0
HATCH
  5
2B4
330
1F
100
AcDbEntity
  8
0
  6
Continuous
 62
     7
370
    18
100
AcDbHatch
 10
0.0
 20
0.0
 30
0.0
210
0.0
220
0.0
230
1.0
  2
ANSI31
 70
     0
 71
     0
 91
        1
 92
        0
 93
       12
 72
     1
 10
190.9586093409897
 20
244.5768281798608
 11
190.9586093409897
 21
245.8268281798608
 72
     1
 10
190.9586093409897
 20
245.8268281798608
 11
186.2276357144306
 21
245.8268281798608
 72
     2
 10
186.2273025612693
 20
242.5768281798608
 40
3.25
 50
89.99412668615255
 51
149.9999999999995
 73
     1
 72
     1
 10
183.4127199989699
 20
244.2018281798609
 11
173.1440267786903
 21
226.4159297949985
 72
     2
 10
175.9586093409897
 20
224.7909297949985
 40
3.25
 50
149.9999999999995
 51
180.0
 73
     1
 72
     1
 10
172.7086093409897
 20
224.7909297949985
 11
172.7086093409897
 21
175.8268281798608
 72
     1
 10
172.7086093409897
 20
175.8268281798608
 11
173.9586093409897
 21
175.8268281798608
 72
     1
 10
173.9586093409897
 20
175.8268281798608
 11
173.9586093409897
 21
224.7909297949985
 72
     2
 10
175.9586093409897
 20
224.7909297949985
 40
2.0
 50
180.0
 51
210.0000000000016
 73
     0
 72
     1
 10
174.2265585334208
 20
225.7909297949985
 11
184.4952517537004
 21
243.5768281798608
 72
     2
 10
186.2273025612693
 20
242.5768281798608
 40
2.0
 50
209.9999999999999
 51
269.9999999999992
 73
     0
 72
     1
 10
186.2273025612693
 20
244.5768281798608
 11
190.9586093409897
 21
244.5768281798608
 97
        0
 75
     0
 76
     1
 52
0.0
 41
1.0
 77
     0
 78
     1
 53
45.0
 43
0.0
 44
0.0
 45
-2.245064030267288
 46
2.245064030267288
 79
     0
 98
        1
 10
0.0
 20
0.0
  0
HATCH
  5
2B5
330
1F
100
AcDbEntity
  8
0
  6
Continuous
 62
     7
370
    18
100
AcDbHatch
 10
0.0
 20
0.0
 30
0.0
210
0.0
220
0.0
230
1.0
  2
ANSI31
 70
     0
 71
     0
 91
        1
 92
        0
 93
       12
 72
     2
 10
93.68991612071012
 20
242.5768281798608
 40
3.25
 50
30.00000000000035
 51
89.999999999999
 73
     1
 72
     1
 10
93.68991612071018
 20
245.8268281798608
 11
88.95860934098971
 21
245.8268281798608
 72
     1
 10
88.95860934098971
 20
245.8268281798608
 11
88.95860934098971
 21
244.5768281798608
 72
     1
 10
88.95860934098971
 20
244.5768281798608
 11
93.68958296754266
 21
244.5768281798608
 72
     2
 10
93.68991612071012
 20
242.5768281798608
 40
2.0
 50
269.9904558648756
 51
330.0000000000018
 73
     0
 72
     1
 10
95.421966928279
 20
243.5768281798608
 11
105.6906601485586
 21
225.7909297949985
 72
     2
 10
103.9586093409897
 20
224.7909297949985
 40
2.0
 50
330.0000000000002
 51
360.0000000000008
 73
     0
 72
     1
 10
105.9586093409897
 20
224.7909297949985
 11
105.9586093409897
 21
175.8268281798608
 72
     1
 10
105.9586093409897
 20
175.8268281798608
 11
107.2086093409897
 21
175.8268281798608
 72
     1
 10
107.2086093409897
 20
175.8268281798608
 11
107.2086093409897
 21
224.7909297949985
 72
     2
 10
103.9586093409897
 20
224.7909297949985
 40
3.25
 50
0.0
 51
30.00000000000035
 73
     1
 72
     1
 10
106.7731919032891
 20
226.4159297949985
 11
96.50449868300957
 21
244.2018281798609
 97
        0
 75
     0
 76
     1
 52
0.0
 41
1.0
 77
     0
 78
     1
 53
45.0
 43
0.0
 44
0.0
 45
-2.245064030267288
 46
2.245064030267288
 79
     0
 98
        1
 10
0.0
 20
0.0
  0
HATCH
  5
2B6
330
1F
100
AcDbEntity
  8
0
  6
Continuous
 62
     7
370
    18
100
AcDbHatch
 10
0.0
 20
0.0
 30
0.0
210
0.0
220
0.0
230
1.0
  2
ANSI31
 70
     0
 71
     0
 91
        1
 92
        0
 93
       26
 72
     1
 10
94.95860934098972
 20
176.8268281798608
 11
94.95860934098972
 21
225.8268281798608
 72
     1
 10
94.95860934098972
 20
225.8268281798608
 11
93.95860934098972
 21
225.8268281798608
 72
     1
 10
93.95860934098972
 20
225.8268281798608
 11
93.95860934098972
 21
176.8268281798608
 72
     2
 10
109.9586093409897
 20
176.8268281798608
 40
16.0
 50
180.0
 51
270.0000000000008
 73
     1
 72
     1
 10
109.9586093409897
 20
160.8268281798608
 11
119.196742880835
 21
160.8268281798608
 72
     2
 10
119.1967516018647
 20
176.8268281798608
 40
16.0
 50
270.0000000000007
 51
311.5000000000008
 73
     1
 72
     1
 10
129.7986723733165
 20
164.8435366472368
 11
130.0446553390774
 21
165.0611639916958
 72
     2
 10
139.9839560623135
 20
153.8268281798608
 40
15.00000000000004
 50
228.5000000000009
 51
269.9031826101696
 73
     0
 72
     2
 10
139.933262619666
 20
153.8268281798608
 40
15.00000000000004
 50
270.096817389832
 51
311.5000000000008
 73
     0
 72
     1
 10
149.8725633429021
 20
165.0611639916958
 11
150.1185463086629
 21
164.8435366472368
 72
     2
 10
160.7204670801147
 20
176.8268281798608
 40
16.0
 50
228.5000000000008
 51
270.0000000000008
 73
     1
 72
     1
 10
160.7204694901479
 20
160.8268281798608
 11
169.9586254232025
 21
160.8268281798608
 72
     2
 10
169.9586093409897
 20
176.8268281798608
 40
16.0
 50
270.0000575901832
 51
360.0000000000008
 73
     1
 72
     1
 10
185.9586093409897
 20
176.8268281798608
 11
185.9586093409897
 21
225.8268281798608
 72
     1
 10
185.9586093409897
 20
225.8268281798608
 11
184.9586093409897
 21
225.8268281798608
 72
     1
 10
184.9586093409897
 20
225.8268281798608
 11
184.9586093409897
 21
176.8268281798608
 72
     2
 10
169.9586093409897
 20
176.8268281798608
 40
15.0
 50
0.0
 51
90.0
 73
     0
 72
     1
 10
169.9586151169805
 20
161.8268281798608
 11
160.7204797963653
 21
161.8268281798608
 72
     2
 10
160.7204670801147
 20
176.8268281798608
 40
15.0000000000002
 50
89.99995142750059
 51
131.5454692449037
 73
     0
 72
     1
 10
150.772254053163
 20
165.6003836148886
 11
150.5323673855666
 21
165.8126109814921
 72
     2
 10
139.933262619666
 20
153.8268281798609
 40
15.99999999999992
 50
48.51346389300543
 51
89.90923370226405
 73
     1
 72
     2
 10
139.9839560623134
 20
153.8268281798609
 40
15.99999999999992
 50
90.09076629773598
 51
131.4865361069945
 73
     1
 72
     1
 10
129.3848512964128
 20
165.8126109814921
 11
129.1449646288165
 21
165.6003836148886
 72
     2
 10
119.1967516018647
 20
176.8268281798608
 40
15.0000000000002
 50
48.45453075509628
 51
90.0
 73
     0
 72
     1
 10
119.1967516018647
 20
161.8268281798606
 11
109.9585942608768
 21
161.8268281798608
 72
     2
 10
109.9586093409897
 20
176.8268281798608
 40
15.0
 50
90.00005760178854
 51
180.0
 73
     0
 97
        0
 75
     0
 76
     1
 52
0.0
 41
1.0
 77
     0
 78
     1
 53
45.0
 43
0.0
 44
0.0
 45
-2.245064030267288
 46
2.245064030267288
 79
     0
 98
        1
 10
0.0
 20
0.0
  0
HATCH
  5
2B7
330
1F
100
AcDbEntity
  8
0
  6
Continuous
 62
     7
370
    18
100
AcDbHatch
 10
0.0
 20
0.0
 30
0.0
210
0.0
220
0.0
230
1.0
  2
ANSI31
 70
     0
 71
     0
 91
        1
 92
        0
 93
        1
 72
     2
 10
139.9586093409897
 20
234.4268281798608
 40
2.5
 50
0.0
 51
360.0
 73
     1
 97
        0
 75
     0
 76
     1
 52
0.0
 41
0.25
 77
     0
 78
     1
 53
45.0
 43
0.0
 44
0.0
 45
-0.5612660075668221
 46
0.5612660075668221
 79
     0
 98
        1
 10
0.0
 20
0.0
  0
HATCH
  5
2B8
330
1F
100
AcDbEntity
  8
0
  6
Continuous
 62
     7
370
    18
100
AcDbHatch
 10
0.0
 20
0.0
 30
0.0
210
0.0
220
0.0
230
1.0
  2
DIN 128 Elastomer-Gummi
 70
     0
 71
     0
 91
        1
 92
        0
 93
       14
 72
     1
 10
185.9586093409899
 20
248.5018281798593
 11
185.9586093409899
 21
246.1768281798611
 72
     1
 10
185.9586093409899
 20
246.1768281798611
 11
190.9586093409899
 21
246.1768281798614
 72
     1
 10
190.9586093409899
 20
246.1768281798614
 11
190.9586093409899
 21
244.576828179861
 72
     1
 10
190.9586093409899
 20
244.576828179861
 11
185.9586093409903
 21
244.5768281798608
 72
     1
 10
185.9586093409903
 20
244.5768281798608
 11
185.9586093409903
 21
242.2518281798593
 72
     1
 10
185.9586093409903
 20
242.2518281798593
 11
191.5203484166383
 21
242.2518281798597
 72
     2
 10
191.5202876832236
 20
242.7518281798594
 40
0.499999999999634
 50
270.006959536642
 51
352.4784170159398
 73
     1
 72
     1
 10
192.0159854945142
 20
242.6863783526523
 11
192.8620295116042
 21
249.0940678061326
 72
     2
 10
193.8534251341861
 20
248.9631681517184
 40
1.0
 50
187.5215829840575
 51
243.4225014848461
 73
     0
 72
     4
 94
        3
 73
     1
 74
     0
 95
       26
 96
       22
 40
0.0
 40
0.0
 40
0.0
 40
0.0
 40
0.0003357713719788
 40
0.0003357713719788
 40
0.0003357713719788
 40
0.0006715427439576
 40
0.0006715427439576
 40
0.0006715427439576
 40
0.0010073141159364
 40
0.0010073141159364
 40
0.0010073141159364
 40
0.0013430854879152
 40
0.0013430854879152
 40
0.0013430854879152
 40
0.0016788568598941
 40
0.0016788568598941
 40
0.0016788568598941
 40
0.0020146282318729
 40
0.0020146282318729
 40
0.0020146282318729
 40
0.0020919249173782
 40
0.0020919249173782
 40
0.0020919249173782
 40
0.0020919249173782
 10
193.4060172375879
 20
249.8574981657857
 42
1.0
 10
193.506114042863
 20
249.9075737535441
 42
1.0
 10
193.5989456211892
 20
249.9756217748447
 42
1.0
 10
193.6768245492033
 20
250.0560071434573
 42
1.0
 10
193.7547034772174
 20
250.1363925120699
 42
1.0
 10
193.81977775191
 20
250.2313323557115
 42
1.0
 10
193.8666585443004
 20
250.3329646646514
 42
1.0
 10
193.9135393366907
 20
250.4345969735914
 42
1.0
 10
193.943519676916
 20
250.5457248923941
 42
1.0
 10
193.9541168799671
 20
250.6571458697867
 42
1.0
 10
193.9647140830181
 20
250.7685668471792
 42
1.0
 10
193.9562204328393
 20
250.8833540112878
 42
1.0
 10
193.9293392922948
 20
250.9920017871447
 42
1.0
 10
193.9024581517503
 20
251.1006495630016
 42
1.0
 10
193.8564481057943
 20
251.2061545904106
 42
1.0
 10
193.7951192663368
 20
251.2997799521798
 42
1.0
 10
193.7337904268794
 20
251.393405313949
 42
1.0
 10
193.6554512688065
 20
251.4777333131538
 42
1.0
 10
193.5665890918591
 20
251.5457807115154
 42
1.0
 10
193.545853855602
 20
251.5616589955073
 42
1.0
 10
193.5244797449112
 20
251.5767359055357
 42
1.0
 10
193.5025650524742
 20
251.5909421077219
 42
1.0
 72
     2
 10
194.0465207639586
 20
252.4300560355908
 40
1.0
 50
122.9533294624138
 51
153.118168090347
 73
     0
 72
     2
 10
192.7086093409899
 20
251.7518281798593
 40
0.5
 50
26.88183190966392
 51
143.7815835925628
 73
     1
 72
     1
 10
192.3052241240472
 20
252.0472606878068
 11
189.7086093409899
 21
248.5018281798593
 72
     1
 10
189.7086093409899
 20
248.5018281798593
 11
185.9586093409899
 21
248.5018281798593
 97
        0
 75
     0
 76
     2
 52
180.0
 41
0.125
 77
     0
 78
     3
 53
225.0000020971721
 43
-0.8418989999999942
 44
-0.841899000000006
 45
-0.5612659459355058
 46
-1.683798043244237
 79
     2
 49
0.79375
 49
-1.5875
 53
225.0000020971721
 43
-1.964431249999994
 44
-0.8418990000000138
 45
-0.5612659459355058
 46
-1.683798043244237
 79
     2
 49
0.79375
 49
-1.5875
 53
314.9999719140479
 43
0.0
 44
0.0
 45
0.5612662826950509
 46
0.5612657324384583
 79
     0
 98
        1
 10
0.0
 20
0.0
  0
HATCH
  5
2B9
330
1F
100
AcDbEntity
  8
0
  6
Continuous
 62
     7
370
    18
100
AcDbHatch
 10
0.0
 20
0.0
 30
0.0
210
0.0
220
0.0
230
1.0
  2
DIN 128 Elastomer-Gummi
 70
     0
 71
     0
 91
        1
 92
        0
 93
       14
 72
     1
 10
93.9586093409896
 20
246.1768281798611
 11
93.9586093409896
 21
248.5018281798593
 72
     1
 10
93.9586093409896
 20
248.5018281798593
 11
90.2086093409896
 21
248.5018281798593
 72
     1
 10
90.2086093409896
 20
248.5018281798593
 11
87.61199455793223
 21
252.0472606878068
 72
     2
 10
87.2086093409896
 20
251.7518281798593
 40
0.5
 50
36.21841640743913
 51
153.1181680903361
 73
     1
 72
     2
 10
85.87069791802091
 20
252.4300560355908
 40
1.0
 50
26.88183190965379
 51
57.04667053758829
 73
     0
 72
     4
 94
        3
 73
     1
 74
     0
 95
       26
 96
       22
 40
0.0
 40
0.0
 40
0.0
 40
0.0
 40
0.0003357713719788
 40
0.0003357713719788
 40
0.0003357713719788
 40
0.0006715427439576
 40
0.0006715427439576
 40
0.0006715427439576
 40
0.0010073141159364
 40
0.0010073141159364
 40
0.0010073141159364
 40
0.0013430854879152
 40
0.0013430854879152
 40
0.0013430854879152
 40
0.001678856859894
 40
0.001678856859894
 40
0.001678856859894
 40
0.0020146282318729
 40
0.0020146282318729
 40
0.0020146282318729
 40
0.0020919249173782
 40
0.0020919249173782
 40
0.0020919249173782
 40
0.0020919249173782
 10
86.41465362950521
 20
251.5909421077219
 42
1.0
 10
86.32073681790287
 20
251.5300605225417
 42
1.0
 10
86.23603613048469
 20
251.4521244674173
 42
1.0
 10
86.16756566800257
 20
251.3635878609593
 42
1.0
 10
86.09909520552044
 20
251.2750512545013
 42
1.0
 10
86.04496646807966
 20
251.1734721477887
 42
1.0
 10
86.00966187996218
 20
251.0672623508137
 42
1.0
 10
85.97435729184468
 20
250.9610525538387
 42
1.0
 10
85.95690310892017
 20
250.8472826692652
 42
1.0
 10
85.95874471966548
 20
250.7353740307001
 42
1.0
 10
85.96058633041073
 20
250.6234653921351
 42
1.0
 10
85.98177452872396
 20
250.5103314211551
 42
1.0
 10
86.02055471069049
 20
250.4053407910862
 42
1.0
 10
86.05933489265702
 20
250.3003501610174
 42
1.0
 10
86.1167766635768
 20
250.200607100652
 42
1.0
 10
86.18812324542499
 20
250.1143713761859
 42
1.0
 10
86.25946982727316
 20
250.0281356517198
 42
1.0
 10
86.34668904686772
 20
249.9530287753982
 42
1.0
 10
86.44255824271218
 20
249.895270380305
 42
1.0
 10
86.46492850747387
 20
249.8817929480697
 42
1.0
 10
86.48784470278042
 20
249.8691828800089
 42
1.0
 10
86.51120144439149
 20
249.8574981657857
 42
1.0
 72
     2
 10
86.06379354779338
 20
248.9631681517184
 40
1.0
 50
296.5774985151555
 51
352.4784170159404
 73
     0
 72
     1
 10
87.05518917037513
 20
249.0940678061326
 11
87.90123318746522
 21
242.6863783526523
 72
     2
 10
88.3969309987558
 20
242.7518281798594
 40
0.499999999999634
 50
187.5215829840614
 51
270.0000000000008
 73
     1
 72
     1
 10
88.3969309987558
 20
242.2518281798597
 11
93.95860934098913
 21
242.2518281798593
 72
     1
 10
93.95860934098913
 20
242.2518281798593
 11
93.95860934098913
 21
244.5768281798608
 72
     1
 10
93.95860934098913
 20
244.5768281798608
 11
88.9586093409896
 21
244.576828179861
 72
     1
 10
88.9586093409896
 20
244.576828179861
 11
88.9586093409896
 21
246.1768281798614
 72
     1
 10
88.9586093409896
 20
246.1768281798614
 11
93.9586093409896
 21
246.1768281798611
 97
        0
 75
     0
 76
     2
 52
180.0
 41
0.125
 77
     0
 78
     3
 53
225.0000020971721
 43
-0.8418989999999942
 44
-0.841899000000006
 45
-0.5612659459355058
 46
-1.683798043244237
 79
     2
 49
0.79375
 49
-1.5875
 53
225.0000020971721
 43
-1.964431249999994
 44
-0.8418990000000138
 45
-0.5612659459355058
 46
-1.683798043244237
 79
     2
 49
0.79375
 49
-1.5875
 53
314.9999719140479
 43
0.0
 44
0.0
 45
0.5612662826950509
 46
0.5612657324384583
 79
     0
 98
        1
 10
0.0
 20
0.0
  0
DIMENSION
  5
2BA
330
1F
100
AcDbEntity
  8
0
  6
Continuous
 62
     7
370
    18
100
AcDbDimension
  2
_D
 10
193.958609341
 20
262.2518281799
 30
0.0
 11
139.958609341
 21
262.2518281799
 31
0.0
 70
   160
  1
%%c<>
 71
     2
 42
-1.0
  3
SLDDIMSTYLE0
100
AcDbAlignedDimension
 13
85.958609341
 23
250.7518281799
 33
0.0
 14
193.958609341
 24
250.7518281799
 34
0.0
100
AcDbRotatedDimension
  0
DIMENSION
  5
2C6
330
1F
100
AcDbEntity
  8
0
  6
Continuous
 62
     7
370
    18
100
AcDbDimension
  2
_D_1
 10
78.4911627907
 20
175.8268281799
 30
0.0
 11
78.4911627907
 21
200.8268281799
 31
0.0
 70
   160
  1
<>
 71
     2
 42
-1.0
  3
SLDDIMSTYLE0
100
AcDbAlignedDimension
 13
93.958609341
 23
225.8268281799
 33
0.0
 14
105.958609341
 24
175.8268281799
 34
0.0
 50
90.0
100
AcDbRotatedDimension
  0
DIMENSION
  5
2D0
330
1F
100
AcDbEntity
  8
0
  6
Continuous
 62
     7
370
    18
100
AcDbDimension
  2
_D_2
 10
65.2904240847
 20
160.8268281799
 30
0.0
 11
65.2904240847
 21
206.5393281799
 31
0.0
 70
   160
  1
<>
 71
     2
 42
-1.0
  3
SLDDIMSTYLE1
100
AcDbAlignedDimension
 13
87.208609341
 23
252.2518281799
 33
0.0
 14
109.9585831219
 24
160.8268281799
 34
0.0
 50
90.0
100
AcDbRotatedDimension
  0
DIMENSION
  5
2DB
330
1F
100
AcDbEntity
  8
0
  6
Continuous
 62
     7
370
    18
100
AcDbDimension
  2
_D_3
 10
93.958609341
 20
150.824849561
 30
0.0
 11
139.958609341
 21
150.824849561
 31
0.0
 70
   160
  1
%%c<>
 71
     2
 42
-1.0
  3
SLDDIMSTYLE0
100
AcDbAlignedDimension
 13
185.958609341
 23
176.8268281799
 33
0.0
 14
93.958609341
 24
176.8268281799
 34
0.0
100
AcDbRotatedDimension
  0
MTEXT
  5
2E6
330
1F
100
AcDbEntity
  8
0
  6
Continuous
 62
     7
370
     0
100
AcDbMText
 10
139.857915452
 20
276.2896046025
 30
0.0
 40
5.0
 41
0.0
 71
     2
 72
     1
  1
A-A
  7
SLDTEXTSTYLE0
 73
     1
 44
1.0
  0
LINE
  5
2E7
330
1F
100
AcDbEntity
  8
0
  6
Continuous
 62
     7
370
    25
100
AcDbLine
 10
319.3124713788
 20
185.6322694012
 30
0.0
 11
319.8252577257
 21
185.6265616368
 31
0.0
  0
LWPOLYLINE
  5
2E8
330
1F
100
AcDbEntity
  8
0
  6
Continuous
 62
     7
370
    25
100
AcDbPolyline
 90
       46
 70
   128
 43
0.0
 10
283.4799999039
 20
240.6166822481
 10
282.2199387064
 20
239.935958751
 10
280.445242807
 20
238.8826237603
 10
278.752826382
 20
237.77854486
 10
277.1471854233
 20
236.6257779977
 10
275.6325606656
 20
235.4264457731
 10
274.212882488
 20
234.1826554091
 10
272.8918569062
 20
232.8965148093
 10
271.6730032385
 20
231.5701193904
 10
270.5596958887
 20
230.2055429555
 10
269.5552084707
 20
228.8048309117
 10
268.6627608569
 20
227.3699955594
 10
267.8855701175
 20
225.9030134455
 10
267.2269068234
 20
224.4058259977
 10
266.6901580525
 20
222.8803470495
 10
266.278896663
 20
221.3284842311
 10
265.9969519913
 20
219.7521844933
 10
265.8484699117
 20
218.1535153561
 10
265.8379415035
 20
216.534790586
 10
265.9701726258
 20
214.8987403377
 10
266.2500688364
 20
213.2491641738
 10
266.6824777145
 20
211.5902347546
 10
267.2719248554
 20
209.9269873687
 10
267.9377855336
 20
208.4355903171
 10
268.7265473718
 20
206.9654814429
 10
269.6362057402
 20
205.5204810764
 10
270.6644146775
 20
204.1042399331
 10
271.8084744505
 20
202.7202883477
 10
273.0653671139
 20
201.3720053251
 10
274.4317923912
 20
200.0626039619
 10
275.9041980041
 20
198.7951296395
 10
277.4788018194
 20
197.5724661266
 10
279.1516056199
 20
196.3973451283
 10
280.9183846852
 20
195.2723662831
 10
282.7746676348
 20
194.200011838
 10
284.7158409517
 20
193.182588951
 10
286.7370628233
 20
192.222286095
 10
288.833249974
 20
191.3211702574
 10
290.9990503189
 20
190.4811851493
 10
293.2287985292
 20
189.7041482277
 10
295.5164409975
 20
188.9917471401
 10
297.8554038094
 20
188.345536238
 10
300.2383490689
 20
187.7669340428
 10
302.6566974726
 20
187.2572233209
 10
305.099616916
 20
186.8175577681
 10
307.3487392643
 20
186.4794860533
  0
LWPOLYLINE
  5
2E9
330
1F
100
AcDbEntity
  8
0
  6
Continuous
 62
     7
370
    25
100
AcDbPolyline
 90
       50
 70
   128
 43
0.0
 10
327.5378425123
 20
185.9506760541
 10
327.7407063607
 20
185.9659560412
 10
329.8376923343
 20
186.1714093031
 10
332.0065379585
 20
186.4364948521
 10
334.2213324053
 20
186.7638451662
 10
336.4602070088
 20
187.154857278
 10
338.7060080349
 20
187.610221005
 10
340.9446404401
 20
188.130058194
 10
343.164207407
 20
188.7140470533
 10
345.3544260865
 20
189.361507988
 10
347.5062390308
 20
190.0714676194
 10
349.6115498719
 20
190.842708318
 10
351.6630400543
 20
191.6738082404
 10
353.6540389624
 20
192.5631750699
 10
355.5784294448
 20
193.5090755323
 10
357.430576745
 20
194.5096620036
 10
359.2052726444
 20
195.5629969943
 10
360.8976890694
 20
196.6670758946
 10
362.5033300281
 20
197.8198427569
 10
364.0179547858
 20
199.0191749815
 10
365.4376329634
 20
200.2629653455
 10
366.7586585452
 20
201.5491059453
 10
367.9775122129
 20
202.8755013642
 10
369.0908195627
 20
204.2400777991
 10
370.0953069807
 20
205.6407898429
 10
370.9877545945
 20
207.0756251952
 10
371.7649453339
 20
208.5426073091
 10
372.423608628
 20
210.0397947569
 10
372.9603573989
 20
211.5652737051
 10
373.3716187883
 20
213.1171365235
 10
373.6535634601
 20
214.6934362613
 10
373.8020455397
 20
216.2921053985
 10
373.8125739479
 20
217.9108301686
 10
373.6803428255
 20
219.5468804169
 10
373.400446615
 20
221.1964565808
 10
372.9680377369
 20
222.855386
 10
372.378590596
 20
224.5186333859
 10
371.7127299178
 20
226.0100304375
 10
370.9239680795
 20
227.4801393117
 10
370.0143097111
 20
228.9251396782
 10
368.9861007739
 20
230.3413808215
 10
367.8420410009
 20
231.7253324069
 10
366.5851483374
 20
233.0736154295
 10
365.2187230601
 20
234.3830167927
 10
363.7463174472
 20
235.6504911151
 10
362.171713632
 20
236.873154628
 10
360.4989098314
 20
238.0482756263
 10
358.7321307662
 20
239.1732544715
 10
356.8758478166
 20
240.2456089166
 10
356.6542964454
 20
240.3617301479
  0
ARC
  5
2EA
330
1F
100
AcDbEntity
  8
0
  6
Continuous
 62
     7
370
    25
100
AcDbCircle
 10
319.8757435824
 20
276.3510993331
 30
0.0
 40
90.72455174340313
100
AcDbArc
 50
269.9681163851
 51
274.8446586708
  0
ARC
  5
2EB
330
1F
100
AcDbEntity
  8
0
  6
Continuous
 62
     7
370
    25
100
AcDbCircle
 10
318.8843588683
 20
168.4126679973
 30
0.0
 40
80.58410315259584
100
AcDbArc
 50
89.3310000813
 51
113.1463214031
  0
ARC
  5
2EC
330
1F
100
AcDbEntity
  8
0
  6
Continuous
 62
     7
370
    25
100
AcDbCircle
 10
320.7639562006
 20
168.5562303766
 30
0.0
 40
80.44052486953119
100
AcDbArc
 50
66.3713827753
 51
90.6686266864
  0
LWPOLYLINE
  5
2ED
330
1F
100
AcDbEntity
  8
0
  6
Continuous
 62
     7
370
    25
100
AcDbPolyline
 90
        3
 70
   128
 43
0.0
 10
323.8198953635
 20
188.1762896884
 10
322.3331099689
 20
188.1220482726
 10
319.8252577257
 20
188.0874243767
  0
LWPOLYLINE
  5
2EE
330
1F
100
AcDbEntity
  8
0
  6
Continuous
 62
     7
370
    25
100
AcDbPolyline
 90
        3
 70
   128
 43
0.0
 10
349.2111997284
 20
193.2949566945
 10
348.6804095627
 20
193.0820765737
 10
346.8046818349
 20
192.4054660964
  0
LINE
  5
2EF
330
1F
100
AcDbEntity
  8
0
  6
Continuous
 62
     7
370
    25
100
AcDbLine
 10
267.8738633795
 20
208.5787633791
 30
0.0
 11
267.995188841
 21
207.8317336994
 31
0.0
  0
LINE
  5
2F0
330
1F
100
AcDbEntity
  8
0
  6
Continuous
 62
     7
370
    25
100
AcDbLine
 10
371.6553266104
 20
207.8317336994
 30
0.0
 11
371.7741944437
 21
208.5636311787
 31
0.0
  0
LWPOLYLINE
  5
2F1
330
1F
100
AcDbEntity
  8
0
  6
Continuous
 62
     7
370
    25
100
AcDbPolyline
 90
       28
 70
   128
 43
0.0
 10
271.1104560823
 20
200.0019022049
 10
271.1958054014
 20
199.8616554938
 10
272.1733275261
 20
198.4773260538
 10
273.2665872957
 20
197.1238792385
 10
274.4726911222
 20
195.8046012476
 10
275.7884790257
 20
194.5226524277
 10
277.2105386352
 20
193.281067806
 10
278.735214325
 20
192.0827599494
 10
280.3586120148
 20
190.9305219864
 10
282.0765921935
 20
189.82703453
 10
283.8847553607
 20
188.7748706273
 10
285.7784966152
 20
187.7764594056
 10
287.7529558177
 20
186.8341121164
 10
289.8030042315
 20
185.9500162411
 10
291.9232184131
 20
185.1262304704
 10
294.1078357015
 20
184.3646794367
 10
296.3506764794
 20
183.6671486172
 10
298.6450041764
 20
183.0352799126
 10
300.9832623429
 20
182.4705687225
 10
303.3565514159
 20
181.9743642818
 10
305.7535014994
 20
181.5478778546
 10
308.1575635019
 20
181.1922129825
 10
310.5394062129
 20
180.9084719852
 10
312.8298045935
 20
180.6982291843
 10
314.8655992884
 20
180.5618090267
 10
316.3815365611
 20
180.4906519318
 10
318.0955915083
 20
180.4412198277
 10
319.8252577257
 20
180.4245605607
  0
LWPOLYLINE
  5
2F2
330
1F
100
AcDbEntity
  8
0
  6
Continuous
 62
     7
370
    25
100
AcDbPolyline
 90
       28
 70
   128
 43
0.0
 10
319.8252577257
 20
180.4245605607
 10
322.6778225128
 20
180.4698930597
 10
323.8090030259
 20
180.5130382836
 10
325.6843078037
 20
180.6162742417
 10
327.6184738825
 20
180.7645839359
 10
329.6772442717
 20
180.9698377717
 10
331.8054101558
 20
181.2344552761
 10
333.9773899286
 20
181.5609998305
 10
336.1715530289
 20
181.9507963845
 10
338.370884843
 20
182.4044566809
 10
340.5613707533
 20
182.9220175629
 10
342.7311574558
 20
183.5030646699
 10
344.8699839797
 20
184.1468180523
 10
346.9688038323
 20
184.8521962857
 10
349.0195285265
 20
185.617866402
 10
351.0148503285
 20
186.4422846564
 10
352.9481172021
 20
187.3237313931
 10
354.8132423385
 20
188.2603421833
 10
356.6046364945
 20
189.2501366871
 10
358.3171550137
 20
190.2910461944
 10
359.9460537213
 20
191.3809404225
 10
361.4869403862
 20
192.5176468752
 10
362.9357320771
 20
193.6989692577
 10
364.2886490251
 20
194.9227371248
 10
365.5421521435
 20
196.1868166666
 10
366.6928960041
 20
197.4891329832
 10
367.7376743493
 20
198.8276885815
 10
368.539377313
 20
200.0039929794
  0
LINE
  5
2F3
330
1F
100
AcDbEntity
  8
0
  6
Continuous
 62
     7
370
    25
100
AcDbLine
 10
302.2314918819
 20
190.8494436396
 30
0.0
 11
351.9757224793
 21
219.5661767106
 31
0.0
  0
LINE
  5
2F4
330
1F
100
AcDbEntity
  8
0
  6
Continuous
 62
     7
370
    25
100
AcDbLine
 10
349.4759256477
 20
223.8964210225
 30
0.0
 11
295.617887168
 21
192.8048372112
 31
0.0
  0
LINE
  5
2F5
330
1F
100
AcDbEntity
  8
0
  6
Continuous
 62
     7
370
    25
100
AcDbLine
 10
273.8252577257
 20
196.5127862412
 30
0.0
 11
273.8252577257
 21
156.8600308587
 31
0.0
  0
LINE
  5
2F6
330
1F
100
AcDbEntity
  8
0
  6
Continuous
 62
     7
370
    25
100
AcDbLine
 10
365.8252577257
 20
156.8600308587
 30
0.0
 11
365.8252577257
 21
196.5072120487
 31
0.0
  0
LWPOLYLINE
  5
2F7
330
1F
100
AcDbEntity
  8
0
  6
Continuous
 62
     7
370
    25
100
AcDbPolyline
 90
       31
 70
   128
 43
0.0
 10
273.8353904577
 20
156.8525606907
 10
273.8743870671
 20
155.2623079472
 10
274.0645750545
 20
153.3385352127
 10
274.3991748534
 20
151.4197144998
 10
274.8794622909
 20
149.5120776545
 10
275.5067839436
 20
147.6215910272
 10
276.2827077152
 20
145.7539005799
 10
277.2091836285
 20
143.9143333809
 10
278.2886808461
 20
142.1079781148
 10
279.5242473156
 20
140.339864975
 10
280.9194166623
 20
138.6152560354
 10
282.3060137937
 20
137.113870426
 10
283.8107139692
 20
135.6704250511
 10
285.4290852348
 20
134.2909229882
 10
287.1549550496
 20
132.9814291182
 10
288.9803504151
 20
131.7477653869
 10
290.8958822718
 20
130.595036471
 10
292.8913639823
 20
129.5272543838
 10
294.9561851691
 20
128.5472941832
 10
297.0789471511
 20
127.6572130785
 10
299.250613371
 20
126.857192831
 10
301.4623211607
 20
126.1469117235
 10
303.704963561
 20
125.5257431664
 10
305.9681441088
 20
124.9929596057
 10
308.2379895878
 20
124.5478892433
 10
310.4916160262
 20
124.1900835743
 10
312.6792444988
 20
123.9197219136
 10
314.7543344506
 20
123.7312364478
 10
316.2331778404
 20
123.6364888235
 10
317.7761791557
 20
123.5723051514
 10
319.8252577257
 20
123.5413994961
  0
LWPOLYLINE
  5
2F8
330
1F
100
AcDbEntity
  8
0
  6
Continuous
 62
     7
370
    25
100
AcDbPolyline
 90
       33
 70
   128
 43
0.0
 10
319.8252577257
 20
123.5413994961
 10
322.4120330726
 20
123.5906699594
 10
323.4712415222
 20
123.6393693758
 10
325.2231555331
 20
123.7566090147
 10
327.0349120326
 20
123.9265395108
 10
328.9670296343
 20
124.1633767512
 10
330.9671412278
 20
124.4706526987
 10
333.0114128373
 20
124.8523100525
 10
335.0798549482
 20
125.3111197701
 10
337.1568900745
 20
125.8493283123
 10
339.2296673825
 20
126.4688180051
 10
341.2871240609
 20
127.171224673
 10
343.3192881191
 20
127.9579728113
 10
345.3167542843
 20
128.830237679
 10
347.2702830605
 20
129.7888346896
 10
349.1702313665
 20
130.8338778074
 10
351.0059715986
 20
131.9641802731
 10
352.7676004737
 20
133.1779662338
 10
354.4453515897
 20
134.4723921557
 10
356.0300447239
 20
135.8436604098
 10
357.5134901956
 20
137.2872597046
 10
358.8887574388
 20
138.7982870007
 10
360.1502241571
 20
140.3717445254
 10
361.2934179136
 20
142.0027266645
 10
362.3147346679
 20
143.6864680152
 10
363.2111371677
 20
145.4182785603
 10
363.9799090403
 20
147.193419371
 10
364.618497485
 20
149.0069717711
 10
365.1244419653
 20
150.8537372023
 10
365.4953664388
 20
152.7281864469
 10
365.7290063651
 20
154.6244619587
 10
365.8232436697
 20
156.536427452
 10
365.8153058886
 20
156.8601242677
  0
LINE
  5
2F9
330
1F
100
AcDbEntity
  8
0
  6
Continuous
 62
     7
370
    25
100
AcDbLine
 10
285.8252577257
 20
187.754141798
 30
0.0
 11
285.8252577257
 21
179.8527782015
 31
0.0
  0
LINE
  5
2FA
330
1F
100
AcDbEntity
  8
0
  6
Continuous
 62
     7
370
    25
100
AcDbLine
 10
353.8252577257
 20
179.8527782015
 30
0.0
 11
353.8252577257
 21
187.7642054733
 31
0.0
  0
LWPOLYLINE
  5
2FB
330
1F
100
AcDbEntity
  8
0
  6
Continuous
 62
     7
370
    25
100
AcDbPolyline
 90
        4
 70
   128
 43
0.0
 10
354.4680034522
 20
221.1642503538
 10
353.4389496677
 20
215.0381696192
 10
352.4060277263
 20
209.1901975035
 10
351.3607409997
 20
203.6465912096
  0
LWPOLYLINE
  5
2FC
330
1F
100
AcDbEntity
  8
0
  6
Continuous
 62
     7
370
    25
100
AcDbPolyline
 90
        3
 70
   128
 43
0.0
 10
351.360751669
 20
203.6466599923
 10
351.2461993371
 20
202.918573546
 10
351.1976254649
 20
202.128529191
  0
LINE
  5
2FD
330
1F
100
AcDbEntity
  8
0
  6
Continuous
 62
     7
370
    25
100
AcDbLine
 10
354.6969126318
 20
223.6943398388
 30
0.0
 11
354.4680023349
 21
221.1642474043
 31
0.0
  0
LINE
  5
2FE
330
1F
100
AcDbEntity
  8
0
  6
Continuous
 62
     7
370
    25
100
AcDbLine
 10
351.1972125213
 20
202.1224873617
 30
0.0
 11
351.1972125213
 21
195.9643405896
 31
0.0
  0
ARC
  5
2FF
330
1F
100
AcDbEntity
  8
0
  6
Continuous
 62
     7
370
    25
100
AcDbCircle
 10
319.7788561557
 20
276.7039220359
 30
0.0
 40
91.06591461788766
100
AcDbArc
 50
262.2677488625
 51
270.0321064879
  0
LWPOLYLINE
  5
300
330
1F
100
AcDbEntity
  8
0
  6
Continuous
 62
     7
370
    25
100
AcDbPolyline
 90
       16
 70
   128
 43
0.0
 10
287.1287216727
 20
242.4476744043
 10
286.2674699876
 20
242.0519250536
 10
284.0635094013
 20
240.9584520946
 10
281.9662759276
 20
239.7971304502
 10
279.9820285355
 20
238.5714259606
 10
278.1166889991
 20
237.2849966098
 10
276.3758242246
 20
235.9416816085
 10
274.7646296368
 20
234.5454899366
 10
273.2879136736
 20
233.100588379
 10
271.9500834359
 20
231.6112890896
 10
270.7551315348
 20
230.082036723
 10
269.7066241765
 20
228.5173951693
 10
268.807690519
 20
226.9220339337
 10
268.0610133338
 20
225.3007142014
 10
267.4688209989
 20
223.6582746275
 10
267.1959690922
 20
222.6944569111
  0
LWPOLYLINE
  5
301
330
1F
100
AcDbEntity
  8
0
  6
Continuous
 62
     7
370
    25
100
AcDbPolyline
 90
       16
 70
   128
 43
0.0
 10
372.5012913743
 20
222.507050991
 10
372.187863599
 20
223.6384295123
 10
371.5975393307
 20
225.2810931828
 10
370.8527062259
 20
226.9026955686
 10
369.9555871592
 20
228.4983971708
 10
368.9088594865
 20
230.0634357887
 10
367.7156470546
 20
231.593140732
 10
366.3795108784
 20
233.0829467599
 10
364.9044385134
 20
234.5284077055
 10
363.2948321552
 20
235.9252097455
 10
361.5554955019
 20
237.2691842734
 10
359.6916194177
 20
238.5563203412
 10
357.7087664413
 20
239.7827766287
 10
355.6128541854
 20
240.9448929085
 10
353.4101376759
 20
242.0392009688
 10
353.0855626828
 20
242.1905247201
  0
ARC
  5
302
330
1F
100
AcDbEntity
  8
0
  6
Continuous
 62
     7
370
    25
100
AcDbCircle
 10
320.7190035035
 20
269.4982487065
 30
0.0
 40
81.40683339071302
100
AcDbArc
 50
272.2832891726
 51
288.657440804
  0
LWPOLYLINE
  5
303
330
1F
100
AcDbEntity
  8
0
  6
Continuous
 62
     7
370
    25
100
AcDbPolyline
 90
       26
 70
   128
 43
0.0
 10
318.505247149
 20
188.0711358348
 10
318.0773277587
 20
188.0783780731
 10
315.1979322637
 20
188.1798263986
 10
312.3325898041
 20
188.3726897354
 10
309.4900023307
 20
188.6563823637
 10
306.6788026882
 20
189.0300427185
 10
303.9075283977
 20
189.4925360054
 10
301.1845957279
 20
190.0424576475
 10
298.5182741359
 20
190.678137551
 10
295.9166611529
 20
191.3976451767
 10
293.3876577918
 20
192.1987954038
 10
290.9389445528
 20
193.0791551653
 10
288.5779580975
 20
194.0360508376
 10
286.3118686642
 20
195.0665763599
 10
284.1475582921
 20
196.1676020601
 10
282.0915999204
 20
197.3357841593
 10
280.1502374274
 20
198.5675749269
 10
278.329366667
 20
199.8592334549
 10
276.634517564
 20
201.2068370187
 10
275.0708373192
 20
202.6062929905
 10
273.6430747783
 20
204.0533512687
 10
272.3555660092
 20
205.5436171847
 10
271.2122211337
 20
207.07256485
 10
270.2165124525
 20
208.6355509007
 10
269.3714639003
 20
210.2278285996
 10
268.8543532618
 20
211.3981381559
  0
LWPOLYLINE
  5
304
330
1F
100
AcDbEntity
  8
0
  6
Continuous
 62
     7
370
    25
100
AcDbPolyline
 90
       15
 70
   128
 43
0.0
 10
371.0857900972
 20
212.1568182522
 10
370.8371745569
 20
211.5001579633
 10
370.1126907108
 20
209.8881991116
 10
369.2354855836
 20
208.3017276566
 10
368.2082232183
 20
206.74556166
 10
367.0340233769
 20
205.2244271468
 10
365.7164520659
 20
203.7429437525
 10
364.259510706
 20
202.3056106935
 10
362.6676239802
 20
200.916793103
 10
360.9456263961
 20
199.5807087745
 10
359.0987476039
 20
198.3014153521
 10
357.1325965136
 20
197.0827980079
 10
355.0531442617
 20
195.9285576428
 10
352.8667060762
 20
194.8421996467
 10
350.579922098
 20
193.8270232532
  0
LWPOLYLINE
  5
305
330
1F
100
AcDbEntity
  8
0
  6
Continuous
 62
     7
370
    25
100
AcDbPolyline
 90
       76
 70
   128
 43
0.0
 10
363.444801218
 20
201.5740779298
 10
363.7221629934
 20
201.8701032579
 10
364.9763935112
 20
203.3254268217
 10
366.0859913292
 20
204.8193827352
 10
367.0474020709
 20
206.3471854075
 10
367.857546048
 20
207.903940826
 10
368.5138281251
 20
209.4846622336
 10
369.0141460327
 20
211.0842861032
 10
369.3568971019
 20
212.6976883573
 10
369.5409833976
 20
214.3197007821
 10
369.5658152359
 20
215.9451275828
 10
369.431313073
 20
217.5687620272
 10
369.1379077598
 20
219.1854031249
 10
368.686539162
 20
220.789872287
 10
368.0786531493
 20
222.377029915
 10
367.3161969638
 20
223.9417918646
 10
366.4016129826
 20
225.4791457315
 10
365.3378308939
 20
226.9841669078
 10
364.1282583125
 20
228.452034357
 10
362.7767698638
 20
229.878046057
 10
361.2876947731
 20
231.2576340626
 10
359.6658029965
 20
232.5863791374
 10
357.9162899425
 20
233.8600249103
 10
356.0447598288
 20
235.07449151
 10
354.0572077306
 20
236.2258886338
 10
351.9600003764
 20
237.3105280096
 10
349.7598557537
 20
238.3249352106
 10
347.463821589
 20
239.2658607845
 10
345.0792527719
 20
240.1302906633
 10
342.6137877952
 20
240.9154558172
 10
340.0753242865
 20
241.6188411257
 10
337.4719937097
 20
242.2381934335
 10
334.8121353175
 20
242.7715287685
 10
332.1042694382
 20
243.2171386968
 10
329.3570701826
 20
243.5735957955
 10
326.579337658
 20
243.839758225
 10
323.7799697793
 20
244.0147733868
 10
320.9679337656
 20
244.0980806547
 10
318.1522374161
 20
244.0894131702
 10
315.3419002549
 20
243.988798698
 10
312.5459246394
 20
243.7965595366
 10
309.7732669223
 20
243.5133114859
 10
307.0328087622
 20
243.1399618748
 10
304.3333286727
 20
242.6777066547
 10
301.6834739024
 20
242.1280265685
 10
299.091732735
 20
241.4926824072
 10
296.5664072987
 20
240.7737093696
 10
294.1155869724
 20
239.9734105431
 10
291.7471224723
 20
239.0943495262
 10
289.4686007043
 20
238.1393422163
 10
287.2873204605
 20
237.1114477897
 10
285.2102690391
 20
236.0139589022
 10
283.2440998621
 20
234.8503911415
 10
281.395111162
 20
233.624471766
 10
279.6692258071
 20
232.340127765
 10
278.0719723285
 20
231.0014732796
 10
276.6084672106
 20
229.6127964235
 10
275.2833985015
 20
228.1785455475
 10
274.1010107957
 20
226.7033149895
 10
273.0650916377
 20
225.1918303578
 10
272.1789593886
 20
223.6489333932
 10
271.4454525973
 20
222.0795664599
 10
270.8669209071
 20
220.4887567132
 10
270.4452175294
 20
218.8815999966
 10
270.1816933074
 20
217.2632445173
 10
270.0771923885
 20
215.6388743558
 10
270.1320495207
 20
214.0136928597
 10
270.3460889801
 20
212.392905975
 10
270.7186251337
 20
210.7817055708
 10
271.2484646359
 20
209.1852528078
 10
271.9339102511
 20
207.6086616055
 10
272.7727662903
 20
206.0569822607
 10
273.7623456447
 20
204.5351852702
 10
274.8994783934
 20
203.0481454086
 10
276.1805219572
 20
201.6006261128
 10
276.2057142333
 20
201.5740779298
  0
ARC
  5
306
330
1F
100
AcDbEntity
  8
0
  6
Continuous
 62
     7
370
    25
100
AcDbCircle
 10
351.8420103605
 20
211.2405824271
 30
0.0
 40
20.10442116715981
100
AcDbArc
 50
326.4181257769
 51
350.2379270953
  0
ARC
  5
307
330
1F
100
AcDbEntity
  8
0
  6
Continuous
 62
     7
370
    25
100
AcDbCircle
 10
288.0204174354
 20
211.3247537999
 30
0.0
 40
20.32759133987513
100
AcDbArc
 50
189.8946083789
 51
213.4535204582
  0
LWPOLYLINE
  5
308
330
1F
100
AcDbEntity
  8
0
  6
Continuous
 62
     7
370
    25
100
AcDbPolyline
 90
      108
 70
   128
 43
0.0
 10
346.8511612533
 20
193.896834556
 10
344.620011676
 20
193.0182447768
 10
342.3033894452
 20
192.2167598824
 10
339.9092804378
 20
191.4951427573
 10
337.4459376435
 20
190.8558809654
 10
334.9218527152
 20
190.3011781743
 10
332.3457266965
 20
189.8329465595
 10
329.7264400275
 20
189.4528002124
 10
327.073021932
 20
189.1620495763
 10
324.3946192918
 20
188.9616969287
 10
321.7004651157
 20
188.8524329269
 10
318.9998467112
 20
188.8346342263
 10
316.3020736695
 20
188.9083621828
 10
313.6164457731
 20
189.073362641
 10
310.9522209378
 20
189.3290668099
 10
308.3185832984
 20
189.6745932245
 10
305.7246115495
 20
190.1087507835
 10
303.179247649
 20
190.6300428559
 10
300.6912659938
 20
191.23667244
 10
298.2692431718
 20
191.9265483578
 10
295.9215283976
 20
192.6972924643
 10
293.6562147303
 20
193.5462478447
 10
291.4811111754
 20
194.470487974
 10
289.4037157655
 20
195.4668268051
 10
287.431189713
 20
196.5318297515
 10
285.5703327236
 20
197.6618255276
 10
283.8275595571
 20
198.8529188037
 10
282.2088779134
 20
200.1010036345
 10
280.7198677237
 20
201.4017776132
 10
279.3656619144
 20
202.7507567024
 10
278.1509287135
 20
204.1432906916
 10
277.0798555581
 20
205.5745792277
 10
276.1561346591
 20
207.0396883627
 10
275.382950274
 20
208.5335675618
 10
274.7629677293
 20
210.0510671139
 10
274.2983242334
 20
211.5869558838
 10
273.9906215087
 20
213.1359393447
 10
273.8409202702
 20
214.6926778296
 10
273.8497365691
 20
216.2518049386
 10
274.0170400138
 20
217.8079460375
 10
274.3422538746
 20
219.3557367856
 10
274.824257072
 20
220.8898416274
 10
275.4613880412
 20
222.4049721859
 10
276.2514504596
 20
223.8959054921
 10
277.1917208185
 20
225.3575019899
 10
278.2789578112
 20
226.7847232537
 10
279.5094135065
 20
228.1726493558
 10
280.8788462686
 20
229.5164958276
 10
282.3825353793
 20
230.8116301519
 10
284.0152973105
 20
232.0535877324
 10
285.7715035938
 20
233.2380872839
 10
287.6451002222
 20
234.3610455912
 10
289.62962852
 20
235.4185915843
 10
291.718247407
 20
236.4070796831
 10
293.9037569813
 20
237.3231023644
 10
296.1786233386
 20
238.1635019082
 10
298.5350045433
 20
238.9253812832
 10
300.9647776613
 20
239.6061141333
 10
303.4595667611
 20
240.2033538315
 10
306.0107717881
 20
240.7150415686
 10
308.60959821
 20
241.1394134512
 10
311.2470873336
 20
241.4750065813
 10
313.9141471876
 20
241.7206641
 10
316.6015838643
 20
241.8755391749
 10
319.3001332125
 20
241.9390979196
 10
322.0004927738
 20
241.9111212338
 10
324.6933538492
 20
241.7917055591
 10
327.3694335887
 20
241.5812625459
 10
330.0195069912
 20
241.2805176349
 10
332.6344387047
 20
240.8905075562
 10
335.2052145177
 20
240.4125767553
 10
337.7229724336
 20
239.8483727587
 10
340.1790332191
 20
239.1998404944
 10
342.564930324
 20
238.4692155874
 10
344.8724390666
 20
237.6590166533
 10
347.0936049864
 20
236.7720366156
 10
349.2207712642
 20
235.8113330781
 10
351.2466051172
 20
234.7802177851
 10
353.1641230764
 20
233.6822452045
 10
354.9667150603
 20
232.5212002753
 10
356.6481671608
 20
231.3010853599
 10
358.2026830642
 20
230.0261064471
 10
359.6249040321
 20
228.7006586535
 10
360.9099273742
 20
227.329311072
 10
362.0533233489
 20
225.916791022
 10
363.0511504333
 20
224.4679677527
 10
363.8999689109
 20
222.9878356579
 10
364.5968527284
 20
221.4814970597
 10
365.139399583
 20
219.9541446193
 10
365.5257392033
 20
218.4110434369
 10
365.7545397965
 20
216.857512902
 10
365.8250126397
 20
215.2989083562
 10
365.7369147982
 20
213.7406026322
 10
365.4905499638
 20
212.1879675327
 10
365.0867674069
 20
210.6463553125
 10
364.5269590497
 20
209.1210802282
 10
363.8130546675
 20
207.6174002192
 10
362.9475152367
 20
206.1404987818
 10
361.933324451
 20
204.6954671014
 10
360.7739784362
 20
203.2872865014
 10
359.473473698
 20
201.9208112721
 10
358.0362933458
 20
200.6007519367
 10
356.467391638
 20
199.3316590132
 10
354.7721769037
 20
198.1179073278
 10
352.9564928994
 20
196.963680934
 10
351.0265986639
 20
195.8729586893
 10
348.9891469425
 20
194.8495005392
 10
346.8511612533
 20
193.896834556
  0
LWPOLYLINE
  5
309
330
1F
100
AcDbEntity
  8
0
  6
Continuous
 62
     7
370
    25
100
AcDbPolyline
 90
       54
 70
   128
 43
0.0
 10
365.7958603842
 20
214.4363648568
 10
365.7545397965
 20
214.9590555144
 10
365.5257392033
 20
216.5125860493
 10
365.139399583
 20
218.0556872317
 10
364.5968527284
 20
219.5830396721
 10
363.8999689109
 20
221.0893782703
 10
363.0511504333
 20
222.569510365
 10
362.0533233489
 20
224.0183336344
 10
360.9099273742
 20
225.4308536844
 10
359.6249040321
 20
226.8022012658
 10
358.2026830642
 20
228.1276490595
 10
356.6481671608
 20
229.4026279723
 10
354.9667150603
 20
230.6227428877
 10
353.1641230764
 20
231.7837878169
 10
351.2466051172
 20
232.8817603975
 10
349.2207712642
 20
233.9128756905
 10
347.0936049864
 20
234.8735792279
 10
344.8724390666
 20
235.7605592657
 10
342.564930324
 20
236.5707581998
 10
340.1790332191
 20
237.3013831067
 10
337.7229724336
 20
237.9499153711
 10
335.2052145177
 20
238.5141193677
 10
332.6344387047
 20
238.9920501686
 10
330.0195069912
 20
239.3820602473
 10
327.3694335887
 20
239.6828051582
 10
324.6933538492
 20
239.8932481714
 10
322.0004927738
 20
240.0126638462
 10
319.3001332125
 20
240.040640532
 10
316.6015838643
 20
239.9770817873
 10
313.9141471876
 20
239.8222067124
 10
311.2470873336
 20
239.5765491937
 10
308.60959821
 20
239.2409560635
 10
306.0107717881
 20
238.816584181
 10
303.4595667611
 20
238.3048964438
 10
300.9647776613
 20
237.7076567457
 10
298.5350045433
 20
237.0269238956
 10
296.1786233386
 20
236.2650445206
 10
293.9037569813
 20
235.4246449768
 10
291.718247407
 20
234.5086222955
 10
289.62962852
 20
233.5201341967
 10
287.6451002222
 20
232.4625882035
 10
285.7715035938
 20
231.3396298963
 10
284.0152973105
 20
230.1551303447
 10
282.3825353793
 20
228.9131727643
 10
280.8788462686
 20
227.61803844
 10
279.5094135065
 20
226.2741919682
 10
278.2789578112
 20
224.886265866
 10
277.1917208185
 20
223.4590446023
 10
276.2514504596
 20
221.9974481044
 10
275.4613880412
 20
220.5065147983
 10
274.824257072
 20
218.9913842398
 10
274.3422538746
 20
217.4572793979
 10
274.0170400138
 20
215.9094886499
 10
273.8546550671
 20
214.4363648568
  0
LWPOLYLINE
  5
30A
330
1F
100
AcDbEntity
  8
0
  6
Continuous
 62
     7
370
    25
100
AcDbPolyline
 90
       10
 70
   128
 43
0.0
 10
352.4935910165
 20
220.7107887268
 10
352.4333558183
 20
221.2739025496
 10
352.2567551528
 20
221.8681871756
 10
351.9758240635
 20
222.4531430895
 10
351.60970754
 20
222.9889065125
 10
351.1833558183
 20
223.4389660528
 10
350.7258240635
 20
223.7726508963
 10
350.2682923088
 20
223.9672209725
 10
349.8419405871
 20
224.0094166523
 10
349.4759256477
 20
223.8964210225
  0
ARC
  5
30B
330
1F
100
AcDbEntity
  8
0
  6
Continuous
 62
     7
370
    25
100
AcDbCircle
 10
351.308714425
 20
220.5574162871
 30
0.0
 40
1.194761751321118
100
AcDbArc
 50
303.9367271495
 51
7.3754532439
  0
LWPOLYLINE
  5
30C
330
1F
100
AcDbEntity
  8
0
  6
Continuous
 62
     7
370
    25
100
AcDbPolyline
 90
       18
 70
   128
 43
0.0
 10
294.254028862
 20
174.7964476042
 10
292.0540312927
 20
175.7008386001
 10
289.9497668941
 20
176.67820591
 10
287.9484895014
 20
177.7251803464
 10
286.0570979324
 20
178.8381527713
 10
284.2821122057
 20
180.0132865384
 10
282.6296510648
 20
181.2465307181
 10
281.1054108855
 20
182.5336340623
 10
279.7146460395
 20
183.8701596589
 10
278.4621507814
 20
185.2515002276
 10
277.3522427218
 20
186.6728940011
 10
276.3887479436
 20
188.1294411406
 10
275.5749878131
 20
189.6161206265
 10
274.9137675299
 20
191.1278075665
 10
274.4073664573
 20
192.6592908626
 10
274.0575302648
 20
194.2052911747
 10
273.8654649101
 20
195.7604791193
 10
273.8312155059
 20
196.4431504352
  0
LWPOLYLINE
  5
30D
330
1F
100
AcDbEntity
  8
0
  6
Continuous
 62
     7
370
    25
100
AcDbPolyline
 90
       38
 70
   128
 43
0.0
 10
365.8185391826
 20
196.4166852585
 10
365.7760292468
 20
195.6423048561
 10
365.5719657335
 20
194.0876262353
 10
365.2102038408
 20
192.5425408624
 10
364.6919906368
 20
191.0123749669
 10
364.0191125098
 20
189.5024033476
 10
363.19388901
 20
188.0178311895
 10
362.219164854
 20
186.5637761204
 10
361.0983001177
 20
185.1452505692
 10
359.835158654
 20
183.7671444875
 10
358.4340947734
 20
182.4342084923
 10
356.8999382332
 20
181.1510374903
 10
355.2379775888
 20
179.9220548376
 10
353.4539419629
 20
178.751497092
 10
351.5539812959
 20
177.6433994087
 10
349.5446451458
 20
176.6015816299
 10
347.4328601105
 20
175.6296351172
 10
345.2259059506
 20
174.7309103718
 10
342.9313904942
 20
173.9085054838
 10
340.5572234114
 20
173.1652554535
 10
338.1115889481
 20
172.5037224175
 10
335.6029177128
 20
171.9261868173
 10
333.039857615
 20
171.4346395378
 10
330.4312440538
 20
171.0307750443
 10
327.7860694607
 20
170.7159855413
 10
325.1134523003
 20
170.4913561735
 10
322.4226056376
 20
170.3576612848
 10
319.7228053787
 20
170.3153617492
 10
317.0233582942
 20
170.3646033821
 10
314.3335699375
 20
170.5052164371
 10
311.6627125663
 20
170.7367161922
 10
309.0199931792
 20
171.0583046195
 10
306.4145217775
 20
171.4688731373
 10
303.8552799607
 20
171.9670064307
 10
301.3510899657
 20
172.5509873311
 10
298.910584254
 20
173.2188027354
 10
296.5421757546
 20
173.9681505454
 10
294.254028862
 20
174.7964476042
  0
LWPOLYLINE
  5
30E
330
1F
100
AcDbEntity
  8
0
  6
Continuous
 62
     7
370
    25
100
AcDbPolyline
 90
       17
 70
   128
 43
0.0
 10
294.8099251417
 20
175.2763189746
 10
292.6378846068
 20
176.1697407234
 10
290.5613407116
 20
177.1358747518
 10
288.5875873922
 20
178.1713274787
 10
286.7235575291
 20
179.2724618387
 10
284.9757985952
 20
180.4354100573
 10
283.3504496576
 20
181.6560872363
 10
281.8532198135
 20
182.9302057026
 10
280.4893681375
 20
184.2532900687
 10
279.2636852083
 20
185.6206929525
 10
278.180476282
 20
187.0276113015
 10
277.2435461692
 20
188.4691032636
 10
276.4561858714
 20
189.9401055458
 10
275.8211610201
 20
191.4354511989
 10
275.3407021635
 20
192.9498877668
 10
275.0164969306
 20
194.4780957357
 10
274.9044302438
 20
195.3302151265
  0
LWPOLYLINE
  5
30F
330
1F
100
AcDbEntity
  8
0
  6
Continuous
 62
     7
370
    25
100
AcDbPolyline
 90
       37
 70
   128
 43
0.0
 10
364.7438532527
 20
195.3086738676
 10
364.6604909403
 20
194.6495207249
 10
364.3538306579
 20
193.1201063604
 10
363.8907621392
 20
191.603865498
 10
363.272911929
 20
190.1061239889
 10
362.5024502489
 20
188.632142705
 10
361.5820833735
 20
187.1870990591
 10
360.5150441251
 20
185.7760688198
 10
359.305080518
 20
184.4040082823
 10
357.9564425935
 20
183.0757368593
 10
356.4738674914
 20
181.7959201525
 10
354.8625628108
 20
180.5690535649
 10
353.1281883183
 20
179.39944651
 10
351.2768360675
 20
178.2912072754
 10
349.3150090007
 20
177.2482285916
 10
347.249598107
 20
176.2741739595
 10
345.0878582175
 20
175.3724647814
 10
342.8373825224
 20
174.5462683437
 10
340.5060758997
 20
173.7984866915
 10
338.1021271489
 20
173.1317464352
 10
335.6339802276
 20
172.5483895241
 10
333.110304592
 20
172.0504650208
 10
330.5399647448
 20
171.6397219032
 10
327.9319890984
 20
171.3176029215
 10
325.2955382624
 20
171.0852395304
 10
322.6398728664
 20
170.9434479147
 10
319.9743210322
 20
170.8927261227
 10
317.3082456076
 20
170.9332523165
 10
314.6510112799
 20
171.0648841464
 10
312.0119516816
 20
171.2871592507
 10
309.4003366057
 20
171.5992968802
 10
306.8253394454
 20
172.0002006399
 10
304.2960049722
 20
172.4884623407
 10
301.8212175657
 20
173.0623669458
 10
299.4096700069
 20
173.7198985941
 10
297.0698329446
 20
174.4587476818
 10
294.8099251417
 20
175.2763189746
  0
LINE
  5
310
330
1F
100
AcDbEntity
  8
0
  6
Continuous
 62
     7
370
    25
100
AcDbLine
 10
354.6789036685
 20
223.4952909431
 30
0.0
 11
354.682278229
 21
223.6935547093
 31
0.0
  0
LWPOLYLINE
  5
311
330
1F
100
AcDbEntity
  8
0
  6
Continuous
 62
     8
370
    18
100
AcDbPolyline
 90
       85
 70
   128
 43
0.0
 10
361.0194047872
 20
237.6542374277
 10
361.8284768304
 20
237.077799738
 10
363.5791914786
 20
235.7250335047
 10
365.1993271916
 20
234.3190941845
 10
366.6840488478
 20
232.8641776529
 10
368.0289254541
 20
231.3646259526
 10
369.2299433702
 20
229.8249143353
 10
370.2835182867
 20
228.2496379056
 10
371.1865059218
 20
226.6434979074
 10
371.9362114055
 20
225.0112876939
 10
372.5303973221
 20
223.3578784218
 10
372.9672903872
 20
221.6882045143
 10
373.2455867402
 20
220.0072489344
 10
373.3644558354
 20
218.3200283144
 10
373.3235429207
 20
216.6315779837
 10
373.1229700962
 20
214.9469369416
 10
372.7633359503
 20
213.2711328193
 10
372.2457137724
 20
211.6091668748
 10
371.5716483507
 20
209.9659990678
 10
370.7431513612
 20
208.3465332567
 10
369.7626953647
 20
206.7556025642
 10
368.633206427
 20
205.1979549525
 10
367.3580553873
 20
203.6782390546
 10
365.9410477973
 20
202.2009902997
 10
364.3864125647
 20
200.770617379
 10
362.698789332
 20
199.3913890873
 10
360.8832146301
 20
198.067421584
 10
358.9451068477
 20
196.8026661084
 10
356.8902500601
 20
195.600897188
 10
354.7247767675
 20
194.4657013736
 10
352.4551495934
 20
193.4004665356
 10
350.0881419973
 20
192.4083717536
 10
347.6308180601
 20
191.4923778281
 10
345.0905114024
 20
190.6552184452
 10
342.4748032976
 20
189.8993920175
 10
339.7915000468
 20
189.2271542281
 10
337.0486096815
 20
188.6405112988
 10
334.2543180645
 20
188.1412140025
 10
331.4169644604
 20
187.7307524388
 10
328.5450166475
 20
187.4103515863
 10
325.6470456467
 20
187.180967647
 10
322.7317001427
 20
187.0432851927
 10
319.8076806721
 20
186.997715122
 10
316.8837136584
 20
187.044393434
 10
313.9685253683
 20
187.1831808221
 10
311.0708158695
 20
187.4136630903
 10
308.1992330659
 20
187.7351523889
 10
305.3623468894
 20
188.1466892674
 10
302.5686237232
 20
188.6470455381
 10
299.8264011354
 20
189.2347279412
 10
297.1438629958
 20
189.9079826015
 10
294.5290150527
 20
190.6648002624
 10
291.98966104
 20
191.5029222825
 10
289.5333793882
 20
192.4198473764
 10
287.167500607
 20
193.4128390791
 10
284.8990854088
 20
194.4789339132
 10
282.7349036359
 20
195.6149502327
 10
280.6814140574
 20
196.8174977183
 10
278.7447450932
 20
198.0829874958
 10
276.9306765249
 20
199.4076428462
 10
275.2446222458
 20
200.7875104774
 10
273.6916141048
 20
202.218472322
 10
272.2762868884
 20
203.6962578274
 10
271.0028644894
 20
205.2164567009
 10
269.8751473007
 20
206.7745320716
 10
268.8965008736
 20
208.3658340301
 10
268.0698458737
 20
209.985613506
 10
267.3976493645
 20
211.6290364407
 10
266.8819174444
 20
213.2911982142
 10
266.5241892603
 20
214.9671382825
 10
266.3255324136
 20
216.6518549818
 10
266.2865397745
 20
218.3403204553
 10
266.4073277123
 20
220.0274956584
 10
266.6875357483
 20
221.7083453971
 10
267.1263276317
 20
223.3778533552
 10
267.722393835
 20
225.0310370648
 10
268.4739554623
 20
226.6629627759
 10
269.3787695584
 20
228.2687601808
 10
270.4341358024
 20
229.8436369489
 10
271.6369045667
 20
231.382893029
 10
272.9834863164
 20
232.8819346759
 10
274.4698623224
 20
234.3362881603
 10
276.0915966546
 20
235.7416131196
 10
277.8438494202
 20
237.0937155118
 10
278.6311106641
 20
237.6542374277
  0
LWPOLYLINE
  5
312
330
1F
100
AcDbEntity
  8
0
  6
Continuous
 62
     8
370
    18
100
AcDbPolyline
 90
       65
 70
   128
 43
0.0
 10
267.1959690922
 20
222.6944569111
 10
267.0328808492
 20
221.9996168973
 10
266.7544939012
 20
220.3296910974
 10
266.6344909711
 20
218.6534809427
 10
266.6732301948
 20
216.9759889031
 10
266.8705959593
 20
215.3022212742
 10
267.2259992474
 20
213.6371732364
 10
267.7383793962
 20
211.9858139475
 10
268.4062072618
 20
210.3530717126
 10
269.2274897835
 20
208.7438192764
 10
270.1997759314
 20
207.1628592805
 10
271.3201640215
 20
205.614909931
 10
272.5853103753
 20
204.1045909171
 10
273.991439299
 20
202.6364096244
 10
275.5343543511
 20
201.2147476829
 10
277.2094508667
 20
199.8438478905
 10
279.0117296995
 20
198.5278015511
 10
280.935812141
 20
197.2705362643
 10
282.975955973
 20
196.0758042037
 10
285.1260726045
 20
194.9471709194
 10
287.3797452424
 20
193.8880046967
 10
289.7302480417
 20
192.9014665039
 10
292.1705661783
 20
191.9905005588
 10
294.6934167837
 20
191.1578255417
 10
297.2912706802
 20
190.4059264822
 10
299.9563748506
 20
189.7370473426
 10
302.6807755767
 20
189.1531843211
 10
305.4563421759
 20
188.6560798944
 10
308.2747912666
 20
188.2472176177
 10
311.1277114889
 20
187.9278176965
 10
314.0065886076
 20
187.6988333457
 10
316.9028309219
 20
187.5609479448
 10
319.8077949064
 20
187.5145729979
 10
322.7128110068
 20
187.5598469061
 10
325.6092095134
 20
187.6966345542
 10
328.4883464345
 20
187.9245277141
 10
331.3416292939
 20
188.2428462632
 10
334.1605427744
 20
188.6506402136
 10
336.9366741299
 20
189.1466925481
 10
339.6617382935
 20
189.7295228514
 10
342.3276026028
 20
190.3973917289
 10
344.9263110706
 20
191.1483059974
 10
347.4501081298
 20
191.9800246334
 10
349.8914617778
 20
192.8900654618
 10
352.2430860559
 20
193.8757125631
 10
354.4979627929
 20
194.9340243787
 10
356.6493625504
 20
196.0618424905
 10
358.690864706
 20
197.2558010458
 10
360.6163766149
 20
198.5123368031
 10
362.4201517927
 20
199.8276997657
 10
364.0968070653
 20
201.1979643737
 10
365.6413386344
 20
202.6190412188
 10
367.0491370109
 20
204.0866892493
 10
368.3160007709
 20
205.5965284266
 10
369.4381490952
 20
207.1440527971
 10
370.412233052
 20
208.7246439399
 10
371.2353455921
 20
210.3335847498
 10
371.905030224
 20
211.9660735151
 10
372.4192883456
 20
213.6172382476
 10
372.7765852087
 20
215.2821512229
 10
372.9758544988
 20
216.9558436863
 10
373.0165015181
 20
218.6333206815
 10
372.89840496
 20
220.309575958
 10
372.621917271
 20
221.9796069112
 10
372.5012913743
 20
222.507050991
  0
LWPOLYLINE
  5
313
330
1F
100
AcDbEntity
  8
0
  6
Continuous
 62
     8
370
    18
100
AcDbPolyline
 90
       67
 70
   128
 43
0.0
 10
268.8543532618
 20
211.3981381559
 10
268.6796418616
 20
211.8445622517
 10
268.1431473774
 20
213.4808418899
 10
267.7636097637
 20
215.1316981869
 10
267.5421816637
 20
216.7921175462
 10
267.4795355474
 20
218.4570573289
 10
267.5758616688
 20
220.1214611675
 10
267.8308674889
 20
221.7802743224
 10
268.2437785632
 20
223.4284590325
 10
268.8133408945
 20
225.0610098149
 10
269.5378247405
 20
226.6729686666
 10
270.4150298678
 20
228.2594401216
 10
271.4422922331
 20
229.8156061182
 10
272.6164920744
 20
231.3367406314
 10
273.9340633854
 20
232.8182240257
 10
275.3910047454
 20
234.2555570847
 10
276.9828914712
 20
235.6443746751
 10
278.7048890553
 20
236.9804590036
 10
280.5517678475
 20
238.259752426
 10
282.5179189377
 20
239.4783697702
 10
284.5973711897
 20
240.6326101354
 10
286.7838093752
 20
241.7189681315
 10
289.0705933534
 20
242.734144525
 10
291.4507782365
 20
243.6750562586
 10
293.9171354812
 20
244.5388458141
 10
296.4621748417
 20
245.3228898913
 10
299.078167117
 20
246.0248073739
 10
301.7571676247
 20
246.6424665617
 10
304.4910403281
 20
247.1739916439
 10
307.2714825458
 20
247.6177683964
 10
310.0900501661
 20
247.9724490838
 10
312.9381832918
 20
248.2369565524
 10
315.8072322361
 20
248.4104875018
 10
318.6884837919
 20
248.4925149243
 10
321.5731876927
 20
248.4827897051
 10
324.4525831877
 20
248.3813413795
 10
327.3179256473
 20
248.1884780428
 10
330.1605131207
 20
247.9047854144
 10
332.9717127631
 20
247.5311250597
 10
335.7429870537
 20
247.0686317728
 10
338.4659197235
 20
246.5187101307
 10
341.1322413154
 20
245.8830302272
 10
343.7338542985
 20
245.1635226014
 10
346.2628576596
 20
244.3623723743
 10
348.7115708985
 20
243.4820126128
 10
351.0725573538
 20
242.5251169406
 10
353.3386467871
 20
241.4945914183
 10
355.5029571593
 20
240.3935657181
 10
357.5589155309
 20
239.2253836189
 10
359.500278024
 20
237.9935928512
 10
361.3211487843
 20
236.7019343233
 10
363.0159978874
 20
235.3543307595
 10
364.5796781321
 20
233.9548747877
 10
366.007440673
 20
232.5078165095
 10
367.2949494421
 20
231.0175505935
 10
368.4382943177
 20
229.4886029282
 10
369.4340029989
 20
227.9256168775
 10
370.2790515511
 20
226.3333391786
 10
370.9708735897
 20
224.7166055265
 10
371.507368074
 20
223.0803258883
 10
371.8869056877
 20
221.4294695913
 10
372.1083337877
 20
219.769050232
 10
372.170979904
 20
218.1041104493
 10
372.0746537825
 20
216.4397066106
 10
371.8196479625
 20
214.7808934558
 10
371.4067368881
 20
213.1327087457
 10
371.0857900972
 20
212.1568182522
  0
LINE
  5
314
330
1F
100
AcDbEntity
  8
0
  6
Continuous
 62
     8
370
    18
100
AcDbLine
 10
277.0152861144
 20
197.9260410472
 30
0.0
 11
276.9568791603
 21
197.972573434
 31
0.0
  0
LWPOLYLINE
  5
315
330
1F
100
AcDbEntity
  8
0
  6
Continuous
 62
     8
370
    18
100
AcDbPolyline
 90
       35
 70
   128
 43
0.0
 10
360.8764499935
 20
196.6049643173
 10
359.9244487904
 20
195.9479305904
 10
357.9801385931
 20
194.7135208345
 10
355.9219592351
 20
193.5422478846
 10
353.7560531325
 20
192.4376072795
 10
351.4888842005
 20
191.4028957009
 10
349.1272185621
 20
190.4412011349
 10
346.678104356
 20
189.5553936559
 10
344.1488507014
 20
188.7481168618
 10
341.5470058854
 20
188.0217799836
 10
338.8803348355
 20
187.3785506962
 10
336.1567959462
 20
186.8203486485
 10
333.3845173279
 20
186.3488397349
 10
330.5717725498
 20
185.9654311233
 10
327.7269559477
 20
185.6712670556
 10
324.8585575724
 20
185.467225433
 10
321.9751378522
 20
185.353915196
 10
319.0853020447
 20
185.3316745068
 10
316.1976745557
 20
185.4005697404
 10
313.3208732007
 20
185.5603952864
 10
310.4634834856
 20
185.8106741624
 10
307.6340329843
 20
186.150659438
 10
304.8409658892
 20
186.5793364634
 10
302.0926178102
 20
187.095425898
 10
299.3971908984
 20
187.697387528
 10
296.7627293668
 20
188.3834248633
 10
294.1970954843
 20
189.1514904989
 10
291.7079461106
 20
189.9992922251
 10
289.3027098459
 20
190.9242998682
 10
286.9885648604
 20
191.9237528419
 10
284.7724174724
 20
192.9946683858
 10
282.6608815367
 20
194.1338504669
 10
280.6602587064
 20
195.3378993181
 10
278.7765196264
 20
196.6032215845
 10
277.617969847
 20
197.4563573045
  0
LINE
  5
316
330
1F
100
AcDbEntity
  8
0
  6
Continuous
 62
     8
370
    18
100
AcDbLine
 10
277.2278724972
 20
197.758214521
 30
0.0
 11
277.0152861144
 21
197.9260410472
 31
0.0
  0
LWPOLYLINE
  5
317
330
1F
100
AcDbEntity
  8
0
  6
Continuous
 62
     8
370
    18
100
AcDbPolyline
 90
       41
 70
   128
 43
0.0
 10
277.6999133131
 20
192.9808520456
 10
279.448724288
 20
191.6680140804
 10
281.3201574679
 20
190.4127844279
 10
283.3085293718
 20
189.2189751791
 10
285.4078013795
 20
188.0902118936
 10
287.6115980709
 20
187.0299225884
 10
289.913226588
 20
186.0413273271
 10
292.3056969605
 20
185.1274284413
 10
294.7817433345
 20
184.2910014116
 10
297.3338460387
 20
183.5345864396
 10
299.954254421
 20
182.8604807326
 10
302.6350103872
 20
182.2707315275
 10
305.3679725695
 20
181.7671298732
 10
308.1448410518
 20
181.3512051915
 10
310.9571825756
 20
181.0242206319
 10
313.7964561521
 20
180.7871692358
 10
316.6540390009
 20
180.6407709205
 10
319.5212527367
 20
180.5854702929
 10
322.3893897257
 20
180.621435299
 10
325.2497395301
 20
180.7485567145
 10
328.0936153615
 20
180.9664484757
 10
330.9123804625
 20
181.2744488525
 10
333.6974743362
 20
181.671622458
 10
336.4404387439
 20
182.1567630888
 10
339.132943393
 20
182.7283973889
 10
341.7668112353
 20
183.3847893237
 10
344.3340433008
 20
184.1239454525
 10
346.8268429899
 20
184.9436209823
 10
349.2376397521
 20
185.8413265855
 10
351.5591120767
 20
186.8143359598
 10
353.7842097287
 20
187.8596941076
 10
355.9061751596
 20
188.9742263106
 10
357.91856403
 20
190.1545477711
 10
359.8152647812
 20
191.3970738917
 10
361.5905171953
 20
192.6980311613
 10
363.2389298891
 20
194.0534686155
 10
364.7554966874
 20
195.4592698353
 10
366.1356118267
 20
196.9111654486
 10
367.3750839426
 20
198.4047460961
 10
368.4701487991
 20
199.9354758225
 10
368.5909285836
 20
200.1202636897
  0
ARC
  5
318
330
1F
100
AcDbEntity
  8
0
  6
Continuous
 62
     8
370
    18
100
AcDbCircle
 10
296.3337347024
 20
216.9699252468
 30
0.0
 40
30.37589393946117
100
AcDbArc
 50
213.6933591977
 51
232.161265993
  0
LWPOLYLINE
  5
319
330
1F
100
AcDbEntity
  8
0
  6
Continuous
 62
     8
370
    18
100
AcDbPolyline
 90
       12
 70
   128
 43
0.0
 10
358.062834197
 20
142.0980746527
 10
359.497642251
 20
143.4189937372
 10
360.795691377
 20
144.7862468612
 10
361.9525069306
 20
146.1951208198
 10
362.9641011291
 20
147.6407589327
 10
363.8269867977
 20
149.1181777857
 10
364.5381893907
 20
150.6222844101
 10
365.0952572455
 20
152.1478938388
 10
365.4962700337
 20
153.6897469799
 10
365.7398453812
 20
155.2425287464
 10
365.8251436333
 20
156.8008863777
 10
365.8252577257
 20
156.8600308587
  0
LWPOLYLINE
  5
31A
330
1F
100
AcDbEntity
  8
0
  6
Continuous
 62
     8
370
    18
100
AcDbPolyline
 90
       45
 70
   128
 43
0.0
 10
273.8252577257
 20
156.8600308587
 10
273.8421898441
 20
156.1395840743
 10
273.9946877284
 20
154.5829360547
 10
274.3051730818
 20
153.0341376526
 10
274.772575597
 20
151.4985278969
 10
275.3952840406
 20
149.9814003527
 10
276.1711518078
 20
148.4879848728
 10
277.0975043214
 20
147.0234295698
 10
278.1711482527
 20
145.5927830692
 10
279.3883825283
 20
144.2009771059
 10
280.7450110898
 20
142.8528095233
 10
282.2363573573
 20
141.5529277345
 10
283.8572803514
 20
140.3058127011
 10
285.6021924147
 20
139.1157634871
 10
287.4650784737
 20
137.9868824387
 10
289.4395167745
 20
136.9230610427
 10
291.5187010191
 20
135.9279665118
 10
293.6954638286
 20
135.005029143
 10
295.9623014508
 20
134.1574304926
 10
298.3113996268
 20
133.3880924089
 10
300.7346605285
 20
132.6996669594
 10
303.2237306736
 20
132.0945272894
 10
305.7700297216
 20
131.5747594406
 10
308.3647800522
 20
131.1421551606
 10
310.9990370236
 20
130.7982057259
 10
313.6637198061
 20
130.5440968014
 10
316.3496426863
 20
130.3807043532
 10
319.0475467316
 20
130.308591629
 10
321.7481317078
 20
130.3280072162
 10
324.442088139
 20
130.4388841854
 10
327.1201293993
 20
130.6408403206
 10
329.7730237258
 20
130.9331794372
 10
332.3916260421
 20
131.3148937816
 10
334.9669094835
 20
131.7846675056
 10
337.4899965145
 20
132.3408812017
 10
339.9521895315
 20
132.981617486
 10
342.345000845
 20
133.704667608
 10
344.6601819388
 20
134.507539064
 10
346.8897519039
 20
135.3874641897
 10
349.026024951
 20
136.3414097011
 10
351.0616369041
 20
137.3660871503
 10
352.9895705872
 20
138.4579642618
 10
354.8031800135
 20
139.613277109
 10
356.4962132956
 20
140.8280430894
 10
358.062834197
 20
142.0980746527
  0
LWPOLYLINE
  5
31B
330
1F
100
AcDbEntity
  8
0
  6
Continuous
 62
     8
370
    18
100
AcDbPolyline
 90
       19
 70
   128
 43
0.0
 10
346.318907421
 20
235.0993430128
 10
342.9201869336
 20
236.3465390178
 10
339.3463877556
 20
237.4179812253
 10
335.4225713853
 20
238.3485309914
 10
331.3678812398
 20
239.0671853001
 10
327.0614764394
 20
239.5832875521
 10
322.6900572389
 20
239.8604465202
 10
318.2097672847
 20
239.8957040626
 10
313.7451679656
 20
239.6800716592
 10
309.3369455113
 20
239.2166915992
 10
305.0277963183
 20
238.5088600111
 10
300.9319594828
 20
237.5836672992
 10
297.0076812397
 20
236.4378060278
 10
293.4169348229
 20
235.133952648
 10
290.0490300635
 20
233.6455511901
 10
287.0819484191
 20
232.0734332828
 10
284.3637471064
 20
230.3582875374
 10
281.9133480539
 20
228.5131881312
 10
280.7627882804
 20
227.4697299191
  0
LINE
  5
31C
330
1F
100
AcDbEntity
  8
0
  6
Continuous
 62
     8
370
    18
100
AcDbLine
 10
358.7149896516
 20
227.6265214351
 30
0.0
 11
357.7578096848
 21
228.4958052962
 31
0.0
  0
LINE
  5
31D
330
1F
100
AcDbEntity
  8
0
  6
Continuous
 62
     8
370
    18
100
AcDbLine
 10
346.318907421
 20
235.0993430128
 30
0.0
 11
346.6464121293
 21
235.0336496727
 31
0.0
  0
ARC
  5
31E
330
1F
100
AcDbEntity
  8
0
  6
Continuous
 62
     8
370
    18
100
AcDbCircle
 10
350.2143848255
 20
230.9203250988
 30
0.0
 40
5.71304953020599
100
AcDbArc
 50
132.9888523945
 51
164.5696090741
  0
LWPOLYLINE
  5
31F
330
1F
100
AcDbEntity
  8
0
  6
Continuous
 62
     8
370
    18
100
AcDbPolyline
 90
       18
 70
   128
 43
0.0
 10
355.4503250369
 20
226.2385454143
 10
356.8902256366
 20
224.9681867811
 10
358.1943749087
 20
223.6498720912
 10
359.3579963754
 20
222.2884297037
 10
360.3768282454
 20
220.8888459336
 10
361.2471390228
 20
219.4562467899
 10
361.9657411735
 20
217.9958792011
 10
362.5300028001
 20
216.5130917982
 10
362.937857281
 20
215.0133153254
 10
363.1878108393
 20
213.5020427498
 10
363.2789480143
 20
211.984809143
 10
363.2109350138
 20
210.4671714095
 10
362.9840209371
 20
208.9546879334
 10
362.5990368624
 20
207.4528982216
 10
362.057392803
 20
205.9673026146
 10
361.3610725433
 20
204.5033421417
 10
360.5126263727
 20
203.066378593
 10
360.3513338507
 20
202.8219619056
  0
LWPOLYLINE
  5
320
330
1F
100
AcDbEntity
  8
0
  6
Continuous
 62
     8
370
    18
100
AcDbPolyline
 90
       44
 70
   128
 43
0.0
 10
279.2991816007
 20
202.8219619056
 10
279.1828057663
 20
202.9975392606
 10
278.327064014
 20
204.4330603475
 10
277.6233103844
 20
205.8958357673
 10
277.0741223919
 20
207.3805080703
 10
276.6815114506
 20
208.8816396088
 10
276.4469155074
 20
210.3937324527
 10
276.3711937755
 20
211.9112485261
 10
276.4546235876
 20
213.4286298901
 10
276.69689938
 20
214.9403190994
 10
277.0971338119
 20
216.4407795563
 10
277.6538610151
 20
217.9245157885
 10
278.365041963
 20
219.3860935769
 10
279.2280719385
 20
220.820159858
 10
280.2397900736
 20
222.2214623298
 10
281.3964909266
 20
223.5848686887
 10
282.6939380531
 20
224.9053854265
 10
284.1273795222
 20
226.1781761191
 10
285.6915653202
 20
227.3985791403
 10
287.3807665795
 20
228.562124735
 10
289.1887965602
 20
229.6645513897
 10
291.1090333095
 20
230.7018214406
 10
293.1344439145
 20
231.6701358614
 10
295.2576102607
 20
232.5659481775
 10
297.4707562008
 20
233.3859774549
 10
299.765776035
 20
234.127220317
 10
302.1342641986
 20
234.7869619439
 10
304.5675460473
 20
235.3627860164
 10
307.0567096283
 20
235.8525835651
 10
309.5926383208
 20
236.2545606947
 10
312.1660442255
 20
236.5672451545
 10
314.7675021821
 20
236.7894917302
 10
317.3874842888
 20
236.9204864384
 10
320.0163947987
 20
236.9597495078
 10
322.6446052646
 20
236.9071371366
 10
325.2624898029
 20
236.7628420188
 10
327.8604603493
 20
236.5273926387
 10
330.4290017748
 20
236.2016513352
 10
332.9587067352
 20
235.7868111437
 10
335.4403101258
 20
235.2843914263
 10
337.8647230151
 20
234.696232307
 10
340.2230659333
 20
234.0244879328
 10
342.5067013932
 20
233.2716185832
 10
344.7072655255
 20
232.4403816604
  0
ARC
  5
321
330
1F
100
AcDbEntity
  8
0
  6
Continuous
 62
     8
370
    18
100
AcDbCircle
 10
359.5832157461
 20
224.32173995
 30
0.0
 40
4.555757763870668
100
AcDbArc
 50
113.6207646338
 51
155.118463382
  0
LWPOLYLINE
  5
322
330
1F
100
AcDbEntity
  8
0
  6
Continuous
 62
     8
370
    18
100
AcDbPolyline
 90
       29
 70
   128
 43
0.0
 10
292.5549447306
 20
184.8616653095
 10
293.2487478602
 20
184.3528227689
 10
294.7829997502
 20
183.3374027815
 10
296.4334288672
 20
182.3846303326
 10
298.1923784623
 20
181.4989255693
 10
300.0516883334
 20
180.6843974949
 10
302.0027326823
 20
179.9448249065
 10
304.0364601319
 20
179.2836388644
 10
306.1434357176
 20
178.703906774
 10
308.3138846586
 20
178.2083181558
 10
310.5377377058
 20
177.799172168
 10
312.8046778548
 20
177.47836694
 10
315.1041882098
 20
177.2473907666
 10
317.4256007737
 20
177.1073152033
 10
319.7581459396
 20
177.0587900954
 10
322.0910024536
 20
177.1020405627
 10
324.4133476175
 20
177.2368659558
 10
326.714407498
 20
177.4626407862
 10
328.9835069092
 20
177.7783176287
 10
331.2101189379
 20
178.1824319804
 10
333.3839137803
 20
178.6731090548
 10
335.4948066646
 20
179.2480724797
 10
337.5330046368
 20
179.9046548576
 10
339.4890519925
 20
180.6398101404
 10
341.3538741444
 20
181.4501277611
 10
343.1188197213
 20
182.3318484559
 10
344.7757007044
 20
183.2808817043
 10
346.316830413
 20
184.2928247065
 10
347.1551821615
 20
184.9070240667
  0
ARC
  5
323
330
1F
100
AcDbEntity
  8
0
  6
Continuous
 62
     8
370
    18
100
AcDbCircle
 10
349.626957416
 20
223.0763297903
 30
0.0
 40
10.57775192205143
100
AcDbArc
 50
117.7165684615
 51
143.8799421394
  0
ARC
  5
324
330
1F
100
AcDbEntity
  8
0
  6
Continuous
 62
     8
370
    18
100
AcDbCircle
 10
214.3710157955
 20
327.2669309453
 30
0.0
 40
160.1593242674944
100
AcDbArc
 50
316.228982927
 51
322.2939053287
  0
ARC
  5
325
330
1F
100
AcDbEntity
  8
0
  6
Continuous
 62
     8
370
    18
100
AcDbCircle
 10
328.7044740087
 20
217.497360322
 30
0.0
 40
1.670704270455236
100
AcDbArc
 50
265.3445142304
 51
322.150612669
  0
LWPOLYLINE
  5
326
330
1F
100
AcDbEntity
  8
0
  6
Continuous
 62
     8
370
    18
100
AcDbPolyline
 90
       28
 70
   128
 43
0.0
 10
328.5688726722
 20
215.8321681298
 10
326.3402318733
 20
216.1362804654
 10
324.0805661998
 20
216.3509383071
 10
321.8006363766
 20
216.4751194357
 10
319.5112996281
 20
216.5082324897
 10
317.2234579755
 20
216.4501197819
 10
314.9480063199
 20
216.3010580501
 10
312.6957805605
 20
216.0617571393
 10
310.4775059925
 20
215.7333566212
 10
308.3037462328
 20
215.3174203677
 10
306.1848529146
 20
214.8159291035
 10
304.1309163925
 20
214.2312709737
 10
302.1517176913
 20
213.5662301712
 10
300.2566819276
 20
212.8239736783
 10
298.4548334267
 20
212.0080361851
 10
296.7547527484
 20
211.122303257
 10
295.1645358248
 20
210.1709928313
 10
293.6917554075
 20
209.1586351313
 10
292.3434250052
 20
208.0900510925
 10
291.1259654847
 20
206.9703294051
 10
290.0451744943
 20
205.8048022815
 10
289.106198855
 20
204.5990200632
 10
288.3135100505
 20
203.3587247904
 10
287.6708829339
 20
202.0898228572
 10
287.1813777516
 20
200.798356885
 10
286.8473255699
 20
199.4904769475
 10
286.6703171744
 20
198.1724112828
 10
286.6456625643
 20
196.9927099874
  0
ARC
  5
327
330
1F
100
AcDbEntity
  8
0
  6
Continuous
 62
     8
370
    18
100
AcDbCircle
 10
341.3423997032
 20
197.304936608
 30
0.0
 40
11.66663189309543
100
AcDbArc
 50
358.4664465354
 51
25.8901479615
  0
ARC
  5
328
330
1F
100
AcDbEntity
  8
0
  6
Continuous
 62
     8
370
    18
100
AcDbCircle
 10
354.1598375309
 20
203.0843650064
 30
0.0
 40
2.420758160980764
100
AcDbArc
 50
161.2591475926
 51
196.4431073792
  0
LWPOLYLINE
  5
329
330
1F
100
AcDbEntity
  8
0
  6
Continuous
 62
     8
370
    18
100
AcDbPolyline
 90
        6
 70
   128
 43
0.0
 10
351.8674244889
 20
203.8621262286
 10
352.5543755796
 20
207.1057873099
 10
353.2616134042
 20
210.5909674823
 10
353.9418122447
 20
214.0685668026
 10
354.5914345348
 20
217.5008876311
 10
355.2582929304
 20
221.128138911
  0
ARC
  5
32A
330
1F
100
AcDbEntity
  8
0
  6
Continuous
 62
     8
370
    18
100
AcDbCircle
 10
340.3955741374
 20
224.2454417453
 30
0.0
 40
15.18611164451663
100
AcDbArc
 50
348.1545033735
 51
7.5415513289
  0
LWPOLYLINE
  5
32B
330
1F
100
AcDbEntity
  8
0
  6
Continuous
 62
     8
370
    18
100
AcDbPolyline
 90
       31
 70
   128
 43
0.0
 10
348.3385288188
 20
185.3332625916
 10
347.5168258326
 20
184.6361930313
 10
346.109686546
 20
183.5744027482
 10
344.5806072948
 20
182.5703723674
 10
342.9366818557
 20
181.6287598342
 10
341.1855368053
 20
180.7539335219
 10
339.3352961385
 20
179.9499519662
 10
337.3945435793
 20
179.2205450362
 10
335.3722827587
 20
178.5690966311
 10
333.2778954446
 20
177.9986289811
 10
331.1210980178
 20
177.5117886267
 10
328.9118963947
 20
177.1108341406
 10
326.660539608
 20
176.79762565
 10
324.3774722585
 20
176.5736162063
 10
322.0732860601
 20
176.4398450448
 10
319.7586707025
 20
176.3969327631
 10
317.4443642585
 20
176.4450784418
 10
315.141103368
 20
176.5840587211
 10
312.8595734278
 20
176.8132288372
 10
310.6103590195
 20
177.1315256133
 10
308.4038948049
 20
177.537472392
 10
306.2504171169
 20
178.0291858856
 10
304.1599164712
 20
178.6043849138
 10
302.1420912172
 20
179.2604009861
 10
300.2063025451
 20
179.9941906816
 10
298.3615310572
 20
180.8023497685
 10
296.6163351046
 20
181.681128997
 10
294.978811083
 20
182.626451493
 10
293.456555871
 20
183.6339316716
 10
292.0566315872
 20
184.6988955831
 10
291.3191654753
 20
185.3268848527
  0
ARC
  5
32C
330
1F
100
AcDbEntity
  8
0
  6
Continuous
 62
     8
370
    18
100
AcDbCircle
 10
340.9057565269
 20
195.9287469979
 30
0.0
 40
11.6742104519449
100
AcDbArc
 50
3.9097120794
 51
25.7798555019
  0
LWPOLYLINE
  5
32D
330
1F
100
AcDbEntity
  8
0
  6
Continuous
 62
     8
370
    18
100
AcDbPolyline
 90
       27
 70
   128
 43
0.0
 10
287.0977174494
 20
196.7247460904
 10
287.2045153274
 20
197.7027550429
 10
287.4874143803
 20
199.0146926446
 10
287.9284413025
 20
200.3120094583
 10
288.5254395293
 20
201.5883617727
 10
289.2754898167
 20
202.8375083902
 10
290.1749245159
 20
204.0533411454
 10
291.2193455075
 20
205.2299147735
 10
292.403645708
 20
206.3614759818
 10
293.7220340429
 20
207.4424915824
 10
295.1680637636
 20
208.4676755487
 10
296.7346639719
 20
209.432014864
 10
298.4141741957
 20
210.3307940338
 10
300.1983818472
 20
211.1596181442
 10
302.0785623819
 20
211.9144343526
 10
304.0455219603
 20
212.5915517055
 10
306.0896424046
 20
213.1876591864
 10
308.2009282304
 20
213.6998419072
 10
310.3690555231
 20
214.1255953604
 10
312.5834224209
 20
214.4628376668
 10
314.8332009562
 20
214.7099197553
 10
317.107390003
 20
214.8656334262
 10
319.3948690714
 20
214.92921726
 10
321.6844526846
 20
214.90036034
 10
323.964945075
 20
214.7792037726
 10
326.22519493
 20
214.566339998
 10
328.4541499202
 20
214.2628098923
  0
LWPOLYLINE
  5
32E
330
1F
100
AcDbEntity
  8
0
  6
Continuous
 62
     8
370
    18
100
AcDbPolyline
 90
        3
 70
   128
 43
0.0
 10
351.8380852825
 20
202.39913762
 10
351.5248811842
 20
201.7097177647
 10
351.4180530989
 20
201.0060307657
  0
LWPOLYLINE
  5
32F
330
1F
100
AcDbEntity
  8
0
  6
Continuous
 62
     8
370
    18
100
AcDbPolyline
 90
        3
 70
   128
 43
0.0
 10
328.4541499202
 20
214.2628098923
 10
328.4833277128
 20
215.0113234511
 10
328.5688726722
 20
215.8321681298
  0
ARC
  5
330
330
1F
100
AcDbEntity
  8
0
  6
Continuous
 62
     8
370
    18
100
AcDbCircle
 10
338.1296953286
 20
203.1927123799
 30
0.0
 40
11.85206327856987
100
AcDbArc
 50
215.2779831966
 51
251.6606990224
  0
LINE
  5
331
330
1F
100
AcDbEntity
  8
0
  6
Continuous
 62
     8
370
    18
100
AcDbLine
 10
335.3993509193
 20
191.5956240592
 30
0.0
 11
334.4005192003
 21
191.942616853
 31
0.0
  0
LWPOLYLINE
  5
332
330
1F
100
AcDbEntity
  8
0
  6
Continuous
 62
     8
370
    18
100
AcDbPolyline
 90
        3
 70
   128
 43
0.0
 10
335.3993509193
 20
191.5956240592
 10
337.4440487953
 20
190.901146747
 10
337.5190583924
 20
190.8734282932
  0
LINE
  5
333
330
1F
100
AcDbEntity
  8
0
  6
Continuous
 62
     8
370
    18
100
AcDbLine
 10
351.4180530989
 20
196.0840129498
 30
0.0
 11
351.4180530989
 21
201.0060307657
 31
0.0
  0
LINE
  5
334
330
1F
100
AcDbEntity
  8
0
  6
Continuous
 62
     8
370
    18
100
AcDbLine
 10
328.4541499202
 20
214.2628098923
 30
0.0
 11
328.4541499202
 21
211.7608082088
 31
0.0
  0
LINE
  5
335
330
1F
100
AcDbEntity
  8
0
  6
Continuous
 62
     8
370
    18
100
AcDbLine
 10
328.4541499202
 20
205.9874619033
 30
0.0
 11
328.4541499202
 21
196.3476247246
 31
0.0
  0
LWPOLYLINE
  5
336
330
1F
100
AcDbEntity
  8
0
  6
Continuous
 62
     8
370
    18
100
AcDbPolyline
 90
        4
 70
   128
 43
0.0
 10
355.2582934159
 20
221.1281415871
 10
354.801762752
 20
221.1720378903
 10
354.5350313244
 20
221.180563177
 10
354.5325988791
 20
221.1227434606
  0
LWPOLYLINE
  5
337
330
1F
100
AcDbEntity
  8
0
  6
Continuous
 62
     8
370
    18
100
AcDbPolyline
 90
        3
 70
   128
 43
0.0
 10
351.410176107
 20
203.5136333993
 10
351.452931088
 20
203.7577842982
 10
351.8674244889
 20
203.8621262286
  0
ARC
  5
338
330
1F
100
AcDbEntity
  8
0
  6
Continuous
 62
     8
370
    18
100
AcDbCircle
 10
353.5522024311
 20
202.0127502935
 30
0.0
 40
2.359677431270766
100
AcDbArc
 50
173.8795658938
 51
205.2541585339
  0
LWPOLYLINE
  5
339
330
1F
100
AcDbEntity
  8
0
  6
Continuous
 62
     8
370
    18
100
AcDbPolyline
 90
        3
 70
   128
 43
0.0
 10
354.682278229
 20
223.6935547093
 10
354.6894406157
 20
224.1143626205
 10
354.5836328021
 20
225.439143382
  0
LWPOLYLINE
  5
33A
330
1F
100
AcDbEntity
  8
0
  6
Continuous
 62
     8
370
    18
100
AcDbPolyline
 90
        3
 70
   128
 43
0.0
 10
354.5836328021
 20
225.439143382
 10
354.8686574489
 20
225.8386710521
 10
355.4503250369
 20
226.2385454143
  0
ARC
  5
33B
330
1F
100
AcDbEntity
  8
0
  6
Continuous
 62
     8
370
    18
100
AcDbCircle
 10
357.9987749651
 20
225.0691401345
 30
0.0
 40
3.435127129623115
100
AcDbArc
 50
94.0224541536
 51
173.8165804362
  0
ARC
  5
33C
330
1F
100
AcDbEntity
  8
0
  6
Continuous
 62
     8
370
    18
100
AcDbCircle
 10
352.205055173
 20
224.421861717
 30
0.0
 40
2.586985412323394
100
AcDbArc
 50
23.1556628441
 51
57.0320509539
  0
ARC
  5
33D
330
1F
100
AcDbEntity
  8
0
  6
Continuous
 62
     8
370
    18
100
AcDbCircle
 10
358.2740656503
 20
226.3026053453
 30
0.0
 40
4.670243297762354
100
AcDbArc
 50
124.4125329461
 51
176.4439357777
  0
LINE
  5
33E
330
1F
100
AcDbEntity
  8
0
  6
Continuous
 62
     8
370
    18
100
AcDbLine
 10
353.6128145125
 20
216.073207916
 30
0.0
 11
353.6128145125
 21
226.5922780746
 31
0.0
  0
ARC
  5
33F
330
1F
100
AcDbEntity
  8
0
  6
Continuous
 62
     8
370
    18
100
AcDbCircle
 10
330.0898338155
 20
192.7668953593
 30
0.0
 40
41.20057204353595
100
AcDbArc
 50
55.1843243313
 51
64.8210522014
  0
ARC
  5
340
330
1F
100
AcDbEntity
  8
0
  6
Continuous
 62
     8
370
    18
100
AcDbCircle
 10
353.2318523602
 20
229.8269143542
 30
0.0
 40
5.617907193617171
100
AcDbArc
 50
134.0729148246
 51
177.696330024
  0
ARC
  5
341
330
1F
100
AcDbEntity
  8
0
  6
Continuous
 62
     8
370
    18
100
AcDbCircle
 10
329.1784927432
 20
167.576867814
 30
0.0
 40
43.15733643646877
100
AcDbArc
 50
58.8189067008
 51
64.5679121174
  0
LWPOLYLINE
  5
342
330
1F
100
AcDbEntity
  8
0
  6
Continuous
 62
     8
370
    18
100
AcDbPolyline
 90
        3
 70
   128
 43
0.0
 10
347.7120211342
 20
206.5520395733
 10
347.642013856
 20
206.798350955
 10
347.6184854328
 20
207.0527048453
  0
LINE
  5
343
330
1F
100
AcDbEntity
  8
0
  6
Continuous
 62
     8
370
    18
100
AcDbLine
 10
347.6184854328
 20
230.0527305945
 30
0.0
 11
347.6184854328
 21
222.8241436105
 31
0.0
  0
LINE
  5
344
330
1F
100
AcDbEntity
  8
0
  6
Continuous
 62
     8
370
    18
100
AcDbLine
 10
347.6184854328
 20
217.050797305
 30
0.0
 11
347.6184854328
 21
207.0527048453
 31
0.0
  0
LWPOLYLINE
  5
345
330
1F
100
AcDbEntity
  8
0
  6
Continuous
 62
     8
370
    18
100
AcDbPolyline
 90
        3
 70
   128
 43
0.0
 10
330.0237062247
 20
216.4722363687
 10
330.9747298249
 20
215.5043722838
 10
331.7185041037
 20
214.8813936772
  0
ARC
  5
346
330
1F
100
AcDbEntity
  8
0
  6
Continuous
 62
     8
370
    18
100
AcDbCircle
 10
347.9556872324
 20
235.9502948494
 30
0.0
 40
9.555769280427137
100
AcDbArc
 50
224.0050296294
 51
241.3325483629
  0
ARC
  5
347
330
1F
100
AcDbEntity
  8
0
  6
Continuous
 62
     8
370
    18
100
AcDbCircle
 10
231.1519506381
 20
318.9652784073
 30
0.0
 40
144.7310842094705
100
AcDbArc
 50
314.0153532115
 51
320.8382472813
  0
LINE
  5
348
330
1F
100
AcDbEntity
  8
0
  6
Continuous
 62
     8
370
    18
100
AcDbLine
 10
343.3715445318
 20
227.5658829892
 30
0.0
 11
343.3715445318
 21
220.3724368144
 31
0.0
  0
LINE
  5
349
330
1F
100
AcDbEntity
  8
0
  6
Continuous
 62
     8
370
    18
100
AcDbLine
 10
343.3715445318
 20
214.599090509
 30
0.0
 11
343.3715445319
 21
207.5836850579
 31
0.0
  0
ARC
  5
34A
330
1F
100
AcDbEntity
  8
0
  6
Continuous
 62
     8
370
    18
100
AcDbCircle
 10
220.5879407892
 20
349.0953889198
 30
0.0
 40
187.3536113287796
100
AcDbArc
 50
306.3815337278
 51
310.9467668667
  0
LINE
  5
34B
330
1F
100
AcDbEntity
  8
0
  6
Continuous
 62
     8
370
    18
100
AcDbLine
 10
331.7185041037
 20
198.2598043406
 30
0.0
 11
331.7185041037
 21
207.8719334614
 31
0.0
  0
LINE
  5
34C
330
1F
100
AcDbEntity
  8
0
  6
Continuous
 62
     8
370
    18
100
AcDbLine
 10
331.7185041037
 20
213.6452797669
 30
0.0
 11
331.7185041037
 21
214.8813936772
 31
0.0
  0
ARC
  5
34D
330
1F
100
AcDbEntity
  8
0
  6
Continuous
 62
     8
370
    18
100
AcDbCircle
 10
344.8482575039
 20
224.019124307
 30
0.0
 40
6.639169195795807
100
AcDbArc
 50
65.3385817753
 51
83.3162760507
  0
ARC
  5
34E
330
1F
100
AcDbEntity
  8
0
  6
Continuous
 62
     8
370
    18
100
AcDbCircle
 10
360.4686519648
 20
230.6006525925
 30
0.0
 40
14.84767611959296
100
AcDbArc
 50
162.3627499277
 51
179.951688537
  0
LWPOLYLINE
  5
34F
330
1F
100
AcDbEntity
  8
0
  6
Continuous
 62
     8
370
    18
100
AcDbPolyline
 90
        3
 70
   128
 43
0.0
 10
344.7072655255
 20
232.4403816604
 10
345.1016315874
 20
231.4770550655
 10
345.6209811234
 20
230.6131720638
  0
ARC
  5
350
330
1F
100
AcDbEntity
  8
0
  6
Continuous
 62
     8
370
    18
100
AcDbCircle
 10
352.1496882574
 20
223.4399502165
 30
0.0
 40
9.699439597883527
100
AcDbArc
 50
132.306892082
 51
154.8253783429
  0
ARC
  5
351
330
1F
100
AcDbEntity
  8
0
  6
Continuous
 62
     8
370
    18
100
AcDbCircle
 10
344.5995625898
 20
200.1560949327
 30
0.0
 40
7.528421044177048
100
AcDbArc
 50
66.3590757583
 51
99.3879001061
  0
ARC
  5
352
330
1F
100
AcDbEntity
  8
0
  6
Continuous
 62
     8
370
    18
100
AcDbCircle
 10
323.7687992247
 20
154.8476803789
 30
0.0
 40
40.93198901920891
100
AcDbArc
 50
64.7726375439
 51
72.8303212968
  0
ARC
  5
353
330
1F
100
AcDbEntity
  8
0
  6
Continuous
 62
     8
370
    18
100
AcDbCircle
 10
254.7032515334
 20
318.2809373742
 30
0.0
 40
148.4652539931891
100
AcDbArc
 50
303.1329934659
 51
308.4679583936
  0
ARC
  5
354
330
1F
100
AcDbEntity
  8
0
  6
Continuous
 62
     8
370
    18
100
AcDbCircle
 10
329.4925569256
 20
166.1418367754
 30
0.0
 40
39.96541189383886
100
AcDbArc
 50
57.106035782
 51
63.9237101156
  0
ARC
  5
355
330
1F
100
AcDbEntity
  8
0
  6
Continuous
 62
     8
370
    18
100
AcDbCircle
 10
329.1605250838
 20
219.4576895914
 30
0.0
 40
5.242684518515221
100
AcDbArc
 50
262.2566807172
 51
299.2035648887
  0
ARC
  5
356
330
1F
100
AcDbEntity
  8
0
  6
Continuous
 62
     8
370
    18
100
AcDbCircle
 10
328.3980513275
 20
200.1858338415
 30
0.0
 40
3.838619058585722
100
AcDbArc
 50
270.8373654619
 51
329.8841120273
  0
LWPOLYLINE
  5
357
330
1F
100
AcDbEntity
  8
0
  6
Continuous
 62
     8
370
    18
100
AcDbPolyline
 90
        3
 70
   128
 43
0.0
 10
344.5960365204
 20
205.9912431016
 10
343.9256254052
 20
206.8535440781
 10
343.3715445319
 20
207.5836850579
  0
ARC
  5
358
330
1F
100
AcDbEntity
  8
0
  6
Continuous
 62
     8
370
    18
100
AcDbCircle
 10
327.8654637507
 20
192.8160371142
 30
0.0
 40
21.29549525160524
100
AcDbArc
 50
25.6645613013
 51
38.2201782579
  0
LINE
  5
359
330
1F
100
AcDbEntity
  8
0
  6
Continuous
 62
     8
370
    18
100
AcDbLine
 10
334.9514009608
 20
194.0642886911
 30
0.0
 11
335.8520234514
 21
193.9555238037
 31
0.0
  0
ARC
  5
35A
330
1F
100
AcDbEntity
  8
0
  6
Continuous
 62
     8
370
    18
100
AcDbCircle
 10
304.6008745016
 20
174.0207131697
 30
0.0
 40
36.37168371183869
100
AcDbArc
 50
33.4408879974
 51
41.7919346589
  0
ARC
  5
35B
330
1F
100
AcDbEntity
  8
0
  6
Continuous
 62
     8
370
    18
100
AcDbCircle
 10
342.6516722329
 20
191.4278597119
 30
0.0
 40
7.254261458712078
100
AcDbArc
 50
159.6081625609
 51
178.6748415233
  0
ARC
  5
35C
330
1F
100
AcDbEntity
  8
0
  6
Continuous
 62
     8
370
    18
100
AcDbCircle
 10
337.1547965844
 20
205.7736817452
 30
0.0
 40
10.58587885370564
100
AcDbArc
 50
339.342299602
 51
4.2166457227
  0
ARC
  5
35D
330
1F
100
AcDbEntity
  8
0
  6
Continuous
 62
     8
370
    18
100
AcDbCircle
 10
348.0383703493
 20
195.8015697759
 30
0.0
 40
10.75542210581911
100
AcDbArc
 50
91.7387790919
 51
108.6662916068
  0
ARC
  5
35E
330
1F
100
AcDbEntity
  8
0
  6
Continuous
 62
     8
370
    18
100
AcDbCircle
 10
337.1178948305
 20
210.6147224679
 30
0.0
 40
16.69163125302652
100
AcDbArc
 50
238.7316369779
 51
262.542241252
  0
LWPOLYLINE
  5
35F
330
1F
100
AcDbEntity
  8
0
  6
Continuous
 62
     8
370
    18
100
AcDbPolyline
 90
        3
 70
   128
 43
0.0
 10
334.9514009608
 20
194.0642886911
 10
334.562768035
 20
192.8313740934
 10
334.4005192003
 20
191.942616853
  0
ENDSEC
  0
SECTION
  2
OBJECTS
  0
DICTIONARY
  5
C
330
0
100
AcDbDictionary
281
     1
  3
ACAD_GROUP
350
D
  3
ACAD_LAYOUT
350
1A
  3
ACAD_MLINESTYLE
350
17
  3
ACAD_PLOTSETTINGS
350
19
  3
ACAD_PLOTSTYLENAME
350
E
  3
ACAD_SCALELIST
350
47
  3
DWGPROPS
350
360
  0
DICTIONARY
  5
D
102
{ACAD_REACTORS
330
C
102
}
330
C
100
AcDbDictionary
281
     1
  0
DICTIONARY
  5
1A
102
{ACAD_REACTORS
330
C
102
}
330
C
100
AcDbDictionary
281
     1
  3
Layout1
350
1E
  3
Layout2
350
26
  3
Model
350
22
  0
DICTIONARY
  5
17
102
{ACAD_REACTORS
330
C
102
}
330
C
100
AcDbDictionary
281
     1
  3
Standard
350
18
  0
DICTIONARY
  5
19
102
{ACAD_REACTORS
330
C
102
}
330
C
100
AcDbDictionary
281
     1
  0
ACDBDICTIONARYWDFLT
  5
E
102
{ACAD_REACTORS
330
C
102
}
330
C
100
AcDbDictionary
281
     1
  3
Normal
350
F
100
AcDbDictionaryWithDefault
340
F
  0
DICTIONARY
  5
47
102
{ACAD_REACTORS
330
C
102
}
330
C
100
AcDbDictionary
281
     1
  3
A0
350
48
  3
A1
350
49
  3
A2
350
4A
  3
A3
350
4B
  3
A4
350
4C
  3
A5
350
4D
  3
A6
350
4E
  3
A7
350
4F
  3
A8
350
50
  3
A9
350
51
  3
B0
350
52
  3
B1
350
53
  3
B2
350
54
  3
B3
350
55
  3
B4
350
56
  3
B5
350
57
  3
B6
350
58
  3
B7
350
59
  3
B8
350
5A
  3
B9
350
5B
  3
C0
350
5C
  3
C1
350
5D
  3
C2
350
5E
  3
C3
350
5F
  3
C4
350
60
  3
C5
350
61
  3
C6
350
62
  3
C7
350
63
  3
C8
350
64
  3
C9
350
65
  3
D0
350
66
  3
D1
350
67
  3
D2
350
68
  0
XRECORD
  5
360
102
{ACAD_REACTORS
330
C
102
}
330
C
100
AcDbXrecord
280
     1
  1
DWGPROPS COOKIE
  2

  3

  4

  6

  7

  8
ch-ntl-rs-wscad
  9

300
=
301
=
302
=
303
=
304
=
305
=
306
=
307
=
308
=
309
=
 40
0.0
 41
2460061.351826377
 42
2460061.351841771
  1

 90
        0
  0
LAYOUT
  5
1E
102
{ACAD_REACTORS
330
1A
102
}
330
1A
100
AcDbPlotSettings
  1

  2
none_device
  4

  6

 40
0.0
 41
0.0
 42
0.0
 43
0.0
 44
0.0
 45
0.0
 46
0.0
 47
0.0
 48
0.0
 49
0.0
140
0.0
141
0.0
142
1.0
143
1.0
 70
   688
 72
     1
 73
     0
 74
     5
  7

 75
    16
147
1.0
148
0.0
149
0.0
100
AcDbLayout
  1
Layout1
 70
     1
 71
     1
 10
0.0
 20
0.0
 11
420.0
 21
297.0
 12
0.0
 22
0.0
 32
0.0
 14
1.0000000000E+20
 24
1.0000000000E+20
 34
1.0000000000E+20
 15
-1.0000000000E+20
 25
-1.0000000000E+20
 35
-1.0000000000E+20
146
0.0
 13
0.0
 23
0.0
 33
0.0
 16
1.0
 26
0.0
 36
0.0
 17
0.0
 27
1.0
 37
0.0
 76
     0
330
1B
  0
LAYOUT
  5
26
102
{ACAD_REACTORS
330
1A
102
}
330
1A
100
AcDbPlotSettings
  1

  2
none_device
  4

  6

 40
0.0
 41
0.0
 42
0.0
 43
0.0
 44
0.0
 45
0.0
 46
0.0
 47
0.0
 48
0.0
 49
0.0
140
0.0
141
0.0
142
1.0
143
1.0
 70
   688
 72
     1
 73
     0
 74
     5
  7

 75
    16
147
1.0
148
0.0
149
0.0
100
AcDbLayout
  1
Layout2
 70
     1
 71
     2
 10
0.0
 20
0.0
 11
0.0
 21
0.0
 12
0.0
 22
0.0
 32
0.0
 14
0.0
 24
0.0
 34
0.0
 15
0.0
 25
0.0
 35
0.0
146
0.0
 13
0.0
 23
0.0
 33
0.0
 16
1.0
 26
0.0
 36
0.0
 17
0.0
 27
1.0
 37
0.0
 76
     0
330
23
  0
LAYOUT
  5
22
102
{ACAD_REACTORS
330
1A
102
}
330
1A
100
AcDbPlotSettings
  1

  2
none_device
  4
Letter_(8.50_x_11.00_Inches)
  6

 40
6.35
 41
6.35
 42
6.35000508
 43
6.35000508
 44
215.9
 45
279.4
 46
0.0
 47
0.0
 48
0.0
 49
0.0
140
0.0
141
0.0
142
1.0
143
1.0
 70
  1712
 72
     1
 73
     0
 74
     0
  7

 75
     0
147
1.0
148
0.0
149
0.0
100
AcDbLayout
  1
Model
 70
     1
 71
     0
 10
0.0
 20
0.0
 11
420.0
 21
297.0
 12
0.0
 22
0.0
 32
0.0
 14
0.0
 24
0.0
 34
0.0
 15
420.0
 25
297.0
 35
0.0
146
0.0
 13
0.0
 23
0.0
 33
0.0
 16
1.0
 26
0.0
 36
0.0
 17
0.0
 27
1.0
 37
0.0
 76
     0
330
1F
331
29
  0
MLINESTYLE
  5
18
102
{ACAD_REACTORS
330
17
102
}
330
17
100
AcDbMlineStyle
  2
Standard
 70
     0
  3

 62
   256
 51
90.0
 52
90.0
 71
     2
 49
0.5
 62
   256
  6
BYLAYER
 49
-0.5
 62
   256
  6
BYLAYER
  0
ACDBPLACEHOLDER
  5
F
102
{ACAD_REACTORS
330
E
102
}
330
E
  0
SCALE
  5
48
102
{ACAD_REACTORS
330
47
102
}
330
47
100
AcDbScale
 70
     0
300
1:1
140
1.0
141
1.0
290
     1
  0
SCALE
  5
49
102
{ACAD_REACTORS
330
47
102
}
330
47
100
AcDbScale
 70
     0
300
1:2
140
1.0
141
2.0
290
     0
  0
SCALE
  5
4A
102
{ACAD_REACTORS
330
47
102
}
330
47
100
AcDbScale
 70
     0
300
1:4
140
1.0
141
4.0
290
     0
  0
SCALE
  5
4B
102
{ACAD_REACTORS
330
47
102
}
330
47
100
AcDbScale
 70
     0
300
1:5
140
1.0
141
5.0
290
     0
  0
SCALE
  5
4C
102
{ACAD_REACTORS
330
47
102
}
330
47
100
AcDbScale
 70
     0
300
1:8
140
1.0
141
8.0
290
     0
  0
SCALE
  5
4D
102
{ACAD_REACTORS
330
47
102
}
330
47
100
AcDbScale
 70
     0
300
1:10
140
1.0
141
10.0
290
     0
  0
SCALE
  5
4E
102
{ACAD_REACTORS
330
47
102
}
330
47
100
AcDbScale
 70
     0
300
1:16
140
1.0
141
16.0
290
     0
  0
SCALE
  5
4F
102
{ACAD_REACTORS
330
47
102
}
330
47
100
AcDbScale
 70
     0
300
1:20
140
1.0
141
20.0
290
     0
  0
SCALE
  5
50
102
{ACAD_REACTORS
330
47
102
}
330
47
100
AcDbScale
 70
     0
300
1:30
140
1.0
141
30.0
290
     0
  0
SCALE
  5
51
102
{ACAD_REACTORS
330
47
102
}
330
47
100
AcDbScale
 70
     0
300
1:40
140
1.0
141
40.0
290
     0
  0
SCALE
  5
52
102
{ACAD_REACTORS
330
47
102
}
330
47
100
AcDbScale
 70
     0
300
1:50
140
1.0
141
50.0
290
     0
  0
SCALE
  5
53
102
{ACAD_REACTORS
330
47
102
}
330
47
100
AcDbScale
 70
     0
300
1:100
140
1.0
141
100.0
290
     0
  0
SCALE
  5
54
102
{ACAD_REACTORS
330
47
102
}
330
47
100
AcDbScale
 70
     0
300
2:1
140
2.0
141
1.0
290
     0
  0
SCALE
  5
55
102
{ACAD_REACTORS
330
47
102
}
330
47
100
AcDbScale
 70
     0
300
4:1
140
4.0
141
1.0
290
     0
  0
SCALE
  5
56
102
{ACAD_REACTORS
330
47
102
}
330
47
100
AcDbScale
 70
     0
300
8:1
140
8.0
141
1.0
290
     0
  0
SCALE
  5
57
102
{ACAD_REACTORS
330
47
102
}
330
47
100
AcDbScale
 70
     0
300
10:1
140
10.0
141
1.0
290
     0
  0
SCALE
  5
58
102
{ACAD_REACTORS
330
47
102
}
330
47
100
AcDbScale
 70
     0
300
100:1
140
100.0
141
1.0
290
     0
  0
SCALE
  5
59
102
{ACAD_REACTORS
330
47
102
}
330
47
100
AcDbScale
 70
     0
300
1/128" = 1'-0"
140
0.0078125
141
12.0
290
     0
  0
SCALE
  5
5A
102
{ACAD_REACTORS
330
47
102
}
330
47
100
AcDbScale
 70
     0
300
1/64" = 1'-0"
140
0.015625
141
12.0
290
     0
  0
SCALE
  5
5B
102
{ACAD_REACTORS
330
47
102
}
330
47
100
AcDbScale
 70
     0
300
1/32" = 1'-0"
140
0.03125
141
12.0
290
     0
  0
SCALE
  5
5C
102
{ACAD_REACTORS
330
47
102
}
330
47
100
AcDbScale
 70
     0
300
1/16" = 1'-0"
140
0.0625
141
12.0
290
     0
  0
SCALE
  5
5D
102
{ACAD_REACTORS
330
47
102
}
330
47
100
AcDbScale
 70
     0
300
3/32" = 1'-0"
140
0.09375
141
12.0
290
     0
  0
SCALE
  5
5E
102
{ACAD_REACTORS
330
47
102
}
330
47
100
AcDbScale
 70
     0
300
1/8" = 1'-0"
140
0.125
141
12.0
290
     0
  0
SCALE
  5
5F
102
{ACAD_REACTORS
330
47
102
}
330
47
100
AcDbScale
 70
     0
300
3/16" = 1'-0"
140
0.1875
141
12.0
290
     0
  0
SCALE
  5
60
102
{ACAD_REACTORS
330
47
102
}
330
47
100
AcDbScale
 70
     0
300
1/4" = 1'-0"
140
0.25
141
12.0
290
     0
  0
SCALE
  5
61
102
{ACAD_REACTORS
330
47
102
}
330
47
100
AcDbScale
 70
     0
300
3/8" = 1'-0"
140
0.375
141
12.0
290
     0
  0
SCALE
  5
62
102
{ACAD_REACTORS
330
47
102
}
330
47
100
AcDbScale
 70
     0
300
1/2" = 1'-0"
140
0.5
141
12.0
290
     0
  0
SCALE
  5
63
102
{ACAD_REACTORS
330
47
102
}
330
47
100
AcDbScale
 70
     0
300
3/4" = 1'-0"
140
0.75
141
12.0
290
     0
  0
SCALE
  5
64
102
{ACAD_REACTORS
330
47
102
}
330
47
100
AcDbScale
 70
     0
300
1" = 1'-0"
140
1.0
141
12.0
290
     0
  0
SCALE
  5
65
102
{ACAD_REACTORS
330
47
102
}
330
47
100
AcDbScale
 70
     0
300
1-1/2" = 1'-0"
140
1.5
141
12.0
290
     0
  0
SCALE
  5
66
102
{ACAD_REACTORS
330
47
102
}
330
47
100
AcDbScale
 70
     0
300
3" = 1'-0"
140
3.0
141
12.0
290
     0
  0
SCALE
  5
67
102
{ACAD_REACTORS
330
47
102
}
330
47
100
AcDbScale
 70
     0
300
6" = 1'-0"
140
6.0
141
12.0
290
     0
  0
SCALE
  5
68
102
{ACAD_REACTORS
330
47
102
}
330
47
100
AcDbScale
 70
     0
300
1'-0" = 1'-0"
140
12.0
141
12.0
290
     0
  0
ENDSEC
  0
EOF
