  0
SECTION
  2
HEADER
  9
$ACADVER
  1
AC1015
  9
$ACADMAINTVER
 70
     6
  9
$DWGCODEPAGE
  3
ANSI_1252
  9
$INSBASE
 10
0.0
 20
0.0
 30
0.0
  9
$EXTMIN
 10
0.0
 20
0.0
 30
0.0
  9
$EXTMAX
 10
420.0
 20
297.0
 30
0.0
  9
$LIMMIN
 10
0.0
 20
0.0
  9
$LIMMAX
 10
420.0
 20
297.0
  9
$ORTHOMODE
 70
     0
  9
$REGENMODE
 70
     1
  9
$FILLMODE
 70
     1
  9
$QTEXTMODE
 70
     0
  9
$MIRRTEXT
 70
     1
  9
$LTSCALE
 40
1.0
  9
$ATTMODE
 70
     1
  9
$TEXTSIZE
 40
3.5
  9
$TRACEWID
 40
1.0
  9
$TEXTSTYLE
  7
Standard
  9
$CLAYER
  8
0
  9
$CELTYPE
  6
ByLayer
  9
$CECOLOR
 62
   256
  9
$CELTSCALE
 40
1.0
  9
$DISPSILH
 70
     0
  9
$DIMSCALE
 40
1.0
  9
$DIMASZ
 40
3.5
  9
$DIMEXO
 40
0.1
  9
$DIMDLI
 40
3.75
  9
$DIMRND
 40
0.0
  9
$DIMDLE
 40
0.0
  9
$DIMEXE
 40
1.0
  9
$DIMTP
 40
0.0
  9
$DIMTM
 40
0.0
  9
$DIMTXT
 40
3.5
  9
$DIMCEN
 40
2.5
  9
$DIMTSZ
 40
0.0
  9
$DIMTOL
 70
     0
  9
$DIMLIM
 70
     0
  9
$DIMTIH
 70
     1
  9
$DIMTOH
 70
     1
  9
$DIMSE1
 70
     0
  9
$DIMSE2
 70
     0
  9
$DIMTAD
 70
     1
  9
$DIMZIN
 70
     0
  9
$DIMBLK
  1

  9
$DIMASO
 70
     1
  9
$DIMSHO
 70
     1
  9
$DIMPOST
  1

  9
$DIMAPOST
  1

  9
$DIMALT
 70
     0
  9
$DIMALTD
 70
     3
  9
$DIMALTF
 40
0.0393700787
  9
$DIMLFAC
 40
1.0
  9
$DIMTOFL
 70
     1
  9
$DIMTVP
 40
0.0
  9
$DIMTIX
 70
     0
  9
$DIMSOXD
 70
     0
  9
$DIMSAH
 70
     0
  9
$DIMBLK1
  1

  9
$DIMBLK2
  1

  9
$DIMSTYLE
  2
ISO-25
  9
$DIMCLRD
 70
     0
  9
$DIMCLRE
 70
     0
  9
$DIMCLRT
 70
     0
  9
$DIMTFAC
 40
1.0
  9
$DIMGAP
 40
2.0
  9
$DIMJUST
 70
     0
  9
$DIMSD1
 70
     0
  9
$DIMSD2
 70
     0
  9
$DIMTOLJ
 70
     0
  9
$DIMTZIN
 70
     0
  9
$DIMALTZ
 70
     0
  9
$DIMALTTZ
 70
     0
  9
$DIMUPT
 70
     0
  9
$DIMDEC
 70
     2
  9
$DIMTDEC
 70
     3
  9
$DIMALTU
 70
     2
  9
$DIMALTTD
 70
     3
  9
$DIMTXSTY
  7
Standard
  9
$DIMAUNIT
 70
     0
  9
$DIMADEC
 70
     2
  9
$DIMALTRND
 40
0.0
  9
$DIMAZIN
 70
     0
  9
$DIMDSEP
 70
    44
  9
$DIMATFIT
 70
     3
  9
$DIMFRAC
 70
     0
  9
$DIMLDRBLK
  1

  9
$DIMLUNIT
 70
     2
  9
$DIMLWD
 70
    -2
  9
$DIMLWE
 70
    -2
  9
$DIMTMOVE
 70
     0
  9
$LUNITS
 70
     2
  9
$LUPREC
 70
     2
  9
$SKETCHINC
 40
1.0
  9
$FILLETRAD
 40
10.0
  9
$AUNITS
 70
     0
  9
$AUPREC
 70
     2
  9
$MENU
  1
.
  9
$ELEVATION
 40
0.0
  9
$PELEVATION
 40
0.0
  9
$THICKNESS
 40
0.0
  9
$LIMCHECK
 70
     0
  9
$CHAMFERA
 40
0.0
  9
$CHAMFERB
 40
0.0
  9
$CHAMFERC
 40
0.0
  9
$CHAMFERD
 40
0.0
  9
$SKPOLY
 70
     0
  9
$TDCREATE
 40
2460209.63476037
  9
$TDUCREATE
 40
2460209.551427037
  9
$TDUPDATE
 40
2460209.634772326
  9
$TDUUPDATE
 40
2460209.551438993
  9
$TDINDWG
 40
0.0000000116
  9
$TDUSRTIMER
 40
0.0000000116
  9
$USRTIMER
 70
     1
  9
$ANGBASE
 50
0.0
  9
$ANGDIR
 70
     0
  9
$PDMODE
 70
     0
  9
$PDSIZE
 40
-1.0
  9
$PLINEWID
 40
0.0
  9
$SPLFRAME
 70
     0
  9
$SPLINETYPE
 70
     6
  9
$SPLINESEGS
 70
     8
  9
$HANDSEED
  5
459
  9
$SURFTAB1
 70
     6
  9
$SURFTAB2
 70
     6
  9
$SURFTYPE
 70
     6
  9
$SURFU
 70
     6
  9
$SURFV
 70
     6
  9
$UCSBASE
  2

  9
$UCSNAME
  2

  9
$UCSORG
 10
0.0
 20
0.0
 30
0.0
  9
$UCSXDIR
 10
1.0
 20
0.0
 30
0.0
  9
$UCSYDIR
 10
0.0
 20
1.0
 30
0.0
  9
$UCSORTHOREF
  2

  9
$UCSORTHOVIEW
 70
     0
  9
$UCSORGTOP
 10
0.0
 20
0.0
 30
0.0
  9
$UCSORGBOTTOM
 10
0.0
 20
0.0
 30
0.0
  9
$UCSORGLEFT
 10
0.0
 20
0.0
 30
0.0
  9
$UCSORGRIGHT
 10
0.0
 20
0.0
 30
0.0
  9
$UCSORGFRONT
 10
0.0
 20
0.0
 30
0.0
  9
$UCSORGBACK
 10
0.0
 20
0.0
 30
0.0
  9
$PUCSBASE
  2

  9
$PUCSNAME
  2

  9
$PUCSORG
 10
0.0
 20
0.0
 30
0.0
  9
$PUCSXDIR
 10
1.0
 20
0.0
 30
0.0
  9
$PUCSYDIR
 10
0.0
 20
1.0
 30
0.0
  9
$PUCSORTHOREF
  2

  9
$PUCSORTHOVIEW
 70
     0
  9
$PUCSORGTOP
 10
0.0
 20
0.0
 30
0.0
  9
$PUCSORGBOTTOM
 10
0.0
 20
0.0
 30
0.0
  9
$PUCSORGLEFT
 10
0.0
 20
0.0
 30
0.0
  9
$PUCSORGRIGHT
 10
0.0
 20
0.0
 30
0.0
  9
$PUCSORGFRONT
 10
0.0
 20
0.0
 30
0.0
  9
$PUCSORGBACK
 10
0.0
 20
0.0
 30
0.0
  9
$USERI1
 70
     0
  9
$USERI2
 70
     0
  9
$USERI3
 70
     0
  9
$USERI4
 70
     0
  9
$USERI5
 70
     0
  9
$USERR1
 40
0.0
  9
$USERR2
 40
0.0
  9
$USERR3
 40
0.0
  9
$USERR4
 40
0.0
  9
$USERR5
 40
0.0
  9
$WORLDVIEW
 70
     1
  9
$SHADEDGE
 70
     3
  9
$SHADEDIF
 70
    70
  9
$TILEMODE
 70
     1
  9
$MAXACTVP
 70
    64
  9
$PINSBASE
 10
0.0
 20
0.0
 30
0.0
  9
$PLIMCHECK
 70
     0
  9
$PEXTMIN
 10
1.0000000000E+20
 20
1.0000000000E+20
 30
1.0000000000E+20
  9
$PEXTMAX
 10
-1.0000000000E+20
 20
-1.0000000000E+20
 30
-1.0000000000E+20
  9
$PLIMMIN
 10
0.0
 20
0.0
  9
$PLIMMAX
 10
420.0
 20
297.0
  9
$UNITMODE
 70
     0
  9
$VISRETAIN
 70
     1
  9
$PLINEGEN
 70
     0
  9
$PSLTSCALE
 70
     1
  9
$TREEDEPTH
 70
  3020
  9
$CMLSTYLE
  2
Standard
  9
$CMLJUST
 70
     0
  9
$CMLSCALE
 40
20.0
  9
$PROXYGRAPHICS
 70
     1
  9
$MEASUREMENT
 70
     1
  9
$CELWEIGHT
370
    -1
  9
$ENDCAPS
280
     0
  9
$JOINSTYLE
280
     0
  9
$LWDISPLAY
290
     1
  9
$INSUNITS
 70
     4
  9
$HYPERLINKBASE
  1

  9
$STYLESHEET
  1

  9
$XEDIT
290
     1
  9
$CEPSNTYPE
380
     0
  9
$PSTYLEMODE
290
     1
  9
$FINGERPRINTGUID
  2
{99447348-7852-45c6-a1b5-6ee2a746120d}
  9
$VERSIONGUID
  2
{FAEB1C32-E019-11D5-929B-00C0DF256EC4}
  9
$EXTNAMES
290
     1
  9
$PSVPSCALE
 40
0.0
  9
$OLESTARTUP
290
     0
  0
ENDSEC
  0
SECTION
  2
CLASSES
  0
CLASS
  1
ACDBDICTIONARYWDFLT
  2
AcDbDictionaryWithDefault
  3
ObjectDBX Classes
 90
        0
280
     0
281
     0
  0
CLASS
  1
VISUALSTYLE
  2
AcDbVisualStyle
  3
ObjectDBX Classes
 90
     4095
280
     0
281
     0
  0
CLASS
  1
MATERIAL
  2
AcDbMaterial
  3
ObjectDBX Classes
 90
     1153
280
     0
281
     0
  0
CLASS
  1
SCALE
  2
AcDbScale
  3
ObjectDBX Classes
 90
     1153
280
     0
281
     0
  0
CLASS
  1
TABLESTYLE
  2
AcDbTableStyle
  3
ObjectDBX Classes
 90
     4095
280
     0
281
     0
  0
CLASS
  1
MLEADERSTYLE
  2
AcDbMLeaderStyle
  3
ACDB_MLEADERSTYLE_CLASS
 90
     4095
280
     0
281
     0
  0
CLASS
  1
SUN
  2
AcDbSun
  3
SCENEOE
 90
     1153
280
     0
281
     0
  0
CLASS
  1
ACDBPLACEHOLDER
  2
AcDbPlaceHolder
  3
ObjectDBX Classes
 90
        0
280
     0
281
     0
  0
CLASS
  1
LAYOUT
  2
AcDbLayout
  3
ObjectDBX Classes
 90
        0
280
     0
281
     0
  0
ENDSEC
  0
SECTION
  2
TABLES
  0
TABLE
  2
VPORT
  5
8
330
0
100
AcDbSymbolTable
 70
     1
  0
VPORT
  5
29
330
8
100
AcDbSymbolTableRecord
100
AcDbViewportTableRecord
  2
*Active
 70
     0
 10
0.0
 20
0.0
 11
1.0
 21
1.0
 12
210.0
 22
148.5
 13
0.0
 23
0.0
 14
10.0
 24
10.0
 15
10.0
 25
10.0
 16
0.0
 26
0.0
 36
1.0
 17
0.0
 27
0.0
 37
0.0
 40
297.0
 41
1.4141414141
 42
50.0
 43
0.0
 44
0.0
 50
0.0
 51
0.0
 71
     0
 72
  2000
 73
     1
 74
     3
 75
     0
 76
     0
 77
     0
 78
     0
281
     0
 65
     1
110
0.0
120
0.0
130
0.0
111
1.0
121
0.0
131
0.0
112
0.0
122
1.0
132
0.0
 79
     0
146
0.0
  0
ENDTAB
  0
TABLE
  2
LTYPE
  5
5
330
0
100
AcDbSymbolTable
 70
     6
  0
LTYPE
  5
14
330
5
100
AcDbSymbolTableRecord
100
AcDbLinetypeTableRecord
  2
ByBlock
 70
     0
  3

 72
    65
 73
     0
 40
0.0
  0
LTYPE
  5
15
330
5
100
AcDbSymbolTableRecord
100
AcDbLinetypeTableRecord
  2
ByLayer
 70
     0
  3

 72
    65
 73
     0
 40
0.0
  0
LTYPE
  5
16
330
5
100
AcDbSymbolTableRecord
100
AcDbLinetypeTableRecord
  2
Continuous
 70
     0
  3
Solid line
 72
    65
 73
     0
 40
0.0
  0
LTYPE
  5
6E
330
5
100
AcDbSymbolTableRecord
100
AcDbLinetypeTableRecord
  2
HIDDEN
 70
     0
  3
Hidden __ __ __ __ __ __ __ __ __ __ __ __ __ __
 72
    65
 73
     2
 40
1.905
 49
1.27
 74
     0
 49
-0.635
 74
     0
  0
LTYPE
  5
6F
330
5
100
AcDbSymbolTableRecord
100
AcDbLinetypeTableRecord
  2
PHANTOM
 70
     0
  3
Phantom ______  __  __  ______  __  __  ______
 72
    65
 73
     6
 40
12.7
 49
6.35
 74
     0
 49
-1.27
 74
     0
 49
1.27
 74
     0
 49
-1.27
 74
     0
 49
1.27
 74
     0
 49
-1.27
 74
     0
  0
LTYPE
  5
70
330
5
100
AcDbSymbolTableRecord
100
AcDbLinetypeTableRecord
  2
CENTER
 70
     0
  3
Center ____ _ ____ _ ____ _ ____ _ ____ _ ____
 72
    65
 73
     4
 40
10.16
 49
6.35
 74
     0
 49
-1.27
 74
     0
 49
1.27
 74
     0
 49
-1.27
 74
     0
  0
LTYPE
  5
71
330
5
100
AcDbSymbolTableRecord
100
AcDbLinetypeTableRecord
  2
CENTERX2
 70
     0
  3
Center (2x) ________  __  ________  __  _____
 72
    65
 73
     4
 40
20.32
 49
12.7
 74
     0
 49
-2.54
 74
     0
 49
2.54
 74
     0
 49
-2.54
 74
     0
  0
LTYPE
  5
72
330
5
100
AcDbSymbolTableRecord
100
AcDbLinetypeTableRecord
  2
DOT2
 70
     0
  3
Dot (.5x) ........................................
 72
    65
 73
     2
 40
0.635
 49
0.0
 74
     0
 49
-0.635
 74
     0
  0
ENDTAB
  0
TABLE
  2
LAYER
  5
2
330
0
100
AcDbSymbolTable
 70
     9
  0
LAYER
  5
10
330
2
100
AcDbSymbolTableRecord
100
AcDbLayerTableRecord
  2
0
 70
     0
 62
     7
  6
Continuous
370
    -3
390
F
  0
LAYER
  5
73
330
2
100
AcDbSymbolTableRecord
100
AcDbLayerTableRecord
  2
VORLAGE_TEXT
 70
     0
 62
     7
  6
Continuous
370
    -3
390
F
  0
LAYER
  5
74
330
2
100
AcDbSymbolTableRecord
100
AcDbLayerTableRecord
  2
VORLAGE_BEMASSUNG
 70
     0
 62
    -5
  6
Continuous
290
     0
370
    -3
390
F
  0
LAYER
  5
75
330
2
100
AcDbSymbolTableRecord
100
AcDbLayerTableRecord
  2
TEXT
 70
     0
 62
     7
  6
Continuous
370
    -3
390
F
  0
LAYER
  5
76
330
2
100
AcDbSymbolTableRecord
100
AcDbLayerTableRecord
  2
LINIEN-DICK
 70
     0
 62
     7
  6
Continuous
370
    35
390
F
  0
LAYER
  5
77
330
2
100
AcDbSymbolTableRecord
100
AcDbLayerTableRecord
  2
LINIEN-NORMAL
 70
     0
 62
     7
  6
Continuous
370
    25
390
F
  0
LAYER
  5
78
330
2
100
AcDbSymbolTableRecord
100
AcDbLayerTableRecord
  2
LINIEN-DÜNN
 70
     0
 62
     7
  6
Continuous
370
    -3
390
F
  0
LAYER
  5
79
330
2
100
AcDbSymbolTableRecord
100
AcDbLayerTableRecord
  2
TEXT-DEUTSCH
 70
     0
 62
     7
  6
Continuous
370
    -3
390
F
  0
LAYER
  5
7A
330
2
100
AcDbSymbolTableRecord
100
AcDbLayerTableRecord
  2
TEXT-ENGLISCH
 70
     0
 62
    -7
  6
Continuous
290
     0
370
    -3
390
F
  0
ENDTAB
  0
TABLE
  2
STYLE
  5
3
330
0
100
AcDbSymbolTable
 70
     3
  0
STYLE
  5
11
330
3
100
AcDbSymbolTableRecord
100
AcDbTextStyleTableRecord
  2
Standard
 70
     0
 40
0.0
 41
1.0
 50
0.0
 71
     0
 42
3.5
  3
txt
  4

  0
STYLE
  5
F1
330
3
100
AcDbSymbolTableRecord
100
AcDbTextStyleTableRecord
  2
SLDTEXTSTYLE0
 70
     0
 40
0.0
 41
0.605
 50
0.0
 71
     0
 42
3.5
  3
TXT
  4

  0
STYLE
  5
19A
330
3
100
AcDbSymbolTableRecord
100
AcDbTextStyleTableRecord
  2
SLDTEXTSTYLE1
 70
     0
 40
0.0
 41
0.563
 50
0.0
 71
     0
 42
3.5
  3
TXT
  4

  0
ENDTAB
  0
TABLE
  2
VIEW
  5
6
330
0
100
AcDbSymbolTable
 70
     0
  0
ENDTAB
  0
TABLE
  2
UCS
  5
7
330
0
100
AcDbSymbolTable
 70
     0
  0
ENDTAB
  0
TABLE
  2
APPID
  5
9
330
0
100
AcDbSymbolTable
 70
     1
  0
APPID
  5
12
330
9
100
AcDbSymbolTableRecord
100
AcDbRegAppTableRecord
  2
ACAD
 70
     0
  0
ENDTAB
  0
TABLE
  2
DIMSTYLE
  5
A
330
0
100
AcDbSymbolTable
 70
     2
100
AcDbDimStyleTable
  0
DIMSTYLE
105
27
330
A
100
AcDbSymbolTableRecord
100
AcDbDimStyleTableRecord
  2
ISO-25
 70
     0
 41
2.5
 42
0.625
 43
3.75
 44
1.25
 73
     0
 74
     0
 77
     1
 78
     8
140
2.5
141
2.5
143
0.0393700787
147
0.625
171
     3
172
     1
178
     0
271
     2
272
     2
274
     3
278
    44
283
     0
284
     8
340
11
  0
DIMSTYLE
105
32A
102
{ACAD_REACTORS
330
329
330
335
330
340
330
34A
330
354
330
35F
102
}
330
A
100
AcDbSymbolTableRecord
100
AcDbDimStyleTableRecord
  2
SLDDIMSTYLE0
 70
     0
 41
3.5
 44
0.0
 45
0.000000001
 73
     0
 74
     0
 77
     1
 78
    12
 79
     3
140
3.5
147
0.875
173
     1
178
     0
271
     2
272
     3
276
     2
284
    12
340
F1
  0
ENDTAB
  0
TABLE
  2
BLOCK_RECORD
  5
1
330
0
100
AcDbSymbolTable
 70
    15
  0
BLOCK_RECORD
  5
1F
330
1
100
AcDbSymbolTableRecord
100
AcDbBlockTableRecord
  2
*Model_Space
340
22
  0
BLOCK_RECORD
  5
1B
330
1
100
AcDbSymbolTableRecord
100
AcDbBlockTableRecord
  2
*Paper_Space
340
1E
  0
BLOCK_RECORD
  5
23
330
1
100
AcDbSymbolTableRecord
100
AcDbBlockTableRecord
  2
*Paper_Space0
340
26
  0
BLOCK_RECORD
  5
7B
330
1
100
AcDbSymbolTableRecord
100
AcDbBlockTableRecord
  2
ACO-Logo
340
0
102
{BLKREFS
331
151
102
}
  0
BLOCK_RECORD
  5
EE
330
1
100
AcDbSymbolTableRecord
100
AcDbBlockTableRecord
  2
SW_NOTE_0
340
0
102
{BLKREFS
331
F3
102
}
  0
BLOCK_RECORD
  5
F4
330
1
100
AcDbSymbolTableRecord
100
AcDbBlockTableRecord
  2
SW_NOTE_0_1
340
0
102
{BLKREFS
331
F8
102
}
  0
BLOCK_RECORD
  5
F9
330
1
100
AcDbSymbolTableRecord
100
AcDbBlockTableRecord
  2
SW_NOTE_0_2
340
0
102
{BLKREFS
331
100
102
}
  0
BLOCK_RECORD
  5
178
330
1
100
AcDbSymbolTableRecord
100
AcDbBlockTableRecord
  2
SW_NOTE_0_3
340
0
102
{BLKREFS
331
180
102
}
  0
BLOCK_RECORD
  5
204
330
1
100
AcDbSymbolTableRecord
100
AcDbBlockTableRecord
  2
SW_CENTERMARKSYMBOL_0
340
0
102
{BLKREFS
331
20F
102
}
  0
BLOCK_RECORD
  5
217
330
1
100
AcDbSymbolTableRecord
100
AcDbBlockTableRecord
  2
SW_BROKEN_VIEW_0
340
0
102
{BLKREFS
331
21A
102
}
  0
BLOCK_RECORD
  5
32B
330
1
100
AcDbSymbolTableRecord
100
AcDbBlockTableRecord
  2
_D
340
0
  0
BLOCK_RECORD
  5
336
330
1
100
AcDbSymbolTableRecord
100
AcDbBlockTableRecord
  2
_D_1
340
0
  0
BLOCK_RECORD
  5
341
330
1
100
AcDbSymbolTableRecord
100
AcDbBlockTableRecord
  2
_D_2
340
0
  0
BLOCK_RECORD
  5
34B
330
1
100
AcDbSymbolTableRecord
100
AcDbBlockTableRecord
  2
_D_3
340
0
  0
BLOCK_RECORD
  5
355
330
1
100
AcDbSymbolTableRecord
100
AcDbBlockTableRecord
  2
_D_4
340
0
  0
BLOCK_RECORD
  5
360
330
1
100
AcDbSymbolTableRecord
100
AcDbBlockTableRecord
  2
_D_5
340
0
  0
BLOCK_RECORD
  5
36F
330
1
100
AcDbSymbolTableRecord
100
AcDbBlockTableRecord
  2
SW_HATCH_0
340
0
102
{BLKREFS
331
457
102
}
  0
ENDTAB
  0
ENDSEC
  0
SECTION
  2
BLOCKS
  0
BLOCK
  5
20
330
1F
100
AcDbEntity
  8
0
100
AcDbBlockBegin
  2
*Model_Space
 70
     0
 10
0.0
 20
0.0
 30
0.0
  3
*Model_Space
  1

  0
ENDBLK
  5
21
330
1F
100
AcDbEntity
  8
0
100
AcDbBlockEnd
  0
BLOCK
  5
1C
330
1B
100
AcDbEntity
 67
     1
  8
0
100
AcDbBlockBegin
  2
*Paper_Space
 70
     0
 10
0.0
 20
0.0
 30
0.0
  3
*Paper_Space
  1

  0
ENDBLK
  5
1D
330
1B
100
AcDbEntity
 67
     1
  8
0
100
AcDbBlockEnd
  0
BLOCK
  5
24
330
23
100
AcDbEntity
  8
0
100
AcDbBlockBegin
  2
*Paper_Space0
 70
     0
 10
0.0
 20
0.0
 30
0.0
  3
*Paper_Space0
  1

  0
ENDBLK
  5
25
330
23
100
AcDbEntity
  8
0
100
AcDbBlockEnd
  0
BLOCK
  5
7C
330
7B
100
AcDbEntity
  8
0
100
AcDbBlockBegin
  2
ACO-Logo
 70
     0
 10
0.0
 20
0.0
 30
0.0
  3
ACO-Logo
  1

  0
ARC
  5
7E
330
7B
100
AcDbEntity
  8
0
  6
Continuous
 62
   179
370
    18
100
AcDbCircle
 10
80.3853261169
 20
4.9940995715
 30
0.0
 40
0.3000000000000441
100
AcDbArc
 50
181.9349323096
 51
274.6062978506
  0
ARC
  5
7F
330
7B
100
AcDbEntity
  8
0
  6
Continuous
 62
   179
370
    18
100
AcDbCircle
 10
81.2359083165
 20
2.1946665956
 30
0.0
 40
1.000000000000021
100
AcDbArc
 50
221.4087409628
 51
276.0561297228
  0
ARC
  5
80
330
7B
100
AcDbEntity
  8
0
  6
Continuous
 62
   179
370
    18
100
AcDbCircle
 10
79.1360017163
 20
3.654242048
 30
0.0
 40
0.300000000000004
100
AcDbArc
 50
181.2730300201
 51
274.4996077095
  0
ARC
  5
81
330
7B
100
AcDbEntity
  8
0
  6
Continuous
 62
   179
370
    18
100
AcDbCircle
 10
78.7699033484
 20
3.2873137407
 30
0.0
 40
0.4000000000000358
100
AcDbArc
 50
221.0090869016
 51
274.5606296317
  0
ARC
  5
82
330
7B
100
AcDbEntity
  8
0
  6
Continuous
 62
   179
370
    18
100
AcDbCircle
 10
91.2333953062
 20
4.6062442307
 30
0.0
 40
0.3000000000000493
100
AcDbArc
 50
274.4996077095
 51
3.7249371334
  0
ARC
  5
83
330
7B
100
AcDbEntity
  8
0
  6
Continuous
 62
   179
370
    18
100
AcDbCircle
 10
81.5287571045
 20
9.7648973508
 30
0.0
 40
1.00000000000002
100
AcDbArc
 50
93.1134387481
 51
181.9414863909
  0
ARC
  5
84
330
7B
100
AcDbEntity
  8
0
  6
Continuous
 62
   179
370
    18
100
AcDbCircle
 10
81.6051675115
 20
7.5107903456
 30
0.0
 40
1.0
100
AcDbArc
 50
181.9414863909
 51
274.398705355
  0
ARC
  5
85
330
7B
100
AcDbEntity
  8
0
  6
Continuous
 62
   179
370
    18
100
AcDbCircle
 10
80.1506905656
 20
11.9393118923
 30
0.0
 40
0.300000000000045
100
AcDbArc
 50
93.0418421566
 51
181.9349323096
  0
ARC
  5
86
330
7B
100
AcDbEntity
  8
0
  6
Continuous
 62
   179
370
    18
100
AcDbCircle
 10
78.1879722102
 20
12.3499352608
 30
0.0
 40
0.7999999999953393
100
AcDbArc
 50
92.6995697565
 51
148.2554209065
  0
ARC
  5
87
330
7B
100
AcDbEntity
  8
0
  6
Continuous
 62
   179
370
    18
100
AcDbCircle
 10
78.930862229
 20
12.8855189761
 30
0.0
 40
0.3000000000000031
100
AcDbArc
 50
92.6995697565
 51
181.2730300201
  0
ARC
  5
88
330
7B
100
AcDbEntity
  8
0
  6
Continuous
 62
   179
370
    18
100
AcDbCircle
 10
82.327743407
 20
9.8083568568
 30
0.0
 40
1.000000000000034
100
AcDbArc
 50
1.9414863909
 51
93.1134387481
  0
ARC
  5
89
330
7B
100
AcDbEntity
  8
0
  6
Continuous
 62
   179
370
    18
100
AcDbCircle
 10
81.5287571045
 20
9.7648973508
 30
0.0
 40
0.3625000000000009
100
AcDbArc
 50
93.1134387481
 51
181.9414863909
  0
ARC
  5
8A
330
7B
100
AcDbEntity
  8
0
  6
Continuous
 62
   179
370
    18
100
AcDbCircle
 10
82.327743407
 20
9.8083568568
 30
0.0
 40
0.3625000000000146
100
AcDbArc
 50
1.9414863909
 51
93.1134387481
  0
ARC
  5
8B
330
7B
100
AcDbEntity
  8
0
  6
Continuous
 62
   179
370
    18
100
AcDbCircle
 10
82.4035451983
 20
7.5722040138
 30
0.0
 40
1.000000000000008
100
AcDbArc
 50
274.398705355
 51
1.9414863909
  0
ARC
  5
8C
330
7B
100
AcDbEntity
  8
0
  6
Continuous
 62
   179
370
    18
100
AcDbCircle
 10
82.4035451983
 20
7.5722040138
 30
0.0
 40
0.3625000000000068
100
AcDbArc
 50
274.398705355
 51
1.9414863909
  0
ARC
  5
8D
330
7B
100
AcDbEntity
  8
0
  6
Continuous
 62
   179
370
    18
100
AcDbCircle
 10
81.6051675115
 20
7.5107903456
 30
0.0
 40
0.3625000000000111
100
AcDbArc
 50
181.9414863909
 51
274.398705355
  0
ARC
  5
8E
330
7B
100
AcDbEntity
  8
0
  6
Continuous
 62
   179
370
    18
100
AcDbCircle
 10
88.825822761
 20
8.0662148274
 30
0.0
 40
0.9999999999999997
100
AcDbArc
 50
274.398705355
 51
2.6541955134
  0
ARC
  5
8F
330
7B
100
AcDbEntity
  8
0
  6
Continuous
 62
   179
370
    18
100
AcDbCircle
 10
90.1578295581
 20
5.7814576687
 30
0.0
 40
0.3000000000000043
100
AcDbArc
 50
274.6062978507
 51
2.5147526475
  0
ARC
  5
90
330
7B
100
AcDbEntity
  8
0
  6
Continuous
 62
   179
370
    18
100
AcDbCircle
 10
88.825822761
 20
8.0662148274
 30
0.0
 40
0.3625000000000083
100
AcDbArc
 50
274.398705355
 51
2.6541955134
  0
ARC
  5
91
330
7B
100
AcDbEntity
  8
0
  6
Continuous
 62
   179
370
    18
100
AcDbCircle
 10
88.728529747
 20
10.16496413
 30
0.0
 40
1.000000000000001
100
AcDbArc
 50
2.6541955134
 51
93.1134387481
  0
ARC
  5
92
330
7B
100
AcDbEntity
  8
0
  6
Continuous
 62
   179
370
    18
100
AcDbCircle
 10
88.728529747
 20
10.16496413
 30
0.0
 40
0.3625000000000085
100
AcDbArc
 50
2.6541955134
 51
93.1134387481
  0
ARC
  5
93
330
7B
100
AcDbEntity
  8
0
  6
Continuous
 62
   179
370
    18
100
AcDbCircle
 10
89.8647121341
 20
12.455515937
 30
0.0
 40
0.2999999999999984
100
AcDbArc
 50
2.5147526475
 51
93.0418421566
  0
ARC
  5
94
330
7B
100
AcDbEntity
  8
0
  6
Continuous
 62
   179
370
    18
100
AcDbCircle
 10
90.6583795404
 20
13.4384863935
 30
0.0
 40
0.2999999999999911
100
AcDbArc
 50
3.7249371334
 51
92.6995697565
  0
CIRCLE
  5
95
330
7B
100
AcDbEntity
  8
0
  6
Continuous
 62
   179
370
    18
100
AcDbCircle
 10
15.7233972286
 20
6.4054930194
 30
0.0
 40
1.579500000000014
  0
CIRCLE
  5
96
330
7B
100
AcDbEntity
  8
0
  6
Continuous
 62
   179
370
    18
100
AcDbCircle
 10
15.7233972286
 20
6.4054930194
 30
0.0
 40
2.281499999999994
  0
ARC
  5
97
330
7B
100
AcDbEntity
  8
0
  6
Continuous
 62
   179
370
    18
100
AcDbCircle
 10
89.7681336026
 20
2.3106616691
 30
0.0
 40
0.098384530246548
100
AcDbArc
 50
332.3802627259
 51
4.9765441602
  0
ARC
  5
98
330
7B
100
AcDbEntity
  8
0
  6
Continuous
 62
   179
370
    18
100
AcDbCircle
 10
89.6886560089
 20
2.3522464185
 30
0.0
 40
0.1880839130754018
100
AcDbArc
 50
303.690067526
 51
332.3802627258
  0
ARC
  5
99
330
7B
100
AcDbEntity
  8
0
  6
Continuous
 62
   179
370
    18
100
AcDbCircle
 10
89.4849700869
 20
2.6577753016
 30
0.0
 40
0.5552839311631531
100
AcDbArc
 50
287.108652213
 51
303.690067526
  0
ARC
  5
9A
330
7B
100
AcDbEntity
  8
0
  6
Continuous
 62
   179
370
    18
100
AcDbCircle
 10
88.0513010646
 20
7.3154864882
 30
0.0
 40
5.428648309393203
100
AcDbArc
 50
285.2551187031
 51
287.108652213
  0
ARC
  5
9B
330
7B
100
AcDbEntity
  8
0
  6
Continuous
 62
   179
370
    18
100
AcDbCircle
 10
89.1317168954
 20
3.3539617753
 30
0.0
 40
1.322436378825653
100
AcDbArc
 50
281.4991866428
 51
285.255118703
  0
ARC
  5
9C
330
7B
100
AcDbEntity
  8
0
  6
Continuous
 62
   179
370
    18
100
AcDbCircle
 10
89.3198255509
 20
2.4293110075
 30
0.0
 40
0.3788454141584939
100
AcDbArc
 50
279.1917900003
 51
281.499186643
  0
ARC
  5
9D
330
7B
100
AcDbEntity
  8
0
  6
Continuous
 62
   179
370
    18
100
AcDbCircle
 10
89.0487250788
 20
4.1046569124
 30
0.0
 40
2.07598399629105
100
AcDbArc
 50
277.7634675038
 51
279.1917900002
  0
ARC
  5
9E
330
7B
100
AcDbEntity
  8
0
  6
Continuous
 62
   179
370
    18
100
AcDbCircle
 10
9.2588909915
 20
6.4054930194
 30
0.0
 40
1.579500000000074
100
AcDbArc
 50
31.0558004991
 51
330.0
  0
ARC
  5
9F
330
7B
100
AcDbEntity
  8
0
  6
Continuous
 62
   179
370
    18
100
AcDbCircle
 10
9.2588909915
 20
6.4054930194
 30
0.0
 40
2.281500000000107
100
AcDbArc
 50
30.7309172659
 51
330.0
  0
ARC
  5
A0
330
7B
100
AcDbEntity
  8
0
  6
Continuous
 62
   179
370
    18
100
AcDbCircle
 10
6.1288847544
 20
4.0685261312
 30
0.0
 40
4.914000000000307
100
AcDbArc
 50
172.3058370354
 51
179.7113029221
  0
ARC
  5
A1
330
7B
100
AcDbEntity
  8
0
  6
Continuous
 62
   179
370
    18
100
AcDbCircle
 10
-0.5401152456
 20
4.0685261312
 30
0.0
 40
4.91400000000019
100
AcDbArc
 50
0.2886970779
 51
7.6941629646
  0
ARC
  5
A2
330
7B
100
AcDbEntity
  8
0
  6
Continuous
 62
   179
370
    18
100
AcDbCircle
 10
-0.5401152456
 20
4.0685261312
 30
0.0
 40
5.616000000000127
100
AcDbArc
 50
0.2526096926
 51
53.5764263577
  0
ARC
  5
A3
330
7B
100
AcDbEntity
  8
0
  6
Continuous
 62
   179
370
    18
100
AcDbCircle
 10
6.1288847544
 20
4.0685261312
 30
0.0
 40
5.61600000000074
100
AcDbArc
 50
126.4235736423
 51
179.7473903073
  0
ARC
  5
A4
330
7B
100
AcDbEntity
  8
0
  6
Continuous
 62
   179
370
    18
100
AcDbCircle
 10
-0.5401152456
 20
4.0685261312
 30
0.0
 40
4.914000000000161
100
AcDbArc
 50
16.0658750272
 51
47.2678899574
  0
ARC
  5
A5
330
7B
100
AcDbEntity
  8
0
  6
Continuous
 62
   179
370
    18
100
AcDbCircle
 10
6.1288847544
 20
4.0685261312
 30
0.0
 40
4.914000000000584
100
AcDbArc
 50
132.7321100426
 51
163.9341249728
  0
LINE
  5
A6
330
7B
100
AcDbEntity
  8
0
  6
Continuous
 62
   179
370
    18
100
AcDbLine
 10
78.8017089389
 20
2.8885802402
 30
0.0
 11
90.7982178739
 21
3.8455002136
 31
0.0
  0
LINE
  5
A7
330
7B
100
AcDbEntity
  8
0
  6
Continuous
 62
   179
370
    18
100
AcDbLine
 10
76.6545490427
 20
5.8693097374
 30
0.0
 11
78.0344191726
 21
3.5235305166
 31
0.0
  0
LINE
  5
A8
330
7B
100
AcDbEntity
  8
0
  6
Continuous
 62
   179
370
    18
100
AcDbLine
 10
91.5327615373
 20
4.6257342197
 30
0.0
 11
90.9577457715
 21
13.4579763825
 31
0.0
  0
LINE
  5
A9
330
7B
100
AcDbEntity
  8
0
  6
Continuous
 62
   179
370
    18
100
AcDbLine
 10
78.6309362756
 20
12.8788539549
 30
0.0
 11
78.8360757629
 21
3.6475770268
 31
0.0
  0
LINE
  5
AA
330
7B
100
AcDbEntity
  8
0
  6
Continuous
 62
   179
370
    18
100
AcDbLine
 10
80.4094186633
 20
4.6950685544
 30
0.0
 11
90.1819221045
 21
5.4824266516
 31
0.0
  0
LINE
  5
AB
330
7B
100
AcDbEntity
  8
0
  6
Continuous
 62
   179
370
    18
100
AcDbLine
 10
79.1595373973
 20
3.3551666867
 30
0.0
 11
91.2569309872
 21
4.3071688694
 31
0.0
  0
LINE
  5
AC
330
7B
100
AcDbEntity
  8
0
  6
Continuous
 62
   179
370
    18
100
AcDbLine
 10
79.2585043218
 20
2.925017226
 30
0.0
 11
80.4858981444
 21
1.533240302
 31
0.0
  0
LINE
  5
AD
330
7B
100
AcDbEntity
  8
0
  6
Continuous
 62
   179
370
    18
100
AcDbLine
 10
78.0344191726
 20
3.5235305166
 30
0.0
 11
78.3638740472
 21
3.1446574108
 31
0.0
  0
LINE
  5
AE
330
7B
100
AcDbEntity
  8
0
  6
Continuous
 62
   179
370
    18
100
AcDbLine
 10
78.3638740472
 20
3.1446574108
 30
0.0
 11
78.4680611395
 21
3.0248422547
 31
0.0
  0
LINE
  5
AF
330
7B
100
AcDbEntity
  8
0
  6
Continuous
 62
   179
370
    18
100
AcDbLine
 10
81.3414110113
 20
1.2002475785
 30
0.0
 11
89.3291569519
 21
2.0477010263
 31
0.0
  0
LINE
  5
B0
330
7B
100
AcDbEntity
  8
0
  6
Continuous
 62
   179
370
    18
100
AcDbLine
 10
89.8661472522
 20
2.5197759309
 30
0.0
 11
89.8661472522
 21
2.3090867337
 31
0.0
  0
LINE
  5
B1
330
7B
100
AcDbEntity
  8
0
  6
Continuous
 62
   179
370
    18
100
AcDbLine
 10
88.676842368
 20
3.6762854359
 30
0.0
 11
89.6713239345
 21
2.7875997807
 31
0.0
  0
LINE
  5
B2
330
7B
100
AcDbEntity
  8
0
  6
Continuous
 62
   179
370
    18
100
AcDbLine
 10
89.6713239345
 20
2.7875997807
 30
0.0
 11
89.7459749087
 21
2.7242700694
 31
0.0
  0
LINE
  5
B3
330
7B
100
AcDbEntity
  8
0
  6
Continuous
 62
   179
370
    18
100
AcDbLine
 10
90.7982178739
 20
3.8455002136
 30
0.0
 11
91.3961615969
 21
4.3514525945
 31
0.0
  0
LINE
  5
B4
330
7B
100
AcDbEntity
  8
0
  6
Continuous
 62
   179
370
    18
100
AcDbLine
 10
90.6442498554
 20
13.7381534621
 30
0.0
 11
78.1502930503
 21
13.1490474438
 31
0.0
  0
LINE
  5
B5
330
7B
100
AcDbEntity
  8
0
  6
Continuous
 62
   179
370
    18
100
AcDbLine
 10
80.1347709981
 20
12.2388892068
 30
0.0
 11
89.8487925667
 21
12.7550932515
 31
0.0
  0
LINE
  5
B6
330
7B
100
AcDbEntity
  8
0
  6
Continuous
 62
   179
370
    18
100
AcDbLine
 10
76.4935641943
 20
11.7567556248
 30
0.0
 11
76.6545490427
 21
5.8693097374
 31
0.0
  0
LINE
  5
B7
330
7B
100
AcDbEntity
  8
0
  6
Continuous
 62
   179
370
    18
100
AcDbLine
 10
79.8508616208
 20
11.929182536
 30
0.0
 11
80.0854971721
 21
4.9839702153
 31
0.0
  0
LINE
  5
B8
330
7B
100
AcDbEntity
  8
0
  6
Continuous
 62
   179
370
    18
100
AcDbLine
 10
80.5293311574
 20
9.7310185051
 30
0.0
 11
80.6057415643
 21
7.4769115
 31
0.0
  0
LINE
  5
B9
330
7B
100
AcDbEntity
  8
0
  6
Continuous
 62
   179
370
    18
100
AcDbLine
 10
77.507650604
 20
12.7708420346
 30
0.0
 11
76.4935641943
 21
11.7567556248
 31
0.0
  0
LINE
  5
BA
330
7B
100
AcDbEntity
  8
0
  6
Continuous
 62
   179
370
    18
100
AcDbLine
 10
86.8848195129
 20
11.0661568594
 30
0.0
 11
88.6742167283
 21
11.1634880887
 31
0.0
  0
LINE
  5
BB
330
7B
100
AcDbEntity
  8
0
  6
Continuous
 62
   179
370
    18
100
AcDbLine
 10
87.0766213517
 20
6.9287171941
 30
0.0
 11
88.90708891
 21
7.0695223909
 31
0.0
  0
LINE
  5
BC
330
7B
100
AcDbEntity
  8
0
  6
Continuous
 62
   179
370
    18
100
AcDbLine
 10
87.6830038473
 20
7.6147347768
 30
0.0
 11
88.8536252418
 21
7.7047825764
 31
0.0
  0
LINE
  5
BD
330
7B
100
AcDbEntity
  8
0
  6
Continuous
 62
   179
370
    18
100
AcDbLine
 10
87.5509212094
 20
10.4639459651
 30
0.0
 11
88.7088412777
 21
10.5269290651
 31
0.0
  0
LINE
  5
BE
330
7B
100
AcDbEntity
  8
0
  6
Continuous
 62
   179
370
    18
100
AcDbLine
 10
87.0766218384
 20
6.9287066941
 30
0.0
 11
86.8848195129
 21
11.0661568594
 31
0.0
  0
LINE
  5
BF
330
7B
100
AcDbEntity
  8
0
  6
Continuous
 62
   179
370
    18
100
AcDbLine
 10
83.7004598825
 20
6.6667911093
 30
0.0
 11
84.5054929504
 21
10.9267193262
 31
0.0
  0
LINE
  5
C0
330
7B
100
AcDbEntity
  8
0
  6
Continuous
 62
   179
370
    18
100
AcDbLine
 10
85.3543248406
 20
10.9728900984
 30
0.0
 11
86.4940946704
 21
6.8816860929
 31
0.0
  0
LINE
  5
C1
330
7B
100
AcDbEntity
  8
0
  6
Continuous
 62
   179
370
    18
100
AcDbLine
 10
84.9728575427
 20
9.9667192298
 30
0.0
 11
85.4540299774
 21
8.2395506903
 31
0.0
  0
LINE
  5
C2
330
7B
100
AcDbEntity
  8
0
  6
Continuous
 62
   179
370
    18
100
AcDbLine
 10
84.6363094629
 20
8.1858350416
 30
0.0
 11
84.9728575427
 21
9.9667192298
 31
0.0
  0
LINE
  5
C3
330
7B
100
AcDbEntity
  8
0
  6
Continuous
 62
   179
370
    18
100
AcDbLine
 10
87.6830038473
 20
7.6147347768
 30
0.0
 11
87.5509212094
 21
10.4639459651
 31
0.0
  0
LINE
  5
C4
330
7B
100
AcDbEntity
  8
0
  6
Continuous
 62
   179
370
    18
100
AcDbLine
 10
84.6363094629
 20
8.1858350416
 30
0.0
 11
85.4540299774
 21
8.2395506903
 31
0.0
  0
LINE
  5
C5
330
7B
100
AcDbEntity
  8
0
  6
Continuous
 62
   179
370
    18
100
AcDbLine
 10
84.5140586807
 20
7.5389304886
 30
0.0
 11
85.6288154243
 21
7.6121582976
 31
0.0
  0
LINE
  5
C6
330
7B
100
AcDbEntity
  8
0
  6
Continuous
 62
   179
370
    18
100
AcDbLine
 10
84.3588137958
 20
6.717433718
 30
0.0
 11
84.5140586807
 21
7.5389304886
 31
0.0
  0
LINE
  5
C7
330
7B
100
AcDbEntity
  8
0
  6
Continuous
 62
   179
370
    18
100
AcDbLine
 10
81.6818640104
 20
6.5137358601
 30
0.0
 11
82.4802416972
 21
6.5751495283
 31
0.0
  0
LINE
  5
C8
330
7B
100
AcDbEntity
  8
0
  6
Continuous
 62
   179
370
    18
100
AcDbLine
 10
81.6329699923
 20
7.1493580946
 30
0.0
 11
82.4313476791
 21
7.2107717628
 31
0.0
  0
LINE
  5
C9
330
7B
100
AcDbEntity
  8
0
  6
Continuous
 62
   179
370
    18
100
AcDbLine
 10
83.7004598825
 20
6.6667911093
 30
0.0
 11
84.3588137958
 21
6.717433718
 31
0.0
  0
LINE
  5
CA
330
7B
100
AcDbEntity
  8
0
  6
Continuous
 62
   179
370
    18
100
AcDbLine
 10
82.7059483815
 20
9.3512024135
 30
0.0
 11
83.3423973297
 21
9.3930104243
 31
0.0
  0
LINE
  5
CB
330
7B
100
AcDbEntity
  8
0
  6
Continuous
 62
   179
370
    18
100
AcDbLine
 10
82.7491656358
 20
8.0762934118
 30
0.0
 11
83.385614584
 21
8.1181014226
 31
0.0
  0
LINE
  5
CC
330
7B
100
AcDbEntity
  8
0
  6
Continuous
 62
   179
370
    18
100
AcDbLine
 10
81.1664651987
 20
9.7526162692
 30
0.0
 11
81.2428756056
 21
7.4985092641
 31
0.0
  0
LINE
  5
CD
330
7B
100
AcDbEntity
  8
0
  6
Continuous
 62
   179
370
    18
100
AcDbLine
 10
82.6900353128
 20
9.8206379383
 30
0.0
 11
82.7052632884
 21
9.3714126602
 31
0.0
  0
LINE
  5
CE
330
7B
100
AcDbEntity
  8
0
  6
Continuous
 62
   179
370
    18
100
AcDbLine
 10
82.7491656358
 20
8.0762934118
 30
0.0
 11
82.7658371041
 21
7.5844850954
 31
0.0
  0
LINE
  5
CF
330
7B
100
AcDbEntity
  8
0
  6
Continuous
 62
   179
370
    18
100
AcDbLine
 10
83.3271693541
 20
9.8422357024
 30
0.0
 11
83.3423973297
 21
9.3930104243
 31
0.0
  0
LINE
  5
D0
330
7B
100
AcDbEntity
  8
0
  6
Continuous
 62
   179
370
    18
100
AcDbLine
 10
83.385614584
 20
8.1181014226
 30
0.0
 11
83.4029711454
 21
7.6060828595
 31
0.0
  0
LINE
  5
D1
330
7B
100
AcDbEntity
  8
0
  6
Continuous
 62
   179
370
    18
100
AcDbLine
 10
85.6288154243
 20
7.6121582976
 30
0.0
 11
85.8462022593
 21
6.8318482152
 31
0.0
  0
LINE
  5
D2
330
7B
100
AcDbEntity
  8
0
  6
Continuous
 62
   179
370
    18
100
AcDbLine
 10
85.8462022593
 20
6.8318482152
 30
0.0
 11
86.4940946704
 21
6.8816860929
 31
0.0
  0
LINE
  5
D3
330
7B
100
AcDbEntity
  8
0
  6
Continuous
 62
   179
370
    18
100
AcDbLine
 10
84.5054929504
 20
10.9267193262
 30
0.0
 11
85.3543248406
 21
10.9728900984
 31
0.0
  0
LINE
  5
D4
330
7B
100
AcDbEntity
  8
0
  6
Continuous
 62
   179
370
    18
100
AcDbLine
 10
81.4744440858
 20
10.7634213094
 30
0.0
 11
82.2734303883
 21
10.8068808154
 31
0.0
  0
LINE
  5
D5
330
7B
100
AcDbEntity
  8
0
  6
Continuous
 62
   179
370
    18
100
AcDbLine
 10
81.5090686352
 20
10.1268622858
 30
0.0
 11
82.3080549377
 21
10.1703217918
 31
0.0
  0
LINE
  5
D6
330
7B
100
AcDbEntity
  8
0
  6
Continuous
 62
   179
370
    18
100
AcDbLine
 10
90.4575406452
 20
5.7946206556
 30
0.0
 11
90.1644232213
 21
12.4686789239
 31
0.0
  0
LINE
  5
D7
330
7B
100
AcDbEntity
  8
0
  6
Continuous
 62
   179
370
    18
100
AcDbLine
 10
89.8247499755
 20
8.1125227115
 30
0.0
 11
89.7274569615
 21
10.2112720142
 31
0.0
  0
LINE
  5
D8
330
7B
100
AcDbEntity
  8
0
  6
Continuous
 62
   179
370
    18
100
AcDbLine
 10
89.1879338763
 20
8.0830014354
 30
0.0
 11
89.0906408622
 21
10.181750738
 31
0.0
  0
LINE
  5
D9
330
7B
100
AcDbEntity
  8
0
  6
Continuous
 62
   179
370
    18
100
AcDbLine
 10
89.7459749087
 20
2.7242700694
 30
0.0
 11
89.7974962577
 21
2.6659765769
 31
0.0
  0
LINE
  5
DA
330
7B
100
AcDbEntity
  8
0
  6
Continuous
 62
   179
370
    18
100
AcDbLine
 10
89.7974962577
 20
2.6659765769
 30
0.0
 11
89.8351851379
 21
2.60192886
 31
0.0
  0
LINE
  5
DB
330
7B
100
AcDbEntity
  8
0
  6
Continuous
 62
   179
370
    18
100
AcDbLine
 10
89.8351851379
 20
2.60192886
 30
0.0
 11
89.8661472522
 21
2.5197759309
 31
0.0
  0
LINE
  5
DC
330
7B
100
AcDbEntity
  8
0
  6
Continuous
 62
   179
370
    18
100
AcDbLine
 10
10.6119938288
 20
7.2203138351
 30
0.0
 11
11.2200151261
 21
7.5713550947
 31
0.0
  0
LINE
  5
DD
330
7B
100
AcDbEntity
  8
0
  6
Continuous
 62
   179
370
    18
100
AcDbLine
 10
11.2347279503
 20
5.2647430194
 30
0.0
 11
10.6267781168
 21
5.6157430194
 31
0.0
  0
LINE
  5
DE
330
7B
100
AcDbEntity
  8
0
  6
Continuous
 62
   179
370
    18
100
AcDbLine
 10
6.4645062371
 20
16.1712617198
 30
0.0
 11
6.4645062371
 21
2.9364593988
 31
0.0
  0
LINE
  5
DF
330
7B
100
AcDbEntity
  8
0
  6
Continuous
 62
   179
370
    18
100
AcDbLine
 10
6.4645062371
 20
2.9364593988
 30
0.0
 11
12.0532757459
 21
2.9364593988
 31
0.0
  0
LINE
  5
E0
330
7B
100
AcDbEntity
  8
0
  6
Continuous
 62
   179
370
    18
100
AcDbLine
 10
12.0532757459
 20
2.9364593988
 30
0.0
 11
12.0532757459
 21
16.1712617198
 31
0.0
  0
LINE
  5
E1
330
7B
100
AcDbEntity
  8
0
  6
Continuous
 62
   179
370
    18
100
AcDbLine
 10
12.0532757459
 20
16.1712617198
 30
0.0
 11
6.4645062371
 21
16.1712617198
 31
0.0
  0
LINE
  5
E2
330
7B
100
AcDbEntity
  8
0
  6
Continuous
 62
   179
370
    18
100
AcDbLine
 10
0.0
 20
16.1712617198
 30
0.0
 11
0.0
 21
2.9364593988
 31
0.0
  0
LINE
  5
E3
330
7B
100
AcDbEntity
  8
0
  6
Continuous
 62
   179
370
    18
100
AcDbLine
 10
0.0
 20
2.9364593988
 30
0.0
 11
5.5887695089
 21
2.9364593988
 31
0.0
  0
LINE
  5
E4
330
7B
100
AcDbEntity
  8
0
  6
Continuous
 62
   179
370
    18
100
AcDbLine
 10
5.5887695089
 20
2.9364593988
 30
0.0
 11
5.5887695089
 21
16.1712617198
 31
0.0
  0
LINE
  5
E5
330
7B
100
AcDbEntity
  8
0
  6
Continuous
 62
   179
370
    18
100
AcDbLine
 10
5.5887695089
 20
16.1712617198
 30
0.0
 11
0.0
 21
16.1712617198
 31
0.0
  0
LINE
  5
E6
330
7B
100
AcDbEntity
  8
0
  6
Continuous
 62
   179
370
    18
100
AcDbLine
 10
1.2591262606
 20
4.7264381407
 30
0.0
 11
4.3296432482
 21
4.7264381407
 31
0.0
  0
LINE
  5
E7
330
7B
100
AcDbEntity
  8
0
  6
Continuous
 62
   179
370
    18
100
AcDbLine
 10
4.3738223747
 20
4.0932862697
 30
0.0
 11
5.0758301722
 21
4.0932862697
 31
0.0
  0
LINE
  5
E8
330
7B
100
AcDbEntity
  8
0
  6
Continuous
 62
   179
370
    18
100
AcDbLine
 10
0.5129393366
 20
4.0932862697
 30
0.0
 11
1.2149471342
 21
4.0932862697
 31
0.0
  0
LINE
  5
E9
330
7B
100
AcDbEntity
  8
0
  6
Continuous
 62
   179
370
    18
100
AcDbLine
 10
4.1819643097
 20
5.4284381407
 30
0.0
 11
1.4068051992
 21
5.4284381407
 31
0.0
  0
LINE
  5
EA
330
7B
100
AcDbEntity
  8
0
  6
Continuous
 62
   179
370
    18
100
AcDbLine
 10
18.517781983
 20
16.1712617198
 30
0.0
 11
18.517781983
 21
2.9364593988
 31
0.0
  0
LINE
  5
EB
330
7B
100
AcDbEntity
  8
0
  6
Continuous
 62
   179
370
    18
100
AcDbLine
 10
18.517781983
 20
2.9364593988
 30
0.0
 11
12.9290124742
 21
2.9364593988
 31
0.0
  0
LINE
  5
EC
330
7B
100
AcDbEntity
  8
0
  6
Continuous
 62
   179
370
    18
100
AcDbLine
 10
12.9290124742
 20
2.9364593988
 30
0.0
 11
12.9290124742
 21
16.1712617198
 31
0.0
  0
LINE
  5
ED
330
7B
100
AcDbEntity
  8
0
  6
Continuous
 62
   179
370
    18
100
AcDbLine
 10
12.9290124742
 20
16.1712617198
 30
0.0
 11
18.517781983
 21
16.1712617198
 31
0.0
  0
INSERT
  5
F3
330
7B
100
AcDbEntity
  8
0
  6
Continuous
 62
     7
370
     0
100
AcDbBlockReference
  2
SW_NOTE_0
 10
1.8998941161
 20
-0.3226565443
 30
0.0
  0
INSERT
  5
F8
330
7B
100
AcDbEntity
  8
0
  6
Continuous
 62
     7
370
     0
100
AcDbBlockReference
  2
SW_NOTE_0_1
 10
29.1164837035
 20
12.7459167441
 30
0.0
  0
INSERT
  5
100
330
7B
100
AcDbEntity
  8
0
  6
Continuous
 62
     7
370
     0
100
AcDbBlockReference
  2
SW_NOTE_0_2
 10
28.8863479825
 20
8.6365742194
 30
0.0
  0
ENDBLK
  5
7D
330
7B
100
AcDbEntity
  8
0
100
AcDbBlockEnd
  0
BLOCK
  5
EF
330
EE
100
AcDbEntity
  8
0
100
AcDbBlockBegin
  2
SW_NOTE_0
 70
     0
 10
0.0
 20
0.0
 30
0.0
  3
SW_NOTE_0
  1

  0
MTEXT
  5
F2
330
EE
100
AcDbEntity
  8
0
  6
Continuous
 62
     0
370
     0
100
AcDbMText
 10
7.46875
 20
2.5781354795
 30
0.0
 40
2.0
 41
0.0
 71
     2
 72
     1
  1
www.aco.ch
  7
SLDTEXTSTYLE0
 73
     1
 44
1.0
  0
ENDBLK
  5
F0
330
EE
100
AcDbEntity
  8
0
100
AcDbBlockEnd
  0
BLOCK
  5
F5
330
F4
100
AcDbEntity
  8
0
100
AcDbBlockBegin
  2
SW_NOTE_0_1
 70
     0
 10
0.0
 20
0.0
 30
0.0
  3
SW_NOTE_0_1
  1

  0
MTEXT
  5
F7
330
F4
100
AcDbEntity
  8
0
  6
Continuous
 62
     0
370
     0
100
AcDbMText
 10
0.0
 20
3.8672032193
 30
0.0
 40
3.0
 41
0.0
 71
     1
 72
     1
  1
ACO AG
  7
SLDTEXTSTYLE0
 73
     1
 44
1.0
  0
ENDBLK
  5
F6
330
F4
100
AcDbEntity
  8
0
100
AcDbBlockEnd
  0
BLOCK
  5
FA
330
F9
100
AcDbEntity
  8
0
100
AcDbBlockBegin
  2
SW_NOTE_0_2
 70
     0
 10
0.0
 20
0.0
 30
0.0
  3
SW_NOTE_0_2
  1

  0
MTEXT
  5
FC
330
F9
100
AcDbEntity
  8
0
  6
Continuous
 62
     0
370
     0
100
AcDbMText
 10
0.0
 20
2.5781354795
 30
0.0
 40
2.0
 41
0.0
 71
     1
 72
     1
  1
Industrie Kleinzaun
  7
SLDTEXTSTYLE0
 73
     1
 44
1.0
  0
MTEXT
  5
FD
330
F9
100
AcDbEntity
  8
0
  6
Continuous
 62
     0
370
     0
100
AcDbMText
 10
0.0
 20
-0.4218645465
 30
0.0
 40
2.0
 41
0.0
 71
     1
 72
     1
  1
CH-8754 Netstal
  7
SLDTEXTSTYLE0
 73
     1
 44
1.0
  0
MTEXT
  5
FE
330
F9
100
AcDbEntity
  8
0
  6
Continuous
 62
     0
370
     0
100
AcDbMText
 10
0.0
 20
-3.4218645726
 30
0.0
 40
2.0
 41
0.0
 71
     1
 72
     1
  1
Tel. 055 / 645 53 00
  7
SLDTEXTSTYLE0
 73
     1
 44
1.0
  0
MTEXT
  5
FF
330
F9
100
AcDbEntity
  8
0
  6
Continuous
 62
     0
370
     0
100
AcDbMText
 10
0.0
 20
-6.4218645987
 30
0.0
 40
2.0
 41
0.0
 71
     1
 72
     1
  1
E-Mail: aco@aco.ch
  7
SLDTEXTSTYLE0
 73
     1
 44
1.0
  0
ENDBLK
  5
FB
330
F9
100
AcDbEntity
  8
0
100
AcDbBlockEnd
  0
BLOCK
  5
179
330
178
100
AcDbEntity
  8
0
100
AcDbBlockBegin
  2
SW_NOTE_0_3
 70
     0
 10
0.0
 20
0.0
 30
0.0
  3
SW_NOTE_0_3
  1

  0
MTEXT
  5
17B
330
178
100
AcDbEntity
  8
0
  6
Continuous
 62
     0
370
     0
100
AcDbMText
 10
0.0
 20
1.9336016097
 30
0.0
 40
1.5
 41
0.0
 71
     1
 72
     1
  1
Diese Zeichnung darf weder kopiert
  7
SLDTEXTSTYLE0
 73
     1
 44
1.0
  0
MTEXT
  5
17C
330
178
100
AcDbEntity
  8
0
  6
Continuous
 62
     0
370
     0
100
AcDbMText
 10
0.0
 20
-0.5663983345
 30
0.0
 40
1.5
 41
0.0
 71
     1
 72
     1
  1
noch dritten Personen, insbesondere
  7
SLDTEXTSTYLE0
 73
     1
 44
1.0
  0
MTEXT
  5
17D
330
178
100
AcDbEntity
  8
0
  6
Continuous
 62
     0
370
     0
100
AcDbMText
 10
0.0
 20
-3.0663982786
 30
0.0
 40
1.5
 41
0.0
 71
     1
 72
     1
  1
zum Zweck anderweitiger Benutzung
  7
SLDTEXTSTYLE0
 73
     1
 44
1.0
  0
MTEXT
  5
17E
330
178
100
AcDbEntity
  8
0
  6
Continuous
 62
     0
370
     0
100
AcDbMText
 10
0.0
 20
-5.5663982227
 30
0.0
 40
1.5
 41
0.0
 71
     1
 72
     1
  1
mitgeteilt werden und bleibt unser
  7
SLDTEXTSTYLE0
 73
     1
 44
1.0
  0
MTEXT
  5
17F
330
178
100
AcDbEntity
  8
0
  6
Continuous
 62
     0
370
     0
100
AcDbMText
 10
0.0
 20
-8.0663981668
 30
0.0
 40
1.5
 41
0.0
 71
     1
 72
     1
  1
Eigentum.
  7
SLDTEXTSTYLE0
 73
     1
 44
1.0
  0
ENDBLK
  5
17A
330
178
100
AcDbEntity
  8
0
100
AcDbBlockEnd
  0
BLOCK
  5
205
330
204
100
AcDbEntity
  8
0
100
AcDbBlockBegin
  2
SW_CENTERMARKSYMBOL_0
 70
     0
 10
0.0
 20
0.0
 30
0.0
  3
SW_CENTERMARKSYMBOL_0
  1

  0
LINE
  5
207
330
204
100
AcDbEntity
  8
0
  6
Continuous
 62
     0
370
    18
100
AcDbLine
 10
0.0
 20
0.0
 30
0.0
 11
0.0
 21
2.5
 31
0.0
  0
LINE
  5
208
330
204
100
AcDbEntity
  8
0
  6
Continuous
 62
     0
370
    18
100
AcDbLine
 10
0.0
 20
0.0
 30
0.0
 11
-2.5
 21
0.0
 31
0.0
  0
LINE
  5
209
330
204
100
AcDbEntity
  8
0
  6
Continuous
 62
     0
370
    18
100
AcDbLine
 10
0.0
 20
0.0
 30
0.0
 11
0.0
 21
-2.5
 31
0.0
  0
LINE
  5
20A
330
204
100
AcDbEntity
  8
0
  6
Continuous
 62
     0
370
    18
100
AcDbLine
 10
0.0
 20
0.0
 30
0.0
 11
2.5
 21
0.0
 31
0.0
  0
LINE
  5
20B
330
204
100
AcDbEntity
  8
0
  6
Continuous
 62
     0
370
    18
100
AcDbLine
 10
0.0
 20
5.0
 30
0.0
 11
0.0
 21
46.6524887412
 31
0.0
  0
LINE
  5
20C
330
204
100
AcDbEntity
  8
0
  6
Continuous
 62
     0
370
    18
100
AcDbLine
 10
-5.0
 20
0.0
 30
0.0
 11
-46.6524887412
 21
0.0
 31
0.0
  0
LINE
  5
20D
330
204
100
AcDbEntity
  8
0
  6
Continuous
 62
     0
370
    18
100
AcDbLine
 10
0.0
 20
-5.0
 30
0.0
 11
0.0
 21
-46.6524887412
 31
0.0
  0
LINE
  5
20E
330
204
100
AcDbEntity
  8
0
  6
Continuous
 62
     0
370
    18
100
AcDbLine
 10
5.0
 20
0.0
 30
0.0
 11
46.6524887412
 21
0.0
 31
0.0
  0
ENDBLK
  5
206
330
204
100
AcDbEntity
  8
0
100
AcDbBlockEnd
  0
BLOCK
  5
218
330
217
100
AcDbEntity
  8
0
100
AcDbBlockBegin
  2
SW_BROKEN_VIEW_0
 70
     0
 10
0.0
 20
0.0
 30
0.0
  3
SW_BROKEN_VIEW_0
  1

  0
ENDBLK
  5
219
330
217
100
AcDbEntity
  8
0
100
AcDbBlockEnd
  0
BLOCK
  5
32C
330
32B
100
AcDbEntity
  8
0
100
AcDbBlockBegin
  2
_D
 70
     0
 10
0.0
 20
0.0
 30
0.0
  3
_D
  1

  0
SOLID
  5
32E
330
32B
100
AcDbEntity
  8
0
  6
Continuous
 62
     7
370
    18
100
AcDbTrace
 10
108.3925921497
 20
766.2460021698
 30
0.0
 11
111.8925921497
 21
765.7075406314
 31
0.0
 12
111.8925921497
 22
766.7844637083
 32
0.0
 13
111.8925921497
 23
766.7844637083
 33
0.0
  0
SOLID
  5
32F
330
32B
100
AcDbEntity
  8
0
  6
Continuous
 62
     7
370
    18
100
AcDbTrace
 10
184.3925921497
 20
766.2460021698
 30
0.0
 11
180.8925921497
 21
766.7844637083
 31
0.0
 12
180.8925921497
 22
765.7075406314
 32
0.0
 13
180.8925921497
 23
765.7075406314
 33
0.0
  0
LINE
  5
330
330
32B
100
AcDbEntity
  8
0
  6
Continuous
 62
     7
370
     0
100
AcDbLine
 10
108.3925921497
 20
756.3460021698
 30
0.0
 11
108.3925921497
 21
767.2460021698
 31
0.0
  0
LINE
  5
331
330
32B
100
AcDbEntity
  8
0
  6
Continuous
 62
     7
370
     0
100
AcDbLine
 10
184.3925921497
 20
756.3460021698
 30
0.0
 11
184.3925921497
 21
767.2460021698
 31
0.0
  0
LINE
  5
332
330
32B
100
AcDbEntity
  8
0
  6
Continuous
 62
     7
370
     0
100
AcDbLine
 10
108.3925921497
 20
766.2460021698
 30
0.0
 11
184.3925921497
 21
766.2460021698
 31
0.0
  0
MTEXT
  5
333
330
32B
100
AcDbEntity
  8
0
  6
Continuous
 62
     7
370
    18
100
AcDbMText
 10
141.167505565
 20
770.757739259
 30
0.0
 40
3.5
 41
0.0
 71
     1
 72
     1
  1
%%c
  7
SLDTEXTSTYLE0
 73
     1
 44
1.0
  0
MTEXT
  5
334
330
32B
100
AcDbEntity
  8
0
  6
Continuous
 62
     7
370
    18
100
AcDbMText
 10
146.2704571103
 20
770.7674615682
 30
0.0
 40
3.5
 41
0.0
 71
     1
 72
     1
  1
76
  7
SLDTEXTSTYLE0
 73
     1
 44
1.0
  0
ENDBLK
  5
32D
330
32B
100
AcDbEntity
  8
0
100
AcDbBlockEnd
  0
BLOCK
  5
337
330
336
100
AcDbEntity
  8
0
100
AcDbBlockBegin
  2
_D_1
 70
     0
 10
0.0
 20
0.0
 30
0.0
  3
_D_1
  1

  0
SOLID
  5
339
330
336
100
AcDbEntity
  8
0
  6
Continuous
 62
     7
370
    18
100
AcDbTrace
 10
108.8925921497
 20
624.8371426672
 30
0.0
 11
112.3925921497
 21
624.2986811288
 31
0.0
 12
112.3925921497
 22
625.3756042057
 32
0.0
 13
112.3925921497
 23
625.3756042057
 33
0.0
  0
SOLID
  5
33A
330
336
100
AcDbEntity
  8
0
  6
Continuous
 62
     7
370
    18
100
AcDbTrace
 10
183.8925921497
 20
624.8371426672
 30
0.0
 11
180.3925921497
 21
625.3756042057
 31
0.0
 12
180.3925921497
 22
624.2986811288
 32
0.0
 13
180.3925921497
 23
624.2986811288
 33
0.0
  0
LINE
  5
33B
330
336
100
AcDbEntity
  8
0
  6
Continuous
 62
     7
370
     0
100
AcDbLine
 10
108.8925921497
 20
640.3228714131
 30
0.0
 11
108.8925921497
 21
623.8371426672
 31
0.0
  0
LINE
  5
33C
330
336
100
AcDbEntity
  8
0
  6
Continuous
 62
     7
370
     0
100
AcDbLine
 10
183.8925921497
 20
640.3228714131
 30
0.0
 11
183.8925921497
 21
623.8371426672
 31
0.0
  0
LINE
  5
33D
330
336
100
AcDbEntity
  8
0
  6
Continuous
 62
     7
370
     0
100
AcDbLine
 10
108.8925921497
 20
624.8371426672
 30
0.0
 11
183.8925921497
 21
624.8371426672
 31
0.0
  0
MTEXT
  5
33E
330
336
100
AcDbEntity
  8
0
  6
Continuous
 62
     7
370
    18
100
AcDbMText
 10
141.1675055651
 20
629.3488797564
 30
0.0
 40
3.5
 41
0.0
 71
     1
 72
     1
  1
%%c
  7
SLDTEXTSTYLE0
 73
     1
 44
1.0
  0
MTEXT
  5
33F
330
336
100
AcDbEntity
  8
0
  6
Continuous
 62
     7
370
    18
100
AcDbMText
 10
146.2704571103
 20
629.3586020656
 30
0.0
 40
3.5
 41
0.0
 71
     1
 72
     1
  1
75
  7
SLDTEXTSTYLE0
 73
     1
 44
1.0
  0
ENDBLK
  5
338
330
336
100
AcDbEntity
  8
0
100
AcDbBlockEnd
  0
BLOCK
  5
342
330
341
100
AcDbEntity
  8
0
100
AcDbBlockBegin
  2
_D_2
 70
     0
 10
0.0
 20
0.0
 30
0.0
  3
_D_2
  1

  0
SOLID
  5
344
330
341
100
AcDbEntity
  8
0
  6
Continuous
 62
     7
370
    18
100
AcDbTrace
 10
200.5501182215
 20
634.4819933656
 30
0.0
 11
201.0885797599
 21
637.9819933656
 31
0.0
 12
200.011656683
 22
637.9819933656
 32
0.0
 13
200.011656683
 23
637.9819933656
 33
0.0
  0
SOLID
  5
345
330
341
100
AcDbEntity
  8
0
  6
Continuous
 62
     7
370
    18
100
AcDbTrace
 10
200.5501182215
 20
756.2460021698
 30
0.0
 11
200.011656683
 21
752.7460021698
 31
0.0
 12
201.0885797599
 22
752.7460021698
 32
0.0
 13
201.0885797599
 23
752.7460021698
 33
0.0
  0
LINE
  5
346
330
341
100
AcDbEntity
  8
0
  6
Continuous
 62
     7
370
     0
100
AcDbLine
 10
182.5725921497
 20
634.4819933656
 30
0.0
 11
201.5501182215
 21
634.4819933656
 31
0.0
  0
LINE
  5
347
330
341
100
AcDbEntity
  8
0
  6
Continuous
 62
     7
370
     0
100
AcDbLine
 10
185.4925921497
 20
756.2460021698
 30
0.0
 11
201.5501182215
 21
756.2460021698
 31
0.0
  0
LINE
  5
348
330
341
100
AcDbEntity
  8
0
  6
Continuous
 62
     7
370
     0
100
AcDbLine
 10
200.5501182215
 20
634.4819933656
 30
0.0
 11
200.5501182215
 21
756.2460021698
 31
0.0
  0
MTEXT
  5
349
330
341
100
AcDbEntity
  8
0
  6
Continuous
 62
     7
370
    18
100
AcDbMText
 10
196.0383808994
 20
690.016775678
 30
0.0
 40
3.5
 41
0.0
 71
     1
 72
     1
  1
1050
  7
SLDTEXTSTYLE0
 11
6.123233995736766E-17
 21
1.0
 31
0.0
 73
     1
 44
1.0
  0
ENDBLK
  5
343
330
341
100
AcDbEntity
  8
0
100
AcDbBlockEnd
  0
BLOCK
  5
34C
330
34B
100
AcDbEntity
  8
0
100
AcDbBlockBegin
  2
_D_3
 70
     0
 10
0.0
 20
0.0
 30
0.0
  3
_D_3
  1

  0
SOLID
  5
34E
330
34B
100
AcDbEntity
  8
0
  6
Continuous
 62
     7
370
    18
100
AcDbTrace
 10
198.3692635921
 20
255.3134018388
 30
0.0
 11
197.8308020536
 21
251.8134018388
 31
0.0
 12
198.9077251306
 22
251.8134018388
 32
0.0
 13
198.9077251306
 23
251.8134018388
 33
0.0
  0
SOLID
  5
34F
330
34B
100
AcDbEntity
  8
0
  6
Continuous
 62
     7
370
    18
100
AcDbTrace
 10
198.3692635921
 20
135.4145936967
 30
0.0
 11
198.9077251306
 21
138.9145936967
 31
0.0
 12
197.8308020536
 22
138.9145936967
 32
0.0
 13
197.8308020536
 23
138.9145936967
 33
0.0
  0
LINE
  5
350
330
34B
100
AcDbEntity
  8
0
  6
Continuous
 62
     7
370
     0
100
AcDbLine
 10
185.4925921497
 20
255.3134018388
 30
0.0
 11
199.3692635921
 21
255.3134018388
 31
0.0
  0
LINE
  5
351
330
34B
100
AcDbEntity
  8
0
  6
Continuous
 62
     7
370
     0
100
AcDbLine
 10
182.5725921497
 20
135.4145936967
 30
0.0
 11
199.3692635921
 21
135.4145936967
 31
0.0
  0
LINE
  5
352
330
34B
100
AcDbEntity
  8
0
  6
Continuous
 62
     7
370
     0
100
AcDbLine
 10
198.3692635921
 20
255.3134018388
 30
0.0
 11
198.3692635921
 21
135.4145936967
 31
0.0
  0
MTEXT
  5
353
330
34B
100
AcDbEntity
  8
0
  6
Continuous
 62
     7
370
    18
100
AcDbMText
 10
193.8575262701
 20
190.016775678
 30
0.0
 40
3.5
 41
0.0
 71
     1
 72
     1
  1
2050
  7
SLDTEXTSTYLE0
 11
-7.044195017643634E-15
 21
1.0
 31
0.0
 73
     1
 44
1.0
  0
ENDBLK
  5
34D
330
34B
100
AcDbEntity
  8
0
100
AcDbBlockEnd
  0
BLOCK
  5
356
330
355
100
AcDbEntity
  8
0
100
AcDbBlockBegin
  2
_D_4
 70
     0
 10
0.0
 20
0.0
 30
0.0
  3
_D_4
  1

  0
SOLID
  5
358
330
355
100
AcDbEntity
  8
0
  6
Continuous
 62
     7
370
    18
100
AcDbTrace
 10
108.3925921497
 20
266.4036872072
 30
0.0
 11
111.8925921497
 21
265.8652256687
 31
0.0
 12
111.8925921497
 22
266.9421487456
 32
0.0
 13
111.8925921497
 23
266.9421487456
 33
0.0
  0
SOLID
  5
359
330
355
100
AcDbEntity
  8
0
  6
Continuous
 62
     7
370
    18
100
AcDbTrace
 10
184.3925921497
 20
266.4036872072
 30
0.0
 11
180.8925921497
 21
266.9421487456
 31
0.0
 12
180.8925921497
 22
265.8652256687
 32
0.0
 13
180.8925921497
 23
265.8652256687
 33
0.0
  0
LINE
  5
35A
330
355
100
AcDbEntity
  8
0
  6
Continuous
 62
     7
370
     0
100
AcDbLine
 10
108.3925921497
 20
255.4134018388
 30
0.0
 11
108.3925921497
 21
267.4036872072
 31
0.0
  0
LINE
  5
35B
330
355
100
AcDbEntity
  8
0
  6
Continuous
 62
     7
370
     0
100
AcDbLine
 10
184.3925921497
 20
255.4134018388
 30
0.0
 11
184.3925921497
 21
267.4036872072
 31
0.0
  0
LINE
  5
35C
330
355
100
AcDbEntity
  8
0
  6
Continuous
 62
     7
370
     0
100
AcDbLine
 10
108.3925921497
 20
266.4036872072
 30
0.0
 11
184.3925921497
 21
266.4036872072
 31
0.0
  0
MTEXT
  5
35D
330
355
100
AcDbEntity
  8
0
  6
Continuous
 62
     7
370
    18
100
AcDbMText
 10
141.167505565
 20
270.9154242964
 30
0.0
 40
3.5
 41
0.0
 71
     1
 72
     1
  1
%%c
  7
SLDTEXTSTYLE0
 73
     1
 44
1.0
  0
MTEXT
  5
35E
330
355
100
AcDbEntity
  8
0
  6
Continuous
 62
     7
370
    18
100
AcDbMText
 10
146.2704571103
 20
270.9251466055
 30
0.0
 40
3.5
 41
0.0
 71
     1
 72
     1
  1
76
  7
SLDTEXTSTYLE0
 73
     1
 44
1.0
  0
ENDBLK
  5
357
330
355
100
AcDbEntity
  8
0
100
AcDbBlockEnd
  0
BLOCK
  5
361
330
360
100
AcDbEntity
  8
0
100
AcDbBlockBegin
  2
_D_5
 70
     0
 10
0.0
 20
0.0
 30
0.0
  3
_D_5
  1

  0
SOLID
  5
363
330
360
100
AcDbEntity
  8
0
  6
Continuous
 62
     7
370
    18
100
AcDbTrace
 10
108.8925921497
 20
125.4145936967
 30
0.0
 11
112.3925921497
 21
124.8761321582
 31
0.0
 12
112.3925921497
 22
125.9530552351
 32
0.0
 13
112.3925921497
 23
125.9530552351
 33
0.0
  0
SOLID
  5
364
330
360
100
AcDbEntity
  8
0
  6
Continuous
 62
     7
370
    18
100
AcDbTrace
 10
183.8925921497
 20
125.4145936967
 30
0.0
 11
180.3925921497
 21
125.9530552351
 31
0.0
 12
180.3925921497
 22
124.8761321582
 32
0.0
 13
180.3925921497
 23
124.8761321582
 33
0.0
  0
LINE
  5
365
330
360
100
AcDbEntity
  8
0
  6
Continuous
 62
     7
370
     0
100
AcDbLine
 10
108.8925921497
 20
141.2554717441
 30
0.0
 11
108.8925921497
 21
124.4145936967
 31
0.0
  0
LINE
  5
366
330
360
100
AcDbEntity
  8
0
  6
Continuous
 62
     7
370
     0
100
AcDbLine
 10
183.8925921497
 20
141.2554717441
 30
0.0
 11
183.8925921497
 21
124.4145936967
 31
0.0
  0
LINE
  5
367
330
360
100
AcDbEntity
  8
0
  6
Continuous
 62
     7
370
     0
100
AcDbLine
 10
108.8925921497
 20
125.4145936967
 30
0.0
 11
183.8925921497
 21
125.4145936967
 31
0.0
  0
MTEXT
  5
368
330
360
100
AcDbEntity
  8
0
  6
Continuous
 62
     7
370
    18
100
AcDbMText
 10
141.167505565
 20
129.9263307859
 30
0.0
 40
3.5
 41
0.0
 71
     1
 72
     1
  1
%%c
  7
SLDTEXTSTYLE0
 73
     1
 44
1.0
  0
MTEXT
  5
369
330
360
100
AcDbEntity
  8
0
  6
Continuous
 62
     7
370
    18
100
AcDbMText
 10
146.2704571103
 20
129.9360530951
 30
0.0
 40
3.5
 41
0.0
 71
     1
 72
     1
  1
75
  7
SLDTEXTSTYLE0
 73
     1
 44
1.0
  0
ENDBLK
  5
362
330
360
100
AcDbEntity
  8
0
100
AcDbBlockEnd
  0
BLOCK
  5
370
330
36F
100
AcDbEntity
  8
0
100
AcDbBlockBegin
  2
SW_HATCH_0
 70
     0
 10
0.0
 20
0.0
 30
0.0
  3
SW_HATCH_0
  1

  0
LINE
  5
372
330
36F
100
AcDbEntity
  8
0
  6
Continuous
 62
     0
370
    18
100
AcDbLine
 10
0.0
 20
0.0
 30
0.0
 11
-0.1660883427
 21
-0.1660585403
 31
0.0
  0
LINE
  5
373
330
36F
100
AcDbEntity
  8
0
  6
Continuous
 62
     0
370
    18
100
AcDbLine
 10
0.8339136839
 20
-1.4110803604
 30
0.0
 11
-0.1660883427
 21
-2.4111270905
 31
0.0
  0
LINE
  5
374
330
36F
100
AcDbEntity
  8
0
  6
Continuous
 62
     0
370
    18
100
AcDbLine
 10
0.8339136839
 20
-3.6561489105
 30
0.0
 11
-0.0786110759
 21
-4.568696022
 31
0.0
  0
LINE
  5
375
330
36F
100
AcDbEntity
  8
0
  6
Continuous
 62
     0
370
    18
100
AcDbLine
 10
1.4457851648
 20
-5.2894353867
 30
0.0
 11
0.7386021316
 21
-5.9965848923
 31
0.0
  0
LINE
  5
376
330
36F
100
AcDbEntity
  8
0
  6
Continuous
 62
     0
370
    18
100
AcDbLine
 10
2.9791034758
 20
-6.0011148453
 30
0.0
 11
2.1862015128
 21
-6.7939758301
 31
0.0
  0
LINE
  5
377
330
36F
100
AcDbEntity
  8
0
  6
Continuous
 62
     0
370
    18
100
AcDbLine
 10
4.4592879713
 20
-6.765961647
 30
0.0
 11
3.7511400878
 21
-7.4741840363
 31
0.0
  0
LINE
  5
378
330
36F
100
AcDbEntity
  8
0
  6
Continuous
 62
     0
370
    18
100
AcDbLine
 10
5.317799747
 20
-8.1526041031
 30
0.0
 11
4.4339112937
 21
-9.0364217758
 31
0.0
  0
LINE
  5
379
330
36F
100
AcDbEntity
  8
0
  6
Continuous
 62
     0
370
    18
100
AcDbLine
 10
5.4339133203
 20
-10.2815628052
 30
0.0
 11
4.4339112937
 21
-11.2814903259
 31
0.0
  0
LINE
  5
37A
330
36F
100
AcDbEntity
  8
0
  6
Continuous
 62
     0
370
    18
100
AcDbLine
 10
5.4339133203
 20
-12.5266313553
 30
0.0
 11
4.4339112937
 21
-13.526558876
 31
0.0
  0
LINE
  5
37B
330
36F
100
AcDbEntity
  8
0
  6
Continuous
 62
     0
370
    18
100
AcDbLine
 10
5.4339133203
 20
-14.7716999054
 30
0.0
 11
4.4339112937
 21
-15.7716274261
 31
0.0
  0
LINE
  5
37C
330
36F
100
AcDbEntity
  8
0
  6
Continuous
 62
     0
370
    18
100
AcDbLine
 10
5.4339133203
 20
-17.0166492462
 30
0.0
 11
4.4339112937
 21
-18.0166959763
 31
0.0
  0
LINE
  5
37D
330
36F
100
AcDbEntity
  8
0
  6
Continuous
 62
     0
370
    18
100
AcDbLine
 10
0.8032657206
 20
-23.8924026489
 30
0.0
 11
0.2572089434
 21
-24.4385004044
 31
0.0
  0
LINE
  5
37E
330
36F
100
AcDbEntity
  8
0
  6
Continuous
 62
     0
370
    18
100
AcDbLine
 10
5.4339133203
 20
-19.2617177963
 30
0.0
 11
4.4339112937
 21
-20.2617645264
 31
0.0
  0
LINE
  5
37F
330
36F
100
AcDbEntity
  8
0
  6
Continuous
 62
     0
370
    18
100
AcDbLine
 10
0.6339140236
 20
-26.3068079948
 30
0.0
 11
-0.3660880029
 21
-27.3068547249
 31
0.0
  0
LINE
  5
380
330
36F
100
AcDbEntity
  8
0
  6
Continuous
 62
     0
370
    18
100
AcDbLine
 10
5.4001957178
 20
-21.5405225754
 30
0.0
 11
2.8285160661
 21
-24.1122245789
 31
0.0
  0
LINE
  5
381
330
36F
100
AcDbEntity
  8
0
  6
Continuous
 62
     0
370
    18
100
AcDbLine
 10
0.6339140236
 20
-28.551876545
 30
0.0
 11
-0.3660880029
 21
-29.551923275
 31
0.0
  0
LINE
  5
382
330
36F
100
AcDbEntity
  8
0
  6
Continuous
 62
     0
370
    18
100
AcDbLine
 10
0.6339140236
 20
-30.7969450951
 30
0.0
 11
-0.3660880029
 21
-31.7969322205
 31
0.0
  0
LINE
  5
383
330
36F
100
AcDbEntity
  8
0
  6
Continuous
 62
     0
370
    18
100
AcDbLine
 10
0.6339140236
 20
-33.0420136452
 30
0.0
 11
-0.3660880029
 21
-34.0420007706
 31
0.0
  0
LINE
  5
384
330
36F
100
AcDbEntity
  8
0
  6
Continuous
 62
     0
370
    18
100
AcDbLine
 10
0.6339140236
 20
-35.2870821953
 30
0.0
 11
-0.3660880029
 21
-36.2870693207
 31
0.0
  0
LINE
  5
385
330
36F
100
AcDbEntity
  8
0
  6
Continuous
 62
     0
370
    18
100
AcDbLine
 10
0.6339140236
 20
-37.5321507454
 30
0.0
 11
-0.3660880029
 21
-38.5321378708
 31
0.0
  0
LINE
  5
386
330
36F
100
AcDbEntity
  8
0
  6
Continuous
 62
     0
370
    18
100
AcDbLine
 10
0.6339140236
 20
-39.7772192955
 30
0.0
 11
-0.3660880029
 21
-40.7772064209
 31
0.0
  0
LINE
  5
387
330
36F
100
AcDbEntity
  8
0
  6
Continuous
 62
     0
370
    18
100
AcDbLine
 10
0.6339140236
 20
-42.0222878456
 30
0.0
 11
-0.3660880029
 21
-43.022274971
 31
0.0
  0
LINE
  5
388
330
36F
100
AcDbEntity
  8
0
  6
Continuous
 62
     0
370
    18
100
AcDbLine
 10
0.6339140236
 20
-44.2673563957
 30
0.0
 11
-0.3660880029
 21
-45.2673435211
 31
0.0
  0
LINE
  5
389
330
36F
100
AcDbEntity
  8
0
  6
Continuous
 62
     0
370
    18
100
AcDbLine
 10
0.6339140236
 20
-46.5124249458
 30
0.0
 11
-0.3660880029
 21
-47.5124120712
 31
0.0
  0
LINE
  5
38A
330
36F
100
AcDbEntity
  8
0
  6
Continuous
 62
     0
370
    18
100
AcDbLine
 10
0.6339140236
 20
-48.7574934959
 30
0.0
 11
-0.3660880029
 21
-49.7574806213
 31
0.0
  0
LINE
  5
38B
330
36F
100
AcDbEntity
  8
0
  6
Continuous
 62
     0
370
    18
100
AcDbLine
 10
0.6339140236
 20
-51.0025620461
 30
0.0
 11
-0.4770644009
 21
-52.11353302
 31
0.0
  0
LINE
  5
38C
330
36F
100
AcDbEntity
  8
0
  6
Continuous
 62
     0
370
    18
100
AcDbLine
 10
0.0404678285
 20
-53.8410544395
 30
0.0
 11
-1.4657080173
 21
-55.3472042084
 31
0.0
  0
LINE
  5
38D
330
36F
100
AcDbEntity
  8
0
  6
Continuous
 62
     0
370
    18
100
AcDbLine
 10
-0.6660856307
 20
-56.7926764488
 30
0.0
 11
-1.6660876572
 21
-57.7926635742
 31
0.0
  0
LINE
  5
38E
330
36F
100
AcDbEntity
  8
0
  6
Continuous
 62
     0
370
    18
100
AcDbLine
 10
-0.6660856307
 20
-59.0377449989
 30
0.0
 11
-1.6660876572
 21
-60.0377321243
 31
0.0
  0
LINE
  5
38F
330
36F
100
AcDbEntity
  8
0
  6
Continuous
 62
     0
370
    18
100
AcDbLine
 10
-0.6660856307
 20
-61.282813549
 30
0.0
 11
-1.6660876572
 21
-62.2828006744
 31
0.0
  0
LINE
  5
390
330
36F
100
AcDbEntity
  8
0
  6
Continuous
 62
     0
370
    18
100
AcDbLine
 10
-0.6660856307
 20
-63.5278820992
 30
0.0
 11
-1.6660876572
 21
-64.5278692245
 31
0.0
  0
LINE
  5
391
330
36F
100
AcDbEntity
  8
0
  6
Continuous
 62
     0
370
    18
100
AcDbLine
 10
-0.6660856307
 20
-65.7729506493
 30
0.0
 11
-1.6660876572
 21
-66.7729377747
 31
0.0
  0
LINE
  5
392
330
36F
100
AcDbEntity
  8
0
  6
Continuous
 62
     0
370
    18
100
AcDbLine
 10
-0.6660856307
 20
-68.0179595947
 30
0.0
 11
-1.6660876572
 21
-69.0180063248
 31
0.0
  0
LINE
  5
393
330
36F
100
AcDbEntity
  8
0
  6
Continuous
 62
     0
370
    18
100
AcDbLine
 10
-0.6660856307
 20
-70.2630281448
 30
0.0
 11
-1.6660876572
 21
-71.2630748749
 31
0.0
  0
LINE
  5
394
330
36F
100
AcDbEntity
  8
0
  6
Continuous
 62
     0
370
    18
100
AcDbLine
 10
-0.6660856307
 20
-72.5080966949
 30
0.0
 11
-1.6660876572
 21
-73.508143425
 31
0.0
  0
LINE
  5
395
330
36F
100
AcDbEntity
  8
0
  6
Continuous
 62
     0
370
    18
100
AcDbLine
 10
-0.6660856307
 20
-74.7531652451
 30
0.0
 11
-1.6660876572
 21
-75.7531523705
 31
0.0
  0
LINE
  5
396
330
36F
100
AcDbEntity
  8
0
  6
Continuous
 62
     0
370
    18
100
AcDbLine
 10
-0.6660856307
 20
-76.9982337952
 30
0.0
 11
-1.6660876572
 21
-77.9982209206
 31
0.0
  0
LINE
  5
397
330
36F
100
AcDbEntity
  8
0
  6
Continuous
 62
     0
370
    18
100
AcDbLine
 10
-0.6660856307
 20
-79.2433023453
 30
0.0
 11
-1.3974532485
 21
-79.9746513367
 31
0.0
  0
LINE
  5
398
330
36F
100
AcDbEntity
  8
0
  6
Continuous
 62
     0
370
    18
100
AcDbLine
 10
-76.3321742415
 20
0.0
 30
0.0
 11
-77.1660879254
 21
-0.8338689804
 31
0.0
  0
LINE
  5
399
330
36F
100
AcDbEntity
  8
0
  6
Continuous
 62
     0
370
    18
100
AcDbLine
 10
-76.1660858989
 20
-2.0790100098
 30
0.0
 11
-77.1660879254
 21
-3.0789375305
 31
0.0
  0
LINE
  5
39A
330
36F
100
AcDbEntity
  8
0
  6
Continuous
 62
     0
370
    18
100
AcDbLine
 10
-80.7653069496
 20
-8.92329216
 30
0.0
 11
-81.7660875618
 21
-9.9240541458
 31
0.0
  0
LINE
  5
39B
330
36F
100
AcDbEntity
  8
0
  6
Continuous
 62
     0
370
    18
100
AcDbLine
 10
-76.2114711106
 20
-4.3693780899
 30
0.0
 11
-78.693266958
 21
-6.8511962891
 31
0.0
  0
LINE
  5
39C
330
36F
100
AcDbEntity
  8
0
  6
Continuous
 62
     0
370
    18
100
AcDbLine
 10
-80.7660855353
 20
-11.1690759659
 30
0.0
 11
-81.7660875618
 21
-12.1691226959
 31
0.0
  0
LINE
  5
39D
330
36F
100
AcDbEntity
  8
0
  6
Continuous
 62
     0
370
    18
100
AcDbLine
 10
-80.7660855353
 20
-13.414144516
 30
0.0
 11
-81.7660875618
 21
-14.414191246
 31
0.0
  0
LINE
  5
39E
330
36F
100
AcDbEntity
  8
0
  6
Continuous
 62
     0
370
    18
100
AcDbLine
 10
-80.7660855353
 20
-15.6592130661
 30
0.0
 11
-81.7660875618
 21
-16.6592597961
 31
0.0
  0
LINE
  5
39F
330
36F
100
AcDbEntity
  8
0
  6
Continuous
 62
     0
370
    18
100
AcDbLine
 10
-80.7660855353
 20
-17.9042816162
 30
0.0
 11
-81.7660875618
 21
-18.9043283463
 31
0.0
  0
LINE
  5
3A0
330
36F
100
AcDbEntity
  8
0
  6
Continuous
 62
     0
370
    18
100
AcDbLine
 10
-80.7660855353
 20
-20.1493501663
 30
0.0
 11
-81.76555112
 21
-21.1488008499
 31
0.0
  0
LINE
  5
3A1
330
36F
100
AcDbEntity
  8
0
  6
Continuous
 62
     0
370
    18
100
AcDbLine
 10
-80.4854221642
 20
-22.1136808395
 30
0.0
 11
-81.2073461711
 21
-22.8356122971
 31
0.0
  0
LINE
  5
3A2
330
36F
100
AcDbEntity
  8
0
  6
Continuous
 62
     0
370
    18
100
AcDbLine
 10
-79.1836902499
 20
-23.057103157
 30
0.0
 11
-79.9675546587
 21
-23.8409042358
 31
0.0
  0
LINE
  5
3A3
330
36F
100
AcDbEntity
  8
0
  6
Continuous
 62
     0
370
    18
100
AcDbLine
 10
-77.5214284658
 20
-23.6399173737
 30
0.0
 11
-78.27417925
 21
-24.3926048279
 31
0.0
  0
LINE
  5
3A4
330
36F
100
AcDbEntity
  8
0
  6
Continuous
 62
     0
370
    18
100
AcDbLine
 10
-76.3818696141
 20
-24.7453451157
 30
0.0
 11
-77.1248042583
 21
-25.4883170128
 31
0.0
  0
LINE
  5
3A5
330
36F
100
AcDbEntity
  8
0
  6
Continuous
 62
     0
370
    18
100
AcDbLine
 10
-75.9660862386
 20
-26.5746712685
 30
0.0
 11
-76.9660882652
 21
-27.5746583939
 31
0.0
  0
LINE
  5
3A6
330
36F
100
AcDbEntity
  8
0
  6
Continuous
 62
     0
370
    18
100
AcDbLine
 10
-75.9660862386
 20
-28.8197398186
 30
0.0
 11
-76.9660882652
 21
-29.819726944
 31
0.0
  0
LINE
  5
3A7
330
36F
100
AcDbEntity
  8
0
  6
Continuous
 62
     0
370
    18
100
AcDbLine
 10
-75.9660862386
 20
-31.0648083687
 30
0.0
 11
-76.9660882652
 21
-32.0647954941
 31
0.0
  0
LINE
  5
3A8
330
36F
100
AcDbEntity
  8
0
  6
Continuous
 62
     0
370
    18
100
AcDbLine
 10
-75.9660862386
 20
-33.3098769188
 30
0.0
 11
-76.9660882652
 21
-34.3098640442
 31
0.0
  0
LINE
  5
3A9
330
36F
100
AcDbEntity
  8
0
  6
Continuous
 62
     0
370
    18
100
AcDbLine
 10
-75.9660862386
 20
-35.5548858643
 30
0.0
 11
-76.9660882652
 21
-36.5549325943
 31
0.0
  0
LINE
  5
3AA
330
36F
100
AcDbEntity
  8
0
  6
Continuous
 62
     0
370
    18
100
AcDbLine
 10
-75.9660862386
 20
-37.7999544144
 30
0.0
 11
-76.9660882652
 21
-38.8000011444
 31
0.0
  0
LINE
  5
3AB
330
36F
100
AcDbEntity
  8
0
  6
Continuous
 62
     0
370
    18
100
AcDbLine
 10
-75.9660862386
 20
-40.0450229645
 30
0.0
 11
-76.9660882652
 21
-41.0450696945
 31
0.0
  0
LINE
  5
3AC
330
36F
100
AcDbEntity
  8
0
  6
Continuous
 62
     0
370
    18
100
AcDbLine
 10
-75.9660862386
 20
-42.2900915146
 30
0.0
 11
-76.9660882652
 21
-43.29007864
 31
0.0
  0
LINE
  5
3AD
330
36F
100
AcDbEntity
  8
0
  6
Continuous
 62
     0
370
    18
100
AcDbLine
 10
-75.9660862386
 20
-44.5351600647
 30
0.0
 11
-76.9660882652
 21
-45.5351471901
 31
0.0
  0
LINE
  5
3AE
330
36F
100
AcDbEntity
  8
0
  6
Continuous
 62
     0
370
    18
100
AcDbLine
 10
-75.9660862386
 20
-46.7802286148
 30
0.0
 11
-76.9660882652
 21
-47.7802157402
 31
0.0
  0
LINE
  5
3AF
330
36F
100
AcDbEntity
  8
0
  6
Continuous
 62
     0
370
    18
100
AcDbLine
 10
-75.9660862386
 20
-49.0252971649
 30
0.0
 11
-76.9660882652
 21
-50.0252842903
 31
0.0
  0
LINE
  5
3B0
330
36F
100
AcDbEntity
  8
0
  6
Continuous
 62
     0
370
    18
100
AcDbLine
 10
-75.9660862386
 20
-51.270365715
 30
0.0
 11
-76.8762044609
 21
-52.1804690361
 31
0.0
  0
LINE
  5
3B1
330
36F
100
AcDbEntity
  8
0
  6
Continuous
 62
     0
370
    18
100
AcDbLine
 10
-75.5528435111
 20
-53.1021952629
 30
0.0
 11
-76.3536915183
 21
-53.9030432701
 31
0.0
  0
LINE
  5
3B2
330
36F
100
AcDbEntity
  8
0
  6
Continuous
 62
     0
370
    18
100
AcDbLine
 10
-75.0271715224
 20
-54.8215508461
 30
0.0
 11
-75.8280195296
 21
-55.6223988533
 31
0.0
  0
LINE
  5
3B3
330
36F
100
AcDbEntity
  8
0
  6
Continuous
 62
     0
370
    18
100
AcDbLine
 10
-74.6660865843
 20
-56.7055344582
 30
0.0
 11
-75.6660886109
 21
-57.7055811882
 31
0.0
  0
LINE
  5
3B4
330
36F
100
AcDbEntity
  8
0
  6
Continuous
 62
     0
370
    18
100
AcDbLine
 10
-74.6660865843
 20
-58.9506030083
 30
0.0
 11
-75.6660886109
 21
-59.9505901337
 31
0.0
  0
LINE
  5
3B5
330
36F
100
AcDbEntity
  8
0
  6
Continuous
 62
     0
370
    18
100
AcDbLine
 10
-74.6660865843
 20
-61.1956715584
 30
0.0
 11
-75.6660886109
 21
-62.1956586838
 31
0.0
  0
LINE
  5
3B6
330
36F
100
AcDbEntity
  8
0
  6
Continuous
 62
     0
370
    18
100
AcDbLine
 10
-74.6660865843
 20
-63.4407401085
 30
0.0
 11
-75.6660886109
 21
-64.4407272339
 31
0.0
  0
LINE
  5
3B7
330
36F
100
AcDbEntity
  8
0
  6
Continuous
 62
     0
370
    18
100
AcDbLine
 10
-74.6660865843
 20
-65.6858086586
 30
0.0
 11
-75.6660886109
 21
-66.685795784
 31
0.0
  0
LINE
  5
3B8
330
36F
100
AcDbEntity
  8
0
  6
Continuous
 62
     0
370
    18
100
AcDbLine
 10
-74.6660865843
 20
-67.9308772087
 30
0.0
 11
-75.6660886109
 21
-68.9308643341
 31
0.0
  0
LINE
  5
3B9
330
36F
100
AcDbEntity
  8
0
  6
Continuous
 62
     0
370
    18
100
AcDbLine
 10
-74.6660865843
 20
-70.1759457588
 30
0.0
 11
-75.6660886109
 21
-71.1759328842
 31
0.0
  0
LINE
  5
3BA
330
36F
100
AcDbEntity
  8
0
  6
Continuous
 62
     0
370
    18
100
AcDbLine
 10
-74.6660865843
 20
-72.4210143089
 30
0.0
 11
-75.6660886109
 21
-73.4210014343
 31
0.0
  0
LINE
  5
3BB
330
36F
100
AcDbEntity
  8
0
  6
Continuous
 62
     0
370
    18
100
AcDbLine
 10
-74.6660865843
 20
-74.666082859
 30
0.0
 11
-75.6660886109
 21
-75.6660699844
 31
0.0
  0
LINE
  5
3BC
330
36F
100
AcDbEntity
  8
0
  6
Continuous
 62
     0
370
    18
100
AcDbLine
 10
-74.6660865843
 20
-76.9111514091
 30
0.0
 11
-75.6660886109
 21
-77.9111385345
 31
0.0
  0
LINE
  5
3BD
330
36F
100
AcDbEntity
  8
0
  6
Continuous
 62
     0
370
    18
100
AcDbLine
 10
0.2806335688
 20
-7.5770616531
 30
0.0
 11
0.8419007063
 21
-7.0158243179
 31
0.0
  0
LINE
  5
3BE
330
36F
100
AcDbEntity
  8
0
  6
Continuous
 62
     0
370
    18
100
AcDbLine
 10
1.4031678438
 20
-7.5770616531
 30
0.0
 11
1.9644312561
 21
-7.0158243179
 31
0.0
  0
LINE
  5
3BF
330
36F
100
AcDbEntity
  8
0
  6
Continuous
 62
     0
370
    18
100
AcDbLine
 10
-0.2806298435
 20
-9.260892868
 30
0.0
 11
0.2806335688
 21
-8.6996555328
 31
0.0
  0
LINE
  5
3C0
330
36F
100
AcDbEntity
  8
0
  6
Continuous
 62
     0
370
    18
100
AcDbLine
 10
2.5256983936
 20
-7.5770616531
 30
0.0
 11
3.0706338584
 21
-7.0321559906
 31
0.0
  0
LINE
  5
3C1
330
36F
100
AcDbEntity
  8
0
  6
Continuous
 62
     0
370
    18
100
AcDbLine
 10
0.8419007063
 20
-9.260892868
 30
0.0
 11
1.4031678438
 21
-8.6996555328
 31
0.0
  0
LINE
  5
3C2
330
36F
100
AcDbEntity
  8
0
  6
Continuous
 62
     0
370
    18
100
AcDbLine
 10
-0.841896981
 20
-10.9446048737
 30
0.0
 11
-0.2806298435
 21
-10.3833675385
 31
0.0
  0
LINE
  5
3C3
330
36F
100
AcDbEntity
  8
0
  6
Continuous
 62
     0
370
    18
100
AcDbLine
 10
3.6482289433
 20
-7.5770616531
 30
0.0
 11
3.7822909653
 21
-7.4429512024
 31
0.0
  0
LINE
  5
3C4
330
36F
100
AcDbEntity
  8
0
  6
Continuous
 62
     0
370
    18
100
AcDbLine
 10
1.9644312561
 20
-9.260892868
 30
0.0
 11
2.5256983936
 21
-8.6996555328
 31
0.0
  0
LINE
  5
3C5
330
36F
100
AcDbEntity
  8
0
  6
Continuous
 62
     0
370
    18
100
AcDbLine
 10
0.2806335688
 20
-10.9446048737
 30
0.0
 11
0.8419007063
 21
-10.3833675385
 31
0.0
  0
LINE
  5
3C6
330
36F
100
AcDbEntity
  8
0
  6
Continuous
 62
     0
370
    18
100
AcDbLine
 10
3.0869655311
 20
-9.260892868
 30
0.0
 11
3.6482289433
 21
-8.6996555328
 31
0.0
  0
LINE
  5
3C7
330
36F
100
AcDbEntity
  8
0
  6
Continuous
 62
     0
370
    18
100
AcDbLine
 10
1.4031678438
 20
-10.9446048737
 30
0.0
 11
1.9644312561
 21
-10.3833675385
 31
0.0
  0
LINE
  5
3C8
330
36F
100
AcDbEntity
  8
0
  6
Continuous
 62
     0
370
    18
100
AcDbLine
 10
-0.1527741551
 20
-12.5006437302
 30
0.0
 11
0.2806335688
 21
-12.0671987534
 31
0.0
  0
LINE
  5
3C9
330
36F
100
AcDbEntity
  8
0
  6
Continuous
 62
     0
370
    18
100
AcDbLine
 10
2.5256983936
 20
-10.9446048737
 30
0.0
 11
3.0869655311
 21
-10.3833675385
 31
0.0
  0
LINE
  5
3CA
330
36F
100
AcDbEntity
  8
0
  6
Continuous
 62
     0
370
    18
100
AcDbLine
 10
0.8419007063
 20
-12.6284360886
 30
0.0
 11
1.4031678438
 21
-12.0671987534
 31
0.0
  0
LINE
  5
3CB
330
36F
100
AcDbEntity
  8
0
  6
Continuous
 62
     0
370
    18
100
AcDbLine
 10
-1.4031641185
 20
-15.9960985184
 30
0.0
 11
-1.3406313956
 21
-15.9335136414
 31
0.0
  0
LINE
  5
3CC
330
36F
100
AcDbEntity
  8
0
  6
Continuous
 62
     0
370
    18
100
AcDbLine
 10
3.6482289433
 20
-10.9446048737
 30
0.0
 11
4.1932612658
 21
-10.3995800018
 31
0.0
  0
LINE
  5
3CD
330
36F
100
AcDbEntity
  8
0
  6
Continuous
 62
     0
370
    18
100
AcDbLine
 10
1.9644312561
 20
-12.6284360886
 30
0.0
 11
2.5256983936
 21
-12.0671987534
 31
0.0
  0
LINE
  5
3CE
330
36F
100
AcDbEntity
  8
0
  6
Continuous
 62
     0
370
    18
100
AcDbLine
 10
0.2806335688
 20
-14.3122673035
 30
0.0
 11
0.8419007063
 21
-13.7510299683
 31
0.0
  0
LINE
  5
3CF
330
36F
100
AcDbEntity
  8
0
  6
Continuous
 62
     0
370
    18
100
AcDbLine
 10
-1.9644312561
 20
-17.679810524
 30
0.0
 11
-1.8552541733
 21
-17.570734024
 31
0.0
  0
LINE
  5
3D0
330
36F
100
AcDbEntity
  8
0
  6
Continuous
 62
     0
370
    18
100
AcDbLine
 10
3.0869655311
 20
-12.6284360886
 30
0.0
 11
3.6482289433
 21
-12.0671987534
 31
0.0
  0
LINE
  5
3D1
330
36F
100
AcDbEntity
  8
0
  6
Continuous
 62
     0
370
    18
100
AcDbLine
 10
1.4031678438
 20
-14.3122673035
 30
0.0
 11
1.9644312561
 21
-13.7510299683
 31
0.0
  0
LINE
  5
3D2
330
36F
100
AcDbEntity
  8
0
  6
Continuous
 62
     0
370
    18
100
AcDbLine
 10
-0.2806298435
 20
-15.9960985184
 30
0.0
 11
0.2806335688
 21
-15.4347419739
 31
0.0
  0
LINE
  5
3D3
330
36F
100
AcDbEntity
  8
0
  6
Continuous
 62
     0
370
    18
100
AcDbLine
 10
2.5256983936
 20
-14.3122673035
 30
0.0
 11
3.0869655311
 21
-13.7510299683
 31
0.0
  0
LINE
  5
3D4
330
36F
100
AcDbEntity
  8
0
  6
Continuous
 62
     0
370
    18
100
AcDbLine
 10
0.8419007063
 20
-15.9960985184
 30
0.0
 11
1.4031678438
 21
-15.4347419739
 31
0.0
  0
LINE
  5
3D5
330
36F
100
AcDbEntity
  8
0
  6
Continuous
 62
     0
370
    18
100
AcDbLine
 10
-0.841896981
 20
-17.679810524
 30
0.0
 11
-0.2806298435
 21
-17.1185731888
 31
0.0
  0
LINE
  5
3D6
330
36F
100
AcDbEntity
  8
0
  6
Continuous
 62
     0
370
    18
100
AcDbLine
 10
-2.2149309516
 20
-19.052863121
 30
0.0
 11
-1.9644312561
 21
-18.8024044037
 31
0.0
  0
LINE
  5
3D7
330
36F
100
AcDbEntity
  8
0
  6
Continuous
 62
     0
370
    18
100
AcDbLine
 10
3.6482289433
 20
-14.3122673035
 30
0.0
 11
4.2094960809
 21
-13.7510299683
 31
0.0
  0
LINE
  5
3D8
330
36F
100
AcDbEntity
  8
0
  6
Continuous
 62
     0
370
    18
100
AcDbLine
 10
1.9644312561
 20
-15.9960985184
 30
0.0
 11
2.5256983936
 21
-15.4347419739
 31
0.0
  0
LINE
  5
3D9
330
36F
100
AcDbEntity
  8
0
  6
Continuous
 62
     0
370
    18
100
AcDbLine
 10
0.2806335688
 20
-17.679810524
 30
0.0
 11
0.8419007063
 21
-17.1185731888
 31
0.0
  0
LINE
  5
3DA
330
36F
100
AcDbEntity
  8
0
  6
Continuous
 62
     0
370
    18
100
AcDbLine
 10
-1.2984760106
 20
-19.2589759827
 30
0.0
 11
-0.841896981
 21
-18.8024044037
 31
0.0
  0
LINE
  5
3DB
330
36F
100
AcDbEntity
  8
0
  6
Continuous
 62
     0
370
    18
100
AcDbLine
 10
3.0869655311
 20
-15.9960985184
 30
0.0
 11
3.6482289433
 21
-15.4347419739
 31
0.0
  0
LINE
  5
3DC
330
36F
100
AcDbEntity
  8
0
  6
Continuous
 62
     0
370
    18
100
AcDbLine
 10
1.4031678438
 20
-17.679810524
 30
0.0
 11
1.9644312561
 21
-17.1185731888
 31
0.0
  0
LINE
  5
3DD
330
36F
100
AcDbEntity
  8
0
  6
Continuous
 62
     0
370
    18
100
AcDbLine
 10
-0.2396516502
 20
-19.3226337433
 30
0.0
 11
0.2806335688
 21
-18.8024044037
 31
0.0
  0
LINE
  5
3DE
330
36F
100
AcDbEntity
  8
0
  6
Continuous
 62
     0
370
    18
100
AcDbLine
 10
2.5256983936
 20
-17.679810524
 30
0.0
 11
3.0869655311
 21
-17.1185731888
 31
0.0
  0
LINE
  5
3DF
330
36F
100
AcDbEntity
  8
0
  6
Continuous
 62
     0
370
    18
100
AcDbLine
 10
3.6482289433
 20
-17.679810524
 30
0.0
 11
4.2094960809
 21
-17.1185731888
 31
0.0
  0
LINE
  5
3E0
330
36F
100
AcDbEntity
  8
0
  6
Continuous
 62
     0
370
    18
100
AcDbLine
 10
3.0869655311
 20
-19.3636417389
 30
0.0
 11
3.6482289433
 21
-18.8024044037
 31
0.0
  0
LINE
  5
3E1
330
36F
100
AcDbEntity
  8
0
  6
Continuous
 62
     0
370
    18
100
AcDbLine
 10
4.2094960809
 20
-19.3636417389
 30
0.0
 11
4.3748281896
 21
-19.1982984543
 31
0.0
  0
LINE
  5
3E2
330
36F
100
AcDbEntity
  8
0
  6
Continuous
 62
     0
370
    18
100
AcDbLine
 10
2.5256983936
 20
-21.0474729538
 30
0.0
 11
3.0869655311
 21
-20.4862356186
 31
0.0
  0
LINE
  5
3E3
330
36F
100
AcDbEntity
  8
0
  6
Continuous
 62
     0
370
    18
100
AcDbLine
 10
3.6482289433
 20
-21.0474729538
 30
0.0
 11
4.1916593909
 21
-20.5039978027
 31
0.0
  0
LINE
  5
3E4
330
36F
100
AcDbEntity
  8
0
  6
Continuous
 62
     0
370
    18
100
AcDbLine
 10
2.1528676152
 20
-22.5428342819
 30
0.0
 11
2.5256983936
 21
-22.1699476242
 31
0.0
  0
LINE
  5
3E5
330
36F
100
AcDbEntity
  8
0
  6
Continuous
 62
     0
370
    18
100
AcDbLine
 10
3.0869655311
 20
-22.7313041687
 30
0.0
 11
3.6482289433
 21
-22.1699476242
 31
0.0
  0
LINE
  5
3E6
330
36F
100
AcDbEntity
  8
0
  6
Continuous
 62
     0
370
    18
100
AcDbLine
 10
-3.0687302351
 20
-18.2594060898
 30
0.0
 11
-2.4159476161
 21
-18.9120769501
 31
0.0
  0
LINE
  5
3E7
330
36F
100
AcDbEntity
  8
0
  6
Continuous
 62
     0
370
    18
100
AcDbLine
 10
2.1588988602
 20
-22.3644971848
 30
0.0
 11
2.9878243804
 21
-23.193359375
 31
0.0
  0
LINE
  5
3E8
330
36F
100
AcDbEntity
  8
0
  6
Continuous
 62
     0
370
    18
100
AcDbLine
 10
-2.3928135633
 20
-17.8127288818
 30
0.0
 11
-0.9240582585
 21
-19.2815065384
 31
0.0
  0
LINE
  5
3E9
330
36F
100
AcDbEntity
  8
0
  6
Continuous
 62
     0
370
    18
100
AcDbLine
 10
2.1956115961
 20
-21.2786197662
 30
0.0
 11
3.7439092994
 21
-22.8269100189
 31
0.0
  0
LINE
  5
3EA
330
36F
100
AcDbEntity
  8
0
  6
Continuous
 62
     0
370
    18
100
AcDbLine
 10
-1.618809998
 20
-17.4641609192
 30
0.0
 11
0.270344317
 21
-19.35338974
 31
0.0
  0
LINE
  5
3EB
330
36F
100
AcDbEntity
  8
0
  6
Continuous
 62
     0
370
    18
100
AcDbLine
 10
2.0454451442
 20
-20.005941391
 30
0.0
 11
4.4339112937
 21
-22.3944187164
 31
0.0
  0
LINE
  5
3EC
330
36F
100
AcDbEntity
  8
0
  6
Continuous
 62
     0
370
    18
100
AcDbLine
 10
-1.4510042965
 20
-16.5095329285
 30
0.0
 11
1.0264627635
 21
-18.9869403839
 31
0.0
  0
LINE
  5
3ED
330
36F
100
AcDbEntity
  8
0
  6
Continuous
 62
     0
370
    18
100
AcDbLine
 10
2.4067461491
 20
-19.2446708679
 30
0.0
 11
4.1887797415
 21
-21.0267305374
 31
0.0
  0
LINE
  5
3EE
330
36F
100
AcDbEntity
  8
0
  6
Continuous
 62
     0
370
    18
100
AcDbLine
 10
-0.7935166359
 20
-16.0443782806
 30
0.0
 11
1.2201033533
 21
-18.0580615997
 31
0.0
  0
LINE
  5
3EF
330
36F
100
AcDbEntity
  8
0
  6
Continuous
 62
     0
370
    18
100
AcDbLine
 10
2.6304870844
 20
-18.345952034
 30
0.0
 11
4.2866058648
 21
-20.0020074844
 31
0.0
  0
LINE
  5
3F0
330
36F
100
AcDbEntity
  8
0
  6
Continuous
 62
     0
370
    18
100
AcDbLine
 10
-0.4455372691
 20
-15.2698755264
 30
0.0
 11
2.0453371108
 21
-17.7607536316
 31
0.0
  0
LINE
  5
3F1
330
36F
100
AcDbEntity
  8
0
  6
Continuous
 62
     0
370
    18
100
AcDbLine
 10
-0.188510865
 20
-14.4044160843
 30
0.0
 11
4.1932612658
 21
-18.7861919403
 31
0.0
  0
LINE
  5
3F2
330
36F
100
AcDbEntity
  8
0
  6
Continuous
 62
     0
370
    18
100
AcDbLine
 10
-0.1527741551
 20
-13.3175849915
 30
0.0
 11
4.1971430182
 21
-17.6675319672
 31
0.0
  0
LINE
  5
3F3
330
36F
100
AcDbEntity
  8
0
  6
Continuous
 62
     0
370
    18
100
AcDbLine
 10
4.3170489371
 20
-16.6648626328
 30
0.0
 11
4.4339112937
 21
-16.7816877365
 31
0.0
  0
LINE
  5
3F4
330
36F
100
AcDbEntity
  8
0
  6
Continuous
 62
     0
370
    18
100
AcDbLine
 10
-0.1527741551
 20
-12.195110321
 30
0.0
 11
4.2438097298
 21
-16.591668129
 31
0.0
  0
LINE
  5
3F5
330
36F
100
AcDbEntity
  8
0
  6
Continuous
 62
     0
370
    18
100
AcDbLine
 10
-1.4090836048
 20
-10.9387636185
 30
0.0
 11
-0.804707408
 21
-11.5431547165
 31
0.0
  0
LINE
  5
3F6
330
36F
100
AcDbEntity
  8
0
  6
Continuous
 62
     0
370
    18
100
AcDbLine
 10
-0.9425915778
 20
-10.2827548981
 30
0.0
 11
4.1932612658
 21
-15.4185295105
 31
0.0
  0
LINE
  5
3F7
330
36F
100
AcDbEntity
  8
0
  6
Continuous
 62
     0
370
    18
100
AcDbLine
 10
-0.552918762
 20
-9.5498561859
 30
0.0
 11
4.4339112937
 21
-14.5366191864
 31
0.0
  0
LINE
  5
3F8
330
36F
100
AcDbEntity
  8
0
  6
Continuous
 62
     0
370
    18
100
AcDbLine
 10
-0.1632496715
 20
-8.8169574738
 30
0.0
 11
4.1932612658
 21
-13.1734609604
 31
0.0
  0
LINE
  5
3F9
330
36F
100
AcDbEntity
  8
0
  6
Continuous
 62
     0
370
    18
100
AcDbLine
 10
0.1947619021
 20
-8.0524682999
 30
0.0
 11
4.1932612658
 21
-12.05098629
 31
0.0
  0
LINE
  5
3FA
330
36F
100
AcDbEntity
  8
0
  6
Continuous
 62
     0
370
    18
100
AcDbLine
 10
0.2940744162
 20
-7.0292949677
 30
0.0
 11
4.4339112937
 21
-11.1690759659
 31
0.0
  0
LINE
  5
3FB
330
36F
100
AcDbEntity
  8
0
  6
Continuous
 62
     0
370
    18
100
AcDbLine
 10
1.2066885829
 20
-6.8193674088
 30
0.0
 11
4.1932612658
 21
-9.8059177399
 31
0.0
  0
LINE
  5
3FC
330
36F
100
AcDbEntity
  8
0
  6
Continuous
 62
     0
370
    18
100
AcDbLine
 10
2.3273490369
 20
-6.8174600601
 30
0.0
 11
4.2109973729
 21
-8.7010860443
 31
0.0
  0
LINE
  5
3FD
330
36F
100
AcDbEntity
  8
0
  6
Continuous
 62
     0
370
    18
100
AcDbLine
 10
-79.4191397727
 20
-7.5770616531
 30
0.0
 11
-78.8578726351
 21
-7.0158243179
 31
0.0
  0
LINE
  5
3FE
330
36F
100
AcDbEntity
  8
0
  6
Continuous
 62
     0
370
    18
100
AcDbLine
 10
-80.5431716144
 20
-8.7010860443
 30
0.0
 11
-80.5416703224
 21
-8.6996555328
 31
0.0
  0
LINE
  5
3FF
330
36F
100
AcDbEntity
  8
0
  6
Continuous
 62
     0
370
    18
100
AcDbLine
 10
-78.2966054976
 20
-7.5770616531
 30
0.0
 11
-77.7353420854
 21
-7.0158243179
 31
0.0
  0
LINE
  5
400
330
36F
100
AcDbEntity
  8
0
  6
Continuous
 62
     0
370
    18
100
AcDbLine
 10
-79.9804031849
 20
-9.260892868
 30
0.0
 11
-79.4191397727
 21
-8.6996555328
 31
0.0
  0
LINE
  5
401
330
36F
100
AcDbEntity
  8
0
  6
Continuous
 62
     0
370
    18
100
AcDbLine
 10
-77.1740749478
 20
-7.5770616531
 30
0.0
 11
-76.6262486577
 21
-7.0292949677
 31
0.0
  0
LINE
  5
402
330
36F
100
AcDbEntity
  8
0
  6
Continuous
 62
     0
370
    18
100
AcDbLine
 10
-78.8578726351
 20
-9.260892868
 30
0.0
 11
-78.2966054976
 21
-8.6996555328
 31
0.0
  0
LINE
  5
403
330
36F
100
AcDbEntity
  8
0
  6
Continuous
 62
     0
370
    18
100
AcDbLine
 10
-80.5416703224
 20
-10.9446048737
 30
0.0
 11
-79.9804031849
 21
-10.3833675385
 31
0.0
  0
LINE
  5
404
330
36F
100
AcDbEntity
  8
0
  6
Continuous
 62
     0
370
    18
100
AcDbLine
 10
-77.7353420854
 20
-9.260892868
 30
0.0
 11
-77.1740749478
 21
-8.6996555328
 31
0.0
  0
LINE
  5
405
330
36F
100
AcDbEntity
  8
0
  6
Continuous
 62
     0
370
    18
100
AcDbLine
 10
-79.4191397727
 20
-10.9446048737
 30
0.0
 11
-78.8578726351
 21
-10.3833675385
 31
0.0
  0
LINE
  5
406
330
36F
100
AcDbEntity
  8
0
  6
Continuous
 62
     0
370
    18
100
AcDbLine
 10
-76.6128078103
 20
-9.260892868
 30
0.0
 11
-76.1689245701
 21
-8.8169574738
 31
0.0
  0
LINE
  5
407
330
36F
100
AcDbEntity
  8
0
  6
Continuous
 62
     0
370
    18
100
AcDbLine
 10
-78.2966054976
 20
-10.9446048737
 30
0.0
 11
-77.7353420854
 21
-10.3833675385
 31
0.0
  0
LINE
  5
408
330
36F
100
AcDbEntity
  8
0
  6
Continuous
 62
     0
370
    18
100
AcDbLine
 10
-79.9804031849
 20
-12.6284360886
 30
0.0
 11
-79.4191397727
 21
-12.0671987534
 31
0.0
  0
LINE
  5
409
330
36F
100
AcDbEntity
  8
0
  6
Continuous
 62
     0
370
    18
100
AcDbLine
 10
-77.1740749478
 20
-10.9446048737
 30
0.0
 11
-76.6128078103
 21
-10.3833675385
 31
0.0
  0
LINE
  5
40A
330
36F
100
AcDbEntity
  8
0
  6
Continuous
 62
     0
370
    18
100
AcDbLine
 10
-78.8578726351
 20
-12.6284360886
 30
0.0
 11
-78.2966054976
 21
-12.0671987534
 31
0.0
  0
LINE
  5
40B
330
36F
100
AcDbEntity
  8
0
  6
Continuous
 62
     0
370
    18
100
AcDbLine
 10
-80.5416703224
 20
-14.3122673035
 30
0.0
 11
-79.9804031849
 21
-13.7510299683
 31
0.0
  0
LINE
  5
40C
330
36F
100
AcDbEntity
  8
0
  6
Continuous
 62
     0
370
    18
100
AcDbLine
 10
-76.0515443981
 20
-10.9446048737
 30
0.0
 11
-75.4902772605
 21
-10.3833675385
 31
0.0
  0
LINE
  5
40D
330
36F
100
AcDbEntity
  8
0
  6
Continuous
 62
     0
370
    18
100
AcDbLine
 10
-77.7353420854
 20
-12.6284360886
 30
0.0
 11
-77.1740749478
 21
-12.0671987534
 31
0.0
  0
LINE
  5
40E
330
36F
100
AcDbEntity
  8
0
  6
Continuous
 62
     0
370
    18
100
AcDbLine
 10
-79.4191397727
 20
-14.3122673035
 30
0.0
 11
-78.8578726351
 21
-13.7510299683
 31
0.0
  0
LINE
  5
40F
330
36F
100
AcDbEntity
  8
0
  6
Continuous
 62
     0
370
    18
100
AcDbLine
 10
-76.6128078103
 20
-12.6284360886
 30
0.0
 11
-76.1794000864
 21
-12.195110321
 31
0.0
  0
LINE
  5
410
330
36F
100
AcDbEntity
  8
0
  6
Continuous
 62
     0
370
    18
100
AcDbLine
 10
-78.2966054976
 20
-14.3122673035
 30
0.0
 11
-77.7353420854
 21
-13.7510299683
 31
0.0
  0
LINE
  5
411
330
36F
100
AcDbEntity
  8
0
  6
Continuous
 62
     0
370
    18
100
AcDbLine
 10
-79.9804031849
 20
-15.9960985184
 30
0.0
 11
-79.4191397727
 21
-15.4347419739
 31
0.0
  0
LINE
  5
412
330
36F
100
AcDbEntity
  8
0
  6
Continuous
 62
     0
370
    18
100
AcDbLine
 10
-74.929010123
 20
-10.9446048737
 30
0.0
 11
-74.9230906367
 21
-10.9387636185
 31
0.0
  0
LINE
  5
413
330
36F
100
AcDbEntity
  8
0
  6
Continuous
 62
     0
370
    18
100
AcDbLine
 10
-77.1740749478
 20
-14.3122673035
 30
0.0
 11
-76.6128078103
 21
-13.7510299683
 31
0.0
  0
LINE
  5
414
330
36F
100
AcDbEntity
  8
0
  6
Continuous
 62
     0
370
    18
100
AcDbLine
 10
-78.8578726351
 20
-15.9960985184
 30
0.0
 11
-78.2966054976
 21
-15.4347419739
 31
0.0
  0
LINE
  5
415
330
36F
100
AcDbEntity
  8
0
  6
Continuous
 62
     0
370
    18
100
AcDbLine
 10
-80.5293172598
 20
-17.6675319672
 30
0.0
 11
-79.9804031849
 21
-17.1185731888
 31
0.0
  0
LINE
  5
416
330
36F
100
AcDbEntity
  8
0
  6
Continuous
 62
     0
370
    18
100
AcDbLine
 10
-77.7353420854
 20
-15.9960985184
 30
0.0
 11
-77.1740749478
 21
-15.4347419739
 31
0.0
  0
LINE
  5
417
330
36F
100
AcDbEntity
  8
0
  6
Continuous
 62
     0
370
    18
100
AcDbLine
 10
-79.4191397727
 20
-17.679810524
 30
0.0
 11
-78.8578726351
 21
-17.1185731888
 31
0.0
  0
LINE
  5
418
330
36F
100
AcDbEntity
  8
0
  6
Continuous
 62
     0
370
    18
100
AcDbLine
 10
-79.9804031849
 20
-19.3636417389
 30
0.0
 11
-79.4191397727
 21
-18.8024044037
 31
0.0
  0
LINE
  5
419
330
36F
100
AcDbEntity
  8
0
  6
Continuous
 62
     0
370
    18
100
AcDbLine
 10
-76.6128078103
 20
-15.9960985184
 30
0.0
 11
-76.0515443981
 21
-15.4347419739
 31
0.0
  0
LINE
  5
41A
330
36F
100
AcDbEntity
  8
0
  6
Continuous
 62
     0
370
    18
100
AcDbLine
 10
-78.2966054976
 20
-17.679810524
 30
0.0
 11
-77.7353420854
 21
-17.1185731888
 31
0.0
  0
LINE
  5
41B
330
36F
100
AcDbEntity
  8
0
  6
Continuous
 62
     0
370
    18
100
AcDbLine
 10
-78.8578726351
 20
-19.3636417389
 30
0.0
 11
-78.7389203906
 21
-19.2446708679
 31
0.0
  0
LINE
  5
41C
330
36F
100
AcDbEntity
  8
0
  6
Continuous
 62
     0
370
    18
100
AcDbLine
 10
-80.5209539831
 20
-21.0267305374
 30
0.0
 11
-79.9804031849
 21
-20.4862356186
 31
0.0
  0
LINE
  5
41D
330
36F
100
AcDbEntity
  8
0
  6
Continuous
 62
     0
370
    18
100
AcDbLine
 10
-77.1740749478
 20
-17.679810524
 30
0.0
 11
-76.6128078103
 21
-17.1185731888
 31
0.0
  0
LINE
  5
41E
330
36F
100
AcDbEntity
  8
0
  6
Continuous
 62
     0
370
    18
100
AcDbLine
 10
-79.4191397727
 20
-21.0474729538
 30
0.0
 11
-78.8578726351
 21
-20.4862356186
 31
0.0
  0
LINE
  5
41F
330
36F
100
AcDbEntity
  8
0
  6
Continuous
 62
     0
370
    18
100
AcDbLine
 10
-80.7660855353
 20
-22.3944187164
 30
0.0
 11
-80.5416703224
 21
-22.1699476242
 31
0.0
  0
LINE
  5
420
330
36F
100
AcDbEntity
  8
0
  6
Continuous
 62
     0
370
    18
100
AcDbLine
 10
-76.0515443981
 20
-17.679810524
 30
0.0
 11
-75.4902772605
 21
-17.1185731888
 31
0.0
  0
LINE
  5
421
330
36F
100
AcDbEntity
  8
0
  6
Continuous
 62
     0
370
    18
100
AcDbLine
 10
-77.3586370051
 20
-18.9869403839
 30
0.0
 11
-77.1740749478
 21
-18.8024044037
 31
0.0
  0
LINE
  5
422
330
36F
100
AcDbEntity
  8
0
  6
Continuous
 62
     0
370
    18
100
AcDbLine
 10
-79.9804031849
 20
-22.7313041687
 30
0.0
 11
-79.4191397727
 21
-22.1699476242
 31
0.0
  0
LINE
  5
423
330
36F
100
AcDbEntity
  8
0
  6
Continuous
 62
     0
370
    18
100
AcDbLine
 10
-74.929010123
 20
-17.679810524
 30
0.0
 11
-74.7133642435
 21
-17.4641609192
 31
0.0
  0
LINE
  5
424
330
36F
100
AcDbEntity
  8
0
  6
Continuous
 62
     0
370
    18
100
AcDbLine
 10
-76.6025185585
 20
-19.35338974
 30
0.0
 11
-76.0515443981
 21
-18.8024044037
 31
0.0
  0
LINE
  5
425
330
36F
100
AcDbEntity
  8
0
  6
Continuous
 62
     0
370
    18
100
AcDbLine
 10
-78.8578726351
 20
-22.7313041687
 30
0.0
 11
-78.4910731018
 21
-22.3644971848
 31
0.0
  0
LINE
  5
426
330
36F
100
AcDbEntity
  8
0
  6
Continuous
 62
     0
370
    18
100
AcDbLine
 10
-75.408115983
 20
-19.2815065384
 30
0.0
 11
-74.929010123
 21
-18.8024044037
 31
0.0
  0
LINE
  5
427
330
36F
100
AcDbEntity
  8
0
  6
Continuous
 62
     0
370
    18
100
AcDbLine
 10
-73.9162266254
 20
-18.9120769501
 30
0.0
 11
-73.8064795732
 21
-18.8024044037
 31
0.0
  0
LINE
  5
428
330
36F
100
AcDbEntity
  8
0
  6
Continuous
 62
     0
370
    18
100
AcDbLine
 10
-80.5565565825
 20
-21.5938091278
 30
0.0
 11
-78.7876583636
 21
-23.3627557755
 31
0.0
  0
LINE
  5
429
330
36F
100
AcDbEntity
  8
0
  6
Continuous
 62
     0
370
    18
100
AcDbLine
 10
-80.5238336325
 20
-20.5039978027
 30
0.0
 11
-78.4850418568
 21
-22.5428342819
 31
0.0
  0
LINE
  5
42A
330
36F
100
AcDbEntity
  8
0
  6
Continuous
 62
     0
370
    18
100
AcDbLine
 10
-80.7070024312
 20
-19.1982984543
 30
0.0
 11
-78.524325043
 21
-21.381020546
 31
0.0
  0
LINE
  5
42B
330
36F
100
AcDbEntity
  8
0
  6
Continuous
 62
     0
370
    18
100
AcDbLine
 10
-80.5254355073
 20
-18.2573795319
 30
0.0
 11
-78.4920826554
 21
-20.2907323837
 31
0.0
  0
LINE
  5
42C
330
36F
100
AcDbEntity
  8
0
  6
Continuous
 62
     0
370
    18
100
AcDbLine
 10
-80.7660855353
 20
-16.8942213058
 30
0.0
 11
-78.9697766304
 21
-18.6904668808
 31
0.0
  0
LINE
  5
42D
330
36F
100
AcDbEntity
  8
0
  6
Continuous
 62
     0
370
    18
100
AcDbLine
 10
-80.5254355073
 20
-16.0123109818
 30
0.0
 11
-78.6554142833
 21
-17.8823471069
 31
0.0
  0
LINE
  5
42E
330
36F
100
AcDbEntity
  8
0
  6
Continuous
 62
     0
370
    18
100
AcDbLine
 10
-80.7660855353
 20
-14.6491527557
 30
0.0
 11
-76.0925225914
 21
-19.3226337433
 31
0.0
  0
LINE
  5
42F
330
36F
100
AcDbEntity
  8
0
  6
Continuous
 62
     0
370
    18
100
AcDbLine
 10
-80.5809311569
 20
-13.7116909027
 30
0.0
 11
-75.033698231
 21
-19.2589759827
 31
0.0
  0
LINE
  5
430
330
36F
100
AcDbEntity
  8
0
  6
Continuous
 62
     0
370
    18
100
AcDbLine
 10
-80.5254355073
 20
-12.6446485519
 30
0.0
 11
-74.1172432899
 21
-19.052863121
 31
0.0
  0
LINE
  5
431
330
36F
100
AcDbEntity
  8
0
  6
Continuous
 62
     0
370
    18
100
AcDbLine
 10
-74.4769200683
 20
-17.570734024
 30
0.0
 11
-73.4570100904
 21
-18.5905694962
 31
0.0
  0
LINE
  5
432
330
36F
100
AcDbEntity
  8
0
  6
Continuous
 62
     0
370
    18
100
AcDbLine
 10
-80.7660855353
 20
-11.2814903259
 30
0.0
 11
-75.013037771
 21
-17.0345306396
 31
0.0
  0
LINE
  5
433
330
36F
100
AcDbEntity
  8
0
  6
Continuous
 62
     0
370
    18
100
AcDbLine
 10
-74.991542846
 20
-15.9335136414
 30
0.0
 11
-74.8034827411
 21
-16.1216259003
 31
0.0
  0
LINE
  5
434
330
36F
100
AcDbEntity
  8
0
  6
Continuous
 62
     0
370
    18
100
AcDbLine
 10
-80.5254355073
 20
-10.3995800018
 30
0.0
 11
-75.870193541
 21
-15.0548219681
 31
0.0
  0
LINE
  5
435
330
36F
100
AcDbEntity
  8
0
  6
Continuous
 62
     0
370
    18
100
AcDbLine
 10
-80.5254355073
 20
-9.2771053314
 30
0.0
 11
-76.1794000864
 21
-13.6231184006
 31
0.0
  0
LINE
  5
436
330
36F
100
AcDbEntity
  8
0
  6
Continuous
 62
     0
370
    18
100
AcDbLine
 10
-80.7660855353
 20
-7.9139471054
 30
0.0
 11
-76.1794000864
 21
-12.5006437302
 31
0.0
  0
LINE
  5
437
330
36F
100
AcDbEntity
  8
0
  6
Continuous
 62
     0
370
    18
100
AcDbLine
 10
-80.1144652069
 20
-7.4429512024
 30
0.0
 11
-75.9240686893
 21
-11.6333961487
 31
0.0
  0
LINE
  5
438
330
36F
100
AcDbEntity
  8
0
  6
Continuous
 62
     0
370
    18
100
AcDbLine
 10
-79.4028081
 20
-7.0321559906
 30
0.0
 11
-74.7869126499
 21
-11.6480588913
 31
0.0
  0
LINE
  5
439
330
36F
100
AcDbEntity
  8
0
  6
Continuous
 62
     0
370
    18
100
AcDbLine
 10
-78.5106085241
 20
-6.8018436432
 30
0.0
 11
-75.798202306
 21
-9.5142126083
 31
0.0
  0
LINE
  5
43A
330
36F
100
AcDbEntity
  8
0
  6
Continuous
 62
     0
370
    18
100
AcDbLine
 10
-77.3400962353
 20
-6.8497657776
 30
0.0
 11
-76.5269361436
 21
-7.6628923416
 31
0.0
  0
LINE
  5
43B
330
36F
100
AcDbEntity
  8
0
  6
Continuous
 62
     0
370
    18
100
AcDbLine
 10
-0.6660856307
 20
-91.1224724258
 30
0.0
 11
-1.6660876572
 21
-92.1225191559
 31
0.0
  0
LINE
  5
43C
330
36F
100
AcDbEntity
  8
0
  6
Continuous
 62
     0
370
    18
100
AcDbLine
 10
-0.6660856307
 20
-93.3675409759
 30
0.0
 11
-1.6660876572
 21
-94.367587706
 31
0.0
  0
LINE
  5
43D
330
36F
100
AcDbEntity
  8
0
  6
Continuous
 62
     0
370
    18
100
AcDbLine
 10
-0.6660856307
 20
-95.612609526
 30
0.0
 11
-1.6660876572
 21
-96.6126562561
 31
0.0
  0
LINE
  5
43E
330
36F
100
AcDbEntity
  8
0
  6
Continuous
 62
     0
370
    18
100
AcDbLine
 10
-0.6660856307
 20
-97.8576780762
 30
0.0
 11
-1.6660876572
 21
-98.8577248062
 31
0.0
  0
LINE
  5
43F
330
36F
100
AcDbEntity
  8
0
  6
Continuous
 62
     0
370
    18
100
AcDbLine
 10
-0.6660856307
 20
-100.1027466263
 30
0.0
 11
-1.6660876572
 21
-101.1027933563
 31
0.0
  0
LINE
  5
440
330
36F
100
AcDbEntity
  8
0
  6
Continuous
 62
     0
370
    18
100
AcDbLine
 10
-0.6660856307
 20
-102.3478151764
 30
0.0
 11
-1.6660876572
 21
-103.3478619064
 31
0.0
  0
LINE
  5
441
330
36F
100
AcDbEntity
  8
0
  6
Continuous
 62
     0
370
    18
100
AcDbLine
 10
-0.6660856307
 20
-104.5928837265
 30
0.0
 11
-1.6660876572
 21
-105.5929304565
 31
0.0
  0
LINE
  5
442
330
36F
100
AcDbEntity
  8
0
  6
Continuous
 62
     0
370
    18
100
AcDbLine
 10
-0.6660856307
 20
-106.8379522766
 30
0.0
 11
-1.6660876572
 21
-107.8379990066
 31
0.0
  0
LINE
  5
443
330
36F
100
AcDbEntity
  8
0
  6
Continuous
 62
     0
370
    18
100
AcDbLine
 10
-0.6660856307
 20
-109.0830208267
 30
0.0
 11
-1.6660876572
 21
-110.0830675568
 31
0.0
  0
LINE
  5
444
330
36F
100
AcDbEntity
  8
0
  6
Continuous
 62
     0
370
    18
100
AcDbLine
 10
-0.6660856307
 20
-111.3280893768
 30
0.0
 11
-1.6660876572
 21
-112.3280168976
 31
0.0
  0
LINE
  5
445
330
36F
100
AcDbEntity
  8
0
  6
Continuous
 62
     0
370
    18
100
AcDbLine
 10
-0.6660856307
 20
-113.5731579269
 30
0.0
 11
-1.8296502531
 21
-114.7367598022
 31
0.0
  0
LINE
  5
446
330
36F
100
AcDbEntity
  8
0
  6
Continuous
 62
     0
370
    18
100
AcDbLine
 10
-1.2024044991
 20
-116.3545490707
 30
0.0
 11
-2.5753229856
 21
-117.7274824585
 31
0.0
  0
LINE
  5
447
330
36F
100
AcDbEntity
  8
0
  6
Continuous
 62
     0
370
    18
100
AcDbLine
 10
-1.9480772316
 20
-119.345271727
 30
0.0
 11
-2.5016032159
 21
-119.8987604584
 31
0.0
  0
LINE
  5
448
330
36F
100
AcDbEntity
  8
0
  6
Continuous
 62
     0
370
    18
100
AcDbLine
 10
-74.6660865843
 20
-88.7903214897
 30
0.0
 11
-75.6660886109
 21
-89.7903086151
 31
0.0
  0
LINE
  5
449
330
36F
100
AcDbEntity
  8
0
  6
Continuous
 62
     0
370
    18
100
AcDbLine
 10
-74.6660865843
 20
-91.0353900398
 30
0.0
 11
-75.6660886109
 21
-92.0353771652
 31
0.0
  0
LINE
  5
44A
330
36F
100
AcDbEntity
  8
0
  6
Continuous
 62
     0
370
    18
100
AcDbLine
 10
-74.6660865843
 20
-93.2804585899
 30
0.0
 11
-75.6660886109
 21
-94.2804457153
 31
0.0
  0
LINE
  5
44B
330
36F
100
AcDbEntity
  8
0
  6
Continuous
 62
     0
370
    18
100
AcDbLine
 10
-74.6660865843
 20
-95.5254675354
 30
0.0
 11
-75.6660886109
 21
-96.5255142654
 31
0.0
  0
LINE
  5
44C
330
36F
100
AcDbEntity
  8
0
  6
Continuous
 62
     0
370
    18
100
AcDbLine
 10
-74.6660865843
 20
-97.7705360855
 30
0.0
 11
-75.6660886109
 21
-98.7705828155
 31
0.0
  0
LINE
  5
44D
330
36F
100
AcDbEntity
  8
0
  6
Continuous
 62
     0
370
    18
100
AcDbLine
 10
-74.6660865843
 20
-100.0156046356
 30
0.0
 11
-75.6660886109
 21
-101.0156513656
 31
0.0
  0
LINE
  5
44E
330
36F
100
AcDbEntity
  8
0
  6
Continuous
 62
     0
370
    18
100
AcDbLine
 10
-74.6660865843
 20
-102.2606731857
 30
0.0
 11
-75.6660886109
 21
-103.2607199158
 31
0.0
  0
LINE
  5
44F
330
36F
100
AcDbEntity
  8
0
  6
Continuous
 62
     0
370
    18
100
AcDbLine
 10
-74.6660865843
 20
-104.5057417358
 30
0.0
 11
-75.6660886109
 21
-105.5057884659
 31
0.0
  0
LINE
  5
450
330
36F
100
AcDbEntity
  8
0
  6
Continuous
 62
     0
370
    18
100
AcDbLine
 10
-74.6660865843
 20
-106.7508102859
 30
0.0
 11
-75.6660886109
 21
-107.750857016
 31
0.0
  0
LINE
  5
451
330
36F
100
AcDbEntity
  8
0
  6
Continuous
 62
     0
370
    18
100
AcDbLine
 10
-74.6660865843
 20
-108.995878836
 30
0.0
 11
-75.6660886109
 21
-109.9959255661
 31
0.0
  0
LINE
  5
452
330
36F
100
AcDbEntity
  8
0
  6
Continuous
 62
     0
370
    18
100
AcDbLine
 10
-74.6660865843
 20
-111.2409473862
 30
0.0
 11
-75.6660886109
 21
-112.2409941162
 31
0.0
  0
LINE
  5
453
330
36F
100
AcDbEntity
  8
0
  6
Continuous
 62
     0
370
    18
100
AcDbLine
 10
-74.6660865843
 20
-113.4860159363
 30
0.0
 11
-75.609665364
 21
-114.4295574631
 31
0.0
  0
LINE
  5
454
330
36F
100
AcDbEntity
  8
0
  6
Continuous
 62
     0
370
    18
100
AcDbLine
 10
-74.3367187679
 20
-115.4017092193
 30
0.0
 11
-75.1616507769
 21
-116.226637503
 31
0.0
  0
LINE
  5
455
330
36F
100
AcDbEntity
  8
0
  6
Continuous
 62
     0
370
    18
100
AcDbLine
 10
-73.8886706531
 20
-117.1987892593
 30
0.0
 11
-74.7136063874
 21
-118.023717543
 31
0.0
  0
LINE
  5
456
330
36F
100
AcDbEntity
  8
0
  6
Continuous
 62
     0
370
    18
100
AcDbLine
 10
-73.4406225383
 20
-118.99575009
 30
0.0
 11
-74.2655582726
 21
-119.8206783737
 31
0.0
  0
ENDBLK
  5
371
330
36F
100
AcDbEntity
  8
0
100
AcDbBlockEnd
  0
ENDSEC
  0
SECTION
  2
ENTITIES
  0
LINE
  5
101
330
1F
100
AcDbEntity
  8
LINIEN-DÜNN
  6
CENTERX2
100
AcDbLine
 10
352.6174545849
 20
46.9080238789
 30
0.0
 11
352.6174545849
 21
39.4621586124
 31
0.0
  0
LINE
  5
102
330
1F
100
AcDbEntity
  8
LINIEN-DÜNN
100
AcDbLine
 10
357.7661698132
 20
46.3720107039
 30
0.0
 11
357.7661698132
 21
39.9353173413
 31
0.0
  0
LINE
  5
103
330
1F
100
AcDbEntity
  8
LINIEN-DÜNN
100
AcDbLine
 10
364.6059427486
 20
44.7376225767
 30
0.0
 11
364.6059427486
 21
41.5697054685
 31
0.0
  0
LINE
  5
104
330
1F
100
AcDbEntity
  8
LINIEN-DÜNN
100
AcDbLine
 10
364.6059427486
 20
44.7376225767
 30
0.0
 11
357.7661698132
 21
46.3720107039
 31
0.0
  0
LINE
  5
105
330
1F
100
AcDbEntity
  8
LINIEN-DÜNN
100
AcDbLine
 10
15.0
 20
198.5
 30
0.0
 11
20.0
 21
198.5
 31
0.0
  0
LINE
  5
106
330
1F
100
AcDbEntity
  8
LINIEN-DÜNN
100
AcDbLine
 10
12.0
 20
148.5
 30
0.0
 11
0.0
 21
148.5
 31
0.0
  0
LINE
  5
107
330
1F
100
AcDbEntity
  8
LINIEN-DÜNN
100
AcDbLine
 10
357.7661698132
 20
39.9353173413
 30
0.0
 11
364.6059427486
 21
41.5697054685
 31
0.0
  0
LINE
  5
108
330
1F
100
AcDbEntity
  8
LINIEN-DÜNN
  6
CENTERX2
100
AcDbLine
 10
348.6240467841
 20
43.1536640226
 30
0.0
 11
356.6108623857
 21
43.1536640226
 31
0.0
  0
LINE
  5
109
330
1F
100
AcDbEntity
  8
LINIEN-DÜNN
  6
CENTERX2
100
AcDbLine
 10
357.1289238876
 20
43.1536640226
 30
0.0
 11
365.6255362296
 21
43.1536640226
 31
0.0
  0
LINE
  5
10A
330
1F
100
AcDbEntity
  8
LINIEN-DÜNN
100
AcDbLine
 10
0.0
 20
0.0
 30
0.0
 11
420.0
 21
0.0
 31
0.0
  0
LINE
  5
10B
330
1F
100
AcDbEntity
  8
LINIEN-DÜNN
100
AcDbLine
 10
0.0
 20
0.0
 30
0.0
 11
0.0
 21
297.0
 31
0.0
  0
LINE
  5
10C
330
1F
100
AcDbEntity
  8
LINIEN-DÜNN
100
AcDbLine
 10
0.0
 20
297.0
 30
0.0
 11
420.0
 21
297.0
 31
0.0
  0
LINE
  5
10D
330
1F
100
AcDbEntity
  8
LINIEN-DÜNN
100
AcDbLine
 10
420.0
 20
0.0
 30
0.0
 11
420.0
 21
297.0
 31
0.0
  0
LINE
  5
10E
330
1F
100
AcDbEntity
  8
LINIEN-NORMAL
100
AcDbLine
 10
228.0
 20
35.0
 30
0.0
 11
410.0
 21
35.0
 31
0.0
  0
LINE
  5
10F
330
1F
100
AcDbEntity
  8
LINIEN-DÜNN
100
AcDbLine
 10
410.0
 20
198.5
 30
0.0
 11
415.0
 21
198.5
 31
0.0
  0
LINE
  5
110
330
1F
100
AcDbEntity
  8
LINIEN-DÜNN
100
AcDbLine
 10
15.0
 20
148.5
 30
0.0
 11
20.0
 21
148.5
 31
0.0
  0
LINE
  5
111
330
1F
100
AcDbEntity
  8
LINIEN-DÜNN
100
AcDbLine
 10
228.0
 20
40.0
 30
0.0
 11
296.6
 21
40.0
 31
0.0
  0
LINE
  5
112
330
1F
100
AcDbEntity
  8
LINIEN-DÜNN
100
AcDbLine
 10
15.0
 20
248.5
 30
0.0
 11
20.0
 21
248.5
 31
0.0
  0
LINE
  5
113
330
1F
100
AcDbEntity
  8
LINIEN-DICK
100
AcDbLine
 10
20.0
 20
287.0
 30
0.0
 11
20.0
 21
10.0
 31
0.0
  0
LINE
  5
114
330
1F
100
AcDbEntity
  8
LINIEN-DICK
100
AcDbLine
 10
410.0
 20
287.0
 30
0.0
 11
20.0
 21
287.0
 31
0.0
  0
LINE
  5
115
330
1F
100
AcDbEntity
  8
LINIEN-DICK
100
AcDbLine
 10
410.0
 20
5.0
 30
0.0
 11
410.0
 21
287.0
 31
0.0
  0
LINE
  5
116
330
1F
100
AcDbEntity
  8
LINIEN-DICK
100
AcDbLine
 10
20.0
 20
10.0
 30
0.0
 11
415.0
 21
10.0
 31
0.0
  0
LINE
  5
117
330
1F
100
AcDbEntity
  8
LINIEN-DÜNN
100
AcDbLine
 10
410.0
 20
148.5
 30
0.0
 11
415.0
 21
148.5
 31
0.0
  0
LINE
  5
118
330
1F
100
AcDbEntity
  8
LINIEN-DÜNN
100
AcDbLine
 10
228.0
 20
50.0
 30
0.0
 11
296.6
 21
50.0
 31
0.0
  0
LINE
  5
119
330
1F
100
AcDbEntity
  8
LINIEN-DÜNN
100
AcDbLine
 10
15.0
 20
98.5
 30
0.0
 11
20.0
 21
98.5
 31
0.0
  0
LINE
  5
11A
330
1F
100
AcDbEntity
  8
LINIEN-DÜNN
100
AcDbLine
 10
296.6
 20
45.0
 30
0.0
 11
228.0
 21
45.0
 31
0.0
  0
LINE
  5
11B
330
1F
100
AcDbEntity
  8
LINIEN-DÜNN
100
AcDbLine
 10
65.0
 20
292.0
 30
0.0
 11
65.0
 21
287.0
 31
0.0
  0
LINE
  5
11C
330
1F
100
AcDbEntity
  8
LINIEN-DÜNN
100
AcDbLine
 10
230.0
 20
292.0
 30
0.0
 11
230.0
 21
297.0
 31
0.0
  0
LINE
  5
11D
330
1F
100
AcDbEntity
  8
LINIEN-NORMAL
100
AcDbLine
 10
296.6
 20
55.0
 30
0.0
 11
296.6
 21
35.0
 31
0.0
  0
LINE
  5
11E
330
1F
100
AcDbEntity
  8
LINIEN-DÜNN
100
AcDbLine
 10
410.0
 20
98.5
 30
0.0
 11
415.0
 21
98.5
 31
0.0
  0
LINE
  5
11F
330
1F
100
AcDbEntity
  8
VORLAGE_BEMASSUNG
100
AcDbLine
 10
230.0
 20
5.0
 30
0.0
 11
230.0
 21
0.0
 31
0.0
  0
LINE
  5
120
330
1F
100
AcDbEntity
  8
LINIEN-DÜNN
100
AcDbLine
 10
125.0
 20
292.0
 30
0.0
 11
125.0
 21
297.0
 31
0.0
  0
LINE
  5
121
330
1F
100
AcDbEntity
  8
LINIEN-DÜNN
100
AcDbLine
 10
125.0
 20
5.0
 30
0.0
 11
125.0
 21
0.0
 31
0.0
  0
LINE
  5
122
330
1F
100
AcDbEntity
  8
LINIEN-NORMAL
100
AcDbLine
 10
410.0
 20
55.0
 30
0.0
 11
228.0
 21
55.0
 31
0.0
  0
LINE
  5
123
330
1F
100
AcDbEntity
  8
LINIEN-DÜNN
100
AcDbLine
 10
228.0
 20
55.0
 30
0.0
 11
410.0
 21
55.0
 31
0.0
  0
LINE
  5
124
330
1F
100
AcDbEntity
  8
LINIEN-DÜNN
100
AcDbLine
 10
410.0
 20
55.0
 30
0.0
 11
228.0
 21
55.0
 31
0.0
  0
LINE
  5
125
330
1F
100
AcDbEntity
  8
LINIEN-DÜNN
100
AcDbLine
 10
268.0
 20
76.5
 30
0.0
 11
268.0
 21
55.0
 31
0.0
  0
LINE
  5
126
330
1F
100
AcDbEntity
  8
LINIEN-DÜNN
100
AcDbLine
 10
271.6
 20
55.0
 30
0.0
 11
271.6
 21
40.0
 31
0.0
  0
LINE
  5
127
330
1F
100
AcDbEntity
  8
LINIEN-DÜNN
100
AcDbLine
 10
247.0
 20
55.0
 30
0.0
 11
247.0
 21
35.0
 31
0.0
  0
LINE
  5
128
330
1F
100
AcDbEntity
  8
LINIEN-DICK
100
AcDbLine
 10
228.0
 20
76.5
 30
0.0
 11
228.0
 21
10.0
 31
0.0
  0
LINE
  5
129
330
1F
100
AcDbEntity
  8
LINIEN-DÜNN
100
AcDbLine
 10
15.0
 20
292.0
 30
0.0
 11
415.0
 21
292.0
 31
0.0
  0
LINE
  5
12A
330
1F
100
AcDbEntity
  8
LINIEN-DÜNN
100
AcDbLine
 10
228.0
 20
65.75
 30
0.0
 11
310.0
 21
65.75
 31
0.0
  0
LINE
  5
12B
330
1F
100
AcDbEntity
  8
LINIEN-DICK
100
AcDbLine
 10
228.0
 20
76.5
 30
0.0
 11
410.0
 21
76.5
 31
0.0
  0
LINE
  5
12C
330
1F
100
AcDbEntity
  8
LINIEN-DÜNN
100
AcDbLine
 10
15.0
 20
48.5
 30
0.0
 11
20.0
 21
48.5
 31
0.0
  0
LINE
  5
12D
330
1F
100
AcDbEntity
  8
LINIEN-DÜNN
100
AcDbLine
 10
410.0
 20
48.5
 30
0.0
 11
415.0
 21
48.5
 31
0.0
  0
LINE
  5
12E
330
1F
100
AcDbEntity
  8
LINIEN-DÜNN
100
AcDbLine
 10
332.6610845472
 20
20.0
 30
0.0
 11
332.6610845472
 21
10.0
 31
0.0
  0
LINE
  5
12F
330
1F
100
AcDbEntity
  8
LINIEN-DÜNN
100
AcDbLine
 10
410.0
 20
248.5
 30
0.0
 11
415.0
 21
248.5
 31
0.0
  0
LINE
  5
130
330
1F
100
AcDbEntity
  8
LINIEN-DÜNN
100
AcDbLine
 10
65.0
 20
10.0
 30
0.0
 11
65.0
 21
5.0
 31
0.0
  0
LINE
  5
131
330
1F
100
AcDbEntity
  8
LINIEN-DÜNN
100
AcDbLine
 10
115.0
 20
10.0
 30
0.0
 11
115.0
 21
5.0
 31
0.0
  0
LINE
  5
132
330
1F
100
AcDbEntity
  8
LINIEN-DÜNN
100
AcDbLine
 10
115.0
 20
292.0
 30
0.0
 11
115.0
 21
287.0
 31
0.0
  0
LINE
  5
133
330
1F
100
AcDbEntity
  8
LINIEN-DÜNN
100
AcDbLine
 10
165.0
 20
10.0
 30
0.0
 11
165.0
 21
5.0
 31
0.0
  0
LINE
  5
134
330
1F
100
AcDbEntity
  8
LINIEN-DÜNN
100
AcDbLine
 10
165.0
 20
292.0
 30
0.0
 11
165.0
 21
287.0
 31
0.0
  0
LINE
  5
135
330
1F
100
AcDbEntity
  8
LINIEN-DÜNN
100
AcDbLine
 10
215.0
 20
10.0
 30
0.0
 11
215.0
 21
5.0
 31
0.0
  0
LINE
  5
136
330
1F
100
AcDbEntity
  8
LINIEN-DÜNN
100
AcDbLine
 10
215.0
 20
292.0
 30
0.0
 11
215.0
 21
287.0
 31
0.0
  0
LINE
  5
137
330
1F
100
AcDbEntity
  8
LINIEN-DÜNN
100
AcDbLine
 10
265.0
 20
10.0
 30
0.0
 11
265.0
 21
5.0
 31
0.0
  0
LINE
  5
138
330
1F
100
AcDbEntity
  8
LINIEN-DÜNN
100
AcDbLine
 10
265.0
 20
292.0
 30
0.0
 11
265.0
 21
287.0
 31
0.0
  0
LINE
  5
139
330
1F
100
AcDbEntity
  8
LINIEN-DÜNN
100
AcDbLine
 10
347.6610845472
 20
20.0
 30
0.0
 11
347.6610845472
 21
10.0
 31
0.0
  0
LINE
  5
13A
330
1F
100
AcDbEntity
  8
LINIEN-DÜNN
100
AcDbLine
 10
362.6610845472
 20
20.0
 30
0.0
 11
362.6610845472
 21
10.0
 31
0.0
  0
LINE
  5
13B
330
1F
100
AcDbEntity
  8
LINIEN-NORMAL
100
AcDbLine
 10
327.6610845472
 20
10.0
 30
0.0
 11
327.6610845472
 21
55.0
 31
0.0
  0
LINE
  5
13C
330
1F
100
AcDbEntity
  8
LINIEN-DÜNN
100
AcDbLine
 10
20.0
 20
292.0
 30
0.0
 11
20.0
 21
297.0
 31
0.0
  0
LINE
  5
13D
330
1F
100
AcDbEntity
  8
LINIEN-DÜNN
100
AcDbLine
 10
20.0
 20
5.0
 30
0.0
 11
20.0
 21
0.0
 31
0.0
  0
LINE
  5
13E
330
1F
100
AcDbEntity
  8
LINIEN-DÜNN
100
AcDbLine
 10
315.0
 20
10.0
 30
0.0
 11
315.0
 21
5.0
 31
0.0
  0
LINE
  5
13F
330
1F
100
AcDbEntity
  8
LINIEN-DÜNN
100
AcDbLine
 10
315.0
 20
292.0
 30
0.0
 11
315.0
 21
287.0
 31
0.0
  0
LINE
  5
140
330
1F
100
AcDbEntity
  8
LINIEN-DÜNN
100
AcDbLine
 10
365.0
 20
10.0
 30
0.0
 11
365.0
 21
5.0
 31
0.0
  0
LINE
  5
141
330
1F
100
AcDbEntity
  8
LINIEN-DÜNN
100
AcDbLine
 10
365.0
 20
292.0
 30
0.0
 11
365.0
 21
287.0
 31
0.0
  0
LINE
  5
142
330
1F
100
AcDbEntity
  8
LINIEN-DÜNN
100
AcDbLine
 10
15.0
 20
292.0
 30
0.0
 11
15.0
 21
5.0
 31
0.0
  0
LINE
  5
143
330
1F
100
AcDbEntity
  8
LINIEN-DÜNN
100
AcDbLine
 10
15.0
 20
5.0
 30
0.0
 11
415.0
 21
5.0
 31
0.0
  0
LINE
  5
144
330
1F
100
AcDbEntity
  8
LINIEN-DÜNN
100
AcDbLine
 10
415.0
 20
292.0
 30
0.0
 11
415.0
 21
5.0
 31
0.0
  0
LINE
  5
145
330
1F
100
AcDbEntity
  8
LINIEN-DÜNN
100
AcDbLine
 10
347.6610845472
 20
44.213444
 30
0.0
 11
327.6610845472
 21
44.213444
 31
0.0
  0
LINE
  5
146
330
1F
100
AcDbEntity
  8
LINIEN-DÜNN
100
AcDbLine
 10
347.6610845472
 20
35.0
 30
0.0
 11
347.6610845472
 21
55.0
 31
0.0
  0
LINE
  5
147
330
1F
100
AcDbEntity
  8
LINIEN-DÜNN
100
AcDbLine
 10
370.057188
 20
55.012032
 30
0.0
 11
370.057188
 21
35.0
 31
0.0
  0
LINE
  5
148
330
1F
100
AcDbEntity
  8
LINIEN-DÜNN
100
AcDbLine
 10
398.0
 20
35.0
 30
0.0
 11
398.0
 21
20.0
 31
0.0
  0
LINE
  5
149
330
1F
100
AcDbEntity
  8
LINIEN-DÜNN
100
AcDbLine
 10
410.0
 20
15.0
 30
0.0
 11
327.6610845472
 21
15.0
 31
0.0
  0
LINE
  5
14A
330
1F
100
AcDbEntity
  8
LINIEN-DÜNN
100
AcDbLine
 10
327.6610845472
 20
20.0
 30
0.0
 11
410.0
 21
20.0
 31
0.0
  0
LINE
  5
14B
330
1F
100
AcDbEntity
  8
LINIEN-DÜNN
100
AcDbLine
 10
341.485486
 20
20.0
 30
0.0
 11
341.485486
 21
27.564675
 31
0.0
  0
LINE
  5
14C
330
1F
100
AcDbEntity
  8
LINIEN-NORMAL
100
AcDbLine
 10
310.0
 20
76.5
 30
0.0
 11
310.0
 21
55.0
 31
0.0
  0
CIRCLE
  5
14D
330
1F
100
AcDbEntity
  8
LINIEN-DÜNN
100
AcDbCircle
 10
11.0
 20
108.5
 30
0.0
 40
2.750000000000001
  0
CIRCLE
  5
14E
330
1F
100
AcDbEntity
  8
LINIEN-DÜNN
100
AcDbCircle
 10
11.0
 20
188.5
 30
0.0
 40
2.750000000000001
  0
CIRCLE
  5
14F
330
1F
100
AcDbEntity
  8
LINIEN-DÜNN
100
AcDbCircle
 10
352.6174545849
 20
43.1536640226
 30
0.0
 40
3.218346681300138
  0
CIRCLE
  5
150
330
1F
100
AcDbEntity
  8
LINIEN-DÜNN
100
AcDbCircle
 10
352.6174545849
 20
43.1536640226
 30
0.0
 40
1.583958554121555
  0
INSERT
  5
151
330
1F
100
AcDbEntity
  8
0
  6
Continuous
 62
     7
100
AcDbBlockReference
  2
ACO-Logo
 10
314.3510726297
 20
57.6366106772
 30
0.0
  0
POINT
  5
152
330
1F
100
AcDbEntity
  8
VORLAGE_BEMASSUNG
100
AcDbPoint
 10
0.0
 20
0.0
 30
0.0
  0
POINT
  5
153
330
1F
100
AcDbEntity
  8
VORLAGE_BEMASSUNG
100
AcDbPoint
 10
410.0
 20
10.0
 30
0.0
  0
MTEXT
  5
154
330
1F
100
AcDbEntity
  8
VORLAGE_TEXT
100
AcDbMText
 10
17.7359443114
 20
124.8017866468
 30
0.0
 40
2.0
 41
0.0
 71
     2
 72
     1
  1
D
  7
SLDTEXTSTYLE0
 73
     1
 44
1.0
  0
MTEXT
  5
155
330
1F
100
AcDbEntity
  8
VORLAGE_TEXT
100
AcDbMText
 10
17.6274822413
 20
174.7261854936
 30
0.0
 40
2.0
 41
0.0
 71
     2
 72
     1
  1
C
  7
SLDTEXTSTYLE0
 73
     1
 44
1.0
  0
MTEXT
  5
156
330
1F
100
AcDbEntity
  8
VORLAGE_TEXT
100
AcDbMText
 10
17.5516905072
 20
224.4926420442
 30
0.0
 40
2.0
 41
0.0
 71
     2
 72
     1
  1
B
  7
SLDTEXTSTYLE0
 73
     1
 44
1.0
  0
MTEXT
  5
157
330
1F
100
AcDbEntity
  8
VORLAGE_TEXT
100
AcDbMText
 10
290.0344258799
 20
290.5428789914
 30
0.0
 40
2.0
 41
0.0
 71
     2
 72
     1
  1
6
  7
SLDTEXTSTYLE0
 73
     1
 44
1.0
  0
MTEXT
  5
158
330
1F
100
AcDbEntity
  8
VORLAGE_TEXT
100
AcDbMText
 10
240.0417859812
 20
290.6369260235
 30
0.0
 40
2.0
 41
0.0
 71
     2
 72
     1
  1
5
  7
SLDTEXTSTYLE0
 73
     1
 44
1.0
  0
MTEXT
  5
159
330
1F
100
AcDbEntity
  8
VORLAGE_TEXT
100
AcDbMText
 10
190.0300404524
 20
290.6343268032
 30
0.0
 40
2.0
 41
0.0
 71
     2
 72
     1
  1
4
  7
SLDTEXTSTYLE0
 73
     1
 44
1.0
  0
MTEXT
  5
15A
330
1F
100
AcDbEntity
  8
VORLAGE_TEXT
100
AcDbMText
 10
140.0165868337
 20
290.6378887952
 30
0.0
 40
2.0
 41
0.0
 71
     2
 72
     1
  1
3
  7
SLDTEXTSTYLE0
 73
     1
 44
1.0
  0
MTEXT
  5
15B
330
1F
100
AcDbEntity
  8
VORLAGE_TEXT
100
AcDbMText
 10
90.033223
 20
290.5566702875
 30
0.0
 40
2.0
 41
0.0
 71
     2
 72
     1
  1
2
  7
SLDTEXTSTYLE0
 73
     1
 44
1.0
  0
MTEXT
  5
15C
330
1F
100
AcDbEntity
  8
VORLAGE_TEXT
100
AcDbMText
 10
40.0509551097
 20
290.5530165805
 30
0.0
 40
2.0
 41
0.0
 71
     2
 72
     1
  1
1
  7
SLDTEXTSTYLE0
 73
     1
 44
1.0
  0
MTEXT
  5
15D
330
1F
100
AcDbEntity
  8
VORLAGE_TEXT
100
AcDbMText
 10
17.5609786315
 20
271.2966048816
 30
0.0
 40
2.0
 41
0.0
 71
     2
 72
     1
  1
A
  7
SLDTEXTSTYLE0
 73
     1
 44
1.0
  0
MTEXT
  5
15E
330
1F
100
AcDbEntity
  8
VORLAGE_TEXT
100
AcDbMText
 10
89.9333968896
 20
8.5904490253
 30
0.0
 40
2.0
 41
0.0
 71
     2
 72
     1
  1
2
  7
SLDTEXTSTYLE0
 73
     1
 44
1.0
  0
MTEXT
  5
15F
330
1F
100
AcDbEntity
  8
VORLAGE_TEXT
100
AcDbMText
 10
39.9009486579
 20
8.6623118453
 30
0.0
 40
2.0
 41
0.0
 71
     2
 72
     1
  1
1
  7
SLDTEXTSTYLE0
 73
     1
 44
1.0
  0
MTEXT
  5
160
330
1F
100
AcDbEntity
  8
VORLAGE_TEXT
100
AcDbMText
 10
190.0227230239
 20
8.7073169286
 30
0.0
 40
2.0
 41
0.0
 71
     2
 72
     1
  1
4
  7
SLDTEXTSTYLE0
 73
     1
 44
1.0
  0
MTEXT
  5
161
330
1F
100
AcDbEntity
  8
VORLAGE_TEXT
100
AcDbMText
 10
140.0453427777
 20
8.5647154541
 30
0.0
 40
2.0
 41
0.0
 71
     2
 72
     1
  1
3
  7
SLDTEXTSTYLE0
 73
     1
 44
1.0
  0
MTEXT
  5
162
330
1F
100
AcDbEntity
  8
VORLAGE_TEXT
100
AcDbMText
 10
239.8749782531
 20
8.5637526825
 30
0.0
 40
2.0
 41
0.0
 71
     2
 72
     1
  1
5
  7
SLDTEXTSTYLE0
 73
     1
 44
1.0
  0
MTEXT
  5
163
330
1F
100
AcDbEntity
  8
VORLAGE_TEXT
100
AcDbMText
 10
412.6717254925
 20
224.51208263
 30
0.0
 40
2.0
 41
0.0
 71
     2
 72
     1
  1
B
  7
SLDTEXTSTYLE0
 73
     1
 44
1.0
  0
MTEXT
  5
164
330
1F
100
AcDbEntity
  8
VORLAGE_TEXT
100
AcDbMText
 10
412.5951211154
 20
271.2798202564
 30
0.0
 40
2.0
 41
0.0
 71
     2
 72
     1
  1
A
  7
SLDTEXTSTYLE0
 73
     1
 44
1.0
  0
MTEXT
  5
165
330
1F
100
AcDbEntity
  8
VORLAGE_TEXT
100
AcDbMText
 10
412.6491448679
 20
174.7279841048
 30
0.0
 40
2.0
 41
0.0
 71
     2
 72
     1
  1
C
  7
SLDTEXTSTYLE0
 73
     1
 44
1.0
  0
MTEXT
  5
166
330
1F
100
AcDbEntity
  8
VORLAGE_TEXT
100
AcDbMText
 10
340.0216466634
 20
290.5954278102
 30
0.0
 40
2.0
 41
0.0
 71
     2
 72
     1
  1
7
  7
SLDTEXTSTYLE0
 73
     1
 44
1.0
  0
MTEXT
  5
167
330
1F
100
AcDbEntity
  8
VORLAGE_TEXT
100
AcDbMText
 10
390.037657264
 20
290.6215496941
 30
0.0
 40
2.0
 41
0.0
 71
     2
 72
     1
  1
8
  7
SLDTEXTSTYLE0
 73
     1
 44
1.0
  0
MTEXT
  5
168
330
1F
100
AcDbEntity
  8
VORLAGE_TEXT
100
AcDbMText
 10
17.6897935208
 20
74.7267628143
 30
0.0
 40
2.0
 41
0.0
 71
     2
 72
     1
  1
E
  7
SLDTEXTSTYLE0
 73
     1
 44
1.0
  0
MTEXT
  5
169
330
1F
100
AcDbEntity
  8
VORLAGE_TEXT
100
AcDbMText
 10
17.5936930126
 20
27.773321616
 30
0.0
 40
2.0
 41
0.0
 71
     2
 72
     1
  1
F
  7
SLDTEXTSTYLE0
 73
     1
 44
1.0
  0
MTEXT
  5
16A
330
1F
100
AcDbEntity
  8
VORLAGE_TEXT
100
AcDbMText
 10
339.8003474583
 20
8.7205095051
 30
0.0
 40
2.0
 41
0.0
 71
     2
 72
     1
  1
7
  7
SLDTEXTSTYLE0
 73
     1
 44
1.0
  0
MTEXT
  5
16B
330
1F
100
AcDbEntity
  8
VORLAGE_TEXT
100
AcDbMText
 10
289.7886477179
 20
8.6884673623
 30
0.0
 40
2.0
 41
0.0
 71
     2
 72
     1
  1
6
  7
SLDTEXTSTYLE0
 73
     1
 44
1.0
  0
MTEXT
  5
16C
330
1F
100
AcDbEntity
  8
VORLAGE_TEXT
100
AcDbMText
 10
412.5160699095
 20
74.5096307526
 30
0.0
 40
2.0
 41
0.0
 71
     2
 72
     1
  1
E
  7
SLDTEXTSTYLE0
 73
     1
 44
1.0
  0
MTEXT
  5
16D
330
1F
100
AcDbEntity
  8
VORLAGE_TEXT
100
AcDbMText
 10
412.6234021365
 20
124.4517683275
 30
0.0
 40
2.0
 41
0.0
 71
     2
 72
     1
  1
D
  7
SLDTEXTSTYLE0
 73
     1
 44
1.0
  0
MTEXT
  5
16E
330
1F
100
AcDbEntity
  8
TEXT-DEUTSCH
100
AcDbMText
 10
411.7952690469
 20
41.8539115219
 30
0.0
 40
1.8
 41
0.0
 71
     3
 72
     1
  1
Plotdatum: 21.09.2023
  7
SLDTEXTSTYLE0
 11
-3.269436733918102E-15
 21
1.0
 31
0.0
 73
     1
 44
1.0
  0
MTEXT
  5
16F
330
1F
100
AcDbEntity
  8
VORLAGE_TEXT
100
AcDbMText
 10
412.557933251
 20
8.2549718046
 30
0.0
 40
1.8
 41
0.0
 71
     2
 72
     1
  1
A3
  7
SLDTEXTSTYLE0
 73
     1
 44
1.0
  0
MTEXT
  5
170
330
1F
100
AcDbEntity
  8
VORLAGE_TEXT
100
AcDbMText
 10
390.594604279
 20
8.3847467643
 30
0.0
 40
1.8
 41
0.0
 71
     2
 72
     1
  1
CAD-System: SolidWorks
  7
SLDTEXTSTYLE0
 73
     1
 44
1.0
  0
MTEXT
  5
171
330
1F
100
AcDbEntity
  8
TEXT
100
AcDbMText
 10
404.0541923444
 20
28.4394692021
 30
0.0
 40
5.0
 41
0.0
 71
     2
 72
     1
  1
-
  7
SLDTEXTSTYLE0
 73
     1
 44
1.0
  0
MTEXT
  5
172
330
1F
100
AcDbEntity
  8
TEXT
100
AcDbMText
 10
249.556836311
 20
38.5581729516
 30
0.0
 40
2.0
 41
0.0
 71
     1
 72
     1
  1
Freigegeben
  7
SLDTEXTSTYLE0
 73
     1
 44
1.0
  0
MTEXT
  5
173
330
1F
100
AcDbEntity
  8
TEXT
100
AcDbMText
 10
284.0823755556
 20
43.5473338598
 30
0.0
 40
2.0
 41
0.0
 71
     2
 72
     1
  1
nae
  7
SLDTEXTSTYLE0
 73
     1
 44
1.0
  0
MTEXT
  5
174
330
1F
100
AcDbEntity
  8
TEXT
100
AcDbMText
 10
249.5284668163
 20
43.5603133928
 30
0.0
 40
2.0
 41
0.0
 71
     1
 72
     1
  1
21.09.2023
  7
SLDTEXTSTYLE0
 73
     1
 44
1.0
  0
MTEXT
  5
175
330
1F
100
AcDbEntity
  8
TEXT
100
AcDbMText
 10
284.1309088133
 20
48.5138972561
 30
0.0
 40
2.0
 41
0.0
 71
     2
 72
     1
  1
AB
  7
SLDTEXTSTYLE0
 73
     1
 44
1.0
  0
MTEXT
  5
176
330
1F
100
AcDbEntity
  8
TEXT
100
AcDbMText
 10
249.5284668163
 20
48.4989062069
 30
0.0
 40
2.0
 41
0.0
 71
     1
 72
     1
  1
05.02.2021
  7
SLDTEXTSTYLE0
 73
     1
 44
1.0
  0
MTEXT
  5
177
330
1F
100
AcDbEntity
  8
0
  6
Continuous
 62
     7
370
     0
100
AcDbMText
 10
372.2007348103
 20
38.8723054925
 30
0.0
 40
1.5
 41
0.0
 71
     1
 72
     1
  1
Copyright reserved! © ACO AG
  7
SLDTEXTSTYLE0
 73
     1
 44
1.0
  0
INSERT
  5
180
330
1F
100
AcDbEntity
  8
0
  6
Continuous
 62
     7
370
     0
100
AcDbBlockReference
  2
SW_NOTE_0_3
 10
372.2203831445
 20
51.2202922854
 30
0.0
  0
MTEXT
  5
181
330
1F
100
AcDbEntity
  8
TEXT
100
AcDbMText
 10
364.9468572407
 20
18.4594173137
 30
0.0
 40
2.0
 41
0.0
 71
     1
 72
     1
  1
Erstausgabe
  7
SLDTEXTSTYLE0
 73
     1
 44
1.0
  0
MTEXT
  5
182
330
1F
100
AcDbEntity
  8
TEXT
100
AcDbMText
 10
330.2607505021
 20
18.524501801
 30
0.0
 40
2.0
 41
0.0
 71
     2
 72
     1
  1
-
  7
SLDTEXTSTYLE0
 73
     1
 44
1.0
  0
MTEXT
  5
183
330
1F
100
AcDbEntity
  8
VORLAGE_TEXT
100
AcDbMText
 10
311.764909851
 20
46.3490312465
 30
0.0
 40
5.0
 41
0.0
 71
     2
 72
     1
  1
1:1
  7
SLDTEXTSTYLE0
 73
     1
 44
1.0
  0
MTEXT
  5
184
330
1F
100
AcDbEntity
  8
VORLAGE_TEXT
100
AcDbMText
 10
230.1851195342
 20
38.7793829468
 30
0.0
 40
2.0
 41
0.0
 71
     1
 72
     1
  1
Status:
  7
SLDTEXTSTYLE0
 73
     1
 44
1.0
  0
MTEXT
  5
185
330
1F
100
AcDbEntity
  8
TEXT
100
AcDbMText
 10
344.926838705
 20
28.2772828851
 30
0.0
 40
5.0
 41
0.0
 71
     1
 72
     1
  1
98578
  7
SLDTEXTSTYLE0
 73
     1
 44
1.0
  0
MTEXT
  5
186
330
1F
100
AcDbEntity
  8
TEXT
100
AcDbMText
 10
231.1132118803
 20
14.9211049657
 30
0.0
 40
2.5
 41
0.0
 71
     1
 72
     1
  1
Art. Nr.: 2021467
  7
SLDTEXTSTYLE0
 73
     1
 44
1.0
  0
MTEXT
  5
187
330
1F
100
AcDbEntity
  8
TEXT
100
AcDbMText
 10
231.1475981734
 20
21.4529560996
 30
0.0
 40
2.5
 41
0.0
 71
     1
 72
     1
  1
Pipe Rohre mit Steckmuffe DN70
  7
SLDTEXTSTYLE0
 73
     1
 44
1.0
  0
MTEXT
  5
188
330
1F
100
AcDbEntity
  8
TEXT
100
AcDbMText
 10
231.1159560181
 20
33.0904969858
 30
0.0
 40
2.5
 41
0.0
 71
     1
 72
     1
  1
Haustechnik
  7
SLDTEXTSTYLE0
 73
     1
 44
1.0
  0
MTEXT
  5
189
330
1F
100
AcDbEntity
  8
TEXT
100
AcDbMText
 10
231.1475981734
 20
28.0307932366
 30
0.0
 40
3.5
 41
0.0
 71
     1
 72
     1
  1
Pipe Rohr mit Steckmuffe DN70 x 2000
  7
SLDTEXTSTYLE0
 73
     1
 44
1.0
  0
MTEXT
  5
18A
330
1F
100
AcDbEntity
  8
VORLAGE_TEXT
100
AcDbMText
 10
348.2746465368
 20
53.819119072
 30
0.0
 40
2.0
 41
0.0
 71
     1
 72
     1
  1
Projektion: ISO-E
  7
SLDTEXTSTYLE0
 73
     1
 44
1.0
  0
MTEXT
  5
18B
330
1F
100
AcDbEntity
  8
TEXT
100
AcDbMText
 10
337.7677091855
 20
49.3670227094
 30
0.0
 40
2.5
 41
0.0
 71
     2
 72
     1
  1
Millimeter
  7
SLDTEXTSTYLE0
 73
     1
 44
1.0
  0
MTEXT
  5
18C
330
1F
100
AcDbEntity
  8
VORLAGE_TEXT
100
AcDbMText
 10
337.6323777421
 20
53.855374072
 30
0.0
 40
2.0
 41
0.0
 71
     2
 72
     1
  1
Masseinheit:
  7
SLDTEXTSTYLE0
 73
     1
 44
1.0
  0
MTEXT
  5
18D
330
1F
100
AcDbEntity
  8
VORLAGE_TEXT
100
AcDbMText
 10
337.6114490186
 20
43.5452078816
 30
0.0
 40
2.0
 41
0.0
 71
     2
 72
     1
  1
Blatt / Anz.:
  7
SLDTEXTSTYLE0
 73
     1
 44
1.0
  0
MTEXT
  5
18E
330
1F
100
AcDbEntity
  8
VORLAGE_TEXT
100
AcDbMText
 10
329.2895578243
 20
28.4139191092
 30
0.0
 40
5.0
 41
0.0
 71
     1
 72
     1
  1
CH
  7
SLDTEXTSTYLE0
 73
     1
 44
1.0
  0
MTEXT
  5
18F
330
1F
100
AcDbEntity
  8
VORLAGE_TEXT
100
AcDbMText
 10
330.40704
 20
33.692638072
 30
0.0
 40
2.0
 41
0.0
 71
     1
 72
     1
  1
Zeichnung Nr.:
  7
SLDTEXTSTYLE0
 73
     1
 44
1.0
  0
MTEXT
  5
190
330
1F
100
AcDbEntity
  8
VORLAGE_TEXT
100
AcDbMText
 10
269.897953
 20
75.161075072
 30
0.0
 40
2.0
 41
0.0
 71
     1
 72
     1
  1
Gewicht:
  7
SLDTEXTSTYLE0
 73
     1
 44
1.0
  0
MTEXT
  5
191
330
1F
100
AcDbEntity
  8
VORLAGE_TEXT
100
AcDbMText
 10
230.0
 20
64.542328072
 30
0.0
 40
2.0
 41
0.0
 71
     1
 72
     1
  1
zul. Abweichung:
  7
SLDTEXTSTYLE0
 73
     1
 44
1.0
  0
MTEXT
  5
192
330
1F
100
AcDbEntity
  8
VORLAGE_TEXT
100
AcDbMText
 10
269.612607
 20
64.542328072
 30
0.0
 40
2.0
 41
0.0
 71
     1
 72
     1
  1
Oberfläche:
  7
SLDTEXTSTYLE0
 73
     1
 44
1.0
  0
MTEXT
  5
193
330
1F
100
AcDbEntity
  8
VORLAGE_TEXT
100
AcDbMText
 10
230.261411
 20
43.4433838912
 30
0.0
 40
2.0
 41
0.0
 71
     1
 72
     1
  1
Freigegeben:
  7
SLDTEXTSTYLE0
 73
     1
 44
1.0
  0
MTEXT
  5
194
330
1F
100
AcDbEntity
  8
VORLAGE_TEXT
100
AcDbMText
 10
230.0
 20
75.161075072
 30
0.0
 40
2.0
 41
0.0
 71
     1
 72
     1
  1
Werkstoff:
  7
SLDTEXTSTYLE0
 73
     1
 44
1.0
  0
MTEXT
  5
195
330
1F
100
AcDbEntity
  8
VORLAGE_TEXT
100
AcDbMText
 10
254.035545
 20
53.129475072
 30
0.0
 40
2.0
 41
0.0
 71
     1
 72
     1
  1
Datum:
  7
SLDTEXTSTYLE0
 73
     1
 44
1.0
  0
MTEXT
  5
196
330
1F
100
AcDbEntity
  8
VORLAGE_TEXT
100
AcDbMText
 10
279.934928
 20
53.136060072
 30
0.0
 40
2.0
 41
0.0
 71
     1
 72
     1
  1
Name:
  7
SLDTEXTSTYLE0
 73
     1
 44
1.0
  0
MTEXT
  5
197
330
1F
100
AcDbEntity
  8
VORLAGE_TEXT
100
AcDbMText
 10
312.162455406
 20
53.881591072
 30
0.0
 40
2.0
 41
0.0
 71
     2
 72
     1
  1
Massstab:
  7
SLDTEXTSTYLE0
 73
     1
 44
1.0
  0
MTEXT
  5
198
330
1F
100
AcDbEntity
  8
VORLAGE_TEXT
100
AcDbMText
 10
403.9552944035
 20
33.324874072
 30
0.0
 40
2.0
 41
0.0
 71
     2
 72
     1
  1
Index:
  7
SLDTEXTSTYLE0
 73
     1
 44
1.0
  0
MTEXT
  5
199
330
1F
100
AcDbEntity
  8
VORLAGE_TEXT
100
AcDbMText
 10
230.261411
 20
48.4499477886
 30
0.0
 40
2.0
 41
0.0
 71
     1
 72
     1
  1
Erstellt:
  7
SLDTEXTSTYLE0
 73
     1
 44
1.0
  0
MTEXT
  5
19B
330
1F
100
AcDbEntity
  8
VORLAGE_TEXT
100
AcDbMText
 10
337.6348165843
 20
39.869706576
 30
0.0
 40
2.5
 41
0.0
 71
     2
 72
     1
  1
1 / 1
  7
SLDTEXTSTYLE1
 73
     1
 44
1.0
  0
MTEXT
  5
19C
330
1F
100
AcDbEntity
  8
TEXT
100
AcDbMText
 10
269.612607
 20
60.8119428599
 30
0.0
 40
3.0
 41
0.0
 71
     1
 72
     1
  1
DIN ISO 1302
  7
SLDTEXTSTYLE0
 73
     1
 44
1.0
  0
MTEXT
  5
19D
330
1F
100
AcDbEntity
  8
TEXT
100
AcDbMText
 10
230.0
 20
60.8119428599
 30
0.0
 40
3.0
 41
0.0
 71
     1
 72
     1
  1
Norm
  7
SLDTEXTSTYLE0
 73
     1
 44
1.0
  0
MTEXT
  5
19E
330
1F
100
AcDbEntity
  8
TEXT
100
AcDbMText
 10
269.612607
 20
71.2121947186
 30
0.0
 40
3.0
 41
0.0
 71
     1
 72
     1
  1
3.85 kg
  7
SLDTEXTSTYLE0
 73
     1
 44
1.0
  0
MTEXT
  5
19F
330
1F
100
AcDbEntity
  8
TEXT
100
AcDbMText
 10
230.0
 20
71.2121947186
 30
0.0
 40
3.0
 41
0.0
 71
     1
 72
     1
  1
1.4404 / EPDM
  7
SLDTEXTSTYLE0
 73
     1
 44
1.0
  0
LINE
  5
1A0
330
1F
100
AcDbEntity
  8
0
  6
Continuous
 62
     7
370
    25
100
AcDbLine
 10
346.7356479153
 20
268.2408576516
 30
0.0
 11
346.8258806202
 21
267.9720793727
 31
0.0
  0
ARC
  5
1A1
330
1F
100
AcDbEntity
  8
0
  6
Continuous
 62
     7
370
    25
100
AcDbCircle
 10
345.6525920219
 20
267.8732923661
 30
0.0
 40
1.918918343496861
100
AcDbArc
 50
359.9872554873
 51
48.5763771385
  0
ARC
  5
1A2
330
1F
100
AcDbEntity
  8
0
  6
Continuous
 62
     7
370
    25
100
AcDbCircle
 10
340.8276310556
 20
267.8494555609
 30
0.0
 40
1.970703249151818
100
AcDbArc
 50
133.0953292218
 51
178.6164543452
  0
LINE
  5
1A3
330
1F
100
AcDbEntity
  8
0
  6
Continuous
 62
     7
370
    25
100
AcDbLine
 10
347.5755334589
 20
266.9219331962
 30
0.0
 11
347.5755334589
 21
267.911001746
 31
0.0
  0
LINE
  5
1A4
330
1F
100
AcDbEntity
  8
0
  6
Continuous
 62
     7
370
    25
100
AcDbLine
 10
338.8555334589
 20
267.911001746
 30
0.0
 11
338.8555334589
 21
266.9219331962
 31
0.0
  0
LINE
  5
1A5
330
1F
100
AcDbEntity
  8
0
  6
Continuous
 62
     7
370
    25
100
AcDbLine
 10
347.1155334589
 20
268.3298514224
 30
0.0
 11
347.1155334589
 21
268.6441853305
 31
0.0
  0
LINE
  5
1A6
330
1F
100
AcDbEntity
  8
0
  6
Continuous
 62
     7
370
    25
100
AcDbLine
 10
339.3155334589
 20
268.6441853305
 30
0.0
 11
339.3155334589
 21
268.3298514224
 31
0.0
  0
LWPOLYLINE
  5
1A7
330
1F
100
AcDbEntity
  8
0
  6
Continuous
 62
     7
370
    25
100
AcDbPolyline
 90
       20
 70
   128
 43
0.0
 10
339.4300649954
 20
268.502879473
 10
339.4687014506
 20
268.6659474332
 10
339.5342526925
 20
268.830774893
 10
339.6242350772
 20
268.9914159009
 10
339.7381628569
 20
269.1479335985
 10
339.8756778153
 20
269.2998747776
 10
340.0362835846
 20
269.4463719459
 10
340.2192183748
 20
269.586309099
 10
340.4233374385
 20
269.7184165532
 10
340.6472205217
 20
269.8414590153
 10
340.8891720182
 20
269.9542736951
 10
341.147121842
 20
270.0557650231
 10
341.4185377717
 20
270.1449370117
 10
341.7001616745
 20
270.2209050818
 10
341.9872496333
 20
270.2828884697
 10
342.2709729498
 20
270.3301421417
 10
342.5415755718
 20
270.3630861685
 10
342.7367986089
 20
270.3798195016
 10
342.9461623667
 20
270.3913909232
 10
343.2155334589
 20
270.3967310419
  0
LWPOLYLINE
  5
1A8
330
1F
100
AcDbEntity
  8
0
  6
Continuous
 62
     7
370
    25
100
AcDbPolyline
 90
       23
 70
   128
 43
0.0
 10
343.2155334589
 20
270.3967310419
 10
343.5701311275
 20
270.3874689707
 10
343.7129869132
 20
270.3784655207
 10
343.9479343386
 20
270.3569420957
 10
344.1878976774
 20
270.3260983473
 10
344.4396910434
 20
270.2836727711
 10
344.6949023466
 20
270.2295016492
 10
344.9489527404
 20
270.1634853729
 10
345.1978577376
 20
270.0858758739
 10
345.4383429264
 20
269.9971521782
 10
345.6676583681
 20
269.8979789215
 10
345.8834915483
 20
269.7891643774
 10
346.083912527
 20
269.6716216755
 10
346.2673407853
 20
269.5463265777
 10
346.4325224811
 20
269.4142659317
 10
346.5784480968
 20
269.2764310974
 10
346.7044282684
 20
269.1336498886
 10
346.8099938464
 20
268.9864795866
 10
346.8947674605
 20
268.8350316477
 10
346.9582216521
 20
268.678744371
 10
346.9992381432
 20
268.5161693375
 10
347.0154256291
 20
268.3450162287
 10
347.0136276306
 20
268.3197530183
  0
LWPOLYLINE
  5
1A9
330
1F
100
AcDbEntity
  8
0
  6
Continuous
 62
     7
370
    25
100
AcDbPolyline
 90
       23
 70
   128
 43
0.0
 10
343.2155334589
 20
264.2781450852
 10
343.5944650937
 20
264.2879550023
 10
343.7472351725
 20
264.2974962288
 10
343.998849542
 20
264.3203370825
 10
344.2564666109
 20
264.3531463258
 10
344.5277551834
 20
264.3984333273
 10
344.8040819974
 20
264.4565363468
 10
345.0809238192
 20
264.5277900136
 10
345.3543674763
 20
264.6122231708
 10
345.6212176375
 20
264.7096946299
 10
345.8787764359
 20
264.8199381232
 10
346.1247256566
 20
264.9426040496
 10
346.3570383976
 20
265.0772907387
 10
346.5739088742
 20
265.2235670671
 10
346.7736518992
 20
265.380951945
 10
346.9546881914
 20
265.5489270608
 10
347.1155267178
 20
265.7269495666
 10
347.2547085506
 20
265.914417669
 10
347.3707942508
 20
266.1106627654
 10
347.4623550261
 20
266.3149623518
 10
347.5279449396
 20
266.5265764835
 10
347.5660292129
 20
266.7447869314
 10
347.5715103179
 20
266.8837969843
  0
LWPOLYLINE
  5
1AA
330
1F
100
AcDbEntity
  8
0
  6
Continuous
 62
     7
370
    25
100
AcDbPolyline
 90
       23
 70
   128
 43
0.0
 10
338.8575023353
 20
266.9079697995
 10
338.8562008593
 20
266.8749621747
 10
338.8786947349
 20
266.6456546417
 10
338.934924679
 20
266.4123942687
 10
339.0157546141
 20
266.2020739956
 10
339.1242367742
 20
265.996591509
 10
339.2596771125
 20
265.7975620878
 10
339.4210013823
 20
265.6065873717
 10
339.6067970056
 20
265.4251330624
 10
339.8154227134
 20
265.2544454619
 10
340.0451066128
 20
265.0955453495
 10
340.2939391425
 20
264.9492984761
 10
340.5599316601
 20
264.8164147961
 10
340.8410250592
 20
264.6974747365
 10
341.1348900102
 20
264.5930094295
 10
341.4387198745
 20
264.5035026341
 10
341.7487141073
 20
264.4293991379
 10
342.0585616312
 20
264.3711375598
 10
342.3534620326
 20
264.3293400692
 10
342.6023991287
 20
264.3039105816
 10
342.8127961999
 20
264.289229112
 10
343.0706556067
 20
264.2795766884
 10
343.2155334589
 20
264.2781450852
  0
LINE
  5
1AB
330
1F
100
AcDbEntity
  8
0
  6
Continuous
 62
     7
370
    25
100
AcDbLine
 10
347.0955334589
 20
264.4429483694
 30
0.0
 11
347.0955334589
 21
265.7048202289
 31
0.0
  0
LINE
  5
1AC
330
1F
100
AcDbEntity
  8
0
  6
Continuous
 62
     7
370
    25
100
AcDbLine
 10
339.3355334589
 20
265.7077637938
 30
0.0
 11
339.3355334589
 21
264.4429483694
 31
0.0
  0
ARC
  5
1AD
330
1F
100
AcDbEntity
  8
0
  6
Continuous
 62
     7
370
    25
100
AcDbCircle
 10
345.7734968582
 20
264.3972370712
 30
0.0
 40
1.319257434940788
100
AcDbArc
 50
337.4420042087
 51
1.842431892
  0
ARC
  5
1AE
330
1F
100
AcDbEntity
  8
0
  6
Continuous
 62
     7
370
    25
100
AcDbCircle
 10
340.6282271995
 20
264.3957936137
 30
0.0
 40
1.290148161620517
100
AcDbArc
 50
178.0039822638
 51
204.8638256803
  0
LINE
  5
1AF
330
1F
100
AcDbEntity
  8
0
  6
Continuous
 62
     7
370
    25
100
AcDbLine
 10
339.4400539298
 20
263.888816769
 30
0.0
 11
339.5456496252
 21
263.6134603355
 31
0.0
  0
LINE
  5
1B0
330
1F
100
AcDbEntity
  8
0
  6
Continuous
 62
     7
370
    25
100
AcDbLine
 10
346.8854172926
 20
263.6134603355
 30
0.0
 11
346.9910129879
 21
263.888816769
 31
0.0
  0
LINE
  5
1B1
330
1F
100
AcDbEntity
  8
0
  6
Continuous
 62
     7
370
    25
100
AcDbLine
 10
346.9655334589
 20
101.7384158323
 30
0.0
 11
346.9655334589
 21
263.8223751189
 31
0.0
  0
LINE
  5
1B2
330
1F
100
AcDbEntity
  8
0
  6
Continuous
 62
     7
370
    25
100
AcDbLine
 10
339.4655334589
 20
263.8223751189
 30
0.0
 11
339.4655334589
 21
101.7384158323
 31
0.0
  0
ARC
  5
1B3
330
1F
100
AcDbEntity
  8
0
  6
Continuous
 62
     7
370
    25
100
AcDbCircle
 10
340.5821477474
 20
101.6925375431
 30
0.0
 40
1.113880768818391
100
AcDbArc
 50
177.5548923125
 51
201.1711659337
  0
ARC
  5
1B4
330
1F
100
AcDbEntity
  8
0
  6
Continuous
 62
     7
370
    25
100
AcDbCircle
 10
345.8156760046
 20
101.6881297126
 30
0.0
 40
1.146590236104052
100
AcDbArc
 50
339.1419888269
 51
0.9192719069
  0
LINE
  5
1B5
330
1F
100
AcDbEntity
  8
0
  6
Continuous
 62
     7
370
    25
100
AcDbLine
 10
339.5301012596
 20
101.3179119478
 30
0.0
 11
339.664029901
 21
100.8861682302
 31
0.0
  0
LINE
  5
1B6
330
1F
100
AcDbEntity
  8
0
  6
Continuous
 62
     7
370
    25
100
AcDbLine
 10
346.7670370167
 20
100.8861682302
 30
0.0
 11
346.9009656582
 21
101.3179119478
 31
0.0
  0
ARC
  5
1B7
330
1F
100
AcDbEntity
  8
0
  6
Continuous
 62
     7
370
    25
100
AcDbCircle
 10
343.2680767028
 20
264.0863233432
 30
0.0
 40
5.774071909331906
100
AcDbArc
 50
72.9951323838
 51
87.7472905997
  0
ARC
  5
1B8
330
1F
100
AcDbEntity
  8
0
  6
Continuous
 62
     7
370
    25
100
AcDbCircle
 10
343.1770925565
 20
263.9873847323
 30
0.0
 40
5.873624853084094
100
AcDbArc
 50
91.9771122376
 51
105.6307814634
  0
LINE
  5
1B9
330
1F
100
AcDbEntity
  8
0
  6
Continuous
 62
     7
370
    25
100
AcDbLine
 10
345.8354431073
 20
268.5334433059
 30
0.0
 11
345.7640746619
 21
268.5678727182
 31
0.0
  0
ARC
  5
1BA
330
1F
100
AcDbEntity
  8
0
  6
Continuous
 62
     7
370
    25
100
AcDbCircle
 10
343.2155334589
 20
262.6091978811
 30
0.0
 40
6.489398281258256
100
AcDbArc
 50
69.8570637325
 51
110.1429362675
  0
LINE
  5
1BB
330
1F
100
AcDbEntity
  8
0
  6
Continuous
 62
     7
370
    25
100
AcDbLine
 10
340.6669922558
 20
268.5678727182
 30
0.0
 11
340.5956238104
 21
268.5334433059
 31
0.0
  0
ARC
  5
1BC
330
1F
100
AcDbEntity
  8
0
  6
Continuous
 62
     7
370
    25
100
AcDbCircle
 10
343.2155334589
 20
262.0551566652
 30
0.0
 40
7.036739512812499
100
AcDbArc
 50
85.8473384236
 51
94.1526615764
  0
LWPOLYLINE
  5
1BD
330
1F
100
AcDbEntity
  8
0
  6
Continuous
 62
     7
370
    25
100
AcDbPolyline
 90
       29
 70
   128
 43
0.0
 10
339.676735401
 20
267.8449163049
 10
339.688720412
 20
267.8682022642
 10
339.8105663284
 20
268.0647898147
 10
339.9652039396
 20
268.253536202
 10
340.1511440009
 20
268.4326236952
 10
340.3665958078
 20
268.600327584
 10
340.6094844417
 20
268.7550327881
 10
340.8774707523
 20
268.8952494118
 10
341.1679738848
 20
269.0196270925
 10
341.4781961353
 20
269.1269680051
 10
341.805149894
 20
269.2162383978
 10
342.1456864174
 20
269.2865785481
 10
342.4965261527
 20
269.3373110419
 10
342.8542903213
 20
269.3679472974
 10
343.2155334589
 20
269.3781922708
 10
343.5767765964
 20
269.3679472974
 10
343.9345407651
 20
269.3373110419
 10
344.2853805003
 20
269.2865785481
 10
344.6259170237
 20
269.2162383978
 10
344.9528707824
 20
269.1269680051
 10
345.263093033
 20
269.0196270925
 10
345.5535961655
 20
268.8952494118
 10
345.821582476
 20
268.7550327881
 10
346.0644711099
 20
268.600327584
 10
346.2799229168
 20
268.4326236952
 10
346.4658629781
 20
268.253536202
 10
346.6205005893
 20
268.0647898147
 10
346.7423465057
 20
267.8682022642
 10
346.7543315168
 20
267.8449163049
  0
LWPOLYLINE
  5
1BE
330
1F
100
AcDbEntity
  8
0
  6
Continuous
 62
     7
370
    25
100
AcDbPolyline
 90
       20
 70
   128
 43
0.0
 10
340.4356576582
 20
268.4233590601
 10
340.5227862953
 20
268.4810227616
 10
340.7787885992
 20
268.6288097459
 10
341.0590083683
 20
268.7611475117
 10
341.3606606526
 20
268.8767208268
 10
341.6807474962
 20
268.9743810717
 10
342.0160877322
 20
269.0531576551
 10
342.3633485987
 20
269.1122676597
 10
342.7190788613
 20
269.1511236239
 10
343.0797431126
 20
269.1693393796
 10
343.4417569094
 20
269.1667338905
 10
343.8015223959
 20
269.143333051
 10
344.1554640612
 20
269.0993694293
 10
344.5000642738
 20
269.0352799555
 10
344.831898242
 20
268.9517015796
 10
345.1476680509
 20
268.8494649412
 10
345.4442354381
 20
268.7295861137
 10
345.7186529838
 20
268.593256507
 10
345.9681934031
 20
268.4418310258
 10
345.9954092596
 20
268.4233590601
  0
LWPOLYLINE
  5
1BF
330
1F
100
AcDbEntity
  8
0
  6
Continuous
 62
     7
370
    25
100
AcDbPolyline
 90
       28
 70
   128
 43
0.0
 10
346.6294230619
 20
267.6807272856
 10
346.5719124004
 20
267.7951505979
 10
346.4475701856
 20
267.9849709697
 10
346.2911065377
 20
268.1667009787
 10
346.1040764628
 20
268.3385345103
 10
345.8883387498
 20
268.4987638058
 10
345.6460374971
 20
268.6457964345
 10
345.3795808032
 20
268.7781711199
 10
345.0916168346
 20
268.8945722631
 10
344.7850075066
 20
268.9938430171
 10
344.4628000403
 20
269.0749967847
 10
344.1281966784
 20
269.1372270231
 10
343.7845228594
 20
269.1799152604
 10
343.4351941681
 20
269.2026372416
 10
343.08368239
 20
269.2051671455
 10
342.733481007
 20
269.1874798288
 10
342.3880704779
 20
269.1497510759
 10
342.0508836476
 20
269.0923558523
 10
341.7252716304
 20
269.0158645773
 10
341.4144705048
 20
268.9210374556
 10
341.121569152
 20
268.8088169219
 10
340.8494785572
 20
268.6803182741
 10
340.600902879
 20
268.5368185896
 10
340.3783125742
 20
268.3797440326
 10
340.1839198453
 20
268.2106556808
 10
340.0196566544
 20
268.0312340101
 10
339.887155523
 20
267.8432621936
 10
339.8016438559
 20
267.6807272856
  0
LWPOLYLINE
  5
1C0
330
1F
100
AcDbEntity
  8
0
  6
Continuous
 62
     7
370
    25
100
AcDbPolyline
 90
       28
 70
   128
 43
0.0
 10
339.8168763728
 20
267.6629439469
 10
339.829813017
 20
267.6897355798
 10
339.9451936094
 20
267.8846031883
 10
340.0941323142
 20
268.071732395
 10
340.2751008187
 20
268.2492030009
 10
340.4862421411
 20
268.4151939174
 10
340.7253896857
 20
268.5680018533
 10
340.9900894751
 20
268.7060587922
 10
341.2776253314
 20
268.8279480831
 10
341.5850467474
 20
268.932418977
 10
341.9091991635
 20
269.0183994611
 10
342.2467563372
 20
269.0850072594
 10
342.5942544751
 20
269.1315588856
 10
342.9481277762
 20
269.1575766571
 10
343.3047450214
 20
269.1627935963
 10
343.6604468352
 20
269.1471561704
 10
344.0115832358
 20
269.1108248406
 10
344.3545510884
 20
269.0541724154
 10
344.6858310788
 20
268.9777802253
 10
345.0020238259
 20
268.8824321578
 10
345.2998847644
 20
268.7691066128
 10
345.576357438
 20
268.638966464
 10
345.8286048628
 20
268.4933471252
 10
346.0540386389
 20
268.3337428481
 10
346.2503455108
 20
268.1617913884
 10
346.4155111043
 20
267.9792572008
 10
346.5478405969
 20
267.7880133331
 10
346.614190545
 20
267.6629439469
  0
LINE
  5
1C1
330
1F
100
AcDbEntity
  8
0
  6
Continuous
 62
     7
370
    25
100
AcDbLine
 10
338.8555854374
 20
267.898711481
 30
0.0
 11
338.8555334589
 21
267.911001746
 31
0.0
  0
LINE
  5
1C2
330
1F
100
AcDbEntity
  8
0
  6
Continuous
 62
     7
370
    25
100
AcDbLine
 10
347.5755334589
 20
267.911001746
 30
0.0
 11
347.5751450794
 21
267.8774071813
 31
0.0
  0
LINE
  5
1C3
330
1F
100
AcDbEntity
  8
0
  6
Continuous
 62
     7
370
    25
100
AcDbLine
 10
338.8555854374
 20
266.9096429312
 30
0.0
 11
338.8555334589
 21
266.9219331962
 31
0.0
  0
LINE
  5
1C4
330
1F
100
AcDbEntity
  8
0
  6
Continuous
 62
     7
370
    25
100
AcDbLine
 10
347.5755334589
 20
266.9219331962
 30
0.0
 11
347.5751450794
 21
266.8883386315
 31
0.0
  0
LWPOLYLINE
  5
1C5
330
1F
100
AcDbEntity
  8
0
  6
Continuous
 62
     7
370
    25
100
AcDbPolyline
 90
       67
 70
   128
 43
0.0
 10
345.9732499055
 20
267.0521895124
 10
345.6986251379
 20
266.9080693694
 10
345.4015131076
 20
266.7796717612
 10
345.0846045071
 20
266.6681594768
 10
344.7507693097
 20
266.5745423884
 10
344.4030307787
 20
266.499668307
 10
344.0445380881
 20
266.4442153039
 10
343.6785378032
 20
266.4086855699
 10
343.3083444793
 20
266.393400868
 10
342.9373106444
 20
266.3984996188
 10
342.5687964384
 20
266.4239356471
 10
342.206139183
 20
266.4694786003
 10
341.8526231584
 20
266.5347160345
 10
341.5114498606
 20
266.6190571492
 10
341.1857090078
 20
266.7217381384
 10
340.8783505595
 20
266.841829107
 10
340.5921580014
 20
266.9782424927
 10
340.3297231378
 20
267.1297429147
 10
340.0934226193
 20
267.2949583618
 10
339.88539642
 20
267.4723926172
 10
339.7075284574
 20
267.6604388089
 10
339.5614295314
 20
267.8573939614
 10
339.4484227363
 20
268.0614744184
 10
339.3695314794
 20
268.2708319956
 10
339.3254702119
 20
268.4835707185
 10
339.3166379596
 20
268.6977639921
 10
339.3431147086
 20
268.9114720491
 10
339.4046606816
 20
269.1227595162
 10
339.5007185085
 20
269.3297129414
 10
339.6304182749
 20
269.5304581223
 10
339.7925853996
 20
269.7231770796
 10
339.9857512719
 20
269.9061245206
 10
340.2081665519
 20
270.0776436448
 10
340.4578170122
 20
270.2361811486
 10
340.7324417798
 20
270.3803012916
 10
341.0295538101
 20
270.5086988998
 10
341.3464624107
 20
270.6202111842
 10
341.680297608
 20
270.7138282726
 10
342.028036139
 20
270.788702354
 10
342.3865288296
 20
270.8441553572
 10
342.7525291145
 20
270.8796850911
 10
343.1227224384
 20
270.894969793
 10
343.4937562733
 20
270.8898710422
 10
343.8622704794
 20
270.8644350139
 10
344.2249277348
 20
270.8188920607
 10
344.5784437593
 20
270.7536546265
 10
344.9196170571
 20
270.6693135118
 10
345.24535791
 20
270.5666325226
 10
345.5527163583
 20
270.446541554
 10
345.8389089163
 20
270.3101281683
 10
346.10134378
 20
270.1586277463
 10
346.3376442985
 20
269.9934122992
 10
346.5456704978
 20
269.8159780438
 10
346.7235384603
 20
269.6279318521
 10
346.8696373864
 20
269.4309766996
 10
346.9826441814
 20
269.2268962426
 10
347.0615354384
 20
269.0175386654
 10
347.1055967059
 20
268.8047999425
 10
347.1144289582
 20
268.5906066689
 10
347.0879522091
 20
268.3768986119
 10
347.0264062362
 20
268.1656111448
 10
346.9303484092
 20
267.9586577196
 10
346.8006486428
 20
267.7579125387
 10
346.6384815182
 20
267.5651935814
 10
346.4453156458
 20
267.3822461404
 10
346.2229003659
 20
267.2107270162
 10
345.9732499055
 20
267.0521895124
  0
LWPOLYLINE
  5
1C6
330
1F
100
AcDbEntity
  8
0
  6
Continuous
 62
     7
370
    25
100
AcDbPolyline
 90
       66
 70
   128
 43
0.0
 10
340.5285276904
 20
270.195360743
 10
340.800405077
 20
270.3378293106
 10
341.0948318667
 20
270.4644847807
 10
341.4090590757
 20
270.5741446053
 10
341.7401528494
 20
270.6657849202
 10
342.0850218542
 20
270.7385501044
 10
342.4404461413
 20
270.791760769
 10
342.8031072099
 20
270.8249201003
 10
343.1696189912
 20
270.8377184987
 10
343.5365594635
 20
270.8300364689
 10
343.9005026026
 20
270.8019457359
 10
344.2580503692
 20
270.7537085755
 10
344.6058644364
 20
270.6857753649
 10
344.9406973579
 20
270.5987803781
 10
345.2594228888
 20
270.4935358641
 10
345.5590651749
 20
270.3710244624
 10
345.8368265367
 20
270.2323900291
 10
346.0901135913
 20
270.0789269563
 10
346.3165614658
 20
269.9120680876
 10
346.5140558772
 20
269.7333713392
 10
346.6807528736
 20
269.5445051545
 10
346.81509605
 20
269.3472329262
 10
346.9158310803
 20
269.1433965319
 10
346.9820174287
 20
268.9348991371
 10
347.0130371311
 20
268.7236874258
 10
347.0086005649
 20
268.5117334249
 10
346.9687491531
 20
268.3010160917
 10
346.8938549777
 20
268.0935028373
 10
346.7846173052
 20
267.8911311569
 10
346.6420560586
 20
267.6957905405
 10
346.4675022936
 20
267.5093048306
 10
346.2625857719
 20
267.3334151943
 10
346.0292197436
 20
267.1697638655
 10
345.7695830847
 20
267.0198788127
 10
345.4860999525
 20
266.8851594721
 10
345.1814171527
 20
266.7668636821
 10
344.8583794266
 20
266.6660959385
 10
344.5200028904
 20
266.5837970826
 10
344.1694468745
 20
266.5207355166
 10
343.809984426
 20
266.4775000294
 10
343.4449717491
 20
266.4544942991
 10
343.0778168686
 20
266.4519331239
 10
342.7119478109
 20
266.4698404169
 10
342.3507805966
 20
266.5080489826
 10
341.9976873469
 20
266.5662020778
 10
341.6559647982
 20
266.6437567427
 10
341.3288035218
 20
266.7399888703
 10
341.0192581345
 20
266.8539999673
 10
340.7302187782
 20
266.9847255426
 10
340.4643841354
 20
267.1309450469
 10
340.2242362326
 20
267.291293268
 10
340.012017266
 20
267.4642730777
 10
339.829708667
 20
267.6482694103
 10
339.6790126018
 20
267.8415643414
 10
339.5613360789
 20
268.0423531285
 10
339.4777778125
 20
268.2487610607
 10
339.4291179634
 20
268.4588609627
 10
339.4158108556
 20
268.6706911885
 10
339.437980734
 20
268.8822739362
 10
339.4954206044
 20
269.0916337147
 10
339.5875941661
 20
269.2968157882
 10
339.7136408196
 20
269.495904427
 10
339.8723837011
 20
269.6870407941
 10
340.0623406711
 20
269.8684403007
 10
340.2817381526
 20
270.0384092684
 10
340.5285276904
 20
270.195360743
  0
LINE
  5
1C7
330
1F
100
AcDbEntity
  8
0
  6
Continuous
 62
     7
370
    25
100
AcDbLine
 10
347.1153063624
 20
268.3055552175
 30
0.0
 11
347.1155334589
 21
268.3298514224
 31
0.0
  0
LINE
  5
1C8
330
1F
100
AcDbEntity
  8
0
  6
Continuous
 62
     7
370
    25
100
AcDbLine
 10
339.3155334589
 20
268.3298514224
 30
0.0
 11
339.3156679189
 21
268.3111561195
 31
0.0
  0
LINE
  5
1C9
330
1F
100
AcDbEntity
  8
0
  6
Continuous
 62
     7
370
    25
100
AcDbLine
 10
339.4527833114
 20
263.8567448653
 30
0.0
 11
339.4400539298
 21
263.888816769
 31
0.0
  0
LWPOLYLINE
  5
1CA
330
1F
100
AcDbEntity
  8
0
  6
Continuous
 62
     7
370
    25
100
AcDbPolyline
 90
       34
 70
   128
 43
0.0
 10
339.4655334589
 20
101.7384158323
 10
339.4789392199
 20
101.5555299431
 10
339.5269588078
 20
101.3481945134
 10
339.6094176234
 20
101.1445024751
 10
339.7255457709
 20
100.9463556457
 10
339.8742589932
 20
100.755604069
 10
340.0541687948
 20
100.5740287408
 10
340.2635954066
 20
100.4033249812
 10
340.5005834686
 20
100.2450866051
 10
340.7629202871
 20
100.1007910417
 10
341.048156494
 20
99.9717855397
 10
341.3536289157
 20
99.8592745888
 10
341.6764854384
 20
99.7643086733
 10
342.0137116378
 20
99.6877744645
 10
342.3621589238
 20
99.6303865416
 10
342.7185739378
 20
99.5926807203
 10
343.079628929
 20
99.5750090495
 10
343.4419528242
 20
99.577536525
 10
343.8021627028
 20
99.6002395484
 10
344.1568953821
 20
99.6429061476
 10
344.5028388189
 20
99.7051379561
 10
344.8367630323
 20
99.7863539324
 10
345.155550262
 20
99.8857957846
 10
345.4562240776
 20
100.0025350511
 10
345.7359771685
 20
100.1354817687
 10
345.9921975557
 20
100.2833946497
 10
346.2224929783
 20
100.4448926716
 10
346.42471323
 20
100.6184679706
 10
346.5969702349
 20
100.8024999211
 10
346.7376556757
 20
100.9952702663
 10
346.8454560103
 20
101.1949791614
 10
346.9193647361
 20
101.3997619783
 10
346.9586917872
 20
101.607706715
 10
346.9655334589
 20
101.7384158323
  0
LINE
  5
1CB
330
1F
100
AcDbEntity
  8
0
  6
Continuous
 62
     7
370
    25
100
AcDbLine
 10
339.5301012596
 20
101.3179119478
 30
0.0
 11
339.5385067585
 21
101.2917447634
 31
0.0
  0
LINE
  5
1CC
330
1F
100
AcDbEntity
  8
0
  6
Continuous
 62
     7
370
    25
100
AcDbLine
 10
346.8895735886
 20
101.282856951
 30
0.0
 11
346.9009656582
 21
101.3179119478
 31
0.0
  0
LWPOLYLINE
  5
1CD
330
1F
100
AcDbEntity
  8
0
  6
Continuous
 62
     7
370
    25
100
AcDbPolyline
 90
       30
 70
   128
 43
0.0
 10
339.664029901
 20
100.8861682302
 10
339.7082755406
 20
100.7645617734
 10
339.8100024031
 20
100.5653958071
 10
339.9455749632
 20
100.3730667294
 10
340.11364584
 20
100.1894859933
 10
340.3125446695
 20
100.0164781064
 10
340.5402947058
 20
99.855762499
 10
340.7946324667
 20
99.7089364349
 10
341.0730302293
 20
99.5774591375
 10
341.3727211516
 20
99.4626372873
 10
341.6907267705
 20
99.3656120354
 10
342.0238866033
 20
99.2873476623
 10
342.368889558
 20
99.2286219946
 10
342.7223068401
 20
99.1900186743
 10
343.0806260299
 20
99.1719213586
 10
343.4402859904
 20
99.1745099067
 10
343.7977122592
 20
99.1977585924
 10
344.1493525736
 20
99.24143636
 10
344.4917121741
 20
99.30510912
 10
344.8213885371
 20
99.388144064
 10
345.1351051909
 20
99.4897159535
 10
345.4297442785
 20
99.6088153213
 10
345.7023775441
 20
99.7442585044
 10
345.950295436
 20
99.8946994077
 10
346.1710340347
 20
100.0586428818
 10
346.3623995408
 20
100.2344595828
 10
346.5224900781
 20
100.4204021654
 10
346.6497145947
 20
100.6146226487
 10
346.7428086763
 20
100.8151907822
 10
346.7670370167
 20
100.8861682302
  0
ARC
  5
1CE
330
1F
100
AcDbEntity
  8
0
  6
Continuous
 62
     8
370
    18
100
AcDbCircle
 10
343.218117538
 20
263.5751973148
 30
0.0
 40
6.828516965151588
100
AcDbArc
 50
81.8002957022
 51
90.7841404215
  0
LWPOLYLINE
  5
1CF
330
1F
100
AcDbEntity
  8
0
  6
Continuous
 62
     8
370
    18
100
AcDbPolyline
 90
       21
 70
   128
 43
0.0
 10
340.1236759028
 20
269.5203345094
 10
340.1605997412
 20
269.5465426073
 10
340.4141988638
 20
269.7075876612
 10
340.6931673064
 20
269.8539873185
 10
340.9949786874
 20
269.9844157612
 10
341.3168997562
 20
270.0976918091
 10
341.6560151459
 20
270.1927896168
 10
342.0092537749
 20
270.2688479638
 10
342.3734166596
 20
270.325178054
 10
342.7452058844
 20
270.3612697533
 10
343.1212544685
 20
270.3767962097
 10
343.4981568578
 20
270.3716168132
 10
343.8724997658
 20
270.3457784693
 10
344.2408930852
 20
270.2995151739
 10
344.600000589
 20
270.2332458947
 10
344.9465701441
 20
270.1475707765
 10
345.2774631629
 20
270.0432657064
 10
345.5896830271
 20
269.9212752874
 10
345.8804022251
 20
269.7827042834
 10
346.1469879589
 20
269.6288076151
 10
346.3864016875
 20
269.4614603009
  0
LWPOLYLINE
  5
1D0
330
1F
100
AcDbEntity
  8
0
  6
Continuous
 62
     8
370
    18
100
AcDbPolyline
 90
       31
 70
   128
 43
0.0
 10
347.0084740916
 20
268.5088079681
 10
346.9493485901
 20
268.6559416539
 10
346.8373406051
 20
268.8582183467
 10
346.6925329738
 20
269.053432712
 10
346.5162370964
 20
269.2398168582
 10
346.3100495357
 20
269.4156828617
 10
346.0758375583
 20
269.5794380528
 10
345.815722224
 20
269.729599439
 10
345.5320591776
 20
269.8648071356
 10
345.2274173156
 20
269.9838366807
 10
344.9045555218
 20
270.0856101244
 10
344.5663976827
 20
270.1692057906
 10
344.216006208
 20
270.233866624
 10
343.8565542971
 20
270.2790070461
 10
343.4912972022
 20
270.3042182581
 10
343.1235427482
 20
270.3092719436
 10
342.7566213763
 20
270.2941223355
 10
342.3938559833
 20
270.2589066309
 10
342.0385318288
 20
270.2039437489
 10
341.6938667833
 20
270.1297314418
 10
341.3629821868
 20
270.0369417876
 10
341.0488745815
 20
269.926415104
 10
340.7543885745
 20
269.7991523375
 10
340.4821910768
 20
269.6563059997
 10
340.2347471509
 20
269.499169729
 10
340.0142976874
 20
269.3291665757
 10
339.8228391107
 20
269.1478361149
 10
339.6621052995
 20
268.9568205033
 10
339.5335518839
 20
268.7578496077
 10
339.4383430636
 20
268.5527253395
 10
339.422732454
 20
268.5092178121
  0
LWPOLYLINE
  5
1D1
330
1F
100
AcDbEntity
  8
0
  6
Continuous
 62
     8
370
    18
100
AcDbPolyline
 90
       31
 70
   128
 43
0.0
 10
339.4346185635
 20
268.4246014801
 10
339.5022823847
 20
268.6062852881
 10
339.6125573844
 20
268.8105787017
 10
339.756472401
 20
269.007774284
 10
339.9326837386
 20
269.196030873
 10
340.1395461596
 20
269.3735907676
 10
340.3751282452
 20
269.538796139
 10
340.637230429
 20
269.690104509
 10
340.9234055336
 20
269.8261031522
 10
341.2309816189
 20
269.9455222859
 10
341.5570869301
 20
270.0472469259
 10
341.8986767097
 20
270.1303272965
 10
342.2525616259
 20
270.1939876988
 10
342.6154375507
 20
270.2376337528
 10
342.9839164093
 20
270.2608579468
 10
343.3545578139
 20
270.2634434431
 10
343.7239011855
 20
270.2453661013
 10
344.0884980647
 20
270.2067947049
 10
344.4449443085
 20
270.1480893846
 10
344.7899118744
 20
270.069798256
 10
345.1201798933
 20
269.9726523025
 10
345.4326647417
 20
269.8575585495
 10
345.7244488326
 20
269.7255915965
 10
345.9928078566
 20
269.5779835833
 10
346.2352362179
 20
269.4161126862
 10
346.4494704282
 20
269.2414902501
 10
346.6335102403
 20
269.0557466776
 10
346.7856373241
 20
268.8606162066
 10
346.90443131
 20
268.6579207175
 10
346.9887830506
 20
268.4495527235
 10
346.9964483543
 20
268.4246014801
  0
LWPOLYLINE
  5
1D2
330
1F
100
AcDbEntity
  8
0
  6
Continuous
 62
     8
370
    18
100
AcDbPolyline
 90
       30
 70
   128
 43
0.0
 10
339.4424453231
 20
268.3835695491
 10
339.5022823847
 20
268.5397938364
 10
339.6125573844
 20
268.74408725
 10
339.756472401
 20
268.9412828323
 10
339.9326837386
 20
269.1295394213
 10
340.1395461596
 20
269.3070993159
 10
340.3751282452
 20
269.4723046873
 10
340.637230429
 20
269.6236130573
 10
340.9234055336
 20
269.7596117005
 10
341.2309816189
 20
269.8790308342
 10
341.5570869301
 20
269.9807554742
 10
341.8986767097
 20
270.0638358449
 10
342.2525616259
 20
270.1274962472
 10
342.6154375507
 20
270.1711423011
 10
342.9839164093
 20
270.1943664952
 10
343.3545578139
 20
270.1969519914
 10
343.7239011855
 20
270.1788746497
 10
344.0884980647
 20
270.1403032532
 10
344.4449443085
 20
270.0815979329
 10
344.7899118744
 20
270.0033068044
 10
345.1201798933
 20
269.9061608508
 10
345.4326647417
 20
269.7910670978
 10
345.7244488326
 20
269.6591001448
 10
345.9928078566
 20
269.5114921316
 10
346.2352362179
 20
269.3496212345
 10
346.4494704282
 20
269.1749987984
 10
346.6335102403
 20
268.989255226
 10
346.7856373241
 20
268.7941247549
 10
346.90443131
 20
268.5914292658
 10
346.9886215946
 20
268.3835695491
  0
LWPOLYLINE
  5
1D3
330
1F
100
AcDbEntity
  8
0
  6
Continuous
 62
     8
370
    18
100
AcDbPolyline
 90
       31
 70
   128
 43
0.0
 10
339.4446487271
 20
268.3731499242
 10
339.504876593
 20
268.5306284668
 10
339.6150745507
 20
268.7347791538
 10
339.7588890232
 20
268.9318369683
 10
339.9349772534
 20
269.1199620346
 10
340.141695153
 20
269.2973978796
 10
340.3771126527
 20
269.4624878327
 10
340.6390317226
 20
269.6136904933
 10
340.9250068951
 20
269.7495941231
 10
341.2323680969
 20
269.8689298264
 10
341.5582455794
 20
269.9705833979
 10
341.8995967123
 20
270.0536057257
 10
342.2532343921
 20
270.1172216526
 10
342.6158567989
 20
270.1608372138
 10
342.9840782252
 20
270.1840451827
 10
343.3544606866
 20
270.1866288726
 10
343.7235460219
 20
270.1685641603
 10
344.0878881807
 20
270.1300197112
 10
344.4440853986
 20
270.0713554045
 10
344.7888119581
 20
269.9931189729
 10
345.1188492401
 20
269.8960408889
 10
345.4311157754
 20
269.7810275445
 10
345.7226960157
 20
269.6491527883
 10
345.9908675546
 20
269.5016478993
 10
346.2331265469
 20
269.3398900909
 10
346.4472110856
 20
269.1653896522
 10
346.6311223209
 20
268.9797758467
 10
346.7831431234
 20
268.7847817007
 10
346.9018541157
 20
268.5822278218
 10
346.9861469252
 20
268.3740054011
 10
346.9864181907
 20
268.3731499242
  0
LWPOLYLINE
  5
1D4
330
1F
100
AcDbEntity
  8
0
  6
Continuous
 62
     8
370
    18
100
AcDbPolyline
 90
       31
 70
   128
 43
0.0
 10
339.550458249
 20
268.064816292
 10
339.5863209926
 20
268.1874581669
 10
339.67455475
 20
268.3908071312
 10
339.796890068
 20
268.5881842877
 10
339.9521487907
 20
268.7776887865
 10
340.1388356917
 20
268.9574955957
 10
340.3551528741
 20
269.1258730774
 10
340.5990170852
 20
269.2811996645
 10
340.8680797793
 20
269.421979477
 10
341.1597497355
 20
269.5468567283
 10
341.4712180129
 20
269.6546287822
 10
341.7994850015
 20
269.744257735
 10
342.1413893108
 20
269.8148804109
 10
342.4936382155
 20
269.8658166748
 10
342.852839366
 20
269.8965759827
 10
343.2155334589
 20
269.9068621057
 10
343.5782275518
 20
269.8965759827
 10
343.9374287023
 20
269.8658166748
 10
344.2896776069
 20
269.8148804109
 10
344.6315819163
 20
269.744257735
 10
344.9598489049
 20
269.6546287822
 10
345.2713171822
 20
269.5468567283
 10
345.5629871385
 20
269.421979477
 10
345.8320498326
 20
269.2811996645
 10
346.0759140436
 20
269.1258730774
 10
346.292231226
 20
268.9574955957
 10
346.478918127
 20
268.7776887865
 10
346.6341768497
 20
268.5881842877
 10
346.7565121678
 20
268.3908071312
 10
346.8447459251
 20
268.1874581669
 10
346.8806086687
 20
268.064816292
  0
LWPOLYLINE
  5
1D5
330
1F
100
AcDbEntity
  8
0
  6
Continuous
 62
     8
370
    18
100
AcDbPolyline
 90
       26
 70
   128
 43
0.0
 10
339.6918215255
 20
268.3012684056
 10
339.7878104242
 20
268.4267634009
 10
339.9624253417
 20
268.6133144434
 10
340.1674136531
 20
268.7892657003
 10
340.4008614379
 20
268.9529743621
 10
340.660589057
 20
269.1029119251
 10
340.9441715036
 20
269.2376784627
 10
341.2489610447
 20
269.356015696
 10
341.5721119427
 20
269.4568187422
 10
341.9106070245
 20
269.5391464304
 10
342.2612858529
 20
269.6022300891
 10
342.620874234
 20
269.6454807233
 10
342.9860147881
 20
269.6684945133
 10
343.3532982962
 20
269.6710565858
 10
343.7192955312
 20
269.6531430192
 10
344.0805892753
 20
269.6149210677
 10
344.4338062265
 20
269.5567475994
 10
344.775648493
 20
269.4791657642
 10
345.1029243858
 20
269.382899923
 10
345.412578218
 20
269.2688488838
 10
345.7017188353
 20
269.1380775106
 10
345.9676466096
 20
268.9918067803
 10
346.207878645
 20
268.8314023834
 10
346.4201719595
 20
268.6583619726
 10
346.6025444278
 20
268.4743011795
 10
346.7392453922
 20
268.3012684056
  0
LWPOLYLINE
  5
1D6
330
1F
100
AcDbEntity
  8
0
  6
Continuous
 62
     8
370
    18
100
AcDbPolyline
 90
       11
 70
   128
 43
0.0
 10
346.8510434862
 20
268.0077084002
 10
346.8085385033
 20
268.1598473035
 10
346.7211850242
 20
268.3611675241
 10
346.6000702041
 20
268.5565755157
 10
346.4463604451
 20
268.7441893924
 10
346.261536056
 20
268.92220233
 10
346.0473769967
 20
269.0888999667
 10
345.8059457362
 20
269.2426769131
 10
345.5395673893
 20
269.3820522131
 10
345.2508073253
 20
269.5056836065
 10
344.9567210514
 20
269.6079523309
  0
LWPOLYLINE
  5
1D7
330
1F
100
AcDbEntity
  8
0
  6
Continuous
 62
     8
370
    18
100
AcDbPolyline
 90
        3
 70
   128
 43
0.0
 10
343.4950385355
 20
269.8559329262
 10
343.2155334589
 20
269.8620973323
 10
342.9744509105
 20
269.8575129488
  0
LWPOLYLINE
  5
1D8
330
1F
100
AcDbEntity
  8
0
  6
Continuous
 62
     8
370
    18
100
AcDbPolyline
 90
       12
 70
   128
 43
0.0
 10
341.5945193507
 20
269.6437909202
 10
341.4886204564
 20
269.6123804552
 10
341.1802595925
 20
269.5056836065
 10
340.8914995284
 20
269.3820522131
 10
340.6251211816
 20
269.2426769131
 10
340.383689921
 20
269.0888999667
 10
340.1695308618
 20
268.92220233
 10
339.9847064727
 20
268.7441893924
 10
339.8309967136
 20
268.5565755157
 10
339.7098818935
 20
268.3611675241
 10
339.6225284145
 20
268.1598473035
 10
339.5800234316
 20
268.0077084002
  0
LWPOLYLINE
  5
1D9
330
1F
100
AcDbEntity
  8
0
  6
Continuous
 62
     8
370
    18
100
AcDbPolyline
 90
       28
 70
   128
 43
0.0
 10
339.6497764424
 20
268.2133278828
 10
339.6517819848
 20
268.2165032003
 10
339.7941302386
 20
268.4115519691
 10
339.9684232123
 20
268.5977590609
 10
340.1730335795
 20
268.7733859102
 10
340.4060509484
 20
268.9367927365
 10
340.6652996985
 20
269.0864538543
 10
340.948359294
 20
269.220971918
 10
341.2525868839
 20
269.3390909688
 10
341.5751419771
 20
269.4397081609
 10
341.9130129636
 20
269.5218840586
 10
342.263045233
 20
269.5848514077
 10
342.6219706283
 20
269.6280222992
 10
342.9864379598
 20
269.6509936579
 10
343.3530442943
 20
269.6535510066
 10
343.7183667272
 20
269.6356704678
 10
344.0789943413
 20
269.5975189875
 10
344.4315600538
 20
269.5394527757
 10
344.7727720536
 20
269.4620139809
 10
345.0994445363
 20
269.3659256284
 10
345.4085274488
 20
269.2520848692
 10
345.6971349673
 20
269.1215546037
 10
345.9625724411
 20
268.975553558
 10
346.2023615522
 20
268.8154449044
 10
346.414263454
 20
268.6427235343
 10
346.5962996758
 20
268.4590021006
 10
346.7467705943
 20
268.2659959608
 10
346.7702981375
 20
268.2305486217
  0
LWPOLYLINE
  5
1DA
330
1F
100
AcDbEntity
  8
0
  6
Continuous
 62
     8
370
    18
100
AcDbPolyline
 90
       27
 70
   128
 43
0.0
 10
346.7240581318
 20
268.2524785022
 10
346.5786501387
 20
268.4382243905
 10
346.3975642503
 20
268.620986693
 10
346.1867685978
 20
268.7928063586
 10
345.9482313234
 20
268.9520791533
 10
345.6841795853
 20
269.0973179899
 10
345.3970787634
 20
269.2271668125
 10
345.0896094408
 20
269.3404132578
 10
344.7646423758
 20
269.435999974
 10
344.4252116981
 20
269.5130344939
 10
344.0744865807
 20
269.5707975668
 10
343.7157416494
 20
269.6087498745
 10
343.3523264089
 20
269.6265370666
 10
342.9876339696
 20
269.6239930688
 10
342.6250693664
 20
269.6011416337
 10
342.2680177674
 20
269.5581961191
 10
341.919812867
 20
269.4955574955
 10
341.5837057607
 20
269.4138106031
 10
341.26283459
 20
269.3137186905
 10
340.9601952425
 20
269.1962162888
 10
340.6786133802
 20
269.0624004865
 10
340.4207180571
 20
268.9135206855
 10
340.1889171725
 20
268.7509669364
 10
339.9853749886
 20
268.5762569599
 10
339.8119919241
 20
268.3910219759
 10
339.6703868098
 20
268.1969914735
 10
339.5936255547
 20
268.0623108575
  0
LWPOLYLINE
  5
1DB
330
1F
100
AcDbEntity
  8
0
  6
Continuous
 62
     8
370
    18
100
AcDbPolyline
 90
       28
 70
   128
 43
0.0
 10
339.5826910619
 20
268.0007086051
 10
339.6776993096
 20
268.1725723659
 10
339.819012338
 20
268.3662026457
 10
339.9920377689
 20
268.5510555494
 10
340.1951601106
 20
268.7254051553
 10
340.4264828644
 20
268.8876236081
 10
340.6838462321
 20
269.0361963179
 10
340.9648472814
 20
269.1697361012
 10
341.2668623811
 20
269.2869961331
 10
341.5870716976
 20
269.3868815882
 10
341.9224855228
 20
269.4684598631
 10
342.2699721881
 20
269.5309692832
 10
342.6262873043
 20
269.573826215
 10
342.9881040531
 20
269.5966305149
 10
343.352044249
 20
269.5991692653
 10
343.7147098804
 20
269.5814187625
 10
344.072714836
 20
269.5435447382
 10
344.4227165201
 20
269.485900812
 10
344.7614470612
 20
269.4090251896
 10
345.0857438235
 20
269.3136356381
 10
345.3925789356
 20
269.2006227839
 10
345.6790875606
 20
269.0710417977
 10
345.9425946447
 20
268.9261025422
 10
346.1806398933
 20
268.7671582762
 10
346.391000742
 20
268.5956930194
 10
346.5717131083
 20
268.4133076969
 10
346.7210897295
 20
268.2217051911
 10
346.7871966543
 20
268.1168010141
  0
LWPOLYLINE
  5
1DC
330
1F
100
AcDbEntity
  8
0
  6
Continuous
 62
     8
370
    18
100
AcDbPolyline
 90
       28
 70
   128
 43
0.0
 10
339.5840851114
 20
267.9980915616
 10
339.6718903553
 20
268.1549506705
 10
339.8134354129
 20
268.3488988819
 10
339.9867449433
 20
268.5340553053
 10
340.1902008021
 20
268.7086911849
 10
340.4219033768
 20
268.8711759926
 10
340.6796893229
 20
269.0199926517
 10
340.9611517624
 20
269.1537517009
 10
341.2636627564
 20
269.2712042681
 10
341.5843978413
 20
269.3712537304
 10
341.9203623999
 20
269.4529659529
 10
342.2684196218
 20
269.5155780105
 10
342.6253197904
 20
269.5585053114
 10
342.9877306249
 20
269.5813470548
 10
343.3522683932
 20
269.5838899737
 10
343.7155295042
 20
269.5661103254
 10
344.0741222868
 20
269.5281741138
 10
344.4246986569
 20
269.470435539
 10
344.7639853774
 20
269.3934336905
 10
345.0888146194
 20
269.2978875139
 10
345.3961535401
 20
269.1846890981
 10
345.6831325985
 20
269.0548953461
 10
345.9470723486
 20
268.9097181073
 10
346.1855084561
 20
268.7505128624
 10
346.3962147073
 20
268.5787660679
 10
346.5772237946
 20
268.3960812774
 10
346.7268456851
 20
268.2041641694
 10
346.7915181136
 20
268.1017412749
  0
LWPOLYLINE
  5
1DD
330
1F
100
AcDbEntity
  8
0
  6
Continuous
 62
     8
370
    18
100
AcDbPolyline
 90
       28
 70
   128
 43
0.0
 10
339.5859112592
 20
267.9946808043
 10
339.6718687525
 20
268.1477679449
 10
339.813414673
 20
268.3417173387
 10
339.9867252599
 20
268.5268748908
 10
340.1901823591
 20
268.701511835
 10
340.4218863463
 20
268.8639976333
 10
340.6796738639
 20
269.0128151995
 10
340.9611380193
 20
269.1465750642
 10
341.2636508574
 20
269.2640283474
 10
341.5843878976
 20
269.3640784196
 10
341.9203545043
 20
269.4457911402
 10
342.268413848
 20
269.5084035795
 10
342.6253161923
 20
269.5513311421
 10
342.9877292362
 20
269.5741730248
 10
343.3522692267
 20
269.5767159592
 10
343.7155325523
 20
269.5589362025
 10
344.074127521
 20
269.5209997596
 10
344.4247060282
 20
269.4632608328
 10
344.763994817
 20
269.386258515
 10
345.0888260393
 20
269.2907117559
 10
345.3961668335
 20
269.1775126499
 10
345.6831476415
 20
269.0477181067
 10
345.9470890006
 20
268.9025399829
 10
346.1855265617
 20
268.7433337674
 10
346.3962340974
 20
268.5715859259
 10
346.5772442882
 20
268.3889000217
 10
346.7268670907
 20
268.1969817438
 10
346.7952929732
 20
268.0880843438
  0
LWPOLYLINE
  5
1DE
330
1F
100
AcDbEntity
  8
0
  6
Continuous
 62
     8
370
    18
100
AcDbPolyline
 90
       28
 70
   128
 43
0.0
 10
339.6103253931
 20
267.9508450511
 10
339.6886352866
 20
268.0886709048
 10
339.8295114952
 20
268.2817026442
 10
340.0020020785
 20
268.4659841398
 10
340.2044965385
 20
268.6397948049
 10
340.4351042389
 20
268.8015118161
 10
340.6916720578
 20
268.9496252653
 10
340.9718044906
 20
269.082752257
 10
341.2728860162
 20
269.1996498206
 10
341.5921055176
 20
269.2992265148
 10
341.9264825282
 20
269.3805526189
 10
342.2728950601
 20
269.442868813
 10
342.6281087528
 20
269.4855932676
 10
342.9888070716
 20
269.508327076
 10
343.3516222736
 20
269.5108579787
 10
343.7131668511
 20
269.4931623454
 10
344.0700651596
 20
269.4554053954
 10
344.4189849359
 20
269.3979396552
 10
344.75666841
 20
269.3213016669
 10
345.0799627222
 20
269.2262069788
 10
345.3858493609
 20
269.1135434644
 10
345.6714723446
 20
268.9843630325
 10
345.9341648888
 20
268.839871806
 10
346.1714743037
 20
268.6814188606
 10
346.3811848954
 20
268.5104836287
 10
346.5613386526
 20
268.3286620866
 10
346.7102535282
 20
268.137651853
 10
346.8207415246
 20
267.9508450511
  0
LWPOLYLINE
  5
1DF
330
1F
100
AcDbEntity
  8
0
  6
Continuous
 62
     8
370
    18
100
AcDbPolyline
 90
       29
 70
   128
 43
0.0
 10
346.8064022655
 20
267.926474553
 10
346.7891718277
 20
267.9602559707
 10
346.6657081692
 20
268.1594536044
 10
346.5090174421
 20
268.3507059681
 10
346.3206086638
 20
268.5321711971
 10
346.1022963139
 20
268.7021016821
 10
345.8561828597
 20
268.8588608995
 10
345.5846385082
 20
269.0009391724
 10
345.2902783799
 20
269.1269682094
 10
344.975937324
 20
269.2357342819
 10
344.6446426164
 20
269.3261899133
 10
344.2995848065
 20
269.3974639663
 10
343.9440869895
 20
269.4488700328
 10
343.5815728037
 20
269.4799130444
 10
343.2155334589
 20
269.4902940398
 10
342.8494941141
 20
269.4799130444
 10
342.4869799283
 20
269.4488700328
 10
342.1314821113
 20
269.3974639663
 10
341.7864243013
 20
269.3261899133
 10
341.4551295938
 20
269.2357342819
 10
341.1407885378
 20
269.1269682094
 10
340.8464284096
 20
269.0009391724
 10
340.5748840581
 20
268.8588608995
 10
340.3287706038
 20
268.7021016821
 10
340.1104582539
 20
268.5321711971
 10
339.9220494757
 20
268.3507059681
 10
339.7653587486
 20
268.1594536044
 10
339.64189509
 20
267.9602559707
 10
339.6246646522
 20
267.926474553
  0
LWPOLYLINE
  5
1E0
330
1F
100
AcDbEntity
  8
0
  6
Continuous
 62
     8
370
    18
100
AcDbPolyline
 90
       29
 70
   128
 43
0.0
 10
346.7836715236
 20
267.8896389865
 10
346.7482693023
 20
267.9615258368
 10
346.6262187625
 20
268.158443529
 10
346.4713214587
 20
268.3475068898
 10
346.2850691367
 20
268.5268951358
 10
346.0692555082
 20
268.6948806601
 10
345.8259589763
 20
268.8498456703
 10
345.5575226197
 20
268.9902977685
 10
345.2665316271
 20
269.1148843244
 10
344.9557884011
 20
269.2224055012
 10
344.6282855686
 20
269.3118258113
 10
344.287177161
 20
269.3822840882
 10
343.9357482388
 20
269.4331017802
 10
343.5773832545
 20
269.4637894851
 10
343.2155334589
 20
269.4740516635
 10
342.8536836632
 20
269.4637894851
 10
342.495318679
 20
269.4331017802
 10
342.1438897567
 20
269.3822840882
 10
341.8027813491
 20
269.3118258113
 10
341.4752785167
 20
269.2224055012
 10
341.1645352906
 20
269.1148843244
 10
340.8735442981
 20
268.9902977685
 10
340.6051079415
 20
268.8498456703
 10
340.3618114096
 20
268.6948806601
 10
340.145997781
 20
268.5268951358
 10
339.959745459
 20
268.3475068898
 10
339.8048481553
 20
268.158443529
 10
339.6827976154
 20
267.9615258368
 10
339.6473953941
 20
267.8896389865
  0
LWPOLYLINE
  5
1E1
330
1F
100
AcDbEntity
  8
0
  6
Continuous
 62
     8
370
    18
100
AcDbPolyline
 90
       29
 70
   128
 43
0.0
 10
339.670269083
 20
267.8545239997
 10
339.7091934628
 20
267.9341771131
 10
339.8303320671
 20
268.1296234784
 10
339.9840720113
 20
268.3172741982
 10
340.1689326957
 20
268.4953220936
 10
340.3831338109
 20
268.6620524659
 10
340.6246124831
 20
268.8158596106
 10
340.8910431407
 20
268.9552622808
 10
341.1798599107
 20
269.0789179526
 10
341.4882813297
 20
269.1856357541
 10
341.813337131
 20
269.2743879348
 10
342.1518968495
 20
269.3443197625
 10
342.5006999699
 20
269.3947577555
 10
342.8563873276
 20
269.4252161684
 10
343.2155334589
 20
269.43540167
 10
343.5746795901
 20
269.4252161684
 10
343.9303669478
 20
269.3947577555
 10
344.2791700683
 20
269.3443197625
 10
344.6177297867
 20
269.2743879348
 10
344.942785588
 20
269.1856357541
 10
345.2512070071
 20
269.0789179526
 10
345.5400237771
 20
268.9552622808
 10
345.8064544346
 20
268.8158596106
 10
346.0479331068
 20
268.6620524659
 10
346.262134222
 20
268.4953220936
 10
346.4469949065
 20
268.3172741982
 10
346.6007348507
 20
268.1296234784
 10
346.721873455
 20
267.9341771131
 10
346.7607978347
 20
267.8545239997
  0
LWPOLYLINE
  5
1E2
330
1F
100
AcDbEntity
  8
0
  6
Continuous
 62
     8
370
    18
100
AcDbPolyline
 90
       29
 70
   128
 43
0.0
 10
339.6942400374
 20
267.8195540026
 10
339.7040381847
 20
267.8385189531
 10
339.8253548958
 20
268.034252678
 10
339.9793208798
 20
268.2221792956
 10
340.1644533599
 20
268.4004889701
 10
340.3789694094
 20
268.5674644816
 10
340.6208031212
 20
268.7214977649
 10
340.8876255046
 20
268.8611053951
 10
341.1768669142
 20
268.9849428745
 10
341.485741797
 20
269.0918175804
 10
341.8112755192
 20
269.180700251
 10
342.150333013
 20
269.2507348976
 10
342.4996489693
 20
269.3012470483
 10
342.8558592846
 20
269.3317502434
 10
343.2155334589
 20
269.3419507205
 10
343.5752076331
 20
269.3317502434
 10
343.9314179484
 20
269.3012470483
 10
344.2807339048
 20
269.2507348976
 10
344.6197913986
 20
269.180700251
 10
344.9453251207
 20
269.0918175804
 10
345.2542000036
 20
268.9849428745
 10
345.5434414131
 20
268.8611053951
 10
345.8102637965
 20
268.7214977649
 10
346.0520975084
 20
268.5674644816
 10
346.2666135578
 20
268.4004889701
 10
346.451746038
 20
268.2221792956
 10
346.6057120219
 20
268.034252678
 10
346.727028733
 20
267.8385189531
 10
346.7368268803
 20
267.8195540026
  0
LWPOLYLINE
  5
1E3
330
1F
100
AcDbEntity
  8
0
  6
Continuous
 62
     8
370
    18
100
AcDbPolyline
 90
       28
 70
   128
 43
0.0
 10
339.7750016639
 20
267.712846335
 10
339.8547388836
 20
267.8624379995
 10
339.9885305059
 20
268.0522405619
 10
340.1543935333
 20
268.2334097047
 10
340.3506795445
 20
268.4041448876
 10
340.5754377611
 20
268.5627492676
 10
340.8264344348
 20
268.7076465631
 10
341.101175048
 20
268.8373967197
 10
341.3969291049
 20
268.9507102221
 10
341.710757269
 20
269.0464609097
 10
342.0395405749
 20
269.1236971692
 10
342.3800114264
 20
269.181651392
 10
342.7287860713
 20
269.2197476029
 10
343.0823982303
 20
269.2376071847
 10
343.4373335471
 20
269.2350526409
 10
343.790064515
 20
269.2121093596
 10
344.1370855351
 20
269.1690053615
 10
344.4749477566
 20
269.1061690335
 10
344.8002933531
 20
269.0242248712
 10
345.1098888937
 20
268.9239872726
 10
345.400657479
 20
268.8064524439
 10
345.66970932
 20
268.6727884991
 10
345.9143704587
 20
268.5243238504
 10
346.1322093428
 20
268.3625340064
 10
346.3210609916
 20
268.1890269071
 10
346.4790485126
 20
268.005526944
 10
346.6046017548
 20
267.8138578222
 10
346.6560652539
 20
267.712846335
  0
LWPOLYLINE
  5
1E4
330
1F
100
AcDbEntity
  8
0
  6
Continuous
 62
     8
370
    18
100
AcDbPolyline
 90
       31
 70
   128
 43
0.0
 10
346.1522914135
 20
266.4484879316
 10
345.8687938832
 20
266.2992924559
 10
345.5626596705
 20
266.1658340283
 10
345.2365006045
 20
266.0492512692
 10
344.8930993593
 20
265.9505388214
 10
344.5353857135
 20
265.8705388648
 10
344.1664115535
 20
265.8099339309
 10
343.7893248369
 20
265.7692410795
 10
343.4073427346
 20
265.7488074877
 10
343.0237241832
 20
265.7488074877
 10
342.6417420808
 20
265.7692410795
 10
342.2646553642
 20
265.8099339309
 10
341.8956812043
 20
265.8705388648
 10
341.5379675584
 20
265.9505388214
 10
341.1945663133
 20
266.0492512692
 10
340.8684072473
 20
266.1658340283
 10
340.5622730345
 20
266.2992924559
 10
340.2787755042
 20
266.4484879316
 10
340.0203333573
 20
266.6121475722
 10
339.789151531
 20
266.7888750915
 10
339.5872023873
 20
266.9771627125
 10
339.4162088849
 20
267.1754040316
 10
339.2776298802
 20
267.3819077238
 10
339.1726476804
 20
267.5949119724
 10
339.1021579566
 20
267.8125995003
 10
339.0667621022
 20
268.0331130742
 10
339.0667621022
 20
268.2545713501
 10
339.1021579566
 20
268.475084924
 10
339.1726476804
 20
268.6927724519
 10
339.2776298802
 20
268.9057767005
 10
339.3869592539
 20
269.0730986624
  0
LWPOLYLINE
  5
1E5
330
1F
100
AcDbEntity
  8
0
  6
Continuous
 62
     8
370
    18
100
AcDbPolyline
 90
       14
 70
   128
 43
0.0
 10
347.0441076638
 20
269.0730986624
 10
347.1534370375
 20
268.9057767005
 10
347.2584192373
 20
268.6927724519
 10
347.3289089612
 20
268.475084924
 10
347.3643048156
 20
268.2545713501
 10
347.3643048156
 20
268.0331130742
 10
347.3289089612
 20
267.8125995003
 10
347.2584192373
 20
267.5949119724
 10
347.1534370375
 20
267.3819077238
 10
347.0148580328
 20
267.1754040316
 10
346.8438645304
 20
266.9771627125
 10
346.6419153867
 20
266.7888750915
 10
346.4107335605
 20
266.6121475722
 10
346.1522914135
 20
266.4484879316
  0
LWPOLYLINE
  5
1E6
330
1F
100
AcDbEntity
  8
0
  6
Continuous
 62
     8
370
    18
100
AcDbPolyline
 90
       28
 70
   128
 43
0.0
 10
346.2985190248
 20
266.1312320622
 10
346.0097511358
 20
265.9788595673
 10
345.6984858491
 20
265.8420435451
 10
345.3672292896
 20
265.7218855577
 10
345.0186485405
 20
265.6193530468
 10
344.655550169
 20
265.5352715437
 10
344.2808576296
 20
265.4703180233
 10
343.8975877264
 20
265.4250154532
 10
343.5088263233
 20
265.3997285829
 10
343.1177034985
 20
265.3946610075
 10
342.7273683431
 20
265.4098535282
 10
342.3409636061
 20
265.4451838237
 10
341.9616003913
 20
265.5003674352
 10
341.5923331082
 20
265.5749600567
 10
341.23613488
 20
265.6683611124
 10
340.8958736053
 20
265.7798185918
 10
340.5742888677
 20
265.9084351048
 10
340.2739698786
 20
266.0531751069
 10
339.9973346298
 20
266.2128732368
 10
339.7466104257
 20
266.3862436989
 10
339.5238159502
 20
266.5718906163
 10
339.3307450134
 20
266.7683192691
 10
339.1689521089
 20
266.9739481293
 10
339.0397398981
 20
267.1871215943
 10
338.9441487217
 20
267.4061233166
 10
338.8829482237
 20
267.6291900232
 10
338.8566311545
 20
267.854525712
 10
338.8555854374
 20
267.898711481
  0
LWPOLYLINE
  5
1E7
330
1F
100
AcDbEntity
  8
0
  6
Continuous
 62
     8
370
    18
100
AcDbPolyline
 90
       10
 70
   128
 43
0.0
 10
347.5751450794
 20
267.8774071813
 10
347.5656575141
 20
267.7416873793
 10
347.5218546239
 20
267.5172601984
 10
347.4433797677
 20
267.2960031928
 10
347.330864779
 20
267.079697794
 10
347.1852155623
 20
266.8700855659
 10
347.0076047994
 20
266.6688541828
 10
346.7994625078
 20
266.4776238414
 10
346.5624645268
 20
266.2979342162
 10
346.2985190248
 20
266.1312320622
  0
LWPOLYLINE
  5
1E8
330
1F
100
AcDbEntity
  8
0
  6
Continuous
 62
     8
370
    18
100
AcDbPolyline
 90
       28
 70
   128
 43
0.0
 10
346.2985190248
 20
265.1421635124
 10
346.0097511358
 20
264.9897910175
 10
345.6984858491
 20
264.8529749953
 10
345.3672292896
 20
264.732817008
 10
345.0186485405
 20
264.630284497
 10
344.655550169
 20
264.5462029939
 10
344.2808576296
 20
264.4812494735
 10
343.8975877264
 20
264.4359469034
 10
343.5088263233
 20
264.4106600331
 10
343.1177034985
 20
264.4055924577
 10
342.7273683431
 20
264.4207849784
 10
342.3409636061
 20
264.4561152739
 10
341.9616003913
 20
264.5112988854
 10
341.5923331082
 20
264.5858915069
 10
341.23613488
 20
264.6792925626
 10
340.8958736053
 20
264.790750042
 10
340.5742888677
 20
264.919366555
 10
340.2739698786
 20
265.0641065572
 10
339.9973346298
 20
265.223804687
 10
339.7466104257
 20
265.3971751491
 10
339.5238159502
 20
265.5828220665
 10
339.3307450134
 20
265.7792507193
 10
339.1689521089
 20
265.9848795796
 10
339.0397398981
 20
266.1980530445
 10
338.9441487217
 20
266.4170547668
 10
338.8829482237
 20
266.6401214734
 10
338.8566311545
 20
266.8654571623
 10
338.8555854374
 20
266.9096429312
  0
LWPOLYLINE
  5
1E9
330
1F
100
AcDbEntity
  8
0
  6
Continuous
 62
     8
370
    18
100
AcDbPolyline
 90
       10
 70
   128
 43
0.0
 10
347.5751450794
 20
266.8883386315
 10
347.5656575141
 20
266.7526188295
 10
347.5218546239
 20
266.5281916486
 10
347.4433797677
 20
266.3069346431
 10
347.330864779
 20
266.0906292443
 10
347.1852155623
 20
265.8810170161
 10
347.0076047994
 20
265.679785633
 10
346.7994625078
 20
265.4885552917
 10
346.5624645268
 20
265.3088656664
 10
346.2985190248
 20
265.1421635124
  0
LWPOLYLINE
  5
1EA
330
1F
100
AcDbEntity
  8
0
  6
Continuous
 62
     8
370
    18
100
AcDbPolyline
 90
       10
 70
   128
 43
0.0
 10
345.9732499055
 20
266.7378556043
 10
346.2229003659
 20
266.8963931081
 10
346.4453156458
 20
267.0679122323
 10
346.6384815182
 20
267.2508596732
 10
346.8006486428
 20
267.4435786305
 10
346.9303484092
 20
267.6443238115
 10
347.0264062362
 20
267.8512772366
 10
347.0879522091
 20
268.0625647037
 10
347.1144289582
 20
268.2762727607
 10
347.1153063624
 20
268.3055552175
  0
LWPOLYLINE
  5
1EB
330
1F
100
AcDbEntity
  8
0
  6
Continuous
 62
     8
370
    18
100
AcDbPolyline
 90
       26
 70
   128
 43
0.0
 10
339.3156679189
 20
268.3111561195
 10
339.3254702119
 20
268.1692368104
 10
339.3695314794
 20
267.9564980875
 10
339.4484227363
 20
267.7471405102
 10
339.5614295314
 20
267.5430600533
 10
339.7075284574
 20
267.3461049007
 10
339.88539642
 20
267.1580587091
 10
340.0934226193
 20
266.9806244537
 10
340.3297231378
 20
266.8154090066
 10
340.5921580014
 20
266.6639085846
 10
340.8783505595
 20
266.5274951989
 10
341.1857090078
 20
266.4074042303
 10
341.5114498606
 20
266.3047232411
 10
341.8526231584
 20
266.2203821263
 10
342.206139183
 20
266.1551446922
 10
342.5687964384
 20
266.1096017389
 10
342.9373106444
 20
266.0841657107
 10
343.3083444793
 20
266.0790669599
 10
343.6785378032
 20
266.0943516618
 10
344.0445380881
 20
266.1298813957
 10
344.4030307787
 20
266.1853343989
 10
344.7507693097
 20
266.2602084803
 10
345.0846045071
 20
266.3538255686
 10
345.4015131076
 20
266.4653378531
 10
345.6986251379
 20
266.5937354612
 10
345.9732499055
 20
266.7378556043
  0
LWPOLYLINE
  5
1EC
330
1F
100
AcDbEntity
  8
0
  6
Continuous
 62
     8
370
    18
100
AcDbPolyline
 90
       30
 70
   128
 43
0.0
 10
346.0707349797
 20
266.5263516914
 10
345.7908238496
 20
266.3792475157
 10
345.4882809749
 20
266.2479211771
 10
345.1657651133
 20
266.133526776
 10
344.8261105458
 20
266.0370696146
 10
344.472302169
 20
265.9593973619
 10
344.1074492635
 20
265.9011926045
 10
343.7347581699
 20
265.8629668479
 10
343.3575041108
 20
265.8450560213
 10
342.9790024086
 20
265.8476175258
 10
342.6025793498
 20
265.8706288508
 10
342.2315429536
 20
265.9138877718
 10
341.8691539015
 20
265.9770141281
 10
341.5185968813
 20
266.0594531629
 10
341.1829526007
 20
266.1604803989
 10
340.8651707138
 20
266.2792080052
 10
340.5680438993
 20
266.4145925994
 10
340.2941833181
 20
266.5654444167
 10
340.0459956671
 20
266.7304377659
 10
339.8256620281
 20
266.9081226796
 10
339.6351187012
 20
267.0969376564
 10
339.4760401878
 20
267.2952233834
 10
339.3498244758
 20
267.5012373185
 10
339.2575807534
 20
267.7131690039
 10
339.2001196616
 20
267.9291559764
 10
339.1779461707
 20
268.1473001346
 10
339.191255142
 20
268.3656844197
 10
339.2399296159
 20
268.582389663
 10
339.3235418393
 20
268.7955114509
 10
339.3246162214
 20
268.7977515129
  0
LWPOLYLINE
  5
1ED
330
1F
100
AcDbEntity
  8
0
  6
Continuous
 62
     8
370
    18
100
AcDbPolyline
 90
       13
 70
   128
 43
0.0
 10
347.1064506964
 20
268.7977515129
 10
347.1316685606
 20
268.7426700724
 10
347.2066033291
 20
268.5284753202
 10
347.2464644322
 20
268.3111709138
 10
347.2509015689
 20
268.0926665321
 10
347.2198757455
 20
267.8748823994
 10
347.1536596182
 20
267.6597324107
 10
347.0528350966
 20
267.4491073117
 10
346.9182882302
 20
267.2448580833
 10
346.7512014217
 20
267.0487796751
 10
346.553043036
 20
266.8625952313
 10
346.3255544962
 20
266.6879409473
 10
346.0707349797
 20
266.5263516914
  0
LWPOLYLINE
  5
1EE
330
1F
100
AcDbEntity
  8
0
  6
Continuous
 62
     8
370
    18
100
AcDbPolyline
 90
       33
 70
   128
 43
0.0
 10
347.0057682253
 20
268.4870183764
 10
347.0019489543
 20
268.5151757901
 10
346.9532891053
 20
268.7252756922
 10
346.8697308388
 20
268.9316836244
 10
346.752054316
 20
269.1324724114
 10
346.6013582508
 20
269.3257673426
 10
346.4190496518
 20
269.5097636751
 10
346.2068306852
 20
269.6827434849
 10
345.9666827824
 20
269.843091706
 10
345.7008481396
 20
269.9893112102
 10
345.4118087832
 20
270.1200367856
 10
345.102263396
 20
270.2340478825
 10
344.7751021196
 20
270.3302800102
 10
344.4333795709
 20
270.4078346751
 10
344.0802863211
 20
270.4659877703
 10
343.7191191069
 20
270.5041963359
 10
343.3532500491
 20
270.522103629
 10
342.9860951687
 20
270.5195424538
 10
342.6210824917
 20
270.4965367235
 10
342.2616200433
 20
270.4533012363
 10
341.9110640274
 20
270.3902396703
 10
341.5726874911
 20
270.3079408144
 10
341.249649765
 20
270.2071730708
 10
340.9449669653
 20
270.0888772807
 10
340.6614838331
 20
269.9541579402
 10
340.4018471741
 20
269.8042728874
 10
340.1684811459
 20
269.6406215586
 10
339.9635646241
 20
269.4647319222
 10
339.7890108592
 20
269.2782462124
 10
339.6464496125
 20
269.082905596
 10
339.5372119401
 20
268.8805339156
 10
339.4623177646
 20
268.6730206611
 10
339.4252986925
 20
268.4870183764
  0
LWPOLYLINE
  5
1EF
330
1F
100
AcDbEntity
  8
0
  6
Continuous
 62
     8
370
    18
100
AcDbPolyline
 90
       18
 70
   128
 43
0.0
 10
345.9555802677
 20
268.4075413697
 10
345.6877327273
 20
268.541131195
 10
345.3835667078
 20
268.6668283861
 10
345.060347934
 20
268.77553063
 10
344.7209168644
 20
268.8662826477
 10
344.3682564312
 20
268.9382869069
 10
344.0054658272
 20
268.9909106319
 10
343.635733269
 20
269.0236913632
 10
343.2623079799
 20
269.0363410228
 10
342.8884716345
 20
269.0287484449
 10
342.5175095202
 20
269.0009803535
 10
342.1526816654
 20
268.9532807754
 10
341.7971941904
 20
268.8860688963
 10
341.4541711319
 20
268.7999353765
 10
341.1266269888
 20
268.6956371607
 10
340.8174402309
 20
268.5740908252
 10
340.5293280025
 20
268.4363645236
 10
340.4754866501
 20
268.4075413697
  0
LWPOLYLINE
  5
1F0
330
1F
100
AcDbEntity
  8
0
  6
Continuous
 62
     8
370
    18
100
AcDbPolyline
 90
       24
 70
   128
 43
0.0
 10
339.9121530817
 20
267.5599169654
 10
339.9806802496
 20
267.6281097903
 10
340.1845182633
 20
267.8030736917
 10
340.4166560493
 20
267.9658636977
 10
340.6749261995
 20
268.1149598818
 10
340.9569173152
 20
268.2489701732
 10
341.2599965213
 20
268.3666433538
 10
341.5813340488
 20
268.4668807408
 10
341.917929656
 20
268.5487464449
 10
342.2666406402
 20
268.6114761079
 10
342.624211181
 20
268.6544840399
 10
342.9873027386
 20
268.6773686875
 10
343.352525225
 20
268.6799163827
 10
343.7164686561
 20
268.6621033386
 10
344.0757349902
 20
268.6240958707
 10
344.4269698545
 20
268.5662488444
 10
344.7668938635
 20
268.489102362
 10
345.0923332384
 20
268.3933767192
 10
345.4002494394
 20
268.2799656806
 10
345.687767536
 20
268.1499281346
 10
345.9522030491
 20
268.0044782067
 10
346.1910870156
 20
267.8449739236
 10
346.4021890402
 20
267.6729045339
 10
346.518913836
 20
267.5599169654
  0
ARC
  5
1F1
330
1F
100
AcDbEntity
  8
0
  6
Continuous
 62
     8
370
    18
100
AcDbCircle
 10
343.217152777
 20
270.7953086786
 30
0.0
 40
6.536945375637937
100
AcDbArc
 50
257.2438154629
 51
280.5948461611
  0
LWPOLYLINE
  5
1F2
330
1F
100
AcDbEntity
  8
0
  6
Continuous
 62
     8
370
    18
100
AcDbPolyline
 90
       26
 70
   128
 43
0.0
 10
345.9591077699
 20
262.8591166325
 10
345.6858913345
 20
262.715735567
 10
345.3903029556
 20
262.5879964082
 10
345.0750195273
 20
262.4770559816
 10
344.7428963053
 20
262.3839189808
 10
344.3969410489
 20
262.3094288691
 10
344.0402867823
 20
262.2542602403
 10
343.676163422
 20
262.2189127102
 10
343.3078685254
 20
262.2037063914
 10
342.9387374281
 20
262.2087789947
 10
342.5721130385
 20
262.2340845818
 10
342.2113155639
 20
262.2793939814
 10
341.859612442
 20
262.3442968646
 10
341.5201887509
 20
262.4282054609
 10
341.1961183639
 20
262.5303598808
 10
340.8903361128
 20
262.6498349984
 10
340.6056112089
 20
262.7855488282
 10
340.3445221651
 20
262.936272325
 10
340.1094334441
 20
263.1006405134
 10
339.9024740458
 20
263.2771648495
 10
339.7255182267
 20
263.4642467017
 10
339.5801685259
 20
263.6601918278
 10
339.4677412529
 20
263.8632257184
 10
339.3892545664
 20
264.071509667
 10
339.3454192542
 20
264.2831574221
 10
339.3355334589
 20
264.4429483694
  0
LWPOLYLINE
  5
1F3
330
1F
100
AcDbEntity
  8
0
  6
Continuous
 62
     8
370
    18
100
AcDbPolyline
 90
       10
 70
   128
 43
0.0
 10
347.0955334589
 20
264.4429483694
 10
347.0944346223
 20
264.3896444701
 10
347.0680936514
 20
264.1770323519
 10
347.0068632988
 20
263.9668284103
 10
346.9112980761
 20
263.7609362847
 10
346.7822634368
 20
263.5612205662
 10
346.6209279384
 20
263.3694899113
 10
346.4287526603
 20
263.1874806623
 10
346.2074779715
 20
263.0168411234
 10
345.9591077699
 20
262.8591166325
  0
LWPOLYLINE
  5
1F4
330
1F
100
AcDbEntity
  8
0
  6
Continuous
 62
     8
370
    18
100
AcDbPolyline
 90
       24
 70
   128
 43
0.0
 10
345.9498386089
 20
262.7928475765
 10
345.6775452347
 20
262.6499509237
 10
345.3829555006
 20
262.5226433314
 10
345.0687372569
 20
262.4120777168
 10
344.7377361126
 20
262.3192553793
 10
344.3929496654
 20
262.2450169323
 10
344.0375003547
 20
262.1900346906
 10
343.6746071845
 20
262.154806582
 10
343.3075565715
 20
262.1396516377
 10
342.939672583
 20
262.1447071033
 10
342.5742868333
 20
262.1699271955
 10
342.2147083123
 20
262.2150835174
 10
341.8641934188
 20
262.2797671263
 10
341.52591647
 20
262.3633922375
 10
341.2029409543
 20
262.465201529
 10
340.898191788
 20
262.584273
 10
340.6144288267
 20
262.7195283209
 10
340.3542218717
 20
262.8697425986
 10
340.1199273976
 20
263.0335554694
 10
339.9136672113
 20
263.2094834183
 10
339.737309237
 20
263.3959332149
 10
339.5924505999
 20
263.5912163407
 10
339.4804031623
 20
263.7935642816
 10
339.4527833114
 20
263.8567448653
  0
ARC
  5
1F5
330
1F
100
AcDbEntity
  8
0
  6
Continuous
 62
     8
370
    18
100
AcDbCircle
 10
344.9033430479
 20
264.8293001032
 30
0.0
 40
2.289605173999778
100
AcDbArc
 50
297.1977993107
 51
335.8041871639
  0
ARC
  5
1F6
330
1F
100
AcDbEntity
  8
0
  6
Continuous
 62
     8
370
    18
100
AcDbCircle
 10
344.8592099615
 20
264.5249786093
 30
0.0
 40
2.221796955619537
100
AcDbArc
 50
297.1586786884
 51
335.778722358
  0
LWPOLYLINE
  5
1F7
330
1F
100
AcDbEntity
  8
0
  6
Continuous
 62
     8
370
    18
100
AcDbPolyline
 90
       24
 70
   128
 43
0.0
 10
339.5456496252
 20
263.6134603355
 10
339.5554142057
 20
263.5886859357
 10
339.6550554405
 20
263.3870628265
 10
339.7879398991
 20
263.1919326087
 10
339.9528268754
 20
263.0051171604
 10
340.1481768639
 20
262.8283607272
 10
340.3721659345
 20
262.6633136363
 10
340.6227027615
 20
262.5115168878
 10
340.8974481502
 20
262.3743877672
 10
341.1938368768
 20
262.2532066121
 10
341.5091016397
 20
262.1491048583
 10
341.8402988967
 20
262.0630544758
 10
342.1843363483
 20
261.9958588938
 10
342.5380018095
 20
261.9481454994
 10
342.8979932011
 20
261.9203597797
 10
343.2609493806
 20
261.9127611625
 10
343.6234815238
 20
261.925420594
 10
343.9822047659
 20
261.9582198765
 10
344.3337698045
 20
262.010852772
 10
344.6748941717
 20
262.0828278613
 10
345.0023928811
 20
262.1734731323
 10
345.3132081655
 20
262.2819422546
 10
345.6044380264
 20
262.4072224813
 10
345.873363329
 20
262.5481441046
  0
LWPOLYLINE
  5
1F8
330
1F
100
AcDbEntity
  8
0
  6
Continuous
 62
     8
370
    18
100
AcDbPolyline
 90
       24
 70
   128
 43
0.0
 10
345.8671838883
 20
262.5039647339
 10
345.5988838357
 20
262.3633707527
 10
345.3083310827
 20
262.2383818019
 10
344.9982384422
 20
262.1301648697
 10
344.6715011656
 20
262.0397303485
 10
344.3311699108
 20
261.9679226009
 10
343.9804222591
 20
261.9154120767
 10
343.6225330467
 20
261.8826890523
 10
343.2608437888
 20
261.8700590539
 10
342.8987314806
 20
261.8776400044
 10
342.5395770671
 20
261.9053611224
 10
342.1867338763
 20
261.9529635834
 10
341.84349631
 20
262.020002936
 10
341.5130690848
 20
262.1058532518
 10
341.1985373109
 20
262.2097129696
 10
340.9028376865
 20
262.3306123792
 10
340.6287310794
 20
262.4674226753
 10
340.3787767492
 20
262.618866497
 10
340.1553084521
 20
262.7835298543
 10
339.9604126513
 20
262.9598753297
 10
339.7959090364
 20
263.1462564331
 10
339.6633335334
 20
263.3409329742
 10
339.563923964
 20
263.5420873107
 10
339.5065517219
 20
263.715413916
  0
LWPOLYLINE
  5
1F9
330
1F
100
AcDbEntity
  8
0
  6
Continuous
 62
     8
370
    18
100
AcDbPolyline
 90
        8
 70
   128
 43
0.0
 10
346.9245151959
 20
263.715413916
 10
346.88669746
 20
263.5931690381
 10
346.7957367083
 20
263.3906867287
 10
346.6713485634
 20
263.1942176773
 10
346.5146944041
 20
263.0055962624
 10
346.3272368679
 20
262.8265835914
 10
346.1107261954
 20
262.6588510575
 10
345.8671838883
 20
262.5039647339
  0
LWPOLYLINE
  5
1FA
330
1F
100
AcDbEntity
  8
0
  6
Continuous
 62
     8
370
    18
100
AcDbPolyline
 90
       31
 70
   128
 43
0.0
 10
339.5385067585
 20
101.2917447634
 10
339.5434153602
 20
101.2772399193
 10
339.6326922434
 20
101.0714869029
 10
339.7564738461
 20
100.8717762948
 10
339.9135680837
 20
100.6800314173
 10
340.1024620529
 20
100.4980988783
 10
340.3213366016
 20
100.3277307878
 10
340.5680838481
 20
100.1705678835
 10
340.8403274816
 20
100.0281237301
 10
341.1354456471
 20
99.9017701426
 10
341.4505961953
 20
99.7927239753
 10
341.7827440542
 20
99.7020354023
 10
342.1286904583
 20
99.6305778041
 10
342.4851037546
 20
99.5790393565
 10
342.8485514882
 20
99.5479164028
 10
343.2155334589
 20
99.5375086743
 10
343.5825154295
 20
99.5479164028
 10
343.9459631632
 20
99.5790393565
 10
344.3023764595
 20
99.6305778041
 10
344.6483228636
 20
99.7020354023
 10
344.9804707224
 20
99.7927239753
 10
345.2956212706
 20
99.9017701426
 10
345.5907394361
 20
100.0281237301
 10
345.8629830696
 20
100.1705678835
 10
346.1097303162
 20
100.3277307878
 10
346.3286048648
 20
100.4980988783
 10
346.5174988341
 20
100.6800314173
 10
346.6745930717
 20
100.8717762948
 10
346.7983746743
 20
101.0714869029
 10
346.8876515575
 20
101.2772399193
 10
346.8895735886
 20
101.282856951
  0
MTEXT
  5
1FB
330
1F
100
AcDbEntity
  8
0
  6
Continuous
 62
     7
370
     0
100
AcDbMText
 10
343.0647441747
 20
277.545535006
 30
0.0
 40
3.5
 41
0.0
 71
     2
 72
     1
  1
(1:10)
  7
SLDTEXTSTYLE0
 73
     1
 44
1.0
  0
CIRCLE
  5
1FC
330
1F
100
AcDbEntity
  8
0
  6
Continuous
 62
     7
370
    25
100
AcDbCircle
 10
146.3925921497
 20
70.2199662046
 30
0.0
 40
35.09390887643659
  0
CIRCLE
  5
1FD
330
1F
100
AcDbEntity
  8
0
  6
Continuous
 62
     7
370
    25
100
AcDbCircle
 10
146.3925921497
 20
70.2199662046
 30
0.0
 40
39.0
  0
CIRCLE
  5
1FE
330
1F
100
AcDbEntity
  8
0
  6
Continuous
 62
     7
370
    25
100
AcDbCircle
 10
146.3925921497
 20
70.2199662046
 30
0.0
 40
38.0
  0
CIRCLE
  5
1FF
330
1F
100
AcDbEntity
  8
0
  6
Continuous
 62
     7
370
    25
100
AcDbCircle
 10
146.3925921497
 20
70.2199662046
 30
0.0
 40
43.59999999999999
  0
CIRCLE
  5
200
330
1F
100
AcDbEntity
  8
0
  6
Continuous
 62
     7
370
    25
100
AcDbCircle
 10
146.3925921497
 20
70.2199662046
 30
0.0
 40
35.04938637064792
  0
CIRCLE
  5
201
330
1F
100
AcDbEntity
  8
0
  6
Continuous
 62
     8
370
    18
100
AcDbCircle
 10
146.3925921497
 20
70.2199662046
 30
0.0
 40
35.26259897774298
  0
CIRCLE
  5
202
330
1F
100
AcDbEntity
  8
0
  6
Continuous
 62
     8
370
    18
100
AcDbCircle
 10
146.3925921497
 20
70.2199662046
 30
0.0
 40
40.37864714073729
  0
CIRCLE
  5
203
330
1F
100
AcDbEntity
  8
0
  6
Continuous
 62
     8
370
    18
100
AcDbCircle
 10
146.3925921497
 20
70.2199662046
 30
0.0
 40
41.5320292888922
  0
INSERT
  5
20F
330
1F
100
AcDbEntity
  8
0
  6
Continuous
 62
     7
370
     0
100
AcDbBlockReference
  2
SW_CENTERMARKSYMBOL_0
 10
146.3925921497
 20
70.2199662046
 30
0.0
  0
LINE
  5
210
330
1F
100
AcDbEntity
  8
0
  6
CENTER
 62
     7
370
    18
100
AcDbLine
 10
196.0775083056
 20
70.2199662046
 30
0.0
 11
96.9426578073
 21
70.2199662046
 31
0.0
  0
LINE
  5
211
330
1F
100
AcDbEntity
  8
0
  6
Continuous
 62
     7
370
    18
100
AcDbLine
 10
194.0775083056
 20
62.6199662046
 30
0.0
 11
194.0775083056
 21
70.2199662046
 31
0.0
  0
SOLID
  5
212
330
1F
100
AcDbEntity
  8
0
  6
Continuous
 62
     7
370
    18
100
AcDbTrace
 10
194.0775083056
 20
70.2199662046
 30
0.0
 11
193.2775083056
 21
65.2199662046
 31
0.0
 12
194.8775083056
 22
65.2199662046
 32
0.0
 13
194.8775083056
 23
65.2199662046
 33
0.0
  0
LINE
  5
213
330
1F
100
AcDbEntity
  8
0
  6
Continuous
 62
     7
370
    18
100
AcDbLine
 10
98.9426578073
 20
62.6199662046
 30
0.0
 11
98.9426578073
 21
70.2199662046
 31
0.0
  0
SOLID
  5
214
330
1F
100
AcDbEntity
  8
0
  6
Continuous
 62
     7
370
    18
100
AcDbTrace
 10
98.9426578073
 20
70.2199662046
 30
0.0
 11
98.1426578073
 21
65.2199662046
 31
0.0
 12
99.7426578073
 22
65.2199662046
 32
0.0
 13
99.7426578073
 23
65.2199662046
 33
0.0
  0
MTEXT
  5
215
330
1F
100
AcDbEntity
  8
0
  6
Continuous
 62
     7
100
AcDbMText
 10
191.8369874257
 20
60.5676474789
 30
0.0
 40
5.0
 41
0.0
 71
     1
 72
     1
  1
A
  7
SLDTEXTSTYLE0
 73
     1
 44
1.0
  0
MTEXT
  5
216
330
1F
100
AcDbEntity
  8
0
  6
Continuous
 62
     7
100
AcDbMText
 10
96.5556512534
 20
60.7353883427
 30
0.0
 40
5.0
 41
0.0
 71
     1
 72
     1
  1
A
  7
SLDTEXTSTYLE0
 73
     1
 44
1.0
  0
INSERT
  5
21A
330
1F
100
AcDbEntity
  8
0
  6
Continuous
 62
     7
100
AcDbBlockReference
  2
SW_BROKEN_VIEW_0
 10
0.0
 20
0.0
 30
0.0
  0
LINE
  5
21B
330
1F
100
AcDbEntity
  8
0
  6
Continuous
 62
     7
370
    25
100
AcDbLine
 10
186.2695300159
 20
248.5512310471
 30
0.0
 11
106.5156542835
 21
248.5512310471
 31
0.0
  0
LINE
  5
21C
330
1F
100
AcDbEntity
  8
0
  6
Continuous
 62
     7
370
    25
100
AcDbLine
 10
183.2558111427
 20
239.3829637971
 30
0.0
 11
109.5293731568
 21
239.3829637971
 31
0.0
  0
LINE
  5
21D
330
1F
100
AcDbEntity
  8
0
  6
Continuous
 62
     7
370
    25
100
AcDbLine
 10
183.3095857081
 20
239.3765264954
 30
0.0
 11
183.7370143411
 21
239.2732912507
 31
0.0
  0
ARC
  5
21E
330
1F
100
AcDbEntity
  8
0
  6
Continuous
 62
     7
370
    25
100
AcDbCircle
 10
183.7772787411
 20
239.4402991442
 30
0.0
 40
0.1717930685257927
100
AcDbArc
 50
256.4450788718
 51
345.2888202446
  0
LINE
  5
21F
330
1F
100
AcDbEntity
  8
0
  6
Continuous
 62
     7
370
    25
100
AcDbLine
 10
184.1219560382
 20
240.0771194901
 30
0.0
 11
183.9434401271
 21
239.3966728654
 31
0.0
  0
LWPOLYLINE
  5
220
330
1F
100
AcDbEntity
  8
0
  6
Continuous
 62
     7
370
    25
100
AcDbPolyline
 90
        3
 70
   128
 43
0.0
 10
184.1217250702
 20
240.1650959458
 10
184.127085763
 20
240.1076370683
 10
184.1219560382
 20
240.0771194901
  0
LINE
  5
221
330
1F
100
AcDbEntity
  8
0
  6
Continuous
 62
     7
370
    25
100
AcDbLine
 10
184.0598778007
 20
240.3958851304
 30
0.0
 11
184.1217250702
 21
240.1650959458
 31
0.0
  0
ARC
  5
222
330
1F
100
AcDbEntity
  8
0
  6
Continuous
 62
     7
370
    25
100
AcDbCircle
 10
184.336315698
 20
240.4699489785
 30
0.0
 40
0.2861876389246458
100
AcDbArc
 50
133.9389178913
 51
194.9985567512
  0
LINE
  5
223
330
1F
100
AcDbEntity
  8
0
  6
Continuous
 62
     7
370
    25
100
AcDbLine
 10
184.3358175037
 20
240.8670002427
 30
0.0
 11
184.1377326426
 21
240.6760269608
 31
0.0
  0
ARC
  5
224
330
1F
100
AcDbEntity
  8
0
  6
Continuous
 62
     7
370
    25
100
AcDbCircle
 10
184.1772709433
 20
241.0317321186
 30
0.0
 40
0.2286342116188655
100
AcDbArc
 50
313.9038884139
 51
0.0337236672
  0
LINE
  5
225
330
1F
100
AcDbEntity
  8
0
  6
Continuous
 62
     7
370
    25
100
AcDbLine
 10
184.4059051154
 20
243.2033831086
 30
0.0
 11
184.4059051154
 21
241.0318666901
 31
0.0
  0
ARC
  5
226
330
1F
100
AcDbEntity
  8
0
  6
Continuous
 62
     7
370
    25
100
AcDbCircle
 10
183.8334043516
 20
243.2033295495
 30
0.0
 40
0.5725007662373574
100
AcDbArc
 50
0.0053601873
 51
100.9874912569
  0
LINE
  5
227
330
1F
100
AcDbEntity
  8
0
  6
Continuous
 62
     7
370
    25
100
AcDbLine
 10
183.7242887495
 20
243.7653356995
 30
0.0
 11
183.1738249538
 21
243.6582857575
 31
0.0
  0
ARC
  5
228
330
1F
100
AcDbEntity
  8
0
  6
Continuous
 62
     7
370
    25
100
AcDbCircle
 10
183.1082786878
 20
243.9953978927
 30
0.0
 40
0.3434252533896865
100
AcDbArc
 50
103.7668840445
 51
281.0029978264
  0
ARC
  5
229
330
1F
100
AcDbEntity
  8
0
  6
Continuous
 62
     7
370
    25
100
AcDbCircle
 10
182.8903757524
 20
244.8847782194
 30
0.0
 40
0.5722597660381996
100
AcDbArc
 50
283.7664130319
 51
332.0150890746
  0
LINE
  5
22A
330
1F
100
AcDbEntity
  8
0
  6
Continuous
 62
     7
370
    25
100
AcDbLine
 10
184.7266414342
 20
247.1192890611
 30
0.0
 11
183.3957218704
 21
244.6162516084
 31
0.0
  0
ARC
  5
22B
330
1F
100
AcDbEntity
  8
0
  6
Continuous
 62
     7
370
    25
100
AcDbCircle
 10
184.5245915497
 20
247.2267506743
 30
0.0
 40
0.2288496321630323
100
AcDbArc
 50
331.9934159888
 51
0.0163152202
  0
LINE
  5
22C
330
1F
100
AcDbEntity
  8
0
  6
Continuous
 62
     7
370
    25
100
AcDbLine
 10
184.7534411726
 20
248.0411344972
 30
0.0
 11
184.7534411726
 21
247.2268158402
 31
0.0
  0
ARC
  5
22D
330
1F
100
AcDbEntity
  8
0
  6
Continuous
 62
     7
370
    25
100
AcDbCircle
 10
185.1003853084
 20
248.041149671
 30
0.0
 40
0.3469441361364398
100
AcDbArc
 50
98.7024075534
 51
180.0025058738
  0
LINE
  5
22E
330
1F
100
AcDbEntity
  8
0
  6
Continuous
 62
     7
370
    25
100
AcDbLine
 10
186.0094451485
 20
248.5314423051
 30
0.0
 11
185.0478918431
 21
248.3840996232
 31
0.0
  0
ARC
  5
22F
330
1F
100
AcDbEntity
  8
0
  6
Continuous
 62
     7
370
    25
100
AcDbCircle
 10
186.2694100122
 20
246.8338396612
 30
0.0
 40
1.717392345019231
100
AcDbArc
 50
83.9966694399
 51
98.7064358868
  0
LINE
  5
230
330
1F
100
AcDbEntity
  8
0
  6
Continuous
 62
     7
370
    25
100
AcDbLine
 10
186.4490256784
 20
248.5418135133
 30
0.0
 11
187.0497436402
 21
248.4787517991
 31
0.0
  0
ARC
  5
231
330
1F
100
AcDbEntity
  8
0
  6
Continuous
 62
     7
370
    25
100
AcDbCircle
 10
186.9060771011
 20
247.1124821072
 30
0.0
 40
1.373802367703368
100
AcDbArc
 50
59.9977466097
 51
83.9972704518
  0
LINE
  5
232
330
1F
100
AcDbEntity
  8
0
  6
Continuous
 62
     7
370
    25
100
AcDbLine
 10
187.5930250761
 20
248.3022028413
 30
0.0
 11
188.9925905642
 21
247.4942022767
 31
0.0
  0
LINE
  5
233
330
1F
100
AcDbEntity
  8
0
  6
Continuous
 62
     7
370
    25
100
AcDbLine
 10
188.9925905642
 20
247.4942022767
 30
0.0
 11
188.9925905642
 21
246.8172127213
 31
0.0
  0
LINE
  5
234
330
1F
100
AcDbEntity
  8
0
  6
Continuous
 62
     7
370
    25
100
AcDbLine
 10
188.9925905642
 20
246.8172127213
 30
0.0
 11
188.8950438378
 21
246.7609459367
 31
0.0
  0
ARC
  5
235
330
1F
100
AcDbEntity
  8
0
  6
Continuous
 62
     7
370
    25
100
AcDbCircle
 10
189.0382314555
 20
246.5130350612
 30
0.0
 40
0.2862909290118594
100
AcDbArc
 50
120.0097417387
 51
179.9850376884
  0
LINE
  5
236
330
1F
100
AcDbEntity
  8
0
  6
Continuous
 62
     7
370
    25
100
AcDbLine
 10
188.7519405363
 20
246.5131098237
 30
0.0
 11
188.7519405363
 21
244.563799521
 31
0.0
  0
ARC
  5
237
330
1F
100
AcDbEntity
  8
0
  6
Continuous
 62
     7
370
    25
100
AcDbCircle
 10
189.0382314383
 20
244.5637550569
 30
0.0
 40
0.2862909054594126
100
AcDbArc
 50
179.9911013489
 51
239.9902595241
  0
LINE
  5
238
330
1F
100
AcDbEntity
  8
0
  6
Continuous
 62
     7
370
    25
100
AcDbLine
 10
188.8950438378
 20
244.3158441987
 30
0.0
 11
188.9925905642
 21
244.259577414
 31
0.0
  0
LINE
  5
239
330
1F
100
AcDbEntity
  8
0
  6
Continuous
 62
     7
370
    25
100
AcDbLine
 10
188.9925905642
 20
244.259577414
 30
0.0
 11
188.9925905642
 21
243.582707068
 31
0.0
  0
LINE
  5
23A
330
1F
100
AcDbEntity
  8
0
  6
Continuous
 62
     7
370
    25
100
AcDbLine
 10
188.9925905642
 20
243.582707068
 30
0.0
 11
188.8950438378
 21
243.526321074
 31
0.0
  0
ARC
  5
23B
330
1F
100
AcDbEntity
  8
0
  6
Continuous
 62
     7
370
    25
100
AcDbCircle
 10
189.0378463561
 20
243.2786325592
 30
0.0
 40
0.2859058578939231
100
AcDbArc
 50
119.9652006205
 51
180.0295788067
  0
LINE
  5
23C
330
1F
100
AcDbEntity
  8
0
  6
Continuous
 62
     7
370
    25
100
AcDbLine
 10
188.7519405363
 20
243.278484961
 30
0.0
 11
188.7519405363
 21
241.6997963395
 31
0.0
  0
ARC
  5
23D
330
1F
100
AcDbEntity
  8
0
  6
Continuous
 62
     7
370
    25
100
AcDbCircle
 10
188.8664365025
 20
241.6997852386
 30
0.0
 40
0.1144959667859117
100
AcDbArc
 50
179.9944448942
 51
304.9851615044
  0
LINE
  5
23E
330
1F
100
AcDbEntity
  8
0
  6
Continuous
 62
     7
370
    25
100
AcDbLine
 10
188.9925905642
 20
241.6482979264
 30
0.0
 11
188.9320843992
 21
241.6059786286
 31
0.0
  0
LINE
  5
23F
330
1F
100
AcDbEntity
  8
0
  6
Continuous
 62
     7
370
    25
100
AcDbLine
 10
188.9925905642
 20
241.6482979264
 30
0.0
 11
188.9925905642
 21
240.6050974336
 31
0.0
  0
LINE
  5
240
330
1F
100
AcDbEntity
  8
0
  6
Continuous
 62
     7
370
    25
100
AcDbLine
 10
188.9925905642
 20
240.6050974336
 30
0.0
 11
188.7787551758
 21
240.1464992967
 31
0.0
  0
ARC
  5
241
330
1F
100
AcDbEntity
  8
0
  6
Continuous
 62
     7
370
    25
100
AcDbCircle
 10
189.0382813035
 20
240.0255148542
 30
0.0
 40
0.2863407869328001
100
AcDbArc
 50
155.006270747
 51
179.9787451776
  0
LINE
  5
242
330
1F
100
AcDbEntity
  8
0
  6
Continuous
 62
     7
370
    25
100
AcDbLine
 10
188.7519405363
 20
240.025621077
 30
0.0
 11
188.7519405363
 21
238.8841921296
 31
0.0
  0
ARC
  5
243
330
1F
100
AcDbEntity
  8
0
  6
Continuous
 62
     7
370
    25
100
AcDbCircle
 10
189.0378463561
 20
238.8840445314
 30
0.0
 40
0.2859058578939231
100
AcDbArc
 50
179.9704211933
 51
240.0347993795
  0
LINE
  5
244
330
1F
100
AcDbEntity
  8
0
  6
Continuous
 62
     7
370
    25
100
AcDbLine
 10
188.8950438378
 20
238.6363560166
 30
0.0
 11
188.9925905642
 21
238.5799700227
 31
0.0
  0
LINE
  5
245
330
1F
100
AcDbEntity
  8
0
  6
Continuous
 62
     7
370
    25
100
AcDbLine
 10
188.9925905642
 20
238.5799700227
 30
0.0
 11
188.9925905642
 21
237.9030996766
 31
0.0
  0
LINE
  5
246
330
1F
100
AcDbEntity
  8
0
  6
Continuous
 62
     7
370
    25
100
AcDbLine
 10
188.9925905642
 20
237.9030996766
 30
0.0
 11
188.8950438378
 21
237.8467136826
 31
0.0
  0
ARC
  5
247
330
1F
100
AcDbEntity
  8
0
  6
Continuous
 62
     7
370
    25
100
AcDbCircle
 10
189.0378463561
 20
237.5990251679
 30
0.0
 40
0.2859058578939231
100
AcDbArc
 50
119.9652006205
 51
180.0295788067
  0
LINE
  5
248
330
1F
100
AcDbEntity
  8
0
  6
Continuous
 62
     7
370
    25
100
AcDbLine
 10
188.7519405363
 20
237.5988775697
 30
0.0
 11
188.7519405363
 21
236.3850885835
 31
0.0
  0
ARC
  5
249
330
1F
100
AcDbEntity
  8
0
  6
Continuous
 62
     7
370
    25
100
AcDbCircle
 10
189.0382314555
 20
236.3851633459
 30
0.0
 40
0.2862909290118389
100
AcDbArc
 50
180.0149623116
 51
239.9902582613
  0
LINE
  5
24A
330
1F
100
AcDbEntity
  8
0
  6
Continuous
 62
     7
370
    25
100
AcDbLine
 10
188.8950438378
 20
236.1372524705
 30
0.0
 11
188.9925905642
 21
236.0809856858
 31
0.0
  0
LINE
  5
24B
330
1F
100
AcDbEntity
  8
0
  6
Continuous
 62
     7
370
    25
100
AcDbLine
 10
188.9925905642
 20
236.0809856858
 30
0.0
 11
188.9925905642
 21
235.4041153397
 31
0.0
  0
LINE
  5
24C
330
1F
100
AcDbEntity
  8
0
  6
Continuous
 62
     7
370
    25
100
AcDbLine
 10
188.9925905642
 20
235.4041153397
 30
0.0
 11
188.8950438378
 21
235.3477293458
 31
0.0
  0
ARC
  5
24D
330
1F
100
AcDbEntity
  8
0
  6
Continuous
 62
     7
370
    25
100
AcDbCircle
 10
189.0381143427
 20
235.0998898291
 30
0.0
 40
0.2861705704625417
100
AcDbArc
 50
119.9965830042
 51
179.6890389028
  0
LINE
  5
24E
330
1F
100
AcDbEntity
  8
0
  6
Continuous
 62
     7
370
    25
100
AcDbLine
 10
188.7519479868
 20
235.1014429536
 30
0.0
 11
188.7451269803
 21
233.8635736909
 31
0.0
  0
ARC
  5
24F
330
1F
100
AcDbEntity
  8
0
  6
Continuous
 62
     7
370
    25
100
AcDbCircle
 10
189.0315154558
 20
233.8620362794
 30
0.0
 40
0.2863926021361887
100
AcDbArc
 50
179.6924235755
 51
239.9777458347
  0
LINE
  5
250
330
1F
100
AcDbEntity
  8
0
  6
Continuous
 62
     7
370
    25
100
AcDbLine
 10
188.8882228312
 20
233.6140686478
 30
0.0
 11
188.9925905642
 21
233.5538679566
 31
0.0
  0
LINE
  5
251
330
1F
100
AcDbEntity
  8
0
  6
Continuous
 62
     7
370
    25
100
AcDbLine
 10
188.9925905642
 20
233.5538679566
 30
0.0
 11
188.9925905642
 21
232.8848654237
 31
0.0
  0
LINE
  5
252
330
1F
100
AcDbEntity
  8
0
  6
Continuous
 62
     7
370
    25
100
AcDbLine
 10
188.9925905642
 20
232.8848654237
 30
0.0
 11
188.0019427416
 21
232.3128992524
 31
0.0
  0
ARC
  5
253
330
1F
100
AcDbEntity
  8
0
  6
Continuous
 62
     7
370
    25
100
AcDbCircle
 10
187.3120448492
 20
233.5081628651
 30
0.0
 40
1.380077608609925
100
AcDbArc
 50
291.019290015
 51
299.9932450615
  0
LINE
  5
254
330
1F
100
AcDbEntity
  8
0
  6
Continuous
 62
     7
370
    25
100
AcDbLine
 10
187.8070541797
 20
232.2199160066
 30
0.0
 11
187.1620387909
 21
231.9725567307
 31
0.0
  0
ARC
  5
255
330
1F
100
AcDbEntity
  8
0
  6
Continuous
 62
     7
370
    25
100
AcDbCircle
 10
187.0389497054
 20
232.2930880144
 30
0.0
 40
0.3433529186935974
100
AcDbArc
 50
178.0463907779
 51
291.0075796454
  0
LINE
  5
256
330
1F
100
AcDbEntity
  8
0
  6
Continuous
 62
     7
370
    25
100
AcDbLine
 10
186.7822119174
 20
234.8605209794
 30
0.0
 11
186.6957963583
 21
232.3047930207
 31
0.0
  0
LWPOLYLINE
  5
257
330
1F
100
AcDbEntity
  8
0
  6
Continuous
 62
     7
370
    25
100
AcDbPolyline
 90
        3
 70
   128
 43
0.0
 10
186.7593051074
 20
234.9521929231
 10
186.7793397186
 20
234.8980719056
 10
186.7822119174
 20
234.8605209794
  0
LINE
  5
258
330
1F
100
AcDbEntity
  8
0
  6
Continuous
 62
     7
370
    25
100
AcDbLine
 10
186.6236374853
 20
235.1871544328
 30
0.0
 11
186.7593051074
 21
234.9521929231
 31
0.0
  0
ARC
  5
259
330
1F
100
AcDbEntity
  8
0
  6
Continuous
 62
     7
370
    25
100
AcDbCircle
 10
186.7723677424
 20
235.2730178897
 30
0.0
 40
0.1717359095281122
100
AcDbArc
 50
154.2565207537
 51
209.9982672868
  0
LINE
  5
25A
330
1F
100
AcDbEntity
  8
0
  6
Continuous
 62
     7
370
    25
100
AcDbLine
 10
187.1421606419
 20
236.4351564851
 30
0.0
 11
186.6176770208
 21
235.3476101365
 31
0.0
  0
ARC
  5
25B
330
1F
100
AcDbEntity
  8
0
  6
Continuous
 62
     7
370
    25
100
AcDbCircle
 10
186.4203498402
 20
236.7832380198
 30
0.0
 40
0.8013560932773007
100
AcDbArc
 50
334.2550659639
 51
179.9993142721
  0
LINE
  5
25C
330
1F
100
AcDbEntity
  8
0
  6
Continuous
 62
     7
370
    25
100
AcDbLine
 10
185.618993747
 20
236.7832476106
 30
0.0
 11
185.618993747
 21
236.5203911271
 31
0.0
  0
ARC
  5
25D
330
1F
100
AcDbEntity
  8
0
  6
Continuous
 62
     7
370
    25
100
AcDbCircle
 10
185.0466368211
 20
236.5203421288
 30
0.0
 40
0.5723569279467139
100
AcDbArc
 50
266.5524709933
 51
0.004904974
  0
LINE
  5
25E
330
1F
100
AcDbEntity
  8
0
  6
Continuous
 62
     7
370
    25
100
AcDbLine
 10
182.70872246
 20
236.0875421967
 30
0.0
 11
185.0122184632
 21
235.9490210023
 31
0.0
  0
ARC
  5
25F
330
1F
100
AcDbEntity
  8
0
  6
Continuous
 62
     7
370
    25
100
AcDbCircle
 10
182.7369409201
 20
236.5465509436
 30
0.0
 40
0.459875321342078
100
AcDbArc
 50
235.0619425886
 51
266.4820574051
  0
LINE
  5
260
330
1F
100
AcDbEntity
  8
0
  6
Continuous
 62
     7
370
    25
100
AcDbLine
 10
181.6085436521
 20
236.7752605882
 30
0.0
 11
182.4735746858
 21
236.1695581879
 31
0.0
  0
ARC
  5
261
330
1F
100
AcDbEntity
  8
0
  6
Continuous
 62
     7
370
    25
100
AcDbCircle
 10
181.7727234615
 20
237.0097150707
 30
0.0
 40
0.2862235388871247
100
AcDbArc
 50
114.2443622361
 51
234.9978661069
  0
LINE
  5
262
330
1F
100
AcDbEntity
  8
0
  6
Continuous
 62
     7
370
    25
100
AcDbLine
 10
181.9986299751
 20
237.4253088441
 30
0.0
 11
181.6551917372
 21
237.2706943955
 31
0.0
  0
LINE
  5
263
330
1F
100
AcDbEntity
  8
0
  6
Continuous
 62
     7
370
    25
100
AcDbLine
 10
183.0876217363
 20
237.9157358613
 30
0.0
 11
181.9986299751
 21
237.4253088441
 31
0.0
  0
ARC
  5
264
330
1F
100
AcDbEntity
  8
0
  6
Continuous
 62
     7
370
    25
100
AcDbCircle
 10
182.9710764631
 20
238.1762330762
 30
0.0
 40
0.2853797464778006
100
AcDbArc
 50
294.103525702
 51
14.2380253085
  0
LINE
  5
265
330
1F
100
AcDbEntity
  8
0
  6
Continuous
 62
     7
370
    25
100
AcDbLine
 10
183.033746588
 20
239.0982920136
 30
0.0
 11
183.2476900098
 21
238.2464224305
 31
0.0
  0
ARC
  5
266
330
1F
100
AcDbEntity
  8
0
  6
Continuous
 62
     7
370
    25
100
AcDbCircle
 10
183.2556894632
 20
239.1541093085
 30
0.0
 40
0.2288541244032757
100
AcDbArc
 50
76.3786190925
 51
194.1167781187
  0
LINE
  5
267
330
1F
100
AcDbEntity
  8
0
  6
Continuous
 62
     7
370
    25
100
AcDbLine
 10
109.5374942896
 20
238.2464224305
 30
0.0
 11
109.7514377115
 21
239.0982920136
 31
0.0
  0
ARC
  5
268
330
1F
100
AcDbEntity
  8
0
  6
Continuous
 62
     7
370
    25
100
AcDbCircle
 10
109.8150649149
 20
238.1766963485
 30
0.0
 40
0.2861943020426215
100
AcDbArc
 50
165.8989980914
 51
245.7594508982
  0
LINE
  5
269
330
1F
100
AcDbEntity
  8
0
  6
Continuous
 62
     7
370
    25
100
AcDbLine
 10
110.7865543244
 20
237.4253088441
 30
0.0
 11
109.6975625632
 21
237.9157358613
 31
0.0
  0
LINE
  5
26A
330
1F
100
AcDbEntity
  8
0
  6
Continuous
 62
     7
370
    25
100
AcDbLine
 10
111.1299925623
 20
237.2706943955
 30
0.0
 11
110.7865543244
 21
237.4253088441
 31
0.0
  0
ARC
  5
26B
330
1F
100
AcDbEntity
  8
0
  6
Continuous
 62
     7
370
    25
100
AcDbCircle
 10
111.012460838
 20
237.0097150707
 30
0.0
 40
0.2862235388871305
100
AcDbArc
 50
305.0021338931
 51
65.7556377639
  0
LINE
  5
26C
330
1F
100
AcDbEntity
  8
0
  6
Continuous
 62
     7
370
    25
100
AcDbLine
 10
110.3116096137
 20
236.1695581879
 30
0.0
 11
111.1766406474
 21
236.7752605882
 31
0.0
  0
ARC
  5
26D
330
1F
100
AcDbEntity
  8
0
  6
Continuous
 62
     7
370
    25
100
AcDbCircle
 10
110.0482433794
 20
236.5465509436
 30
0.0
 40
0.459875321342078
100
AcDbArc
 50
273.5179425949
 51
304.9380574114
  0
LINE
  5
26E
330
1F
100
AcDbEntity
  8
0
  6
Continuous
 62
     7
370
    25
100
AcDbLine
 10
107.7729658363
 20
235.9490210023
 30
0.0
 11
110.0764618394
 21
236.0875421967
 31
0.0
  0
ARC
  5
26F
330
1F
100
AcDbEntity
  8
0
  6
Continuous
 62
     7
370
    25
100
AcDbCircle
 10
107.7385474783
 20
236.5203421288
 30
0.0
 40
0.5723569279467139
100
AcDbArc
 50
179.995095026
 51
273.4475290067
  0
LINE
  5
270
330
1F
100
AcDbEntity
  8
0
  6
Continuous
 62
     7
370
    25
100
AcDbLine
 10
107.1661905525
 20
236.5203911271
 30
0.0
 11
107.1661905525
 21
236.7832476106
 31
0.0
  0
ARC
  5
271
330
1F
100
AcDbEntity
  8
0
  6
Continuous
 62
     7
370
    25
100
AcDbCircle
 10
106.3648369094
 20
236.7832272983
 30
0.0
 40
0.8013536432991518
100
AcDbArc
 50
0.0014522979
 51
205.7441674661
  0
LINE
  5
272
330
1F
100
AcDbEntity
  8
0
  6
Continuous
 62
     7
370
    25
100
AcDbLine
 10
106.1675072787
 20
235.3476101365
 30
0.0
 11
105.6430236576
 21
236.4351564851
 31
0.0
  0
ARC
  5
273
330
1F
100
AcDbEntity
  8
0
  6
Continuous
 62
     7
370
    25
100
AcDbCircle
 10
106.0128165571
 20
235.2730178897
 30
0.0
 40
0.1717359095281368
100
AcDbArc
 50
330.0017327133
 51
25.7434792463
  0
LINE
  5
274
330
1F
100
AcDbEntity
  8
0
  6
Continuous
 62
     7
370
    25
100
AcDbLine
 10
106.0258791921
 20
234.9521929231
 30
0.0
 11
106.1615468142
 21
235.1871544328
 31
0.0
  0
LWPOLYLINE
  5
275
330
1F
100
AcDbEntity
  8
0
  6
Continuous
 62
     7
370
    25
100
AcDbPolyline
 90
        3
 70
   128
 43
0.0
 10
106.0029723821
 20
234.8605209794
 10
106.0107284365
 20
234.9176222291
 10
106.0258791921
 20
234.9521929231
  0
LINE
  5
276
330
1F
100
AcDbEntity
  8
0
  6
Continuous
 62
     7
370
    25
100
AcDbLine
 10
106.0893879411
 20
232.3047930207
 30
0.0
 11
106.0029723821
 21
234.8605209794
 31
0.0
  0
ARC
  5
277
330
1F
100
AcDbEntity
  8
0
  6
Continuous
 62
     7
370
    25
100
AcDbCircle
 10
105.7462345941
 20
232.2930880144
 30
0.0
 40
0.3433529186935966
100
AcDbArc
 50
248.9924203546
 51
1.9536092221
  0
LINE
  5
278
330
1F
100
AcDbEntity
  8
0
  6
Continuous
 62
     7
370
    25
100
AcDbLine
 10
105.6231455085
 20
231.9725567307
 30
0.0
 11
104.9781301198
 21
232.2199160066
 31
0.0
  0
ARC
  5
279
330
1F
100
AcDbEntity
  8
0
  6
Continuous
 62
     7
370
    25
100
AcDbCircle
 10
105.4731394502
 20
233.5081628651
 30
0.0
 40
1.380077608610132
100
AcDbArc
 50
240.0067549385
 51
248.980709985
  0
LINE
  5
27A
330
1F
100
AcDbEntity
  8
0
  6
Continuous
 62
     7
370
    25
100
AcDbLine
 10
104.7832415578
 20
232.3128992524
 30
0.0
 11
103.7925937352
 21
232.8848654237
 31
0.0
  0
LINE
  5
27B
330
1F
100
AcDbEntity
  8
0
  6
Continuous
 62
     7
370
    25
100
AcDbLine
 10
103.7925937352
 20
232.8848654237
 30
0.0
 11
103.7925937352
 21
233.5538679566
 31
0.0
  0
LINE
  5
27C
330
1F
100
AcDbEntity
  8
0
  6
Continuous
 62
     7
370
    25
100
AcDbLine
 10
103.7925937352
 20
233.5538679566
 30
0.0
 11
103.8969614682
 21
233.6140686478
 31
0.0
  0
ARC
  5
27D
330
1F
100
AcDbEntity
  8
0
  6
Continuous
 62
     7
370
    25
100
AcDbCircle
 10
103.7536688436
 20
233.8620362794
 30
0.0
 40
0.2863926021361887
100
AcDbArc
 50
300.0222541653
 51
0.3075764245
  0
LINE
  5
27E
330
1F
100
AcDbEntity
  8
0
  6
Continuous
 62
     7
370
    25
100
AcDbLine
 10
104.0400573192
 20
233.8635736909
 30
0.0
 11
104.0332363126
 21
235.1014429536
 31
0.0
  0
ARC
  5
27F
330
1F
100
AcDbEntity
  8
0
  6
Continuous
 62
     7
370
    25
100
AcDbCircle
 10
103.7470699568
 20
235.0998898291
 30
0.0
 40
0.2861705704625709
100
AcDbArc
 50
0.3109610972
 51
60.0034169958
  0
LINE
  5
280
330
1F
100
AcDbEntity
  8
0
  6
Continuous
 62
     7
370
    25
100
AcDbLine
 10
103.8901404617
 20
235.3477293458
 30
0.0
 11
103.7925937352
 21
235.4041153397
 31
0.0
  0
LINE
  5
281
330
1F
100
AcDbEntity
  8
0
  6
Continuous
 62
     7
370
    25
100
AcDbLine
 10
103.7925937352
 20
235.4041153397
 30
0.0
 11
103.7925937352
 21
236.0809856858
 31
0.0
  0
LINE
  5
282
330
1F
100
AcDbEntity
  8
0
  6
Continuous
 62
     7
370
    25
100
AcDbLine
 10
103.7925937352
 20
236.0809856858
 30
0.0
 11
103.8901404617
 21
236.1372524705
 31
0.0
  0
ARC
  5
283
330
1F
100
AcDbEntity
  8
0
  6
Continuous
 62
     7
370
    25
100
AcDbCircle
 10
103.746952844
 20
236.3851633459
 30
0.0
 40
0.2862909290118026
100
AcDbArc
 50
300.0097417387
 51
359.9850376884
  0
LINE
  5
284
330
1F
100
AcDbEntity
  8
0
  6
Continuous
 62
     7
370
    25
100
AcDbLine
 10
104.0332437632
 20
236.3850885835
 30
0.0
 11
104.0332437632
 21
237.5988775697
 31
0.0
  0
ARC
  5
285
330
1F
100
AcDbEntity
  8
0
  6
Continuous
 62
     7
370
    25
100
AcDbCircle
 10
103.7473379434
 20
237.5990251679
 30
0.0
 40
0.2859058578939089
100
AcDbArc
 50
359.9704211933
 51
60.0347993795
  0
LINE
  5
286
330
1F
100
AcDbEntity
  8
0
  6
Continuous
 62
     7
370
    25
100
AcDbLine
 10
103.8901404617
 20
237.8467136826
 30
0.0
 11
103.7925937352
 21
237.9030996766
 31
0.0
  0
LINE
  5
287
330
1F
100
AcDbEntity
  8
0
  6
Continuous
 62
     7
370
    25
100
AcDbLine
 10
103.7925937352
 20
237.9030996766
 30
0.0
 11
103.7925937352
 21
238.5799700227
 31
0.0
  0
LINE
  5
288
330
1F
100
AcDbEntity
  8
0
  6
Continuous
 62
     7
370
    25
100
AcDbLine
 10
103.7925937352
 20
238.5799700227
 30
0.0
 11
103.8901404617
 21
238.6363560166
 31
0.0
  0
ARC
  5
289
330
1F
100
AcDbEntity
  8
0
  6
Continuous
 62
     7
370
    25
100
AcDbCircle
 10
103.7473379434
 20
238.8840445314
 30
0.0
 40
0.2859058578939244
100
AcDbArc
 50
299.9652006205
 51
0.0295788067
  0
LINE
  5
28A
330
1F
100
AcDbEntity
  8
0
  6
Continuous
 62
     7
370
    25
100
AcDbLine
 10
104.0332437632
 20
238.8841921296
 30
0.0
 11
104.0332437632
 21
240.025621077
 31
0.0
  0
ARC
  5
28B
330
1F
100
AcDbEntity
  8
0
  6
Continuous
 62
     7
370
    25
100
AcDbCircle
 10
103.746902996
 20
240.0255148542
 30
0.0
 40
0.2863407869328472
100
AcDbArc
 50
0.0212548224
 51
24.993729253
  0
LINE
  5
28C
330
1F
100
AcDbEntity
  8
0
  6
Continuous
 62
     7
370
    25
100
AcDbLine
 10
104.0064291236
 20
240.1464992967
 30
0.0
 11
103.7925937352
 21
240.6050974336
 31
0.0
  0
LINE
  5
28D
330
1F
100
AcDbEntity
  8
0
  6
Continuous
 62
     7
370
    25
100
AcDbLine
 10
103.7925937352
 20
240.6050974336
 30
0.0
 11
103.7925937352
 21
241.6482979264
 31
0.0
  0
LINE
  5
28E
330
1F
100
AcDbEntity
  8
0
  6
Continuous
 62
     7
370
    25
100
AcDbLine
 10
103.8530999002
 20
241.6059786286
 30
0.0
 11
103.7925937352
 21
241.6482979264
 31
0.0
  0
ARC
  5
28F
330
1F
100
AcDbEntity
  8
0
  6
Continuous
 62
     7
370
    25
100
AcDbCircle
 10
103.918747797
 20
241.6997852386
 30
0.0
 40
0.1144959667858901
100
AcDbArc
 50
235.0148384956
 51
0.0055551058
  0
LINE
  5
290
330
1F
100
AcDbEntity
  8
0
  6
Continuous
 62
     7
370
    25
100
AcDbLine
 10
104.0332437632
 20
241.6997963395
 30
0.0
 11
104.0332437632
 21
243.278484961
 31
0.0
  0
ARC
  5
291
330
1F
100
AcDbEntity
  8
0
  6
Continuous
 62
     7
370
    25
100
AcDbCircle
 10
103.7473379434
 20
243.2786325592
 30
0.0
 40
0.2859058578939089
100
AcDbArc
 50
359.9704211933
 51
60.0347993795
  0
LINE
  5
292
330
1F
100
AcDbEntity
  8
0
  6
Continuous
 62
     7
370
    25
100
AcDbLine
 10
103.8901404617
 20
243.526321074
 30
0.0
 11
103.7925937352
 21
243.582707068
 31
0.0
  0
LINE
  5
293
330
1F
100
AcDbEntity
  8
0
  6
Continuous
 62
     7
370
    25
100
AcDbLine
 10
103.7925937352
 20
243.582707068
 30
0.0
 11
103.7925937352
 21
244.259577414
 31
0.0
  0
LINE
  5
294
330
1F
100
AcDbEntity
  8
0
  6
Continuous
 62
     7
370
    25
100
AcDbLine
 10
103.7925937352
 20
244.259577414
 30
0.0
 11
103.8901404617
 21
244.3158441987
 31
0.0
  0
ARC
  5
295
330
1F
100
AcDbEntity
  8
0
  6
Continuous
 62
     7
370
    25
100
AcDbCircle
 10
103.7469528612
 20
244.5637550569
 30
0.0
 40
0.2862909054593984
100
AcDbArc
 50
300.0097404759
 51
0.0088986511
  0
LINE
  5
296
330
1F
100
AcDbEntity
  8
0
  6
Continuous
 62
     7
370
    25
100
AcDbLine
 10
104.0332437632
 20
244.563799521
 30
0.0
 11
104.0332437632
 21
246.5131098237
 31
0.0
  0
ARC
  5
297
330
1F
100
AcDbEntity
  8
0
  6
Continuous
 62
     7
370
    25
100
AcDbCircle
 10
103.746952844
 20
246.5130350612
 30
0.0
 40
0.286290929011831
100
AcDbArc
 50
0.0149623116
 51
59.9902582613
  0
LINE
  5
298
330
1F
100
AcDbEntity
  8
0
  6
Continuous
 62
     7
370
    25
100
AcDbLine
 10
103.8901404617
 20
246.7609459367
 30
0.0
 11
103.7925937352
 21
246.8172127213
 31
0.0
  0
LINE
  5
299
330
1F
100
AcDbEntity
  8
0
  6
Continuous
 62
     7
370
    25
100
AcDbLine
 10
103.7925937352
 20
246.8172127213
 30
0.0
 11
103.7925937352
 21
247.4942022767
 31
0.0
  0
LINE
  5
29A
330
1F
100
AcDbEntity
  8
0
  6
Continuous
 62
     7
370
    25
100
AcDbLine
 10
103.7925937352
 20
247.4942022767
 30
0.0
 11
105.1921592233
 21
248.3022028413
 31
0.0
  0
ARC
  5
29B
330
1F
100
AcDbEntity
  8
0
  6
Continuous
 62
     7
370
    25
100
AcDbCircle
 10
105.8791071983
 20
247.1124821072
 30
0.0
 40
1.373802367703394
100
AcDbArc
 50
96.0027295482
 51
120.0022533903
  0
LINE
  5
29C
330
1F
100
AcDbEntity
  8
0
  6
Continuous
 62
     7
370
    25
100
AcDbLine
 10
105.7354406593
 20
248.4787517991
 30
0.0
 11
106.3361586211
 21
248.5418135133
 31
0.0
  0
ARC
  5
29D
330
1F
100
AcDbEntity
  8
0
  6
Continuous
 62
     7
370
    25
100
AcDbCircle
 10
106.5157742872
 20
246.8338396612
 30
0.0
 40
1.717392345019287
100
AcDbArc
 50
81.2935641132
 51
96.0033305601
  0
LINE
  5
29E
330
1F
100
AcDbEntity
  8
0
  6
Continuous
 62
     7
370
    25
100
AcDbLine
 10
107.7372924564
 20
248.3840996232
 30
0.0
 11
106.775739151
 21
248.5314423051
 31
0.0
  0
ARC
  5
29F
330
1F
100
AcDbEntity
  8
0
  6
Continuous
 62
     7
370
    25
100
AcDbCircle
 10
107.6847989911
 20
248.041149671
 30
0.0
 40
0.3469441361364824
100
AcDbArc
 50
359.9974941262
 51
81.2975924466
  0
LINE
  5
2A0
330
1F
100
AcDbEntity
  8
0
  6
Continuous
 62
     7
370
    25
100
AcDbLine
 10
108.0317431269
 20
247.2268158402
 30
0.0
 11
108.0317431269
 21
248.0411344972
 31
0.0
  0
ARC
  5
2A1
330
1F
100
AcDbEntity
  8
0
  6
Continuous
 62
     7
370
    25
100
AcDbCircle
 10
108.2605927498
 20
247.2267506743
 30
0.0
 40
0.2288496321630181
100
AcDbArc
 50
179.9836847798
 51
208.0065840112
  0
LINE
  5
2A2
330
1F
100
AcDbEntity
  8
0
  6
Continuous
 62
     7
370
    25
100
AcDbLine
 10
109.389462429
 20
244.6162516084
 30
0.0
 11
108.0585428653
 21
247.1192890611
 31
0.0
  0
ARC
  5
2A3
330
1F
100
AcDbEntity
  8
0
  6
Continuous
 62
     7
370
    25
100
AcDbCircle
 10
109.894808547
 20
244.8847782194
 30
0.0
 40
0.5722597660381745
100
AcDbArc
 50
207.9849109254
 51
256.2335869681
  0
ARC
  5
2A4
330
1F
100
AcDbEntity
  8
0
  6
Continuous
 62
     7
370
    25
100
AcDbCircle
 10
109.6769056117
 20
243.9953978927
 30
0.0
 40
0.3434252533896919
100
AcDbArc
 50
258.9970021736
 51
76.2331159555
  0
LINE
  5
2A5
330
1F
100
AcDbEntity
  8
0
  6
Continuous
 62
     7
370
    25
100
AcDbLine
 10
109.6113593457
 20
243.6582857575
 30
0.0
 11
109.06089555
 21
243.7653356995
 31
0.0
  0
ARC
  5
2A6
330
1F
100
AcDbEntity
  8
0
  6
Continuous
 62
     7
370
    25
100
AcDbCircle
 10
108.9517799478
 20
243.2033295495
 30
0.0
 40
0.5725007662373574
100
AcDbArc
 50
79.0125087431
 51
179.9946398127
  0
LINE
  5
2A7
330
1F
100
AcDbEntity
  8
0
  6
Continuous
 62
     7
370
    25
100
AcDbLine
 10
108.3792791841
 20
241.0318666901
 30
0.0
 11
108.3792791841
 21
243.2033831086
 31
0.0
  0
ARC
  5
2A8
330
1F
100
AcDbEntity
  8
0
  6
Continuous
 62
     7
370
    25
100
AcDbCircle
 10
108.6079133561
 20
241.0317321186
 30
0.0
 40
0.2286342116189156
100
AcDbArc
 50
179.9662763328
 51
226.0961115861
  0
LINE
  5
2A9
330
1F
100
AcDbEntity
  8
0
  6
Continuous
 62
     7
370
    25
100
AcDbLine
 10
108.6474516568
 20
240.6760269608
 30
0.0
 11
108.4493667958
 21
240.8670002427
 31
0.0
  0
ARC
  5
2AA
330
1F
100
AcDbEntity
  8
0
  6
Continuous
 62
     7
370
    25
100
AcDbCircle
 10
108.4488686014
 20
240.4699489785
 30
0.0
 40
0.2861876389246183
100
AcDbArc
 50
345.0014432488
 51
46.0610821087
  0
LINE
  5
2AB
330
1F
100
AcDbEntity
  8
0
  6
Continuous
 62
     7
370
    25
100
AcDbLine
 10
108.6634592292
 20
240.1650959458
 30
0.0
 11
108.7253064988
 21
240.3958851304
 31
0.0
  0
LWPOLYLINE
  5
2AC
330
1F
100
AcDbEntity
  8
0
  6
Continuous
 62
     7
370
    25
100
AcDbPolyline
 90
        3
 70
   128
 43
0.0
 10
108.6632282612
 20
240.0771194901
 10
108.658169317
 20
240.1344591584
 10
108.6634592292
 20
240.1650959458
  0
LINE
  5
2AD
330
1F
100
AcDbEntity
  8
0
  6
Continuous
 62
     7
370
    25
100
AcDbLine
 10
108.8417441723
 20
239.3966728654
 30
0.0
 11
108.6632282612
 21
240.0771194901
 31
0.0
  0
ARC
  5
2AE
330
1F
100
AcDbEntity
  8
0
  6
Continuous
 62
     7
370
    25
100
AcDbCircle
 10
109.0079055583
 20
239.4402991442
 30
0.0
 40
0.1717930685257898
100
AcDbArc
 50
194.7111797554
 51
283.5549211281
  0
LINE
  5
2AF
330
1F
100
AcDbEntity
  8
0
  6
Continuous
 62
     7
370
    25
100
AcDbLine
 10
109.0481699583
 20
239.2732912507
 30
0.0
 11
109.4755985913
 21
239.3765264954
 31
0.0
  0
ARC
  5
2B0
330
1F
100
AcDbEntity
  8
0
  6
Continuous
 62
     7
370
    25
100
AcDbCircle
 10
109.5294948363
 20
239.1541093085
 30
0.0
 40
0.2288541244032757
100
AcDbArc
 50
345.8832218813
 51
103.6213809075
  0
LINE
  5
2B1
330
1F
100
AcDbEntity
  8
0
  6
Continuous
 62
     7
370
    25
100
AcDbLine
 10
108.4493667958
 20
240.8670002427
 30
0.0
 11
184.3358175037
 21
240.8670002427
 31
0.0
  0
LINE
  5
2B2
330
1F
100
AcDbEntity
  8
0
  6
Continuous
 62
     7
370
    25
100
AcDbLine
 10
185.0478918431
 20
248.3840996232
 30
0.0
 11
107.7372924564
 21
248.3840996232
 31
0.0
  0
LINE
  5
2B3
330
1F
100
AcDbEntity
  8
0
  6
Continuous
 62
     7
370
    25
100
AcDbLine
 10
186.7593051074
 20
234.9521929231
 30
0.0
 11
106.0258791921
 21
234.9521929231
 31
0.0
  0
LINE
  5
2B4
330
1F
100
AcDbEntity
  8
0
  6
Continuous
 62
     7
370
    25
100
AcDbLine
 10
103.7925937352
 20
241.6482979264
 30
0.0
 11
104.0210508881
 21
241.6482979264
 31
0.0
  0
LINE
  5
2B5
330
1F
100
AcDbEntity
  8
0
  6
Continuous
 62
     7
370
    25
100
AcDbLine
 10
188.7641334114
 20
241.6482979264
 30
0.0
 11
188.9925905642
 21
241.6482979264
 31
0.0
  0
LINE
  5
2B6
330
1F
100
AcDbEntity
  8
0
  6
Continuous
 62
     7
370
    25
100
AcDbLine
 10
110.0764618394
 20
236.0875421967
 30
0.0
 11
182.70872246
 21
236.0875421967
 31
0.0
  0
LINE
  5
2B7
330
1F
100
AcDbEntity
  8
0
  6
Continuous
 62
     7
370
    25
100
AcDbLine
 10
185.0122184632
 20
235.9490210023
 30
0.0
 11
107.7729658363
 21
235.9490210023
 31
0.0
  0
LINE
  5
2B8
330
1F
100
AcDbEntity
  8
0
  6
Continuous
 62
     7
370
    25
100
AcDbLine
 10
183.1738249538
 20
243.6582857575
 30
0.0
 11
109.742422509
 21
243.6582857575
 31
0.0
  0
LINE
  5
2B9
330
1F
100
AcDbEntity
  8
0
  6
Continuous
 62
     7
370
    25
100
AcDbLine
 10
109.6975625632
 20
237.9157358613
 30
0.0
 11
183.0876217363
 21
237.9157358613
 31
0.0
  0
LINE
  5
2BA
330
1F
100
AcDbEntity
  8
0
  6
Continuous
 62
     7
370
    25
100
AcDbLine
 10
183.0265530524
 20
244.3289572205
 30
0.0
 11
109.758631247
 21
244.3289572205
 31
0.0
  0
ARC
  5
2BB
330
1F
100
AcDbEntity
  8
0
  6
Continuous
 62
     7
370
    25
100
AcDbCircle
 10
187.39245657
 20
251.4637739094
 30
0.0
 40
1.999863618016871
100
AcDbArc
 50
179.9972006433
 51
251.9028590673
  0
ARC
  5
2BC
330
1F
100
AcDbEntity
  8
0
  6
Continuous
 62
     7
370
    25
100
AcDbCircle
 10
105.3927277294
 20
251.4637739094
 30
0.0
 40
1.999863618016871
100
AcDbArc
 50
288.0971409327
 51
0.0027993567
  0
LINE
  5
2BD
330
1F
100
AcDbEntity
  8
0
  6
Continuous
 62
     7
370
    25
100
AcDbLine
 10
183.8925936398
 20
198.8624149766
 30
0.0
 11
183.8925936398
 21
175.6185704675
 31
0.0
  0
LINE
  5
2BE
330
1F
100
AcDbEntity
  8
0
  6
Continuous
 62
     7
370
    25
100
AcDbLine
 10
108.8925906596
 20
176.4266902413
 30
0.0
 11
108.8925906596
 21
198.8624149766
 31
0.0
  0
ARC
  5
2BF
330
1F
100
AcDbEntity
  8
0
  6
Continuous
 62
     7
370
    25
100
AcDbCircle
 10
186.9924264576
 20
246.3341768973
 30
0.0
 40
2.000164110141117
100
AcDbArc
 50
0.0034085917
 51
71.8965039591
  0
ARC
  5
2C0
330
1F
100
AcDbEntity
  8
0
  6
Continuous
 62
     7
370
    25
100
AcDbCircle
 10
105.7927578418
 20
246.3341768973
 30
0.0
 40
2.000164110141103
100
AcDbArc
 50
108.1034960409
 51
179.9965914083
  0
ARC
  5
2C1
330
1F
100
AcDbEntity
  8
0
  6
Continuous
 62
     7
370
    25
100
AcDbCircle
 10
186.9926484549
 20
246.334275001
 30
0.0
 40
2.999944135981982
100
AcDbArc
 50
0.000398946
 51
71.9007991461
  0
ARC
  5
2C2
330
1F
100
AcDbEntity
  8
0
  6
Continuous
 62
     7
370
    25
100
AcDbCircle
 10
105.7925358446
 20
246.334275001
 30
0.0
 40
2.999944135981982
100
AcDbArc
 50
108.0992008539
 51
179.999601054
  0
ARC
  5
2C3
330
1F
100
AcDbEntity
  8
0
  6
Continuous
 62
     7
370
    25
100
AcDbCircle
 10
187.3925350662
 20
251.4637733013
 30
0.0
 40
2.999944140020218
100
AcDbArc
 50
179.9981222394
 51
251.900799121
  0
ARC
  5
2C4
330
1F
100
AcDbEntity
  8
0
  6
Continuous
 62
     7
370
    25
100
AcDbCircle
 10
105.3926492332
 20
251.4637733013
 30
0.0
 40
2.999944140020218
100
AcDbArc
 50
288.099200879
 51
0.0018777606
  0
ARC
  5
2C5
330
1F
100
AcDbEntity
  8
0
  6
Continuous
 62
     7
370
    25
100
AcDbCircle
 10
185.89268899
 20
198.8623683662
 30
0.0
 40
3.000097377117709
100
AcDbArc
 50
163.0002920941
 51
179.999109836
  0
ARC
  5
2C6
330
1F
100
AcDbEntity
  8
0
  6
Continuous
 62
     7
370
    25
100
AcDbCircle
 10
106.8924953094
 20
198.8623683662
 30
0.0
 40
3.000097377117709
100
AcDbArc
 50
0.000890164
 51
16.9997079059
  0
ARC
  5
2C7
330
1F
100
AcDbEntity
  8
0
  6
Continuous
 62
     7
370
    25
100
AcDbCircle
 10
186.9926423612
 20
234.2213411494
 30
0.0
 40
1.9999482031645
100
AcDbArc
 50
287.3989780878
 51
359.9994161229
  0
ARC
  5
2C8
330
1F
100
AcDbEntity
  8
0
  6
Continuous
 62
     7
370
    25
100
AcDbCircle
 10
105.7925419383
 20
234.2213411494
 30
0.0
 40
1.999948203164481
100
AcDbArc
 50
180.0005838771
 51
252.6010219122
  0
LINE
  5
2C9
330
1F
100
AcDbEntity
  8
0
  6
Continuous
 62
     7
370
    25
100
AcDbLine
 10
185.3925929544
 20
255.3133779969
 30
0.0
 11
185.3925929544
 21
251.4638716187
 31
0.0
  0
LINE
  5
2CA
330
1F
100
AcDbEntity
  8
0
  6
Continuous
 62
     7
370
    25
100
AcDbLine
 10
107.3925913451
 20
251.4638716187
 30
0.0
 11
107.3925913451
 21
255.3133779969
 31
0.0
  0
ARC
  5
2CB
330
1F
100
AcDbEntity
  8
0
  6
Continuous
 62
     7
370
    25
100
AcDbCircle
 10
187.1925414976
 20
229.044279361
 30
0.0
 40
1.999948203887866
100
AcDbArc
 50
107.3989780946
 51
180.0011236967
  0
ARC
  5
2CC
330
1F
100
AcDbEntity
  8
0
  6
Continuous
 62
     7
370
    25
100
AcDbCircle
 10
105.5926428018
 20
229.044279361
 30
0.0
 40
1.999948203887866
100
AcDbArc
 50
359.9988763033
 51
72.6010219054
  0
ARC
  5
2CD
330
1F
100
AcDbEntity
  8
0
  6
Continuous
 62
     7
370
    25
100
AcDbCircle
 10
187.1926634721
 20
229.0442174961
 30
0.0
 40
3.000072204649666
100
AcDbArc
 50
107.4010065242
 51
179.9995675895
  0
ARC
  5
2CE
330
1F
100
AcDbEntity
  8
0
  6
Continuous
 62
     7
370
    25
100
AcDbCircle
 10
105.5925208273
 20
229.0442174961
 30
0.0
 40
3.000072204649702
100
AcDbArc
 50
0.0004324105
 51
72.5989934758
  0
ARC
  5
2CF
330
1F
100
AcDbEntity
  8
0
  6
Continuous
 62
     7
370
    25
100
AcDbCircle
 10
186.9925203846
 20
234.2214030173
 30
0.0
 40
3.00007220733435
100
AcDbArc
 50
287.401006541
 51
359.9984292081
  0
ARC
  5
2D0
330
1F
100
AcDbEntity
  8
0
  6
Continuous
 62
     7
370
    25
100
AcDbCircle
 10
105.7926639149
 20
234.2214030173
 30
0.0
 40
3.000072207334335
100
AcDbArc
 50
180.0015707919
 51
252.598993459
  0
ARC
  5
2D1
330
1F
100
AcDbEntity
  8
0
  6
Continuous
 62
     7
370
    25
100
AcDbCircle
 10
182.1917024963
 20
203.8618601355
 30
0.0
 40
3.000890799692436
100
AcDbArc
 50
343.0025561001
 51
359.9979842005
  0
ARC
  5
2D2
330
1F
100
AcDbEntity
  8
0
  6
Continuous
 62
     7
370
    25
100
AcDbCircle
 10
110.5934818032
 20
203.8618601355
 30
0.0
 40
3.000890799692504
100
AcDbArc
 50
180.0020157995
 51
196.9974438999
  0
ARC
  5
2D3
330
1F
100
AcDbEntity
  8
0
  6
Continuous
 62
     7
370
    25
100
AcDbCircle
 10
185.8929205643
 20
198.8623528694
 30
0.0
 40
2.000326925404285
100
AcDbArc
 50
163.0016569577
 51
179.9982210508
  0
ARC
  5
2D4
330
1F
100
AcDbEntity
  8
0
  6
Continuous
 62
     7
370
    25
100
AcDbCircle
 10
106.8922637352
 20
198.8623528694
 30
0.0
 40
2.000326925404271
100
AcDbArc
 50
0.0017789492
 51
16.9983430423
  0
ARC
  5
2D5
330
1F
100
AcDbEntity
  8
0
  6
Continuous
 62
     7
370
    25
100
AcDbCircle
 10
182.1930576235
 20
203.8616981069
 30
0.0
 40
1.999533644892168
100
AcDbArc
 50
342.9982604518
 51
0.0016175566
  0
ARC
  5
2D6
330
1F
100
AcDbEntity
  8
0
  6
Continuous
 62
     7
370
    25
100
AcDbCircle
 10
110.592126676
 20
203.8616981069
 30
0.0
 40
1.999533644892154
100
AcDbArc
 50
179.9983824434
 51
197.0017395482
  0
LINE
  5
2D7
330
1F
100
AcDbEntity
  8
0
  6
Continuous
 62
     7
370
    25
100
AcDbLine
 10
184.3925909278
 20
255.3133779969
 30
0.0
 11
184.3925909278
 21
251.4638716187
 31
0.0
  0
LINE
  5
2D8
330
1F
100
AcDbEntity
  8
0
  6
Continuous
 62
     7
370
    25
100
AcDbLine
 10
184.3925909278
 20
255.3133779969
 30
0.0
 11
185.3925929544
 21
255.3133779969
 31
0.0
  0
LINE
  5
2D9
330
1F
100
AcDbEntity
  8
0
  6
Continuous
 62
     7
370
    25
100
AcDbLine
 10
186.7712409375
 20
249.5628410783
 30
0.0
 11
187.9246206162
 21
249.1857820954
 31
0.0
  0
LINE
  5
2DA
330
1F
100
AcDbEntity
  8
0
  6
Continuous
 62
     7
370
    25
100
AcDbLine
 10
189.9925925908
 20
246.3342958894
 30
0.0
 11
189.9925925908
 21
234.2213207688
 31
0.0
  0
LINE
  5
2DB
330
1F
100
AcDbEntity
  8
0
  6
Continuous
 62
     7
370
    25
100
AcDbLine
 10
187.8897146461
 20
231.3586288895
 30
0.0
 11
186.5945094404
 21
230.9527212586
 31
0.0
  0
LINE
  5
2DC
330
1F
100
AcDbEntity
  8
0
  6
Continuous
 62
     7
370
    25
100
AcDbLine
 10
185.1925932941
 20
229.0442401376
 30
0.0
 11
185.1925932941
 21
203.8617545571
 31
0.0
  0
LINE
  5
2DD
330
1F
100
AcDbEntity
  8
0
  6
Continuous
 62
     7
370
    25
100
AcDbLine
 10
185.0615077791
 20
202.9846126046
 30
0.0
 11
183.9799814997
 21
199.4471365418
 31
0.0
  0
LINE
  5
2DE
330
1F
100
AcDbEntity
  8
0
  6
Continuous
 62
     7
370
    25
100
AcDbLine
 10
182.8925916133
 20
198.8624149766
 30
0.0
 11
182.8925916133
 21
175.2391869035
 31
0.0
  0
LINE
  5
2DF
330
1F
100
AcDbEntity
  8
0
  6
Continuous
 62
     7
370
    25
100
AcDbLine
 10
184.1052034078
 20
203.2770329919
 30
0.0
 11
183.0236771283
 21
199.7394973245
 31
0.0
  0
LINE
  5
2E0
330
1F
100
AcDbEntity
  8
0
  6
Continuous
 62
     7
370
    25
100
AcDbLine
 10
184.1925912676
 20
229.0442401376
 30
0.0
 11
184.1925912676
 21
203.8617545571
 31
0.0
  0
LINE
  5
2E1
330
1F
100
AcDbEntity
  8
0
  6
Continuous
 62
     7
370
    25
100
AcDbLine
 10
187.590674418
 20
232.3128992524
 30
0.0
 11
186.2954692123
 21
231.9069916215
 31
0.0
  0
LINE
  5
2E2
330
1F
100
AcDbEntity
  8
0
  6
Continuous
 62
     7
370
    25
100
AcDbLine
 10
188.9925905642
 20
246.3342958894
 30
0.0
 11
188.9925905642
 21
234.2213207688
 31
0.0
  0
LINE
  5
2E3
330
1F
100
AcDbEntity
  8
0
  6
Continuous
 62
     7
370
    25
100
AcDbLine
 10
186.4605629024
 20
248.6122662034
 30
0.0
 11
187.6139463065
 21
248.2353264298
 31
0.0
  0
LINE
  5
2E4
330
1F
100
AcDbEntity
  8
0
  6
Continuous
 62
     7
370
    25
100
AcDbLine
 10
109.8925926862
 20
176.8060142007
 30
0.0
 11
109.8925926862
 21
198.8624149766
 31
0.0
  0
LINE
  5
2E5
330
1F
100
AcDbEntity
  8
0
  6
Continuous
 62
     7
370
    25
100
AcDbLine
 10
102.7925917087
 20
234.2213207688
 30
0.0
 11
102.7925917087
 21
246.3342958894
 31
0.0
  0
LINE
  5
2E6
330
1F
100
AcDbEntity
  8
0
  6
Continuous
 62
     7
370
    25
100
AcDbLine
 10
103.7925937352
 20
234.2213207688
 30
0.0
 11
103.7925937352
 21
246.3342958894
 31
0.0
  0
LINE
  5
2E7
330
1F
100
AcDbEntity
  8
0
  6
Continuous
 62
     7
370
    25
100
AcDbLine
 10
106.4897150872
 20
231.9069916215
 30
0.0
 11
105.1945098815
 21
232.3128992524
 31
0.0
  0
LINE
  5
2E8
330
1F
100
AcDbEntity
  8
0
  6
Continuous
 62
     7
370
    25
100
AcDbLine
 10
108.5925930319
 20
203.8617545571
 30
0.0
 11
108.5925930319
 21
229.0442401376
 31
0.0
  0
LINE
  5
2E9
330
1F
100
AcDbEntity
  8
0
  6
Continuous
 62
     7
370
    25
100
AcDbLine
 10
109.7615071712
 20
199.7394973245
 30
0.0
 11
108.6799808917
 21
203.2770329919
 31
0.0
  0
LINE
  5
2EA
330
1F
100
AcDbEntity
  8
0
  6
Continuous
 62
     7
370
    25
100
AcDbLine
 10
108.8052027998
 20
199.4471365418
 30
0.0
 11
107.7236765203
 21
202.9846126046
 31
0.0
  0
LINE
  5
2EB
330
1F
100
AcDbEntity
  8
0
  6
Continuous
 62
     7
370
    25
100
AcDbLine
 10
107.5925910053
 20
203.8617545571
 30
0.0
 11
107.5925910053
 21
229.0442401376
 31
0.0
  0
LINE
  5
2EC
330
1F
100
AcDbEntity
  8
0
  6
Continuous
 62
     7
370
    25
100
AcDbLine
 10
106.190674859
 20
230.9527212586
 30
0.0
 11
104.8954696534
 21
231.3586288895
 31
0.0
  0
LINE
  5
2ED
330
1F
100
AcDbEntity
  8
0
  6
Continuous
 62
     7
370
    25
100
AcDbLine
 10
104.8605636833
 20
249.1857820954
 30
0.0
 11
106.013943362
 21
249.5628410783
 31
0.0
  0
LINE
  5
2EE
330
1F
100
AcDbEntity
  8
0
  6
Continuous
 62
     7
370
    25
100
AcDbLine
 10
107.3925913451
 20
255.3133779969
 30
0.0
 11
108.3925933716
 21
255.3133779969
 31
0.0
  0
LINE
  5
2EF
330
1F
100
AcDbEntity
  8
0
  6
Continuous
 62
     7
370
    25
100
AcDbLine
 10
108.3925933716
 20
251.4638716187
 30
0.0
 11
108.3925933716
 21
255.3133779969
 31
0.0
  0
LINE
  5
2F0
330
1F
100
AcDbEntity
  8
0
  6
Continuous
 62
     7
370
    25
100
AcDbLine
 10
105.171237993
 20
248.2353264298
 30
0.0
 11
106.324621397
 21
248.6122662034
 31
0.0
  0
LINE
  5
2F1
330
1F
100
AcDbEntity
  8
0
  6
Continuous
 62
     7
370
    25
100
AcDbLine
 10
108.3925933716
 20
255.3133779969
 30
0.0
 11
184.3925909278
 21
255.3133779969
 31
0.0
  0
LINE
  5
2F2
330
1F
100
AcDbEntity
  8
0
  6
Continuous
 62
     8
370
    18
100
AcDbLine
 10
186.6957963583
 20
232.3047930207
 30
0.0
 11
106.0893879411
 21
232.3047930207
 31
0.0
  0
LINE
  5
2F3
330
1F
100
AcDbEntity
  8
0
  6
Continuous
 62
     8
370
    18
100
AcDbLine
 10
188.9320843992
 20
241.6059786286
 30
0.0
 11
188.8007604656
 21
241.6059786286
 31
0.0
  0
LINE
  5
2F4
330
1F
100
AcDbEntity
  8
0
  6
Continuous
 62
     8
370
    18
100
AcDbLine
 10
103.9844238338
 20
241.6059786286
 30
0.0
 11
103.8530999002
 21
241.6059786286
 31
0.0
  0
LINE
  5
2F5
330
1F
100
AcDbEntity
  8
0
  6
Continuous
 62
     8
370
    18
100
AcDbLine
 10
187.1421606419
 20
236.4351564851
 30
0.0
 11
185.6126197753
 21
236.4351564851
 31
0.0
  0
LINE
  5
2F6
330
1F
100
AcDbEntity
  8
0
  6
Continuous
 62
     8
370
    18
100
AcDbLine
 10
107.1725645242
 20
236.4351564851
 30
0.0
 11
105.6430236576
 21
236.4351564851
 31
0.0
  0
LINE
  5
2F7
330
1F
100
AcDbEntity
  8
0
  6
Continuous
 62
     8
370
    18
100
AcDbLine
 10
106.775739151
 20
248.5314423051
 30
0.0
 11
186.0094451485
 21
248.5314423051
 31
0.0
  0
LINE
  5
2F8
330
1F
100
AcDbEntity
  8
0
  6
Continuous
 62
     8
370
    18
100
AcDbLine
 10
108.3792791841
 20
241.0318666901
 30
0.0
 11
184.4059051154
 21
241.0318666901
 31
0.0
  0
LINE
  5
2F9
330
1F
100
AcDbEntity
  8
0
  6
Continuous
 62
     8
370
    18
100
AcDbLine
 10
108.8417441723
 20
239.3966728654
 30
0.0
 11
183.9434401271
 21
239.3966728654
 31
0.0
  0
LINE
  5
2FA
330
1F
100
AcDbEntity
  8
0
  6
Continuous
 62
     8
370
    18
100
AcDbLine
 10
108.7253064988
 20
240.3958851304
 30
0.0
 11
184.0598778007
 21
240.3958851304
 31
0.0
  0
LINE
  5
2FB
330
1F
100
AcDbEntity
  8
0
  6
Continuous
 62
     8
370
    18
100
AcDbLine
 10
184.1377326426
 20
240.6760269608
 30
0.0
 11
108.6474516568
 21
240.6760269608
 31
0.0
  0
LINE
  5
2FC
330
1F
100
AcDbEntity
  8
0
  6
Continuous
 62
     8
370
    18
100
AcDbLine
 10
108.3792791841
 20
243.2033831086
 30
0.0
 11
184.4059051154
 21
243.2033831086
 31
0.0
  0
LINE
  5
2FD
330
1F
100
AcDbEntity
  8
0
  6
Continuous
 62
     8
370
    18
100
AcDbLine
 10
109.7514377115
 20
239.0982920136
 30
0.0
 11
183.033746588
 21
239.0982920136
 31
0.0
  0
LINE
  5
2FE
330
1F
100
AcDbEntity
  8
0
  6
Continuous
 62
     8
370
    18
100
AcDbLine
 10
108.0317431269
 20
248.0411344972
 30
0.0
 11
184.7534411726
 21
248.0411344972
 31
0.0
  0
LINE
  5
2FF
330
1F
100
AcDbEntity
  8
0
  6
Continuous
 62
     8
370
    18
100
AcDbLine
 10
106.1615468142
 20
235.1871544328
 30
0.0
 11
186.6236374853
 21
235.1871544328
 31
0.0
  0
LINE
  5
300
330
1F
100
AcDbEntity
  8
0
  6
Continuous
 62
     8
370
    18
100
AcDbLine
 10
108.6632282612
 20
240.0771194901
 30
0.0
 11
184.1219560382
 21
240.0771194901
 31
0.0
  0
LINE
  5
301
330
1F
100
AcDbEntity
  8
0
  6
Continuous
 62
     8
370
    18
100
AcDbLine
 10
109.5374942896
 20
238.2464224305
 30
0.0
 11
183.2476900098
 21
238.2464224305
 31
0.0
  0
LINE
  5
302
330
1F
100
AcDbEntity
  8
0
  6
Continuous
 62
     8
370
    18
100
AcDbLine
 10
186.6176770208
 20
235.3476101365
 30
0.0
 11
106.1675072787
 21
235.3476101365
 31
0.0
  0
LINE
  5
303
330
1F
100
AcDbEntity
  8
0
  6
Continuous
 62
     8
370
    18
100
AcDbLine
 10
186.7822119174
 20
234.8605209794
 30
0.0
 11
106.0029723821
 21
234.8605209794
 31
0.0
  0
LINE
  5
304
330
1F
100
AcDbEntity
  8
0
  6
Continuous
 62
     8
370
    18
100
AcDbLine
 10
109.389462429
 20
244.6162516084
 30
0.0
 11
183.3957218704
 21
244.6162516084
 31
0.0
  0
LINE
  5
305
330
1F
100
AcDbEntity
  8
0
  6
Continuous
 62
     8
370
    18
100
AcDbLine
 10
108.0585428653
 20
247.1192890611
 30
0.0
 11
184.7266414342
 21
247.1192890611
 31
0.0
  0
LINE
  5
306
330
1F
100
AcDbEntity
  8
0
  6
Continuous
 62
     8
370
    18
100
AcDbLine
 10
108.0317431269
 20
247.2268158402
 30
0.0
 11
184.7534411726
 21
247.2268158402
 31
0.0
  0
LINE
  5
307
330
1F
100
AcDbEntity
  8
0
  6
Continuous
 62
     8
370
    18
100
AcDbLine
 10
108.6634592292
 20
240.1650959458
 30
0.0
 11
184.1217250702
 21
240.1650959458
 31
0.0
  0
LINE
  5
308
330
1F
100
AcDbEntity
  8
0
  6
Continuous
 62
     8
370
    18
100
AcDbLine
 10
110.7865543244
 20
237.4253088441
 30
0.0
 11
181.9986299751
 21
237.4253088441
 31
0.0
  0
LINE
  5
309
330
1F
100
AcDbEntity
  8
0
  6
Continuous
 62
     8
370
    18
100
AcDbLine
 10
111.1766406474
 20
236.7752605882
 30
0.0
 11
181.6085436521
 21
236.7752605882
 31
0.0
  0
LINE
  5
30A
330
1F
100
AcDbEntity
  8
0
  6
Continuous
 62
     8
370
    18
100
AcDbLine
 10
182.4735746858
 20
236.1695581879
 30
0.0
 11
110.3116096137
 21
236.1695581879
 31
0.0
  0
LINE
  5
30B
330
1F
100
AcDbEntity
  8
0
  6
Continuous
 62
     8
370
    18
100
AcDbLine
 10
181.6551917372
 20
237.2706943955
 30
0.0
 11
111.1299925623
 21
237.2706943955
 31
0.0
  0
LINE
  5
30C
330
1F
100
AcDbEntity
  8
0
  6
Continuous
 62
     8
370
    18
100
AcDbLine
 10
103.7925937352
 20
246.3342958894
 30
0.0
 11
104.0332437632
 21
246.3342958894
 31
0.0
  0
LINE
  5
30D
330
1F
100
AcDbEntity
  8
0
  6
Continuous
 62
     8
370
    18
100
AcDbLine
 10
188.7519405363
 20
246.3342958894
 30
0.0
 11
188.9925905642
 21
246.3342958894
 31
0.0
  0
LINE
  5
30E
330
1F
100
AcDbEntity
  8
0
  6
Continuous
 62
     8
370
    18
100
AcDbLine
 10
106.324621397
 20
248.6122662034
 30
0.0
 11
186.4605629024
 21
248.6122662034
 31
0.0
  0
LINE
  5
30F
330
1F
100
AcDbEntity
  8
0
  6
Continuous
 62
     8
370
    18
100
AcDbLine
 10
184.3925909278
 20
251.4638716187
 30
0.0
 11
108.3925933716
 21
251.4638716187
 31
0.0
  0
LINE
  5
310
330
1F
100
AcDbEntity
  8
0
  6
Continuous
 62
     8
370
    18
100
AcDbLine
 10
109.8925926862
 20
198.8624149766
 30
0.0
 11
182.8925916133
 21
198.8624149766
 31
0.0
  0
LINE
  5
311
330
1F
100
AcDbEntity
  8
0
  6
Continuous
 62
     8
370
    18
100
AcDbLine
 10
183.0236771283
 20
199.7394973245
 30
0.0
 11
109.7615071712
 21
199.7394973245
 31
0.0
  0
LINE
  5
312
330
1F
100
AcDbEntity
  8
0
  6
Continuous
 62
     8
370
    18
100
AcDbLine
 10
103.7925937352
 20
234.2213207688
 30
0.0
 11
104.0380866406
 21
234.2213207688
 31
0.0
  0
LINE
  5
313
330
1F
100
AcDbEntity
  8
0
  6
Continuous
 62
     8
370
    18
100
AcDbLine
 10
188.7470976589
 20
234.2213207688
 30
0.0
 11
188.9925905642
 21
234.2213207688
 31
0.0
  0
LINE
  5
314
330
1F
100
AcDbEntity
  8
0
  6
Continuous
 62
     8
370
    18
100
AcDbLine
 10
108.5925930319
 20
229.0442401376
 30
0.0
 11
184.1925912676
 21
229.0442401376
 31
0.0
  0
LINE
  5
315
330
1F
100
AcDbEntity
  8
0
  6
Continuous
 62
     8
370
    18
100
AcDbLine
 10
186.2954692123
 20
231.9069916215
 30
0.0
 11
106.4897150872
 21
231.9069916215
 31
0.0
  0
LINE
  5
316
330
1F
100
AcDbEntity
  8
0
  6
Continuous
 62
     8
370
    18
100
AcDbLine
 10
108.5925930319
 20
203.8617545571
 30
0.0
 11
184.1925912676
 21
203.8617545571
 31
0.0
  0
LINE
  5
317
330
1F
100
AcDbEntity
  8
0
  6
Continuous
 62
     8
370
    18
100
AcDbLine
 10
108.6799808917
 20
203.2770329919
 30
0.0
 11
184.1052034078
 21
203.2770329919
 31
0.0
  0
LINE
  5
318
330
1F
100
AcDbEntity
  8
0
  6
Continuous
 62
     7
370
    25
100
AcDbLine
 10
183.8925936398
 20
165.6185560227
 30
0.0
 11
183.8925936398
 21
141.3554124833
 31
0.0
  0
LINE
  5
319
330
1F
100
AcDbEntity
  8
0
  6
Continuous
 62
     7
370
    25
100
AcDbLine
 10
108.8925906596
 20
141.3554124833
 30
0.0
 11
108.8925906596
 21
166.4266757966
 31
0.0
  0
ARC
  5
31A
330
1F
100
AcDbEntity
  8
0
  6
Continuous
 62
     7
370
    25
100
AcDbCircle
 10
110.8922710933
 20
141.3554752959
 30
0.0
 40
1.99968043466347
100
AcDbArc
 50
180.0017997357
 51
194.0014064483
  0
ARC
  5
31B
330
1F
100
AcDbEntity
  8
0
  6
Continuous
 62
     7
370
    25
100
AcDbCircle
 10
181.8929132062
 20
141.3554752959
 30
0.0
 40
1.99968043466347
100
AcDbArc
 50
345.9985935517
 51
359.9982002643
  0
ARC
  5
31C
330
1F
100
AcDbEntity
  8
0
  6
Continuous
 62
     7
370
    25
100
AcDbCircle
 10
110.892432903
 20
141.3554438896
 30
0.0
 40
0.9998402173317511
100
AcDbArc
 50
180.0017997357
 51
194.0014064483
  0
ARC
  5
31D
330
1F
100
AcDbEntity
  8
0
  6
Continuous
 62
     7
370
    25
100
AcDbCircle
 10
181.8927513965
 20
141.3554438896
 30
0.0
 40
0.9998402173317511
100
AcDbArc
 50
345.9985935517
 51
359.9982002643
  0
LINE
  5
31E
330
1F
100
AcDbEntity
  8
0
  6
Continuous
 62
     7
370
    25
100
AcDbLine
 10
110.3125930903
 20
135.4146175385
 30
0.0
 11
108.9520015893
 21
140.8716611863
 31
0.0
  0
LINE
  5
31F
330
1F
100
AcDbEntity
  8
0
  6
Continuous
 62
     7
370
    25
100
AcDbLine
 10
183.8331827102
 20
140.8716611863
 30
0.0
 11
182.4725912092
 21
135.4146175385
 31
0.0
  0
LINE
  5
320
330
1F
100
AcDbEntity
  8
0
  6
Continuous
 62
     7
370
    25
100
AcDbLine
 10
182.4725912092
 20
135.4146175385
 30
0.0
 11
181.4419784722
 21
135.4146175385
 31
0.0
  0
LINE
  5
321
330
1F
100
AcDbEntity
  8
0
  6
Continuous
 62
     7
370
    25
100
AcDbLine
 10
182.8628861484
 20
141.1135368348
 30
0.0
 11
181.4419784722
 21
135.4146175385
 31
0.0
  0
LINE
  5
322
330
1F
100
AcDbEntity
  8
0
  6
Continuous
 62
     7
370
    25
100
AcDbLine
 10
182.8925916133
 20
165.2392320634
 30
0.0
 11
182.8925916133
 21
141.3554124833
 31
0.0
  0
LINE
  5
323
330
1F
100
AcDbEntity
  8
0
  6
Continuous
 62
     7
370
    25
100
AcDbLine
 10
109.8925926862
 20
141.3554124833
 30
0.0
 11
109.8925926862
 21
166.805999756
 31
0.0
  0
LINE
  5
324
330
1F
100
AcDbEntity
  8
0
  6
Continuous
 62
     7
370
    25
100
AcDbLine
 10
111.3432058272
 20
135.4146175385
 30
0.0
 11
109.922298151
 21
141.1135368348
 31
0.0
  0
LINE
  5
325
330
1F
100
AcDbEntity
  8
0
  6
Continuous
 62
     7
370
    25
100
AcDbLine
 10
111.3432058272
 20
135.4146175385
 30
0.0
 11
110.3125930903
 21
135.4146175385
 31
0.0
  0
LINE
  5
326
330
1F
100
AcDbEntity
  8
0
  6
Continuous
 62
     7
370
    25
100
AcDbLine
 10
181.4419784722
 20
135.4146175385
 30
0.0
 11
111.3432058272
 21
135.4146175385
 31
0.0
  0
LINE
  5
327
330
1F
100
AcDbEntity
  8
0
  6
Continuous
 62
     8
370
    18
100
AcDbLine
 10
109.922298151
 20
141.1135368348
 30
0.0
 11
182.8628861484
 21
141.1135368348
 31
0.0
  0
LINE
  5
328
330
1F
100
AcDbEntity
  8
0
  6
Continuous
 62
     8
370
    18
100
AcDbLine
 10
109.8925926862
 20
141.3554124833
 30
0.0
 11
182.8925916133
 21
141.3554124833
 31
0.0
  0
DIMENSION
  5
329
330
1F
100
AcDbEntity
  8
0
  6
Continuous
 62
     7
370
    18
100
AcDbDimension
  2
_D
 10
184.3925921497
 20
766.2460021698
 30
0.0
 11
146.3925921497
 21
766.2460021698
 31
0.0
 70
   160
  1
%%c<>
 71
     2
 42
-1.0
  3
SLDDIMSTYLE0
100
AcDbAlignedDimension
 13
108.3925921497
 23
756.2460021698
 33
0.0
 14
184.3925921497
 24
756.2460021698
 34
0.0
 50
0.0
100
AcDbRotatedDimension
  0
DIMENSION
  5
335
330
1F
100
AcDbEntity
  8
0
  6
Continuous
 62
     7
370
    18
100
AcDbDimension
  2
_D_1
 10
183.8925921497
 20
624.8371426672
 30
0.0
 11
146.3925921497
 21
624.8371426672
 31
0.0
 70
   160
  1
%%c<>
 71
     2
 42
-1.0
  3
SLDDIMSTYLE0
100
AcDbAlignedDimension
 13
108.8925921497
 23
640.4228714131
 33
0.0
 14
183.8925921497
 24
640.4228714131
 34
0.0
100
AcDbRotatedDimension
  0
DIMENSION
  5
340
330
1F
100
AcDbEntity
  8
0
  6
Continuous
 62
     7
370
    18
100
AcDbDimension
  2
_D_2
 10
200.5501182215
 20
756.2460021698
 30
0.0
 11
200.5501182215
 21
695.3639977677
 31
0.0
 70
   160
  1
1050
 71
     2
 42
-1.0
  3
SLDDIMSTYLE0
100
AcDbAlignedDimension
 13
182.4725921497
 23
634.4819933656
 33
0.0
 14
185.3925921497
 24
756.2460021698
 34
0.0
 50
90.0
100
AcDbRotatedDimension
  0
DIMENSION
  5
34A
330
1F
100
AcDbEntity
  8
0
  6
Continuous
 62
     7
370
    18
100
AcDbDimension
  2
_D_3
 10
198.3692635921
 20
135.4145936967
 30
0.0
 11
198.3692635921
 21
195.3639977677
 31
0.0
 70
   160
  1
2050
 71
     2
 42
-1.0
  3
SLDDIMSTYLE0
100
AcDbAlignedDimension
 13
185.3925921497
 23
255.3134018388
 33
0.0
 14
182.4725921497
 24
135.4145936967
 34
0.0
 50
90.0
100
AcDbRotatedDimension
  0
DIMENSION
  5
354
330
1F
100
AcDbEntity
  8
0
  6
Continuous
 62
     7
370
    18
100
AcDbDimension
  2
_D_4
 10
184.3925921497
 20
266.4036872072
 30
0.0
 11
146.3925921497
 21
266.4036872072
 31
0.0
 70
   160
  1
%%c<>
 71
     2
 42
-1.0
  3
SLDDIMSTYLE0
100
AcDbAlignedDimension
 13
108.3925921497
 23
255.3134018388
 33
0.0
 14
184.3925921497
 24
255.3134018388
 34
0.0
100
AcDbRotatedDimension
  0
DIMENSION
  5
35F
330
1F
100
AcDbEntity
  8
0
  6
Continuous
 62
     7
370
    18
100
AcDbDimension
  2
_D_5
 10
183.8925921497
 20
125.4145936967
 30
0.0
 11
146.3925921497
 21
125.4145936967
 31
0.0
 70
   160
  1
%%c<>
 71
     2
 42
-1.0
  3
SLDDIMSTYLE0
100
AcDbAlignedDimension
 13
108.8925921497
 23
141.3554717441
 33
0.0
 14
183.8925921497
 24
141.3554717441
 34
0.0
100
AcDbRotatedDimension
  0
MTEXT
  5
36A
330
1F
100
AcDbEntity
  8
0
  6
Continuous
 62
     7
370
     0
100
AcDbMText
 10
146.3704464412
 20
279.9693615748
 30
0.0
 40
5.0
 41
0.0
 71
     2
 72
     1
  1
A-A
  7
SLDTEXTSTYLE0
 73
     1
 44
1.0
  0
ARC
  5
36B
330
1F
100
AcDbEntity
  8
0
  6
HIDDEN
 62
     7
370
    18
100
AcDbCircle
 10
165.6425921497
 20
212.2226175228
 30
0.0
 40
50.05000000000001
100
AcDbArc
 50
247.380135052
 51
292.619864948
  0
ARC
  5
36C
330
1F
100
AcDbEntity
  8
0
  6
HIDDEN
 62
     7
370
    18
100
AcDbCircle
 10
127.1425921497
 20
119.8226175228
 30
0.0
 40
50.05000000000002
100
AcDbArc
 50
67.380135052
 51
112.619864948
  0
ARC
  5
36D
330
1F
100
AcDbEntity
  8
0
  6
HIDDEN
 62
     7
370
    18
100
AcDbCircle
 10
165.6425921497
 20
222.2226175228
 30
0.0
 40
50.05000000000001
100
AcDbArc
 50
247.380135052
 51
292.619864948
  0
ARC
  5
36E
330
1F
100
AcDbEntity
  8
0
  6
HIDDEN
 62
     7
370
    18
100
AcDbCircle
 10
127.1425921497
 20
129.8226175228
 30
0.0
 40
50.05000000000002
100
AcDbArc
 50
67.380135052
 51
112.619864948
  0
INSERT
  5
457
330
1F
100
AcDbEntity
  8
0
  6
Continuous
 62
     7
370
    18
100
AcDbBlockReference
  2
SW_HATCH_0
 10
184.5586792705
 20
255.3133779969
 30
0.0
  0
ENDSEC
  0
SECTION
  2
OBJECTS
  0
DICTIONARY
  5
C
330
0
100
AcDbDictionary
281
     1
  3
ACAD_GROUP
350
D
  3
ACAD_LAYOUT
350
1A
  3
ACAD_MLINESTYLE
350
17
  3
ACAD_PLOTSETTINGS
350
19
  3
ACAD_PLOTSTYLENAME
350
E
  3
ACAD_SCALELIST
350
47
  3
DWGPROPS
350
458
  0
DICTIONARY
  5
D
102
{ACAD_REACTORS
330
C
102
}
330
C
100
AcDbDictionary
281
     1
  0
DICTIONARY
  5
1A
102
{ACAD_REACTORS
330
C
102
}
330
C
100
AcDbDictionary
281
     1
  3
Layout1
350
1E
  3
Layout2
350
26
  3
Model
350
22
  0
DICTIONARY
  5
17
102
{ACAD_REACTORS
330
C
102
}
330
C
100
AcDbDictionary
281
     1
  3
Standard
350
18
  0
DICTIONARY
  5
19
102
{ACAD_REACTORS
330
C
102
}
330
C
100
AcDbDictionary
281
     1
  0
ACDBDICTIONARYWDFLT
  5
E
102
{ACAD_REACTORS
330
C
102
}
330
C
100
AcDbDictionary
281
     1
  3
Normal
350
F
100
AcDbDictionaryWithDefault
340
F
  0
DICTIONARY
  5
47
102
{ACAD_REACTORS
330
C
102
}
330
C
100
AcDbDictionary
281
     1
  3
A0
350
48
  3
A1
350
49
  3
A2
350
4A
  3
A3
350
4B
  3
A4
350
4C
  3
A5
350
4D
  3
A6
350
4E
  3
A7
350
4F
  3
A8
350
50
  3
A9
350
51
  3
B0
350
52
  3
B1
350
53
  3
B2
350
54
  3
B3
350
55
  3
B4
350
56
  3
B5
350
57
  3
B6
350
58
  3
B7
350
59
  3
B8
350
5A
  3
B9
350
5B
  3
C0
350
5C
  3
C1
350
5D
  3
C2
350
5E
  3
C3
350
5F
  3
C4
350
60
  3
C5
350
61
  3
C6
350
62
  3
C7
350
63
  3
C8
350
64
  3
C9
350
65
  3
D0
350
66
  3
D1
350
67
  3
D2
350
68
  0
XRECORD
  5
458
102
{ACAD_REACTORS
330
C
102
}
330
C
100
AcDbXrecord
280
     1
  1
DWGPROPS COOKIE
  2

  3

  4

  6

  7

  8
ch-ntl-rs-wscad
  9

300
=
301
=
302
=
303
=
304
=
305
=
306
=
307
=
308
=
309
=
 40
0.0
 41
2460209.551427037
 42
2460209.551438993
  1

 90
        0
  0
LAYOUT
  5
1E
102
{ACAD_REACTORS
330
1A
102
}
330
1A
100
AcDbPlotSettings
  1

  2
none_device
  4

  6

 40
0.0
 41
0.0
 42
0.0
 43
0.0
 44
0.0
 45
0.0
 46
0.0
 47
0.0
 48
0.0
 49
0.0
140
0.0
141
0.0
142
1.0
143
1.0
 70
   688
 72
     1
 73
     0
 74
     5
  7

 75
    16
147
1.0
148
0.0
149
0.0
100
AcDbLayout
  1
Layout1
 70
     1
 71
     1
 10
0.0
 20
0.0
 11
420.0
 21
297.0
 12
0.0
 22
0.0
 32
0.0
 14
1.0000000000E+20
 24
1.0000000000E+20
 34
1.0000000000E+20
 15
-1.0000000000E+20
 25
-1.0000000000E+20
 35
-1.0000000000E+20
146
0.0
 13
0.0
 23
0.0
 33
0.0
 16
1.0
 26
0.0
 36
0.0
 17
0.0
 27
1.0
 37
0.0
 76
     0
330
1B
  0
LAYOUT
  5
26
102
{ACAD_REACTORS
330
1A
102
}
330
1A
100
AcDbPlotSettings
  1

  2
none_device
  4

  6

 40
0.0
 41
0.0
 42
0.0
 43
0.0
 44
0.0
 45
0.0
 46
0.0
 47
0.0
 48
0.0
 49
0.0
140
0.0
141
0.0
142
1.0
143
1.0
 70
   688
 72
     1
 73
     0
 74
     5
  7

 75
    16
147
1.0
148
0.0
149
0.0
100
AcDbLayout
  1
Layout2
 70
     1
 71
     2
 10
0.0
 20
0.0
 11
0.0
 21
0.0
 12
0.0
 22
0.0
 32
0.0
 14
0.0
 24
0.0
 34
0.0
 15
0.0
 25
0.0
 35
0.0
146
0.0
 13
0.0
 23
0.0
 33
0.0
 16
1.0
 26
0.0
 36
0.0
 17
0.0
 27
1.0
 37
0.0
 76
     0
330
23
  0
LAYOUT
  5
22
102
{ACAD_REACTORS
330
1A
102
}
330
1A
100
AcDbPlotSettings
  1

  2
none_device
  4
Letter_(8.50_x_11.00_Inches)
  6

 40
6.35
 41
6.35
 42
6.35000508
 43
6.35000508
 44
215.9
 45
279.4
 46
0.0
 47
0.0
 48
0.0
 49
0.0
140
0.0
141
0.0
142
1.0
143
1.0
 70
  1712
 72
     1
 73
     0
 74
     0
  7

 75
     0
147
1.0
148
0.0
149
0.0
100
AcDbLayout
  1
Model
 70
     1
 71
     0
 10
0.0
 20
0.0
 11
420.0
 21
297.0
 12
0.0
 22
0.0
 32
0.0
 14
0.0
 24
0.0
 34
0.0
 15
420.0
 25
297.0
 35
0.0
146
0.0
 13
0.0
 23
0.0
 33
0.0
 16
1.0
 26
0.0
 36
0.0
 17
0.0
 27
1.0
 37
0.0
 76
     0
330
1F
331
29
  0
MLINESTYLE
  5
18
102
{ACAD_REACTORS
330
17
102
}
330
17
100
AcDbMlineStyle
  2
Standard
 70
     0
  3

 62
   256
 51
90.0
 52
90.0
 71
     2
 49
0.5
 62
   256
  6
BYLAYER
 49
-0.5
 62
   256
  6
BYLAYER
  0
ACDBPLACEHOLDER
  5
F
102
{ACAD_REACTORS
330
E
102
}
330
E
  0
SCALE
  5
48
102
{ACAD_REACTORS
330
47
102
}
330
47
100
AcDbScale
 70
     0
300
1:1
140
1.0
141
1.0
290
     1
  0
SCALE
  5
49
102
{ACAD_REACTORS
330
47
102
}
330
47
100
AcDbScale
 70
     0
300
1:2
140
1.0
141
2.0
290
     0
  0
SCALE
  5
4A
102
{ACAD_REACTORS
330
47
102
}
330
47
100
AcDbScale
 70
     0
300
1:4
140
1.0
141
4.0
290
     0
  0
SCALE
  5
4B
102
{ACAD_REACTORS
330
47
102
}
330
47
100
AcDbScale
 70
     0
300
1:5
140
1.0
141
5.0
290
     0
  0
SCALE
  5
4C
102
{ACAD_REACTORS
330
47
102
}
330
47
100
AcDbScale
 70
     0
300
1:8
140
1.0
141
8.0
290
     0
  0
SCALE
  5
4D
102
{ACAD_REACTORS
330
47
102
}
330
47
100
AcDbScale
 70
     0
300
1:10
140
1.0
141
10.0
290
     0
  0
SCALE
  5
4E
102
{ACAD_REACTORS
330
47
102
}
330
47
100
AcDbScale
 70
     0
300
1:16
140
1.0
141
16.0
290
     0
  0
SCALE
  5
4F
102
{ACAD_REACTORS
330
47
102
}
330
47
100
AcDbScale
 70
     0
300
1:20
140
1.0
141
20.0
290
     0
  0
SCALE
  5
50
102
{ACAD_REACTORS
330
47
102
}
330
47
100
AcDbScale
 70
     0
300
1:30
140
1.0
141
30.0
290
     0
  0
SCALE
  5
51
102
{ACAD_REACTORS
330
47
102
}
330
47
100
AcDbScale
 70
     0
300
1:40
140
1.0
141
40.0
290
     0
  0
SCALE
  5
52
102
{ACAD_REACTORS
330
47
102
}
330
47
100
AcDbScale
 70
     0
300
1:50
140
1.0
141
50.0
290
     0
  0
SCALE
  5
53
102
{ACAD_REACTORS
330
47
102
}
330
47
100
AcDbScale
 70
     0
300
1:100
140
1.0
141
100.0
290
     0
  0
SCALE
  5
54
102
{ACAD_REACTORS
330
47
102
}
330
47
100
AcDbScale
 70
     0
300
2:1
140
2.0
141
1.0
290
     0
  0
SCALE
  5
55
102
{ACAD_REACTORS
330
47
102
}
330
47
100
AcDbScale
 70
     0
300
4:1
140
4.0
141
1.0
290
     0
  0
SCALE
  5
56
102
{ACAD_REACTORS
330
47
102
}
330
47
100
AcDbScale
 70
     0
300
8:1
140
8.0
141
1.0
290
     0
  0
SCALE
  5
57
102
{ACAD_REACTORS
330
47
102
}
330
47
100
AcDbScale
 70
     0
300
10:1
140
10.0
141
1.0
290
     0
  0
SCALE
  5
58
102
{ACAD_REACTORS
330
47
102
}
330
47
100
AcDbScale
 70
     0
300
100:1
140
100.0
141
1.0
290
     0
  0
SCALE
  5
59
102
{ACAD_REACTORS
330
47
102
}
330
47
100
AcDbScale
 70
     0
300
1/128" = 1'-0"
140
0.0078125
141
12.0
290
     0
  0
SCALE
  5
5A
102
{ACAD_REACTORS
330
47
102
}
330
47
100
AcDbScale
 70
     0
300
1/64" = 1'-0"
140
0.015625
141
12.0
290
     0
  0
SCALE
  5
5B
102
{ACAD_REACTORS
330
47
102
}
330
47
100
AcDbScale
 70
     0
300
1/32" = 1'-0"
140
0.03125
141
12.0
290
     0
  0
SCALE
  5
5C
102
{ACAD_REACTORS
330
47
102
}
330
47
100
AcDbScale
 70
     0
300
1/16" = 1'-0"
140
0.0625
141
12.0
290
     0
  0
SCALE
  5
5D
102
{ACAD_REACTORS
330
47
102
}
330
47
100
AcDbScale
 70
     0
300
3/32" = 1'-0"
140
0.09375
141
12.0
290
     0
  0
SCALE
  5
5E
102
{ACAD_REACTORS
330
47
102
}
330
47
100
AcDbScale
 70
     0
300
1/8" = 1'-0"
140
0.125
141
12.0
290
     0
  0
SCALE
  5
5F
102
{ACAD_REACTORS
330
47
102
}
330
47
100
AcDbScale
 70
     0
300
3/16" = 1'-0"
140
0.1875
141
12.0
290
     0
  0
SCALE
  5
60
102
{ACAD_REACTORS
330
47
102
}
330
47
100
AcDbScale
 70
     0
300
1/4" = 1'-0"
140
0.25
141
12.0
290
     0
  0
SCALE
  5
61
102
{ACAD_REACTORS
330
47
102
}
330
47
100
AcDbScale
 70
     0
300
3/8" = 1'-0"
140
0.375
141
12.0
290
     0
  0
SCALE
  5
62
102
{ACAD_REACTORS
330
47
102
}
330
47
100
AcDbScale
 70
     0
300
1/2" = 1'-0"
140
0.5
141
12.0
290
     0
  0
SCALE
  5
63
102
{ACAD_REACTORS
330
47
102
}
330
47
100
AcDbScale
 70
     0
300
3/4" = 1'-0"
140
0.75
141
12.0
290
     0
  0
SCALE
  5
64
102
{ACAD_REACTORS
330
47
102
}
330
47
100
AcDbScale
 70
     0
300
1" = 1'-0"
140
1.0
141
12.0
290
     0
  0
SCALE
  5
65
102
{ACAD_REACTORS
330
47
102
}
330
47
100
AcDbScale
 70
     0
300
1-1/2" = 1'-0"
140
1.5
141
12.0
290
     0
  0
SCALE
  5
66
102
{ACAD_REACTORS
330
47
102
}
330
47
100
AcDbScale
 70
     0
300
3" = 1'-0"
140
3.0
141
12.0
290
     0
  0
SCALE
  5
67
102
{ACAD_REACTORS
330
47
102
}
330
47
100
AcDbScale
 70
     0
300
6" = 1'-0"
140
6.0
141
12.0
290
     0
  0
SCALE
  5
68
102
{ACAD_REACTORS
330
47
102
}
330
47
100
AcDbScale
 70
     0
300
1'-0" = 1'-0"
140
12.0
141
12.0
290
     0
  0
ENDSEC
  0
EOF
